  0
SECTION
  2
HEADER
  9
$ACADVER
  1
AC1021
  9
$ACADMAINTVER
 70
    26
  9
$DWGCODEPAGE
  3
ANSI_932
  9
$LASTSAVEDBY
  1
Htm_Terada
  9
$CUSTOMPROPERTYTAG
  1
AmdtFileType
  9
$CUSTOMPROPERTY
  1
84
  9
$INSBASE
 10
0.0
 20
0.0
 30
0.0
  9
$EXTMIN
 10
555.498184994885
 20
848.1324067022407
 30
0.0
  9
$EXTMAX
 10
1588.696854343039
 20
1339.181877353178
 30
0.0
  9
$LIMMIN
 10
0.0000009571692772
 20
0.0000018469103225
  9
$LIMMAX
 10
2100.000000957169
 20
1485.00000184691
  9
$ORTHOMODE
 70
     0
  9
$REGENMODE
 70
     1
  9
$FILLMODE
 70
     1
  9
$QTEXTMODE
 70
     0
  9
$MIRRTEXT
 70
     1
  9
$LTSCALE
 40
5.0
  9
$ATTMODE
 70
     1
  9
$TEXTSIZE
 40
25.0
  9
$TRACEWID
 40
1.0
  9
$TEXTSTYLE
  7
SEISA
  9
$CLAYER
  8
AM_0 外形線1
  9
$CELTYPE
  6
ByLayer
  9
$CECOLOR
 62
   256
  9
$CELTSCALE
 40
1.0
  9
$DISPSILH
 70
     0
  9
$DIMSCALE
 40
5.0
  9
$DIMASZ
 40
2.5
  9
$DIMEXO
 40
0.625
  9
$DIMDLI
 40
10.0
  9
$DIMRND
 40
0.0
  9
$DIMDLE
 40
0.0
  9
$DIMEXE
 40
0.625
  9
$DIMTP
 40
0.1
  9
$DIMTM
 40
0.1
  9
$DIMTXT
 40
3.5
  9
$DIMCEN
 40
0.0
  9
$DIMTSZ
 40
0.0
  9
$DIMTOL
 70
     0
  9
$DIMLIM
 70
     0
  9
$DIMTIH
 70
     0
  9
$DIMTOH
 70
     0
  9
$DIMSE1
 70
     0
  9
$DIMSE2
 70
     0
  9
$DIMTAD
 70
     3
  9
$DIMZIN
 70
     8
  9
$DIMBLK
  1
Open30
  9
$DIMASO
 70
     1
  9
$DIMSHO
 70
     1
  9
$DIMPOST
  1

  9
$DIMAPOST
  1
"
  9
$DIMALT
 70
     0
  9
$DIMALTD
 70
     2
  9
$DIMALTF
 40
0.0393701
  9
$DIMLFAC
 40
1.0
  9
$DIMTOFL
 70
     1
  9
$DIMTVP
 40
0.0
  9
$DIMTIX
 70
     0
  9
$DIMSOXD
 70
     0
  9
$DIMSAH
 70
     0
  9
$DIMBLK1
  1

  9
$DIMBLK2
  1

  9
$DIMSTYLE
  2
SEISA
  9
$DIMCLRD
 70
     3
  9
$DIMCLRE
 70
     3
  9
$DIMCLRT
 70
     3
  9
$DIMTFAC
 40
0.71
  9
$DIMGAP
 40
1.5
  9
$DIMJUST
 70
     0
  9
$DIMSD1
 70
     0
  9
$DIMSD2
 70
     0
  9
$DIMTOLJ
 70
     0
  9
$DIMTZIN
 70
     0
  9
$DIMALTZ
 70
     0
  9
$DIMALTTZ
 70
     8
  9
$DIMUPT
 70
     0
  9
$DIMDEC
 70
     2
  9
$DIMTDEC
 70
     2
  9
$DIMALTU
 70
     2
  9
$DIMALTTD
 70
     2
  9
$DIMTXSTY
  7
SEISA
  9
$DIMAUNIT
 70
     0
  9
$DIMADEC
 70
     0
  9
$DIMALTRND
 40
0.0
  9
$DIMAZIN
 70
     2
  9
$DIMDSEP
 70
    46
  9
$DIMATFIT
 70
     3
  9
$DIMFRAC
 70
     0
  9
$DIMLDRBLK
  1
Open30
  9
$DIMLUNIT
 70
     2
  9
$DIMLWD
 70
    -1
  9
$DIMLWE
 70
    -1
  9
$DIMTMOVE
 70
     0
  9
$DIMFXL
 40
1.0
  9
$DIMFXLON
 70
     0
  9
$DIMJOGANG
 40
0.7853981633974483
  9
$DIMTFILL
 70
     0
  9
$DIMTFILLCLR
 70
     0
  9
$DIMARCSYM
 70
     1
  9
$DIMLTYPE
  6

  9
$DIMLTEX1
  6

  9
$DIMLTEX2
  6

  9
$LUNITS
 70
     2
  9
$LUPREC
 70
     2
  9
$SKETCHINC
 40
1.0
  9
$FILLETRAD
 40
1.0
  9
$AUNITS
 70
     0
  9
$AUPREC
 70
     0
  9
$MENU
  1
.
  9
$ELEVATION
 40
0.0
  9
$PELEVATION
 40
0.0
  9
$THICKNESS
 40
0.0
  9
$LIMCHECK
 70
     0
  9
$CHAMFERA
 40
1.000000000000227
  9
$CHAMFERB
 40
1.000000000000113
  9
$CHAMFERC
 40
1.000000000000227
  9
$CHAMFERD
 40
0.7853981633977895
  9
$SKPOLY
 70
     0
  9
$TDCREATE
 40
2454967.412241841
  9
$TDUCREATE
 40
2454967.037241841
  9
$TDUPDATE
 40
2456479.586602824
  9
$TDUUPDATE
 40
2456479.211602824
  9
$TDINDWG
 40
0.4804579861
  9
$TDUSRTIMER
 40
0.4804572569
  9
$USRTIMER
 70
     1
  9
$ANGBASE
 50
0.0
  9
$ANGDIR
 70
     0
  9
$PDMODE
 70
     0
  9
$PDSIZE
 40
0.0
  9
$PLINEWID
 40
0.0
  9
$SPLFRAME
 70
     0
  9
$SPLINETYPE
 70
     6
  9
$SPLINESEGS
 70
     8
  9
$HANDSEED
  5
A479
  9
$SURFTAB1
 70
     6
  9
$SURFTAB2
 70
     6
  9
$SURFTYPE
 70
     6
  9
$SURFU
 70
     6
  9
$SURFV
 70
     6
  9
$UCSBASE
  2

  9
$UCSNAME
  2

  9
$UCSORG
 10
0.0
 20
0.0
 30
0.0
  9
$UCSXDIR
 10
1.0
 20
0.0
 30
0.0
  9
$UCSYDIR
 10
0.0
 20
1.0
 30
0.0
  9
$UCSORTHOREF
  2

  9
$UCSORTHOVIEW
 70
     0
  9
$UCSORGTOP
 10
0.0
 20
0.0
 30
0.0
  9
$UCSORGBOTTOM
 10
0.0
 20
0.0
 30
0.0
  9
$UCSORGLEFT
 10
0.0
 20
0.0
 30
0.0
  9
$UCSORGRIGHT
 10
0.0
 20
0.0
 30
0.0
  9
$UCSORGFRONT
 10
0.0
 20
0.0
 30
0.0
  9
$UCSORGBACK
 10
0.0
 20
0.0
 30
0.0
  9
$PUCSBASE
  2

  9
$PUCSNAME
  2

  9
$PUCSORG
 10
0.0
 20
0.0
 30
0.0
  9
$PUCSXDIR
 10
1.0
 20
0.0
 30
0.0
  9
$PUCSYDIR
 10
0.0
 20
1.0
 30
0.0
  9
$PUCSORTHOREF
  2

  9
$PUCSORTHOVIEW
 70
     0
  9
$PUCSORGTOP
 10
0.0
 20
0.0
 30
0.0
  9
$PUCSORGBOTTOM
 10
0.0
 20
0.0
 30
0.0
  9
$PUCSORGLEFT
 10
0.0
 20
0.0
 30
0.0
  9
$PUCSORGRIGHT
 10
0.0
 20
0.0
 30
0.0
  9
$PUCSORGFRONT
 10
0.0
 20
0.0
 30
0.0
  9
$PUCSORGBACK
 10
0.0
 20
0.0
 30
0.0
  9
$USERI1
 70
     0
  9
$USERI2
 70
     0
  9
$USERI3
 70
     0
  9
$USERI4
 70
     0
  9
$USERI5
 70
     0
  9
$USERR1
 40
0.0
  9
$USERR2
 40
0.0
  9
$USERR3
 40
0.0
  9
$USERR4
 40
0.0
  9
$USERR5
 40
0.0
  9
$WORLDVIEW
 70
     1
  9
$SHADEDGE
 70
     3
  9
$SHADEDIF
 70
    70
  9
$TILEMODE
 70
     1
  9
$MAXACTVP
 70
    64
  9
$PINSBASE
 10
0.0
 20
0.0
 30
0.0
  9
$PLIMCHECK
 70
     0
  9
$PEXTMIN
 10
1.000000000000000E+20
 20
1.000000000000000E+20
 30
1.000000000000000E+20
  9
$PEXTMAX
 10
-1.000000000000000E+20
 20
-1.000000000000000E+20
 30
-1.000000000000000E+20
  9
$PLIMMIN
 10
0.0
 20
0.0
  9
$PLIMMAX
 10
420.0
 20
297.0
  9
$UNITMODE
 70
     0
  9
$VISRETAIN
 70
     1
  9
$PLINEGEN
 70
     0
  9
$PSLTSCALE
 70
     1
  9
$TREEDEPTH
 70
  3020
  9
$CMLSTYLE
  2
Standard
  9
$CMLJUST
 70
     0
  9
$CMLSCALE
 40
20.0
  9
$PROXYGRAPHICS
 70
     1
  9
$MEASUREMENT
 70
     1
  9
$CELWEIGHT
370
    -1
  9
$ENDCAPS
280
     0
  9
$JOINSTYLE
280
     0
  9
$LWDISPLAY
290
     0
  9
$INSUNITS
 70
     4
  9
$HYPERLINKBASE
  1

  9
$STYLESHEET
  1
SEISA.CTB
  9
$XEDIT
290
     1
  9
$CEPSNTYPE
380
     0
  9
$PSTYLEMODE
290
     1
  9
$FINGERPRINTGUID
  2
{FCC2E269-3132-4AE2-B922-4A1C8DE76870}
  9
$VERSIONGUID
  2
{C2EC7DA9-E59F-4CB9-8D94-5957C1F1377E}
  9
$EXTNAMES
290
     1
  9
$PSVPSCALE
 40
0.0
  9
$OLESTARTUP
290
     0
  9
$SORTENTS
280
   127
  9
$INDEXCTL
280
     0
  9
$HIDETEXT
280
     0
  9
$XCLIPFRAME
290
     0
  9
$HALOGAP
280
     0
  9
$OBSCOLOR
 70
   257
  9
$OBSLTYPE
280
     0
  9
$INTERSECTIONDISPLAY
280
     0
  9
$INTERSECTIONCOLOR
 70
   257
  9
$DIMASSOC
280
     2
  9
$PROJECTNAME
  1

  9
$CAMERADISPLAY
290
     0
  9
$LENSLENGTH
 40
50.0
  9
$CAMERAHEIGHT
 40
0.0
  9
$STEPSPERSEC
 40
2.0
  9
$STEPSIZE
 40
6.0
  9
$3DDWFPREC
 40
2.0
  9
$PSOLWIDTH
 40
0.25
  9
$PSOLHEIGHT
 40
4.0
  9
$LOFTANG1
 40
1.570796326794896
  9
$LOFTANG2
 40
1.570796326794896
  9
$LOFTMAG1
 40
0.0
  9
$LOFTMAG2
 40
0.0
  9
$LOFTPARAM
 70
     7
  9
$LOFTNORMALS
280
     1
  9
$LATITUDE
 40
37.795
  9
$LONGITUDE
 40
-122.394
  9
$NORTHDIRECTION
 40
0.0
  9
$TIMEZONE
 70
 -8000
  9
$LIGHTGLYPHDISPLAY
280
     1
  9
$TILEMODELIGHTSYNCH
280
     1
  9
$CMATERIAL
347
27C
  9
$SOLIDHIST
280
     1
  9
$SHOWHIST
280
     1
  9
$DWFFRAME
280
     2
  9
$DGNFRAME
280
     0
  9
$REALWORLDSCALE
290
     1
  9
$INTERFERECOLOR
 62
     1
  9
$INTERFEREOBJVS
345
289
  9
$INTERFEREVPVS
346
286
  9
$CSHADOW
280
     0
  9
$SHADOWPLANELOCATION
 40
0.0
  0
ENDSEC
  0
SECTION
  2
CLASSES
  0
CLASS
  1
ACDBDICTIONARYWDFLT
  2
AcDbDictionaryWithDefault
  3
ObjectDBX Classes
 90
        0
 91
        1
280
     0
281
     0
  0
CLASS
  1
AMGSETTINGSOBJ
  2
AmgSettingsObj
  3
"AcadM|Product Description: AutoCAD Mechanical|Company: Autodesk, Inc."
 90
     1024
 91
        2
280
     0
281
     0
  0
CLASS
  1
ACME_DOCUMENT
  2
AcMeDbDoc
  3
AcMeServices
 90
     1024
 91
        1
280
     0
281
     0
  0
CLASS
  1
ACMESCOPE
  2
AcMeScope
  3
AcMeServices
 90
     1024
 91
        1
280
     0
281
     0
  0
CLASS
  1
ACMECOMMANDHISTORY
  2
AcMeCommandHistory
  3
AcMeServices
 90
     1024
 91
        1
280
     0
281
     0
  0
CLASS
  1
DICTIONARYVAR
  2
AcDbDictionaryVar
  3
ObjectDBX Classes
 90
        0
 91
        9
280
     0
281
     0
  0
CLASS
  1
ACIMSYSVARMAN
  2
AcImSysVarManager
  3
AcMeServices
 90
     1024
 91
        5
280
     0
281
     0
  0
CLASS
  1
ACIMREALSYSVAR
  2
AcImRealSysVar
  3
AcMeServices
 90
     1024
 91
        1
280
     0
281
     0
  0
CLASS
  1
ACIMINTSYSVAR
  2
AcImIntSysVar
  3
AcMeServices
 90
     1024
 91
       27
280
     0
281
     0
  0
CLASS
  1
ACMEDRAWINGMAN
  2
AcMeDrawingMan
  3
AcMeServices
 90
     1024
 91
        1
280
     0
281
     0
  0
CLASS
  1
ACMEVIEW
  2
AcMeView
  3
AcMeServices
 90
     1024
 91
        1
280
     0
281
     0
  0
CLASS
  1
ACDBENTITYCACHE
  2
AcMeEntityCache
  3
AcMeServices
 90
     1024
 91
        1
280
     0
281
     0
  0
CLASS
  1
GSMANAGER
  2
AcMeGSManager
  3
AcMeServices
 90
     1024
 91
        1
280
     0
281
     0
  0
CLASS
  1
AMDTINTERNALREACTOR
  2
AmdtInternalReactor
  3
AcMeServices
 90
     1024
 91
        2
280
     0
281
     0
  0
CLASS
  1
ACMESTATEMGR
  2
AcMeStateMgr
  3
AcMeServices
 90
     1024
 91
        1
280
     0
281
     0
  0
CLASS
  1
ACGREFMASTER
  2
AcGrefMaster
  3
AcAttribServices
 90
     1024
 91
        1
280
     0
281
     0
  0
CLASS
  1
ACME_DATABASE
  2
AcMeDbDatabase
  3
AcMeServices
 90
     1024
 91
        1
280
     0
281
     0
  0
CLASS
  1
ACRFINSADJUSTERMGR
  2
AcRfInsAdjusterMgr
  3
AcMeServices
 90
     1024
 91
        1
280
     0
281
     0
  0
CLASS
  1
ACGREFACADMASTER
  2
AcGrefacadMaster
  3
AcGrefServices
 90
     1024
 91
        1
280
     0
281
     0
  0
CLASS
  1
AMIMASTER
  2
AmiMaster
  3
AmiServices
 90
     1024
 91
        1
280
     0
281
     0
  0
CLASS
  1
ACIMSTRSYSVAR
  2
AcImStrSysVar
  3
AcMeServices
 90
     1024
 91
        5
280
     0
281
     0
  0
CLASS
  1
ACMSTANDARDJIS
  2
AcmStandardJIS
  3
"Amdt_StdImp|Product Description: AutoCAD Mechanical|Company: Autodesk, Inc."
 90
     1024
 91
        0
280
     0
281
     0
  0
CLASS
  1
AMGOBJPROPCFG
  2
AmgObjPropCfg
  3
"AmgLay|Product Description: AutoCAD Mechanical|Company: Autodesk, Inc."
 90
     1025
 91
        1
280
     0
281
     0
  0
CLASS
  1
ACMSURFSTANDARDJIS
  2
AcmSurfTextStdJIS
  3
"Amdt_StdImp|Product Description: AutoCAD Mechanical|Company: Autodesk, Inc."
 90
     1024
 91
        0
280
     0
281
     0
  0
CLASS
  1
ACMFCFSTANDARDJIS
  2
AcmFCFStdJIS
  3
"Amdt_StdImp|Product Description: AutoCAD Mechanical|Company: Autodesk, Inc."
 90
     1024
 91
        0
280
     0
281
     0
  0
CLASS
  1
ACMWELDSTANDARDJIS
  2
AcmWeldingStdJIS
  3
"Amdt_StdImp|Product Description: AutoCAD Mechanical|Company: Autodesk, Inc."
 90
     1024
 91
        0
280
     0
281
     0
  0
CLASS
  1
ACMIDSTANDARDJIS
  2
AcmIdStdJIS
  3
"Amdt_StdImp|Product Description: AutoCAD Mechanical|Company: Autodesk, Inc."
 90
     1024
 91
        0
280
     0
281
     0
  0
CLASS
  1
ACMDATUMSTANDARDJIS
  2
AcmDatumStdJIS
  3
"Amdt_StdImp|Product Description: AutoCAD Mechanical|Company: Autodesk, Inc."
 90
     1024
 91
        0
280
     0
281
     0
  0
CLASS
  1
ACMBOMSTANDARDJIS
  2
AcmBOMStdJIS
  3
"Amdt_StdImp|Product Description: AutoCAD Mechanical|Company: Autodesk, Inc."
 90
     1024
 91
        0
280
     0
281
     0
  0
CLASS
  1
ACMDETAILSTANDARDJIS
  2
AmdtDetailSymStdJIS
  3
"Amdt_StdImp|Product Description: AutoCAD Mechanical|Company: Autodesk, Inc."
 90
     1024
 91
        0
280
     0
281
     0
  0
CLASS
  1
ACMSECTIONSTANDARDJIS
  2
AmdtSectionSymStdJIS
  3
"Amdt_StdImp|Product Description: AutoCAD Mechanical|Company: Autodesk, Inc."
 90
     1024
 91
        0
280
     0
281
     0
  0
CLASS
  1
ACMCENTERLINESTANDARDJIS
  2
AmdtCenterLineStdJIS
  3
"Amdt_StdImp|Product Description: AutoCAD Mechanical|Company: Autodesk, Inc."
 90
     1024
 91
        0
280
     0
281
     0
  0
CLASS
  1
ACMTHREADLINESTANDARDJIS
  2
AmdtThreadLineStdJIS
  3
"Amdt_StdImp|Product Description: AutoCAD Mechanical|Company: Autodesk, Inc."
 90
     1024
 91
        0
280
     0
281
     0
  0
CLASS
  1
ACAMGLAYSTD
  2
AcAmgLayStd
  3
"AmgLay|Product Description: AutoCAD Mechanical|Company: Autodesk, Inc."
 90
     1024
 91
        1
280
     0
281
     0
  0
CLASS
  1
ACAMGDIMSTD
  2
AcAmgDimStd
  3
"AmgDim|Product Description: AutoCAD Mechanical|Company: Autodesk, Inc."
 90
     1024
 91
        1
280
     0
281
     0
  0
CLASS
  1
ACAMGTITLESTD
  2
AcAmgTitleStd
  3
"AmgTitle|Product Description: AutoCAD Mechanical|Company: Autodesk, Inc."
 90
     4095
 91
        1
280
     0
281
     0
  0
CLASS
  1
ACMDATADICTIONARY
  2
AcmDataDictionary
  3
"AcmSymBB|Product Description: AutoCAD Mechanical|Company: Autodesk, Inc."
 90
     1024
 91
        1
280
     0
281
     0
  0
CLASS
  1
ACMDATAENTRYBLOCK
  2
AcmDataEntryBlock
  3
AcmSymBB|Product Description: AutoCAD Mechanical|Company: Autodesk, Inc.
 90
     1024
 91
        0
280
     0
281
     0
  0
CLASS
  1
LAYER_INDEX
  2
AcDbLayerIndex
  3
ObjectDBX Classes
 90
        0
 91
        0
280
     0
281
     0
  0
CLASS
  1
IDBUFFER
  2
AcDbIdBuffer
  3
ObjectDBX Classes
 90
        0
 91
        0
280
     0
281
     0
  0
CLASS
  1
ACMNOTESTANDARDJIS
  2
AmdtNoteStdJIS
  3
"Amdt_StdImp|Product Description: AutoCAD Mechanical|Company: Autodesk, Inc."
 90
     1024
 91
        0
280
     0
281
     0
  0
CLASS
  1
ACAMGHOLECHARTSTDJIS
  2
AcAmgHoleChartStdJIS
  3
AmgDim|Product Description: AutoCAD Mechanical|Company: Autodesk, Inc.
 90
     1024
 91
        0
280
     0
281
     0
  0
CLASS
  1
AM_DRAWING_MGR
  2
AcDmDwgMgr
  3
AcMechDwgViewMgmt
 90
     1024
 91
        1
280
     0
281
     0
  0
CLASS
  1
AM_DWG_DOCUMENT
  2
AcDmDwgDocument
  3
AcMechDwgViewMgmt
 90
     1024
 91
        1
280
     0
281
     0
  0
CLASS
  1
AM_DWG_SHEET
  2
AcDmSheet
  3
AcMechDwgViewMgmt
 90
     1024
 91
        2
280
     0
281
     0
  0
CLASS
  1
AM_VIEWDIMPARMAP
  2
AcDmViewDimParMap
  3
AcMechDwgViewMgmt
 90
     1024
 91
        2
280
     0
281
     0
  0
CLASS
  1
AM_DWGMGR_NAME
  2
AcDmDwgMgrName
  3
AcMechDwgViewMgmt
 90
     1024
 91
        1
280
     0
281
     0
  0
CLASS
  1
AMDTMENUSTATEMGR
  2
AmdtMenuStateMgr
  3
McadcomServices
 90
     1024
 91
        1
280
     0
281
     0
  0
CLASS
  1
AMDTMCOMMENUSTATE
  2
AmdtMcomMenuState
  3
McadcomServices
 90
     1024
 91
        1
280
     0
281
     0
  0
CLASS
  1
MAPIAMMOUDLE
  2
MApiAmModule
  3
MApiAmServices
 90
     1024
 91
        1
280
     0
281
     0
  0
CLASS
  1
AMDTADMENUSTATE
  2
AmdtAdMenuState
  3
DesignerServices
 90
     1024
 91
        1
280
     0
281
     0
  0
CLASS
  1
ADAPPL
  2
AcAdAppl
  3
DesignerServices
 90
     1024
 91
        1
280
     0
281
     0
  0
CLASS
  1
DEPMGR
  2
AcAdDepMgr
  3
DesignerServices
 90
     1024
 91
        1
280
     0
281
     0
  0
CLASS
  1
PARAMMGR
  2
AcAdParamMgr
  3
DesignerServices
 90
     1024
 91
        1
280
     0
281
     0
  0
CLASS
  1
PARAMSCOPE
  2
AcAdParamScope
  3
DesignerServices
 90
     1024
 91
        1
280
     0
281
     0
  0
CLASS
  1
NAMEDAPPL
  2
AcAdNamedAppl
  3
DesignerServices
 90
     1024
 91
        1
280
     0
281
     0
  0
CLASS
  1
AMDTDMMENUSTATE
  2
AmdtDmMenuState
  3
AcMechDwgViewMgmt
 90
     1024
 91
        1
280
     0
281
     0
  0
CLASS
  1
AMDTAMMENUSTATE
  2
AmdtAmMenuState
  3
DesignerAssemblies
 90
     1024
 91
        1
280
     0
281
     0
  0
CLASS
  1
ACAMPROJECT
  2
AcAmProject
  3
DesignerAssemblies
 90
     1024
 91
        1
280
     0
281
     0
  0
CLASS
  1
ACAMGRCOMPDEF
  2
AcAmGrCompDef
  3
DesignerAssemblies
 90
     1024
 91
        1
280
     0
281
     0
  0
CLASS
  1
ACCMCONTEXT
  2
AcCmContext
  3
DesignerAssemblies
 90
     1024
 91
        1
280
     0
281
     0
  0
CLASS
  1
ACAMCOMPDEF
  2
AcAmCompDef
  3
DesignerAssemblies
 90
     1024
 91
        1
280
     0
281
     0
  0
CLASS
  1
ACAMCOMPDEFMGR
  2
AcAmCompDefMgr
  3
DesignerAssemblies
 90
     1024
 91
        1
280
     0
281
     0
  0
CLASS
  1
AMCONTEXTMGR
  2
AcAmContextMgr
  3
DesignerAssemblies
 90
     1024
 91
        1
280
     0
281
     0
  0
CLASS
  1
ACAMCONTEXTMODELER
  2
AcAmContextModeler
  3
DesignerAssemblies
 90
     1024
 91
        1
280
     0
281
     0
  0
CLASS
  1
CATALOGSTATE
  2
AcAmCatalogState
  3
DesignerAssemblies
 90
     1024
 91
        1
280
     0
281
     0
  0
CLASS
  1
ACAMGRCOMPDEFSET
  2
AcAmGrCompDefSet
  3
DesignerAssemblies
 90
     1024
 91
        1
280
     0
281
     0
  0
CLASS
  1
AMDTBROWSERDBTAB
  2
AmdtBrowserDbTab
  3
McadcomServices
 90
     1024
 91
        1
280
     0
281
     0
  0
CLASS
  1
CBROWSERAPPOBJECT
  2
CBrowserAppObject
  3
McadcomServices
 90
     1024
 91
        3
280
     0
281
     0
  0
CLASS
  1
DM_PLACEHOLDER
  2
AcDmSelsetPlaceholder
  3
AcMechDwgViewMgmt
 90
     1024
 91
        1
280
     0
281
     0
  0
CLASS
  1
TABLESTYLE
  2
AcDbTableStyle
  3
ObjectDBX Classes
 90
     4095
 91
        1
280
     0
281
     0
  0
CLASS
  1
VAACXREFPANELOBJECT
  2
VaAcXREFPanelObject
  3
VAAC_ADDIN
 90
        0
 91
        0
280
     0
281
     0
  0
CLASS
  1
VAACIMAGEINVENTORY
  2
VaAcImageInventory
  3
VAAC_ADDIN
 90
        0
 91
        0
280
     0
281
     0
  0
CLASS
  1
AMDTNOTETEMPLATEDB
  2
AmdtNoteTemplateDB
  3
AcmSymBB|Product Description: AutoCAD Mechanical|Company: Autodesk, Inc.
 90
     1024
 91
        6
280
     0
281
     0
  0
CLASS
  1
ACAMGFILTERDAT
  2
AcAmgFilterDat
  3
"AcadM|Product Description: AutoCAD Mechanical|Company: Autodesk, Inc."
 90
     1024
 91
        0
280
     0
281
     0
  0
CLASS
  1
MATERIAL
  2
AcDbMaterial
  3
ObjectDBX Classes
 90
     1153
 91
        3
280
     0
281
     0
  0
CLASS
  1
VISUALSTYLE
  2
AcDbVisualStyle
  3
ObjectDBX Classes
 90
     4095
 91
       16
280
     0
281
     0
  0
CLASS
  1
ACRFATTGENMGR
  2
AcRfAttGeneralMgr
  3
AcAttribServices
 90
     1024
 91
        0
280
     0
281
     0
  0
CLASS
  1
ACRFOBJATTMGR
  2
AcRfObjAttGroupMgr
  3
AcAttribServices
 90
     1024
 91
        0
280
     0
281
     0
  0
CLASS
  1
ACRFMCADAPIATTHOLDER
  2
AcRfMCADAPIAttHolder
  3
AcAttribServices
 90
     1024
 91
        0
280
     0
281
     0
  0
CLASS
  1
AMDTSYSATTR
  2
AmdtSystemAttribute
  3
AcAttribServices
 90
     1024
 91
        0
280
     0
281
     0
  0
CLASS
  1
ACMTAPERSTANDARDJIS
  2
AcmTaperStdJIS
  3
"Amdt_StdImp|Product Description: AutoCAD Mechanical|Company: Autodesk, Inc."
 90
     1024
 91
        0
280
     0
281
     0
  0
CLASS
  1
CAMSSTRUCTBTNSTATE
  2
StructBtnState
  3
DesignerAssemblies
 90
     1024
 91
        0
280
     0
281
     0
  0
CLASS
  1
SCALE
  2
AcDbScale
  3
ObjectDBX Classes
 90
     1153
 91
       35
280
     0
281
     0
  0
CLASS
  1
MLEADERSTYLE
  2
AcDbMLeaderStyle
  3
ACDB_MLEADERSTYLE_CLASS
 90
     4095
 91
        1
280
     0
281
     0
  0
CLASS
  1
ACMANOOTATIONVIEWSTANDARDJIS
  2
AmdtAnViewStdJIS
  3
"Amdt_StdImp|Product Description: AutoCAD Mechanical|Company: Autodesk, Inc."
 90
     1024
 91
        0
280
     0
281
     0
  0
CLASS
  1
ACMSURFSTANDARDJIS2003
  2
AcmSurfTextStdJIS2003
  3
"Amdt_StdImp|Product Description: AutoCAD Mechanical|Company: Autodesk, Inc."
 90
     1024
 91
        0
280
     0
281
     0
  0
CLASS
  1
CELLSTYLEMAP
  2
AcDbCellStyleMap
  3
ObjectDBX Classes
 90
     1152
 91
        3
280
     0
281
     0
  0
CLASS
  1
ACMFCFSTANDARDJIS98
  2
AcmFCFStdJIS98
  3
"Amdt_StdImp|Product Description: AutoCAD Mechanical|Company: Autodesk, Inc."
 90
     1024
 91
        0
280
     0
281
     0
  0
CLASS
  1
SORTENTSTABLE
  2
AcDbSortentsTable
  3
ObjectDBX Classes
 90
        0
 91
       13
280
     0
281
     0
  0
CLASS
  1
DIMASSOC
  2
AcDbDimAssoc
  3
"AcDbDimAssoc|Product Desc:     AcDim ARX App For Dimension|Company:          Autodesk, Inc.|WEB Address:      www.autodesk.com"
 90
        0
 91
       20
280
     0
281
     0
  0
CLASS
  1
STDPART2D
  2
AmgStdPart
  3
AmgStdPart|Product Description: AutoCAD Mechanical|Company: Autodesk, Inc.
 90
     4095
 91
        0
280
     0
281
     1
  0
CLASS
  1
ACMDATAENTRYPART
  2
AcmDataEntryPart
  3
AcmSymBB|Product Description: AutoCAD Mechanical|Company: Autodesk, Inc.
 90
     1024
 91
        0
280
     0
281
     0
  0
CLASS
  1
ACMPARTREF
  2
AcmPartRef
  3
"AcmSymBB|Product Description: AutoCAD Mechanical|Company: Autodesk, Inc."
 90
     4095
 91
        0
280
     0
281
     1
  0
CLASS
  1
ACDBSTDPARTRES_LINE
  2
AcDbStdPartRes_Line
  3
AmgStdPart|Product Description: AutoCAD Mechanical|Company: Autodesk, Inc.
 90
     1024
 91
        0
280
     0
281
     0
  0
CLASS
  1
ACMBOM
  2
AcmBom
  3
"AcmSymBB|Product Description: AutoCAD Mechanical|Company: Autodesk, Inc."
 90
     1024
 91
        0
280
     0
281
     0
  0
CLASS
  1
AMDTFORMULAUPDATEDISPATCHER
  2
AmdtFormulaUpdateDispatcher
  3
AcMeServices
 90
     1024
 91
        0
280
     0
281
     0
  0
CLASS
  1
ACMBOMROW
  2
AcmBomRow
  3
"AcmSymBB|Product Description: AutoCAD Mechanical|Company: Autodesk, Inc."
 90
     1024
 91
        0
280
     0
281
     0
  0
CLASS
  1
ACMPARTLIST
  2
AcmPartList
  3
"AcmSymBB|Product Description: AutoCAD Mechanical|Company: Autodesk, Inc."
 90
     4095
 91
        0
280
     0
281
     1
  0
CLASS
  1
ACDBLINERES
  2
AcDbLineRes
  3
AcGrefServices
 90
     1024
 91
        0
280
     0
281
     0
  0
CLASS
  1
ACRFINSADJ
  2
AcRfInsAdjuster
  3
AcMeServices
 90
     1024
 91
        0
280
     0
281
     0
  0
CLASS
  1
ACMSTANDARDISO
  2
AcmStandardISO
  3
"Amdt_StdImp|Product Description: AutoCAD Mechanical|Company: Autodesk, Inc."
 90
     1024
 91
        1
280
     0
281
     0
  0
CLASS
  1
AMDTEDGESTANDARDISO13715
  2
AmdtEdgeStdISO13715
  3
"Amdt_StdImp|Product Description: AutoCAD Mechanical|Company: Autodesk, Inc."
 90
     1024
 91
        1
280
     0
281
     0
  0
CLASS
  1
ACMSURFSTANDARDISO2002
  2
AcmSurfTextStdISO2002
  3
"Amdt_StdImp|Product Description: AutoCAD Mechanical|Company: Autodesk, Inc."
 90
     1024
 91
        1
280
     0
281
     0
  0
CLASS
  1
ACMFCFSTANDARDISO
  2
AcmFCFStdISO
  3
"Amdt_StdImp|Product Description: AutoCAD Mechanical|Company: Autodesk, Inc."
 90
     1024
 91
        1
280
     0
281
     0
  0
CLASS
  1
ACMWELDSTANDARDISO
  2
AcmWeldingStdISO
  3
"Amdt_StdImp|Product Description: AutoCAD Mechanical|Company: Autodesk, Inc."
 90
     1024
 91
        1
280
     0
281
     0
  0
CLASS
  1
ACMIDSTANDARDISO
  2
AcmIdStdISO
  3
"Amdt_StdImp|Product Description: AutoCAD Mechanical|Company: Autodesk, Inc."
 90
     1024
 91
        1
280
     0
281
     0
  0
CLASS
  1
ACMDATUMSTANDARDISO
  2
AcmDatumStdISO
  3
"Amdt_StdImp|Product Description: AutoCAD Mechanical|Company: Autodesk, Inc."
 90
     1024
 91
        1
280
     0
281
     0
  0
CLASS
  1
ACMBOMSTANDARDISO
  2
AcmBOMStdISO
  3
"Amdt_StdImp|Product Description: AutoCAD Mechanical|Company: Autodesk, Inc."
 90
     1024
 91
        1
280
     0
281
     0
  0
CLASS
  1
ACMDETAILSTANDARDISO
  2
AmdtDetailSymStdISO
  3
"Amdt_StdImp|Product Description: AutoCAD Mechanical|Company: Autodesk, Inc."
 90
     1024
 91
        1
280
     0
281
     0
  0
CLASS
  1
ACMSECTIONSTANDARDISO2001
  2
AmdtSectionSymStdISO2001
  3
"Amdt_StdImp|Product Description: AutoCAD Mechanical|Company: Autodesk, Inc."
 90
     1024
 91
        1
280
     0
281
     0
  0
CLASS
  1
ACMCENTERLINESTANDARDISO
  2
AmdtCenterLineStdISO
  3
"Amdt_StdImp|Product Description: AutoCAD Mechanical|Company: Autodesk, Inc."
 90
     1024
 91
        1
280
     0
281
     0
  0
CLASS
  1
ACMTHREADLINESTANDARDISO
  2
AmdtThreadLineStdISO
  3
"Amdt_StdImp|Product Description: AutoCAD Mechanical|Company: Autodesk, Inc."
 90
     1024
 91
        1
280
     0
281
     0
  0
CLASS
  1
ACMNOTESTANDARDISO
  2
AmdtNoteStdISO
  3
"Amdt_StdImp|Product Description: AutoCAD Mechanical|Company: Autodesk, Inc."
 90
     1024
 91
        1
280
     0
281
     0
  0
CLASS
  1
ACMTAPERSTANDARDISO
  2
AcmTaperStdISO
  3
"Amdt_StdImp|Product Description: AutoCAD Mechanical|Company: Autodesk, Inc."
 90
     1024
 91
        1
280
     0
281
     0
  0
CLASS
  1
ACMANOOTATIONVIEWSTANDARDISO
  2
AmdtAnViewStdISO
  3
"Amdt_StdImp|Product Description: AutoCAD Mechanical|Company: Autodesk, Inc."
 90
     1024
 91
        1
280
     0
281
     0
  0
CLASS
  1
ACAMGHOLECHARTSTDISO
  2
AcAmgHoleChartStdISO
  3
AmgDim|Product Description: AutoCAD Mechanical|Company: Autodesk, Inc.
 90
     1024
 91
        1
280
     0
281
     0
  0
CLASS
  1
EXACXREFPANELOBJECT
  2
ExAcXREFPanelObject
  3
EXAC_ESW
 90
     1025
 91
        0
280
     0
281
     0
  0
CLASS
  1
NPOCOLLECTION
  2
AcDbImpNonPersistentObjectsCollection
  3
ObjectDBX Classes
 90
     1153
 91
        0
280
     0
281
     0
  0
CLASS
  1
ACDBSTDPARTRES_ARC
  2
AcDbStdPartRes_Arc
  3
AmgStdPart|Product Description: AutoCAD Mechanical|Company: Autodesk, Inc.
 90
     1024
 91
        0
280
     0
281
     0
  0
CLASS
  1
AMDTNOTE
  2
AmdtNote
  3
"AcmSymBB|Product Description: AutoCAD Mechanical|Company: Autodesk, Inc."
 90
     4095
 91
        0
280
     0
281
     1
  0
CLASS
  1
PLOTSETTINGS
  2
AcDbPlotSettings
  3
ObjectDBX Classes
 90
        0
 91
        1
280
     0
281
     0
  0
CLASS
  1
ACMSTANDARDANSI
  2
AcmStandardANSI
  3
"Amdt_StdImp|Product Description: AutoCAD Mechanical|Company: Autodesk, Inc."
 90
     1024
 91
        0
280
     0
281
     0
  0
CLASS
  1
ACMSURFSTANDARDANSI
  2
AcmSurfTextStdANSI
  3
"Amdt_StdImp|Product Description: AutoCAD Mechanical|Company: Autodesk, Inc."
 90
     1024
 91
        0
280
     0
281
     0
  0
CLASS
  1
ACMFCFSTANDARDANSI
  2
AcmFCFStdANSI
  3
"Amdt_StdImp|Product Description: AutoCAD Mechanical|Company: Autodesk, Inc."
 90
     1024
 91
        0
280
     0
281
     0
  0
CLASS
  1
ACMWELDSTANDARDANSI
  2
AcmWeldingStdANSI
  3
"Amdt_StdImp|Product Description: AutoCAD Mechanical|Company: Autodesk, Inc."
 90
     1024
 91
        0
280
     0
281
     0
  0
CLASS
  1
ACMIDSTANDARDANSI
  2
AcmIdStdANSI
  3
"Amdt_StdImp|Product Description: AutoCAD Mechanical|Company: Autodesk, Inc."
 90
     1024
 91
        0
280
     0
281
     0
  0
CLASS
  1
ACMDATUMSTANDARDANSI
  2
AcmDatumStdANSI
  3
"Amdt_StdImp|Product Description: AutoCAD Mechanical|Company: Autodesk, Inc."
 90
     1024
 91
        0
280
     0
281
     0
  0
CLASS
  1
ACMBOMSTANDARDANSI
  2
AcmBOMStdANSI
  3
"Amdt_StdImp|Product Description: AutoCAD Mechanical|Company: Autodesk, Inc."
 90
     1024
 91
        0
280
     0
281
     0
  0
CLASS
  1
ACMDETAILSTANDARDANSI
  2
AmdtDetailSymStdANSI
  3
"Amdt_StdImp|Product Description: AutoCAD Mechanical|Company: Autodesk, Inc."
 90
     1024
 91
        0
280
     0
281
     0
  0
CLASS
  1
ACMSECTIONSTANDARDANSI
  2
AmdtSectionSymStdANSI
  3
"Amdt_StdImp|Product Description: AutoCAD Mechanical|Company: Autodesk, Inc."
 90
     1024
 91
        0
280
     0
281
     0
  0
CLASS
  1
ACMCENTERLINESTANDARDANSI
  2
AmdtCenterLineStdANSI
  3
"Amdt_StdImp|Product Description: AutoCAD Mechanical|Company: Autodesk, Inc."
 90
     1024
 91
        0
280
     0
281
     0
  0
CLASS
  1
ACMTHREADLINESTANDARDANSI
  2
AmdtThreadLineStdANSI
  3
"Amdt_StdImp|Product Description: AutoCAD Mechanical|Company: Autodesk, Inc."
 90
     1024
 91
        0
280
     0
281
     0
  0
CLASS
  1
ACMNOTESTANDARDANSI
  2
AmdtNoteStdANSI
  3
"Amdt_StdImp|Product Description: AutoCAD Mechanical|Company: Autodesk, Inc."
 90
     1024
 91
        0
280
     0
281
     0
  0
CLASS
  1
ACMTAPERSTANDARDANSI
  2
AcmTaperStdANSI
  3
"Amdt_StdImp|Product Description: AutoCAD Mechanical|Company: Autodesk, Inc."
 90
     1024
 91
        0
280
     0
281
     0
  0
CLASS
  1
ACMANOOTATIONVIEWSTANDARDANSI
  2
AmdtAnViewStdANSI
  3
"Amdt_StdImp|Product Description: AutoCAD Mechanical|Company: Autodesk, Inc."
 90
     1024
 91
        0
280
     0
281
     0
  0
CLASS
  1
ACAMGHOLECHARTSTDANSI
  2
AcAmgHoleChartStdANSI
  3
AmgDim|Product Description: AutoCAD Mechanical|Company: Autodesk, Inc.
 90
     1024
 91
        0
280
     0
281
     0
  0
CLASS
  1
ACMSTANDARDBSI
  2
AcmStandardBSI
  3
"Amdt_StdImp|Product Description: AutoCAD Mechanical|Company: Autodesk, Inc."
 90
     1024
 91
        0
280
     0
281
     0
  0
CLASS
  1
ACMSURFSTANDARDBSI2002
  2
AcmSurfTextStdBSI2002
  3
"Amdt_StdImp|Product Description: AutoCAD Mechanical|Company: Autodesk, Inc."
 90
     1024
 91
        0
280
     0
281
     0
  0
CLASS
  1
ACMFCFSTANDARDBSI
  2
AcmFCFStdBSI
  3
"Amdt_StdImp|Product Description: AutoCAD Mechanical|Company: Autodesk, Inc."
 90
     1024
 91
        0
280
     0
281
     0
  0
CLASS
  1
ACMWELDSTANDARDBSI
  2
AcmWeldingStdBSI
  3
"Amdt_StdImp|Product Description: AutoCAD Mechanical|Company: Autodesk, Inc."
 90
     1024
 91
        0
280
     0
281
     0
  0
CLASS
  1
ACMIDSTANDARDBSI
  2
AcmIdStdBSI
  3
"Amdt_StdImp|Product Description: AutoCAD Mechanical|Company: Autodesk, Inc."
 90
     1024
 91
        0
280
     0
281
     0
  0
CLASS
  1
ACMDATUMSTANDARDBSI
  2
AcmDatumStdBSI
  3
"Amdt_StdImp|Product Description: AutoCAD Mechanical|Company: Autodesk, Inc."
 90
     1024
 91
        0
280
     0
281
     0
  0
CLASS
  1
ACMBOMSTANDARDBSI
  2
AcmBOMStdBSI
  3
"Amdt_StdImp|Product Description: AutoCAD Mechanical|Company: Autodesk, Inc."
 90
     1024
 91
        0
280
     0
281
     0
  0
CLASS
  1
ACMDETAILSTANDARDBSI
  2
AmdtDetailSymStdBSI
  3
"Amdt_StdImp|Product Description: AutoCAD Mechanical|Company: Autodesk, Inc."
 90
     1024
 91
        0
280
     0
281
     0
  0
CLASS
  1
ACMSECTIONSTANDARDBSI2001
  2
AmdtSectionSymStdBSI2001
  3
"Amdt_StdImp|Product Description: AutoCAD Mechanical|Company: Autodesk, Inc."
 90
     1024
 91
        0
280
     0
281
     0
  0
CLASS
  1
ACMCENTERLINESTANDARDBSI
  2
AmdtCenterLineStdBSI
  3
"Amdt_StdImp|Product Description: AutoCAD Mechanical|Company: Autodesk, Inc."
 90
     1024
 91
        0
280
     0
281
     0
  0
CLASS
  1
ACMTHREADLINESTANDARDBSI
  2
AmdtThreadLineStdBSI
  3
"Amdt_StdImp|Product Description: AutoCAD Mechanical|Company: Autodesk, Inc."
 90
     1024
 91
        0
280
     0
281
     0
  0
CLASS
  1
ACMNOTESTANDARDBSI
  2
AmdtNoteStdBSI
  3
"Amdt_StdImp|Product Description: AutoCAD Mechanical|Company: Autodesk, Inc."
 90
     1024
 91
        0
280
     0
281
     0
  0
CLASS
  1
ACMTAPERSTANDARDBSI
  2
AcmTaperStdBSI
  3
"Amdt_StdImp|Product Description: AutoCAD Mechanical|Company: Autodesk, Inc."
 90
     1024
 91
        0
280
     0
281
     0
  0
CLASS
  1
ACMANOOTATIONVIEWSTANDARDBSI
  2
AmdtAnViewStdBSI
  3
"Amdt_StdImp|Product Description: AutoCAD Mechanical|Company: Autodesk, Inc."
 90
     1024
 91
        0
280
     0
281
     0
  0
CLASS
  1
ACAMGHOLECHARTSTDBSI
  2
AcAmgHoleChartStdBSI
  3
AmgDim|Product Description: AutoCAD Mechanical|Company: Autodesk, Inc.
 90
     1024
 91
        0
280
     0
281
     0
  0
CLASS
  1
AMDTEDGESTANDARDJIS
  2
AmdtEdgeStdJIS
  3
"Amdt_StdImp|Product Description: AutoCAD Mechanical|Company: Autodesk, Inc."
 90
     1024
 91
        0
280
     0
281
     0
  0
CLASS
  1
ACMSURFSYM
  2
AcmSurfaceTexture
  3
"AcmSymBB|Product Description: AutoCAD Mechanical|Company: Autodesk, Inc."
 90
     4095
 91
        0
280
     0
281
     1
  0
CLASS
  1
ACDBDIMENSIONRES
  2
AcDbDimensionRes
  3
AcmSymBB|Product Description: AutoCAD Mechanical|Company: Autodesk, Inc.
 90
     1024
 91
        0
280
     0
281
     0
  0
CLASS
  1
ACDBCIRCARCRES
  2
AcDbCircArcRes
  3
AcGrefServices
 90
     1024
 91
        0
280
     0
281
     0
  0
CLASS
  1
ACMDIMBREAKPERSREACTOR
  2
AcmDimBreakPersReactor
  3
AmgDim|Product Description: AutoCAD Mechanical|Company: Autodesk, Inc.
 90
     4095
 91
        0
280
     0
281
     0
  0
CLASS
  1
ACDBOPPOLYLINERES
  2
AcDbOpPolylineRes
  3
AcGrefServices
 90
     1024
 91
        0
280
     0
281
     0
  0
CLASS
  1
AMDTACMWBLOCKBOMENTITY
  2
AmdtAcmWblockBomEntity
  3
"AcmSymBB|Product Description: AutoCAD Mechanical|Company: Autodesk, Inc."
 90
     4095
 91
        0
280
     0
281
     1
  0
CLASS
  1
ACDB_BLKREFOBJECTCONTEXTDATA_CLASS
  2
AcDbBlkRefObjectContextData
  3
ObjectDBX Classes
 90
     1153
 91
        0
280
     0
281
     0
  0
CLASS
  1
ACMPICKOBJ
  2
AcmPickEnt
  3
"AcmSymBB|Product Description: AutoCAD Mechanical|Company: Autodesk, Inc."
 90
     1024
 91
        0
280
     0
281
     1
  0
CLASS
  1
ACMBALLOON
  2
AcmBalloon
  3
"AcmSymBB|Product Description: AutoCAD Mechanical|Company: Autodesk, Inc."
 90
     4095
 91
        0
280
     0
281
     1
  0
CLASS
  1
BREAKDATA
  2
AcDbBreakData
  3
ObjectDBX Classes
 90
     1024
 91
        0
280
     0
281
     0
  0
CLASS
  1
ACMDATUMID
  2
AcmDatumId
  3
"AcmSymBB|Product Description: AutoCAD Mechanical|Company: Autodesk, Inc."
 90
     4095
 91
        0
280
     0
281
     1
  0
CLASS
  1
ACMWELDSYM
  2
AcmWelding
  3
"AcmSymBB|Product Description: AutoCAD Mechanical|Company: Autodesk, Inc."
 90
     4095
 91
        0
280
     0
281
     1
  0
ENDSEC
  0
SECTION
  2
TABLES
  0
TABLE
  2
VPORT
  5
8
330
0
100
AcDbSymbolTable
 70
     1
  0
VPORT
  5
27A
330
8
100
AcDbSymbolTableRecord
100
AcDbViewportTableRecord
  2
*Active
 70
     0
 10
0.0
 20
0.0
 11
1.0
 21
1.0
 12
1077.510860693077
 22
1093.662534704951
 13
0.0
 23
0.0
 14
12.5
 24
12.5
 15
50.0
 25
50.0
 16
0.0
 26
0.0
 36
1.0
 17
0.0
 27
0.0
 37
0.0
 40
667.9075243530999
 41
1.571428571428571
 42
50.0
 43
0.0
 44
0.0
 50
0.0
 51
0.0
 71
     0
 72
 20000
 73
     1
 74
     3
 75
     0
 76
     0
 77
     0
 78
     0
281
     0
 65
     0
110
0.0
120
0.0
130
0.0
111
1.0
121
0.0
131
0.0
112
0.0
122
1.0
132
0.0
 79
     0
146
0.0
348
285
 60
     3
 61
     5
292
     1
282
     0
141
0.0
142
0.0
 63
   250
421
  3355443
  0
ENDTAB
  0
TABLE
  2
LTYPE
  5
5
330
0
100
AcDbSymbolTable
 70
    22
  0
LTYPE
  5
14
330
5
100
AcDbSymbolTableRecord
100
AcDbLinetypeTableRecord
  2
ByBlock
 70
     0
  3

 72
    65
 73
     0
 40
0.0
  0
LTYPE
  5
15
330
5
100
AcDbSymbolTableRecord
100
AcDbLinetypeTableRecord
  2
ByLayer
 70
     0
  3

 72
    65
 73
     0
 40
0.0
  0
LTYPE
  5
16
330
5
100
AcDbSymbolTableRecord
100
AcDbLinetypeTableRecord
  2
Continuous
 70
     0
  3
Solid line
 72
    65
 73
     0
 40
0.0
  0
LTYPE
  5
4D
330
5
100
AcDbSymbolTableRecord
100
AcDbLinetypeTableRecord
  2
AM_ISO02W050
 70
     0
  3
__ __ __ __ __ __ __ __ __ __ __ __ __ __ __
 72
    65
 73
     2
 40
7.5
 49
6.0
 74
     0
 49
-1.5
 74
     0
  0
LTYPE
  5
4E
330
5
100
AcDbSymbolTableRecord
100
AcDbLinetypeTableRecord
  2
AM_ISO08W050
 70
     0
  3
____ . ____ . ____ . ____ . ____ . ____ . ____
 72
    65
 73
     4
 40
18.0
 49
12.0
 74
     0
 49
-1.5
 74
     0
 49
3.0
 74
     0
 49
-1.5
 74
     0
  0
LTYPE
  5
4F
330
5
100
AcDbSymbolTableRecord
100
AcDbLinetypeTableRecord
  2
AM_ISO09W050
 70
     0
  3
_____ . . _____ . . _____ . . ____ .. ____
 72
    65
 73
     6
 40
22.5
 49
12.0
 74
     0
 49
-1.5
 74
     0
 49
3.0
 74
     0
 49
-1.5
 74
     0
 49
3.0
 74
     0
 49
-1.5
 74
     0
  0
LTYPE
  5
50
330
5
100
AcDbSymbolTableRecord
100
AcDbLinetypeTableRecord
  2
Amconstr
 70
     0
  3
_______________________
 72
    65
 73
     2
 40
9999.0
 49
9999.0
 74
     0
 49
0.0
 74
     0
  0
LTYPE
  5
51
330
5
100
AcDbSymbolTableRecord
100
AcDbLinetypeTableRecord
  2
AM_ISO08W050x2
 70
     0
  3
__ . __ . __ . __ . __ . __
 72
    65
 73
     4
 40
9.0
 49
6.0
 74
     0
 49
-0.75
 74
     0
 49
1.5
 74
     0
 49
-0.75
 74
     0
  0
LTYPE
  5
52
330
5
100
AcDbSymbolTableRecord
100
AcDbLinetypeTableRecord
  2
AM_ISO02W050x2
 70
     0
  3
 _ _ _ _ _ _ _ _ _ _ _ _
 72
    65
 73
     2
 40
3.75
 49
3.0
 74
     0
 49
-0.75
 74
     0
  0
LTYPE
  5
55
330
5
100
AcDbSymbolTableRecord
100
AcDbLinetypeTableRecord
  2
Amzigzag
 70
     0
  3
/\/-/\/-/\/-/\/-/\/-/\/
 72
    65
 73
     2
 40
11.0001
 49
0.0001
 74
     4
 75
   136
340
23D
 46
0.04
 50
0.0
 44
0.0
 45
0.0
 49
-11.0
 74
     0
  0
LTYPE
  5
65
330
5
100
AcDbSymbolTableRecord
100
AcDbLinetypeTableRecord
  2
CENTER
 70
     0
  3
__ . __
 72
    65
 73
     4
 40
7.0
 49
4.0
 74
     0
 49
-1.0
 74
     0
 49
1.0
 74
     0
 49
-1.0
 74
     0
  0
LTYPE
  5
E0
330
5
100
AcDbSymbolTableRecord
100
AcDbLinetypeTableRecord
  2
HIDDEN
 70
     0
  3
Hidden __ __ __ __ __ __ __ __ __ __ __ __ __ _
 72
    65
 73
     2
 40
9.524999999999996
 49
6.349999999999998
 74
     0
 49
-3.174999999999998
 74
     0
  0
LTYPE
  5
E1
330
5
100
AcDbSymbolTableRecord
100
AcDbLinetypeTableRecord
  2
PHANTOM2
 70
     0
  3
Phantom (.5x) ___ _ _ ___ _ _ ___ _ _ ___ _ _
 72
    65
 73
     6
 40
31.75
 49
15.875
 74
     0
 49
-3.174999999999998
 74
     0
 49
3.174999999999998
 74
     0
 49
-3.174999999999998
 74
     0
 49
3.174999999999998
 74
     0
 49
-3.174999999999998
 74
     0
  0
LTYPE
  5
5A2
330
5
100
AcDbSymbolTableRecord
100
AcDbLinetypeTableRecord
  2
ACJISWELD
 70
     0
  3
_ _ _ _ _
 72
    65
 73
     2
 40
2.0
 49
2.0
 74
     0
 49
-1.0
 74
     0
  0
LTYPE
  5
A463
330
5
100
AcDbSymbolTableRecord
100
AcDbLinetypeTableRecord
  2
ACISOWELD
 70
     0
  3
_ _ _ _ _
 72
    65
 73
     2
 40
2.0
 49
2.0
 74
     0
 49
-1.0
 74
     0
  0
LTYPE
  5
A464
330
5
100
AcDbSymbolTableRecord
100
AcDbLinetypeTableRecord
  2
ACISOTGB
 70
     0
  3
__ . . __ . .
 72
    65
 73
     6
 40
9.0
 49
4.0
 74
     0
 49
-1.0
 74
     0
 49
1.0
 74
     0
 49
-1.0
 74
     0
 49
1.0
 74
     0
 49
-1.0
 74
     0
  0
LTYPE
  5
A465
330
5
100
AcDbSymbolTableRecord
100
AcDbLinetypeTableRecord
  2
ACISOTGL
 70
     0
  3
_ _ _ _ _
 72
    65
 73
     2
 40
3.0
 49
2.0
 74
     0
 49
-1.0
 74
     0
  0
ENDTAB
  0
TABLE
  2
LAYER
  5
2
102
{ACAD_XDICTIONARY
360
BF
102
}
330
0
100
AcDbSymbolTable
 70
    13
  0
LAYER
  5
10
102
{ACAD_XDICTIONARY
360
29F6
102
}
330
2
100
AcDbSymbolTableRecord
100
AcDbLayerTableRecord
  2
0
 70
     0
 62
     7
  6
Continuous
370
    -3
390
F
347
27E
  0
LAYER
  5
81
102
{ACAD_XDICTIONARY
360
29F8
102
}
330
2
100
AcDbSymbolTableRecord
100
AcDbLayerTableRecord
  2
AM_0 外形線1
 70
     0
 62
     7
  6
Continuous
370
    25
390
F
347
27E
  0
LAYER
  5
427
330
2
100
AcDbSymbolTableRecord
100
AcDbLayerTableRecord
  2
Defpoints
 70
     0
 62
     7
  6
Continuous
290
     0
370
    -3
390
F
347
27E
  0
LAYER
  5
27A4
102
{ACAD_XDICTIONARY
360
29FC
102
}
330
2
100
AcDbSymbolTableRecord
100
AcDbLayerTableRecord
  2
AM_12 印刷不可能線
 70
     0
 62
     7
  6
Continuous
290
     0
370
    25
390
F
347
27E
1001
AcAecLayerStandard
1000

1000

  0
LAYER
  5
2E1E
330
2
100
AcDbSymbolTableRecord
100
AcDbLayerTableRecord
  2
AM_6 文字
 70
     0
 62
     2
  6
Continuous
370
    13
390
F
347
27E
1001
AcAecLayerStandard
1000

1000

  0
LAYER
  5
44A2
330
2
100
AcDbSymbolTableRecord
100
AcDbLayerTableRecord
  2
AM_5 寸法線
 70
     0
 62
     3
  6
Continuous
370
    13
390
F
347
27E
1001
AcAecLayerStandard
1000

1000

  0
LAYER
  5
44A3
330
2
100
AcDbSymbolTableRecord
100
AcDbLayerTableRecord
  2
AM_4 細線
 70
     0
 62
     4
  6
Continuous
370
    13
390
F
347
27E
1001
AcAecLayerStandard
1000

1000

  0
LAYER
  5
44A4
330
2
100
AcDbSymbolTableRecord
100
AcDbLayerTableRecord
  2
AM_7 中心線
 70
     0
 62
     1
  6
AM_ISO08W050
370
    13
390
F
347
27E
1001
AcAecLayerStandard
1000

1000

  0
LAYER
  5
44A5
330
2
100
AcDbSymbolTableRecord
100
AcDbLayerTableRecord
  2
AM_3 隠れ線
 70
     0
 62
     8
  6
ACJISWELD
370
    13
390
F
347
27E
1001
AcAecLayerStandard
1000

1000

  0
LAYER
  5
7CF5
102
{ACAD_XDICTIONARY
360
7CF6
102
}
330
2
100
AcDbSymbolTableRecord
100
AcDbLayerTableRecord
  2
AM_8 ハッチング
 70
     0
 62
     1
  6
Continuous
370
    13
390
F
347
27E
1001
AcAecLayerStandard
1000

1000

  0
LAYER
  5
9F8B
330
2
100
AcDbSymbolTableRecord
100
AcDbLayerTableRecord
  2
AM_11 想像線
 70
     0
 62
     5
  6
AM_ISO09W050
370
    13
390
F
347
27E
1001
AcAecLayerStandard
1000

1000

  0
ENDTAB
  0
TABLE
  2
STYLE
  5
3
330
0
100
AcDbSymbolTable
 70
    11
  0
STYLE
  5
11
330
3
100
AcDbSymbolTableRecord
100
AcDbTextStyleTableRecord
  2
STANDARD
 70
     0
 40
0.0
 41
1.0
 50
0.0
 71
     0
 42
25.0
  3
ISOCP.SHX
  4
EXTFONT.SHX
  0
STYLE
  5
23D
330
3
100
AcDbSymbolTableRecord
100
AcDbTextStyleTableRecord
  2

 70
     1
 40
0.0
 41
1.0
 50
0.0
 71
     0
 42
2.5
  3
genltshp.shx
  4

  0
STYLE
  5
5D5
330
3
100
AcDbSymbolTableRecord
100
AcDbTextStyleTableRecord
  2
SEISA
 70
     0
 40
0.0
 41
0.9
 50
0.0
 71
     0
 42
25.0
  3
romans.shx
  4
extfont2.shx
  0
STYLE
  5
A453
330
3
100
AcDbSymbolTableRecord
100
AcDbTextStyleTableRecord
  2
ACISOTS
 70
     0
 40
1.0
 41
1.0
 50
0.0
 71
     0
 42
25.0
  3
isocp.shx
  4
extfont.shx
  0
STYLE
  5
A462
330
3
100
AcDbSymbolTableRecord
100
AcDbTextStyleTableRecord
  2
ACISOGDT
 70
     0
 40
0.0
 41
1.0
 50
0.0
 71
     0
 42
25.0
  3
amgdt.shx
  4

  0
ENDTAB
  0
TABLE
  2
VIEW
  5
6
330
0
100
AcDbSymbolTable
 70
     6
  0
VIEW
  5
91B
330
6
100
AcDbSymbolTableRecord
100
AcDbViewTableRecord
  2
AM_VIEW1
 70
     0
 40
742.4999999999998
 10
717.8109615483021
 20
1113.75000184691
 41
1435.621921182266
 11
0.0
 21
0.0
 31
1.0
 12
0.0
 22
0.0
 32
0.0
 42
50.0
 43
0.0
 44
0.0
 50
0.0
 71
     0
281
     0
 72
     0
 73
     0
  0
VIEW
  5
91C
330
6
100
AcDbSymbolTableRecord
100
AcDbViewTableRecord
  2
AM_VIEW2
 70
     0
 40
742.4999999999998
 10
1382.189040366036
 20
1113.75000184691
 41
1435.621921182266
 11
0.0
 21
0.0
 31
1.0
 12
0.0
 22
0.0
 32
0.0
 42
50.0
 43
0.0
 44
0.0
 50
0.0
 71
     0
281
     0
 72
     0
 73
     0
  0
VIEW
  5
91D
330
6
100
AcDbSymbolTableRecord
100
AcDbViewTableRecord
  2
AM_VIEW3
 70
     0
 40
742.4999999999998
 10
717.8109615483021
 20
371.2500018469103
 41
1435.621921182266
 11
0.0
 21
0.0
 31
1.0
 12
0.0
 22
0.0
 32
0.0
 42
50.0
 43
0.0
 44
0.0
 50
0.0
 71
     0
281
     0
 72
     0
 73
     0
  0
VIEW
  5
91E
330
6
100
AcDbSymbolTableRecord
100
AcDbViewTableRecord
  2
AM_VIEW4
 70
     0
 40
742.4999999999998
 10
1382.189040366036
 20
371.2500018469103
 41
1435.621921182266
 11
0.0
 21
0.0
 31
1.0
 12
0.0
 22
0.0
 32
0.0
 42
50.0
 43
0.0
 44
0.0
 50
0.0
 71
     0
281
     0
 72
     0
 73
     0
  0
VIEW
  5
91F
330
6
100
AcDbSymbolTableRecord
100
AcDbViewTableRecord
  2
AM_VIEW5
 70
     0
 40
742.5000000000001
 10
1050.000000957169
 20
742.5000018469104
 41
1435.621921182266
 11
0.0
 21
0.0
 31
1.0
 12
0.0
 22
0.0
 32
0.0
 42
50.0
 43
0.0
 44
0.0
 50
0.0
 71
     0
281
     0
 72
     0
 73
     0
  0
VIEW
  5
920
330
6
100
AcDbSymbolTableRecord
100
AcDbViewTableRecord
  2
AM_VIEW6
 70
     0
 40
1484.98515
 10
1050.000000957169
 20
742.5000018469102
 41
2871.215129926108
 11
0.0
 21
0.0
 31
1.0
 12
0.0
 22
0.0
 32
0.0
 42
50.0
 43
0.0
 44
0.0
 50
0.0
 71
     0
281
     0
 72
     0
 73
     0
  0
ENDTAB
  0
TABLE
  2
UCS
  5
7
330
0
100
AcDbSymbolTable
 70
     0
  0
ENDTAB
  0
TABLE
  2
APPID
  5
9
330
0
100
AcDbSymbolTable
 70
   396
  0
APPID
  5
12
330
9
100
AcDbSymbolTableRecord
100
AcDbRegAppTableRecord
  2
ACAD
 70
     0
  0
APPID
  5
30
330
9
100
AcDbSymbolTableRecord
100
AcDbRegAppTableRecord
  2
MCAD_NO_VIS
 70
     0
  0
APPID
  5
31
330
9
100
AcDbSymbolTableRecord
100
AcDbRegAppTableRecord
  2
ACAD_TEMP_GRAPHIC
 70
     0
  0
APPID
  5
44
330
9
100
AcDbSymbolTableRecord
100
AcDbRegAppTableRecord
  2
ACATTRIBSERVICES
 70
     0
  0
APPID
  5
F6
330
9
100
AcDbSymbolTableRecord
100
AcDbRegAppTableRecord
  2
AD_DRAW
 70
     0
  0
APPID
  5
114
330
9
100
AcDbSymbolTableRecord
100
AcDbRegAppTableRecord
  2
DESIGNERASSEMBLIES
 70
     0
  0
APPID
  5
118
330
9
100
AcDbSymbolTableRecord
100
AcDbRegAppTableRecord
  2
ACADM_DIM_EDIT
 70
     0
  0
APPID
  5
119
330
9
100
AcDbSymbolTableRecord
100
AcDbRegAppTableRecord
  2
AMDT_DM_ADJ
 70
     0
  0
APPID
  5
1AF
330
9
100
AcDbSymbolTableRecord
100
AcDbRegAppTableRecord
  2
ACAD_DSTYLE_DIMARC_LENGTH_SYMBOL
 70
     0
  0
APPID
  5
1B0
330
9
100
AcDbSymbolTableRecord
100
AcDbRegAppTableRecord
  2
ACAD_DSTYLE_DIMJOGGED_JOGANGLE_SYMBOL
 70
     0
  0
APPID
  5
2D7
330
9
100
AcDbSymbolTableRecord
100
AcDbRegAppTableRecord
  2
ACAD_MLEADERVER
 70
     0
  0
APPID
  5
355
330
9
100
AcDbSymbolTableRecord
100
AcDbRegAppTableRecord
  2
AcadAnnoPO
 70
     0
  0
APPID
  5
428
330
9
100
AcDbSymbolTableRecord
100
AcDbRegAppTableRecord
  2
ACAD_DSTYLE_DIMTEXT_FILL
 70
     0
  0
APPID
  5
429
330
9
100
AcDbSymbolTableRecord
100
AcDbRegAppTableRecord
  2
GENIUS_GENSCREG_15
 70
     0
  0
APPID
  5
42A
330
9
100
AcDbSymbolTableRecord
100
AcDbRegAppTableRecord
  2
GENIUS_GENOBJ-N-SDF_13
 70
     0
  0
APPID
  5
42B
330
9
100
AcDbSymbolTableRecord
100
AcDbRegAppTableRecord
  2
GENIUS_GENODEF_13
 70
     0
  0
APPID
  5
42C
330
9
100
AcDbSymbolTableRecord
100
AcDbRegAppTableRecord
  2
ACAD_EXEMPT_FROM_CAD_STANDARDS
 70
     0
  0
APPID
  5
42D
330
9
100
AcDbSymbolTableRecord
100
AcDbRegAppTableRecord
  2
AcAecLayerStandard
 70
     0
  0
APPID
  5
42E
330
9
100
AcDbSymbolTableRecord
100
AcDbRegAppTableRecord
  2
GENIUS_GENOBJ-N-CEN_13
 70
     0
  0
APPID
  5
42F
330
9
100
AcDbSymbolTableRecord
100
AcDbRegAppTableRecord
  2
GENIUS_GENCEN_19
 70
     0
  0
APPID
  5
430
330
9
100
AcDbSymbolTableRecord
100
AcDbRegAppTableRecord
  2
ACAD_DSTYLE_DIMINSPECT
 70
     0
  0
APPID
  5
431
330
9
100
AcDbSymbolTableRecord
100
AcDbRegAppTableRecord
  2
GENIUS_AMGTXT_16
 70
     0
  0
APPID
  5
432
330
9
100
AcDbSymbolTableRecord
100
AcDbRegAppTableRecord
  2
GENIUS_GENFIL_13
 70
     0
  0
APPID
  5
433
330
9
100
AcDbSymbolTableRecord
100
AcDbRegAppTableRecord
  2
GENIUS_GENOLIS_13
 70
     0
  0
APPID
  5
434
330
9
100
AcDbSymbolTableRecord
100
AcDbRegAppTableRecord
  2
GENIUS_GENOBJ-N-CHA_13
 70
     0
  0
APPID
  5
435
330
9
100
AcDbSymbolTableRecord
100
AcDbRegAppTableRecord
  2
GENIUS_GENOENT_13
 70
     0
  0
APPID
  5
436
330
9
100
AcDbSymbolTableRecord
100
AcDbRegAppTableRecord
  2
GENIUS_GENOREF_13
 70
     0
  0
APPID
  5
437
330
9
100
AcDbSymbolTableRecord
100
AcDbRegAppTableRecord
  2
GENIUS_GENOBJ-N-FIL_13
 70
     0
  0
APPID
  5
438
330
9
100
AcDbSymbolTableRecord
100
AcDbRegAppTableRecord
  2
GEVID1208829536
 70
     0
  0
APPID
  5
439
330
9
100
AcDbSymbolTableRecord
100
AcDbRegAppTableRecord
  2
GEVDC
 70
     0
  0
APPID
  5
43A
330
9
100
AcDbSymbolTableRecord
100
AcDbRegAppTableRecord
  2
GEVRADREF
 70
     0
  0
APPID
  5
43B
330
9
100
AcDbSymbolTableRecord
100
AcDbRegAppTableRecord
  2
GENIUS_GENBH_13
 70
     0
  0
APPID
  5
43C
330
9
100
AcDbSymbolTableRecord
100
AcDbRegAppTableRecord
  2
GENIUS_GENOBJ-NBEHI-BHF_13
 70
     0
  0
APPID
  5
43D
330
9
100
AcDbSymbolTableRecord
100
AcDbRegAppTableRecord
  2
GENIUS_GENOBJ-NBEHI-BHB_13
 70
     0
  0
APPID
  5
43E
330
9
100
AcDbSymbolTableRecord
100
AcDbRegAppTableRecord
  2
GEVID1208829537
 70
     0
  0
APPID
  5
43F
330
9
100
AcDbSymbolTableRecord
100
AcDbRegAppTableRecord
  2
ACAD_DSTYLE_DIMJAG
 70
     0
  0
APPID
  5
440
330
9
100
AcDbSymbolTableRecord
100
AcDbRegAppTableRecord
  2
ACAD_DSTYLE_DIMTALN
 70
     0
  0
APPID
  5
441
330
9
100
AcDbSymbolTableRecord
100
AcDbRegAppTableRecord
  2
AMG_2DHIDE
 70
     0
  0
APPID
  5
442
330
9
100
AcDbSymbolTableRecord
100
AcDbRegAppTableRecord
  2
AMG_2DSTRUCT_BTR
 70
     0
  0
APPID
  5
443
330
9
100
AcDbSymbolTableRecord
100
AcDbRegAppTableRecord
  2
GEVID1208845772
 70
     0
  0
APPID
  5
444
330
9
100
AcDbSymbolTableRecord
100
AcDbRegAppTableRecord
  2
GEVID1208845773
 70
     0
  0
APPID
  5
445
330
9
100
AcDbSymbolTableRecord
100
AcDbRegAppTableRecord
  2
ACADM_2DVIEW_IGN_NOTIFY
 70
     0
  0
APPID
  5
446
330
9
100
AcDbSymbolTableRecord
100
AcDbRegAppTableRecord
  2
GEVID1208845774
 70
     0
  0
APPID
  5
447
330
9
100
AcDbSymbolTableRecord
100
AcDbRegAppTableRecord
  2
GEVID1208845775
 70
     0
  0
APPID
  5
448
330
9
100
AcDbSymbolTableRecord
100
AcDbRegAppTableRecord
  2
GEVID1208845776
 70
     0
  0
APPID
  5
449
330
9
100
AcDbSymbolTableRecord
100
AcDbRegAppTableRecord
  2
GEVID1208845777
 70
     0
  0
APPID
  5
44A
330
9
100
AcDbSymbolTableRecord
100
AcDbRegAppTableRecord
  2
GEVCON
 70
     0
  0
APPID
  5
44B
330
9
100
AcDbSymbolTableRecord
100
AcDbRegAppTableRecord
  2
GENIUS_GENOBJ-F-SCPASSM_13
 70
     0
  0
APPID
  5
44C
330
9
100
AcDbSymbolTableRecord
100
AcDbRegAppTableRecord
  2
GEVID1208845778
 70
     0
  0
APPID
  5
44D
330
9
100
AcDbSymbolTableRecord
100
AcDbRegAppTableRecord
  2
GEVID1208845779
 70
     0
  0
APPID
  5
44E
330
9
100
AcDbSymbolTableRecord
100
AcDbRegAppTableRecord
  2
GEVID1208845780
 70
     0
  0
APPID
  5
44F
330
9
100
AcDbSymbolTableRecord
100
AcDbRegAppTableRecord
  2
GEVID1208845781
 70
     0
  0
APPID
  5
450
330
9
100
AcDbSymbolTableRecord
100
AcDbRegAppTableRecord
  2
GEVID1208845782
 70
     0
  0
APPID
  5
451
330
9
100
AcDbSymbolTableRecord
100
AcDbRegAppTableRecord
  2
GEVID1208845783
 70
     0
  0
APPID
  5
452
330
9
100
AcDbSymbolTableRecord
100
AcDbRegAppTableRecord
  2
GEVID1208845784
 70
     0
  0
APPID
  5
453
330
9
100
AcDbSymbolTableRecord
100
AcDbRegAppTableRecord
  2
GEVID1208845785
 70
     0
  0
APPID
  5
454
330
9
100
AcDbSymbolTableRecord
100
AcDbRegAppTableRecord
  2
GEVID1208845787
 70
     0
  0
APPID
  5
455
330
9
100
AcDbSymbolTableRecord
100
AcDbRegAppTableRecord
  2
GEVID1208845788
 70
     0
  0
APPID
  5
456
330
9
100
AcDbSymbolTableRecord
100
AcDbRegAppTableRecord
  2
GEVID1208845789
 70
     0
  0
APPID
  5
457
330
9
100
AcDbSymbolTableRecord
100
AcDbRegAppTableRecord
  2
GEVID1208845790
 70
     0
  0
APPID
  5
458
330
9
100
AcDbSymbolTableRecord
100
AcDbRegAppTableRecord
  2
GEVID1208845791
 70
     0
  0
APPID
  5
459
330
9
100
AcDbSymbolTableRecord
100
AcDbRegAppTableRecord
  2
GEVID1208845792
 70
     0
  0
APPID
  5
45A
330
9
100
AcDbSymbolTableRecord
100
AcDbRegAppTableRecord
  2
GEVID1208845793
 70
     0
  0
APPID
  5
45B
330
9
100
AcDbSymbolTableRecord
100
AcDbRegAppTableRecord
  2
GEVID1208845794
 70
     0
  0
APPID
  5
45C
330
9
100
AcDbSymbolTableRecord
100
AcDbRegAppTableRecord
  2
GEVID1208845795
 70
     0
  0
APPID
  5
45D
330
9
100
AcDbSymbolTableRecord
100
AcDbRegAppTableRecord
  2
GEVID1208845796
 70
     0
  0
APPID
  5
45E
330
9
100
AcDbSymbolTableRecord
100
AcDbRegAppTableRecord
  2
GEVID1208845797
 70
     0
  0
APPID
  5
45F
330
9
100
AcDbSymbolTableRecord
100
AcDbRegAppTableRecord
  2
GEVID1208845798
 70
     0
  0
APPID
  5
460
330
9
100
AcDbSymbolTableRecord
100
AcDbRegAppTableRecord
  2
GEVID1208845799
 70
     0
  0
APPID
  5
461
330
9
100
AcDbSymbolTableRecord
100
AcDbRegAppTableRecord
  2
GEVID1208845800
 70
     0
  0
APPID
  5
462
330
9
100
AcDbSymbolTableRecord
100
AcDbRegAppTableRecord
  2
GEVID1208845801
 70
     0
  0
APPID
  5
463
330
9
100
AcDbSymbolTableRecord
100
AcDbRegAppTableRecord
  2
GEVID1208845802
 70
     0
  0
APPID
  5
464
330
9
100
AcDbSymbolTableRecord
100
AcDbRegAppTableRecord
  2
GENIUS_GENOBJ-N-DIM_13
 70
     0
  0
APPID
  5
465
330
9
100
AcDbSymbolTableRecord
100
AcDbRegAppTableRecord
  2
GENIUS_GENDIM_13
 70
     0
  0
APPID
  5
466
330
9
100
AcDbSymbolTableRecord
100
AcDbRegAppTableRecord
  2
GENIUS_GENDIMSH_14
 70
     0
  0
APPID
  5
467
330
9
100
AcDbSymbolTableRecord
100
AcDbRegAppTableRecord
  2
GEVID1208845803
 70
     0
  0
APPID
  5
468
330
9
100
AcDbSymbolTableRecord
100
AcDbRegAppTableRecord
  2
GEVID1208845804
 70
     0
  0
APPID
  5
469
330
9
100
AcDbSymbolTableRecord
100
AcDbRegAppTableRecord
  2
GEVID1208845805
 70
     0
  0
APPID
  5
46A
330
9
100
AcDbSymbolTableRecord
100
AcDbRegAppTableRecord
  2
GEVID1208845806
 70
     0
  0
APPID
  5
46B
330
9
100
AcDbSymbolTableRecord
100
AcDbRegAppTableRecord
  2
GEVID1208845807
 70
     0
  0
APPID
  5
46C
330
9
100
AcDbSymbolTableRecord
100
AcDbRegAppTableRecord
  2
GEVID1208845808
 70
     0
  0
APPID
  5
46D
330
9
100
AcDbSymbolTableRecord
100
AcDbRegAppTableRecord
  2
GEVID1208845809
 70
     0
  0
APPID
  5
46E
330
9
100
AcDbSymbolTableRecord
100
AcDbRegAppTableRecord
  2
GEVID1208845810
 70
     0
  0
APPID
  5
46F
330
9
100
AcDbSymbolTableRecord
100
AcDbRegAppTableRecord
  2
GEVID1208845811
 70
     0
  0
APPID
  5
470
330
9
100
AcDbSymbolTableRecord
100
AcDbRegAppTableRecord
  2
GEVID1208845813
 70
     0
  0
APPID
  5
471
330
9
100
AcDbSymbolTableRecord
100
AcDbRegAppTableRecord
  2
GEVID1208845814
 70
     0
  0
APPID
  5
472
330
9
100
AcDbSymbolTableRecord
100
AcDbRegAppTableRecord
  2
GEVID1208845815
 70
     0
  0
APPID
  5
473
330
9
100
AcDbSymbolTableRecord
100
AcDbRegAppTableRecord
  2
GEVID1208845816
 70
     0
  0
APPID
  5
474
330
9
100
AcDbSymbolTableRecord
100
AcDbRegAppTableRecord
  2
GEVID1208845817
 70
     0
  0
APPID
  5
475
330
9
100
AcDbSymbolTableRecord
100
AcDbRegAppTableRecord
  2
GEVID1208845818
 70
     0
  0
APPID
  5
476
330
9
100
AcDbSymbolTableRecord
100
AcDbRegAppTableRecord
  2
GEVID1208845819
 70
     0
  0
APPID
  5
477
330
9
100
AcDbSymbolTableRecord
100
AcDbRegAppTableRecord
  2
GEVID1208845820
 70
     0
  0
APPID
  5
478
330
9
100
AcDbSymbolTableRecord
100
AcDbRegAppTableRecord
  2
GENIUS_GENOBJ-F-SHCL_13
 70
     0
  0
APPID
  5
479
330
9
100
AcDbSymbolTableRecord
100
AcDbRegAppTableRecord
  2
GENIUS_GEFMSH_13
 70
     0
  0
APPID
  5
47A
330
9
100
AcDbSymbolTableRecord
100
AcDbRegAppTableRecord
  2
GENIUS_GENOBJ-F-SHCA_13
 70
     0
  0
APPID
  5
47B
330
9
100
AcDbSymbolTableRecord
100
AcDbRegAppTableRecord
  2
GENIUS_GEFSH_13
 70
     0
  0
APPID
  5
47C
330
9
100
AcDbSymbolTableRecord
100
AcDbRegAppTableRecord
  2
GENIUS_GEFSHP_13
 70
     0
  0
APPID
  5
47D
330
9
100
AcDbSymbolTableRecord
100
AcDbRegAppTableRecord
  2
GENIUS_GEFSHP0_13
 70
     0
  0
APPID
  5
47E
330
9
100
AcDbSymbolTableRecord
100
AcDbRegAppTableRecord
  2
GENIUS_GEFSH0_13
 70
     0
  0
APPID
  5
47F
330
9
100
AcDbSymbolTableRecord
100
AcDbRegAppTableRecord
  2
GENIUS_GEFSHP1_13
 70
     0
  0
APPID
  5
480
330
9
100
AcDbSymbolTableRecord
100
AcDbRegAppTableRecord
  2
GENIUS_GEFSH1_13
 70
     0
  0
APPID
  5
481
330
9
100
AcDbSymbolTableRecord
100
AcDbRegAppTableRecord
  2
GEVID1208866337
 70
     0
  0
APPID
  5
482
330
9
100
AcDbSymbolTableRecord
100
AcDbRegAppTableRecord
  2
GEVID1208866338
 70
     0
  0
APPID
  5
483
330
9
100
AcDbSymbolTableRecord
100
AcDbRegAppTableRecord
  2
GEVID1208866339
 70
     0
  0
APPID
  5
484
330
9
100
AcDbSymbolTableRecord
100
AcDbRegAppTableRecord
  2
GEVID1208866340
 70
     0
  0
APPID
  5
485
330
9
100
AcDbSymbolTableRecord
100
AcDbRegAppTableRecord
  2
GEVID1208866341
 70
     0
  0
APPID
  5
486
330
9
100
AcDbSymbolTableRecord
100
AcDbRegAppTableRecord
  2
ACAD_PSEXT
 70
     0
  0
APPID
  5
487
330
9
100
AcDbSymbolTableRecord
100
AcDbRegAppTableRecord
  2
GEVID1208866342
 70
     0
  0
APPID
  5
488
330
9
100
AcDbSymbolTableRecord
100
AcDbRegAppTableRecord
  2
GEVID1208913836
 70
     0
  0
APPID
  5
489
330
9
100
AcDbSymbolTableRecord
100
AcDbRegAppTableRecord
  2
GEVID1208913837
 70
     0
  0
APPID
  5
48A
330
9
100
AcDbSymbolTableRecord
100
AcDbRegAppTableRecord
  2
GEVID1208913838
 70
     0
  0
APPID
  5
48B
330
9
100
AcDbSymbolTableRecord
100
AcDbRegAppTableRecord
  2
GEVID1208913839
 70
     0
  0
APPID
  5
48C
330
9
100
AcDbSymbolTableRecord
100
AcDbRegAppTableRecord
  2
GENIUS_GENDTOL_13
 70
     0
  0
APPID
  5
48D
330
9
100
AcDbSymbolTableRecord
100
AcDbRegAppTableRecord
  2
GEVID1208928889
 70
     0
  0
APPID
  5
48E
330
9
100
AcDbSymbolTableRecord
100
AcDbRegAppTableRecord
  2
GEVID1208928890
 70
     0
  0
APPID
  5
48F
330
9
100
AcDbSymbolTableRecord
100
AcDbRegAppTableRecord
  2
GEVID1208928891
 70
     0
  0
APPID
  5
490
330
9
100
AcDbSymbolTableRecord
100
AcDbRegAppTableRecord
  2
GEVID1208928892
 70
     0
  0
APPID
  5
491
330
9
100
AcDbSymbolTableRecord
100
AcDbRegAppTableRecord
  2
GEVID1208933827
 70
     0
  0
APPID
  5
492
330
9
100
AcDbSymbolTableRecord
100
AcDbRegAppTableRecord
  2
GEVID1208933829
 70
     0
  0
APPID
  5
493
330
9
100
AcDbSymbolTableRecord
100
AcDbRegAppTableRecord
  2
GEVID1208933830
 70
     0
  0
APPID
  5
494
330
9
100
AcDbSymbolTableRecord
100
AcDbRegAppTableRecord
  2
GEVID1208933831
 70
     0
  0
APPID
  5
495
330
9
100
AcDbSymbolTableRecord
100
AcDbRegAppTableRecord
  2
GEVID1208933832
 70
     0
  0
APPID
  5
496
330
9
100
AcDbSymbolTableRecord
100
AcDbRegAppTableRecord
  2
GEVID1208933833
 70
     0
  0
APPID
  5
497
330
9
100
AcDbSymbolTableRecord
100
AcDbRegAppTableRecord
  2
GEVID1208933834
 70
     0
  0
APPID
  5
498
330
9
100
AcDbSymbolTableRecord
100
AcDbRegAppTableRecord
  2
GEVID1208933835
 70
     0
  0
APPID
  5
499
330
9
100
AcDbSymbolTableRecord
100
AcDbRegAppTableRecord
  2
GEVID1208933836
 70
     0
  0
APPID
  5
49A
330
9
100
AcDbSymbolTableRecord
100
AcDbRegAppTableRecord
  2
GEVID1208933837
 70
     0
  0
APPID
  5
49B
330
9
100
AcDbSymbolTableRecord
100
AcDbRegAppTableRecord
  2
GEVID1208933838
 70
     0
  0
APPID
  5
49C
330
9
100
AcDbSymbolTableRecord
100
AcDbRegAppTableRecord
  2
GEVID1208933840
 70
     0
  0
APPID
  5
49D
330
9
100
AcDbSymbolTableRecord
100
AcDbRegAppTableRecord
  2
GEVID1208933842
 70
     0
  0
APPID
  5
49E
330
9
100
AcDbSymbolTableRecord
100
AcDbRegAppTableRecord
  2
GEVID1208933843
 70
     0
  0
APPID
  5
49F
330
9
100
AcDbSymbolTableRecord
100
AcDbRegAppTableRecord
  2
GEVID1208933844
 70
     0
  0
APPID
  5
4A0
330
9
100
AcDbSymbolTableRecord
100
AcDbRegAppTableRecord
  2
GEVID1208933845
 70
     0
  0
APPID
  5
4A1
330
9
100
AcDbSymbolTableRecord
100
AcDbRegAppTableRecord
  2
GEVID1208933846
 70
     0
  0
APPID
  5
4A2
330
9
100
AcDbSymbolTableRecord
100
AcDbRegAppTableRecord
  2
GEVID1208933847
 70
     0
  0
APPID
  5
4A3
330
9
100
AcDbSymbolTableRecord
100
AcDbRegAppTableRecord
  2
GEVID1208933848
 70
     0
  0
APPID
  5
4A4
330
9
100
AcDbSymbolTableRecord
100
AcDbRegAppTableRecord
  2
GEVID1208933849
 70
     0
  0
APPID
  5
4A5
330
9
100
AcDbSymbolTableRecord
100
AcDbRegAppTableRecord
  2
GEVID1208933850
 70
     0
  0
APPID
  5
4A6
330
9
100
AcDbSymbolTableRecord
100
AcDbRegAppTableRecord
  2
GEVID1208933851
 70
     0
  0
APPID
  5
4A7
330
9
100
AcDbSymbolTableRecord
100
AcDbRegAppTableRecord
  2
GEVID1208933852
 70
     0
  0
APPID
  5
4A8
330
9
100
AcDbSymbolTableRecord
100
AcDbRegAppTableRecord
  2
GEVID1208933853
 70
     0
  0
APPID
  5
4A9
330
9
100
AcDbSymbolTableRecord
100
AcDbRegAppTableRecord
  2
GEVID1208933854
 70
     0
  0
APPID
  5
4AA
330
9
100
AcDbSymbolTableRecord
100
AcDbRegAppTableRecord
  2
GEVID1208933855
 70
     0
  0
APPID
  5
4AB
330
9
100
AcDbSymbolTableRecord
100
AcDbRegAppTableRecord
  2
GEVID1208933856
 70
     0
  0
APPID
  5
4AC
330
9
100
AcDbSymbolTableRecord
100
AcDbRegAppTableRecord
  2
GEVID1208933857
 70
     0
  0
APPID
  5
4AD
330
9
100
AcDbSymbolTableRecord
100
AcDbRegAppTableRecord
  2
GEVID1208933858
 70
     0
  0
APPID
  5
4AE
330
9
100
AcDbSymbolTableRecord
100
AcDbRegAppTableRecord
  2
GEVID1208933859
 70
     0
  0
APPID
  5
4AF
330
9
100
AcDbSymbolTableRecord
100
AcDbRegAppTableRecord
  2
GEVID1208933860
 70
     0
  0
APPID
  5
4B0
330
9
100
AcDbSymbolTableRecord
100
AcDbRegAppTableRecord
  2
GEVID1208933861
 70
     0
  0
APPID
  5
4B1
330
9
100
AcDbSymbolTableRecord
100
AcDbRegAppTableRecord
  2
GEVID1208933862
 70
     0
  0
APPID
  5
4B2
330
9
100
AcDbSymbolTableRecord
100
AcDbRegAppTableRecord
  2
GEVID1208933863
 70
     0
  0
APPID
  5
4B3
330
9
100
AcDbSymbolTableRecord
100
AcDbRegAppTableRecord
  2
GEVID1208933864
 70
     0
  0
APPID
  5
4B4
330
9
100
AcDbSymbolTableRecord
100
AcDbRegAppTableRecord
  2
GEVID1208933865
 70
     0
  0
APPID
  5
4B5
330
9
100
AcDbSymbolTableRecord
100
AcDbRegAppTableRecord
  2
GEVID1208933866
 70
     0
  0
APPID
  5
4B6
330
9
100
AcDbSymbolTableRecord
100
AcDbRegAppTableRecord
  2
GEVID1208933867
 70
     0
  0
APPID
  5
4B7
330
9
100
AcDbSymbolTableRecord
100
AcDbRegAppTableRecord
  2
GEVID1208933868
 70
     0
  0
APPID
  5
4B8
330
9
100
AcDbSymbolTableRecord
100
AcDbRegAppTableRecord
  2
GEVID1208933869
 70
     0
  0
APPID
  5
4B9
330
9
100
AcDbSymbolTableRecord
100
AcDbRegAppTableRecord
  2
GEVID1208933870
 70
     0
  0
APPID
  5
4BA
330
9
100
AcDbSymbolTableRecord
100
AcDbRegAppTableRecord
  2
GEVID1208933871
 70
     0
  0
APPID
  5
4BB
330
9
100
AcDbSymbolTableRecord
100
AcDbRegAppTableRecord
  2
GEVID1208933872
 70
     0
  0
APPID
  5
4BC
330
9
100
AcDbSymbolTableRecord
100
AcDbRegAppTableRecord
  2
GEVID1208933873
 70
     0
  0
APPID
  5
4BD
330
9
100
AcDbSymbolTableRecord
100
AcDbRegAppTableRecord
  2
GEVID1208933874
 70
     0
  0
APPID
  5
4BE
330
9
100
AcDbSymbolTableRecord
100
AcDbRegAppTableRecord
  2
GEVID1208933875
 70
     0
  0
APPID
  5
4BF
330
9
100
AcDbSymbolTableRecord
100
AcDbRegAppTableRecord
  2
GEVID1208933876
 70
     0
  0
APPID
  5
4C0
330
9
100
AcDbSymbolTableRecord
100
AcDbRegAppTableRecord
  2
ACAD_DSTYLE_DIMRADIAL_EXTENSION
 70
     0
  0
APPID
  5
4C1
330
9
100
AcDbSymbolTableRecord
100
AcDbRegAppTableRecord
  2
GEVID1208999100
 70
     0
  0
APPID
  5
4C2
330
9
100
AcDbSymbolTableRecord
100
AcDbRegAppTableRecord
  2
GEVID1208999101
 70
     0
  0
APPID
  5
4C3
330
9
100
AcDbSymbolTableRecord
100
AcDbRegAppTableRecord
  2
GEVID1208999102
 70
     0
  0
APPID
  5
4C4
330
9
100
AcDbSymbolTableRecord
100
AcDbRegAppTableRecord
  2
GEVID1208999103
 70
     0
  0
APPID
  5
4C5
330
9
100
AcDbSymbolTableRecord
100
AcDbRegAppTableRecord
  2
GEVID1208999105
 70
     0
  0
APPID
  5
4C6
330
9
100
AcDbSymbolTableRecord
100
AcDbRegAppTableRecord
  2
GEVID1208999106
 70
     0
  0
APPID
  5
4C7
330
9
100
AcDbSymbolTableRecord
100
AcDbRegAppTableRecord
  2
GEVID1208999108
 70
     0
  0
APPID
  5
4C8
330
9
100
AcDbSymbolTableRecord
100
AcDbRegAppTableRecord
  2
GEVID1208999109
 70
     0
  0
APPID
  5
4C9
330
9
100
AcDbSymbolTableRecord
100
AcDbRegAppTableRecord
  2
GEVID1208999110
 70
     0
  0
APPID
  5
4CA
330
9
100
AcDbSymbolTableRecord
100
AcDbRegAppTableRecord
  2
GEVID1208999111
 70
     0
  0
APPID
  5
4CB
330
9
100
AcDbSymbolTableRecord
100
AcDbRegAppTableRecord
  2
GEVID1208999112
 70
     0
  0
APPID
  5
4CC
330
9
100
AcDbSymbolTableRecord
100
AcDbRegAppTableRecord
  2
GEVID1208999113
 70
     0
  0
APPID
  5
4CD
330
9
100
AcDbSymbolTableRecord
100
AcDbRegAppTableRecord
  2
GEVID1208999114
 70
     0
  0
APPID
  5
4CE
330
9
100
AcDbSymbolTableRecord
100
AcDbRegAppTableRecord
  2
GEVID1210218799
 70
     0
  0
APPID
  5
4CF
330
9
100
AcDbSymbolTableRecord
100
AcDbRegAppTableRecord
  2
GEVID1210218800
 70
     0
  0
APPID
  5
4D0
330
9
100
AcDbSymbolTableRecord
100
AcDbRegAppTableRecord
  2
GENIUS_GEFWELD_13
 70
     0
  0
APPID
  5
4D1
330
9
100
AcDbSymbolTableRecord
100
AcDbRegAppTableRecord
  2
GENIUS_GENOBJ-F-WELS_13
 70
     0
  0
APPID
  5
4D2
330
9
100
AcDbSymbolTableRecord
100
AcDbRegAppTableRecord
  2
AcadAnnotative
 70
     0
  0
APPID
  5
4D3
330
9
100
AcDbSymbolTableRecord
100
AcDbRegAppTableRecord
  2
GEVID1210145339
 70
     0
  0
APPID
  5
4D4
330
9
100
AcDbSymbolTableRecord
100
AcDbRegAppTableRecord
  2
ACAD_DSTYLE_DIMBREAK
 70
     0
  0
APPID
  5
4D5
330
9
100
AcDbSymbolTableRecord
100
AcDbRegAppTableRecord
  2
GEVID1210145340
 70
     0
  0
APPID
  5
4D6
330
9
100
AcDbSymbolTableRecord
100
AcDbRegAppTableRecord
  2
GEVID1210145341
 70
     0
  0
APPID
  5
4D7
330
9
100
AcDbSymbolTableRecord
100
AcDbRegAppTableRecord
  2
GEVID1210145342
 70
     0
  0
APPID
  5
4D8
330
9
100
AcDbSymbolTableRecord
100
AcDbRegAppTableRecord
  2
GEVID1210145343
 70
     0
  0
APPID
  5
4D9
330
9
100
AcDbSymbolTableRecord
100
AcDbRegAppTableRecord
  2
GEVID1210145344
 70
     0
  0
APPID
  5
4DA
330
9
100
AcDbSymbolTableRecord
100
AcDbRegAppTableRecord
  2
GEVID1210145345
 70
     0
  0
APPID
  5
4DB
330
9
100
AcDbSymbolTableRecord
100
AcDbRegAppTableRecord
  2
GEVID1210152816
 70
     0
  0
APPID
  5
4DC
330
9
100
AcDbSymbolTableRecord
100
AcDbRegAppTableRecord
  2
GEVID1210153850
 70
     0
  0
APPID
  5
4DD
330
9
100
AcDbSymbolTableRecord
100
AcDbRegAppTableRecord
  2
GEVID1210153851
 70
     0
  0
APPID
  5
4DE
330
9
100
AcDbSymbolTableRecord
100
AcDbRegAppTableRecord
  2
GEVID1210153852
 70
     0
  0
APPID
  5
4DF
330
9
100
AcDbSymbolTableRecord
100
AcDbRegAppTableRecord
  2
GEVID1210549898
 70
     0
  0
APPID
  5
4E0
330
9
100
AcDbSymbolTableRecord
100
AcDbRegAppTableRecord
  2
GEVID1210549899
 70
     0
  0
APPID
  5
4E1
330
9
100
AcDbSymbolTableRecord
100
AcDbRegAppTableRecord
  2
GEVID1210549900
 70
     0
  0
APPID
  5
4E2
330
9
100
AcDbSymbolTableRecord
100
AcDbRegAppTableRecord
  2
GEVID1210549901
 70
     0
  0
APPID
  5
4E3
330
9
100
AcDbSymbolTableRecord
100
AcDbRegAppTableRecord
  2
GEVID1210549902
 70
     0
  0
APPID
  5
4E4
330
9
100
AcDbSymbolTableRecord
100
AcDbRegAppTableRecord
  2
GEVID1210549903
 70
     0
  0
APPID
  5
4E5
330
9
100
AcDbSymbolTableRecord
100
AcDbRegAppTableRecord
  2
GEVID1210549904
 70
     0
  0
APPID
  5
4E6
330
9
100
AcDbSymbolTableRecord
100
AcDbRegAppTableRecord
  2
GEVID1210549905
 70
     0
  0
APPID
  5
4E7
330
9
100
AcDbSymbolTableRecord
100
AcDbRegAppTableRecord
  2
GEVID1210549906
 70
     0
  0
APPID
  5
4E8
330
9
100
AcDbSymbolTableRecord
100
AcDbRegAppTableRecord
  2
GEVID1210549907
 70
     0
  0
APPID
  5
4E9
330
9
100
AcDbSymbolTableRecord
100
AcDbRegAppTableRecord
  2
GEVID1210549908
 70
     0
  0
APPID
  5
4EA
330
9
100
AcDbSymbolTableRecord
100
AcDbRegAppTableRecord
  2
GEVID1210549909
 70
     0
  0
APPID
  5
4EB
330
9
100
AcDbSymbolTableRecord
100
AcDbRegAppTableRecord
  2
GEVID1210549910
 70
     0
  0
APPID
  5
4EC
330
9
100
AcDbSymbolTableRecord
100
AcDbRegAppTableRecord
  2
GEVID1210549911
 70
     0
  0
APPID
  5
4ED
330
9
100
AcDbSymbolTableRecord
100
AcDbRegAppTableRecord
  2
GEVID1210549912
 70
     0
  0
APPID
  5
4EE
330
9
100
AcDbSymbolTableRecord
100
AcDbRegAppTableRecord
  2
GEVID1210549913
 70
     0
  0
APPID
  5
4EF
330
9
100
AcDbSymbolTableRecord
100
AcDbRegAppTableRecord
  2
GEVID1210549914
 70
     0
  0
APPID
  5
4F0
330
9
100
AcDbSymbolTableRecord
100
AcDbRegAppTableRecord
  2
GEVID1210549915
 70
     0
  0
APPID
  5
4F1
330
9
100
AcDbSymbolTableRecord
100
AcDbRegAppTableRecord
  2
GEVID1210549916
 70
     0
  0
APPID
  5
4F2
330
9
100
AcDbSymbolTableRecord
100
AcDbRegAppTableRecord
  2
GEVID1210549917
 70
     0
  0
APPID
  5
4F3
330
9
100
AcDbSymbolTableRecord
100
AcDbRegAppTableRecord
  2
GENIUS_GENOBJ-N-CRS_13
 70
     0
  0
APPID
  5
4F4
330
9
100
AcDbSymbolTableRecord
100
AcDbRegAppTableRecord
  2
GEVID1210549918
 70
     0
  0
APPID
  5
4F5
330
9
100
AcDbSymbolTableRecord
100
AcDbRegAppTableRecord
  2
GENIUS_GENOBJ-N-CRC_13
 70
     0
  0
APPID
  5
4F6
330
9
100
AcDbSymbolTableRecord
100
AcDbRegAppTableRecord
  2
GENIUS_GENCRC_14
 70
     0
  0
APPID
  5
4F7
330
9
100
AcDbSymbolTableRecord
100
AcDbRegAppTableRecord
  2
GEVID1210549919
 70
     0
  0
APPID
  5
4F8
330
9
100
AcDbSymbolTableRecord
100
AcDbRegAppTableRecord
  2
GEVID1210549921
 70
     0
  0
APPID
  5
4F9
330
9
100
AcDbSymbolTableRecord
100
AcDbRegAppTableRecord
  2
GEVID1210549922
 70
     0
  0
APPID
  5
4FA
330
9
100
AcDbSymbolTableRecord
100
AcDbRegAppTableRecord
  2
GEVID1210635173
 70
     0
  0
APPID
  5
4FB
330
9
100
AcDbSymbolTableRecord
100
AcDbRegAppTableRecord
  2
GEVID1210635174
 70
     0
  0
APPID
  5
4FC
330
9
100
AcDbSymbolTableRecord
100
AcDbRegAppTableRecord
  2
GEVID1210635175
 70
     0
  0
APPID
  5
4FD
330
9
100
AcDbSymbolTableRecord
100
AcDbRegAppTableRecord
  2
GEVID1210635176
 70
     0
  0
APPID
  5
4FE
330
9
100
AcDbSymbolTableRecord
100
AcDbRegAppTableRecord
  2
GEVID1210635177
 70
     0
  0
APPID
  5
4FF
330
9
100
AcDbSymbolTableRecord
100
AcDbRegAppTableRecord
  2
GEVID1210635178
 70
     0
  0
APPID
  5
500
330
9
100
AcDbSymbolTableRecord
100
AcDbRegAppTableRecord
  2
GENIUS_GENIUS_GENBHEDTMP_13
 70
     0
  0
APPID
  5
501
330
9
100
AcDbSymbolTableRecord
100
AcDbRegAppTableRecord
  2
GEVID1210635179
 70
     0
  0
APPID
  5
502
330
9
100
AcDbSymbolTableRecord
100
AcDbRegAppTableRecord
  2
GEVID1210635180
 70
     0
  0
APPID
  5
503
330
9
100
AcDbSymbolTableRecord
100
AcDbRegAppTableRecord
  2
GEVID1210635181
 70
     0
  0
APPID
  5
504
330
9
100
AcDbSymbolTableRecord
100
AcDbRegAppTableRecord
  2
GEVID1210635182
 70
     0
  0
APPID
  5
505
330
9
100
AcDbSymbolTableRecord
100
AcDbRegAppTableRecord
  2
GEVID1210635184
 70
     0
  0
APPID
  5
506
330
9
100
AcDbSymbolTableRecord
100
AcDbRegAppTableRecord
  2
GEVID1210635185
 70
     0
  0
APPID
  5
507
330
9
100
AcDbSymbolTableRecord
100
AcDbRegAppTableRecord
  2
GEVID1210635186
 70
     0
  0
APPID
  5
508
330
9
100
AcDbSymbolTableRecord
100
AcDbRegAppTableRecord
  2
GEVID1210635187
 70
     0
  0
APPID
  5
509
330
9
100
AcDbSymbolTableRecord
100
AcDbRegAppTableRecord
  2
GEVID1210635188
 70
     0
  0
APPID
  5
50A
330
9
100
AcDbSymbolTableRecord
100
AcDbRegAppTableRecord
  2
GEVID1210635189
 70
     0
  0
APPID
  5
50B
330
9
100
AcDbSymbolTableRecord
100
AcDbRegAppTableRecord
  2
GEVID1210635190
 70
     0
  0
APPID
  5
50C
330
9
100
AcDbSymbolTableRecord
100
AcDbRegAppTableRecord
  2
GENIUS_GENREC_14
 70
     0
  0
APPID
  5
50D
330
9
100
AcDbSymbolTableRecord
100
AcDbRegAppTableRecord
  2
GENIUS_GENOBJ-N-REC_13
 70
     0
  0
APPID
  5
50E
330
9
100
AcDbSymbolTableRecord
100
AcDbRegAppTableRecord
  2
GEVID1210676655
 70
     0
  0
APPID
  5
50F
330
9
100
AcDbSymbolTableRecord
100
AcDbRegAppTableRecord
  2
GEVID1210676656
 70
     0
  0
APPID
  5
510
330
9
100
AcDbSymbolTableRecord
100
AcDbRegAppTableRecord
  2
GEVID1210676657
 70
     0
  0
APPID
  5
511
330
9
100
AcDbSymbolTableRecord
100
AcDbRegAppTableRecord
  2
GEVID1210676659
 70
     0
  0
APPID
  5
512
330
9
100
AcDbSymbolTableRecord
100
AcDbRegAppTableRecord
  2
GEVID1210676660
 70
     0
  0
APPID
  5
513
330
9
100
AcDbSymbolTableRecord
100
AcDbRegAppTableRecord
  2
GEVID1210676661
 70
     0
  0
APPID
  5
514
330
9
100
AcDbSymbolTableRecord
100
AcDbRegAppTableRecord
  2
GEVID1210676662
 70
     0
  0
APPID
  5
515
330
9
100
AcDbSymbolTableRecord
100
AcDbRegAppTableRecord
  2
GEVID1210721646
 70
     0
  0
APPID
  5
516
330
9
100
AcDbSymbolTableRecord
100
AcDbRegAppTableRecord
  2
GEVID1210721647
 70
     0
  0
APPID
  5
517
330
9
100
AcDbSymbolTableRecord
100
AcDbRegAppTableRecord
  2
GEVID1210721648
 70
     0
  0
APPID
  5
518
330
9
100
AcDbSymbolTableRecord
100
AcDbRegAppTableRecord
  2
GEVID1210721649
 70
     0
  0
APPID
  5
519
330
9
100
AcDbSymbolTableRecord
100
AcDbRegAppTableRecord
  2
GEVID1210721650
 70
     0
  0
APPID
  5
51A
330
9
100
AcDbSymbolTableRecord
100
AcDbRegAppTableRecord
  2
GEVID1210721651
 70
     0
  0
APPID
  5
51B
330
9
100
AcDbSymbolTableRecord
100
AcDbRegAppTableRecord
  2
GEVID1210721652
 70
     0
  0
APPID
  5
51C
330
9
100
AcDbSymbolTableRecord
100
AcDbRegAppTableRecord
  2
GEVID1210721653
 70
     0
  0
APPID
  5
51D
330
9
100
AcDbSymbolTableRecord
100
AcDbRegAppTableRecord
  2
PE_URL
 70
     0
  0
APPID
  5
51E
330
9
100
AcDbSymbolTableRecord
100
AcDbRegAppTableRecord
  2
GEVID1210825555
 70
     0
  0
APPID
  5
51F
330
9
100
AcDbSymbolTableRecord
100
AcDbRegAppTableRecord
  2
GEVID1210825556
 70
     0
  0
APPID
  5
520
330
9
100
AcDbSymbolTableRecord
100
AcDbRegAppTableRecord
  2
GEVID1210825557
 70
     0
  0
APPID
  5
521
330
9
100
AcDbSymbolTableRecord
100
AcDbRegAppTableRecord
  2
GEVID1210825558
 70
     0
  0
APPID
  5
522
330
9
100
AcDbSymbolTableRecord
100
AcDbRegAppTableRecord
  2
GEVID1210825559
 70
     0
  0
APPID
  5
523
330
9
100
AcDbSymbolTableRecord
100
AcDbRegAppTableRecord
  2
GEVID1210825560
 70
     0
  0
APPID
  5
524
330
9
100
AcDbSymbolTableRecord
100
AcDbRegAppTableRecord
  2
GEVID1210825561
 70
     0
  0
APPID
  5
525
330
9
100
AcDbSymbolTableRecord
100
AcDbRegAppTableRecord
  2
GEVID1210825562
 70
     0
  0
APPID
  5
526
330
9
100
AcDbSymbolTableRecord
100
AcDbRegAppTableRecord
  2
GEVID1210825563
 70
     0
  0
APPID
  5
527
330
9
100
AcDbSymbolTableRecord
100
AcDbRegAppTableRecord
  2
GEVID1210825564
 70
     0
  0
APPID
  5
528
330
9
100
AcDbSymbolTableRecord
100
AcDbRegAppTableRecord
  2
GEVID1210825565
 70
     0
  0
APPID
  5
529
330
9
100
AcDbSymbolTableRecord
100
AcDbRegAppTableRecord
  2
GEVID1210825566
 70
     0
  0
APPID
  5
52A
330
9
100
AcDbSymbolTableRecord
100
AcDbRegAppTableRecord
  2
GEVID1210825567
 70
     0
  0
APPID
  5
52B
330
9
100
AcDbSymbolTableRecord
100
AcDbRegAppTableRecord
  2
GENIUS_GENOBJ-N-ZOO_13
 70
     0
  0
APPID
  5
52C
330
9
100
AcDbSymbolTableRecord
100
AcDbRegAppTableRecord
  2
GENIUS_GENZOO_17
 70
     0
  0
APPID
  5
52D
330
9
100
AcDbSymbolTableRecord
100
AcDbRegAppTableRecord
  2
ACADANNOTATIVEDECOMPOSITION
 70
     0
  0
APPID
  5
52E
330
9
100
AcDbSymbolTableRecord
100
AcDbRegAppTableRecord
  2
GENIUS_GENOBJ-N-HTC_13
 70
     0
  0
APPID
  5
52F
330
9
100
AcDbSymbolTableRecord
100
AcDbRegAppTableRecord
  2
GENIUS_GENHATCH_13
 70
     0
  0
APPID
  5
530
330
9
100
AcDbSymbolTableRecord
100
AcDbRegAppTableRecord
  2
GEVID1210896020
 70
     0
  0
APPID
  5
531
330
9
100
AcDbSymbolTableRecord
100
AcDbRegAppTableRecord
  2
GEVID1210896021
 70
     0
  0
APPID
  5
532
330
9
100
AcDbSymbolTableRecord
100
AcDbRegAppTableRecord
  2
GEVID1209083540
 70
     0
  0
APPID
  5
533
330
9
100
AcDbSymbolTableRecord
100
AcDbRegAppTableRecord
  2
GEVMK
 70
     0
  0
APPID
  5
534
330
9
100
AcDbSymbolTableRecord
100
AcDbRegAppTableRecord
  2
GEVID1209083542
 70
     0
  0
APPID
  5
535
330
9
100
AcDbSymbolTableRecord
100
AcDbRegAppTableRecord
  2
GEVID1209083543
 70
     0
  0
APPID
  5
536
330
9
100
AcDbSymbolTableRecord
100
AcDbRegAppTableRecord
  2
GEVID1209083544
 70
     0
  0
APPID
  5
537
330
9
100
AcDbSymbolTableRecord
100
AcDbRegAppTableRecord
  2
GEVID1209083545
 70
     0
  0
APPID
  5
538
330
9
100
AcDbSymbolTableRecord
100
AcDbRegAppTableRecord
  2
GEVID1209083546
 70
     0
  0
APPID
  5
539
330
9
100
AcDbSymbolTableRecord
100
AcDbRegAppTableRecord
  2
GEVID1209083547
 70
     0
  0
APPID
  5
53A
330
9
100
AcDbSymbolTableRecord
100
AcDbRegAppTableRecord
  2
GEVID1209083548
 70
     0
  0
APPID
  5
53B
330
9
100
AcDbSymbolTableRecord
100
AcDbRegAppTableRecord
  2
GEVID1209083549
 70
     0
  0
APPID
  5
53C
330
9
100
AcDbSymbolTableRecord
100
AcDbRegAppTableRecord
  2
GEVID1209083550
 70
     0
  0
APPID
  5
53D
330
9
100
AcDbSymbolTableRecord
100
AcDbRegAppTableRecord
  2
GEVID1209083551
 70
     0
  0
APPID
  5
53E
330
9
100
AcDbSymbolTableRecord
100
AcDbRegAppTableRecord
  2
GEVID1209083552
 70
     0
  0
APPID
  5
53F
330
9
100
AcDbSymbolTableRecord
100
AcDbRegAppTableRecord
  2
GEVID1209083553
 70
     0
  0
APPID
  5
540
330
9
100
AcDbSymbolTableRecord
100
AcDbRegAppTableRecord
  2
GEVID1210896022
 70
     0
  0
APPID
  5
541
330
9
100
AcDbSymbolTableRecord
100
AcDbRegAppTableRecord
  2
GEVID1211508364
 70
     0
  0
APPID
  5
542
330
9
100
AcDbSymbolTableRecord
100
AcDbRegAppTableRecord
  2
GEVID1211414908
 70
     0
  0
APPID
  5
543
330
9
100
AcDbSymbolTableRecord
100
AcDbRegAppTableRecord
  2
GEVID1211414909
 70
     0
  0
APPID
  5
544
330
9
100
AcDbSymbolTableRecord
100
AcDbRegAppTableRecord
  2
GEVID1211508359
 70
     0
  0
APPID
  5
545
330
9
100
AcDbSymbolTableRecord
100
AcDbRegAppTableRecord
  2
GEVID1211508360
 70
     0
  0
APPID
  5
546
330
9
100
AcDbSymbolTableRecord
100
AcDbRegAppTableRecord
  2
GEVID1211508361
 70
     0
  0
APPID
  5
547
330
9
100
AcDbSymbolTableRecord
100
AcDbRegAppTableRecord
  2
GEVID1211508362
 70
     0
  0
APPID
  5
548
330
9
100
AcDbSymbolTableRecord
100
AcDbRegAppTableRecord
  2
GEVID1211508363
 70
     0
  0
APPID
  5
549
330
9
100
AcDbSymbolTableRecord
100
AcDbRegAppTableRecord
  2
GEVID1211878469
 70
     0
  0
APPID
  5
54A
330
9
100
AcDbSymbolTableRecord
100
AcDbRegAppTableRecord
  2
GEVID1212642819
 70
     0
  0
APPID
  5
54B
330
9
100
AcDbSymbolTableRecord
100
AcDbRegAppTableRecord
  2
GEVID1212642820
 70
     0
  0
APPID
  5
54C
330
9
100
AcDbSymbolTableRecord
100
AcDbRegAppTableRecord
  2
GEVID1212642821
 70
     0
  0
APPID
  5
54D
330
9
100
AcDbSymbolTableRecord
100
AcDbRegAppTableRecord
  2
GEVID1212642822
 70
     0
  0
APPID
  5
54E
330
9
100
AcDbSymbolTableRecord
100
AcDbRegAppTableRecord
  2
GEVID1212642823
 70
     0
  0
APPID
  5
54F
330
9
100
AcDbSymbolTableRecord
100
AcDbRegAppTableRecord
  2
GEVID1212642825
 70
     0
  0
APPID
  5
550
330
9
100
AcDbSymbolTableRecord
100
AcDbRegAppTableRecord
  2
GEVID1212642826
 70
     0
  0
APPID
  5
551
330
9
100
AcDbSymbolTableRecord
100
AcDbRegAppTableRecord
  2
GEVID1212642827
 70
     0
  0
APPID
  5
552
330
9
100
AcDbSymbolTableRecord
100
AcDbRegAppTableRecord
  2
GEVID1212642828
 70
     0
  0
APPID
  5
553
330
9
100
AcDbSymbolTableRecord
100
AcDbRegAppTableRecord
  2
GEVID1212642831
 70
     0
  0
APPID
  5
554
330
9
100
AcDbSymbolTableRecord
100
AcDbRegAppTableRecord
  2
GEVID1212642834
 70
     0
  0
APPID
  5
555
330
9
100
AcDbSymbolTableRecord
100
AcDbRegAppTableRecord
  2
GEVID1212642835
 70
     0
  0
APPID
  5
556
330
9
100
AcDbSymbolTableRecord
100
AcDbRegAppTableRecord
  2
GEVID1212642836
 70
     0
  0
APPID
  5
557
330
9
100
AcDbSymbolTableRecord
100
AcDbRegAppTableRecord
  2
GEVID1212642837
 70
     0
  0
APPID
  5
558
330
9
100
AcDbSymbolTableRecord
100
AcDbRegAppTableRecord
  2
GEVID1212642839
 70
     0
  0
APPID
  5
559
330
9
100
AcDbSymbolTableRecord
100
AcDbRegAppTableRecord
  2
GEVID1212642840
 70
     0
  0
APPID
  5
55A
330
9
100
AcDbSymbolTableRecord
100
AcDbRegAppTableRecord
  2
GEVID1212642841
 70
     0
  0
APPID
  5
55B
330
9
100
AcDbSymbolTableRecord
100
AcDbRegAppTableRecord
  2
GEVID1212655312
 70
     0
  0
APPID
  5
55C
330
9
100
AcDbSymbolTableRecord
100
AcDbRegAppTableRecord
  2
GEVID1212655313
 70
     0
  0
APPID
  5
55D
330
9
100
AcDbSymbolTableRecord
100
AcDbRegAppTableRecord
  2
GEVID1212656533
 70
     0
  0
APPID
  5
55E
330
9
100
AcDbSymbolTableRecord
100
AcDbRegAppTableRecord
  2
GEVID1212656534
 70
     0
  0
APPID
  5
55F
330
9
100
AcDbSymbolTableRecord
100
AcDbRegAppTableRecord
  2
GEVID1212656535
 70
     0
  0
APPID
  5
560
330
9
100
AcDbSymbolTableRecord
100
AcDbRegAppTableRecord
  2
GEVID1212656536
 70
     0
  0
APPID
  5
561
330
9
100
AcDbSymbolTableRecord
100
AcDbRegAppTableRecord
  2
GEVID1212656538
 70
     0
  0
APPID
  5
562
330
9
100
AcDbSymbolTableRecord
100
AcDbRegAppTableRecord
  2
GEVID1212656541
 70
     0
  0
APPID
  5
563
330
9
100
AcDbSymbolTableRecord
100
AcDbRegAppTableRecord
  2
GEVID1212656543
 70
     0
  0
APPID
  5
564
330
9
100
AcDbSymbolTableRecord
100
AcDbRegAppTableRecord
  2
GENIUS_GENOBJ-F-PFASSM_13
 70
     0
  0
APPID
  5
565
330
9
100
AcDbSymbolTableRecord
100
AcDbRegAppTableRecord
  2
GEVID1212656544
 70
     0
  0
APPID
  5
566
330
9
100
AcDbSymbolTableRecord
100
AcDbRegAppTableRecord
  2
GEVID1212656545
 70
     0
  0
APPID
  5
567
330
9
100
AcDbSymbolTableRecord
100
AcDbRegAppTableRecord
  2
GEVID1212656546
 70
     0
  0
APPID
  5
568
330
9
100
AcDbSymbolTableRecord
100
AcDbRegAppTableRecord
  2
GEVID1212656547
 70
     0
  0
APPID
  5
569
330
9
100
AcDbSymbolTableRecord
100
AcDbRegAppTableRecord
  2
GEVID1212656548
 70
     0
  0
APPID
  5
56A
330
9
100
AcDbSymbolTableRecord
100
AcDbRegAppTableRecord
  2
GEVID1212656549
 70
     0
  0
APPID
  5
56B
330
9
100
AcDbSymbolTableRecord
100
AcDbRegAppTableRecord
  2
GEVID1212656550
 70
     0
  0
APPID
  5
56C
330
9
100
AcDbSymbolTableRecord
100
AcDbRegAppTableRecord
  2
GEVID1212656552
 70
     0
  0
APPID
  5
56D
330
9
100
AcDbSymbolTableRecord
100
AcDbRegAppTableRecord
  2
GEVID1212656553
 70
     0
  0
APPID
  5
56E
330
9
100
AcDbSymbolTableRecord
100
AcDbRegAppTableRecord
  2
GEVID1212656554
 70
     0
  0
APPID
  5
56F
330
9
100
AcDbSymbolTableRecord
100
AcDbRegAppTableRecord
  2
GEVID1212656555
 70
     0
  0
APPID
  5
570
330
9
100
AcDbSymbolTableRecord
100
AcDbRegAppTableRecord
  2
GEVID1212656556
 70
     0
  0
APPID
  5
571
330
9
100
AcDbSymbolTableRecord
100
AcDbRegAppTableRecord
  2
GEVID1212656557
 70
     0
  0
APPID
  5
572
330
9
100
AcDbSymbolTableRecord
100
AcDbRegAppTableRecord
  2
GEVID1212656559
 70
     0
  0
APPID
  5
573
330
9
100
AcDbSymbolTableRecord
100
AcDbRegAppTableRecord
  2
GEVID1212656560
 70
     0
  0
APPID
  5
574
330
9
100
AcDbSymbolTableRecord
100
AcDbRegAppTableRecord
  2
GEVID1212656561
 70
     0
  0
APPID
  5
575
330
9
100
AcDbSymbolTableRecord
100
AcDbRegAppTableRecord
  2
GEVID1212656562
 70
     0
  0
APPID
  5
576
330
9
100
AcDbSymbolTableRecord
100
AcDbRegAppTableRecord
  2
GEVID1212656563
 70
     0
  0
APPID
  5
577
330
9
100
AcDbSymbolTableRecord
100
AcDbRegAppTableRecord
  2
GEVID1212711781
 70
     0
  0
APPID
  5
578
330
9
100
AcDbSymbolTableRecord
100
AcDbRegAppTableRecord
  2
GEVID1212711782
 70
     0
  0
APPID
  5
579
330
9
100
AcDbSymbolTableRecord
100
AcDbRegAppTableRecord
  2
GEVID1212711783
 70
     0
  0
APPID
  5
57A
330
9
100
AcDbSymbolTableRecord
100
AcDbRegAppTableRecord
  2
GEVID1212711784
 70
     0
  0
APPID
  5
57B
330
9
100
AcDbSymbolTableRecord
100
AcDbRegAppTableRecord
  2
GEVID1212711788
 70
     0
  0
APPID
  5
57C
330
9
100
AcDbSymbolTableRecord
100
AcDbRegAppTableRecord
  2
GEVID1212711789
 70
     0
  0
APPID
  5
57D
330
9
100
AcDbSymbolTableRecord
100
AcDbRegAppTableRecord
  2
GEVID1212711790
 70
     0
  0
APPID
  5
57E
330
9
100
AcDbSymbolTableRecord
100
AcDbRegAppTableRecord
  2
GEVID1212711791
 70
     0
  0
APPID
  5
57F
330
9
100
AcDbSymbolTableRecord
100
AcDbRegAppTableRecord
  2
GEVID1212711792
 70
     0
  0
APPID
  5
580
330
9
100
AcDbSymbolTableRecord
100
AcDbRegAppTableRecord
  2
GEVID1212711793
 70
     0
  0
APPID
  5
581
330
9
100
AcDbSymbolTableRecord
100
AcDbRegAppTableRecord
  2
GEVID1212711794
 70
     0
  0
APPID
  5
582
330
9
100
AcDbSymbolTableRecord
100
AcDbRegAppTableRecord
  2
GEVID1212711795
 70
     0
  0
APPID
  5
583
330
9
100
AcDbSymbolTableRecord
100
AcDbRegAppTableRecord
  2
GEVID1212711797
 70
     0
  0
APPID
  5
584
330
9
100
AcDbSymbolTableRecord
100
AcDbRegAppTableRecord
  2
GEVID1212711798
 70
     0
  0
APPID
  5
585
330
9
100
AcDbSymbolTableRecord
100
AcDbRegAppTableRecord
  2
GEVID1212711799
 70
     0
  0
APPID
  5
586
330
9
100
AcDbSymbolTableRecord
100
AcDbRegAppTableRecord
  2
GEVID1212711800
 70
     0
  0
APPID
  5
587
330
9
100
AcDbSymbolTableRecord
100
AcDbRegAppTableRecord
  2
GEVID1212711801
 70
     0
  0
APPID
  5
588
330
9
100
AcDbSymbolTableRecord
100
AcDbRegAppTableRecord
  2
GEVID1212711802
 70
     0
  0
APPID
  5
589
330
9
100
AcDbSymbolTableRecord
100
AcDbRegAppTableRecord
  2
GEVID1212711803
 70
     0
  0
APPID
  5
58A
330
9
100
AcDbSymbolTableRecord
100
AcDbRegAppTableRecord
  2
GEVID1212711804
 70
     0
  0
APPID
  5
58B
330
9
100
AcDbSymbolTableRecord
100
AcDbRegAppTableRecord
  2
GEVID1212711805
 70
     0
  0
APPID
  5
58C
330
9
100
AcDbSymbolTableRecord
100
AcDbRegAppTableRecord
  2
GEVID1212711806
 70
     0
  0
APPID
  5
58D
330
9
100
AcDbSymbolTableRecord
100
AcDbRegAppTableRecord
  2
GEVID1212711807
 70
     0
  0
APPID
  5
58E
330
9
100
AcDbSymbolTableRecord
100
AcDbRegAppTableRecord
  2
GEVID1212711808
 70
     0
  0
APPID
  5
58F
330
9
100
AcDbSymbolTableRecord
100
AcDbRegAppTableRecord
  2
GEVID1212711809
 70
     0
  0
APPID
  5
590
330
9
100
AcDbSymbolTableRecord
100
AcDbRegAppTableRecord
  2
GEVID1212711810
 70
     0
  0
APPID
  5
591
330
9
100
AcDbSymbolTableRecord
100
AcDbRegAppTableRecord
  2
GEVID1212711811
 70
     0
  0
APPID
  5
90A
330
9
100
AcDbSymbolTableRecord
100
AcDbRegAppTableRecord
  2
GENIUS_GENTRA_14
 70
     0
  0
APPID
  5
919
330
9
100
AcDbSymbolTableRecord
100
AcDbRegAppTableRecord
  2
GENIUS_GENOBJ-N-TIT_13
 70
     0
  0
APPID
  5
91A
330
9
100
AcDbSymbolTableRecord
100
AcDbRegAppTableRecord
  2
GENIUS_GENTITLE_13
 70
     0
  0
APPID
  5
949
330
9
100
AcDbSymbolTableRecord
100
AcDbRegAppTableRecord
  2
GENIUS_GENBLLY_14
 70
     0
  0
APPID
  5
DDD
330
9
100
AcDbSymbolTableRecord
100
AcDbRegAppTableRecord
  2
GEVID1213165152
 70
     0
  0
APPID
  5
12F9
330
9
100
AcDbSymbolTableRecord
100
AcDbRegAppTableRecord
  2
AcDbDynamicBlockTrueName
 70
     0
  0
APPID
  5
12FA
330
9
100
AcDbSymbolTableRecord
100
AcDbRegAppTableRecord
  2
ACDBBLOCKREPETAG
 70
     0
  0
APPID
  5
1C15
330
9
100
AcDbSymbolTableRecord
100
AcDbRegAppTableRecord
  2
GEVID1214872427
 70
     0
  0
APPID
  5
1C2A
330
9
100
AcDbSymbolTableRecord
100
AcDbRegAppTableRecord
  2
GEVID1214872428
 70
     0
  0
APPID
  5
1C2F
330
9
100
AcDbSymbolTableRecord
100
AcDbRegAppTableRecord
  2
GEVID1214872429
 70
     0
  0
APPID
  5
1C33
330
9
100
AcDbSymbolTableRecord
100
AcDbRegAppTableRecord
  2
GEVID1214872430
 70
     0
  0
APPID
  5
1C3F
330
9
100
AcDbSymbolTableRecord
100
AcDbRegAppTableRecord
  2
GEVID1214872432
 70
     0
  0
APPID
  5
1C4E
330
9
100
AcDbSymbolTableRecord
100
AcDbRegAppTableRecord
  2
GEVID1214872433
 70
     0
  0
APPID
  5
20DC
330
9
100
AcDbSymbolTableRecord
100
AcDbRegAppTableRecord
  2
AcDbDynamicBlockGUID
 70
     0
  0
APPID
  5
20FD
330
9
100
AcDbSymbolTableRecord
100
AcDbRegAppTableRecord
  2
GENIUS_GENOBJ-N-REV_13
 70
     0
  0
APPID
  5
20FE
330
9
100
AcDbSymbolTableRecord
100
AcDbRegAppTableRecord
  2
GENIUS_GENOBJ-N-RSSYM_13
 70
     0
  0
APPID
  5
20FF
330
9
100
AcDbSymbolTableRecord
100
AcDbRegAppTableRecord
  2
GENIUS_GENSYMENT_13
 70
     0
  0
APPID
  5
2100
330
9
100
AcDbSymbolTableRecord
100
AcDbRegAppTableRecord
  2
GENIUS_GENSCSYM_13
 70
     0
  0
APPID
  5
5E2D
330
9
100
AcDbSymbolTableRecord
100
AcDbRegAppTableRecord
  2
GEVID1242353171
 70
     0
  0
APPID
  5
5E32
330
9
100
AcDbSymbolTableRecord
100
AcDbRegAppTableRecord
  2
GEVID1242353172
 70
     0
  0
APPID
  5
5F77
330
9
100
AcDbSymbolTableRecord
100
AcDbRegAppTableRecord
  2
GEVID1242353173
 70
     0
  0
APPID
  5
5F7B
330
9
100
AcDbSymbolTableRecord
100
AcDbRegAppTableRecord
  2
GEVID1242353174
 70
     0
  0
ENDTAB
  0
TABLE
  2
DIMSTYLE
  5
A
330
0
100
AcDbSymbolTable
 70
    29
100
AcDbDimStyleTable
 71
     1
340
5AB
  0
DIMSTYLE
105
5AB
330
A
100
AcDbSymbolTableRecord
100
AcDbDimStyleTableRecord
  2
SEISA
 70
     0
  4
"
 40
5.0
 41
2.5
 42
0.625
 43
10.0
 44
0.625
 47
0.1
 48
0.1
 73
     0
 74
     0
 77
     3
 78
     8
 79
     2
 90
     1
140
3.5
141
0.0
143
0.0393701
146
0.71
147
1.5
172
     1
176
     3
177
     3
178
     3
271
     2
272
     2
283
     0
286
     8
340
5D5
341
69
342
69
371
    -1
372
    -1
1001
ACAD_DSTYLE_DIMJAG
1070
   388
1040
1.5
1001
ACAD_DSTYLE_DIMTALN
1070
   392
1070
     1
  0
DIMSTYLE
105
5E9
102
{ACAD_REACTORS
330
6273
330
62C1
330
62D9
330
62F1
330
6358
330
6428
330
6440
330
653E
330
6592
330
66B2
330
66CA
330
670B
330
6723
330
8777
330
87B4
330
9D06
330
9F8C
330
A05F
330
A089
330
A127
102
}
330
A
100
AcDbSymbolTableRecord
100
AcDbDimStyleTableRecord
  2
SEISA$0
 70
     0
  4
"
 40
5.0
 41
2.5
 42
0.625
 43
10.0
 44
0.625
 47
0.1
 48
0.1
 73
     0
 74
     0
 77
     3
 78
     8
 79
     2
 90
     1
140
3.5
141
0.0
143
0.0393701
146
0.71
147
1.5
172
     1
176
     3
177
     3
178
     3
271
     2
272
     2
283
     0
286
     8
340
5D5
341
69
342
69
371
    -1
372
    -1
  0
DIMSTYLE
105
A46E
330
A
100
AcDbSymbolTableRecord
100
AcDbDimStyleTableRecord
  2
AM_ISO
 70
     0
  4
"
 41
2.5
 42
1.0
 43
10.0
 44
1.0
 47
0.1
 48
0.1
 73
     0
 74
     0
 77
     1
 78
     8
 79
     2
 90
     1
140
3.5
141
0.0
143
0.0393701
146
0.71
147
1.5
172
     1
176
   256
177
   256
178
     2
271
     2
272
     3
274
     4
283
     0
284
     8
340
11
371
    -1
372
    -1
  0
DIMSTYLE
105
A46F
330
A
100
AcDbSymbolTableRecord
100
AcDbDimStyleTableRecord
  2
AM_ISO$3
 70
     0
  4
"
 41
2.5
 42
1.0
 43
10.0
 44
1.0
 47
0.1
 48
0.1
 73
     0
 77
     1
 78
     8
 79
     2
 90
     1
140
3.5
141
0.0
143
0.0393701
146
0.71
147
1.5
176
   256
177
   256
178
     2
271
     2
272
     3
274
     4
283
     0
284
     8
288
     1
289
     0
340
11
371
    -1
372
    -1
  0
DIMSTYLE
105
A470
330
A
100
AcDbSymbolTableRecord
100
AcDbDimStyleTableRecord
  2
AM_ISO$4
 70
     0
  4
"
 41
2.5
 42
1.0
 43
10.0
 44
1.0
 47
0.1
 48
0.1
 73
     0
 77
     1
 78
     8
 79
     2
 90
     1
140
3.5
141
0.0
143
0.0393701
146
0.71
147
1.5
176
   256
177
   256
178
     2
271
     2
272
     3
274
     4
283
     0
284
     8
288
     1
289
     0
340
11
371
    -1
372
    -1
  0
DIMSTYLE
105
A471
330
A
100
AcDbSymbolTableRecord
100
AcDbDimStyleTableRecord
  2
AM_ISO$6
 70
     0
  4
"
 41
2.5
 42
1.0
 43
10.0
 44
1.0
 47
0.1
 48
0.1
 73
     0
 74
     0
 78
     8
 79
     2
 90
     1
140
3.5
141
0.0
143
0.0393701
146
0.71
147
1.5
172
     1
176
   256
177
   256
178
     2
271
     2
272
     3
274
     4
283
     0
284
     8
340
11
371
    -1
372
    -1
  0
DIMSTYLE
105
A472
330
A
100
AcDbSymbolTableRecord
100
AcDbDimStyleTableRecord
  2
AM_ISO$7
 70
     0
  4
"
 41
2.5
 42
1.0
 43
10.0
 44
1.0
 47
0.1
 48
0.1
 73
     0
 74
     0
 77
     1
 78
     8
 79
     2
 90
     1
140
5.0
141
0.0
143
0.0393701
146
0.71
147
1.5
172
     1
176
   256
177
   256
178
     2
271
     2
272
     3
274
     4
283
     0
284
     8
340
11
371
    -1
372
    -1
  0
DIMSTYLE
105
A473
330
A
100
AcDbSymbolTableRecord
100
AcDbDimStyleTableRecord
  2
AM_ISO$SF
 70
     0
  4
"
 41
2.5
 42
1.0
 43
10.0
 44
1.0
 47
0.1
 48
0.1
 73
     0
 74
     0
 75
     1
 76
     1
 77
     1
 78
     8
 79
     2
 90
     1
140
3.5
141
0.0
143
0.0393701
146
0.71
147
1.5
172
     1
176
   256
177
   256
178
     2
271
     2
272
     3
274
     4
283
     0
284
     8
340
11
371
    -1
372
    -1
  0
DIMSTYLE
105
A474
330
A
100
AcDbSymbolTableRecord
100
AcDbDimStyleTableRecord
  2
AM_ISO$SH
 70
     0
  4
"
 41
2.5
 42
1.0
 43
10.0
 44
1.0
 47
0.1
 48
0.1
 73
     0
 74
     0
 75
     1
 76
     1
 77
     1
 78
     8
 79
     2
 90
     1
140
3.5
141
0.0
143
0.0393701
144
2.0
146
0.71
147
1.5
172
     1
173
     1
176
   256
177
   256
178
     2
271
     2
272
     3
274
     4
283
     0
284
     8
340
11
343
74
371
    -1
372
    -1
  0
ENDTAB
  0
TABLE
  2
BLOCK_RECORD
  5
1
330
0
100
AcDbSymbolTable
 70
    49
  0
BLOCK_RECORD
  5
1F
102
{ACAD_XDICTIONARY
360
82
102
}
330
1
100
AcDbSymbolTableRecord
100
AcDbBlockTableRecord
  2
*Model_Space
340
22
 70
     0
280
     1
281
     0
  0
BLOCK_RECORD
  5
1B
330
1
100
AcDbSymbolTableRecord
100
AcDbBlockTableRecord
  2
*Paper_Space
340
1E
 70
     0
280
     1
281
     0
  0
BLOCK_RECORD
  5
23
330
1
100
AcDbSymbolTableRecord
100
AcDbBlockTableRecord
  2
*Paper_Space0
340
26
 70
     0
280
     1
281
     0
  0
BLOCK_RECORD
  5
69
330
1
100
AcDbSymbolTableRecord
100
AcDbBlockTableRecord
  2
_Open30
340
0
102
{BLKREFS
331
928C
331
928D
331
9295
331
9296
331
929E
331
929F
331
92A7
331
92A8
331
92B2
331
92B3
331
92CF
331
92D0
331
92E3
331
92EE
331
92F6
331
92F7
331
92FF
331
9300
331
9310
331
9311
331
9319
331
931A
331
9362
331
936D
331
9E63
331
9E64
331
9FB8
331
9FB9
331
A083
331
A084
331
A0DA
331
A0DB
331
A0EC
331
A0ED
331
A180
331
A181
102
}
 70
     0
280
     1
281
     0
  0
BLOCK_RECORD
  5
74
330
1
100
AcDbSymbolTableRecord
100
AcDbBlockTableRecord
  2
GENAXEH
340
0
 70
     0
280
     1
281
     0
  0
BLOCK_RECORD
  5
43CB
330
1
100
AcDbSymbolTableRecord
100
AcDbBlockTableRecord
  2
GENDOT
340
0
102
{BLKREFS
331
92E2
331
92ED
331
9361
331
936C
102
}
 70
     0
280
     1
281
     0
  0
BLOCK_RECORD
  5
5058
102
{ACAD_XDICTIONARY
360
7420
102
}
330
1
100
AcDbSymbolTableRecord
100
AcDbBlockTableRecord
  2
ロッカクアナツキプラグ-1　R1／4
340
0
310
2800000020000000200000000100080000000000000400000000000000000000000000000000000000000000000080000080000000808000800000008000800080800000C0C0C000C0DCC000F0CAA6000020400000206000002080000020A0000020C0000020E00000400000004020000040400000406000004080000040A0
310
000040C0000040E00000600000006020000060400000606000006080000060A0000060C0000060E00000800000008020000080400000806000008080000080A0000080C0000080E00000A0000000A0200000A0400000A0600000A0800000A0A00000A0C00000A0E00000C0000000C0200000C0400000C0600000C0800000C0
310
A00000C0C00000C0E00000E0000000E0200000E0400000E0600000E0800000E0A00000E0C00000E0E00040000000400020004000400040006000400080004000A0004000C0004000E00040200000402020004020400040206000402080004020A0004020C0004020E000404000004040200040404000404060004040800040
310
40A0004040C0004040E00040600000406020004060400040606000406080004060A0004060C0004060E00040800000408020004080400040806000408080004080A0004080C0004080E00040A0000040A0200040A0400040A0600040A0800040A0A00040A0C00040A0E00040C0000040C0200040C0400040C0600040C08000
310
40C0A00040C0C00040C0E00040E0000040E0200040E0400040E0600040E0800040E0A00040E0C00040E0E00080000000800020008000400080006000800080008000A0008000C0008000E00080200000802020008020400080206000802080008020A0008020C0008020E00080400000804020008040400080406000804080
310
008040A0008040C0008040E00080600000806020008060400080606000806080008060A0008060C0008060E00080800000808020008080400080806000808080008080A0008080C0008080E00080A0000080A0200080A0400080A0600080A0800080A0A00080A0C00080A0E00080C0000080C0200080C0400080C0600080C0
310
800080C0A00080C0C00080C0E00080E0000080E0200080E0400080E0600080E0800080E0A00080E0C00080E0E000C0000000C0002000C0004000C0006000C0008000C000A000C000C000C000E000C0200000C0202000C0204000C0206000C0208000C020A000C020C000C020E000C0400000C0402000C0404000C0406000C0
310
408000C040A000C040C000C040E000C0600000C0602000C0604000C0606000C0608000C060A000C060C000C060E000C0800000C0802000C0804000C0806000C0808000C080A000C080C000C080E000C0A00000C0A02000C0A04000C0A06000C0A08000C0A0A000C0A0C000C0A0E000C0C00000C0C02000C0C04000C0C06000
310
C0C08000C0C0A000F0FBFF00A4A0A000808080000000FF0000FF000000FFFF00FF000000FF00FF00FFFF0000FFFFFF000000000000000000000000000000000000000000000000000000000000000000000000000000000000000000000000F900000000000000000000000000000000000000000000000000000000000000
310
F900000000000000000000000000000000000000000000000000000000000000FEFE000000000000000000000000000000000000000000000000000000FEFEFEF900FEFEFE00000000000000000000000000000000000000000000FEFEFFFFFFFFFFFFFFFFFFFE000000000000000000000000000000000000FEFEFFFF0000
310
00F90000000000FFFEFE000000000000000000000000000000FE00FF0000000000F9000000000000FF00FE00000000000000000000000000FE00FF000000000000F900000000000000FFFFFE000000000000000000000000FEFF00000000000000F90000000000000000FF00FE00000000000000000000FEFF000000000000
310
0000FF000000000000000000FFFE00000000000000000000FEFF000000000000FFFFF9FFFF00000000000000FFFE000000000000000000FEFF000000000000FF0000F90000FFFF000000000000FFFE0000000000000000FEFF0000000000FF000000F900000000FF0000000000FFFE0000000000000000FEFF0000000000FF
310
000000F900000000FF0000000000FFFE00000000000000FE00FF0000000000FF000000F900000000FF0000000000FF00FE00000000F9F9FEF9FFF9F9F9F9F9FFF9F9F9F9F9F9F9F9FFF9F9F9F9F9FFF9FEF9F90000000000FEFF0000000000FF000000F900000000FF0000000000FF00FE00000000000000FEFF0000000000
310
FF000000F900000000FF0000000000FFFE0000000000000000FEFF000000000000FFFF00F90000FFFF000000000000FFFE000000000000000000FEFF00000000000000FFF9FFFF00000000000000FFFE00000000000000000000FEFF0000000000000000FF000000000000000000FFFE0000000000000000000000FEFF0000
310
0000000000F90000000000000000FF00FE0000000000000000000000FE00FF000000000000F90000000000000000FFFE00000000000000000000000000FE00FF0000000000F9000000000000FFFFFE000000000000000000000000000000FE00FF00000000F90000000000FF00FE0000000000000000000000000000000000
310
FEFEFFFFFFFFFFFFFFFFFFFFFEFE000000000000000000000000000000000000000000FEFE00F900FEFEFE0000000000000000000000000000000000000000000000000000FEFEFE000000000000000000000000000000000000000000000000000000000000F9000000000000000000000000000000000000000000000000
310
00000000000000F9000000000000000000000000000000000000000000000000000000000000000000000000000000000000000000000000
102
{BLKREFS
331
51B3
102
}
 70
     4
280
     1
281
     0
  0
BLOCK_RECORD
  5
5080
102
{ACAD_XDICTIONARY
360
5331
102
}
330
1
100
AcDbSymbolTableRecord
100
AcDbBlockTableRecord
  2
ロッカクアナツキプラグ-2　R1／4
340
0
310
2800000020000000200000000100080000000000000400000000000000000000000000000000000000000000000080000080000000808000800000008000800080800000C0C0C000C0DCC000F0CAA6000020400000206000002080000020A0000020C0000020E00000400000004020000040400000406000004080000040A0
310
000040C0000040E00000600000006020000060400000606000006080000060A0000060C0000060E00000800000008020000080400000806000008080000080A0000080C0000080E00000A0000000A0200000A0400000A0600000A0800000A0A00000A0C00000A0E00000C0000000C0200000C0400000C0600000C0800000C0
310
A00000C0C00000C0E00000E0000000E0200000E0400000E0600000E0800000E0A00000E0C00000E0E00040000000400020004000400040006000400080004000A0004000C0004000E00040200000402020004020400040206000402080004020A0004020C0004020E000404000004040200040404000404060004040800040
310
40A0004040C0004040E00040600000406020004060400040606000406080004060A0004060C0004060E00040800000408020004080400040806000408080004080A0004080C0004080E00040A0000040A0200040A0400040A0600040A0800040A0A00040A0C00040A0E00040C0000040C0200040C0400040C0600040C08000
310
40C0A00040C0C00040C0E00040E0000040E0200040E0400040E0600040E0800040E0A00040E0C00040E0E00080000000800020008000400080006000800080008000A0008000C0008000E00080200000802020008020400080206000802080008020A0008020C0008020E00080400000804020008040400080406000804080
310
008040A0008040C0008040E00080600000806020008060400080606000806080008060A0008060C0008060E00080800000808020008080400080806000808080008080A0008080C0008080E00080A0000080A0200080A0400080A0600080A0800080A0A00080A0C00080A0E00080C0000080C0200080C0400080C0600080C0
310
800080C0A00080C0C00080C0E00080E0000080E0200080E0400080E0600080E0800080E0A00080E0C00080E0E000C0000000C0002000C0004000C0006000C0008000C000A000C000C000C000E000C0200000C0202000C0204000C0206000C0208000C020A000C020C000C020E000C0400000C0402000C0404000C0406000C0
310
408000C040A000C040C000C040E000C0600000C0602000C0604000C0606000C0608000C060A000C060C000C060E000C0800000C0802000C0804000C0806000C0808000C080A000C080C000C080E000C0A00000C0A02000C0A04000C0A06000C0A08000C0A0A000C0A0C000C0A0E000C0C00000C0C02000C0C04000C0C06000
310
C0C08000C0C0A000F0FBFF00A4A0A000808080000000FF0000FF000000FFFF00FF000000FF00FF00FFFF0000FFFFFF00000000000000000000000000000000000000000000000000000000000000000000000000000000000000000000000000000000000000000000000000000000000000000000FA000000000000000000
310
0000000000000000000000000000000000000000000000FA0000000000000000000000000000000000000000000000000000000000000000FA00000000000000000000000000000000000000000000000000000000000000FA0000000000000000000000000000000000000000000000000000000000000000FA0000000000
310
00000000000000000000000000000000000000FAFA000000000000FA00000000000000000000000000000000000000000000000000FAFA0000000000FA0000000000000000F90000000000000000000000000000000000FAFAFA000000FA00000000000000F90000000000000000000000000000000000000000FAFA00FA00
310
00000000FEFEF9FEFEFE00000000000000000000000000000000000000FAFAFA0000FEFEFFFFF9FFFFFFFFFE00000000000000000000000000000000000000FAFAFEFFFF0000F900000000FFFEFE000000000000000000000000000000000000FFFF00000000F90000000000FF00FE00000000000000000000000000000000
310
FEFF0000000000F9000000000000FFFE00000000000000000000000000000000FF000000000000FF00000000000000FFFE0000000000000000000000000000FEFF00000000FFFFF9FFFF0000000000FFFE0000000000000000000000000000FF00000000FF0000F90000FFFF000000FFFE000000000000000000000000F9F9
310
F9F9F9F9F9FFF9F9F9F9F9F9FFF9F9F9F9F9F9F9000000000000000000000000FF00000000FF0000F9000000FF000000FFFE0000000000000000000000000000FF00000000FF0000F9000000FF000000FFFE0000000000000000000000000000FEFF00000000FFFFF900FFFF00000000FFFE00000000000000000000000000
310
0000FF000000000000FFFF000000000000FFFE000000000000000000000000000000FEFF0000000000F9000000000000FFFE0000000000000000000000000000000000FEFF00000000F90000000000FF00FE0000000000000000000000000000000000FE00FF000000F900000000FF00FE0000000000000000000000000000
310
0000000000FEFEFFFFFFF9FFFFFFFFFEFE00000000000000000000000000000000000000000000FEFEFEF9FEFEFEFE000000000000000000000000000000000000000000000000000000F900000000000000000000000000000000000000000000000000000000000000F90000000000000000000000000000000000000000
310
0000000000000000000000000000000000000000000000000000000000000000000000000000000000000000000000000000000000000000
102
{BLKREFS
331
5315
102
}
 70
     4
280
     1
281
     0
  0
BLOCK_RECORD
  5
5172
102
{ACAD_XDICTIONARY
360
5255
102
}
330
1
100
AcDbSymbolTableRecord
100
AcDbBlockTableRecord
  2
ケースＡ-1 SAM355
340
0
310
2800000020000000200000000100080000000000000400000000000000000000000000000000000000000000000080000080000000808000800000008000800080800000C0C0C000C0DCC000F0CAA6000020400000206000002080000020A0000020C0000020E00000400000004020000040400000406000004080000040A0
310
000040C0000040E00000600000006020000060400000606000006080000060A0000060C0000060E00000800000008020000080400000806000008080000080A0000080C0000080E00000A0000000A0200000A0400000A0600000A0800000A0A00000A0C00000A0E00000C0000000C0200000C0400000C0600000C0800000C0
310
A00000C0C00000C0E00000E0000000E0200000E0400000E0600000E0800000E0A00000E0C00000E0E00040000000400020004000400040006000400080004000A0004000C0004000E00040200000402020004020400040206000402080004020A0004020C0004020E000404000004040200040404000404060004040800040
310
40A0004040C0004040E00040600000406020004060400040606000406080004060A0004060C0004060E00040800000408020004080400040806000408080004080A0004080C0004080E00040A0000040A0200040A0400040A0600040A0800040A0A00040A0C00040A0E00040C0000040C0200040C0400040C0600040C08000
310
40C0A00040C0C00040C0E00040E0000040E0200040E0400040E0600040E0800040E0A00040E0C00040E0E00080000000800020008000400080006000800080008000A0008000C0008000E00080200000802020008020400080206000802080008020A0008020C0008020E00080400000804020008040400080406000804080
310
008040A0008040C0008040E00080600000806020008060400080606000806080008060A0008060C0008060E00080800000808020008080400080806000808080008080A0008080C0008080E00080A0000080A0200080A0400080A0600080A0800080A0A00080A0C00080A0E00080C0000080C0200080C0400080C0600080C0
310
800080C0A00080C0C00080C0E00080E0000080E0200080E0400080E0600080E0800080E0A00080E0C00080E0E000C0000000C0002000C0004000C0006000C0008000C000A000C000C000C000E000C0200000C0202000C0204000C0206000C0208000C020A000C020C000C020E000C0400000C0402000C0404000C0406000C0
310
408000C040A000C040C000C040E000C0600000C0602000C0604000C0606000C0608000C060A000C060C000C060E000C0800000C0802000C0804000C0806000C0808000C080A000C080C000C080E000C0A00000C0A02000C0A04000C0A06000C0A08000C0A0A000C0A0C000C0A0E000C0C00000C0C02000C0C04000C0C06000
310
C0C08000C0C0A000F0FBFF00A4A0A000808080000000FF0000FF000000FFFF00FF000000FF00FF00FFFF0000FFFFFF0000000000000000000000000000000000000000000000000000000000000000000000000000000000000000FFFF000000000000000000000000000000000000000000000000000000000000FFFF0000
310
00000000000000000000000000000000000000000000000000000000FFFF000000000000000000000000000000000000000000000000000000000000FFFFFFFFFFFFFFFFFF0000000000000000000000000000000000000000000000FFFF000000000000FF0000000000000000000000000000000000000000000000FFFF00
310
0000000000FF0000000000000000000000000000000000000000000000FFFF000000000000FF0000000000000000000000000000000000000000000000FFFF000000000000FF0000000000000000000000000000000000000000000000FFFF000000000000FF0000000000000000000000000000000000000000000000FFFF
310
000000000000FF0000000000000000000000000000000000000000000000F9FF000000000000FF0000000000000000000000000000000000000000000000FFFF000000000000FF0000000000000000000000000000000000000000000000FFFF000000000000FF0000000000000000000000000000000000000000000000FF
310
FF000000000000FF0000000000000000000000000000000000000000000000FFFF000000000000FF0000000000000000000000000000000000000000000000FFFF000000000000FF00000000000000000000000000000000000000000000000000000000000000000000000000000000000000000000000000000000000000
310
00000000000000000000000000000000000000000000000000000000000000000000000000000000000000000000000000000000000000000000000000000000000000000000000000000000000000000000000000000000000000000000000000000000000000000000000000000000000000000000000000000000000000
310
00000000000000FAFA00000000000000000000000000000000000000000000000000000000FAFAFAFAFAFAFAFAFA00000000000000000000000000000000000000000000000000FAFA00FAFAFAFA00000000000000000000000000000000000000000000000000FAFFFFFAFAFAFA0000000000000000000000000000000000
310
00FFFFFFFFFFFFFFA4FFFF00000000000000000000000000000000000000000000FFFFFFFFFFFFFFFFFFFF0000000000000000000000000000000000000000F9FFFFFFFFF9F9F900000000000000000000000000000000000000000000000000FFFFFFFF000000000000000000000000000000000000000000000000000000
310
000000FFFF000000000000000000000000000000000000000000000000000000000000000000000000000000000000000000000000000000
102
{BLKREFS
331
51B4
102
}
 70
     4
280
     1
281
     0
  0
BLOCK_RECORD
  5
52D7
102
{ACAD_XDICTIONARY
360
53B2
102
}
330
1
100
AcDbSymbolTableRecord
100
AcDbBlockTableRecord
  2
ケースＡ-2 SAM355
340
0
310
2800000020000000200000000100080000000000000400000000000000000000000000000000000000000000000080000080000000808000800000008000800080800000C0C0C000C0DCC000F0CAA6000020400000206000002080000020A0000020C0000020E00000400000004020000040400000406000004080000040A0
310
000040C0000040E00000600000006020000060400000606000006080000060A0000060C0000060E00000800000008020000080400000806000008080000080A0000080C0000080E00000A0000000A0200000A0400000A0600000A0800000A0A00000A0C00000A0E00000C0000000C0200000C0400000C0600000C0800000C0
310
A00000C0C00000C0E00000E0000000E0200000E0400000E0600000E0800000E0A00000E0C00000E0E00040000000400020004000400040006000400080004000A0004000C0004000E00040200000402020004020400040206000402080004020A0004020C0004020E000404000004040200040404000404060004040800040
310
40A0004040C0004040E00040600000406020004060400040606000406080004060A0004060C0004060E00040800000408020004080400040806000408080004080A0004080C0004080E00040A0000040A0200040A0400040A0600040A0800040A0A00040A0C00040A0E00040C0000040C0200040C0400040C0600040C08000
310
40C0A00040C0C00040C0E00040E0000040E0200040E0400040E0600040E0800040E0A00040E0C00040E0E00080000000800020008000400080006000800080008000A0008000C0008000E00080200000802020008020400080206000802080008020A0008020C0008020E00080400000804020008040400080406000804080
310
008040A0008040C0008040E00080600000806020008060400080606000806080008060A0008060C0008060E00080800000808020008080400080806000808080008080A0008080C0008080E00080A0000080A0200080A0400080A0600080A0800080A0A00080A0C00080A0E00080C0000080C0200080C0400080C0600080C0
310
800080C0A00080C0C00080C0E00080E0000080E0200080E0400080E0600080E0800080E0A00080E0C00080E0E000C0000000C0002000C0004000C0006000C0008000C000A000C000C000C000E000C0200000C0202000C0204000C0206000C0208000C020A000C020C000C020E000C0400000C0402000C0404000C0406000C0
310
408000C040A000C040C000C040E000C0600000C0602000C0604000C0606000C0608000C060A000C060C000C060E000C0800000C0802000C0804000C0806000C0808000C080A000C080C000C080E000C0A00000C0A02000C0A04000C0A06000C0A08000C0A0A000C0A0C000C0A0E000C0C00000C0C02000C0C04000C0C06000
310
C0C08000C0C0A000F0FBFF00A4A0A000808080000000FF0000FF000000FFFF00FF000000FF00FF00FFFF0000FFFFFF0000000000000000000000000000000000000000000000000000000000000000000000000000000000000000000000000000FFFF00000000000000000000000000000000000000000000000000000000
310
0000FFFF0000000000000000000000000000000000000000000000000000000000F9F9F9F9F9F90000000000000000000000000000000000000000FFFFFFFFFFFFFFFFFF0000000000000000000000000000000000000000000000FF000000000000FFFF0000000000000000000000000000000000000000000000FF000000
310
000000FFFF0000000000000000000000000000000000000000000000FF000000000000FFFF0000000000000000000000000000000000000000000000FF000000000000FFFF0000000000000000000000000000000000000000000000FF000000000000FFFF0000000000000000000000000000000000000000000000FF0000
310
00000000FFFF0000000000000000000000000000000000000000000000FF0000000000FAFAF90000000000000000000000000000000000000000000000FF000000000000FAFF0000000000000000000000000000000000000000000000FF000000000000FFF90000000000000000000000000000000000000000000000FF00
310
0000000000FFFF0000000000000000000000000000000000000000000000FF000000000000FFFF0000000000000000000000000000000000000000000000FF000000000000FFFF0000000000000000000000000000000000000000000000000000000000000000000000000000000000000000000000000000000000000000
310
00000000000000000000000000000000000000000000000000000000000000000000000000000000000000000000000000000000000000000000000000000000000000000000000000000000000000000000000000000000000000000000000000000000000000000000000000000000000000000000000000000000000000
310
000000000000000000000000000000000000000000000000000000000000000000000000000000000000000000000000000000000000000000000000000000000000000000000000000000000000000000000000000000000000000000000000FFFF000000FF00000000000000000000000000000000000000000000000000
310
00FFFFA4FFFFFFFFFFFFFF00000000000000000000000000000000000000000000FFFFFFFFFFFFFFFFFFFF0000000000000000000000000000000000000000000000000000F9F9F9FFFFFFFFF9000000000000000000000000000000000000000000000000000000FFFFFFFF00000000000000000000000000000000000000
310
000000000000000000FFFF000000000000000000000000000000000000000000000000000000000000000000000000000000000000000000
102
{BLKREFS
331
5879
102
}
 70
     4
280
     1
281
     0
  0
BLOCK_RECORD
  5
5704
102
{ACAD_XDICTIONARY
360
5775
102
}
330
1
100
AcDbSymbolTableRecord
100
AcDbBlockTableRecord
  2
センタ-1 SAM355
340
0
310
2800000020000000200000000100080000000000000400000000000000000000000000000000000000000000000080000080000000808000800000008000800080800000C0C0C000C0DCC000F0CAA6000020400000206000002080000020A0000020C0000020E00000400000004020000040400000406000004080000040A0
310
000040C0000040E00000600000006020000060400000606000006080000060A0000060C0000060E00000800000008020000080400000806000008080000080A0000080C0000080E00000A0000000A0200000A0400000A0600000A0800000A0A00000A0C00000A0E00000C0000000C0200000C0400000C0600000C0800000C0
310
A00000C0C00000C0E00000E0000000E0200000E0400000E0600000E0800000E0A00000E0C00000E0E00040000000400020004000400040006000400080004000A0004000C0004000E00040200000402020004020400040206000402080004020A0004020C0004020E000404000004040200040404000404060004040800040
310
40A0004040C0004040E00040600000406020004060400040606000406080004060A0004060C0004060E00040800000408020004080400040806000408080004080A0004080C0004080E00040A0000040A0200040A0400040A0600040A0800040A0A00040A0C00040A0E00040C0000040C0200040C0400040C0600040C08000
310
40C0A00040C0C00040C0E00040E0000040E0200040E0400040E0600040E0800040E0A00040E0C00040E0E00080000000800020008000400080006000800080008000A0008000C0008000E00080200000802020008020400080206000802080008020A0008020C0008020E00080400000804020008040400080406000804080
310
008040A0008040C0008040E00080600000806020008060400080606000806080008060A0008060C0008060E00080800000808020008080400080806000808080008080A0008080C0008080E00080A0000080A0200080A0400080A0600080A0800080A0A00080A0C00080A0E00080C0000080C0200080C0400080C0600080C0
310
800080C0A00080C0C00080C0E00080E0000080E0200080E0400080E0600080E0800080E0A00080E0C00080E0E000C0000000C0002000C0004000C0006000C0008000C000A000C000C000C000E000C0200000C0202000C0204000C0206000C0208000C020A000C020C000C020E000C0400000C0402000C0404000C0406000C0
310
408000C040A000C040C000C040E000C0600000C0602000C0604000C0606000C0608000C060A000C060C000C060E000C0800000C0802000C0804000C0806000C0808000C080A000C080C000C080E000C0A00000C0A02000C0A04000C0A06000C0A08000C0A0A000C0A0C000C0A0E000C0C00000C0C02000C0C04000C0C06000
310
C0C08000C0C0A000F0FBFF00A4A0A000808080000000FF0000FF000000FFFF00FF000000FF00FF00FFFF0000FFFFFF00000000000000000000000000000000000000000000000000000000000000000000000000000000000000000000000000FFFFFFFFFFFFFFFFFFFF000000000000000000000000000000000000000000
310
00000000FF000000000000FF000000000000000000000000000000000000000000000000FF000000000000FF000000000000000000000000000000000000000000000000FF000000000000FF000000000000000000000000000000000000000000000000FF000000000000FF00000000000000000000000000000000000000
310
0000000000FF000000000000FF000000000000000000000000000000000000000000000000FF000000000000FF000000000000000000000000000000000000000000000000FF000000000000FF000000000000000000000000000000000000000000000000FF000000000000FF000000000000000000000000000000000000
310
000000000000FF000000000000FF000000000000000000000000000000000000000000000000FF000000000000FF000000000000000000000000000000000000000000000000FF000000000000FF000000000000000000000000000000000000000000000000FF000000000000FF0000000000000000000000000000000000
310
00000000000000FF000000000000FF00000000000000000000FFA4A4A4A4A40000000000000000FF0000000000FFFF00000000000000000000A4A4A4A4A4000000000000000000000000000000FFFF00000000000000000000FF00000000000000000000000000000000000000FFFF00000000000000000000FF0000000000
310
0000000000000000000000000000FFFF00000000000000000000FF00000000000000000000000000000000000000FFFF00000000000000000000FF00000000000000000000000000000000000000FFFF00000000000000000000FFFFFFFFFFFFFFFFFFFFFFFFFFFFFFFFFFFFFFFFFFFF00000000000000000000FFFFFFFFFF
310
FFFFFFFFFFFFFFFFFFFFFFFFFFFFFFFFFF00000000000000000000FF0000000000000000000000000000000000000000FF00000000000000000000FF0000000000000000000000000000000000000000FF00000000000000000000FF0000000000000000000000000000000000000000FF00000000000000000000FF000000
310
0000000000000000000000000000000000FF00000000000000000000FF0000000000000000000000000000000000000000FF0000000000000000000000FFFFFFFFFFF9FFFFFFFFFFFFFFFFFFFFFFFFFFFF000000000000000000000000000000FFFFF9FFFFFF00000000000000000000000000000000000000000000000000
310
000000F900000000000000000000000000000000000000000000000000000000000000000000000000000000000000000000000000000000
102
{BLKREFS
331
572A
102
}
 70
     4
280
     1
281
     0
  0
BLOCK_RECORD
  5
57B0
102
{ACAD_XDICTIONARY
360
58A2
102
}
330
1
100
AcDbSymbolTableRecord
100
AcDbBlockTableRecord
  2
センタ-2 SAM355
340
0
310
2800000020000000200000000100080000000000000400000000000000000000000000000000000000000000000080000080000000808000800000008000800080800000C0C0C000C0DCC000F0CAA6000020400000206000002080000020A0000020C0000020E00000400000004020000040400000406000004080000040A0
310
000040C0000040E00000600000006020000060400000606000006080000060A0000060C0000060E00000800000008020000080400000806000008080000080A0000080C0000080E00000A0000000A0200000A0400000A0600000A0800000A0A00000A0C00000A0E00000C0000000C0200000C0400000C0600000C0800000C0
310
A00000C0C00000C0E00000E0000000E0200000E0400000E0600000E0800000E0A00000E0C00000E0E00040000000400020004000400040006000400080004000A0004000C0004000E00040200000402020004020400040206000402080004020A0004020C0004020E000404000004040200040404000404060004040800040
310
40A0004040C0004040E00040600000406020004060400040606000406080004060A0004060C0004060E00040800000408020004080400040806000408080004080A0004080C0004080E00040A0000040A0200040A0400040A0600040A0800040A0A00040A0C00040A0E00040C0000040C0200040C0400040C0600040C08000
310
40C0A00040C0C00040C0E00040E0000040E0200040E0400040E0600040E0800040E0A00040E0C00040E0E00080000000800020008000400080006000800080008000A0008000C0008000E00080200000802020008020400080206000802080008020A0008020C0008020E00080400000804020008040400080406000804080
310
008040A0008040C0008040E00080600000806020008060400080606000806080008060A0008060C0008060E00080800000808020008080400080806000808080008080A0008080C0008080E00080A0000080A0200080A0400080A0600080A0800080A0A00080A0C00080A0E00080C0000080C0200080C0400080C0600080C0
310
800080C0A00080C0C00080C0E00080E0000080E0200080E0400080E0600080E0800080E0A00080E0C00080E0E000C0000000C0002000C0004000C0006000C0008000C000A000C000C000C000E000C0200000C0202000C0204000C0206000C0208000C020A000C020C000C020E000C0400000C0402000C0404000C0406000C0
310
408000C040A000C040C000C040E000C0600000C0602000C0604000C0606000C0608000C060A000C060C000C060E000C0800000C0802000C0804000C0806000C0808000C080A000C080C000C080E000C0A00000C0A02000C0A04000C0A06000C0A08000C0A0A000C0A0C000C0A0E000C0C00000C0C02000C0C04000C0C06000
310
C0C08000C0C0A000F0FBFF00A4A0A000808080000000FF0000FF000000FFFF00FF000000FF00FF00FFFF0000FFFFFF0000000000000000000000000000000000000000000000000000000000000000000000000000000000000000000000000000000000FFFFFF000000000000000000000000000000000000000000000000
310
0000000000FF00FF0000000000000000000000000000000000000000000000000000000000FF00FF00000000000000000000000000000000000000000000FFFFFFFFFFFFFFFF00FF00000000000000000000000000000000000000000000FF000000000000FF00FF000000000000000000000000000000FFFFFFFFFFFFFFFF
310
000000000000FF00FF000000000000000000000000000000FF00000000FF00FF000000000000FF00FF000000000000000000000000000000FF00000000FF00FF000000000000FF00FF000000000000000000000000000000FF00000000FF00FF000000000000FF00FF000000000000000000000000000000FF00000000FF00
310
FF000000000000FF00FF000000000000000000000000000000FF00000000FF00FF000000000000FFF9FF000000000000000000000000000000FF00000000FF00FF000000000000F9FFFF000000000000000000000000000000FF00000000FF00FF000000000000FFF9FF000000000000000000000000000000FF00000000FF
310
00FF000000000000FF00FF000000000000000000000000000000FF00000000FF00FF000000000000FF00FF000000000000000000000000000000FF00000000FF00FF00000000A4A4FFA4FF000000000000000000000000000000FF0000000000000000000000000000FF00000000000000000000000000000000FF00000000
310
00000000000000000000FF00000000000000000000000000000000FF0000000000000000000000000000FF00000000000000000000000000000000FFFFFFFFFFFFFFFFFFFFFFFFFFFFFFFF00000000000000000000000000000000FFFFFFFFFFFFFFFFFFFFFFFFFFFFFFFF00000000000000000000000000000000FF000000
310
0000000000000000000000FF00000000000000000000000000000000FF0000000000000000000000000000FF00000000000000000000000000000000FF0000000000000000000000000000FF00000000000000000000000000000000FFFFFFFFFFFFFFFFFFFF00F900FFFFFF00000000000000000000000000000000000000
310
00000000FFFFFFFFFFFFFFFFFFFF00000000000000000000000000000000000000000000FFFFFFFFFFFFFFFF00FF000000000000000000000000000000000000000000000000000000F9F9FFFFFFF9F9F90000000000000000000000000000000000000000000000000000FFFFFF0000000000000000000000000000000000
310
000000000000000000000000FFFFFF0000000000000000000000000000000000000000000000000000000000000000000000000000000000
102
{BLKREFS
331
59A0
102
}
 70
     4
280
     1
281
     0
  0
BLOCK_RECORD
  5
5B19
102
{ACAD_XDICTIONARY
360
5B9B
102
}
330
1
100
AcDbSymbolTableRecord
100
AcDbBlockTableRecord
  2
リーマボルト-1 SAM355 M16
340
0
310
2800000020000000200000000100080000000000000400000000000000000000000000000000000000000000000080000080000000808000800000008000800080800000C0C0C000C0DCC000F0CAA6000020400000206000002080000020A0000020C0000020E00000400000004020000040400000406000004080000040A0
310
000040C0000040E00000600000006020000060400000606000006080000060A0000060C0000060E00000800000008020000080400000806000008080000080A0000080C0000080E00000A0000000A0200000A0400000A0600000A0800000A0A00000A0C00000A0E00000C0000000C0200000C0400000C0600000C0800000C0
310
A00000C0C00000C0E00000E0000000E0200000E0400000E0600000E0800000E0A00000E0C00000E0E00040000000400020004000400040006000400080004000A0004000C0004000E00040200000402020004020400040206000402080004020A0004020C0004020E000404000004040200040404000404060004040800040
310
40A0004040C0004040E00040600000406020004060400040606000406080004060A0004060C0004060E00040800000408020004080400040806000408080004080A0004080C0004080E00040A0000040A0200040A0400040A0600040A0800040A0A00040A0C00040A0E00040C0000040C0200040C0400040C0600040C08000
310
40C0A00040C0C00040C0E00040E0000040E0200040E0400040E0600040E0800040E0A00040E0C00040E0E00080000000800020008000400080006000800080008000A0008000C0008000E00080200000802020008020400080206000802080008020A0008020C0008020E00080400000804020008040400080406000804080
310
008040A0008040C0008040E00080600000806020008060400080606000806080008060A0008060C0008060E00080800000808020008080400080806000808080008080A0008080C0008080E00080A0000080A0200080A0400080A0600080A0800080A0A00080A0C00080A0E00080C0000080C0200080C0400080C0600080C0
310
800080C0A00080C0C00080C0E00080E0000080E0200080E0400080E0600080E0800080E0A00080E0C00080E0E000C0000000C0002000C0004000C0006000C0008000C000A000C000C000C000E000C0200000C0202000C0204000C0206000C0208000C020A000C020C000C020E000C0400000C0402000C0404000C0406000C0
310
408000C040A000C040C000C040E000C0600000C0602000C0604000C0606000C0608000C060A000C060C000C060E000C0800000C0802000C0804000C0806000C0808000C080A000C080C000C080E000C0A00000C0A02000C0A04000C0A06000C0A08000C0A0A000C0A0C000C0A0E000C0C00000C0C02000C0C04000C0C06000
310
C0C08000C0C0A000F0FBFF00A4A0A000808080000000FF0000FF000000FFFF00FF000000FF00FF00FFFF0000FFFFFF0000000000000000000000000000000000000000000000000000000000000000000000000000000000000000000000000000000000000000000000000000000000000000000000000000000000000000
310
00000000000000000000000000000000000000000000000000000000000000000000000000000000000000000000000000000000000000000000000000000000000000000000000000000000000000000000000000000000000000000000000000000000000000000000000000000000000000000000000000000000000000
310
00000000000000000000000000000000000000000000000000000000000000000000000000000000000000000000000000000000000000000000000000000000000000000000000000000000000000000000000000000000000000000000000000000000000000000000000000000000000000000000000000000000000000
310
0000000000000000FFFFFFFFFFFFFF000000000000FFFFFFFF00000000000000000000000000000000FF00000000FF000000000000FF0000FFFF00000000000000000000000000FFFFFF00000000FFFFFF000000FFFF000000FF00000000000000000000000000FFFFFFFFFFFFFFFFFEFEFF0000FFFF000000FF0000000000
310
0000000000000000FFFFFF00000000FF00FFFF0000FFFF000000FF00000000000000000000000000FFFFFF00000000FF00FFFF0000FFFF000000FF00000000000000000000000000FFFFFF00000000FF00FFFF0000FFFF000000FF00000000000000000000000000FFFFFF00000000FF00FFFF0000FFFF000000FF00000000
310
000000000000000000FFFFFFFFFFFFFFFFFEFEFF000000FF0000FFFF00000000000000000000000000FFFFFF00000000FFFFFF00000000FFFFFFFF00000000000000000000000000000000FF00000000FF00000000000000000000000000000000000000000000000000FFFFFFFFFFFFFF0000000000000000000000000000
310
00000000000000000000000000000000000000000000000000000000000000000000000000000000000000000000000000000000000000000000000000000000000000000000000000000000000000000000000000000000000000000000000000000000000000000000000000000000000000000000000000000000000000
310
00000000000000000000000000000000000000000000000000000000000000000000000000000000000000000000000000000000000000000000000000000000000000000000000000000000000000000000000000000000000000000000000000000000000000000000000000000000000000000000000000000000000000
310
0000000000000000000000000000000000000000000000000000000000000000000000000000000000000000000000000000000000000000
102
{BLKREFS
331
5B41
102
}
 70
     4
280
     1
281
     0
  0
BLOCK_RECORD
  5
5BA5
102
{ACAD_XDICTIONARY
360
5C2C
102
}
330
1
100
AcDbSymbolTableRecord
100
AcDbBlockTableRecord
  2
リーマボルト-2 SAM355 M16
340
0
310
2800000020000000200000000100080000000000000400000000000000000000000000000000000000000000000080000080000000808000800000008000800080800000C0C0C000C0DCC000F0CAA6000020400000206000002080000020A0000020C0000020E00000400000004020000040400000406000004080000040A0
310
000040C0000040E00000600000006020000060400000606000006080000060A0000060C0000060E00000800000008020000080400000806000008080000080A0000080C0000080E00000A0000000A0200000A0400000A0600000A0800000A0A00000A0C00000A0E00000C0000000C0200000C0400000C0600000C0800000C0
310
A00000C0C00000C0E00000E0000000E0200000E0400000E0600000E0800000E0A00000E0C00000E0E00040000000400020004000400040006000400080004000A0004000C0004000E00040200000402020004020400040206000402080004020A0004020C0004020E000404000004040200040404000404060004040800040
310
40A0004040C0004040E00040600000406020004060400040606000406080004060A0004060C0004060E00040800000408020004080400040806000408080004080A0004080C0004080E00040A0000040A0200040A0400040A0600040A0800040A0A00040A0C00040A0E00040C0000040C0200040C0400040C0600040C08000
310
40C0A00040C0C00040C0E00040E0000040E0200040E0400040E0600040E0800040E0A00040E0C00040E0E00080000000800020008000400080006000800080008000A0008000C0008000E00080200000802020008020400080206000802080008020A0008020C0008020E00080400000804020008040400080406000804080
310
008040A0008040C0008040E00080600000806020008060400080606000806080008060A0008060C0008060E00080800000808020008080400080806000808080008080A0008080C0008080E00080A0000080A0200080A0400080A0600080A0800080A0A00080A0C00080A0E00080C0000080C0200080C0400080C0600080C0
310
800080C0A00080C0C00080C0E00080E0000080E0200080E0400080E0600080E0800080E0A00080E0C00080E0E000C0000000C0002000C0004000C0006000C0008000C000A000C000C000C000E000C0200000C0202000C0204000C0206000C0208000C020A000C020C000C020E000C0400000C0402000C0404000C0406000C0
310
408000C040A000C040C000C040E000C0600000C0602000C0604000C0606000C0608000C060A000C060C000C060E000C0800000C0802000C0804000C0806000C0808000C080A000C080C000C080E000C0A00000C0A02000C0A04000C0A06000C0A08000C0A0A000C0A0C000C0A0E000C0C00000C0C02000C0C04000C0C06000
310
C0C08000C0C0A000F0FBFF00A4A0A000808080000000FF0000FF000000FFFF00FF000000FF00FF00FFFF0000FFFFFF0000000000000000000000000000000000000000000000000000000000000000000000000000000000000000000000000000000000000000000000000000000000000000000000000000000000000000
310
00000000000000000000000000000000000000000000000000000000000000000000000000000000000000000000000000000000000000000000000000000000000000000000000000000000000000000000000000000000000000000000000000000000000000000000000000000000000000000000000000000000000000
310
00000000000000000000000000000000000000000000000000000000000000000000000000000000000000000000000000000000000000000000000000000000000000000000000000000000000000000000000000000000000000000000000000000000000000000000000000000000000000000000FFFFFFFFFFFFFF0000
310
0000000000000000000000000000000000000000000000FF00000000FF00000000000000000000000000000000FFFFFFFF00000000FFFFFF00000000FFFFFF00000000000000000000000000FFFF0000FF000000FFFEFEFEFFFFFFFFFFFFFF00000000000000000000000000FF000000FFFF0000FFFF00FF00000000FFFFFF
310
00000000000000000000000000FF000000FFFF0000FFFF00FF00000000FFFFFF00000000000000000000000000FF000000FFFF0000FFFF00FF00000000FFFFFF00000000000000000000000000FF000000FFFF0000FFFF00FF00000000FFFFFF00000000000000000000000000FF000000FFFF0000FFFEFEFFFFFFFFFFFFFF
310
FF00000000000000000000000000FF000000FFFF000000FFFFFF00000000FFFFFF00000000000000000000000000FFFF0000FF000000000000FF00000000FF00000000000000000000000000000000FFFFFFFF000000000000FFFFFFFFFFFFFF00000000000000000000000000000000000000000000000000000000000000
310
00000000000000000000000000000000000000000000000000000000000000000000000000000000000000000000000000000000000000000000000000000000000000000000000000000000000000000000000000000000000000000000000000000000000000000000000000000000000000000000000000000000000000
310
00000000000000000000000000000000000000000000000000000000000000000000000000000000000000000000000000000000000000000000000000000000000000000000000000000000000000000000000000000000000000000000000000000000000000000000000000000000000000000000000000000000000000
310
0000000000000000000000000000000000000000000000000000000000000000000000000000000000000000000000000000000000000000
102
{BLKREFS
331
5BCF
102
}
 70
     4
280
     1
281
     0
  0
BLOCK_RECORD
  5
6274
330
1
100
AcDbSymbolTableRecord
100
AcDbBlockTableRecord
  2
*D15
340
0
 70
     0
280
     1
281
     0
  0
BLOCK_RECORD
  5
62C2
330
1
100
AcDbSymbolTableRecord
100
AcDbBlockTableRecord
  2
*D16
340
0
 70
     0
280
     1
281
     0
  0
BLOCK_RECORD
  5
62DA
330
1
100
AcDbSymbolTableRecord
100
AcDbBlockTableRecord
  2
*D17
340
0
 70
     0
280
     1
281
     0
  0
BLOCK_RECORD
  5
62F2
330
1
100
AcDbSymbolTableRecord
100
AcDbBlockTableRecord
  2
*D18
340
0
 70
     0
280
     1
281
     0
  0
BLOCK_RECORD
  5
6359
330
1
100
AcDbSymbolTableRecord
100
AcDbBlockTableRecord
  2
*D19
340
0
 70
     0
280
     1
281
     0
  0
BLOCK_RECORD
  5
6429
330
1
100
AcDbSymbolTableRecord
100
AcDbBlockTableRecord
  2
*D20
340
0
 70
     0
280
     1
281
     0
  0
BLOCK_RECORD
  5
6441
330
1
100
AcDbSymbolTableRecord
100
AcDbBlockTableRecord
  2
*D21
340
0
 70
     0
280
     1
281
     0
  0
BLOCK_RECORD
  5
653F
330
1
100
AcDbSymbolTableRecord
100
AcDbBlockTableRecord
  2
*D22
340
0
 70
     0
280
     1
281
     0
  0
BLOCK_RECORD
  5
6593
330
1
100
AcDbSymbolTableRecord
100
AcDbBlockTableRecord
  2
*D23
340
0
 70
     0
280
     1
281
     0
  0
BLOCK_RECORD
  5
66B3
330
1
100
AcDbSymbolTableRecord
100
AcDbBlockTableRecord
  2
*D24
340
0
 70
     0
280
     1
281
     0
  0
BLOCK_RECORD
  5
66CB
330
1
100
AcDbSymbolTableRecord
100
AcDbBlockTableRecord
  2
*D25
340
0
 70
     0
280
     1
281
     0
  0
BLOCK_RECORD
  5
670C
330
1
100
AcDbSymbolTableRecord
100
AcDbBlockTableRecord
  2
*D26
340
0
 70
     0
280
     1
281
     0
  0
BLOCK_RECORD
  5
6724
330
1
100
AcDbSymbolTableRecord
100
AcDbBlockTableRecord
  2
*D27
340
0
 70
     0
280
     1
281
     0
  0
BLOCK_RECORD
  5
825E
102
{ACAD_XDICTIONARY
360
848B
102
}
330
1
100
AcDbSymbolTableRecord
100
AcDbBlockTableRecord
  2
ＧＣスペーサ SAMY355
340
0
310
2800000020000000200000000100080000000000000400000000000000000000000000000000000000000000000080000080000000808000800000008000800080800000C0C0C000C0DCC000F0CAA6000020400000206000002080000020A0000020C0000020E00000400000004020000040400000406000004080000040A0
310
000040C0000040E00000600000006020000060400000606000006080000060A0000060C0000060E00000800000008020000080400000806000008080000080A0000080C0000080E00000A0000000A0200000A0400000A0600000A0800000A0A00000A0C00000A0E00000C0000000C0200000C0400000C0600000C0800000C0
310
A00000C0C00000C0E00000E0000000E0200000E0400000E0600000E0800000E0A00000E0C00000E0E00040000000400020004000400040006000400080004000A0004000C0004000E00040200000402020004020400040206000402080004020A0004020C0004020E000404000004040200040404000404060004040800040
310
40A0004040C0004040E00040600000406020004060400040606000406080004060A0004060C0004060E00040800000408020004080400040806000408080004080A0004080C0004080E00040A0000040A0200040A0400040A0600040A0800040A0A00040A0C00040A0E00040C0000040C0200040C0400040C0600040C08000
310
40C0A00040C0C00040C0E00040E0000040E0200040E0400040E0600040E0800040E0A00040E0C00040E0E00080000000800020008000400080006000800080008000A0008000C0008000E00080200000802020008020400080206000802080008020A0008020C0008020E00080400000804020008040400080406000804080
310
008040A0008040C0008040E00080600000806020008060400080606000806080008060A0008060C0008060E00080800000808020008080400080806000808080008080A0008080C0008080E00080A0000080A0200080A0400080A0600080A0800080A0A00080A0C00080A0E00080C0000080C0200080C0400080C0600080C0
310
800080C0A00080C0C00080C0E00080E0000080E0200080E0400080E0600080E0800080E0A00080E0C00080E0E000C0000000C0002000C0004000C0006000C0008000C000A000C000C000C000E000C0200000C0202000C0204000C0206000C0208000C020A000C020C000C020E000C0400000C0402000C0404000C0406000C0
310
408000C040A000C040C000C040E000C0600000C0602000C0604000C0606000C0608000C060A000C060C000C060E000C0800000C0802000C0804000C0806000C0808000C080A000C080C000C080E000C0A00000C0A02000C0A04000C0A06000C0A08000C0A0A000C0A0C000C0A0E000C0C00000C0C02000C0C04000C0C06000
310
C0C08000C0C0A000F0FBFF00A4A0A000808080000000FF0000FF000000FFFF00FF000000FF00FF00FFFF0000FFFFFF00000000000000000000000000000000000000000000000000000000000000000000000000FFFFFF0000000000000000000000000000000000FFFFFF000000000000000000FF00FF0000000000000000
310
000000000000000000FF00FF0000000000000000F9F9F9F9F9000000000000000000000000000000F9F9F9F9000000000000000000FF00FF00000000000000000000000000000000FFFF00FF000000000000000000FF00FFFFFFFFFFFFFFFFFFFEFFFFFFFFFFFFFFFFFF00FF000000000000000000FF00FF00000000000000
310
FEFE00000000000000FFFF00FF000000000000000000FF00FF00000000000000FEFE00000000000000FFFF00FF000000000000000000FF00FF00000000000000FEFE00000000000000FFFF00FF000000000000000000FF00FF0000000000000000FE00000000000000FFFF00FF000000000000000000FF00FF000000000000
310
0000FE00000000000000FFFF00FF000000000000000000FF00FF0000000000000000FE00000000000000FFFF00FF000000000000000000FF00FF0000000000000000FE00000000000000FFFF00FF000000000000000000FF00FF00000000000000FEFE00000000000000FFFF00FF000000000000000000FF00FF0000000000
310
000000FE00000000000000FFFF0000000000000000000000FFFFFF0000000000000000FE00000000000000FFFFFFFF00000000000000000000FFFFFF00000000000000FE00000000000000FFFFFF0000000000000000000000FF00FF00000000000000FE00000000000000FF00FF0000000000000000000000FF00FF000000
310
000000FEFE00000000000000FF00FF0000000000000000000000FF00FF00000000000000FE00000000000000FF00FF0000000000000000000000FF00FF00000000000000FE00000000000000FF00FF0000000000000000000000FF00FF00000000000000FE00000000000000FF00FF0000000000000000000000FF00FF0000
310
0000000000FE00000000000000FF00FF0000000000000000000000FF00FF000000000000FEFE00000000000000FF00FF0000000000000000000000FF00FF000000000000FEFE00000000000000FF00FF0000000000000000000000FFFFFFFFFFFFFFFFFFFEFEFFFFFFFFFFFFF9F900FF0000000000000000000000FFF9F9F9
310
FFFFFFFFFFFFFEFFFFFFFFFFFFF9F900FF00000000000000000000FFFFF9F9000000000000000000000000000000F9FFFFFF000000000000000000FFFFFF0000000000000000000000000000000000FFFFFF000000000000000000FFFFFF0000000000000000000000000000000000FFFFFF000000000000000000FFFFFF00
310
00000000000000000000000000000000FFFFFF00000000000000000000000000000000000000000000000000000000000000000000000000
102
{BLKREFS
331
82D7
102
}
 70
     4
280
     1
281
     0
  0
BLOCK_RECORD
  5
8778
330
1
100
AcDbSymbolTableRecord
100
AcDbBlockTableRecord
  2
*D29
340
0
 70
     0
280
     1
281
     0
  0
BLOCK_RECORD
  5
87B5
330
1
100
AcDbSymbolTableRecord
100
AcDbBlockTableRecord
  2
*D30
340
0
 70
     0
280
     1
281
     0
  0
BLOCK_RECORD
  5
9D07
330
1
100
AcDbSymbolTableRecord
100
AcDbBlockTableRecord
  2
*D31
340
0
 70
     0
280
     1
281
     0
  0
BLOCK_RECORD
  5
9F8D
330
1
100
AcDbSymbolTableRecord
100
AcDbBlockTableRecord
  2
*D32
340
0
 70
     0
280
     1
281
     0
  0
BLOCK_RECORD
  5
A060
330
1
100
AcDbSymbolTableRecord
100
AcDbBlockTableRecord
  2
*D33
340
0
 70
     0
280
     1
281
     0
  0
BLOCK_RECORD
  5
A08A
330
1
100
AcDbSymbolTableRecord
100
AcDbBlockTableRecord
  2
*D34
340
0
 70
     0
280
     1
281
     0
  0
BLOCK_RECORD
  5
A128
330
1
100
AcDbSymbolTableRecord
100
AcDbBlockTableRecord
  2
*D35
340
0
 70
     0
280
     1
281
     0
  0
BLOCK_RECORD
  5
A22A
330
1
100
AcDbSymbolTableRecord
100
AcDbBlockTableRecord
  2
ケース
340
0
310
2800000020000000200000000100080000000000000400000000000000000000000000000000000000000000000080000080000000808000800000008000800080800000C0C0C000C0DCC000F0CAA6000020400000206000002080000020A0000020C0000020E00000400000004020000040400000406000004080000040A0
310
000040C0000040E00000600000006020000060400000606000006080000060A0000060C0000060E00000800000008020000080400000806000008080000080A0000080C0000080E00000A0000000A0200000A0400000A0600000A0800000A0A00000A0C00000A0E00000C0000000C0200000C0400000C0600000C0800000C0
310
A00000C0C00000C0E00000E0000000E0200000E0400000E0600000E0800000E0A00000E0C00000E0E00040000000400020004000400040006000400080004000A0004000C0004000E00040200000402020004020400040206000402080004020A0004020C0004020E000404000004040200040404000404060004040800040
310
40A0004040C0004040E00040600000406020004060400040606000406080004060A0004060C0004060E00040800000408020004080400040806000408080004080A0004080C0004080E00040A0000040A0200040A0400040A0600040A0800040A0A00040A0C00040A0E00040C0000040C0200040C0400040C0600040C08000
310
40C0A00040C0C00040C0E00040E0000040E0200040E0400040E0600040E0800040E0A00040E0C00040E0E00080000000800020008000400080006000800080008000A0008000C0008000E00080200000802020008020400080206000802080008020A0008020C0008020E00080400000804020008040400080406000804080
310
008040A0008040C0008040E00080600000806020008060400080606000806080008060A0008060C0008060E00080800000808020008080400080806000808080008080A0008080C0008080E00080A0000080A0200080A0400080A0600080A0800080A0A00080A0C00080A0E00080C0000080C0200080C0400080C0600080C0
310
800080C0A00080C0C00080C0E00080E0000080E0200080E0400080E0600080E0800080E0A00080E0C00080E0E000C0000000C0002000C0004000C0006000C0008000C000A000C000C000C000E000C0200000C0202000C0204000C0206000C0208000C020A000C020C000C020E000C0400000C0402000C0404000C0406000C0
310
408000C040A000C040C000C040E000C0600000C0602000C0604000C0606000C0608000C060A000C060C000C060E000C0800000C0802000C0804000C0806000C0808000C080A000C080C000C080E000C0A00000C0A02000C0A04000C0A06000C0A08000C0A0A000C0A0C000C0A0E000C0C00000C0C02000C0C04000C0C06000
310
C0C08000C0C0A000F0FBFF00A4A0A000808080000000FF0000FF000000FFFF00FF000000FF00FF00FFFF0000FFFFFF0000000000000000000000000000000000000000000000000000000000000000000000000000000000000000000000000000000000000000000000000000000000000000000000000000000000000000
310
00000000000000000000000000000000000000000000000000000000000000000000000000000000000000000000000000000000000000000000000000000000000000000000000000000000000000000000000000000000000000000000000000000000000000000000000000000000000000000000000000000000000000
310
0000000000000000000000000000000000000000000000000000000000000000000000000000000000000000000000000000000000000000000000000000000000000000000000000000000000000000000000FC00FC00000000000000FC00FC00000000000000000000000000000000000000FCFCFC00000000000000FCFC
310
FC00000000000000000000000000000000000000FC00FC00000000000000FC00FC0000000000FCFCFCFCFCFCFCFCFCFCFCFC0000FC00FC00000000000000FC00FC00000000FC0000000000000000000000000000FC00FC00000000000000FC00FC00000000FC0000000000000000000000000000FC0000FCFCFCFCFCFCFCFC
310
00FC000000FCFCFCFCFCFCFCFCFCFCFCFCFCFC0000FC0000000000000000000000FC00000000FC0000000000000000000000000000FC0000000000000000000000FC00000000FC0000000000000000000000000000FC0000000000000000000000FCFCFCFCFCFCFCFCFCFCFCFCFCFCFCFCFCFC0000FC000000000000000000
310
00000000000000000000000000000000000000000000FC0000000000000000000000000000000000000000000000000000000000000000FC0000000000000000000000000000000000000000000000000000000000000000FC0000000000000000000000000000000000000000000000000000000000000000FCFCFCFCFCFC
310
FCFCFCFCFCFCFCFCFCFCFCFCFCFCFCFCFCFCFCFCFC00000000000000000000000000000000000000000000000000000000000000000000000000000000000000000000000000000000000000000000000000000000000000000000000000000000000000000000000000000000000000000000000000000000000000000000
310
00000000000000000000000000000000000000000000000000000000000000000000000000000000000000000000000000000000000000000000000000000000000000000000000000000000000000000000000000000000000000000000000000000000000000000000000000000000000000000000000000000000000000
310
0000000000000000000000000000000000000000000000000000000000000000000000000000000000000000000000000000000000000000
102
{BLKREFS
331
A245
102
}
 70
     4
280
     1
281
     1
  0
BLOCK_RECORD
  5
A39C
330
1
100
AcDbSymbolTableRecord
100
AcDbBlockTableRecord
  2
*S3837
340
0
 70
     0
280
     1
281
     0
  0
BLOCK_RECORD
  5
A3A3
330
1
100
AcDbSymbolTableRecord
100
AcDbBlockTableRecord
  2
*S3938
340
0
 70
     0
280
     1
281
     0
  0
BLOCK_RECORD
  5
A3AA
330
1
100
AcDbSymbolTableRecord
100
AcDbBlockTableRecord
  2
*S4039
340
0
 70
     0
280
     1
281
     0
  0
BLOCK_RECORD
  5
A3B1
330
1
100
AcDbSymbolTableRecord
100
AcDbBlockTableRecord
  2
*S4140
340
0
 70
     0
280
     1
281
     0
  0
BLOCK_RECORD
  5
A3B8
330
1
100
AcDbSymbolTableRecord
100
AcDbBlockTableRecord
  2
*S4241
340
0
 70
     0
280
     1
281
     0
  0
BLOCK_RECORD
  5
A3BF
330
1
100
AcDbSymbolTableRecord
100
AcDbBlockTableRecord
  2
*S4342
340
0
 70
     0
280
     1
281
     0
  0
BLOCK_RECORD
  5
A3C6
330
1
100
AcDbSymbolTableRecord
100
AcDbBlockTableRecord
  2
*S4443
340
0
 70
     0
280
     1
281
     0
  0
BLOCK_RECORD
  5
A3CD
330
1
100
AcDbSymbolTableRecord
100
AcDbBlockTableRecord
  2
*S4544
340
0
 70
     0
280
     1
281
     0
  0
BLOCK_RECORD
  5
A3D4
330
1
100
AcDbSymbolTableRecord
100
AcDbBlockTableRecord
  2
*S4645
340
0
 70
     0
280
     1
281
     0
  0
BLOCK_RECORD
  5
A3DB
330
1
100
AcDbSymbolTableRecord
100
AcDbBlockTableRecord
  2
*S4746
340
0
 70
     0
280
     1
281
     0
  0
BLOCK_RECORD
  5
A3E2
330
1
100
AcDbSymbolTableRecord
100
AcDbBlockTableRecord
  2
*S4847
340
0
 70
     0
280
     1
281
     0
  0
ENDTAB
  0
ENDSEC
  0
SECTION
  2
BLOCKS
  0
BLOCK
  5
20
330
1F
100
AcDbEntity
  8
0
100
AcDbBlockBegin
  2
*Model_Space
 70
     0
 10
0.0
 20
0.0
 30
0.0
  3
*Model_Space
  1

  0
ENDBLK
  5
21
330
1F
100
AcDbEntity
  8
0
100
AcDbBlockEnd
  0
BLOCK
  5
1C
330
1B
100
AcDbEntity
 67
     1
  8
0
100
AcDbBlockBegin
  2
*Paper_Space
 70
     0
 10
0.0
 20
0.0
 30
0.0
  3
*Paper_Space
  1

  0
ENDBLK
  5
1D
330
1B
100
AcDbEntity
 67
     1
  8
0
100
AcDbBlockEnd
  0
BLOCK
  5
24
330
23
100
AcDbEntity
 67
     1
  8
0
100
AcDbBlockBegin
  2
*Paper_Space0
 70
     0
 10
0.0
 20
0.0
 30
0.0
  3
*Paper_Space0
  1

  0
ENDBLK
  5
25
330
23
100
AcDbEntity
 67
     1
  8
0
100
AcDbBlockEnd
  0
BLOCK
  5
6D
330
69
100
AcDbEntity
  8
0
100
AcDbBlockBegin
  2
_Open30
 70
     0
 10
0.0
 20
0.0
 30
0.0
  3
_Open30
  1

  0
LINE
  5
6A
330
69
100
AcDbEntity
  8
0
  6
ByBlock
 62
     0
370
    -2
100
AcDbLine
 10
-1.0
 20
0.26794919
 30
0.0
 11
0.0
 21
0.0
 31
0.0
  0
LINE
  5
6B
330
69
100
AcDbEntity
  8
0
  6
ByBlock
 62
     0
370
    -2
100
AcDbLine
 10
0.0
 20
0.0
 30
0.0
 11
-1.0
 21
-0.26794919
 31
0.0
  0
LINE
  5
6C
330
69
100
AcDbEntity
  8
0
  6
ByBlock
 62
     0
370
    -2
100
AcDbLine
 10
0.0
 20
0.0
 30
0.0
 11
-1.0
 21
0.0
 31
0.0
  0
ENDBLK
  5
6E
330
69
100
AcDbEntity
  8
0
100
AcDbBlockEnd
  0
BLOCK
  5
76
330
74
100
AcDbEntity
  8
0
100
AcDbBlockBegin
  2
GENAXEH
 70
     0
 10
0.0
 20
0.0
 30
0.0
  3
GENAXEH
  1

  0
LINE
  5
75
330
74
100
AcDbEntity
  8
0
100
AcDbLine
 10
-1.0
 20
0.0
 30
0.0
 11
1.0
 21
0.0
 31
0.0
  0
ENDBLK
  5
77
330
74
100
AcDbEntity
  8
0
100
AcDbBlockEnd
  0
BLOCK
  5
43CC
330
43CB
100
AcDbEntity
  8
0
100
AcDbBlockBegin
  2
GENDOT
 70
     0
 10
0.0
 20
0.0
 30
0.0
  3
GENDOT
  1

  0
LINE
  5
43CD
330
43CB
100
AcDbEntity
  8
0
100
AcDbLine
 10
0.0
 20
0.0
 30
0.0
 11
-1.0
 21
0.0
 31
0.0
  0
LWPOLYLINE
  5
43CE
330
43CB
100
AcDbEntity
  8
0
100
AcDbPolyline
 90
        2
 70
     1
 43
0.25
 10
-0.125
 20
0.0
 42
1.0
 10
0.125
 20
0.0
 42
1.0
  0
ENDBLK
  5
43CF
330
43CB
100
AcDbEntity
  8
0
100
AcDbBlockEnd
  0
BLOCK
  5
5059
330
5058
100
AcDbEntity
  8
0
100
AcDbBlockBegin
  2
ロッカクアナツキプラグ-1　R1／4
 70
     0
 10
0.0
 20
0.0
 30
0.0
  3
ロッカクアナツキプラグ-1　R1／4
  1

  0
LINE
  5
505B
330
5058
100
AcDbEntity
  8
AM_7 中心線
100
AcDbLine
 10
8.40497600000026
 20
0.0
 30
0.0
 11
-8.404975999999804
 21
0.0
 31
0.0
  0
LINE
  5
505C
330
5058
100
AcDbEntity
  8
AM_7 中心線
100
AcDbLine
 10
0.0
 20
8.404976000000031
 30
0.0
 11
0.0
 21
-8.404975999999804
 31
0.0
  0
CIRCLE
  5
505D
330
5058
100
AcDbEntity
  8
AM_4 細線
100
AcDbCircle
 10
0.0
 20
0.0
 30
0.0
 40
7.174975999999999
  0
CIRCLE
  5
505E
330
5058
100
AcDbEntity
  8
AM_0 外形線1
100
AcDbCircle
 10
0.0
 20
0.0
 30
0.0
 40
6.504976
  0
LINE
  5
505F
330
5058
100
AcDbEntity
  8
AM_0 外形線1
100
AcDbLine
 10
0.0
 20
-3.014999999999871
 30
0.0
 11
2.611067000000274
 21
-1.507499999999935
 31
0.0
  0
LINE
  5
5060
330
5058
100
AcDbEntity
  8
AM_0 外形線1
100
AcDbLine
 10
-2.611066999999819
 20
-1.507499999999935
 30
0.0
 11
0.0
 21
-3.014999999999871
 31
0.0
  0
LINE
  5
5061
330
5058
100
AcDbEntity
  8
AM_0 外形線1
100
AcDbLine
 10
2.611067000000274
 20
-1.507499999999935
 30
0.0
 11
2.611067000000274
 21
1.507500000000162
 31
0.0
  0
LINE
  5
5062
330
5058
100
AcDbEntity
  8
AM_0 外形線1
100
AcDbLine
 10
-2.611066999999819
 20
1.507500000000162
 30
0.0
 11
-2.611066999999819
 21
-1.507499999999935
 31
0.0
  0
LINE
  5
5063
330
5058
100
AcDbEntity
  8
AM_0 外形線1
100
AcDbLine
 10
0.0
 20
3.014999999999871
 30
0.0
 11
-2.611066999999819
 21
1.507500000000162
 31
0.0
  0
LINE
  5
5064
330
5058
100
AcDbEntity
  8
AM_0 外形線1
100
AcDbLine
 10
2.611067000000274
 20
1.507500000000162
 30
0.0
 11
0.0
 21
3.014999999999871
 31
0.0
  0
ENDBLK
  5
505A
330
5058
100
AcDbEntity
  8
0
100
AcDbBlockEnd
  0
BLOCK
  5
5081
330
5080
100
AcDbEntity
  8
0
100
AcDbBlockBegin
  2
ロッカクアナツキプラグ-2　R1／4
 70
     0
 10
0.0
 20
0.0
 30
0.0
  3
ロッカクアナツキプラグ-2　R1／4
  1

  0
CIRCLE
  5
5083
330
5080
100
AcDbEntity
  8
AM_4 細線
100
AcDbCircle
 10
0.0
 20
0.0
 30
0.0
 40
7.174975999999999
  0
LINE
  5
5084
330
5080
100
AcDbEntity
  8
AM_0 外形線1
100
AcDbLine
 10
0.0
 20
-3.014999999999871
 30
0.0
 11
-2.611066999999819
 21
-1.507499999999935
 31
0.0
  0
CIRCLE
  5
5085
330
5080
100
AcDbEntity
  8
AM_0 外形線1
100
AcDbCircle
 10
0.0
 20
0.0
 30
0.0
 40
6.504976
  0
LINE
  5
5086
330
5080
100
AcDbEntity
  8
AM_7 中心線
100
AcDbLine
 10
-8.404975999999804
 20
0.0
 30
0.0
 11
8.40497600000026
 21
0.0
 31
0.0
  0
LINE
  5
5087
330
5080
100
AcDbEntity
  8
AM_0 外形線1
100
AcDbLine
 10
-2.611066999999819
 20
1.507500000000162
 30
0.0
 11
0.0
 21
3.014999999999871
 31
0.0
  0
LINE
  5
5088
330
5080
100
AcDbEntity
  8
AM_0 外形線1
100
AcDbLine
 10
-2.611066999999819
 20
-1.507499999999935
 30
0.0
 11
-2.611066999999819
 21
1.507500000000162
 31
0.0
  0
LINE
  5
508A
330
5080
100
AcDbEntity
  8
AM_7 中心線
100
AcDbLine
 10
0.0
 20
-8.404975999999804
 30
0.0
 11
0.0
 21
8.404976000000031
 31
0.0
  0
LINE
  5
508B
330
5080
100
AcDbEntity
  8
AM_0 外形線1
100
AcDbLine
 10
2.611066999999819
 20
-1.507499999999935
 30
0.0
 11
0.0
 21
-3.014999999999871
 31
0.0
  0
LINE
  5
508C
330
5080
100
AcDbEntity
  8
AM_0 外形線1
100
AcDbLine
 10
2.611066999999819
 20
1.507500000000162
 30
0.0
 11
2.611066999999819
 21
-1.507499999999935
 31
0.0
  0
LINE
  5
508D
330
5080
100
AcDbEntity
  8
AM_0 外形線1
100
AcDbLine
 10
0.0
 20
3.014999999999871
 30
0.0
 11
2.611066999999819
 21
1.507500000000162
 31
0.0
  0
ENDBLK
  5
5082
330
5080
100
AcDbEntity
  8
0
100
AcDbBlockEnd
  0
BLOCK
  5
5173
330
5172
100
AcDbEntity
  8
0
100
AcDbBlockBegin
  2
ケースＡ-1 SAM355
 70
     0
 10
0.0
 20
0.0
 30
0.0
  3
ケースＡ-1 SAM355
  1

  0
LINE
  5
5175
330
5172
100
AcDbEntity
  8
AM_0 外形線1
100
AcDbLine
 10
21.0
 20
148.0
 30
0.0
 11
21.0
 21
176.5
 31
0.0
  0
LINE
  5
5177
330
5172
100
AcDbEntity
  8
AM_0 外形線1
100
AcDbLine
 10
21.0
 20
-176.4999999999997
 30
0.0
 11
21.0
 21
0.0
 31
0.0
  0
LINE
  5
517A
330
5172
100
AcDbEntity
  8
AM_0 外形線1
100
AcDbLine
 10
1.0
 20
-177.4999999999996
 30
0.0
 11
20.0
 21
-177.4999999999996
 31
0.0
  0
LINE
  5
517B
330
5172
100
AcDbEntity
  8
AM_0 外形線1
100
AcDbLine
 10
0.0
 20
-176.4999999999997
 30
0.0
 11
1.0
 21
-177.4999999999996
 31
0.0
  0
LINE
  5
517C
330
5172
100
AcDbEntity
  8
AM_0 外形線1
100
AcDbLine
 10
20.0
 20
-177.4999999999996
 30
0.0
 11
21.0
 21
-176.4999999999997
 31
0.0
  0
ARC
  5
517D
330
5172
100
AcDbEntity
  8
AM_0 外形線1
100
AcDbCircle
 10
25.0
 20
-147.9999999999997
 30
0.0
 40
4.0
100
AcDbArc
 50
90.0
 51
180.0
  0
ARC
  5
517E
330
5172
100
AcDbEntity
  8
AM_0 外形線1
100
AcDbCircle
 10
104.0
 20
-139.9999999999997
 30
0.0
 40
4.0
100
AcDbArc
 50
270.0
 51
0.0
  0
LINE
  5
517F
330
5172
100
AcDbEntity
  8
AM_0 外形線1
100
AcDbLine
 10
25.0
 20
-143.9999999999997
 30
0.0
 11
104.0
 21
-143.9999999999997
 31
0.0
  0
LINE
  5
5180
330
5172
100
AcDbEntity
  8
AM_0 外形線1
100
AcDbLine
 10
108.0
 20
-139.9999999999997
 30
0.0
 11
108.0
 21
0.0
 31
0.0
  0
LINE
  5
5181
330
5172
100
AcDbEntity
  8
AM_3 隠れ線
100
AcDbLine
 10
83.49999999999999
 20
128.8000000000002
 30
0.0
 11
42.5
 21
128.8000000000002
 31
0.0
  0
LINE
  5
5182
330
5172
100
AcDbEntity
  8
AM_7 中心線
100
AcDbLine
 10
36.0
 20
132.0
 30
0.0
 11
86.5
 21
132.0
 31
0.0
  0
LINE
  5
5183
330
5172
100
AcDbEntity
  8
AM_0 外形線1
100
AcDbLine
 10
38.0
 20
136.0
 30
0.0
 11
84.50000000000001
 21
136.0
 31
0.0
  0
LINE
  5
5184
330
5172
100
AcDbEntity
  8
AM_0 外形線1
100
AcDbLine
 10
25.0
 20
144.0
 30
0.0
 11
104.0
 21
144.0
 31
0.0
  0
LINE
  5
5185
330
5172
100
AcDbEntity
  8
AM_7 中心線
100
AcDbLine
 10
-36.0
 20
162.5
 30
0.0
 11
49.0
 21
162.5
 31
0.0
  0
LWPOLYLINE
  5
5186
330
5172
100
AcDbEntity
  8
AM_0 外形線1
100
AcDbPolyline
 90
       73
 70
     0
 43
0.0
 10
1.350000000000362
 20
142.0
 10
1.467660000000249
 20
142.0083710000001
 10
1.58442500000001
 20
142.0334220000002
 10
1.69940600000018
 20
142.0749630000002
 10
1.811727000000245
 20
142.1326760000001
 10
1.920535000000199
 20
142.206122
 10
2.02500000000009
 20
142.2947440000001
 10
2.124328000000331
 20
142.3978650000001
 10
2.217763000000104
 20
142.5147020000002
 10
2.304594000000179
 20
142.6443650000001
 10
2.384160000000064
 20
142.785867
 10
2.455855000000154
 20
142.9381310000001
 10
2.51913400000012
 20
143.1000000000001
 10
2.57351600000038
 20
143.2702390000001
 10
2.618585000000166
 20
143.4475550000002
 10
2.653999999999995
 20
143.6305980000002
 10
2.679491000000325
 20
143.817974
 10
2.694863000000168
 20
144.0082570000002
 10
2.700000000000271
 20
144.2
 10
2.694863000000168
 20
144.391742
 10
2.679491000000325
 20
144.582026
 10
2.653999999999995
 20
144.769401
 10
2.618585000000166
 20
144.9524440000002
 10
2.57351600000038
 20
145.1297600000002
 10
2.51913400000012
 20
145.3000000000002
 10
2.455855000000154
 20
145.4618680000003
 10
2.384160000000064
 20
145.6141320000001
 10
2.304594000000179
 20
145.7556340000001
 10
2.217763000000104
 20
145.8852970000002
 10
2.124328000000331
 20
146.002134
 10
2.02500000000009
 20
146.1052550000002
 10
1.920535000000199
 20
146.1938770000001
 10
1.811727000000245
 20
146.267323
 10
1.69940600000018
 20
146.3250360000001
 10
1.58442500000001
 20
146.3665770000002
 10
1.467660000000249
 20
146.3916280000003
 10
1.350000000000362
 20
146.4000000000001
 10
1.232340000000021
 20
146.3916280000003
 10
1.115575000000261
 20
146.3665770000002
 10
1.00059400000009
 20
146.3250360000001
 10
0.8882730000000265
 20
146.267323
 10
0.7794650000000729
 20
146.1938770000001
 10
0.6750000000001819
 20
146.1052550000002
 10
0.5756719999999405
 20
146.002134
 10
0.4822370000001685
 20
145.8852970000002
 10
0.3954060000000936
 20
145.7556340000001
 10
0.3158400000002075
 20
145.6141320000001
 10
0.2441450000001168
 20
145.4618680000003
 10
0.1808660000001509
 20
145.3000000000002
 10
0.1264850000002298
 20
145.1297600000002
 10
0.0814150000001064
 20
144.9524440000002
 10
0.0460000000002765
 20
144.769401
 10
0.0205100000002858
 20
144.582026
 10
0.0051370000001043
 20
144.391742
 10
0.0
 20
144.2
 10
0.0051370000001043
 20
144.0082570000002
 10
0.0205100000002858
 20
143.817974
 10
0.0460000000002765
 20
143.6305980000002
 10
0.0814150000001064
 20
143.4475550000002
 10
0.1264850000002298
 20
143.2702390000001
 10
0.1808660000001509
 20
143.1000000000001
 10
0.2441450000001168
 20
142.9381310000001
 10
0.3158400000002075
 20
142.785867
 10
0.3954060000000936
 20
142.6443650000001
 10
0.4822370000001685
 20
142.5147020000002
 10
0.5756719999999405
 20
142.3978650000001
 10
0.6750000000001819
 20
142.2947440000001
 10
0.7794650000000729
 20
142.206122
 10
0.8882730000000265
 20
142.1326760000001
 10
1.00059400000009
 20
142.0749630000002
 10
1.115575000000261
 20
142.0334220000002
 10
1.232340000000021
 20
142.0083710000001
 10
1.350000000000362
 20
142.0
  0
ARC
  5
5187
330
5172
100
AcDbEntity
  8
AM_0 外形線1
100
AcDbCircle
 10
2.200000000000271
 20
145.9000000000001
 30
0.0
 40
0.5
100
AcDbArc
 50
0.0
 51
90.0
  0
ARC
  5
5188
330
5172
100
AcDbEntity
  8
AM_0 外形線1
100
AcDbCircle
 10
2.200000000000271
 20
142.5
 30
0.0
 40
0.5
100
AcDbArc
 50
270.0
 51
0.0
  0
LINE
  5
5189
330
5172
100
AcDbEntity
  8
AM_0 外形線1
100
AcDbLine
 10
37.0
 20
137.0
 30
0.0
 11
-5.0
 21
137.0
 31
0.0
  0
LINE
  5
518B
330
5172
100
AcDbEntity
  8
AM_0 外形線1
100
AcDbLine
 10
-5.0
 20
137.0
 30
0.0
 11
-5.0
 21
141.5
 31
0.0
  0
LINE
  5
518D
330
5172
100
AcDbEntity
  8
AM_0 外形線1
100
AcDbLine
 10
0.0
 20
146.4000000000001
 30
0.0
 11
0.0
 21
153.5
 31
0.0
  0
LINE
  5
518E
330
5172
100
AcDbEntity
  8
AM_0 外形線1
100
AcDbLine
 10
2.200000000000271
 20
146.4000000000001
 30
0.0
 11
0.0
 21
146.4000000000001
 31
0.0
  0
LINE
  5
518F
330
5172
100
AcDbEntity
  8
AM_0 外形線1
100
AcDbLine
 10
-4.5
 20
142.0
 30
0.0
 11
2.200000000000271
 21
142.0
 31
0.0
  0
LINE
  5
5190
330
5172
100
AcDbEntity
  8
AM_0 外形線1
100
AcDbLine
 10
-5.0
 20
141.5
 30
0.0
 11
-4.5
 21
142.0
 31
0.0
  0
ARC
  5
5191
330
5172
100
AcDbEntity
  8
AM_0 外形線1
100
AcDbCircle
 10
37.0
 20
136.0
 30
0.0
 40
1.0
100
AcDbArc
 50
0.0
 51
90.0
  0
LINE
  5
5193
330
5172
100
AcDbEntity
  8
AM_0 外形線1
100
AcDbLine
 10
39.0
 20
128.8000000000002
 30
0.0
 11
38.0
 21
129.8000000000002
 31
0.0
  0
LINE
  5
5194
330
5172
100
AcDbEntity
  8
AM_0 外形線1
100
AcDbLine
 10
42.5
 20
128.8000000000002
 30
0.0
 11
39.0
 21
128.8000000000002
 31
0.0
  0
LINE
  5
5195
330
5172
100
AcDbEntity
  8
AM_0 外形線1
100
AcDbLine
 10
38.0
 20
129.8000000000002
 30
0.0
 11
38.0
 21
136.0
 31
0.0
  0
ARC
  5
5196
330
5172
100
AcDbEntity
  8
AM_0 外形線1
100
AcDbCircle
 10
25.0
 20
148.0
 30
0.0
 40
4.0
100
AcDbArc
 50
180.0
 51
270.0
  0
LINE
  5
5197
330
5172
100
AcDbEntity
  8
AM_0 外形線1
100
AcDbLine
 10
2.700000000000271
 20
142.5
 30
0.0
 11
2.700000000000271
 21
145.9000000000001
 31
0.0
  0
ARC
  5
5199
330
5172
100
AcDbEntity
  8
AM_0 外形線1
100
AcDbCircle
 10
85.5
 20
136.0
 30
0.0
 40
1.0
100
AcDbArc
 50
90.0
 51
180.0
  0
LINE
  5
519A
330
5172
100
AcDbEntity
  8
AM_3 隠れ線
100
AcDbLine
 10
84.50000000000001
 20
129.8000000000002
 30
0.0
 11
83.49999999999999
 21
128.8000000000002
 31
0.0
  0
LINE
  5
519B
330
5172
100
AcDbEntity
  8
AM_0 外形線1
100
AcDbLine
 10
108.0
 20
140.0
 30
0.0
 11
108.0
 21
126.5
 31
0.0
  0
ARC
  5
519C
330
5172
100
AcDbEntity
  8
AM_0 外形線1
100
AcDbCircle
 10
104.6000000000003
 20
131.4000000000001
 30
0.0
 40
0.5
100
AcDbArc
 50
0.0
 51
90.0
  0
LWPOLYLINE
  5
519D
330
5172
100
AcDbEntity
  8
AM_0 外形線1
100
AcDbPolyline
 90
       73
 70
     0
 43
0.0
 10
93.90000000000007
 20
128.45
 10
93.92131000000018
 20
128.1493120000002
 10
93.98507700000029
 20
127.8509130000002
 10
94.09081500000002
 20
127.557074
 10
94.23772100000041
 20
127.2700300000001
 10
94.42467600000007
 20
126.9919670000001
 10
94.65025800000013
 20
126.7250000000001
 10
94.91274900000007
 20
126.4711610000001
 10
95.2101510000002
 20
126.2323820000001
 10
95.54020200000014
 20
126.0104810000002
 10
95.90038900000037
 20
125.8071460000001
 10
96.28797200000008
 20
125.6239250000001
 10
96.7000000000003
 20
125.4622120000001
 10
97.13333800000008
 20
125.3232380000002
 10
97.58468700000005
 20
125.2080600000001
 10
98.05061300000032
 20
125.1175550000002
 10
98.52757000000021
 20
125.0524130000001
 10
99.01192800000037
 20
125.0131280000003
 10
99.50000000000001
 20
125.0
 10
99.9880720000001
 20
125.0131280000003
 10
100.4724300000002
 20
125.0524130000001
 10
100.9493870000001
 20
125.1175550000002
 10
101.4153130000004
 20
125.2080600000001
 10
101.8666620000003
 20
125.3232380000002
 10
102.3000000000002
 20
125.4622120000001
 10
102.7120279999999
 20
125.6239250000001
 10
103.0996110000001
 20
125.8071460000001
 10
103.4597979999998
 20
126.0104810000002
 10
103.7898490000002
 20
126.2323820000001
 10
104.0872509999999
 20
126.4711610000001
 10
104.3497420000003
 20
126.7250000000001
 10
104.5753240000003
 20
126.9919670000001
 10
104.762279
 20
127.2700300000001
 10
104.9091849999999
 20
127.557074
 10
105.0149230000002
 20
127.8509130000002
 10
105.0786900000002
 20
128.1493120000002
 10
105.1000000000003
 20
128.45
 10
105.0786900000002
 20
128.7506870000002
 10
105.0149230000002
 20
129.0490860000002
 10
104.9091849999999
 20
129.3429250000001
 10
104.762279
 20
129.6299690000003
 10
104.5753240000003
 20
129.9080330000001
 10
104.3497420000003
 20
130.1750000000001
 10
104.0872509999999
 20
130.4288380000002
 10
103.7898490000002
 20
130.667617
 10
103.4597979999998
 20
130.8895180000002
 10
103.0996110000001
 20
131.0928530000001
 10
102.7120279999999
 20
131.2760740000001
 10
102.3000000000002
 20
131.4377870000003
 10
101.8666620000003
 20
131.5767610000002
 10
101.4153130000004
 20
131.691939
 10
100.9493870000001
 20
131.782444
 10
100.4724300000002
 20
131.8475860000003
 10
99.9880720000001
 20
131.8868710000001
 10
99.50000000000001
 20
131.9000000000001
 10
99.01192800000037
 20
131.8868710000001
 10
98.52757000000021
 20
131.8475860000003
 10
98.05061300000032
 20
131.782444
 10
97.58468700000005
 20
131.691939
 10
97.13333800000008
 20
131.5767610000002
 10
96.7000000000003
 20
131.4377870000003
 10
96.28797200000008
 20
131.2760740000001
 10
95.90038900000037
 20
131.0928530000001
 10
95.54020200000014
 20
130.8895180000002
 10
95.2101510000002
 20
130.667617
 10
94.91274900000007
 20
130.4288380000002
 10
94.65025800000013
 20
130.1750000000001
 10
94.42467600000007
 20
129.9080330000001
 10
94.23772100000041
 20
129.6299690000003
 10
94.09081500000002
 20
129.3429250000001
 10
93.98507700000029
 20
129.0490860000002
 10
93.92131000000018
 20
128.7506870000002
 10
93.90000000000007
 20
128.45
  0
LINE
  5
519E
330
5172
100
AcDbEntity
  8
AM_0 外形線1
100
AcDbLine
 10
84.50000000000001
 20
133.943355
 30
0.0
 11
84.50000000000001
 21
136.0
 31
0.0
  0
LINE
  5
519F
330
5172
100
AcDbEntity
  8
AM_0 外形線1
100
AcDbLine
 10
90.0
 20
137.0
 30
0.0
 11
85.5
 21
137.0
 31
0.0
  0
ARC
  5
51A0
330
5172
100
AcDbEntity
  8
AM_0 外形線1
100
AcDbCircle
 10
90.0
 20
136.0
 30
0.0
 40
1.0
100
AcDbArc
 50
0.0
 51
90.0
  0
LINE
  5
51A1
330
5172
100
AcDbEntity
  8
AM_0 外形線1
100
AcDbLine
 10
93.90000000000007
 20
131.4000000000001
 30
0.0
 11
93.90000000000007
 21
126.5
 31
0.0
  0
LINE
  5
51A2
330
5172
100
AcDbEntity
  8
AM_0 外形線1
100
AcDbLine
 10
93.90000000000007
 20
126.5
 30
0.0
 11
91.0
 21
126.5
 31
0.0
  0
LINE
  5
51A3
330
5172
100
AcDbEntity
  8
AM_0 外形線1
100
AcDbLine
 10
93.90000000000007
 20
126.5
 30
0.0
 11
93.90000000000007
 21
125.0
 31
0.0
  0
LINE
  5
51A4
330
5172
100
AcDbEntity
  8
AM_0 外形線1
100
AcDbLine
 10
91.0
 20
126.5
 30
0.0
 11
91.0
 21
125.0
 31
0.0
  0
ARC
  5
51A5
330
5172
100
AcDbEntity
  8
AM_0 外形線1
100
AcDbCircle
 10
94.4000000000001
 20
131.4000000000001
 30
0.0
 40
0.5
100
AcDbArc
 50
90.0
 51
180.0
  0
LINE
  5
51A6
330
5172
100
AcDbEntity
  8
AM_3 隠れ線
100
AcDbLine
 10
84.50000000000001
 20
133.943355
 30
0.0
 11
84.50000000000001
 21
129.8000000000002
 31
0.0
  0
LINE
  5
51A7
330
5172
100
AcDbEntity
  8
AM_0 外形線1
100
AcDbLine
 10
91.0
 20
126.5
 30
0.0
 11
91.0
 21
136.0
 31
0.0
  0
LINE
  5
51A8
330
5172
100
AcDbEntity
  8
AM_0 外形線1
100
AcDbLine
 10
104.6000000000003
 20
131.9000000000001
 30
0.0
 11
94.4000000000001
 21
131.9000000000001
 31
0.0
  0
LINE
  5
51A9
330
5172
100
AcDbEntity
  8
AM_0 外形線1
100
AcDbLine
 10
105.1000000000003
 20
126.5
 30
0.0
 11
105.1000000000003
 21
131.4000000000001
 31
0.0
  0
LINE
  5
51AA
330
5172
100
AcDbEntity
  8
AM_0 外形線1
100
AcDbLine
 10
108.0
 20
126.5
 30
0.0
 11
105.1000000000003
 21
126.5
 31
0.0
  0
LINE
  5
51AB
330
5172
100
AcDbEntity
  8
AM_0 外形線1
100
AcDbLine
 10
108.0
 20
126.5
 30
0.0
 11
108.0
 21
125.0
 31
0.0
  0
LINE
  5
51AC
330
5172
100
AcDbEntity
  8
AM_0 外形線1
100
AcDbLine
 10
105.1000000000003
 20
126.5
 30
0.0
 11
105.1000000000003
 21
125.0
 31
0.0
  0
ARC
  5
51AD
330
5172
100
AcDbEntity
  8
AM_0 外形線1
100
AcDbCircle
 10
104.0
 20
140.0
 30
0.0
 40
4.0
100
AcDbArc
 50
0.0
 51
90.0
  0
LINE
  5
51AF
330
5172
100
AcDbEntity
  8
AM_0 外形線1
100
AcDbLine
 10
1.0
 20
177.5
 30
0.0
 11
20.0
 21
177.5
 31
0.0
  0
LINE
  5
51B0
330
5172
100
AcDbEntity
  8
AM_0 外形線1
100
AcDbLine
 10
0.0
 20
176.5
 30
0.0
 11
1.0
 21
177.5
 31
0.0
  0
LINE
  5
51B2
330
5172
100
AcDbEntity
  8
AM_0 外形線1
100
AcDbLine
 10
20.0
 20
177.5
 30
0.0
 11
21.0
 21
176.5
 31
0.0
  0
INSERT
  5
51B3
330
5172
100
AcDbEntity
  8
AM_0 外形線1
100
AcDbBlockReference
  2
ロッカクアナツキプラグ-1　R1／4
 10
10.5
 20
-42.05809499999985
 30
0.0
  0
LINE
  5
5251
330
5172
100
AcDbEntity
  8
AM_0 外形線1
100
AcDbLine
 10
0.0
 20
153.5
 30
0.0
 11
21.0
 21
153.5
 31
0.0
  0
LINE
  5
5252
330
5172
100
AcDbEntity
  8
AM_0 外形線1
100
AcDbLine
 10
0.0
 20
171.5
 30
0.0
 11
21.0
 21
171.5
 31
0.0
  0
LINE
  5
5253
330
5172
100
AcDbEntity
  8
AM_0 外形線1
100
AcDbLine
 10
0.0
 20
176.5
 30
0.0
 11
0.0
 21
171.5
 31
0.0
  0
LINE
  5
5254
330
5172
100
AcDbEntity
  8
AM_0 外形線1
100
AcDbLine
 10
0.0
 20
-176.4999999999997
 30
0.0
 11
0.0
 21
0.0
 31
0.0
  0
ENDBLK
  5
5174
330
5172
100
AcDbEntity
  8
0
100
AcDbBlockEnd
  0
BLOCK
  5
52D8
330
52D7
100
AcDbEntity
  8
0
100
AcDbBlockBegin
  2
ケースＡ-2 SAM355
 70
     0
 10
0.0
 20
0.0
 30
0.0
  3
ケースＡ-2 SAM355
  1

  0
LINE
  5
52DA
330
52D7
100
AcDbEntity
  8
AM_0 外形線1
100
AcDbLine
 10
-21.0
 20
148.0
 30
0.0
 11
-21.0
 21
176.5
 31
0.0
  0
LINE
  5
52DB
330
52D7
100
AcDbEntity
  8
AM_3 隠れ線
100
AcDbLine
 10
-83.49999999999999
 20
128.8000000000002
 30
0.0
 11
-42.5
 21
128.8000000000002
 31
0.0
  0
LINE
  5
52DC
330
52D7
100
AcDbEntity
  8
AM_7 中心線
100
AcDbLine
 10
-36.0
 20
132.0
 30
0.0
 11
-86.5
 21
132.0
 31
0.0
  0
LINE
  5
52DD
330
52D7
100
AcDbEntity
  8
AM_0 外形線1
100
AcDbLine
 10
-25.0
 20
144.0
 30
0.0
 11
-104.0
 21
144.0
 31
0.0
  0
LINE
  5
52DE
330
52D7
100
AcDbEntity
  8
AM_0 外形線1
100
AcDbLine
 10
-38.0
 20
136.0
 30
0.0
 11
-84.50000000000001
 21
136.0
 31
0.0
  0
LINE
  5
52DF
330
52D7
100
AcDbEntity
  8
AM_0 外形線1
100
AcDbLine
 10
-25.0
 20
-143.9999999999997
 30
0.0
 11
-104.0
 21
-143.9999999999997
 31
0.0
  0
LINE
  5
52E0
330
52D7
100
AcDbEntity
  8
AM_0 外形線1
100
AcDbLine
 10
-108.0
 20
-139.9999999999997
 30
0.0
 11
-108.0
 21
0.0
 31
0.0
  0
ARC
  5
52E1
330
52D7
100
AcDbEntity
  8
AM_0 外形線1
100
AcDbCircle
 10
-104.0
 20
-139.9999999999997
 30
0.0
 40
4.0
100
AcDbArc
 50
180.0
 51
270.0
  0
LINE
  5
52E2
330
52D7
100
AcDbEntity
  8
AM_0 外形線1
100
AcDbLine
 10
-93.89999999999963
 20
126.5
 30
0.0
 11
-91.0
 21
126.5
 31
0.0
  0
ARC
  5
52E3
330
52D7
100
AcDbEntity
  8
AM_0 外形線1
100
AcDbCircle
 10
-94.39999999999963
 20
131.4000000000001
 30
0.0
 40
0.5
100
AcDbArc
 50
0.0
 51
90.0
  0
LINE
  5
52E4
330
52D7
100
AcDbEntity
  8
AM_0 外形線1
100
AcDbLine
 10
-108.0
 20
140.0
 30
0.0
 11
-108.0
 21
126.5
 31
0.0
  0
LINE
  5
52E5
330
52D7
100
AcDbEntity
  8
AM_0 外形線1
100
AcDbLine
 10
-93.89999999999963
 20
131.4000000000001
 30
0.0
 11
-93.89999999999963
 21
126.5
 31
0.0
  0
LINE
  5
52E6
330
52D7
100
AcDbEntity
  8
AM_0 外形線1
100
AcDbLine
 10
-93.89999999999963
 20
126.5
 30
0.0
 11
-93.89999999999963
 21
125.0
 31
0.0
  0
LINE
  5
52E7
330
52D7
100
AcDbEntity
  8
AM_0 外形線1
100
AcDbLine
 10
-105.0999999999999
 20
126.5
 30
0.0
 11
-105.0999999999999
 21
131.4000000000001
 31
0.0
  0
LINE
  5
52E8
330
52D7
100
AcDbEntity
  8
AM_0 外形線1
100
AcDbLine
 10
-108.0
 20
126.5
 30
0.0
 11
-105.0999999999999
 21
126.5
 31
0.0
  0
LINE
  5
52E9
330
52D7
100
AcDbEntity
  8
AM_0 外形線1
100
AcDbLine
 10
-105.0999999999999
 20
126.5
 30
0.0
 11
-105.0999999999999
 21
125.0
 31
0.0
  0
LINE
  5
52EA
330
52D7
100
AcDbEntity
  8
AM_0 外形線1
100
AcDbLine
 10
-108.0
 20
126.5
 30
0.0
 11
-108.0
 21
125.0
 31
0.0
  0
ARC
  5
52EB
330
52D7
100
AcDbEntity
  8
AM_0 外形線1
100
AcDbCircle
 10
-104.5999999999999
 20
131.4000000000001
 30
0.0
 40
0.5
100
AcDbArc
 50
90.0
 51
180.0
  0
LWPOLYLINE
  5
52EC
330
52D7
100
AcDbEntity
  8
AM_0 外形線1
100
AcDbPolyline
 90
       73
 70
     0
 43
0.0
 10
-93.89999999999963
 20
128.45
 10
-93.9213099999997
 20
128.7506870000002
 10
-93.9850769999998
 20
129.0490860000002
 10
-94.09081499999956
 20
129.3429250000001
 10
-94.23772099999952
 20
129.6299690000003
 10
-94.42467599999963
 20
129.9080330000001
 10
-94.65025799999969
 20
130.1750000000001
 10
-94.91274900000007
 20
130.4288380000002
 10
-95.2101510000002
 20
130.667617
 10
-95.54020200000014
 20
130.8895180000002
 10
-95.9003889999999
 20
131.0928530000001
 10
-96.28797200000008
 20
131.2760740000001
 10
-96.6999999999998
 20
131.4377870000003
 10
-97.13333799999965
 20
131.5767610000002
 10
-97.5846869999996
 20
131.691939
 10
-98.05061299999987
 20
131.782444
 10
-98.52757000000021
 20
131.8475860000003
 10
-99.01192799999988
 20
131.8868710000001
 10
-99.50000000000001
 20
131.9000000000001
 10
-99.9880720000001
 20
131.8868710000001
 10
-100.4724299999998
 20
131.8475860000003
 10
-100.9493869999996
 20
131.782444
 10
-101.4153129999995
 20
131.691939
 10
-101.8666619999999
 20
131.5767610000002
 10
-102.3000000000002
 20
131.4377870000003
 10
-102.7120279999999
 20
131.2760740000001
 10
-103.0996109999996
 20
131.0928530000001
 10
-103.4597979999998
 20
130.8895180000002
 10
-103.7898489999997
 20
130.667617
 10
-104.0872509999999
 20
130.4288380000002
 10
-104.3497419999999
 20
130.1750000000001
 10
-104.5753239999994
 20
129.9080330000001
 10
-104.7622789999996
 20
129.6299690000003
 10
-104.9091849999999
 20
129.3429250000001
 10
-105.0149229999997
 20
129.0490860000002
 10
-105.0786899999998
 20
128.7506870000002
 10
-105.0999999999999
 20
128.45
 10
-105.0786899999998
 20
128.1493120000002
 10
-105.0149229999997
 20
127.8509130000002
 10
-104.9091849999999
 20
127.557074
 10
-104.7622789999996
 20
127.2700300000001
 10
-104.5753239999994
 20
126.9919670000001
 10
-104.3497419999999
 20
126.7250000000001
 10
-104.0872509999999
 20
126.4711610000001
 10
-103.7898489999997
 20
126.2323820000001
 10
-103.4597979999998
 20
126.0104810000002
 10
-103.0996109999996
 20
125.8071460000001
 10
-102.7120279999999
 20
125.6239250000001
 10
-102.3000000000002
 20
125.4622120000001
 10
-101.8666619999999
 20
125.3232380000002
 10
-101.4153129999995
 20
125.2080600000001
 10
-100.9493869999996
 20
125.1175550000002
 10
-100.4724299999998
 20
125.0524130000001
 10
-99.9880720000001
 20
125.0131280000003
 10
-99.50000000000001
 20
125.0
 10
-99.01192799999988
 20
125.0131280000003
 10
-98.52757000000021
 20
125.0524130000001
 10
-98.05061299999987
 20
125.1175550000002
 10
-97.5846869999996
 20
125.2080600000001
 10
-97.13333799999965
 20
125.3232380000002
 10
-96.6999999999998
 20
125.4622120000001
 10
-96.28797200000008
 20
125.6239250000001
 10
-95.9003889999999
 20
125.8071460000001
 10
-95.54020200000014
 20
126.0104810000002
 10
-95.2101510000002
 20
126.2323820000001
 10
-94.91274900000007
 20
126.4711610000001
 10
-94.65025799999969
 20
126.7250000000001
 10
-94.42467599999963
 20
126.9919670000001
 10
-94.23772099999952
 20
127.2700300000001
 10
-94.09081499999956
 20
127.557074
 10
-93.9850769999998
 20
127.8509130000002
 10
-93.9213099999997
 20
128.1493120000002
 10
-93.89999999999963
 20
128.45
  0
LINE
  5
52ED
330
52D7
100
AcDbEntity
  8
AM_0 外形線1
100
AcDbLine
 10
-104.5999999999999
 20
131.9000000000001
 30
0.0
 11
-94.39999999999963
 21
131.9000000000001
 31
0.0
  0
ARC
  5
52EE
330
52D7
100
AcDbEntity
  8
AM_0 外形線1
100
AcDbCircle
 10
-104.0
 20
140.0
 30
0.0
 40
4.0
100
AcDbArc
 50
90.0
 51
180.0
  0
LINE
  5
52EF
330
52D7
100
AcDbEntity
  8
AM_0 外形線1
100
AcDbLine
 10
-84.50000000000001
 20
133.943355
 30
0.0
 11
-84.50000000000001
 21
136.0
 31
0.0
  0
ARC
  5
52F0
330
52D7
100
AcDbEntity
  8
AM_0 外形線1
100
AcDbCircle
 10
-85.5
 20
136.0
 30
0.0
 40
1.0
100
AcDbArc
 50
0.0
 51
90.0
  0
LINE
  5
52F1
330
52D7
100
AcDbEntity
  8
AM_0 外形線1
100
AcDbLine
 10
-90.0
 20
137.0
 30
0.0
 11
-85.5
 21
137.0
 31
0.0
  0
ARC
  5
52F2
330
52D7
100
AcDbEntity
  8
AM_0 外形線1
100
AcDbCircle
 10
-90.0
 20
136.0
 30
0.0
 40
1.0
100
AcDbArc
 50
90.0
 51
180.0
  0
LINE
  5
52F3
330
52D7
100
AcDbEntity
  8
AM_3 隠れ線
100
AcDbLine
 10
-84.50000000000001
 20
129.8000000000002
 30
0.0
 11
-83.49999999999999
 21
128.8000000000002
 31
0.0
  0
LINE
  5
52F4
330
52D7
100
AcDbEntity
  8
AM_0 外形線1
100
AcDbLine
 10
-91.0
 20
126.5
 30
0.0
 11
-91.0
 21
125.0
 31
0.0
  0
LINE
  5
52F5
330
52D7
100
AcDbEntity
  8
AM_3 隠れ線
100
AcDbLine
 10
-84.50000000000001
 20
133.943355
 30
0.0
 11
-84.50000000000001
 21
129.8000000000002
 31
0.0
  0
LINE
  5
52F6
330
52D7
100
AcDbEntity
  8
AM_0 外形線1
100
AcDbLine
 10
-91.0
 20
126.5
 30
0.0
 11
-91.0
 21
136.0
 31
0.0
  0
LINE
  5
52F8
330
52D7
100
AcDbEntity
  8
AM_0 外形線1
100
AcDbLine
 10
-21.0
 20
-176.4999999999997
 30
0.0
 11
-21.0
 21
0.0
 31
0.0
  0
LINE
  5
52F9
330
52D7
100
AcDbEntity
  8
AM_0 外形線1
100
AcDbLine
 10
-1.0
 20
-177.4999999999996
 30
0.0
 11
-20.0
 21
-177.4999999999996
 31
0.0
  0
LINE
  5
52FB
330
52D7
100
AcDbEntity
  8
AM_0 外形線1
100
AcDbLine
 10
-20.0
 20
-177.4999999999996
 30
0.0
 11
-21.0
 21
-176.4999999999997
 31
0.0
  0
ARC
  5
52FC
330
52D7
100
AcDbEntity
  8
AM_0 外形線1
100
AcDbCircle
 10
-25.0
 20
-147.9999999999997
 30
0.0
 40
4.0
100
AcDbArc
 50
0.0
 51
90.0
  0
LINE
  5
52FD
330
52D7
100
AcDbEntity
  8
AM_0 外形線1
100
AcDbLine
 10
0.0
 20
-176.4999999999997
 30
0.0
 11
-1.0
 21
-177.4999999999996
 31
0.0
  0
LINE
  5
52FE
330
52D7
100
AcDbEntity
  8
AM_7 中心線
100
AcDbLine
 10
36.0
 20
162.5
 30
0.0
 11
-49.0
 21
162.5
 31
0.0
  0
LINE
  5
52FF
330
52D7
100
AcDbEntity
  8
AM_0 外形線1
100
AcDbLine
 10
-37.0
 20
137.0
 30
0.0
 11
5.0
 21
137.0
 31
0.0
  0
LINE
  5
5300
330
52D7
100
AcDbEntity
  8
AM_0 外形線1
100
AcDbLine
 10
-21.0
 20
153.5
 30
0.0
 11
-0.0000000000001137
 21
153.5
 31
0.0
  0
ARC
  5
5301
330
52D7
100
AcDbEntity
  8
AM_0 外形線1
100
AcDbCircle
 10
-37.0
 20
136.0
 30
0.0
 40
1.0
100
AcDbArc
 50
90.0
 51
180.0
  0
LINE
  5
5303
330
52D7
100
AcDbEntity
  8
AM_0 外形線1
100
AcDbLine
 10
-39.0
 20
128.8000000000002
 30
0.0
 11
-38.0
 21
129.8000000000002
 31
0.0
  0
LINE
  5
5304
330
52D7
100
AcDbEntity
  8
AM_0 外形線1
100
AcDbLine
 10
-38.0
 20
129.8000000000002
 30
0.0
 11
-38.0
 21
136.0
 31
0.0
  0
LINE
  5
5305
330
52D7
100
AcDbEntity
  8
AM_0 外形線1
100
AcDbLine
 10
-42.5
 20
128.8000000000002
 30
0.0
 11
-39.0
 21
128.8000000000002
 31
0.0
  0
ARC
  5
5306
330
52D7
100
AcDbEntity
  8
AM_0 外形線1
100
AcDbCircle
 10
-25.0
 20
148.0
 30
0.0
 40
4.0
100
AcDbArc
 50
270.0
 51
0.0
  0
LINE
  5
5307
330
52D7
100
AcDbEntity
  8
AM_0 外形線1
100
AcDbLine
 10
5.0
 20
137.0
 30
0.0
 11
5.0
 21
141.5
 31
0.0
  0
LINE
  5
5308
330
52D7
100
AcDbEntity
  8
AM_0 外形線1
100
AcDbLine
 10
0.0
 20
146.4000000000001
 30
0.0
 11
0.0
 21
153.5
 31
0.0
  0
LINE
  5
5309
330
52D7
100
AcDbEntity
  8
AM_0 外形線1
100
AcDbLine
 10
5.0
 20
141.5
 30
0.0
 11
4.5
 21
142.0
 31
0.0
  0
ARC
  5
530A
330
52D7
100
AcDbEntity
  8
AM_0 外形線1
100
AcDbCircle
 10
-2.199999999999818
 20
145.9000000000001
 30
0.0
 40
0.5
100
AcDbArc
 50
90.0
 51
180.0
  0
LINE
  5
530B
330
52D7
100
AcDbEntity
  8
AM_0 外形線1
100
AcDbLine
 10
-2.699999999999818
 20
142.5
 30
0.0
 11
-2.699999999999818
 21
145.9000000000001
 31
0.0
  0
ARC
  5
530C
330
52D7
100
AcDbEntity
  8
AM_0 外形線1
100
AcDbCircle
 10
-2.199999999999818
 20
142.5
 30
0.0
 40
0.5
100
AcDbArc
 50
180.0
 51
270.0
  0
LWPOLYLINE
  5
530D
330
52D7
100
AcDbEntity
  8
AM_0 外形線1
100
AcDbPolyline
 90
       73
 70
     0
 43
0.0
 10
-1.349999999999909
 20
142.0
 10
-1.232339999999567
 20
142.0083710000001
 10
-1.115574999999807
 20
142.0334220000002
 10
-1.00059400000009
 20
142.0749630000002
 10
-0.8882729999995715
 20
142.1326760000001
 10
-0.7794649999996182
 20
142.206122
 10
-0.6750000000001819
 20
142.2947440000001
 10
-0.5756719999999405
 20
142.3978650000001
 10
-0.4822370000001685
 20
142.5147020000002
 10
-0.3954059999996389
 20
142.6443650000001
 10
-0.3158399999997528
 20
142.785867
 10
-0.2441449999996621
 20
142.9381310000001
 10
-0.1808659999996962
 20
143.1000000000001
 10
-0.1264839999998912
 20
143.2702390000001
 10
-0.0814149999996516
 20
143.4475550000002
 10
-0.0459999999998218
 20
143.6305980000002
 10
-0.0205089999999473
 20
143.817974
 10
-0.0051370000001043
 20
144.0082570000002
 10
0.0
 20
144.2
 10
-0.0051370000001043
 20
144.391742
 10
-0.0205089999999473
 20
144.582026
 10
-0.0459999999998218
 20
144.769401
 10
-0.0814149999996516
 20
144.9524440000002
 10
-0.1264839999998912
 20
145.1297600000002
 10
-0.1808659999996962
 20
145.3000000000002
 10
-0.2441449999996621
 20
145.4618680000003
 10
-0.3158399999997528
 20
145.6141320000001
 10
-0.3954059999996389
 20
145.7556340000001
 10
-0.4822370000001685
 20
145.8852970000002
 10
-0.5756719999999405
 20
146.002134
 10
-0.6750000000001819
 20
146.1052550000002
 10
-0.7794649999996182
 20
146.1938770000001
 10
-0.8882729999995715
 20
146.267323
 10
-1.00059400000009
 20
146.3250360000001
 10
-1.115574999999807
 20
146.3665770000002
 10
-1.232339999999567
 20
146.3916280000003
 10
-1.349999999999909
 20
146.4000000000001
 10
-1.467659999999795
 20
146.3916280000003
 10
-1.58442500000001
 20
146.3665770000002
 10
-1.699405999999725
 20
146.3250360000001
 10
-1.811726999999791
 20
146.267323
 10
-1.920535000000199
 20
146.1938770000001
 10
-2.024999999999636
 20
146.1052550000002
 10
-2.124327999999876
 20
146.002134
 10
-2.217762999999648
 20
145.8852970000002
 10
-2.304594000000179
 20
145.7556340000001
 10
-2.384159999999609
 20
145.6141320000001
 10
-2.455855000000154
 20
145.4618680000003
 10
-2.51913400000012
 20
145.3000000000002
 10
-2.573515000000043
 20
145.1297600000002
 10
-2.618585000000166
 20
144.9524440000002
 10
-2.653999999999995
 20
144.769401
 10
-2.679489999999531
 20
144.582026
 10
-2.694862999999712
 20
144.391742
 10
-2.699999999999818
 20
144.2
 10
-2.694862999999712
 20
144.0082570000002
 10
-2.679489999999531
 20
143.817974
 10
-2.653999999999995
 20
143.6305980000002
 10
-2.618585000000166
 20
143.4475550000002
 10
-2.573515000000043
 20
143.2702390000001
 10
-2.51913400000012
 20
143.1000000000001
 10
-2.455855000000154
 20
142.9381310000001
 10
-2.384159999999609
 20
142.785867
 10
-2.304594000000179
 20
142.6443650000001
 10
-2.217762999999648
 20
142.5147020000002
 10
-2.124327999999876
 20
142.3978650000001
 10
-2.024999999999636
 20
142.2947440000001
 10
-1.920535000000199
 20
142.206122
 10
-1.811726999999791
 20
142.1326760000001
 10
-1.699405999999725
 20
142.0749630000002
 10
-1.58442500000001
 20
142.0334220000002
 10
-1.467659999999795
 20
142.0083710000001
 10
-1.349999999999909
 20
142.0
  0
LINE
  5
530E
330
52D7
100
AcDbEntity
  8
AM_0 外形線1
100
AcDbLine
 10
-2.199999999999818
 20
146.4000000000001
 30
0.0
 11
0.0
 21
146.4000000000001
 31
0.0
  0
LINE
  5
530F
330
52D7
100
AcDbEntity
  8
AM_0 外形線1
100
AcDbLine
 10
4.5
 20
142.0
 30
0.0
 11
-2.199999999999818
 21
142.0
 31
0.0
  0
LINE
  5
5310
330
52D7
100
AcDbEntity
  8
AM_0 外形線1
100
AcDbLine
 10
-1.0
 20
177.5
 30
0.0
 11
-20.0
 21
177.5
 31
0.0
  0
LINE
  5
5311
330
52D7
100
AcDbEntity
  8
AM_0 外形線1
100
AcDbLine
 10
-21.0
 20
171.5
 30
0.0
 11
0.0
 21
171.5
 31
0.0
  0
LINE
  5
5312
330
52D7
100
AcDbEntity
  8
AM_0 外形線1
100
AcDbLine
 10
-20.0
 20
177.5
 30
0.0
 11
-21.0
 21
176.5
 31
0.0
  0
LINE
  5
5314
330
52D7
100
AcDbEntity
  8
AM_0 外形線1
100
AcDbLine
 10
0.0
 20
176.5
 30
0.0
 11
-1.0
 21
177.5
 31
0.0
  0
INSERT
  5
5315
330
52D7
100
AcDbEntity
  8
AM_0 外形線1
100
AcDbBlockReference
  2
ロッカクアナツキプラグ-2　R1／4
 10
-10.5
 20
-42.05809499999985
 30
0.0
  0
LINE
  5
53B0
330
52D7
100
AcDbEntity
  8
AM_0 外形線1
100
AcDbLine
 10
0.0
 20
-176.4999999999997
 30
0.0
 11
0.0
 21
0.0
 31
0.0
  0
LINE
  5
53B1
330
52D7
100
AcDbEntity
  8
AM_0 外形線1
100
AcDbLine
 10
0.0
 20
176.5
 30
0.0
 11
0.0
 21
171.5
 31
0.0
  0
ENDBLK
  5
52D9
330
52D7
100
AcDbEntity
  8
0
100
AcDbBlockEnd
  0
BLOCK
  5
5705
330
5704
100
AcDbEntity
  8
0
100
AcDbBlockBegin
  2
センタ-1 SAM355
 70
     0
 10
0.0
 20
0.0
 30
0.0
  3
センタ-1 SAM355
  1

  0
LINE
  5
5707
330
5704
100
AcDbEntity
  8
AM_0 外形線1
100
AcDbLine
 10
130.5
 20
-124.1999999999998
 30
0.0
 11
130.5
 21
0.0
 31
0.0
  0
LINE
  5
5708
330
5704
100
AcDbEntity
  8
AM_0 外形線1
100
AcDbLine
 10
128.5
 20
-124.9999999999998
 30
0.0
 11
128.5
 21
0.0
 31
0.0
  0
LINE
  5
5709
330
5704
100
AcDbEntity
  8
AM_0 外形線1
100
AcDbLine
 10
190.0
 20
-120.1999999999998
 30
0.0
 11
190.0
 21
120.2
 31
0.0
  0
LINE
  5
570A
330
5704
100
AcDbEntity
  8
AM_0 外形線1
100
AcDbLine
 10
100.0
 20
-124.9999999999998
 30
0.0
 11
128.5
 21
-124.9999999999998
 31
0.0
  0
ARC
  5
570B
330
5704
100
AcDbEntity
  8
AM_0 外形線1
100
AcDbCircle
 10
186.0
 20
-120.1999999999998
 30
0.0
 40
4.0
100
AcDbArc
 50
270.0
 51
0.0
  0
LINE
  5
570C
330
5704
100
AcDbEntity
  8
AM_0 外形線1
100
AcDbLine
 10
130.5
 20
-124.1999999999998
 30
0.0
 11
186.0
 21
-124.1999999999998
 31
0.0
  0
LINE
  5
570D
330
5704
100
AcDbEntity
  8
AM_0 外形線1
100
AcDbLine
 10
128.5
 20
-124.9999999999998
 30
0.0
 11
130.5
 21
-124.1999999999998
 31
0.0
  0
LINE
  5
570E
330
5704
100
AcDbEntity
  8
AM_0 外形線1
100
AcDbLine
 10
35.5
 20
134.5541610000002
 30
0.0
 11
34.5
 21
133.4128800000001
 31
0.0
  0
LINE
  5
5711
330
5704
100
AcDbEntity
  8
AM_3 隠れ線
100
AcDbLine
 10
0.0
 20
7.0
 30
0.0
 11
37.0
 21
7.0
 31
0.0
  0
LINE
  5
5712
330
5704
100
AcDbEntity
  8
AM_0 外形線1
100
AcDbLine
 10
0.0
 20
121.0
 30
0.0
 11
0.0
 21
0.0
 31
0.0
  0
LINE
  5
5713
330
5704
100
AcDbEntity
  8
AM_3 隠れ線
100
AcDbLine
 10
0.0
 20
8.0
 30
0.0
 11
32.0
 21
8.0
 31
0.0
  0
LINE
  5
5714
330
5704
100
AcDbEntity
  8
AM_3 隠れ線
100
AcDbLine
 10
32.57735000000002
 20
7.0
 30
0.0
 11
32.57735000000002
 21
0.0
 31
0.0
  0
LINE
  5
5715
330
5704
100
AcDbEntity
  8
AM_3 隠れ線
100
AcDbLine
 10
32.0
 20
8.0
 30
0.0
 11
32.0
 21
0.0
 31
0.0
  0
LINE
  5
5716
330
5704
100
AcDbEntity
  8
AM_3 隠れ線
100
AcDbLine
 10
32.0
 20
8.0
 30
0.0
 11
32.57735000000002
 21
7.0
 31
0.0
  0
LINE
  5
5717
330
5704
100
AcDbEntity
  8
AM_0 外形線1
100
AcDbLine
 10
34.0
 20
122.0
 30
0.0
 11
1.0
 21
122.0
 31
0.0
  0
LINE
  5
5718
330
5704
100
AcDbEntity
  8
AM_0 外形線1
100
AcDbLine
 10
1.0
 20
122.0
 30
0.0
 11
0.0
 21
121.0
 31
0.0
  0
LINE
  5
5719
330
5704
100
AcDbEntity
  8
AM_0 外形線1
100
AcDbLine
 10
34.5
 20
133.4128800000001
 30
0.0
 11
34.5
 21
122.5
 31
0.0
  0
ARC
  5
571A
330
5704
100
AcDbEntity
  8
AM_0 外形線1
100
AcDbCircle
 10
34.0
 20
122.5
 30
0.0
 40
0.5
100
AcDbArc
 50
270.0
 51
0.0
  0
LINE
  5
571B
330
5704
100
AcDbEntity
  8
AM_3 隠れ線
100
AcDbLine
 10
37.0
 20
7.0
 30
0.0
 11
37.0
 21
0.0
 31
0.0
  0
LINE
  5
571C
330
5704
100
AcDbEntity
  8
AM_3 隠れ線
100
AcDbLine
 10
37.0
 20
7.0
 30
0.0
 11
41.04145200000039
 21
0.0
 31
0.0
  0
LINE
  5
571D
330
5704
100
AcDbEntity
  8
AM_0 外形線1
100
AcDbLine
 10
128.5
 20
125.0
 30
0.0
 11
78.0
 21
125.0
 31
0.0
  0
ARC
  5
571E
330
5704
100
AcDbEntity
  8
AM_0 外形線1
100
AcDbCircle
 10
54.0
 20
0.0
 30
0.0
 40
135.82
100
AcDbArc
 50
80.46439799999939
 51
97.82857599999481
  0
LINE
  5
571F
330
5704
100
AcDbEntity
  8
AM_7 中心線
100
AcDbLine
 10
54.0
 20
140.8200000000001
 30
0.0
 11
54.0
 21
122.6000000000001
 31
0.0
  0
LINE
  5
5720
330
5704
100
AcDbEntity
  8
AM_0 外形線1
100
AcDbLine
 10
77.5
 20
125.5
 30
0.0
 11
77.5
 21
132.7715300000002
 31
0.0
  0
ARC
  5
5721
330
5704
100
AcDbEntity
  8
AM_0 外形線1
100
AcDbCircle
 10
78.0
 20
125.5
 30
0.0
 40
0.5
100
AcDbArc
 50
180.0
 51
270.0
  0
LINE
  5
5722
330
5704
100
AcDbEntity
  8
AM_0 外形線1
100
AcDbLine
 10
77.5
 20
132.7715300000002
 30
0.0
 11
76.5
 21
133.943355
 31
0.0
  0
LINE
  5
5723
330
5704
100
AcDbEntity
  8
AM_0 外形線1
100
AcDbLine
 10
186.0
 20
124.2
 30
0.0
 11
130.5
 21
124.2
 31
0.0
  0
LINE
  5
5724
330
5704
100
AcDbEntity
  8
AM_0 外形線1
100
AcDbLine
 10
130.5
 20
124.2
 30
0.0
 11
128.5
 21
125.0
 31
0.0
  0
ARC
  5
5725
330
5704
100
AcDbEntity
  8
AM_0 外形線1
100
AcDbCircle
 10
186.0
 20
120.2
 30
0.0
 40
4.0
100
AcDbArc
 50
0.0
 51
90.0
  0
LINE
  5
5726
330
5704
100
AcDbEntity
  8
AM_0 外形線1
100
AcDbLine
 10
190.0
 20
74.87489565935971
 30
0.0
 11
0.0
 21
74.87489565935971
 31
0.0
  0
ARC
  5
A03E
330
5704
100
AcDbEntity
  8
AM_0 外形線1
100
AcDbCircle
 10
54.0
 20
0.0
 30
0.0
 40
127.6000000000001
100
AcDbArc
 50
79.3840509521347
 51
98.79046155577343
  0
ARC
  5
A03F
330
5704
100
AcDbEntity
  8
AM_7 中心線
100
AcDbCircle
 10
54.0
 20
0.0
 30
0.0
 40
132.0
100
AcDbArc
 50
78.28315599633126
 51
100.4756816963942
  0
ENDBLK
  5
5706
330
5704
100
AcDbEntity
  8
0
100
AcDbBlockEnd
  0
BLOCK
  5
57B1
330
57B0
100
AcDbEntity
  8
0
100
AcDbBlockBegin
  2
センタ-2 SAM355
 70
     0
 10
0.0
 20
0.0
 30
0.0
  3
センタ-2 SAM355
  1

  0
ARC
  5
57B4
330
57B0
100
AcDbEntity
  8
AM_0 外形線1
100
AcDbCircle
 10
-54.0
 20
0.0
 30
0.0
 40
135.82
100
AcDbArc
 50
82.1714240000052
 51
99.53560200000062
  0
LINE
  5
57B6
330
57B0
100
AcDbEntity
  8
AM_0 外形線1
100
AcDbLine
 10
-130.5
 20
-124.1999999999998
 30
0.0
 11
-130.5
 21
0.0
 31
0.0
  0
LINE
  5
57B7
330
57B0
100
AcDbEntity
  8
AM_0 外形線1
100
AcDbLine
 10
-128.5
 20
-124.9999999999998
 30
0.0
 11
-128.5
 21
0.0
 31
0.0
  0
LINE
  5
57B8
330
57B0
100
AcDbEntity
  8
AM_0 外形線1
100
AcDbLine
 10
-190.0
 20
-120.1999999999998
 30
0.0
 11
-190.0
 21
120.2
 31
0.0
  0
LINE
  5
57B9
330
57B0
100
AcDbEntity
  8
AM_0 外形線1
100
AcDbLine
 10
-100.0
 20
-124.9999999999998
 30
0.0
 11
-128.5
 21
-124.9999999999998
 31
0.0
  0
ARC
  5
57BA
330
57B0
100
AcDbEntity
  8
AM_0 外形線1
100
AcDbCircle
 10
-186.0
 20
-120.1999999999998
 30
0.0
 40
4.0
100
AcDbArc
 50
180.0
 51
270.0
  0
LINE
  5
57BB
330
57B0
100
AcDbEntity
  8
AM_0 外形線1
100
AcDbLine
 10
-130.5
 20
-124.1999999999998
 30
0.0
 11
-186.0
 21
-124.1999999999998
 31
0.0
  0
LINE
  5
57BC
330
57B0
100
AcDbEntity
  8
AM_0 外形線1
100
AcDbLine
 10
-128.5
 20
-124.9999999999998
 30
0.0
 11
-130.5
 21
-124.1999999999998
 31
0.0
  0
LINE
  5
57BD
330
57B0
100
AcDbEntity
  8
AM_0 外形線1
100
AcDbLine
 10
-128.5
 20
125.0
 30
0.0
 11
-78.0
 21
125.0
 31
0.0
  0
LINE
  5
57BE
330
57B0
100
AcDbEntity
  8
AM_0 外形線1
100
AcDbLine
 10
-186.0
 20
124.2
 30
0.0
 11
-130.5
 21
124.2
 31
0.0
  0
ARC
  5
57BF
330
57B0
100
AcDbEntity
  8
AM_0 外形線1
100
AcDbCircle
 10
-186.0
 20
120.2
 30
0.0
 40
4.0
100
AcDbArc
 50
90.0
 51
180.0
  0
LINE
  5
57C0
330
57B0
100
AcDbEntity
  8
AM_0 外形線1
100
AcDbLine
 10
-130.5
 20
124.2
 30
0.0
 11
-128.5
 21
125.0
 31
0.0
  0
LINE
  5
57C1
330
57B0
100
AcDbEntity
  8
AM_7 中心線
100
AcDbLine
 10
-54.0
 20
140.8200000000001
 30
0.0
 11
-54.0
 21
122.6000000000001
 31
0.0
  0
LINE
  5
57C2
330
57B0
100
AcDbEntity
  8
AM_0 外形線1
100
AcDbLine
 10
-77.5
 20
125.5
 30
0.0
 11
-77.5
 21
132.7715300000002
 31
0.0
  0
ARC
  5
57C3
330
57B0
100
AcDbEntity
  8
AM_0 外形線1
100
AcDbCircle
 10
-78.0
 20
125.5
 30
0.0
 40
0.5
100
AcDbArc
 50
270.0
 51
0.0
  0
LINE
  5
57C4
330
57B0
100
AcDbEntity
  8
AM_0 外形線1
100
AcDbLine
 10
-77.5
 20
132.7715300000002
 30
0.0
 11
-76.5
 21
133.943355
 31
0.0
  0
LINE
  5
57C5
330
57B0
100
AcDbEntity
  8
AM_0 外形線1
100
AcDbLine
 10
0.0
 20
121.0
 30
0.0
 11
0.0
 21
104.0
 31
0.0
  0
LINE
  5
57C6
330
57B0
100
AcDbEntity
  8
AM_0 外形線1
100
AcDbLine
 10
0.0
 20
115.4903246906506
 30
0.0
 11
0.0
 21
0.0
 31
0.0
  0
LINE
  5
57C7
330
57B0
100
AcDbEntity
  8
AM_3 隠れ線
100
AcDbLine
 10
0.0
 20
8.0
 30
0.0
 11
-32.0
 21
8.0
 31
0.0
  0
LINE
  5
57C8
330
57B0
100
AcDbEntity
  8
AM_3 隠れ線
100
AcDbLine
 10
0.0
 20
7.0
 30
0.0
 11
-37.0
 21
7.0
 31
0.0
  0
LINE
  5
57C9
330
57B0
100
AcDbEntity
  8
AM_3 隠れ線
100
AcDbLine
 10
-32.57735000000002
 20
7.0
 30
0.0
 11
-32.57735000000002
 21
0.0
 31
0.0
  0
LINE
  5
57CA
330
57B0
100
AcDbEntity
  8
AM_3 隠れ線
100
AcDbLine
 10
-37.0
 20
7.0
 30
0.0
 11
-37.0
 21
0.0
 31
0.0
  0
LINE
  5
57CB
330
57B0
100
AcDbEntity
  8
AM_3 隠れ線
100
AcDbLine
 10
-37.0
 20
7.0
 30
0.0
 11
-41.04145199999993
 21
0.0
 31
0.0
  0
LINE
  5
57CC
330
57B0
100
AcDbEntity
  8
AM_3 隠れ線
100
AcDbLine
 10
-32.0
 20
8.0
 30
0.0
 11
-32.0
 21
0.0
 31
0.0
  0
LINE
  5
57CD
330
57B0
100
AcDbEntity
  8
AM_3 隠れ線
100
AcDbLine
 10
-32.0
 20
8.0
 30
0.0
 11
-32.57735000000002
 21
7.0
 31
0.0
  0
LINE
  5
57CE
330
57B0
100
AcDbEntity
  8
AM_0 外形線1
100
AcDbLine
 10
-34.0
 20
122.0
 30
0.0
 11
-1.0
 21
122.0
 31
0.0
  0
LINE
  5
57CF
330
57B0
100
AcDbEntity
  8
AM_0 外形線1
100
AcDbLine
 10
-34.5
 20
133.4128800000001
 30
0.0
 11
-34.5
 21
122.5
 31
0.0
  0
ARC
  5
57D0
330
57B0
100
AcDbEntity
  8
AM_0 外形線1
100
AcDbCircle
 10
-34.0
 20
122.5
 30
0.0
 40
0.5
100
AcDbArc
 50
180.0
 51
270.0
  0
LINE
  5
57D1
330
57B0
100
AcDbEntity
  8
AM_0 外形線1
100
AcDbLine
 10
-35.5
 20
134.5541610000002
 30
0.0
 11
-34.5
 21
133.4128800000001
 31
0.0
  0
LINE
  5
57D2
330
57B0
100
AcDbEntity
  8
AM_0 外形線1
100
AcDbLine
 10
-1.0
 20
122.0
 30
0.0
 11
0.0
 21
121.0
 31
0.0
  0
LINE
  5
57D3
330
57B0
100
AcDbEntity
  8
AM_0 外形線1
100
AcDbLine
 10
-189.9999999999998
 20
74.87489565935971
 30
0.0
 11
0.0
 21
74.87489565935971
 31
0.0
  0
ARC
  5
A014
330
57B0
100
AcDbEntity
  8
AM_0 外形線1
100
AcDbCircle
 10
-54.0
 20
0.0
 30
0.0
 40
127.6000000000001
100
AcDbArc
 50
81.20953844422009
 51
100.6159490478653
  0
ARC
  5
A015
330
57B0
100
AcDbEntity
  8
AM_7 中心線
100
AcDbCircle
 10
-54.0
 20
0.0
 30
0.0
 40
132.0
100
AcDbArc
 50
79.52431830361216
 51
101.7168440036751
  0
ENDBLK
  5
57B2
330
57B0
100
AcDbEntity
  8
0
100
AcDbBlockEnd
  0
BLOCK
  5
5B1A
330
5B19
100
AcDbEntity
  8
0
100
AcDbBlockBegin
  2
リーマボルト-1 SAM355 M16
 70
     0
 10
0.0
 20
0.0
 30
0.0
  3
リーマボルト-1 SAM355 M16
  1

  0
LINE
  5
5B1C
330
5B19
100
AcDbEntity
  8
AM_0 外形線1
100
AcDbLine
 10
63.0
 20
8.0
 30
0.0
 11
63.0
 21
-8.0
 31
0.0
  0
LINE
  5
5B1D
330
5B19
100
AcDbEntity
  8
AM_0 外形線1
100
AcDbLine
 10
65.0
 20
6.0
 30
0.0
 11
65.0
 21
-6.0
 31
0.0
  0
ARC
  5
5B1E
330
5B19
100
AcDbEntity
  8
AM_0 外形線1
100
AcDbCircle
 10
35.99610300000041
 20
0.0
 30
0.0
 40
23.003897
100
AcDbArc
 50
342.471797999994
 51
17.52820200000604
  0
LINE
  5
5B1F
330
5B19
100
AcDbEntity
  8
AM_0 外形線1
100
AcDbLine
 10
59.0
 20
12.0
 30
0.0
 11
59.0
 21
-12.0
 31
0.0
  0
LINE
  5
5B20
330
5B19
100
AcDbEntity
  8
AM_0 外形線1
100
AcDbLine
 10
40.0
 20
9.0
 30
0.0
 11
40.0
 21
-9.0
 31
0.0
  0
LINE
  5
5B21
330
5B19
100
AcDbEntity
  8
AM_0 外形線1
100
AcDbLine
 10
41.0
 20
8.422649000000092
 30
0.0
 11
41.0
 21
-8.422649999999974
 31
0.0
  0
LINE
  5
5B22
330
5B19
100
AcDbEntity
  8
AM_0 外形線1
100
AcDbLine
 10
46.0
 20
-13.84999999999991
 30
0.0
 11
46.0
 21
13.85000000000013
 31
0.0
  0
LINE
  5
5B23
330
5B19
100
AcDbEntity
  8
AM_0 外形線1
100
AcDbLine
 10
2.0
 20
-9.0
 30
0.0
 11
2.0
 21
9.0
 31
0.0
  0
LINE
  5
5B24
330
5B19
100
AcDbEntity
  8
AM_0 外形線1
100
AcDbLine
 10
-10.0
 20
6.313206000000035
 30
0.0
 11
-10.0
 21
-5.681245999999872
 31
0.0
  0
ARC
  5
5B25
330
5B19
100
AcDbEntity
  8
AM_0 外形線1
100
AcDbCircle
 10
7.324117000000113
 20
5.997225000000071
 30
0.0
 40
17.326998
100
AcDbArc
 50
159.74980099999
 51
200.25019900001
  0
LINE
  5
5B26
330
5B19
100
AcDbEntity
  8
AM_0 外形線1
100
AcDbLine
 10
65.0
 20
-6.0
 30
0.0
 11
63.0
 21
-8.0
 31
0.0
  0
ARC
  5
5B27
330
5B19
100
AcDbEntity
  8
AM_0 外形線1
100
AcDbCircle
 10
1.0
 20
-9.0
 30
0.0
 40
1.0
100
AcDbArc
 50
0.0
 51
180.0
  0
ARC
  5
5B28
330
5B19
100
AcDbEntity
  8
AM_0 外形線1
100
AcDbCircle
 10
7.324117000000113
 20
-5.997225999999955
 30
0.0
 40
17.326998
100
AcDbArc
 50
159.74980099999
 51
200.25019900001
  0
LINE
  5
5B29
330
5B19
100
AcDbEntity
  8
AM_0 外形線1
100
AcDbLine
 10
-8.931901999999807
 20
-11.99445199999991
 30
0.0
 11
0.0
 21
-11.99445199999991
 31
0.0
  0
LINE
  5
5B2A
330
5B19
100
AcDbEntity
  8
AM_0 外形線1
100
AcDbLine
 10
42.0
 20
-14.0
 30
0.0
 11
46.0
 21
-14.0
 31
0.0
  0
LINE
  5
5B2B
330
5B19
100
AcDbEntity
  8
AM_0 外形線1
100
AcDbLine
 10
46.0
 20
1.333333000000038
 30
0.0
 11
42.0
 21
-2.66666699999996
 31
0.0
  0
LINE
  5
5B2C
330
5B19
100
AcDbEntity
  8
AM_0 外形線1
100
AcDbLine
 10
46.0
 20
2.666666000000076
 30
0.0
 11
42.0
 21
-1.333333999999922
 31
0.0
  0
LINE
  5
5B2D
330
5B19
100
AcDbEntity
  8
AM_0 外形線1
100
AcDbLine
 10
41.0
 20
-8.422649999999974
 30
0.0
 11
42.0
 21
-8.422649999999974
 31
0.0
  0
LINE
  5
5B2E
330
5B19
100
AcDbEntity
  8
AM_0 外形線1
100
AcDbLine
 10
41.0
 20
-8.422649999999974
 30
0.0
 11
40.0
 21
-9.0
 31
0.0
  0
LINE
  5
5B2F
330
5B19
100
AcDbEntity
  8
AM_4 細線
100
AcDbLine
 10
59.0
 20
-7.0
 30
0.0
 11
64.0
 21
-7.0
 31
0.0
  0
LINE
  5
5B30
330
5B19
100
AcDbEntity
  8
AM_0 外形線1
100
AcDbLine
 10
63.0
 20
-8.0
 30
0.0
 11
59.0
 21
-8.0
 31
0.0
  0
ARC
  5
5B31
330
5B19
100
AcDbEntity
  8
AM_0 外形線1
100
AcDbCircle
 10
52.85887300000013
 20
-10.38910199999986
 30
0.0
 40
6.141127
100
AcDbArc
 50
325.697590999982
 51
34.30240900001802
  0
LINE
  5
5B32
330
5B19
100
AcDbEntity
  8
AM_0 外形線1
100
AcDbLine
 10
59.0
 20
-12.0
 30
0.0
 11
57.93190200000026
 21
-13.84999999999991
 31
0.0
  0
LINE
  5
5B33
330
5B19
100
AcDbEntity
  8
AM_0 外形線1
100
AcDbLine
 10
46.0
 20
-14.0
 30
0.0
 11
46.0
 21
-13.84999999999991
 31
0.0
  0
LINE
  5
5B34
330
5B19
100
AcDbEntity
  8
AM_0 外形線1
100
AcDbLine
 10
46.0
 20
-6.928203999999822
 30
0.0
 11
57.93190200000026
 21
-6.928203999999822
 31
0.0
  0
LINE
  5
5B35
330
5B19
100
AcDbEntity
  8
AM_0 外形線1
100
AcDbLine
 10
57.93190200000026
 20
-13.84999999999991
 30
0.0
 11
46.0
 21
-13.84999999999991
 31
0.0
  0
LINE
  5
5B36
330
5B19
100
AcDbEntity
  8
AM_0 外形線1
100
AcDbLine
 10
63.0
 20
8.0
 30
0.0
 11
65.0
 21
6.0
 31
0.0
  0
ARC
  5
5B37
330
5B19
100
AcDbEntity
  8
AM_0 外形線1
100
AcDbCircle
 10
1.0
 20
9.0
 30
0.0
 40
1.0
100
AcDbArc
 50
180.0
 51
0.0
  0
LINE
  5
5B38
330
5B19
100
AcDbEntity
  8
AM_0 外形線1
100
AcDbLine
 10
0.0
 20
11.99445100000002
 30
0.0
 11
-8.931901999999807
 21
11.99445100000002
 31
0.0
  0
LINE
  5
5B39
330
5B19
100
AcDbEntity
  8
AM_0 外形線1
100
AcDbLine
 10
46.0
 20
14.0
 30
0.0
 11
42.0
 21
14.0
 31
0.0
  0
LINE
  5
5B3A
330
5B19
100
AcDbEntity
  8
AM_0 外形線1
100
AcDbLine
 10
41.0
 20
8.422649000000092
 30
0.0
 11
42.0
 21
8.422649000000092
 31
0.0
  0
LINE
  5
5B3B
330
5B19
100
AcDbEntity
  8
AM_0 外形線1
100
AcDbLine
 10
40.0
 20
9.0
 30
0.0
 11
41.0
 21
8.422649000000092
 31
0.0
  0
LINE
  5
5B3C
330
5B19
100
AcDbEntity
  8
AM_0 外形線1
100
AcDbLine
 10
46.0
 20
13.85000000000013
 30
0.0
 11
57.93190200000026
 21
13.85000000000013
 31
0.0
  0
LINE
  5
5B3D
330
5B19
100
AcDbEntity
  8
AM_4 細線
100
AcDbLine
 10
59.0
 20
7.0
 30
0.0
 11
64.0
 21
7.0
 31
0.0
  0
LINE
  5
5B3E
330
5B19
100
AcDbEntity
  8
AM_0 外形線1
100
AcDbLine
 10
59.0
 20
8.0
 30
0.0
 11
63.0
 21
8.0
 31
0.0
  0
LINE
  5
5B3F
330
5B19
100
AcDbEntity
  8
AM_0 外形線1
100
AcDbLine
 10
46.0
 20
6.928203000000165
 30
0.0
 11
57.93190200000026
 21
6.928203000000165
 31
0.0
  0
ARC
  5
5B40
330
5B19
100
AcDbEntity
  8
AM_0 外形線1
100
AcDbCircle
 10
52.85887300000013
 20
10.38910099999998
 30
0.0
 40
6.141127
100
AcDbArc
 50
325.697590999982
 51
34.30240900001802
  0
LINE
  5
5B70
330
5B19
100
AcDbEntity
  8
AM_0 外形線1
100
AcDbLine
 10
57.93190200000026
 20
13.85000000000013
 30
0.0
 11
59.0
 21
12.0
 31
0.0
  0
LINE
  5
5B96
330
5B19
100
AcDbEntity
  8
AM_0 外形線1
100
AcDbLine
 10
-8.931901571646449
 20
0.0000000162751803
 30
0.0
 11
0.0
 21
0.0
 31
0.0
  0
LINE
  5
5B97
330
5B19
100
AcDbEntity
  8
AM_0 外形線1
100
AcDbLine
 10
0.0
 20
11.99445100000002
 30
0.0
 11
0.0
 21
-11.99445199999991
 31
0.0
  0
LINE
  5
5B98
330
5B19
100
AcDbEntity
  8
AM_0 外形線1
100
AcDbLine
 10
2.0
 20
9.0
 30
0.0
 11
40.0
 21
9.0
 31
0.0
  0
LINE
  5
5B99
330
5B19
100
AcDbEntity
  8
AM_0 外形線1
100
AcDbLine
 10
2.0
 20
-9.0
 30
0.0
 11
40.0
 21
-9.0
 31
0.0
  0
LINE
  5
5B9A
330
5B19
100
AcDbEntity
  8
AM_0 外形線1
100
AcDbLine
 10
42.0
 20
14.0
 30
0.0
 11
42.0
 21
-14.0
 31
0.0
  0
ENDBLK
  5
5B1B
330
5B19
100
AcDbEntity
  8
0
100
AcDbBlockEnd
  0
BLOCK
  5
5BA6
330
5BA5
100
AcDbEntity
  8
0
100
AcDbBlockBegin
  2
リーマボルト-2 SAM355 M16
 70
     0
 10
0.0
 20
0.0
 30
0.0
  3
リーマボルト-2 SAM355 M16
  1

  0
LINE
  5
5BA8
330
5BA5
100
AcDbEntity
  8
AM_0 外形線1
100
AcDbLine
 10
10.0
 20
6.313206000000035
 30
0.0
 11
10.0
 21
-5.681245999999872
 31
0.0
  0
ARC
  5
5BA9
330
5BA5
100
AcDbEntity
  8
AM_0 外形線1
100
AcDbCircle
 10
-7.324115999999776
 20
5.997225000000071
 30
0.0
 40
17.326998
100
AcDbArc
 50
339.7498009999877
 51
20.25019900001225
  0
LINE
  5
5BAA
330
5BA5
100
AcDbEntity
  8
AM_0 外形線1
100
AcDbLine
 10
-2.0
 20
-9.0
 30
0.0
 11
-2.0
 21
9.0
 31
0.0
  0
LINE
  5
5BAB
330
5BA5
100
AcDbEntity
  8
AM_0 外形線1
100
AcDbLine
 10
-40.0
 20
9.0
 30
0.0
 11
-40.0
 21
-9.0
 31
0.0
  0
LINE
  5
5BAC
330
5BA5
100
AcDbEntity
  8
AM_0 外形線1
100
AcDbLine
 10
-41.0
 20
8.422649000000092
 30
0.0
 11
-41.0
 21
-8.422649999999974
 31
0.0
  0
ARC
  5
5BAD
330
5BA5
100
AcDbEntity
  8
AM_0 外形線1
100
AcDbCircle
 10
-35.99610299999996
 20
0.0
 30
0.0
 40
23.003897
100
AcDbArc
 50
162.471797999992
 51
197.528202000008
  0
LINE
  5
5BAE
330
5BA5
100
AcDbEntity
  8
AM_0 外形線1
100
AcDbLine
 10
-59.0
 20
12.0
 30
0.0
 11
-59.0
 21
-12.0
 31
0.0
  0
LINE
  5
5BAF
330
5BA5
100
AcDbEntity
  8
AM_0 外形線1
100
AcDbLine
 10
-63.0
 20
8.0
 30
0.0
 11
-63.0
 21
-8.0
 31
0.0
  0
LINE
  5
5BB0
330
5BA5
100
AcDbEntity
  8
AM_0 外形線1
100
AcDbLine
 10
-65.0
 20
6.0
 30
0.0
 11
-65.0
 21
-6.0
 31
0.0
  0
LINE
  5
5BB1
330
5BA5
100
AcDbEntity
  8
AM_0 外形線1
100
AcDbLine
 10
-46.0
 20
-13.84999999999991
 30
0.0
 11
-46.0
 21
13.85000000000013
 31
0.0
  0
LINE
  5
5BB2
330
5BA5
100
AcDbEntity
  8
AM_0 外形線1
100
AcDbLine
 10
8.931902000000262
 20
-11.99445199999991
 30
0.0
 11
0.0
 21
-11.99445199999991
 31
0.0
  0
LINE
  5
5BB3
330
5BA5
100
AcDbEntity
  8
AM_0 外形線1
100
AcDbLine
 10
-46.0
 20
-6.928203999999822
 30
0.0
 11
-57.93190199999981
 21
-6.928203999999822
 31
0.0
  0
LINE
  5
5BB4
330
5BA5
100
AcDbEntity
  8
AM_0 外形線1
100
AcDbLine
 10
-57.93190199999981
 20
-13.84999999999991
 30
0.0
 11
-46.0
 21
-13.84999999999991
 31
0.0
  0
ARC
  5
5BB5
330
5BA5
100
AcDbEntity
  8
AM_0 外形線1
100
AcDbCircle
 10
-52.85887300000013
 20
-10.38910199999986
 30
0.0
 40
6.141127
100
AcDbArc
 50
145.6975909999819
 51
214.302409000018
  0
LINE
  5
5BB6
330
5BA5
100
AcDbEntity
  8
AM_0 外形線1
100
AcDbLine
 10
-59.0
 20
-12.0
 30
0.0
 11
-57.93190199999981
 21
-13.84999999999991
 31
0.0
  0
LINE
  5
5BB7
330
5BA5
100
AcDbEntity
  8
AM_0 外形線1
100
AcDbLine
 10
-65.0
 20
-6.0
 30
0.0
 11
-63.0
 21
-8.0
 31
0.0
  0
LINE
  5
5BB8
330
5BA5
100
AcDbEntity
  8
AM_4 細線
100
AcDbLine
 10
-59.0
 20
-7.0
 30
0.0
 11
-64.0
 21
-7.0
 31
0.0
  0
LINE
  5
5BB9
330
5BA5
100
AcDbEntity
  8
AM_0 外形線1
100
AcDbLine
 10
-63.0
 20
-8.0
 30
0.0
 11
-59.0
 21
-8.0
 31
0.0
  0
LINE
  5
5BBA
330
5BA5
100
AcDbEntity
  8
AM_0 外形線1
100
AcDbLine
 10
-41.0
 20
-8.422649999999974
 30
0.0
 11
-42.0
 21
-8.422649999999974
 31
0.0
  0
LINE
  5
5BBB
330
5BA5
100
AcDbEntity
  8
AM_0 外形線1
100
AcDbLine
 10
-41.0
 20
-8.422649999999974
 30
0.0
 11
-40.0
 21
-9.0
 31
0.0
  0
LINE
  5
5BBC
330
5BA5
100
AcDbEntity
  8
AM_0 外形線1
100
AcDbLine
 10
-46.0
 20
-14.0
 30
0.0
 11
-46.0
 21
-13.84999999999991
 31
0.0
  0
LINE
  5
5BBD
330
5BA5
100
AcDbEntity
  8
AM_0 外形線1
100
AcDbLine
 10
-42.0
 20
-14.0
 30
0.0
 11
-46.0
 21
-14.0
 31
0.0
  0
LINE
  5
5BBE
330
5BA5
100
AcDbEntity
  8
AM_0 外形線1
100
AcDbLine
 10
-42.0
 20
2.666666000000076
 30
0.0
 11
-46.0
 21
-1.333333999999922
 31
0.0
  0
LINE
  5
5BBF
330
5BA5
100
AcDbEntity
  8
AM_0 外形線1
100
AcDbLine
 10
-46.0
 20
-2.66666699999996
 30
0.0
 11
-42.0
 21
1.333333000000038
 31
0.0
  0
ARC
  5
5BC0
330
5BA5
100
AcDbEntity
  8
AM_0 外形線1
100
AcDbCircle
 10
-1.0
 20
-9.0
 30
0.0
 40
1.0
100
AcDbArc
 50
0.0
 51
180.0
  0
ARC
  5
5BC1
330
5BA5
100
AcDbEntity
  8
AM_0 外形線1
100
AcDbCircle
 10
-7.324115999999776
 20
-5.997225999999955
 30
0.0
 40
17.326998
100
AcDbArc
 50
339.7498009999877
 51
20.25019900001225
  0
LINE
  5
5BC2
330
5BA5
100
AcDbEntity
  8
AM_0 外形線1
100
AcDbLine
 10
0.0
 20
11.99445100000002
 30
0.0
 11
8.931902000000262
 21
11.99445100000002
 31
0.0
  0
LINE
  5
5BC3
330
5BA5
100
AcDbEntity
  8
AM_0 外形線1
100
AcDbLine
 10
-46.0
 20
13.85000000000013
 30
0.0
 11
-57.93190199999981
 21
13.85000000000013
 31
0.0
  0
LINE
  5
5BC4
330
5BA5
100
AcDbEntity
  8
AM_0 外形線1
100
AcDbLine
 10
-46.0
 20
6.928203000000165
 30
0.0
 11
-57.93190199999981
 21
6.928203000000165
 31
0.0
  0
LINE
  5
5BC5
330
5BA5
100
AcDbEntity
  8
AM_0 外形線1
100
AcDbLine
 10
-63.0
 20
8.0
 30
0.0
 11
-65.0
 21
6.0
 31
0.0
  0
LINE
  5
5BC6
330
5BA5
100
AcDbEntity
  8
AM_4 細線
100
AcDbLine
 10
-59.0
 20
7.0
 30
0.0
 11
-64.0
 21
7.0
 31
0.0
  0
LINE
  5
5BC7
330
5BA5
100
AcDbEntity
  8
AM_0 外形線1
100
AcDbLine
 10
-59.0
 20
8.0
 30
0.0
 11
-63.0
 21
8.0
 31
0.0
  0
ARC
  5
5BC8
330
5BA5
100
AcDbEntity
  8
AM_0 外形線1
100
AcDbCircle
 10
-52.85887300000013
 20
10.38910099999998
 30
0.0
 40
6.141127
100
AcDbArc
 50
145.6975909999819
 51
214.302409000018
  0
LINE
  5
5BC9
330
5BA5
100
AcDbEntity
  8
AM_0 外形線1
100
AcDbLine
 10
-57.93190199999981
 20
13.85000000000013
 30
0.0
 11
-59.0
 21
12.0
 31
0.0
  0
LINE
  5
5BCA
330
5BA5
100
AcDbEntity
  8
AM_0 外形線1
100
AcDbLine
 10
-46.0
 20
13.85000000000013
 30
0.0
 11
-46.0
 21
14.0
 31
0.0
  0
LINE
  5
5BCB
330
5BA5
100
AcDbEntity
  8
AM_0 外形線1
100
AcDbLine
 10
-46.0
 20
14.0
 30
0.0
 11
-42.0
 21
14.0
 31
0.0
  0
LINE
  5
5BCC
330
5BA5
100
AcDbEntity
  8
AM_0 外形線1
100
AcDbLine
 10
-41.0
 20
8.422649000000092
 30
0.0
 11
-42.0
 21
8.422649000000092
 31
0.0
  0
LINE
  5
5BCD
330
5BA5
100
AcDbEntity
  8
AM_0 外形線1
100
AcDbLine
 10
-40.0
 20
9.0
 30
0.0
 11
-41.0
 21
8.422649000000092
 31
0.0
  0
ARC
  5
5BCE
330
5BA5
100
AcDbEntity
  8
AM_0 外形線1
100
AcDbCircle
 10
-1.0
 20
9.0
 30
0.0
 40
1.0
100
AcDbArc
 50
180.0
 51
0.0
  0
LINE
  5
5C27
330
5BA5
100
AcDbEntity
  8
AM_0 外形線1
100
AcDbLine
 10
0.0
 20
11.99445100000002
 30
0.0
 11
0.0
 21
-11.99445199999991
 31
0.0
  0
LINE
  5
5C28
330
5BA5
100
AcDbEntity
  8
AM_0 外形線1
100
AcDbLine
 10
-40.0
 20
9.0
 30
0.0
 11
-2.000000000000112
 21
9.0
 31
0.0
  0
LINE
  5
5C29
330
5BA5
100
AcDbEntity
  8
AM_0 外形線1
100
AcDbLine
 10
-40.0
 20
-9.0
 30
0.0
 11
-2.000000000000112
 21
-9.0
 31
0.0
  0
LINE
  5
5C2A
330
5BA5
100
AcDbEntity
  8
AM_0 外形線1
100
AcDbLine
 10
-42.0
 20
14.0
 30
0.0
 11
-42.0
 21
-14.0
 31
0.0
  0
LINE
  5
5C2B
330
5BA5
100
AcDbEntity
  8
AM_0 外形線1
100
AcDbLine
 10
0.0
 20
-0.0000004999999419
 30
0.0
 11
8.93190257164656
 21
-0.0000010162755189
 31
0.0
  0
ENDBLK
  5
5BA7
330
5BA5
100
AcDbEntity
  8
0
100
AcDbBlockEnd
  0
BLOCK
  5
6275
330
6274
100
AcDbEntity
  8
0
100
AcDbBlockBegin
  2
*D15
 70
     1
 10
0.0
 20
0.0
 30
0.0
  3
*D15
  1

  0
LINE
  5
9289
330
6274
100
AcDbEntity
  8
AM_5 寸法線
 62
     3
100
AcDbLine
 10
738.8731849948854
 20
1278.98177157724
 30
0.0
 11
577.3731849948854
 21
1278.98177157724
 31
0.0
  0
LINE
  5
928A
330
6274
100
AcDbEntity
  8
AM_5 寸法線
 62
     3
100
AcDbLine
 10
738.8731849948854
 20
1028.981771577241
 30
0.0
 11
577.3731849948854
 21
1028.981771577241
 31
0.0
  0
LINE
  5
928B
330
6274
100
AcDbEntity
  8
AM_5 寸法線
 62
     3
100
AcDbLine
 10
580.4981849948854
 20
1266.48177157724
 30
0.0
 11
580.4981849948854
 21
1041.481771577241
 31
0.0
  0
INSERT
  5
928C
330
6274
100
AcDbEntity
  8
AM_5 寸法線
 62
     3
100
AcDbBlockReference
  2
_Open30
 10
580.4981849948854
 20
1278.98177157724
 30
0.0
 41
12.5
 42
12.5
 43
12.5
 50
90.0
  0
INSERT
  5
928D
330
6274
100
AcDbEntity
  8
AM_5 寸法線
 62
     3
100
AcDbBlockReference
  2
_Open30
 10
580.4981849948854
 20
1028.981771577241
 30
0.0
 41
12.5
 42
12.5
 43
12.5
 50
270.0
  0
MTEXT
  5
928E
330
6274
100
AcDbEntity
  8
AM_5 寸法線
 62
     3
100
AcDbMText
 10
564.2481849948852
 20
1153.981771577241
 30
0.0
 40
17.5
 41
0.0
 46
0.0
 71
     5
 72
     1
  1
%%c250
  7
SEISA
 11
0.0000000000000001
 21
1.0
 31
0.0
 73
     1
 44
1.0
  0
POINT
  5
928F
330
6274
100
AcDbEntity
  8
Defpoints
 62
     0
100
AcDbPoint
 10
741.9981849948854
 20
1278.98177157724
 30
0.0
  0
POINT
  5
9290
330
6274
100
AcDbEntity
  8
Defpoints
 62
     0
100
AcDbPoint
 10
741.9981849948854
 20
1028.981771577241
 30
0.0
  0
POINT
  5
9291
330
6274
100
AcDbEntity
  8
Defpoints
 62
     0
100
AcDbPoint
 10
580.4981849948854
 20
1028.981771577241
 30
0.0
  0
ENDBLK
  5
6276
330
6274
100
AcDbEntity
  8
0
100
AcDbBlockEnd
  0
BLOCK
  5
62C3
330
62C2
100
AcDbEntity
  8
0
100
AcDbBlockBegin
  2
*D16
 70
     1
 10
0.0
 20
0.0
 30
0.0
  3
*D16
  1

  0
LINE
  5
9292
330
62C2
100
AcDbEntity
  8
AM_5 寸法線
 62
     3
100
AcDbLine
 10
1289.123184994885
 20
1278.98177157724
 30
0.0
 11
1450.623184994885
 21
1278.98177157724
 31
0.0
  0
LINE
  5
9293
330
62C2
100
AcDbEntity
  8
AM_5 寸法線
 62
     3
100
AcDbLine
 10
1289.123184994885
 20
1028.981771577241
 30
0.0
 11
1450.623184994885
 21
1028.981771577241
 31
0.0
  0
LINE
  5
9294
330
62C2
100
AcDbEntity
  8
AM_5 寸法線
 62
     3
100
AcDbLine
 10
1447.498184994885
 20
1266.48177157724
 30
0.0
 11
1447.498184994885
 21
1041.481771577241
 31
0.0
  0
INSERT
  5
9295
330
62C2
100
AcDbEntity
  8
AM_5 寸法線
 62
     3
100
AcDbBlockReference
  2
_Open30
 10
1447.498184994885
 20
1278.98177157724
 30
0.0
 41
12.5
 42
12.5
 43
12.5
 50
90.0
  0
INSERT
  5
9296
330
62C2
100
AcDbEntity
  8
AM_5 寸法線
 62
     3
100
AcDbBlockReference
  2
_Open30
 10
1447.498184994885
 20
1028.981771577241
 30
0.0
 41
12.5
 42
12.5
 43
12.5
 50
270.0
  0
MTEXT
  5
9297
330
62C2
100
AcDbEntity
  8
AM_5 寸法線
 62
     3
100
AcDbMText
 10
1431.248184994885
 20
1153.981771577241
 30
0.0
 40
17.5
 41
0.0
 46
0.0
 71
     5
 72
     1
  1
%%c250
  7
SEISA
 11
0.0000000000000001
 21
1.0
 31
0.0
 73
     1
 44
1.0
  0
POINT
  5
9298
330
62C2
100
AcDbEntity
  8
Defpoints
 62
     0
100
AcDbPoint
 10
1285.998184994885
 20
1278.98177157724
 30
0.0
  0
POINT
  5
9299
330
62C2
100
AcDbEntity
  8
Defpoints
 62
     0
100
AcDbPoint
 10
1285.998184994885
 20
1028.981771577241
 30
0.0
  0
POINT
  5
929A
330
62C2
100
AcDbEntity
  8
Defpoints
 62
     0
100
AcDbPoint
 10
1447.498184994885
 20
1028.981771577241
 30
0.0
  0
ENDBLK
  5
62C4
330
62C2
100
AcDbEntity
  8
0
100
AcDbBlockEnd
  0
BLOCK
  5
62DB
330
62DA
100
AcDbEntity
  8
0
100
AcDbBlockBegin
  2
*D17
 70
     1
 10
0.0
 20
0.0
 30
0.0
  3
*D17
  1

  0
LINE
  5
929B
330
62DA
100
AcDbEntity
  8
AM_5 寸法線
 62
     3
100
AcDbLine
 10
1256.623184994885
 20
1297.98177157724
 30
0.0
 11
1500.623184994885
 21
1297.98177157724
 31
0.0
  0
LINE
  5
929C
330
62DA
100
AcDbEntity
  8
AM_5 寸法線
 62
     3
100
AcDbLine
 10
1256.623184994885
 20
1009.981771577241
 30
0.0
 11
1500.623184994885
 21
1009.981771577241
 31
0.0
  0
LINE
  5
929D
330
62DA
100
AcDbEntity
  8
AM_5 寸法線
 62
     3
100
AcDbLine
 10
1497.498184994885
 20
1285.48177157724
 30
0.0
 11
1497.498184994885
 21
1022.48177157724
 31
0.0
  0
INSERT
  5
929E
330
62DA
100
AcDbEntity
  8
AM_5 寸法線
 62
     3
100
AcDbBlockReference
  2
_Open30
 10
1497.498184994885
 20
1297.98177157724
 30
0.0
 41
12.5
 42
12.5
 43
12.5
 50
90.0
  0
INSERT
  5
929F
330
62DA
100
AcDbEntity
  8
AM_5 寸法線
 62
     3
100
AcDbBlockReference
  2
_Open30
 10
1497.498184994885
 20
1009.981771577241
 30
0.0
 41
12.5
 42
12.5
 43
12.5
 50
270.0
  0
MTEXT
  5
92A0
330
62DA
100
AcDbEntity
  8
AM_5 寸法線
 62
     3
100
AcDbMText
 10
1481.248184994885
 20
1153.981771577241
 30
0.0
 40
17.5
 41
0.0
 46
0.0
 71
     5
 72
     1
  1
%%c288
  7
SEISA
 11
0.0000000000000001
 21
1.0
 31
0.0
 73
     1
 44
1.0
  0
POINT
  5
92A1
330
62DA
100
AcDbEntity
  8
Defpoints
 62
     0
100
AcDbPoint
 10
1253.498184994885
 20
1297.98177157724
 30
0.0
  0
POINT
  5
92A2
330
62DA
100
AcDbEntity
  8
Defpoints
 62
     0
100
AcDbPoint
 10
1253.498184994885
 20
1009.981771577241
 30
0.0
  0
POINT
  5
92A3
330
62DA
100
AcDbEntity
  8
Defpoints
 62
     0
100
AcDbPoint
 10
1497.498184994885
 20
1009.981771577241
 30
0.0
  0
ENDBLK
  5
62DC
330
62DA
100
AcDbEntity
  8
0
100
AcDbBlockEnd
  0
BLOCK
  5
62F3
330
62F2
100
AcDbEntity
  8
0
100
AcDbBlockBegin
  2
*D18
 70
     1
 10
0.0
 20
0.0
 30
0.0
  3
*D18
  1

  0
LINE
  5
92A4
330
62F2
100
AcDbEntity
  8
AM_5 寸法線
 62
     3
100
AcDbLine
 10
1172.623184994885
 20
1331.48177157724
 30
0.0
 11
1550.623184994885
 21
1331.48177157724
 31
0.0
  0
LINE
  5
92A5
330
62F2
100
AcDbEntity
  8
AM_5 寸法線
 62
     3
100
AcDbLine
 10
1172.623184994885
 20
976.4817715772407
 30
0.0
 11
1550.623184994885
 21
976.4817715772407
 31
0.0
  0
LINE
  5
92A6
330
62F2
100
AcDbEntity
  8
AM_5 寸法線
 62
     3
100
AcDbLine
 10
1547.498184994885
 20
1318.98177157724
 30
0.0
 11
1547.498184994885
 21
988.9817715772407
 31
0.0
  0
INSERT
  5
92A7
330
62F2
100
AcDbEntity
  8
AM_5 寸法線
 62
     3
100
AcDbBlockReference
  2
_Open30
 10
1547.498184994885
 20
1331.48177157724
 30
0.0
 41
12.5
 42
12.5
 43
12.5
 50
90.0
  0
INSERT
  5
92A8
330
62F2
100
AcDbEntity
  8
AM_5 寸法線
 62
     3
100
AcDbBlockReference
  2
_Open30
 10
1547.498184994885
 20
976.4817715772407
 30
0.0
 41
12.5
 42
12.5
 43
12.5
 50
270.0
  0
MTEXT
  5
92A9
330
62F2
100
AcDbEntity
  8
AM_5 寸法線
 62
     3
100
AcDbMText
 10
1531.248184994885
 20
1153.981771577241
 30
0.0
 40
17.5
 41
0.0
 46
0.0
 71
     5
 72
     1
  1
%%c355
  7
SEISA
 11
0.0000000000000001
 21
1.0
 31
0.0
 73
     1
 44
1.0
  0
POINT
  5
92AA
330
62F2
100
AcDbEntity
  8
Defpoints
 62
     0
100
AcDbPoint
 10
1169.498184994885
 20
1331.48177157724
 30
0.0
  0
POINT
  5
92AB
330
62F2
100
AcDbEntity
  8
Defpoints
 62
     0
100
AcDbPoint
 10
1169.498184994885
 20
976.4817715772407
 30
0.0
  0
POINT
  5
92AC
330
62F2
100
AcDbEntity
  8
Defpoints
 62
     0
100
AcDbPoint
 10
1547.498184994885
 20
976.4817715772407
 30
0.0
  0
ENDBLK
  5
62F4
330
62F2
100
AcDbEntity
  8
0
100
AcDbBlockEnd
  0
BLOCK
  5
635A
330
6359
100
AcDbEntity
  8
0
100
AcDbBlockBegin
  2
*D19
 70
     1
 10
0.0
 20
0.0
 30
0.0
  3
*D19
  1

  0
LINE
  5
92AD
330
6359
100
AcDbEntity
  8
AM_5 寸法線
 62
     3
100
AcDbLine
 10
792.9981849948854
 20
1276.356771577241
 30
0.0
 11
792.9981849948854
 21
1244.510024484983
 31
0.0
  0
LINE
  5
92AE
330
6359
100
AcDbEntity
  8
AM_5 寸法線
 62
     3
100
AcDbLine
 10
787.4981849948852
 20
1275.85677157724
 30
0.0
 11
787.4981849948852
 21
1244.510024484983
 31
0.0
  0
LINE
  5
92AF
330
6359
100
AcDbEntity
  8
AM_5 寸法線
 62
     3
100
AcDbLine
 10
805.4981849948854
 20
1247.635024484983
 30
0.0
 11
817.9981849948854
 21
1247.635024484983
 31
0.0
  0
LINE
  5
92B0
330
6359
100
AcDbEntity
  8
AM_5 寸法線
 62
     3
100
AcDbLine
 10
774.9981849948852
 20
1247.635024484983
 30
0.0
 11
714.4981849948853
 21
1247.635024484983
 31
0.0
  0
LINE
  5
92B1
330
6359
100
AcDbEntity
  8
AM_5 寸法線
 62
     3
100
AcDbLine
 10
792.9981849948854
 20
1247.635024484983
 30
0.0
 11
787.4981849948852
 21
1247.635024484983
 31
0.0
  0
INSERT
  5
92B2
330
6359
100
AcDbEntity
  8
AM_5 寸法線
 62
     3
100
AcDbBlockReference
  2
_Open30
 10
792.9981849948854
 20
1247.635024484983
 30
0.0
 41
12.5
 42
12.5
 43
12.5
 50
180.0
  0
INSERT
  5
92B3
330
6359
100
AcDbEntity
  8
AM_5 寸法線
 62
     3
100
AcDbBlockReference
  2
_Open30
 10
787.4981849948852
 20
1247.635024484983
 30
0.0
 41
12.5
 42
12.5
 43
12.5
  0
MTEXT
  5
92B4
330
6359
100
AcDbEntity
  8
AM_5 寸法線
 62
     3
100
AcDbMText
 10
738.4981849948854
 20
1263.885024484983
 30
0.0
 40
17.5
 41
0.0
 46
0.0
 71
     5
 72
     1
  1
5.5
  7
SEISA
 73
     1
 44
1.0
  0
POINT
  5
92B5
102
{ACAD_REACTORS
330
A06D
102
}
330
6359
100
AcDbEntity
  8
Defpoints
 62
     0
100
AcDbPoint
 10
792.9981849948854
 20
1279.481771577241
 30
0.0
  0
POINT
  5
92B6
330
6359
100
AcDbEntity
  8
Defpoints
 62
     0
100
AcDbPoint
 10
787.4981849948852
 20
1278.98177157724
 30
0.0
  0
POINT
  5
92B7
330
6359
100
AcDbEntity
  8
Defpoints
 62
     0
100
AcDbPoint
 10
787.4981849948852
 20
1247.635024484983
 30
0.0
  0
ENDBLK
  5
635B
330
6359
100
AcDbEntity
  8
0
100
AcDbBlockEnd
  0
BLOCK
  5
642A
330
6429
100
AcDbEntity
  8
0
100
AcDbBlockBegin
  2
*D20
 70
     1
 10
0.0
 20
0.0
 30
0.0
  3
*D20
  1

  0
LINE
  5
A0E8
330
6429
100
AcDbEntity
  8
AM_5 寸法線
 62
     3
100
AcDbLine
 10
870.4981849948854
 20
1157.10677157724
 30
0.0
 11
870.4981849948854
 21
1177.271693577241
 31
0.0
  0
LINE
  5
A0E9
330
6429
100
AcDbEntity
  8
AM_5 寸法線
 62
     3
100
AcDbLine
 10
680.4981849948852
 20
1157.10677157724
 30
0.0
 11
680.4981849948852
 21
1177.271693577241
 31
0.0
  0
LINE
  5
A0EA
330
6429
100
AcDbEntity
  8
AM_5 寸法線
 62
     3
100
AcDbLine
 10
857.9981849948854
 20
1174.146693577241
 30
0.0
 11
692.9981849948852
 21
1174.146693577241
 31
0.0
  0
MTEXT
  5
A0EB
330
6429
100
AcDbEntity
  8
AM_5 寸法線
 62
     3
100
AcDbMText
 10
729.1253072087993
 20
1190.986098483454
 30
0.0
 40
17.5
 41
0.0
 46
0.0
 71
     5
 72
     1
  1
190
  7
SEISA
 73
     1
 44
1.0
  0
INSERT
  5
A0EC
330
6429
100
AcDbEntity
  8
AM_5 寸法線
 62
     3
100
AcDbBlockReference
  2
_Open30
 10
870.4981849948854
 20
1174.146693577241
 30
0.0
 41
12.5
 42
12.5
 43
12.5
  0
INSERT
  5
A0ED
330
6429
100
AcDbEntity
  8
AM_5 寸法線
 62
     3
100
AcDbBlockReference
  2
_Open30
 10
680.4981849948852
 20
1174.146693577241
 30
0.0
 41
12.5
 42
12.5
 43
12.5
 50
180.0
  0
POINT
  5
A0EE
330
6429
100
AcDbEntity
  8
Defpoints
 62
     0
100
AcDbPoint
 10
870.4981849948854
 20
1153.98177157724
 30
0.0
  0
POINT
  5
A0EF
330
6429
100
AcDbEntity
  8
Defpoints
 62
     0
100
AcDbPoint
 10
680.4981849948852
 20
1153.98177157724
 30
0.0
  0
POINT
  5
A0F0
330
6429
100
AcDbEntity
  8
Defpoints
 62
     0
100
AcDbPoint
 10
680.4981849948852
 20
1174.146693577241
 30
0.0
  0
ENDBLK
  5
642B
330
6429
100
AcDbEntity
  8
0
100
AcDbBlockEnd
  0
BLOCK
  5
6442
330
6441
100
AcDbEntity
  8
0
100
AcDbBlockBegin
  2
*D21
 70
     1
 10
0.0
 20
0.0
 30
0.0
  3
*D21
  1

  0
LINE
  5
92CC
330
6441
100
AcDbEntity
  8
AM_5 寸法線
 62
     3
100
AcDbLine
 10
1157.498184994885
 20
1157.10677157724
 30
0.0
 11
1157.498184994885
 21
1177.271693577241
 31
0.0
  0
LINE
  5
92CD
330
6441
100
AcDbEntity
  8
AM_5 寸法線
 62
     3
100
AcDbLine
 10
1347.498184994885
 20
1157.10677157724
 30
0.0
 11
1347.498184994885
 21
1177.271693577241
 31
0.0
  0
LINE
  5
92CE
330
6441
100
AcDbEntity
  8
AM_5 寸法線
 62
     3
100
AcDbLine
 10
1169.998184994885
 20
1174.146693577241
 30
0.0
 11
1334.998184994885
 21
1174.146693577241
 31
0.0
  0
INSERT
  5
92CF
330
6441
100
AcDbEntity
  8
AM_5 寸法線
 62
     3
100
AcDbBlockReference
  2
_Open30
 10
1157.498184994885
 20
1174.146693577241
 30
0.0
 41
12.5
 42
12.5
 43
12.5
 50
180.0
  0
INSERT
  5
92D0
330
6441
100
AcDbEntity
  8
AM_5 寸法線
 62
     3
100
AcDbBlockReference
  2
_Open30
 10
1347.498184994885
 20
1174.146693577241
 30
0.0
 41
12.5
 42
12.5
 43
12.5
  0
MTEXT
  5
92D1
330
6441
100
AcDbEntity
  8
AM_5 寸法線
 62
     3
100
AcDbMText
 10
1252.498184994885
 20
1190.39669357724
 30
0.0
 40
17.5
 41
0.0
 46
0.0
 71
     5
 72
     1
  1
190
  7
SEISA
 73
     1
 44
1.0
  0
POINT
  5
92D2
330
6441
100
AcDbEntity
  8
Defpoints
 62
     0
100
AcDbPoint
 10
1157.498184994885
 20
1153.98177157724
 30
0.0
  0
POINT
  5
92D3
330
6441
100
AcDbEntity
  8
Defpoints
 62
     0
100
AcDbPoint
 10
1347.498184994885
 20
1153.98177157724
 30
0.0
  0
POINT
  5
92D4
330
6441
100
AcDbEntity
  8
Defpoints
 62
     0
100
AcDbPoint
 10
1347.498184994885
 20
1174.146693577241
 30
0.0
  0
ENDBLK
  5
6443
330
6441
100
AcDbEntity
  8
0
100
AcDbBlockEnd
  0
BLOCK
  5
6540
330
653F
100
AcDbEntity
  8
0
100
AcDbBlockBegin
  2
*D22
 70
     1
 10
0.0
 20
0.0
 30
0.0
  3
*D22
  1

  0
LINE
  5
92DD
330
653F
100
AcDbEntity
  8
AM_5 寸法線
 62
     3
100
AcDbLine
 10
878.4981849948854
 20
973.8567715772408
 30
0.0
 11
878.4981849948854
 21
898.3567715772407
 31
0.0
  0
LINE
  5
92DE
330
653F
100
AcDbEntity
  8
AM_5 寸法線
 62
     3
100
AcDbLine
 10
857.4981849948853
 20
974.3567715772408
 30
0.0
 11
857.4981849948853
 21
898.3567715772407
 31
0.0
  0
LINE
  5
92DF
330
653F
100
AcDbEntity
  8
AM_5 寸法線
 62
     3
100
AcDbLine
 10
890.9981849948854
 20
901.4817715772407
 30
0.0
 11
903.4981849948854
 21
901.4817715772407
 31
0.0
  0
LINE
  5
92E0
330
653F
100
AcDbEntity
  8
AM_5 寸法線
 62
     3
100
AcDbLine
 10
844.9981849948851
 20
901.4817715772407
 30
0.0
 11
796.4981849948854
 21
901.4817715772407
 31
0.0
  0
LINE
  5
92E1
330
653F
100
AcDbEntity
  8
AM_5 寸法線
 62
     3
100
AcDbLine
 10
878.4981849948854
 20
901.4817715772407
 30
0.0
 11
857.4981849948853
 21
901.4817715772407
 31
0.0
  0
INSERT
  5
92E2
330
653F
100
AcDbEntity
  8
AM_5 寸法線
 62
     3
100
AcDbBlockReference
  2
GENDOT
 10
878.4981849948854
 20
901.4817715772407
 30
0.0
 41
12.5
 42
12.5
 43
12.5
 50
180.0
  0
INSERT
  5
92E3
330
653F
100
AcDbEntity
  8
AM_5 寸法線
 62
     3
100
AcDbBlockReference
  2
_Open30
 10
857.4981849948853
 20
901.4817715772407
 30
0.0
 41
12.5
 42
12.5
 43
12.5
  0
MTEXT
  5
92E4
330
653F
100
AcDbEntity
  8
AM_5 寸法線
 62
     3
100
AcDbMText
 10
814.4981849948852
 20
917.7317715772408
 30
0.0
 40
17.5
 41
0.0
 46
0.0
 71
     5
 72
     1
  1
21
  7
SEISA
 73
     1
 44
1.0
  0
POINT
  5
92E5
330
653F
100
AcDbEntity
  8
Defpoints
 62
     0
100
AcDbPoint
 10
878.4981849948854
 20
976.9817715772408
 30
0.0
  0
POINT
  5
92E6
330
653F
100
AcDbEntity
  8
Defpoints
 62
     0
100
AcDbPoint
 10
857.4981849948853
 20
977.4817715772408
 30
0.0
  0
POINT
  5
92E7
330
653F
100
AcDbEntity
  8
Defpoints
 62
     0
100
AcDbPoint
 10
857.4981849948853
 20
901.4817715772407
 30
0.0
  0
ENDBLK
  5
6541
330
653F
100
AcDbEntity
  8
0
100
AcDbBlockEnd
  0
BLOCK
  5
6594
330
6593
100
AcDbEntity
  8
0
100
AcDbBlockBegin
  2
*D23
 70
     1
 10
0.0
 20
0.0
 30
0.0
  3
*D23
  1

  0
LINE
  5
92E8
330
6593
100
AcDbEntity
  8
AM_5 寸法線
 62
     3
100
AcDbLine
 10
1149.498184994885
 20
973.8567715772408
 30
0.0
 11
1149.498184994885
 21
898.3567715772407
 31
0.0
  0
LINE
  5
92E9
330
6593
100
AcDbEntity
  8
AM_5 寸法線
 62
     3
100
AcDbLine
 10
1170.498184994885
 20
974.3567715772408
 30
0.0
 11
1170.498184994885
 21
898.3567715772407
 31
0.0
  0
LINE
  5
92EA
330
6593
100
AcDbEntity
  8
AM_5 寸法線
 62
     3
100
AcDbLine
 10
1136.998184994885
 20
901.4817715772407
 30
0.0
 11
1124.498184994885
 21
901.4817715772407
 31
0.0
  0
LINE
  5
92EB
330
6593
100
AcDbEntity
  8
AM_5 寸法線
 62
     3
100
AcDbLine
 10
1182.998184994885
 20
901.4817715772407
 30
0.0
 11
1231.498184994885
 21
901.4817715772407
 31
0.0
  0
LINE
  5
92EC
330
6593
100
AcDbEntity
  8
AM_5 寸法線
 62
     3
100
AcDbLine
 10
1149.498184994885
 20
901.4817715772407
 30
0.0
 11
1170.498184994885
 21
901.4817715772407
 31
0.0
  0
INSERT
  5
92ED
330
6593
100
AcDbEntity
  8
AM_5 寸法線
 62
     3
100
AcDbBlockReference
  2
GENDOT
 10
1149.498184994885
 20
901.4817715772407
 30
0.0
 41
12.5
 42
12.5
 43
12.5
  0
INSERT
  5
92EE
330
6593
100
AcDbEntity
  8
AM_5 寸法線
 62
     3
100
AcDbBlockReference
  2
_Open30
 10
1170.498184994885
 20
901.4817715772407
 30
0.0
 41
12.5
 42
12.5
 43
12.5
 50
180.0
  0
MTEXT
  5
92EF
330
6593
100
AcDbEntity
  8
AM_5 寸法線
 62
     3
100
AcDbMText
 10
1213.498184994885
 20
917.7317715772408
 30
0.0
 40
17.5
 41
0.0
 46
0.0
 71
     5
 72
     1
  1
21
  7
SEISA
 73
     1
 44
1.0
  0
POINT
  5
92F0
330
6593
100
AcDbEntity
  8
Defpoints
 62
     0
100
AcDbPoint
 10
1149.498184994885
 20
976.9817715772408
 30
0.0
  0
POINT
  5
92F1
330
6593
100
AcDbEntity
  8
Defpoints
 62
     0
100
AcDbPoint
 10
1170.498184994885
 20
977.4817715772408
 30
0.0
  0
POINT
  5
92F2
330
6593
100
AcDbEntity
  8
Defpoints
 62
     0
100
AcDbPoint
 10
1170.498184994885
 20
901.4817715772407
 30
0.0
  0
ENDBLK
  5
6595
330
6593
100
AcDbEntity
  8
0
100
AcDbBlockEnd
  0
BLOCK
  5
66B4
330
66B3
100
AcDbEntity
  8
0
100
AcDbBlockBegin
  2
*D24
 70
     1
 10
0.0
 20
0.0
 30
0.0
  3
*D24
  1

  0
LINE
  5
92F3
330
66B3
100
AcDbEntity
  8
AM_5 寸法線
 62
     3
100
AcDbLine
 10
680.4981849948854
 20
1030.656771577241
 30
0.0
 11
680.4981849948854
 21
848.3567715772407
 31
0.0
  0
LINE
  5
92F4
330
66B3
100
AcDbEntity
  8
AM_5 寸法線
 62
     3
100
AcDbLine
 10
770.4981849948852
 20
1010.85677157724
 30
0.0
 11
770.4981849948852
 21
848.3567715772407
 31
0.0
  0
LINE
  5
92F5
330
66B3
100
AcDbEntity
  8
AM_5 寸法線
 62
     3
100
AcDbLine
 10
692.9981849948854
 20
851.4817715772407
 30
0.0
 11
757.9981849948852
 21
851.4817715772407
 31
0.0
  0
INSERT
  5
92F6
330
66B3
100
AcDbEntity
  8
AM_5 寸法線
 62
     3
100
AcDbBlockReference
  2
_Open30
 10
680.4981849948854
 20
851.4817715772407
 30
0.0
 41
12.5
 42
12.5
 43
12.5
 50
180.0
  0
INSERT
  5
92F7
330
66B3
100
AcDbEntity
  8
AM_5 寸法線
 62
     3
100
AcDbBlockReference
  2
_Open30
 10
770.4981849948852
 20
851.4817715772407
 30
0.0
 41
12.5
 42
12.5
 43
12.5
  0
MTEXT
  5
92F8
330
66B3
100
AcDbEntity
  8
AM_5 寸法線
 62
     3
100
AcDbMText
 10
725.4981849948854
 20
867.7317715772408
 30
0.0
 40
17.5
 41
0.0
 46
0.0
 71
     5
 72
     1
  1
90
  7
SEISA
 73
     1
 44
1.0
  0
POINT
  5
92F9
330
66B3
100
AcDbEntity
  8
Defpoints
 62
     0
100
AcDbPoint
 10
680.4981849948854
 20
1033.781771577241
 30
0.0
  0
POINT
  5
92FA
330
66B3
100
AcDbEntity
  8
Defpoints
 62
     0
100
AcDbPoint
 10
770.4981849948852
 20
1013.981771577241
 30
0.0
  0
POINT
  5
92FB
330
66B3
100
AcDbEntity
  8
Defpoints
 62
     0
100
AcDbPoint
 10
770.4981849948852
 20
851.4817715772407
 30
0.0
  0
ENDBLK
  5
66B5
330
66B3
100
AcDbEntity
  8
0
100
AcDbBlockEnd
  0
BLOCK
  5
66CC
330
66CB
100
AcDbEntity
  8
0
100
AcDbBlockBegin
  2
*D25
 70
     1
 10
0.0
 20
0.0
 30
0.0
  3
*D25
  1

  0
LINE
  5
92FC
330
66CB
100
AcDbEntity
  8
AM_5 寸法線
 62
     3
100
AcDbLine
 10
770.4981849948852
 20
1010.85677157724
 30
0.0
 11
770.4981849948852
 21
848.3567715772407
 31
0.0
  0
LINE
  5
92FD
330
66CB
100
AcDbEntity
  8
AM_5 寸法線
 62
     3
100
AcDbLine
 10
878.4981849948854
 20
973.8567715772408
 30
0.0
 11
878.4981849948854
 21
848.3567715772407
 31
0.0
  0
LINE
  5
92FE
330
66CB
100
AcDbEntity
  8
AM_5 寸法線
 62
     3
100
AcDbLine
 10
782.9981849948852
 20
851.4817715772407
 30
0.0
 11
865.9981849948854
 21
851.4817715772407
 31
0.0
  0
INSERT
  5
92FF
330
66CB
100
AcDbEntity
  8
AM_5 寸法線
 62
     3
100
AcDbBlockReference
  2
_Open30
 10
770.4981849948852
 20
851.4817715772407
 30
0.0
 41
12.5
 42
12.5
 43
12.5
 50
180.0
  0
INSERT
  5
9300
330
66CB
100
AcDbEntity
  8
AM_5 寸法線
 62
     3
100
AcDbBlockReference
  2
_Open30
 10
878.4981849948854
 20
851.4817715772407
 30
0.0
 41
12.5
 42
12.5
 43
12.5
  0
MTEXT
  5
9301
330
66CB
100
AcDbEntity
  8
AM_5 寸法線
 62
     3
100
AcDbMText
 10
824.4981849948853
 20
867.7317715772408
 30
0.0
 40
17.5
 41
0.0
 46
0.0
 71
     5
 72
     1
  1
108
  7
SEISA
 73
     1
 44
1.0
  0
POINT
  5
9302
330
66CB
100
AcDbEntity
  8
Defpoints
 62
     0
100
AcDbPoint
 10
770.4981849948852
 20
1013.981771577241
 30
0.0
  0
POINT
  5
9303
330
66CB
100
AcDbEntity
  8
Defpoints
 62
     0
100
AcDbPoint
 10
878.4981849948854
 20
976.9817715772408
 30
0.0
  0
POINT
  5
9304
330
66CB
100
AcDbEntity
  8
Defpoints
 62
     0
100
AcDbPoint
 10
878.4981849948854
 20
851.4817715772407
 30
0.0
  0
ENDBLK
  5
66CD
330
66CB
100
AcDbEntity
  8
0
100
AcDbBlockEnd
  0
BLOCK
  5
670D
330
670C
100
AcDbEntity
  8
0
100
AcDbBlockBegin
  2
*D26
 70
     1
 10
0.0
 20
0.0
 30
0.0
  3
*D26
  1

  0
LINE
  5
930D
330
670C
100
AcDbEntity
  8
AM_5 寸法線
 62
     3
100
AcDbLine
 10
1149.498184994885
 20
973.8567715772408
 30
0.0
 11
1149.498184994885
 21
848.3567715772407
 31
0.0
  0
LINE
  5
930E
330
670C
100
AcDbEntity
  8
AM_5 寸法線
 62
     3
100
AcDbLine
 10
1257.498184994885
 20
1010.85677157724
 30
0.0
 11
1257.498184994885
 21
848.3567715772407
 31
0.0
  0
LINE
  5
930F
330
670C
100
AcDbEntity
  8
AM_5 寸法線
 62
     3
100
AcDbLine
 10
1161.998184994885
 20
851.4817715772407
 30
0.0
 11
1244.998184994885
 21
851.4817715772407
 31
0.0
  0
INSERT
  5
9310
330
670C
100
AcDbEntity
  8
AM_5 寸法線
 62
     3
100
AcDbBlockReference
  2
_Open30
 10
1149.498184994885
 20
851.4817715772407
 30
0.0
 41
12.5
 42
12.5
 43
12.5
 50
180.0
  0
INSERT
  5
9311
330
670C
100
AcDbEntity
  8
AM_5 寸法線
 62
     3
100
AcDbBlockReference
  2
_Open30
 10
1257.498184994885
 20
851.4817715772407
 30
0.0
 41
12.5
 42
12.5
 43
12.5
  0
MTEXT
  5
9312
330
670C
100
AcDbEntity
  8
AM_5 寸法線
 62
     3
100
AcDbMText
 10
1203.498184994885
 20
867.7317715772408
 30
0.0
 40
17.5
 41
0.0
 46
0.0
 71
     5
 72
     1
  1
108
  7
SEISA
 73
     1
 44
1.0
  0
POINT
  5
9313
330
670C
100
AcDbEntity
  8
Defpoints
 62
     0
100
AcDbPoint
 10
1149.498184994885
 20
976.9817715772408
 30
0.0
  0
POINT
  5
9314
330
670C
100
AcDbEntity
  8
Defpoints
 62
     0
100
AcDbPoint
 10
1257.498184994885
 20
1013.981771577241
 30
0.0
  0
POINT
  5
9315
330
670C
100
AcDbEntity
  8
Defpoints
 62
     0
100
AcDbPoint
 10
1257.498184994885
 20
851.4817715772407
 30
0.0
  0
ENDBLK
  5
670E
330
670C
100
AcDbEntity
  8
0
100
AcDbBlockEnd
  0
BLOCK
  5
6725
330
6724
100
AcDbEntity
  8
0
100
AcDbBlockBegin
  2
*D27
 70
     1
 10
0.0
 20
0.0
 30
0.0
  3
*D27
  1

  0
LINE
  5
9316
330
6724
100
AcDbEntity
  8
AM_5 寸法線
 62
     3
100
AcDbLine
 10
1257.498184994885
 20
1010.85677157724
 30
0.0
 11
1257.498184994885
 21
848.3567715772407
 31
0.0
  0
LINE
  5
9317
330
6724
100
AcDbEntity
  8
AM_5 寸法線
 62
     3
100
AcDbLine
 10
1347.498184994885
 20
1030.656771577241
 30
0.0
 11
1347.498184994885
 21
848.3567715772407
 31
0.0
  0
LINE
  5
9318
330
6724
100
AcDbEntity
  8
AM_5 寸法線
 62
     3
100
AcDbLine
 10
1269.998184994885
 20
851.4817715772407
 30
0.0
 11
1334.998184994885
 21
851.4817715772407
 31
0.0
  0
INSERT
  5
9319
330
6724
100
AcDbEntity
  8
AM_5 寸法線
 62
     3
100
AcDbBlockReference
  2
_Open30
 10
1257.498184994885
 20
851.4817715772407
 30
0.0
 41
12.5
 42
12.5
 43
12.5
 50
180.0
  0
INSERT
  5
931A
330
6724
100
AcDbEntity
  8
AM_5 寸法線
 62
     3
100
AcDbBlockReference
  2
_Open30
 10
1347.498184994885
 20
851.4817715772407
 30
0.0
 41
12.5
 42
12.5
 43
12.5
  0
MTEXT
  5
931B
330
6724
100
AcDbEntity
  8
AM_5 寸法線
 62
     3
100
AcDbMText
 10
1302.498184994885
 20
867.7317715772408
 30
0.0
 40
17.5
 41
0.0
 46
0.0
 71
     5
 72
     1
  1
90
  7
SEISA
 73
     1
 44
1.0
  0
POINT
  5
931C
330
6724
100
AcDbEntity
  8
Defpoints
 62
     0
100
AcDbPoint
 10
1257.498184994885
 20
1013.981771577241
 30
0.0
  0
POINT
  5
931D
330
6724
100
AcDbEntity
  8
Defpoints
 62
     0
100
AcDbPoint
 10
1347.498184994885
 20
1033.781771577241
 30
0.0
  0
POINT
  5
931E
330
6724
100
AcDbEntity
  8
Defpoints
 62
     0
100
AcDbPoint
 10
1347.498184994885
 20
851.4817715772407
 30
0.0
  0
ENDBLK
  5
6726
330
6724
100
AcDbEntity
  8
0
100
AcDbBlockEnd
  0
BLOCK
  5
825F
330
825E
100
AcDbEntity
  8
0
100
AcDbBlockBegin
  2
ＧＣスペーサ SAMY355
 70
     0
 10
0.0
 20
0.0
 30
0.0
  3
ＧＣスペーサ SAMY355
  1

  0
HATCH
  5
8261
330
825E
100
AcDbEntity
  8
AM_8 ハッチング
100
AcDbHatch
 10
0.0
 20
0.0
 30
0.0
210
0.0
220
0.0
230
1.0
  2
_USER
 70
     0
 71
     1
 91
        1
 92
        7
 72
     1
 73
     1
 93
        5
 10
45.50777489925031
 20
133.7000000000003
 42
0.0
 10
26.99999999999932
 20
133.7000000000003
 42
0.0
 10
26.99999999999955
 20
120.5
 42
0.4142135623730685
 10
31.99999999999955
 20
115.5000000000004
 42
0.0
 10
34.99999999999956
 20
115.5000000000004
 42
0.0
 97
        5
330
8266
330
82BD
330
82BC
330
8262
330
82C7
 75
     0
 76
     0
 52
45.0
 41
1.5
 77
     0
 78
     1
 53
45.0
 43
-564.5575178903907
 44
-750.8478627399036
 45
-1.06066017177982
 46
1.06066017177982
 79
     0
 47
0.0971030044790245
 98
        1
 10
36.33043811813446
 20
127.8353948542885
1001
ACAD
1010
0.0
1020
0.0
1030
0.0
  0
LINE
  5
8262
102
{ACAD_REACTORS
330
8261
102
}
330
825E
100
AcDbEntity
  8
AM_0 外形線1
100
AcDbLine
 10
31.99999999999955
 20
115.5000000000004
 30
0.0
 11
129.4286093485933
 21
115.5000000000004
 31
0.0
  0
LINE
  5
8263
330
825E
100
AcDbEntity
  8
AM_0 外形線1
100
AcDbLine
 10
137.4286093485932
 20
115.5000000000004
 30
0.0
 11
239.0000000000203
 21
115.5000000000009
 31
0.0
  0
LINE
  5
8264
330
825E
100
AcDbEntity
  8
AM_0 外形線1
100
AcDbLine
 10
49.00000000000045
 20
-133.6999999999995
 30
0.0
 11
134.5250362245663
 21
-133.6999999999993
 31
0.0
  0
LINE
  5
8265
330
825E
100
AcDbEntity
  8
AM_0 外形線1
100
AcDbLine
 10
142.5250362245663
 20
-133.6999999999993
 30
0.0
 11
222.0000000000194
 21
-133.6999999999996
 31
0.0
  0
LINE
  5
8266
102
{ACAD_REACTORS
330
8261
102
}
330
825E
100
AcDbEntity
  8
AM_0 外形線1
100
AcDbLine
 10
27.0
 20
133.7000000000003
 30
0.0
 11
134.525036224566
 21
133.7000000000003
 31
0.0
  0
LINE
  5
8267
330
825E
100
AcDbEntity
  8
AM_0 外形線1
100
AcDbLine
 10
142.525036224566
 20
133.7000000000003
 30
0.0
 11
244.0000000000199
 21
133.7000000000007
 31
0.0
  0
LINE
  5
8269
330
825E
100
AcDbEntity
  8
AM_0 外形線1
100
AcDbLine
 10
271.0000000000199
 20
142.5000000000013
 30
0.0
 11
271.0000000000199
 21
153.4999999999959
 31
0.0
  0
LINE
  5
826A
330
825E
100
AcDbEntity
  8
AM_0 外形線1
100
AcDbLine
 10
271.0000000000199
 20
171.4999999999963
 30
0.0
 11
271.0000000000199
 21
177.0000000000004
 31
0.0
  0
LINE
  5
826B
330
825E
100
AcDbEntity
  8
AM_7 中心線
100
AcDbLine
 10
240.0000000000204
 20
-162.4999999999995
 30
0.0
 11
281.0000000000199
 21
-162.4999999999995
 31
0.0
  0
POLYLINE
  5
826C
330
825E
100
AcDbEntity
  8
AM_4 細線
100
AcDb2dPolyline
 66
     1
 10
0.0
 20
0.0
 30
0.0
 70
     2
  0
VERTEX
  5
A32F
330
826C
100
AcDbEntity
  8
AM_4 細線
100
AcDbVertex
100
AcDb2dVertex
 10
142.525036224566
 20
133.7000000000003
 30
0.0
 42
0.0444328931062672
  0
VERTEX
  5
A330
330
826C
100
AcDbEntity
  8
AM_4 細線
100
AcDbVertex
100
AcDb2dVertex
 10
137.1499588350816
 20
114.0045789822561
 30
0.0
 42
0.0661610947051853
 70
     1
  0
VERTEX
  5
A331
330
826C
100
AcDbEntity
  8
AM_4 細線
100
AcDbVertex
100
AcDb2dVertex
 10
136.525036224566
 20
100.2750000000005
 30
0.0
 42
0.0545848267580803
  0
VERTEX
  5
A332
330
826C
100
AcDbEntity
  8
AM_4 細線
100
AcDbVertex
100
AcDb2dVertex
 10
140.3718457917352
 20
80.87051981761078
 30
0.0
 42
-0.0763396162589409
 70
     1
  0
VERTEX
  5
A333
330
826C
100
AcDbEntity
  8
AM_4 細線
100
AcDbVertex
100
AcDb2dVertex
 10
142.525036224566
 20
66.85000000000082
 30
0.0
 42
-0.0890415793990835
  0
VERTEX
  5
A334
330
826C
100
AcDbEntity
  8
AM_4 細線
100
AcDbVertex
100
AcDb2dVertex
 10
139.525036224566
 20
50.13750000000071
 30
0.0
 42
0.0890415793990801
 70
     1
  0
VERTEX
  5
A335
330
826C
100
AcDbEntity
  8
AM_4 細線
100
AcDbVertex
100
AcDb2dVertex
 10
136.525036224566
 20
33.42500000000064
 30
0.0
 42
0.0890415793990823
  0
VERTEX
  5
A336
330
826C
100
AcDbEntity
  8
AM_4 細線
100
AcDbVertex
100
AcDb2dVertex
 10
139.525036224566
 20
16.71250000000054
 30
0.0
 42
-0.0890415793990824
 70
     1
  0
VERTEX
  5
A337
330
826C
100
AcDbEntity
  8
AM_4 細線
100
AcDbVertex
100
AcDb2dVertex
 10
142.525036224566
 20
0.0000000000004547
 30
0.0
 42
-0.089041579399084
  0
VERTEX
  5
A338
330
826C
100
AcDbEntity
  8
AM_4 細線
100
AcDbVertex
100
AcDb2dVertex
 10
139.525036224566
 20
-16.71249999999918
 30
0.0
 42
0.0890415793990831
 70
     1
  0
VERTEX
  5
A339
330
826C
100
AcDbEntity
  8
AM_4 細線
100
AcDbVertex
100
AcDb2dVertex
 10
136.525036224566
 20
-33.42499999999973
 30
0.0
 42
0.089041579399086
  0
VERTEX
  5
A33A
330
826C
100
AcDbEntity
  8
AM_4 細線
100
AcDbVertex
100
AcDb2dVertex
 10
139.5250362245663
 20
-50.13749999999936
 30
0.0
 42
-0.0890415793990827
 70
     1
  0
VERTEX
  5
A33B
330
826C
100
AcDbEntity
  8
AM_4 細線
100
AcDbVertex
100
AcDb2dVertex
 10
142.5250362245663
 20
-66.84999999999945
 30
0.0
 42
-0.0763396162589405
  0
VERTEX
  5
A33C
330
826C
100
AcDbEntity
  8
AM_4 細線
100
AcDbVertex
100
AcDb2dVertex
 10
140.3718457917357
 20
-80.87051981760987
 30
0.0
 42
0.0545848267580821
 70
     1
  0
VERTEX
  5
A33D
330
826C
100
AcDbEntity
  8
AM_4 細線
100
AcDbVertex
100
AcDb2dVertex
 10
136.5250362245663
 20
-100.2749999999994
 30
0.0
 42
0.0661610947051885
  0
VERTEX
  5
A33E
330
826C
100
AcDbEntity
  8
AM_4 細線
100
AcDbVertex
100
AcDb2dVertex
 10
137.1499588350818
 20
-114.0045789822552
 30
0.0
 42
0.0444328931062685
 70
     1
  0
VERTEX
  5
A33F
330
826C
100
AcDbEntity
  8
AM_4 細線
100
AcDbVertex
100
AcDb2dVertex
 10
142.5250362245663
 20
-133.6999999999993
 30
0.0
  0
SEQEND
  5
A340
330
826C
100
AcDbEntity
  8
AM_4 細線
  0
POLYLINE
  5
827F
330
825E
100
AcDbEntity
  8
AM_4 細線
100
AcDb2dPolyline
 66
     1
 10
0.0
 20
0.0
 30
0.0
 70
     2
  0
VERTEX
  5
A342
330
827F
100
AcDbEntity
  8
AM_4 細線
100
AcDbVertex
100
AcDb2dVertex
 10
134.525036224566
 20
133.7000000000003
 30
0.0
 42
0.0444328931062672
  0
VERTEX
  5
A343
330
827F
100
AcDbEntity
  8
AM_4 細線
100
AcDbVertex
100
AcDb2dVertex
 10
129.1499588350815
 20
114.0045789822561
 30
0.0
 42
0.0661610947051853
 70
     1
  0
VERTEX
  5
A344
330
827F
100
AcDbEntity
  8
AM_4 細線
100
AcDbVertex
100
AcDb2dVertex
 10
128.525036224566
 20
100.2750000000005
 30
0.0
 42
0.0545848267580803
  0
VERTEX
  5
A345
330
827F
100
AcDbEntity
  8
AM_4 細線
100
AcDbVertex
100
AcDb2dVertex
 10
132.3718457917353
 20
80.87051981761078
 30
0.0
 42
-0.0763396162589409
 70
     1
  0
VERTEX
  5
A346
330
827F
100
AcDbEntity
  8
AM_4 細線
100
AcDbVertex
100
AcDb2dVertex
 10
134.525036224566
 20
66.85000000000036
 30
0.0
 42
-0.0890415793990835
  0
VERTEX
  5
A347
330
827F
100
AcDbEntity
  8
AM_4 細線
100
AcDbVertex
100
AcDb2dVertex
 10
131.525036224566
 20
50.13750000000028
 30
0.0
 42
0.0890415793990801
 70
     1
  0
VERTEX
  5
A348
330
827F
100
AcDbEntity
  8
AM_4 細線
100
AcDbVertex
100
AcDb2dVertex
 10
128.5250362245662
 20
33.42500000000064
 30
0.0
 42
0.0890415793990823
  0
VERTEX
  5
A349
330
827F
100
AcDbEntity
  8
AM_4 細線
100
AcDbVertex
100
AcDb2dVertex
 10
131.5250362245661
 20
16.71250000000054
 30
0.0
 42
-0.0890415793990824
 70
     1
  0
VERTEX
  5
A34A
330
827F
100
AcDbEntity
  8
AM_4 細線
100
AcDbVertex
100
AcDb2dVertex
 10
134.5250362245661
 20
0.0000000000004547
 30
0.0
 42
-0.089041579399084
  0
VERTEX
  5
A34B
330
827F
100
AcDbEntity
  8
AM_4 細線
100
AcDbVertex
100
AcDb2dVertex
 10
131.5250362245661
 20
-16.71249999999963
 30
0.0
 42
0.0890415793990831
 70
     1
  0
VERTEX
  5
A34C
330
827F
100
AcDbEntity
  8
AM_4 細線
100
AcDbVertex
100
AcDb2dVertex
 10
128.5250362245662
 20
-33.42499999999973
 30
0.0
 42
0.089041579399086
  0
VERTEX
  5
A34D
330
827F
100
AcDbEntity
  8
AM_4 細線
100
AcDbVertex
100
AcDb2dVertex
 10
131.5250362245663
 20
-50.13749999999959
 30
0.0
 42
-0.0890415793990827
 70
     1
  0
VERTEX
  5
A34E
330
827F
100
AcDbEntity
  8
AM_4 細線
100
AcDbVertex
100
AcDb2dVertex
 10
134.5250362245663
 20
-66.84999999999945
 30
0.0
 42
-0.0763396162589405
  0
VERTEX
  5
A34F
330
827F
100
AcDbEntity
  8
AM_4 細線
100
AcDbVertex
100
AcDb2dVertex
 10
132.3718457917355
 20
-80.87051981760987
 30
0.0
 42
0.0545848267580821
 70
     1
  0
VERTEX
  5
A350
330
827F
100
AcDbEntity
  8
AM_4 細線
100
AcDbVertex
100
AcDb2dVertex
 10
128.5250362245663
 20
-100.2749999999996
 30
0.0
 42
0.0661610947051885
  0
VERTEX
  5
A351
330
827F
100
AcDbEntity
  8
AM_4 細線
100
AcDbVertex
100
AcDb2dVertex
 10
129.1499588350818
 20
-114.0045789822552
 30
0.0
 42
0.0444328931062685
 70
     1
  0
VERTEX
  5
A352
330
827F
100
AcDbEntity
  8
AM_4 細線
100
AcDbVertex
100
AcDb2dVertex
 10
134.5250362245663
 20
-133.6999999999993
 30
0.0
  0
SEQEND
  5
A353
330
827F
100
AcDbEntity
  8
AM_4 細線
  0
LINE
  5
8292
330
825E
100
AcDbEntity
  8
AM_0 外形線1
100
AcDbLine
 10
244.0000000000194
 20
0.0000000000002274
 30
0.0
 11
244.0000000000194
 21
-150.0
 31
0.0
  0
LINE
  5
8293
330
825E
100
AcDbEntity
  8
AM_0 外形線1
100
AcDbLine
 10
271.0000000000199
 20
0.0
 30
0.0
 11
271.000000000019
 21
-177.0
 31
0.0
  0
LINE
  5
8294
330
825E
100
AcDbEntity
  8
AM_0 外形線1
100
AcDbLine
 10
270.500000000019
 20
-177.5
 30
0.0
 11
271.000000000019
 21
-177.0
 31
0.0
1001
GENIUS_GENFIL_13
1070
     0
1040
0.5
1040
0.5
1040
0.500000000000057
1040
44.9999999999951
1000
~T
1001
GENIUS_GENOREF_13
1005
82D4
  0
LINE
  5
8295
330
825E
100
AcDbEntity
  8
AM_0 外形線1
100
AcDbLine
 10
251.0000000000194
 20
-177.5
 30
0.0
 11
270.500000000019
 21
-177.5
 31
0.0
  0
LINE
  5
8296
330
825E
100
AcDbEntity
  8
AM_0 外形線1
100
AcDbLine
 10
250.0000000000194
 20
-176.5
 30
0.0
 11
251.0000000000194
 21
-177.5
 31
0.0
1001
GENIUS_GENFIL_13
1070
     0
1040
1.0
1040
1.0
1040
1.0
1040
45.0
1000
~T
1001
GENIUS_GENOREF_13
1005
82D3
  0
LINE
  5
8297
330
825E
100
AcDbEntity
  8
AM_0 外形線1
100
AcDbLine
 10
250.0000000000194
 20
0.0000000000002274
 30
0.0
 11
250.0000000000194
 21
-176.5
 31
0.0
  0
LINE
  5
8298
330
825E
100
AcDbEntity
  8
AM_0 外形線1
100
AcDbLine
 10
244.0000000000194
 20
-150.0
 30
0.0
 11
250.0000000000194
 21
-149.9999999999995
 31
0.0
  0
LINE
  5
8299
330
825E
100
AcDbEntity
  8
AM_7 中心線
100
AcDbLine
 10
240.0000000000204
 20
-162.4999999999995
 30
0.0
 11
302.0000000000004
 21
-162.4999999999995
 31
0.0
  0
ARC
  5
829A
330
825E
100
AcDbEntity
  8
AM_0 外形線1
100
AcDbCircle
 10
222.0000000000194
 20
-143.6999999999993
 30
0.0
 40
10.0
100
AcDbArc
 50
48.1087781833871
 51
90.0
  0
LINE
  5
829B
330
825E
100
AcDbEntity
  8
AM_0 外形線1
100
AcDbLine
 10
244.0000000000431
 20
-150.0
 30
0.0
 11
228.6771851300133
 21
-136.2558614507916
 31
0.0
  0
ARC
  5
829C
330
825E
100
AcDbEntity
  8
AM_0 外形線1
100
AcDbCircle
 10
239.0000000000203
 20
120.5
 30
0.0
 40
5.0
100
AcDbArc
 50
270.0
 51
0.0
1001
GENIUS_GENODEF_13
1002
{
1000
HIER
1070
     0
1002
}
1002
{
1000
MANEDIT
1070
     0
1002
}
1002
{
1000
NOSEL
1070
     0
1002
}
1002
{
1000
BEHIND
1070
     0
1002
}
1002
{
1000
OTHER
1070
     0
1002
}
1002
{
1000
REACTOR
1002
}
1001
GENIUS_GENOBJ-N-FIL_13
1002
{
1000
OWNER
1000
GEN
1002
}
  0
LINE
  5
829D
330
825E
100
AcDbEntity
  8
AM_0 外形線1
100
AcDbLine
 10
244.0000000000203
 20
120.5
 30
0.0
 11
244.0000000000208
 21
150.0000000000004
 31
0.0
  0
LINE
  5
829E
330
825E
100
AcDbEntity
  8
AM_0 外形線1
100
AcDbLine
 10
270.5000000000199
 20
142.0000000000009
 30
0.0
 11
271.0000000000199
 21
142.5000000000009
 31
0.0
1001
GENIUS_GENFIL_13
1070
     0
1040
0.5
1040
0.5
1040
0.500000000000057
1040
45.0
1000
~T
1001
GENIUS_GENOREF_13
1005
82D2
  0
LINE
  5
829F
330
825E
100
AcDbEntity
  8
AM_0 外形線1
100
AcDbLine
 10
270.5000000000199
 20
177.5000000000004
 30
0.0
 11
271.0000000000199
 21
177.0000000000004
 31
0.0
1001
GENIUS_GENFIL_13
1070
     0
1040
0.5
1040
0.5
1040
0.500000000000057
1040
44.9999999999951
1000
~T
1001
GENIUS_GENOREF_13
1005
82D1
  0
LINE
  5
82A0
330
825E
100
AcDbEntity
  8
AM_0 外形線1
100
AcDbLine
 10
265.0000000000199
 20
0.0
 30
0.0
 11
265.0000000000208
 21
142.0000000000004
 31
0.0
  0
LINE
  5
82A1
330
825E
100
AcDbEntity
  8
AM_0 外形線1
100
AcDbLine
 10
251.0000000000212
 20
177.5000000000004
 30
0.0
 11
270.5000000000199
 21
177.5000000000004
 31
0.0
  0
LINE
  5
82A2
330
825E
100
AcDbEntity
  8
AM_0 外形線1
100
AcDbLine
 10
250.0000000000213
 20
176.5000000000004
 30
0.0
 11
251.0000000000212
 21
177.5000000000004
 31
0.0
1001
GENIUS_GENFIL_13
1070
     0
1040
1.0
1040
1.0
1040
1.0
1040
45.0
1000
~T
1001
GENIUS_GENOREF_13
1005
82D0
  0
LINE
  5
82A3
330
825E
100
AcDbEntity
  8
AM_0 外形線1
100
AcDbLine
 10
250.0000000000208
 20
150.0
 30
0.0
 11
250.0000000000213
 21
176.5000000000004
 31
0.0
  0
LINE
  5
82A4
330
825E
100
AcDbEntity
  8
AM_0 外形線1
100
AcDbLine
 10
244.0000000000208
 20
150.0000000000004
 30
0.0
 11
250.0000000000208
 21
150.0
 31
0.0
  0
LINE
  5
82A5
330
825E
100
AcDbEntity
  8
AM_0 外形線1
100
AcDbLine
 10
265.0000000000208
 20
142.0000000000004
 30
0.0
 11
270.5000000000199
 21
142.0000000000009
 31
0.0
  0
LINE
  5
82A6
330
825E
100
AcDbEntity
  8
AM_0 外形線1
100
AcDbLine
 10
234.0000000000194
 20
0.0000000000002274
 30
0.0
 11
234.0000000000204
 21
115.5000000000004
 31
0.0
  0
LINE
  5
82A7
330
825E
100
AcDbEntity
  8
AM_0 外形線1
100
AcDbLine
 10
236.0000000000204
 20
115.5000000000004
 30
0.0
 11
225.4922251007696
 21
133.7000000000003
 31
0.0
  0
ARC
  5
82A8
330
825E
100
AcDbEntity
  8
AM_0 外形線1
100
AcDbCircle
 10
222.0000000000212
 20
143.7000000000002
 30
0.0
 40
10.0
100
AcDbArc
 50
270.0
 51
311.8912218166129
  0
LINE
  5
82A9
330
825E
100
AcDbEntity
  8
AM_0 外形線1
100
AcDbLine
 10
244.0000000000444
 20
150.0000000000004
 30
0.0
 11
228.6771851300144
 21
136.2558614507929
 31
0.0
  0
HATCH
  5
82AA
330
825E
100
AcDbEntity
  8
AM_8 ハッチング
100
AcDbHatch
 10
0.0
 20
0.0
 30
0.0
210
0.0
220
0.0
230
1.0
  2
_USER
 70
     0
 71
     0
 91
        1
 92
        1
 93
        4
 72
     1
 10
228.6771851300144
 20
136.2558614507929
 11
244.0000000000447
 21
150.0000000000009
 72
     1
 10
244.0000000000444
 20
150.0000000000004
 11
244.0000000000206
 21
133.6999999999998
 72
     1
 10
244.0000000000208
 20
133.6999999999998
 11
222.000000000021
 21
133.7000000000003
 72
     2
 10
222.0000000000212
 20
143.7000000000002
 40
10.00000000000005
 50
269.9999999999981
 51
311.891221816599
 73
     1
 97
        0
 75
     0
 76
     0
 52
45.0
 41
1.5
 77
     0
 78
     1
 53
45.0
 43
-793.5575178903701
 44
-750.8478627399036
 45
-1.06066017177982
 46
1.06066017177982
 79
     0
 98
        1
 10
-1443.948445311788
 20
-155.5546172148511
1001
GENIUS_GENODEF_13
1002
{
1000
HIER
1070
     0
1002
}
1002
{
1000
MANEDIT
1070
     0
1002
}
1002
{
1000
NOSEL
1070
     0
1002
}
1002
{
1000
BEHIND
1070
     0
1002
}
1002
{
1000
OTHER
1070
     0
1002
}
1002
{
1000
REACTOR
1002
}
1001
GENIUS_GENOBJ-N-HTC_13
1002
{
1000
OWNER
1000
GEN
1002
}
1001
GENIUS_GENHATCH_13
1002
{
1000
DATA
1040
45.0
1042
-0.5
1000
_U
1070
     0
1011
238.7381784654893
1021
138.6359035533132
1031
0.0
1002
}
1002
{
1000
UCS
1010
0.0
1020
0.0
1030
0.0
1010
1.0
1020
0.0
1030
0.0
1010
0.0
1020
1.0
1030
0.0
1002
}
1001
ACAD
1010
0.0
1020
0.0
1030
0.0
  0
HATCH
  5
82AB
330
825E
100
AcDbEntity
  8
AM_8 ハッチング
100
AcDbHatch
 10
0.0
 20
0.0
 30
0.0
210
0.0
220
0.0
230
1.0
  2
_USER
 70
     0
 71
     0
 91
        1
 92
        1
 93
        5
 72
     2
 10
239.0000000000203
 20
120.5
 40
5.0
 50
0.0000000000005722
 51
90.00000000000055
 73
     0
 72
     1
 10
239.0000000000203
 20
115.5
 11
236.0000000000204
 21
115.5
 72
     1
 10
236.0000000000204
 20
115.5000000000004
 11
225.4922251007696
 21
133.7000000000003
 72
     1
 10
225.4922251007696
 20
133.7000000000003
 11
244.0000000000206
 21
133.7000000000003
 72
     1
 10
244.0000000000208
 20
133.6999999999998
 11
244.0000000000206
 21
120.4999999999995
 97
        0
 75
     0
 76
     0
 52
45.0
 41
1.5
 77
     0
 78
     1
 53
45.0
 43
-793.5575178903701
 44
-750.8478627399036
 45
-1.06066017177982
 46
1.06066017177982
 79
     0
 98
        1
 10
-1443.948445311788
 20
-155.5546172148511
1001
GENIUS_GENOBJ-N-HTC_13
1002
{
1000
OWNER
1000
GEN
1002
}
1001
GENIUS_GENODEF_13
1002
{
1000
HIER
1070
     0
1002
}
1002
{
1000
MANEDIT
1070
     0
1002
}
1002
{
1000
NOSEL
1070
     0
1002
}
1002
{
1000
BEHIND
1070
     0
1002
}
1002
{
1000
OTHER
1070
     0
1002
}
1002
{
1000
REACTOR
1002
}
1001
GENIUS_GENHATCH_13
1002
{
1000
DATA
1040
45.0
1042
-0.5
1000
_U
1070
     0
1011
240.0895059916251
1021
130.1247612066363
1031
0.0
1002
}
1002
{
1000
UCS
1010
0.0
1020
0.0
1030
0.0
1010
1.0
1020
0.0
1030
0.0
1010
0.0
1020
1.0
1030
0.0
1002
}
1001
ACAD
1010
0.0
1020
0.0
1030
0.0
  0
LINE
  5
82AC
330
825E
100
AcDbEntity
  8
AM_0 外形線1
100
AcDbLine
 10
271.0000000000199
 20
153.4999999999959
 30
0.0
 11
250.0000000000203
 21
153.4999999999959
 31
0.0
  0
LINE
  5
82AD
330
825E
100
AcDbEntity
  8
AM_0 外形線1
100
AcDbLine
 10
271.0000000000199
 20
171.4999999999959
 30
0.0
 11
250.0000000000203
 21
171.4999999999959
 31
0.0
  0
LINE
  5
82AF
330
825E
100
AcDbEntity
  8
AM_0 外形線1
100
AcDbLine
 10
0.0000000000001137
 20
142.5000000000004
 30
0.0
 11
0.0000000000001137
 21
153.4999999999959
 31
0.0
  0
LINE
  5
82B0
330
825E
100
AcDbEntity
  8
AM_0 外形線1
100
AcDbLine
 10
0.0000000000001137
 20
171.4999999999963
 30
0.0
 11
0.0000000000001137
 21
177.0000000000004
 31
0.0
  0
LINE
  5
82B1
330
825E
100
AcDbEntity
  8
AM_7 中心線
100
AcDbLine
 10
30.99999999999955
 20
-162.4999999999995
 30
0.0
 11
-25.99999999999989
 21
-162.4999999999995
 31
0.0
  0
LINE
  5
82B2
330
825E
100
AcDbEntity
  8
AM_0 外形線1
100
AcDbLine
 10
27.00000000000069
 20
0.0000000000002274
 30
0.0
 11
27.00000000000069
 21
-150.0
 31
0.0
  0
LINE
  5
82B3
330
825E
100
AcDbEntity
  8
AM_0 外形線1
100
AcDbLine
 10
0.0000000000003411
 20
0.0
 30
0.0
 11
0.0000000000011369
 21
-177.0
 31
0.0
  0
LINE
  5
82B4
330
825E
100
AcDbEntity
  8
AM_0 外形線1
100
AcDbLine
 10
0.5000000000011369
 20
-177.5
 30
0.0
 11
0.0000000000011369
 21
-177.0
 31
0.0
1001
GENIUS_GENFIL_13
1070
     0
1040
0.5
1040
0.5
1040
0.500000000000057
1040
44.9999999999951
1000
~T
1001
GENIUS_GENOREF_13
1005
82CF
  0
LINE
  5
82B5
330
825E
100
AcDbEntity
  8
AM_0 外形線1
100
AcDbLine
 10
20.00000000000068
 20
-177.5
 30
0.0
 11
0.5000000000011369
 21
-177.5
 31
0.0
  0
LINE
  5
82B6
330
825E
100
AcDbEntity
  8
AM_0 外形線1
100
AcDbLine
 10
21.00000000000068
 20
-176.5
 30
0.0
 11
20.00000000000068
 21
-177.5
 31
0.0
1001
GENIUS_GENFIL_13
1070
     0
1040
1.0
1040
1.0
1040
1.0
1040
45.0
1000
~T
1001
GENIUS_GENOREF_13
1005
82CE
  0
LINE
  5
82B7
330
825E
100
AcDbEntity
  8
AM_0 外形線1
100
AcDbLine
 10
21.00000000000068
 20
0.0000000000002274
 30
0.0
 11
21.00000000000068
 21
-176.5
 31
0.0
  0
LINE
  5
82B8
330
825E
100
AcDbEntity
  8
AM_0 外形線1
100
AcDbLine
 10
27.00000000000069
 20
-150.0
 30
0.0
 11
21.00000000000068
 21
-149.9999999999995
 31
0.0
  0
LINE
  5
82B9
330
825E
100
AcDbEntity
  8
AM_7 中心線
100
AcDbLine
 10
30.99999999999977
 20
-162.4999999999995
 30
0.0
 11
-30.99999999999989
 21
-162.4999999999995
 31
0.0
  0
ARC
  5
82BA
330
825E
100
AcDbEntity
  8
AM_0 外形線1
100
AcDbCircle
 10
49.00000000000045
 20
-143.6999999999993
 30
0.0
 40
10.0
100
AcDbArc
 50
90.0
 51
131.8912218166129
  0
LINE
  5
82BB
330
825E
100
AcDbEntity
  8
AM_0 外形線1
100
AcDbLine
 10
26.99999999997704
 20
-150.0
 30
0.0
 11
42.32281487000705
 21
-136.255861450792
 31
0.0
  0
ARC
  5
82BC
102
{ACAD_REACTORS
330
8261
102
}
330
825E
100
AcDbEntity
  8
AM_0 外形線1
100
AcDbCircle
 10
31.99999999999955
 20
120.5
 30
0.0
 40
5.0
100
AcDbArc
 50
180.0
 51
270.0
1001
GENIUS_GENODEF_13
1002
{
1000
HIER
1070
     0
1002
}
1002
{
1000
MANEDIT
1070
     0
1002
}
1002
{
1000
NOSEL
1070
     0
1002
}
1002
{
1000
BEHIND
1070
     0
1002
}
1002
{
1000
OTHER
1070
     0
1002
}
1002
{
1000
REACTOR
1002
}
1001
GENIUS_GENOBJ-N-FIL_13
1002
{
1000
OWNER
1000
GEN
1002
}
  0
LINE
  5
82BD
102
{ACAD_REACTORS
330
8261
102
}
330
825E
100
AcDbEntity
  8
AM_0 外形線1
100
AcDbLine
 10
26.99999999999955
 20
120.5
 30
0.0
 11
26.99999999999909
 21
150.0000000000004
 31
0.0
  0
LINE
  5
82BE
330
825E
100
AcDbEntity
  8
AM_0 外形線1
100
AcDbLine
 10
0.5
 20
142.0000000000009
 30
0.0
 11
0.0
 21
142.5000000000009
 31
0.0
1001
GENIUS_GENFIL_13
1070
     0
1040
0.5
1040
0.5
1040
0.500000000000057
1040
45.00000000000162
1000
~T
1001
GENIUS_GENOREF_13
1005
82CD
  0
LINE
  5
82BF
330
825E
100
AcDbEntity
  8
AM_0 外形線1
100
AcDbLine
 10
0.5000000000001137
 20
177.5000000000004
 30
0.0
 11
0.0000000000001137
 21
177.0000000000004
 31
0.0
1001
GENIUS_GENFIL_13
1070
     0
1040
0.5
1040
0.5
1040
0.500000000000057
1040
45.00000000001302
1000
~T
1001
GENIUS_GENOREF_13
1005
82D6
  0
LINE
  5
82C0
330
825E
100
AcDbEntity
  8
AM_0 外形線1
100
AcDbLine
 10
6.0
 20
0.0
 30
0.0
 11
5.999999999999316
 21
142.0000000000004
 31
0.0
  0
LINE
  5
82C1
330
825E
100
AcDbEntity
  8
AM_0 外形線1
100
AcDbLine
 10
19.99999999999898
 20
177.5000000000004
 30
0.0
 11
0.5000000000001137
 21
177.5000000000004
 31
0.0
  0
LINE
  5
82C2
330
825E
100
AcDbEntity
  8
AM_0 外形線1
100
AcDbLine
 10
20.99999999999898
 20
176.5000000000004
 30
0.0
 11
19.99999999999898
 21
177.5000000000004
 31
0.0
1001
GENIUS_GENFIL_13
1070
     0
1040
1.0
1040
1.0
1040
1.0
1040
45.0
1000
~T
1001
GENIUS_GENOREF_13
1005
82D5
  0
LINE
  5
82C3
330
825E
100
AcDbEntity
  8
AM_0 外形線1
100
AcDbLine
 10
20.99999999999909
 20
150.0
 30
0.0
 11
20.99999999999898
 21
176.5000000000004
 31
0.0
  0
LINE
  5
82C4
330
825E
100
AcDbEntity
  8
AM_0 外形線1
100
AcDbLine
 10
26.99999999999909
 20
150.0000000000004
 30
0.0
 11
20.99999999999909
 21
150.0
 31
0.0
  0
LINE
  5
82C5
330
825E
100
AcDbEntity
  8
AM_0 外形線1
100
AcDbLine
 10
5.999999999999316
 20
142.0000000000004
 30
0.0
 11
0.5
 21
142.0000000000009
 31
0.0
  0
LINE
  5
82C6
330
825E
100
AcDbEntity
  8
AM_0 外形線1
100
AcDbLine
 10
37.00000000000069
 20
0.0000000000002274
 30
0.0
 11
36.99999999999955
 21
115.5000000000004
 31
0.0
  0
LINE
  5
82C7
102
{ACAD_REACTORS
330
8261
102
}
330
825E
100
AcDbEntity
  8
AM_0 外形線1
100
AcDbLine
 10
34.99999999999956
 20
115.5000000000004
 30
0.0
 11
45.50777489925031
 21
133.7000000000003
 31
0.0
  0
ARC
  5
82C8
330
825E
100
AcDbEntity
  8
AM_0 外形線1
100
AcDbCircle
 10
48.99999999999898
 20
143.7000000000002
 30
0.0
 40
10.0
100
AcDbArc
 50
228.1087781833871
 51
270.0
  0
LINE
  5
82C9
330
825E
100
AcDbEntity
  8
AM_0 外形線1
100
AcDbLine
 10
26.99999999997544
 20
150.0000000000004
 30
0.0
 11
42.32281487000569
 21
136.2558614507929
 31
0.0
  0
HATCH
  5
82CA
330
825E
100
AcDbEntity
  8
AM_8 ハッチング
100
AcDbHatch
 10
0.0
 20
0.0
 30
0.0
210
0.0
220
0.0
230
1.0
  2
_USER
 70
     0
 71
     0
 91
        1
 92
        1
 93
        4
 72
     1
 10
42.32281487000569
 20
136.2558614507929
 11
26.99999999997544
 21
150.0000000000009
 72
     1
 10
26.99999999997544
 20
150.0000000000004
 11
26.99999999999932
 21
133.6999999999998
 72
     1
 10
26.99999999999932
 20
133.6999999999998
 11
48.99999999999909
 21
133.7000000000003
 72
     2
 10
48.99999999999875
 20
143.7000000000002
 40
10.00000000000005
 50
89.99999999999811
 51
131.8912218165989
 73
     0
 97
        0
 75
     0
 76
     0
 52
45.0
 41
1.5
 77
     0
 78
     1
 53
45.0
 43
-564.5575178903907
 44
-750.8478627399036
 45
-1.06066017177982
 46
1.06066017177982
 79
     0
 98
        1
 10
1714.948445311807
 20
-155.5546172148511
1001
GENIUS_GENODEF_13
1002
{
1000
HIER
1070
     0
1002
}
1002
{
1000
MANEDIT
1070
     0
1002
}
1002
{
1000
NOSEL
1070
     0
1002
}
1002
{
1000
BEHIND
1070
     0
1002
}
1002
{
1000
OTHER
1070
     0
1002
}
1002
{
1000
REACTOR
1002
}
1001
GENIUS_GENOBJ-N-HTC_13
1002
{
1000
OWNER
1000
GEN
1002
}
1001
GENIUS_GENHATCH_13
1002
{
1000
DATA
1040
45.0
1042
0.5
1000
_U
1070
     0
1011
32.26182153453056
1021
138.6359035533132
1031
0.0
1002
}
1002
{
1000
UCS
1010
0.0
1020
0.0
1030
0.0
1010
1.0
1020
0.0
1030
0.0
1010
0.0
1020
1.0
1030
0.0
1002
}
1001
ACAD
1010
0.0
1020
0.0
1030
0.0
  0
LINE
  5
82CB
330
825E
100
AcDbEntity
  8
AM_0 外形線1
100
AcDbLine
 10
0.0000000000002274
 20
153.4999999999959
 30
0.0
 11
20.99999999999977
 21
153.4999999999959
 31
0.0
  0
LINE
  5
82CC
330
825E
100
AcDbEntity
  8
AM_0 外形線1
100
AcDbLine
 10
0.0000000000002274
 20
171.4999999999959
 30
0.0
 11
20.99999999999977
 21
171.4999999999959
 31
0.0
  0
POINT
  5
82CD
330
825E
100
AcDbEntity
  8
0
 60
     1
100
AcDbPoint
 10
4598.172143869276
 20
7005.089522725445
 30
0.0
1001
GENIUS_GENOBJ-N-CHA_13
1002
{
1000
OWNER
1000
GEN
1002
}
1001
GENIUS_GENOENT_13
1002
{
1000
MYREF
1005
82CD
1002
}
1002
{
1000
GRP
1005
0
1002
}
1001
GENIUS_GENODEF_13
1002
{
1000
HIER
1070
     1
1002
}
1002
{
1000
MANEDIT
1070
     1
1002
}
1002
{
1000
NOSEL
1070
     0
1002
}
1002
{
1000
BEHIND
1070
     0
1002
}
1002
{
1000
OTHER
1070
     0
1002
}
1002
{
1000
REACTOR
1002
}
1001
GENIUS_GENOLIS_13
1002
{
1000
ENT
1005
82BE
1002
}
  0
POINT
  5
82CE
330
825E
100
AcDbEntity
  8
0
 60
     1
100
AcDbPoint
 10
4933.984137414471
 20
7324.640453710046
 30
0.0
 50
180.0
1001
GENIUS_GENOBJ-N-CHA_13
1002
{
1000
OWNER
1000
GEN
1002
}
1001
GENIUS_GENOENT_13
1002
{
1000
MYREF
1005
82CE
1002
}
1002
{
1000
GRP
1005
0
1002
}
1001
GENIUS_GENODEF_13
1002
{
1000
HIER
1070
     1
1002
}
1002
{
1000
MANEDIT
1070
     1
1002
}
1002
{
1000
NOSEL
1070
     0
1002
}
1002
{
1000
BEHIND
1070
     0
1002
}
1002
{
1000
OTHER
1070
     0
1002
}
1002
{
1000
REACTOR
1002
}
1001
GENIUS_GENOLIS_13
1002
{
1000
ENT
1005
82B6
1002
}
  0
POINT
  5
82CF
330
825E
100
AcDbEntity
  8
0
 60
     1
100
AcDbPoint
 10
4933.984137414471
 20
7324.640453710046
 30
0.0
 50
180.0
1001
GENIUS_GENODEF_13
1002
{
1000
HIER
1070
     1
1002
}
1002
{
1000
MANEDIT
1070
     0
1002
}
1002
{
1000
NOSEL
1070
     0
1002
}
1002
{
1000
BEHIND
1070
     0
1002
}
1002
{
1000
OTHER
1070
     0
1002
}
1002
{
1000
REACTOR
1002
}
1001
GENIUS_GENOBJ-N-CHA_13
1002
{
1000
OWNER
1000
GEN
1002
}
1001
GENIUS_GENOENT_13
1002
{
1000
MYREF
1005
82CF
1002
}
1002
{
1000
GRP
1005
0
1002
}
1001
GENIUS_GENOLIS_13
1002
{
1000
ENT
1005
82B4
1002
}
  0
POINT
  5
82D0
330
825E
100
AcDbEntity
  8
0
 60
     1
100
AcDbPoint
 10
4598.172143869276
 20
7005.089522725445
 30
0.0
1001
GENIUS_GENOBJ-N-CHA_13
1002
{
1000
OWNER
1000
GEN
1002
}
1001
GENIUS_GENOENT_13
1002
{
1000
MYREF
1005
82D0
1002
}
1002
{
1000
GRP
1005
0
1002
}
1001
GENIUS_GENODEF_13
1002
{
1000
HIER
1070
     1
1002
}
1002
{
1000
MANEDIT
1070
     1
1002
}
1002
{
1000
NOSEL
1070
     0
1002
}
1002
{
1000
BEHIND
1070
     0
1002
}
1002
{
1000
OTHER
1070
     0
1002
}
1002
{
1000
REACTOR
1002
}
1001
GENIUS_GENOLIS_13
1002
{
1000
ENT
1005
82A2
1002
}
  0
POINT
  5
82D1
330
825E
100
AcDbEntity
  8
0
 60
     1
100
AcDbPoint
 10
4598.172143869276
 20
7005.089522725445
 30
0.0
1001
GENIUS_GENOENT_13
1002
{
1000
MYREF
1005
82D1
1002
}
1002
{
1000
GRP
1005
0
1002
}
1001
GENIUS_GENOBJ-N-CHA_13
1002
{
1000
OWNER
1000
GEN
1002
}
1001
GENIUS_GENODEF_13
1002
{
1000
HIER
1070
     1
1002
}
1002
{
1000
MANEDIT
1070
     1
1002
}
1002
{
1000
NOSEL
1070
     0
1002
}
1002
{
1000
BEHIND
1070
     0
1002
}
1002
{
1000
OTHER
1070
     0
1002
}
1002
{
1000
REACTOR
1002
}
1001
GENIUS_GENOLIS_13
1002
{
1000
ENT
1005
829F
1002
}
  0
POINT
  5
82D2
330
825E
100
AcDbEntity
  8
0
 60
     1
100
AcDbPoint
 10
4598.172143869276
 20
7005.089522725445
 30
0.0
1001
GENIUS_GENOBJ-N-CHA_13
1002
{
1000
OWNER
1000
GEN
1002
}
1001
GENIUS_GENOENT_13
1002
{
1000
MYREF
1005
82D2
1002
}
1002
{
1000
GRP
1005
0
1002
}
1001
GENIUS_GENODEF_13
1002
{
1000
HIER
1070
     1
1002
}
1002
{
1000
MANEDIT
1070
     1
1002
}
1002
{
1000
NOSEL
1070
     0
1002
}
1002
{
1000
BEHIND
1070
     0
1002
}
1002
{
1000
OTHER
1070
     0
1002
}
1002
{
1000
REACTOR
1002
}
1001
GENIUS_GENOLIS_13
1002
{
1000
ENT
1005
829E
1002
}
  0
POINT
  5
82D3
330
825E
100
AcDbEntity
  8
0
 60
     1
100
AcDbPoint
 10
5891.475186104861
 20
7324.640453710046
 30
0.0
1001
GENIUS_GENOBJ-N-CHA_13
1002
{
1000
OWNER
1000
GEN
1002
}
1001
GENIUS_GENOENT_13
1002
{
1000
MYREF
1005
82D3
1002
}
1002
{
1000
GRP
1005
0
1002
}
1001
GENIUS_GENODEF_13
1002
{
1000
HIER
1070
     1
1002
}
1002
{
1000
MANEDIT
1070
     1
1002
}
1002
{
1000
NOSEL
1070
     0
1002
}
1002
{
1000
BEHIND
1070
     0
1002
}
1002
{
1000
OTHER
1070
     0
1002
}
1002
{
1000
REACTOR
1002
}
1001
GENIUS_GENOLIS_13
1002
{
1000
ENT
1005
8296
1002
}
  0
POINT
  5
82D4
330
825E
100
AcDbEntity
  8
0
 60
     1
100
AcDbPoint
 10
5891.475186104861
 20
7324.640453710046
 30
0.0
1001
GENIUS_GENODEF_13
1002
{
1000
HIER
1070
     1
1002
}
1002
{
1000
MANEDIT
1070
     0
1002
}
1002
{
1000
NOSEL
1070
     0
1002
}
1002
{
1000
BEHIND
1070
     0
1002
}
1002
{
1000
OTHER
1070
     0
1002
}
1002
{
1000
REACTOR
1002
}
1001
GENIUS_GENOBJ-N-CHA_13
1002
{
1000
OWNER
1000
GEN
1002
}
1001
GENIUS_GENOENT_13
1002
{
1000
MYREF
1005
82D4
1002
}
1002
{
1000
GRP
1005
0
1002
}
1001
GENIUS_GENOLIS_13
1002
{
1000
ENT
1005
8294
1002
}
  0
POINT
  5
82D5
330
825E
100
AcDbEntity
  8
0
 60
     1
100
AcDbPoint
 10
4598.172143869276
 20
7005.089522725445
 30
0.0
1001
GENIUS_GENOBJ-N-CHA_13
1002
{
1000
OWNER
1000
GEN
1002
}
1001
GENIUS_GENOENT_13
1002
{
1000
MYREF
1005
82D5
1002
}
1002
{
1000
GRP
1005
0
1002
}
1001
GENIUS_GENODEF_13
1002
{
1000
HIER
1070
     1
1002
}
1002
{
1000
MANEDIT
1070
     1
1002
}
1002
{
1000
NOSEL
1070
     0
1002
}
1002
{
1000
BEHIND
1070
     0
1002
}
1002
{
1000
OTHER
1070
     0
1002
}
1002
{
1000
REACTOR
1002
}
1001
GENIUS_GENOLIS_13
1002
{
1000
ENT
1005
82C2
1002
}
  0
POINT
  5
82D6
330
825E
100
AcDbEntity
  8
0
 60
     1
100
AcDbPoint
 10
4598.172143869276
 20
7005.089522725445
 30
0.0
1001
GENIUS_GENOBJ-N-CHA_13
1002
{
1000
OWNER
1000
GEN
1002
}
1001
GENIUS_GENOENT_13
1002
{
1000
MYREF
1005
82D6
1002
}
1002
{
1000
GRP
1005
0
1002
}
1001
GENIUS_GENODEF_13
1002
{
1000
HIER
1070
     1
1002
}
1002
{
1000
MANEDIT
1070
     1
1002
}
1002
{
1000
NOSEL
1070
     0
1002
}
1002
{
1000
BEHIND
1070
     0
1002
}
1002
{
1000
OTHER
1070
     0
1002
}
1002
{
1000
REACTOR
1002
}
1001
GENIUS_GENOLIS_13
1002
{
1000
ENT
1005
82BF
1002
}
  0
LINE
  5
A398
330
825E
100
AcDbEntity
  8
AM_0 外形線1
100
AcDbLine
 10
225.8277528644898
 20
-133.6999999999995
 30
0.0
 11
225.8277528644898
 21
0.0
 31
0.0
  0
LINE
  5
A399
330
825E
100
AcDbEntity
  8
AM_0 外形線1
100
AcDbLine
 10
45.17224713553071
 20
-133.6999999999995
 30
0.0
 11
45.17224713553071
 21
0.0
 31
0.0
  0
ENDBLK
  5
8260
330
825E
100
AcDbEntity
  8
0
100
AcDbBlockEnd
  0
BLOCK
  5
8779
330
8778
100
AcDbEntity
  8
0
100
AcDbBlockBegin
  2
*D29
 70
     1
 10
0.0
 20
0.0
 30
0.0
  3
*D29
  1

  0
LINE
  5
935C
330
8778
100
AcDbEntity
  8
AM_5 寸法線
 62
     3
100
AcDbLine
 10
878.4981849948861
 20
974.3567715772417
 30
0.0
 11
878.4981849948861
 21
898.3567715772405
 31
0.0
  0
LINE
  5
935D
330
8778
100
AcDbEntity
  8
AM_5 寸法線
 62
     3
100
AcDbLine
 10
899.4981849948857
 20
974.3567715772405
 30
0.0
 11
899.4981849948857
 21
898.3567715772405
 31
0.0
  0
LINE
  5
935E
330
8778
100
AcDbEntity
  8
AM_5 寸法線
 62
     3
100
AcDbLine
 10
865.9981849948861
 20
901.4817715772405
 30
0.0
 11
853.4981849948861
 21
901.4817715772405
 31
0.0
  0
LINE
  5
935F
330
8778
100
AcDbEntity
  8
AM_5 寸法線
 62
     3
100
AcDbLine
 10
911.9981849948855
 20
901.4817715772405
 30
0.0
 11
960.4981849948856
 21
901.4817715772405
 31
0.0
  0
LINE
  5
9360
330
8778
100
AcDbEntity
  8
AM_5 寸法線
 62
     3
100
AcDbLine
 10
878.4981849948861
 20
901.4817715772405
 30
0.0
 11
899.4981849948857
 21
901.4817715772405
 31
0.0
  0
INSERT
  5
9361
330
8778
100
AcDbEntity
  8
AM_5 寸法線
 62
     3
100
AcDbBlockReference
  2
GENDOT
 10
878.4981849948861
 20
901.4817715772405
 30
0.0
 41
12.5
 42
12.5
 43
12.5
  0
INSERT
  5
9362
330
8778
100
AcDbEntity
  8
AM_5 寸法線
 62
     3
100
AcDbBlockReference
  2
_Open30
 10
899.4981849948857
 20
901.4817715772405
 30
0.0
 41
12.5
 42
12.5
 43
12.5
 50
180.0
  0
MTEXT
  5
9363
330
8778
100
AcDbEntity
  8
AM_5 寸法線
 62
     3
100
AcDbMText
 10
942.4981849948856
 20
917.7317715772405
 30
0.0
 40
17.5
 41
0.0
 46
0.0
 71
     5
 72
     1
  1
21
  7
SEISA
 73
     1
 44
1.0
  0
POINT
  5
9364
330
8778
100
AcDbEntity
  8
Defpoints
 62
     0
100
AcDbPoint
 10
878.4981849948861
 20
977.4817715772417
 30
0.0
  0
POINT
  5
9365
330
8778
100
AcDbEntity
  8
Defpoints
 62
     0
100
AcDbPoint
 10
899.4981849948857
 20
977.4817715772405
 30
0.0
  0
POINT
  5
9366
330
8778
100
AcDbEntity
  8
Defpoints
 62
     0
100
AcDbPoint
 10
899.4981849948857
 20
901.4817715772405
 30
0.0
  0
ENDBLK
  5
877A
330
8778
100
AcDbEntity
  8
0
100
AcDbBlockEnd
  0
BLOCK
  5
87B6
330
87B5
100
AcDbEntity
  8
0
100
AcDbBlockBegin
  2
*D30
 70
     1
 10
0.0
 20
0.0
 30
0.0
  3
*D30
  1

  0
LINE
  5
9367
330
87B5
100
AcDbEntity
  8
AM_5 寸法線
 62
     3
100
AcDbLine
 10
1149.498184994885
 20
974.3567715772408
 30
0.0
 11
1149.498184994885
 21
898.3567715772403
 31
0.0
  0
LINE
  5
9368
330
87B5
100
AcDbEntity
  8
AM_5 寸法線
 62
     3
100
AcDbLine
 10
1128.498184994904
 20
974.3567715772405
 30
0.0
 11
1128.498184994904
 21
898.3567715772403
 31
0.0
  0
LINE
  5
9369
330
87B5
100
AcDbEntity
  8
AM_5 寸法線
 62
     3
100
AcDbLine
 10
1161.998184994885
 20
901.4817715772403
 30
0.0
 11
1174.498184994885
 21
901.4817715772403
 31
0.0
  0
LINE
  5
936A
330
87B5
100
AcDbEntity
  8
AM_5 寸法線
 62
     3
100
AcDbLine
 10
1115.998184994904
 20
901.4817715772403
 30
0.0
 11
1067.498184994904
 21
901.4817715772403
 31
0.0
  0
LINE
  5
936B
330
87B5
100
AcDbEntity
  8
AM_5 寸法線
 62
     3
100
AcDbLine
 10
1149.498184994885
 20
901.4817715772403
 30
0.0
 11
1128.498184994904
 21
901.4817715772403
 31
0.0
  0
INSERT
  5
936C
330
87B5
100
AcDbEntity
  8
AM_5 寸法線
 62
     3
100
AcDbBlockReference
  2
GENDOT
 10
1149.498184994885
 20
901.4817715772403
 30
0.0
 41
12.5
 42
12.5
 43
12.5
 50
180.0
  0
INSERT
  5
936D
330
87B5
100
AcDbEntity
  8
AM_5 寸法線
 62
     3
100
AcDbBlockReference
  2
_Open30
 10
1128.498184994904
 20
901.4817715772403
 30
0.0
 41
12.5
 42
12.5
 43
12.5
  0
MTEXT
  5
936E
330
87B5
100
AcDbEntity
  8
AM_5 寸法線
 62
     3
100
AcDbMText
 10
1085.498184994904
 20
917.7317715772399
 30
0.0
 40
17.5
 41
0.0
 46
0.0
 71
     5
 72
     1
  1
21
  7
SEISA
 73
     1
 44
1.0
  0
POINT
  5
936F
330
87B5
100
AcDbEntity
  8
Defpoints
 62
     0
100
AcDbPoint
 10
1149.498184994885
 20
977.4817715772408
 30
0.0
  0
POINT
  5
9370
330
87B5
100
AcDbEntity
  8
Defpoints
 62
     0
100
AcDbPoint
 10
1128.498184994904
 20
977.4817715772405
 30
0.0
  0
POINT
  5
9371
330
87B5
100
AcDbEntity
  8
Defpoints
 62
     0
100
AcDbPoint
 10
1128.498184994904
 20
901.4817715772403
 30
0.0
  0
ENDBLK
  5
87B7
330
87B5
100
AcDbEntity
  8
0
100
AcDbBlockEnd
  0
BLOCK
  5
9D08
330
9D07
100
AcDbEntity
  8
0
100
AcDbBlockBegin
  2
*D31
 70
     1
 10
0.0
 20
0.0
 30
0.0
  3
*D31
  1

  0
LINE
  5
9E5E
330
9D07
100
AcDbEntity
  8
AM_5 寸法線
 62
     3
100
AcDbLine
 10
878.4981849948851
 20
1293.356771577241
 30
0.0
 11
878.4981849948851
 21
1211.822232929135
 31
0.0
  0
LINE
  5
9E5F
330
9D07
100
AcDbEntity
  8
AM_5 寸法線
 62
     3
100
AcDbLine
 10
870.4981849948854
 20
1218.475468629093
 30
0.0
 11
870.4981849948854
 21
1211.822232929135
 31
0.0
  0
LINE
  5
9E60
330
9D07
100
AcDbEntity
  8
AM_5 寸法線
 62
     3
100
AcDbLine
 10
857.9981849948854
 20
1214.947232929135
 30
0.0
 11
845.4981849948854
 21
1214.947232929135
 31
0.0
  0
LINE
  5
9E61
330
9D07
100
AcDbEntity
  8
AM_5 寸法線
 62
     3
100
AcDbLine
 10
890.9981849948851
 20
1214.947232929135
 30
0.0
 11
943.3872750861477
 21
1214.947232929135
 31
0.0
  0
LINE
  5
9E62
330
9D07
100
AcDbEntity
  8
AM_5 寸法線
 62
     3
100
AcDbLine
 10
870.4981849948854
 20
1214.947232929135
 30
0.0
 11
878.4981849948851
 21
1214.947232929135
 31
0.0
  0
INSERT
  5
9E63
330
9D07
100
AcDbEntity
  8
AM_5 寸法線
 62
     3
100
AcDbBlockReference
  2
_Open30
 10
870.4981849948854
 20
1214.947232929135
 30
0.0
 41
12.5
 42
12.5
 43
12.5
  0
INSERT
  5
9E64
330
9D07
100
AcDbEntity
  8
AM_5 寸法線
 62
     3
100
AcDbBlockReference
  2
_Open30
 10
878.4981849948851
 20
1214.947232929135
 30
0.0
 41
12.5
 42
12.5
 43
12.5
 50
180.0
  0
MTEXT
  5
9E65
330
9D07
100
AcDbEntity
  8
AM_5 寸法線
 62
     3
100
AcDbMText
 10
930.6372750861475
 20
1231.197232929135
 30
0.0
 40
17.5
 41
0.0
 46
0.0
 71
     5
 72
     1
  1
8
  7
SEISA
 73
     1
 44
1.0
  0
POINT
  5
9E66
330
9D07
100
AcDbEntity
  8
Defpoints
 62
     0
100
AcDbPoint
 10
878.4981849948851
 20
1296.481771577241
 30
0.0
  0
POINT
  5
9E67
330
9D07
100
AcDbEntity
  8
Defpoints
 62
     0
100
AcDbPoint
 10
870.4981849948854
 20
1221.600468629093
 30
0.0
  0
POINT
  5
9E68
330
9D07
100
AcDbEntity
  8
Defpoints
 62
     0
100
AcDbPoint
 10
870.4981849948854
 20
1214.947232929135
 30
0.0
  0
ENDBLK
  5
9D09
330
9D07
100
AcDbEntity
  8
0
100
AcDbBlockEnd
  0
BLOCK
  5
9F8E
330
9F8D
100
AcDbEntity
  8
0
100
AcDbBlockBegin
  2
*D32
 70
     1
 10
0.0
 20
0.0
 30
0.0
  3
*D32
  1

  0
LINE
  5
9FB3
330
9F8D
100
AcDbEntity
  8
AM_5 寸法線
 62
     3
100
AcDbLine
 10
679.4981849948854
 20
1282.10677157724
 30
0.0
 11
679.4981849948854
 21
1314.054177449536
 31
0.0
  0
LINE
  5
9FB4
330
9F8D
100
AcDbEntity
  8
AM_5 寸法線
 62
     3
100
AcDbLine
 10
680.4981849948854
 20
1277.30677157724
 30
0.0
 11
680.4981849948854
 21
1314.054177449536
 31
0.0
  0
LINE
  5
9FB5
330
9F8D
100
AcDbEntity
  8
AM_5 寸法線
 62
     3
100
AcDbLine
 10
666.9981849948854
 20
1310.929177449536
 30
0.0
 11
654.4981849948854
 21
1310.929177449536
 31
0.0
  0
LINE
  5
9FB6
330
9F8D
100
AcDbEntity
  8
AM_5 寸法線
 62
     3
100
AcDbLine
 10
692.9981849948854
 20
1310.929177449536
 30
0.0
 11
724.2481849948854
 21
1310.929177449536
 31
0.0
  0
LINE
  5
9FB7
330
9F8D
100
AcDbEntity
  8
AM_5 寸法線
 62
     3
100
AcDbLine
 10
679.4981849948854
 20
1310.929177449536
 30
0.0
 11
680.4981849948854
 21
1310.929177449536
 31
0.0
  0
INSERT
  5
9FB8
330
9F8D
100
AcDbEntity
  8
AM_5 寸法線
 62
     3
100
AcDbBlockReference
  2
_Open30
 10
679.4981849948854
 20
1310.929177449536
 30
0.0
 41
12.5
 42
12.5
 43
12.5
  0
INSERT
  5
9FB9
330
9F8D
100
AcDbEntity
  8
AM_5 寸法線
 62
     3
100
AcDbBlockReference
  2
_Open30
 10
680.4981849948854
 20
1310.929177449536
 30
0.0
 41
12.5
 42
12.5
 43
12.5
 50
180.0
  0
MTEXT
  5
9FBA
330
9F8D
100
AcDbEntity
  8
AM_5 寸法線
 62
     3
100
AcDbMText
 10
714.8731849948854
 20
1327.179177449536
 30
0.0
 40
17.5
 41
0.0
 46
0.0
 71
     5
 72
     1
  1
1
  7
SEISA
 73
     1
 44
1.0
  0
POINT
  5
9FBB
330
9F8D
100
AcDbEntity
  8
Defpoints
 62
     0
100
AcDbPoint
 10
679.4981849948854
 20
1278.98177157724
 30
0.0
  0
POINT
  5
9FBC
330
9F8D
100
AcDbEntity
  8
Defpoints
 62
     0
100
AcDbPoint
 10
680.4981849948854
 20
1274.18177157724
 30
0.0
  0
POINT
  5
9FBD
330
9F8D
100
AcDbEntity
  8
Defpoints
 62
     0
100
AcDbPoint
 10
680.4981849948854
 20
1310.929177449536
 30
0.0
  0
ENDBLK
  5
9F8F
330
9F8D
100
AcDbEntity
  8
0
100
AcDbBlockEnd
  0
BLOCK
  5
A061
330
A060
100
AcDbEntity
  8
0
100
AcDbBlockBegin
  2
*D33
 70
     1
 10
0.0
 20
0.0
 30
0.0
  3
*D33
  1

  0
LINE
  5
A080
330
A060
100
AcDbEntity
  8
AM_5 寸法線
 62
     3
100
AcDbLine
 10
792.9981849948854
 20
1276.356771577241
 30
0.0
 11
792.9981849948854
 21
1244.510024484984
 31
0.0
  0
LINE
  5
A081
330
A060
100
AcDbEntity
  8
AM_5 寸法線
 62
     3
100
AcDbLine
 10
835.9981849948852
 20
1273.35677157724
 30
0.0
 11
835.9981849948852
 21
1244.510024484984
 31
0.0
  0
LINE
  5
A082
330
A060
100
AcDbEntity
  8
AM_5 寸法線
 62
     3
100
AcDbLine
 10
805.4981849948854
 20
1247.635024484984
 30
0.0
 11
823.4981849948852
 21
1247.635024484984
 31
0.0
  0
INSERT
  5
A083
330
A060
100
AcDbEntity
  8
AM_5 寸法線
 62
     3
100
AcDbBlockReference
  2
_Open30
 10
792.9981849948854
 20
1247.635024484984
 30
0.0
 41
12.5
 42
12.5
 43
12.5
 50
180.0
  0
INSERT
  5
A084
330
A060
100
AcDbEntity
  8
AM_5 寸法線
 62
     3
100
AcDbBlockReference
  2
_Open30
 10
835.9981849948852
 20
1247.635024484984
 30
0.0
 41
12.5
 42
12.5
 43
12.5
  0
MTEXT
  5
A085
330
A060
100
AcDbEntity
  8
AM_5 寸法線
 62
     3
100
AcDbMText
 10
814.4981849948852
 20
1263.885024484984
 30
0.0
 40
17.5
 41
0.0
 46
0.0
 71
     5
 72
     1
  1
43
  7
SEISA
 73
     1
 44
1.0
  0
POINT
  5
A086
330
A060
100
AcDbEntity
  8
Defpoints
 62
     0
100
AcDbPoint
 10
792.9981849948854
 20
1279.481771577241
 30
0.0
  0
POINT
  5
A087
330
A060
100
AcDbEntity
  8
Defpoints
 62
     0
100
AcDbPoint
 10
835.9981849948852
 20
1276.48177157724
 30
0.0
  0
POINT
  5
A088
330
A060
100
AcDbEntity
  8
Defpoints
 62
     0
100
AcDbPoint
 10
835.9981849948852
 20
1247.635024484984
 30
0.0
  0
ENDBLK
  5
A062
330
A060
100
AcDbEntity
  8
0
100
AcDbBlockEnd
  0
BLOCK
  5
A08B
330
A08A
100
AcDbEntity
  8
0
100
AcDbBlockBegin
  2
*D34
 70
     1
 10
0.0
 20
0.0
 30
0.0
  3
*D34
  1

  0
LINE
  5
A0D1
330
A08A
100
AcDbEntity
  8
AM_5 寸法線
 62
     3
100
AcDbLine
 10
835.9981849948852
 20
1273.35677157724
 30
0.0
 11
835.9981849948852
 21
1244.510024484984
 31
0.0
  0
LINE
  5
A0D2
330
A08A
100
AcDbEntity
  8
AM_5 寸法線
 62
     3
100
AcDbLine
 10
870.4981849948854
 20
1271.856771577241
 30
0.0
 11
870.4981849948854
 21
1244.510024484984
 31
0.0
  0
LINE
  5
A0D3
330
A08A
100
AcDbEntity
  8
AM_5 寸法線
 62
     3
100
AcDbLine
 10
823.4981849948852
 20
1247.635024484984
 30
0.0
 11
810.9981849948852
 21
1247.635024484984
 31
0.0
  0
LINE
  5
A0D4
330
A08A
100
AcDbEntity
  8
AM_5 寸法線
 62
     3
100
AcDbLine
 10
882.9981849948854
 20
1247.635024484984
 30
0.0
 11
895.4981849948854
 21
1247.635024484984
 31
0.0
  0
LINE
  5
A0D5
330
A08A
100
AcDbEntity
  8
AM_5 寸法線
 62
     3
100
AcDbLine
 10
853.2481849948853
 20
1247.635024484984
 30
0.0
 11
836.9141058523709
 21
1200.003684851391
 31
0.0
  0
LINE
  5
A0D6
330
A08A
100
AcDbEntity
  8
AM_5 寸法線
 62
     3
100
AcDbLine
 10
836.9141058523709
 20
1200.003684851391
 30
0.0
 11
773.9141058523711
 21
1200.003684851391
 31
0.0
  0
MTEXT
  5
A0D7
330
A08A
100
AcDbEntity
  8
AM_5 寸法線
 62
     3
100
AcDbMText
 10
805.4141058523708
 20
1216.253684851391
 30
0.0
 40
17.5
 41
0.0
 46
0.0
 71
     5
 72
     1
  1
34.5
  7
SEISA
 73
     1
 44
1.0
  0
LINE
  5
A0D8
330
A08A
100
AcDbEntity
  8
AM_5 寸法線
 62
     3
100
AcDbLine
 10
835.9981849948852
 20
1247.635024484984
 30
0.0
 11
870.4981849948854
 21
1247.635024484984
 31
0.0
  0
LINE
  5
A0D9
330
A08A
100
AcDbEntity
  8
AM_5 寸法線
 62
     3
100
AcDbLine
 10
835.9981849948852
 20
1247.635024484984
 30
0.0
 11
870.4981849948854
 21
1247.635024484984
 31
0.0
  0
INSERT
  5
A0DA
330
A08A
100
AcDbEntity
  8
AM_5 寸法線
 62
     3
100
AcDbBlockReference
  2
_Open30
 10
835.9981849948852
 20
1247.635024484984
 30
0.0
 41
12.5
 42
12.5
 43
12.5
  0
INSERT
  5
A0DB
330
A08A
100
AcDbEntity
  8
AM_5 寸法線
 62
     3
100
AcDbBlockReference
  2
_Open30
 10
870.4981849948854
 20
1247.635024484984
 30
0.0
 41
12.5
 42
12.5
 43
12.5
 50
180.0
  0
POINT
  5
A0DC
330
A08A
100
AcDbEntity
  8
Defpoints
 62
     0
100
AcDbPoint
 10
835.9981849948852
 20
1276.48177157724
 30
0.0
  0
POINT
  5
A0DD
330
A08A
100
AcDbEntity
  8
Defpoints
 62
     0
100
AcDbPoint
 10
870.4981849948854
 20
1274.98177157724
 30
0.0
  0
POINT
  5
A0DE
330
A08A
100
AcDbEntity
  8
Defpoints
 62
     0
100
AcDbPoint
 10
870.4981849948854
 20
1247.635024484984
 30
0.0
  0
ENDBLK
  5
A08C
330
A08A
100
AcDbEntity
  8
0
100
AcDbBlockEnd
  0
BLOCK
  5
A129
330
A128
100
AcDbEntity
  8
0
100
AcDbBlockBegin
  2
*D35
 70
     1
 10
0.0
 20
0.0
 30
0.0
  3
*D35
  1

  0
LINE
  5
A17A
330
A128
100
AcDbEntity
  8
AM_5 寸法線
 62
     3
100
AcDbLine
 10
1149.498184994905
 20
1293.356771577241
 30
0.0
 11
1149.498184994905
 21
1211.822232929135
 31
0.0
  0
LINE
  5
A17B
330
A128
100
AcDbEntity
  8
AM_5 寸法線
 62
     3
100
AcDbLine
 10
1157.498184994885
 20
1271.856771577241
 30
0.0
 11
1157.498184994885
 21
1211.822232929135
 31
0.0
  0
LINE
  5
A17C
330
A128
100
AcDbEntity
  8
AM_5 寸法線
 62
     3
100
AcDbLine
 10
1136.998184994905
 20
1214.947232929135
 30
0.0
 11
1124.498184994905
 21
1214.947232929135
 31
0.0
  0
LINE
  5
A17D
330
A128
100
AcDbEntity
  8
AM_5 寸法線
 62
     3
100
AcDbLine
 10
1169.998184994885
 20
1214.947232929135
 30
0.0
 11
1182.498184994885
 21
1214.947232929135
 31
0.0
  0
MTEXT
  5
A17E
330
A128
100
AcDbEntity
  8
AM_5 寸法線
 62
     3
100
AcDbMText
 10
1131.316426159043
 20
1228.437407945435
 30
0.0
 40
17.5
 41
0.0
 46
0.0
 71
     5
 72
     1
  1
8
  7
SEISA
 73
     1
 44
1.0
  0
LINE
  5
A17F
330
A128
100
AcDbEntity
  8
AM_5 寸法線
 62
     3
100
AcDbLine
 10
1149.498184994905
 20
1214.947232929135
 30
0.0
 11
1157.498184994885
 21
1214.947232929135
 31
0.0
  0
INSERT
  5
A180
330
A128
100
AcDbEntity
  8
AM_5 寸法線
 62
     3
100
AcDbBlockReference
  2
_Open30
 10
1149.498184994905
 20
1214.947232929135
 30
0.0
 41
12.5
 42
12.5
 43
12.5
  0
INSERT
  5
A181
330
A128
100
AcDbEntity
  8
AM_5 寸法線
 62
     3
100
AcDbBlockReference
  2
_Open30
 10
1157.498184994885
 20
1214.947232929135
 30
0.0
 41
12.5
 42
12.5
 43
12.5
 50
180.0
  0
POINT
  5
A182
330
A128
100
AcDbEntity
  8
Defpoints
 62
     0
100
AcDbPoint
 10
1149.498184994905
 20
1296.481771577241
 30
0.0
  0
POINT
  5
A183
330
A128
100
AcDbEntity
  8
Defpoints
 62
     0
100
AcDbPoint
 10
1157.498184994885
 20
1274.98177157724
 30
0.0
  0
POINT
  5
A184
330
A128
100
AcDbEntity
  8
Defpoints
 62
     0
100
AcDbPoint
 10
1157.498184994885
 20
1214.947232929135
 30
0.0
  0
ENDBLK
  5
A12A
330
A128
100
AcDbEntity
  8
0
100
AcDbBlockEnd
  0
BLOCK
  5
A22B
330
A22A
100
AcDbEntity
  8
0
100
AcDbBlockBegin
  2
ケース
 70
     0
 10
0.0
 20
0.0
 30
0.0
  3
ケース
  1

  0
LINE
  5
A22D
330
A22A
100
AcDbEntity
  8
AM_11 想像線
 48
0.1
100
AcDbLine
 10
-15.34757759201432
 20
-15.19999999999981
 30
0.0
 11
0.0
 21
-15.19999999999981
 31
0.0
  0
LINE
  5
A22E
330
A22A
100
AcDbEntity
  8
AM_11 想像線
 48
0.1
100
AcDbLine
 10
0.0
 20
-12.0
 30
0.0
 11
-18.34757759201432
 21
-12.0
 31
0.0
  0
LINE
  5
A22F
330
A22A
100
AcDbEntity
  8
AM_11 想像線
 48
0.1
100
AcDbLine
 10
0.0
 20
0.0
 30
0.0
 11
-35.84757759201433
 21
0.0
 31
0.0
  0
LINE
  5
A230
330
A22A
100
AcDbEntity
  8
AM_11 想像線
 48
0.1
100
AcDbLine
 10
0.0
 20
-8.0
 30
0.0
 11
-16.34757759201432
 21
-8.0
 31
0.0
  0
LINE
  5
A231
330
A22A
100
AcDbEntity
  8
AM_11 想像線
 48
0.1
100
AcDbLine
 10
-25.74757759201395
 20
-17.5
 30
0.0
 11
-22.84757759201432
 21
-17.5
 31
0.0
  0
ARC
  5
A232
330
A22A
100
AcDbEntity
  8
AM_11 想像線
 48
0.1
100
AcDbCircle
 10
-26.24757759201396
 20
-12.59999999999991
 30
0.0
 40
0.5
100
AcDbArc
 50
0.0
 51
90.0
  0
LINE
  5
A233
330
A22A
100
AcDbEntity
  8
AM_11 想像線
 48
0.1
100
AcDbLine
 10
-39.84757759201432
 20
-4.0
 30
0.0
 11
-39.84757759201432
 21
-17.5
 31
0.0
  0
LINE
  5
A234
330
A22A
100
AcDbEntity
  8
AM_11 想像線
 48
0.1
100
AcDbLine
 10
-25.74757759201395
 20
-12.59999999999991
 30
0.0
 11
-25.74757759201395
 21
-17.5
 31
0.0
  0
LINE
  5
A235
330
A22A
100
AcDbEntity
  8
AM_11 想像線
 48
0.1
100
AcDbLine
 10
-25.74757759201395
 20
-17.5
 30
0.0
 11
-25.74757759201395
 21
-19.0
 31
0.0
  0
LINE
  5
A236
330
A22A
100
AcDbEntity
  8
AM_11 想像線
 48
0.1
100
AcDbLine
 10
-36.94757759201423
 20
-17.5
 30
0.0
 11
-36.94757759201423
 21
-12.59999999999991
 31
0.0
  0
LINE
  5
A237
330
A22A
100
AcDbEntity
  8
AM_11 想像線
 48
0.1
100
AcDbLine
 10
-39.84757759201432
 20
-17.5
 30
0.0
 11
-36.94757759201423
 21
-17.5
 31
0.0
  0
LINE
  5
A238
330
A22A
100
AcDbEntity
  8
AM_11 想像線
 48
0.1
100
AcDbLine
 10
-36.94757759201423
 20
-17.5
 30
0.0
 11
-36.94757759201423
 21
-19.0
 31
0.0
  0
LINE
  5
A239
102
{ACAD_REACTORS
330
9F9C
102
}
330
A22A
100
AcDbEntity
  8
AM_11 想像線
 48
0.1
100
AcDbLine
 10
-39.84757759201432
 20
-17.5
 30
0.0
 11
-39.84757759201432
 21
-19.0
 31
0.0
  0
ARC
  5
A23A
330
A22A
100
AcDbEntity
  8
AM_11 想像線
 48
0.1
100
AcDbCircle
 10
-36.44757759201423
 20
-12.59999999999991
 30
0.0
 40
0.5
100
AcDbArc
 50
90.0
 51
180.0
  0
LINE
  5
A23B
330
A22A
100
AcDbEntity
  8
AM_11 想像線
 48
0.1
100
AcDbLine
 10
-36.44757759201423
 20
-12.09999999999991
 30
0.0
 11
-26.24757759201396
 21
-12.09999999999991
 31
0.0
  0
ARC
  5
A23C
330
A22A
100
AcDbEntity
  8
AM_11 想像線
 48
0.1
100
AcDbCircle
 10
-35.84757759201433
 20
-4.0
 30
0.0
 40
4.0
100
AcDbArc
 50
90.0
 51
180.0
  0
LINE
  5
A23D
330
A22A
100
AcDbEntity
  8
AM_11 想像線
 48
0.1
100
AcDbLine
 10
-16.34757759201432
 20
-10.05664499999989
 30
0.0
 11
-16.34757759201432
 21
-8.0
 31
0.0
  0
ARC
  5
A23E
330
A22A
100
AcDbEntity
  8
AM_11 想像線
 48
0.1
100
AcDbCircle
 10
-17.34757759201432
 20
-8.0
 30
0.0
 40
1.0
100
AcDbArc
 50
0.0
 51
90.0
  0
LINE
  5
A23F
330
A22A
100
AcDbEntity
  8
AM_11 想像線
 48
0.1
100
AcDbLine
 10
-21.84757759201432
 20
-7.0
 30
0.0
 11
-17.34757759201432
 21
-7.0
 31
0.0
  0
ARC
  5
A240
330
A22A
100
AcDbEntity
  8
AM_11 想像線
 48
0.1
100
AcDbCircle
 10
-21.84757759201432
 20
-8.0
 30
0.0
 40
1.0
100
AcDbArc
 50
90.0
 51
180.0
  0
LINE
  5
A241
330
A22A
100
AcDbEntity
  8
AM_11 想像線
 48
0.1
100
AcDbLine
 10
-16.34757759201432
 20
-14.19999999999982
 30
0.0
 11
-15.34757759201432
 21
-15.19999999999981
 31
0.0
  0
LINE
  5
A242
330
A22A
100
AcDbEntity
  8
AM_11 想像線
 48
0.1
100
AcDbLine
 10
-22.84757759201432
 20
-17.5
 30
0.0
 11
-22.84757759201432
 21
-19.0
 31
0.0
  0
LINE
  5
A243
330
A22A
100
AcDbEntity
  8
AM_11 想像線
 48
0.1
100
AcDbLine
 10
-16.34757759201432
 20
-10.05664499999989
 30
0.0
 11
-16.34757759201432
 21
-14.19999999999982
 31
0.0
  0
LINE
  5
A244
330
A22A
100
AcDbEntity
  8
AM_11 想像線
 48
0.1
100
AcDbLine
 10
-22.84757759201432
 20
-17.5
 30
0.0
 11
-22.84757759201432
 21
-8.0
 31
0.0
  0
ENDBLK
  5
A22C
330
A22A
100
AcDbEntity
  8
0
100
AcDbBlockEnd
  0
BLOCK
  5
A3A0
330
A39C
100
AcDbEntity
  8
0
100
AcDbBlockBegin
  2
*S3837
 70
     1
 10
0.0
 20
0.0
 30
0.0
  3
*S3837
  1

  0
CIRCLE
  5
A39D
330
A39C
100
AcDbEntity
  8
AM_12 印刷不可能線
 62
     4
100
AcDbCircle
 10
1234.22661767936
 20
1297.97853639092
 30
0.0
 40
8.75
  0
LINE
  5
A39E
330
A39C
100
AcDbEntity
  8
AM_12 印刷不可能線
 62
     4
100
AcDbLine
 10
1225.47661767936
 20
1289.22853639092
 30
0.0
 11
1242.97661767936
 21
1306.72853639092
 31
0.0
  0
LINE
  5
A39F
330
A39C
100
AcDbEntity
  8
AM_12 印刷不可能線
 62
     4
100
AcDbLine
 10
1225.47661767936
 20
1306.72853639092
 30
0.0
 11
1242.97661767936
 21
1289.22853639092
 31
0.0
  0
ENDBLK
  5
A3A1
330
A39C
100
AcDbEntity
  8
0
100
AcDbBlockEnd
  0
BLOCK
  5
A3A7
330
A3A3
100
AcDbEntity
  8
0
100
AcDbBlockBegin
  2
*S3938
 70
     1
 10
0.0
 20
0.0
 30
0.0
  3
*S3938
  1

  0
CIRCLE
  5
A3A4
330
A3A3
100
AcDbEntity
  8
AM_12 印刷不可能線
 62
     4
100
AcDbCircle
 10
791.4645526093428
 20
1297.975940548044
 30
0.0
 40
8.75
  0
LINE
  5
A3A5
330
A3A3
100
AcDbEntity
  8
AM_12 印刷不可能線
 62
     4
100
AcDbLine
 10
782.7145526093428
 20
1289.225940548044
 30
0.0
 11
800.2145526093428
 21
1306.725940548044
 31
0.0
  0
LINE
  5
A3A6
330
A3A3
100
AcDbEntity
  8
AM_12 印刷不可能線
 62
     4
100
AcDbLine
 10
782.7145526093428
 20
1306.725940548044
 30
0.0
 11
800.2145526093428
 21
1289.225940548044
 31
0.0
  0
ENDBLK
  5
A3A8
330
A3A3
100
AcDbEntity
  8
0
100
AcDbBlockEnd
  0
BLOCK
  5
A3AE
330
A3AA
100
AcDbEntity
  8
0
100
AcDbBlockBegin
  2
*S4039
 70
     1
 10
0.0
 20
0.0
 30
0.0
  3
*S4039
  1

  0
CIRCLE
  5
A3AB
330
A3AA
100
AcDbEntity
  8
AM_12 印刷不可能線
 62
     4
100
AcDbCircle
 10
1326.334700305108
 20
1278.17707995629
 30
0.0
 40
8.75
  0
LINE
  5
A3AC
330
A3AA
100
AcDbEntity
  8
AM_12 印刷不可能線
 62
     4
100
AcDbLine
 10
1317.584700305107
 20
1269.42707995629
 30
0.0
 11
1335.084700305107
 21
1286.92707995629
 31
0.0
  0
LINE
  5
A3AD
330
A3AA
100
AcDbEntity
  8
AM_12 印刷不可能線
 62
     4
100
AcDbLine
 10
1317.584700305107
 20
1286.92707995629
 30
0.0
 11
1335.084700305107
 21
1269.42707995629
 31
0.0
  0
ENDBLK
  5
A3AF
330
A3AA
100
AcDbEntity
  8
0
100
AcDbBlockEnd
  0
BLOCK
  5
A3B5
330
A3B1
100
AcDbEntity
  8
0
100
AcDbBlockBegin
  2
*S4140
 70
     1
 10
0.0
 20
0.0
 30
0.0
  3
*S4140
  1

  0
CIRCLE
  5
A3B2
330
A3B1
100
AcDbEntity
  8
AM_12 印刷不可能線
 62
     4
100
AcDbCircle
 10
703.77349840275
 20
1278.181505301732
 30
0.0
 40
8.75
  0
LINE
  5
A3B3
330
A3B1
100
AcDbEntity
  8
AM_12 印刷不可能線
 62
     4
100
AcDbLine
 10
695.0234984027502
 20
1269.431505301733
 30
0.0
 11
712.5234984027501
 21
1286.931505301732
 31
0.0
  0
LINE
  5
A3B4
330
A3B1
100
AcDbEntity
  8
AM_12 印刷不可能線
 62
     4
100
AcDbLine
 10
695.0234984027502
 20
1286.931505301732
 30
0.0
 11
712.5234984027501
 21
1269.431505301733
 31
0.0
  0
ENDBLK
  5
A3B6
330
A3B1
100
AcDbEntity
  8
0
100
AcDbBlockEnd
  0
BLOCK
  5
A3BC
330
A3B8
100
AcDbEntity
  8
0
100
AcDbBlockBegin
  2
*S4241
 70
     1
 10
0.0
 20
0.0
 30
0.0
  3
*S4241
  1

  0
CIRCLE
  5
A3B9
330
A3B8
100
AcDbEntity
  8
AM_12 印刷不可能線
 62
     4
100
AcDbCircle
 10
1158.807005653572
 20
1325.399196422522
 30
0.0
 40
8.75
  0
LINE
  5
A3BA
330
A3B8
100
AcDbEntity
  8
AM_12 印刷不可能線
 62
     4
100
AcDbLine
 10
1150.057005653572
 20
1316.649196422522
 30
0.0
 11
1167.557005653572
 21
1334.149196422522
 31
0.0
  0
LINE
  5
A3BB
330
A3B8
100
AcDbEntity
  8
AM_12 印刷不可能線
 62
     4
100
AcDbLine
 10
1150.057005653572
 20
1334.149196422522
 30
0.0
 11
1167.557005653572
 21
1316.649196422522
 31
0.0
  0
ENDBLK
  5
A3BD
330
A3B8
100
AcDbEntity
  8
0
100
AcDbBlockEnd
  0
BLOCK
  5
A3C3
330
A3BF
100
AcDbEntity
  8
0
100
AcDbBlockBegin
  2
*S4342
 70
     1
 10
0.0
 20
0.0
 30
0.0
  3
*S4342
  1

  0
CIRCLE
  5
A3C0
330
A3BF
100
AcDbEntity
  8
AM_12 印刷不可能線
 62
     4
100
AcDbCircle
 10
1183.131008258569
 20
1330.363581320766
 30
0.0
 40
8.75
  0
LINE
  5
A3C1
330
A3BF
100
AcDbEntity
  8
AM_12 印刷不可能線
 62
     4
100
AcDbLine
 10
1174.381008258569
 20
1321.613581320766
 30
0.0
 11
1191.88100825857
 21
1339.113581320765
 31
0.0
  0
LINE
  5
A3C2
330
A3BF
100
AcDbEntity
  8
AM_12 印刷不可能線
 62
     4
100
AcDbLine
 10
1174.381008258569
 20
1339.113581320765
 30
0.0
 11
1191.88100825857
 21
1321.613581320766
 31
0.0
  0
ENDBLK
  5
A3C4
330
A3BF
100
AcDbEntity
  8
0
100
AcDbBlockEnd
  0
BLOCK
  5
A3CA
330
A3C6
100
AcDbEntity
  8
0
100
AcDbBlockBegin
  2
*S4443
 70
     1
 10
0.0
 20
0.0
 30
0.0
  3
*S4443
  1

  0
CIRCLE
  5
A3C7
330
A3C6
100
AcDbEntity
  8
AM_12 印刷不可能線
 62
     4
100
AcDbCircle
 10
1171.942740517652
 20
1330.431877353178
 30
0.0
 40
8.75
  0
LINE
  5
A3C8
330
A3C6
100
AcDbEntity
  8
AM_12 印刷不可能線
 62
     4
100
AcDbLine
 10
1163.192740517652
 20
1321.681877353177
 30
0.0
 11
1180.692740517652
 21
1339.181877353178
 31
0.0
  0
LINE
  5
A3C9
330
A3C6
100
AcDbEntity
  8
AM_12 印刷不可能線
 62
     4
100
AcDbLine
 10
1163.192740517652
 20
1339.181877353178
 30
0.0
 11
1180.692740517652
 21
1321.681877353177
 31
0.0
  0
ENDBLK
  5
A3CB
330
A3C6
100
AcDbEntity
  8
0
100
AcDbBlockEnd
  0
BLOCK
  5
A3D1
330
A3CD
100
AcDbEntity
  8
0
100
AcDbBlockBegin
  2
*S4544
 70
     1
 10
0.0
 20
0.0
 30
0.0
  3
*S4544
  1

  0
CIRCLE
  5
A3CE
330
A3CD
100
AcDbEntity
  8
AM_12 印刷不可能線
 62
     4
100
AcDbCircle
 10
1253.104500973266
 20
1284.757860054833
 30
0.0
 40
8.75
  0
LINE
  5
A3CF
330
A3CD
100
AcDbEntity
  8
AM_12 印刷不可能線
 62
     4
100
AcDbLine
 10
1244.354500973266
 20
1276.007860054833
 30
0.0
 11
1261.854500973266
 21
1293.507860054833
 31
0.0
  0
LINE
  5
A3D0
330
A3CD
100
AcDbEntity
  8
AM_12 印刷不可能線
 62
     4
100
AcDbLine
 10
1244.354500973266
 20
1293.507860054833
 30
0.0
 11
1261.854500973266
 21
1276.007860054833
 31
0.0
  0
ENDBLK
  5
A3D2
330
A3CD
100
AcDbEntity
  8
0
100
AcDbBlockEnd
  0
BLOCK
  5
A3D8
330
A3D4
100
AcDbEntity
  8
0
100
AcDbBlockBegin
  2
*S4645
 70
     1
 10
0.0
 20
0.0
 30
0.0
  3
*S4645
  1

  0
CIRCLE
  5
A3D5
330
A3D4
100
AcDbEntity
  8
AM_12 印刷不可能線
 62
     4
100
AcDbCircle
 10
1150.380882850391
 20
1300.237173340505
 30
0.0
 40
8.75
  0
LINE
  5
A3D6
330
A3D4
100
AcDbEntity
  8
AM_12 印刷不可能線
 62
     4
100
AcDbLine
 10
1141.630882850391
 20
1291.487173340505
 30
0.0
 11
1159.130882850391
 21
1308.987173340505
 31
0.0
  0
LINE
  5
A3D7
330
A3D4
100
AcDbEntity
  8
AM_12 印刷不可能線
 62
     4
100
AcDbLine
 10
1141.630882850391
 20
1308.987173340505
 30
0.0
 11
1159.130882850391
 21
1291.487173340505
 31
0.0
  0
ENDBLK
  5
A3D9
330
A3D4
100
AcDbEntity
  8
0
100
AcDbBlockEnd
  0
BLOCK
  5
A3DF
330
A3DB
100
AcDbEntity
  8
0
100
AcDbBlockBegin
  2
*S4746
 70
     1
 10
0.0
 20
0.0
 30
0.0
  3
*S4746
  1

  0
CIRCLE
  5
A3DC
330
A3DB
100
AcDbEntity
  8
AM_12 印刷不可能線
 62
     4
100
AcDbCircle
 10
862.7280319102192
 20
1107.038798787736
 30
0.0
 40
8.75
  0
LINE
  5
A3DD
330
A3DB
100
AcDbEntity
  8
AM_12 印刷不可能線
 62
     4
100
AcDbLine
 10
853.9780319102192
 20
1098.288798787736
 30
0.0
 11
871.4780319102192
 21
1115.788798787736
 31
0.0
  0
LINE
  5
A3DE
330
A3DB
100
AcDbEntity
  8
AM_12 印刷不可能線
 62
     4
100
AcDbLine
 10
853.9780319102192
 20
1115.788798787736
 30
0.0
 11
871.4780319102192
 21
1098.288798787736
 31
0.0
  0
ENDBLK
  5
A3E0
330
A3DB
100
AcDbEntity
  8
0
100
AcDbBlockEnd
  0
BLOCK
  5
A3E6
330
A3E2
100
AcDbEntity
  8
0
100
AcDbBlockBegin
  2
*S4847
 70
     1
 10
0.0
 20
0.0
 30
0.0
  3
*S4847
  1

  0
CIRCLE
  5
A3E3
330
A3E2
100
AcDbEntity
  8
AM_12 印刷不可能線
 62
     4
100
AcDbCircle
 10
1051.594731156416
 20
1287.283211649746
 30
0.0
 40
8.75
  0
LINE
  5
A3E4
330
A3E2
100
AcDbEntity
  8
AM_12 印刷不可能線
 62
     4
100
AcDbLine
 10
1042.844731156416
 20
1278.533211649746
 30
0.0
 11
1060.344731156416
 21
1296.033211649745
 31
0.0
  0
LINE
  5
A3E5
330
A3E2
100
AcDbEntity
  8
AM_12 印刷不可能線
 62
     4
100
AcDbLine
 10
1042.844731156416
 20
1296.033211649745
 30
0.0
 11
1060.344731156416
 21
1278.533211649746
 31
0.0
  0
ENDBLK
  5
A3E7
330
A3E2
100
AcDbEntity
  8
0
100
AcDbBlockEnd
  0
ENDSEC
  0
SECTION
  2
ENTITIES
  0
LINE
  5
3C15
330
1F
100
AcDbEntity
  8
AM_7 中心線
100
AcDbLine
 10
671.5971099948855
 20
1153.98177157724
 30
0.0
 11
1352.498184994885
 21
1153.98177157724
 31
0.0
  0
LINE
  5
3CA7
330
1F
100
AcDbEntity
  8
AM_0 外形線1
100
AcDbLine
 10
905.4981849948854
 20
1303.98177157724
 30
0.0
 11
905.4981849948854
 21
1303.48177157724
 31
0.0
  0
LINE
  5
3D31
330
1F
100
AcDbEntity
  8
AM_0 外形線1
100
AcDbLine
 10
1122.498184994885
 20
1303.98177157724
 30
0.0
 11
1122.498184994885
 21
1303.48177157724
 31
0.0
  0
LINE
  5
3D8E
330
1F
100
AcDbEntity
  8
AM_0 外形線1
100
AcDbLine
 10
1174.498184994885
 20
1330.331771577241
 30
0.0
 11
1174.498184994885
 21
1330.481771577241
 31
0.0
  0
LINE
  5
3E25
330
1F
100
AcDbEntity
  8
AM_0 外形線1
100
AcDbLine
 10
1143.498184994885
 20
1284.08177157724
 30
0.0
 11
1143.498184994885
 21
1278.88177157724
 31
0.0
  0
INSERT
  5
51B4
102
{ACAD_REACTORS
330
62F0
330
6308
330
65AD
330
6722
330
673A
330
87C4
102
}
330
1F
100
AcDbEntity
  8
AM_0 外形線1
100
AcDbBlockReference
  2
ケースＡ-1 SAM355
 10
1149.498184994885
 20
1153.98177157724
 30
0.0
  0
LINE
  5
51CB
330
1F
100
AcDbEntity
  8
AM_0 外形線1
100
AcDbLine
 10
1130.498184994885
 20
1307.48177157724
 30
0.0
 11
1149.498184994885
 21
1307.48177157724
 31
0.0
  0
INSERT
  5
572A
102
{ACAD_REACTORS
330
62D8
330
6457
330
673A
330
A137
102
}
330
1F
100
AcDbEntity
  8
AM_0 外形線1
100
AcDbBlockReference
  2
センタ-1 SAM355
 10
1157.498184994885
 20
1153.98177157724
 30
0.0
  0
INSERT
  5
5879
102
{ACAD_REACTORS
330
6373
330
6559
330
66C9
330
66E1
330
8787
102
}
330
1F
100
AcDbEntity
  8
AM_0 外形線1
100
AcDbBlockReference
  2
ケースＡ-2 SAM355
 10
878.4981849948854
 20
1153.98177157724
 30
0.0
  0
INSERT
  5
59A0
102
{ACAD_REACTORS
330
628A
330
6373
330
643F
330
66C9
330
9F9C
330
A06D
330
A099
102
}
330
1F
100
AcDbEntity
  8
AM_0 外形線1
100
AcDbBlockReference
  2
センタ-2 SAM355
 10
870.4981849948854
 20
1153.98177157724
 30
0.0
  0
INSERT
  5
5B41
330
1F
100
AcDbEntity
  8
AM_0 外形線1
100
AcDbBlockReference
  2
リーマボルト-1 SAM355 M16
 10
1128.498184994885
 20
1316.481771577241
 30
0.0
  0
INSERT
  5
5BCF
330
1F
100
AcDbEntity
  8
AM_0 外形線1
100
AcDbBlockReference
  2
リーマボルト-2 SAM355 M16
 10
899.4981849948853
 20
1316.481771577241
 30
0.0
  0
DIMENSION
  5
6273
102
{ACAD_XDICTIONARY
360
6280
102
}
102
{ACAD_REACTORS
330
628A
102
}
330
1F
100
AcDbEntity
  8
AM_5 寸法線
100
AcDbDimension
  2
*D15
 10
580.4981849948854
 20
1028.981771577241
 30
0.0
 11
564.2481849948852
 21
1153.981771577241
 31
0.0
 70
    32
  1
%%c<>
 71
     5
 42
249.9999999999998
 73
     0
 74
     0
 75
     0
  3
SEISA$0
100
AcDbAlignedDimension
 13
741.9981849948854
 23
1278.98177157724
 33
0.0
 14
741.9981849948854
 24
1028.981771577241
 34
0.0
 50
90.0
100
AcDbRotatedDimension
1001
ACAD_DSTYLE_DIMINSPECT
1070
   396
1000
100%
1070
   395
1000

1070
   394
1070
    33
1070
   393
1070
     0
  0
DIMENSION
  5
62C1
102
{ACAD_XDICTIONARY
360
62CE
102
}
102
{ACAD_REACTORS
330
62D8
102
}
330
1F
100
AcDbEntity
  8
AM_5 寸法線
100
AcDbDimension
  2
*D16
 10
1447.498184994885
 20
1028.981771577241
 30
0.0
 11
1431.248184994885
 21
1153.981771577241
 31
0.0
 70
    32
  1
%%c<>
 71
     5
 42
249.9999999999998
 73
     0
 74
     0
 75
     0
  3
SEISA$0
100
AcDbAlignedDimension
 13
1285.998184994885
 23
1278.98177157724
 33
0.0
 14
1285.998184994885
 24
1028.981771577241
 34
0.0
 50
90.0
100
AcDbRotatedDimension
1001
ACAD_DSTYLE_DIMINSPECT
1070
   396
1000
100%
1070
   395
1000

1070
   394
1070
    33
1070
   393
1070
     0
  0
DIMENSION
  5
62D9
102
{ACAD_XDICTIONARY
360
62E6
102
}
102
{ACAD_REACTORS
330
62F0
102
}
330
1F
100
AcDbEntity
  8
AM_5 寸法線
100
AcDbDimension
  2
*D17
 10
1497.498184994885
 20
1009.981771577241
 30
0.0
 11
1481.248184994885
 21
1153.981771577241
 31
0.0
 70
    32
  1
%%c<>
 71
     5
 42
287.9999999999999
 73
     0
 74
     0
 75
     0
  3
SEISA$0
100
AcDbAlignedDimension
 13
1253.498184994885
 23
1297.98177157724
 33
0.0
 14
1253.498184994885
 24
1009.981771577241
 34
0.0
 50
90.0
100
AcDbRotatedDimension
1001
ACAD_DSTYLE_DIMINSPECT
1070
   396
1000
100%
1070
   395
1000

1070
   394
1070
    33
1070
   393
1070
     0
  0
DIMENSION
  5
62F1
102
{ACAD_XDICTIONARY
360
62FE
102
}
102
{ACAD_REACTORS
330
6308
102
}
330
1F
100
AcDbEntity
  8
AM_5 寸法線
100
AcDbDimension
  2
*D18
 10
1547.498184994885
 20
976.4817715772407
 30
0.0
 11
1531.248184994885
 21
1153.981771577241
 31
0.0
 70
    32
  1
%%c<>
 71
     5
 42
354.9999999999998
 73
     0
 74
     0
 75
     0
  3
SEISA$0
100
AcDbAlignedDimension
 13
1169.498184994885
 23
1331.48177157724
 33
0.0
 14
1169.498184994885
 24
976.4817715772407
 34
0.0
 50
90.0
100
AcDbRotatedDimension
1001
ACAD_DSTYLE_DIMINSPECT
1070
   396
1000
100%
1070
   395
1000

1070
   394
1070
    33
1070
   393
1070
     0
  0
DIMENSION
  5
6358
102
{ACAD_XDICTIONARY
360
6367
102
}
102
{ACAD_REACTORS
330
6373
330
A06D
102
}
330
1F
100
AcDbEntity
  8
AM_5 寸法線
100
AcDbDimension
  2
*D19
 10
787.4981849948852
 20
1247.635024484983
 30
0.0
 11
738.4981849948854
 21
1263.885024484983
 31
0.0
 70
    32
 71
     5
 42
5.5
 73
     0
 74
     0
 75
     0
  3
SEISA$0
100
AcDbAlignedDimension
 13
792.9981849948854
 23
1279.481771577241
 33
0.0
 14
787.4981849948852
 24
1278.98177157724
 34
0.0
100
AcDbRotatedDimension
  0
DIMENSION
  5
6428
102
{ACAD_XDICTIONARY
360
6435
102
}
102
{ACAD_REACTORS
330
643F
102
}
330
1F
100
AcDbEntity
  8
AM_5 寸法線
100
AcDbDimension
  2
*D20
 10
680.4981849948852
 20
1174.146693577241
 30
0.0
 11
729.1253072087993
 21
1174.736098483454
 31
0.0
 70
   160
 71
     5
 42
190.0000000000001
 73
     0
 74
     0
 75
     0
  3
SEISA$0
100
AcDbAlignedDimension
 13
870.4981849948854
 23
1153.98177157724
 33
0.0
 14
680.4981849948852
 24
1153.98177157724
 34
0.0
100
AcDbRotatedDimension
1001
ACAD
1000
DSTYLE
1002
{
1070
   279
1070
     1
1002
}
  0
DIMENSION
  5
6440
102
{ACAD_XDICTIONARY
360
644D
102
}
102
{ACAD_REACTORS
330
6457
102
}
330
1F
100
AcDbEntity
  8
AM_5 寸法線
100
AcDbDimension
  2
*D21
 10
1347.498184994885
 20
1174.146693577241
 30
0.0
 11
1252.498184994885
 21
1190.39669357724
 31
0.0
 70
    32
 71
     5
 42
190.0
 73
     0
 74
     0
 75
     0
  3
SEISA$0
100
AcDbAlignedDimension
 13
1157.498184994885
 23
1153.98177157724
 33
0.0
 14
1347.498184994885
 24
1153.98177157724
 34
0.0
100
AcDbRotatedDimension
  0
DIMENSION
  5
653E
102
{ACAD_XDICTIONARY
360
654D
102
}
102
{ACAD_REACTORS
330
6559
102
}
330
1F
100
AcDbEntity
  8
AM_5 寸法線
100
AcDbDimension
  2
*D22
 10
857.4981849948853
 20
901.4817715772407
 30
0.0
 11
814.4981849948852
 21
917.7317715772408
 31
0.0
 70
    32
 71
     5
 42
21.0
 73
     0
 74
     0
 75
     0
  3
SEISA$0
100
AcDbAlignedDimension
 13
878.4981849948854
 23
976.9817715772408
 33
0.0
 14
857.4981849948853
 24
977.4817715772408
 34
0.0
100
AcDbRotatedDimension
1001
ACAD_DSTYLE_DIMINSPECT
1070
   396
1000
100%
1070
   395
1000

1070
   394
1070
    33
1070
   393
1070
     0
1001
ACAD
1000
DSTYLE
1002
{
1070
   173
1070
     1
1070
   342
1005
0
1070
   343
1005
43CB
1070
   344
1005
69
1002
}
  0
DIMENSION
  5
6592
102
{ACAD_XDICTIONARY
360
65A1
102
}
102
{ACAD_REACTORS
330
65AD
102
}
330
1F
100
AcDbEntity
  8
AM_5 寸法線
100
AcDbDimension
  2
*D23
 10
1170.498184994885
 20
901.4817715772407
 30
0.0
 11
1213.498184994885
 21
917.7317715772408
 31
0.0
 70
    32
 71
     5
 42
21.0
 73
     0
 74
     0
 75
     0
  3
SEISA$0
100
AcDbAlignedDimension
 13
1149.498184994885
 23
976.9817715772408
 33
0.0
 14
1170.498184994885
 24
977.4817715772408
 34
0.0
100
AcDbRotatedDimension
1001
ACAD_DSTYLE_DIMINSPECT
1070
   396
1000
100%
1070
   395
1000

1070
   394
1070
    33
1070
   393
1070
     0
1001
ACAD
1000
DSTYLE
1002
{
1070
   173
1070
     1
1070
   342
1005
0
1070
   343
1005
43CB
1070
   344
1005
69
1002
}
  0
DIMENSION
  5
66B2
102
{ACAD_XDICTIONARY
360
66BF
102
}
102
{ACAD_REACTORS
330
66C9
102
}
330
1F
100
AcDbEntity
  8
AM_5 寸法線
100
AcDbDimension
  2
*D24
 10
770.4981849948852
 20
851.4817715772407
 30
0.0
 11
725.4981849948854
 21
867.7317715772408
 31
0.0
 70
    32
 71
     5
 42
90.0
 73
     0
 74
     0
 75
     0
  3
SEISA$0
100
AcDbAlignedDimension
 13
680.4981849948854
 23
1033.781771577241
 33
0.0
 14
770.4981849948852
 24
1013.981771577241
 34
0.0
100
AcDbRotatedDimension
  0
DIMENSION
  5
66CA
102
{ACAD_XDICTIONARY
360
66D7
102
}
102
{ACAD_REACTORS
330
66E1
102
}
330
1F
100
AcDbEntity
  8
AM_5 寸法線
100
AcDbDimension
  2
*D25
 10
878.4981849948854
 20
851.4817715772407
 30
0.0
 11
824.4981849948853
 21
867.7317715772408
 31
0.0
 70
    32
 71
     5
 42
108.0
 73
     0
 74
     0
 75
     0
  3
SEISA$0
100
AcDbAlignedDimension
 13
770.4981849948852
 23
1013.981771577241
 33
0.0
 14
878.4981849948854
 24
976.9817715772408
 34
0.0
100
AcDbRotatedDimension
  0
DIMENSION
  5
670B
102
{ACAD_XDICTIONARY
360
6718
102
}
102
{ACAD_REACTORS
330
6722
102
}
330
1F
100
AcDbEntity
  8
AM_5 寸法線
100
AcDbDimension
  2
*D26
 10
1257.498184994885
 20
851.4817715772407
 30
0.0
 11
1203.498184994885
 21
867.7317715772408
 31
0.0
 70
    32
 71
     5
 42
108.0
 73
     0
 74
     0
 75
     0
  3
SEISA$0
100
AcDbAlignedDimension
 13
1149.498184994885
 23
976.9817715772408
 33
0.0
 14
1257.498184994885
 24
1013.981771577241
 34
0.0
100
AcDbRotatedDimension
  0
DIMENSION
  5
6723
102
{ACAD_XDICTIONARY
360
6730
102
}
102
{ACAD_REACTORS
330
673A
102
}
330
1F
100
AcDbEntity
  8
AM_5 寸法線
100
AcDbDimension
  2
*D27
 10
1347.498184994885
 20
851.4817715772407
 30
0.0
 11
1302.498184994885
 21
867.7317715772408
 31
0.0
 70
    32
 71
     5
 42
90.00000000000023
 73
     0
 74
     0
 75
     0
  3
SEISA$0
100
AcDbAlignedDimension
 13
1257.498184994885
 23
1013.981771577241
 33
0.0
 14
1347.498184994885
 24
1033.781771577241
 34
0.0
100
AcDbRotatedDimension
  0
INSERT
  5
82D7
102
{ACAD_REACTORS
330
8787
330
87C4
330
9D16
330
A137
102
}
330
1F
100
AcDbEntity
  8
AM_0 外形線1
100
AcDbBlockReference
  2
ＧＣスペーサ SAMY355
 10
878.4981849948851
 20
1153.98177157724
 30
0.0
  0
DIMENSION
  5
8777
102
{ACAD_XDICTIONARY
360
8786
102
}
102
{ACAD_REACTORS
330
8787
102
}
330
1F
100
AcDbEntity
  8
AM_5 寸法線
100
AcDbDimension
  2
*D29
 10
899.4981849948857
 20
901.4817715772405
 30
0.0
 11
942.4981849948856
 21
917.7317715772405
 31
0.0
 70
    32
 71
     5
 42
20.99999999999955
 73
     0
 74
     0
 75
     0
  3
SEISA$0
100
AcDbAlignedDimension
 13
878.4981849948861
 23
977.4817715772417
 33
0.0
 14
899.4981849948857
 24
977.4817715772405
 34
0.0
100
AcDbRotatedDimension
1001
ACAD_DSTYLE_DIMINSPECT
1070
   396
1000
100%
1070
   395
1000

1070
   394
1070
    33
1070
   393
1070
     0
1001
ACAD
1000
DSTYLE
1002
{
1070
   173
1070
     1
1070
   342
1005
0
1070
   343
1005
43CB
1070
   344
1005
69
1002
}
  0
DIMENSION
  5
87B4
102
{ACAD_XDICTIONARY
360
87C3
102
}
102
{ACAD_REACTORS
330
87C4
102
}
330
1F
100
AcDbEntity
  8
AM_5 寸法線
100
AcDbDimension
  2
*D30
 10
1128.498184994904
 20
901.4817715772403
 30
0.0
 11
1085.498184994904
 21
917.7317715772399
 31
0.0
 70
    32
 71
     5
 42
20.9999999999809
 73
     0
 74
     0
 75
     0
  3
SEISA$0
100
AcDbAlignedDimension
 13
1149.498184994885
 23
977.4817715772408
 33
0.0
 14
1128.498184994904
 24
977.4817715772405
 34
0.0
100
AcDbRotatedDimension
1001
ACAD_DSTYLE_DIMINSPECT
1070
   396
1000
100%
1070
   395
1000

1070
   394
1070
    33
1070
   393
1070
     0
1001
ACAD
1000
DSTYLE
1002
{
1070
   173
1070
     1
1070
   342
1005
0
1070
   343
1005
43CB
1070
   344
1005
69
1002
}
  0
DIMENSION
  5
9D06
102
{ACAD_XDICTIONARY
360
9D15
102
}
102
{ACAD_REACTORS
330
9D16
102
}
330
1F
100
AcDbEntity
  8
AM_5 寸法線
100
AcDbDimension
  2
*D31
 10
870.4981849948854
 20
1214.947232929135
 30
0.0
 11
930.6372750861475
 21
1214.947232929135
 31
0.0
 70
   160
 71
     5
 42
7.999999999999656
 73
     0
 74
     0
 75
     0
  3
SEISA$0
100
AcDbAlignedDimension
 13
878.4981849948851
 23
1296.481771577241
 33
0.0
 14
870.4981849948854
 24
1221.600468629093
 34
0.0
 50
0.0000000000001132
100
AcDbRotatedDimension
1001
ACAD_DSTYLE_DIMINSPECT
1070
   396
1000
100%
1070
   395
1000

1070
   394
1070
    33
1070
   393
1070
     0
  0
MTEXT
  5
9F4A
330
1F
100
AcDbEntity
  8
AM_6 文字
100
AcDbMText
 10
1381.73685434304
 20
944.1566648954676
 30
0.0
 40
14.0
 41
214.9367877702784
 46
35.45459589352106
 71
     1
 72
     5
  1
{\W0.6;TYPE:SAM355/SAMH355\PSHAFT DIA:MAX/MIN φ180/φ125}
  7
SEISA
 73
     1
 44
1.0
  0
DIMENSION
  5
9F8C
102
{ACAD_XDICTIONARY
360
9F9B
102
}
102
{ACAD_REACTORS
330
9F9C
102
}
330
1F
100
AcDbEntity
  8
AM_5 寸法線
100
AcDbDimension
  2
*D32
 10
680.4981849948854
 20
1310.929177449536
 30
0.0
 11
714.8731849948854
 21
1327.179177449536
 31
0.0
 70
    32
 71
     5
 42
-1.0
 73
     0
 74
     0
 75
     0
  3
SEISA$0
100
AcDbAlignedDimension
 13
679.4981849948854
 23
1278.98177157724
 33
0.0
 14
680.4981849948854
 24
1274.18177157724
 34
0.0
100
AcDbRotatedDimension
1001
ACAD_DSTYLE_DIMINSPECT
1070
   396
1000
100%
1070
   395
1000

1070
   394
1070
    33
1070
   393
1070
     0
  0
DIMENSION
  5
A05F
102
{ACAD_XDICTIONARY
360
A06C
102
}
102
{ACAD_REACTORS
330
A06D
102
}
330
1F
100
AcDbEntity
  8
AM_5 寸法線
100
AcDbDimension
  2
*D33
 10
835.9981849948852
 20
1247.635024484984
 30
0.0
 11
814.4981849948852
 21
1263.885024484984
 31
0.0
 70
    32
 71
     5
 42
43.0
 73
     0
 74
     0
 75
     0
  3
SEISA$0
100
AcDbAlignedDimension
 13
792.9981849948854
 23
1279.481771577241
 33
0.0
 14
835.9981849948852
 24
1276.48177157724
 34
0.0
 50
0.0000000000001132
100
AcDbRotatedDimension
1001
ACAD_DSTYLE_DIMINSPECT
1070
   396
1000
100%
1070
   395
1000

1070
   394
1070
    33
1070
   393
1070
     0
  0
DIMENSION
  5
A089
102
{ACAD_XDICTIONARY
360
A098
102
}
102
{ACAD_REACTORS
330
A099
102
}
330
1F
100
AcDbEntity
  8
AM_5 寸法線
100
AcDbDimension
  2
*D34
 10
870.4981849948854
 20
1247.635024484984
 30
0.0
 11
829.4141058523711
 21
1200.003684851391
 31
0.0
 70
   160
 71
     5
 42
34.5
 73
     0
 74
     0
 75
     0
  3
SEISA$0
100
AcDbAlignedDimension
 13
835.9981849948852
 23
1276.48177157724
 33
0.0
 14
870.4981849948854
 24
1274.98177157724
 34
0.0
 50
0.0000000000001132
100
AcDbRotatedDimension
1001
ACAD_DSTYLE_DIMINSPECT
1070
   396
1000
100%
1070
   395
1000

1070
   394
1070
    33
1070
   393
1070
     0
1001
ACAD
1000
DSTYLE
1002
{
1070
   279
1070
     1
1002
}
  0
DIMENSION
  5
A127
102
{ACAD_XDICTIONARY
360
A136
102
}
102
{ACAD_REACTORS
330
A137
102
}
330
1F
100
AcDbEntity
  8
AM_5 寸法線
100
AcDbDimension
  2
*D35
 10
1157.498184994885
 20
1214.947232929135
 30
0.0
 11
1131.316426159043
 21
1228.437407945435
 31
0.0
 70
   160
 71
     5
 42
7.999999999980444
 73
     0
 74
     0
 75
     0
  3
SEISA$0
100
AcDbAlignedDimension
 13
1149.498184994905
 23
1296.481771577241
 33
0.0
 14
1157.498184994885
 24
1274.98177157724
 34
0.0
 50
0.0000000000001132
100
AcDbRotatedDimension
1001
ACAD_DSTYLE_DIMINSPECT
1070
   396
1000
100%
1070
   395
1000

1070
   394
1070
    33
1070
   393
1070
     0
1001
ACAD
1000
DSTYLE
1002
{
1070
   279
1070
     2
1002
}
  0
INSERT
  5
A245
330
1F
100
AcDbEntity
  8
AM_11 想像線
100
AcDbBlockReference
  2
ケース
 10
719.3457625868997
 20
1297.98177157724
 30
0.0
  0
ENDSEC
  0
SECTION
  2
OBJECTS
  0
DICTIONARY
  5
C
330
0
100
AcDbDictionary
281
     1
  3
ACAD_COLOR
350
C5
  3
ACAD_GROUP
350
D
  3
ACAD_LAYOUT
350
1A
  3
ACAD_MATERIAL
350
C4
  3
ACAD_MLEADERSTYLE
350
2D5
  3
ACAD_MLINESTYLE
350
17
  3
ACAD_PLOTSETTINGS
350
19
  3
ACAD_PLOTSTYLENAME
350
E
  3
ACAD_SCALELIST
350
2B3
  3
ACAD_TABLESTYLE
350
121
  3
ACAD_VISUALSTYLE
350
27F
  3
ACDB_RECOMPOSE_DATA
350
2F7
  3
AcDbVariableDictionary
350
34
  3
AcmDictionary
350
49
  3
AMG
350
2B
  3
AMGSNAPSETTINGS
350
1DE
  0
DICTIONARY
  5
BF
330
2
100
AcDbDictionary
280
     1
281
     1
  3
ACAD_LAYERSTATES
360
27A5
  3
AMLAYER_GROUPCOLORS
360
C0
  0
DICTIONARY
  5
29F6
330
10
100
AcDbDictionary
280
     1
281
     1
  3
ADSK_XREC_LAYER_RECONCILED
360
29F7
  0
DICTIONARY
  5
29F8
330
81
100
AcDbDictionary
280
     1
281
     1
  3
ADSK_XREC_LAYER_RECONCILED
360
29F9
  0
DICTIONARY
  5
29FC
330
27A4
100
AcDbDictionary
280
     1
281
     1
  3
ADSK_XREC_LAYER_RECONCILED
360
29FD
  0
DICTIONARY
  5
7CF6
330
7CF5
100
AcDbDictionary
280
     1
281
     1
  0
DICTIONARY
  5
82
330
1F
100
AcDbDictionary
280
     1
281
     1
  3
ACAD_SORTENTS
360
A41
  0
DICTIONARY
  5
7420
330
5058
100
AcDbDictionary
280
     1
281
     1
  3
ACAD_SORTENTS
360
7421
  0
DICTIONARY
  5
5331
330
5080
100
AcDbDictionary
280
     1
281
     1
  3
ACAD_SORTENTS
360
743B
  0
DICTIONARY
  5
5255
330
5172
100
AcDbDictionary
280
     1
281
     1
  3
ACAD_SORTENTS
360
74B4
  0
DICTIONARY
  5
53B2
330
52D7
100
AcDbDictionary
280
     1
281
     1
  3
ACAD_SORTENTS
360
753D
  0
DICTIONARY
  5
5775
330
5704
100
AcDbDictionary
280
     1
281
     1
  3
ACAD_SORTENTS
360
A05E
  0
DICTIONARY
  5
58A2
330
57B0
100
AcDbDictionary
280
     1
281
     1
  3
ACAD_SORTENTS
360
A016
  0
DICTIONARY
  5
5B9B
330
5B19
100
AcDbDictionary
280
     1
281
     1
  3
ACAD_SORTENTS
360
7800
  0
DICTIONARY
  5
5C2C
330
5BA5
100
AcDbDictionary
280
     1
281
     1
  3
ACAD_SORTENTS
360
7865
  0
DICTIONARY
  5
848B
330
825E
100
AcDbDictionary
280
     1
281
     1
  3
ACAD_SORTENTS
360
A39A
  0
DICTIONARY
  5
6280
330
6273
100
AcDbDictionary
280
     1
281
     1
  3
ACAD_DIMASSOC
360
628A
  0
DICTIONARY
  5
62CE
330
62C1
100
AcDbDictionary
280
     1
281
     1
  3
ACAD_DIMASSOC
360
62D8
  0
DICTIONARY
  5
62E6
330
62D9
100
AcDbDictionary
280
     1
281
     1
  3
ACAD_DIMASSOC
360
62F0
  0
DICTIONARY
  5
62FE
330
62F1
100
AcDbDictionary
280
     1
281
     1
  3
ACAD_DIMASSOC
360
6308
  0
DICTIONARY
  5
6367
330
6358
100
AcDbDictionary
280
     1
281
     1
  3
ACAD_DIMASSOC
360
6373
  0
DICTIONARY
  5
6435
330
6428
100
AcDbDictionary
280
     1
281
     1
  3
ACAD_DIMASSOC
360
643F
  0
DICTIONARY
  5
644D
330
6440
100
AcDbDictionary
280
     1
281
     1
  3
ACAD_DIMASSOC
360
6457
  0
DICTIONARY
  5
654D
330
653E
100
AcDbDictionary
280
     1
281
     1
  3
ACAD_DIMASSOC
360
6559
  0
DICTIONARY
  5
65A1
330
6592
100
AcDbDictionary
280
     1
281
     1
  3
ACAD_DIMASSOC
360
65AD
  0
DICTIONARY
  5
66BF
330
66B2
100
AcDbDictionary
280
     1
281
     1
  3
ACAD_DIMASSOC
360
66C9
  0
DICTIONARY
  5
66D7
330
66CA
100
AcDbDictionary
280
     1
281
     1
  3
ACAD_DIMASSOC
360
66E1
  0
DICTIONARY
  5
6718
330
670B
100
AcDbDictionary
280
     1
281
     1
  3
ACAD_DIMASSOC
360
6722
  0
DICTIONARY
  5
6730
330
6723
100
AcDbDictionary
280
     1
281
     1
  3
ACAD_DIMASSOC
360
673A
  0
DICTIONARY
  5
8786
330
8777
100
AcDbDictionary
280
     1
281
     1
  3
ACAD_DIMASSOC
360
8787
  0
DICTIONARY
  5
87C3
330
87B4
100
AcDbDictionary
280
     1
281
     1
  3
ACAD_DIMASSOC
360
87C4
  0
DICTIONARY
  5
9D15
330
9D06
100
AcDbDictionary
280
     1
281
     1
  3
ACAD_DIMASSOC
360
9D16
  0
DICTIONARY
  5
9F9B
330
9F8C
100
AcDbDictionary
280
     1
281
     1
  3
ACAD_DIMASSOC
360
9F9C
  0
DICTIONARY
  5
A06C
330
A05F
100
AcDbDictionary
280
     1
281
     1
  3
ACAD_DIMASSOC
360
A06D
  0
DICTIONARY
  5
A098
330
A089
100
AcDbDictionary
280
     1
281
     1
  3
ACAD_DIMASSOC
360
A099
  0
DICTIONARY
  5
A136
330
A127
100
AcDbDictionary
280
     1
281
     1
  3
ACAD_DIMASSOC
360
A137
  0
DICTIONARY
  5
C5
102
{ACAD_REACTORS
330
C
102
}
330
C
100
AcDbDictionary
281
     1
  0
DICTIONARY
  5
D
102
{ACAD_REACTORS
330
C
102
}
330
C
100
AcDbDictionary
281
     1
  0
DICTIONARY
  5
1A
102
{ACAD_REACTORS
330
C
102
}
330
C
100
AcDbDictionary
281
     1
  3
Model
350
22
  3
レイアウト1
350
1E
  3
レイアウト2
350
26
  0
DICTIONARY
  5
C4
102
{ACAD_REACTORS
330
C
102
}
330
C
100
AcDbDictionary
281
     1
  3
ByBlock
350
27D
  3
ByLayer
350
27C
  3
Global
350
27E
  0
DICTIONARY
  5
2D5
102
{ACAD_REACTORS
330
C
102
}
330
C
100
AcDbDictionary
281
     1
  3
Standard
350
2D6
  0
DICTIONARY
  5
17
102
{ACAD_REACTORS
330
C
102
}
330
C
100
AcDbDictionary
281
     1
  3
Standard
350
18
  0
DICTIONARY
  5
19
102
{ACAD_REACTORS
330
C
102
}
330
C
100
AcDbDictionary
281
     1
  3
SEISA基本
350
1C7E
  0
ACDBDICTIONARYWDFLT
  5
E
102
{ACAD_REACTORS
330
C
102
}
330
C
100
AcDbDictionary
281
     1
  3
Normal
350
F
100
AcDbDictionaryWithDefault
340
F
  0
DICTIONARY
  5
2B3
102
{ACAD_REACTORS
330
C
102
}
330
C
100
AcDbDictionary
281
     1
  3
*A1
350
44A7
  3
*A2
350
9F41
  3
A0
350
2B4
  3
A1
350
2B5
  3
A2
350
2B6
  3
A3
350
2B7
  3
A4
350
2B8
  3
A5
350
2B9
  3
A6
350
2BA
  3
A7
350
2BB
  3
A8
350
2BC
  3
A9
350
2BD
  3
B0
350
2BE
  3
B1
350
2BF
  3
B2
350
2C0
  3
B3
350
2C1
  3
B4
350
2C2
  3
B5
350
2C3
  3
B6
350
2C4
  3
B7
350
2C5
  3
B8
350
2C6
  3
B9
350
2C7
  3
C0
350
2C8
  3
C1
350
2C9
  3
C2
350
2CA
  3
C3
350
2CB
  3
C4
350
2CC
  3
C5
350
2CD
  3
C6
350
2CE
  3
C7
350
2CF
  3
C8
350
2D0
  3
C9
350
2D1
  3
D0
350
2D2
  3
D1
350
2D3
  3
D2
350
2D4
  0
DICTIONARY
  5
121
102
{ACAD_REACTORS
330
C
102
}
330
C
100
AcDbDictionary
281
     1
  3
Standard
350
122
  0
DICTIONARY
  5
27F
102
{ACAD_REACTORS
330
C
102
}
330
C
100
AcDbDictionary
281
     1
  3
2dWireframe
350
285
  3
3D Hidden
350
287
  3
3dWireframe
350
286
  3
Basic
350
284
  3
Brighten
350
28B
  3
ColorChange
350
28F
  3
Conceptual
350
288
  3
Dim
350
28A
  3
Facepattern
350
28E
  3
Flat
350
280
  3
FlatWithEdges
350
281
  3
Gouraud
350
282
  3
GouraudWithEdges
350
283
  3
Linepattern
350
28D
  3
Realistic
350
289
  3
Thicken
350
28C
  0
XRECORD
  5
2F7
102
{ACAD_REACTORS
330
C
102
}
330
C
100
AcDbXrecord
280
     1
 90
        1
330
122
  0
DICTIONARY
  5
34
102
{ACAD_REACTORS
330
C
102
}
330
C
100
AcDbDictionary
281
     1
  3
CANNOSCALE
350
2FA
  3
CMLEADERSTYLE
350
2F8
  3
CTABLESTYLE
350
140
  3
DIMASSOC
350
AC
  3
INDEXCTL
350
35
  3
LAYEREVAL
350
79AF
  3
LAYERNOTIFY
350
79B0
  3
LIGHTINGUNITS
350
2FB
  3
MSLTSCALE
350
2F9
  0
DICTIONARY
  5
49
102
{ACAD_REACTORS
330
C
102
}
330
C
100
AcDbDictionary
281
     1
  3
AcmBOM
350
161B
  3
AcmStdDictionary
350
4A
  3
AMDTSECTSYM_ARROWCOLOR
350
12B
  0
DICTIONARY
  5
2B
102
{ACAD_REACTORS
330
C
102
}
330
C
100
AcDbDictionary
281
     1
  0
DICTIONARY
  5
1DE
102
{ACAD_REACTORS
330
C
102
}
330
C
100
AcDbDictionary
281
     1
  0
DICTIONARY
  5
27A5
102
{ACAD_REACTORS
330
BF
102
}
330
BF
100
AcDbDictionary
281
     1
  0
DICTIONARY
  5
C0
102
{ACAD_REACTORS
330
BF
102
}
330
BF
100
AcDbDictionary
280
     1
281
     1
  0
XRECORD
  5
29F7
102
{ACAD_REACTORS
330
29F6
102
}
330
29F6
100
AcDbXrecord
280
     1
290
     1
  0
XRECORD
  5
29F9
102
{ACAD_REACTORS
330
29F8
102
}
330
29F8
100
AcDbXrecord
280
     1
290
     1
  0
XRECORD
  5
29FD
102
{ACAD_REACTORS
330
29FC
102
}
330
29FC
100
AcDbXrecord
280
     1
290
     1
  0
SORTENTSTABLE
  5
A41
102
{ACAD_REACTORS
330
82
102
}
330
82
100
AcDbSortentsTable
330
1F
331
51CB
  5
572A
331
62F1
  5
62F1
331
62D9
  5
62D9
331
66CA
  5
66CA
331
62C1
  5
62C1
331
8777
  5
87B4
331
6723
  5
6723
331
653E
  5
653E
331
66B2
  5
66B2
331
6592
  5
6592
331
670B
  5
670B
331
572A
  5
59A0
331
3C15
  5
3C15
331
6273
  5
6273
331
3D8E
  5
3D8E
331
6440
  5
6440
331
6428
  5
6428
331
6358
  5
6358
331
59A0
  5
5D67
331
5B41
  5
5DAC
331
3CA7
  5
3CA7
331
9F4A
  5
9F4A
331
51B4
  5
553F
331
5879
  5
5B41
331
87B4
  5
96C7
331
82D7
  5
859E
331
5BCF
  5
5DDE
331
3E25
  5
3E25
331
3D31
  5
3D31
331
9D06
  5
9E0E
  0
SORTENTSTABLE
  5
7421
102
{ACAD_REACTORS
330
7420
102
}
330
7420
100
AcDbSortentsTable
330
5058
  0
SORTENTSTABLE
  5
743B
102
{ACAD_REACTORS
330
5331
102
}
330
5331
100
AcDbSortentsTable
330
5080
  0
SORTENTSTABLE
  5
74B4
102
{ACAD_REACTORS
330
5255
102
}
330
5255
100
AcDbSortentsTable
330
5172
331
519F
  5
51A1
331
51A6
  5
51A8
331
5253
  5
5252
331
5188
  5
5189
331
5181
  5
5182
331
517A
  5
517B
331
518F
  5
5191
331
5191
  5
5194
331
51AF
  5
51B3
331
5199
  5
519B
331
517B
  5
517C
331
51A8
  5
51AA
331
5182
  5
5183
331
51A7
  5
51A9
331
5189
  5
518B
331
5254
  5
517A
331
51A0
  5
51A2
331
51B0
  5
5251
331
5193
  5
5195
331
519A
  5
519C
331
51A1
  5
51A3
331
5183
  5
5184
331
517C
  5
517D
331
51A9
  5
51AB
331
51AA
  5
51AC
331
519B
  5
519D
331
517D
  5
517E
331
5194
  5
5196
331
5184
  5
5185
331
518B
  5
518E
331
51A2
  5
51A4
331
51B2
  5
5253
331
5195
  5
5197
331
519C
  5
519E
331
51A3
  5
51A5
331
5185
  5
5186
331
517E
  5
517F
331
51AB
  5
51AD
331
51B3
  5
5254
331
51AC
  5
51AF
331
519D
  5
519F
331
51A4
  5
51A6
331
5251
  5
518D
331
5186
  5
5187
331
517F
  5
5180
331
5196
  5
5199
331
518D
  5
518F
331
51AD
  5
51B0
331
5197
  5
519A
331
5190
  5
5193
331
519E
  5
51A0
331
51A5
  5
51A7
331
518E
  5
5190
331
5252
  5
51B2
331
5187
  5
5188
331
5180
  5
5181
  0
SORTENTSTABLE
  5
753D
102
{ACAD_REACTORS
330
53B2
102
}
330
53B2
100
AcDbSortentsTable
330
52D7
331
530E
  5
530F
331
52F9
  5
52FB
331
53B0
  5
52F8
331
52FB
  5
52FC
331
52FD
  5
52FE
331
52FF
  5
5300
331
5310
  5
5311
331
5301
  5
5303
331
5312
  5
5314
331
5303
  5
5304
331
5314
  5
53B0
331
5305
  5
5306
331
5307
  5
5308
331
5309
  5
530A
331
530B
  5
530C
331
530D
  5
530E
331
530F
  5
5310
331
52F8
  5
52F9
331
53B1
  5
5315
331
52FC
  5
52FD
331
52FE
  5
52FF
331
5300
  5
5301
331
5311
  5
5312
331
5304
  5
5305
331
5315
  5
53B1
331
5306
  5
5307
331
5308
  5
5309
331
530A
  5
530B
331
530C
  5
530D
  0
SORTENTSTABLE
  5
A05E
102
{ACAD_REACTORS
330
5775
102
}
330
5775
100
AcDbSortentsTable
330
5704
331
5708
  5
570A
331
570A
  5
570C
331
5709
  5
570B
331
570C
  5
570E
331
570B
  5
570D
331
A03E
  5
5707
331
570E
  5
5712
331
5711
  5
5713
331
5713
  5
5715
331
5712
  5
5714
331
5715
  5
5717
331
5714
  5
5716
331
5717
  5
5719
331
5716
  5
5718
331
5719
  5
571B
331
5718
  5
571A
331
571B
  5
571D
331
571A
  5
571C
331
571D
  5
571F
331
571C
  5
571E
331
571F
  5
5721
331
571E
  5
5720
331
A03F
  5
5708
331
570D
  5
5711
331
5707
  5
5709
331
5722
  5
5724
331
5721
  5
5723
331
5724
  5
5726
331
5723
  5
5725
331
5726
  5
A03F
331
5725
  5
A03E
331
5720
  5
5722
  0
SORTENTSTABLE
  5
A016
102
{ACAD_REACTORS
330
58A2
102
}
330
58A2
100
AcDbSortentsTable
330
57B0
331
57C7
  5
57C9
331
57CB
  5
57CD
331
57D3
  5
A015
331
57BE
  5
57C0
331
57C6
  5
57C8
331
57CA
  5
57CC
331
57D2
  5
A014
331
57BD
  5
57BF
331
57C5
  5
57C7
331
57C9
  5
57CB
331
57D1
  5
57D3
331
57BC
  5
57BE
331
57C4
  5
57C6
331
57C8
  5
57CA
331
57D0
  5
57D2
331
57BB
  5
57BD
331
57B7
  5
57B9
331
57C3
  5
57C5
331
57CF
  5
57D1
331
57B6
  5
57B8
331
57BA
  5
57BC
331
57C2
  5
57C4
331
57CE
  5
57D0
331
57B9
  5
57BB
331
57C1
  5
57C3
331
57CD
  5
57CF
331
57B4
  5
57B7
331
57B8
  5
57BA
331
A015
  5
57B6
331
57C0
  5
57C2
331
57CC
  5
57CE
331
57BF
  5
57C1
331
A014
  5
57B4
  0
SORTENTSTABLE
  5
7800
102
{ACAD_REACTORS
330
5B9B
102
}
330
5B9B
100
AcDbSortentsTable
330
5B19
331
5B2E
  5
5B2F
331
5B2C
  5
5B2D
331
5B3F
  5
5B40
331
5B2A
  5
5B2B
331
5B3D
  5
5B3E
331
5B28
  5
5B29
331
5B3B
  5
5B3C
331
5B39
  5
5B3A
331
5B27
  5
5B28
331
5B25
  5
5B26
331
5B37
  5
5B38
331
5B23
  5
5B24
331
5B35
  5
5B36
331
5B1F
  5
5B20
331
5B21
  5
5B22
331
5B33
  5
5B34
331
5B1D
  5
5B1E
331
5B31
  5
5B32
331
5B2F
  5
5B30
331
5B2D
  5
5B2E
331
5B70
  5
5B1C
331
5B2B
  5
5B2C
331
5B3E
  5
5B3F
331
5B29
  5
5B2A
331
5B3C
  5
5B3D
331
5B3A
  5
5B3B
331
5B38
  5
5B39
331
5B40
  5
5B70
331
5B26
  5
5B27
331
5B36
  5
5B37
331
5B24
  5
5B25
331
5B34
  5
5B35
331
5B1E
  5
5B1F
331
5B22
  5
5B23
331
5B32
  5
5B33
331
5B1C
  5
5B1D
331
5B20
  5
5B21
331
5B30
  5
5B31
  0
SORTENTSTABLE
  5
7865
102
{ACAD_REACTORS
330
5C2C
102
}
330
5C2C
100
AcDbSortentsTable
330
5BA5
  0
SORTENTSTABLE
  5
A39A
102
{ACAD_REACTORS
330
848B
102
}
330
848B
100
AcDbSortentsTable
330
825E
  0
DIMASSOC
  5
628A
102
{ACAD_REACTORS
330
6280
102
}
330
6280
100
AcDbDimAssoc
330
6273
 90
        3
 70
     0
 71
     0
  1
AcDbOsnapPointRef
 72
    13
331
59A0
331
57BD
 73
     2
 91
        0
 40
0.0
 10
0.0
 20
0.0
 30
2.000000000000000E+50
 75
     0
  1
AcDbOsnapPointRef
 72
    13
331
59A0
331
57B7
 73
     2
 91
        0
 40
0.0
 10
0.0
 20
0.0
 30
2.000000000000000E+50
 75
     0
  0
DIMASSOC
  5
62D8
102
{ACAD_REACTORS
330
62CE
102
}
330
62CE
100
AcDbDimAssoc
330
62C1
 90
        3
 70
     0
 71
     0
  1
AcDbOsnapPointRef
 72
    13
331
572A
331
571D
 73
     2
 91
        0
 40
0.0
 10
0.0
 20
0.0
 30
2.000000000000000E+50
 75
     0
  1
AcDbOsnapPointRef
 72
    13
331
572A
331
5708
 73
     2
 91
        0
 40
0.0
 10
0.0
 20
0.0
 30
2.000000000000000E+50
 75
     0
  0
DIMASSOC
  5
62F0
102
{ACAD_REACTORS
330
62E6
102
}
330
62E6
100
AcDbDimAssoc
330
62D9
 90
        3
 70
     0
 71
     0
  1
AcDbOsnapPointRef
 72
     1
331
51B4
331
5184
 73
     2
 91
        0
 40
1.0
 10
0.0
 20
0.0
 30
2.000000000000000E+50
 75
     0
  1
AcDbOsnapPointRef
 72
    13
331
51B4
331
517E
 73
     2
 91
        0
 40
4.712388980384688
 10
0.0
 20
0.0
 30
2.000000000000000E+50
 75
     0
  0
DIMASSOC
  5
6308
102
{ACAD_REACTORS
330
62FE
102
}
330
62FE
100
AcDbDimAssoc
330
62F1
 90
        3
 70
     0
 71
     0
  1
AcDbOsnapPointRef
 72
     1
331
51B4
331
51AF
 73
     2
 91
        0
 40
1.0
 10
0.0
 20
0.0
 30
2.000000000000000E+50
 75
     0
  1
AcDbOsnapPointRef
 72
     1
331
51B4
331
517A
 73
     2
 91
        0
 40
1.0
 10
0.0
 20
0.0
 30
2.000000000000000E+50
 75
     0
  0
DIMASSOC
  5
6373
102
{ACAD_REACTORS
330
6367
102
}
330
6367
100
AcDbDimAssoc
330
6358
 90
        3
 70
     0
 71
     0
  1
AcDbOsnapPointRef
 72
    13
331
59A0
331
57C2
 73
     2
 91
        0
 40
0.0
 10
0.0
 20
0.0
 30
2.000000000000000E+50
 75
     0
  1
AcDbOsnapPointRef
 72
     1
331
5879
331
52F4
 73
     2
 91
        0
 40
1.0
 10
0.0
 20
0.0
 30
2.000000000000000E+50
 75
     0
  0
DIMASSOC
  5
643F
102
{ACAD_REACTORS
330
6435
102
}
330
6435
100
AcDbDimAssoc
330
6428
 90
        3
 70
     0
 71
     0
  1
AcDbOsnapPointRef
 72
     1
331
59A0
331
57C6
 73
     2
 91
        0
 40
1.0
 10
0.0
 20
0.0
 30
2.000000000000000E+50
 75
     0
  1
AcDbOsnapPointRef
 72
     8
331
59A0
331
57B8
 73
     2
 91
        0
 40
0.4999999999999995
 10
0.0
 20
0.0
 30
0.0
 75
     1
  1
AcDbOsnapPointRef
 72
     1
331
59A0
331
57C6
 73
     2
 91
        0
 40
1.0
 10
0.0
 20
0.0
 30
2.000000000000000E+50
 75
     0
  0
DIMASSOC
  5
6457
102
{ACAD_REACTORS
330
644D
102
}
330
644D
100
AcDbDimAssoc
330
6440
 90
        2
 70
     0
 71
     0
  1
AcDbOsnapPointRef
 72
     2
331
572A
331
5709
 73
     2
 91
        0
 40
0.4999999999999995
 10
0.0
 20
0.0
 30
0.0
 75
     0
  0
DIMASSOC
  5
6559
102
{ACAD_REACTORS
330
654D
102
}
330
654D
100
AcDbDimAssoc
330
653E
 90
        2
 70
     0
 71
     0
  1
AcDbOsnapPointRef
 72
    13
331
5879
331
52F8
 73
     2
 91
        0
 40
0.0
 10
0.0
 20
0.0
 30
2.000000000000000E+50
 75
     0
  0
DIMASSOC
  5
65AD
102
{ACAD_REACTORS
330
65A1
102
}
330
65A1
100
AcDbDimAssoc
330
6592
 90
        2
 70
     0
 71
     0
  1
AcDbOsnapPointRef
 72
    13
331
51B4
331
5177
 73
     2
 91
        0
 40
0.0
 10
0.0
 20
0.0
 30
2.000000000000000E+50
 75
     0
  0
DIMASSOC
  5
66C9
102
{ACAD_REACTORS
330
66BF
102
}
330
66BF
100
AcDbDimAssoc
330
66B2
 90
        3
 70
     0
 71
     0
  1
AcDbOsnapPointRef
 72
    13
331
59A0
331
57B8
 73
     2
 91
        0
 40
0.0
 10
0.0
 20
0.0
 30
2.000000000000000E+50
 75
     0
  1
AcDbOsnapPointRef
 72
    13
331
5879
331
52E0
 73
     2
 91
        0
 40
0.0
 10
0.0
 20
0.0
 30
2.000000000000000E+50
 75
     0
  0
DIMASSOC
  5
66E1
102
{ACAD_REACTORS
330
66D7
102
}
330
66D7
100
AcDbDimAssoc
330
66CA
 90
        1
 70
     0
 71
     0
  1
AcDbOsnapPointRef
 72
    13
331
5879
331
52E0
 73
     2
 91
        0
 40
0.0
 10
0.0
 20
0.0
 30
2.000000000000000E+50
 75
     0
  0
DIMASSOC
  5
6722
102
{ACAD_REACTORS
330
6718
102
}
330
6718
100
AcDbDimAssoc
330
670B
 90
        2
 70
     0
 71
     0
  1
AcDbOsnapPointRef
 72
     1
331
51B4
331
517E
 73
     2
 91
        0
 40
6.283185307179585
 10
0.0
 20
0.0
 30
2.000000000000000E+50
 75
     0
  0
DIMASSOC
  5
673A
102
{ACAD_REACTORS
330
6730
102
}
330
6730
100
AcDbDimAssoc
330
6723
 90
        3
 70
     0
 71
     0
  1
AcDbOsnapPointRef
 72
     1
331
51B4
331
517E
 73
     2
 91
        0
 40
6.283185307179585
 10
0.0
 20
0.0
 30
2.000000000000000E+50
 75
     0
  1
AcDbOsnapPointRef
 72
     6
331
572A
331
5709
 73
     2
 91
        0
 40
0.0
 10
0.0
 20
0.0
 30
0.0
332
572A
332
570B
 74
     2
 92
        0
 75
     0
  0
DIMASSOC
  5
8787
102
{ACAD_REACTORS
330
8786
102
}
330
8786
100
AcDbDimAssoc
330
8777
 90
        3
 70
     0
 71
     0
  1
AcDbOsnapPointRef
 72
     6
331
5879
331
52FD
 73
     0
 91
        0
 40
0.0
 10
0.0
 20
0.0
 30
0.0
332
82D7
332
82B3
 74
     0
 92
        0
 75
     0
  1
AcDbOsnapPointRef
 72
    13
331
82D7
331
82B6
 73
     0
 91
        0
 40
0.0
 10
0.0
 20
0.0
 30
2.000000000000000E+50
 75
     0
  0
DIMASSOC
  5
87C4
102
{ACAD_REACTORS
330
87C3
102
}
330
87C3
100
AcDbDimAssoc
330
87B4
 90
        3
 70
     0
 71
     0
  1
AcDbOsnapPointRef
 72
    13
331
51B4
331
5254
 73
     0
 91
        0
 40
0.0
 10
0.0
 20
0.0
 30
2.000000000000000E+50
 75
     0
  1
AcDbOsnapPointRef
 72
    13
331
82D7
331
8296
 73
     0
 91
        0
 40
0.0
 10
0.0
 20
0.0
 30
2.000000000000000E+50
 75
     0
  0
DIMASSOC
  5
9D16
102
{ACAD_REACTORS
330
9D15
102
}
330
9D15
100
AcDbDimAssoc
330
9D06
 90
        1
 70
     0
 71
     0
  1
AcDbOsnapPointRef
 72
     1
331
82D7
331
82BE
 73
     0
 91
        0
 40
0.0
 10
0.0
 20
0.0
 30
2.000000000000000E+50
 75
     0
  0
DIMASSOC
  5
9F9C
102
{ACAD_REACTORS
330
9F9B
102
}
330
9F9B
100
AcDbDimAssoc
330
9F8C
 90
        2
 70
     0
 71
     0
  1
AcDbOsnapPointRef
 72
     1
331
59A0
331
57B8
 73
     0
 91
        0
 40
0.0
 10
0.0
 20
0.0
 30
2.000000000000000E+50
 75
     0
  0
DIMASSOC
  5
A06D
102
{ACAD_REACTORS
330
A06C
102
}
330
A06C
100
AcDbDimAssoc
330
A05F
 90
        3
 70
     0
 71
     0
  1
AcDbOsnapPointRef
 72
     4
331
6358
331
92B5
 73
     0
 91
        0
 40
0.0
 10
0.0
 20
0.0
 30
0.0
 75
     0
  1
AcDbOsnapPointRef
 72
     1
331
59A0
331
57CF
 73
     0
 91
        0
 40
0.0
 10
0.0
 20
0.0
 30
2.000000000000000E+50
 75
     0
  0
DIMASSOC
  5
A099
102
{ACAD_REACTORS
330
A098
102
}
330
A098
100
AcDbDimAssoc
330
A089
 90
        3
 70
     0
 71
     0
  1
AcDbOsnapPointRef
 72
     1
331
59A0
331
57CF
 73
     0
 91
        0
 40
0.0
 10
0.0
 20
0.0
 30
2.000000000000000E+50
 75
     0
  1
AcDbOsnapPointRef
 72
    13
331
59A0
331
57C5
 73
     0
 91
        0
 40
0.0
 10
0.0
 20
0.0
 30
2.000000000000000E+50
 75
     0
  0
DIMASSOC
  5
A137
102
{ACAD_REACTORS
330
A136
102
}
330
A136
100
AcDbDimAssoc
330
A127
 90
        3
 70
     0
 71
     0
  1
AcDbOsnapPointRef
 72
     1
331
82D7
331
829E
 73
     0
 91
        0
 40
0.0
 10
0.0
 20
0.0
 30
2.000000000000000E+50
 75
     0
  1
AcDbOsnapPointRef
 72
    13
331
572A
331
5712
 73
     0
 91
        0
 40
0.0
 10
0.0
 20
0.0
 30
2.000000000000000E+50
 75
     0
  0
LAYOUT
  5
22
102
{ACAD_REACTORS
330
1A
102
}
330
1A
100
AcDbPlotSettings
  1

  2
KONICA MINOLTA 501 PCL
  4
A4
  6

 40
5.027082920074462
 41
5.027085781097412
 42
5.027069091796875
 43
5.027069091796875
 44
209.9733276367186
 45
296.9259948730469
 46
31.78940338741511
 47
0.0
 48
0.0
 49
0.0
140
0.0
141
0.0
142
1.0
143
3.602310662543865
 70
 11956
 72
     1
 73
     1
 74
     1
  7
SEISA.ctb
 75
     0
147
0.2775996002781792
 76
     0
 77
     2
 78
   300
148
-555.4092472158508
149
-848.0923524831608
100
AcDbLayout
  1
Model
 70
     1
 71
     0
 10
0.0
 20
0.0
 11
12.0
 21
9.0
 12
0.0
 22
0.0
 32
0.0
 14
0.0
 24
0.0
 34
0.0
 15
0.0
 25
0.0
 35
0.0
146
0.0
 13
0.0
 23
0.0
 33
0.0
 16
1.0
 26
0.0
 36
0.0
 17
0.0
 27
1.0
 37
0.0
 76
     0
330
1F
331
27A
1001
ACAD_PSEXT
1000
KONICA MINOLTA 501 PCL
1000
KONICA MINOLTA 501/421/361PCL
1000
IP_192.168.20.231_(1)
1000

1070
     0
  0
LAYOUT
  5
1E
102
{ACAD_REACTORS
330
1A
102
}
330
1A
100
AcDbPlotSettings
  1

  2
none_device
  4
Letter_(8.50_x_11.00_Inches)
  6

 40
6.349999904632567
 41
6.349999904632567
 42
6.350006103515625
 43
6.350006103515625
 44
215.8999938964844
 45
279.3999938964844
 46
0.0
 47
0.0
 48
0.0
 49
0.0
140
0.0
141
0.0
142
1.0
143
1.0
 70
 15024
 72
     1
 73
     1
 74
     5
  7
SEISA.ctb
 75
    16
147
1.0
 76
     0
 77
     2
 78
   300
148
0.0
149
0.0
100
AcDbLayout
  1
レイアウト1
 70
     1
 71
     1
 10
0.0
 20
0.0
 11
420.0
 21
297.0
 12
0.0
 22
0.0
 32
0.0
 14
1.000000000000000E+20
 24
1.000000000000000E+20
 34
1.000000000000000E+20
 15
-1.000000000000000E+20
 25
-1.000000000000000E+20
 35
-1.000000000000000E+20
146
0.0
 13
0.0
 23
0.0
 33
0.0
 16
1.0
 26
0.0
 36
0.0
 17
0.0
 27
1.0
 37
0.0
 76
     0
330
1B
  0
LAYOUT
  5
26
102
{ACAD_REACTORS
330
1A
102
}
330
1A
100
AcDbPlotSettings
  1

  2
none_device
  4
Letter_(8.50_x_11.00_Inches)
  6

 40
6.349999904632567
 41
6.349999904632567
 42
6.350006103515625
 43
6.350006103515625
 44
215.8999938964844
 45
279.3999938964844
 46
0.0
 47
0.0
 48
0.0
 49
0.0
140
0.0
141
0.0
142
1.0
143
1.0
 70
 15024
 72
     1
 73
     1
 74
     5
  7
SEISA.ctb
 75
    16
147
1.0
 76
     0
 77
     2
 78
   300
148
0.0
149
0.0
100
AcDbLayout
  1
レイアウト2
 70
     1
 71
     2
 10
0.0
 20
0.0
 11
12.0
 21
9.0
 12
0.0
 22
0.0
 32
0.0
 14
0.0
 24
0.0
 34
0.0
 15
0.0
 25
0.0
 35
0.0
146
0.0
 13
0.0
 23
0.0
 33
0.0
 16
1.0
 26
0.0
 36
0.0
 17
0.0
 27
1.0
 37
0.0
 76
     0
330
23
  0
MATERIAL
  5
27D
102
{ACAD_REACTORS
330
C4
102
}
330
C4
100
AcDbMaterial
  1
ByBlock
 73
     1
 78
     1
172
     1
176
     1
270
     1
274
     1
 94
       63
  0
MATERIAL
  5
27C
102
{ACAD_REACTORS
330
C4
102
}
330
C4
100
AcDbMaterial
  1
ByLayer
 73
     1
 78
     1
172
     1
176
     1
270
     1
274
     1
 94
       63
  0
MATERIAL
  5
27E
102
{ACAD_REACTORS
330
C4
102
}
330
C4
100
AcDbMaterial
  1
Global
 73
     1
 78
     1
172
     1
176
     1
270
     1
274
     1
 94
       63
  0
MLEADERSTYLE
  5
2D6
102
{ACAD_REACTORS
330
2D5
102
}
330
2D5
100
AcDbMLeaderStyle
170
     2
171
     1
172
     0
 90
        2
 40
0.0
 41
0.0
173
     1
 91
-1056964608
340
14
 92
       -2
290
     1
 42
2.0
291
     1
 43
0.36
  3
Standard
 44
4.0
300

342
11
174
     1
178
     6
175
     1
176
     0
 93
-1056964608
 45
4.0
292
     0
297
     0
 46
4.0
 94
-1056964608
 47
1.0
 49
1.0
140
1.0
293
     1
141
0.0
294
     1
177
     0
142
1.0
295
     0
296
     0
143
0.125
1001
ACAD_MLEADERVER
1070
     2
  0
MLINESTYLE
  5
18
102
{ACAD_REACTORS
330
17
102
}
330
17
100
AcDbMlineStyle
  2
STANDARD
 70
     0
  3

 62
   256
 51
90.0
 52
90.0
 71
     2
 49
0.5
 62
   256
  6
BYLAYER
 49
-0.5
 62
   256
  6
BYLAYER
  0
PLOTSETTINGS
  5
1C7E
102
{ACAD_REACTORS
330
19
102
}
330
19
100
AcDbPlotSettings
  1
SEISA基本
  2
none_device
  4
Letter_(8.50_x_11.00_Inches)
  6

 40
6.349999904632567
 41
6.349999904632567
 42
6.350006103515625
 43
6.350006103515625
 44
215.8999938964844
 45
279.3999938964844
 46
7.302498226506357
 47
0.0
 48
0.0
 49
0.0
140
0.0
141
0.0
142
1.0
143
1.574803221122935
 70
 11956
 72
     1
 73
     1
 74
     2
  7
SEISA.ctb
 75
     0
147
0.6349999711627054
 76
     0
 77
     2
 78
   300
148
0.0
149
0.0
1001
ACAD_PSEXT
1000
なし
1000
なし
1000
適切ではありません
1000
新しいプロッタ環境設定名を選択しない限り、レイアウトは印刷されません。
1070
     0
  0
ACDBPLACEHOLDER
  5
F
102
{ACAD_REACTORS
330
E
102
}
330
E
  0
SCALE
  5
44A7
102
{ACAD_REACTORS
330
2B3
102
}
330
2B3
100
AcDbScale
 70
     0
300
1:1.5
140
1.0
141
1.5
290
     0
  0
SCALE
  5
9F41
102
{ACAD_REACTORS
330
2B3
102
}
330
2B3
100
AcDbScale
 70
     0
300
1:2.5
140
1.0
141
2.5
290
     0
  0
SCALE
  5
2B4
102
{ACAD_REACTORS
330
2B3
102
}
330
2B3
100
AcDbScale
 70
     0
300
1:1
140
1.0
141
1.0
290
     1
  0
SCALE
  5
2B5
102
{ACAD_REACTORS
330
2B3
102
}
330
2B3
100
AcDbScale
 70
     0
300
1:2
140
1.0
141
2.0
290
     0
  0
SCALE
  5
2B6
102
{ACAD_REACTORS
330
2B3
102
}
330
2B3
100
AcDbScale
 70
     0
300
1:4
140
1.0
141
4.0
290
     0
  0
SCALE
  5
2B7
102
{ACAD_REACTORS
330
2B3
102
}
330
2B3
100
AcDbScale
 70
     0
300
1:5
140
1.0
141
5.0
290
     0
  0
SCALE
  5
2B8
102
{ACAD_REACTORS
330
2B3
102
}
330
2B3
100
AcDbScale
 70
     0
300
1:8
140
1.0
141
8.0
290
     0
  0
SCALE
  5
2B9
102
{ACAD_REACTORS
330
2B3
102
}
330
2B3
100
AcDbScale
 70
     0
300
1:10
140
1.0
141
10.0
290
     0
  0
SCALE
  5
2BA
102
{ACAD_REACTORS
330
2B3
102
}
330
2B3
100
AcDbScale
 70
     0
300
1:16
140
1.0
141
16.0
290
     0
  0
SCALE
  5
2BB
102
{ACAD_REACTORS
330
2B3
102
}
330
2B3
100
AcDbScale
 70
     0
300
1:20
140
1.0
141
20.0
290
     0
  0
SCALE
  5
2BC
102
{ACAD_REACTORS
330
2B3
102
}
330
2B3
100
AcDbScale
 70
     0
300
1:30
140
1.0
141
30.0
290
     0
  0
SCALE
  5
2BD
102
{ACAD_REACTORS
330
2B3
102
}
330
2B3
100
AcDbScale
 70
     0
300
1:40
140
1.0
141
40.0
290
     0
  0
SCALE
  5
2BE
102
{ACAD_REACTORS
330
2B3
102
}
330
2B3
100
AcDbScale
 70
     0
300
1:50
140
1.0
141
50.0
290
     0
  0
SCALE
  5
2BF
102
{ACAD_REACTORS
330
2B3
102
}
330
2B3
100
AcDbScale
 70
     0
300
1:100
140
1.0
141
100.0
290
     0
  0
SCALE
  5
2C0
102
{ACAD_REACTORS
330
2B3
102
}
330
2B3
100
AcDbScale
 70
     0
300
2:1
140
2.0
141
1.0
290
     0
  0
SCALE
  5
2C1
102
{ACAD_REACTORS
330
2B3
102
}
330
2B3
100
AcDbScale
 70
     0
300
4:1
140
4.0
141
1.0
290
     0
  0
SCALE
  5
2C2
102
{ACAD_REACTORS
330
2B3
102
}
330
2B3
100
AcDbScale
 70
     0
300
8:1
140
8.0
141
1.0
290
     0
  0
SCALE
  5
2C3
102
{ACAD_REACTORS
330
2B3
102
}
330
2B3
100
AcDbScale
 70
     0
300
10:1
140
10.0
141
1.0
290
     0
  0
SCALE
  5
2C4
102
{ACAD_REACTORS
330
2B3
102
}
330
2B3
100
AcDbScale
 70
     0
300
100:1
140
100.0
141
1.0
290
     0
  0
SCALE
  5
2C5
102
{ACAD_REACTORS
330
2B3
102
}
330
2B3
100
AcDbScale
 70
     0
300
1/128" = 1'-0"
140
0.0078125
141
12.0
290
     0
  0
SCALE
  5
2C6
102
{ACAD_REACTORS
330
2B3
102
}
330
2B3
100
AcDbScale
 70
     0
300
1/64" = 1'-0"
140
0.015625
141
12.0
290
     0
  0
SCALE
  5
2C7
102
{ACAD_REACTORS
330
2B3
102
}
330
2B3
100
AcDbScale
 70
     0
300
1/32" = 1'-0"
140
0.03125
141
12.0
290
     0
  0
SCALE
  5
2C8
102
{ACAD_REACTORS
330
2B3
102
}
330
2B3
100
AcDbScale
 70
     0
300
1/16" = 1'-0"
140
0.0625
141
12.0
290
     0
  0
SCALE
  5
2C9
102
{ACAD_REACTORS
330
2B3
102
}
330
2B3
100
AcDbScale
 70
     0
300
3/32" = 1'-0"
140
0.09375
141
12.0
290
     0
  0
SCALE
  5
2CA
102
{ACAD_REACTORS
330
2B3
102
}
330
2B3
100
AcDbScale
 70
     0
300
1/8" = 1'-0"
140
0.125
141
12.0
290
     0
  0
SCALE
  5
2CB
102
{ACAD_REACTORS
330
2B3
102
}
330
2B3
100
AcDbScale
 70
     0
300
3/16" = 1'-0"
140
0.1875
141
12.0
290
     0
  0
SCALE
  5
2CC
102
{ACAD_REACTORS
330
2B3
102
}
330
2B3
100
AcDbScale
 70
     0
300
1/4" = 1'-0"
140
0.25
141
12.0
290
     0
  0
SCALE
  5
2CD
102
{ACAD_REACTORS
330
2B3
102
}
330
2B3
100
AcDbScale
 70
     0
300
3/8" = 1'-0"
140
0.375
141
12.0
290
     0
  0
SCALE
  5
2CE
102
{ACAD_REACTORS
330
2B3
102
}
330
2B3
100
AcDbScale
 70
     0
300
1/2" = 1'-0"
140
0.5
141
12.0
290
     0
  0
SCALE
  5
2CF
102
{ACAD_REACTORS
330
2B3
102
}
330
2B3
100
AcDbScale
 70
     0
300
3/4" = 1'-0"
140
0.75
141
12.0
290
     0
  0
SCALE
  5
2D0
102
{ACAD_REACTORS
330
2B3
102
}
330
2B3
100
AcDbScale
 70
     0
300
1" = 1'-0"
140
1.0
141
12.0
290
     0
  0
SCALE
  5
2D1
102
{ACAD_REACTORS
330
2B3
102
}
330
2B3
100
AcDbScale
 70
     0
300
1-1/2" = 1'-0"
140
1.5
141
12.0
290
     0
  0
SCALE
  5
2D2
102
{ACAD_REACTORS
330
2B3
102
}
330
2B3
100
AcDbScale
 70
     0
300
3" = 1'-0"
140
3.0
141
12.0
290
     0
  0
SCALE
  5
2D3
102
{ACAD_REACTORS
330
2B3
102
}
330
2B3
100
AcDbScale
 70
     0
300
6" = 1'-0"
140
6.0
141
12.0
290
     0
  0
SCALE
  5
2D4
102
{ACAD_REACTORS
330
2B3
102
}
330
2B3
100
AcDbScale
 70
     0
300
1'-0" = 1'-0"
140
12.0
141
12.0
290
     0
  0
TABLESTYLE
  5
122
102
{ACAD_XDICTIONARY
360
2F5
102
}
102
{ACAD_REACTORS
330
121
102
}
330
121
100
AcDbTableStyle
  3
Standard
 70
     0
 71
     0
 40
1.5
 41
1.5
280
     0
281
     0
  7
STANDARD
140
4.5
170
     2
 62
     0
 63
     7
283
     0
 90
      512
 91
        0
  1

274
    -2
284
     1
 64
     0
275
    -2
285
     1
 65
     0
276
    -2
286
     1
 66
     0
277
    -2
287
     1
 67
     0
278
    -2
288
     1
 68
     0
279
    -2
289
     1
 69
     0
  7
STANDARD
140
6.0
170
     5
 62
     0
 63
     7
283
     0
 90
      512
 91
        0
  1

274
    -2
284
     1
 64
     0
275
    -2
285
     1
 65
     0
276
    -2
286
     1
 66
     0
277
    -2
287
     1
 67
     0
278
    -2
288
     1
 68
     0
279
    -2
289
     1
 69
     0
  7
STANDARD
140
4.5
170
     5
 62
     0
 63
     7
283
     0
 90
      512
 91
        0
  1

274
    -2
284
     1
 64
     0
275
    -2
285
     1
 65
     0
276
    -2
286
     1
 66
     0
277
    -2
287
     1
 67
     0
278
    -2
288
     1
 68
     0
279
    -2
289
     1
 69
     0
  0
VISUALSTYLE
  5
285
102
{ACAD_REACTORS
330
27F
102
}
330
27F
100
AcDbVisualStyle
  2
2dWireframe
 70
     4
 71
     0
 72
     2
 73
     0
 90
        0
 40
-0.6
 41
-30.0
 62
     5
 63
     7
421
 16777215
 74
     1
 91
        4
 64
     7
 65
   257
 75
     1
175
     1
 42
1.0
 92
        0
 66
   257
 43
1.0
 76
     1
 77
     6
 78
     2
 67
     7
 79
     5
170
     0
171
     0
290
     0
174
     0
 93
        1
 44
0.0
173
     0
291
     0
 45
0.0
  0
VISUALSTYLE
  5
287
102
{ACAD_REACTORS
330
27F
102
}
330
27F
100
AcDbVisualStyle
  2
3D Hidden
 70
     6
 71
     1
 72
     2
 73
     2
 90
        0
 40
-0.6
 41
-30.0
 62
     5
 63
     7
421
 16777215
 74
     2
 91
        2
 64
     7
 65
   257
 75
     2
175
     1
 42
40.0
 92
        0
 66
   257
 43
1.0
 76
     1
 77
     6
 78
     2
 67
     7
 79
     3
170
     0
171
     0
290
     0
174
     0
 93
        1
 44
0.0
173
     0
291
     0
 45
0.0
  0
VISUALSTYLE
  5
286
102
{ACAD_REACTORS
330
27F
102
}
330
27F
100
AcDbVisualStyle
  2
3dWireframe
 70
     5
 71
     0
 72
     2
 73
     0
 90
        0
 40
-0.6
 41
-30.0
 62
     5
 63
     7
421
 16777215
 74
     1
 91
        4
 64
     7
 65
   257
 75
     1
175
     1
 42
1.0
 92
        0
 66
   257
 43
1.0
 76
     1
 77
     6
 78
     2
 67
     7
 79
     5
170
     0
171
     0
290
     0
174
     0
 93
        1
 44
0.0
173
     0
291
     0
 45
0.0
  0
VISUALSTYLE
  5
284
102
{ACAD_REACTORS
330
27F
102
}
330
27F
100
AcDbVisualStyle
  2
Basic
 70
     7
 71
     1
 72
     0
 73
     1
 90
        0
 40
-0.6
 41
-30.0
 62
     5
 63
     7
421
 16777215
 74
     0
 91
        4
 64
     7
 65
   257
 75
     1
175
     1
 42
1.0
 92
        8
 66
     7
 43
1.0
 76
     1
 77
     6
 78
     2
 67
     7
 79
     5
170
     0
171
     0
290
     0
174
     0
 93
        1
 44
0.0
173
     0
291
     1
 45
0.0
  0
VISUALSTYLE
  5
28B
102
{ACAD_REACTORS
330
27F
102
}
330
27F
100
AcDbVisualStyle
  2
Brighten
 70
    12
 71
     2
 72
     2
 73
     0
 90
        0
 40
-0.6
 41
-30.0
 62
     5
 63
     7
421
 16777215
 74
     1
 91
        4
 64
     7
 65
   257
 75
     1
175
     1
 42
1.0
 92
        8
 66
     7
 43
1.0
 76
     1
 77
     6
 78
     2
 67
     7
 79
     5
170
     0
171
     0
290
     0
174
     0
 93
        1
 44
50.0
173
     0
291
     1
 45
0.0
  0
VISUALSTYLE
  5
28F
102
{ACAD_REACTORS
330
27F
102
}
330
27F
100
AcDbVisualStyle
  2
ColorChange
 70
    16
 71
     2
 72
     2
 73
     3
 90
        0
 40
-0.6
 41
-30.0
 62
     5
 63
     8
421
  8421504
 74
     1
 91
        4
 64
     7
 65
   257
 75
     1
175
     1
 42
1.0
 92
        8
 66
     8
424
  8421504
 43
1.0
 76
     1
 77
     6
 78
     2
 67
     7
 79
     5
170
     0
171
     0
290
     0
174
     0
 93
        1
 44
0.0
173
     0
291
     1
 45
0.0
  0
VISUALSTYLE
  5
288
102
{ACAD_REACTORS
330
27F
102
}
330
27F
100
AcDbVisualStyle
  2
Conceptual
 70
     9
 71
     3
 72
     2
 73
     0
 90
        0
 40
-0.6
 41
-30.0
 62
     5
 63
     7
421
 16777215
 74
     2
 91
        2
 64
     7
 65
   257
 75
     1
175
     1
 42
40.0
 92
        8
 66
     7
 43
1.0
 76
     1
 77
     6
 78
     2
 67
     7
 79
     3
170
     0
171
     0
290
     0
174
     0
 93
        1
 44
0.0
173
     0
291
     0
 45
0.0
  0
VISUALSTYLE
  5
28A
102
{ACAD_REACTORS
330
27F
102
}
330
27F
100
AcDbVisualStyle
  2
Dim
 70
    11
 71
     2
 72
     2
 73
     0
 90
        0
 40
-0.6
 41
-30.0
 62
     5
 63
     7
421
 16777215
 74
     1
 91
        4
 64
     7
 65
   257
 75
     1
175
     1
 42
1.0
 92
        8
 66
     7
 43
1.0
 76
     1
 77
     6
 78
     2
 67
     7
 79
     5
170
     0
171
     0
290
     0
174
     0
 93
        1
 44
-50.0
173
     0
291
     1
 45
0.0
  0
VISUALSTYLE
  5
28E
102
{ACAD_REACTORS
330
27F
102
}
330
27F
100
AcDbVisualStyle
  2
Facepattern
 70
    15
 71
     2
 72
     2
 73
     0
 90
        0
 40
-0.6
 41
-30.0
 62
     5
 63
     7
421
 16777215
 74
     1
 91
        4
 64
     7
 65
   257
 75
     1
175
     1
 42
1.0
 92
        8
 66
     7
 43
1.0
 76
     1
 77
     6
 78
     2
 67
     7
 79
     5
170
     0
171
     0
290
     0
174
     0
 93
        1
 44
0.0
173
     0
291
     1
 45
0.0
  0
VISUALSTYLE
  5
280
102
{ACAD_REACTORS
330
27F
102
}
330
27F
100
AcDbVisualStyle
  2
Flat
 70
     0
 71
     2
 72
     1
 73
     1
 90
        2
 40
-0.6
 41
30.0
 62
     5
 63
     7
421
 16777215
 74
     0
 91
        4
 64
     7
 65
   257
 75
     1
175
     1
 42
1.0
 92
        8
 66
     7
 43
1.0
 76
     1
 77
     6
 78
     2
 67
     7
 79
     5
170
     0
171
     0
290
     0
174
     0
 93
       13
 44
0.0
173
     0
291
     1
 45
0.0
  0
VISUALSTYLE
  5
281
102
{ACAD_REACTORS
330
27F
102
}
330
27F
100
AcDbVisualStyle
  2
FlatWithEdges
 70
     1
 71
     2
 72
     1
 73
     1
 90
        2
 40
-0.6
 41
30.0
 62
     5
 63
     7
421
 16777215
 74
     1
 91
        4
 64
     7
 65
   257
 75
     1
175
     1
 42
1.0
 92
        0
 66
   257
 43
1.0
 76
     1
 77
     6
 78
     2
 67
     7
 79
     5
170
     0
171
     0
290
     0
174
     0
 93
       13
 44
0.0
173
     0
291
     1
 45
0.0
  0
VISUALSTYLE
  5
282
102
{ACAD_REACTORS
330
27F
102
}
330
27F
100
AcDbVisualStyle
  2
Gouraud
 70
     2
 71
     2
 72
     2
 73
     1
 90
        2
 40
-0.6
 41
30.0
 62
     5
 63
     7
421
 16777215
 74
     0
 91
        4
 64
     7
 65
   257
 75
     1
175
     1
 42
1.0
 92
        0
 66
     7
 43
1.0
 76
     1
 77
     6
 78
     2
 67
     7
 79
     5
170
     0
171
     0
290
     0
174
     0
 93
       13
 44
0.0
173
     0
291
     1
 45
0.0
  0
VISUALSTYLE
  5
283
102
{ACAD_REACTORS
330
27F
102
}
330
27F
100
AcDbVisualStyle
  2
GouraudWithEdges
 70
     3
 71
     2
 72
     2
 73
     1
 90
        2
 40
-0.6
 41
30.0
 62
     5
 63
     7
421
 16777215
 74
     1
 91
        4
 64
     7
 65
   257
 75
     1
175
     1
 42
1.0
 92
        0
 66
   257
 43
1.0
 76
     1
 77
     6
 78
     2
 67
     7
 79
     5
170
     0
171
     0
290
     0
174
     0
 93
       13
 44
0.0
173
     0
291
     1
 45
0.0
  0
VISUALSTYLE
  5
28D
102
{ACAD_REACTORS
330
27F
102
}
330
27F
100
AcDbVisualStyle
  2
Linepattern
 70
    14
 71
     2
 72
     2
 73
     0
 90
        0
 40
-0.6
 41
-30.0
 62
     5
 63
     7
421
 16777215
 74
     1
 91
        4
 64
     7
 65
   257
 75
     7
175
     7
 42
1.0
 92
        8
 66
     7
 43
1.0
 76
     1
 77
     6
 78
     2
 67
     7
 79
     5
170
     0
171
     0
290
     0
174
     0
 93
        1
 44
0.0
173
     0
291
     1
 45
0.0
  0
VISUALSTYLE
  5
289
102
{ACAD_REACTORS
330
27F
102
}
330
27F
100
AcDbVisualStyle
  2
Realistic
 70
     8
 71
     2
 72
     2
 73
     0
 90
        0
 40
-0.6
 41
-30.0
 62
     5
 63
     7
421
 16777215
 74
     1
 91
        0
 64
     7
 65
   257
 75
     1
175
     1
 42
1.0
 92
        8
 66
     8
424
  7895160
 43
1.0
 76
     1
 77
     6
 78
     2
 67
     7
 79
     5
170
     0
171
     0
290
     0
174
     0
 93
       13
 44
0.0
173
     0
291
     0
 45
0.0
  0
VISUALSTYLE
  5
28C
102
{ACAD_REACTORS
330
27F
102
}
330
27F
100
AcDbVisualStyle
  2
Thicken
 70
    13
 71
     2
 72
     2
 73
     0
 90
        0
 40
-0.6
 41
-30.0
 62
     5
 63
     7
421
 16777215
 74
     1
 91
        4
 64
     7
 65
   257
 75
     1
175
     1
 42
1.0
 92
       12
 66
     7
 43
1.0
 76
     1
 77
     6
 78
     2
 67
     7
 79
     5
170
     0
171
     0
290
     0
174
     0
 93
        1
 44
0.0
173
     0
291
     1
 45
0.0
  0
DICTIONARYVAR
  5
2FA
102
{ACAD_REACTORS
330
34
102
}
330
34
100
DictionaryVariables
280
     0
  1
1:5
  0
DICTIONARYVAR
  5
2F8
102
{ACAD_REACTORS
330
34
102
}
330
34
100
DictionaryVariables
280
     0
  1
STANDARD
  0
DICTIONARYVAR
  5
140
102
{ACAD_REACTORS
330
34
102
}
330
34
100
DictionaryVariables
280
     0
  1
STANDARD
  0
DICTIONARYVAR
  5
AC
102
{ACAD_REACTORS
330
34
102
}
330
34
100
DictionaryVariables
280
     0
  1
1
  0
DICTIONARYVAR
  5
35
102
{ACAD_REACTORS
330
34
102
}
330
34
100
DictionaryVariables
280
     0
  1
1
  0
DICTIONARYVAR
  5
79AF
102
{ACAD_REACTORS
330
34
102
}
330
34
100
DictionaryVariables
280
     0
  1
1
  0
DICTIONARYVAR
  5
79B0
102
{ACAD_REACTORS
330
34
102
}
330
34
100
DictionaryVariables
280
     0
  1
15
  0
DICTIONARYVAR
  5
2FB
102
{ACAD_REACTORS
330
34
102
}
330
34
100
DictionaryVariables
280
     0
  1
0
  0
DICTIONARYVAR
  5
2F9
102
{ACAD_REACTORS
330
34
102
}
330
34
100
DictionaryVariables
280
     0
  1
0
  0
DICTIONARY
  5
161B
102
{ACAD_REACTORS
330
49
102
}
330
49
100
AcDbDictionary
281
     1
  0
DICTIONARY
  5
4A
102
{ACAD_REACTORS
330
49
102
}
330
49
100
AcDbDictionary
281
     1
  0
XRECORD
  5
12B
102
{ACAD_REACTORS
330
49
102
}
330
49
100
AcDbXrecord
280
     1
 90
-1023410169
  0
DICTIONARY
  5
2F5
330
122
100
AcDbDictionary
280
     1
281
     1
  3
ACAD_ROUNDTRIP_2008_TABLESTYLE_CELLSTYLEMAP
360
A478
  0
CELLSTYLEMAP
  5
A478
102
{ACAD_REACTORS
330
2F5
102
}
330
2F5
100
AcDbCellStyleMap
 90
        3
300
CELLSTYLE
  1
TABLEFORMAT_BEGIN
 90
        5
170
     1
 91
        0
 92
    32768
 62
   257
 93
        1
300
CONTENTFORMAT
  1
CONTENTFORMAT_BEGIN
 90
        0
 91
        0
 92
      512
 93
        0
300

 40
0.0
140
1.0
 94
        5
 62
     0
340
11
144
6.0
309
CONTENTFORMAT_END
171
     1
301
MARGIN
  1
CELLMARGIN_BEGIN
 40
1.5
 40
1.5
 40
1.5
 40
1.5
 40
0.18
 40
0.18
309
CELLMARGIN_END
 94
        6
 95
        1
302
GRIDFORMAT
  1
GRIDFORMAT_BEGIN
 90
        0
 91
        1
 62
     0
 92
       -2
340
0
 93
        0
 40
0.045
309
GRIDFORMAT_END
 95
        2
302
GRIDFORMAT
  1
GRIDFORMAT_BEGIN
 90
        0
 91
        1
 62
     0
 92
       -2
340
0
 93
        0
 40
0.045
309
GRIDFORMAT_END
 95
        4
302
GRIDFORMAT
  1
GRIDFORMAT_BEGIN
 90
        0
 91
        1
 62
     0
 92
       -2
340
0
 93
        0
 40
0.045
309
GRIDFORMAT_END
 95
        8
302
GRIDFORMAT
  1
GRIDFORMAT_BEGIN
 90
        0
 91
        1
 62
     0
 92
       -2
340
0
 93
        0
 40
0.045
309
GRIDFORMAT_END
 95
       16
302
GRIDFORMAT
  1
GRIDFORMAT_BEGIN
 90
        0
 91
        1
 62
     0
 92
       -2
340
0
 93
        0
 40
0.045
309
GRIDFORMAT_END
 95
       32
302
GRIDFORMAT
  1
GRIDFORMAT_BEGIN
 90
        0
 91
        1
 62
     0
 92
       -2
340
0
 93
        0
 40
0.045
309
GRIDFORMAT_END
309
TABLEFORMAT_END
  1
CELLSTYLE_BEGIN
 90
        1
 91
        1
300
_TITLE
309
CELLSTYLE_END
300
CELLSTYLE
  1
TABLEFORMAT_BEGIN
 90
        5
170
     1
 91
        0
 92
        0
 62
   257
 93
        1
300
CONTENTFORMAT
  1
CONTENTFORMAT_BEGIN
 90
        0
 91
        0
 92
      512
 93
        0
300

 40
0.0
140
1.0
 94
        5
 62
     0
340
11
144
4.5
309
CONTENTFORMAT_END
171
     1
301
MARGIN
  1
CELLMARGIN_BEGIN
 40
1.5
 40
1.5
 40
1.5
 40
1.5
 40
0.18
 40
0.18
309
CELLMARGIN_END
 94
        6
 95
        1
302
GRIDFORMAT
  1
GRIDFORMAT_BEGIN
 90
        0
 91
        1
 62
     0
 92
       -2
340
0
 93
        0
 40
0.045
309
GRIDFORMAT_END
 95
        2
302
GRIDFORMAT
  1
GRIDFORMAT_BEGIN
 90
        0
 91
        1
 62
     0
 92
       -2
340
0
 93
        0
 40
0.045
309
GRIDFORMAT_END
 95
        4
302
GRIDFORMAT
  1
GRIDFORMAT_BEGIN
 90
        0
 91
        1
 62
     0
 92
       -2
340
0
 93
        0
 40
0.045
309
GRIDFORMAT_END
 95
        8
302
GRIDFORMAT
  1
GRIDFORMAT_BEGIN
 90
        0
 91
        1
 62
     0
 92
       -2
340
0
 93
        0
 40
0.045
309
GRIDFORMAT_END
 95
       16
302
GRIDFORMAT
  1
GRIDFORMAT_BEGIN
 90
        0
 91
        1
 62
     0
 92
       -2
340
0
 93
        0
 40
0.045
309
GRIDFORMAT_END
 95
       32
302
GRIDFORMAT
  1
GRIDFORMAT_BEGIN
 90
        0
 91
        1
 62
     0
 92
       -2
340
0
 93
        0
 40
0.045
309
GRIDFORMAT_END
309
TABLEFORMAT_END
  1
CELLSTYLE_BEGIN
 90
        2
 91
        1
300
_HEADER
309
CELLSTYLE_END
300
CELLSTYLE
  1
TABLEFORMAT_BEGIN
 90
        5
170
     1
 91
        0
 92
        0
 62
   257
 93
        1
300
CONTENTFORMAT
  1
CONTENTFORMAT_BEGIN
 90
        0
 91
        0
 92
      512
 93
        0
300

 40
0.0
140
1.0
 94
        2
 62
     0
340
11
144
4.5
309
CONTENTFORMAT_END
171
     1
301
MARGIN
  1
CELLMARGIN_BEGIN
 40
1.5
 40
1.5
 40
1.5
 40
1.5
 40
0.18
 40
0.18
309
CELLMARGIN_END
 94
        6
 95
        1
302
GRIDFORMAT
  1
GRIDFORMAT_BEGIN
 90
        0
 91
        1
 62
     0
 92
       -2
340
0
 93
        0
 40
0.045
309
GRIDFORMAT_END
 95
        2
302
GRIDFORMAT
  1
GRIDFORMAT_BEGIN
 90
        0
 91
        1
 62
     0
 92
       -2
340
0
 93
        0
 40
0.045
309
GRIDFORMAT_END
 95
        4
302
GRIDFORMAT
  1
GRIDFORMAT_BEGIN
 90
        0
 91
        1
 62
     0
 92
       -2
340
0
 93
        0
 40
0.045
309
GRIDFORMAT_END
 95
        8
302
GRIDFORMAT
  1
GRIDFORMAT_BEGIN
 90
        0
 91
        1
 62
     0
 92
       -2
340
0
 93
        0
 40
0.045
309
GRIDFORMAT_END
 95
       16
302
GRIDFORMAT
  1
GRIDFORMAT_BEGIN
 90
        0
 91
        1
 62
     0
 92
       -2
340
0
 93
        0
 40
0.045
309
GRIDFORMAT_END
 95
       32
302
GRIDFORMAT
  1
GRIDFORMAT_BEGIN
 90
        0
 91
        1
 62
     0
 92
       -2
340
0
 93
        0
 40
0.045
309
GRIDFORMAT_END
309
TABLEFORMAT_END
  1
CELLSTYLE_BEGIN
 90
        3
 91
        2
300
_DATA
309
CELLSTYLE_END
  0
ENDSEC
  0
EOF
