  0
SECTION
  2
HEADER
  9
$ACADVER
  1
AC1021
  9
$ACADMAINTVER
 70
    26
  9
$DWGCODEPAGE
  3
ANSI_932
  9
$LASTSAVEDBY
  1
Htm_Terada
  9
$CUSTOMPROPERTYTAG
  1
AmdtFileType
  9
$CUSTOMPROPERTY
  1
84
  9
$INSBASE
 10
0.0
 20
0.0
 30
0.0
  9
$EXTMIN
 10
355.8333126795734
 20
662.0285570416921
 30
0.0
  9
$EXTMAX
 10
1367.709959854538
 20
1094.708048941692
 30
0.0
  9
$LIMMIN
 10
0.0000007657354217
 20
0.000001477528258
  9
$LIMMAX
 10
1680.000000765735
 20
1188.000001477528
  9
$ORTHOMODE
 70
     0
  9
$REGENMODE
 70
     1
  9
$FILLMODE
 70
     1
  9
$QTEXTMODE
 70
     0
  9
$MIRRTEXT
 70
     1
  9
$LTSCALE
 40
4.0
  9
$ATTMODE
 70
     1
  9
$TEXTSIZE
 40
25.0
  9
$TRACEWID
 40
1.0
  9
$TEXTSTYLE
  7
SEISA
  9
$CLAYER
  8
AM_0 外形線1
  9
$CELTYPE
  6
ByLayer
  9
$CECOLOR
 62
   256
  9
$CELTSCALE
 40
1.0
  9
$DISPSILH
 70
     0
  9
$DIMSCALE
 40
4.0
  9
$DIMASZ
 40
2.5
  9
$DIMEXO
 40
0.625
  9
$DIMDLI
 40
10.0
  9
$DIMRND
 40
0.0
  9
$DIMDLE
 40
0.0
  9
$DIMEXE
 40
0.625
  9
$DIMTP
 40
0.1
  9
$DIMTM
 40
0.1
  9
$DIMTXT
 40
3.5
  9
$DIMCEN
 40
0.0
  9
$DIMTSZ
 40
0.0
  9
$DIMTOL
 70
     0
  9
$DIMLIM
 70
     0
  9
$DIMTIH
 70
     0
  9
$DIMTOH
 70
     0
  9
$DIMSE1
 70
     0
  9
$DIMSE2
 70
     0
  9
$DIMTAD
 70
     3
  9
$DIMZIN
 70
     8
  9
$DIMBLK
  1
Open30
  9
$DIMASO
 70
     1
  9
$DIMSHO
 70
     1
  9
$DIMPOST
  1

  9
$DIMAPOST
  1
"
  9
$DIMALT
 70
     0
  9
$DIMALTD
 70
     2
  9
$DIMALTF
 40
0.0393701
  9
$DIMLFAC
 40
1.0
  9
$DIMTOFL
 70
     1
  9
$DIMTVP
 40
0.0
  9
$DIMTIX
 70
     0
  9
$DIMSOXD
 70
     0
  9
$DIMSAH
 70
     0
  9
$DIMBLK1
  1

  9
$DIMBLK2
  1

  9
$DIMSTYLE
  2
SEISA
  9
$DIMCLRD
 70
     3
  9
$DIMCLRE
 70
     3
  9
$DIMCLRT
 70
     3
  9
$DIMTFAC
 40
0.71
  9
$DIMGAP
 40
1.5
  9
$DIMJUST
 70
     0
  9
$DIMSD1
 70
     0
  9
$DIMSD2
 70
     0
  9
$DIMTOLJ
 70
     0
  9
$DIMTZIN
 70
     0
  9
$DIMALTZ
 70
     0
  9
$DIMALTTZ
 70
     8
  9
$DIMUPT
 70
     0
  9
$DIMDEC
 70
     2
  9
$DIMTDEC
 70
     2
  9
$DIMALTU
 70
     2
  9
$DIMALTTD
 70
     2
  9
$DIMTXSTY
  7
SEISA
  9
$DIMAUNIT
 70
     0
  9
$DIMADEC
 70
     0
  9
$DIMALTRND
 40
0.0
  9
$DIMAZIN
 70
     2
  9
$DIMDSEP
 70
    46
  9
$DIMATFIT
 70
     3
  9
$DIMFRAC
 70
     0
  9
$DIMLDRBLK
  1
Open30
  9
$DIMLUNIT
 70
     2
  9
$DIMLWD
 70
    -1
  9
$DIMLWE
 70
    -1
  9
$DIMTMOVE
 70
     0
  9
$DIMFXL
 40
1.0
  9
$DIMFXLON
 70
     0
  9
$DIMJOGANG
 40
0.7853981633974483
  9
$DIMTFILL
 70
     0
  9
$DIMTFILLCLR
 70
     0
  9
$DIMARCSYM
 70
     1
  9
$DIMLTYPE
  6

  9
$DIMLTEX1
  6

  9
$DIMLTEX2
  6

  9
$LUNITS
 70
     2
  9
$LUPREC
 70
     2
  9
$SKETCHINC
 40
1.0
  9
$FILLETRAD
 40
0.6
  9
$AUNITS
 70
     0
  9
$AUPREC
 70
     0
  9
$MENU
  1
.
  9
$ELEVATION
 40
0.0
  9
$PELEVATION
 40
0.0
  9
$THICKNESS
 40
0.0
  9
$LIMCHECK
 70
     0
  9
$CHAMFERA
 40
1.0
  9
$CHAMFERB
 40
1.000000000000113
  9
$CHAMFERC
 40
1.0
  9
$CHAMFERD
 40
0.7853981633974483
  9
$SKPOLY
 70
     0
  9
$TDCREATE
 40
2454965.798979109
  9
$TDUCREATE
 40
2454965.423979109
  9
$TDUPDATE
 40
2456479.585956481
  9
$TDUUPDATE
 40
2456479.210956481
  9
$TDINDWG
 40
0.4358060185
  9
$TDUSRTIMER
 40
0.4358049306
  9
$USRTIMER
 70
     1
  9
$ANGBASE
 50
0.0
  9
$ANGDIR
 70
     0
  9
$PDMODE
 70
     0
  9
$PDSIZE
 40
0.0
  9
$PLINEWID
 40
0.0
  9
$SPLFRAME
 70
     0
  9
$SPLINETYPE
 70
     6
  9
$SPLINESEGS
 70
     8
  9
$HANDSEED
  5
9B7A
  9
$SURFTAB1
 70
     6
  9
$SURFTAB2
 70
     6
  9
$SURFTYPE
 70
     6
  9
$SURFU
 70
     6
  9
$SURFV
 70
     6
  9
$UCSBASE
  2

  9
$UCSNAME
  2

  9
$UCSORG
 10
0.0
 20
0.0
 30
0.0
  9
$UCSXDIR
 10
1.0
 20
0.0
 30
0.0
  9
$UCSYDIR
 10
0.0
 20
1.0
 30
0.0
  9
$UCSORTHOREF
  2

  9
$UCSORTHOVIEW
 70
     0
  9
$UCSORGTOP
 10
0.0
 20
0.0
 30
0.0
  9
$UCSORGBOTTOM
 10
0.0
 20
0.0
 30
0.0
  9
$UCSORGLEFT
 10
0.0
 20
0.0
 30
0.0
  9
$UCSORGRIGHT
 10
0.0
 20
0.0
 30
0.0
  9
$UCSORGFRONT
 10
0.0
 20
0.0
 30
0.0
  9
$UCSORGBACK
 10
0.0
 20
0.0
 30
0.0
  9
$PUCSBASE
  2

  9
$PUCSNAME
  2

  9
$PUCSORG
 10
0.0
 20
0.0
 30
0.0
  9
$PUCSXDIR
 10
1.0
 20
0.0
 30
0.0
  9
$PUCSYDIR
 10
0.0
 20
1.0
 30
0.0
  9
$PUCSORTHOREF
  2

  9
$PUCSORTHOVIEW
 70
     0
  9
$PUCSORGTOP
 10
0.0
 20
0.0
 30
0.0
  9
$PUCSORGBOTTOM
 10
0.0
 20
0.0
 30
0.0
  9
$PUCSORGLEFT
 10
0.0
 20
0.0
 30
0.0
  9
$PUCSORGRIGHT
 10
0.0
 20
0.0
 30
0.0
  9
$PUCSORGFRONT
 10
0.0
 20
0.0
 30
0.0
  9
$PUCSORGBACK
 10
0.0
 20
0.0
 30
0.0
  9
$USERI1
 70
     0
  9
$USERI2
 70
     0
  9
$USERI3
 70
     0
  9
$USERI4
 70
     0
  9
$USERI5
 70
     0
  9
$USERR1
 40
0.0
  9
$USERR2
 40
0.0
  9
$USERR3
 40
0.0
  9
$USERR4
 40
0.0
  9
$USERR5
 40
0.0
  9
$WORLDVIEW
 70
     1
  9
$SHADEDGE
 70
     3
  9
$SHADEDIF
 70
    70
  9
$TILEMODE
 70
     1
  9
$MAXACTVP
 70
    64
  9
$PINSBASE
 10
0.0
 20
0.0
 30
0.0
  9
$PLIMCHECK
 70
     0
  9
$PEXTMIN
 10
1.000000000000000E+20
 20
1.000000000000000E+20
 30
1.000000000000000E+20
  9
$PEXTMAX
 10
-1.000000000000000E+20
 20
-1.000000000000000E+20
 30
-1.000000000000000E+20
  9
$PLIMMIN
 10
0.0
 20
0.0
  9
$PLIMMAX
 10
420.0
 20
297.0
  9
$UNITMODE
 70
     0
  9
$VISRETAIN
 70
     1
  9
$PLINEGEN
 70
     0
  9
$PSLTSCALE
 70
     1
  9
$TREEDEPTH
 70
  3020
  9
$CMLSTYLE
  2
Standard
  9
$CMLJUST
 70
     0
  9
$CMLSCALE
 40
20.0
  9
$PROXYGRAPHICS
 70
     1
  9
$MEASUREMENT
 70
     1
  9
$CELWEIGHT
370
    -1
  9
$ENDCAPS
280
     0
  9
$JOINSTYLE
280
     0
  9
$LWDISPLAY
290
     0
  9
$INSUNITS
 70
     4
  9
$HYPERLINKBASE
  1

  9
$STYLESHEET
  1
SEISA.CTB
  9
$XEDIT
290
     1
  9
$CEPSNTYPE
380
     0
  9
$PSTYLEMODE
290
     1
  9
$FINGERPRINTGUID
  2
{6D808611-46B8-43AF-AFD0-9A38E21EFA1E}
  9
$VERSIONGUID
  2
{34F2281A-4908-4D05-88CA-989BFCB62E7D}
  9
$EXTNAMES
290
     1
  9
$PSVPSCALE
 40
0.0
  9
$OLESTARTUP
290
     0
  9
$SORTENTS
280
   127
  9
$INDEXCTL
280
     0
  9
$HIDETEXT
280
     0
  9
$XCLIPFRAME
290
     0
  9
$HALOGAP
280
     0
  9
$OBSCOLOR
 70
   257
  9
$OBSLTYPE
280
     0
  9
$INTERSECTIONDISPLAY
280
     0
  9
$INTERSECTIONCOLOR
 70
   257
  9
$DIMASSOC
280
     2
  9
$PROJECTNAME
  1

  9
$CAMERADISPLAY
290
     0
  9
$LENSLENGTH
 40
50.0
  9
$CAMERAHEIGHT
 40
0.0
  9
$STEPSPERSEC
 40
2.0
  9
$STEPSIZE
 40
6.0
  9
$3DDWFPREC
 40
2.0
  9
$PSOLWIDTH
 40
0.25
  9
$PSOLHEIGHT
 40
4.0
  9
$LOFTANG1
 40
1.570796326794896
  9
$LOFTANG2
 40
1.570796326794896
  9
$LOFTMAG1
 40
0.0
  9
$LOFTMAG2
 40
0.0
  9
$LOFTPARAM
 70
     7
  9
$LOFTNORMALS
280
     1
  9
$LATITUDE
 40
37.795
  9
$LONGITUDE
 40
-122.394
  9
$NORTHDIRECTION
 40
0.0
  9
$TIMEZONE
 70
 -8000
  9
$LIGHTGLYPHDISPLAY
280
     1
  9
$TILEMODELIGHTSYNCH
280
     1
  9
$CMATERIAL
347
27C
  9
$SOLIDHIST
280
     1
  9
$SHOWHIST
280
     1
  9
$DWFFRAME
280
     2
  9
$DGNFRAME
280
     0
  9
$REALWORLDSCALE
290
     1
  9
$INTERFERECOLOR
 62
     1
  9
$INTERFEREOBJVS
345
289
  9
$INTERFEREVPVS
346
286
  9
$CSHADOW
280
     0
  9
$SHADOWPLANELOCATION
 40
0.0
  0
ENDSEC
  0
SECTION
  2
CLASSES
  0
CLASS
  1
ACDBDICTIONARYWDFLT
  2
AcDbDictionaryWithDefault
  3
ObjectDBX Classes
 90
        0
 91
        1
280
     0
281
     0
  0
CLASS
  1
AMGSETTINGSOBJ
  2
AmgSettingsObj
  3
"AcadM|Product Description: AutoCAD Mechanical|Company: Autodesk, Inc."
 90
     1024
 91
        2
280
     0
281
     0
  0
CLASS
  1
ACME_DOCUMENT
  2
AcMeDbDoc
  3
AcMeServices
 90
     1024
 91
        1
280
     0
281
     0
  0
CLASS
  1
ACMESCOPE
  2
AcMeScope
  3
AcMeServices
 90
     1024
 91
        1
280
     0
281
     0
  0
CLASS
  1
ACMECOMMANDHISTORY
  2
AcMeCommandHistory
  3
AcMeServices
 90
     1024
 91
        1
280
     0
281
     0
  0
CLASS
  1
DICTIONARYVAR
  2
AcDbDictionaryVar
  3
ObjectDBX Classes
 90
        0
 91
        9
280
     0
281
     0
  0
CLASS
  1
ACIMSYSVARMAN
  2
AcImSysVarManager
  3
AcMeServices
 90
     1024
 91
        5
280
     0
281
     0
  0
CLASS
  1
ACIMREALSYSVAR
  2
AcImRealSysVar
  3
AcMeServices
 90
     1024
 91
        1
280
     0
281
     0
  0
CLASS
  1
ACIMINTSYSVAR
  2
AcImIntSysVar
  3
AcMeServices
 90
     1024
 91
       27
280
     0
281
     0
  0
CLASS
  1
ACMEDRAWINGMAN
  2
AcMeDrawingMan
  3
AcMeServices
 90
     1024
 91
        1
280
     0
281
     0
  0
CLASS
  1
ACMEVIEW
  2
AcMeView
  3
AcMeServices
 90
     1024
 91
        1
280
     0
281
     0
  0
CLASS
  1
ACDBENTITYCACHE
  2
AcMeEntityCache
  3
AcMeServices
 90
     1024
 91
        1
280
     0
281
     0
  0
CLASS
  1
GSMANAGER
  2
AcMeGSManager
  3
AcMeServices
 90
     1024
 91
        1
280
     0
281
     0
  0
CLASS
  1
AMDTINTERNALREACTOR
  2
AmdtInternalReactor
  3
AcMeServices
 90
     1024
 91
        2
280
     0
281
     0
  0
CLASS
  1
ACMESTATEMGR
  2
AcMeStateMgr
  3
AcMeServices
 90
     1024
 91
        1
280
     0
281
     0
  0
CLASS
  1
ACGREFMASTER
  2
AcGrefMaster
  3
AcAttribServices
 90
     1024
 91
        1
280
     0
281
     0
  0
CLASS
  1
ACME_DATABASE
  2
AcMeDbDatabase
  3
AcMeServices
 90
     1024
 91
        1
280
     0
281
     0
  0
CLASS
  1
ACRFINSADJUSTERMGR
  2
AcRfInsAdjusterMgr
  3
AcMeServices
 90
     1024
 91
        1
280
     0
281
     0
  0
CLASS
  1
ACGREFACADMASTER
  2
AcGrefacadMaster
  3
AcGrefServices
 90
     1024
 91
        1
280
     0
281
     0
  0
CLASS
  1
AMIMASTER
  2
AmiMaster
  3
AmiServices
 90
     1024
 91
        1
280
     0
281
     0
  0
CLASS
  1
ACIMSTRSYSVAR
  2
AcImStrSysVar
  3
AcMeServices
 90
     1024
 91
        5
280
     0
281
     0
  0
CLASS
  1
ACMSTANDARDJIS
  2
AcmStandardJIS
  3
"Amdt_StdImp|Product Description: AutoCAD Mechanical|Company: Autodesk, Inc."
 90
     1024
 91
        0
280
     0
281
     0
  0
CLASS
  1
AMGOBJPROPCFG
  2
AmgObjPropCfg
  3
"AmgLay|Product Description: AutoCAD Mechanical|Company: Autodesk, Inc."
 90
     1025
 91
        1
280
     0
281
     0
  0
CLASS
  1
ACMSURFSTANDARDJIS
  2
AcmSurfTextStdJIS
  3
"Amdt_StdImp|Product Description: AutoCAD Mechanical|Company: Autodesk, Inc."
 90
     1024
 91
        0
280
     0
281
     0
  0
CLASS
  1
ACMFCFSTANDARDJIS
  2
AcmFCFStdJIS
  3
"Amdt_StdImp|Product Description: AutoCAD Mechanical|Company: Autodesk, Inc."
 90
     1024
 91
        0
280
     0
281
     0
  0
CLASS
  1
ACMWELDSTANDARDJIS
  2
AcmWeldingStdJIS
  3
"Amdt_StdImp|Product Description: AutoCAD Mechanical|Company: Autodesk, Inc."
 90
     1024
 91
        0
280
     0
281
     0
  0
CLASS
  1
ACMIDSTANDARDJIS
  2
AcmIdStdJIS
  3
"Amdt_StdImp|Product Description: AutoCAD Mechanical|Company: Autodesk, Inc."
 90
     1024
 91
        0
280
     0
281
     0
  0
CLASS
  1
ACMDATUMSTANDARDJIS
  2
AcmDatumStdJIS
  3
"Amdt_StdImp|Product Description: AutoCAD Mechanical|Company: Autodesk, Inc."
 90
     1024
 91
        0
280
     0
281
     0
  0
CLASS
  1
ACMBOMSTANDARDJIS
  2
AcmBOMStdJIS
  3
"Amdt_StdImp|Product Description: AutoCAD Mechanical|Company: Autodesk, Inc."
 90
     1024
 91
        0
280
     0
281
     0
  0
CLASS
  1
ACMDETAILSTANDARDJIS
  2
AmdtDetailSymStdJIS
  3
"Amdt_StdImp|Product Description: AutoCAD Mechanical|Company: Autodesk, Inc."
 90
     1024
 91
        0
280
     0
281
     0
  0
CLASS
  1
ACMSECTIONSTANDARDJIS
  2
AmdtSectionSymStdJIS
  3
"Amdt_StdImp|Product Description: AutoCAD Mechanical|Company: Autodesk, Inc."
 90
     1024
 91
        0
280
     0
281
     0
  0
CLASS
  1
ACMCENTERLINESTANDARDJIS
  2
AmdtCenterLineStdJIS
  3
"Amdt_StdImp|Product Description: AutoCAD Mechanical|Company: Autodesk, Inc."
 90
     1024
 91
        0
280
     0
281
     0
  0
CLASS
  1
ACMTHREADLINESTANDARDJIS
  2
AmdtThreadLineStdJIS
  3
"Amdt_StdImp|Product Description: AutoCAD Mechanical|Company: Autodesk, Inc."
 90
     1024
 91
        0
280
     0
281
     0
  0
CLASS
  1
ACAMGLAYSTD
  2
AcAmgLayStd
  3
"AmgLay|Product Description: AutoCAD Mechanical|Company: Autodesk, Inc."
 90
     1024
 91
        1
280
     0
281
     0
  0
CLASS
  1
ACAMGDIMSTD
  2
AcAmgDimStd
  3
"AmgDim|Product Description: AutoCAD Mechanical|Company: Autodesk, Inc."
 90
     1024
 91
        1
280
     0
281
     0
  0
CLASS
  1
ACAMGTITLESTD
  2
AcAmgTitleStd
  3
"AmgTitle|Product Description: AutoCAD Mechanical|Company: Autodesk, Inc."
 90
     4095
 91
        1
280
     0
281
     0
  0
CLASS
  1
ACMDATADICTIONARY
  2
AcmDataDictionary
  3
"AcmSymBB|Product Description: AutoCAD Mechanical|Company: Autodesk, Inc."
 90
     1024
 91
        1
280
     0
281
     0
  0
CLASS
  1
ACMDATAENTRYBLOCK
  2
AcmDataEntryBlock
  3
AcmSymBB|Product Description: AutoCAD Mechanical|Company: Autodesk, Inc.
 90
     1024
 91
        0
280
     0
281
     0
  0
CLASS
  1
LAYER_INDEX
  2
AcDbLayerIndex
  3
ObjectDBX Classes
 90
        0
 91
        0
280
     0
281
     0
  0
CLASS
  1
IDBUFFER
  2
AcDbIdBuffer
  3
ObjectDBX Classes
 90
        0
 91
        0
280
     0
281
     0
  0
CLASS
  1
ACMNOTESTANDARDJIS
  2
AmdtNoteStdJIS
  3
"Amdt_StdImp|Product Description: AutoCAD Mechanical|Company: Autodesk, Inc."
 90
     1024
 91
        0
280
     0
281
     0
  0
CLASS
  1
ACAMGHOLECHARTSTDJIS
  2
AcAmgHoleChartStdJIS
  3
AmgDim|Product Description: AutoCAD Mechanical|Company: Autodesk, Inc.
 90
     1024
 91
        0
280
     0
281
     0
  0
CLASS
  1
AM_DRAWING_MGR
  2
AcDmDwgMgr
  3
AcMechDwgViewMgmt
 90
     1024
 91
        1
280
     0
281
     0
  0
CLASS
  1
AM_DWG_DOCUMENT
  2
AcDmDwgDocument
  3
AcMechDwgViewMgmt
 90
     1024
 91
        1
280
     0
281
     0
  0
CLASS
  1
AM_DWG_SHEET
  2
AcDmSheet
  3
AcMechDwgViewMgmt
 90
     1024
 91
        2
280
     0
281
     0
  0
CLASS
  1
AM_VIEWDIMPARMAP
  2
AcDmViewDimParMap
  3
AcMechDwgViewMgmt
 90
     1024
 91
        2
280
     0
281
     0
  0
CLASS
  1
AM_DWGMGR_NAME
  2
AcDmDwgMgrName
  3
AcMechDwgViewMgmt
 90
     1024
 91
        1
280
     0
281
     0
  0
CLASS
  1
AMDTMENUSTATEMGR
  2
AmdtMenuStateMgr
  3
McadcomServices
 90
     1024
 91
        1
280
     0
281
     0
  0
CLASS
  1
AMDTMCOMMENUSTATE
  2
AmdtMcomMenuState
  3
McadcomServices
 90
     1024
 91
        1
280
     0
281
     0
  0
CLASS
  1
MAPIAMMOUDLE
  2
MApiAmModule
  3
MApiAmServices
 90
     1024
 91
        1
280
     0
281
     0
  0
CLASS
  1
AMDTADMENUSTATE
  2
AmdtAdMenuState
  3
DesignerServices
 90
     1024
 91
        1
280
     0
281
     0
  0
CLASS
  1
ADAPPL
  2
AcAdAppl
  3
DesignerServices
 90
     1024
 91
        1
280
     0
281
     0
  0
CLASS
  1
DEPMGR
  2
AcAdDepMgr
  3
DesignerServices
 90
     1024
 91
        1
280
     0
281
     0
  0
CLASS
  1
PARAMMGR
  2
AcAdParamMgr
  3
DesignerServices
 90
     1024
 91
        1
280
     0
281
     0
  0
CLASS
  1
PARAMSCOPE
  2
AcAdParamScope
  3
DesignerServices
 90
     1024
 91
        1
280
     0
281
     0
  0
CLASS
  1
NAMEDAPPL
  2
AcAdNamedAppl
  3
DesignerServices
 90
     1024
 91
        1
280
     0
281
     0
  0
CLASS
  1
AMDTDMMENUSTATE
  2
AmdtDmMenuState
  3
AcMechDwgViewMgmt
 90
     1024
 91
        1
280
     0
281
     0
  0
CLASS
  1
AMDTAMMENUSTATE
  2
AmdtAmMenuState
  3
DesignerAssemblies
 90
     1024
 91
        1
280
     0
281
     0
  0
CLASS
  1
ACAMPROJECT
  2
AcAmProject
  3
DesignerAssemblies
 90
     1024
 91
        1
280
     0
281
     0
  0
CLASS
  1
ACAMGRCOMPDEF
  2
AcAmGrCompDef
  3
DesignerAssemblies
 90
     1024
 91
        1
280
     0
281
     0
  0
CLASS
  1
ACCMCONTEXT
  2
AcCmContext
  3
DesignerAssemblies
 90
     1024
 91
        1
280
     0
281
     0
  0
CLASS
  1
ACAMCOMPDEF
  2
AcAmCompDef
  3
DesignerAssemblies
 90
     1024
 91
        1
280
     0
281
     0
  0
CLASS
  1
ACAMCOMPDEFMGR
  2
AcAmCompDefMgr
  3
DesignerAssemblies
 90
     1024
 91
        1
280
     0
281
     0
  0
CLASS
  1
AMCONTEXTMGR
  2
AcAmContextMgr
  3
DesignerAssemblies
 90
     1024
 91
        1
280
     0
281
     0
  0
CLASS
  1
ACAMCONTEXTMODELER
  2
AcAmContextModeler
  3
DesignerAssemblies
 90
     1024
 91
        1
280
     0
281
     0
  0
CLASS
  1
CATALOGSTATE
  2
AcAmCatalogState
  3
DesignerAssemblies
 90
     1024
 91
        1
280
     0
281
     0
  0
CLASS
  1
ACAMGRCOMPDEFSET
  2
AcAmGrCompDefSet
  3
DesignerAssemblies
 90
     1024
 91
        1
280
     0
281
     0
  0
CLASS
  1
AMDTBROWSERDBTAB
  2
AmdtBrowserDbTab
  3
McadcomServices
 90
     1024
 91
        1
280
     0
281
     0
  0
CLASS
  1
CBROWSERAPPOBJECT
  2
CBrowserAppObject
  3
McadcomServices
 90
     1024
 91
        3
280
     0
281
     0
  0
CLASS
  1
DM_PLACEHOLDER
  2
AcDmSelsetPlaceholder
  3
AcMechDwgViewMgmt
 90
     1024
 91
        1
280
     0
281
     0
  0
CLASS
  1
TABLESTYLE
  2
AcDbTableStyle
  3
ObjectDBX Classes
 90
     4095
 91
        1
280
     0
281
     0
  0
CLASS
  1
VAACXREFPANELOBJECT
  2
VaAcXREFPanelObject
  3
VAAC_ADDIN
 90
        0
 91
        0
280
     0
281
     0
  0
CLASS
  1
VAACIMAGEINVENTORY
  2
VaAcImageInventory
  3
VAAC_ADDIN
 90
        0
 91
        0
280
     0
281
     0
  0
CLASS
  1
AMDTNOTETEMPLATEDB
  2
AmdtNoteTemplateDB
  3
AcmSymBB|Product Description: AutoCAD Mechanical|Company: Autodesk, Inc.
 90
     1024
 91
        6
280
     0
281
     0
  0
CLASS
  1
ACAMGFILTERDAT
  2
AcAmgFilterDat
  3
"AcadM|Product Description: AutoCAD Mechanical|Company: Autodesk, Inc."
 90
     1024
 91
        0
280
     0
281
     0
  0
CLASS
  1
MATERIAL
  2
AcDbMaterial
  3
ObjectDBX Classes
 90
     1153
 91
        3
280
     0
281
     0
  0
CLASS
  1
VISUALSTYLE
  2
AcDbVisualStyle
  3
ObjectDBX Classes
 90
     4095
 91
       16
280
     0
281
     0
  0
CLASS
  1
ACRFATTGENMGR
  2
AcRfAttGeneralMgr
  3
AcAttribServices
 90
     1024
 91
        0
280
     0
281
     0
  0
CLASS
  1
ACRFOBJATTMGR
  2
AcRfObjAttGroupMgr
  3
AcAttribServices
 90
     1024
 91
        0
280
     0
281
     0
  0
CLASS
  1
ACRFMCADAPIATTHOLDER
  2
AcRfMCADAPIAttHolder
  3
AcAttribServices
 90
     1024
 91
        0
280
     0
281
     0
  0
CLASS
  1
AMDTSYSATTR
  2
AmdtSystemAttribute
  3
AcAttribServices
 90
     1024
 91
        0
280
     0
281
     0
  0
CLASS
  1
ACMTAPERSTANDARDJIS
  2
AcmTaperStdJIS
  3
"Amdt_StdImp|Product Description: AutoCAD Mechanical|Company: Autodesk, Inc."
 90
     1024
 91
        0
280
     0
281
     0
  0
CLASS
  1
CAMSSTRUCTBTNSTATE
  2
StructBtnState
  3
DesignerAssemblies
 90
     1024
 91
        0
280
     0
281
     0
  0
CLASS
  1
SCALE
  2
AcDbScale
  3
ObjectDBX Classes
 90
     1153
 91
       35
280
     0
281
     0
  0
CLASS
  1
MLEADERSTYLE
  2
AcDbMLeaderStyle
  3
ACDB_MLEADERSTYLE_CLASS
 90
     4095
 91
        1
280
     0
281
     0
  0
CLASS
  1
ACMANOOTATIONVIEWSTANDARDJIS
  2
AmdtAnViewStdJIS
  3
"Amdt_StdImp|Product Description: AutoCAD Mechanical|Company: Autodesk, Inc."
 90
     1024
 91
        0
280
     0
281
     0
  0
CLASS
  1
ACMSURFSTANDARDJIS2003
  2
AcmSurfTextStdJIS2003
  3
"Amdt_StdImp|Product Description: AutoCAD Mechanical|Company: Autodesk, Inc."
 90
     1024
 91
        0
280
     0
281
     0
  0
CLASS
  1
CELLSTYLEMAP
  2
AcDbCellStyleMap
  3
ObjectDBX Classes
 90
     1152
 91
        3
280
     0
281
     0
  0
CLASS
  1
ACMFCFSTANDARDJIS98
  2
AcmFCFStdJIS98
  3
"Amdt_StdImp|Product Description: AutoCAD Mechanical|Company: Autodesk, Inc."
 90
     1024
 91
        0
280
     0
281
     0
  0
CLASS
  1
SORTENTSTABLE
  2
AcDbSortentsTable
  3
ObjectDBX Classes
 90
        0
 91
       12
280
     0
281
     0
  0
CLASS
  1
DIMASSOC
  2
AcDbDimAssoc
  3
"AcDbDimAssoc|Product Desc:     AcDim ARX App For Dimension|Company:          Autodesk, Inc.|WEB Address:      www.autodesk.com"
 90
        0
 91
        4
280
     0
281
     0
  0
CLASS
  1
STDPART2D
  2
AmgStdPart
  3
AmgStdPart|Product Description: AutoCAD Mechanical|Company: Autodesk, Inc.
 90
     4095
 91
        0
280
     0
281
     1
  0
CLASS
  1
ACMDATAENTRYPART
  2
AcmDataEntryPart
  3
AcmSymBB|Product Description: AutoCAD Mechanical|Company: Autodesk, Inc.
 90
     1024
 91
        0
280
     0
281
     0
  0
CLASS
  1
ACMPARTREF
  2
AcmPartRef
  3
"AcmSymBB|Product Description: AutoCAD Mechanical|Company: Autodesk, Inc."
 90
     4095
 91
        0
280
     0
281
     1
  0
CLASS
  1
ACDBSTDPARTRES_LINE
  2
AcDbStdPartRes_Line
  3
AmgStdPart|Product Description: AutoCAD Mechanical|Company: Autodesk, Inc.
 90
     1024
 91
        0
280
     0
281
     0
  0
CLASS
  1
ACMBOM
  2
AcmBom
  3
"AcmSymBB|Product Description: AutoCAD Mechanical|Company: Autodesk, Inc."
 90
     1024
 91
        0
280
     0
281
     0
  0
CLASS
  1
AMDTFORMULAUPDATEDISPATCHER
  2
AmdtFormulaUpdateDispatcher
  3
AcMeServices
 90
     1024
 91
        0
280
     0
281
     0
  0
CLASS
  1
ACMBOMROW
  2
AcmBomRow
  3
"AcmSymBB|Product Description: AutoCAD Mechanical|Company: Autodesk, Inc."
 90
     1024
 91
        0
280
     0
281
     0
  0
CLASS
  1
ACMPARTLIST
  2
AcmPartList
  3
"AcmSymBB|Product Description: AutoCAD Mechanical|Company: Autodesk, Inc."
 90
     4095
 91
        0
280
     0
281
     1
  0
CLASS
  1
ACDBLINERES
  2
AcDbLineRes
  3
AcGrefServices
 90
     1024
 91
        0
280
     0
281
     0
  0
CLASS
  1
ACRFINSADJ
  2
AcRfInsAdjuster
  3
AcMeServices
 90
     1024
 91
        0
280
     0
281
     0
  0
CLASS
  1
ACMSTANDARDISO
  2
AcmStandardISO
  3
"Amdt_StdImp|Product Description: AutoCAD Mechanical|Company: Autodesk, Inc."
 90
     1024
 91
        1
280
     0
281
     0
  0
CLASS
  1
AMDTEDGESTANDARDISO13715
  2
AmdtEdgeStdISO13715
  3
"Amdt_StdImp|Product Description: AutoCAD Mechanical|Company: Autodesk, Inc."
 90
     1024
 91
        1
280
     0
281
     0
  0
CLASS
  1
ACMSURFSTANDARDISO2002
  2
AcmSurfTextStdISO2002
  3
"Amdt_StdImp|Product Description: AutoCAD Mechanical|Company: Autodesk, Inc."
 90
     1024
 91
        1
280
     0
281
     0
  0
CLASS
  1
ACMFCFSTANDARDISO
  2
AcmFCFStdISO
  3
"Amdt_StdImp|Product Description: AutoCAD Mechanical|Company: Autodesk, Inc."
 90
     1024
 91
        1
280
     0
281
     0
  0
CLASS
  1
ACMWELDSTANDARDISO
  2
AcmWeldingStdISO
  3
"Amdt_StdImp|Product Description: AutoCAD Mechanical|Company: Autodesk, Inc."
 90
     1024
 91
        1
280
     0
281
     0
  0
CLASS
  1
ACMIDSTANDARDISO
  2
AcmIdStdISO
  3
"Amdt_StdImp|Product Description: AutoCAD Mechanical|Company: Autodesk, Inc."
 90
     1024
 91
        1
280
     0
281
     0
  0
CLASS
  1
ACMDATUMSTANDARDISO
  2
AcmDatumStdISO
  3
"Amdt_StdImp|Product Description: AutoCAD Mechanical|Company: Autodesk, Inc."
 90
     1024
 91
        1
280
     0
281
     0
  0
CLASS
  1
ACMBOMSTANDARDISO
  2
AcmBOMStdISO
  3
"Amdt_StdImp|Product Description: AutoCAD Mechanical|Company: Autodesk, Inc."
 90
     1024
 91
        1
280
     0
281
     0
  0
CLASS
  1
ACMDETAILSTANDARDISO
  2
AmdtDetailSymStdISO
  3
"Amdt_StdImp|Product Description: AutoCAD Mechanical|Company: Autodesk, Inc."
 90
     1024
 91
        1
280
     0
281
     0
  0
CLASS
  1
ACMSECTIONSTANDARDISO2001
  2
AmdtSectionSymStdISO2001
  3
"Amdt_StdImp|Product Description: AutoCAD Mechanical|Company: Autodesk, Inc."
 90
     1024
 91
        1
280
     0
281
     0
  0
CLASS
  1
ACMCENTERLINESTANDARDISO
  2
AmdtCenterLineStdISO
  3
"Amdt_StdImp|Product Description: AutoCAD Mechanical|Company: Autodesk, Inc."
 90
     1024
 91
        1
280
     0
281
     0
  0
CLASS
  1
ACMTHREADLINESTANDARDISO
  2
AmdtThreadLineStdISO
  3
"Amdt_StdImp|Product Description: AutoCAD Mechanical|Company: Autodesk, Inc."
 90
     1024
 91
        1
280
     0
281
     0
  0
CLASS
  1
ACMNOTESTANDARDISO
  2
AmdtNoteStdISO
  3
"Amdt_StdImp|Product Description: AutoCAD Mechanical|Company: Autodesk, Inc."
 90
     1024
 91
        1
280
     0
281
     0
  0
CLASS
  1
ACMTAPERSTANDARDISO
  2
AcmTaperStdISO
  3
"Amdt_StdImp|Product Description: AutoCAD Mechanical|Company: Autodesk, Inc."
 90
     1024
 91
        1
280
     0
281
     0
  0
CLASS
  1
ACMANOOTATIONVIEWSTANDARDISO
  2
AmdtAnViewStdISO
  3
"Amdt_StdImp|Product Description: AutoCAD Mechanical|Company: Autodesk, Inc."
 90
     1024
 91
        1
280
     0
281
     0
  0
CLASS
  1
ACAMGHOLECHARTSTDISO
  2
AcAmgHoleChartStdISO
  3
AmgDim|Product Description: AutoCAD Mechanical|Company: Autodesk, Inc.
 90
     1024
 91
        1
280
     0
281
     0
  0
CLASS
  1
EXACXREFPANELOBJECT
  2
ExAcXREFPanelObject
  3
EXAC_ESW
 90
     1025
 91
        0
280
     0
281
     0
  0
CLASS
  1
NPOCOLLECTION
  2
AcDbImpNonPersistentObjectsCollection
  3
ObjectDBX Classes
 90
     1153
 91
        0
280
     0
281
     0
  0
CLASS
  1
ACDBSTDPARTRES_ARC
  2
AcDbStdPartRes_Arc
  3
AmgStdPart|Product Description: AutoCAD Mechanical|Company: Autodesk, Inc.
 90
     1024
 91
        0
280
     0
281
     0
  0
CLASS
  1
AMDTNOTE
  2
AmdtNote
  3
"AcmSymBB|Product Description: AutoCAD Mechanical|Company: Autodesk, Inc."
 90
     4095
 91
        0
280
     0
281
     1
  0
CLASS
  1
PLOTSETTINGS
  2
AcDbPlotSettings
  3
ObjectDBX Classes
 90
        0
 91
        1
280
     0
281
     0
  0
CLASS
  1
ACMSTANDARDANSI
  2
AcmStandardANSI
  3
"Amdt_StdImp|Product Description: AutoCAD Mechanical|Company: Autodesk, Inc."
 90
     1024
 91
        0
280
     0
281
     0
  0
CLASS
  1
ACMSURFSTANDARDANSI
  2
AcmSurfTextStdANSI
  3
"Amdt_StdImp|Product Description: AutoCAD Mechanical|Company: Autodesk, Inc."
 90
     1024
 91
        0
280
     0
281
     0
  0
CLASS
  1
ACMFCFSTANDARDANSI
  2
AcmFCFStdANSI
  3
"Amdt_StdImp|Product Description: AutoCAD Mechanical|Company: Autodesk, Inc."
 90
     1024
 91
        0
280
     0
281
     0
  0
CLASS
  1
ACMWELDSTANDARDANSI
  2
AcmWeldingStdANSI
  3
"Amdt_StdImp|Product Description: AutoCAD Mechanical|Company: Autodesk, Inc."
 90
     1024
 91
        0
280
     0
281
     0
  0
CLASS
  1
ACMIDSTANDARDANSI
  2
AcmIdStdANSI
  3
"Amdt_StdImp|Product Description: AutoCAD Mechanical|Company: Autodesk, Inc."
 90
     1024
 91
        0
280
     0
281
     0
  0
CLASS
  1
ACMDATUMSTANDARDANSI
  2
AcmDatumStdANSI
  3
"Amdt_StdImp|Product Description: AutoCAD Mechanical|Company: Autodesk, Inc."
 90
     1024
 91
        0
280
     0
281
     0
  0
CLASS
  1
ACMBOMSTANDARDANSI
  2
AcmBOMStdANSI
  3
"Amdt_StdImp|Product Description: AutoCAD Mechanical|Company: Autodesk, Inc."
 90
     1024
 91
        0
280
     0
281
     0
  0
CLASS
  1
ACMDETAILSTANDARDANSI
  2
AmdtDetailSymStdANSI
  3
"Amdt_StdImp|Product Description: AutoCAD Mechanical|Company: Autodesk, Inc."
 90
     1024
 91
        0
280
     0
281
     0
  0
CLASS
  1
ACMSECTIONSTANDARDANSI
  2
AmdtSectionSymStdANSI
  3
"Amdt_StdImp|Product Description: AutoCAD Mechanical|Company: Autodesk, Inc."
 90
     1024
 91
        0
280
     0
281
     0
  0
CLASS
  1
ACMCENTERLINESTANDARDANSI
  2
AmdtCenterLineStdANSI
  3
"Amdt_StdImp|Product Description: AutoCAD Mechanical|Company: Autodesk, Inc."
 90
     1024
 91
        0
280
     0
281
     0
  0
CLASS
  1
ACMTHREADLINESTANDARDANSI
  2
AmdtThreadLineStdANSI
  3
"Amdt_StdImp|Product Description: AutoCAD Mechanical|Company: Autodesk, Inc."
 90
     1024
 91
        0
280
     0
281
     0
  0
CLASS
  1
ACMNOTESTANDARDANSI
  2
AmdtNoteStdANSI
  3
"Amdt_StdImp|Product Description: AutoCAD Mechanical|Company: Autodesk, Inc."
 90
     1024
 91
        0
280
     0
281
     0
  0
CLASS
  1
ACMTAPERSTANDARDANSI
  2
AcmTaperStdANSI
  3
"Amdt_StdImp|Product Description: AutoCAD Mechanical|Company: Autodesk, Inc."
 90
     1024
 91
        0
280
     0
281
     0
  0
CLASS
  1
ACMANOOTATIONVIEWSTANDARDANSI
  2
AmdtAnViewStdANSI
  3
"Amdt_StdImp|Product Description: AutoCAD Mechanical|Company: Autodesk, Inc."
 90
     1024
 91
        0
280
     0
281
     0
  0
CLASS
  1
ACAMGHOLECHARTSTDANSI
  2
AcAmgHoleChartStdANSI
  3
AmgDim|Product Description: AutoCAD Mechanical|Company: Autodesk, Inc.
 90
     1024
 91
        0
280
     0
281
     0
  0
CLASS
  1
ACMSTANDARDBSI
  2
AcmStandardBSI
  3
"Amdt_StdImp|Product Description: AutoCAD Mechanical|Company: Autodesk, Inc."
 90
     1024
 91
        0
280
     0
281
     0
  0
CLASS
  1
ACMSURFSTANDARDBSI2002
  2
AcmSurfTextStdBSI2002
  3
"Amdt_StdImp|Product Description: AutoCAD Mechanical|Company: Autodesk, Inc."
 90
     1024
 91
        0
280
     0
281
     0
  0
CLASS
  1
ACMFCFSTANDARDBSI
  2
AcmFCFStdBSI
  3
"Amdt_StdImp|Product Description: AutoCAD Mechanical|Company: Autodesk, Inc."
 90
     1024
 91
        0
280
     0
281
     0
  0
CLASS
  1
ACMWELDSTANDARDBSI
  2
AcmWeldingStdBSI
  3
"Amdt_StdImp|Product Description: AutoCAD Mechanical|Company: Autodesk, Inc."
 90
     1024
 91
        0
280
     0
281
     0
  0
CLASS
  1
ACMIDSTANDARDBSI
  2
AcmIdStdBSI
  3
"Amdt_StdImp|Product Description: AutoCAD Mechanical|Company: Autodesk, Inc."
 90
     1024
 91
        0
280
     0
281
     0
  0
CLASS
  1
ACMDATUMSTANDARDBSI
  2
AcmDatumStdBSI
  3
"Amdt_StdImp|Product Description: AutoCAD Mechanical|Company: Autodesk, Inc."
 90
     1024
 91
        0
280
     0
281
     0
  0
CLASS
  1
ACMBOMSTANDARDBSI
  2
AcmBOMStdBSI
  3
"Amdt_StdImp|Product Description: AutoCAD Mechanical|Company: Autodesk, Inc."
 90
     1024
 91
        0
280
     0
281
     0
  0
CLASS
  1
ACMDETAILSTANDARDBSI
  2
AmdtDetailSymStdBSI
  3
"Amdt_StdImp|Product Description: AutoCAD Mechanical|Company: Autodesk, Inc."
 90
     1024
 91
        0
280
     0
281
     0
  0
CLASS
  1
ACMSECTIONSTANDARDBSI2001
  2
AmdtSectionSymStdBSI2001
  3
"Amdt_StdImp|Product Description: AutoCAD Mechanical|Company: Autodesk, Inc."
 90
     1024
 91
        0
280
     0
281
     0
  0
CLASS
  1
ACMCENTERLINESTANDARDBSI
  2
AmdtCenterLineStdBSI
  3
"Amdt_StdImp|Product Description: AutoCAD Mechanical|Company: Autodesk, Inc."
 90
     1024
 91
        0
280
     0
281
     0
  0
CLASS
  1
ACMTHREADLINESTANDARDBSI
  2
AmdtThreadLineStdBSI
  3
"Amdt_StdImp|Product Description: AutoCAD Mechanical|Company: Autodesk, Inc."
 90
     1024
 91
        0
280
     0
281
     0
  0
CLASS
  1
ACMNOTESTANDARDBSI
  2
AmdtNoteStdBSI
  3
"Amdt_StdImp|Product Description: AutoCAD Mechanical|Company: Autodesk, Inc."
 90
     1024
 91
        0
280
     0
281
     0
  0
CLASS
  1
ACMTAPERSTANDARDBSI
  2
AcmTaperStdBSI
  3
"Amdt_StdImp|Product Description: AutoCAD Mechanical|Company: Autodesk, Inc."
 90
     1024
 91
        0
280
     0
281
     0
  0
CLASS
  1
ACMANOOTATIONVIEWSTANDARDBSI
  2
AmdtAnViewStdBSI
  3
"Amdt_StdImp|Product Description: AutoCAD Mechanical|Company: Autodesk, Inc."
 90
     1024
 91
        0
280
     0
281
     0
  0
CLASS
  1
ACAMGHOLECHARTSTDBSI
  2
AcAmgHoleChartStdBSI
  3
AmgDim|Product Description: AutoCAD Mechanical|Company: Autodesk, Inc.
 90
     1024
 91
        0
280
     0
281
     0
  0
CLASS
  1
AMDTEDGESTANDARDJIS
  2
AmdtEdgeStdJIS
  3
"Amdt_StdImp|Product Description: AutoCAD Mechanical|Company: Autodesk, Inc."
 90
     1024
 91
        0
280
     0
281
     0
  0
CLASS
  1
ACMSURFSYM
  2
AcmSurfaceTexture
  3
"AcmSymBB|Product Description: AutoCAD Mechanical|Company: Autodesk, Inc."
 90
     4095
 91
        0
280
     0
281
     1
  0
CLASS
  1
ACDBDIMENSIONRES
  2
AcDbDimensionRes
  3
AcmSymBB|Product Description: AutoCAD Mechanical|Company: Autodesk, Inc.
 90
     1024
 91
        0
280
     0
281
     0
  0
CLASS
  1
ACDBCIRCARCRES
  2
AcDbCircArcRes
  3
AcGrefServices
 90
     1024
 91
        0
280
     0
281
     0
  0
CLASS
  1
ACMDIMBREAKPERSREACTOR
  2
AcmDimBreakPersReactor
  3
AmgDim|Product Description: AutoCAD Mechanical|Company: Autodesk, Inc.
 90
     4095
 91
        0
280
     0
281
     0
  0
CLASS
  1
ACDBOPPOLYLINERES
  2
AcDbOpPolylineRes
  3
AcGrefServices
 90
     1024
 91
        0
280
     0
281
     0
  0
CLASS
  1
AMDTACMWBLOCKBOMENTITY
  2
AmdtAcmWblockBomEntity
  3
"AcmSymBB|Product Description: AutoCAD Mechanical|Company: Autodesk, Inc."
 90
     4095
 91
        0
280
     0
281
     1
  0
CLASS
  1
ACDB_BLKREFOBJECTCONTEXTDATA_CLASS
  2
AcDbBlkRefObjectContextData
  3
ObjectDBX Classes
 90
     1153
 91
        0
280
     0
281
     0
  0
CLASS
  1
ACMPICKOBJ
  2
AcmPickEnt
  3
"AcmSymBB|Product Description: AutoCAD Mechanical|Company: Autodesk, Inc."
 90
     1024
 91
        0
280
     0
281
     1
  0
CLASS
  1
ACDBELLIPSERES
  2
AcDbEllipseRes
  3
AcGrefServices
 90
     1024
 91
        0
280
     0
281
     0
  0
CLASS
  1
ACMBALLOON
  2
AcmBalloon
  3
"AcmSymBB|Product Description: AutoCAD Mechanical|Company: Autodesk, Inc."
 90
     4095
 91
        0
280
     0
281
     1
  0
CLASS
  1
BREAKDATA
  2
AcDbBreakData
  3
ObjectDBX Classes
 90
     1024
 91
        0
280
     0
281
     0
  0
CLASS
  1
ACMFCFRAME
  2
AcmFCF
  3
"AcmSymBB|Product Description: AutoCAD Mechanical|Company: Autodesk, Inc."
 90
     4095
 91
        0
280
     0
281
     1
  0
CLASS
  1
ACMDATUMID
  2
AcmDatumId
  3
"AcmSymBB|Product Description: AutoCAD Mechanical|Company: Autodesk, Inc."
 90
     4095
 91
        0
280
     0
281
     1
  0
CLASS
  1
ACMWELDSYM
  2
AcmWelding
  3
"AcmSymBB|Product Description: AutoCAD Mechanical|Company: Autodesk, Inc."
 90
     4095
 91
        0
280
     0
281
     1
  0
ENDSEC
  0
SECTION
  2
TABLES
  0
TABLE
  2
VPORT
  5
8
330
0
100
AcDbSymbolTable
 70
     1
  0
VPORT
  5
27A
330
8
100
AcDbSymbolTableRecord
100
AcDbViewportTableRecord
  2
*Active
 70
     0
 10
0.0
 20
0.0
 11
1.0
 21
1.0
 12
867.0788907207422
 22
878.3742416351586
 13
0.0
 23
0.0
 14
10.0
 24
10.0
 15
40.0
 25
40.0
 16
0.0
 26
0.0
 36
1.0
 17
0.0
 27
0.0
 37
0.0
 40
654.1144576219368
 41
1.571428571428571
 42
50.0
 43
0.0
 44
0.0
 50
0.0
 51
0.0
 71
    16
 72
 20000
 73
     1
 74
     3
 75
     0
 76
     0
 77
     0
 78
     0
281
     0
 65
     0
110
0.0
120
0.0
130
0.0
111
1.0
121
0.0
131
0.0
112
0.0
122
1.0
132
0.0
 79
     0
146
0.0
348
285
 60
     3
 61
     5
292
     1
282
     0
141
0.0
142
0.0
 63
   250
421
  3355443
  0
ENDTAB
  0
TABLE
  2
LTYPE
  5
5
330
0
100
AcDbSymbolTable
 70
    22
  0
LTYPE
  5
14
330
5
100
AcDbSymbolTableRecord
100
AcDbLinetypeTableRecord
  2
ByBlock
 70
     0
  3

 72
    65
 73
     0
 40
0.0
  0
LTYPE
  5
15
330
5
100
AcDbSymbolTableRecord
100
AcDbLinetypeTableRecord
  2
ByLayer
 70
     0
  3

 72
    65
 73
     0
 40
0.0
  0
LTYPE
  5
16
330
5
100
AcDbSymbolTableRecord
100
AcDbLinetypeTableRecord
  2
Continuous
 70
     0
  3
Solid line
 72
    65
 73
     0
 40
0.0
  0
LTYPE
  5
4D
330
5
100
AcDbSymbolTableRecord
100
AcDbLinetypeTableRecord
  2
AM_ISO02W050
 70
     0
  3
__ __ __ __ __ __ __ __ __ __ __ __ __ __ __
 72
    65
 73
     2
 40
7.5
 49
6.0
 74
     0
 49
-1.5
 74
     0
  0
LTYPE
  5
4E
330
5
100
AcDbSymbolTableRecord
100
AcDbLinetypeTableRecord
  2
AM_ISO08W050
 70
     0
  3
____ . ____ . ____ . ____ . ____ . ____ . ____
 72
    65
 73
     4
 40
18.0
 49
12.0
 74
     0
 49
-1.5
 74
     0
 49
3.0
 74
     0
 49
-1.5
 74
     0
  0
LTYPE
  5
4F
330
5
100
AcDbSymbolTableRecord
100
AcDbLinetypeTableRecord
  2
AM_ISO09W050
 70
     0
  3
_____ . . _____ . . _____ . . ____ .. ____
 72
    65
 73
     6
 40
22.5
 49
12.0
 74
     0
 49
-1.5
 74
     0
 49
3.0
 74
     0
 49
-1.5
 74
     0
 49
3.0
 74
     0
 49
-1.5
 74
     0
  0
LTYPE
  5
50
330
5
100
AcDbSymbolTableRecord
100
AcDbLinetypeTableRecord
  2
Amconstr
 70
     0
  3
_______________________
 72
    65
 73
     2
 40
9999.0
 49
9999.0
 74
     0
 49
0.0
 74
     0
  0
LTYPE
  5
51
330
5
100
AcDbSymbolTableRecord
100
AcDbLinetypeTableRecord
  2
AM_ISO08W050x2
 70
     0
  3
__ . __ . __ . __ . __ . __
 72
    65
 73
     4
 40
9.0
 49
6.0
 74
     0
 49
-0.75
 74
     0
 49
1.5
 74
     0
 49
-0.75
 74
     0
  0
LTYPE
  5
52
330
5
100
AcDbSymbolTableRecord
100
AcDbLinetypeTableRecord
  2
AM_ISO02W050x2
 70
     0
  3
 _ _ _ _ _ _ _ _ _ _ _ _
 72
    65
 73
     2
 40
3.75
 49
3.0
 74
     0
 49
-0.75
 74
     0
  0
LTYPE
  5
55
330
5
100
AcDbSymbolTableRecord
100
AcDbLinetypeTableRecord
  2
Amzigzag
 70
     0
  3
/\/-/\/-/\/-/\/-/\/-/\/
 72
    65
 73
     2
 40
11.0001
 49
0.0001
 74
     4
 75
   136
340
23D
 46
0.04
 50
0.0
 44
0.0
 45
0.0
 49
-11.0
 74
     0
  0
LTYPE
  5
65
330
5
100
AcDbSymbolTableRecord
100
AcDbLinetypeTableRecord
  2
CENTER
 70
     0
  3
__ . __
 72
    65
 73
     4
 40
7.0
 49
4.0
 74
     0
 49
-1.0
 74
     0
 49
1.0
 74
     0
 49
-1.0
 74
     0
  0
LTYPE
  5
E0
330
5
100
AcDbSymbolTableRecord
100
AcDbLinetypeTableRecord
  2
HIDDEN
 70
     0
  3
Hidden __ __ __ __ __ __ __ __ __ __ __ __ __ _
 72
    65
 73
     2
 40
9.524999999999996
 49
6.349999999999998
 74
     0
 49
-3.174999999999998
 74
     0
  0
LTYPE
  5
E1
330
5
100
AcDbSymbolTableRecord
100
AcDbLinetypeTableRecord
  2
PHANTOM2
 70
     0
  3
Phantom (.5x) ___ _ _ ___ _ _ ___ _ _ ___ _ _
 72
    65
 73
     6
 40
31.75
 49
15.875
 74
     0
 49
-3.174999999999998
 74
     0
 49
3.174999999999998
 74
     0
 49
-3.174999999999998
 74
     0
 49
3.174999999999998
 74
     0
 49
-3.174999999999998
 74
     0
  0
LTYPE
  5
5A2
330
5
100
AcDbSymbolTableRecord
100
AcDbLinetypeTableRecord
  2
ACJISWELD
 70
     0
  3
_ _ _ _ _
 72
    65
 73
     2
 40
2.0
 49
2.0
 74
     0
 49
-1.0
 74
     0
  0
LTYPE
  5
9B64
330
5
100
AcDbSymbolTableRecord
100
AcDbLinetypeTableRecord
  2
ACISOWELD
 70
     0
  3
_ _ _ _ _
 72
    65
 73
     2
 40
2.0
 49
2.0
 74
     0
 49
-1.0
 74
     0
  0
LTYPE
  5
9B65
330
5
100
AcDbSymbolTableRecord
100
AcDbLinetypeTableRecord
  2
ACISOTGB
 70
     0
  3
__ . . __ . .
 72
    65
 73
     6
 40
9.0
 49
4.0
 74
     0
 49
-1.0
 74
     0
 49
1.0
 74
     0
 49
-1.0
 74
     0
 49
1.0
 74
     0
 49
-1.0
 74
     0
  0
LTYPE
  5
9B66
330
5
100
AcDbSymbolTableRecord
100
AcDbLinetypeTableRecord
  2
ACISOTGL
 70
     0
  3
_ _ _ _ _
 72
    65
 73
     2
 40
3.0
 49
2.0
 74
     0
 49
-1.0
 74
     0
  0
ENDTAB
  0
TABLE
  2
LAYER
  5
2
102
{ACAD_XDICTIONARY
360
BF
102
}
330
0
100
AcDbSymbolTable
 70
    11
  0
LAYER
  5
10
102
{ACAD_XDICTIONARY
360
29F7
102
}
330
2
100
AcDbSymbolTableRecord
100
AcDbLayerTableRecord
  2
0
 70
     0
 62
     7
  6
Continuous
370
    -3
390
F
347
27E
  0
LAYER
  5
81
102
{ACAD_XDICTIONARY
360
29F9
102
}
330
2
100
AcDbSymbolTableRecord
100
AcDbLayerTableRecord
  2
AM_0 外形線1
 70
     0
 62
     7
  6
Continuous
370
    25
390
F
347
27E
  0
LAYER
  5
427
330
2
100
AcDbSymbolTableRecord
100
AcDbLayerTableRecord
  2
Defpoints
 70
     0
 62
     7
  6
Continuous
290
     0
370
    -3
390
F
347
27E
  0
LAYER
  5
2E2A
330
2
100
AcDbSymbolTableRecord
100
AcDbLayerTableRecord
  2
AM_6 文字
 70
     0
 62
     2
  6
Continuous
370
    13
390
F
347
27E
1001
AcAecLayerStandard
1000

1000

  0
LAYER
  5
3B46
330
2
100
AcDbSymbolTableRecord
100
AcDbLayerTableRecord
  2
AM_5 寸法線
 70
     0
 62
     3
  6
Continuous
370
    13
390
F
347
27E
1001
AcAecLayerStandard
1000

1000

  0
LAYER
  5
3B47
330
2
100
AcDbSymbolTableRecord
100
AcDbLayerTableRecord
  2
AM_4 細線
 70
     0
 62
     4
  6
Continuous
370
    13
390
F
347
27E
1001
AcAecLayerStandard
1000

1000

  0
LAYER
  5
3B48
330
2
100
AcDbSymbolTableRecord
100
AcDbLayerTableRecord
  2
AM_7 中心線
 70
     0
 62
     1
  6
AM_ISO08W050
370
    13
390
F
347
27E
1001
AcAecLayerStandard
1000

1000

  0
LAYER
  5
3B49
330
2
100
AcDbSymbolTableRecord
100
AcDbLayerTableRecord
  2
AM_3 隠れ線
 70
     0
 62
     8
  6
ACJISWELD
370
    13
390
F
347
27E
1001
AcAecLayerStandard
1000

1000

  0
LAYER
  5
7860
102
{ACAD_XDICTIONARY
360
7861
102
}
330
2
100
AcDbSymbolTableRecord
100
AcDbLayerTableRecord
  2
AM_8 ハッチング
 70
     0
 62
     1
  6
Continuous
370
    13
390
F
347
27E
1001
AcAecLayerStandard
1000

1000

  0
LAYER
  5
9544
330
2
100
AcDbSymbolTableRecord
100
AcDbLayerTableRecord
  2
AM_11 想像線
 70
     0
 62
     5
  6
AM_ISO09W050
370
    13
390
F
347
27E
1001
AcAecLayerStandard
1000

1000

  0
ENDTAB
  0
TABLE
  2
STYLE
  5
3
330
0
100
AcDbSymbolTable
 70
    11
  0
STYLE
  5
11
330
3
100
AcDbSymbolTableRecord
100
AcDbTextStyleTableRecord
  2
STANDARD
 70
     0
 40
0.0
 41
1.0
 50
0.0
 71
     0
 42
25.0
  3
ISOCP.SHX
  4
EXTFONT.SHX
  0
STYLE
  5
23D
330
3
100
AcDbSymbolTableRecord
100
AcDbTextStyleTableRecord
  2

 70
     1
 40
0.0
 41
1.0
 50
0.0
 71
     0
 42
2.5
  3
genltshp.shx
  4

  0
STYLE
  5
5D5
330
3
100
AcDbSymbolTableRecord
100
AcDbTextStyleTableRecord
  2
SEISA
 70
     0
 40
0.0
 41
0.9
 50
0.0
 71
     0
 42
25.0
  3
romans.shx
  4
extfont2.shx
  0
STYLE
  5
9B54
330
3
100
AcDbSymbolTableRecord
100
AcDbTextStyleTableRecord
  2
ACISOTS
 70
     0
 40
1.0
 41
1.0
 50
0.0
 71
     0
 42
25.0
  3
isocp.shx
  4
extfont.shx
  0
STYLE
  5
9B63
330
3
100
AcDbSymbolTableRecord
100
AcDbTextStyleTableRecord
  2
ACISOGDT
 70
     0
 40
0.0
 41
1.0
 50
0.0
 71
     0
 42
25.0
  3
amgdt.shx
  4

  0
ENDTAB
  0
TABLE
  2
VIEW
  5
6
330
0
100
AcDbSymbolTable
 70
     6
  0
VIEW
  5
91B
330
6
100
AcDbSymbolTableRecord
100
AcDbViewTableRecord
  2
AM_VIEW1
 70
     0
 40
594.0000000000001
 10
574.2487692386418
 20
891.0000014775285
 41
1148.497536945813
 11
0.0
 21
0.0
 31
1.0
 12
0.0
 22
0.0
 32
0.0
 42
50.0
 43
0.0
 44
0.0
 50
0.0
 71
    16
281
     0
 72
     0
 73
     0
  0
VIEW
  5
91C
330
6
100
AcDbSymbolTableRecord
100
AcDbViewTableRecord
  2
AM_VIEW2
 70
     0
 40
594.0000000000001
 10
1105.751232292829
 20
891.0000014775285
 41
1148.497536945813
 11
0.0
 21
0.0
 31
1.0
 12
0.0
 22
0.0
 32
0.0
 42
50.0
 43
0.0
 44
0.0
 50
0.0
 71
    16
281
     0
 72
     0
 73
     0
  0
VIEW
  5
91D
330
6
100
AcDbSymbolTableRecord
100
AcDbViewTableRecord
  2
AM_VIEW3
 70
     0
 40
594.0000000000001
 10
574.2487692386418
 20
297.0000014775283
 41
1148.497536945813
 11
0.0
 21
0.0
 31
1.0
 12
0.0
 22
0.0
 32
0.0
 42
50.0
 43
0.0
 44
0.0
 50
0.0
 71
    16
281
     0
 72
     0
 73
     0
  0
VIEW
  5
91E
330
6
100
AcDbSymbolTableRecord
100
AcDbViewTableRecord
  2
AM_VIEW4
 70
     0
 40
594.0000000000001
 10
1105.751232292829
 20
297.0000014775283
 41
1148.497536945813
 11
0.0
 21
0.0
 31
1.0
 12
0.0
 22
0.0
 32
0.0
 42
50.0
 43
0.0
 44
0.0
 50
0.0
 71
    16
281
     0
 72
     0
 73
     0
  0
VIEW
  5
91F
330
6
100
AcDbSymbolTableRecord
100
AcDbViewTableRecord
  2
AM_VIEW5
 70
     0
 40
594.0000000000002
 10
840.0000007657352
 20
594.0000014775282
 41
1148.497536945813
 11
0.0
 21
0.0
 31
1.0
 12
0.0
 22
0.0
 32
0.0
 42
50.0
 43
0.0
 44
0.0
 50
0.0
 71
    16
281
     0
 72
     0
 73
     0
  0
VIEW
  5
920
330
6
100
AcDbSymbolTableRecord
100
AcDbViewTableRecord
  2
AM_VIEW6
 70
     0
 40
1187.98812
 10
840.0000007657352
 20
594.0000014775282
 41
2296.972103940888
 11
0.0
 21
0.0
 31
1.0
 12
0.0
 22
0.0
 32
0.0
 42
50.0
 43
0.0
 44
0.0
 50
0.0
 71
    16
281
     0
 72
     0
 73
     0
  0
ENDTAB
  0
TABLE
  2
UCS
  5
7
330
0
100
AcDbSymbolTable
 70
     0
  0
ENDTAB
  0
TABLE
  2
APPID
  5
9
330
0
100
AcDbSymbolTable
 70
   396
  0
APPID
  5
12
330
9
100
AcDbSymbolTableRecord
100
AcDbRegAppTableRecord
  2
ACAD
 70
     0
  0
APPID
  5
30
330
9
100
AcDbSymbolTableRecord
100
AcDbRegAppTableRecord
  2
MCAD_NO_VIS
 70
     0
  0
APPID
  5
31
330
9
100
AcDbSymbolTableRecord
100
AcDbRegAppTableRecord
  2
ACAD_TEMP_GRAPHIC
 70
     0
  0
APPID
  5
44
330
9
100
AcDbSymbolTableRecord
100
AcDbRegAppTableRecord
  2
ACATTRIBSERVICES
 70
     0
  0
APPID
  5
F6
330
9
100
AcDbSymbolTableRecord
100
AcDbRegAppTableRecord
  2
AD_DRAW
 70
     0
  0
APPID
  5
114
330
9
100
AcDbSymbolTableRecord
100
AcDbRegAppTableRecord
  2
DESIGNERASSEMBLIES
 70
     0
  0
APPID
  5
118
330
9
100
AcDbSymbolTableRecord
100
AcDbRegAppTableRecord
  2
ACADM_DIM_EDIT
 70
     0
  0
APPID
  5
119
330
9
100
AcDbSymbolTableRecord
100
AcDbRegAppTableRecord
  2
AMDT_DM_ADJ
 70
     0
  0
APPID
  5
1AF
330
9
100
AcDbSymbolTableRecord
100
AcDbRegAppTableRecord
  2
ACAD_DSTYLE_DIMARC_LENGTH_SYMBOL
 70
     0
  0
APPID
  5
1B0
330
9
100
AcDbSymbolTableRecord
100
AcDbRegAppTableRecord
  2
ACAD_DSTYLE_DIMJOGGED_JOGANGLE_SYMBOL
 70
     0
  0
APPID
  5
2D7
330
9
100
AcDbSymbolTableRecord
100
AcDbRegAppTableRecord
  2
ACAD_MLEADERVER
 70
     0
  0
APPID
  5
355
330
9
100
AcDbSymbolTableRecord
100
AcDbRegAppTableRecord
  2
AcadAnnoPO
 70
     0
  0
APPID
  5
428
330
9
100
AcDbSymbolTableRecord
100
AcDbRegAppTableRecord
  2
ACAD_DSTYLE_DIMTEXT_FILL
 70
     0
  0
APPID
  5
429
330
9
100
AcDbSymbolTableRecord
100
AcDbRegAppTableRecord
  2
GENIUS_GENSCREG_15
 70
     0
  0
APPID
  5
42A
330
9
100
AcDbSymbolTableRecord
100
AcDbRegAppTableRecord
  2
GENIUS_GENOBJ-N-SDF_13
 70
     0
  0
APPID
  5
42B
330
9
100
AcDbSymbolTableRecord
100
AcDbRegAppTableRecord
  2
GENIUS_GENODEF_13
 70
     0
  0
APPID
  5
42C
330
9
100
AcDbSymbolTableRecord
100
AcDbRegAppTableRecord
  2
ACAD_EXEMPT_FROM_CAD_STANDARDS
 70
     0
  0
APPID
  5
42D
330
9
100
AcDbSymbolTableRecord
100
AcDbRegAppTableRecord
  2
AcAecLayerStandard
 70
     0
  0
APPID
  5
42E
330
9
100
AcDbSymbolTableRecord
100
AcDbRegAppTableRecord
  2
GENIUS_GENOBJ-N-CEN_13
 70
     0
  0
APPID
  5
42F
330
9
100
AcDbSymbolTableRecord
100
AcDbRegAppTableRecord
  2
GENIUS_GENCEN_19
 70
     0
  0
APPID
  5
430
330
9
100
AcDbSymbolTableRecord
100
AcDbRegAppTableRecord
  2
ACAD_DSTYLE_DIMINSPECT
 70
     0
  0
APPID
  5
431
330
9
100
AcDbSymbolTableRecord
100
AcDbRegAppTableRecord
  2
GENIUS_AMGTXT_16
 70
     0
  0
APPID
  5
432
330
9
100
AcDbSymbolTableRecord
100
AcDbRegAppTableRecord
  2
GENIUS_GENFIL_13
 70
     0
  0
APPID
  5
433
330
9
100
AcDbSymbolTableRecord
100
AcDbRegAppTableRecord
  2
GENIUS_GENOLIS_13
 70
     0
  0
APPID
  5
434
330
9
100
AcDbSymbolTableRecord
100
AcDbRegAppTableRecord
  2
GENIUS_GENOBJ-N-CHA_13
 70
     0
  0
APPID
  5
435
330
9
100
AcDbSymbolTableRecord
100
AcDbRegAppTableRecord
  2
GENIUS_GENOENT_13
 70
     0
  0
APPID
  5
436
330
9
100
AcDbSymbolTableRecord
100
AcDbRegAppTableRecord
  2
GENIUS_GENOREF_13
 70
     0
  0
APPID
  5
437
330
9
100
AcDbSymbolTableRecord
100
AcDbRegAppTableRecord
  2
GENIUS_GENOBJ-N-FIL_13
 70
     0
  0
APPID
  5
438
330
9
100
AcDbSymbolTableRecord
100
AcDbRegAppTableRecord
  2
GEVID1208829536
 70
     0
  0
APPID
  5
439
330
9
100
AcDbSymbolTableRecord
100
AcDbRegAppTableRecord
  2
GEVDC
 70
     0
  0
APPID
  5
43A
330
9
100
AcDbSymbolTableRecord
100
AcDbRegAppTableRecord
  2
GEVRADREF
 70
     0
  0
APPID
  5
43B
330
9
100
AcDbSymbolTableRecord
100
AcDbRegAppTableRecord
  2
GENIUS_GENBH_13
 70
     0
  0
APPID
  5
43C
330
9
100
AcDbSymbolTableRecord
100
AcDbRegAppTableRecord
  2
GENIUS_GENOBJ-NBEHI-BHF_13
 70
     0
  0
APPID
  5
43D
330
9
100
AcDbSymbolTableRecord
100
AcDbRegAppTableRecord
  2
GENIUS_GENOBJ-NBEHI-BHB_13
 70
     0
  0
APPID
  5
43E
330
9
100
AcDbSymbolTableRecord
100
AcDbRegAppTableRecord
  2
GEVID1208829537
 70
     0
  0
APPID
  5
43F
330
9
100
AcDbSymbolTableRecord
100
AcDbRegAppTableRecord
  2
ACAD_DSTYLE_DIMJAG
 70
     0
  0
APPID
  5
440
330
9
100
AcDbSymbolTableRecord
100
AcDbRegAppTableRecord
  2
ACAD_DSTYLE_DIMTALN
 70
     0
  0
APPID
  5
441
330
9
100
AcDbSymbolTableRecord
100
AcDbRegAppTableRecord
  2
AMG_2DHIDE
 70
     0
  0
APPID
  5
442
330
9
100
AcDbSymbolTableRecord
100
AcDbRegAppTableRecord
  2
AMG_2DSTRUCT_BTR
 70
     0
  0
APPID
  5
443
330
9
100
AcDbSymbolTableRecord
100
AcDbRegAppTableRecord
  2
GEVID1208845772
 70
     0
  0
APPID
  5
444
330
9
100
AcDbSymbolTableRecord
100
AcDbRegAppTableRecord
  2
GEVID1208845773
 70
     0
  0
APPID
  5
445
330
9
100
AcDbSymbolTableRecord
100
AcDbRegAppTableRecord
  2
ACADM_2DVIEW_IGN_NOTIFY
 70
     0
  0
APPID
  5
446
330
9
100
AcDbSymbolTableRecord
100
AcDbRegAppTableRecord
  2
GEVID1208845774
 70
     0
  0
APPID
  5
447
330
9
100
AcDbSymbolTableRecord
100
AcDbRegAppTableRecord
  2
GEVID1208845775
 70
     0
  0
APPID
  5
448
330
9
100
AcDbSymbolTableRecord
100
AcDbRegAppTableRecord
  2
GEVID1208845776
 70
     0
  0
APPID
  5
449
330
9
100
AcDbSymbolTableRecord
100
AcDbRegAppTableRecord
  2
GEVID1208845777
 70
     0
  0
APPID
  5
44A
330
9
100
AcDbSymbolTableRecord
100
AcDbRegAppTableRecord
  2
GEVCON
 70
     0
  0
APPID
  5
44B
330
9
100
AcDbSymbolTableRecord
100
AcDbRegAppTableRecord
  2
GENIUS_GENOBJ-F-SCPASSM_13
 70
     0
  0
APPID
  5
44C
330
9
100
AcDbSymbolTableRecord
100
AcDbRegAppTableRecord
  2
GEVID1208845778
 70
     0
  0
APPID
  5
44D
330
9
100
AcDbSymbolTableRecord
100
AcDbRegAppTableRecord
  2
GEVID1208845779
 70
     0
  0
APPID
  5
44E
330
9
100
AcDbSymbolTableRecord
100
AcDbRegAppTableRecord
  2
GEVID1208845780
 70
     0
  0
APPID
  5
44F
330
9
100
AcDbSymbolTableRecord
100
AcDbRegAppTableRecord
  2
GEVID1208845781
 70
     0
  0
APPID
  5
450
330
9
100
AcDbSymbolTableRecord
100
AcDbRegAppTableRecord
  2
GEVID1208845782
 70
     0
  0
APPID
  5
451
330
9
100
AcDbSymbolTableRecord
100
AcDbRegAppTableRecord
  2
GEVID1208845783
 70
     0
  0
APPID
  5
452
330
9
100
AcDbSymbolTableRecord
100
AcDbRegAppTableRecord
  2
GEVID1208845784
 70
     0
  0
APPID
  5
453
330
9
100
AcDbSymbolTableRecord
100
AcDbRegAppTableRecord
  2
GEVID1208845785
 70
     0
  0
APPID
  5
454
330
9
100
AcDbSymbolTableRecord
100
AcDbRegAppTableRecord
  2
GEVID1208845787
 70
     0
  0
APPID
  5
455
330
9
100
AcDbSymbolTableRecord
100
AcDbRegAppTableRecord
  2
GEVID1208845788
 70
     0
  0
APPID
  5
456
330
9
100
AcDbSymbolTableRecord
100
AcDbRegAppTableRecord
  2
GEVID1208845789
 70
     0
  0
APPID
  5
457
330
9
100
AcDbSymbolTableRecord
100
AcDbRegAppTableRecord
  2
GEVID1208845790
 70
     0
  0
APPID
  5
458
330
9
100
AcDbSymbolTableRecord
100
AcDbRegAppTableRecord
  2
GEVID1208845791
 70
     0
  0
APPID
  5
459
330
9
100
AcDbSymbolTableRecord
100
AcDbRegAppTableRecord
  2
GEVID1208845792
 70
     0
  0
APPID
  5
45A
330
9
100
AcDbSymbolTableRecord
100
AcDbRegAppTableRecord
  2
GEVID1208845793
 70
     0
  0
APPID
  5
45B
330
9
100
AcDbSymbolTableRecord
100
AcDbRegAppTableRecord
  2
GEVID1208845794
 70
     0
  0
APPID
  5
45C
330
9
100
AcDbSymbolTableRecord
100
AcDbRegAppTableRecord
  2
GEVID1208845795
 70
     0
  0
APPID
  5
45D
330
9
100
AcDbSymbolTableRecord
100
AcDbRegAppTableRecord
  2
GEVID1208845796
 70
     0
  0
APPID
  5
45E
330
9
100
AcDbSymbolTableRecord
100
AcDbRegAppTableRecord
  2
GEVID1208845797
 70
     0
  0
APPID
  5
45F
330
9
100
AcDbSymbolTableRecord
100
AcDbRegAppTableRecord
  2
GEVID1208845798
 70
     0
  0
APPID
  5
460
330
9
100
AcDbSymbolTableRecord
100
AcDbRegAppTableRecord
  2
GEVID1208845799
 70
     0
  0
APPID
  5
461
330
9
100
AcDbSymbolTableRecord
100
AcDbRegAppTableRecord
  2
GEVID1208845800
 70
     0
  0
APPID
  5
462
330
9
100
AcDbSymbolTableRecord
100
AcDbRegAppTableRecord
  2
GEVID1208845801
 70
     0
  0
APPID
  5
463
330
9
100
AcDbSymbolTableRecord
100
AcDbRegAppTableRecord
  2
GEVID1208845802
 70
     0
  0
APPID
  5
464
330
9
100
AcDbSymbolTableRecord
100
AcDbRegAppTableRecord
  2
GENIUS_GENOBJ-N-DIM_13
 70
     0
  0
APPID
  5
465
330
9
100
AcDbSymbolTableRecord
100
AcDbRegAppTableRecord
  2
GENIUS_GENDIM_13
 70
     0
  0
APPID
  5
466
330
9
100
AcDbSymbolTableRecord
100
AcDbRegAppTableRecord
  2
GENIUS_GENDIMSH_14
 70
     0
  0
APPID
  5
467
330
9
100
AcDbSymbolTableRecord
100
AcDbRegAppTableRecord
  2
GEVID1208845803
 70
     0
  0
APPID
  5
468
330
9
100
AcDbSymbolTableRecord
100
AcDbRegAppTableRecord
  2
GEVID1208845804
 70
     0
  0
APPID
  5
469
330
9
100
AcDbSymbolTableRecord
100
AcDbRegAppTableRecord
  2
GEVID1208845805
 70
     0
  0
APPID
  5
46A
330
9
100
AcDbSymbolTableRecord
100
AcDbRegAppTableRecord
  2
GEVID1208845806
 70
     0
  0
APPID
  5
46B
330
9
100
AcDbSymbolTableRecord
100
AcDbRegAppTableRecord
  2
GEVID1208845807
 70
     0
  0
APPID
  5
46C
330
9
100
AcDbSymbolTableRecord
100
AcDbRegAppTableRecord
  2
GEVID1208845808
 70
     0
  0
APPID
  5
46D
330
9
100
AcDbSymbolTableRecord
100
AcDbRegAppTableRecord
  2
GEVID1208845809
 70
     0
  0
APPID
  5
46E
330
9
100
AcDbSymbolTableRecord
100
AcDbRegAppTableRecord
  2
GEVID1208845810
 70
     0
  0
APPID
  5
46F
330
9
100
AcDbSymbolTableRecord
100
AcDbRegAppTableRecord
  2
GEVID1208845811
 70
     0
  0
APPID
  5
470
330
9
100
AcDbSymbolTableRecord
100
AcDbRegAppTableRecord
  2
GEVID1208845813
 70
     0
  0
APPID
  5
471
330
9
100
AcDbSymbolTableRecord
100
AcDbRegAppTableRecord
  2
GEVID1208845814
 70
     0
  0
APPID
  5
472
330
9
100
AcDbSymbolTableRecord
100
AcDbRegAppTableRecord
  2
GEVID1208845815
 70
     0
  0
APPID
  5
473
330
9
100
AcDbSymbolTableRecord
100
AcDbRegAppTableRecord
  2
GEVID1208845816
 70
     0
  0
APPID
  5
474
330
9
100
AcDbSymbolTableRecord
100
AcDbRegAppTableRecord
  2
GEVID1208845817
 70
     0
  0
APPID
  5
475
330
9
100
AcDbSymbolTableRecord
100
AcDbRegAppTableRecord
  2
GEVID1208845818
 70
     0
  0
APPID
  5
476
330
9
100
AcDbSymbolTableRecord
100
AcDbRegAppTableRecord
  2
GEVID1208845819
 70
     0
  0
APPID
  5
477
330
9
100
AcDbSymbolTableRecord
100
AcDbRegAppTableRecord
  2
GEVID1208845820
 70
     0
  0
APPID
  5
478
330
9
100
AcDbSymbolTableRecord
100
AcDbRegAppTableRecord
  2
GENIUS_GENOBJ-F-SHCL_13
 70
     0
  0
APPID
  5
479
330
9
100
AcDbSymbolTableRecord
100
AcDbRegAppTableRecord
  2
GENIUS_GEFMSH_13
 70
     0
  0
APPID
  5
47A
330
9
100
AcDbSymbolTableRecord
100
AcDbRegAppTableRecord
  2
GENIUS_GENOBJ-F-SHCA_13
 70
     0
  0
APPID
  5
47B
330
9
100
AcDbSymbolTableRecord
100
AcDbRegAppTableRecord
  2
GENIUS_GEFSH_13
 70
     0
  0
APPID
  5
47C
330
9
100
AcDbSymbolTableRecord
100
AcDbRegAppTableRecord
  2
GENIUS_GEFSHP_13
 70
     0
  0
APPID
  5
47D
330
9
100
AcDbSymbolTableRecord
100
AcDbRegAppTableRecord
  2
GENIUS_GEFSHP0_13
 70
     0
  0
APPID
  5
47E
330
9
100
AcDbSymbolTableRecord
100
AcDbRegAppTableRecord
  2
GENIUS_GEFSH0_13
 70
     0
  0
APPID
  5
47F
330
9
100
AcDbSymbolTableRecord
100
AcDbRegAppTableRecord
  2
GENIUS_GEFSHP1_13
 70
     0
  0
APPID
  5
480
330
9
100
AcDbSymbolTableRecord
100
AcDbRegAppTableRecord
  2
GENIUS_GEFSH1_13
 70
     0
  0
APPID
  5
481
330
9
100
AcDbSymbolTableRecord
100
AcDbRegAppTableRecord
  2
GEVID1208866337
 70
     0
  0
APPID
  5
482
330
9
100
AcDbSymbolTableRecord
100
AcDbRegAppTableRecord
  2
GEVID1208866338
 70
     0
  0
APPID
  5
483
330
9
100
AcDbSymbolTableRecord
100
AcDbRegAppTableRecord
  2
GEVID1208866339
 70
     0
  0
APPID
  5
484
330
9
100
AcDbSymbolTableRecord
100
AcDbRegAppTableRecord
  2
GEVID1208866340
 70
     0
  0
APPID
  5
485
330
9
100
AcDbSymbolTableRecord
100
AcDbRegAppTableRecord
  2
GEVID1208866341
 70
     0
  0
APPID
  5
486
330
9
100
AcDbSymbolTableRecord
100
AcDbRegAppTableRecord
  2
ACAD_PSEXT
 70
     0
  0
APPID
  5
487
330
9
100
AcDbSymbolTableRecord
100
AcDbRegAppTableRecord
  2
GEVID1208866342
 70
     0
  0
APPID
  5
488
330
9
100
AcDbSymbolTableRecord
100
AcDbRegAppTableRecord
  2
GEVID1208913836
 70
     0
  0
APPID
  5
489
330
9
100
AcDbSymbolTableRecord
100
AcDbRegAppTableRecord
  2
GEVID1208913837
 70
     0
  0
APPID
  5
48A
330
9
100
AcDbSymbolTableRecord
100
AcDbRegAppTableRecord
  2
GEVID1208913838
 70
     0
  0
APPID
  5
48B
330
9
100
AcDbSymbolTableRecord
100
AcDbRegAppTableRecord
  2
GEVID1208913839
 70
     0
  0
APPID
  5
48C
330
9
100
AcDbSymbolTableRecord
100
AcDbRegAppTableRecord
  2
GENIUS_GENDTOL_13
 70
     0
  0
APPID
  5
48D
330
9
100
AcDbSymbolTableRecord
100
AcDbRegAppTableRecord
  2
GEVID1208928889
 70
     0
  0
APPID
  5
48E
330
9
100
AcDbSymbolTableRecord
100
AcDbRegAppTableRecord
  2
GEVID1208928890
 70
     0
  0
APPID
  5
48F
330
9
100
AcDbSymbolTableRecord
100
AcDbRegAppTableRecord
  2
GEVID1208928891
 70
     0
  0
APPID
  5
490
330
9
100
AcDbSymbolTableRecord
100
AcDbRegAppTableRecord
  2
GEVID1208928892
 70
     0
  0
APPID
  5
491
330
9
100
AcDbSymbolTableRecord
100
AcDbRegAppTableRecord
  2
GEVID1208933827
 70
     0
  0
APPID
  5
492
330
9
100
AcDbSymbolTableRecord
100
AcDbRegAppTableRecord
  2
GEVID1208933829
 70
     0
  0
APPID
  5
493
330
9
100
AcDbSymbolTableRecord
100
AcDbRegAppTableRecord
  2
GEVID1208933830
 70
     0
  0
APPID
  5
494
330
9
100
AcDbSymbolTableRecord
100
AcDbRegAppTableRecord
  2
GEVID1208933831
 70
     0
  0
APPID
  5
495
330
9
100
AcDbSymbolTableRecord
100
AcDbRegAppTableRecord
  2
GEVID1208933832
 70
     0
  0
APPID
  5
496
330
9
100
AcDbSymbolTableRecord
100
AcDbRegAppTableRecord
  2
GEVID1208933833
 70
     0
  0
APPID
  5
497
330
9
100
AcDbSymbolTableRecord
100
AcDbRegAppTableRecord
  2
GEVID1208933834
 70
     0
  0
APPID
  5
498
330
9
100
AcDbSymbolTableRecord
100
AcDbRegAppTableRecord
  2
GEVID1208933835
 70
     0
  0
APPID
  5
499
330
9
100
AcDbSymbolTableRecord
100
AcDbRegAppTableRecord
  2
GEVID1208933836
 70
     0
  0
APPID
  5
49A
330
9
100
AcDbSymbolTableRecord
100
AcDbRegAppTableRecord
  2
GEVID1208933837
 70
     0
  0
APPID
  5
49B
330
9
100
AcDbSymbolTableRecord
100
AcDbRegAppTableRecord
  2
GEVID1208933838
 70
     0
  0
APPID
  5
49C
330
9
100
AcDbSymbolTableRecord
100
AcDbRegAppTableRecord
  2
GEVID1208933840
 70
     0
  0
APPID
  5
49D
330
9
100
AcDbSymbolTableRecord
100
AcDbRegAppTableRecord
  2
GEVID1208933842
 70
     0
  0
APPID
  5
49E
330
9
100
AcDbSymbolTableRecord
100
AcDbRegAppTableRecord
  2
GEVID1208933843
 70
     0
  0
APPID
  5
49F
330
9
100
AcDbSymbolTableRecord
100
AcDbRegAppTableRecord
  2
GEVID1208933844
 70
     0
  0
APPID
  5
4A0
330
9
100
AcDbSymbolTableRecord
100
AcDbRegAppTableRecord
  2
GEVID1208933845
 70
     0
  0
APPID
  5
4A1
330
9
100
AcDbSymbolTableRecord
100
AcDbRegAppTableRecord
  2
GEVID1208933846
 70
     0
  0
APPID
  5
4A2
330
9
100
AcDbSymbolTableRecord
100
AcDbRegAppTableRecord
  2
GEVID1208933847
 70
     0
  0
APPID
  5
4A3
330
9
100
AcDbSymbolTableRecord
100
AcDbRegAppTableRecord
  2
GEVID1208933848
 70
     0
  0
APPID
  5
4A4
330
9
100
AcDbSymbolTableRecord
100
AcDbRegAppTableRecord
  2
GEVID1208933849
 70
     0
  0
APPID
  5
4A5
330
9
100
AcDbSymbolTableRecord
100
AcDbRegAppTableRecord
  2
GEVID1208933850
 70
     0
  0
APPID
  5
4A6
330
9
100
AcDbSymbolTableRecord
100
AcDbRegAppTableRecord
  2
GEVID1208933851
 70
     0
  0
APPID
  5
4A7
330
9
100
AcDbSymbolTableRecord
100
AcDbRegAppTableRecord
  2
GEVID1208933852
 70
     0
  0
APPID
  5
4A8
330
9
100
AcDbSymbolTableRecord
100
AcDbRegAppTableRecord
  2
GEVID1208933853
 70
     0
  0
APPID
  5
4A9
330
9
100
AcDbSymbolTableRecord
100
AcDbRegAppTableRecord
  2
GEVID1208933854
 70
     0
  0
APPID
  5
4AA
330
9
100
AcDbSymbolTableRecord
100
AcDbRegAppTableRecord
  2
GEVID1208933855
 70
     0
  0
APPID
  5
4AB
330
9
100
AcDbSymbolTableRecord
100
AcDbRegAppTableRecord
  2
GEVID1208933856
 70
     0
  0
APPID
  5
4AC
330
9
100
AcDbSymbolTableRecord
100
AcDbRegAppTableRecord
  2
GEVID1208933857
 70
     0
  0
APPID
  5
4AD
330
9
100
AcDbSymbolTableRecord
100
AcDbRegAppTableRecord
  2
GEVID1208933858
 70
     0
  0
APPID
  5
4AE
330
9
100
AcDbSymbolTableRecord
100
AcDbRegAppTableRecord
  2
GEVID1208933859
 70
     0
  0
APPID
  5
4AF
330
9
100
AcDbSymbolTableRecord
100
AcDbRegAppTableRecord
  2
GEVID1208933860
 70
     0
  0
APPID
  5
4B0
330
9
100
AcDbSymbolTableRecord
100
AcDbRegAppTableRecord
  2
GEVID1208933861
 70
     0
  0
APPID
  5
4B1
330
9
100
AcDbSymbolTableRecord
100
AcDbRegAppTableRecord
  2
GEVID1208933862
 70
     0
  0
APPID
  5
4B2
330
9
100
AcDbSymbolTableRecord
100
AcDbRegAppTableRecord
  2
GEVID1208933863
 70
     0
  0
APPID
  5
4B3
330
9
100
AcDbSymbolTableRecord
100
AcDbRegAppTableRecord
  2
GEVID1208933864
 70
     0
  0
APPID
  5
4B4
330
9
100
AcDbSymbolTableRecord
100
AcDbRegAppTableRecord
  2
GEVID1208933865
 70
     0
  0
APPID
  5
4B5
330
9
100
AcDbSymbolTableRecord
100
AcDbRegAppTableRecord
  2
GEVID1208933866
 70
     0
  0
APPID
  5
4B6
330
9
100
AcDbSymbolTableRecord
100
AcDbRegAppTableRecord
  2
GEVID1208933867
 70
     0
  0
APPID
  5
4B7
330
9
100
AcDbSymbolTableRecord
100
AcDbRegAppTableRecord
  2
GEVID1208933868
 70
     0
  0
APPID
  5
4B8
330
9
100
AcDbSymbolTableRecord
100
AcDbRegAppTableRecord
  2
GEVID1208933869
 70
     0
  0
APPID
  5
4B9
330
9
100
AcDbSymbolTableRecord
100
AcDbRegAppTableRecord
  2
GEVID1208933870
 70
     0
  0
APPID
  5
4BA
330
9
100
AcDbSymbolTableRecord
100
AcDbRegAppTableRecord
  2
GEVID1208933871
 70
     0
  0
APPID
  5
4BB
330
9
100
AcDbSymbolTableRecord
100
AcDbRegAppTableRecord
  2
GEVID1208933872
 70
     0
  0
APPID
  5
4BC
330
9
100
AcDbSymbolTableRecord
100
AcDbRegAppTableRecord
  2
GEVID1208933873
 70
     0
  0
APPID
  5
4BD
330
9
100
AcDbSymbolTableRecord
100
AcDbRegAppTableRecord
  2
GEVID1208933874
 70
     0
  0
APPID
  5
4BE
330
9
100
AcDbSymbolTableRecord
100
AcDbRegAppTableRecord
  2
GEVID1208933875
 70
     0
  0
APPID
  5
4BF
330
9
100
AcDbSymbolTableRecord
100
AcDbRegAppTableRecord
  2
GEVID1208933876
 70
     0
  0
APPID
  5
4C0
330
9
100
AcDbSymbolTableRecord
100
AcDbRegAppTableRecord
  2
ACAD_DSTYLE_DIMRADIAL_EXTENSION
 70
     0
  0
APPID
  5
4C1
330
9
100
AcDbSymbolTableRecord
100
AcDbRegAppTableRecord
  2
GEVID1208999100
 70
     0
  0
APPID
  5
4C2
330
9
100
AcDbSymbolTableRecord
100
AcDbRegAppTableRecord
  2
GEVID1208999101
 70
     0
  0
APPID
  5
4C3
330
9
100
AcDbSymbolTableRecord
100
AcDbRegAppTableRecord
  2
GEVID1208999102
 70
     0
  0
APPID
  5
4C4
330
9
100
AcDbSymbolTableRecord
100
AcDbRegAppTableRecord
  2
GEVID1208999103
 70
     0
  0
APPID
  5
4C5
330
9
100
AcDbSymbolTableRecord
100
AcDbRegAppTableRecord
  2
GEVID1208999105
 70
     0
  0
APPID
  5
4C6
330
9
100
AcDbSymbolTableRecord
100
AcDbRegAppTableRecord
  2
GEVID1208999106
 70
     0
  0
APPID
  5
4C7
330
9
100
AcDbSymbolTableRecord
100
AcDbRegAppTableRecord
  2
GEVID1208999108
 70
     0
  0
APPID
  5
4C8
330
9
100
AcDbSymbolTableRecord
100
AcDbRegAppTableRecord
  2
GEVID1208999109
 70
     0
  0
APPID
  5
4C9
330
9
100
AcDbSymbolTableRecord
100
AcDbRegAppTableRecord
  2
GEVID1208999110
 70
     0
  0
APPID
  5
4CA
330
9
100
AcDbSymbolTableRecord
100
AcDbRegAppTableRecord
  2
GEVID1208999111
 70
     0
  0
APPID
  5
4CB
330
9
100
AcDbSymbolTableRecord
100
AcDbRegAppTableRecord
  2
GEVID1208999112
 70
     0
  0
APPID
  5
4CC
330
9
100
AcDbSymbolTableRecord
100
AcDbRegAppTableRecord
  2
GEVID1208999113
 70
     0
  0
APPID
  5
4CD
330
9
100
AcDbSymbolTableRecord
100
AcDbRegAppTableRecord
  2
GEVID1208999114
 70
     0
  0
APPID
  5
4CE
330
9
100
AcDbSymbolTableRecord
100
AcDbRegAppTableRecord
  2
GEVID1210218799
 70
     0
  0
APPID
  5
4CF
330
9
100
AcDbSymbolTableRecord
100
AcDbRegAppTableRecord
  2
GEVID1210218800
 70
     0
  0
APPID
  5
4D0
330
9
100
AcDbSymbolTableRecord
100
AcDbRegAppTableRecord
  2
GENIUS_GEFWELD_13
 70
     0
  0
APPID
  5
4D1
330
9
100
AcDbSymbolTableRecord
100
AcDbRegAppTableRecord
  2
GENIUS_GENOBJ-F-WELS_13
 70
     0
  0
APPID
  5
4D2
330
9
100
AcDbSymbolTableRecord
100
AcDbRegAppTableRecord
  2
AcadAnnotative
 70
     0
  0
APPID
  5
4D3
330
9
100
AcDbSymbolTableRecord
100
AcDbRegAppTableRecord
  2
GEVID1210145339
 70
     0
  0
APPID
  5
4D4
330
9
100
AcDbSymbolTableRecord
100
AcDbRegAppTableRecord
  2
ACAD_DSTYLE_DIMBREAK
 70
     0
  0
APPID
  5
4D5
330
9
100
AcDbSymbolTableRecord
100
AcDbRegAppTableRecord
  2
GEVID1210145340
 70
     0
  0
APPID
  5
4D6
330
9
100
AcDbSymbolTableRecord
100
AcDbRegAppTableRecord
  2
GEVID1210145341
 70
     0
  0
APPID
  5
4D7
330
9
100
AcDbSymbolTableRecord
100
AcDbRegAppTableRecord
  2
GEVID1210145342
 70
     0
  0
APPID
  5
4D8
330
9
100
AcDbSymbolTableRecord
100
AcDbRegAppTableRecord
  2
GEVID1210145343
 70
     0
  0
APPID
  5
4D9
330
9
100
AcDbSymbolTableRecord
100
AcDbRegAppTableRecord
  2
GEVID1210145344
 70
     0
  0
APPID
  5
4DA
330
9
100
AcDbSymbolTableRecord
100
AcDbRegAppTableRecord
  2
GEVID1210145345
 70
     0
  0
APPID
  5
4DB
330
9
100
AcDbSymbolTableRecord
100
AcDbRegAppTableRecord
  2
GEVID1210152816
 70
     0
  0
APPID
  5
4DC
330
9
100
AcDbSymbolTableRecord
100
AcDbRegAppTableRecord
  2
GEVID1210153850
 70
     0
  0
APPID
  5
4DD
330
9
100
AcDbSymbolTableRecord
100
AcDbRegAppTableRecord
  2
GEVID1210153851
 70
     0
  0
APPID
  5
4DE
330
9
100
AcDbSymbolTableRecord
100
AcDbRegAppTableRecord
  2
GEVID1210153852
 70
     0
  0
APPID
  5
4DF
330
9
100
AcDbSymbolTableRecord
100
AcDbRegAppTableRecord
  2
GEVID1210549898
 70
     0
  0
APPID
  5
4E0
330
9
100
AcDbSymbolTableRecord
100
AcDbRegAppTableRecord
  2
GEVID1210549899
 70
     0
  0
APPID
  5
4E1
330
9
100
AcDbSymbolTableRecord
100
AcDbRegAppTableRecord
  2
GEVID1210549900
 70
     0
  0
APPID
  5
4E2
330
9
100
AcDbSymbolTableRecord
100
AcDbRegAppTableRecord
  2
GEVID1210549901
 70
     0
  0
APPID
  5
4E3
330
9
100
AcDbSymbolTableRecord
100
AcDbRegAppTableRecord
  2
GEVID1210549902
 70
     0
  0
APPID
  5
4E4
330
9
100
AcDbSymbolTableRecord
100
AcDbRegAppTableRecord
  2
GEVID1210549903
 70
     0
  0
APPID
  5
4E5
330
9
100
AcDbSymbolTableRecord
100
AcDbRegAppTableRecord
  2
GEVID1210549904
 70
     0
  0
APPID
  5
4E6
330
9
100
AcDbSymbolTableRecord
100
AcDbRegAppTableRecord
  2
GEVID1210549905
 70
     0
  0
APPID
  5
4E7
330
9
100
AcDbSymbolTableRecord
100
AcDbRegAppTableRecord
  2
GEVID1210549906
 70
     0
  0
APPID
  5
4E8
330
9
100
AcDbSymbolTableRecord
100
AcDbRegAppTableRecord
  2
GEVID1210549907
 70
     0
  0
APPID
  5
4E9
330
9
100
AcDbSymbolTableRecord
100
AcDbRegAppTableRecord
  2
GEVID1210549908
 70
     0
  0
APPID
  5
4EA
330
9
100
AcDbSymbolTableRecord
100
AcDbRegAppTableRecord
  2
GEVID1210549909
 70
     0
  0
APPID
  5
4EB
330
9
100
AcDbSymbolTableRecord
100
AcDbRegAppTableRecord
  2
GEVID1210549910
 70
     0
  0
APPID
  5
4EC
330
9
100
AcDbSymbolTableRecord
100
AcDbRegAppTableRecord
  2
GEVID1210549911
 70
     0
  0
APPID
  5
4ED
330
9
100
AcDbSymbolTableRecord
100
AcDbRegAppTableRecord
  2
GEVID1210549912
 70
     0
  0
APPID
  5
4EE
330
9
100
AcDbSymbolTableRecord
100
AcDbRegAppTableRecord
  2
GEVID1210549913
 70
     0
  0
APPID
  5
4EF
330
9
100
AcDbSymbolTableRecord
100
AcDbRegAppTableRecord
  2
GEVID1210549914
 70
     0
  0
APPID
  5
4F0
330
9
100
AcDbSymbolTableRecord
100
AcDbRegAppTableRecord
  2
GEVID1210549915
 70
     0
  0
APPID
  5
4F1
330
9
100
AcDbSymbolTableRecord
100
AcDbRegAppTableRecord
  2
GEVID1210549916
 70
     0
  0
APPID
  5
4F2
330
9
100
AcDbSymbolTableRecord
100
AcDbRegAppTableRecord
  2
GEVID1210549917
 70
     0
  0
APPID
  5
4F3
330
9
100
AcDbSymbolTableRecord
100
AcDbRegAppTableRecord
  2
GENIUS_GENOBJ-N-CRS_13
 70
     0
  0
APPID
  5
4F4
330
9
100
AcDbSymbolTableRecord
100
AcDbRegAppTableRecord
  2
GEVID1210549918
 70
     0
  0
APPID
  5
4F5
330
9
100
AcDbSymbolTableRecord
100
AcDbRegAppTableRecord
  2
GENIUS_GENOBJ-N-CRC_13
 70
     0
  0
APPID
  5
4F6
330
9
100
AcDbSymbolTableRecord
100
AcDbRegAppTableRecord
  2
GENIUS_GENCRC_14
 70
     0
  0
APPID
  5
4F7
330
9
100
AcDbSymbolTableRecord
100
AcDbRegAppTableRecord
  2
GEVID1210549919
 70
     0
  0
APPID
  5
4F8
330
9
100
AcDbSymbolTableRecord
100
AcDbRegAppTableRecord
  2
GEVID1210549921
 70
     0
  0
APPID
  5
4F9
330
9
100
AcDbSymbolTableRecord
100
AcDbRegAppTableRecord
  2
GEVID1210549922
 70
     0
  0
APPID
  5
4FA
330
9
100
AcDbSymbolTableRecord
100
AcDbRegAppTableRecord
  2
GEVID1210635173
 70
     0
  0
APPID
  5
4FB
330
9
100
AcDbSymbolTableRecord
100
AcDbRegAppTableRecord
  2
GEVID1210635174
 70
     0
  0
APPID
  5
4FC
330
9
100
AcDbSymbolTableRecord
100
AcDbRegAppTableRecord
  2
GEVID1210635175
 70
     0
  0
APPID
  5
4FD
330
9
100
AcDbSymbolTableRecord
100
AcDbRegAppTableRecord
  2
GEVID1210635176
 70
     0
  0
APPID
  5
4FE
330
9
100
AcDbSymbolTableRecord
100
AcDbRegAppTableRecord
  2
GEVID1210635177
 70
     0
  0
APPID
  5
4FF
330
9
100
AcDbSymbolTableRecord
100
AcDbRegAppTableRecord
  2
GEVID1210635178
 70
     0
  0
APPID
  5
500
330
9
100
AcDbSymbolTableRecord
100
AcDbRegAppTableRecord
  2
GENIUS_GENIUS_GENBHEDTMP_13
 70
     0
  0
APPID
  5
501
330
9
100
AcDbSymbolTableRecord
100
AcDbRegAppTableRecord
  2
GEVID1210635179
 70
     0
  0
APPID
  5
502
330
9
100
AcDbSymbolTableRecord
100
AcDbRegAppTableRecord
  2
GEVID1210635180
 70
     0
  0
APPID
  5
503
330
9
100
AcDbSymbolTableRecord
100
AcDbRegAppTableRecord
  2
GEVID1210635181
 70
     0
  0
APPID
  5
504
330
9
100
AcDbSymbolTableRecord
100
AcDbRegAppTableRecord
  2
GEVID1210635182
 70
     0
  0
APPID
  5
505
330
9
100
AcDbSymbolTableRecord
100
AcDbRegAppTableRecord
  2
GEVID1210635184
 70
     0
  0
APPID
  5
506
330
9
100
AcDbSymbolTableRecord
100
AcDbRegAppTableRecord
  2
GEVID1210635185
 70
     0
  0
APPID
  5
507
330
9
100
AcDbSymbolTableRecord
100
AcDbRegAppTableRecord
  2
GEVID1210635186
 70
     0
  0
APPID
  5
508
330
9
100
AcDbSymbolTableRecord
100
AcDbRegAppTableRecord
  2
GEVID1210635187
 70
     0
  0
APPID
  5
509
330
9
100
AcDbSymbolTableRecord
100
AcDbRegAppTableRecord
  2
GEVID1210635188
 70
     0
  0
APPID
  5
50A
330
9
100
AcDbSymbolTableRecord
100
AcDbRegAppTableRecord
  2
GEVID1210635189
 70
     0
  0
APPID
  5
50B
330
9
100
AcDbSymbolTableRecord
100
AcDbRegAppTableRecord
  2
GEVID1210635190
 70
     0
  0
APPID
  5
50C
330
9
100
AcDbSymbolTableRecord
100
AcDbRegAppTableRecord
  2
GENIUS_GENREC_14
 70
     0
  0
APPID
  5
50D
330
9
100
AcDbSymbolTableRecord
100
AcDbRegAppTableRecord
  2
GENIUS_GENOBJ-N-REC_13
 70
     0
  0
APPID
  5
50E
330
9
100
AcDbSymbolTableRecord
100
AcDbRegAppTableRecord
  2
GEVID1210676655
 70
     0
  0
APPID
  5
50F
330
9
100
AcDbSymbolTableRecord
100
AcDbRegAppTableRecord
  2
GEVID1210676656
 70
     0
  0
APPID
  5
510
330
9
100
AcDbSymbolTableRecord
100
AcDbRegAppTableRecord
  2
GEVID1210676657
 70
     0
  0
APPID
  5
511
330
9
100
AcDbSymbolTableRecord
100
AcDbRegAppTableRecord
  2
GEVID1210676659
 70
     0
  0
APPID
  5
512
330
9
100
AcDbSymbolTableRecord
100
AcDbRegAppTableRecord
  2
GEVID1210676660
 70
     0
  0
APPID
  5
513
330
9
100
AcDbSymbolTableRecord
100
AcDbRegAppTableRecord
  2
GEVID1210676661
 70
     0
  0
APPID
  5
514
330
9
100
AcDbSymbolTableRecord
100
AcDbRegAppTableRecord
  2
GEVID1210676662
 70
     0
  0
APPID
  5
515
330
9
100
AcDbSymbolTableRecord
100
AcDbRegAppTableRecord
  2
GEVID1210721646
 70
     0
  0
APPID
  5
516
330
9
100
AcDbSymbolTableRecord
100
AcDbRegAppTableRecord
  2
GEVID1210721647
 70
     0
  0
APPID
  5
517
330
9
100
AcDbSymbolTableRecord
100
AcDbRegAppTableRecord
  2
GEVID1210721648
 70
     0
  0
APPID
  5
518
330
9
100
AcDbSymbolTableRecord
100
AcDbRegAppTableRecord
  2
GEVID1210721649
 70
     0
  0
APPID
  5
519
330
9
100
AcDbSymbolTableRecord
100
AcDbRegAppTableRecord
  2
GEVID1210721650
 70
     0
  0
APPID
  5
51A
330
9
100
AcDbSymbolTableRecord
100
AcDbRegAppTableRecord
  2
GEVID1210721651
 70
     0
  0
APPID
  5
51B
330
9
100
AcDbSymbolTableRecord
100
AcDbRegAppTableRecord
  2
GEVID1210721652
 70
     0
  0
APPID
  5
51C
330
9
100
AcDbSymbolTableRecord
100
AcDbRegAppTableRecord
  2
GEVID1210721653
 70
     0
  0
APPID
  5
51D
330
9
100
AcDbSymbolTableRecord
100
AcDbRegAppTableRecord
  2
PE_URL
 70
     0
  0
APPID
  5
51E
330
9
100
AcDbSymbolTableRecord
100
AcDbRegAppTableRecord
  2
GEVID1210825555
 70
     0
  0
APPID
  5
51F
330
9
100
AcDbSymbolTableRecord
100
AcDbRegAppTableRecord
  2
GEVID1210825556
 70
     0
  0
APPID
  5
520
330
9
100
AcDbSymbolTableRecord
100
AcDbRegAppTableRecord
  2
GEVID1210825557
 70
     0
  0
APPID
  5
521
330
9
100
AcDbSymbolTableRecord
100
AcDbRegAppTableRecord
  2
GEVID1210825558
 70
     0
  0
APPID
  5
522
330
9
100
AcDbSymbolTableRecord
100
AcDbRegAppTableRecord
  2
GEVID1210825559
 70
     0
  0
APPID
  5
523
330
9
100
AcDbSymbolTableRecord
100
AcDbRegAppTableRecord
  2
GEVID1210825560
 70
     0
  0
APPID
  5
524
330
9
100
AcDbSymbolTableRecord
100
AcDbRegAppTableRecord
  2
GEVID1210825561
 70
     0
  0
APPID
  5
525
330
9
100
AcDbSymbolTableRecord
100
AcDbRegAppTableRecord
  2
GEVID1210825562
 70
     0
  0
APPID
  5
526
330
9
100
AcDbSymbolTableRecord
100
AcDbRegAppTableRecord
  2
GEVID1210825563
 70
     0
  0
APPID
  5
527
330
9
100
AcDbSymbolTableRecord
100
AcDbRegAppTableRecord
  2
GEVID1210825564
 70
     0
  0
APPID
  5
528
330
9
100
AcDbSymbolTableRecord
100
AcDbRegAppTableRecord
  2
GEVID1210825565
 70
     0
  0
APPID
  5
529
330
9
100
AcDbSymbolTableRecord
100
AcDbRegAppTableRecord
  2
GEVID1210825566
 70
     0
  0
APPID
  5
52A
330
9
100
AcDbSymbolTableRecord
100
AcDbRegAppTableRecord
  2
GEVID1210825567
 70
     0
  0
APPID
  5
52B
330
9
100
AcDbSymbolTableRecord
100
AcDbRegAppTableRecord
  2
GENIUS_GENOBJ-N-ZOO_13
 70
     0
  0
APPID
  5
52C
330
9
100
AcDbSymbolTableRecord
100
AcDbRegAppTableRecord
  2
GENIUS_GENZOO_17
 70
     0
  0
APPID
  5
52D
330
9
100
AcDbSymbolTableRecord
100
AcDbRegAppTableRecord
  2
ACADANNOTATIVEDECOMPOSITION
 70
     0
  0
APPID
  5
52E
330
9
100
AcDbSymbolTableRecord
100
AcDbRegAppTableRecord
  2
GENIUS_GENOBJ-N-HTC_13
 70
     0
  0
APPID
  5
52F
330
9
100
AcDbSymbolTableRecord
100
AcDbRegAppTableRecord
  2
GENIUS_GENHATCH_13
 70
     0
  0
APPID
  5
530
330
9
100
AcDbSymbolTableRecord
100
AcDbRegAppTableRecord
  2
GEVID1210896020
 70
     0
  0
APPID
  5
531
330
9
100
AcDbSymbolTableRecord
100
AcDbRegAppTableRecord
  2
GEVID1210896021
 70
     0
  0
APPID
  5
532
330
9
100
AcDbSymbolTableRecord
100
AcDbRegAppTableRecord
  2
GEVID1209083540
 70
     0
  0
APPID
  5
533
330
9
100
AcDbSymbolTableRecord
100
AcDbRegAppTableRecord
  2
GEVMK
 70
     0
  0
APPID
  5
534
330
9
100
AcDbSymbolTableRecord
100
AcDbRegAppTableRecord
  2
GEVID1209083542
 70
     0
  0
APPID
  5
535
330
9
100
AcDbSymbolTableRecord
100
AcDbRegAppTableRecord
  2
GEVID1209083543
 70
     0
  0
APPID
  5
536
330
9
100
AcDbSymbolTableRecord
100
AcDbRegAppTableRecord
  2
GEVID1209083544
 70
     0
  0
APPID
  5
537
330
9
100
AcDbSymbolTableRecord
100
AcDbRegAppTableRecord
  2
GEVID1209083545
 70
     0
  0
APPID
  5
538
330
9
100
AcDbSymbolTableRecord
100
AcDbRegAppTableRecord
  2
GEVID1209083546
 70
     0
  0
APPID
  5
539
330
9
100
AcDbSymbolTableRecord
100
AcDbRegAppTableRecord
  2
GEVID1209083547
 70
     0
  0
APPID
  5
53A
330
9
100
AcDbSymbolTableRecord
100
AcDbRegAppTableRecord
  2
GEVID1209083548
 70
     0
  0
APPID
  5
53B
330
9
100
AcDbSymbolTableRecord
100
AcDbRegAppTableRecord
  2
GEVID1209083549
 70
     0
  0
APPID
  5
53C
330
9
100
AcDbSymbolTableRecord
100
AcDbRegAppTableRecord
  2
GEVID1209083550
 70
     0
  0
APPID
  5
53D
330
9
100
AcDbSymbolTableRecord
100
AcDbRegAppTableRecord
  2
GEVID1209083551
 70
     0
  0
APPID
  5
53E
330
9
100
AcDbSymbolTableRecord
100
AcDbRegAppTableRecord
  2
GEVID1209083552
 70
     0
  0
APPID
  5
53F
330
9
100
AcDbSymbolTableRecord
100
AcDbRegAppTableRecord
  2
GEVID1209083553
 70
     0
  0
APPID
  5
540
330
9
100
AcDbSymbolTableRecord
100
AcDbRegAppTableRecord
  2
GEVID1210896022
 70
     0
  0
APPID
  5
541
330
9
100
AcDbSymbolTableRecord
100
AcDbRegAppTableRecord
  2
GEVID1211508364
 70
     0
  0
APPID
  5
542
330
9
100
AcDbSymbolTableRecord
100
AcDbRegAppTableRecord
  2
GEVID1211414908
 70
     0
  0
APPID
  5
543
330
9
100
AcDbSymbolTableRecord
100
AcDbRegAppTableRecord
  2
GEVID1211414909
 70
     0
  0
APPID
  5
544
330
9
100
AcDbSymbolTableRecord
100
AcDbRegAppTableRecord
  2
GEVID1211508359
 70
     0
  0
APPID
  5
545
330
9
100
AcDbSymbolTableRecord
100
AcDbRegAppTableRecord
  2
GEVID1211508360
 70
     0
  0
APPID
  5
546
330
9
100
AcDbSymbolTableRecord
100
AcDbRegAppTableRecord
  2
GEVID1211508361
 70
     0
  0
APPID
  5
547
330
9
100
AcDbSymbolTableRecord
100
AcDbRegAppTableRecord
  2
GEVID1211508362
 70
     0
  0
APPID
  5
548
330
9
100
AcDbSymbolTableRecord
100
AcDbRegAppTableRecord
  2
GEVID1211508363
 70
     0
  0
APPID
  5
549
330
9
100
AcDbSymbolTableRecord
100
AcDbRegAppTableRecord
  2
GEVID1211878469
 70
     0
  0
APPID
  5
54A
330
9
100
AcDbSymbolTableRecord
100
AcDbRegAppTableRecord
  2
GEVID1212642819
 70
     0
  0
APPID
  5
54B
330
9
100
AcDbSymbolTableRecord
100
AcDbRegAppTableRecord
  2
GEVID1212642820
 70
     0
  0
APPID
  5
54C
330
9
100
AcDbSymbolTableRecord
100
AcDbRegAppTableRecord
  2
GEVID1212642821
 70
     0
  0
APPID
  5
54D
330
9
100
AcDbSymbolTableRecord
100
AcDbRegAppTableRecord
  2
GEVID1212642822
 70
     0
  0
APPID
  5
54E
330
9
100
AcDbSymbolTableRecord
100
AcDbRegAppTableRecord
  2
GEVID1212642823
 70
     0
  0
APPID
  5
54F
330
9
100
AcDbSymbolTableRecord
100
AcDbRegAppTableRecord
  2
GEVID1212642825
 70
     0
  0
APPID
  5
550
330
9
100
AcDbSymbolTableRecord
100
AcDbRegAppTableRecord
  2
GEVID1212642826
 70
     0
  0
APPID
  5
551
330
9
100
AcDbSymbolTableRecord
100
AcDbRegAppTableRecord
  2
GEVID1212642827
 70
     0
  0
APPID
  5
552
330
9
100
AcDbSymbolTableRecord
100
AcDbRegAppTableRecord
  2
GEVID1212642828
 70
     0
  0
APPID
  5
553
330
9
100
AcDbSymbolTableRecord
100
AcDbRegAppTableRecord
  2
GEVID1212642831
 70
     0
  0
APPID
  5
554
330
9
100
AcDbSymbolTableRecord
100
AcDbRegAppTableRecord
  2
GEVID1212642834
 70
     0
  0
APPID
  5
555
330
9
100
AcDbSymbolTableRecord
100
AcDbRegAppTableRecord
  2
GEVID1212642835
 70
     0
  0
APPID
  5
556
330
9
100
AcDbSymbolTableRecord
100
AcDbRegAppTableRecord
  2
GEVID1212642836
 70
     0
  0
APPID
  5
557
330
9
100
AcDbSymbolTableRecord
100
AcDbRegAppTableRecord
  2
GEVID1212642837
 70
     0
  0
APPID
  5
558
330
9
100
AcDbSymbolTableRecord
100
AcDbRegAppTableRecord
  2
GEVID1212642839
 70
     0
  0
APPID
  5
559
330
9
100
AcDbSymbolTableRecord
100
AcDbRegAppTableRecord
  2
GEVID1212642840
 70
     0
  0
APPID
  5
55A
330
9
100
AcDbSymbolTableRecord
100
AcDbRegAppTableRecord
  2
GEVID1212642841
 70
     0
  0
APPID
  5
55B
330
9
100
AcDbSymbolTableRecord
100
AcDbRegAppTableRecord
  2
GEVID1212655312
 70
     0
  0
APPID
  5
55C
330
9
100
AcDbSymbolTableRecord
100
AcDbRegAppTableRecord
  2
GEVID1212655313
 70
     0
  0
APPID
  5
55D
330
9
100
AcDbSymbolTableRecord
100
AcDbRegAppTableRecord
  2
GEVID1212656533
 70
     0
  0
APPID
  5
55E
330
9
100
AcDbSymbolTableRecord
100
AcDbRegAppTableRecord
  2
GEVID1212656534
 70
     0
  0
APPID
  5
55F
330
9
100
AcDbSymbolTableRecord
100
AcDbRegAppTableRecord
  2
GEVID1212656535
 70
     0
  0
APPID
  5
560
330
9
100
AcDbSymbolTableRecord
100
AcDbRegAppTableRecord
  2
GEVID1212656536
 70
     0
  0
APPID
  5
561
330
9
100
AcDbSymbolTableRecord
100
AcDbRegAppTableRecord
  2
GEVID1212656538
 70
     0
  0
APPID
  5
562
330
9
100
AcDbSymbolTableRecord
100
AcDbRegAppTableRecord
  2
GEVID1212656541
 70
     0
  0
APPID
  5
563
330
9
100
AcDbSymbolTableRecord
100
AcDbRegAppTableRecord
  2
GEVID1212656543
 70
     0
  0
APPID
  5
564
330
9
100
AcDbSymbolTableRecord
100
AcDbRegAppTableRecord
  2
GENIUS_GENOBJ-F-PFASSM_13
 70
     0
  0
APPID
  5
565
330
9
100
AcDbSymbolTableRecord
100
AcDbRegAppTableRecord
  2
GEVID1212656544
 70
     0
  0
APPID
  5
566
330
9
100
AcDbSymbolTableRecord
100
AcDbRegAppTableRecord
  2
GEVID1212656545
 70
     0
  0
APPID
  5
567
330
9
100
AcDbSymbolTableRecord
100
AcDbRegAppTableRecord
  2
GEVID1212656546
 70
     0
  0
APPID
  5
568
330
9
100
AcDbSymbolTableRecord
100
AcDbRegAppTableRecord
  2
GEVID1212656547
 70
     0
  0
APPID
  5
569
330
9
100
AcDbSymbolTableRecord
100
AcDbRegAppTableRecord
  2
GEVID1212656548
 70
     0
  0
APPID
  5
56A
330
9
100
AcDbSymbolTableRecord
100
AcDbRegAppTableRecord
  2
GEVID1212656549
 70
     0
  0
APPID
  5
56B
330
9
100
AcDbSymbolTableRecord
100
AcDbRegAppTableRecord
  2
GEVID1212656550
 70
     0
  0
APPID
  5
56C
330
9
100
AcDbSymbolTableRecord
100
AcDbRegAppTableRecord
  2
GEVID1212656552
 70
     0
  0
APPID
  5
56D
330
9
100
AcDbSymbolTableRecord
100
AcDbRegAppTableRecord
  2
GEVID1212656553
 70
     0
  0
APPID
  5
56E
330
9
100
AcDbSymbolTableRecord
100
AcDbRegAppTableRecord
  2
GEVID1212656554
 70
     0
  0
APPID
  5
56F
330
9
100
AcDbSymbolTableRecord
100
AcDbRegAppTableRecord
  2
GEVID1212656555
 70
     0
  0
APPID
  5
570
330
9
100
AcDbSymbolTableRecord
100
AcDbRegAppTableRecord
  2
GEVID1212656556
 70
     0
  0
APPID
  5
571
330
9
100
AcDbSymbolTableRecord
100
AcDbRegAppTableRecord
  2
GEVID1212656557
 70
     0
  0
APPID
  5
572
330
9
100
AcDbSymbolTableRecord
100
AcDbRegAppTableRecord
  2
GEVID1212656559
 70
     0
  0
APPID
  5
573
330
9
100
AcDbSymbolTableRecord
100
AcDbRegAppTableRecord
  2
GEVID1212656560
 70
     0
  0
APPID
  5
574
330
9
100
AcDbSymbolTableRecord
100
AcDbRegAppTableRecord
  2
GEVID1212656561
 70
     0
  0
APPID
  5
575
330
9
100
AcDbSymbolTableRecord
100
AcDbRegAppTableRecord
  2
GEVID1212656562
 70
     0
  0
APPID
  5
576
330
9
100
AcDbSymbolTableRecord
100
AcDbRegAppTableRecord
  2
GEVID1212656563
 70
     0
  0
APPID
  5
577
330
9
100
AcDbSymbolTableRecord
100
AcDbRegAppTableRecord
  2
GEVID1212711781
 70
     0
  0
APPID
  5
578
330
9
100
AcDbSymbolTableRecord
100
AcDbRegAppTableRecord
  2
GEVID1212711782
 70
     0
  0
APPID
  5
579
330
9
100
AcDbSymbolTableRecord
100
AcDbRegAppTableRecord
  2
GEVID1212711783
 70
     0
  0
APPID
  5
57A
330
9
100
AcDbSymbolTableRecord
100
AcDbRegAppTableRecord
  2
GEVID1212711784
 70
     0
  0
APPID
  5
57B
330
9
100
AcDbSymbolTableRecord
100
AcDbRegAppTableRecord
  2
GEVID1212711788
 70
     0
  0
APPID
  5
57C
330
9
100
AcDbSymbolTableRecord
100
AcDbRegAppTableRecord
  2
GEVID1212711789
 70
     0
  0
APPID
  5
57D
330
9
100
AcDbSymbolTableRecord
100
AcDbRegAppTableRecord
  2
GEVID1212711790
 70
     0
  0
APPID
  5
57E
330
9
100
AcDbSymbolTableRecord
100
AcDbRegAppTableRecord
  2
GEVID1212711791
 70
     0
  0
APPID
  5
57F
330
9
100
AcDbSymbolTableRecord
100
AcDbRegAppTableRecord
  2
GEVID1212711792
 70
     0
  0
APPID
  5
580
330
9
100
AcDbSymbolTableRecord
100
AcDbRegAppTableRecord
  2
GEVID1212711793
 70
     0
  0
APPID
  5
581
330
9
100
AcDbSymbolTableRecord
100
AcDbRegAppTableRecord
  2
GEVID1212711794
 70
     0
  0
APPID
  5
582
330
9
100
AcDbSymbolTableRecord
100
AcDbRegAppTableRecord
  2
GEVID1212711795
 70
     0
  0
APPID
  5
583
330
9
100
AcDbSymbolTableRecord
100
AcDbRegAppTableRecord
  2
GEVID1212711797
 70
     0
  0
APPID
  5
584
330
9
100
AcDbSymbolTableRecord
100
AcDbRegAppTableRecord
  2
GEVID1212711798
 70
     0
  0
APPID
  5
585
330
9
100
AcDbSymbolTableRecord
100
AcDbRegAppTableRecord
  2
GEVID1212711799
 70
     0
  0
APPID
  5
586
330
9
100
AcDbSymbolTableRecord
100
AcDbRegAppTableRecord
  2
GEVID1212711800
 70
     0
  0
APPID
  5
587
330
9
100
AcDbSymbolTableRecord
100
AcDbRegAppTableRecord
  2
GEVID1212711801
 70
     0
  0
APPID
  5
588
330
9
100
AcDbSymbolTableRecord
100
AcDbRegAppTableRecord
  2
GEVID1212711802
 70
     0
  0
APPID
  5
589
330
9
100
AcDbSymbolTableRecord
100
AcDbRegAppTableRecord
  2
GEVID1212711803
 70
     0
  0
APPID
  5
58A
330
9
100
AcDbSymbolTableRecord
100
AcDbRegAppTableRecord
  2
GEVID1212711804
 70
     0
  0
APPID
  5
58B
330
9
100
AcDbSymbolTableRecord
100
AcDbRegAppTableRecord
  2
GEVID1212711805
 70
     0
  0
APPID
  5
58C
330
9
100
AcDbSymbolTableRecord
100
AcDbRegAppTableRecord
  2
GEVID1212711806
 70
     0
  0
APPID
  5
58D
330
9
100
AcDbSymbolTableRecord
100
AcDbRegAppTableRecord
  2
GEVID1212711807
 70
     0
  0
APPID
  5
58E
330
9
100
AcDbSymbolTableRecord
100
AcDbRegAppTableRecord
  2
GEVID1212711808
 70
     0
  0
APPID
  5
58F
330
9
100
AcDbSymbolTableRecord
100
AcDbRegAppTableRecord
  2
GEVID1212711809
 70
     0
  0
APPID
  5
590
330
9
100
AcDbSymbolTableRecord
100
AcDbRegAppTableRecord
  2
GEVID1212711810
 70
     0
  0
APPID
  5
591
330
9
100
AcDbSymbolTableRecord
100
AcDbRegAppTableRecord
  2
GEVID1212711811
 70
     0
  0
APPID
  5
90A
330
9
100
AcDbSymbolTableRecord
100
AcDbRegAppTableRecord
  2
GENIUS_GENTRA_14
 70
     0
  0
APPID
  5
919
330
9
100
AcDbSymbolTableRecord
100
AcDbRegAppTableRecord
  2
GENIUS_GENOBJ-N-TIT_13
 70
     0
  0
APPID
  5
91A
330
9
100
AcDbSymbolTableRecord
100
AcDbRegAppTableRecord
  2
GENIUS_GENTITLE_13
 70
     0
  0
APPID
  5
949
330
9
100
AcDbSymbolTableRecord
100
AcDbRegAppTableRecord
  2
GENIUS_GENBLLY_14
 70
     0
  0
APPID
  5
DDD
330
9
100
AcDbSymbolTableRecord
100
AcDbRegAppTableRecord
  2
GEVID1213165152
 70
     0
  0
APPID
  5
12F9
330
9
100
AcDbSymbolTableRecord
100
AcDbRegAppTableRecord
  2
AcDbDynamicBlockTrueName
 70
     0
  0
APPID
  5
12FA
330
9
100
AcDbSymbolTableRecord
100
AcDbRegAppTableRecord
  2
ACDBBLOCKREPETAG
 70
     0
  0
APPID
  5
1C15
330
9
100
AcDbSymbolTableRecord
100
AcDbRegAppTableRecord
  2
GEVID1214872427
 70
     0
  0
APPID
  5
1C2A
330
9
100
AcDbSymbolTableRecord
100
AcDbRegAppTableRecord
  2
GEVID1214872428
 70
     0
  0
APPID
  5
1C2F
330
9
100
AcDbSymbolTableRecord
100
AcDbRegAppTableRecord
  2
GEVID1214872429
 70
     0
  0
APPID
  5
1C33
330
9
100
AcDbSymbolTableRecord
100
AcDbRegAppTableRecord
  2
GEVID1214872430
 70
     0
  0
APPID
  5
1C3F
330
9
100
AcDbSymbolTableRecord
100
AcDbRegAppTableRecord
  2
GEVID1214872432
 70
     0
  0
APPID
  5
1C4E
330
9
100
AcDbSymbolTableRecord
100
AcDbRegAppTableRecord
  2
GEVID1214872433
 70
     0
  0
APPID
  5
20DC
330
9
100
AcDbSymbolTableRecord
100
AcDbRegAppTableRecord
  2
AcDbDynamicBlockGUID
 70
     0
  0
APPID
  5
20FD
330
9
100
AcDbSymbolTableRecord
100
AcDbRegAppTableRecord
  2
GENIUS_GENOBJ-N-REV_13
 70
     0
  0
APPID
  5
20FE
330
9
100
AcDbSymbolTableRecord
100
AcDbRegAppTableRecord
  2
GENIUS_GENOBJ-N-RSSYM_13
 70
     0
  0
APPID
  5
20FF
330
9
100
AcDbSymbolTableRecord
100
AcDbRegAppTableRecord
  2
GENIUS_GENSYMENT_13
 70
     0
  0
APPID
  5
2100
330
9
100
AcDbSymbolTableRecord
100
AcDbRegAppTableRecord
  2
GENIUS_GENSCSYM_13
 70
     0
  0
APPID
  5
5D6A
330
9
100
AcDbSymbolTableRecord
100
AcDbRegAppTableRecord
  2
GEVID1242179539
 70
     0
  0
APPID
  5
5D87
330
9
100
AcDbSymbolTableRecord
100
AcDbRegAppTableRecord
  2
GEVID1242179540
 70
     0
  0
APPID
  5
5F84
330
9
100
AcDbSymbolTableRecord
100
AcDbRegAppTableRecord
  2
GEVID1242179541
 70
     0
  0
APPID
  5
5F89
330
9
100
AcDbSymbolTableRecord
100
AcDbRegAppTableRecord
  2
GEVID1242179542
 70
     0
  0
ENDTAB
  0
TABLE
  2
DIMSTYLE
  5
A
330
0
100
AcDbSymbolTable
 70
    29
100
AcDbDimStyleTable
 71
     1
340
5AB
  0
DIMSTYLE
105
5AB
330
A
100
AcDbSymbolTableRecord
100
AcDbDimStyleTableRecord
  2
SEISA
 70
     0
  4
"
 40
4.0
 41
2.5
 42
0.625
 43
10.0
 44
0.625
 47
0.1
 48
0.1
 73
     0
 74
     0
 77
     3
 78
     8
 79
     2
 90
     1
140
3.5
141
0.0
143
0.0393701
146
0.71
147
1.5
172
     1
176
     3
177
     3
178
     3
271
     2
272
     2
283
     0
286
     8
340
5D5
341
69
342
69
371
    -1
372
    -1
1001
ACAD_DSTYLE_DIMJAG
1070
   388
1040
1.5
1001
ACAD_DSTYLE_DIMTALN
1070
   392
1070
     1
  0
DIMSTYLE
105
5E9
102
{ACAD_REACTORS
330
5FFF
330
60B5
330
60CD
330
633A
330
6352
330
636A
330
6431
330
6485
330
64A1
330
64C2
330
64F2
330
650A
330
8D8C
330
8DC9
330
9384
330
9598
330
9739
330
975D
330
97EC
330
988F
102
}
330
A
100
AcDbSymbolTableRecord
100
AcDbDimStyleTableRecord
  2
SEISA$0
 70
     0
  4
"
 40
4.0
 41
2.5
 42
0.625
 43
10.0
 44
0.625
 47
0.1
 48
0.1
 73
     0
 74
     0
 77
     3
 78
     8
 79
     2
 90
     1
140
3.5
141
0.0
143
0.0393701
146
0.71
147
1.5
172
     1
176
     3
177
     3
178
     3
271
     2
272
     2
283
     0
286
     8
340
5D5
341
69
342
69
371
    -1
372
    -1
  0
DIMSTYLE
105
9B6F
330
A
100
AcDbSymbolTableRecord
100
AcDbDimStyleTableRecord
  2
AM_ISO
 70
     0
  4
"
 41
2.5
 42
1.0
 43
10.0
 44
1.0
 47
0.1
 48
0.1
 73
     0
 74
     0
 77
     1
 78
     8
 79
     2
 90
     1
140
3.5
141
0.0
143
0.0393701
146
0.71
147
1.5
172
     1
176
   256
177
   256
178
     2
271
     2
272
     3
274
     4
283
     0
284
     8
340
11
371
    -1
372
    -1
  0
DIMSTYLE
105
9B70
330
A
100
AcDbSymbolTableRecord
100
AcDbDimStyleTableRecord
  2
AM_ISO$3
 70
     0
  4
"
 41
2.5
 42
1.0
 43
10.0
 44
1.0
 47
0.1
 48
0.1
 73
     0
 77
     1
 78
     8
 79
     2
 90
     1
140
3.5
141
0.0
143
0.0393701
146
0.71
147
1.5
176
   256
177
   256
178
     2
271
     2
272
     3
274
     4
283
     0
284
     8
288
     1
289
     0
340
11
371
    -1
372
    -1
  0
DIMSTYLE
105
9B71
330
A
100
AcDbSymbolTableRecord
100
AcDbDimStyleTableRecord
  2
AM_ISO$4
 70
     0
  4
"
 41
2.5
 42
1.0
 43
10.0
 44
1.0
 47
0.1
 48
0.1
 73
     0
 77
     1
 78
     8
 79
     2
 90
     1
140
3.5
141
0.0
143
0.0393701
146
0.71
147
1.5
176
   256
177
   256
178
     2
271
     2
272
     3
274
     4
283
     0
284
     8
288
     1
289
     0
340
11
371
    -1
372
    -1
  0
DIMSTYLE
105
9B72
330
A
100
AcDbSymbolTableRecord
100
AcDbDimStyleTableRecord
  2
AM_ISO$6
 70
     0
  4
"
 41
2.5
 42
1.0
 43
10.0
 44
1.0
 47
0.1
 48
0.1
 73
     0
 74
     0
 78
     8
 79
     2
 90
     1
140
3.5
141
0.0
143
0.0393701
146
0.71
147
1.5
172
     1
176
   256
177
   256
178
     2
271
     2
272
     3
274
     4
283
     0
284
     8
340
11
371
    -1
372
    -1
  0
DIMSTYLE
105
9B73
330
A
100
AcDbSymbolTableRecord
100
AcDbDimStyleTableRecord
  2
AM_ISO$7
 70
     0
  4
"
 41
2.5
 42
1.0
 43
10.0
 44
1.0
 47
0.1
 48
0.1
 73
     0
 74
     0
 77
     1
 78
     8
 79
     2
 90
     1
140
5.0
141
0.0
143
0.0393701
146
0.71
147
1.5
172
     1
176
   256
177
   256
178
     2
271
     2
272
     3
274
     4
283
     0
284
     8
340
11
371
    -1
372
    -1
  0
DIMSTYLE
105
9B74
330
A
100
AcDbSymbolTableRecord
100
AcDbDimStyleTableRecord
  2
AM_ISO$SF
 70
     0
  4
"
 41
2.5
 42
1.0
 43
10.0
 44
1.0
 47
0.1
 48
0.1
 73
     0
 74
     0
 75
     1
 76
     1
 77
     1
 78
     8
 79
     2
 90
     1
140
3.5
141
0.0
143
0.0393701
146
0.71
147
1.5
172
     1
176
   256
177
   256
178
     2
271
     2
272
     3
274
     4
283
     0
284
     8
340
11
371
    -1
372
    -1
  0
DIMSTYLE
105
9B75
330
A
100
AcDbSymbolTableRecord
100
AcDbDimStyleTableRecord
  2
AM_ISO$SH
 70
     0
  4
"
 41
2.5
 42
1.0
 43
10.0
 44
1.0
 47
0.1
 48
0.1
 73
     0
 74
     0
 75
     1
 76
     1
 77
     1
 78
     8
 79
     2
 90
     1
140
3.5
141
0.0
143
0.0393701
144
2.0
146
0.71
147
1.5
172
     1
173
     1
176
   256
177
   256
178
     2
271
     2
272
     3
274
     4
283
     0
284
     8
340
11
343
74
371
    -1
372
    -1
  0
ENDTAB
  0
TABLE
  2
BLOCK_RECORD
  5
1
330
0
100
AcDbSymbolTable
 70
    38
  0
BLOCK_RECORD
  5
1F
102
{ACAD_XDICTIONARY
360
82
102
}
330
1
100
AcDbSymbolTableRecord
100
AcDbBlockTableRecord
  2
*Model_Space
340
22
 70
     0
280
     1
281
     0
  0
BLOCK_RECORD
  5
1B
330
1
100
AcDbSymbolTableRecord
100
AcDbBlockTableRecord
  2
*Paper_Space
340
1E
 70
     0
280
     1
281
     0
  0
BLOCK_RECORD
  5
23
330
1
100
AcDbSymbolTableRecord
100
AcDbBlockTableRecord
  2
*Paper_Space0
340
26
 70
     0
280
     1
281
     0
  0
BLOCK_RECORD
  5
69
330
1
100
AcDbSymbolTableRecord
100
AcDbBlockTableRecord
  2
_Open30
340
0
102
{BLKREFS
331
961F
331
9627
331
9628
331
9630
331
9631
331
9639
331
963A
331
9642
331
9643
331
9658
331
9659
331
9664
331
966F
331
9682
331
9683
331
9696
331
9697
331
969F
331
96A0
331
96A8
331
96A9
331
96B1
331
96B2
331
96BD
331
96C5
331
96C6
331
9810
331
9811
331
9827
331
9828
331
983C
331
983D
331
98DE
331
98DF
331
98F4
331
98F5
102
}
 70
     0
280
     1
281
     0
  0
BLOCK_RECORD
  5
74
330
1
100
AcDbSymbolTableRecord
100
AcDbBlockTableRecord
  2
GENAXEH
340
0
 70
     0
280
     1
281
     0
  0
BLOCK_RECORD
  5
3A6F
330
1
100
AcDbSymbolTableRecord
100
AcDbBlockTableRecord
  2
GENDOT
340
0
102
{BLKREFS
331
961E
331
9663
331
966E
331
96BC
102
}
 70
     0
280
     1
281
     0
  0
BLOCK_RECORD
  5
3B0F
102
{ACAD_XDICTIONARY
360
4C5E
102
}
330
1
100
AcDbSymbolTableRecord
100
AcDbBlockTableRecord
  2
ロッカクアナツキプラグ-2　R1／4
340
0
310
2800000020000000200000000100080000000000000400000000000000000000000000000000000000000000000080000080000000808000800000008000800080800000C0C0C000C0DCC000F0CAA6000020400000206000002080000020A0000020C0000020E00000400000004020000040400000406000004080000040A0
310
000040C0000040E00000600000006020000060400000606000006080000060A0000060C0000060E00000800000008020000080400000806000008080000080A0000080C0000080E00000A0000000A0200000A0400000A0600000A0800000A0A00000A0C00000A0E00000C0000000C0200000C0400000C0600000C0800000C0
310
A00000C0C00000C0E00000E0000000E0200000E0400000E0600000E0800000E0A00000E0C00000E0E00040000000400020004000400040006000400080004000A0004000C0004000E00040200000402020004020400040206000402080004020A0004020C0004020E000404000004040200040404000404060004040800040
310
40A0004040C0004040E00040600000406020004060400040606000406080004060A0004060C0004060E00040800000408020004080400040806000408080004080A0004080C0004080E00040A0000040A0200040A0400040A0600040A0800040A0A00040A0C00040A0E00040C0000040C0200040C0400040C0600040C08000
310
40C0A00040C0C00040C0E00040E0000040E0200040E0400040E0600040E0800040E0A00040E0C00040E0E00080000000800020008000400080006000800080008000A0008000C0008000E00080200000802020008020400080206000802080008020A0008020C0008020E00080400000804020008040400080406000804080
310
008040A0008040C0008040E00080600000806020008060400080606000806080008060A0008060C0008060E00080800000808020008080400080806000808080008080A0008080C0008080E00080A0000080A0200080A0400080A0600080A0800080A0A00080A0C00080A0E00080C0000080C0200080C0400080C0600080C0
310
800080C0A00080C0C00080C0E00080E0000080E0200080E0400080E0600080E0800080E0A00080E0C00080E0E000C0000000C0002000C0004000C0006000C0008000C000A000C000C000C000E000C0200000C0202000C0204000C0206000C0208000C020A000C020C000C020E000C0400000C0402000C0404000C0406000C0
310
408000C040A000C040C000C040E000C0600000C0602000C0604000C0606000C0608000C060A000C060C000C060E000C0800000C0802000C0804000C0806000C0808000C080A000C080C000C080E000C0A00000C0A02000C0A04000C0A06000C0A08000C0A0A000C0A0C000C0A0E000C0C00000C0C02000C0C04000C0C06000
310
C0C08000C0C0A000F0FBFF00A4A0A000808080000000FF0000FF000000FFFF00FF000000FF00FF00FFFF0000FFFFFF00000000000000000000000000000000000000000000000000000000000000000000000000000000000000000000000000F9000000000000000000000000000000000000000000000000000000000000
310
00F9000000000000000000000000000000000000000000000000000000000000FEF9000000000000000000000000000000000000000000000000000000FEFEFE00F9FEFEFE00000000000000000000000000000000000000000000FEFEFFFFFFFFF9FFFFFFFEFE000000000000000000000000000000000000FEFEFFFF0000
310
0000F900000000FFFEFE000000000000000000000000000000FE00FF000000000000F90000000000FF00FE00000000000000000000000000FE00FF00000000000000F9000000000000FFFFFE000000000000000000000000FEFF0000000000000000F900000000000000FF00FE00000000000000000000FEFF000000000000
310
000000F90000000000000000FFFE00000000000000000000FEFF00000000000000FFFFF9FFFF000000000000FFFE000000000000000000FEFF000000000000FFFF0000F90000FF000000000000FFFE0000000000000000FEFF0000000000FF00000000F9000000FF0000000000FFFE0000000000000000FEFF0000000000FF
310
00000000F9000000FF0000000000FFFE00000000000000FE00FF0000000000FF00000000F9000000FF0000000000FF00FE00000000F9F9F9F9F9F9F9F9F9F9FFF9F9F9F9F9F9F9F9FFF9F9F9F9F9F9F9F9F9F90000000000FEFF0000000000FF00000000F9000000FF0000000000FF00FE00000000000000FEFF0000000000
310
FF00000000F9000000FF0000000000FFFE0000000000000000FEFF000000000000FFFF0000F900FFFF000000000000FFFE000000000000000000FEFF00000000000000FFFFF9FF00000000000000FFFE00000000000000000000FEFF000000000000000000FF0000000000000000FFFE0000000000000000000000FEFF0000
310
000000000000F900000000000000FF00FE0000000000000000000000FE00FF00000000000000F900000000000000FFFE00000000000000000000000000FE00FF000000000000F90000000000FFFFFE000000000000000000000000000000FE00FF0000000000F900000000FF00FE0000000000000000000000000000000000
310
FEFEFEFFFFFFFFF9FFFFFFFEFEFE000000000000000000000000000000000000000000FEFEFE00F900FEFE000000000000000000000000000000000000000000000000000000FEF9FE000000000000000000000000000000000000000000000000000000000000F90000000000000000000000000000000000000000000000
310
0000000000000000F90000000000000000000000000000000000000000000000000000000000000000000000000000000000000000000000
102
{BLKREFS
331
4ECA
102
}
 70
     4
280
     1
281
     0
  0
BLOCK_RECORD
  5
4C1F
330
1
100
AcDbSymbolTableRecord
100
AcDbBlockTableRecord
  2
ロッカクアナツキプラグ-1　R1／4
340
0
310
2800000020000000200000000100080000000000000400000000000000000000000000000000000000000000000080000080000000808000800000008000800080800000C0C0C000C0DCC000F0CAA6000020400000206000002080000020A0000020C0000020E00000400000004020000040400000406000004080000040A0
310
000040C0000040E00000600000006020000060400000606000006080000060A0000060C0000060E00000800000008020000080400000806000008080000080A0000080C0000080E00000A0000000A0200000A0400000A0600000A0800000A0A00000A0C00000A0E00000C0000000C0200000C0400000C0600000C0800000C0
310
A00000C0C00000C0E00000E0000000E0200000E0400000E0600000E0800000E0A00000E0C00000E0E00040000000400020004000400040006000400080004000A0004000C0004000E00040200000402020004020400040206000402080004020A0004020C0004020E000404000004040200040404000404060004040800040
310
40A0004040C0004040E00040600000406020004060400040606000406080004060A0004060C0004060E00040800000408020004080400040806000408080004080A0004080C0004080E00040A0000040A0200040A0400040A0600040A0800040A0A00040A0C00040A0E00040C0000040C0200040C0400040C0600040C08000
310
40C0A00040C0C00040C0E00040E0000040E0200040E0400040E0600040E0800040E0A00040E0C00040E0E00080000000800020008000400080006000800080008000A0008000C0008000E00080200000802020008020400080206000802080008020A0008020C0008020E00080400000804020008040400080406000804080
310
008040A0008040C0008040E00080600000806020008060400080606000806080008060A0008060C0008060E00080800000808020008080400080806000808080008080A0008080C0008080E00080A0000080A0200080A0400080A0600080A0800080A0A00080A0C00080A0E00080C0000080C0200080C0400080C0600080C0
310
800080C0A00080C0C00080C0E00080E0000080E0200080E0400080E0600080E0800080E0A00080E0C00080E0E000C0000000C0002000C0004000C0006000C0008000C000A000C000C000C000E000C0200000C0202000C0204000C0206000C0208000C020A000C020C000C020E000C0400000C0402000C0404000C0406000C0
310
408000C040A000C040C000C040E000C0600000C0602000C0604000C0606000C0608000C060A000C060C000C060E000C0800000C0802000C0804000C0806000C0808000C080A000C080C000C080E000C0A00000C0A02000C0A04000C0A06000C0A08000C0A0A000C0A0C000C0A0E000C0C00000C0C02000C0C04000C0C06000
310
C0C08000C0C0A000F0FBFF00A4A0A000808080000000FF0000FF000000FFFF00FF000000FF00FF00FFFF0000FFFFFF000000000000000000000000000000000000000000000000000000000000000000000000000000000000000000000000F900000000000000000000000000000000000000000000000000000000000000
310
F900000000000000000000000000000000000000000000000000000000000000F9FE000000000000000000000000000000000000000000000000000000FEFEFEF900FEFEFE00000000000000000000000000000000000000000000FEFEFFFFFFF9FFFFFFFFFEFE000000000000000000000000000000000000FEFEFFFF0000
310
00F90000000000FFFEFE000000000000000000000000000000FE00FF0000000000F9000000000000FF00FE00000000000000000000000000FE00FF000000000000F900000000000000FFFFFE000000000000000000000000FEFF00000000000000F90000000000000000FF00FE00000000000000000000FEFF000000000000
310
0000F9000000000000000000FFFE00000000000000000000FEFF000000000000FFFFF9FFFF00000000000000FFFE000000000000000000FEFF000000000000FF0000F90000FFFF000000000000FFFE0000000000000000FEFF0000000000FF000000F900000000FF0000000000FFFE0000000000000000FEFF0000000000FF
310
000000F900000000FF0000000000FFFE00000000000000FE00FF0000000000FF000000F900000000FF0000000000FF00FE00000000F9F9F9F9F9F9F9F9F9F9FFF9F9F9F9F9F9F9F9FFF9F9F9F9F9F9F9F9F9F90000000000FEFF0000000000FF000000F900000000FF0000000000FF00FE00000000000000FEFF0000000000
310
FF000000F900000000FF0000000000FFFE0000000000000000FEFF000000000000FFFF00F90000FFFF000000000000FFFE000000000000000000FEFF00000000000000FFF9FFFF00000000000000FFFE00000000000000000000FEFF0000000000000000FF000000000000000000FFFE0000000000000000000000FEFF0000
310
0000000000F90000000000000000FF00FE0000000000000000000000FE00FF000000000000F90000000000000000FFFE00000000000000000000000000FE00FF0000000000F9000000000000FFFFFE000000000000000000000000000000FE00FF00000000F90000000000FF00FE0000000000000000000000000000000000
310
FEFEFEFFFFFFF9FFFFFFFFFEFEFE000000000000000000000000000000000000000000FEFE00F900FEFEFE0000000000000000000000000000000000000000000000000000FEF9FE000000000000000000000000000000000000000000000000000000000000F9000000000000000000000000000000000000000000000000
310
00000000000000F9000000000000000000000000000000000000000000000000000000000000000000000000000000000000000000000000
102
{BLKREFS
331
4D3F
102
}
 70
     4
280
     1
281
     0
  0
BLOCK_RECORD
  5
4CFF
102
{ACAD_XDICTIONARY
360
4E0B
102
}
330
1
100
AcDbSymbolTableRecord
100
AcDbBlockTableRecord
  2
ケースＡ-1 SAM315
340
0
310
2800000020000000200000000100080000000000000400000000000000000000000000000000000000000000000080000080000000808000800000008000800080800000C0C0C000C0DCC000F0CAA6000020400000206000002080000020A0000020C0000020E00000400000004020000040400000406000004080000040A0
310
000040C0000040E00000600000006020000060400000606000006080000060A0000060C0000060E00000800000008020000080400000806000008080000080A0000080C0000080E00000A0000000A0200000A0400000A0600000A0800000A0A00000A0C00000A0E00000C0000000C0200000C0400000C0600000C0800000C0
310
A00000C0C00000C0E00000E0000000E0200000E0400000E0600000E0800000E0A00000E0C00000E0E00040000000400020004000400040006000400080004000A0004000C0004000E00040200000402020004020400040206000402080004020A0004020C0004020E000404000004040200040404000404060004040800040
310
40A0004040C0004040E00040600000406020004060400040606000406080004060A0004060C0004060E00040800000408020004080400040806000408080004080A0004080C0004080E00040A0000040A0200040A0400040A0600040A0800040A0A00040A0C00040A0E00040C0000040C0200040C0400040C0600040C08000
310
40C0A00040C0C00040C0E00040E0000040E0200040E0400040E0600040E0800040E0A00040E0C00040E0E00080000000800020008000400080006000800080008000A0008000C0008000E00080200000802020008020400080206000802080008020A0008020C0008020E00080400000804020008040400080406000804080
310
008040A0008040C0008040E00080600000806020008060400080606000806080008060A0008060C0008060E00080800000808020008080400080806000808080008080A0008080C0008080E00080A0000080A0200080A0400080A0600080A0800080A0A00080A0C00080A0E00080C0000080C0200080C0400080C0600080C0
310
800080C0A00080C0C00080C0E00080E0000080E0200080E0400080E0600080E0800080E0A00080E0C00080E0E000C0000000C0002000C0004000C0006000C0008000C000A000C000C000C000E000C0200000C0202000C0204000C0206000C0208000C020A000C020C000C020E000C0400000C0402000C0404000C0406000C0
310
408000C040A000C040C000C040E000C0600000C0602000C0604000C0606000C0608000C060A000C060C000C060E000C0800000C0802000C0804000C0806000C0808000C080A000C080C000C080E000C0A00000C0A02000C0A04000C0A06000C0A08000C0A0A000C0A0C000C0A0E000C0C00000C0C02000C0C04000C0C06000
310
C0C08000C0C0A000F0FBFF00A4A0A000808080000000FF0000FF000000FFFF00FF000000FF00FF00FFFF0000FFFFFF000000000000000000000000000000000000000000000000000000000000000000000000000000000000000000000000000000000000000000000000000000000000000000FFFFFF0000000000000000
310
0000000000000000000000000000000000000000000000FF00000000000000000000000000000000000000000000000000000000000000FFFFFFFFFFFFFFFFFAFAFAFAFAFAFAFAFAFAFAFAFAFAFAFAFA00000000000000FF000000000000FF000000000000000000000000000000FA0000000000000000FF000000000000FF
310
000000000000000000000000000000FA0000000000000000FF000000000000FF000000000000000000000000000000FA0000000000000000FF000000000000FF000000000000000000000000000000FA0000000000000000FF000000000000FF000000000000000000000000000000FA0000000000000000FF000000000000
310
FF000000000000000000000000000000FA00000000000000F9FF000000000000FF000000000000000000000000000000FA00000000000000FFFF000000000000FF000000000000000000000000000000FA00000000000000F9FE000000000000FF0000000000000000000000000000FAFA0000000000000000FF0000000000
310
00FF0000000000000000000000000000FAFA0000000000000000FF000000000000FF0000000000000000000000000000FAFA0000000000000000FF000000000000FF0000000000000000000000000000FAFA000000000000000000000000000000000000000000000000000000000000FAFA00000000000000000000000000
310
000000000000000000000000000000000000FA00000000000000000000000000000000000000000000000000000000000000FA00000000000000000000000000000000000000000000000000000000000000FA00000000000000000000000000000000000000000000000000000000000000FA000000000000000000000000
310
00000000000000000000000000000000000000FA0000000000000000000000FAFAFAFAFAFAFAFA000000000000000000000000FA00000000000000000000000000FAFA00FAFAFA000000000000000000000000FA00000000000000000000FF0000FAFFFFFAFAFA000000000000000000000000FA000000000000FFFFFFFFFF
310
FFFFFFFFFF000000000000000000000000000000FA000000000000FFFFFFFFFFFFFFFFFFFFFAFAFAFAFAFAFAFAFAFAFAFAFAFAFAFAFA0000F9F9FFFFFFFFF9F90000000000000000000000000000000000000000000000000000FFFFFFFF000000000000000000000000000000000000000000000000000000000000000000
310
0000000000000000000000000000000000000000000000000000000000000000000000000000000000000000000000000000000000000000
102
{BLKREFS
331
5599
102
}
 70
     4
280
     1
281
     0
  0
BLOCK_RECORD
  5
4E8C
102
{ACAD_XDICTIONARY
360
4F61
102
}
330
1
100
AcDbSymbolTableRecord
100
AcDbBlockTableRecord
  2
ケースＡ-2 SAM315
340
0
310
2800000020000000200000000100080000000000000400000000000000000000000000000000000000000000000080000080000000808000800000008000800080800000C0C0C000C0DCC000F0CAA6000020400000206000002080000020A0000020C0000020E00000400000004020000040400000406000004080000040A0
310
000040C0000040E00000600000006020000060400000606000006080000060A0000060C0000060E00000800000008020000080400000806000008080000080A0000080C0000080E00000A0000000A0200000A0400000A0600000A0800000A0A00000A0C00000A0E00000C0000000C0200000C0400000C0600000C0800000C0
310
A00000C0C00000C0E00000E0000000E0200000E0400000E0600000E0800000E0A00000E0C00000E0E00040000000400020004000400040006000400080004000A0004000C0004000E00040200000402020004020400040206000402080004020A0004020C0004020E000404000004040200040404000404060004040800040
310
40A0004040C0004040E00040600000406020004060400040606000406080004060A0004060C0004060E00040800000408020004080400040806000408080004080A0004080C0004080E00040A0000040A0200040A0400040A0600040A0800040A0A00040A0C00040A0E00040C0000040C0200040C0400040C0600040C08000
310
40C0A00040C0C00040C0E00040E0000040E0200040E0400040E0600040E0800040E0A00040E0C00040E0E00080000000800020008000400080006000800080008000A0008000C0008000E00080200000802020008020400080206000802080008020A0008020C0008020E00080400000804020008040400080406000804080
310
008040A0008040C0008040E00080600000806020008060400080606000806080008060A0008060C0008060E00080800000808020008080400080806000808080008080A0008080C0008080E00080A0000080A0200080A0400080A0600080A0800080A0A00080A0C00080A0E00080C0000080C0200080C0400080C0600080C0
310
800080C0A00080C0C00080C0E00080E0000080E0200080E0400080E0600080E0800080E0A00080E0C00080E0E000C0000000C0002000C0004000C0006000C0008000C000A000C000C000C000E000C0200000C0202000C0204000C0206000C0208000C020A000C020C000C020E000C0400000C0402000C0404000C0406000C0
310
408000C040A000C040C000C040E000C0600000C0602000C0604000C0606000C0608000C060A000C060C000C060E000C0800000C0802000C0804000C0806000C0808000C080A000C080C000C080E000C0A00000C0A02000C0A04000C0A06000C0A08000C0A0A000C0A0C000C0A0E000C0C00000C0C02000C0C04000C0C06000
310
C0C08000C0C0A000F0FBFF00A4A0A000808080000000FF0000FF000000FFFF00FF000000FF00FF00FFFF0000FFFFFF000000000000000000000000000000000000000000000000000000000000000000000000000000000000000000000000000000FFFFFF0000000000000000000000000000000000000000000000000000
310
000000FF00FF0000000000000000000000000000000000000000000000000000000000FF00FF00000000000000000000000000000000000000000000FFFFFFFFFFFFFFFF00FF00000000000000000000000000000000000000000000FF000000000000FF00FF00000000000000000000000000000000000000000000FF0000
310
00000000FF00FF00000000000000000000000000000000000000000000FF000000000000FF00FF00000000000000000000000000000000000000000000FF000000000000FF00FF00000000000000000000000000000000000000000000FF000000000000FF00FF00000000000000000000000000000000000000000000FF00
310
0000000000FF00FF00000000000000000000000000000000000000000000FF000000000000FFF9FF00000000000000000000000000000000000000000000FF000000000000F9FFF900000000000000000000000000000000000000000000FF000000000000FFF9FF00000000000000000000000000000000000000000000FF
310
000000000000FF00FF00000000000000000000000000000000000000000000FF000000000000FF00FF00000000000000000000000000000000000000000000FF000000000000FF00FF000000000000000000000000000000000000000000000000000000000000000000000000000000000000000000000000000000000000
310
00000000000000000000000000000000000000000000000000000000000000000000000000000000000000000000000000000000000000000000000000000000000000000000000000000000000000000000000000000000000000000000000000000000000000000000000000000000000000000000000000000000000000
310
000000000000000000000000000000000000000000000000000000000000FAFAFAFAFAFAFAFA000000000000000000000000000000000000000000000000FAFAFAFA00FA0000000000000000000000000000000000000000000000000000FAFAFA0000FA000000000000000000000000000000000000000000000000000000
310
0000FFFFFFA4A4A4FF00000000000000000000000000000000000000000000000000FFFFFFFFFFFFFFFFFFFF0000000000000000000000000000000000000000000000000000000000FFFFFFFFFF00000000000000000000000000000000000000000000000000F9F9FFFFFFFFFFF900000000000000000000000000000000
310
00000000000000000000FFFFFF00000000000000000000000000000000000000000000000000000000000000000000000000000000000000
102
{BLKREFS
331
96ED
102
}
 70
     4
280
     1
281
     0
  0
BLOCK_RECORD
  5
5015
102
{ACAD_XDICTIONARY
360
508B
102
}
330
1
100
AcDbSymbolTableRecord
100
AcDbBlockTableRecord
  2
センタ-1 SAM315
340
0
310
2800000020000000200000000100080000000000000400000000000000000000000000000000000000000000000080000080000000808000800000008000800080800000C0C0C000C0DCC000F0CAA6000020400000206000002080000020A0000020C0000020E00000400000004020000040400000406000004080000040A0
310
000040C0000040E00000600000006020000060400000606000006080000060A0000060C0000060E00000800000008020000080400000806000008080000080A0000080C0000080E00000A0000000A0200000A0400000A0600000A0800000A0A00000A0C00000A0E00000C0000000C0200000C0400000C0600000C0800000C0
310
A00000C0C00000C0E00000E0000000E0200000E0400000E0600000E0800000E0A00000E0C00000E0E00040000000400020004000400040006000400080004000A0004000C0004000E00040200000402020004020400040206000402080004020A0004020C0004020E000404000004040200040404000404060004040800040
310
40A0004040C0004040E00040600000406020004060400040606000406080004060A0004060C0004060E00040800000408020004080400040806000408080004080A0004080C0004080E00040A0000040A0200040A0400040A0600040A0800040A0A00040A0C00040A0E00040C0000040C0200040C0400040C0600040C08000
310
40C0A00040C0C00040C0E00040E0000040E0200040E0400040E0600040E0800040E0A00040E0C00040E0E00080000000800020008000400080006000800080008000A0008000C0008000E00080200000802020008020400080206000802080008020A0008020C0008020E00080400000804020008040400080406000804080
310
008040A0008040C0008040E00080600000806020008060400080606000806080008060A0008060C0008060E00080800000808020008080400080806000808080008080A0008080C0008080E00080A0000080A0200080A0400080A0600080A0800080A0A00080A0C00080A0E00080C0000080C0200080C0400080C0600080C0
310
800080C0A00080C0C00080C0E00080E0000080E0200080E0400080E0600080E0800080E0A00080E0C00080E0E000C0000000C0002000C0004000C0006000C0008000C000A000C000C000C000E000C0200000C0202000C0204000C0206000C0208000C020A000C020C000C020E000C0400000C0402000C0404000C0406000C0
310
408000C040A000C040C000C040E000C0600000C0602000C0604000C0606000C0608000C060A000C060C000C060E000C0800000C0802000C0804000C0806000C0808000C080A000C080C000C080E000C0A00000C0A02000C0A04000C0A06000C0A08000C0A0A000C0A0C000C0A0E000C0C00000C0C02000C0C04000C0C06000
310
C0C08000C0C0A000F0FBFF00A4A0A000808080000000FF0000FF000000FFFF00FF000000FF00FF00FFFF0000FFFFFF00000000000000000000000000000000000000000000000000000000000000000000000000000000000000000000000000FFFFFFFF000000000000000000000000000000000000000000000000000000
310
00000000FFFFFFFFFFFFFF00000000000000000000000000000000000000000000000000FF0000000000FF00000000000000000000000000000000000000000000000000FF0000000000FF00000000000000000000000000000000000000000000000000FF0000000000FF0000000000000000000000000000000000000000
310
0000000000FF0000000000FF00000000000000000000000000000000000000000000000000FF0000000000FF00000000000000000000000000000000000000000000000000FF0000000000FF00000000000000000000000000000000000000000000000000FF0000000000FF00000000000000000000000000000000000000
310
000000000000FF0000000000FF00000000000000000000000000000000000000000000000000FF0000000000FF00000000000000000000000000000000000000000000000000FF0000000000FF00000000000000000000000000000000000000000000000000FF0000000000FF000000000000000000000000000000000000
310
00000000000000FF0000000000FF000000000000000000000000A4A4A4A4A40000000000000000FF0000000000FF000000000000000000000000FF000000000000000000000000000000000000FF000000000000000000000000FF000000000000000000000000000000000000FF000000000000000000000000FF00000000
310
0000000000000000000000000000FF000000000000000000000000FF000000000000000000000000000000000000FF000000000000000000000000FF000000000000000000000000000000000000FF000000000000000000000000FFFFFFFFFFFFFFFFFFFFFFFFFFFFFFFFFFFFFFFF000000000000000000000000FFFFFFFF
310
FFFFFFFFFFFFFFFFFFFFFFFFFFFFFFFF000000000000000000000000FF000000000000000000000000000000000000FF000000000000000000000000FF000000000000000000000000000000000000FF000000000000000000000000FF000000000000000000000000000000000000FF000000000000000000000000FF0000
310
00000000000000000000000000000000FF000000000000000000000000FF000000000000000000000000000000000000FF000000000000000000000000FFFFFFFFFFFFFFFFFFFFFFFFFFFFFFFFFFFFFFFF000000000000000000000000000000FFFFF9F9FFFF00000000000000000000000000000000000000000000000000
310
000000F900000000000000000000000000000000000000000000000000000000000000000000000000000000000000000000000000000000
102
{BLKREFS
331
503D
102
}
 70
     4
280
     1
281
     0
  0
BLOCK_RECORD
  5
517A
102
{ACAD_XDICTIONARY
360
5A95
102
}
330
1
100
AcDbSymbolTableRecord
100
AcDbBlockTableRecord
  2
センタ-2 SAM315
340
0
310
2800000020000000200000000100080000000000000400000000000000000000000000000000000000000000000080000080000000808000800000008000800080800000C0C0C000C0DCC000F0CAA6000020400000206000002080000020A0000020C0000020E00000400000004020000040400000406000004080000040A0
310
000040C0000040E00000600000006020000060400000606000006080000060A0000060C0000060E00000800000008020000080400000806000008080000080A0000080C0000080E00000A0000000A0200000A0400000A0600000A0800000A0A00000A0C00000A0E00000C0000000C0200000C0400000C0600000C0800000C0
310
A00000C0C00000C0E00000E0000000E0200000E0400000E0600000E0800000E0A00000E0C00000E0E00040000000400020004000400040006000400080004000A0004000C0004000E00040200000402020004020400040206000402080004020A0004020C0004020E000404000004040200040404000404060004040800040
310
40A0004040C0004040E00040600000406020004060400040606000406080004060A0004060C0004060E00040800000408020004080400040806000408080004080A0004080C0004080E00040A0000040A0200040A0400040A0600040A0800040A0A00040A0C00040A0E00040C0000040C0200040C0400040C0600040C08000
310
40C0A00040C0C00040C0E00040E0000040E0200040E0400040E0600040E0800040E0A00040E0C00040E0E00080000000800020008000400080006000800080008000A0008000C0008000E00080200000802020008020400080206000802080008020A0008020C0008020E00080400000804020008040400080406000804080
310
008040A0008040C0008040E00080600000806020008060400080606000806080008060A0008060C0008060E00080800000808020008080400080806000808080008080A0008080C0008080E00080A0000080A0200080A0400080A0600080A0800080A0A00080A0C00080A0E00080C0000080C0200080C0400080C0600080C0
310
800080C0A00080C0C00080C0E00080E0000080E0200080E0400080E0600080E0800080E0A00080E0C00080E0E000C0000000C0002000C0004000C0006000C0008000C000A000C000C000C000E000C0200000C0202000C0204000C0206000C0208000C020A000C020C000C020E000C0400000C0402000C0404000C0406000C0
310
408000C040A000C040C000C040E000C0600000C0602000C0604000C0606000C0608000C060A000C060C000C060E000C0800000C0802000C0804000C0806000C0808000C080A000C080C000C080E000C0A00000C0A02000C0A04000C0A06000C0A08000C0A0A000C0A0C000C0A0E000C0C00000C0C02000C0C04000C0C06000
310
C0C08000C0C0A000F0FBFF00A4A0A000808080000000FF0000FF000000FFFF00FF000000FF00FF00FFFF0000FFFFFF000000000000000000000000000000000000000000000000000000000000000000000000000000000000000000FFFFFFFF00000000000000000000000000000000000000000000FFFFFFFFFFFFFF0000
310
0000000000000000000000000000000000000000000000FF0000000000FF00000000000000000000000000000000000000000000000000FF0000000000FF00000000000000000000000000000000000000000000000000FF0000000000FF00000000000000000000000000000000000000000000000000FF0000000000FF00
310
000000000000000000000000000000000000000000000000FF0000000000FF00000000000000000000000000000000000000000000000000FF0000000000FF00000000000000000000000000000000000000000000000000FF0000000000FF00000000000000000000000000000000000000000000000000FF0000000000FF
310
00000000000000000000000000000000000000000000000000FF0000000000FF00000000000000000000000000000000000000000000000000FF0000000000FF00000000000000000000000000000000000000000000000000FF0000000000FF00000000000000000000000000000000000000000000000000FF0000000000
310
FF00000000000000000000000000000000000000000000000000FF0000000000FF0000000000000000A4A4A4A4A4000000000000000000000000FF000000000000000000000000000000000000FF000000000000000000000000FF000000000000000000000000000000000000FF000000000000000000000000FF00000000
310
0000000000000000000000000000FF000000000000000000000000FF000000000000000000000000000000000000FF000000000000000000000000FF000000000000000000000000000000000000FF000000000000000000000000FFFFFFFFFFFFFFFFFFFFFFFFFFFFFFFFFFFFFFFF000000000000000000000000FF000000
310
000000000000000000000000000000FF000000000000000000000000FFFFFFFFFFFFFFFFFFFFFFFFFFFFFFFFFFFFFFFF000000000000000000000000FF000000000000000000000000000000000000FF000000000000000000000000FF000000000000000000000000000000000000FF000000000000000000000000FF0000
310
00000000000000000000000000000000FF000000000000000000000000FF000000000000000000000000000000000000FF000000000000000000000000FFFFFFFFFFFFFFFFFFFFFFFFFFFFFFFFFFFFFFFF0000000000000000000000000000000000000000000000FFFFF9F9FFFF0000000000000000000000000000000000
310
000000000000000000000000F900000000000000000000000000000000000000000000000000000000000000000000000000000000000000
102
{BLKREFS
331
51A2
102
}
 70
     4
280
     1
281
     0
  0
BLOCK_RECORD
  5
553F
102
{ACAD_XDICTIONARY
360
55D1
102
}
330
1
100
AcDbSymbolTableRecord
100
AcDbBlockTableRecord
  2
リーマボルト-1 SAM315 M12
340
0
310
2800000020000000200000000100080000000000000400000000000000000000000000000000000000000000000080000080000000808000800000008000800080800000C0C0C000C0DCC000F0CAA6000020400000206000002080000020A0000020C0000020E00000400000004020000040400000406000004080000040A0
310
000040C0000040E00000600000006020000060400000606000006080000060A0000060C0000060E00000800000008020000080400000806000008080000080A0000080C0000080E00000A0000000A0200000A0400000A0600000A0800000A0A00000A0C00000A0E00000C0000000C0200000C0400000C0600000C0800000C0
310
A00000C0C00000C0E00000E0000000E0200000E0400000E0600000E0800000E0A00000E0C00000E0E00040000000400020004000400040006000400080004000A0004000C0004000E00040200000402020004020400040206000402080004020A0004020C0004020E000404000004040200040404000404060004040800040
310
40A0004040C0004040E00040600000406020004060400040606000406080004060A0004060C0004060E00040800000408020004080400040806000408080004080A0004080C0004080E00040A0000040A0200040A0400040A0600040A0800040A0A00040A0C00040A0E00040C0000040C0200040C0400040C0600040C08000
310
40C0A00040C0C00040C0E00040E0000040E0200040E0400040E0600040E0800040E0A00040E0C00040E0E00080000000800020008000400080006000800080008000A0008000C0008000E00080200000802020008020400080206000802080008020A0008020C0008020E00080400000804020008040400080406000804080
310
008040A0008040C0008040E00080600000806020008060400080606000806080008060A0008060C0008060E00080800000808020008080400080806000808080008080A0008080C0008080E00080A0000080A0200080A0400080A0600080A0800080A0A00080A0C00080A0E00080C0000080C0200080C0400080C0600080C0
310
800080C0A00080C0C00080C0E00080E0000080E0200080E0400080E0600080E0800080E0A00080E0C00080E0E000C0000000C0002000C0004000C0006000C0008000C000A000C000C000C000E000C0200000C0202000C0204000C0206000C0208000C020A000C020C000C020E000C0400000C0402000C0404000C0406000C0
310
408000C040A000C040C000C040E000C0600000C0602000C0604000C0606000C0608000C060A000C060C000C060E000C0800000C0802000C0804000C0806000C0808000C080A000C080C000C080E000C0A00000C0A02000C0A04000C0A06000C0A08000C0A0A000C0A0C000C0A0E000C0C00000C0C02000C0C04000C0C06000
310
C0C08000C0C0A000F0FBFF00A4A0A000808080000000FF0000FF000000FFFF00FF000000FF00FF00FFFF0000FFFFFF0000000000000000000000000000000000000000000000000000000000000000000000000000000000000000FFFFFF0000000000000000000000000000000000000000000000000000000000FF00FF00
310
00000000000000000000000000000000000000000000000000000000FF00FF0000000000000000000000000000000000000000000000000000000000FF00FFFFFFFFFFFFFFFF00000000000000000000000000000000000000000000FF00FF000000000000FF00000000000000000000000000000000000000000000FF00FF
310
000000000000FF00000000000000000000000000000000000000000000FF00FF000000000000FF00000000000000000000000000000000000000000000FF00FF000000000000FF00000000000000000000000000000000000000000000FF00FF000000000000FF00000000000000000000000000000000000000000000FF00
310
FF000000000000FF00000000000000000000000000000000000000000000FFF9FF000000000000FF00000000000000000000000000000000000000000000FFFFF9000000000000FF00000000000000000000000000000000000000000000FFF9FF000000000000FF00000000000000000000000000000000000000000000FF
310
00FF000000000000FF00000000000000000000000000000000000000000000FF00FF000000000000FF00000000000000000000000000000000000000000000FF00FF000000000000FF000000000000000000000000000000000000000000000000000000000000000000000000000000000000000000000000000000000000
310
00000000000000000000000000000000000000000000000000000000000000000000000000000000000000000000000000000000000000000000000000000000000000000000000000000000000000000000000000000000000000000000000000000000000000000000000000000000000000000000000000000000000000
310
0000000000000000000000000000000000000000000000000000000000000000000000000000FAFAFAFAFAFAFAFA0000000000000000000000000000000000000000000000000000FA00FAFAFAFA0000000000000000000000000000000000000000000000000000FA0000FAFAFA0000000000000000000000000000000000
310
0000000000FFA4A4A4FFFFFF00000000000000000000000000000000000000000000FFFFFFFFFFFFFFFFFFFF00000000000000000000000000000000000000FFFF00FFFFFFFF00000000000000000000000000000000000000000000000000F9F9F9FFFFFFF9F9000000000000000000000000000000000000000000000000
310
000000FFFFFF0000000000000000000000000000000000000000000000000000000000000000000000000000000000000000000000000000
102
{BLKREFS
331
556D
102
}
 70
     4
280
     1
281
     0
  0
BLOCK_RECORD
  5
5668
102
{ACAD_XDICTIONARY
360
56F6
102
}
330
1
100
AcDbSymbolTableRecord
100
AcDbBlockTableRecord
  2
リーマボルト-2 SAM315 M12
340
0
310
2800000020000000200000000100080000000000000400000000000000000000000000000000000000000000000080000080000000808000800000008000800080800000C0C0C000C0DCC000F0CAA6000020400000206000002080000020A0000020C0000020E00000400000004020000040400000406000004080000040A0
310
000040C0000040E00000600000006020000060400000606000006080000060A0000060C0000060E00000800000008020000080400000806000008080000080A0000080C0000080E00000A0000000A0200000A0400000A0600000A0800000A0A00000A0C00000A0E00000C0000000C0200000C0400000C0600000C0800000C0
310
A00000C0C00000C0E00000E0000000E0200000E0400000E0600000E0800000E0A00000E0C00000E0E00040000000400020004000400040006000400080004000A0004000C0004000E00040200000402020004020400040206000402080004020A0004020C0004020E000404000004040200040404000404060004040800040
310
40A0004040C0004040E00040600000406020004060400040606000406080004060A0004060C0004060E00040800000408020004080400040806000408080004080A0004080C0004080E00040A0000040A0200040A0400040A0600040A0800040A0A00040A0C00040A0E00040C0000040C0200040C0400040C0600040C08000
310
40C0A00040C0C00040C0E00040E0000040E0200040E0400040E0600040E0800040E0A00040E0C00040E0E00080000000800020008000400080006000800080008000A0008000C0008000E00080200000802020008020400080206000802080008020A0008020C0008020E00080400000804020008040400080406000804080
310
008040A0008040C0008040E00080600000806020008060400080606000806080008060A0008060C0008060E00080800000808020008080400080806000808080008080A0008080C0008080E00080A0000080A0200080A0400080A0600080A0800080A0A00080A0C00080A0E00080C0000080C0200080C0400080C0600080C0
310
800080C0A00080C0C00080C0E00080E0000080E0200080E0400080E0600080E0800080E0A00080E0C00080E0E000C0000000C0002000C0004000C0006000C0008000C000A000C000C000C000E000C0200000C0202000C0204000C0206000C0208000C020A000C020C000C020E000C0400000C0402000C0404000C0406000C0
310
408000C040A000C040C000C040E000C0600000C0602000C0604000C0606000C0608000C060A000C060C000C060E000C0800000C0802000C0804000C0806000C0808000C080A000C080C000C080E000C0A00000C0A02000C0A04000C0A06000C0A08000C0A0A000C0A0C000C0A0E000C0C00000C0C02000C0C04000C0C06000
310
C0C08000C0C0A000F0FBFF00A4A0A000808080000000FF0000FF000000FFFF00FF000000FF00FF00FFFF0000FFFFFF0000000000000000000000000000000000000000000000000000000000000000000000000000000000000000000000000000000000000000000000000000000000000000000000000000000000000000
310
00000000000000000000000000000000000000000000000000000000000000000000000000000000000000000000000000000000000000000000000000000000000000000000000000000000000000000000000000000000000000000000000000000000000000000000000000000000000000000000000000000000000000
310
00000000000000000000000000000000000000000000000000000000000000000000000000000000000000000000000000000000000000000000000000000000000000000000000000000000000000000000000000000000000000000000000000000000000000000000000000000000000000000000000000000000000000
310
0000000000000000000000000000000000000000000000FFFFFFFFFFFF00000000000000000000000000000000000000000000000000FFFF000000FF0000000000000000000000000000000000FFFFFFFF00000000FEFEFFFFFFFFFFFFFFFF00000000000000000000000000FFFF0000FF000000FFFFFFFF000000FF0000FF
310
00000000000000000000000000FF000000FFFF0000FFFFFFFF000000FF0000FF00000000000000000000000000FF000000FFFF0000FFFFFFFF000000FFFF00FF00000000000000000000000000FF000000FFFF0000FFFFFFFF000000FF0000FF00000000000000000000000000FF000000FFFF000000FEFEFFFFFFFFFFFFFF
310
FF00000000000000000000000000FFFF0000FFFF00000000FFFF000000FF0000000000000000000000000000000000FFFFFFFF000000000000FFFFFFFFFFFF00000000000000000000000000000000000000000000000000000000000000000000000000000000000000000000000000000000000000000000000000000000
310
00000000000000000000000000000000000000000000000000000000000000000000000000000000000000000000000000000000000000000000000000000000000000000000000000000000000000000000000000000000000000000000000000000000000000000000000000000000000000000000000000000000000000
310
00000000000000000000000000000000000000000000000000000000000000000000000000000000000000000000000000000000000000000000000000000000000000000000000000000000000000000000000000000000000000000000000000000000000000000000000000000000000000000000000000000000000000
310
0000000000000000000000000000000000000000000000000000000000000000000000000000000000000000000000000000000000000000
102
{BLKREFS
331
5691
102
}
 70
     4
280
     1
281
     0
  0
BLOCK_RECORD
  5
6000
330
1
100
AcDbSymbolTableRecord
100
AcDbBlockTableRecord
  2
*D15
340
0
 70
     0
280
     1
281
     0
  0
BLOCK_RECORD
  5
60B6
330
1
100
AcDbSymbolTableRecord
100
AcDbBlockTableRecord
  2
*D16
340
0
 70
     0
280
     1
281
     0
  0
BLOCK_RECORD
  5
60CE
330
1
100
AcDbSymbolTableRecord
100
AcDbBlockTableRecord
  2
*D17
340
0
 70
     0
280
     1
281
     0
  0
BLOCK_RECORD
  5
633B
330
1
100
AcDbSymbolTableRecord
100
AcDbBlockTableRecord
  2
*D18
340
0
 70
     0
280
     1
281
     0
  0
BLOCK_RECORD
  5
6353
330
1
100
AcDbSymbolTableRecord
100
AcDbBlockTableRecord
  2
*D19
340
0
 70
     0
280
     1
281
     0
  0
BLOCK_RECORD
  5
636B
330
1
100
AcDbSymbolTableRecord
100
AcDbBlockTableRecord
  2
*D20
340
0
 70
     0
280
     1
281
     0
  0
BLOCK_RECORD
  5
6432
330
1
100
AcDbSymbolTableRecord
100
AcDbBlockTableRecord
  2
*D21
340
0
 70
     0
280
     1
281
     0
  0
BLOCK_RECORD
  5
6486
330
1
100
AcDbSymbolTableRecord
100
AcDbBlockTableRecord
  2
*D22
340
0
 70
     0
280
     1
281
     0
  0
BLOCK_RECORD
  5
64A2
330
1
100
AcDbSymbolTableRecord
100
AcDbBlockTableRecord
  2
*D23
340
0
 70
     0
280
     1
281
     0
  0
BLOCK_RECORD
  5
64C3
330
1
100
AcDbSymbolTableRecord
100
AcDbBlockTableRecord
  2
*D24
340
0
 70
     0
280
     1
281
     0
  0
BLOCK_RECORD
  5
64F3
330
1
100
AcDbSymbolTableRecord
100
AcDbBlockTableRecord
  2
*D25
340
0
 70
     0
280
     1
281
     0
  0
BLOCK_RECORD
  5
650B
330
1
100
AcDbSymbolTableRecord
100
AcDbBlockTableRecord
  2
*D26
340
0
 70
     0
280
     1
281
     0
  0
BLOCK_RECORD
  5
7E0F
102
{ACAD_XDICTIONARY
360
7F99
102
}
330
1
100
AcDbSymbolTableRecord
100
AcDbBlockTableRecord
  2
ＧＣスペーサ SAMY315
340
0
310
2800000020000000200000000100080000000000000400000000000000000000000000000000000000000000000080000080000000808000800000008000800080800000C0C0C000C0DCC000F0CAA6000020400000206000002080000020A0000020C0000020E00000400000004020000040400000406000004080000040A0
310
000040C0000040E00000600000006020000060400000606000006080000060A0000060C0000060E00000800000008020000080400000806000008080000080A0000080C0000080E00000A0000000A0200000A0400000A0600000A0800000A0A00000A0C00000A0E00000C0000000C0200000C0400000C0600000C0800000C0
310
A00000C0C00000C0E00000E0000000E0200000E0400000E0600000E0800000E0A00000E0C00000E0E00040000000400020004000400040006000400080004000A0004000C0004000E00040200000402020004020400040206000402080004020A0004020C0004020E000404000004040200040404000404060004040800040
310
40A0004040C0004040E00040600000406020004060400040606000406080004060A0004060C0004060E00040800000408020004080400040806000408080004080A0004080C0004080E00040A0000040A0200040A0400040A0600040A0800040A0A00040A0C00040A0E00040C0000040C0200040C0400040C0600040C08000
310
40C0A00040C0C00040C0E00040E0000040E0200040E0400040E0600040E0800040E0A00040E0C00040E0E00080000000800020008000400080006000800080008000A0008000C0008000E00080200000802020008020400080206000802080008020A0008020C0008020E00080400000804020008040400080406000804080
310
008040A0008040C0008040E00080600000806020008060400080606000806080008060A0008060C0008060E00080800000808020008080400080806000808080008080A0008080C0008080E00080A0000080A0200080A0400080A0600080A0800080A0A00080A0C00080A0E00080C0000080C0200080C0400080C0600080C0
310
800080C0A00080C0C00080C0E00080E0000080E0200080E0400080E0600080E0800080E0A00080E0C00080E0E000C0000000C0002000C0004000C0006000C0008000C000A000C000C000C000E000C0200000C0202000C0204000C0206000C0208000C020A000C020C000C020E000C0400000C0402000C0404000C0406000C0
310
408000C040A000C040C000C040E000C0600000C0602000C0604000C0606000C0608000C060A000C060C000C060E000C0800000C0802000C0804000C0806000C0808000C080A000C080C000C080E000C0A00000C0A02000C0A04000C0A06000C0A08000C0A0A000C0A0C000C0A0E000C0C00000C0C02000C0C04000C0C06000
310
C0C08000C0C0A000F0FBFF00A4A0A000808080000000FF0000FF000000FFFF00FF000000FF00FF00FFFF0000FFFFFF00000000000000000000000000000000000000000000000000000000000000000000000000000000000000000000000000000000000000000000000000000000000000FFFFFF00000000000000000000
310
000000000000000000000000FFFFFF000000F9F9F9FF00000000000000000000000000000000000000000000FFF9F9F9000000FF00FFFFFFFFFFFFFFFFFFFFFFFEFEFFFFFFFFFFFFFFFFFFFFFF00FF00000000FF00FF00000000000000000000FEFE00000000000000000000FF00FF00000000FF00FF000000000000000000
310
00FE0000000000000000000000FF00FF00000000FF00FF000000000000000000FEFE0000000000000000000000FF00FF00000000FF00FF00000000000000000000FEFE00000000000000000000FF00FF00000000FF00FF00000000000000000000FEFE00000000000000000000FF00FF00000000FF00FF0000000000000000
310
0000FEFE00000000000000000000FF00FF00000000FF00FF00000000000000000000FE0000000000000000000000FF00FF00000000FF00FF00000000000000000000FE0000000000000000000000FF00FF00000000FF00FF000000000000000000FEFE0000000000000000000000FF00FF00000000FF00FF00000000000000
310
000000FE0000000000000000000000FF00FF00000000FF00FF00000000000000000000FEFE00000000000000000000FF00FF00000000FF00FFFF000000000000000000FEFE000000000000000000FFFF00FF00000000FF0000FF000000000000000000FE00000000000000000000FF0000FF00000000FF0000FF0000000000
310
000000FEFE00000000000000000000FF0000FF00000000FF0000FF000000000000000000FE00000000000000000000FF0000FF00000000FF0000FF000000000000000000FE00000000000000000000FF0000FF00000000FF0000FF000000000000000000FEFE000000000000000000FF0000FF00000000FF0000FF00000000
310
0000000000FEFE000000000000000000FF0000FF00000000FF0000FF000000000000000000FEFE000000000000000000FF0000FF00000000FF0000FF0000000000000000FEFE00000000000000000000FF0000FF00000000FF0000FF000000000000000000FE00000000000000000000FF0000FF00000000FF00FFFFFFFFFF
310
FFFFFFFFFFFFFEFEFFFFFFFFFFFFFFFFFFF9F900FF00000000FF00F9F9F9FFFFFFFFFFFFFFFFFEFEFFFFFFFFFFFFFFFFF9F9F900FF000000F9FFFFFF00000000000000000000000000000000000000000000FFFFFFF9000000FFFFFF00000000000000000000000000000000000000000000FFFFFF00000000000000000000
310
0000000000000000000000000000000000000000000000000000000000000000000000000000000000000000000000000000000000000000
102
{BLKREFS
331
7E94
102
}
 70
     4
280
     1
281
     0
  0
BLOCK_RECORD
  5
8D8D
330
1
100
AcDbSymbolTableRecord
100
AcDbBlockTableRecord
  2
*D28
340
0
 70
     0
280
     1
281
     0
  0
BLOCK_RECORD
  5
8DCA
330
1
100
AcDbSymbolTableRecord
100
AcDbBlockTableRecord
  2
*D29
340
0
 70
     0
280
     1
281
     0
  0
BLOCK_RECORD
  5
9385
330
1
100
AcDbSymbolTableRecord
100
AcDbBlockTableRecord
  2
*D30
340
0
 70
     0
280
     1
281
     0
  0
BLOCK_RECORD
  5
9599
330
1
100
AcDbSymbolTableRecord
100
AcDbBlockTableRecord
  2
*D31
340
0
 70
     0
280
     1
281
     0
  0
BLOCK_RECORD
  5
973A
330
1
100
AcDbSymbolTableRecord
100
AcDbBlockTableRecord
  2
*D32
340
0
 70
     0
280
     1
281
     0
  0
BLOCK_RECORD
  5
975E
330
1
100
AcDbSymbolTableRecord
100
AcDbBlockTableRecord
  2
*D33
340
0
 70
     0
280
     1
281
     0
  0
BLOCK_RECORD
  5
97ED
330
1
100
AcDbSymbolTableRecord
100
AcDbBlockTableRecord
  2
*D34
340
0
 70
     0
280
     1
281
     0
  0
BLOCK_RECORD
  5
9890
330
1
100
AcDbSymbolTableRecord
100
AcDbBlockTableRecord
  2
*D35
340
0
 70
     0
280
     1
281
     0
  0
BLOCK_RECORD
  5
996E
330
1
100
AcDbSymbolTableRecord
100
AcDbBlockTableRecord
  2
ケース
340
0
310
2800000020000000200000000100080000000000000400000000000000000000000000000000000000000000000080000080000000808000800000008000800080800000C0C0C000C0DCC000F0CAA6000020400000206000002080000020A0000020C0000020E00000400000004020000040400000406000004080000040A0
310
000040C0000040E00000600000006020000060400000606000006080000060A0000060C0000060E00000800000008020000080400000806000008080000080A0000080C0000080E00000A0000000A0200000A0400000A0600000A0800000A0A00000A0C00000A0E00000C0000000C0200000C0400000C0600000C0800000C0
310
A00000C0C00000C0E00000E0000000E0200000E0400000E0600000E0800000E0A00000E0C00000E0E00040000000400020004000400040006000400080004000A0004000C0004000E00040200000402020004020400040206000402080004020A0004020C0004020E000404000004040200040404000404060004040800040
310
40A0004040C0004040E00040600000406020004060400040606000406080004060A0004060C0004060E00040800000408020004080400040806000408080004080A0004080C0004080E00040A0000040A0200040A0400040A0600040A0800040A0A00040A0C00040A0E00040C0000040C0200040C0400040C0600040C08000
310
40C0A00040C0C00040C0E00040E0000040E0200040E0400040E0600040E0800040E0A00040E0C00040E0E00080000000800020008000400080006000800080008000A0008000C0008000E00080200000802020008020400080206000802080008020A0008020C0008020E00080400000804020008040400080406000804080
310
008040A0008040C0008040E00080600000806020008060400080606000806080008060A0008060C0008060E00080800000808020008080400080806000808080008080A0008080C0008080E00080A0000080A0200080A0400080A0600080A0800080A0A00080A0C00080A0E00080C0000080C0200080C0400080C0600080C0
310
800080C0A00080C0C00080C0E00080E0000080E0200080E0400080E0600080E0800080E0A00080E0C00080E0E000C0000000C0002000C0004000C0006000C0008000C000A000C000C000C000E000C0200000C0202000C0204000C0206000C0208000C020A000C020C000C020E000C0400000C0402000C0404000C0406000C0
310
408000C040A000C040C000C040E000C0600000C0602000C0604000C0606000C0608000C060A000C060C000C060E000C0800000C0802000C0804000C0806000C0808000C080A000C080C000C080E000C0A00000C0A02000C0A04000C0A06000C0A08000C0A0A000C0A0C000C0A0E000C0C00000C0C02000C0C04000C0C06000
310
C0C08000C0C0A000F0FBFF00A4A0A000808080000000FF0000FF000000FFFF00FF000000FF00FF00FFFF0000FFFFFF0000000000000000000000000000000000000000000000000000000000000000000000000000000000000000000000000000000000000000000000000000000000000000000000000000000000000000
310
00000000000000000000000000000000000000000000000000000000000000000000000000000000000000000000000000000000000000000000000000000000000000000000000000000000000000000000000000000000000000000000000000000000000000000000000000000000000000000000000000000000000000
310
0000000000000000000000000000000000000000000000000000000000000000000000000000000000000000000000000000000000000000000000000000000000000000000000000000000000000000000000FC00FC0000000000000000FC00FC000000000000000000000000000000000000FCFCFC0000000000000000FC
310
FCFC000000000000000000000000000000000000FC00FC0000000000000000FC00FC000000000000000000000000000000000000FC00FC0000000000000000FC00FC000000000000000000000000000000000000FC00FC0000000000000000FC00FC00000000FCFCFCFCFCFCFCFCFCFCFCFC0000FC00FCFCFCFCFCFCFCFCFC
310
FC00FC00000000FC00000000000000000000000000FC000000000000000000000000FC0000FCFCFCFCFCFCFCFCFCFCFCFCFCFC0000FC000000000000000000000000FC00000000FC00000000000000000000000000FC00000000000000000000000000FCFCFCFCFCFCFCFCFCFCFCFCFCFCFCFC0000FC000000000000000000
310
00000000000000000000000000000000000000000000FC0000000000000000000000000000000000000000000000000000000000000000FCFC0000000000000000000000000000000000000000000000000000000000000000FC0000000000000000000000000000000000000000000000000000000000000000FCFCFCFCFC
310
FCFCFCFCFCFCFCFCFCFCFCFCFCFCFCFCFCFCFCFCFC00000000000000000000000000000000000000000000000000000000000000000000000000000000000000000000000000000000000000000000000000000000000000000000000000000000000000000000000000000000000000000000000000000000000000000000
310
00000000000000000000000000000000000000000000000000000000000000000000000000000000000000000000000000000000000000000000000000000000000000000000000000000000000000000000000000000000000000000000000000000000000000000000000000000000000000000000000000000000000000
310
0000000000000000000000000000000000000000000000000000000000000000000000000000000000000000000000000000000000000000
102
{BLKREFS
331
9989
102
}
 70
     4
280
     1
281
     1
  0
ENDTAB
  0
ENDSEC
  0
SECTION
  2
BLOCKS
  0
BLOCK
  5
20
330
1F
100
AcDbEntity
  8
0
100
AcDbBlockBegin
  2
*Model_Space
 70
     0
 10
0.0
 20
0.0
 30
0.0
  3
*Model_Space
  1

  0
ENDBLK
  5
21
330
1F
100
AcDbEntity
  8
0
100
AcDbBlockEnd
  0
BLOCK
  5
1C
330
1B
100
AcDbEntity
 67
     1
  8
0
100
AcDbBlockBegin
  2
*Paper_Space
 70
     0
 10
0.0
 20
0.0
 30
0.0
  3
*Paper_Space
  1

  0
ENDBLK
  5
1D
330
1B
100
AcDbEntity
 67
     1
  8
0
100
AcDbBlockEnd
  0
BLOCK
  5
24
330
23
100
AcDbEntity
 67
     1
  8
0
100
AcDbBlockBegin
  2
*Paper_Space0
 70
     0
 10
0.0
 20
0.0
 30
0.0
  3
*Paper_Space0
  1

  0
ENDBLK
  5
25
330
23
100
AcDbEntity
 67
     1
  8
0
100
AcDbBlockEnd
  0
BLOCK
  5
6D
330
69
100
AcDbEntity
  8
0
100
AcDbBlockBegin
  2
_Open30
 70
     0
 10
0.0
 20
0.0
 30
0.0
  3
_Open30
  1

  0
LINE
  5
6A
330
69
100
AcDbEntity
  8
0
  6
ByBlock
 62
     0
370
    -2
100
AcDbLine
 10
-1.0
 20
0.26794919
 30
0.0
 11
0.0
 21
0.0
 31
0.0
  0
LINE
  5
6B
330
69
100
AcDbEntity
  8
0
  6
ByBlock
 62
     0
370
    -2
100
AcDbLine
 10
0.0
 20
0.0
 30
0.0
 11
-1.0
 21
-0.26794919
 31
0.0
  0
LINE
  5
6C
330
69
100
AcDbEntity
  8
0
  6
ByBlock
 62
     0
370
    -2
100
AcDbLine
 10
0.0
 20
0.0
 30
0.0
 11
-1.0
 21
0.0
 31
0.0
  0
ENDBLK
  5
6E
330
69
100
AcDbEntity
  8
0
100
AcDbBlockEnd
  0
BLOCK
  5
76
330
74
100
AcDbEntity
  8
0
100
AcDbBlockBegin
  2
GENAXEH
 70
     0
 10
0.0
 20
0.0
 30
0.0
  3
GENAXEH
  1

  0
LINE
  5
75
330
74
100
AcDbEntity
  8
0
100
AcDbLine
 10
-1.0
 20
0.0
 30
0.0
 11
1.0
 21
0.0
 31
0.0
  0
ENDBLK
  5
77
330
74
100
AcDbEntity
  8
0
100
AcDbBlockEnd
  0
BLOCK
  5
3A70
330
3A6F
100
AcDbEntity
  8
0
100
AcDbBlockBegin
  2
GENDOT
 70
     0
 10
0.0
 20
0.0
 30
0.0
  3
GENDOT
  1

  0
LINE
  5
3A71
330
3A6F
100
AcDbEntity
  8
0
100
AcDbLine
 10
0.0
 20
0.0
 30
0.0
 11
-1.0
 21
0.0
 31
0.0
  0
LWPOLYLINE
  5
3A72
330
3A6F
100
AcDbEntity
  8
0
100
AcDbPolyline
 90
        2
 70
     1
 43
0.25
 10
-0.125
 20
0.0
 42
1.0
 10
0.125
 20
0.0
 42
1.0
  0
ENDBLK
  5
3A73
330
3A6F
100
AcDbEntity
  8
0
100
AcDbBlockEnd
  0
BLOCK
  5
3B10
330
3B0F
100
AcDbEntity
  8
0
100
AcDbBlockBegin
  2
ロッカクアナツキプラグ-2　R1／4
 70
     0
 10
0.0
 20
0.0
 30
0.0
  3
ロッカクアナツキプラグ-2　R1／4
  1

  0
CIRCLE
  5
4C2E
330
3B0F
100
AcDbEntity
  8
AM_0 外形線1
100
AcDbCircle
 10
0.0
 20
0.0
 30
0.0
 40
6.504976
  0
CIRCLE
  5
4C2F
330
3B0F
100
AcDbEntity
  8
AM_4 細線
100
AcDbCircle
 10
0.0
 20
0.0
 30
0.0
 40
7.174975999999999
  0
LINE
  5
4C30
330
3B0F
100
AcDbEntity
  8
AM_7 中心線
100
AcDbLine
 10
-8.40497600000026
 20
0.0
 30
0.0
 11
8.404976000000031
 21
0.0
 31
0.0
  0
LINE
  5
4C31
330
3B0F
100
AcDbEntity
  8
AM_0 外形線1
100
AcDbLine
 10
2.611067000000048
 20
-1.50750000000005
 30
0.0
 11
0.0
 21
-3.014999999999986
 31
0.0
  0
LINE
  5
4C32
330
3B0F
100
AcDbEntity
  8
AM_0 外形線1
100
AcDbLine
 10
0.0
 20
-3.014999999999986
 30
0.0
 11
-2.611065999999937
 21
-1.50750000000005
 31
0.0
  0
LINE
  5
4C33
330
3B0F
100
AcDbEntity
  8
AM_7 中心線
100
AcDbLine
 10
0.0
 20
-8.404976000000031
 30
0.0
 11
0.0
 21
8.404975999999919
 31
0.0
  0
LINE
  5
4C34
330
3B0F
100
AcDbEntity
  8
AM_0 外形線1
100
AcDbLine
 10
-2.611065999999937
 20
1.507499999999935
 30
0.0
 11
0.0
 21
3.014999999999986
 31
0.0
  0
LINE
  5
4C35
330
3B0F
100
AcDbEntity
  8
AM_0 外形線1
100
AcDbLine
 10
0.0
 20
3.014999999999986
 30
0.0
 11
2.611067000000048
 21
1.507499999999935
 31
0.0
  0
LINE
  5
4C36
330
3B0F
100
AcDbEntity
  8
AM_0 外形線1
100
AcDbLine
 10
2.611067000000048
 20
1.507499999999935
 30
0.0
 11
2.611067000000048
 21
-1.50750000000005
 31
0.0
  0
LINE
  5
4C37
330
3B0F
100
AcDbEntity
  8
AM_0 外形線1
100
AcDbLine
 10
-2.611065999999937
 20
-1.50750000000005
 30
0.0
 11
-2.611065999999937
 21
1.507499999999935
 31
0.0
  0
ENDBLK
  5
3B1B
330
3B0F
100
AcDbEntity
  8
0
100
AcDbBlockEnd
  0
BLOCK
  5
4C20
330
4C1F
100
AcDbEntity
  8
0
100
AcDbBlockBegin
  2
ロッカクアナツキプラグ-1　R1／4
 70
     0
 10
0.0
 20
0.0
 30
0.0
  3
ロッカクアナツキプラグ-1　R1／4
  1

  0
CIRCLE
  5
4C23
330
4C1F
100
AcDbEntity
  8
AM_0 外形線1
100
AcDbCircle
 10
0.0
 20
0.0
 30
0.0
 40
6.504976
  0
CIRCLE
  5
4C24
330
4C1F
100
AcDbEntity
  8
AM_4 細線
100
AcDbCircle
 10
0.0
 20
0.0
 30
0.0
 40
7.174975999999999
  0
LINE
  5
4C25
330
4C1F
100
AcDbEntity
  8
AM_7 中心線
100
AcDbLine
 10
8.404976000000031
 20
0.0
 30
0.0
 11
-8.404975999999919
 21
0.0
 31
0.0
  0
LINE
  5
4C26
330
4C1F
100
AcDbEntity
  8
AM_0 外形線1
100
AcDbLine
 10
-2.611065999999937
 20
-1.50750000000005
 30
0.0
 11
0.0
 21
-3.014999999999986
 31
0.0
  0
LINE
  5
4C27
330
4C1F
100
AcDbEntity
  8
AM_0 外形線1
100
AcDbLine
 10
0.0
 20
-3.014999999999986
 30
0.0
 11
2.611067000000048
 21
-1.50750000000005
 31
0.0
  0
LINE
  5
4C28
330
4C1F
100
AcDbEntity
  8
AM_7 中心線
100
AcDbLine
 10
0.0
 20
8.404975999999919
 30
0.0
 11
0.0
 21
-8.404976000000031
 31
0.0
  0
LINE
  5
4C29
330
4C1F
100
AcDbEntity
  8
AM_0 外形線1
100
AcDbLine
 10
2.611067000000048
 20
1.507499999999935
 30
0.0
 11
0.0
 21
3.014999999999986
 31
0.0
  0
LINE
  5
4C2A
330
4C1F
100
AcDbEntity
  8
AM_0 外形線1
100
AcDbLine
 10
0.0
 20
3.014999999999986
 30
0.0
 11
-2.611065999999937
 21
1.507499999999935
 31
0.0
  0
LINE
  5
4C2B
330
4C1F
100
AcDbEntity
  8
AM_0 外形線1
100
AcDbLine
 10
-2.611065999999937
 20
1.507499999999935
 30
0.0
 11
-2.611065999999937
 21
-1.50750000000005
 31
0.0
  0
LINE
  5
4C2C
330
4C1F
100
AcDbEntity
  8
AM_0 外形線1
100
AcDbLine
 10
2.611067000000048
 20
-1.50750000000005
 30
0.0
 11
2.611067000000048
 21
1.507499999999935
 31
0.0
  0
ENDBLK
  5
4C21
330
4C1F
100
AcDbEntity
  8
0
100
AcDbBlockEnd
  0
BLOCK
  5
4D00
330
4CFF
100
AcDbEntity
  8
0
100
AcDbBlockBegin
  2
ケースＡ-1 SAM315
 70
     0
 10
0.0
 20
0.0
 30
0.0
  3
ケースＡ-1 SAM315
  1

  0
ELLIPSE
  5
4D02
330
4CFF
100
AcDbEntity
  8
AM_0 外形線1
100
AcDbEllipse
 10
1.349999999999909
 20
131.7
 30
0.0
 11
0.0
 21
2.200000000000045
 31
0.0
210
0.0
220
0.0
230
1.0
 40
0.6136363636363612
 41
0.0
 42
6.283185307179585
  0
ELLIPSE
  5
4D03
330
4CFF
100
AcDbEntity
  8
AM_0 外形線1
100
AcDbEllipse
 10
89.99999999999989
 20
115.95
 30
0.0
 11
-5.600000000000021
 21
0.0
 31
0.0
210
0.0
220
0.0
230
1.0
 40
0.6160714285714342
 41
0.0
 42
6.283185307179585
  0
LINE
  5
4D04
330
4CFF
100
AcDbEntity
  8
AM_0 外形線1
100
AcDbLine
 10
98.0
 20
126.0
 30
0.0
 11
98.0
 21
114.0
 31
0.0
  0
LINE
  5
4D05
330
4CFF
100
AcDbEntity
  8
AM_0 外形線1
100
AcDbLine
 10
81.99999999999986
 20
114.0
 30
0.0
 11
81.99999999999986
 21
122.5
 31
0.0
  0
LINE
  5
4D06
330
4CFF
100
AcDbEntity
  8
AM_0 外形線1
100
AcDbLine
 10
75.99999999999987
 20
120.860659
 30
0.0
 11
75.99999999999987
 21
122.5
 31
0.0
  0
LINE
  5
4D07
330
4CFF
100
AcDbEntity
  8
AM_0 外形線1
100
AcDbLine
 10
36.99999999999989
 20
118.6
 30
0.0
 11
36.99999999999989
 21
122.5
 31
0.0
  0
LINE
  5
4D09
330
4CFF
100
AcDbEntity
  8
AM_0 外形線1
100
AcDbLine
 10
98.0
 20
-126.0
 30
0.0
 11
98.0
 21
0.0
 31
0.0
  0
LINE
  5
4D0A
330
4CFF
100
AcDbEntity
  8
AM_0 外形線1
100
AcDbLine
 10
20.99999999999988
 20
-156.5
 30
0.0
 11
20.99999999999988
 21
0.0
 31
0.0
  0
LINE
  5
4D0B
330
4CFF
100
AcDbEntity
  8
AM_0 外形線1
100
AcDbLine
 10
24.99999999999989
 20
-130.0
 30
0.0
 11
89.28368799999987
 21
-130.0
 31
0.0
  0
LINE
  5
4D0C
330
4CFF
100
AcDbEntity
  8
AM_0 外形線1
100
AcDbLine
 10
19.99999999999988
 20
-157.5
 30
0.0
 11
20.99999999999988
 21
-156.5
 31
0.0
  0
LINE
  5
4D0D
330
4CFF
100
AcDbEntity
  8
AM_0 外形線1
100
AcDbLine
 10
0.0
 20
-156.5
 30
0.0
 11
0.9999999999998864
 21
-157.5
 31
0.0
  0
LINE
  5
4D0E
330
4CFF
100
AcDbEntity
  8
AM_0 外形線1
100
AcDbLine
 10
0.9999999999998864
 20
-157.5
 30
0.0
 11
19.99999999999988
 21
-157.5
 31
0.0
  0
ARC
  5
4D0F
330
4CFF
100
AcDbEntity
  8
AM_0 外形線1
100
AcDbCircle
 10
24.99999999999989
 20
-134.0
 30
0.0
 40
4.0
100
AcDbArc
 50
90.0
 51
180.0
  0
LINE
  5
4D10
330
4CFF
100
AcDbEntity
  8
AM_0 外形線1
100
AcDbLine
 10
89.28368799999987
 20
-130.0
 30
0.0
 11
94.0
 21
-130.0
 31
0.0
  0
ARC
  5
4D11
330
4CFF
100
AcDbEntity
  8
AM_0 外形線1
100
AcDbCircle
 10
94.0
 20
-126.0
 30
0.0
 40
4.0
100
AcDbArc
 50
270.0
 51
0.0
  0
LINE
  5
4D13
330
4CFF
100
AcDbEntity
  8
AM_0 外形線1
100
AcDbLine
 10
40.99999999999988
 20
117.6
 30
0.0
 11
37.9999999999999
 21
117.6
 31
0.0
  0
LINE
  5
4D14
330
4CFF
100
AcDbEntity
  8
AM_7 中心線
100
AcDbLine
 10
34.99999999999989
 20
120.0
 30
0.0
 11
77.9999999999999
 21
120.0
 31
0.0
  0
LINE
  5
4D15
330
4CFF
100
AcDbEntity
  8
AM_0 外形線1
100
AcDbLine
 10
37.9999999999999
 20
117.6
 30
0.0
 11
36.99999999999989
 21
118.6
 31
0.0
  0
LINE
  5
4D18
330
4CFF
100
AcDbEntity
  8
AM_3 隠れ線
100
AcDbLine
 10
74.9999999999999
 20
117.6
 30
0.0
 11
40.99999999999988
 21
117.6
 31
0.0
  0
LINE
  5
4D19
330
4CFF
100
AcDbEntity
  8
AM_0 外形線1
100
AcDbLine
 10
95.0999999999999
 20
119.4000000000001
 30
0.0
 11
84.89999999999986
 21
119.4000000000001
 31
0.0
  0
LINE
  5
4D1A
330
4CFF
100
AcDbEntity
  8
AM_0 外形線1
100
AcDbLine
 10
81.99999999999986
 20
114.0
 30
0.0
 11
81.99999999999986
 21
112.5
 31
0.0
  0
LINE
  5
4D1B
330
4CFF
100
AcDbEntity
  8
AM_0 外形線1
100
AcDbLine
 10
84.39999999999988
 20
114.0
 30
0.0
 11
84.39999999999988
 21
112.5
 31
0.0
  0
ARC
  5
4D1C
330
4CFF
100
AcDbEntity
  8
AM_0 外形線1
100
AcDbCircle
 10
84.89999999999986
 20
118.9000000000001
 30
0.0
 40
0.5
100
AcDbArc
 50
90.0
 51
180.0
  0
LINE
  5
4D1D
330
4CFF
100
AcDbEntity
  8
AM_0 外形線1
100
AcDbLine
 10
84.39999999999988
 20
118.9000000000001
 30
0.0
 11
84.39999999999988
 21
114.0
 31
0.0
  0
LINE
  5
4D1E
330
4CFF
100
AcDbEntity
  8
AM_0 外形線1
100
AcDbLine
 10
84.39999999999988
 20
114.0
 30
0.0
 11
81.99999999999986
 21
114.0
 31
0.0
  0
LINE
  5
4D1F
330
4CFF
100
AcDbEntity
  8
AM_3 隠れ線
100
AcDbLine
 10
75.99999999999987
 20
120.860659
 30
0.0
 11
75.99999999999987
 21
118.6
 31
0.0
  0
LINE
  5
4D20
330
4CFF
100
AcDbEntity
  8
AM_3 隠れ線
100
AcDbLine
 10
75.99999999999987
 20
118.6
 30
0.0
 11
74.9999999999999
 21
117.6
 31
0.0
  0
LINE
  5
4D21
330
4CFF
100
AcDbEntity
  8
AM_0 外形線1
100
AcDbLine
 10
95.59999999999993
 20
114.0
 30
0.0
 11
95.59999999999993
 21
112.5
 31
0.0
  0
LINE
  5
4D22
330
4CFF
100
AcDbEntity
  8
AM_0 外形線1
100
AcDbLine
 10
98.0
 20
114.0
 30
0.0
 11
98.0
 21
112.5
 31
0.0
  0
LINE
  5
4D23
330
4CFF
100
AcDbEntity
  8
AM_0 外形線1
100
AcDbLine
 10
98.0
 20
114.0
 30
0.0
 11
95.59999999999993
 21
114.0
 31
0.0
  0
LINE
  5
4D24
330
4CFF
100
AcDbEntity
  8
AM_0 外形線1
100
AcDbLine
 10
95.59999999999993
 20
114.0
 30
0.0
 11
95.59999999999993
 21
118.9000000000001
 31
0.0
  0
ARC
  5
4D25
330
4CFF
100
AcDbEntity
  8
AM_0 外形線1
100
AcDbCircle
 10
95.0999999999999
 20
118.9000000000001
 30
0.0
 40
0.5
100
AcDbArc
 50
0.0
 51
90.0
  0
LINE
  5
4D26
330
4CFF
100
AcDbEntity
  8
AM_0 外形線1
100
AcDbLine
 10
36.99999999999989
 20
123.0
 30
0.0
 11
75.99999999999987
 21
123.0
 31
0.0
  0
LINE
  5
4D27
330
4CFF
100
AcDbEntity
  8
AM_0 外形線1
100
AcDbLine
 10
24.99999999999989
 20
130.0
 30
0.0
 11
94.0
 21
130.0
 31
0.0
  0
LINE
  5
4D28
330
4CFF
100
AcDbEntity
  8
AM_7 中心線
100
AcDbLine
 10
-34.0
 20
145.5
 30
0.0
 11
43.99999999999988
 21
145.5
 31
0.0
  0
LINE
  5
4D29
330
4CFF
100
AcDbEntity
  8
AM_0 外形線1
100
AcDbLine
 10
0.9999999999998864
 20
157.5
 30
0.0
 11
19.99999999999988
 21
157.5
 31
0.0
  0
LINE
  5
4D2C
330
4CFF
100
AcDbEntity
  8
AM_0 外形線1
100
AcDbLine
 10
35.99999999999989
 20
123.5
 30
0.0
 11
-4.0
 21
123.5
 31
0.0
  0
LINE
  5
4D2D
330
4CFF
100
AcDbEntity
  8
AM_0 外形線1
100
AcDbLine
 10
-4.0
 20
123.5
 30
0.0
 11
-4.0
 21
129.0
 31
0.0
  0
LINE
  5
4D2E
330
4CFF
100
AcDbEntity
  8
AM_0 外形線1
100
AcDbLine
 10
-4.0
 20
129.0
 30
0.0
 11
-3.5
 21
129.5
 31
0.0
  0
LINE
  5
4D2F
330
4CFF
100
AcDbEntity
  8
AM_0 外形線1
100
AcDbLine
 10
-3.5
 20
129.5
 30
0.0
 11
2.199999999999931
 21
129.5
 31
0.0
  0
ARC
  5
4D30
330
4CFF
100
AcDbEntity
  8
AM_0 外形線1
100
AcDbCircle
 10
2.199999999999931
 20
130.0
 30
0.0
 40
0.5
100
AcDbArc
 50
270.0
 51
0.0
  0
LINE
  5
4D31
330
4CFF
100
AcDbEntity
  8
AM_0 外形線1
100
AcDbLine
 10
2.69999999999993
 20
130.0
 30
0.0
 11
2.69999999999993
 21
133.4000000000001
 31
0.0
  0
ARC
  5
4D32
330
4CFF
100
AcDbEntity
  8
AM_0 外形線1
100
AcDbCircle
 10
2.199999999999931
 20
133.4000000000001
 30
0.0
 40
0.5
100
AcDbArc
 50
0.0
 51
90.0
  0
LINE
  5
4D33
330
4CFF
100
AcDbEntity
  8
AM_0 外形線1
100
AcDbLine
 10
2.199999999999931
 20
133.9000000000001
 30
0.0
 11
0.0
 21
133.9000000000001
 31
0.0
  0
LINE
  5
4D34
330
4CFF
100
AcDbEntity
  8
AM_0 外形線1
100
AcDbLine
 10
0.0
 20
133.9000000000001
 30
0.0
 11
0.0
 21
138.5
 31
0.0
  0
LINE
  5
4D35
330
4CFF
100
AcDbEntity
  8
AM_0 外形線1
100
AcDbLine
 10
0.0
 20
156.5
 30
0.0
 11
0.9999999999998864
 21
157.5
 31
0.0
  0
LINE
  5
4D36
330
4CFF
100
AcDbEntity
  8
AM_0 外形線1
100
AcDbLine
 10
0.0
 20
152.5
 30
0.0
 11
0.0
 21
156.5
 31
0.0
  0
LINE
  5
4D37
330
4CFF
100
AcDbEntity
  8
AM_0 外形線1
100
AcDbLine
 10
20.99999999999988
 20
134.0
 30
0.0
 11
20.99999999999988
 21
156.5
 31
0.0
  0
ARC
  5
4D38
330
4CFF
100
AcDbEntity
  8
AM_0 外形線1
100
AcDbCircle
 10
24.99999999999989
 20
134.0
 30
0.0
 40
4.0
100
AcDbArc
 50
180.0
 51
270.0
  0
ARC
  5
4D39
330
4CFF
100
AcDbEntity
  8
AM_0 外形線1
100
AcDbCircle
 10
35.99999999999989
 20
122.5
 30
0.0
 40
1.0
100
AcDbArc
 50
0.0
 51
90.0
  0
LINE
  5
4D3A
330
4CFF
100
AcDbEntity
  8
AM_0 外形線1
100
AcDbLine
 10
19.99999999999988
 20
157.5
 30
0.0
 11
20.99999999999988
 21
156.5
 31
0.0
  0
ARC
  5
4D3B
330
4CFF
100
AcDbEntity
  8
AM_0 外形線1
100
AcDbCircle
 10
80.99999999999987
 20
122.5
 30
0.0
 40
1.0
100
AcDbArc
 50
0.0
 51
90.0
  0
LINE
  5
4D3C
330
4CFF
100
AcDbEntity
  8
AM_0 外形線1
100
AcDbLine
 10
80.99999999999987
 20
123.5
 30
0.0
 11
76.99999999999987
 21
123.5
 31
0.0
  0
ARC
  5
4D3D
330
4CFF
100
AcDbEntity
  8
AM_0 外形線1
100
AcDbCircle
 10
76.99999999999987
 20
122.5
 30
0.0
 40
1.0
100
AcDbArc
 50
90.0
 51
180.0
  0
ARC
  5
4D3E
330
4CFF
100
AcDbEntity
  8
AM_0 外形線1
100
AcDbCircle
 10
94.0
 20
126.0
 30
0.0
 40
4.0
100
AcDbArc
 50
0.0
 51
90.0
  0
INSERT
  5
4D3F
330
4CFF
100
AcDbEntity
  8
AM_0 外形線1
100
AcDbBlockReference
  2
ロッカクアナツキプラグ-1　R1／4
 10
10.49999999999988
 20
-37.65817099999992
 30
0.0
  0
LINE
  5
4E08
330
4CFF
100
AcDbEntity
  8
AM_0 外形線1
100
AcDbLine
 10
0.0
 20
0.0
 30
0.0
 11
0.0
 21
-156.5
 31
0.0
  0
LINE
  5
4E09
330
4CFF
100
AcDbEntity
  8
AM_0 外形線1
100
AcDbLine
 10
0.0
 20
152.5
 30
0.0
 11
20.99999999999988
 21
152.5
 31
0.0
  0
LINE
  5
4E0A
330
4CFF
100
AcDbEntity
  8
AM_0 外形線1
100
AcDbLine
 10
0.0
 20
138.5
 30
0.0
 11
20.99999999999988
 21
138.5
 31
0.0
  0
ENDBLK
  5
4D01
330
4CFF
100
AcDbEntity
  8
0
100
AcDbBlockEnd
  0
BLOCK
  5
4E8D
330
4E8C
100
AcDbEntity
  8
0
100
AcDbBlockBegin
  2
ケースＡ-2 SAM315
 70
     0
 10
0.0
 20
0.0
 30
0.0
  3
ケースＡ-2 SAM315
  1

  0
LINE
  5
4E8F
330
4E8C
100
AcDbEntity
  8
AM_0 外形線1
100
AcDbLine
 10
-37.0
 20
118.6
 30
0.0
 11
-37.0
 21
122.5
 31
0.0
  0
LINE
  5
4E90
330
4E8C
100
AcDbEntity
  8
AM_0 外形線1
100
AcDbLine
 10
-82.0
 20
114.0
 30
0.0
 11
-82.0
 21
122.5
 31
0.0
  0
LINE
  5
4E91
330
4E8C
100
AcDbEntity
  8
AM_0 外形線1
100
AcDbLine
 10
-76.0
 20
120.860659
 30
0.0
 11
-76.0
 21
122.5
 31
0.0
  0
LINE
  5
4E92
330
4E8C
100
AcDbEntity
  8
AM_0 外形線1
100
AcDbLine
 10
-98.0
 20
126.0
 30
0.0
 11
-98.0
 21
114.0
 31
0.0
  0
LINE
  5
4E93
330
4E8C
100
AcDbEntity
  8
AM_0 外形線1
100
AcDbLine
 10
-25.0
 20
-130.0
 30
0.0
 11
-94.0
 21
-130.0
 31
0.0
  0
LINE
  5
4E94
330
4E8C
100
AcDbEntity
  8
AM_0 外形線1
100
AcDbLine
 10
-41.0
 20
117.6
 30
0.0
 11
-38.0
 21
117.6
 31
0.0
  0
LINE
  5
4E95
330
4E8C
100
AcDbEntity
  8
AM_7 中心線
100
AcDbLine
 10
-35.0
 20
120.0
 30
0.0
 11
-78.0
 21
120.0
 31
0.0
  0
LINE
  5
4E96
330
4E8C
100
AcDbEntity
  8
AM_0 外形線1
100
AcDbLine
 10
-98.0
 20
-126.0
 30
0.0
 11
-98.0
 21
0.0
 31
0.0
  0
ARC
  5
4E97
330
4E8C
100
AcDbEntity
  8
AM_0 外形線1
100
AcDbCircle
 10
-94.0
 20
-126.0
 30
0.0
 40
4.0
100
AcDbArc
 50
180.0
 51
270.0
  0
LINE
  5
4E99
330
4E8C
100
AcDbEntity
  8
AM_3 隠れ線
100
AcDbLine
 10
-75.0
 20
117.6
 30
0.0
 11
-41.0
 21
117.6
 31
0.0
  0
LINE
  5
4E9A
330
4E8C
100
AcDbEntity
  8
AM_0 外形線1
100
AcDbLine
 10
-95.0999999999999
 20
119.4000000000001
 30
0.0
 11
-84.90000000000009
 21
119.4000000000001
 31
0.0
  0
LWPOLYLINE
  5
4E9B
330
4E8C
100
AcDbEntity
  8
AM_0 外形線1
100
AcDbPolyline
 90
       73
 70
     0
 43
0.0
 10
-95.59999999999993
 20
115.95
 10
-95.57869000000003
 20
115.649313
 10
-95.51492299999997
 20
115.350914
 10
-95.40918400000007
 20
115.057075
 10
-95.26227800000015
 20
114.770031
 10
-95.07532300000002
 20
114.491967
 10
-94.84974199999987
 20
114.225
 10
-94.58725100000014
 20
113.971162
 10
-94.28984800000014
 20
113.732383
 10
-93.95979800000008
 20
113.510482
 10
-93.59961000000021
 20
113.307147
 10
-93.21202800000014
 20
113.123926
 10
-92.79999999999997
 20
112.962213
 10
-92.36666200000014
 20
112.823238
 10
-91.91531200000007
 20
112.7080609999999
 10
-91.44938600000021
 20
112.617556
 10
-90.97242900000015
 20
112.552414
 10
-90.48807200000013
 20
112.513129
 10
-90.0
 20
112.5
 10
-89.51192700000023
 20
112.513129
 10
-89.0275700000002
 20
112.552414
 10
-88.55061300000011
 20
112.617556
 10
-88.08468700000004
 20
112.7080609999999
 10
-87.63333700000021
 20
112.823238
 10
-87.20000000000004
 20
112.962213
 10
-86.78797200000008
 20
113.123926
 10
-86.40038900000012
 20
113.307147
 10
-86.04020200000013
 20
113.510482
 10
-85.71015100000023
 20
113.732383
 10
-85.41274799999994
 20
113.971162
 10
-85.150257
 20
114.225
 10
-84.9246760000001
 20
114.491967
 10
-84.73772100000019
 20
114.770031
 10
-84.59081500000001
 20
115.057075
 10
-84.48507600000015
 20
115.350914
 10
-84.42130900000007
 20
115.649313
 10
-84.4000000000001
 20
115.95
 10
-84.42130900000007
 20
116.2506880000001
 10
-84.48507600000015
 20
116.549086
 10
-84.59081500000001
 20
116.842926
 10
-84.73772100000019
 20
117.12997
 10
-84.9246760000001
 20
117.408033
 10
-85.150257
 20
117.675
 10
-85.41274799999994
 20
117.928839
 10
-85.71015100000023
 20
118.167618
 10
-86.04020200000013
 20
118.3895189999999
 10
-86.40038900000012
 20
118.5928540000001
 10
-86.78797200000008
 20
118.776075
 10
-87.20000000000004
 20
118.9377880000001
 10
-87.63333700000021
 20
119.076762
 10
-88.08468700000004
 20
119.1919399999999
 10
-88.55061300000011
 20
119.2824439999999
 10
-89.0275700000002
 20
119.3475870000001
 10
-89.51192700000023
 20
119.386872
 10
-90.0
 20
119.4000000000001
 10
-90.48807200000013
 20
119.386872
 10
-90.97242900000015
 20
119.3475870000001
 10
-91.44938600000021
 20
119.2824439999999
 10
-91.91531200000007
 20
119.1919399999999
 10
-92.36666200000014
 20
119.076762
 10
-92.79999999999997
 20
118.9377880000001
 10
-93.21202800000014
 20
118.776075
 10
-93.59961000000021
 20
118.5928540000001
 10
-93.95979800000008
 20
118.3895189999999
 10
-94.28984800000014
 20
118.167618
 10
-94.58725100000014
 20
117.928839
 10
-94.84974199999987
 20
117.675
 10
-95.07532300000002
 20
117.408033
 10
-95.26227800000015
 20
117.12997
 10
-95.40918400000007
 20
116.842926
 10
-95.51492299999997
 20
116.549086
 10
-95.57869000000003
 20
116.2506880000001
 10
-95.59999999999993
 20
115.95
  0
LINE
  5
4E9C
330
4E8C
100
AcDbEntity
  8
AM_0 外形線1
100
AcDbLine
 10
-98.0
 20
114.0
 30
0.0
 11
-98.0
 21
112.5
 31
0.0
  0
LINE
  5
4E9D
330
4E8C
100
AcDbEntity
  8
AM_0 外形線1
100
AcDbLine
 10
-95.59999999999993
 20
114.0
 30
0.0
 11
-95.59999999999993
 21
112.5
 31
0.0
  0
LINE
  5
4E9E
330
4E8C
100
AcDbEntity
  8
AM_0 外形線1
100
AcDbLine
 10
-98.0
 20
114.0
 30
0.0
 11
-95.59999999999993
 21
114.0
 31
0.0
  0
LINE
  5
4E9F
330
4E8C
100
AcDbEntity
  8
AM_0 外形線1
100
AcDbLine
 10
-95.59999999999993
 20
114.0
 30
0.0
 11
-95.59999999999993
 21
118.9000000000001
 31
0.0
  0
ARC
  5
4EA0
330
4E8C
100
AcDbEntity
  8
AM_0 外形線1
100
AcDbCircle
 10
-95.0999999999999
 20
118.9000000000001
 30
0.0
 40
0.5
100
AcDbArc
 50
90.0
 51
180.0
  0
LINE
  5
4EA1
330
4E8C
100
AcDbEntity
  8
AM_0 外形線1
100
AcDbLine
 10
-84.4000000000001
 20
114.0
 30
0.0
 11
-84.4000000000001
 21
112.5
 31
0.0
  0
LINE
  5
4EA2
330
4E8C
100
AcDbEntity
  8
AM_0 外形線1
100
AcDbLine
 10
-82.0
 20
114.0
 30
0.0
 11
-82.0
 21
112.5
 31
0.0
  0
ARC
  5
4EA3
330
4E8C
100
AcDbEntity
  8
AM_0 外形線1
100
AcDbCircle
 10
-84.90000000000009
 20
118.9000000000001
 30
0.0
 40
0.5
100
AcDbArc
 50
0.0
 51
90.0
  0
LINE
  5
4EA4
330
4E8C
100
AcDbEntity
  8
AM_0 外形線1
100
AcDbLine
 10
-84.4000000000001
 20
118.9000000000001
 30
0.0
 11
-84.4000000000001
 21
114.0
 31
0.0
  0
LINE
  5
4EA5
330
4E8C
100
AcDbEntity
  8
AM_0 外形線1
100
AcDbLine
 10
-84.4000000000001
 20
114.0
 30
0.0
 11
-82.0
 21
114.0
 31
0.0
  0
LINE
  5
4EA6
330
4E8C
100
AcDbEntity
  8
AM_3 隠れ線
100
AcDbLine
 10
-76.0
 20
120.860659
 30
0.0
 11
-76.0
 21
118.6
 31
0.0
  0
LINE
  5
4EA7
330
4E8C
100
AcDbEntity
  8
AM_3 隠れ線
100
AcDbLine
 10
-76.0
 20
118.6
 30
0.0
 11
-75.0
 21
117.6
 31
0.0
  0
LINE
  5
4EA8
330
4E8C
100
AcDbEntity
  8
AM_0 外形線1
100
AcDbLine
 10
-21.0
 20
-156.5
 30
0.0
 11
-21.0
 21
0.0
 31
0.0
  0
LINE
  5
4EA9
330
4E8C
100
AcDbEntity
  8
AM_0 外形線1
100
AcDbLine
 10
0.0
 20
0.0
 30
0.0
 11
0.0
 21
-156.5
 31
0.0
  0
LINE
  5
4EAA
330
4E8C
100
AcDbEntity
  8
AM_0 外形線1
100
AcDbLine
 10
0.0
 20
-156.5
 30
0.0
 11
-1.0
 21
-157.5
 31
0.0
  0
LINE
  5
4EAB
330
4E8C
100
AcDbEntity
  8
AM_0 外形線1
100
AcDbLine
 10
-20.0
 20
-157.5
 30
0.0
 11
-21.0
 21
-156.5
 31
0.0
  0
LINE
  5
4EAC
330
4E8C
100
AcDbEntity
  8
AM_0 外形線1
100
AcDbLine
 10
-1.0
 20
-157.5
 30
0.0
 11
-20.0
 21
-157.5
 31
0.0
  0
ARC
  5
4EAD
330
4E8C
100
AcDbEntity
  8
AM_0 外形線1
100
AcDbCircle
 10
-25.0
 20
-134.0
 30
0.0
 40
4.0
100
AcDbArc
 50
0.0
 51
90.0
  0
LINE
  5
4EAF
330
4E8C
100
AcDbEntity
  8
AM_0 外形線1
100
AcDbLine
 10
-38.0
 20
117.6
 30
0.0
 11
-37.0
 21
118.6
 31
0.0
  0
LINE
  5
4EB0
330
4E8C
100
AcDbEntity
  8
AM_0 外形線1
100
AcDbLine
 10
-37.0
 20
123.0
 30
0.0
 11
-76.0
 21
123.0
 31
0.0
  0
LINE
  5
4EB1
330
4E8C
100
AcDbEntity
  8
AM_0 外形線1
100
AcDbLine
 10
-25.0
 20
130.0
 30
0.0
 11
-94.0
 21
130.0
 31
0.0
  0
LINE
  5
4EB2
330
4E8C
100
AcDbEntity
  8
AM_7 中心線
100
AcDbLine
 10
34.0
 20
145.5
 30
0.0
 11
-44.0
 21
145.5
 31
0.0
  0
ARC
  5
4EB3
330
4E8C
100
AcDbEntity
  8
AM_0 外形線1
100
AcDbCircle
 10
-94.0
 20
126.0
 30
0.0
 40
4.0
100
AcDbArc
 50
90.0
 51
180.0
  0
ARC
  5
4EB4
330
4E8C
100
AcDbEntity
  8
AM_0 外形線1
100
AcDbCircle
 10
-81.0
 20
122.5
 30
0.0
 40
1.0
100
AcDbArc
 50
90.0
 51
180.0
  0
LINE
  5
4EB5
330
4E8C
100
AcDbEntity
  8
AM_0 外形線1
100
AcDbLine
 10
-81.0
 20
123.5
 30
0.0
 11
-77.0
 21
123.5
 31
0.0
  0
ARC
  5
4EB6
330
4E8C
100
AcDbEntity
  8
AM_0 外形線1
100
AcDbCircle
 10
-77.0
 20
122.5
 30
0.0
 40
1.0
100
AcDbArc
 50
0.0
 51
90.0
  0
LINE
  5
4EB7
330
4E8C
100
AcDbEntity
  8
AM_0 外形線1
100
AcDbLine
 10
-1.0
 20
157.5
 30
0.0
 11
-20.0
 21
157.5
 31
0.0
  0
LINE
  5
4EB8
330
4E8C
100
AcDbEntity
  8
AM_0 外形線1
100
AcDbLine
 10
-21.0
 20
152.5
 30
0.0
 11
0.0
 21
152.5
 31
0.0
  0
LINE
  5
4EB9
330
4E8C
100
AcDbEntity
  8
AM_0 外形線1
100
AcDbLine
 10
-21.0
 20
138.5
 30
0.0
 11
0.0000000000001137
 21
138.5
 31
0.0
  0
LINE
  5
4EBA
330
4E8C
100
AcDbEntity
  8
AM_0 外形線1
100
AcDbLine
 10
-36.0
 20
123.5
 30
0.0
 11
4.0
 21
123.5
 31
0.0
  0
LINE
  5
4EBB
330
4E8C
100
AcDbEntity
  8
AM_0 外形線1
100
AcDbLine
 10
-21.0
 20
134.0
 30
0.0
 11
-21.0
 21
156.5
 31
0.0
  0
ARC
  5
4EBC
330
4E8C
100
AcDbEntity
  8
AM_0 外形線1
100
AcDbCircle
 10
-25.0
 20
134.0
 30
0.0
 40
4.0
100
AcDbArc
 50
270.0
 51
0.0
  0
ARC
  5
4EBD
330
4E8C
100
AcDbEntity
  8
AM_0 外形線1
100
AcDbCircle
 10
-36.0
 20
122.5
 30
0.0
 40
1.0
100
AcDbArc
 50
90.0
 51
180.0
  0
LINE
  5
4EBE
330
4E8C
100
AcDbEntity
  8
AM_0 外形線1
100
AcDbLine
 10
-20.0
 20
157.5
 30
0.0
 11
-21.0
 21
156.5
 31
0.0
  0
LINE
  5
4EBF
330
4E8C
100
AcDbEntity
  8
AM_0 外形線1
100
AcDbLine
 10
4.0
 20
123.5
 30
0.0
 11
4.0
 21
129.0
 31
0.0
  0
LINE
  5
4EC0
330
4E8C
100
AcDbEntity
  8
AM_0 外形線1
100
AcDbLine
 10
4.0
 20
129.0
 30
0.0
 11
3.5
 21
129.5
 31
0.0
  0
LINE
  5
4EC1
330
4E8C
100
AcDbEntity
  8
AM_0 外形線1
100
AcDbLine
 10
3.5
 20
129.5
 30
0.0
 11
-2.200000000000045
 21
129.5
 31
0.0
  0
ARC
  5
4EC2
330
4E8C
100
AcDbEntity
  8
AM_0 外形線1
100
AcDbCircle
 10
-2.200000000000045
 20
130.0
 30
0.0
 40
0.5
100
AcDbArc
 50
180.0
 51
270.0
  0
LINE
  5
4EC3
330
4E8C
100
AcDbEntity
  8
AM_0 外形線1
100
AcDbLine
 10
-2.700000000000044
 20
130.0
 30
0.0
 11
-2.700000000000044
 21
133.4000000000001
 31
0.0
  0
ARC
  5
4EC4
330
4E8C
100
AcDbEntity
  8
AM_0 外形線1
100
AcDbCircle
 10
-2.200000000000045
 20
133.4000000000001
 30
0.0
 40
0.5
100
AcDbArc
 50
90.0
 51
180.0
  0
LINE
  5
4EC5
330
4E8C
100
AcDbEntity
  8
AM_0 外形線1
100
AcDbLine
 10
-2.200000000000045
 20
133.9000000000001
 30
0.0
 11
0.0
 21
133.9000000000001
 31
0.0
  0
LWPOLYLINE
  5
4EC6
330
4E8C
100
AcDbEntity
  8
AM_0 外形線1
100
AcDbPolyline
 90
       73
 70
     0
 43
0.0
 10
-1.349999999999909
 20
129.5
 10
-1.232339000000137
 20
129.508372
 10
-1.115575000000034
 20
129.5334229999999
 10
-1.00059400000009
 20
129.574963
 10
-0.8882720000001427
 20
129.6326769999999
 10
-0.7794650000000729
 20
129.706123
 10
-0.6749999999999547
 20
129.794744
 10
-0.5756710000000567
 20
129.897866
 10
-0.4822360000002847
 20
130.0147019999999
 10
-0.3954050000002098
 20
130.144365
 10
-0.3158399999999801
 20
130.285868
 10
-0.2441440000002331
 20
130.438132
 10
-0.1808650000000398
 20
130.6
 10
-0.1264840000001186
 20
130.7702399999999
 10
-0.0814150000001064
 20
130.9475559999999
 10
-0.0460000000000491
 20
131.1305979999999
 10
-0.0205090000001746
 20
131.317974
 10
-0.0051370000001043
 20
131.5082580000001
 10
0.0
 20
131.7
 10
-0.0051370000001043
 20
131.891743
 10
-0.0205090000001746
 20
132.082026
 10
-0.0460000000000491
 20
132.269402
 10
-0.0814150000001064
 20
132.452445
 10
-0.1264840000001186
 20
132.62976
 10
-0.1808650000000398
 20
132.8
 10
-0.2441440000002331
 20
132.961868
 10
-0.3158399999999801
 20
133.114133
 10
-0.3954050000002098
 20
133.255635
 10
-0.4822360000002847
 20
133.385298
 10
-0.5756710000000567
 20
133.5021349999999
 10
-0.6749999999999547
 20
133.605256
 10
-0.7794650000000729
 20
133.693877
 10
-0.8882720000001427
 20
133.767324
 10
-1.00059400000009
 20
133.825037
 10
-1.115575000000034
 20
133.866577
 10
-1.232339000000137
 20
133.8916290000001
 10
-1.349999999999909
 20
133.9000000000001
 10
-1.467660000000249
 20
133.8916290000001
 10
-1.58442500000001
 20
133.866577
 10
-1.699405000000069
 20
133.825037
 10
-1.811727000000245
 20
133.767324
 10
-1.920534000000315
 20
133.693877
 10
-2.02500000000009
 20
133.605256
 10
-2.124328000000105
 20
133.5021349999999
 10
-2.217763000000104
 20
133.385298
 10
-2.304594000000179
 20
133.255635
 10
-2.384160000000064
 20
133.114133
 10
-2.455855000000154
 20
132.961868
 10
-2.51913400000012
 20
132.8
 10
-2.573515000000043
 20
132.62976
 10
-2.618585000000166
 20
132.452445
 10
-2.653999000000111
 20
132.269402
 10
-2.679489999999987
 20
132.082026
 10
-2.694862000000056
 20
131.891743
 10
-2.700000000000044
 20
131.7
 10
-2.694862000000056
 20
131.5082580000001
 10
-2.679489999999987
 20
131.317974
 10
-2.653999000000111
 20
131.1305979999999
 10
-2.618585000000166
 20
130.9475559999999
 10
-2.573515000000043
 20
130.7702399999999
 10
-2.51913400000012
 20
130.6
 10
-2.455855000000154
 20
130.438132
 10
-2.384160000000064
 20
130.285868
 10
-2.304594000000179
 20
130.144365
 10
-2.217763000000104
 20
130.0147019999999
 10
-2.124328000000105
 20
129.897866
 10
-2.02500000000009
 20
129.794744
 10
-1.920534000000315
 20
129.706123
 10
-1.811727000000245
 20
129.6326769999999
 10
-1.699405000000069
 20
129.574963
 10
-1.58442500000001
 20
129.5334229999999
 10
-1.467660000000249
 20
129.508372
 10
-1.349999999999909
 20
129.5
  0
LINE
  5
4EC7
330
4E8C
100
AcDbEntity
  8
AM_0 外形線1
100
AcDbLine
 10
0.0
 20
133.9000000000001
 30
0.0
 11
0.0
 21
138.5
 31
0.0
  0
LINE
  5
4EC8
330
4E8C
100
AcDbEntity
  8
AM_0 外形線1
100
AcDbLine
 10
0.0
 20
156.5
 30
0.0
 11
-1.0
 21
157.5
 31
0.0
  0
LINE
  5
4EC9
330
4E8C
100
AcDbEntity
  8
AM_0 外形線1
100
AcDbLine
 10
0.0
 20
152.5
 30
0.0
 11
0.0
 21
156.5
 31
0.0
  0
INSERT
  5
4ECA
330
4E8C
100
AcDbEntity
  8
AM_0 外形線1
100
AcDbBlockReference
  2
ロッカクアナツキプラグ-2　R1／4
 10
-10.5
 20
-37.65817099999992
 30
0.0
  0
ENDBLK
  5
4E8E
330
4E8C
100
AcDbEntity
  8
0
100
AcDbBlockEnd
  0
BLOCK
  5
5016
330
5015
100
AcDbEntity
  8
0
100
AcDbBlockBegin
  2
センタ-1 SAM315
 70
     0
 10
0.0
 20
0.0
 30
0.0
  3
センタ-1 SAM315
  1

  0
ARC
  5
5018
330
5015
100
AcDbEntity
  8
AM_0 外形線1
100
AcDbCircle
 10
49.0
 20
0.0
 30
0.0
 40
122.84
100
AcDbArc
 50
81.33816100000048
 51
97.01389600000513
  0
LINE
  5
5019
330
5015
100
AcDbEntity
  8
AM_7 中心線
100
AcDbLine
 10
49.0
 20
127.8400000000001
 30
0.0
 11
49.0
 21
111.7
 31
0.0
  0
LINE
  5
501A
330
5015
100
AcDbEntity
  8
AM_0 外形線1
100
AcDbLine
 10
166.0000000000001
 20
111.7
 30
0.0
 11
113.5000000000001
 21
111.7
 31
0.0
  0
LINE
  5
501B
330
5015
100
AcDbEntity
  8
AM_0 外形線1
100
AcDbLine
 10
166.0000000000001
 20
-111.6999999999999
 30
0.0
 11
113.5000000000001
 21
-111.6999999999999
 31
0.0
  0
LINE
  5
501C
330
5015
100
AcDbEntity
  8
AM_0 外形線1
100
AcDbLine
 10
111.5000000000001
 20
-112.5
 30
0.0
 11
111.5000000000001
 21
0.0
 31
0.0
  0
LINE
  5
501D
330
5015
100
AcDbEntity
  8
AM_0 外形線1
100
AcDbLine
 10
113.5000000000001
 20
-111.6999999999999
 30
0.0
 11
113.5000000000001
 21
0.0
 31
0.0
  0
LINE
  5
501E
330
5015
100
AcDbEntity
  8
AM_0 外形線1
100
AcDbLine
 10
90.00000000000012
 20
-112.5
 30
0.0
 11
111.5000000000001
 21
-112.5
 31
0.0
  0
LINE
  5
5020
330
5015
100
AcDbEntity
  8
AM_0 外形線1
100
AcDbLine
 10
111.5000000000001
 20
-112.5
 30
0.0
 11
113.5000000000001
 21
-111.6999999999999
 31
0.0
  0
ARC
  5
5021
330
5015
100
AcDbEntity
  8
AM_0 外形線1
100
AcDbCircle
 10
32.5
 20
112.5
 30
0.0
 40
0.5
100
AcDbArc
 50
270.0
 51
0.0
  0
LINE
  5
5023
330
5015
100
AcDbEntity
  8
AM_3 隠れ線
100
AcDbLine
 10
0.0
 20
5.15000000000009
 30
0.0
 11
33.0
 21
5.15000000000009
 31
0.0
  0
LINE
  5
5024
330
5015
100
AcDbEntity
  8
AM_0 外形線1
100
AcDbLine
 10
0.0
 20
111.0
 30
0.0
 11
0.0
 21
0.0
 31
0.0
  0
LINE
  5
5025
330
5015
100
AcDbEntity
  8
AM_3 隠れ線
100
AcDbLine
 10
28.0
 20
6.0
 30
0.0
 11
28.49074800000006
 21
5.15000000000009
 31
0.0
  0
LINE
  5
5026
330
5015
100
AcDbEntity
  8
AM_3 隠れ線
100
AcDbLine
 10
28.0
 20
6.0
 30
0.0
 11
28.0
 21
0.0
 31
0.0
  0
LINE
  5
5027
330
5015
100
AcDbEntity
  8
AM_3 隠れ線
100
AcDbLine
 10
28.49074800000006
 20
5.15000000000009
 30
0.0
 11
28.49074800000006
 21
0.0
 31
0.0
  0
LINE
  5
5028
330
5015
100
AcDbEntity
  8
AM_3 隠れ線
100
AcDbLine
 10
0.0
 20
6.0
 30
0.0
 11
28.0
 21
6.0
 31
0.0
  0
LINE
  5
5029
330
5015
100
AcDbEntity
  8
AM_0 外形線1
100
AcDbLine
 10
32.5
 20
112.0
 30
0.0
 11
1.0
 21
112.0
 31
0.0
  0
LINE
  5
502A
330
5015
100
AcDbEntity
  8
AM_0 外形線1
100
AcDbLine
 10
1.0
 20
112.0
 30
0.0
 11
0.0
 21
111.0
 31
0.0
  0
LINE
  5
502B
330
5015
100
AcDbEntity
  8
AM_3 隠れ線
100
AcDbLine
 10
33.0
 20
5.15000000000009
 30
0.0
 11
35.97335399999997
 21
0.0
 31
0.0
  0
LINE
  5
502C
330
5015
100
AcDbEntity
  8
AM_3 隠れ線
100
AcDbLine
 10
33.0
 20
5.15000000000009
 30
0.0
 11
33.0
 21
0.0
 31
0.0
  0
LINE
  5
502D
330
5015
100
AcDbEntity
  8
AM_0 外形線1
100
AcDbLine
 10
111.5000000000001
 20
112.5
 30
0.0
 11
69.0000000000001
 21
112.5
 31
0.0
  0
LINE
  5
502F
330
5015
100
AcDbEntity
  8
AM_0 外形線1
100
AcDbLine
 10
34.0
 20
121.9207350000001
 30
0.0
 11
33.0
 21
120.793537
 31
0.0
  0
LINE
  5
5030
330
5015
100
AcDbEntity
  8
AM_0 外形線1
100
AcDbLine
 10
33.0
 20
120.793537
 30
0.0
 11
33.0
 21
112.5
 31
0.0
  0
ARC
  5
5031
330
5015
100
AcDbEntity
  8
AM_0 外形線1
100
AcDbCircle
 10
69.0000000000001
 20
113.0
 30
0.0
 40
0.5
100
AcDbArc
 50
180.0
 51
270.0
  0
LINE
  5
5032
330
5015
100
AcDbEntity
  8
AM_0 外形線1
100
AcDbLine
 10
68.50000000000012
 20
113.0
 30
0.0
 11
68.50000000000012
 21
120.28238
 31
0.0
  0
LINE
  5
5033
330
5015
100
AcDbEntity
  8
AM_0 外形線1
100
AcDbLine
 10
68.50000000000012
 20
120.28238
 30
0.0
 11
67.5
 21
121.438938
 31
0.0
  0
LINE
  5
5034
330
5015
100
AcDbEntity
  8
AM_0 外形線1
100
AcDbLine
 10
113.5000000000001
 20
111.7
 30
0.0
 11
111.5000000000001
 21
112.5
 31
0.0
  0
LINE
  5
5035
330
5015
100
AcDbEntity
  8
AM_0 外形線1
100
AcDbLine
 10
170.0000000000001
 20
-107.6999999999999
 30
0.0
 11
170.0000000000001
 21
0.0
 31
0.0
  0
ARC
  5
5036
330
5015
100
AcDbEntity
  8
AM_0 外形線1
100
AcDbCircle
 10
166.0000000000001
 20
-107.6999999999999
 30
0.0
 40
4.0
100
AcDbArc
 50
270.0
 51
0.0
  0
LINE
  5
5037
330
5015
100
AcDbEntity
  8
AM_0 外形線1
100
AcDbLine
 10
170.0000000000001
 20
0.0
 30
0.0
 11
170.0000000000001
 21
107.7
 31
0.0
  0
ARC
  5
5038
330
5015
100
AcDbEntity
  8
AM_0 外形線1
100
AcDbCircle
 10
166.0000000000001
 20
107.7
 30
0.0
 40
4.0
100
AcDbArc
 50
0.0
 51
90.0
  0
LINE
  5
503A
330
5015
100
AcDbEntity
  8
AM_0 外形線1
100
AcDbLine
 10
170.0000000000001
 20
53.18834458788888
 30
0.0
 11
0.0
 21
53.18834458788899
 31
0.0
  0
ARC
  5
9717
330
5015
100
AcDbEntity
  8
AM_7 中心線
100
AcDbCircle
 10
49.00000000000011
 20
0.0000000000001137
 30
0.0
 40
119.9999999999999
100
AcDbArc
 50
79.52132777604872
 51
99.17933277796421
  0
ARC
  5
9718
330
5015
100
AcDbEntity
  8
AM_0 外形線1
100
AcDbCircle
 10
49.00000000000011
 20
0.0000000000001137
 30
0.0
 40
116.6999999999999
100
AcDbArc
 50
80.38103431719958
 51
97.88028342679844
  0
ENDBLK
  5
5017
330
5015
100
AcDbEntity
  8
0
100
AcDbBlockEnd
  0
BLOCK
  5
517B
330
517A
100
AcDbEntity
  8
0
100
AcDbBlockBegin
  2
センタ-2 SAM315
 70
     0
 10
0.0
 20
0.0
 30
0.0
  3
センタ-2 SAM315
  1

  0
ARC
  5
517D
330
517A
100
AcDbEntity
  8
AM_0 外形線1
100
AcDbCircle
 10
-49.0
 20
0.0
 30
0.0
 40
122.84
100
AcDbArc
 50
82.98610399999487
 51
98.66183899999953
  0
LINE
  5
517E
330
517A
100
AcDbEntity
  8
AM_7 中心線
100
AcDbLine
 10
-49.0
 20
127.8400000000001
 30
0.0
 11
-49.0
 21
111.7
 31
0.0
  0
LINE
  5
517F
330
517A
100
AcDbEntity
  8
AM_0 外形線1
100
AcDbLine
 10
-32.5
 20
112.0
 30
0.0
 11
-1.0
 21
112.0
 31
0.0
  0
LINE
  5
5181
330
517A
100
AcDbEntity
  8
AM_3 隠れ線
100
AcDbLine
 10
0.0
 20
5.15000000000009
 30
0.0
 11
-33.0
 21
5.15000000000009
 31
0.0
  0
LINE
  5
5182
330
517A
100
AcDbEntity
  8
AM_0 外形線1
100
AcDbLine
 10
-111.5
 20
-112.5
 30
0.0
 11
-111.5
 21
0.0
 31
0.0
  0
LINE
  5
5183
330
517A
100
AcDbEntity
  8
AM_0 外形線1
100
AcDbLine
 10
-113.5
 20
-111.6999999999999
 30
0.0
 11
-113.5
 21
0.0
 31
0.0
  0
LINE
  5
5184
330
517A
100
AcDbEntity
  8
AM_0 外形線1
100
AcDbLine
 10
-170.0
 20
0.0
 30
0.0
 11
-170.0
 21
-107.6999999999999
 31
0.0
  0
LINE
  5
5185
330
517A
100
AcDbEntity
  8
AM_0 外形線1
100
AcDbLine
 10
-166.0
 20
-111.6999999999999
 30
0.0
 11
-130.9716310000001
 21
-111.6999999999999
 31
0.0
  0
ARC
  5
5186
330
517A
100
AcDbEntity
  8
AM_0 外形線1
100
AcDbCircle
 10
-166.0
 20
-107.6999999999999
 30
0.0
 40
4.0
100
AcDbArc
 50
180.0
 51
270.0
  0
LINE
  5
5187
330
517A
100
AcDbEntity
  8
AM_0 外形線1
100
AcDbLine
 10
-90.0
 20
-112.5
 30
0.0
 11
-111.5
 21
-112.5
 31
0.0
  0
LINE
  5
5188
330
517A
100
AcDbEntity
  8
AM_0 外形線1
100
AcDbLine
 10
-113.5
 20
-111.6999999999999
 30
0.0
 11
-130.9716310000001
 21
-111.6999999999999
 31
0.0
  0
LINE
  5
5189
330
517A
100
AcDbEntity
  8
AM_0 外形線1
100
AcDbLine
 10
-111.5
 20
-112.5
 30
0.0
 11
-113.5
 21
-111.6999999999999
 31
0.0
  0
LINE
  5
518A
330
517A
100
AcDbEntity
  8
AM_0 外形線1
100
AcDbLine
 10
-166.0
 20
111.7
 30
0.0
 11
-113.5
 21
111.7
 31
0.0
  0
LINE
  5
518B
330
517A
100
AcDbEntity
  8
AM_0 外形線1
100
AcDbLine
 10
-170.0
 20
107.7
 30
0.0
 11
-170.0
 21
0.0
 31
0.0
  0
ARC
  5
518C
330
517A
100
AcDbEntity
  8
AM_0 外形線1
100
AcDbCircle
 10
-166.0
 20
107.7
 30
0.0
 40
4.0
100
AcDbArc
 50
90.0
 51
180.0
  0
LINE
  5
518D
330
517A
100
AcDbEntity
  8
AM_3 隠れ線
100
AcDbLine
 10
-33.0
 20
5.15000000000009
 30
0.0
 11
-33.0
 21
0.0
 31
0.0
  0
LINE
  5
518E
330
517A
100
AcDbEntity
  8
AM_3 隠れ線
100
AcDbLine
 10
-33.0
 20
5.15000000000009
 30
0.0
 11
-35.9733530000001
 21
0.0
 31
0.0
  0
LINE
  5
518F
330
517A
100
AcDbEntity
  8
AM_0 外形線1
100
AcDbLine
 10
-111.5
 20
112.5
 30
0.0
 11
-69.0
 21
112.5
 31
0.0
  0
LINE
  5
5190
330
517A
100
AcDbEntity
  8
AM_0 外形線1
100
AcDbLine
 10
-113.5
 20
111.7
 30
0.0
 11
-111.5
 21
112.5
 31
0.0
  0
ARC
  5
5192
330
517A
100
AcDbEntity
  8
AM_0 外形線1
100
AcDbCircle
 10
-69.0
 20
113.0
 30
0.0
 40
0.5
100
AcDbArc
 50
270.0
 51
0.0
  0
LINE
  5
5193
330
517A
100
AcDbEntity
  8
AM_0 外形線1
100
AcDbLine
 10
-68.5
 20
113.0
 30
0.0
 11
-68.5
 21
120.28238
 31
0.0
  0
LINE
  5
5194
330
517A
100
AcDbEntity
  8
AM_0 外形線1
100
AcDbLine
 10
-68.5
 20
120.28238
 30
0.0
 11
-67.5
 21
121.438938
 31
0.0
  0
LINE
  5
5195
330
517A
100
AcDbEntity
  8
AM_0 外形線1
100
AcDbLine
 10
-34.0
 20
121.9207350000001
 30
0.0
 11
-33.0
 21
120.793537
 31
0.0
  0
LINE
  5
5196
330
517A
100
AcDbEntity
  8
AM_0 外形線1
100
AcDbLine
 10
-33.0
 20
120.793537
 30
0.0
 11
-33.0
 21
112.5
 31
0.0
  0
ARC
  5
5197
330
517A
100
AcDbEntity
  8
AM_0 外形線1
100
AcDbCircle
 10
-32.5
 20
112.5
 30
0.0
 40
0.5
100
AcDbArc
 50
180.0
 51
270.0
  0
LINE
  5
5198
330
517A
100
AcDbEntity
  8
AM_0 外形線1
100
AcDbLine
 10
0.0
 20
111.0000000000002
 30
0.0
 11
0.0000000000001137
 21
0.0000000000001137
 31
0.0
  0
LINE
  5
5199
330
517A
100
AcDbEntity
  8
AM_3 隠れ線
100
AcDbLine
 10
-28.0
 20
6.0
 30
0.0
 11
-28.49074700000006
 21
5.15000000000009
 31
0.0
  0
LINE
  5
519A
330
517A
100
AcDbEntity
  8
AM_3 隠れ線
100
AcDbLine
 10
-28.0
 20
6.0
 30
0.0
 11
-28.0
 21
0.0
 31
0.0
  0
LINE
  5
519B
330
517A
100
AcDbEntity
  8
AM_3 隠れ線
100
AcDbLine
 10
-28.49074700000006
 20
5.15000000000009
 30
0.0
 11
-28.49074700000006
 21
0.0
 31
0.0
  0
LINE
  5
519C
330
517A
100
AcDbEntity
  8
AM_3 隠れ線
100
AcDbLine
 10
0.0
 20
6.0
 30
0.0
 11
-28.0
 21
6.0
 31
0.0
  0
LINE
  5
519D
330
517A
100
AcDbEntity
  8
AM_0 外形線1
100
AcDbLine
 10
-1.0
 20
112.0
 30
0.0
 11
0.0
 21
111.0
 31
0.0
  0
LINE
  5
519F
330
517A
100
AcDbEntity
  8
AM_0 外形線1
100
AcDbLine
 10
0.0
 20
57.82732917920384
 30
0.0
 11
-170.0
 21
57.82732917920373
 31
0.0
  0
ARC
  5
96CB
330
517A
100
AcDbEntity
  8
AM_0 外形線1
100
AcDbCircle
 10
-49.0
 20
0.0000000000001137
 30
0.0
 40
116.6999999999999
100
AcDbArc
 50
82.11971657320155
 51
99.61896568280684
  0
ARC
  5
96EC
330
517A
100
AcDbEntity
  8
AM_7 中心線
100
AcDbCircle
 10
-49.0
 20
0.0000000000001137
 30
0.0
 40
119.9999999999999
100
AcDbArc
 50
80.82066722202934
 51
100.4786722239449
  0
INSERT
  5
96ED
330
517A
100
AcDbEntity
  8
AM_0 外形線1
100
AcDbBlockReference
  2
ケースＡ-2 SAM315
 10
8.0
 20
0.0
 30
0.0
  0
ENDBLK
  5
517C
330
517A
100
AcDbEntity
  8
0
100
AcDbBlockEnd
  0
BLOCK
  5
5540
330
553F
100
AcDbEntity
  8
0
100
AcDbBlockBegin
  2
リーマボルト-1 SAM315 M12
 70
     0
 10
0.0
 20
0.0
 30
0.0
  3
リーマボルト-1 SAM315 M12
  1

  0
LINE
  5
5542
330
553F
100
AcDbEntity
  8
AM_0 外形線1
100
AcDbLine
 10
0.0
 20
9.482978000000002
 30
0.0
 11
-7.162842000000182
 21
9.482978000000002
 31
0.0
  0
LINE
  5
5543
330
553F
100
AcDbEntity
  8
AM_0 外形線1
100
AcDbLine
 10
0.0
 20
-9.482978000000002
 30
0.0
 11
-7.162842000000182
 21
-9.482978000000002
 31
0.0
  0
ARC
  5
5544
330
553F
100
AcDbEntity
  8
AM_0 外形線1
100
AcDbCircle
 10
5.70124399999986
 20
-4.741489000000001
 30
0.0
 40
13.710085
100
AcDbArc
 50
159.7669480000081
 51
200.2330519999919
  0
LINE
  5
5545
330
553F
100
AcDbEntity
  8
AM_0 外形線1
100
AcDbLine
 10
-8.0
 20
5.233773999999812
 30
0.0
 11
-8.0
 21
-4.249205000000073
 31
0.0
  0
ARC
  5
5546
330
553F
100
AcDbEntity
  8
AM_0 外形線1
100
AcDbCircle
 10
5.70124399999986
 20
4.741489000000001
 30
0.0
 40
13.710085
100
AcDbArc
 50
159.7669480000081
 51
200.2330519999919
  0
LINE
  5
5547
330
553F
100
AcDbEntity
  8
AM_0 外形線1
100
AcDbLine
 10
2.0
 20
-7.0
 30
0.0
 11
2.0
 21
7.0
 31
0.0
  0
ARC
  5
5548
330
553F
100
AcDbEntity
  8
AM_0 外形線1
100
AcDbCircle
 10
1.0
 20
-7.0
 30
0.0
 40
1.0
100
AcDbArc
 50
0.0
 51
180.0
  0
ARC
  5
5549
330
553F
100
AcDbEntity
  8
AM_0 外形線1
100
AcDbCircle
 10
1.0
 20
7.0
 30
0.0
 40
1.0
100
AcDbArc
 50
180.0
 51
0.0
  0
LINE
  5
554A
330
553F
100
AcDbEntity
  8
AM_0 外形線1
100
AcDbLine
 10
35.76794919243082
 20
7.0
 30
0.0
 11
35.76794919243082
 21
-7.0
 31
0.0
  0
LINE
  5
554B
330
553F
100
AcDbEntity
  8
AM_4 細線
100
AcDbLine
 10
40.99999999999988
 20
6.0
 30
0.0
 11
40.99999999999988
 21
-6.0
 31
0.0
  0
LINE
  5
554C
330
553F
100
AcDbEntity
  8
AM_0 外形線1
100
AcDbLine
 10
54.99999999999989
 20
9.5
 30
0.0
 11
54.99999999999989
 21
-9.5
 31
0.0
  0
ARC
  5
554D
330
553F
100
AcDbEntity
  8
AM_0 外形線1
100
AcDbCircle
 10
36.61388299999988
 20
0.0
 30
0.0
 40
18.386117
100
AcDbArc
 50
342.6436619999902
 51
17.35633800000977
  0
LINE
  5
554E
330
553F
100
AcDbEntity
  8
AM_0 外形線1
100
AcDbLine
 10
59.99999999999989
 20
4.0
 30
0.0
 11
59.99999999999989
 21
-4.0
 31
0.0
  0
LINE
  5
554F
330
553F
100
AcDbEntity
  8
AM_0 外形線1
100
AcDbLine
 10
57.9999999999999
 20
6.0
 30
0.0
 11
57.9999999999999
 21
-6.0
 31
0.0
  0
LINE
  5
5550
330
553F
100
AcDbEntity
  8
AM_0 外形線1
100
AcDbLine
 10
37.5
 20
6.0
 30
0.0
 11
37.49999999999989
 21
-6.0
 31
0.0
  0
LINE
  5
5551
330
553F
100
AcDbEntity
  8
AM_0 外形線1
100
AcDbLine
 10
44.99999999999988
 20
2.0
 30
0.0
 11
41.99999999999987
 21
-1.0
 31
0.0
  0
LINE
  5
5552
330
553F
100
AcDbEntity
  8
AM_0 外形線1
100
AcDbLine
 10
44.99999999999988
 20
1.0
 30
0.0
 11
41.99999999999987
 21
-2.0
 31
0.0
  0
LINE
  5
5553
330
553F
100
AcDbEntity
  8
AM_0 外形線1
100
AcDbLine
 10
44.99999999999988
 20
-10.94999999999993
 30
0.0
 11
44.99999999999988
 21
10.94999999999981
 31
0.0
  0
LINE
  5
5554
330
553F
100
AcDbEntity
  8
AM_0 外形線1
100
AcDbLine
 10
44.99999999999988
 20
-5.484826999999768
 30
0.0
 11
54.16284299999984
 21
-5.484826999999768
 31
0.0
  0
LINE
  5
5555
330
553F
100
AcDbEntity
  8
AM_0 外形線1
100
AcDbLine
 10
54.16284299999984
 20
-10.94999999999993
 30
0.0
 11
44.99999999999988
 21
-10.94999999999993
 31
0.0
  0
LINE
  5
5556
330
553F
100
AcDbEntity
  8
AM_0 外形線1
100
AcDbLine
 10
37.49999999999989
 20
-6.0
 30
0.0
 11
35.76794919243082
 21
-7.0
 31
0.0
  0
LINE
  5
5557
330
553F
100
AcDbEntity
  8
AM_4 細線
100
AcDbLine
 10
40.99999999999988
 20
-5.124999999999771
 30
0.0
 11
39.48445554337673
 21
-6.0
 31
0.0
  0
LINE
  5
5558
330
553F
100
AcDbEntity
  8
AM_0 外形線1
100
AcDbLine
 10
41.99999999999987
 20
-6.0
 30
0.0
 11
37.49999999999989
 21
-6.0
 31
0.0
  0
LINE
  5
5559
330
553F
100
AcDbEntity
  8
AM_4 細線
100
AcDbLine
 10
40.99999999999988
 20
-5.125
 30
0.0
 11
41.99999999999987
 21
-5.125
 31
0.0
  0
LINE
  5
555A
330
553F
100
AcDbEntity
  8
AM_0 外形線1
100
AcDbLine
 10
41.99999999999987
 20
-10.75
 30
0.0
 11
44.99999999999988
 21
-10.75
 31
0.0
  0
LINE
  5
555B
330
553F
100
AcDbEntity
  8
AM_4 細線
100
AcDbLine
 10
55.0
 20
-5.125
 30
0.0
 11
58.87499999999988
 21
-5.125
 31
0.0
  0
LINE
  5
555C
330
553F
100
AcDbEntity
  8
AM_0 外形線1
100
AcDbLine
 10
59.99999999999989
 20
-4.0
 30
0.0
 11
57.9999999999999
 21
-6.0
 31
0.0
  0
LINE
  5
555D
330
553F
100
AcDbEntity
  8
AM_0 外形線1
100
AcDbLine
 10
57.9999999999999
 20
-6.0
 30
0.0
 11
55.0
 21
-6.0
 31
0.0
  0
LINE
  5
555E
330
553F
100
AcDbEntity
  8
AM_0 外形線1
100
AcDbLine
 10
54.99999999999989
 20
-9.5
 30
0.0
 11
54.16284299999984
 21
-10.94999999999993
 31
0.0
  0
ARC
  5
555F
330
553F
100
AcDbEntity
  8
AM_0 外形線1
100
AcDbCircle
 10
50.12167299999997
 20
-8.217413999999962
 30
0.0
 40
4.878327999999998
100
AcDbArc
 50
325.9339550000068
 51
34.06604499999309
  0
LINE
  5
5560
330
553F
100
AcDbEntity
  8
AM_0 外形線1
100
AcDbLine
 10
44.99999999999988
 20
10.94999999999981
 30
0.0
 11
54.16284299999984
 21
10.94999999999981
 31
0.0
  0
LINE
  5
5561
330
553F
100
AcDbEntity
  8
AM_0 外形線1
100
AcDbLine
 10
44.99999999999988
 20
5.484828000000105
 30
0.0
 11
54.16284299999984
 21
5.484828000000105
 31
0.0
  0
LINE
  5
5562
330
553F
100
AcDbEntity
  8
AM_0 外形線1
100
AcDbLine
 10
37.49999999999989
 20
6.0
 30
0.0
 11
35.76794919243094
 21
7.0
 31
0.0
  0
LINE
  5
5563
330
553F
100
AcDbEntity
  8
AM_4 細線
100
AcDbLine
 10
40.99999999999988
 20
5.125
 30
0.0
 11
39.48445554337673
 21
6.0
 31
0.0
  0
LINE
  5
5564
330
553F
100
AcDbEntity
  8
AM_0 外形線1
100
AcDbLine
 10
37.49999999999989
 20
6.0
 30
0.0
 11
41.99999999999987
 21
6.0
 31
0.0
  0
LINE
  5
5565
330
553F
100
AcDbEntity
  8
AM_4 細線
100
AcDbLine
 10
40.99999999999988
 20
5.125
 30
0.0
 11
41.99999999999987
 21
5.125
 31
0.0
  0
LINE
  5
5566
330
553F
100
AcDbEntity
  8
AM_0 外形線1
100
AcDbLine
 10
44.99999999999988
 20
10.75
 30
0.0
 11
41.99999999999987
 21
10.75
 31
0.0
  0
LINE
  5
5567
330
553F
100
AcDbEntity
  8
AM_4 細線
100
AcDbLine
 10
55.0
 20
5.125
 30
0.0
 11
58.87499999999988
 21
5.125
 31
0.0
  0
LINE
  5
5568
330
553F
100
AcDbEntity
  8
AM_0 外形線1
100
AcDbLine
 10
55.0
 20
6.0
 30
0.0
 11
57.9999999999999
 21
6.0
 31
0.0
  0
LINE
  5
5569
330
553F
100
AcDbEntity
  8
AM_0 外形線1
100
AcDbLine
 10
54.16284299999984
 20
10.94999999999981
 30
0.0
 11
54.99999999999989
 21
9.5
 31
0.0
  0
ARC
  5
556A
330
553F
100
AcDbEntity
  8
AM_0 外形線1
100
AcDbCircle
 10
50.12167299999997
 20
8.217414000000188
 30
0.0
 40
4.878327999999998
100
AcDbArc
 50
325.9339550000068
 51
34.06604499999309
  0
LINE
  5
556B
330
553F
100
AcDbEntity
  8
AM_0 外形線1
100
AcDbLine
 10
57.9999999999999
 20
6.0
 30
0.0
 11
59.99999999999989
 21
4.0
 31
0.0
  0
LINE
  5
55CC
330
553F
100
AcDbEntity
  8
AM_0 外形線1
100
AcDbLine
 10
0.0
 20
9.482978000000002
 30
0.0
 11
0.0
 21
-9.482978000000002
 31
0.0
  0
LINE
  5
55CD
330
553F
100
AcDbEntity
  8
AM_0 外形線1
100
AcDbLine
 10
-7.162842049481128
 20
0.000000303876277
 30
0.0
 11
0.0
 21
0.000000303876277
 31
0.0
  0
LINE
  5
55CE
330
553F
100
AcDbEntity
  8
AM_0 外形線1
100
AcDbLine
 10
2.0
 20
7.0
 30
0.0
 11
35.76794919243082
 21
7.0
 31
0.0
  0
LINE
  5
55CF
330
553F
100
AcDbEntity
  8
AM_0 外形線1
100
AcDbLine
 10
2.0
 20
-7.0
 30
0.0
 11
35.76794919243082
 21
-7.0
 31
0.0
  0
LINE
  5
55D0
330
553F
100
AcDbEntity
  8
AM_0 外形線1
100
AcDbLine
 10
41.99999999999987
 20
10.75
 30
0.0
 11
42.0
 21
-10.75
 31
0.0
  0
ENDBLK
  5
5541
330
553F
100
AcDbEntity
  8
0
100
AcDbBlockEnd
  0
BLOCK
  5
5669
330
5668
100
AcDbEntity
  8
0
100
AcDbBlockBegin
  2
リーマボルト-2 SAM315 M12
 70
     0
 10
0.0
 20
0.0
 30
0.0
  3
リーマボルト-2 SAM315 M12
  1

  0
LINE
  5
566B
330
5668
100
AcDbEntity
  8
AM_0 外形線1
100
AcDbLine
 10
0.0000000000090949
 20
-9.482977999995457
 30
0.0
 11
7.162842000009276
 21
-9.48297799999591
 31
0.0
  0
LINE
  5
566C
330
5668
100
AcDbEntity
  8
AM_0 外形線1
100
AcDbLine
 10
0.0
 20
9.482978000000002
 30
0.0
 11
7.162843000000067
 21
9.482978000000002
 31
0.0
  0
LINE
  5
566D
330
5668
100
AcDbEntity
  8
AM_0 外形線1
100
AcDbLine
 10
0.0
 20
-9.482978000000002
 30
0.0
 11
7.162843000000067
 21
-9.482978000000002
 31
0.0
  0
LINE
  5
566E
330
5668
100
AcDbEntity
  8
AM_0 外形線1
100
AcDbLine
 10
-37.0
 20
6.422649999999975
 30
0.0
 11
-37.0
 21
-6.422649000000093
 31
0.0
  0
LINE
  5
566F
330
5668
100
AcDbEntity
  8
AM_0 外形線1
100
AcDbLine
 10
-36.0
 20
7.0
 30
0.0
 11
-36.0
 21
-7.0
 31
0.0
  0
LINE
  5
5670
330
5668
100
AcDbEntity
  8
AM_0 外形線1
100
AcDbLine
 10
-55.0
 20
9.5
 30
0.0
 11
-55.0
 21
-9.5
 31
0.0
  0
ARC
  5
5671
330
5668
100
AcDbEntity
  8
AM_0 外形線1
100
AcDbCircle
 10
-36.6138820000001
 20
0.0
 30
0.0
 40
18.386117
100
AcDbArc
 50
162.6436619999902
 51
197.3563380000097
  0
LINE
  5
5672
330
5668
100
AcDbEntity
  8
AM_0 外形線1
100
AcDbLine
 10
-60.0
 20
4.0
 30
0.0
 11
-60.0
 21
-4.0
 31
0.0
  0
LINE
  5
5673
330
5668
100
AcDbEntity
  8
AM_0 外形線1
100
AcDbLine
 10
-58.0
 20
6.0
 30
0.0
 11
-58.0
 21
-6.0
 31
0.0
  0
LINE
  5
5674
330
5668
100
AcDbEntity
  8
AM_0 外形線1
100
AcDbLine
 10
-45.0
 20
-2.0
 30
0.0
 11
-42.0
 21
1.0
 31
0.0
  0
LINE
  5
5675
330
5668
100
AcDbEntity
  8
AM_0 外形線1
100
AcDbLine
 10
-42.0
 20
2.0
 30
0.0
 11
-45.0
 21
-1.0
 31
0.0
  0
LINE
  5
5676
330
5668
100
AcDbEntity
  8
AM_0 外形線1
100
AcDbLine
 10
-45.0
 20
-10.94999999999993
 30
0.0
 11
-45.0
 21
10.94999999999981
 31
0.0
  0
LINE
  5
5677
330
5668
100
AcDbEntity
  8
AM_0 外形線1
100
AcDbLine
 10
-42.0
 20
-10.75
 30
0.0
 11
-45.0
 21
-10.75
 31
0.0
  0
LINE
  5
5678
330
5668
100
AcDbEntity
  8
AM_0 外形線1
100
AcDbLine
 10
-45.0
 20
-5.484826999999768
 30
0.0
 11
-54.16284199999996
 21
-5.484826999999768
 31
0.0
  0
LINE
  5
5679
330
5668
100
AcDbEntity
  8
AM_0 外形線1
100
AcDbLine
 10
-60.0
 20
-4.0
 30
0.0
 11
-58.0
 21
-6.0
 31
0.0
  0
LINE
  5
567A
330
5668
100
AcDbEntity
  8
AM_0 外形線1
100
AcDbLine
 10
-58.0
 20
-6.0
 30
0.0
 11
-55.0
 21
-6.0
 31
0.0
  0
LINE
  5
567B
330
5668
100
AcDbEntity
  8
AM_4 細線
100
AcDbLine
 10
-55.0
 20
-5.125
 30
0.0
 11
-58.875
 21
-5.125
 31
0.0
  0
LINE
  5
567C
330
5668
100
AcDbEntity
  8
AM_0 外形線1
100
AcDbLine
 10
-54.16284199999996
 20
-10.94999999999993
 30
0.0
 11
-45.0
 21
-10.94999999999993
 31
0.0
  0
LINE
  5
567D
330
5668
100
AcDbEntity
  8
AM_0 外形線1
100
AcDbLine
 10
-55.0
 20
-9.5
 30
0.0
 11
-54.16284199999996
 21
-10.94999999999993
 31
0.0
  0
ARC
  5
567E
330
5668
100
AcDbEntity
  8
AM_0 外形線1
100
AcDbCircle
 10
-50.12167200000021
 20
-8.217413999999962
 30
0.0
 40
4.878327999999998
100
AcDbArc
 50
145.9339550000069
 51
214.0660449999931
  0
LINE
  5
567F
330
5668
100
AcDbEntity
  8
AM_0 外形線1
100
AcDbLine
 10
-37.0
 20
-6.422649000000093
 30
0.0
 11
-36.0
 21
-7.0
 31
0.0
  0
LINE
  5
5680
330
5668
100
AcDbEntity
  8
AM_0 外形線1
100
AcDbLine
 10
-37.0
 20
-6.422649000000093
 30
0.0
 11
-42.0
 21
-6.422649000000093
 31
0.0
  0
LINE
  5
5681
330
5668
100
AcDbEntity
  8
AM_0 外形線1
100
AcDbLine
 10
-45.0
 20
10.75
 30
0.0
 11
-42.0
 21
10.75
 31
0.0
  0
LINE
  5
5682
330
5668
100
AcDbEntity
  8
AM_0 外形線1
100
AcDbLine
 10
-45.0
 20
10.94999999999981
 30
0.0
 11
-54.16284199999996
 21
10.94999999999981
 31
0.0
  0
LINE
  5
5683
330
5668
100
AcDbEntity
  8
AM_0 外形線1
100
AcDbLine
 10
-54.16284199999996
 20
10.94999999999981
 30
0.0
 11
-55.0
 21
9.5
 31
0.0
  0
ARC
  5
5684
330
5668
100
AcDbEntity
  8
AM_0 外形線1
100
AcDbCircle
 10
-50.12167200000021
 20
8.217414000000188
 30
0.0
 40
4.878327999999998
100
AcDbArc
 50
145.9339550000069
 51
214.0660449999931
  0
LINE
  5
5685
330
5668
100
AcDbEntity
  8
AM_0 外形線1
100
AcDbLine
 10
-45.0
 20
5.484828000000105
 30
0.0
 11
-54.16284199999996
 21
5.484828000000105
 31
0.0
  0
LINE
  5
5686
330
5668
100
AcDbEntity
  8
AM_0 外形線1
100
AcDbLine
 10
-55.0
 20
6.0
 30
0.0
 11
-58.0
 21
6.0
 31
0.0
  0
LINE
  5
5687
330
5668
100
AcDbEntity
  8
AM_0 外形線1
100
AcDbLine
 10
-58.0
 20
6.0
 30
0.0
 11
-60.0
 21
4.0
 31
0.0
  0
LINE
  5
5688
330
5668
100
AcDbEntity
  8
AM_4 細線
100
AcDbLine
 10
-55.0
 20
5.125
 30
0.0
 11
-58.875
 21
5.125
 31
0.0
  0
LINE
  5
5689
330
5668
100
AcDbEntity
  8
AM_0 外形線1
100
AcDbLine
 10
-36.0
 20
7.0
 30
0.0
 11
-37.0
 21
6.422649999999975
 31
0.0
  0
LINE
  5
568A
330
5668
100
AcDbEntity
  8
AM_0 外形線1
100
AcDbLine
 10
-37.0
 20
6.422649999999975
 30
0.0
 11
-42.0
 21
6.422649999999975
 31
0.0
  0
LINE
  5
568B
330
5668
100
AcDbEntity
  8
AM_0 外形線1
100
AcDbLine
 10
-2.0
 20
-7.0
 30
0.0
 11
-2.0
 21
7.0
 31
0.0
  0
ARC
  5
568C
330
5668
100
AcDbEntity
  8
AM_0 外形線1
100
AcDbCircle
 10
-1.0
 20
-7.0
 30
0.0
 40
1.0
100
AcDbArc
 50
0.0
 51
180.0
  0
ARC
  5
568D
330
5668
100
AcDbEntity
  8
AM_0 外形線1
100
AcDbCircle
 10
-1.0
 20
7.0
 30
0.0
 40
1.0
100
AcDbArc
 50
180.0
 51
0.0
  0
ARC
  5
568E
330
5668
100
AcDbEntity
  8
AM_0 外形線1
100
AcDbCircle
 10
-5.701243000000204
 20
-4.741489000000001
 30
0.0
 40
13.710085
100
AcDbArc
 50
339.7669480000081
 51
20.23305199999191
  0
LINE
  5
568F
330
5668
100
AcDbEntity
  8
AM_0 外形線1
100
AcDbLine
 10
8.0
 20
5.233773999999812
 30
0.0
 11
8.0
 21
-4.249205000000073
 31
0.0
  0
ARC
  5
5690
330
5668
100
AcDbEntity
  8
AM_0 外形線1
100
AcDbCircle
 10
-5.701243000000204
 20
4.741489000000001
 30
0.0
 40
13.710085
100
AcDbArc
 50
339.7669480000081
 51
20.23305199999191
  0
LINE
  5
56F0
330
5668
100
AcDbEntity
  8
AM_0 外形線1
100
AcDbLine
 10
-42.0
 20
10.75
 30
0.0
 11
-42.0
 21
-10.75
 31
0.0
  0
LINE
  5
56F1
330
5668
100
AcDbEntity
  8
AM_0 外形線1
100
AcDbLine
 10
-36.0
 20
7.0
 30
0.0
 11
-2.0
 21
7.0
 31
0.0
  0
LINE
  5
56F2
330
5668
100
AcDbEntity
  8
AM_0 外形線1
100
AcDbLine
 10
-2.0
 20
7.0
 30
0.0
 11
-6.323592633091266
 21
7.0
 31
0.0
  0
LINE
  5
56F3
330
5668
100
AcDbEntity
  8
AM_0 外形線1
100
AcDbLine
 10
-36.0
 20
-7.0
 30
0.0
 11
-2.0
 21
-7.0
 31
0.0
  0
LINE
  5
56F4
330
5668
100
AcDbEntity
  8
AM_0 外形線1
100
AcDbLine
 10
0.0
 20
9.482978000000002
 30
0.0
 11
0.0000000000090949
 21
-9.482977999995457
 31
0.0
  0
LINE
  5
56F5
330
5668
100
AcDbEntity
  8
AM_0 外形線1
100
AcDbLine
 10
0.0000000000045475
 20
0.0
 30
0.0
 11
7.162843049480783
 21
0.000000303876277
 31
0.0
  0
ENDBLK
  5
566A
330
5668
100
AcDbEntity
  8
0
100
AcDbBlockEnd
  0
BLOCK
  5
6001
330
6000
100
AcDbEntity
  8
0
100
AcDbBlockBegin
  2
*D15
 70
     1
 10
0.0
 20
0.0
 30
0.0
  3
*D15
  1

  0
LINE
  5
9636
330
6000
100
AcDbEntity
  8
AM_5 寸法線
 62
     3
100
AcDbLine
 10
511.8333126795737
 20
1014.708048941692
 30
0.0
 11
373.3333126795738
 21
1014.708048941692
 31
0.0
  0
LINE
  5
9637
330
6000
100
AcDbEntity
  8
AM_5 寸法線
 62
     3
100
AcDbLine
 10
511.8333126795737
 20
789.7080489416922
 30
0.0
 11
373.3333126795737
 21
789.7080489416922
 31
0.0
  0
LINE
  5
9638
330
6000
100
AcDbEntity
  8
AM_5 寸法線
 62
     3
100
AcDbLine
 10
375.8333126795738
 20
1004.708048941692
 30
0.0
 11
375.8333126795737
 21
799.7080489416922
 31
0.0
  0
INSERT
  5
9639
330
6000
100
AcDbEntity
  8
AM_5 寸法線
 62
     3
100
AcDbBlockReference
  2
_Open30
 10
375.8333126795738
 20
1014.708048941692
 30
0.0
 41
10.0
 42
10.0
 43
10.0
 50
90.0
  0
INSERT
  5
963A
330
6000
100
AcDbEntity
  8
AM_5 寸法線
 62
     3
100
AcDbBlockReference
  2
_Open30
 10
375.8333126795737
 20
789.7080489416922
 30
0.0
 41
10.0
 42
10.0
 43
10.0
 50
270.0
  0
MTEXT
  5
963B
330
6000
100
AcDbEntity
  8
AM_5 寸法線
 62
     3
100
AcDbMText
 10
362.8333126795736
 20
902.208048941692
 30
0.0
 40
14.0
 41
0.0
 46
0.0
 71
     5
 72
     1
  1
%%c225
  7
SEISA
 11
0.0000000000000001
 21
1.0
 31
0.0
 73
     1
 44
1.0
  0
POINT
  5
963C
330
6000
100
AcDbEntity
  8
Defpoints
 62
     0
100
AcDbPoint
 10
514.3333126795736
 20
1014.708048941692
 30
0.0
  0
POINT
  5
963D
330
6000
100
AcDbEntity
  8
Defpoints
 62
     0
100
AcDbPoint
 10
514.3333126795736
 20
789.7080489416922
 30
0.0
  0
POINT
  5
963E
330
6000
100
AcDbEntity
  8
Defpoints
 62
     0
100
AcDbPoint
 10
375.8333126795737
 20
789.7080489416922
 30
0.0
  0
ENDBLK
  5
6002
330
6000
100
AcDbEntity
  8
0
100
AcDbBlockEnd
  0
BLOCK
  5
60B7
330
60B6
100
AcDbEntity
  8
0
100
AcDbBlockBegin
  2
*D16
 70
     1
 10
0.0
 20
0.0
 30
0.0
  3
*D16
  1

  0
LINE
  5
963F
330
60B6
100
AcDbEntity
  8
AM_5 寸法線
 62
     3
100
AcDbLine
 10
455.8333126795736
 20
904.7080489416922
 30
0.0
 11
455.8333126795736
 21
925.352491941692
 31
0.0
  0
LINE
  5
9640
330
60B6
100
AcDbEntity
  8
AM_5 寸法線
 62
     3
100
AcDbLine
 10
625.8333126795737
 20
904.7080489416922
 30
0.0
 11
625.8333126795737
 21
925.352491941692
 31
0.0
  0
LINE
  5
9641
330
60B6
100
AcDbEntity
  8
AM_5 寸法線
 62
     3
100
AcDbLine
 10
465.8333126795737
 20
922.8524919416921
 30
0.0
 11
615.8333126795737
 21
922.8524919416921
 31
0.0
  0
INSERT
  5
9642
330
60B6
100
AcDbEntity
  8
AM_5 寸法線
 62
     3
100
AcDbBlockReference
  2
_Open30
 10
455.8333126795736
 20
922.8524919416921
 30
0.0
 41
10.0
 42
10.0
 43
10.0
 50
180.0
  0
INSERT
  5
9643
330
60B6
100
AcDbEntity
  8
AM_5 寸法線
 62
     3
100
AcDbBlockReference
  2
_Open30
 10
625.8333126795737
 20
922.8524919416921
 30
0.0
 41
10.0
 42
10.0
 43
10.0
  0
MTEXT
  5
9644
330
60B6
100
AcDbEntity
  8
AM_5 寸法線
 62
     3
100
AcDbMText
 10
540.8333126795736
 20
935.8524919416922
 30
0.0
 40
14.0
 41
0.0
 46
0.0
 71
     5
 72
     1
  1
170
  7
SEISA
 73
     1
 44
1.0
  0
POINT
  5
9645
330
60B6
100
AcDbEntity
  8
Defpoints
 62
     0
100
AcDbPoint
 10
455.8333126795736
 20
902.208048941692
 30
0.0
  0
POINT
  5
9646
330
60B6
100
AcDbEntity
  8
Defpoints
 62
     0
100
AcDbPoint
 10
625.8333126795737
 20
902.208048941692
 30
0.0
  0
POINT
  5
9647
330
60B6
100
AcDbEntity
  8
Defpoints
 62
     0
100
AcDbPoint
 10
625.8333126795737
 20
922.8524919416921
 30
0.0
  0
ENDBLK
  5
60B8
330
60B6
100
AcDbEntity
  8
0
100
AcDbBlockEnd
  0
BLOCK
  5
60CF
330
60CE
100
AcDbEntity
  8
0
100
AcDbBlockBegin
  2
*D17
 70
     1
 10
0.0
 20
0.0
 30
0.0
  3
*D17
  1

  0
LINE
  5
967F
330
60CE
100
AcDbEntity
  8
AM_5 寸法線
 62
     3
100
AcDbLine
 10
1125.833312679573
 20
904.7080489416922
 30
0.0
 11
1125.833312679573
 21
925.352491941692
 31
0.0
  0
LINE
  5
9680
330
60CE
100
AcDbEntity
  8
AM_5 寸法線
 62
     3
100
AcDbLine
 10
955.8333126795735
 20
904.7080489416922
 30
0.0
 11
955.8333126795735
 21
925.352491941692
 31
0.0
  0
LINE
  5
9681
330
60CE
100
AcDbEntity
  8
AM_5 寸法線
 62
     3
100
AcDbLine
 10
1115.833312679574
 20
922.8524919416921
 30
0.0
 11
965.8333126795737
 21
922.8524919416921
 31
0.0
  0
INSERT
  5
9682
330
60CE
100
AcDbEntity
  8
AM_5 寸法線
 62
     3
100
AcDbBlockReference
  2
_Open30
 10
1125.833312679573
 20
922.8524919416921
 30
0.0
 41
10.0
 42
10.0
 43
10.0
  0
INSERT
  5
9683
330
60CE
100
AcDbEntity
  8
AM_5 寸法線
 62
     3
100
AcDbBlockReference
  2
_Open30
 10
955.8333126795735
 20
922.8524919416921
 30
0.0
 41
10.0
 42
10.0
 43
10.0
 50
180.0
  0
MTEXT
  5
9684
330
60CE
100
AcDbEntity
  8
AM_5 寸法線
 62
     3
100
AcDbMText
 10
1040.833312679573
 20
935.8524919416922
 30
0.0
 40
14.0
 41
0.0
 46
0.0
 71
     5
 72
     1
  1
170
  7
SEISA
 73
     1
 44
1.0
  0
POINT
  5
9685
330
60CE
100
AcDbEntity
  8
Defpoints
 62
     0
100
AcDbPoint
 10
1125.833312679573
 20
902.208048941692
 30
0.0
  0
POINT
  5
9686
330
60CE
100
AcDbEntity
  8
Defpoints
 62
     0
100
AcDbPoint
 10
955.8333126795735
 20
902.208048941692
 30
0.0
  0
POINT
  5
9687
330
60CE
100
AcDbEntity
  8
Defpoints
 62
     0
100
AcDbPoint
 10
955.8333126795735
 20
922.8524919416921
 30
0.0
  0
ENDBLK
  5
60D0
330
60CE
100
AcDbEntity
  8
0
100
AcDbBlockEnd
  0
BLOCK
  5
633C
330
633B
100
AcDbEntity
  8
0
100
AcDbBlockBegin
  2
*D18
 70
     1
 10
0.0
 20
0.0
 30
0.0
  3
*D18
  1

  0
LINE
  5
9693
330
633B
100
AcDbEntity
  8
AM_5 寸法線
 62
     3
100
AcDbLine
 10
1069.833312679574
 20
1014.708048941692
 30
0.0
 11
1208.333312679574
 21
1014.708048941692
 31
0.0
  0
LINE
  5
9694
330
633B
100
AcDbEntity
  8
AM_5 寸法線
 62
     3
100
AcDbLine
 10
1069.833312679574
 20
789.7080489416922
 30
0.0
 11
1208.333312679574
 21
789.7080489416922
 31
0.0
  0
LINE
  5
9695
330
633B
100
AcDbEntity
  8
AM_5 寸法線
 62
     3
100
AcDbLine
 10
1205.833312679574
 20
1004.708048941692
 30
0.0
 11
1205.833312679574
 21
799.7080489416922
 31
0.0
  0
INSERT
  5
9696
330
633B
100
AcDbEntity
  8
AM_5 寸法線
 62
     3
100
AcDbBlockReference
  2
_Open30
 10
1205.833312679574
 20
1014.708048941692
 30
0.0
 41
10.0
 42
10.0
 43
10.0
 50
90.0
  0
INSERT
  5
9697
330
633B
100
AcDbEntity
  8
AM_5 寸法線
 62
     3
100
AcDbBlockReference
  2
_Open30
 10
1205.833312679574
 20
789.7080489416922
 30
0.0
 41
10.0
 42
10.0
 43
10.0
 50
270.0
  0
MTEXT
  5
9698
330
633B
100
AcDbEntity
  8
AM_5 寸法線
 62
     3
100
AcDbMText
 10
1192.833312679573
 20
902.208048941692
 30
0.0
 40
14.0
 41
0.0
 46
0.0
 71
     5
 72
     1
  1
%%c225
  7
SEISA
 11
0.0000000000000001
 21
1.0
 31
0.0
 73
     1
 44
1.0
  0
POINT
  5
9699
330
633B
100
AcDbEntity
  8
Defpoints
 62
     0
100
AcDbPoint
 10
1067.333312679574
 20
1014.708048941692
 30
0.0
  0
POINT
  5
969A
330
633B
100
AcDbEntity
  8
Defpoints
 62
     0
100
AcDbPoint
 10
1067.333312679574
 20
789.7080489416922
 30
0.0
  0
POINT
  5
969B
330
633B
100
AcDbEntity
  8
Defpoints
 62
     0
100
AcDbPoint
 10
1205.833312679574
 20
789.7080489416922
 30
0.0
  0
ENDBLK
  5
633D
330
633B
100
AcDbEntity
  8
0
100
AcDbBlockEnd
  0
BLOCK
  5
6354
330
6353
100
AcDbEntity
  8
0
100
AcDbBlockBegin
  2
*D19
 70
     1
 10
0.0
 20
0.0
 30
0.0
  3
*D19
  1

  0
LINE
  5
96A5
330
6353
100
AcDbEntity
  8
AM_5 寸法線
 62
     3
100
AcDbLine
 10
1044.333312679573
 20
1032.208048941692
 30
0.0
 11
1248.333312679574
 21
1032.208048941692
 31
0.0
  0
LINE
  5
96A6
330
6353
100
AcDbEntity
  8
AM_5 寸法線
 62
     3
100
AcDbLine
 10
1044.333312679573
 20
772.2080489416923
 30
0.0
 11
1248.333312679574
 21
772.2080489416923
 31
0.0
  0
LINE
  5
96A7
330
6353
100
AcDbEntity
  8
AM_5 寸法線
 62
     3
100
AcDbLine
 10
1245.833312679574
 20
1022.208048941692
 30
0.0
 11
1245.833312679574
 21
782.2080489416922
 31
0.0
  0
INSERT
  5
96A8
330
6353
100
AcDbEntity
  8
AM_5 寸法線
 62
     3
100
AcDbBlockReference
  2
_Open30
 10
1245.833312679574
 20
1032.208048941692
 30
0.0
 41
10.0
 42
10.0
 43
10.0
 50
90.0
  0
INSERT
  5
96A9
330
6353
100
AcDbEntity
  8
AM_5 寸法線
 62
     3
100
AcDbBlockReference
  2
_Open30
 10
1245.833312679574
 20
772.2080489416923
 30
0.0
 41
10.0
 42
10.0
 43
10.0
 50
270.0
  0
MTEXT
  5
96AA
330
6353
100
AcDbEntity
  8
AM_5 寸法線
 62
     3
100
AcDbMText
 10
1232.833312679573
 20
902.208048941692
 30
0.0
 40
14.0
 41
0.0
 46
0.0
 71
     5
 72
     1
  1
%%c260
  7
SEISA
 11
0.0000000000000001
 21
1.0
 31
0.0
 73
     1
 44
1.0
  0
POINT
  5
96AB
330
6353
100
AcDbEntity
  8
Defpoints
 62
     0
100
AcDbPoint
 10
1041.833312679574
 20
1032.208048941692
 30
0.0
  0
POINT
  5
96AC
330
6353
100
AcDbEntity
  8
Defpoints
 62
     0
100
AcDbPoint
 10
1041.833312679574
 20
772.2080489416923
 30
0.0
  0
POINT
  5
96AD
330
6353
100
AcDbEntity
  8
Defpoints
 62
     0
100
AcDbPoint
 10
1245.833312679574
 20
772.2080489416923
 30
0.0
  0
ENDBLK
  5
6355
330
6353
100
AcDbEntity
  8
0
100
AcDbBlockEnd
  0
BLOCK
  5
636C
330
636B
100
AcDbEntity
  8
0
100
AcDbBlockBegin
  2
*D20
 70
     1
 10
0.0
 20
0.0
 30
0.0
  3
*D20
  1

  0
LINE
  5
96AE
330
636B
100
AcDbEntity
  8
AM_5 寸法線
 62
     3
100
AcDbLine
 10
970.3333126795737
 20
1059.708048941692
 30
0.0
 11
1288.333312679573
 21
1059.708048941692
 31
0.0
  0
LINE
  5
96AF
330
636B
100
AcDbEntity
  8
AM_5 寸法線
 62
     3
100
AcDbLine
 10
970.3333126795737
 20
744.7080489416922
 30
0.0
 11
1288.333312679573
 21
744.708048941692
 31
0.0
  0
LINE
  5
96B0
330
636B
100
AcDbEntity
  8
AM_5 寸法線
 62
     3
100
AcDbLine
 10
1285.833312679574
 20
1049.708048941692
 30
0.0
 11
1285.833312679574
 21
754.708048941692
 31
0.0
  0
INSERT
  5
96B1
330
636B
100
AcDbEntity
  8
AM_5 寸法線
 62
     3
100
AcDbBlockReference
  2
_Open30
 10
1285.833312679574
 20
1059.708048941692
 30
0.0
 41
10.0
 42
10.0
 43
10.0
 50
90.0
  0
INSERT
  5
96B2
330
636B
100
AcDbEntity
  8
AM_5 寸法線
 62
     3
100
AcDbBlockReference
  2
_Open30
 10
1285.833312679574
 20
744.708048941692
 30
0.0
 41
10.0
 42
10.0
 43
10.0
 50
270.0
  0
MTEXT
  5
96B3
330
636B
100
AcDbEntity
  8
AM_5 寸法線
 62
     3
100
AcDbMText
 10
1272.833312679573
 20
902.208048941692
 30
0.0
 40
14.0
 41
0.0
 46
0.0
 71
     5
 72
     1
  1
%%c315
  7
SEISA
 11
0.0000000000000001
 21
1.0
 31
0.0
 73
     1
 44
1.0
  0
POINT
  5
96B4
330
636B
100
AcDbEntity
  8
Defpoints
 62
     0
100
AcDbPoint
 10
967.8333126795736
 20
1059.708048941692
 30
0.0
  0
POINT
  5
96B5
330
636B
100
AcDbEntity
  8
Defpoints
 62
     0
100
AcDbPoint
 10
967.8333126795736
 20
744.7080489416922
 30
0.0
  0
POINT
  5
96B6
330
636B
100
AcDbEntity
  8
Defpoints
 62
     0
100
AcDbPoint
 10
1285.833312679574
 20
744.708048941692
 30
0.0
  0
ENDBLK
  5
636D
330
636B
100
AcDbEntity
  8
0
100
AcDbBlockEnd
  0
BLOCK
  5
6433
330
6432
100
AcDbEntity
  8
0
100
AcDbBlockBegin
  2
*D21
 70
     1
 10
0.0
 20
0.0
 30
0.0
  3
*D21
  1

  0
LINE
  5
9619
330
6432
100
AcDbEntity
  8
AM_5 寸法線
 62
     3
100
AcDbLine
 10
633.8333126795737
 20
743.2080489416923
 30
0.0
 11
633.8333126795737
 21
702.2080489416922
 31
0.0
  0
LINE
  5
961A
330
6432
100
AcDbEntity
  8
AM_5 寸法線
 62
     3
100
AcDbLine
 10
612.8333126795737
 20
743.2080489416923
 30
0.0
 11
612.8333126795737
 21
702.2080489416922
 31
0.0
  0
LINE
  5
961B
330
6432
100
AcDbEntity
  8
AM_5 寸法線
 62
     3
100
AcDbLine
 10
643.8333126795737
 20
704.7080489416922
 30
0.0
 11
653.8333126795737
 21
704.7080489416922
 31
0.0
  0
LINE
  5
961C
330
6432
100
AcDbEntity
  8
AM_5 寸法線
 62
     3
100
AcDbLine
 10
602.8333126795737
 20
704.7080489416922
 30
0.0
 11
564.0333126795737
 21
704.7080489416922
 31
0.0
  0
LINE
  5
961D
330
6432
100
AcDbEntity
  8
AM_5 寸法線
 62
     3
100
AcDbLine
 10
633.8333126795737
 20
704.7080489416922
 30
0.0
 11
612.8333126795737
 21
704.7080489416922
 31
0.0
  0
INSERT
  5
961E
330
6432
100
AcDbEntity
  8
AM_5 寸法線
 62
     3
100
AcDbBlockReference
  2
GENDOT
 10
633.8333126795737
 20
704.7080489416922
 30
0.0
 41
10.0
 42
10.0
 43
10.0
 50
180.0
  0
INSERT
  5
961F
330
6432
100
AcDbEntity
  8
AM_5 寸法線
 62
     3
100
AcDbBlockReference
  2
_Open30
 10
612.8333126795737
 20
704.7080489416922
 30
0.0
 41
10.0
 42
10.0
 43
10.0
  0
MTEXT
  5
9620
330
6432
100
AcDbEntity
  8
AM_5 寸法線
 62
     3
100
AcDbMText
 10
578.4333126795737
 20
717.7080489416923
 30
0.0
 40
14.0
 41
0.0
 46
0.0
 71
     5
 72
     1
  1
21
  7
SEISA
 73
     1
 44
1.0
  0
POINT
  5
9621
330
6432
100
AcDbEntity
  8
Defpoints
 62
     0
100
AcDbPoint
 10
633.8333126795737
 20
745.7080489416922
 30
0.0
  0
POINT
  5
9622
330
6432
100
AcDbEntity
  8
Defpoints
 62
     0
100
AcDbPoint
 10
612.8333126795737
 20
745.7080489416922
 30
0.0
  0
POINT
  5
9623
330
6432
100
AcDbEntity
  8
Defpoints
 62
     0
100
AcDbPoint
 10
612.8333126795737
 20
704.7080489416922
 30
0.0
  0
ENDBLK
  5
6434
330
6432
100
AcDbEntity
  8
0
100
AcDbBlockEnd
  0
BLOCK
  5
6487
330
6486
100
AcDbEntity
  8
0
100
AcDbBlockBegin
  2
*D22
 70
     1
 10
0.0
 20
0.0
 30
0.0
  3
*D22
  1

  0
LINE
  5
96B7
330
6486
100
AcDbEntity
  8
AM_5 寸法線
 62
     3
100
AcDbLine
 10
947.8333126795735
 20
743.2080489416923
 30
0.0
 11
947.8333126795735
 21
702.2080489416922
 31
0.0
  0
LINE
  5
96B8
330
6486
100
AcDbEntity
  8
AM_5 寸法線
 62
     3
100
AcDbLine
 10
968.8333126795736
 20
743.2080489416923
 30
0.0
 11
968.8333126795736
 21
702.2080489416922
 31
0.0
  0
LINE
  5
96B9
330
6486
100
AcDbEntity
  8
AM_5 寸法線
 62
     3
100
AcDbLine
 10
937.8333126795736
 20
704.7080489416922
 30
0.0
 11
927.8333126795738
 21
704.7080489416922
 31
0.0
  0
LINE
  5
96BA
330
6486
100
AcDbEntity
  8
AM_5 寸法線
 62
     3
100
AcDbLine
 10
978.8333126795736
 20
704.7080489416922
 30
0.0
 11
1017.633312679573
 21
704.7080489416922
 31
0.0
  0
LINE
  5
96BB
330
6486
100
AcDbEntity
  8
AM_5 寸法線
 62
     3
100
AcDbLine
 10
947.8333126795735
 20
704.7080489416922
 30
0.0
 11
968.8333126795736
 21
704.7080489416922
 31
0.0
  0
INSERT
  5
96BC
330
6486
100
AcDbEntity
  8
AM_5 寸法線
 62
     3
100
AcDbBlockReference
  2
GENDOT
 10
947.8333126795735
 20
704.7080489416922
 30
0.0
 41
10.0
 42
10.0
 43
10.0
  0
INSERT
  5
96BD
330
6486
100
AcDbEntity
  8
AM_5 寸法線
 62
     3
100
AcDbBlockReference
  2
_Open30
 10
968.8333126795736
 20
704.7080489416922
 30
0.0
 41
10.0
 42
10.0
 43
10.0
 50
180.0
  0
MTEXT
  5
96BE
330
6486
100
AcDbEntity
  8
AM_5 寸法線
 62
     3
100
AcDbMText
 10
1003.233312679573
 20
717.7080489416923
 30
0.0
 40
14.0
 41
0.0
 46
0.0
 71
     5
 72
     1
  1
21
  7
SEISA
 73
     1
 44
1.0
  0
POINT
  5
96BF
330
6486
100
AcDbEntity
  8
Defpoints
 62
     0
100
AcDbPoint
 10
947.8333126795735
 20
745.7080489416922
 30
0.0
  0
POINT
  5
96C0
330
6486
100
AcDbEntity
  8
Defpoints
 62
     0
100
AcDbPoint
 10
968.8333126795736
 20
745.7080489416922
 30
0.0
  0
POINT
  5
96C1
330
6486
100
AcDbEntity
  8
Defpoints
 62
     0
100
AcDbPoint
 10
968.8333126795736
 20
704.7080489416922
 30
0.0
  0
ENDBLK
  5
6488
330
6486
100
AcDbEntity
  8
0
100
AcDbBlockEnd
  0
BLOCK
  5
64A3
330
64A2
100
AcDbEntity
  8
0
100
AcDbBlockBegin
  2
*D23
 70
     1
 10
0.0
 20
0.0
 30
0.0
  3
*D23
  1

  0
LINE
  5
9624
330
64A2
100
AcDbEntity
  8
AM_5 寸法線
 62
     3
100
AcDbLine
 10
455.8333126795736
 20
792.0080489416922
 30
0.0
 11
455.8333126795736
 21
662.2080489416921
 31
0.0
  0
LINE
  5
9625
330
64A2
100
AcDbEntity
  8
AM_5 寸法線
 62
     3
100
AcDbLine
 10
535.8333126795736
 20
773.7080489416922
 30
0.0
 11
535.8333126795736
 21
662.2080489416921
 31
0.0
  0
LINE
  5
9626
330
64A2
100
AcDbEntity
  8
AM_5 寸法線
 62
     3
100
AcDbLine
 10
465.8333126795737
 20
664.7080489416921
 30
0.0
 11
525.8333126795736
 21
664.7080489416921
 31
0.0
  0
INSERT
  5
9627
330
64A2
100
AcDbEntity
  8
AM_5 寸法線
 62
     3
100
AcDbBlockReference
  2
_Open30
 10
455.8333126795736
 20
664.7080489416921
 30
0.0
 41
10.0
 42
10.0
 43
10.0
 50
180.0
  0
INSERT
  5
9628
330
64A2
100
AcDbEntity
  8
AM_5 寸法線
 62
     3
100
AcDbBlockReference
  2
_Open30
 10
535.8333126795736
 20
664.7080489416921
 30
0.0
 41
10.0
 42
10.0
 43
10.0
  0
MTEXT
  5
9629
330
64A2
100
AcDbEntity
  8
AM_5 寸法線
 62
     3
100
AcDbMText
 10
495.8333126795737
 20
677.7080489416921
 30
0.0
 40
14.0
 41
0.0
 46
0.0
 71
     5
 72
     1
  1
80
  7
SEISA
 73
     1
 44
1.0
  0
POINT
  5
962A
330
64A2
100
AcDbEntity
  8
Defpoints
 62
     0
100
AcDbPoint
 10
455.8333126795736
 20
794.5080489416922
 30
0.0
  0
POINT
  5
962B
330
64A2
100
AcDbEntity
  8
Defpoints
 62
     0
100
AcDbPoint
 10
535.8333126795736
 20
776.2080489416923
 30
0.0
  0
POINT
  5
962C
330
64A2
100
AcDbEntity
  8
Defpoints
 62
     0
100
AcDbPoint
 10
535.8333126795736
 20
664.7080489416921
 30
0.0
  0
ENDBLK
  5
64A4
330
64A2
100
AcDbEntity
  8
0
100
AcDbBlockEnd
  0
BLOCK
  5
64C4
330
64C3
100
AcDbEntity
  8
0
100
AcDbBlockBegin
  2
*D24
 70
     1
 10
0.0
 20
0.0
 30
0.0
  3
*D24
  1

  0
LINE
  5
962D
330
64C3
100
AcDbEntity
  8
AM_5 寸法線
 62
     3
100
AcDbLine
 10
535.8333126795736
 20
773.7080489416922
 30
0.0
 11
535.8333126795736
 21
662.2080489416921
 31
0.0
  0
LINE
  5
962E
330
64C3
100
AcDbEntity
  8
AM_5 寸法線
 62
     3
100
AcDbLine
 10
633.8333126795737
 20
743.2080489416923
 30
0.0
 11
633.8333126795737
 21
662.2080489416921
 31
0.0
  0
LINE
  5
962F
330
64C3
100
AcDbEntity
  8
AM_5 寸法線
 62
     3
100
AcDbLine
 10
545.8333126795736
 20
664.7080489416921
 30
0.0
 11
623.8333126795737
 21
664.7080489416921
 31
0.0
  0
INSERT
  5
9630
330
64C3
100
AcDbEntity
  8
AM_5 寸法線
 62
     3
100
AcDbBlockReference
  2
_Open30
 10
535.8333126795736
 20
664.7080489416921
 30
0.0
 41
10.0
 42
10.0
 43
10.0
 50
180.0
  0
INSERT
  5
9631
330
64C3
100
AcDbEntity
  8
AM_5 寸法線
 62
     3
100
AcDbBlockReference
  2
_Open30
 10
633.8333126795737
 20
664.7080489416921
 30
0.0
 41
10.0
 42
10.0
 43
10.0
  0
MTEXT
  5
9632
330
64C3
100
AcDbEntity
  8
AM_5 寸法線
 62
     3
100
AcDbMText
 10
584.8333126795737
 20
677.7080489416921
 30
0.0
 40
14.0
 41
0.0
 46
0.0
 71
     5
 72
     1
  1
98
  7
SEISA
 73
     1
 44
1.0
  0
POINT
  5
9633
330
64C3
100
AcDbEntity
  8
Defpoints
 62
     0
100
AcDbPoint
 10
535.8333126795736
 20
776.2080489416923
 30
0.0
  0
POINT
  5
9634
330
64C3
100
AcDbEntity
  8
Defpoints
 62
     0
100
AcDbPoint
 10
633.8333126795737
 20
745.7080489416922
 30
0.0
  0
POINT
  5
9635
330
64C3
100
AcDbEntity
  8
Defpoints
 62
     0
100
AcDbPoint
 10
633.8333126795737
 20
664.7080489416921
 30
0.0
  0
ENDBLK
  5
64C5
330
64C3
100
AcDbEntity
  8
0
100
AcDbBlockEnd
  0
BLOCK
  5
64F4
330
64F3
100
AcDbEntity
  8
0
100
AcDbBlockBegin
  2
*D25
 70
     1
 10
0.0
 20
0.0
 30
0.0
  3
*D25
  1

  0
LINE
  5
96C2
330
64F3
100
AcDbEntity
  8
AM_5 寸法線
 62
     3
100
AcDbLine
 10
947.8333126795735
 20
743.2080489416923
 30
0.0
 11
947.8333126795735
 21
662.2080489416921
 31
0.0
  0
LINE
  5
96C3
330
64F3
100
AcDbEntity
  8
AM_5 寸法線
 62
     3
100
AcDbLine
 10
1045.833312679574
 20
773.7080489416922
 30
0.0
 11
1045.833312679574
 21
662.2080489416921
 31
0.0
  0
LINE
  5
96C4
330
64F3
100
AcDbEntity
  8
AM_5 寸法線
 62
     3
100
AcDbLine
 10
957.8333126795737
 20
664.7080489416921
 30
0.0
 11
1035.833312679574
 21
664.7080489416921
 31
0.0
  0
INSERT
  5
96C5
330
64F3
100
AcDbEntity
  8
AM_5 寸法線
 62
     3
100
AcDbBlockReference
  2
_Open30
 10
947.8333126795735
 20
664.7080489416921
 30
0.0
 41
10.0
 42
10.0
 43
10.0
 50
180.0
  0
INSERT
  5
96C6
330
64F3
100
AcDbEntity
  8
AM_5 寸法線
 62
     3
100
AcDbBlockReference
  2
_Open30
 10
1045.833312679574
 20
664.7080489416921
 30
0.0
 41
10.0
 42
10.0
 43
10.0
  0
MTEXT
  5
96C7
330
64F3
100
AcDbEntity
  8
AM_5 寸法線
 62
     3
100
AcDbMText
 10
996.8333126795736
 20
677.7080489416921
 30
0.0
 40
14.0
 41
0.0
 46
0.0
 71
     5
 72
     1
  1
98
  7
SEISA
 73
     1
 44
1.0
  0
POINT
  5
96C8
330
64F3
100
AcDbEntity
  8
Defpoints
 62
     0
100
AcDbPoint
 10
947.8333126795735
 20
745.7080489416922
 30
0.0
  0
POINT
  5
96C9
330
64F3
100
AcDbEntity
  8
Defpoints
 62
     0
100
AcDbPoint
 10
1045.833312679574
 20
776.2080489416923
 30
0.0
  0
POINT
  5
96CA
330
64F3
100
AcDbEntity
  8
Defpoints
 62
     0
100
AcDbPoint
 10
1045.833312679574
 20
664.7080489416921
 30
0.0
  0
ENDBLK
  5
64F5
330
64F3
100
AcDbEntity
  8
0
100
AcDbBlockEnd
  0
BLOCK
  5
650C
330
650B
100
AcDbEntity
  8
0
100
AcDbBlockBegin
  2
*D26
 70
     1
 10
0.0
 20
0.0
 30
0.0
  3
*D26
  1

  0
LINE
  5
969C
330
650B
100
AcDbEntity
  8
AM_5 寸法線
 62
     3
100
AcDbLine
 10
1045.833312679574
 20
773.7080489416922
 30
0.0
 11
1045.833312679574
 21
662.2080489416921
 31
0.0
  0
LINE
  5
969D
330
650B
100
AcDbEntity
  8
AM_5 寸法線
 62
     3
100
AcDbLine
 10
1125.833312679573
 20
792.0080489416922
 30
0.0
 11
1125.833312679573
 21
662.2080489416921
 31
0.0
  0
LINE
  5
969E
330
650B
100
AcDbEntity
  8
AM_5 寸法線
 62
     3
100
AcDbLine
 10
1055.833312679574
 20
664.7080489416921
 30
0.0
 11
1115.833312679574
 21
664.7080489416921
 31
0.0
  0
INSERT
  5
969F
330
650B
100
AcDbEntity
  8
AM_5 寸法線
 62
     3
100
AcDbBlockReference
  2
_Open30
 10
1045.833312679574
 20
664.7080489416921
 30
0.0
 41
10.0
 42
10.0
 43
10.0
 50
180.0
  0
INSERT
  5
96A0
330
650B
100
AcDbEntity
  8
AM_5 寸法線
 62
     3
100
AcDbBlockReference
  2
_Open30
 10
1125.833312679573
 20
664.7080489416921
 30
0.0
 41
10.0
 42
10.0
 43
10.0
  0
MTEXT
  5
96A1
330
650B
100
AcDbEntity
  8
AM_5 寸法線
 62
     3
100
AcDbMText
 10
1085.833312679574
 20
677.7080489416921
 30
0.0
 40
14.0
 41
0.0
 46
0.0
 71
     5
 72
     1
  1
80
  7
SEISA
 73
     1
 44
1.0
  0
POINT
  5
96A2
330
650B
100
AcDbEntity
  8
Defpoints
 62
     0
100
AcDbPoint
 10
1045.833312679574
 20
776.2080489416923
 30
0.0
  0
POINT
  5
96A3
330
650B
100
AcDbEntity
  8
Defpoints
 62
     0
100
AcDbPoint
 10
1125.833312679573
 20
794.5080489416922
 30
0.0
  0
POINT
  5
96A4
330
650B
100
AcDbEntity
  8
Defpoints
 62
     0
100
AcDbPoint
 10
1125.833312679573
 20
664.7080489416921
 30
0.0
  0
ENDBLK
  5
650D
330
650B
100
AcDbEntity
  8
0
100
AcDbBlockEnd
  0
BLOCK
  5
7E10
330
7E0F
100
AcDbEntity
  8
0
100
AcDbBlockBegin
  2
ＧＣスペーサ SAMY315
 70
     0
 10
0.0
 20
0.0
 30
0.0
  3
ＧＣスペーサ SAMY315
  1

  0
HATCH
  5
7E12
330
7E0F
100
AcDbEntity
  8
AM_8 ハッチング
100
AcDbHatch
 10
0.0
 20
0.0
 30
0.0
210
0.0
220
0.0
230
1.0
  2
_USER
 70
     0
 71
     1
 91
        1
 92
        7
 72
     1
 73
     1
 93
        5
 10
44.50777489925122
 20
133.6999999999998
 42
0.0
 10
26.0
 20
133.6999999999998
 42
0.0
 10
26.0
 20
120.5
 42
0.4142135623731217
 10
31.0
 20
115.4999999999995
 42
0.0
 10
33.99999999999977
 20
115.4999999999995
 42
0.0
 97
        5
330
7E17
330
7E77
330
7E78
330
7E13
330
7E83
 75
     0
 76
     0
 52
45.0
 41
1.0
 77
     0
 78
     1
 53
45.0
 43
-531.6990163757061
 44
-766.8860680614869
 45
-0.7071067811865475
 46
0.7071067811865476
 79
     0
 47
0.0400386199236594
 98
        1
 10
35.39266490260003
 20
128.4331521811873
1001
ACAD
1010
0.0
1020
0.0
1030
0.0
  0
LINE
  5
7E13
102
{ACAD_REACTORS
330
7E12
102
}
330
7E0F
100
AcDbEntity
  8
AM_0 外形線1
100
AcDbLine
 10
31.0
 20
115.4999999999995
 30
0.0
 11
146.0069575766931
 21
115.5
 31
0.0
  0
LINE
  5
7E14
330
7E0F
100
AcDbEntity
  8
AM_0 外形線1
100
AcDbLine
 10
154.0021327421344
 20
115.5
 30
0.0
 11
283.0000000000001
 21
115.5
 31
0.0
  0
LINE
  5
7E15
330
7E0F
100
AcDbEntity
  8
AM_0 外形線1
100
AcDbLine
 10
46.0
 20
-133.7
 30
0.0
 11
152.2897516091525
 21
-133.7000000000003
 31
0.0
  0
LINE
  5
7E16
330
7E0F
100
AcDbEntity
  8
AM_0 外形線1
100
AcDbLine
 10
160.2897516091525
 20
-133.7000000000003
 30
0.0
 11
268.0000000000001
 21
-133.7000000000003
 31
0.0
  0
LINE
  5
7E17
102
{ACAD_REACTORS
330
7E12
102
}
330
7E0F
100
AcDbEntity
  8
AM_0 外形線1
100
AcDbLine
 10
25.99999999999977
 20
133.6999999999998
 30
0.0
 11
152.2897516091525
 21
133.6999999999998
 31
0.0
  0
LINE
  5
7E18
330
7E0F
100
AcDbEntity
  8
AM_0 外形線1
100
AcDbLine
 10
160.2897516091525
 20
133.6999999999998
 30
0.0
 11
288.0000000000001
 21
133.6999999999998
 31
0.0
  0
LINE
  5
7E19
330
7E0F
100
AcDbEntity
  8
AM_7 中心線
100
AcDbLine
 10
288.0000000000001
 20
-145.5
 30
0.0
 11
339.9999999999999
 21
-145.5
 31
0.0
  0
POLYLINE
  5
7E1A
330
7E0F
100
AcDbEntity
  8
AM_4 細線
100
AcDb2dPolyline
 66
     1
 10
0.0
 20
0.0
 30
0.0
 70
     2
  0
VERTEX
  5
9AC3
330
7E1A
100
AcDbEntity
  8
AM_4 細線
100
AcDbVertex
100
AcDb2dVertex
 10
160.2897516091525
 20
133.6999999999998
 30
0.0
 42
0.0546481076331626
  0
VERTEX
  5
9AC4
330
7E1A
100
AcDbEntity
  8
AM_4 細線
100
AcDbVertex
100
AcDb2dVertex
 10
153.7938149426998
 20
114.5832849159269
 30
0.0
 42
0.0771817495040222
 70
     1
  0
VERTEX
  5
9AC5
330
7E1A
100
AcDbEntity
  8
AM_4 細線
100
AcDbVertex
100
AcDb2dVertex
 10
152.8722758809972
 20
100.2750000000001
 30
0.0
 42
0.0742090227912312
  0
VERTEX
  5
9AC6
330
7E1A
100
AcDbEntity
  8
AM_4 細線
100
AcDbVertex
100
AcDb2dVertex
 10
157.4330187878238
 20
81.46616620517898
 30
0.0
 42
-0.0968092250447937
 70
     1
  0
VERTEX
  5
9AC7
330
7E1A
100
AcDbEntity
  8
AM_4 細線
100
AcDbVertex
100
AcDb2dVertex
 10
160.2897516091525
 20
66.84999999999991
 30
0.0
 42
-0.1096235968936589
  0
VERTEX
  5
9AC8
330
7E1A
100
AcDbEntity
  8
AM_4 細線
100
AcDbVertex
100
AcDb2dVertex
 10
156.5810137450748
 20
50.13749999999982
 30
0.0
 42
0.1096235968936581
 70
     1
  0
VERTEX
  5
9AC9
330
7E1A
100
AcDbEntity
  8
AM_4 細線
100
AcDbVertex
100
AcDb2dVertex
 10
152.8722758809972
 20
33.42499999999973
 30
0.0
 42
0.1096235968936585
  0
VERTEX
  5
9ACA
330
7E1A
100
AcDbEntity
  8
AM_4 細線
100
AcDbVertex
100
AcDb2dVertex
 10
156.5810137450748
 20
16.71250000000009
 30
0.0
 42
-0.1096235968936588
 70
     1
  0
VERTEX
  5
9ACB
330
7E1A
100
AcDbEntity
  8
AM_4 細線
100
AcDbVertex
100
AcDb2dVertex
 10
160.2897516091525
 20
0.0
 30
0.0
 42
-0.1096235968936588
  0
VERTEX
  5
9ACC
330
7E1A
100
AcDbEntity
  8
AM_4 細線
100
AcDbVertex
100
AcDb2dVertex
 10
156.5810137450748
 20
-16.71250000000009
 30
0.0
 42
0.1096235968936585
 70
     1
  0
VERTEX
  5
9ACD
330
7E1A
100
AcDbEntity
  8
AM_4 細線
100
AcDbVertex
100
AcDb2dVertex
 10
152.8722758809972
 20
-33.42499999999973
 30
0.0
 42
0.1096235968936581
  0
VERTEX
  5
9ACE
330
7E1A
100
AcDbEntity
  8
AM_4 細線
100
AcDbVertex
100
AcDb2dVertex
 10
156.5810137450748
 20
-50.13750000000028
 30
0.0
 42
-0.1096235968936589
 70
     1
  0
VERTEX
  5
9ACF
330
7E1A
100
AcDbEntity
  8
AM_4 細線
100
AcDbVertex
100
AcDb2dVertex
 10
160.2897516091525
 20
-66.84999999999991
 30
0.0
 42
-0.0968092250447975
  0
VERTEX
  5
9AD0
330
7E1A
100
AcDbEntity
  8
AM_4 細線
100
AcDbVertex
100
AcDb2dVertex
 10
157.4330187878236
 20
-81.46616620517898
 30
0.0
 42
0.0742090227912285
 70
     1
  0
VERTEX
  5
9AD1
330
7E1A
100
AcDbEntity
  8
AM_4 細線
100
AcDbVertex
100
AcDb2dVertex
 10
152.8722758809972
 20
-100.2750000000001
 30
0.0
 42
0.0771817495040196
  0
VERTEX
  5
9AD2
330
7E1A
100
AcDbEntity
  8
AM_4 細線
100
AcDbVertex
100
AcDb2dVertex
 10
153.7938149426998
 20
-114.5832849159283
 30
0.0
 42
0.0546481076331528
 70
     1
  0
VERTEX
  5
9AD3
330
7E1A
100
AcDbEntity
  8
AM_4 細線
100
AcDbVertex
100
AcDb2dVertex
 10
160.2897516091525
 20
-133.7000000000003
 30
0.0
  0
SEQEND
  5
9AD4
330
7E1A
100
AcDbEntity
  8
AM_4 細線
  0
POLYLINE
  5
7E2D
330
7E0F
100
AcDbEntity
  8
AM_4 細線
100
AcDb2dPolyline
 66
     1
 10
0.0
 20
0.0
 30
0.0
 70
     2
  0
VERTEX
  5
9AD6
330
7E2D
100
AcDbEntity
  8
AM_4 細線
100
AcDbVertex
100
AcDb2dVertex
 10
152.2897516091525
 20
133.6999999999998
 30
0.0
 42
0.0546481076331626
  0
VERTEX
  5
9AD7
330
7E2D
100
AcDbEntity
  8
AM_4 細線
100
AcDbVertex
100
AcDb2dVertex
 10
145.7938149426998
 20
114.5832849159269
 30
0.0
 42
0.0771817495040222
 70
     1
  0
VERTEX
  5
9AD8
330
7E2D
100
AcDbEntity
  8
AM_4 細線
100
AcDbVertex
100
AcDb2dVertex
 10
144.8722758809972
 20
100.2750000000001
 30
0.0
 42
0.0742090227912312
  0
VERTEX
  5
9AD9
330
7E2D
100
AcDbEntity
  8
AM_4 細線
100
AcDbVertex
100
AcDb2dVertex
 10
149.4330187878238
 20
81.46616620517898
 30
0.0
 42
-0.0968092250447937
 70
     1
  0
VERTEX
  5
9ADA
330
7E2D
100
AcDbEntity
  8
AM_4 細線
100
AcDbVertex
100
AcDb2dVertex
 10
152.2897516091525
 20
66.84999999999991
 30
0.0
 42
-0.1096235968936589
  0
VERTEX
  5
9ADB
330
7E2D
100
AcDbEntity
  8
AM_4 細線
100
AcDbVertex
100
AcDb2dVertex
 10
148.5810137450748
 20
50.13749999999982
 30
0.0
 42
0.1096235968936581
 70
     1
  0
VERTEX
  5
9ADC
330
7E2D
100
AcDbEntity
  8
AM_4 細線
100
AcDbVertex
100
AcDb2dVertex
 10
144.8722758809972
 20
33.42499999999973
 30
0.0
 42
0.1096235968936585
  0
VERTEX
  5
9ADD
330
7E2D
100
AcDbEntity
  8
AM_4 細線
100
AcDbVertex
100
AcDb2dVertex
 10
148.5810137450748
 20
16.71250000000009
 30
0.0
 42
-0.1096235968936588
 70
     1
  0
VERTEX
  5
9ADE
330
7E2D
100
AcDbEntity
  8
AM_4 細線
100
AcDbVertex
100
AcDb2dVertex
 10
152.2897516091525
 20
0.0
 30
0.0
 42
-0.1096235968936588
  0
VERTEX
  5
9ADF
330
7E2D
100
AcDbEntity
  8
AM_4 細線
100
AcDbVertex
100
AcDb2dVertex
 10
148.5810137450748
 20
-16.71250000000009
 30
0.0
 42
0.1096235968936585
 70
     1
  0
VERTEX
  5
9AE0
330
7E2D
100
AcDbEntity
  8
AM_4 細線
100
AcDbVertex
100
AcDb2dVertex
 10
144.8722758809972
 20
-33.42499999999973
 30
0.0
 42
0.1096235968936581
  0
VERTEX
  5
9AE1
330
7E2D
100
AcDbEntity
  8
AM_4 細線
100
AcDbVertex
100
AcDb2dVertex
 10
148.5810137450748
 20
-50.13750000000028
 30
0.0
 42
-0.1096235968936589
 70
     1
  0
VERTEX
  5
9AE2
330
7E2D
100
AcDbEntity
  8
AM_4 細線
100
AcDbVertex
100
AcDb2dVertex
 10
152.2897516091525
 20
-66.84999999999991
 30
0.0
 42
-0.0968092250447975
  0
VERTEX
  5
9AE3
330
7E2D
100
AcDbEntity
  8
AM_4 細線
100
AcDbVertex
100
AcDb2dVertex
 10
149.4330187878236
 20
-81.46616620517898
 30
0.0
 42
0.0742090227912285
 70
     1
  0
VERTEX
  5
9AE4
330
7E2D
100
AcDbEntity
  8
AM_4 細線
100
AcDbVertex
100
AcDb2dVertex
 10
144.8722758809972
 20
-100.2750000000001
 30
0.0
 42
0.0771817495040196
  0
VERTEX
  5
9AE5
330
7E2D
100
AcDbEntity
  8
AM_4 細線
100
AcDbVertex
100
AcDb2dVertex
 10
145.7938149426998
 20
-114.5832849159283
 30
0.0
 42
0.0546481076331528
 70
     1
  0
VERTEX
  5
9AE6
330
7E2D
100
AcDbEntity
  8
AM_4 細線
100
AcDbVertex
100
AcDb2dVertex
 10
152.2897516091525
 20
-133.7000000000003
 30
0.0
  0
SEQEND
  5
9AE7
330
7E2D
100
AcDbEntity
  8
AM_4 細線
  0
LINE
  5
7E40
330
7E0F
100
AcDbEntity
  8
AM_0 外形線1
100
AcDbLine
 10
314.0000000000001
 20
0.0
 30
0.0
 11
314.0000000000001
 21
-157.0
 31
0.0
  0
LINE
  5
7E41
330
7E0F
100
AcDbEntity
  8
AM_0 外形線1
100
AcDbLine
 10
313.5000000000001
 20
-157.5
 30
0.0
 11
314.0000000000001
 21
-157.0
 31
0.0
1001
GENIUS_GENFIL_13
1070
     0
1040
0.5
1040
0.5
1040
0.5
1040
45.0
1000
~T
1001
GENIUS_GENOREF_13
1005
7E93
  0
LINE
  5
7E42
330
7E0F
100
AcDbEntity
  8
AM_0 外形線1
100
AcDbLine
 10
293.0000000000001
 20
-145.5
 30
0.0
 11
293.0000000000001
 21
-0.0000000000002274
 31
0.0
  0
LINE
  5
7E43
330
7E0F
100
AcDbEntity
  8
AM_7 中心線
100
AcDbLine
 10
288.0000000000001
 20
-145.5
 30
0.0
 11
339.9999999999999
 21
-145.5
 31
0.0
  0
LINE
  5
7E44
330
7E0F
100
AcDbEntity
  8
AM_0 外形線1
100
AcDbLine
 10
313.5000000000001
 20
-157.5
 30
0.0
 11
294.0000000000001
 21
-157.5
 31
0.0
  0
LINE
  5
7E45
330
7E0F
100
AcDbEntity
  8
AM_0 外形線1
100
AcDbLine
 10
293.0000000000001
 20
-156.5
 30
0.0
 11
294.0000000000001
 21
-157.5
 31
0.0
1001
GENIUS_GENFIL_13
1070
     0
1040
1.0
1040
1.0
1040
1.0
1040
44.99999999999836
1000
~T
1001
GENIUS_GENOREF_13
1005
7E92
  0
LINE
  5
7E46
330
7E0F
100
AcDbEntity
  8
AM_0 外形線1
100
AcDbLine
 10
293.0000000000001
 20
-145.5
 30
0.0
 11
293.0000000000001
 21
-156.5
 31
0.0
  0
LINE
  5
7E47
330
7E0F
100
AcDbEntity
  8
AM_0 外形線1
100
AcDbLine
 10
293.0000000000001
 20
-135.5
 30
0.0
 11
288.0000000000001
 21
-135.5
 31
0.0
  0
LINE
  5
7E48
330
7E0F
100
AcDbEntity
  8
AM_0 外形線1
100
AcDbLine
 10
293.0000000000001
 20
-135.5
 30
0.0
 11
288.0000000000001
 21
-135.5
 31
0.0
  0
LINE
  5
7E49
330
7E0F
100
AcDbEntity
  8
AM_0 外形線1
100
AcDbLine
 10
293.0000000000001
 20
-136.017022
 30
0.0
 11
293.0000000000001
 21
-135.5
 31
0.0
  0
ARC
  5
7E4A
330
7E0F
100
AcDbEntity
  8
AM_0 外形線1
100
AcDbCircle
 10
268.0000000000001
 20
-143.7
 30
0.0
 40
10.0
100
AcDbArc
 50
84.736943494441
 51
90.0
  0
LINE
  5
7E4B
330
7E0F
100
AcDbEntity
  8
AM_0 外形線1
100
AcDbLine
 10
288.0000000000001
 20
-135.5
 30
0.0
 11
268.9172853932739
 21
-133.74215949579
 31
0.0
  0
LINE
  5
7E4D
330
7E0F
100
AcDbEntity
  8
AM_0 外形線1
100
AcDbLine
 10
309.0000000000001
 20
129.5
 30
0.0
 11
309.0000000000001
 21
0.0
 31
0.0
  0
LINE
  5
7E4E
330
7E0F
100
AcDbEntity
  8
AM_0 外形線1
100
AcDbLine
 10
314.0000000000001
 20
130.0000000000002
 30
0.0
 11
314.0000000000002
 21
138.5
 31
0.0
  0
LINE
  5
7E4F
330
7E0F
100
AcDbEntity
  8
AM_0 外形線1
100
AcDbLine
 10
313.5000000000001
 20
129.5
 30
0.0
 11
314.0000000000001
 21
130.0
 31
0.0
1001
GENIUS_GENFIL_13
1070
     0
1040
0.5
1040
0.5
1040
0.5
1040
45.0
1000
~T
1001
GENIUS_GENOREF_13
1005
7E91
  0
LINE
  5
7E50
330
7E0F
100
AcDbEntity
  8
AM_0 外形線1
100
AcDbLine
 10
314.0000000000001
 20
157.0
 30
0.0
 11
313.5000000000001
 21
157.5
 31
0.0
1001
GENIUS_GENFIL_13
1070
     0
1040
0.5
1040
0.5
1040
0.5
1040
45.0000000000065
1000
~T
1001
GENIUS_GENOREF_13
1005
7E90
  0
LINE
  5
7E51
330
7E0F
100
AcDbEntity
  8
AM_0 外形線1
100
AcDbLine
 10
288.0000000000001
 20
135.5
 30
0.0
 11
288.0000000000001
 21
120.5
 31
0.0
  0
ARC
  5
7E52
330
7E0F
100
AcDbEntity
  8
AM_0 外形線1
100
AcDbCircle
 10
283.0000000000001
 20
120.5
 30
0.0
 40
5.0
100
AcDbArc
 50
270.0
 51
0.0
1001
GENIUS_GENOBJ-N-FIL_13
1002
{
1000
OWNER
1000
GEN
1002
}
1001
GENIUS_GENODEF_13
1002
{
1000
HIER
1070
     0
1002
}
1002
{
1000
MANEDIT
1070
     0
1002
}
1002
{
1000
NOSEL
1070
     0
1002
}
1002
{
1000
BEHIND
1070
     0
1002
}
1002
{
1000
OTHER
1070
     0
1002
}
1002
{
1000
REACTOR
1002
}
  0
LINE
  5
7E55
330
7E0F
100
AcDbEntity
  8
AM_0 外形線1
100
AcDbLine
 10
313.5000000000001
 20
157.5
 30
0.0
 11
294.0000000000001
 21
157.5
 31
0.0
  0
LINE
  5
7E56
330
7E0F
100
AcDbEntity
  8
AM_0 外形線1
100
AcDbLine
 10
293.0000000000001
 20
156.5
 30
0.0
 11
294.0000000000001
 21
157.5
 31
0.0
1001
GENIUS_GENFIL_13
1070
     0
1040
1.0
1040
1.0
1040
1.0
1040
44.99999999999836
1000
~T
1001
GENIUS_GENOREF_13
1005
7E8F
  0
LINE
  5
7E58
330
7E0F
100
AcDbEntity
  8
AM_0 外形線1
100
AcDbLine
 10
293.0000000000001
 20
135.5
 30
0.0
 11
288.0000000000001
 21
135.5
 31
0.0
  0
LINE
  5
7E59
330
7E0F
100
AcDbEntity
  8
AM_0 外形線1
100
AcDbLine
 10
293.0000000000001
 20
135.5
 30
0.0
 11
288.0000000000001
 21
135.5
 31
0.0
  0
LINE
  5
7E5A
330
7E0F
100
AcDbEntity
  8
AM_0 外形線1
100
AcDbLine
 10
293.0000000000001
 20
156.5
 30
0.0
 11
293.0000000000001
 21
135.5
 31
0.0
  0
LINE
  5
7E5B
330
7E0F
100
AcDbEntity
  8
AM_0 外形線1
100
AcDbLine
 10
313.5000000000001
 20
129.5
 30
0.0
 11
309.0000000000001
 21
129.5
 31
0.0
  0
LINE
  5
7E5C
330
7E0F
100
AcDbEntity
  8
AM_0 外形線1
100
AcDbLine
 10
278.0000000000001
 20
115.5
 30
0.0
 11
278.0000000000001
 21
0.0
 31
0.0
  0
LINE
  5
7E5D
330
7E0F
100
AcDbEntity
  8
AM_0 外形線1
100
AcDbLine
 10
280.0000000000001
 20
115.5
 30
0.0
 11
269.4922251007489
 21
133.6999999999998
 31
0.0
  0
ARC
  5
7E5E
330
7E0F
100
AcDbEntity
  8
AM_0 外形線1
100
AcDbCircle
 10
268.0000000000001
 20
143.7
 30
0.0
 40
10.0
100
AcDbArc
 50
270.0
 51
275.263056505559
  0
LINE
  5
7E5F
330
7E0F
100
AcDbEntity
  8
AM_0 外形線1
100
AcDbLine
 10
288.0000000000001
 20
135.5
 30
0.0
 11
268.917285393274
 21
133.74215949579
 31
0.0
  0
HATCH
  5
7E60
330
7E0F
100
AcDbEntity
  8
AM_8 ハッチング
100
AcDbHatch
 10
0.0
 20
0.0
 30
0.0
210
0.0
220
0.0
230
1.0
  2
_USER
 70
     0
 71
     0
 91
        1
 92
        1
 93
        5
 72
     1
 10
283.0000000000001
 20
115.5
 11
280.0000000000001
 21
115.5
 72
     1
 10
280.0000000000001
 20
115.5
 11
269.4922251007489
 21
133.6999999999998
 72
     1
 10
269.4922251007489
 20
133.6999999999998
 11
288.0000000000001
 21
133.6999999999998
 72
     1
 10
288.0000000000001
 20
133.7
 11
288.0000000000001
 21
120.5
 72
     2
 10
283.0000000000001
 20
120.5
 40
5.0
 50
0.0
 51
90.0
 73
     0
 97
        0
 75
     0
 76
     0
 52
45.0
 41
1.0
 77
     0
 78
     1
 53
45.0
 43
-817.6990163757057
 44
-766.8860680614869
 45
-0.7071067811865475
 46
0.7071067811865476
 79
     0
 98
        1
 10
214.6639398968119
 20
-251.4258713244121
1001
GENIUS_GENODEF_13
1002
{
1000
HIER
1070
     0
1002
}
1002
{
1000
MANEDIT
1070
     0
1002
}
1002
{
1000
NOSEL
1070
     0
1002
}
1002
{
1000
BEHIND
1070
     0
1002
}
1002
{
1000
OTHER
1070
     0
1002
}
1002
{
1000
REACTOR
1002
}
1001
GENIUS_GENOBJ-N-HTC_13
1002
{
1000
OWNER
1000
GEN
1002
}
1001
GENIUS_GENHATCH_13
1002
{
1000
DATA
1040
45.0
1042
-0.5
1000
_U
1070
     0
1011
287.3422842887695
1021
132.1531533811558
1031
0.0
1002
}
1002
{
1000
UCS
1010
0.0
1020
0.0
1030
0.0
1010
1.0
1020
0.0
1030
0.0
1010
0.0
1020
1.0
1030
0.0
1002
}
1001
ACAD
1010
0.0
1020
0.0
1030
0.0
  0
HATCH
  5
7E61
330
7E0F
100
AcDbEntity
  8
AM_8 ハッチング
100
AcDbHatch
 10
0.0
 20
0.0
 30
0.0
210
0.0
220
0.0
230
1.0
  2
_USER
 70
     0
 71
     0
 91
        1
 92
        1
 93
        4
 72
     1
 10
268.917285393274
 20
133.74215949579
 11
288.0000000000001
 21
135.5
 72
     1
 10
288.0000000000001
 20
135.5
 11
288.0000000000001
 21
133.6999999999998
 72
     1
 10
288.0000000000001
 20
133.7
 11
268.0000000000001
 21
133.7
 72
     2
 10
267.9999999999997
 20
143.7
 40
10.0
 50
270.0000000000018
 51
275.263056505554
 73
     1
 97
        0
 75
     0
 76
     0
 52
45.0
 41
1.0
 77
     0
 78
     1
 53
45.0
 43
-817.6990163757057
 44
-766.8860680614869
 45
-0.7071067811865475
 46
0.7071067811865476
 79
     0
 98
        1
 10
214.6639398968119
 20
-251.4258713244121
1001
GENIUS_GENOBJ-N-HTC_13
1002
{
1000
OWNER
1000
GEN
1002
}
1001
GENIUS_GENODEF_13
1002
{
1000
HIER
1070
     0
1002
}
1002
{
1000
MANEDIT
1070
     0
1002
}
1002
{
1000
NOSEL
1070
     0
1002
}
1002
{
1000
BEHIND
1070
     0
1002
}
1002
{
1000
OTHER
1070
     0
1002
}
1002
{
1000
REACTOR
1002
}
1001
GENIUS_GENHATCH_13
1002
{
1000
DATA
1040
45.0
1042
-0.5
1000
_U
1070
     0
1011
281.6432200836772
1021
134.2007187816166
1031
0.0
1002
}
1002
{
1000
UCS
1010
0.0
1020
0.0
1030
0.0
1010
1.0
1020
0.0
1030
0.0
1010
0.0
1020
1.0
1030
0.0
1002
}
1001
ACAD
1010
0.0
1020
0.0
1030
0.0
  0
LINE
  5
7E62
330
7E0F
100
AcDbEntity
  8
AM_0 外形線1
100
AcDbLine
 10
293.0000000000001
 20
138.5
 30
0.0
 11
314.0000000000001
 21
138.5
 31
0.0
  0
LINE
  5
7E63
330
7E0F
100
AcDbEntity
  8
AM_0 外形線1
100
AcDbLine
 10
293.0000000000001
 20
152.5
 30
0.0
 11
314.0000000000001
 21
152.5
 31
0.0
  0
LINE
  5
7E64
330
7E0F
100
AcDbEntity
  8
AM_7 中心線
100
AcDbLine
 10
26.0
 20
-145.5
 30
0.0
 11
-26.0
 21
-145.5
 31
0.0
  0
LINE
  5
7E65
330
7E0F
100
AcDbEntity
  8
AM_0 外形線1
100
AcDbLine
 10
0.0
 20
0.0
 30
0.0
 11
0.0
 21
-157.0
 31
0.0
  0
LINE
  5
7E66
330
7E0F
100
AcDbEntity
  8
AM_0 外形線1
100
AcDbLine
 10
0.5
 20
-157.5
 30
0.0
 11
0.0
 21
-157.0
 31
0.0
1001
GENIUS_GENFIL_13
1070
     0
1040
0.5
1040
0.5
1040
0.5
1040
45.0
1000
~T
1001
GENIUS_GENOREF_13
1005
7E8E
  0
LINE
  5
7E67
330
7E0F
100
AcDbEntity
  8
AM_0 外形線1
100
AcDbLine
 10
26.0
 20
-135.5
 30
0.0
 11
26.0
 21
0.0
 31
0.0
  0
LINE
  5
7E68
330
7E0F
100
AcDbEntity
  8
AM_0 外形線1
100
AcDbLine
 10
21.0
 20
-145.5
 30
0.0
 11
21.0
 21
-0.0000000000002274
 31
0.0
  0
LINE
  5
7E69
330
7E0F
100
AcDbEntity
  8
AM_7 中心線
100
AcDbLine
 10
26.0
 20
-145.5
 30
0.0
 11
-26.0
 21
-145.5
 31
0.0
  0
LINE
  5
7E6A
330
7E0F
100
AcDbEntity
  8
AM_0 外形線1
100
AcDbLine
 10
0.5
 20
-157.5
 30
0.0
 11
20.0
 21
-157.5
 31
0.0
  0
LINE
  5
7E6B
330
7E0F
100
AcDbEntity
  8
AM_0 外形線1
100
AcDbLine
 10
21.0
 20
-156.5
 30
0.0
 11
20.0
 21
-157.5
 31
0.0
1001
GENIUS_GENFIL_13
1070
     0
1040
1.0
1040
1.0
1040
1.0
1040
44.99999999999836
1000
~T
1001
GENIUS_GENOREF_13
1005
7E8D
  0
LINE
  5
7E6C
330
7E0F
100
AcDbEntity
  8
AM_0 外形線1
100
AcDbLine
 10
21.0
 20
-145.5
 30
0.0
 11
21.0
 21
-156.5
 31
0.0
  0
LINE
  5
7E6D
330
7E0F
100
AcDbEntity
  8
AM_0 外形線1
100
AcDbLine
 10
21.0
 20
-135.5
 30
0.0
 11
26.0
 21
-135.5
 31
0.0
  0
LINE
  5
7E6E
330
7E0F
100
AcDbEntity
  8
AM_0 外形線1
100
AcDbLine
 10
21.0
 20
-135.5
 30
0.0
 11
26.0
 21
-135.5
 31
0.0
  0
LINE
  5
7E6F
330
7E0F
100
AcDbEntity
  8
AM_0 外形線1
100
AcDbLine
 10
21.0
 20
-136.017022
 30
0.0
 11
21.0
 21
-135.5
 31
0.0
  0
ARC
  5
7E70
330
7E0F
100
AcDbEntity
  8
AM_0 外形線1
100
AcDbCircle
 10
46.0
 20
-143.7
 30
0.0
 40
10.0
100
AcDbArc
 50
90.0
 51
95.26305650555901
  0
LINE
  5
7E71
330
7E0F
100
AcDbEntity
  8
AM_0 外形線1
100
AcDbLine
 10
26.0
 20
-135.5
 30
0.0
 11
45.08271460672609
 21
-133.7421594957899
 31
0.0
  0
LINE
  5
7E73
330
7E0F
100
AcDbEntity
  8
AM_0 外形線1
100
AcDbLine
 10
5.0
 20
129.5
 30
0.0
 11
5.0
 21
0.0
 31
0.0
  0
LINE
  5
7E74
330
7E0F
100
AcDbEntity
  8
AM_0 外形線1
100
AcDbLine
 10
-0.0000000000001137
 20
130.0
 30
0.0
 11
-0.0000000000001137
 21
138.5
 31
0.0
  0
LINE
  5
7E75
330
7E0F
100
AcDbEntity
  8
AM_0 外形線1
100
AcDbLine
 10
0.5
 20
129.5
 30
0.0
 11
0.0
 21
130.0
 31
0.0
1001
GENIUS_GENFIL_13
1070
     0
1040
0.5
1040
0.5
1040
0.5
1040
45.0
1000
~T
1001
GENIUS_GENOREF_13
1005
7E8C
  0
LINE
  5
7E76
330
7E0F
100
AcDbEntity
  8
AM_0 外形線1
100
AcDbLine
 10
0.5
 20
157.5
 30
0.0
 11
0.0
 21
157.0
 31
0.0
1001
GENIUS_GENFIL_13
1070
     0
1040
0.5
1040
0.5
1040
0.5
1040
45.0
1000
~T
1001
GENIUS_GENOREF_13
1005
7E8B
  0
LINE
  5
7E77
102
{ACAD_REACTORS
330
7E12
102
}
330
7E0F
100
AcDbEntity
  8
AM_0 外形線1
100
AcDbLine
 10
26.0
 20
135.5
 30
0.0
 11
26.0
 21
120.5
 31
0.0
  0
ARC
  5
7E78
102
{ACAD_REACTORS
330
7E12
102
}
330
7E0F
100
AcDbEntity
  8
AM_0 外形線1
100
AcDbCircle
 10
31.0
 20
120.5
 30
0.0
 40
5.0
100
AcDbArc
 50
180.0
 51
270.0
1001
GENIUS_GENOBJ-N-FIL_13
1002
{
1000
OWNER
1000
GEN
1002
}
1001
GENIUS_GENODEF_13
1002
{
1000
HIER
1070
     0
1002
}
1002
{
1000
MANEDIT
1070
     0
1002
}
1002
{
1000
NOSEL
1070
     0
1002
}
1002
{
1000
BEHIND
1070
     0
1002
}
1002
{
1000
OTHER
1070
     0
1002
}
1002
{
1000
REACTOR
1002
}
  0
LINE
  5
7E7B
330
7E0F
100
AcDbEntity
  8
AM_0 外形線1
100
AcDbLine
 10
0.5
 20
157.5
 30
0.0
 11
20.0
 21
157.5
 31
0.0
  0
LINE
  5
7E7C
330
7E0F
100
AcDbEntity
  8
AM_0 外形線1
100
AcDbLine
 10
21.0
 20
156.5
 30
0.0
 11
20.0
 21
157.5
 31
0.0
1001
GENIUS_GENFIL_13
1070
     0
1040
1.0
1040
1.0
1040
1.0
1040
45.0
1000
~T
1001
GENIUS_GENOREF_13
1005
7E8A
  0
LINE
  5
7E7E
330
7E0F
100
AcDbEntity
  8
AM_0 外形線1
100
AcDbLine
 10
21.0
 20
135.5
 30
0.0
 11
26.0
 21
135.5
 31
0.0
  0
LINE
  5
7E7F
330
7E0F
100
AcDbEntity
  8
AM_0 外形線1
100
AcDbLine
 10
21.0
 20
135.5
 30
0.0
 11
26.0
 21
135.5
 31
0.0
  0
LINE
  5
7E80
330
7E0F
100
AcDbEntity
  8
AM_0 外形線1
100
AcDbLine
 10
21.0
 20
156.5
 30
0.0
 11
21.0
 21
135.5
 31
0.0
  0
LINE
  5
7E81
330
7E0F
100
AcDbEntity
  8
AM_0 外形線1
100
AcDbLine
 10
0.5
 20
129.5
 30
0.0
 11
5.0
 21
129.5
 31
0.0
  0
LINE
  5
7E82
330
7E0F
100
AcDbEntity
  8
AM_0 外形線1
100
AcDbLine
 10
36.0
 20
115.5
 30
0.0
 11
36.0
 21
0.0
 31
0.0
  0
LINE
  5
7E83
102
{ACAD_REACTORS
330
7E12
102
}
330
7E0F
100
AcDbEntity
  8
AM_0 外形線1
100
AcDbLine
 10
34.0
 20
115.5
 30
0.0
 11
44.50777489925122
 21
133.6999999999998
 31
0.0
  0
ARC
  5
7E84
330
7E0F
100
AcDbEntity
  8
AM_0 外形線1
100
AcDbCircle
 10
46.0
 20
143.7
 30
0.0
 40
10.0
100
AcDbArc
 50
264.736943494441
 51
270.0
  0
LINE
  5
7E85
330
7E0F
100
AcDbEntity
  8
AM_0 外形線1
100
AcDbLine
 10
26.0
 20
135.5
 30
0.0
 11
45.08271460672609
 21
133.74215949579
 31
0.0
  0
HATCH
  5
7E86
330
7E0F
100
AcDbEntity
  8
AM_8 ハッチング
100
AcDbHatch
 10
0.0
 20
0.0
 30
0.0
210
0.0
220
0.0
230
1.0
  2
_USER
 70
     0
 71
     0
 91
        1
 92
        1
 93
        4
 72
     1
 10
45.08271460672609
 20
133.74215949579
 11
26.0
 21
135.5
 72
     1
 10
26.0
 20
135.5
 11
26.0
 21
133.6999999999998
 72
     1
 10
26.0
 20
133.7
 11
46.0
 21
133.7
 72
     2
 10
46.00000000000045
 20
143.7
 40
10.0
 50
90.00000000000182
 51
95.26305650555405
 73
     0
 97
        0
 75
     0
 76
     0
 52
45.0
 41
1.0
 77
     0
 78
     1
 53
45.0
 43
-531.6990163757061
 44
-766.8860680614869
 45
-0.7071067811865475
 46
0.7071067811865476
 79
     0
 98
        1
 10
99.33606010318818
 20
-251.4258713244121
1001
GENIUS_GENOBJ-N-HTC_13
1002
{
1000
OWNER
1000
GEN
1002
}
1001
GENIUS_GENODEF_13
1002
{
1000
HIER
1070
     0
1002
}
1002
{
1000
MANEDIT
1070
     0
1002
}
1002
{
1000
NOSEL
1070
     0
1002
}
1002
{
1000
BEHIND
1070
     0
1002
}
1002
{
1000
OTHER
1070
     0
1002
}
1002
{
1000
REACTOR
1002
}
1001
GENIUS_GENHATCH_13
1002
{
1000
DATA
1040
45.0
1042
0.5
1000
_U
1070
     0
1011
32.35677991632292
1021
134.2007187816166
1031
0.0
1002
}
1002
{
1000
UCS
1010
0.0
1020
0.0
1030
0.0
1010
1.0
1020
0.0
1030
0.0
1010
0.0
1020
1.0
1030
0.0
1002
}
1001
ACAD
1010
0.0
1020
0.0
1030
0.0
  0
LINE
  5
7E87
330
7E0F
100
AcDbEntity
  8
AM_0 外形線1
100
AcDbLine
 10
21.0
 20
138.5
 30
0.0
 11
0.0
 21
138.5
 31
0.0
  0
LINE
  5
7E88
330
7E0F
100
AcDbEntity
  8
AM_0 外形線1
100
AcDbLine
 10
21.0
 20
152.5
 30
0.0
 11
0.0
 21
152.5
 31
0.0
  0
LINE
  5
7E89
330
7E0F
100
AcDbEntity
  8
AM_0 外形線1
100
AcDbLine
 10
288.0000000000001
 20
-135.5
 30
0.0
 11
288.0000000000001
 21
0.0
 31
0.0
  0
POINT
  5
7E8A
330
7E0F
100
AcDbEntity
  8
0
 60
     1
100
AcDbPoint
 10
2627.026380810545
 20
4615.019129095257
 30
0.0
1001
GENIUS_GENOENT_13
1002
{
1000
MYREF
1005
7E8A
1002
}
1002
{
1000
GRP
1005
0
1002
}
1001
GENIUS_GENOBJ-N-CHA_13
1002
{
1000
OWNER
1000
GEN
1002
}
1001
GENIUS_GENODEF_13
1002
{
1000
HIER
1070
     1
1002
}
1002
{
1000
MANEDIT
1070
     1
1002
}
1002
{
1000
NOSEL
1070
     0
1002
}
1002
{
1000
BEHIND
1070
     0
1002
}
1002
{
1000
OTHER
1070
     0
1002
}
1002
{
1000
REACTOR
1002
}
1001
GENIUS_GENOLIS_13
1002
{
1000
ENT
1005
7E7C
1002
}
  0
POINT
  5
7E8B
330
7E0F
100
AcDbEntity
  8
0
 60
     1
100
AcDbPoint
 10
2627.026380810545
 20
4615.019129095257
 30
0.0
1001
GENIUS_GENOBJ-N-CHA_13
1002
{
1000
OWNER
1000
GEN
1002
}
1001
GENIUS_GENOENT_13
1002
{
1000
MYREF
1005
7E8B
1002
}
1002
{
1000
GRP
1005
0
1002
}
1001
GENIUS_GENODEF_13
1002
{
1000
HIER
1070
     1
1002
}
1002
{
1000
MANEDIT
1070
     1
1002
}
1002
{
1000
NOSEL
1070
     0
1002
}
1002
{
1000
BEHIND
1070
     0
1002
}
1002
{
1000
OTHER
1070
     0
1002
}
1002
{
1000
REACTOR
1002
}
1001
GENIUS_GENOLIS_13
1002
{
1000
ENT
1005
7E76
1002
}
  0
POINT
  5
7E8C
330
7E0F
100
AcDbEntity
  8
0
 60
     1
100
AcDbPoint
 10
2627.026380810545
 20
4615.019129095257
 30
0.0
1001
GENIUS_GENOBJ-N-CHA_13
1002
{
1000
OWNER
1000
GEN
1002
}
1001
GENIUS_GENOENT_13
1002
{
1000
MYREF
1005
7E8C
1002
}
1002
{
1000
GRP
1005
0
1002
}
1001
GENIUS_GENODEF_13
1002
{
1000
HIER
1070
     1
1002
}
1002
{
1000
MANEDIT
1070
     1
1002
}
1002
{
1000
NOSEL
1070
     0
1002
}
1002
{
1000
BEHIND
1070
     0
1002
}
1002
{
1000
OTHER
1070
     0
1002
}
1002
{
1000
REACTOR
1002
}
1001
GENIUS_GENOLIS_13
1002
{
1000
ENT
1005
7E75
1002
}
  0
POINT
  5
7E8D
330
7E0F
100
AcDbEntity
  8
0
 60
     1
100
AcDbPoint
 10
2702.658621542931
 20
4915.035208494021
 30
0.0
 50
180.0
1001
GENIUS_GENODEF_13
1002
{
1000
HIER
1070
     1
1002
}
1002
{
1000
MANEDIT
1070
     0
1002
}
1002
{
1000
NOSEL
1070
     0
1002
}
1002
{
1000
BEHIND
1070
     0
1002
}
1002
{
1000
OTHER
1070
     0
1002
}
1002
{
1000
REACTOR
1002
}
1001
GENIUS_GENOBJ-N-CHA_13
1002
{
1000
OWNER
1000
GEN
1002
}
1001
GENIUS_GENOENT_13
1002
{
1000
MYREF
1005
7E8D
1002
}
1002
{
1000
GRP
1005
0
1002
}
1001
GENIUS_GENOLIS_13
1002
{
1000
ENT
1005
7E6B
1002
}
  0
POINT
  5
7E8E
330
7E0F
100
AcDbEntity
  8
0
 60
     1
100
AcDbPoint
 10
2702.658621542931
 20
4915.035208494021
 30
0.0
 50
180.0
1001
GENIUS_GENODEF_13
1002
{
1000
HIER
1070
     1
1002
}
1002
{
1000
MANEDIT
1070
     0
1002
}
1002
{
1000
NOSEL
1070
     0
1002
}
1002
{
1000
BEHIND
1070
     0
1002
}
1002
{
1000
OTHER
1070
     0
1002
}
1002
{
1000
REACTOR
1002
}
1001
GENIUS_GENOBJ-N-CHA_13
1002
{
1000
OWNER
1000
GEN
1002
}
1001
GENIUS_GENOENT_13
1002
{
1000
MYREF
1005
7E8E
1002
}
1002
{
1000
GRP
1005
0
1002
}
1001
GENIUS_GENOLIS_13
1002
{
1000
ENT
1005
7E66
1002
}
  0
POINT
  5
7E8F
330
7E0F
100
AcDbEntity
  8
0
 60
     1
100
AcDbPoint
 10
2627.026380810545
 20
4615.019129095257
 30
0.0
1001
GENIUS_GENOBJ-N-CHA_13
1002
{
1000
OWNER
1000
GEN
1002
}
1001
GENIUS_GENOENT_13
1002
{
1000
MYREF
1005
7E8F
1002
}
1002
{
1000
GRP
1005
0
1002
}
1001
GENIUS_GENODEF_13
1002
{
1000
HIER
1070
     1
1002
}
1002
{
1000
MANEDIT
1070
     1
1002
}
1002
{
1000
NOSEL
1070
     0
1002
}
1002
{
1000
BEHIND
1070
     0
1002
}
1002
{
1000
OTHER
1070
     0
1002
}
1002
{
1000
REACTOR
1002
}
1001
GENIUS_GENOLIS_13
1002
{
1000
ENT
1005
7E56
1002
}
  0
POINT
  5
7E90
330
7E0F
100
AcDbEntity
  8
0
 60
     1
100
AcDbPoint
 10
2627.026380810545
 20
4615.019129095257
 30
0.0
1001
GENIUS_GENOBJ-N-CHA_13
1002
{
1000
OWNER
1000
GEN
1002
}
1001
GENIUS_GENOENT_13
1002
{
1000
MYREF
1005
7E90
1002
}
1002
{
1000
GRP
1005
0
1002
}
1001
GENIUS_GENODEF_13
1002
{
1000
HIER
1070
     1
1002
}
1002
{
1000
MANEDIT
1070
     1
1002
}
1002
{
1000
NOSEL
1070
     0
1002
}
1002
{
1000
BEHIND
1070
     0
1002
}
1002
{
1000
OTHER
1070
     0
1002
}
1002
{
1000
REACTOR
1002
}
1001
GENIUS_GENOLIS_13
1002
{
1000
ENT
1005
7E50
1002
}
  0
POINT
  5
7E91
330
7E0F
100
AcDbEntity
  8
0
 60
     1
100
AcDbPoint
 10
2627.026380810545
 20
4615.019129095257
 30
0.0
1001
GENIUS_GENOBJ-N-CHA_13
1002
{
1000
OWNER
1000
GEN
1002
}
1001
GENIUS_GENOENT_13
1002
{
1000
MYREF
1005
7E91
1002
}
1002
{
1000
GRP
1005
0
1002
}
1001
GENIUS_GENODEF_13
1002
{
1000
HIER
1070
     1
1002
}
1002
{
1000
MANEDIT
1070
     1
1002
}
1002
{
1000
NOSEL
1070
     0
1002
}
1002
{
1000
BEHIND
1070
     0
1002
}
1002
{
1000
OTHER
1070
     0
1002
}
1002
{
1000
REACTOR
1002
}
1001
GENIUS_GENOLIS_13
1002
{
1000
ENT
1005
7E4F
1002
}
  0
POINT
  5
7E92
330
7E0F
100
AcDbEntity
  8
0
 60
     1
100
AcDbPoint
 10
4167.979928386801
 20
4915.035208494021
 30
0.0
1001
GENIUS_GENODEF_13
1002
{
1000
HIER
1070
     1
1002
}
1002
{
1000
MANEDIT
1070
     0
1002
}
1002
{
1000
NOSEL
1070
     0
1002
}
1002
{
1000
BEHIND
1070
     0
1002
}
1002
{
1000
OTHER
1070
     0
1002
}
1002
{
1000
REACTOR
1002
}
1001
GENIUS_GENOBJ-N-CHA_13
1002
{
1000
OWNER
1000
GEN
1002
}
1001
GENIUS_GENOENT_13
1002
{
1000
MYREF
1005
7E92
1002
}
1002
{
1000
GRP
1005
0
1002
}
1001
GENIUS_GENOLIS_13
1002
{
1000
ENT
1005
7E45
1002
}
  0
POINT
  5
7E93
330
7E0F
100
AcDbEntity
  8
0
 60
     1
100
AcDbPoint
 10
4167.979928386801
 20
4915.035208494021
 30
0.0
1001
GENIUS_GENODEF_13
1002
{
1000
HIER
1070
     1
1002
}
1002
{
1000
MANEDIT
1070
     0
1002
}
1002
{
1000
NOSEL
1070
     0
1002
}
1002
{
1000
BEHIND
1070
     0
1002
}
1002
{
1000
OTHER
1070
     0
1002
}
1002
{
1000
REACTOR
1002
}
1001
GENIUS_GENOBJ-N-CHA_13
1002
{
1000
OWNER
1000
GEN
1002
}
1001
GENIUS_GENOENT_13
1002
{
1000
MYREF
1005
7E93
1002
}
1002
{
1000
GRP
1005
0
1002
}
1001
GENIUS_GENOLIS_13
1002
{
1000
ENT
1005
7E41
1002
}
  0
LINE
  5
809F
330
7E0F
100
AcDbEntity
  8
AM_0 外形線1
100
AcDbLine
 10
0.0
 20
152.5
 30
0.0
 11
0.0
 21
157.0
 31
0.0
  0
LINE
  5
80A0
330
7E0F
100
AcDbEntity
  8
AM_0 外形線1
100
AcDbLine
 10
314.0000000000002
 20
152.5
 30
0.0
 11
314.0000000000001
 21
157.0
 31
0.0
  0
LINE
  5
9AB8
330
7E0F
100
AcDbEntity
  8
AM_0 外形線1
100
AcDbLine
 10
268.4596115461914
 20
-133.7000000000003
 30
0.0
 11
268.4596115461912
 21
0.0
 31
0.0
  0
LINE
  5
9AB9
330
7E0F
100
AcDbEntity
  8
AM_0 外形線1
100
AcDbLine
 10
45.54038845380874
 20
-133.7000000000001
 30
0.0
 11
45.54038845380887
 21
0.0
 31
0.0
  0
ENDBLK
  5
7E11
330
7E0F
100
AcDbEntity
  8
0
100
AcDbBlockEnd
  0
BLOCK
  5
8D8E
330
8D8D
100
AcDbEntity
  8
0
100
AcDbBlockBegin
  2
*D28
 70
     1
 10
0.0
 20
0.0
 30
0.0
  3
*D28
  1

  0
LINE
  5
965E
330
8D8D
100
AcDbEntity
  8
AM_5 寸法線
 62
     3
100
AcDbLine
 10
633.8333126795737
 20
743.1693561462869
 30
0.0
 11
633.8333126795737
 21
702.2080489416916
 31
0.0
  0
LINE
  5
965F
330
8D8D
100
AcDbEntity
  8
AM_5 寸法線
 62
     3
100
AcDbLine
 10
654.8333126795737
 20
743.2080489416923
 30
0.0
 11
654.8333126795737
 21
702.2080489416916
 31
0.0
  0
LINE
  5
9660
330
8D8D
100
AcDbEntity
  8
AM_5 寸法線
 62
     3
100
AcDbLine
 10
623.8333126795737
 20
704.7080489416917
 30
0.0
 11
613.8333126795737
 21
704.7080489416917
 31
0.0
  0
LINE
  5
9661
330
8D8D
100
AcDbEntity
  8
AM_5 寸法線
 62
     3
100
AcDbLine
 10
664.8333126795737
 20
704.7080489416917
 30
0.0
 11
703.6333126795738
 21
704.7080489416917
 31
0.0
  0
LINE
  5
9662
330
8D8D
100
AcDbEntity
  8
AM_5 寸法線
 62
     3
100
AcDbLine
 10
633.8333126795737
 20
704.7080489416917
 30
0.0
 11
654.8333126795737
 21
704.7080489416917
 31
0.0
  0
INSERT
  5
9663
330
8D8D
100
AcDbEntity
  8
AM_5 寸法線
 62
     3
100
AcDbBlockReference
  2
GENDOT
 10
633.8333126795737
 20
704.7080489416917
 30
0.0
 41
10.0
 42
10.0
 43
10.0
  0
INSERT
  5
9664
330
8D8D
100
AcDbEntity
  8
AM_5 寸法線
 62
     3
100
AcDbBlockReference
  2
_Open30
 10
654.8333126795737
 20
704.7080489416917
 30
0.0
 41
10.0
 42
10.0
 43
10.0
 50
180.0
  0
MTEXT
  5
9665
330
8D8D
100
AcDbEntity
  8
AM_5 寸法線
 62
     3
100
AcDbMText
 10
689.2333126795738
 20
717.7080489416916
 30
0.0
 40
14.0
 41
0.0
 46
0.0
 71
     5
 72
     1
  1
21
  7
SEISA
 73
     1
 44
1.0
  0
POINT
  5
9666
330
8D8D
100
AcDbEntity
  8
Defpoints
 62
     0
100
AcDbPoint
 10
633.8333126795737
 20
745.6693561462871
 30
0.0
  0
POINT
  5
9667
330
8D8D
100
AcDbEntity
  8
Defpoints
 62
     0
100
AcDbPoint
 10
654.8333126795737
 20
745.7080489416922
 30
0.0
  0
POINT
  5
9668
330
8D8D
100
AcDbEntity
  8
Defpoints
 62
     0
100
AcDbPoint
 10
654.8333126795737
 20
704.7080489416917
 30
0.0
  0
ENDBLK
  5
8D8F
330
8D8D
100
AcDbEntity
  8
0
100
AcDbBlockEnd
  0
BLOCK
  5
8DCB
330
8DCA
100
AcDbEntity
  8
0
100
AcDbBlockBegin
  2
*D29
 70
     1
 10
0.0
 20
0.0
 30
0.0
  3
*D29
  1

  0
LINE
  5
9669
330
8DCA
100
AcDbEntity
  8
AM_5 寸法線
 62
     3
100
AcDbLine
 10
947.8333126795739
 20
743.2418730861463
 30
0.0
 11
947.8333126795739
 21
702.2080489416915
 31
0.0
  0
LINE
  5
966A
330
8DCA
100
AcDbEntity
  8
AM_5 寸法線
 62
     3
100
AcDbLine
 10
926.8333126795738
 20
743.2080489416923
 30
0.0
 11
926.8333126795738
 21
702.2080489416915
 31
0.0
  0
LINE
  5
966B
330
8DCA
100
AcDbEntity
  8
AM_5 寸法線
 62
     3
100
AcDbLine
 10
957.8333126795739
 20
704.7080489416917
 30
0.0
 11
967.833312679574
 21
704.7080489416917
 31
0.0
  0
LINE
  5
966C
330
8DCA
100
AcDbEntity
  8
AM_5 寸法線
 62
     3
100
AcDbLine
 10
916.8333126795738
 20
704.7080489416917
 30
0.0
 11
878.0333126795737
 21
704.7080489416917
 31
0.0
  0
LINE
  5
966D
330
8DCA
100
AcDbEntity
  8
AM_5 寸法線
 62
     3
100
AcDbLine
 10
947.8333126795739
 20
704.7080489416917
 30
0.0
 11
926.8333126795738
 21
704.7080489416917
 31
0.0
  0
INSERT
  5
966E
330
8DCA
100
AcDbEntity
  8
AM_5 寸法線
 62
     3
100
AcDbBlockReference
  2
GENDOT
 10
947.8333126795739
 20
704.7080489416917
 30
0.0
 41
10.0
 42
10.0
 43
10.0
 50
180.0
  0
INSERT
  5
966F
330
8DCA
100
AcDbEntity
  8
AM_5 寸法線
 62
     3
100
AcDbBlockReference
  2
_Open30
 10
926.8333126795738
 20
704.7080489416917
 30
0.0
 41
10.0
 42
10.0
 43
10.0
  0
MTEXT
  5
9670
330
8DCA
100
AcDbEntity
  8
AM_5 寸法線
 62
     3
100
AcDbMText
 10
892.4333126795739
 20
717.7080489416916
 30
0.0
 40
14.0
 41
0.0
 46
0.0
 71
     5
 72
     1
  1
21
  7
SEISA
 73
     1
 44
1.0
  0
POINT
  5
9671
330
8DCA
100
AcDbEntity
  8
Defpoints
 62
     0
100
AcDbPoint
 10
947.8333126795739
 20
745.7418730861466
 30
0.0
  0
POINT
  5
9672
330
8DCA
100
AcDbEntity
  8
Defpoints
 62
     0
100
AcDbPoint
 10
926.8333126795738
 20
745.7080489416922
 30
0.0
  0
POINT
  5
9673
330
8DCA
100
AcDbEntity
  8
Defpoints
 62
     0
100
AcDbPoint
 10
926.8333126795738
 20
704.7080489416917
 30
0.0
  0
ENDBLK
  5
8DCC
330
8DCA
100
AcDbEntity
  8
0
100
AcDbBlockEnd
  0
BLOCK
  5
9386
330
9385
100
AcDbEntity
  8
0
100
AcDbBlockBegin
  2
*D30
 70
     1
 10
0.0
 20
0.0
 30
0.0
  3
*D30
  1

  0
LINE
  5
98EE
330
9385
100
AcDbEntity
  8
AM_0 外形線1
 62
     3
100
AcDbLine
 10
625.8333126795737
 20
986.4684504686648
 30
0.0
 11
625.8333126795737
 21
945.0641704408122
 31
0.0
  0
LINE
  5
98EF
330
9385
100
AcDbEntity
  8
AM_0 外形線1
 62
     3
100
AcDbLine
 10
633.8333126795737
 20
1029.708048941692
 30
0.0
 11
633.8333126795737
 21
945.0641704408122
 31
0.0
  0
LINE
  5
98F0
330
9385
100
AcDbEntity
  8
AM_0 外形線1
 62
     3
100
AcDbLine
 10
615.8333126795737
 20
947.5641704408122
 30
0.0
 11
605.8333126795737
 21
947.5641704408122
 31
0.0
  0
LINE
  5
98F1
330
9385
100
AcDbEntity
  8
AM_0 外形線1
 62
     3
100
AcDbLine
 10
643.8333126795737
 20
947.5641704408122
 30
0.0
 11
653.8333126795737
 21
947.5641704408122
 31
0.0
  0
MTEXT
  5
98F2
330
9385
100
AcDbEntity
  8
AM_0 外形線1
 62
     3
100
AcDbMText
 10
649.0806127273462
 20
959.2565496944015
 30
0.0
 40
14.0
 41
0.0
 46
0.0
 71
     5
 72
     1
  1
8
  7
SEISA
 73
     1
 44
1.0
  0
LINE
  5
98F3
330
9385
100
AcDbEntity
  8
AM_0 外形線1
 62
     3
100
AcDbLine
 10
625.8333126795737
 20
947.5641704408122
 30
0.0
 11
633.8333126795737
 21
947.5641704408122
 31
0.0
  0
INSERT
  5
98F4
330
9385
100
AcDbEntity
  8
AM_0 外形線1
 62
     3
100
AcDbBlockReference
  2
_Open30
 10
625.8333126795737
 20
947.5641704408122
 30
0.0
 41
10.0
 42
10.0
 43
10.0
  0
INSERT
  5
98F5
330
9385
100
AcDbEntity
  8
AM_0 外形線1
 62
     3
100
AcDbBlockReference
  2
_Open30
 10
633.8333126795737
 20
947.5641704408122
 30
0.0
 41
10.0
 42
10.0
 43
10.0
 50
180.0
  0
POINT
  5
98F6
330
9385
100
AcDbEntity
  8
Defpoints
 62
     0
100
AcDbPoint
 10
625.8333126795737
 20
988.9684504686647
 30
0.0
  0
POINT
  5
98F7
330
9385
100
AcDbEntity
  8
Defpoints
 62
     0
100
AcDbPoint
 10
633.8333126795737
 20
1032.208048941692
 30
0.0
  0
POINT
  5
98F8
330
9385
100
AcDbEntity
  8
Defpoints
 62
     0
100
AcDbPoint
 10
633.8333126795737
 20
947.5641704408122
 30
0.0
  0
ENDBLK
  5
9387
330
9385
100
AcDbEntity
  8
0
100
AcDbBlockEnd
  0
BLOCK
  5
959A
330
9599
100
AcDbEntity
  8
0
100
AcDbBlockBegin
  2
*D31
 70
     1
 10
0.0
 20
0.0
 30
0.0
  3
*D31
  1

  0
LINE
  5
9653
330
9599
100
AcDbEntity
  8
AM_5 寸法線
 62
     3
100
AcDbLine
 10
454.8333126795736
 20
1017.208048941692
 30
0.0
 11
454.8333126795736
 21
1077.208048941692
 31
0.0
  0
LINE
  5
9654
330
9599
100
AcDbEntity
  8
AM_5 寸法線
 62
     3
100
AcDbLine
 10
455.8333126795736
 20
1012.408048941692
 30
0.0
 11
455.8333126795736
 21
1077.208048941692
 31
0.0
  0
LINE
  5
9655
330
9599
100
AcDbEntity
  8
AM_5 寸法線
 62
     3
100
AcDbLine
 10
444.8333126795737
 20
1074.708048941692
 30
0.0
 11
434.8333126795736
 21
1074.708048941692
 31
0.0
  0
LINE
  5
9656
330
9599
100
AcDbEntity
  8
AM_5 寸法線
 62
     3
100
AcDbLine
 10
465.8333126795737
 20
1074.708048941692
 30
0.0
 11
490.8333126795737
 21
1074.708048941692
 31
0.0
  0
LINE
  5
9657
330
9599
100
AcDbEntity
  8
AM_5 寸法線
 62
     3
100
AcDbLine
 10
454.8333126795736
 20
1074.708048941692
 30
0.0
 11
455.8333126795736
 21
1074.708048941692
 31
0.0
  0
INSERT
  5
9658
330
9599
100
AcDbEntity
  8
AM_5 寸法線
 62
     3
100
AcDbBlockReference
  2
_Open30
 10
454.8333126795736
 20
1074.708048941692
 30
0.0
 41
10.0
 42
10.0
 43
10.0
  0
INSERT
  5
9659
330
9599
100
AcDbEntity
  8
AM_5 寸法線
 62
     3
100
AcDbBlockReference
  2
_Open30
 10
455.8333126795736
 20
1074.708048941692
 30
0.0
 41
10.0
 42
10.0
 43
10.0
 50
180.0
  0
MTEXT
  5
965A
330
9599
100
AcDbEntity
  8
AM_5 寸法線
 62
     3
100
AcDbMText
 10
483.3333126795737
 20
1087.708048941692
 30
0.0
 40
14.0
 41
0.0
 46
0.0
 71
     5
 72
     1
  1
1
  7
SEISA
 73
     1
 44
1.0
  0
POINT
  5
965B
330
9599
100
AcDbEntity
  8
Defpoints
 62
     0
100
AcDbPoint
 10
454.8333126795736
 20
1014.708048941692
 30
0.0
  0
POINT
  5
965C
330
9599
100
AcDbEntity
  8
Defpoints
 62
     0
100
AcDbPoint
 10
455.8333126795736
 20
1009.908048941692
 30
0.0
  0
POINT
  5
965D
330
9599
100
AcDbEntity
  8
Defpoints
 62
     0
100
AcDbPoint
 10
455.8333126795736
 20
1074.708048941692
 30
0.0
  0
ENDBLK
  5
959B
330
9599
100
AcDbEntity
  8
0
100
AcDbBlockEnd
  0
BLOCK
  5
973B
330
973A
100
AcDbEntity
  8
0
100
AcDbBlockBegin
  2
*D32
 70
     1
 10
0.0
 20
0.0
 30
0.0
  3
*D32
  1

  0
LINE
  5
9836
330
973A
100
AcDbEntity
  8
AM_5 寸法線
 62
     3
100
AcDbLine
 10
557.3333126795736
 20
1012.708048941692
 30
0.0
 11
557.3333126795736
 21
985.5234010545412
 31
0.0
  0
LINE
  5
9837
330
973A
100
AcDbEntity
  8
AM_5 寸法線
 62
     3
100
AcDbLine
 10
592.8333126795737
 20
1012.708048941692
 30
0.0
 11
592.8333126795737
 21
985.5234010545412
 31
0.0
  0
LINE
  5
9838
330
973A
100
AcDbEntity
  8
AM_5 寸法線
 62
     3
100
AcDbLine
 10
567.3333126795737
 20
988.0234010545413
 30
0.0
 11
582.8333126795737
 21
988.0234010545413
 31
0.0
  0
LINE
  5
9839
330
973A
100
AcDbEntity
  8
AM_5 寸法線
 62
     3
100
AcDbLine
 10
575.0833126795737
 20
988.0234010545413
 30
0.0
 11
570.7997541794492
 21
961.6011783189627
 31
0.0
  0
LINE
  5
983A
330
973A
100
AcDbEntity
  8
AM_5 寸法線
 62
     3
100
AcDbLine
 10
570.7997541794492
 20
961.6011783189627
 30
0.0
 11
520.3997541794493
 21
961.6011783189627
 31
0.0
  0
MTEXT
  5
983B
330
973A
100
AcDbEntity
  8
AM_5 寸法線
 62
     3
100
AcDbMText
 10
545.5997541794491
 20
974.6011783189626
 30
0.0
 40
14.0
 41
0.0
 46
0.0
 71
     5
 72
     1
  1
35.5
  7
SEISA
 73
     1
 44
1.0
  0
INSERT
  5
983C
330
973A
100
AcDbEntity
  8
AM_5 寸法線
 62
     3
100
AcDbBlockReference
  2
_Open30
 10
557.3333126795736
 20
988.0234010545413
 30
0.0
 41
10.0
 42
10.0
 43
10.0
 50
180.0
  0
INSERT
  5
983D
330
973A
100
AcDbEntity
  8
AM_5 寸法線
 62
     3
100
AcDbBlockReference
  2
_Open30
 10
592.8333126795737
 20
988.0234010545413
 30
0.0
 41
10.0
 42
10.0
 43
10.0
  0
POINT
  5
983E
330
973A
100
AcDbEntity
  8
Defpoints
 62
     0
100
AcDbPoint
 10
557.3333126795736
 20
1015.208048941692
 30
0.0
  0
POINT
  5
983F
330
973A
100
AcDbEntity
  8
Defpoints
 62
     0
100
AcDbPoint
 10
592.8333126795737
 20
1015.208048941692
 30
0.0
  0
POINT
  5
9840
330
973A
100
AcDbEntity
  8
Defpoints
 62
     0
100
AcDbPoint
 10
592.8333126795737
 20
988.0234010545413
 30
0.0
  0
ENDBLK
  5
973C
330
973A
100
AcDbEntity
  8
0
100
AcDbBlockEnd
  0
BLOCK
  5
975F
330
975E
100
AcDbEntity
  8
0
100
AcDbBlockBegin
  2
*D33
 70
     1
 10
0.0
 20
0.0
 30
0.0
  3
*D33
  1

  0
LINE
  5
9821
330
975E
100
AcDbEntity
  8
AM_5 寸法線
 62
     3
100
AcDbLine
 10
551.8333126795736
 20
1012.208048941692
 30
0.0
 11
551.8333126795736
 21
985.5234010545412
 31
0.0
  0
LINE
  5
9822
330
975E
100
AcDbEntity
  8
AM_5 寸法線
 62
     3
100
AcDbLine
 10
557.3333126795736
 20
1012.708048941692
 30
0.0
 11
557.3333126795736
 21
985.5234010545412
 31
0.0
  0
LINE
  5
9823
330
975E
100
AcDbEntity
  8
AM_5 寸法線
 62
     3
100
AcDbLine
 10
541.8333126795736
 20
988.0234010545413
 30
0.0
 11
531.8333126795736
 21
988.0234010545413
 31
0.0
  0
LINE
  5
9824
330
975E
100
AcDbEntity
  8
AM_5 寸法線
 62
     3
100
AcDbLine
 10
567.3333126795737
 20
988.0234010545413
 30
0.0
 11
577.3333126795737
 21
988.0234010545413
 31
0.0
  0
MTEXT
  5
9825
330
975E
100
AcDbEntity
  8
AM_5 寸法線
 62
     3
100
AcDbMText
 10
527.9655524239879
 20
999.1825212147807
 30
0.0
 40
14.0
 41
0.0
 46
0.0
 71
     5
 72
     1
  1
5.5
  7
SEISA
 73
     1
 44
1.0
  0
LINE
  5
9826
330
975E
100
AcDbEntity
  8
AM_5 寸法線
 62
     3
100
AcDbLine
 10
551.8333126795736
 20
988.0234010545413
 30
0.0
 11
557.3333126795736
 21
988.0234010545413
 31
0.0
  0
INSERT
  5
9827
330
975E
100
AcDbEntity
  8
AM_5 寸法線
 62
     3
100
AcDbBlockReference
  2
_Open30
 10
551.8333126795736
 20
988.0234010545413
 30
0.0
 41
10.0
 42
10.0
 43
10.0
  0
INSERT
  5
9828
330
975E
100
AcDbEntity
  8
AM_5 寸法線
 62
     3
100
AcDbBlockReference
  2
_Open30
 10
557.3333126795736
 20
988.0234010545413
 30
0.0
 41
10.0
 42
10.0
 43
10.0
 50
180.0
  0
POINT
  5
9829
330
975E
100
AcDbEntity
  8
Defpoints
 62
     0
100
AcDbPoint
 10
551.8333126795736
 20
1014.708048941692
 30
0.0
  0
POINT
  5
982A
330
975E
100
AcDbEntity
  8
Defpoints
 62
     0
100
AcDbPoint
 10
557.3333126795736
 20
1015.208048941692
 30
0.0
  0
POINT
  5
982B
330
975E
100
AcDbEntity
  8
Defpoints
 62
     0
100
AcDbPoint
 10
557.3333126795736
 20
988.0234010545413
 30
0.0
  0
ENDBLK
  5
9760
330
975E
100
AcDbEntity
  8
0
100
AcDbBlockEnd
  0
BLOCK
  5
97EE
330
97ED
100
AcDbEntity
  8
0
100
AcDbBlockBegin
  2
*D34
 70
     1
 10
0.0
 20
0.0
 30
0.0
  3
*D34
  1

  0
LINE
  5
980D
330
97ED
100
AcDbEntity
  8
AM_5 寸法線
 62
     3
100
AcDbLine
 10
592.8333126795737
 20
1012.710632499151
 30
0.0
 11
592.8333126795737
 21
985.5234010545418
 31
0.0
  0
LINE
  5
980E
330
97ED
100
AcDbEntity
  8
AM_5 寸法線
 62
     3
100
AcDbLine
 10
625.8333126795737
 20
1010.708048941692
 30
0.0
 11
625.8333126795737
 21
985.5234010545418
 31
0.0
  0
LINE
  5
980F
330
97ED
100
AcDbEntity
  8
AM_5 寸法線
 62
     3
100
AcDbLine
 10
602.8333126795737
 20
988.0234010545418
 30
0.0
 11
615.8333126795737
 21
988.0234010545418
 31
0.0
  0
INSERT
  5
9810
330
97ED
100
AcDbEntity
  8
AM_5 寸法線
 62
     3
100
AcDbBlockReference
  2
_Open30
 10
592.8333126795737
 20
988.0234010545418
 30
0.0
 41
10.0
 42
10.0
 43
10.0
 50
180.0
  0
INSERT
  5
9811
330
97ED
100
AcDbEntity
  8
AM_5 寸法線
 62
     3
100
AcDbBlockReference
  2
_Open30
 10
625.8333126795737
 20
988.0234010545418
 30
0.0
 41
10.0
 42
10.0
 43
10.0
  0
MTEXT
  5
9812
330
97ED
100
AcDbEntity
  8
AM_5 寸法線
 62
     3
100
AcDbMText
 10
609.3333126795737
 20
1001.023401054542
 30
0.0
 40
14.0
 41
0.0
 46
0.0
 71
     5
 72
     1
  1
33
  7
SEISA
 73
     1
 44
1.0
  0
POINT
  5
9813
330
97ED
100
AcDbEntity
  8
Defpoints
 62
     0
100
AcDbPoint
 10
592.8333126795737
 20
1015.210632499151
 30
0.0
  0
POINT
  5
9814
330
97ED
100
AcDbEntity
  8
Defpoints
 62
     0
100
AcDbPoint
 10
625.8333126795737
 20
1013.208048941692
 30
0.0
  0
POINT
  5
9815
330
97ED
100
AcDbEntity
  8
Defpoints
 62
     0
100
AcDbPoint
 10
625.8333126795737
 20
988.0234010545418
 30
0.0
  0
ENDBLK
  5
97EF
330
97ED
100
AcDbEntity
  8
0
100
AcDbBlockEnd
  0
BLOCK
  5
9891
330
9890
100
AcDbEntity
  8
0
100
AcDbBlockBegin
  2
*D35
 70
     1
 10
0.0
 20
0.0
 30
0.0
  3
*D35
  1

  0
LINE
  5
98D8
330
9890
100
AcDbEntity
  8
AM_5 寸法線
 62
     3
100
AcDbLine
 10
947.8333126795739
 20
1029.708048941692
 30
0.0
 11
947.8333126795739
 21
945.0641704408122
 31
0.0
  0
LINE
  5
98D9
330
9890
100
AcDbEntity
  8
AM_5 寸法線
 62
     3
100
AcDbLine
 10
955.8333126795735
 20
1010.708048941692
 30
0.0
 11
955.8333126795735
 21
945.0641704408122
 31
0.0
  0
LINE
  5
98DA
330
9890
100
AcDbEntity
  8
AM_5 寸法線
 62
     3
100
AcDbLine
 10
937.8333126795736
 20
947.5641704408122
 30
0.0
 11
927.8333126795738
 21
947.5641704408122
 31
0.0
  0
LINE
  5
98DB
330
9890
100
AcDbEntity
  8
AM_5 寸法線
 62
     3
100
AcDbLine
 10
965.8333126795737
 20
947.5641704408122
 30
0.0
 11
975.8333126795736
 21
947.5641704408122
 31
0.0
  0
MTEXT
  5
98DC
330
9890
100
AcDbEntity
  8
AM_5 寸法線
 62
     3
100
AcDbMText
 10
934.8680707349654
 20
958.6722243312953
 30
0.0
 40
14.0
 41
0.0
 46
0.0
 71
     5
 72
     1
  1
8
  7
SEISA
 73
     1
 44
1.0
  0
LINE
  5
98DD
330
9890
100
AcDbEntity
  8
AM_5 寸法線
 62
     3
100
AcDbLine
 10
947.8333126795739
 20
947.5641704408122
 30
0.0
 11
955.8333126795735
 21
947.5641704408122
 31
0.0
  0
INSERT
  5
98DE
330
9890
100
AcDbEntity
  8
AM_5 寸法線
 62
     3
100
AcDbBlockReference
  2
_Open30
 10
947.8333126795739
 20
947.5641704408122
 30
0.0
 41
10.0
 42
10.0
 43
10.0
  0
INSERT
  5
98DF
330
9890
100
AcDbEntity
  8
AM_5 寸法線
 62
     3
100
AcDbBlockReference
  2
_Open30
 10
955.8333126795735
 20
947.5641704408122
 30
0.0
 41
10.0
 42
10.0
 43
10.0
 50
180.0
  0
POINT
  5
98E0
330
9890
100
AcDbEntity
  8
Defpoints
 62
     0
100
AcDbPoint
 10
947.8333126795739
 20
1032.208048941692
 30
0.0
  0
POINT
  5
98E1
330
9890
100
AcDbEntity
  8
Defpoints
 62
     0
100
AcDbPoint
 10
955.8333126795735
 20
1013.208048941692
 30
0.0
  0
POINT
  5
98E2
330
9890
100
AcDbEntity
  8
Defpoints
 62
     0
100
AcDbPoint
 10
955.8333126795735
 20
947.5641704408122
 30
0.0
  0
ENDBLK
  5
9892
330
9890
100
AcDbEntity
  8
0
100
AcDbBlockEnd
  0
BLOCK
  5
996F
330
996E
100
AcDbEntity
  8
0
100
AcDbBlockBegin
  2
ケース
 70
     0
 10
0.0
 20
0.0
 30
0.0
  3
ケース
  1

  0
LINE
  5
9971
330
996E
100
AcDbEntity
  8
AM_11 想像線
 48
0.1
100
AcDbLine
 10
-20.01281566476837
 20
-16.0
 30
0.0
 11
-20.01281566476837
 21
-7.5
 31
0.0
  0
LINE
  5
9972
330
996E
100
AcDbEntity
  8
AM_11 想像線
 48
0.1
100
AcDbLine
 10
-14.01281566476837
 20
-9.139340999999943
 30
0.0
 11
-14.01281566476837
 21
-7.5
 31
0.0
  0
LINE
  5
9973
330
996E
100
AcDbEntity
  8
AM_11 想像線
 48
0.1
100
AcDbLine
 10
-36.01281566476837
 20
-4.0
 30
0.0
 11
-36.01281566476837
 21
-16.0
 31
0.0
  0
LINE
  5
9974
330
996E
100
AcDbEntity
  8
AM_11 想像線
 48
0.1
100
AcDbLine
 10
0.0
 20
-10.0
 30
0.0
 11
-16.01281566476837
 21
-10.0
 31
0.0
  0
LINE
  5
9975
330
996E
100
AcDbEntity
  8
AM_11 想像線
 48
0.1
100
AcDbLine
 10
-13.01281566476837
 20
-12.39999999999997
 30
0.0
 11
0.0
 21
-12.39999999999997
 31
0.0
  0
LINE
  5
9976
330
996E
100
AcDbEntity
  8
AM_11 想像線
 48
0.1
100
AcDbLine
 10
-33.11281566476829
 20
-10.59999999999991
 30
0.0
 11
-22.91281566476846
 21
-10.59999999999991
 31
0.0
  0
LINE
  5
9977
330
996E
100
AcDbEntity
  8
AM_11 想像線
 48
0.1
100
AcDbLine
 10
-36.01281566476837
 20
-16.0
 30
0.0
 11
-36.01281566476837
 21
-17.5
 31
0.0
  0
LINE
  5
9978
330
996E
100
AcDbEntity
  8
AM_11 想像線
 48
0.1
100
AcDbLine
 10
-33.61281566476828
 20
-16.0
 30
0.0
 11
-33.61281566476828
 21
-17.5
 31
0.0
  0
LINE
  5
9979
330
996E
100
AcDbEntity
  8
AM_11 想像線
 48
0.1
100
AcDbLine
 10
-36.01281566476837
 20
-16.0
 30
0.0
 11
-33.61281566476828
 21
-16.0
 31
0.0
  0
LINE
  5
997A
330
996E
100
AcDbEntity
  8
AM_11 想像線
 48
0.1
100
AcDbLine
 10
-33.61281566476828
 20
-16.0
 30
0.0
 11
-33.61281566476828
 21
-11.09999999999991
 31
0.0
  0
ARC
  5
997B
330
996E
100
AcDbEntity
  8
AM_11 想像線
 48
0.1
100
AcDbCircle
 10
-33.11281566476829
 20
-11.09999999999991
 30
0.0
 40
0.5
100
AcDbArc
 50
90.0
 51
180.0
  0
LINE
  5
997C
330
996E
100
AcDbEntity
  8
AM_11 想像線
 48
0.1
100
AcDbLine
 10
-22.41281566476846
 20
-16.0
 30
0.0
 11
-22.41281566476846
 21
-17.5
 31
0.0
  0
LINE
  5
997D
330
996E
100
AcDbEntity
  8
AM_11 想像線
 48
0.1
100
AcDbLine
 10
-20.01281566476837
 20
-16.0
 30
0.0
 11
-20.01281566476837
 21
-17.5
 31
0.0
  0
ARC
  5
997E
330
996E
100
AcDbEntity
  8
AM_11 想像線
 48
0.1
100
AcDbCircle
 10
-22.91281566476846
 20
-11.09999999999991
 30
0.0
 40
0.5
100
AcDbArc
 50
0.0
 51
90.0
  0
LINE
  5
997F
330
996E
100
AcDbEntity
  8
AM_11 想像線
 48
0.1
100
AcDbLine
 10
-22.41281566476846
 20
-11.09999999999991
 30
0.0
 11
-22.41281566476846
 21
-16.0
 31
0.0
  0
LINE
  5
9980
330
996E
100
AcDbEntity
  8
AM_11 想像線
 48
0.1
100
AcDbLine
 10
-22.41281566476846
 20
-16.0
 30
0.0
 11
-20.01281566476837
 21
-16.0
 31
0.0
  0
LINE
  5
9981
330
996E
100
AcDbEntity
  8
AM_11 想像線
 48
0.1
100
AcDbLine
 10
-14.01281566476837
 20
-9.139340999999943
 30
0.0
 11
-14.01281566476837
 21
-11.39999999999997
 31
0.0
  0
LINE
  5
9982
330
996E
100
AcDbEntity
  8
AM_11 想像線
 48
0.1
100
AcDbLine
 10
-14.01281566476837
 20
-11.39999999999997
 30
0.0
 11
-13.01281566476837
 21
-12.39999999999997
 31
0.0
  0
LINE
  5
9983
330
996E
100
AcDbEntity
  8
AM_11 想像線
 48
0.1
100
AcDbLine
 10
0.0
 20
-7.0
 30
0.0
 11
-14.01281566476837
 21
-7.0
 31
0.0
  0
LINE
  5
9984
330
996E
100
AcDbEntity
  8
AM_11 想像線
 48
0.1
100
AcDbLine
 10
0.0
 20
0.0
 30
0.0
 11
-32.01281566476837
 21
0.0
 31
0.0
  0
ARC
  5
9985
330
996E
100
AcDbEntity
  8
AM_11 想像線
 48
0.1
100
AcDbCircle
 10
-32.01281566476837
 20
-4.0
 30
0.0
 40
4.0
100
AcDbArc
 50
90.0
 51
180.0
  0
ARC
  5
9986
330
996E
100
AcDbEntity
  8
AM_11 想像線
 48
0.1
100
AcDbCircle
 10
-19.01281566476837
 20
-7.5
 30
0.0
 40
1.0
100
AcDbArc
 50
90.0
 51
180.0
  0
LINE
  5
9987
330
996E
100
AcDbEntity
  8
AM_11 想像線
 48
0.1
100
AcDbLine
 10
-19.01281566476837
 20
-6.5
 30
0.0
 11
-15.01281566476837
 21
-6.5
 31
0.0
  0
ARC
  5
9988
330
996E
100
AcDbEntity
  8
AM_11 想像線
 48
0.1
100
AcDbCircle
 10
-15.01281566476837
 20
-7.5
 30
0.0
 40
1.0
100
AcDbArc
 50
0.0
 51
90.0
  0
ENDBLK
  5
9970
330
996E
100
AcDbEntity
  8
0
100
AcDbBlockEnd
  0
ENDSEC
  0
SECTION
  2
ENTITIES
  0
LINE
  5
4409
330
1F
100
AcDbEntity
  8
AM_7 中心線
100
AcDbLine
 10
441.5567176795737
 20
902.208048941692
 30
0.0
 11
1139.812036679574
 21
902.208048941692
 31
0.0
  0
LINE
  5
44A9
330
1F
100
AcDbEntity
  8
AM_0 外形線1
100
AcDbLine
 10
661.8333126795737
 20
1037.208048941692
 30
0.0
 11
661.8333126795737
 21
1037.208048941692
 31
0.0
  0
LINE
  5
44B6
330
1F
100
AcDbEntity
  8
AM_0 外形線1
100
AcDbLine
 10
654.8333126795827
 20
1038.225070941696
 30
0.0
 11
654.8333126795827
 21
1037.708048941696
 31
0.0
  0
LINE
  5
44B7
330
1F
100
AcDbEntity
  8
AM_0 外形線1
100
AcDbLine
 10
652.8333126795829
 20
1040.708048941697
 30
0.0
 11
654.8333126795832
 21
1040.708048941697
 31
0.0
  0
LINE
  5
44BB
330
1F
100
AcDbEntity
  8
AM_0 外形線1
100
AcDbLine
 10
652.8333126795737
 20
1040.708048941692
 30
0.0
 11
654.8333126795737
 21
1040.708048941692
 31
0.0
  0
LINE
  5
44E5
330
1F
100
AcDbEntity
  8
AM_0 外形線1
100
AcDbLine
 10
947.8333126795735
 20
902.208048941692
 30
0.0
 11
947.8333126795735
 21
745.7080489416922
 31
0.0
  0
LINE
  5
454A
330
1F
100
AcDbEntity
  8
AM_0 外形線1
100
AcDbLine
 10
926.8333126795736
 20
1038.225070941692
 30
0.0
 11
926.8333126795736
 21
1037.708048941692
 31
0.0
  0
INSERT
  5
503D
102
{ACAD_REACTORS
330
989F
102
}
330
1F
100
AcDbEntity
  8
AM_0 外形線1
100
AcDbBlockReference
  2
センタ-1 SAM315
 10
955.8333126795735
 20
902.208048941692
 30
0.0
  0
INSERT
  5
51A2
102
{ACAD_REACTORS
330
9748
330
976D
330
97FA
102
}
330
1F
100
AcDbEntity
  8
AM_0 外形線1
100
AcDbBlockReference
  2
センタ-2 SAM315
 10
625.8333126795737
 20
902.208048941692
 30
0.0
  0
INSERT
  5
556D
330
1F
100
AcDbEntity
  8
AM_0 外形線1
100
AcDbBlockReference
  2
リーマボルト-1 SAM315 M12
 10
926.8333126795736
 20
1047.708048941692
 30
0.0
  0
INSERT
  5
5599
330
1F
100
AcDbEntity
  8
AM_0 外形線1
100
AcDbBlockReference
  2
ケースＡ-1 SAM315
 10
947.8333126795735
 20
902.208048941692
 30
0.0
  0
INSERT
  5
5691
330
1F
100
AcDbEntity
  8
AM_0 外形線1
100
AcDbBlockReference
  2
リーマボルト-2 SAM315 M12
 10
654.8333126795737
 20
1047.708048941692
 30
0.0
  0
DIMENSION
  5
5FFF
330
1F
100
AcDbEntity
  8
AM_5 寸法線
100
AcDbDimension
  2
*D15
 10
375.8333126795737
 20
789.7080489416922
 30
0.0
 11
362.8333126795736
 21
902.208048941692
 31
0.0
 70
    32
  1
%%c<>
 71
     5
 42
225.0
 73
     0
 74
     0
 75
     0
  3
SEISA$0
100
AcDbAlignedDimension
 13
514.3333126795736
 23
1014.708048941692
 33
0.0
 14
514.3333126795736
 24
789.7080489416922
 34
0.0
 50
90.0
100
AcDbRotatedDimension
1001
ACAD_DSTYLE_DIMINSPECT
1070
   396
1000
100%
1070
   395
1000

1070
   394
1070
    33
1070
   393
1070
     0
  0
DIMENSION
  5
60B5
330
1F
100
AcDbEntity
  8
AM_5 寸法線
100
AcDbDimension
  2
*D16
 10
625.8333126795737
 20
922.8524919416921
 30
0.0
 11
540.8333126795736
 21
935.8524919416922
 31
0.0
 70
    32
 71
     5
 42
170.0
 73
     0
 74
     0
 75
     0
  3
SEISA$0
100
AcDbAlignedDimension
 13
455.8333126795736
 23
902.208048941692
 33
0.0
 14
625.8333126795737
 24
902.208048941692
 34
0.0
100
AcDbRotatedDimension
  0
DIMENSION
  5
60CD
330
1F
100
AcDbEntity
  8
AM_5 寸法線
100
AcDbDimension
  2
*D17
 10
955.8333126795735
 20
922.8524919416921
 30
0.0
 11
1040.833312679573
 21
935.8524919416922
 31
0.0
 70
    32
 71
     5
 42
170.0
 73
     0
 74
     0
 75
     0
  3
SEISA$0
100
AcDbAlignedDimension
 13
1125.833312679573
 23
902.208048941692
 33
0.0
 14
955.8333126795735
 24
902.208048941692
 34
0.0
100
AcDbRotatedDimension
  0
DIMENSION
  5
633A
330
1F
100
AcDbEntity
  8
AM_5 寸法線
100
AcDbDimension
  2
*D18
 10
1205.833312679574
 20
789.7080489416922
 30
0.0
 11
1192.833312679573
 21
902.208048941692
 31
0.0
 70
    32
  1
%%c<>
 71
     5
 42
225.0
 73
     0
 74
     0
 75
     0
  3
SEISA$0
100
AcDbAlignedDimension
 13
1067.333312679574
 23
1014.708048941692
 33
0.0
 14
1067.333312679574
 24
789.7080489416922
 34
0.0
 50
90.0
100
AcDbRotatedDimension
1001
ACAD_DSTYLE_DIMINSPECT
1070
   396
1000
100%
1070
   395
1000

1070
   394
1070
    33
1070
   393
1070
     0
  0
DIMENSION
  5
6352
330
1F
100
AcDbEntity
  8
AM_5 寸法線
100
AcDbDimension
  2
*D19
 10
1245.833312679574
 20
772.2080489416923
 30
0.0
 11
1232.833312679573
 21
902.208048941692
 31
0.0
 70
    32
  1
%%c<>
 71
     5
 42
260.0
 73
     0
 74
     0
 75
     0
  3
SEISA$0
100
AcDbAlignedDimension
 13
1041.833312679574
 23
1032.208048941692
 33
0.0
 14
1041.833312679574
 24
772.2080489416923
 34
0.0
 50
90.0
100
AcDbRotatedDimension
1001
ACAD_DSTYLE_DIMINSPECT
1070
   396
1000
100%
1070
   395
1000

1070
   394
1070
    33
1070
   393
1070
     0
  0
DIMENSION
  5
636A
330
1F
100
AcDbEntity
  8
AM_5 寸法線
100
AcDbDimension
  2
*D20
 10
1285.833312679574
 20
744.708048941692
 30
0.0
 11
1272.833312679573
 21
902.208048941692
 31
0.0
 70
    32
  1
%%c<>
 71
     5
 42
315.0
 73
     0
 74
     0
 75
     0
  3
SEISA$0
100
AcDbAlignedDimension
 13
967.8333126795736
 23
1059.708048941692
 33
0.0
 14
967.8333126795736
 24
744.7080489416922
 34
0.0
 50
90.0
100
AcDbRotatedDimension
1001
ACAD_DSTYLE_DIMINSPECT
1070
   396
1000
100%
1070
   395
1000

1070
   394
1070
    33
1070
   393
1070
     0
  0
DIMENSION
  5
6431
330
1F
100
AcDbEntity
  8
AM_5 寸法線
100
AcDbDimension
  2
*D21
 10
612.8333126795737
 20
704.7080489416922
 30
0.0
 11
578.4333126795737
 21
717.7080489416923
 31
0.0
 70
    32
 71
     5
 42
21.0
 73
     0
 74
     0
 75
     0
  3
SEISA$0
100
AcDbAlignedDimension
 13
633.8333126795737
 23
745.7080489416922
 33
0.0
 14
612.8333126795737
 24
745.7080489416922
 34
0.0
100
AcDbRotatedDimension
1001
ACAD_DSTYLE_DIMINSPECT
1070
   396
1000
100%
1070
   395
1000

1070
   394
1070
    33
1070
   393
1070
     0
1001
ACAD
1000
DSTYLE
1002
{
1070
   173
1070
     1
1070
   342
1005
0
1070
   343
1005
3A6F
1070
   344
1005
69
1002
}
  0
DIMENSION
  5
6485
330
1F
100
AcDbEntity
  8
AM_5 寸法線
100
AcDbDimension
  2
*D22
 10
968.8333126795736
 20
704.7080489416922
 30
0.0
 11
1003.233312679573
 21
717.7080489416923
 31
0.0
 70
    32
 71
     5
 42
20.99999999999988
 73
     0
 74
     0
 75
     0
  3
SEISA$0
100
AcDbAlignedDimension
 13
947.8333126795735
 23
745.7080489416922
 33
0.0
 14
968.8333126795736
 24
745.7080489416922
 34
0.0
100
AcDbRotatedDimension
1001
ACAD_DSTYLE_DIMINSPECT
1070
   396
1000
100%
1070
   395
1000

1070
   394
1070
    33
1070
   393
1070
     0
1001
ACAD
1000
DSTYLE
1002
{
1070
   173
1070
     1
1070
   342
1005
0
1070
   343
1005
3A6F
1070
   344
1005
69
1002
}
  0
DIMENSION
  5
64A1
330
1F
100
AcDbEntity
  8
AM_5 寸法線
100
AcDbDimension
  2
*D23
 10
535.8333126795736
 20
664.7080489416921
 30
0.0
 11
495.8333126795737
 21
677.7080489416921
 31
0.0
 70
    32
 71
     5
 42
80.0
 73
     0
 74
     0
 75
     0
  3
SEISA$0
100
AcDbAlignedDimension
 13
455.8333126795736
 23
794.5080489416922
 33
0.0
 14
535.8333126795736
 24
776.2080489416923
 34
0.0
100
AcDbRotatedDimension
  0
DIMENSION
  5
64C2
330
1F
100
AcDbEntity
  8
AM_5 寸法線
100
AcDbDimension
  2
*D24
 10
633.8333126795737
 20
664.7080489416921
 30
0.0
 11
584.8333126795737
 21
677.7080489416921
 31
0.0
 70
    32
 71
     5
 42
98.0
 73
     0
 74
     0
 75
     0
  3
SEISA$0
100
AcDbAlignedDimension
 13
535.8333126795736
 23
776.2080489416923
 33
0.0
 14
633.8333126795737
 24
745.7080489416922
 34
0.0
100
AcDbRotatedDimension
  0
DIMENSION
  5
64F2
330
1F
100
AcDbEntity
  8
AM_5 寸法線
100
AcDbDimension
  2
*D25
 10
1045.833312679574
 20
664.7080489416921
 30
0.0
 11
996.8333126795736
 21
677.7080489416921
 31
0.0
 70
    32
 71
     5
 42
98.0
 73
     0
 74
     0
 75
     0
  3
SEISA$0
100
AcDbAlignedDimension
 13
947.8333126795735
 23
745.7080489416922
 33
0.0
 14
1045.833312679574
 24
776.2080489416923
 34
0.0
100
AcDbRotatedDimension
  0
DIMENSION
  5
650A
330
1F
100
AcDbEntity
  8
AM_5 寸法線
100
AcDbDimension
  2
*D26
 10
1125.833312679573
 20
664.7080489416921
 30
0.0
 11
1085.833312679574
 21
677.7080489416921
 31
0.0
 70
    32
 71
     5
 42
80.0
 73
     0
 74
     0
 75
     0
  3
SEISA$0
100
AcDbAlignedDimension
 13
1045.833312679574
 23
776.2080489416923
 33
0.0
 14
1125.833312679573
 24
794.5080489416922
 34
0.0
100
AcDbRotatedDimension
  0
INSERT
  5
7E94
102
{ACAD_REACTORS
330
989F
102
}
330
1F
100
AcDbEntity
  8
AM_0 外形線1
100
AcDbBlockReference
  2
ＧＣスペーサ SAMY315
 10
633.8333126795737
 20
902.208048941692
 30
0.0
  0
DIMENSION
  5
8D8C
330
1F
100
AcDbEntity
  8
AM_5 寸法線
100
AcDbDimension
  2
*D28
 10
654.8333126795737
 20
704.7080489416917
 30
0.0
 11
689.2333126795738
 21
717.7080489416916
 31
0.0
 70
    32
 71
     5
 42
21.00000000000012
 73
     0
 74
     0
 75
     0
  3
SEISA$0
100
AcDbAlignedDimension
 13
633.8333126795737
 23
745.6693561462871
 33
0.0
 14
654.8333126795737
 24
745.7080489416922
 34
0.0
 50
0.0000000000000114
100
AcDbRotatedDimension
1001
ACAD_DSTYLE_DIMINSPECT
1070
   396
1000
100%
1070
   395
1000

1070
   394
1070
    33
1070
   393
1070
     0
1001
ACAD
1000
DSTYLE
1002
{
1070
   173
1070
     1
1070
   342
1005
0
1070
   343
1005
3A6F
1070
   344
1005
69
1002
}
  0
DIMENSION
  5
8DC9
330
1F
100
AcDbEntity
  8
AM_5 寸法線
100
AcDbDimension
  2
*D29
 10
926.8333126795738
 20
704.7080489416917
 30
0.0
 11
892.4333126795739
 21
717.7080489416916
 31
0.0
 70
    32
 71
     5
 42
21.00000000000012
 73
     0
 74
     0
 75
     0
  3
SEISA$0
100
AcDbAlignedDimension
 13
947.8333126795739
 23
745.7418730861466
 33
0.0
 14
926.8333126795738
 24
745.7080489416922
 34
0.0
 50
0.0000000000000114
100
AcDbRotatedDimension
1001
ACAD_DSTYLE_DIMINSPECT
1070
   396
1000
100%
1070
   395
1000

1070
   394
1070
    33
1070
   393
1070
     0
1001
ACAD
1000
DSTYLE
1002
{
1070
   173
1070
     1
1070
   342
1005
0
1070
   343
1005
3A6F
1070
   344
1005
69
1002
}
  0
DIMENSION
  5
9384
330
1F
100
AcDbEntity
  8
AM_0 外形線1
100
AcDbDimension
  2
*D30
 10
633.8333126795737
 20
947.5641704408122
 30
0.0
 11
649.0806127273462
 21
959.2565496944015
 31
0.0
 70
   160
 71
     5
 42
8.0
 73
     0
 74
     0
 75
     0
  3
SEISA$0
100
AcDbAlignedDimension
 13
625.8333126795737
 23
988.9684504686647
 33
0.0
 14
633.8333126795737
 24
1032.208048941692
 34
0.0
100
AcDbRotatedDimension
1001
ACAD
1000
DSTYLE
1002
{
1070
   279
1070
     2
1002
}
  0
MTEXT
  5
9557
330
1F
100
AcDbEntity
  8
AM_6 文字
100
AcDbMText
 10
1160.749959854539
 20
717.6265808871511
 30
0.0
 40
14.0
 41
214.9367877702784
 46
35.45459589352106
 71
     1
 72
     5
  1
{\W0.6;TYPE:SAM315/SAMH315\PSHAFT DIA:MAX/MIN φ160/φ100}
  7
SEISA
 73
     1
 44
1.0
  0
DIMENSION
  5
9598
330
1F
100
AcDbEntity
  8
AM_5 寸法線
100
AcDbDimension
  2
*D31
 10
455.8333126795736
 20
1074.708048941692
 30
0.0
 11
483.3333126795737
 21
1087.708048941692
 31
0.0
 70
    32
 71
     5
 42
-1.0
 73
     0
 74
     0
 75
     0
  3
SEISA$0
100
AcDbAlignedDimension
 13
454.8333126795736
 23
1014.708048941692
 33
0.0
 14
455.8333126795736
 24
1009.908048941692
 34
0.0
100
AcDbRotatedDimension
1001
ACAD_DSTYLE_DIMINSPECT
1070
   396
1000
100%
1070
   395
1000

1070
   394
1070
    33
1070
   393
1070
     0
  0
DIMENSION
  5
9739
102
{ACAD_XDICTIONARY
360
9747
102
}
102
{ACAD_REACTORS
330
9748
102
}
330
1F
100
AcDbEntity
  8
AM_5 寸法線
100
AcDbDimension
  2
*D32
 10
592.8333126795737
 20
988.0234010545413
 30
0.0
 11
564.7997541794492
 21
961.6011783189627
 31
0.0
 70
   160
 71
     5
 42
35.5
 73
     0
 74
     0
 75
     0
  3
SEISA$0
100
AcDbAlignedDimension
 13
557.3333126795736
 23
1015.208048941692
 33
0.0
 14
592.8333126795737
 24
1015.208048941692
 34
0.0
 50
0.0000000000001132
100
AcDbRotatedDimension
1001
ACAD_DSTYLE_DIMINSPECT
1070
   396
1000
100%
1070
   395
1000

1070
   394
1070
    33
1070
   393
1070
     0
1001
ACAD
1000
DSTYLE
1002
{
1070
   279
1070
     1
1002
}
  0
DIMENSION
  5
975D
102
{ACAD_XDICTIONARY
360
976C
102
}
102
{ACAD_REACTORS
330
976D
102
}
330
1F
100
AcDbEntity
  8
AM_5 寸法線
100
AcDbDimension
  2
*D33
 10
557.3333126795736
 20
988.0234010545413
 30
0.0
 11
527.9655524239879
 21
986.1825212147808
 31
0.0
 70
   160
 71
     5
 42
5.5
 73
     0
 74
     0
 75
     0
  3
SEISA$0
100
AcDbAlignedDimension
 13
551.8333126795736
 23
1014.708048941692
 33
0.0
 14
557.3333126795736
 24
1015.208048941692
 34
0.0
100
AcDbRotatedDimension
1001
ACAD
1000
DSTYLE
1002
{
1070
   279
1070
     1
1002
}
  0
DIMENSION
  5
97EC
102
{ACAD_XDICTIONARY
360
97F9
102
}
102
{ACAD_REACTORS
330
97FA
102
}
330
1F
100
AcDbEntity
  8
AM_5 寸法線
100
AcDbDimension
  2
*D34
 10
625.8333126795737
 20
988.0234010545418
 30
0.0
 11
609.3333126795737
 21
1001.023401054542
 31
0.0
 70
    32
 71
     5
 42
33.0
 73
     0
 74
     0
 75
     0
  3
SEISA$0
100
AcDbAlignedDimension
 13
592.8333126795737
 23
1015.210632499151
 33
0.0
 14
625.8333126795737
 24
1013.208048941692
 34
0.0
 50
0.0000000000001132
100
AcDbRotatedDimension
1001
ACAD_DSTYLE_DIMINSPECT
1070
   396
1000
100%
1070
   395
1000

1070
   394
1070
    33
1070
   393
1070
     0
  0
DIMENSION
  5
988F
102
{ACAD_XDICTIONARY
360
989E
102
}
102
{ACAD_REACTORS
330
989F
102
}
330
1F
100
AcDbEntity
  8
AM_5 寸法線
100
AcDbDimension
  2
*D35
 10
955.8333126795735
 20
947.5641704408122
 30
0.0
 11
934.8680707349654
 21
958.6722243312953
 31
0.0
 70
   160
 71
     5
 42
7.999999999999772
 73
     0
 74
     0
 75
     0
  3
SEISA$0
100
AcDbAlignedDimension
 13
947.8333126795739
 23
1032.208048941692
 33
0.0
 14
955.8333126795735
 24
1013.208048941692
 34
0.0
 50
0.0000000000001132
100
AcDbRotatedDimension
1001
ACAD_DSTYLE_DIMINSPECT
1070
   396
1000
100%
1070
   395
1000

1070
   394
1070
    33
1070
   393
1070
     0
1001
ACAD
1000
DSTYLE
1002
{
1070
   279
1070
     2
1002
}
  0
INSERT
  5
9989
330
1F
100
AcDbEntity
  8
AM_0 外形線1
100
AcDbBlockReference
  2
ケース
 10
490.8461283443421
 20
1032.208048941692
 30
0.0
  0
ENDSEC
  0
SECTION
  2
OBJECTS
  0
DICTIONARY
  5
C
330
0
100
AcDbDictionary
281
     1
  3
ACAD_COLOR
350
C5
  3
ACAD_GROUP
350
D
  3
ACAD_LAYOUT
350
1A
  3
ACAD_MATERIAL
350
C4
  3
ACAD_MLEADERSTYLE
350
2D5
  3
ACAD_MLINESTYLE
350
17
  3
ACAD_PLOTSETTINGS
350
19
  3
ACAD_PLOTSTYLENAME
350
E
  3
ACAD_SCALELIST
350
2B3
  3
ACAD_TABLESTYLE
350
121
  3
ACAD_VISUALSTYLE
350
27F
  3
ACDB_RECOMPOSE_DATA
350
2F7
  3
AcDbVariableDictionary
350
34
  3
AcmDictionary
350
49
  3
AMG
350
2B
  3
AMGSNAPSETTINGS
350
1DE
  0
DICTIONARY
  5
BF
330
2
100
AcDbDictionary
280
     1
281
     1
  3
ACAD_LAYERSTATES
360
2E38
  3
AMLAYER_GROUPCOLORS
360
C0
  0
DICTIONARY
  5
29F7
330
10
100
AcDbDictionary
280
     1
281
     1
  3
ADSK_XREC_LAYER_RECONCILED
360
29F8
  0
DICTIONARY
  5
29F9
330
81
100
AcDbDictionary
280
     1
281
     1
  3
ADSK_XREC_LAYER_RECONCILED
360
29FA
  0
DICTIONARY
  5
7861
330
7860
100
AcDbDictionary
280
     1
281
     1
  0
DICTIONARY
  5
82
330
1F
100
AcDbDictionary
280
     1
281
     1
  3
ACAD_SORTENTS
360
A41
  0
DICTIONARY
  5
4C5E
330
3B0F
100
AcDbDictionary
280
     1
281
     1
  3
ACAD_SORTENTS
360
6F91
  0
DICTIONARY
  5
4E0B
330
4CFF
100
AcDbDictionary
280
     1
281
     1
  3
ACAD_SORTENTS
360
6EF9
  0
DICTIONARY
  5
4F61
330
4E8C
100
AcDbDictionary
280
     1
281
     1
  3
ACAD_SORTENTS
360
700A
  0
DICTIONARY
  5
508B
330
5015
100
AcDbDictionary
280
     1
281
     1
  3
ACAD_SORTENTS
360
9738
  0
DICTIONARY
  5
5A95
330
517A
100
AcDbDictionary
280
     1
281
     1
  3
ACAD_SORTENTS
360
96EE
  0
DICTIONARY
  5
55D1
330
553F
100
AcDbDictionary
280
     1
281
     1
  3
ACAD_SORTENTS
360
7307
  0
DICTIONARY
  5
56F6
330
5668
100
AcDbDictionary
280
     1
281
     1
  3
ACAD_SORTENTS
360
7364
  0
DICTIONARY
  5
7F99
330
7E0F
100
AcDbDictionary
280
     1
281
     1
  3
ACAD_SORTENTS
360
9AE8
  0
DICTIONARY
  5
9747
330
9739
100
AcDbDictionary
280
     1
281
     1
  3
ACAD_DIMASSOC
360
9748
  0
DICTIONARY
  5
976C
330
975D
100
AcDbDictionary
280
     1
281
     1
  3
ACAD_DIMASSOC
360
976D
  0
DICTIONARY
  5
97F9
330
97EC
100
AcDbDictionary
280
     1
281
     1
  3
ACAD_DIMASSOC
360
97FA
  0
DICTIONARY
  5
989E
330
988F
100
AcDbDictionary
280
     1
281
     1
  3
ACAD_DIMASSOC
360
989F
  0
DICTIONARY
  5
C5
102
{ACAD_REACTORS
330
C
102
}
330
C
100
AcDbDictionary
281
     1
  0
DICTIONARY
  5
D
102
{ACAD_REACTORS
330
C
102
}
330
C
100
AcDbDictionary
281
     1
  0
DICTIONARY
  5
1A
102
{ACAD_REACTORS
330
C
102
}
330
C
100
AcDbDictionary
281
     1
  3
Model
350
22
  3
レイアウト1
350
1E
  3
レイアウト2
350
26
  0
DICTIONARY
  5
C4
102
{ACAD_REACTORS
330
C
102
}
330
C
100
AcDbDictionary
281
     1
  3
ByBlock
350
27D
  3
ByLayer
350
27C
  3
Global
350
27E
  0
DICTIONARY
  5
2D5
102
{ACAD_REACTORS
330
C
102
}
330
C
100
AcDbDictionary
281
     1
  3
Standard
350
2D6
  0
DICTIONARY
  5
17
102
{ACAD_REACTORS
330
C
102
}
330
C
100
AcDbDictionary
281
     1
  3
Standard
350
18
  0
DICTIONARY
  5
19
102
{ACAD_REACTORS
330
C
102
}
330
C
100
AcDbDictionary
281
     1
  3
SEISA基本
350
1C7E
  0
ACDBDICTIONARYWDFLT
  5
E
102
{ACAD_REACTORS
330
C
102
}
330
C
100
AcDbDictionary
281
     1
  3
Normal
350
F
100
AcDbDictionaryWithDefault
340
F
  0
DICTIONARY
  5
2B3
102
{ACAD_REACTORS
330
C
102
}
330
C
100
AcDbDictionary
281
     1
  3
*A1
350
3B4B
  3
*A2
350
9545
  3
A0
350
2B4
  3
A1
350
2B5
  3
A2
350
2B6
  3
A3
350
2B7
  3
A4
350
2B8
  3
A5
350
2B9
  3
A6
350
2BA
  3
A7
350
2BB
  3
A8
350
2BC
  3
A9
350
2BD
  3
B0
350
2BE
  3
B1
350
2BF
  3
B2
350
2C0
  3
B3
350
2C1
  3
B4
350
2C2
  3
B5
350
2C3
  3
B6
350
2C4
  3
B7
350
2C5
  3
B8
350
2C6
  3
B9
350
2C7
  3
C0
350
2C8
  3
C1
350
2C9
  3
C2
350
2CA
  3
C3
350
2CB
  3
C4
350
2CC
  3
C5
350
2CD
  3
C6
350
2CE
  3
C7
350
2CF
  3
C8
350
2D0
  3
C9
350
2D1
  3
D0
350
2D2
  3
D1
350
2D3
  3
D2
350
2D4
  0
DICTIONARY
  5
121
102
{ACAD_REACTORS
330
C
102
}
330
C
100
AcDbDictionary
281
     1
  3
Standard
350
122
  0
DICTIONARY
  5
27F
102
{ACAD_REACTORS
330
C
102
}
330
C
100
AcDbDictionary
281
     1
  3
2dWireframe
350
285
  3
3D Hidden
350
287
  3
3dWireframe
350
286
  3
Basic
350
284
  3
Brighten
350
28B
  3
ColorChange
350
28F
  3
Conceptual
350
288
  3
Dim
350
28A
  3
Facepattern
350
28E
  3
Flat
350
280
  3
FlatWithEdges
350
281
  3
Gouraud
350
282
  3
GouraudWithEdges
350
283
  3
Linepattern
350
28D
  3
Realistic
350
289
  3
Thicken
350
28C
  0
XRECORD
  5
2F7
102
{ACAD_REACTORS
330
C
102
}
330
C
100
AcDbXrecord
280
     1
 90
        1
330
122
  0
DICTIONARY
  5
34
102
{ACAD_REACTORS
330
C
102
}
330
C
100
AcDbDictionary
281
     1
  3
CANNOSCALE
350
2FA
  3
CMLEADERSTYLE
350
2F8
  3
CTABLESTYLE
350
140
  3
DIMASSOC
350
AC
  3
INDEXCTL
350
35
  3
LAYEREVAL
350
6C71
  3
LAYERNOTIFY
350
6C72
  3
LIGHTINGUNITS
350
2FB
  3
MSLTSCALE
350
2F9
  0
DICTIONARY
  5
49
102
{ACAD_REACTORS
330
C
102
}
330
C
100
AcDbDictionary
281
     1
  3
AcmBOM
350
161B
  3
AcmStdDictionary
350
4A
  3
AMDTSECTSYM_ARROWCOLOR
350
12B
  0
DICTIONARY
  5
2B
102
{ACAD_REACTORS
330
C
102
}
330
C
100
AcDbDictionary
281
     1
  0
DICTIONARY
  5
1DE
102
{ACAD_REACTORS
330
C
102
}
330
C
100
AcDbDictionary
281
     1
  0
DICTIONARY
  5
2E38
102
{ACAD_REACTORS
330
BF
102
}
330
BF
100
AcDbDictionary
281
     1
  0
DICTIONARY
  5
C0
102
{ACAD_REACTORS
330
BF
102
}
330
BF
100
AcDbDictionary
280
     1
281
     1
  0
XRECORD
  5
29F8
102
{ACAD_REACTORS
330
29F7
102
}
330
29F7
100
AcDbXrecord
280
     1
290
     1
  0
XRECORD
  5
29FA
102
{ACAD_REACTORS
330
29F9
102
}
330
29F9
100
AcDbXrecord
280
     1
290
     1
  0
SORTENTSTABLE
  5
A41
102
{ACAD_REACTORS
330
82
102
}
330
82
100
AcDbSortentsTable
330
1F
331
9598
  5
9598
331
8DC9
  5
8DC9
331
556D
  5
5AD7
331
650A
  5
650A
331
636A
  5
636A
331
6485
  5
6485
331
64A1
  5
64A1
331
503D
  5
556D
331
44E5
  5
44E5
331
44B6
  5
44B6
331
60B5
  5
60B5
331
5691
  5
5AD9
331
5599
  5
5AD8
331
60CD
  5
60CD
331
44B7
  5
44B7
331
64C2
  5
64C2
331
454A
  5
454A
331
44BB
  5
44BB
331
8D8C
  5
8D8C
331
9557
  5
9557
331
64F2
  5
64F2
331
5FFF
  5
5FFF
331
4409
  5
4409
331
633A
  5
633A
331
7E94
  5
7E94
331
51A2
  5
5599
331
44A9
  5
44A9
331
9384
  5
9384
331
6431
  5
6431
331
6352
  5
6352
  0
SORTENTSTABLE
  5
6F91
102
{ACAD_REACTORS
330
4C5E
102
}
330
4C5E
100
AcDbSortentsTable
330
3B0F
  0
SORTENTSTABLE
  5
6EF9
102
{ACAD_REACTORS
330
4E0B
102
}
330
4E0B
100
AcDbSortentsTable
330
4CFF
331
4D2D
  5
4D2F
331
4D3C
  5
4D3E
331
4E09
  5
4D2C
331
4D35
  5
4D37
331
4D30
  5
4D32
331
4D3F
  5
4E09
331
4D3A
  5
4D3C
331
4D33
  5
4D35
331
4D2E
  5
4D30
331
4D3D
  5
4D3F
331
4D38
  5
4D3A
331
4E0A
  5
4D2D
331
4D36
  5
4D38
331
4D31
  5
4D33
331
4D2C
  5
4D2E
331
4D3B
  5
4D3D
331
4E08
  5
4E0A
331
4D34
  5
4D36
331
4D2F
  5
4D31
331
4D3E
  5
4E08
331
4D39
  5
4D3B
331
4D37
  5
4D39
331
4D32
  5
4D34
  0
SORTENTSTABLE
  5
700A
102
{ACAD_REACTORS
330
4F61
102
}
330
4F61
100
AcDbSortentsTable
330
4E8C
  0
SORTENTSTABLE
  5
9738
102
{ACAD_REACTORS
330
508B
102
}
330
508B
100
AcDbSortentsTable
330
5015
331
502D
  5
5030
331
5026
  5
5028
331
5035
  5
5037
331
503A
  5
9718
331
501D
  5
5020
331
502C
  5
502F
331
5025
  5
5027
331
5034
  5
5036
331
501C
  5
501E
331
502B
  5
502D
331
5024
  5
5026
331
5033
  5
5035
331
5038
  5
9717
331
501B
  5
501D
331
502A
  5
502C
331
5023
  5
5025
331
5032
  5
5034
331
501A
  5
501C
331
5029
  5
502B
331
5031
  5
5033
331
5019
  5
501B
331
5028
  5
502A
331
5021
  5
5024
331
5030
  5
5032
331
5018
  5
501A
331
9718
  5
5019
331
5020
  5
5023
331
502F
  5
5031
331
5037
  5
503A
331
9717
  5
5018
331
5027
  5
5029
331
5036
  5
5038
331
501E
  5
5021
  0
SORTENTSTABLE
  5
96EE
102
{ACAD_REACTORS
330
5A95
102
}
330
5A95
100
AcDbSortentsTable
330
517A
331
5186
  5
5189
331
517F
  5
5183
331
519C
  5
96CB
331
518F
  5
5193
331
5182
  5
5185
331
5198
  5
519B
331
518B
  5
518E
331
5194
  5
5197
331
96EC
  5
517E
331
5187
  5
518A
331
519D
  5
96EC
331
5190
  5
5194
331
5183
  5
5186
331
5199
  5
519C
331
518C
  5
518F
331
5195
  5
5198
331
96ED
  5
517D
331
5188
  5
518B
331
5184
  5
5187
331
517D
  5
5181
331
519A
  5
519D
331
518D
  5
5190
331
5196
  5
5199
331
5189
  5
518C
331
519F
  5
96ED
331
5192
  5
5195
331
96CB
  5
517F
331
517E
  5
5182
331
5185
  5
5188
331
519B
  5
519F
331
518E
  5
5192
331
5181
  5
5184
331
5197
  5
519A
331
518A
  5
518D
331
5193
  5
5196
  0
SORTENTSTABLE
  5
7307
102
{ACAD_REACTORS
330
55D1
102
}
330
55D1
100
AcDbSortentsTable
330
553F
  0
SORTENTSTABLE
  5
7364
102
{ACAD_REACTORS
330
56F6
102
}
330
56F6
100
AcDbSortentsTable
330
5668
  0
SORTENTSTABLE
  5
9AE8
102
{ACAD_REACTORS
330
7F99
102
}
330
7F99
100
AcDbSortentsTable
330
7E0F
331
7E63
  5
7E64
331
7E59
  5
7E5A
331
7E78
  5
7E7C
331
7E61
  5
7E62
331
7E76
  5
7E78
331
7E55
  5
7E56
331
7E74
  5
7E75
331
7E51
  5
7E52
331
7E70
  5
7E71
331
80A0
  5
7E4F
331
7E4F
  5
7E50
331
7E87
  5
7E89
331
7E88
  5
809F
331
7E85
  5
7E87
331
7E6E
  5
7E6F
331
7E83
  5
7E85
331
7E81
  5
7E83
331
7E6C
  5
7E6D
331
7E6A
  5
7E6B
331
7E7F
  5
7E81
331
7E5E
  5
7E5F
331
7E68
  5
7E69
331
7E5C
  5
7E5D
331
7E7B
  5
7E7E
331
7E66
  5
7E67
331
7E5A
  5
7E5B
331
7E64
  5
7E65
331
809F
  5
7E76
331
7E62
  5
7E63
331
7E58
  5
7E59
331
7E77
  5
7E7B
331
7E60
  5
7E61
331
7E56
  5
7E58
331
7E75
  5
7E77
331
7E73
  5
7E74
331
7E52
  5
7E55
331
7E71
  5
7E73
331
7E50
  5
7E51
331
7E86
  5
7E88
331
7E89
  5
80A0
331
7E84
  5
7E86
331
7E6F
  5
7E70
331
7E6D
  5
7E6E
331
7E82
  5
7E84
331
7E6B
  5
7E6C
331
7E80
  5
7E82
331
7E69
  5
7E6A
331
7E7E
  5
7E80
331
7E5F
  5
7E60
331
7E67
  5
7E68
331
7E7C
  5
7E7F
331
7E5D
  5
7E5E
331
7E5B
  5
7E5C
331
7E65
  5
7E66
  0
DIMASSOC
  5
9748
102
{ACAD_REACTORS
330
9747
102
}
330
9747
100
AcDbDimAssoc
330
9739
 90
        3
 70
     0
 71
     0
  1
AcDbOsnapPointRef
 72
    13
331
51A2
331
5193
 73
     0
 91
        0
 40
0.0
 10
0.0
 20
0.0
 30
2.000000000000000E+50
 75
     0
  1
AcDbOsnapPointRef
 72
     8
331
51A2
331
5196
 73
     0
 91
        0
 40
0.9397120914755671
 10
0.0
 20
0.0
 30
0.0
 75
     1
  1
AcDbOsnapPointRef
 72
    13
331
51A2
331
5193
 73
     0
 91
        0
 40
0.0
 10
0.0
 20
0.0
 30
2.000000000000000E+50
 75
     0
  0
DIMASSOC
  5
976D
102
{ACAD_REACTORS
330
976C
102
}
330
976C
100
AcDbDimAssoc
330
975D
 90
        2
 70
     0
 71
     0
  1
AcDbOsnapPointRef
 72
    13
331
51A2
331
5193
 73
     0
 91
        0
 40
0.0
 10
0.0
 20
0.0
 30
2.000000000000000E+50
 75
     0
  0
DIMASSOC
  5
97FA
102
{ACAD_REACTORS
330
97F9
102
}
330
97F9
100
AcDbDimAssoc
330
97EC
 90
        2
 70
     0
 71
     0
  1
AcDbOsnapPointRef
 72
     1
331
51A2
331
519D
 73
     0
 91
        0
 40
0.0
 10
0.0
 20
0.0
 30
2.000000000000000E+50
 75
     0
  0
DIMASSOC
  5
989F
102
{ACAD_REACTORS
330
989E
102
}
330
989E
100
AcDbDimAssoc
330
988F
 90
        3
 70
     0
 71
     0
  1
AcDbOsnapPointRef
 72
    13
331
7E94
331
7E4E
 73
     0
 91
        0
 40
0.0
 10
0.0
 20
0.0
 30
2.000000000000000E+50
 75
     0
  1
AcDbOsnapPointRef
 72
    13
331
503D
331
5024
 73
     0
 91
        0
 40
0.0
 10
0.0
 20
0.0
 30
2.000000000000000E+50
 75
     0
  0
LAYOUT
  5
22
102
{ACAD_REACTORS
330
1A
102
}
330
1A
100
AcDbPlotSettings
  1

  2
KONICA MINOLTA 501 PCL
  4
A4
  6

 40
5.027082920074462
 41
5.027085781097412
 42
5.027069091796875
 43
5.027069091796875
 44
209.9733276367186
 45
296.9259948730469
 46
38.62134675330568
 47
0.0
 48
0.0
 49
0.0
140
0.0
141
0.0
142
1.0
143
3.527918760157422
 70
 11956
 72
     1
 73
     1
 74
     1
  7
SEISA.ctb
 75
     0
147
0.2834532391430063
 76
     0
 77
     2
 78
   300
148
-355.7592824351987
149
-661.9779102876377
100
AcDbLayout
  1
Model
 70
     1
 71
     0
 10
0.0
 20
0.0
 11
12.0
 21
9.0
 12
0.0
 22
0.0
 32
0.0
 14
0.0
 24
0.0
 34
0.0
 15
0.0
 25
0.0
 35
0.0
146
0.0
 13
0.0
 23
0.0
 33
0.0
 16
1.0
 26
0.0
 36
0.0
 17
0.0
 27
1.0
 37
0.0
 76
     0
330
1F
331
27A
1001
ACAD_PSEXT
1000
KONICA MINOLTA 501 PCL
1000
KONICA MINOLTA 501/421/361PCL
1000
IP_192.168.20.231_(1)
1000

1070
     0
  0
LAYOUT
  5
1E
102
{ACAD_REACTORS
330
1A
102
}
330
1A
100
AcDbPlotSettings
  1

  2
none_device
  4
Letter_(8.50_x_11.00_Inches)
  6

 40
6.349999904632567
 41
6.349999904632567
 42
6.350006103515625
 43
6.350006103515625
 44
215.8999938964844
 45
279.3999938964844
 46
0.0
 47
0.0
 48
0.0
 49
0.0
140
0.0
141
0.0
142
1.0
143
1.0
 70
 15024
 72
     1
 73
     1
 74
     5
  7
SEISA.ctb
 75
    16
147
1.0
 76
     0
 77
     2
 78
   300
148
0.0
149
0.0
100
AcDbLayout
  1
レイアウト1
 70
     1
 71
     1
 10
0.0
 20
0.0
 11
420.0
 21
297.0
 12
0.0
 22
0.0
 32
0.0
 14
1.000000000000000E+20
 24
1.000000000000000E+20
 34
1.000000000000000E+20
 15
-1.000000000000000E+20
 25
-1.000000000000000E+20
 35
-1.000000000000000E+20
146
0.0
 13
0.0
 23
0.0
 33
0.0
 16
1.0
 26
0.0
 36
0.0
 17
0.0
 27
1.0
 37
0.0
 76
     0
330
1B
  0
LAYOUT
  5
26
102
{ACAD_REACTORS
330
1A
102
}
330
1A
100
AcDbPlotSettings
  1

  2
none_device
  4
Letter_(8.50_x_11.00_Inches)
  6

 40
6.349999904632567
 41
6.349999904632567
 42
6.350006103515625
 43
6.350006103515625
 44
215.8999938964844
 45
279.3999938964844
 46
0.0
 47
0.0
 48
0.0
 49
0.0
140
0.0
141
0.0
142
1.0
143
1.0
 70
 15024
 72
     1
 73
     1
 74
     5
  7
SEISA.ctb
 75
    16
147
1.0
 76
     0
 77
     2
 78
   300
148
0.0
149
0.0
100
AcDbLayout
  1
レイアウト2
 70
     1
 71
     2
 10
0.0
 20
0.0
 11
12.0
 21
9.0
 12
0.0
 22
0.0
 32
0.0
 14
0.0
 24
0.0
 34
0.0
 15
0.0
 25
0.0
 35
0.0
146
0.0
 13
0.0
 23
0.0
 33
0.0
 16
1.0
 26
0.0
 36
0.0
 17
0.0
 27
1.0
 37
0.0
 76
     0
330
23
  0
MATERIAL
  5
27D
102
{ACAD_REACTORS
330
C4
102
}
330
C4
100
AcDbMaterial
  1
ByBlock
 73
     1
 78
     1
172
     1
176
     1
270
     1
274
     1
 94
       63
  0
MATERIAL
  5
27C
102
{ACAD_REACTORS
330
C4
102
}
330
C4
100
AcDbMaterial
  1
ByLayer
 73
     1
 78
     1
172
     1
176
     1
270
     1
274
     1
 94
       63
  0
MATERIAL
  5
27E
102
{ACAD_REACTORS
330
C4
102
}
330
C4
100
AcDbMaterial
  1
Global
 73
     1
 78
     1
172
     1
176
     1
270
     1
274
     1
 94
       63
  0
MLEADERSTYLE
  5
2D6
102
{ACAD_REACTORS
330
2D5
102
}
330
2D5
100
AcDbMLeaderStyle
170
     2
171
     1
172
     0
 90
        2
 40
0.0
 41
0.0
173
     1
 91
-1056964608
340
14
 92
       -2
290
     1
 42
2.0
291
     1
 43
0.36
  3
Standard
 44
4.0
300

342
11
174
     1
178
     6
175
     1
176
     0
 93
-1056964608
 45
4.0
292
     0
297
     0
 46
4.0
 94
-1056964608
 47
1.0
 49
1.0
140
1.0
293
     1
141
0.0
294
     1
177
     0
142
1.0
295
     0
296
     0
143
0.125
1001
ACAD_MLEADERVER
1070
     2
  0
MLINESTYLE
  5
18
102
{ACAD_REACTORS
330
17
102
}
330
17
100
AcDbMlineStyle
  2
STANDARD
 70
     0
  3

 62
   256
 51
90.0
 52
90.0
 71
     2
 49
0.5
 62
   256
  6
BYLAYER
 49
-0.5
 62
   256
  6
BYLAYER
  0
PLOTSETTINGS
  5
1C7E
102
{ACAD_REACTORS
330
19
102
}
330
19
100
AcDbPlotSettings
  1
SEISA基本
  2
none_device
  4
Letter_(8.50_x_11.00_Inches)
  6

 40
6.349999904632567
 41
6.349999904632567
 42
6.350006103515625
 43
6.350006103515625
 44
215.8999938964844
 45
279.3999938964844
 46
7.302498226506357
 47
0.0
 48
0.0
 49
0.0
140
0.0
141
0.0
142
1.0
143
1.574803221122935
 70
 11956
 72
     1
 73
     1
 74
     2
  7
SEISA.ctb
 75
     0
147
0.6349999711627054
 76
     0
 77
     2
 78
   300
148
0.0
149
0.0
1001
ACAD_PSEXT
1000
なし
1000
なし
1000
適切ではありません
1000
新しいプロッタ環境設定名を選択しない限り、レイアウトは印刷されません。
1070
     0
  0
ACDBPLACEHOLDER
  5
F
102
{ACAD_REACTORS
330
E
102
}
330
E
  0
SCALE
  5
3B4B
102
{ACAD_REACTORS
330
2B3
102
}
330
2B3
100
AcDbScale
 70
     0
300
1:1.5
140
1.0
141
1.5
290
     0
  0
SCALE
  5
9545
102
{ACAD_REACTORS
330
2B3
102
}
330
2B3
100
AcDbScale
 70
     0
300
1:2.5
140
1.0
141
2.5
290
     0
  0
SCALE
  5
2B4
102
{ACAD_REACTORS
330
2B3
102
}
330
2B3
100
AcDbScale
 70
     0
300
1:1
140
1.0
141
1.0
290
     1
  0
SCALE
  5
2B5
102
{ACAD_REACTORS
330
2B3
102
}
330
2B3
100
AcDbScale
 70
     0
300
1:2
140
1.0
141
2.0
290
     0
  0
SCALE
  5
2B6
102
{ACAD_REACTORS
330
2B3
102
}
330
2B3
100
AcDbScale
 70
     0
300
1:4
140
1.0
141
4.0
290
     0
  0
SCALE
  5
2B7
102
{ACAD_REACTORS
330
2B3
102
}
330
2B3
100
AcDbScale
 70
     0
300
1:5
140
1.0
141
5.0
290
     0
  0
SCALE
  5
2B8
102
{ACAD_REACTORS
330
2B3
102
}
330
2B3
100
AcDbScale
 70
     0
300
1:8
140
1.0
141
8.0
290
     0
  0
SCALE
  5
2B9
102
{ACAD_REACTORS
330
2B3
102
}
330
2B3
100
AcDbScale
 70
     0
300
1:10
140
1.0
141
10.0
290
     0
  0
SCALE
  5
2BA
102
{ACAD_REACTORS
330
2B3
102
}
330
2B3
100
AcDbScale
 70
     0
300
1:16
140
1.0
141
16.0
290
     0
  0
SCALE
  5
2BB
102
{ACAD_REACTORS
330
2B3
102
}
330
2B3
100
AcDbScale
 70
     0
300
1:20
140
1.0
141
20.0
290
     0
  0
SCALE
  5
2BC
102
{ACAD_REACTORS
330
2B3
102
}
330
2B3
100
AcDbScale
 70
     0
300
1:30
140
1.0
141
30.0
290
     0
  0
SCALE
  5
2BD
102
{ACAD_REACTORS
330
2B3
102
}
330
2B3
100
AcDbScale
 70
     0
300
1:40
140
1.0
141
40.0
290
     0
  0
SCALE
  5
2BE
102
{ACAD_REACTORS
330
2B3
102
}
330
2B3
100
AcDbScale
 70
     0
300
1:50
140
1.0
141
50.0
290
     0
  0
SCALE
  5
2BF
102
{ACAD_REACTORS
330
2B3
102
}
330
2B3
100
AcDbScale
 70
     0
300
1:100
140
1.0
141
100.0
290
     0
  0
SCALE
  5
2C0
102
{ACAD_REACTORS
330
2B3
102
}
330
2B3
100
AcDbScale
 70
     0
300
2:1
140
2.0
141
1.0
290
     0
  0
SCALE
  5
2C1
102
{ACAD_REACTORS
330
2B3
102
}
330
2B3
100
AcDbScale
 70
     0
300
4:1
140
4.0
141
1.0
290
     0
  0
SCALE
  5
2C2
102
{ACAD_REACTORS
330
2B3
102
}
330
2B3
100
AcDbScale
 70
     0
300
8:1
140
8.0
141
1.0
290
     0
  0
SCALE
  5
2C3
102
{ACAD_REACTORS
330
2B3
102
}
330
2B3
100
AcDbScale
 70
     0
300
10:1
140
10.0
141
1.0
290
     0
  0
SCALE
  5
2C4
102
{ACAD_REACTORS
330
2B3
102
}
330
2B3
100
AcDbScale
 70
     0
300
100:1
140
100.0
141
1.0
290
     0
  0
SCALE
  5
2C5
102
{ACAD_REACTORS
330
2B3
102
}
330
2B3
100
AcDbScale
 70
     0
300
1/128" = 1'-0"
140
0.0078125
141
12.0
290
     0
  0
SCALE
  5
2C6
102
{ACAD_REACTORS
330
2B3
102
}
330
2B3
100
AcDbScale
 70
     0
300
1/64" = 1'-0"
140
0.015625
141
12.0
290
     0
  0
SCALE
  5
2C7
102
{ACAD_REACTORS
330
2B3
102
}
330
2B3
100
AcDbScale
 70
     0
300
1/32" = 1'-0"
140
0.03125
141
12.0
290
     0
  0
SCALE
  5
2C8
102
{ACAD_REACTORS
330
2B3
102
}
330
2B3
100
AcDbScale
 70
     0
300
1/16" = 1'-0"
140
0.0625
141
12.0
290
     0
  0
SCALE
  5
2C9
102
{ACAD_REACTORS
330
2B3
102
}
330
2B3
100
AcDbScale
 70
     0
300
3/32" = 1'-0"
140
0.09375
141
12.0
290
     0
  0
SCALE
  5
2CA
102
{ACAD_REACTORS
330
2B3
102
}
330
2B3
100
AcDbScale
 70
     0
300
1/8" = 1'-0"
140
0.125
141
12.0
290
     0
  0
SCALE
  5
2CB
102
{ACAD_REACTORS
330
2B3
102
}
330
2B3
100
AcDbScale
 70
     0
300
3/16" = 1'-0"
140
0.1875
141
12.0
290
     0
  0
SCALE
  5
2CC
102
{ACAD_REACTORS
330
2B3
102
}
330
2B3
100
AcDbScale
 70
     0
300
1/4" = 1'-0"
140
0.25
141
12.0
290
     0
  0
SCALE
  5
2CD
102
{ACAD_REACTORS
330
2B3
102
}
330
2B3
100
AcDbScale
 70
     0
300
3/8" = 1'-0"
140
0.375
141
12.0
290
     0
  0
SCALE
  5
2CE
102
{ACAD_REACTORS
330
2B3
102
}
330
2B3
100
AcDbScale
 70
     0
300
1/2" = 1'-0"
140
0.5
141
12.0
290
     0
  0
SCALE
  5
2CF
102
{ACAD_REACTORS
330
2B3
102
}
330
2B3
100
AcDbScale
 70
     0
300
3/4" = 1'-0"
140
0.75
141
12.0
290
     0
  0
SCALE
  5
2D0
102
{ACAD_REACTORS
330
2B3
102
}
330
2B3
100
AcDbScale
 70
     0
300
1" = 1'-0"
140
1.0
141
12.0
290
     0
  0
SCALE
  5
2D1
102
{ACAD_REACTORS
330
2B3
102
}
330
2B3
100
AcDbScale
 70
     0
300
1-1/2" = 1'-0"
140
1.5
141
12.0
290
     0
  0
SCALE
  5
2D2
102
{ACAD_REACTORS
330
2B3
102
}
330
2B3
100
AcDbScale
 70
     0
300
3" = 1'-0"
140
3.0
141
12.0
290
     0
  0
SCALE
  5
2D3
102
{ACAD_REACTORS
330
2B3
102
}
330
2B3
100
AcDbScale
 70
     0
300
6" = 1'-0"
140
6.0
141
12.0
290
     0
  0
SCALE
  5
2D4
102
{ACAD_REACTORS
330
2B3
102
}
330
2B3
100
AcDbScale
 70
     0
300
1'-0" = 1'-0"
140
12.0
141
12.0
290
     0
  0
TABLESTYLE
  5
122
102
{ACAD_XDICTIONARY
360
2F5
102
}
102
{ACAD_REACTORS
330
121
102
}
330
121
100
AcDbTableStyle
  3
Standard
 70
     0
 71
     0
 40
1.5
 41
1.5
280
     0
281
     0
  7
STANDARD
140
4.5
170
     2
 62
     0
 63
     7
283
     0
 90
      512
 91
        0
  1

274
    -2
284
     1
 64
     0
275
    -2
285
     1
 65
     0
276
    -2
286
     1
 66
     0
277
    -2
287
     1
 67
     0
278
    -2
288
     1
 68
     0
279
    -2
289
     1
 69
     0
  7
STANDARD
140
6.0
170
     5
 62
     0
 63
     7
283
     0
 90
      512
 91
        0
  1

274
    -2
284
     1
 64
     0
275
    -2
285
     1
 65
     0
276
    -2
286
     1
 66
     0
277
    -2
287
     1
 67
     0
278
    -2
288
     1
 68
     0
279
    -2
289
     1
 69
     0
  7
STANDARD
140
4.5
170
     5
 62
     0
 63
     7
283
     0
 90
      512
 91
        0
  1

274
    -2
284
     1
 64
     0
275
    -2
285
     1
 65
     0
276
    -2
286
     1
 66
     0
277
    -2
287
     1
 67
     0
278
    -2
288
     1
 68
     0
279
    -2
289
     1
 69
     0
  0
VISUALSTYLE
  5
285
102
{ACAD_REACTORS
330
27F
102
}
330
27F
100
AcDbVisualStyle
  2
2dWireframe
 70
     4
 71
     0
 72
     2
 73
     0
 90
        0
 40
-0.6
 41
-30.0
 62
     5
 63
     7
421
 16777215
 74
     1
 91
        4
 64
     7
 65
   257
 75
     1
175
     1
 42
1.0
 92
        0
 66
   257
 43
1.0
 76
     1
 77
     6
 78
     2
 67
     7
 79
     5
170
     0
171
     0
290
     0
174
     0
 93
        1
 44
0.0
173
     0
291
     0
 45
0.0
  0
VISUALSTYLE
  5
287
102
{ACAD_REACTORS
330
27F
102
}
330
27F
100
AcDbVisualStyle
  2
3D Hidden
 70
     6
 71
     1
 72
     2
 73
     2
 90
        0
 40
-0.6
 41
-30.0
 62
     5
 63
     7
421
 16777215
 74
     2
 91
        2
 64
     7
 65
   257
 75
     2
175
     1
 42
40.0
 92
        0
 66
   257
 43
1.0
 76
     1
 77
     6
 78
     2
 67
     7
 79
     3
170
     0
171
     0
290
     0
174
     0
 93
        1
 44
0.0
173
     0
291
     0
 45
0.0
  0
VISUALSTYLE
  5
286
102
{ACAD_REACTORS
330
27F
102
}
330
27F
100
AcDbVisualStyle
  2
3dWireframe
 70
     5
 71
     0
 72
     2
 73
     0
 90
        0
 40
-0.6
 41
-30.0
 62
     5
 63
     7
421
 16777215
 74
     1
 91
        4
 64
     7
 65
   257
 75
     1
175
     1
 42
1.0
 92
        0
 66
   257
 43
1.0
 76
     1
 77
     6
 78
     2
 67
     7
 79
     5
170
     0
171
     0
290
     0
174
     0
 93
        1
 44
0.0
173
     0
291
     0
 45
0.0
  0
VISUALSTYLE
  5
284
102
{ACAD_REACTORS
330
27F
102
}
330
27F
100
AcDbVisualStyle
  2
Basic
 70
     7
 71
     1
 72
     0
 73
     1
 90
        0
 40
-0.6
 41
-30.0
 62
     5
 63
     7
421
 16777215
 74
     0
 91
        4
 64
     7
 65
   257
 75
     1
175
     1
 42
1.0
 92
        8
 66
     7
 43
1.0
 76
     1
 77
     6
 78
     2
 67
     7
 79
     5
170
     0
171
     0
290
     0
174
     0
 93
        1
 44
0.0
173
     0
291
     1
 45
0.0
  0
VISUALSTYLE
  5
28B
102
{ACAD_REACTORS
330
27F
102
}
330
27F
100
AcDbVisualStyle
  2
Brighten
 70
    12
 71
     2
 72
     2
 73
     0
 90
        0
 40
-0.6
 41
-30.0
 62
     5
 63
     7
421
 16777215
 74
     1
 91
        4
 64
     7
 65
   257
 75
     1
175
     1
 42
1.0
 92
        8
 66
     7
 43
1.0
 76
     1
 77
     6
 78
     2
 67
     7
 79
     5
170
     0
171
     0
290
     0
174
     0
 93
        1
 44
50.0
173
     0
291
     1
 45
0.0
  0
VISUALSTYLE
  5
28F
102
{ACAD_REACTORS
330
27F
102
}
330
27F
100
AcDbVisualStyle
  2
ColorChange
 70
    16
 71
     2
 72
     2
 73
     3
 90
        0
 40
-0.6
 41
-30.0
 62
     5
 63
     8
421
  8421504
 74
     1
 91
        4
 64
     7
 65
   257
 75
     1
175
     1
 42
1.0
 92
        8
 66
     8
424
  8421504
 43
1.0
 76
     1
 77
     6
 78
     2
 67
     7
 79
     5
170
     0
171
     0
290
     0
174
     0
 93
        1
 44
0.0
173
     0
291
     1
 45
0.0
  0
VISUALSTYLE
  5
288
102
{ACAD_REACTORS
330
27F
102
}
330
27F
100
AcDbVisualStyle
  2
Conceptual
 70
     9
 71
     3
 72
     2
 73
     0
 90
        0
 40
-0.6
 41
-30.0
 62
     5
 63
     7
421
 16777215
 74
     2
 91
        2
 64
     7
 65
   257
 75
     1
175
     1
 42
40.0
 92
        8
 66
     7
 43
1.0
 76
     1
 77
     6
 78
     2
 67
     7
 79
     3
170
     0
171
     0
290
     0
174
     0
 93
        1
 44
0.0
173
     0
291
     0
 45
0.0
  0
VISUALSTYLE
  5
28A
102
{ACAD_REACTORS
330
27F
102
}
330
27F
100
AcDbVisualStyle
  2
Dim
 70
    11
 71
     2
 72
     2
 73
     0
 90
        0
 40
-0.6
 41
-30.0
 62
     5
 63
     7
421
 16777215
 74
     1
 91
        4
 64
     7
 65
   257
 75
     1
175
     1
 42
1.0
 92
        8
 66
     7
 43
1.0
 76
     1
 77
     6
 78
     2
 67
     7
 79
     5
170
     0
171
     0
290
     0
174
     0
 93
        1
 44
-50.0
173
     0
291
     1
 45
0.0
  0
VISUALSTYLE
  5
28E
102
{ACAD_REACTORS
330
27F
102
}
330
27F
100
AcDbVisualStyle
  2
Facepattern
 70
    15
 71
     2
 72
     2
 73
     0
 90
        0
 40
-0.6
 41
-30.0
 62
     5
 63
     7
421
 16777215
 74
     1
 91
        4
 64
     7
 65
   257
 75
     1
175
     1
 42
1.0
 92
        8
 66
     7
 43
1.0
 76
     1
 77
     6
 78
     2
 67
     7
 79
     5
170
     0
171
     0
290
     0
174
     0
 93
        1
 44
0.0
173
     0
291
     1
 45
0.0
  0
VISUALSTYLE
  5
280
102
{ACAD_REACTORS
330
27F
102
}
330
27F
100
AcDbVisualStyle
  2
Flat
 70
     0
 71
     2
 72
     1
 73
     1
 90
        2
 40
-0.6
 41
30.0
 62
     5
 63
     7
421
 16777215
 74
     0
 91
        4
 64
     7
 65
   257
 75
     1
175
     1
 42
1.0
 92
        8
 66
     7
 43
1.0
 76
     1
 77
     6
 78
     2
 67
     7
 79
     5
170
     0
171
     0
290
     0
174
     0
 93
       13
 44
0.0
173
     0
291
     1
 45
0.0
  0
VISUALSTYLE
  5
281
102
{ACAD_REACTORS
330
27F
102
}
330
27F
100
AcDbVisualStyle
  2
FlatWithEdges
 70
     1
 71
     2
 72
     1
 73
     1
 90
        2
 40
-0.6
 41
30.0
 62
     5
 63
     7
421
 16777215
 74
     1
 91
        4
 64
     7
 65
   257
 75
     1
175
     1
 42
1.0
 92
        0
 66
   257
 43
1.0
 76
     1
 77
     6
 78
     2
 67
     7
 79
     5
170
     0
171
     0
290
     0
174
     0
 93
       13
 44
0.0
173
     0
291
     1
 45
0.0
  0
VISUALSTYLE
  5
282
102
{ACAD_REACTORS
330
27F
102
}
330
27F
100
AcDbVisualStyle
  2
Gouraud
 70
     2
 71
     2
 72
     2
 73
     1
 90
        2
 40
-0.6
 41
30.0
 62
     5
 63
     7
421
 16777215
 74
     0
 91
        4
 64
     7
 65
   257
 75
     1
175
     1
 42
1.0
 92
        0
 66
     7
 43
1.0
 76
     1
 77
     6
 78
     2
 67
     7
 79
     5
170
     0
171
     0
290
     0
174
     0
 93
       13
 44
0.0
173
     0
291
     1
 45
0.0
  0
VISUALSTYLE
  5
283
102
{ACAD_REACTORS
330
27F
102
}
330
27F
100
AcDbVisualStyle
  2
GouraudWithEdges
 70
     3
 71
     2
 72
     2
 73
     1
 90
        2
 40
-0.6
 41
30.0
 62
     5
 63
     7
421
 16777215
 74
     1
 91
        4
 64
     7
 65
   257
 75
     1
175
     1
 42
1.0
 92
        0
 66
   257
 43
1.0
 76
     1
 77
     6
 78
     2
 67
     7
 79
     5
170
     0
171
     0
290
     0
174
     0
 93
       13
 44
0.0
173
     0
291
     1
 45
0.0
  0
VISUALSTYLE
  5
28D
102
{ACAD_REACTORS
330
27F
102
}
330
27F
100
AcDbVisualStyle
  2
Linepattern
 70
    14
 71
     2
 72
     2
 73
     0
 90
        0
 40
-0.6
 41
-30.0
 62
     5
 63
     7
421
 16777215
 74
     1
 91
        4
 64
     7
 65
   257
 75
     7
175
     7
 42
1.0
 92
        8
 66
     7
 43
1.0
 76
     1
 77
     6
 78
     2
 67
     7
 79
     5
170
     0
171
     0
290
     0
174
     0
 93
        1
 44
0.0
173
     0
291
     1
 45
0.0
  0
VISUALSTYLE
  5
289
102
{ACAD_REACTORS
330
27F
102
}
330
27F
100
AcDbVisualStyle
  2
Realistic
 70
     8
 71
     2
 72
     2
 73
     0
 90
        0
 40
-0.6
 41
-30.0
 62
     5
 63
     7
421
 16777215
 74
     1
 91
        0
 64
     7
 65
   257
 75
     1
175
     1
 42
1.0
 92
        8
 66
     8
424
  7895160
 43
1.0
 76
     1
 77
     6
 78
     2
 67
     7
 79
     5
170
     0
171
     0
290
     0
174
     0
 93
       13
 44
0.0
173
     0
291
     0
 45
0.0
  0
VISUALSTYLE
  5
28C
102
{ACAD_REACTORS
330
27F
102
}
330
27F
100
AcDbVisualStyle
  2
Thicken
 70
    13
 71
     2
 72
     2
 73
     0
 90
        0
 40
-0.6
 41
-30.0
 62
     5
 63
     7
421
 16777215
 74
     1
 91
        4
 64
     7
 65
   257
 75
     1
175
     1
 42
1.0
 92
       12
 66
     7
 43
1.0
 76
     1
 77
     6
 78
     2
 67
     7
 79
     5
170
     0
171
     0
290
     0
174
     0
 93
        1
 44
0.0
173
     0
291
     1
 45
0.0
  0
DICTIONARYVAR
  5
2FA
102
{ACAD_REACTORS
330
34
102
}
330
34
100
DictionaryVariables
280
     0
  1
1:4
  0
DICTIONARYVAR
  5
2F8
102
{ACAD_REACTORS
330
34
102
}
330
34
100
DictionaryVariables
280
     0
  1
STANDARD
  0
DICTIONARYVAR
  5
140
102
{ACAD_REACTORS
330
34
102
}
330
34
100
DictionaryVariables
280
     0
  1
STANDARD
  0
DICTIONARYVAR
  5
AC
102
{ACAD_REACTORS
330
34
102
}
330
34
100
DictionaryVariables
280
     0
  1
1
  0
DICTIONARYVAR
  5
35
102
{ACAD_REACTORS
330
34
102
}
330
34
100
DictionaryVariables
280
     0
  1
1
  0
DICTIONARYVAR
  5
6C71
102
{ACAD_REACTORS
330
34
102
}
330
34
100
DictionaryVariables
280
     0
  1
1
  0
DICTIONARYVAR
  5
6C72
102
{ACAD_REACTORS
330
34
102
}
330
34
100
DictionaryVariables
280
     0
  1
15
  0
DICTIONARYVAR
  5
2FB
102
{ACAD_REACTORS
330
34
102
}
330
34
100
DictionaryVariables
280
     0
  1
0
  0
DICTIONARYVAR
  5
2F9
102
{ACAD_REACTORS
330
34
102
}
330
34
100
DictionaryVariables
280
     0
  1
0
  0
DICTIONARY
  5
161B
102
{ACAD_REACTORS
330
49
102
}
330
49
100
AcDbDictionary
281
     1
  0
DICTIONARY
  5
4A
102
{ACAD_REACTORS
330
49
102
}
330
49
100
AcDbDictionary
281
     1
  0
XRECORD
  5
12B
102
{ACAD_REACTORS
330
49
102
}
330
49
100
AcDbXrecord
280
     1
 90
-1023410169
  0
DICTIONARY
  5
2F5
330
122
100
AcDbDictionary
280
     1
281
     1
  3
ACAD_ROUNDTRIP_2008_TABLESTYLE_CELLSTYLEMAP
360
9B79
  0
CELLSTYLEMAP
  5
9B79
102
{ACAD_REACTORS
330
2F5
102
}
330
2F5
100
AcDbCellStyleMap
 90
        3
300
CELLSTYLE
  1
TABLEFORMAT_BEGIN
 90
        5
170
     1
 91
        0
 92
    32768
 62
   257
 93
        1
300
CONTENTFORMAT
  1
CONTENTFORMAT_BEGIN
 90
        0
 91
        0
 92
      512
 93
        0
300

 40
0.0
140
1.0
 94
        5
 62
     0
340
11
144
6.0
309
CONTENTFORMAT_END
171
     1
301
MARGIN
  1
CELLMARGIN_BEGIN
 40
1.5
 40
1.5
 40
1.5
 40
1.5
 40
0.18
 40
0.18
309
CELLMARGIN_END
 94
        6
 95
        1
302
GRIDFORMAT
  1
GRIDFORMAT_BEGIN
 90
        0
 91
        1
 62
     0
 92
       -2
340
0
 93
        0
 40
0.045
309
GRIDFORMAT_END
 95
        2
302
GRIDFORMAT
  1
GRIDFORMAT_BEGIN
 90
        0
 91
        1
 62
     0
 92
       -2
340
0
 93
        0
 40
0.045
309
GRIDFORMAT_END
 95
        4
302
GRIDFORMAT
  1
GRIDFORMAT_BEGIN
 90
        0
 91
        1
 62
     0
 92
       -2
340
0
 93
        0
 40
0.045
309
GRIDFORMAT_END
 95
        8
302
GRIDFORMAT
  1
GRIDFORMAT_BEGIN
 90
        0
 91
        1
 62
     0
 92
       -2
340
0
 93
        0
 40
0.045
309
GRIDFORMAT_END
 95
       16
302
GRIDFORMAT
  1
GRIDFORMAT_BEGIN
 90
        0
 91
        1
 62
     0
 92
       -2
340
0
 93
        0
 40
0.045
309
GRIDFORMAT_END
 95
       32
302
GRIDFORMAT
  1
GRIDFORMAT_BEGIN
 90
        0
 91
        1
 62
     0
 92
       -2
340
0
 93
        0
 40
0.045
309
GRIDFORMAT_END
309
TABLEFORMAT_END
  1
CELLSTYLE_BEGIN
 90
        1
 91
        1
300
_TITLE
309
CELLSTYLE_END
300
CELLSTYLE
  1
TABLEFORMAT_BEGIN
 90
        5
170
     1
 91
        0
 92
        0
 62
   257
 93
        1
300
CONTENTFORMAT
  1
CONTENTFORMAT_BEGIN
 90
        0
 91
        0
 92
      512
 93
        0
300

 40
0.0
140
1.0
 94
        5
 62
     0
340
11
144
4.5
309
CONTENTFORMAT_END
171
     1
301
MARGIN
  1
CELLMARGIN_BEGIN
 40
1.5
 40
1.5
 40
1.5
 40
1.5
 40
0.18
 40
0.18
309
CELLMARGIN_END
 94
        6
 95
        1
302
GRIDFORMAT
  1
GRIDFORMAT_BEGIN
 90
        0
 91
        1
 62
     0
 92
       -2
340
0
 93
        0
 40
0.045
309
GRIDFORMAT_END
 95
        2
302
GRIDFORMAT
  1
GRIDFORMAT_BEGIN
 90
        0
 91
        1
 62
     0
 92
       -2
340
0
 93
        0
 40
0.045
309
GRIDFORMAT_END
 95
        4
302
GRIDFORMAT
  1
GRIDFORMAT_BEGIN
 90
        0
 91
        1
 62
     0
 92
       -2
340
0
 93
        0
 40
0.045
309
GRIDFORMAT_END
 95
        8
302
GRIDFORMAT
  1
GRIDFORMAT_BEGIN
 90
        0
 91
        1
 62
     0
 92
       -2
340
0
 93
        0
 40
0.045
309
GRIDFORMAT_END
 95
       16
302
GRIDFORMAT
  1
GRIDFORMAT_BEGIN
 90
        0
 91
        1
 62
     0
 92
       -2
340
0
 93
        0
 40
0.045
309
GRIDFORMAT_END
 95
       32
302
GRIDFORMAT
  1
GRIDFORMAT_BEGIN
 90
        0
 91
        1
 62
     0
 92
       -2
340
0
 93
        0
 40
0.045
309
GRIDFORMAT_END
309
TABLEFORMAT_END
  1
CELLSTYLE_BEGIN
 90
        2
 91
        1
300
_HEADER
309
CELLSTYLE_END
300
CELLSTYLE
  1
TABLEFORMAT_BEGIN
 90
        5
170
     1
 91
        0
 92
        0
 62
   257
 93
        1
300
CONTENTFORMAT
  1
CONTENTFORMAT_BEGIN
 90
        0
 91
        0
 92
      512
 93
        0
300

 40
0.0
140
1.0
 94
        2
 62
     0
340
11
144
4.5
309
CONTENTFORMAT_END
171
     1
301
MARGIN
  1
CELLMARGIN_BEGIN
 40
1.5
 40
1.5
 40
1.5
 40
1.5
 40
0.18
 40
0.18
309
CELLMARGIN_END
 94
        6
 95
        1
302
GRIDFORMAT
  1
GRIDFORMAT_BEGIN
 90
        0
 91
        1
 62
     0
 92
       -2
340
0
 93
        0
 40
0.045
309
GRIDFORMAT_END
 95
        2
302
GRIDFORMAT
  1
GRIDFORMAT_BEGIN
 90
        0
 91
        1
 62
     0
 92
       -2
340
0
 93
        0
 40
0.045
309
GRIDFORMAT_END
 95
        4
302
GRIDFORMAT
  1
GRIDFORMAT_BEGIN
 90
        0
 91
        1
 62
     0
 92
       -2
340
0
 93
        0
 40
0.045
309
GRIDFORMAT_END
 95
        8
302
GRIDFORMAT
  1
GRIDFORMAT_BEGIN
 90
        0
 91
        1
 62
     0
 92
       -2
340
0
 93
        0
 40
0.045
309
GRIDFORMAT_END
 95
       16
302
GRIDFORMAT
  1
GRIDFORMAT_BEGIN
 90
        0
 91
        1
 62
     0
 92
       -2
340
0
 93
        0
 40
0.045
309
GRIDFORMAT_END
 95
       32
302
GRIDFORMAT
  1
GRIDFORMAT_BEGIN
 90
        0
 91
        1
 62
     0
 92
       -2
340
0
 93
        0
 40
0.045
309
GRIDFORMAT_END
309
TABLEFORMAT_END
  1
CELLSTYLE_BEGIN
 90
        3
 91
        2
300
_DATA
309
CELLSTYLE_END
  0
ENDSEC
  0
EOF
