  0
SECTION
  2
HEADER
  9
$ACADVER
  1
AC1021
  9
$ACADMAINTVER
 70
    26
  9
$DWGCODEPAGE
  3
ANSI_932
  9
$LASTSAVEDBY
  1
Htm_Terada
  9
$CUSTOMPROPERTYTAG
  1
AmdtFileType
  9
$CUSTOMPROPERTY
  1
84
  9
$INSBASE
 10
0.0
 20
0.0
 30
0.0
  9
$EXTMIN
 10
450.6079153581172
 20
613.6682788837415
 30
-0.0000000349181948
  9
$EXTMAX
 10
1332.828373413754
 20
1013.559635388137
 30
0.0000000814935747
  9
$LIMMIN
 10
0.0000007657354217
 20
0.000001477528258
  9
$LIMMAX
 10
1680.000000765735
 20
1188.000001477528
  9
$ORTHOMODE
 70
     0
  9
$REGENMODE
 70
     1
  9
$FILLMODE
 70
     1
  9
$QTEXTMODE
 70
     0
  9
$MIRRTEXT
 70
     1
  9
$LTSCALE
 40
4.0
  9
$ATTMODE
 70
     1
  9
$TEXTSIZE
 40
25.0
  9
$TRACEWID
 40
1.0
  9
$TEXTSTYLE
  7
SEISA
  9
$CLAYER
  8
AM_0 外形線1
  9
$CELTYPE
  6
ByLayer
  9
$CECOLOR
 62
   256
  9
$CELTSCALE
 40
1.0
  9
$DISPSILH
 70
     0
  9
$DIMSCALE
 40
4.0
  9
$DIMASZ
 40
2.5
  9
$DIMEXO
 40
0.625
  9
$DIMDLI
 40
10.0
  9
$DIMRND
 40
0.0
  9
$DIMDLE
 40
0.0
  9
$DIMEXE
 40
0.625
  9
$DIMTP
 40
0.1
  9
$DIMTM
 40
0.1
  9
$DIMTXT
 40
3.5
  9
$DIMCEN
 40
0.0
  9
$DIMTSZ
 40
0.0
  9
$DIMTOL
 70
     0
  9
$DIMLIM
 70
     0
  9
$DIMTIH
 70
     0
  9
$DIMTOH
 70
     0
  9
$DIMSE1
 70
     0
  9
$DIMSE2
 70
     0
  9
$DIMTAD
 70
     3
  9
$DIMZIN
 70
     8
  9
$DIMBLK
  1
Open30
  9
$DIMASO
 70
     1
  9
$DIMSHO
 70
     1
  9
$DIMPOST
  1

  9
$DIMAPOST
  1
"
  9
$DIMALT
 70
     0
  9
$DIMALTD
 70
     2
  9
$DIMALTF
 40
0.0393701
  9
$DIMLFAC
 40
1.0
  9
$DIMTOFL
 70
     1
  9
$DIMTVP
 40
0.0
  9
$DIMTIX
 70
     0
  9
$DIMSOXD
 70
     0
  9
$DIMSAH
 70
     0
  9
$DIMBLK1
  1

  9
$DIMBLK2
  1

  9
$DIMSTYLE
  2
SEISA
  9
$DIMCLRD
 70
     3
  9
$DIMCLRE
 70
     3
  9
$DIMCLRT
 70
     3
  9
$DIMTFAC
 40
0.71
  9
$DIMGAP
 40
1.5
  9
$DIMJUST
 70
     0
  9
$DIMSD1
 70
     0
  9
$DIMSD2
 70
     0
  9
$DIMTOLJ
 70
     0
  9
$DIMTZIN
 70
     0
  9
$DIMALTZ
 70
     0
  9
$DIMALTTZ
 70
     8
  9
$DIMUPT
 70
     0
  9
$DIMDEC
 70
     2
  9
$DIMTDEC
 70
     2
  9
$DIMALTU
 70
     2
  9
$DIMALTTD
 70
     2
  9
$DIMTXSTY
  7
SEISA
  9
$DIMAUNIT
 70
     0
  9
$DIMADEC
 70
     0
  9
$DIMALTRND
 40
0.0
  9
$DIMAZIN
 70
     2
  9
$DIMDSEP
 70
    46
  9
$DIMATFIT
 70
     3
  9
$DIMFRAC
 70
     0
  9
$DIMLDRBLK
  1
Open30
  9
$DIMLUNIT
 70
     2
  9
$DIMLWD
 70
    -1
  9
$DIMLWE
 70
    -1
  9
$DIMTMOVE
 70
     0
  9
$DIMFXL
 40
1.0
  9
$DIMFXLON
 70
     0
  9
$DIMJOGANG
 40
0.7853981633974483
  9
$DIMTFILL
 70
     0
  9
$DIMTFILLCLR
 70
     0
  9
$DIMARCSYM
 70
     1
  9
$DIMLTYPE
  6

  9
$DIMLTEX1
  6

  9
$DIMLTEX2
  6

  9
$LUNITS
 70
     2
  9
$LUPREC
 70
     2
  9
$SKETCHINC
 40
1.0
  9
$FILLETRAD
 40
0.6
  9
$AUNITS
 70
     0
  9
$AUPREC
 70
     0
  9
$MENU
  1
.
  9
$ELEVATION
 40
0.0
  9
$PELEVATION
 40
0.0
  9
$THICKNESS
 40
0.0
  9
$LIMCHECK
 70
     0
  9
$CHAMFERA
 40
1.0
  9
$CHAMFERB
 40
1.0
  9
$CHAMFERC
 40
1.0
  9
$CHAMFERD
 40
0.7853981633973916
  9
$SKPOLY
 70
     0
  9
$TDCREATE
 40
2454965.657636158
  9
$TDUCREATE
 40
2454965.282636158
  9
$TDUPDATE
 40
2456479.585409433
  9
$TDUUPDATE
 40
2456479.210409433
  9
$TDINDWG
 40
0.4887868519
  9
$TDUSRTIMER
 40
0.4887828704
  9
$USRTIMER
 70
     1
  9
$ANGBASE
 50
0.0
  9
$ANGDIR
 70
     0
  9
$PDMODE
 70
     0
  9
$PDSIZE
 40
0.0
  9
$PLINEWID
 40
0.0
  9
$SPLFRAME
 70
     0
  9
$SPLINETYPE
 70
     6
  9
$SPLINESEGS
 70
     8
  9
$HANDSEED
  5
9C37
  9
$SURFTAB1
 70
     6
  9
$SURFTAB2
 70
     6
  9
$SURFTYPE
 70
     6
  9
$SURFU
 70
     6
  9
$SURFV
 70
     6
  9
$UCSBASE
  2

  9
$UCSNAME
  2

  9
$UCSORG
 10
0.0
 20
0.0
 30
0.0
  9
$UCSXDIR
 10
1.0
 20
0.0
 30
0.0
  9
$UCSYDIR
 10
0.0
 20
1.0
 30
0.0
  9
$UCSORTHOREF
  2

  9
$UCSORTHOVIEW
 70
     0
  9
$UCSORGTOP
 10
0.0
 20
0.0
 30
0.0
  9
$UCSORGBOTTOM
 10
0.0
 20
0.0
 30
0.0
  9
$UCSORGLEFT
 10
0.0
 20
0.0
 30
0.0
  9
$UCSORGRIGHT
 10
0.0
 20
0.0
 30
0.0
  9
$UCSORGFRONT
 10
0.0
 20
0.0
 30
0.0
  9
$UCSORGBACK
 10
0.0
 20
0.0
 30
0.0
  9
$PUCSBASE
  2

  9
$PUCSNAME
  2

  9
$PUCSORG
 10
0.0
 20
0.0
 30
0.0
  9
$PUCSXDIR
 10
1.0
 20
0.0
 30
0.0
  9
$PUCSYDIR
 10
0.0
 20
1.0
 30
0.0
  9
$PUCSORTHOREF
  2

  9
$PUCSORTHOVIEW
 70
     0
  9
$PUCSORGTOP
 10
0.0
 20
0.0
 30
0.0
  9
$PUCSORGBOTTOM
 10
0.0
 20
0.0
 30
0.0
  9
$PUCSORGLEFT
 10
0.0
 20
0.0
 30
0.0
  9
$PUCSORGRIGHT
 10
0.0
 20
0.0
 30
0.0
  9
$PUCSORGFRONT
 10
0.0
 20
0.0
 30
0.0
  9
$PUCSORGBACK
 10
0.0
 20
0.0
 30
0.0
  9
$USERI1
 70
     0
  9
$USERI2
 70
     0
  9
$USERI3
 70
     0
  9
$USERI4
 70
     0
  9
$USERI5
 70
     0
  9
$USERR1
 40
0.0
  9
$USERR2
 40
0.0
  9
$USERR3
 40
0.0
  9
$USERR4
 40
0.0
  9
$USERR5
 40
0.0
  9
$WORLDVIEW
 70
     1
  9
$SHADEDGE
 70
     3
  9
$SHADEDIF
 70
    70
  9
$TILEMODE
 70
     1
  9
$MAXACTVP
 70
    64
  9
$PINSBASE
 10
0.0
 20
0.0
 30
0.0
  9
$PLIMCHECK
 70
     0
  9
$PEXTMIN
 10
1.000000000000000E+20
 20
1.000000000000000E+20
 30
1.000000000000000E+20
  9
$PEXTMAX
 10
-1.000000000000000E+20
 20
-1.000000000000000E+20
 30
-1.000000000000000E+20
  9
$PLIMMIN
 10
0.0
 20
0.0
  9
$PLIMMAX
 10
420.0
 20
297.0
  9
$UNITMODE
 70
     0
  9
$VISRETAIN
 70
     1
  9
$PLINEGEN
 70
     0
  9
$PSLTSCALE
 70
     1
  9
$TREEDEPTH
 70
  3020
  9
$CMLSTYLE
  2
Standard
  9
$CMLJUST
 70
     0
  9
$CMLSCALE
 40
20.0
  9
$PROXYGRAPHICS
 70
     1
  9
$MEASUREMENT
 70
     1
  9
$CELWEIGHT
370
    -1
  9
$ENDCAPS
280
     0
  9
$JOINSTYLE
280
     0
  9
$LWDISPLAY
290
     0
  9
$INSUNITS
 70
     4
  9
$HYPERLINKBASE
  1

  9
$STYLESHEET
  1
SEISA.CTB
  9
$XEDIT
290
     1
  9
$CEPSNTYPE
380
     0
  9
$PSTYLEMODE
290
     1
  9
$FINGERPRINTGUID
  2
{515FF31A-ADEA-497E-86F4-A56180D12BEE}
  9
$VERSIONGUID
  2
{EFBB5F14-1A26-4D79-B965-00F8618C7F7C}
  9
$EXTNAMES
290
     1
  9
$PSVPSCALE
 40
0.0
  9
$OLESTARTUP
290
     0
  9
$SORTENTS
280
   127
  9
$INDEXCTL
280
     0
  9
$HIDETEXT
280
     0
  9
$XCLIPFRAME
290
     0
  9
$HALOGAP
280
     0
  9
$OBSCOLOR
 70
   257
  9
$OBSLTYPE
280
     0
  9
$INTERSECTIONDISPLAY
280
     0
  9
$INTERSECTIONCOLOR
 70
   257
  9
$DIMASSOC
280
     2
  9
$PROJECTNAME
  1

  9
$CAMERADISPLAY
290
     0
  9
$LENSLENGTH
 40
50.0
  9
$CAMERAHEIGHT
 40
0.0
  9
$STEPSPERSEC
 40
2.0
  9
$STEPSIZE
 40
6.0
  9
$3DDWFPREC
 40
2.0
  9
$PSOLWIDTH
 40
0.25
  9
$PSOLHEIGHT
 40
4.0
  9
$LOFTANG1
 40
1.570796326794896
  9
$LOFTANG2
 40
1.570796326794896
  9
$LOFTMAG1
 40
0.0
  9
$LOFTMAG2
 40
0.0
  9
$LOFTPARAM
 70
     7
  9
$LOFTNORMALS
280
     1
  9
$LATITUDE
 40
37.795
  9
$LONGITUDE
 40
-122.394
  9
$NORTHDIRECTION
 40
0.0
  9
$TIMEZONE
 70
 -8000
  9
$LIGHTGLYPHDISPLAY
280
     1
  9
$TILEMODELIGHTSYNCH
280
     1
  9
$CMATERIAL
347
27C
  9
$SOLIDHIST
280
     1
  9
$SHOWHIST
280
     1
  9
$DWFFRAME
280
     2
  9
$DGNFRAME
280
     0
  9
$REALWORLDSCALE
290
     1
  9
$INTERFERECOLOR
 62
     1
  9
$INTERFEREOBJVS
345
289
  9
$INTERFEREVPVS
346
286
  9
$CSHADOW
280
     0
  9
$SHADOWPLANELOCATION
 40
0.0
  0
ENDSEC
  0
SECTION
  2
CLASSES
  0
CLASS
  1
ACDBDICTIONARYWDFLT
  2
AcDbDictionaryWithDefault
  3
ObjectDBX Classes
 90
        0
 91
        1
280
     0
281
     0
  0
CLASS
  1
AMGSETTINGSOBJ
  2
AmgSettingsObj
  3
"AcadM|Product Description: AutoCAD Mechanical|Company: Autodesk, Inc."
 90
     1024
 91
        2
280
     0
281
     0
  0
CLASS
  1
ACME_DOCUMENT
  2
AcMeDbDoc
  3
AcMeServices
 90
     1024
 91
        1
280
     0
281
     0
  0
CLASS
  1
ACMESCOPE
  2
AcMeScope
  3
AcMeServices
 90
     1024
 91
        1
280
     0
281
     0
  0
CLASS
  1
ACMECOMMANDHISTORY
  2
AcMeCommandHistory
  3
AcMeServices
 90
     1024
 91
        1
280
     0
281
     0
  0
CLASS
  1
DICTIONARYVAR
  2
AcDbDictionaryVar
  3
ObjectDBX Classes
 90
        0
 91
        9
280
     0
281
     0
  0
CLASS
  1
ACIMSYSVARMAN
  2
AcImSysVarManager
  3
AcMeServices
 90
     1024
 91
        5
280
     0
281
     0
  0
CLASS
  1
ACIMREALSYSVAR
  2
AcImRealSysVar
  3
AcMeServices
 90
     1024
 91
        1
280
     0
281
     0
  0
CLASS
  1
ACIMINTSYSVAR
  2
AcImIntSysVar
  3
AcMeServices
 90
     1024
 91
       27
280
     0
281
     0
  0
CLASS
  1
ACMEDRAWINGMAN
  2
AcMeDrawingMan
  3
AcMeServices
 90
     1024
 91
        1
280
     0
281
     0
  0
CLASS
  1
ACMEVIEW
  2
AcMeView
  3
AcMeServices
 90
     1024
 91
        1
280
     0
281
     0
  0
CLASS
  1
ACDBENTITYCACHE
  2
AcMeEntityCache
  3
AcMeServices
 90
     1024
 91
        1
280
     0
281
     0
  0
CLASS
  1
GSMANAGER
  2
AcMeGSManager
  3
AcMeServices
 90
     1024
 91
        1
280
     0
281
     0
  0
CLASS
  1
AMDTINTERNALREACTOR
  2
AmdtInternalReactor
  3
AcMeServices
 90
     1024
 91
        2
280
     0
281
     0
  0
CLASS
  1
ACMESTATEMGR
  2
AcMeStateMgr
  3
AcMeServices
 90
     1024
 91
        1
280
     0
281
     0
  0
CLASS
  1
ACGREFMASTER
  2
AcGrefMaster
  3
AcAttribServices
 90
     1024
 91
        1
280
     0
281
     0
  0
CLASS
  1
ACME_DATABASE
  2
AcMeDbDatabase
  3
AcMeServices
 90
     1024
 91
        1
280
     0
281
     0
  0
CLASS
  1
ACRFINSADJUSTERMGR
  2
AcRfInsAdjusterMgr
  3
AcMeServices
 90
     1024
 91
        1
280
     0
281
     0
  0
CLASS
  1
ACGREFACADMASTER
  2
AcGrefacadMaster
  3
AcGrefServices
 90
     1024
 91
        1
280
     0
281
     0
  0
CLASS
  1
AMIMASTER
  2
AmiMaster
  3
AmiServices
 90
     1024
 91
        1
280
     0
281
     0
  0
CLASS
  1
ACIMSTRSYSVAR
  2
AcImStrSysVar
  3
AcMeServices
 90
     1024
 91
        5
280
     0
281
     0
  0
CLASS
  1
ACMSTANDARDJIS
  2
AcmStandardJIS
  3
"Amdt_StdImp|Product Description: AutoCAD Mechanical|Company: Autodesk, Inc."
 90
     1024
 91
        0
280
     0
281
     0
  0
CLASS
  1
AMGOBJPROPCFG
  2
AmgObjPropCfg
  3
"AmgLay|Product Description: AutoCAD Mechanical|Company: Autodesk, Inc."
 90
     1025
 91
        1
280
     0
281
     0
  0
CLASS
  1
ACMSURFSTANDARDJIS
  2
AcmSurfTextStdJIS
  3
"Amdt_StdImp|Product Description: AutoCAD Mechanical|Company: Autodesk, Inc."
 90
     1024
 91
        0
280
     0
281
     0
  0
CLASS
  1
ACMFCFSTANDARDJIS
  2
AcmFCFStdJIS
  3
"Amdt_StdImp|Product Description: AutoCAD Mechanical|Company: Autodesk, Inc."
 90
     1024
 91
        0
280
     0
281
     0
  0
CLASS
  1
ACMWELDSTANDARDJIS
  2
AcmWeldingStdJIS
  3
"Amdt_StdImp|Product Description: AutoCAD Mechanical|Company: Autodesk, Inc."
 90
     1024
 91
        0
280
     0
281
     0
  0
CLASS
  1
ACMIDSTANDARDJIS
  2
AcmIdStdJIS
  3
"Amdt_StdImp|Product Description: AutoCAD Mechanical|Company: Autodesk, Inc."
 90
     1024
 91
        0
280
     0
281
     0
  0
CLASS
  1
ACMDATUMSTANDARDJIS
  2
AcmDatumStdJIS
  3
"Amdt_StdImp|Product Description: AutoCAD Mechanical|Company: Autodesk, Inc."
 90
     1024
 91
        0
280
     0
281
     0
  0
CLASS
  1
ACMBOMSTANDARDJIS
  2
AcmBOMStdJIS
  3
"Amdt_StdImp|Product Description: AutoCAD Mechanical|Company: Autodesk, Inc."
 90
     1024
 91
        0
280
     0
281
     0
  0
CLASS
  1
ACMDETAILSTANDARDJIS
  2
AmdtDetailSymStdJIS
  3
"Amdt_StdImp|Product Description: AutoCAD Mechanical|Company: Autodesk, Inc."
 90
     1024
 91
        0
280
     0
281
     0
  0
CLASS
  1
ACMSECTIONSTANDARDJIS
  2
AmdtSectionSymStdJIS
  3
"Amdt_StdImp|Product Description: AutoCAD Mechanical|Company: Autodesk, Inc."
 90
     1024
 91
        0
280
     0
281
     0
  0
CLASS
  1
ACMCENTERLINESTANDARDJIS
  2
AmdtCenterLineStdJIS
  3
"Amdt_StdImp|Product Description: AutoCAD Mechanical|Company: Autodesk, Inc."
 90
     1024
 91
        0
280
     0
281
     0
  0
CLASS
  1
ACMTHREADLINESTANDARDJIS
  2
AmdtThreadLineStdJIS
  3
"Amdt_StdImp|Product Description: AutoCAD Mechanical|Company: Autodesk, Inc."
 90
     1024
 91
        0
280
     0
281
     0
  0
CLASS
  1
ACAMGLAYSTD
  2
AcAmgLayStd
  3
"AmgLay|Product Description: AutoCAD Mechanical|Company: Autodesk, Inc."
 90
     1024
 91
        1
280
     0
281
     0
  0
CLASS
  1
ACAMGDIMSTD
  2
AcAmgDimStd
  3
"AmgDim|Product Description: AutoCAD Mechanical|Company: Autodesk, Inc."
 90
     1024
 91
        1
280
     0
281
     0
  0
CLASS
  1
ACAMGTITLESTD
  2
AcAmgTitleStd
  3
"AmgTitle|Product Description: AutoCAD Mechanical|Company: Autodesk, Inc."
 90
     4095
 91
        1
280
     0
281
     0
  0
CLASS
  1
ACMDATADICTIONARY
  2
AcmDataDictionary
  3
"AcmSymBB|Product Description: AutoCAD Mechanical|Company: Autodesk, Inc."
 90
     1024
 91
        1
280
     0
281
     0
  0
CLASS
  1
ACMDATAENTRYBLOCK
  2
AcmDataEntryBlock
  3
AcmSymBB|Product Description: AutoCAD Mechanical|Company: Autodesk, Inc.
 90
     1024
 91
        0
280
     0
281
     0
  0
CLASS
  1
LAYER_INDEX
  2
AcDbLayerIndex
  3
ObjectDBX Classes
 90
        0
 91
        0
280
     0
281
     0
  0
CLASS
  1
IDBUFFER
  2
AcDbIdBuffer
  3
ObjectDBX Classes
 90
        0
 91
        0
280
     0
281
     0
  0
CLASS
  1
ACMNOTESTANDARDJIS
  2
AmdtNoteStdJIS
  3
"Amdt_StdImp|Product Description: AutoCAD Mechanical|Company: Autodesk, Inc."
 90
     1024
 91
        0
280
     0
281
     0
  0
CLASS
  1
ACAMGHOLECHARTSTDJIS
  2
AcAmgHoleChartStdJIS
  3
AmgDim|Product Description: AutoCAD Mechanical|Company: Autodesk, Inc.
 90
     1024
 91
        0
280
     0
281
     0
  0
CLASS
  1
AM_DRAWING_MGR
  2
AcDmDwgMgr
  3
AcMechDwgViewMgmt
 90
     1024
 91
        1
280
     0
281
     0
  0
CLASS
  1
AM_DWG_DOCUMENT
  2
AcDmDwgDocument
  3
AcMechDwgViewMgmt
 90
     1024
 91
        1
280
     0
281
     0
  0
CLASS
  1
AM_DWG_SHEET
  2
AcDmSheet
  3
AcMechDwgViewMgmt
 90
     1024
 91
        2
280
     0
281
     0
  0
CLASS
  1
AM_VIEWDIMPARMAP
  2
AcDmViewDimParMap
  3
AcMechDwgViewMgmt
 90
     1024
 91
        2
280
     0
281
     0
  0
CLASS
  1
AM_DWGMGR_NAME
  2
AcDmDwgMgrName
  3
AcMechDwgViewMgmt
 90
     1024
 91
        1
280
     0
281
     0
  0
CLASS
  1
AMDTMENUSTATEMGR
  2
AmdtMenuStateMgr
  3
McadcomServices
 90
     1024
 91
        1
280
     0
281
     0
  0
CLASS
  1
AMDTMCOMMENUSTATE
  2
AmdtMcomMenuState
  3
McadcomServices
 90
     1024
 91
        1
280
     0
281
     0
  0
CLASS
  1
MAPIAMMOUDLE
  2
MApiAmModule
  3
MApiAmServices
 90
     1024
 91
        1
280
     0
281
     0
  0
CLASS
  1
AMDTADMENUSTATE
  2
AmdtAdMenuState
  3
DesignerServices
 90
     1024
 91
        1
280
     0
281
     0
  0
CLASS
  1
ADAPPL
  2
AcAdAppl
  3
DesignerServices
 90
     1024
 91
        1
280
     0
281
     0
  0
CLASS
  1
DEPMGR
  2
AcAdDepMgr
  3
DesignerServices
 90
     1024
 91
        1
280
     0
281
     0
  0
CLASS
  1
PARAMMGR
  2
AcAdParamMgr
  3
DesignerServices
 90
     1024
 91
        1
280
     0
281
     0
  0
CLASS
  1
PARAMSCOPE
  2
AcAdParamScope
  3
DesignerServices
 90
     1024
 91
        1
280
     0
281
     0
  0
CLASS
  1
NAMEDAPPL
  2
AcAdNamedAppl
  3
DesignerServices
 90
     1024
 91
        1
280
     0
281
     0
  0
CLASS
  1
AMDTDMMENUSTATE
  2
AmdtDmMenuState
  3
AcMechDwgViewMgmt
 90
     1024
 91
        1
280
     0
281
     0
  0
CLASS
  1
AMDTAMMENUSTATE
  2
AmdtAmMenuState
  3
DesignerAssemblies
 90
     1024
 91
        1
280
     0
281
     0
  0
CLASS
  1
ACAMPROJECT
  2
AcAmProject
  3
DesignerAssemblies
 90
     1024
 91
        1
280
     0
281
     0
  0
CLASS
  1
ACAMGRCOMPDEF
  2
AcAmGrCompDef
  3
DesignerAssemblies
 90
     1024
 91
        1
280
     0
281
     0
  0
CLASS
  1
ACCMCONTEXT
  2
AcCmContext
  3
DesignerAssemblies
 90
     1024
 91
        1
280
     0
281
     0
  0
CLASS
  1
ACAMCOMPDEF
  2
AcAmCompDef
  3
DesignerAssemblies
 90
     1024
 91
        1
280
     0
281
     0
  0
CLASS
  1
ACAMCOMPDEFMGR
  2
AcAmCompDefMgr
  3
DesignerAssemblies
 90
     1024
 91
        1
280
     0
281
     0
  0
CLASS
  1
AMCONTEXTMGR
  2
AcAmContextMgr
  3
DesignerAssemblies
 90
     1024
 91
        1
280
     0
281
     0
  0
CLASS
  1
ACAMCONTEXTMODELER
  2
AcAmContextModeler
  3
DesignerAssemblies
 90
     1024
 91
        1
280
     0
281
     0
  0
CLASS
  1
CATALOGSTATE
  2
AcAmCatalogState
  3
DesignerAssemblies
 90
     1024
 91
        1
280
     0
281
     0
  0
CLASS
  1
ACAMGRCOMPDEFSET
  2
AcAmGrCompDefSet
  3
DesignerAssemblies
 90
     1024
 91
        1
280
     0
281
     0
  0
CLASS
  1
AMDTBROWSERDBTAB
  2
AmdtBrowserDbTab
  3
McadcomServices
 90
     1024
 91
        1
280
     0
281
     0
  0
CLASS
  1
CBROWSERAPPOBJECT
  2
CBrowserAppObject
  3
McadcomServices
 90
     1024
 91
        3
280
     0
281
     0
  0
CLASS
  1
DM_PLACEHOLDER
  2
AcDmSelsetPlaceholder
  3
AcMechDwgViewMgmt
 90
     1024
 91
        1
280
     0
281
     0
  0
CLASS
  1
TABLESTYLE
  2
AcDbTableStyle
  3
ObjectDBX Classes
 90
     4095
 91
        1
280
     0
281
     0
  0
CLASS
  1
VAACXREFPANELOBJECT
  2
VaAcXREFPanelObject
  3
VAAC_ADDIN
 90
        0
 91
        0
280
     0
281
     0
  0
CLASS
  1
VAACIMAGEINVENTORY
  2
VaAcImageInventory
  3
VAAC_ADDIN
 90
        0
 91
        0
280
     0
281
     0
  0
CLASS
  1
AMDTNOTETEMPLATEDB
  2
AmdtNoteTemplateDB
  3
AcmSymBB|Product Description: AutoCAD Mechanical|Company: Autodesk, Inc.
 90
     1024
 91
        6
280
     0
281
     0
  0
CLASS
  1
ACAMGFILTERDAT
  2
AcAmgFilterDat
  3
"AcadM|Product Description: AutoCAD Mechanical|Company: Autodesk, Inc."
 90
     1024
 91
        0
280
     0
281
     0
  0
CLASS
  1
MATERIAL
  2
AcDbMaterial
  3
ObjectDBX Classes
 90
     1153
 91
        3
280
     0
281
     0
  0
CLASS
  1
VISUALSTYLE
  2
AcDbVisualStyle
  3
ObjectDBX Classes
 90
     4095
 91
       16
280
     0
281
     0
  0
CLASS
  1
ACRFATTGENMGR
  2
AcRfAttGeneralMgr
  3
AcAttribServices
 90
     1024
 91
        0
280
     0
281
     0
  0
CLASS
  1
ACRFOBJATTMGR
  2
AcRfObjAttGroupMgr
  3
AcAttribServices
 90
     1024
 91
        0
280
     0
281
     0
  0
CLASS
  1
ACRFMCADAPIATTHOLDER
  2
AcRfMCADAPIAttHolder
  3
AcAttribServices
 90
     1024
 91
        0
280
     0
281
     0
  0
CLASS
  1
AMDTSYSATTR
  2
AmdtSystemAttribute
  3
AcAttribServices
 90
     1024
 91
        0
280
     0
281
     0
  0
CLASS
  1
ACMTAPERSTANDARDJIS
  2
AcmTaperStdJIS
  3
"Amdt_StdImp|Product Description: AutoCAD Mechanical|Company: Autodesk, Inc."
 90
     1024
 91
        0
280
     0
281
     0
  0
CLASS
  1
CAMSSTRUCTBTNSTATE
  2
StructBtnState
  3
DesignerAssemblies
 90
     1024
 91
        0
280
     0
281
     0
  0
CLASS
  1
SCALE
  2
AcDbScale
  3
ObjectDBX Classes
 90
     1153
 91
       36
280
     0
281
     0
  0
CLASS
  1
MLEADERSTYLE
  2
AcDbMLeaderStyle
  3
ACDB_MLEADERSTYLE_CLASS
 90
     4095
 91
        1
280
     0
281
     0
  0
CLASS
  1
ACMANOOTATIONVIEWSTANDARDJIS
  2
AmdtAnViewStdJIS
  3
"Amdt_StdImp|Product Description: AutoCAD Mechanical|Company: Autodesk, Inc."
 90
     1024
 91
        0
280
     0
281
     0
  0
CLASS
  1
ACMSURFSTANDARDJIS2003
  2
AcmSurfTextStdJIS2003
  3
"Amdt_StdImp|Product Description: AutoCAD Mechanical|Company: Autodesk, Inc."
 90
     1024
 91
        0
280
     0
281
     0
  0
CLASS
  1
CELLSTYLEMAP
  2
AcDbCellStyleMap
  3
ObjectDBX Classes
 90
     1152
 91
        2
280
     0
281
     0
  0
CLASS
  1
ACMFCFSTANDARDJIS98
  2
AcmFCFStdJIS98
  3
"Amdt_StdImp|Product Description: AutoCAD Mechanical|Company: Autodesk, Inc."
 90
     1024
 91
        0
280
     0
281
     0
  0
CLASS
  1
SORTENTSTABLE
  2
AcDbSortentsTable
  3
ObjectDBX Classes
 90
        0
 91
       14
280
     0
281
     0
  0
CLASS
  1
DIMASSOC
  2
AcDbDimAssoc
  3
"AcDbDimAssoc|Product Desc:     AcDim ARX App For Dimension|Company:          Autodesk, Inc.|WEB Address:      www.autodesk.com"
 90
        0
 91
       18
280
     0
281
     0
  0
CLASS
  1
STDPART2D
  2
AmgStdPart
  3
AmgStdPart|Product Description: AutoCAD Mechanical|Company: Autodesk, Inc.
 90
     4095
 91
        0
280
     0
281
     1
  0
CLASS
  1
ACMDATAENTRYPART
  2
AcmDataEntryPart
  3
AcmSymBB|Product Description: AutoCAD Mechanical|Company: Autodesk, Inc.
 90
     1024
 91
        0
280
     0
281
     0
  0
CLASS
  1
ACMPARTREF
  2
AcmPartRef
  3
"AcmSymBB|Product Description: AutoCAD Mechanical|Company: Autodesk, Inc."
 90
     4095
 91
        0
280
     0
281
     1
  0
CLASS
  1
ACDBSTDPARTRES_LINE
  2
AcDbStdPartRes_Line
  3
AmgStdPart|Product Description: AutoCAD Mechanical|Company: Autodesk, Inc.
 90
     1024
 91
        0
280
     0
281
     0
  0
CLASS
  1
ACMBOM
  2
AcmBom
  3
"AcmSymBB|Product Description: AutoCAD Mechanical|Company: Autodesk, Inc."
 90
     1024
 91
        0
280
     0
281
     0
  0
CLASS
  1
AMDTFORMULAUPDATEDISPATCHER
  2
AmdtFormulaUpdateDispatcher
  3
AcMeServices
 90
     1024
 91
        0
280
     0
281
     0
  0
CLASS
  1
ACMBOMROW
  2
AcmBomRow
  3
"AcmSymBB|Product Description: AutoCAD Mechanical|Company: Autodesk, Inc."
 90
     1024
 91
        0
280
     0
281
     0
  0
CLASS
  1
ACMPARTLIST
  2
AcmPartList
  3
"AcmSymBB|Product Description: AutoCAD Mechanical|Company: Autodesk, Inc."
 90
     4095
 91
        0
280
     0
281
     1
  0
CLASS
  1
ACDBLINERES
  2
AcDbLineRes
  3
AcGrefServices
 90
     1024
 91
        0
280
     0
281
     0
  0
CLASS
  1
ACRFINSADJ
  2
AcRfInsAdjuster
  3
AcMeServices
 90
     1024
 91
        0
280
     0
281
     0
  0
CLASS
  1
ACMSTANDARDISO
  2
AcmStandardISO
  3
"Amdt_StdImp|Product Description: AutoCAD Mechanical|Company: Autodesk, Inc."
 90
     1024
 91
        1
280
     0
281
     0
  0
CLASS
  1
AMDTEDGESTANDARDISO13715
  2
AmdtEdgeStdISO13715
  3
"Amdt_StdImp|Product Description: AutoCAD Mechanical|Company: Autodesk, Inc."
 90
     1024
 91
        1
280
     0
281
     0
  0
CLASS
  1
ACMSURFSTANDARDISO2002
  2
AcmSurfTextStdISO2002
  3
"Amdt_StdImp|Product Description: AutoCAD Mechanical|Company: Autodesk, Inc."
 90
     1024
 91
        1
280
     0
281
     0
  0
CLASS
  1
ACMFCFSTANDARDISO
  2
AcmFCFStdISO
  3
"Amdt_StdImp|Product Description: AutoCAD Mechanical|Company: Autodesk, Inc."
 90
     1024
 91
        1
280
     0
281
     0
  0
CLASS
  1
ACMWELDSTANDARDISO
  2
AcmWeldingStdISO
  3
"Amdt_StdImp|Product Description: AutoCAD Mechanical|Company: Autodesk, Inc."
 90
     1024
 91
        1
280
     0
281
     0
  0
CLASS
  1
ACMIDSTANDARDISO
  2
AcmIdStdISO
  3
"Amdt_StdImp|Product Description: AutoCAD Mechanical|Company: Autodesk, Inc."
 90
     1024
 91
        1
280
     0
281
     0
  0
CLASS
  1
ACMDATUMSTANDARDISO
  2
AcmDatumStdISO
  3
"Amdt_StdImp|Product Description: AutoCAD Mechanical|Company: Autodesk, Inc."
 90
     1024
 91
        1
280
     0
281
     0
  0
CLASS
  1
ACMBOMSTANDARDISO
  2
AcmBOMStdISO
  3
"Amdt_StdImp|Product Description: AutoCAD Mechanical|Company: Autodesk, Inc."
 90
     1024
 91
        1
280
     0
281
     0
  0
CLASS
  1
ACMDETAILSTANDARDISO
  2
AmdtDetailSymStdISO
  3
"Amdt_StdImp|Product Description: AutoCAD Mechanical|Company: Autodesk, Inc."
 90
     1024
 91
        1
280
     0
281
     0
  0
CLASS
  1
ACMSECTIONSTANDARDISO2001
  2
AmdtSectionSymStdISO2001
  3
"Amdt_StdImp|Product Description: AutoCAD Mechanical|Company: Autodesk, Inc."
 90
     1024
 91
        1
280
     0
281
     0
  0
CLASS
  1
ACMCENTERLINESTANDARDISO
  2
AmdtCenterLineStdISO
  3
"Amdt_StdImp|Product Description: AutoCAD Mechanical|Company: Autodesk, Inc."
 90
     1024
 91
        1
280
     0
281
     0
  0
CLASS
  1
ACMTHREADLINESTANDARDISO
  2
AmdtThreadLineStdISO
  3
"Amdt_StdImp|Product Description: AutoCAD Mechanical|Company: Autodesk, Inc."
 90
     1024
 91
        1
280
     0
281
     0
  0
CLASS
  1
ACMNOTESTANDARDISO
  2
AmdtNoteStdISO
  3
"Amdt_StdImp|Product Description: AutoCAD Mechanical|Company: Autodesk, Inc."
 90
     1024
 91
        1
280
     0
281
     0
  0
CLASS
  1
ACMTAPERSTANDARDISO
  2
AcmTaperStdISO
  3
"Amdt_StdImp|Product Description: AutoCAD Mechanical|Company: Autodesk, Inc."
 90
     1024
 91
        1
280
     0
281
     0
  0
CLASS
  1
ACMANOOTATIONVIEWSTANDARDISO
  2
AmdtAnViewStdISO
  3
"Amdt_StdImp|Product Description: AutoCAD Mechanical|Company: Autodesk, Inc."
 90
     1024
 91
        1
280
     0
281
     0
  0
CLASS
  1
ACAMGHOLECHARTSTDISO
  2
AcAmgHoleChartStdISO
  3
AmgDim|Product Description: AutoCAD Mechanical|Company: Autodesk, Inc.
 90
     1024
 91
        1
280
     0
281
     0
  0
CLASS
  1
EXACXREFPANELOBJECT
  2
ExAcXREFPanelObject
  3
EXAC_ESW
 90
     1025
 91
        0
280
     0
281
     0
  0
CLASS
  1
NPOCOLLECTION
  2
AcDbImpNonPersistentObjectsCollection
  3
ObjectDBX Classes
 90
     1153
 91
        0
280
     0
281
     0
  0
CLASS
  1
ACDBSTDPARTRES_ARC
  2
AcDbStdPartRes_Arc
  3
AmgStdPart|Product Description: AutoCAD Mechanical|Company: Autodesk, Inc.
 90
     1024
 91
        0
280
     0
281
     0
  0
CLASS
  1
AMDTNOTE
  2
AmdtNote
  3
"AcmSymBB|Product Description: AutoCAD Mechanical|Company: Autodesk, Inc."
 90
     4095
 91
        0
280
     0
281
     1
  0
CLASS
  1
PLOTSETTINGS
  2
AcDbPlotSettings
  3
ObjectDBX Classes
 90
        0
 91
        1
280
     0
281
     0
  0
CLASS
  1
ACMSTANDARDANSI
  2
AcmStandardANSI
  3
"Amdt_StdImp|Product Description: AutoCAD Mechanical|Company: Autodesk, Inc."
 90
     1024
 91
        0
280
     0
281
     0
  0
CLASS
  1
ACMSURFSTANDARDANSI
  2
AcmSurfTextStdANSI
  3
"Amdt_StdImp|Product Description: AutoCAD Mechanical|Company: Autodesk, Inc."
 90
     1024
 91
        0
280
     0
281
     0
  0
CLASS
  1
ACMFCFSTANDARDANSI
  2
AcmFCFStdANSI
  3
"Amdt_StdImp|Product Description: AutoCAD Mechanical|Company: Autodesk, Inc."
 90
     1024
 91
        0
280
     0
281
     0
  0
CLASS
  1
ACMWELDSTANDARDANSI
  2
AcmWeldingStdANSI
  3
"Amdt_StdImp|Product Description: AutoCAD Mechanical|Company: Autodesk, Inc."
 90
     1024
 91
        0
280
     0
281
     0
  0
CLASS
  1
ACMIDSTANDARDANSI
  2
AcmIdStdANSI
  3
"Amdt_StdImp|Product Description: AutoCAD Mechanical|Company: Autodesk, Inc."
 90
     1024
 91
        0
280
     0
281
     0
  0
CLASS
  1
ACMDATUMSTANDARDANSI
  2
AcmDatumStdANSI
  3
"Amdt_StdImp|Product Description: AutoCAD Mechanical|Company: Autodesk, Inc."
 90
     1024
 91
        0
280
     0
281
     0
  0
CLASS
  1
ACMBOMSTANDARDANSI
  2
AcmBOMStdANSI
  3
"Amdt_StdImp|Product Description: AutoCAD Mechanical|Company: Autodesk, Inc."
 90
     1024
 91
        0
280
     0
281
     0
  0
CLASS
  1
ACMDETAILSTANDARDANSI
  2
AmdtDetailSymStdANSI
  3
"Amdt_StdImp|Product Description: AutoCAD Mechanical|Company: Autodesk, Inc."
 90
     1024
 91
        0
280
     0
281
     0
  0
CLASS
  1
ACMSECTIONSTANDARDANSI
  2
AmdtSectionSymStdANSI
  3
"Amdt_StdImp|Product Description: AutoCAD Mechanical|Company: Autodesk, Inc."
 90
     1024
 91
        0
280
     0
281
     0
  0
CLASS
  1
ACMCENTERLINESTANDARDANSI
  2
AmdtCenterLineStdANSI
  3
"Amdt_StdImp|Product Description: AutoCAD Mechanical|Company: Autodesk, Inc."
 90
     1024
 91
        0
280
     0
281
     0
  0
CLASS
  1
ACMTHREADLINESTANDARDANSI
  2
AmdtThreadLineStdANSI
  3
"Amdt_StdImp|Product Description: AutoCAD Mechanical|Company: Autodesk, Inc."
 90
     1024
 91
        0
280
     0
281
     0
  0
CLASS
  1
ACMNOTESTANDARDANSI
  2
AmdtNoteStdANSI
  3
"Amdt_StdImp|Product Description: AutoCAD Mechanical|Company: Autodesk, Inc."
 90
     1024
 91
        0
280
     0
281
     0
  0
CLASS
  1
ACMTAPERSTANDARDANSI
  2
AcmTaperStdANSI
  3
"Amdt_StdImp|Product Description: AutoCAD Mechanical|Company: Autodesk, Inc."
 90
     1024
 91
        0
280
     0
281
     0
  0
CLASS
  1
ACMANOOTATIONVIEWSTANDARDANSI
  2
AmdtAnViewStdANSI
  3
"Amdt_StdImp|Product Description: AutoCAD Mechanical|Company: Autodesk, Inc."
 90
     1024
 91
        0
280
     0
281
     0
  0
CLASS
  1
ACAMGHOLECHARTSTDANSI
  2
AcAmgHoleChartStdANSI
  3
AmgDim|Product Description: AutoCAD Mechanical|Company: Autodesk, Inc.
 90
     1024
 91
        0
280
     0
281
     0
  0
CLASS
  1
ACMSTANDARDBSI
  2
AcmStandardBSI
  3
"Amdt_StdImp|Product Description: AutoCAD Mechanical|Company: Autodesk, Inc."
 90
     1024
 91
        0
280
     0
281
     0
  0
CLASS
  1
ACMSURFSTANDARDBSI2002
  2
AcmSurfTextStdBSI2002
  3
"Amdt_StdImp|Product Description: AutoCAD Mechanical|Company: Autodesk, Inc."
 90
     1024
 91
        0
280
     0
281
     0
  0
CLASS
  1
ACMFCFSTANDARDBSI
  2
AcmFCFStdBSI
  3
"Amdt_StdImp|Product Description: AutoCAD Mechanical|Company: Autodesk, Inc."
 90
     1024
 91
        0
280
     0
281
     0
  0
CLASS
  1
ACMWELDSTANDARDBSI
  2
AcmWeldingStdBSI
  3
"Amdt_StdImp|Product Description: AutoCAD Mechanical|Company: Autodesk, Inc."
 90
     1024
 91
        0
280
     0
281
     0
  0
CLASS
  1
ACMIDSTANDARDBSI
  2
AcmIdStdBSI
  3
"Amdt_StdImp|Product Description: AutoCAD Mechanical|Company: Autodesk, Inc."
 90
     1024
 91
        0
280
     0
281
     0
  0
CLASS
  1
ACMDATUMSTANDARDBSI
  2
AcmDatumStdBSI
  3
"Amdt_StdImp|Product Description: AutoCAD Mechanical|Company: Autodesk, Inc."
 90
     1024
 91
        0
280
     0
281
     0
  0
CLASS
  1
ACMBOMSTANDARDBSI
  2
AcmBOMStdBSI
  3
"Amdt_StdImp|Product Description: AutoCAD Mechanical|Company: Autodesk, Inc."
 90
     1024
 91
        0
280
     0
281
     0
  0
CLASS
  1
ACMDETAILSTANDARDBSI
  2
AmdtDetailSymStdBSI
  3
"Amdt_StdImp|Product Description: AutoCAD Mechanical|Company: Autodesk, Inc."
 90
     1024
 91
        0
280
     0
281
     0
  0
CLASS
  1
ACMSECTIONSTANDARDBSI2001
  2
AmdtSectionSymStdBSI2001
  3
"Amdt_StdImp|Product Description: AutoCAD Mechanical|Company: Autodesk, Inc."
 90
     1024
 91
        0
280
     0
281
     0
  0
CLASS
  1
ACMCENTERLINESTANDARDBSI
  2
AmdtCenterLineStdBSI
  3
"Amdt_StdImp|Product Description: AutoCAD Mechanical|Company: Autodesk, Inc."
 90
     1024
 91
        0
280
     0
281
     0
  0
CLASS
  1
ACMTHREADLINESTANDARDBSI
  2
AmdtThreadLineStdBSI
  3
"Amdt_StdImp|Product Description: AutoCAD Mechanical|Company: Autodesk, Inc."
 90
     1024
 91
        0
280
     0
281
     0
  0
CLASS
  1
ACMNOTESTANDARDBSI
  2
AmdtNoteStdBSI
  3
"Amdt_StdImp|Product Description: AutoCAD Mechanical|Company: Autodesk, Inc."
 90
     1024
 91
        0
280
     0
281
     0
  0
CLASS
  1
ACMTAPERSTANDARDBSI
  2
AcmTaperStdBSI
  3
"Amdt_StdImp|Product Description: AutoCAD Mechanical|Company: Autodesk, Inc."
 90
     1024
 91
        0
280
     0
281
     0
  0
CLASS
  1
ACMANOOTATIONVIEWSTANDARDBSI
  2
AmdtAnViewStdBSI
  3
"Amdt_StdImp|Product Description: AutoCAD Mechanical|Company: Autodesk, Inc."
 90
     1024
 91
        0
280
     0
281
     0
  0
CLASS
  1
ACAMGHOLECHARTSTDBSI
  2
AcAmgHoleChartStdBSI
  3
AmgDim|Product Description: AutoCAD Mechanical|Company: Autodesk, Inc.
 90
     1024
 91
        0
280
     0
281
     0
  0
CLASS
  1
AMDTEDGESTANDARDJIS
  2
AmdtEdgeStdJIS
  3
"Amdt_StdImp|Product Description: AutoCAD Mechanical|Company: Autodesk, Inc."
 90
     1024
 91
        0
280
     0
281
     0
  0
CLASS
  1
ACMSURFSYM
  2
AcmSurfaceTexture
  3
"AcmSymBB|Product Description: AutoCAD Mechanical|Company: Autodesk, Inc."
 90
     4095
 91
        0
280
     0
281
     1
  0
CLASS
  1
ACDBDIMENSIONRES
  2
AcDbDimensionRes
  3
AcmSymBB|Product Description: AutoCAD Mechanical|Company: Autodesk, Inc.
 90
     1024
 91
        0
280
     0
281
     0
  0
CLASS
  1
ACDBCIRCARCRES
  2
AcDbCircArcRes
  3
AcGrefServices
 90
     1024
 91
        0
280
     0
281
     0
  0
CLASS
  1
ACMDIMBREAKPERSREACTOR
  2
AcmDimBreakPersReactor
  3
AmgDim|Product Description: AutoCAD Mechanical|Company: Autodesk, Inc.
 90
     4095
 91
        0
280
     0
281
     0
  0
CLASS
  1
ACDBOPPOLYLINERES
  2
AcDbOpPolylineRes
  3
AcGrefServices
 90
     1024
 91
        0
280
     0
281
     0
  0
CLASS
  1
AMDTACMWBLOCKBOMENTITY
  2
AmdtAcmWblockBomEntity
  3
"AcmSymBB|Product Description: AutoCAD Mechanical|Company: Autodesk, Inc."
 90
     4095
 91
        0
280
     0
281
     1
  0
CLASS
  1
ACDB_BLKREFOBJECTCONTEXTDATA_CLASS
  2
AcDbBlkRefObjectContextData
  3
ObjectDBX Classes
 90
     1153
 91
        0
280
     0
281
     0
  0
CLASS
  1
ACMPICKOBJ
  2
AcmPickEnt
  3
"AcmSymBB|Product Description: AutoCAD Mechanical|Company: Autodesk, Inc."
 90
     1024
 91
        0
280
     0
281
     1
  0
CLASS
  1
ACDBELLIPSERES
  2
AcDbEllipseRes
  3
AcGrefServices
 90
     1024
 91
        0
280
     0
281
     0
  0
CLASS
  1
ACMBALLOON
  2
AcmBalloon
  3
"AcmSymBB|Product Description: AutoCAD Mechanical|Company: Autodesk, Inc."
 90
     4095
 91
        0
280
     0
281
     1
  0
CLASS
  1
BREAKDATA
  2
AcDbBreakData
  3
ObjectDBX Classes
 90
     1024
 91
        0
280
     0
281
     0
  0
CLASS
  1
ACMFCFRAME
  2
AcmFCF
  3
"AcmSymBB|Product Description: AutoCAD Mechanical|Company: Autodesk, Inc."
 90
     4095
 91
        0
280
     0
281
     1
  0
CLASS
  1
ACMDATUMID
  2
AcmDatumId
  3
"AcmSymBB|Product Description: AutoCAD Mechanical|Company: Autodesk, Inc."
 90
     4095
 91
        0
280
     0
281
     1
  0
CLASS
  1
ACMWELDSYM
  2
AcmWelding
  3
"AcmSymBB|Product Description: AutoCAD Mechanical|Company: Autodesk, Inc."
 90
     4095
 91
        0
280
     0
281
     1
  0
ENDSEC
  0
SECTION
  2
TABLES
  0
TABLE
  2
VPORT
  5
8
330
0
100
AcDbSymbolTable
 70
     1
  0
VPORT
  5
27A
330
8
100
AcDbSymbolTableRecord
100
AcDbViewportTableRecord
  2
*Active
 70
     0
 10
0.0
 20
0.0
 11
1.0
 21
1.0
 12
891.7181443859355
 22
813.6139571359391
 13
0.0
 23
0.0
 14
10.0
 24
10.0
 15
40.0
 25
40.0
 16
0.0
 26
0.0
 36
1.0
 17
0.0
 27
0.0
 37
0.0
 40
564.1436900757099
 41
1.571428571428571
 42
50.0
 43
0.0
 44
0.0
 50
0.0
 51
0.0
 71
    16
 72
 20000
 73
     1
 74
     3
 75
     0
 76
     0
 77
     0
 78
     0
281
     0
 65
     0
110
0.0
120
0.0
130
0.0
111
1.0
121
0.0
131
0.0
112
0.0
122
1.0
132
0.0
 79
     0
146
0.0
348
285
 60
     3
 61
     5
292
     1
282
     0
141
0.0
142
0.0
 63
   250
421
  3355443
  0
ENDTAB
  0
TABLE
  2
LTYPE
  5
5
330
0
100
AcDbSymbolTable
 70
    22
  0
LTYPE
  5
14
330
5
100
AcDbSymbolTableRecord
100
AcDbLinetypeTableRecord
  2
ByBlock
 70
     0
  3

 72
    65
 73
     0
 40
0.0
  0
LTYPE
  5
15
330
5
100
AcDbSymbolTableRecord
100
AcDbLinetypeTableRecord
  2
ByLayer
 70
     0
  3

 72
    65
 73
     0
 40
0.0
  0
LTYPE
  5
16
330
5
100
AcDbSymbolTableRecord
100
AcDbLinetypeTableRecord
  2
Continuous
 70
     0
  3
Solid line
 72
    65
 73
     0
 40
0.0
  0
LTYPE
  5
4D
330
5
100
AcDbSymbolTableRecord
100
AcDbLinetypeTableRecord
  2
AM_ISO02W050
 70
     0
  3
__ __ __ __ __ __ __ __ __ __ __ __ __ __ __
 72
    65
 73
     2
 40
7.5
 49
6.0
 74
     0
 49
-1.5
 74
     0
  0
LTYPE
  5
4E
330
5
100
AcDbSymbolTableRecord
100
AcDbLinetypeTableRecord
  2
AM_ISO08W050
 70
     0
  3
____ . ____ . ____ . ____ . ____ . ____ . ____
 72
    65
 73
     4
 40
18.0
 49
12.0
 74
     0
 49
-1.5
 74
     0
 49
3.0
 74
     0
 49
-1.5
 74
     0
  0
LTYPE
  5
4F
330
5
100
AcDbSymbolTableRecord
100
AcDbLinetypeTableRecord
  2
AM_ISO09W050
 70
     0
  3
_____ . . _____ . . _____ . . ____ .. ____
 72
    65
 73
     6
 40
22.5
 49
12.0
 74
     0
 49
-1.5
 74
     0
 49
3.0
 74
     0
 49
-1.5
 74
     0
 49
3.0
 74
     0
 49
-1.5
 74
     0
  0
LTYPE
  5
50
330
5
100
AcDbSymbolTableRecord
100
AcDbLinetypeTableRecord
  2
Amconstr
 70
     0
  3
_______________________
 72
    65
 73
     2
 40
9999.0
 49
9999.0
 74
     0
 49
0.0
 74
     0
  0
LTYPE
  5
51
330
5
100
AcDbSymbolTableRecord
100
AcDbLinetypeTableRecord
  2
AM_ISO08W050x2
 70
     0
  3
__ . __ . __ . __ . __ . __
 72
    65
 73
     4
 40
9.0
 49
6.0
 74
     0
 49
-0.75
 74
     0
 49
1.5
 74
     0
 49
-0.75
 74
     0
  0
LTYPE
  5
52
330
5
100
AcDbSymbolTableRecord
100
AcDbLinetypeTableRecord
  2
AM_ISO02W050x2
 70
     0
  3
 _ _ _ _ _ _ _ _ _ _ _ _
 72
    65
 73
     2
 40
3.75
 49
3.0
 74
     0
 49
-0.75
 74
     0
  0
LTYPE
  5
55
330
5
100
AcDbSymbolTableRecord
100
AcDbLinetypeTableRecord
  2
Amzigzag
 70
     0
  3
/\/-/\/-/\/-/\/-/\/-/\/
 72
    65
 73
     2
 40
11.0001
 49
0.0001
 74
     4
 75
   136
340
23D
 46
0.04
 50
0.0
 44
0.0
 45
0.0
 49
-11.0
 74
     0
  0
LTYPE
  5
65
330
5
100
AcDbSymbolTableRecord
100
AcDbLinetypeTableRecord
  2
CENTER
 70
     0
  3
__ . __
 72
    65
 73
     4
 40
7.0
 49
4.0
 74
     0
 49
-1.0
 74
     0
 49
1.0
 74
     0
 49
-1.0
 74
     0
  0
LTYPE
  5
E0
330
5
100
AcDbSymbolTableRecord
100
AcDbLinetypeTableRecord
  2
HIDDEN
 70
     0
  3
Hidden __ __ __ __ __ __ __ __ __ __ __ __ __ _
 72
    65
 73
     2
 40
9.524999999999996
 49
6.349999999999998
 74
     0
 49
-3.174999999999998
 74
     0
  0
LTYPE
  5
E1
330
5
100
AcDbSymbolTableRecord
100
AcDbLinetypeTableRecord
  2
PHANTOM2
 70
     0
  3
Phantom (.5x) ___ _ _ ___ _ _ ___ _ _ ___ _ _
 72
    65
 73
     6
 40
31.75
 49
15.875
 74
     0
 49
-3.174999999999998
 74
     0
 49
3.174999999999998
 74
     0
 49
-3.174999999999998
 74
     0
 49
3.174999999999998
 74
     0
 49
-3.174999999999998
 74
     0
  0
LTYPE
  5
5A2
330
5
100
AcDbSymbolTableRecord
100
AcDbLinetypeTableRecord
  2
ACJISWELD
 70
     0
  3
_ _ _ _ _
 72
    65
 73
     2
 40
2.0
 49
2.0
 74
     0
 49
-1.0
 74
     0
  0
LTYPE
  5
9C22
330
5
100
AcDbSymbolTableRecord
100
AcDbLinetypeTableRecord
  2
ACISOWELD
 70
     0
  3
_ _ _ _ _
 72
    65
 73
     2
 40
2.0
 49
2.0
 74
     0
 49
-1.0
 74
     0
  0
LTYPE
  5
9C23
330
5
100
AcDbSymbolTableRecord
100
AcDbLinetypeTableRecord
  2
ACISOTGB
 70
     0
  3
__ . . __ . .
 72
    65
 73
     6
 40
9.0
 49
4.0
 74
     0
 49
-1.0
 74
     0
 49
1.0
 74
     0
 49
-1.0
 74
     0
 49
1.0
 74
     0
 49
-1.0
 74
     0
  0
LTYPE
  5
9C24
330
5
100
AcDbSymbolTableRecord
100
AcDbLinetypeTableRecord
  2
ACISOTGL
 70
     0
  3
_ _ _ _ _
 72
    65
 73
     2
 40
3.0
 49
2.0
 74
     0
 49
-1.0
 74
     0
  0
ENDTAB
  0
TABLE
  2
LAYER
  5
2
102
{ACAD_XDICTIONARY
360
BF
102
}
330
0
100
AcDbSymbolTable
 70
    13
  0
LAYER
  5
10
102
{ACAD_XDICTIONARY
360
29F7
102
}
330
2
100
AcDbSymbolTableRecord
100
AcDbLayerTableRecord
  2
0
 70
     0
 62
     7
  6
Continuous
370
    -3
390
F
347
27E
  0
LAYER
  5
81
102
{ACAD_XDICTIONARY
360
29F9
102
}
330
2
100
AcDbSymbolTableRecord
100
AcDbLayerTableRecord
  2
AM_0 外形線1
 70
     0
 62
     7
  6
Continuous
370
    25
390
F
347
27E
  0
LAYER
  5
427
330
2
100
AcDbSymbolTableRecord
100
AcDbLayerTableRecord
  2
Defpoints
 70
     0
 62
     7
  6
Continuous
290
     0
370
    -3
390
F
347
27E
  0
LAYER
  5
2D67
102
{ACAD_XDICTIONARY
360
2D68
102
}
330
2
100
AcDbSymbolTableRecord
100
AcDbLayerTableRecord
  2
AM_6 文字
 70
     0
 62
     2
  6
Continuous
370
    13
390
F
347
27E
1001
AcAecLayerStandard
1000

1000

  0
LAYER
  5
2D69
330
2
100
AcDbSymbolTableRecord
100
AcDbLayerTableRecord
  2
AM_5 寸法線
 70
     0
 62
     3
  6
Continuous
370
    13
390
F
347
27E
1001
AcAecLayerStandard
1000

1000

  0
LAYER
  5
2D6A
330
2
100
AcDbSymbolTableRecord
100
AcDbLayerTableRecord
  2
AM_4 細線
 70
     0
 62
     4
  6
Continuous
370
    13
390
F
347
27E
1001
AcAecLayerStandard
1000

1000

  0
LAYER
  5
2D6B
330
2
100
AcDbSymbolTableRecord
100
AcDbLayerTableRecord
  2
AM_7 中心線
 70
     0
 62
     1
  6
AM_ISO08W050
370
    13
390
F
347
27E
1001
AcAecLayerStandard
1000

1000

  0
LAYER
  5
2D6C
330
2
100
AcDbSymbolTableRecord
100
AcDbLayerTableRecord
  2
AM_3 隠れ線
 70
     0
 62
     8
  6
ACJISWELD
370
    13
390
F
347
27E
1001
AcAecLayerStandard
1000

1000

  0
LAYER
  5
72DB
102
{ACAD_XDICTIONARY
360
72DC
102
}
330
2
100
AcDbSymbolTableRecord
100
AcDbLayerTableRecord
  2
AM_8 ハッチング
 70
     0
 62
     1
  6
Continuous
370
    13
390
F
347
27E
1001
AcAecLayerStandard
1000

1000

  0
LAYER
  5
950B
330
2
100
AcDbSymbolTableRecord
100
AcDbLayerTableRecord
  2
AM_11 想像線
 70
     0
 62
     5
  6
AM_ISO09W050
370
    13
390
F
347
27E
1001
AcAecLayerStandard
1000

1000

  0
ENDTAB
  0
TABLE
  2
STYLE
  5
3
330
0
100
AcDbSymbolTable
 70
    11
  0
STYLE
  5
11
330
3
100
AcDbSymbolTableRecord
100
AcDbTextStyleTableRecord
  2
STANDARD
 70
     0
 40
0.0
 41
1.0
 50
0.0
 71
     0
 42
25.0
  3
ISOCP.SHX
  4
EXTFONT.SHX
  0
STYLE
  5
23D
330
3
100
AcDbSymbolTableRecord
100
AcDbTextStyleTableRecord
  2

 70
     1
 40
0.0
 41
1.0
 50
0.0
 71
     0
 42
2.5
  3
genltshp.shx
  4

  0
STYLE
  5
5D5
330
3
100
AcDbSymbolTableRecord
100
AcDbTextStyleTableRecord
  2
SEISA
 70
     0
 40
0.0
 41
0.9
 50
0.0
 71
     0
 42
25.0
  3
romans.shx
  4
extfont2.shx
  0
STYLE
  5
9C12
330
3
100
AcDbSymbolTableRecord
100
AcDbTextStyleTableRecord
  2
ACISOTS
 70
     0
 40
1.0
 41
1.0
 50
0.0
 71
     0
 42
25.0
  3
isocp.shx
  4
extfont.shx
  0
STYLE
  5
9C21
330
3
100
AcDbSymbolTableRecord
100
AcDbTextStyleTableRecord
  2
ACISOGDT
 70
     0
 40
0.0
 41
1.0
 50
0.0
 71
     0
 42
25.0
  3
amgdt.shx
  4

  0
ENDTAB
  0
TABLE
  2
VIEW
  5
6
330
0
100
AcDbSymbolTable
 70
     6
  0
VIEW
  5
91B
330
6
100
AcDbSymbolTableRecord
100
AcDbViewTableRecord
  2
AM_VIEW1
 70
     0
 40
594.0000000000001
 10
574.2487692386418
 20
891.0000014775285
 41
1148.497536945813
 11
0.0
 21
0.0
 31
1.0
 12
0.0
 22
0.0
 32
0.0
 42
50.0
 43
0.0
 44
0.0
 50
0.0
 71
    16
281
     0
 72
     0
 73
     0
  0
VIEW
  5
91C
330
6
100
AcDbSymbolTableRecord
100
AcDbViewTableRecord
  2
AM_VIEW2
 70
     0
 40
594.0000000000001
 10
1105.751232292829
 20
891.0000014775285
 41
1148.497536945813
 11
0.0
 21
0.0
 31
1.0
 12
0.0
 22
0.0
 32
0.0
 42
50.0
 43
0.0
 44
0.0
 50
0.0
 71
    16
281
     0
 72
     0
 73
     0
  0
VIEW
  5
91D
330
6
100
AcDbSymbolTableRecord
100
AcDbViewTableRecord
  2
AM_VIEW3
 70
     0
 40
594.0000000000001
 10
574.2487692386418
 20
297.0000014775283
 41
1148.497536945813
 11
0.0
 21
0.0
 31
1.0
 12
0.0
 22
0.0
 32
0.0
 42
50.0
 43
0.0
 44
0.0
 50
0.0
 71
    16
281
     0
 72
     0
 73
     0
  0
VIEW
  5
91E
330
6
100
AcDbSymbolTableRecord
100
AcDbViewTableRecord
  2
AM_VIEW4
 70
     0
 40
594.0000000000001
 10
1105.751232292829
 20
297.0000014775283
 41
1148.497536945813
 11
0.0
 21
0.0
 31
1.0
 12
0.0
 22
0.0
 32
0.0
 42
50.0
 43
0.0
 44
0.0
 50
0.0
 71
    16
281
     0
 72
     0
 73
     0
  0
VIEW
  5
91F
330
6
100
AcDbSymbolTableRecord
100
AcDbViewTableRecord
  2
AM_VIEW5
 70
     0
 40
594.0000000000002
 10
840.0000007657352
 20
594.0000014775282
 41
1148.497536945813
 11
0.0
 21
0.0
 31
1.0
 12
0.0
 22
0.0
 32
0.0
 42
50.0
 43
0.0
 44
0.0
 50
0.0
 71
    16
281
     0
 72
     0
 73
     0
  0
VIEW
  5
920
330
6
100
AcDbSymbolTableRecord
100
AcDbViewTableRecord
  2
AM_VIEW6
 70
     0
 40
1187.98812
 10
840.0000007657352
 20
594.0000014775282
 41
2296.972103940888
 11
0.0
 21
0.0
 31
1.0
 12
0.0
 22
0.0
 32
0.0
 42
50.0
 43
0.0
 44
0.0
 50
0.0
 71
    16
281
     0
 72
     0
 73
     0
  0
ENDTAB
  0
TABLE
  2
UCS
  5
7
330
0
100
AcDbSymbolTable
 70
     0
  0
ENDTAB
  0
TABLE
  2
APPID
  5
9
330
0
100
AcDbSymbolTable
 70
   397
  0
APPID
  5
12
330
9
100
AcDbSymbolTableRecord
100
AcDbRegAppTableRecord
  2
ACAD
 70
     0
  0
APPID
  5
30
330
9
100
AcDbSymbolTableRecord
100
AcDbRegAppTableRecord
  2
MCAD_NO_VIS
 70
     0
  0
APPID
  5
31
330
9
100
AcDbSymbolTableRecord
100
AcDbRegAppTableRecord
  2
ACAD_TEMP_GRAPHIC
 70
     0
  0
APPID
  5
44
330
9
100
AcDbSymbolTableRecord
100
AcDbRegAppTableRecord
  2
ACATTRIBSERVICES
 70
     0
  0
APPID
  5
F6
330
9
100
AcDbSymbolTableRecord
100
AcDbRegAppTableRecord
  2
AD_DRAW
 70
     0
  0
APPID
  5
114
330
9
100
AcDbSymbolTableRecord
100
AcDbRegAppTableRecord
  2
DESIGNERASSEMBLIES
 70
     0
  0
APPID
  5
118
330
9
100
AcDbSymbolTableRecord
100
AcDbRegAppTableRecord
  2
ACADM_DIM_EDIT
 70
     0
  0
APPID
  5
119
330
9
100
AcDbSymbolTableRecord
100
AcDbRegAppTableRecord
  2
AMDT_DM_ADJ
 70
     0
  0
APPID
  5
1AF
330
9
100
AcDbSymbolTableRecord
100
AcDbRegAppTableRecord
  2
ACAD_DSTYLE_DIMARC_LENGTH_SYMBOL
 70
     0
  0
APPID
  5
1B0
330
9
100
AcDbSymbolTableRecord
100
AcDbRegAppTableRecord
  2
ACAD_DSTYLE_DIMJOGGED_JOGANGLE_SYMBOL
 70
     0
  0
APPID
  5
2D7
330
9
100
AcDbSymbolTableRecord
100
AcDbRegAppTableRecord
  2
ACAD_MLEADERVER
 70
     0
  0
APPID
  5
355
330
9
100
AcDbSymbolTableRecord
100
AcDbRegAppTableRecord
  2
AcadAnnoPO
 70
     0
  0
APPID
  5
428
330
9
100
AcDbSymbolTableRecord
100
AcDbRegAppTableRecord
  2
ACAD_DSTYLE_DIMTEXT_FILL
 70
     0
  0
APPID
  5
429
330
9
100
AcDbSymbolTableRecord
100
AcDbRegAppTableRecord
  2
GENIUS_GENSCREG_15
 70
     0
  0
APPID
  5
42A
330
9
100
AcDbSymbolTableRecord
100
AcDbRegAppTableRecord
  2
GENIUS_GENOBJ-N-SDF_13
 70
     0
  0
APPID
  5
42B
330
9
100
AcDbSymbolTableRecord
100
AcDbRegAppTableRecord
  2
GENIUS_GENODEF_13
 70
     0
  0
APPID
  5
42C
330
9
100
AcDbSymbolTableRecord
100
AcDbRegAppTableRecord
  2
ACAD_EXEMPT_FROM_CAD_STANDARDS
 70
     0
  0
APPID
  5
42D
330
9
100
AcDbSymbolTableRecord
100
AcDbRegAppTableRecord
  2
AcAecLayerStandard
 70
     0
  0
APPID
  5
42E
330
9
100
AcDbSymbolTableRecord
100
AcDbRegAppTableRecord
  2
GENIUS_GENOBJ-N-CEN_13
 70
     0
  0
APPID
  5
42F
330
9
100
AcDbSymbolTableRecord
100
AcDbRegAppTableRecord
  2
GENIUS_GENCEN_19
 70
     0
  0
APPID
  5
430
330
9
100
AcDbSymbolTableRecord
100
AcDbRegAppTableRecord
  2
ACAD_DSTYLE_DIMINSPECT
 70
     0
  0
APPID
  5
431
330
9
100
AcDbSymbolTableRecord
100
AcDbRegAppTableRecord
  2
GENIUS_AMGTXT_16
 70
     0
  0
APPID
  5
432
330
9
100
AcDbSymbolTableRecord
100
AcDbRegAppTableRecord
  2
GENIUS_GENFIL_13
 70
     0
  0
APPID
  5
433
330
9
100
AcDbSymbolTableRecord
100
AcDbRegAppTableRecord
  2
GENIUS_GENOLIS_13
 70
     0
  0
APPID
  5
434
330
9
100
AcDbSymbolTableRecord
100
AcDbRegAppTableRecord
  2
GENIUS_GENOBJ-N-CHA_13
 70
     0
  0
APPID
  5
435
330
9
100
AcDbSymbolTableRecord
100
AcDbRegAppTableRecord
  2
GENIUS_GENOENT_13
 70
     0
  0
APPID
  5
436
330
9
100
AcDbSymbolTableRecord
100
AcDbRegAppTableRecord
  2
GENIUS_GENOREF_13
 70
     0
  0
APPID
  5
437
330
9
100
AcDbSymbolTableRecord
100
AcDbRegAppTableRecord
  2
GENIUS_GENOBJ-N-FIL_13
 70
     0
  0
APPID
  5
438
330
9
100
AcDbSymbolTableRecord
100
AcDbRegAppTableRecord
  2
GEVID1208829536
 70
     0
  0
APPID
  5
439
330
9
100
AcDbSymbolTableRecord
100
AcDbRegAppTableRecord
  2
GEVDC
 70
     0
  0
APPID
  5
43A
330
9
100
AcDbSymbolTableRecord
100
AcDbRegAppTableRecord
  2
GEVRADREF
 70
     0
  0
APPID
  5
43B
330
9
100
AcDbSymbolTableRecord
100
AcDbRegAppTableRecord
  2
GENIUS_GENBH_13
 70
     0
  0
APPID
  5
43C
330
9
100
AcDbSymbolTableRecord
100
AcDbRegAppTableRecord
  2
GENIUS_GENOBJ-NBEHI-BHF_13
 70
     0
  0
APPID
  5
43D
330
9
100
AcDbSymbolTableRecord
100
AcDbRegAppTableRecord
  2
GENIUS_GENOBJ-NBEHI-BHB_13
 70
     0
  0
APPID
  5
43E
330
9
100
AcDbSymbolTableRecord
100
AcDbRegAppTableRecord
  2
GEVID1208829537
 70
     0
  0
APPID
  5
43F
330
9
100
AcDbSymbolTableRecord
100
AcDbRegAppTableRecord
  2
ACAD_DSTYLE_DIMJAG
 70
     0
  0
APPID
  5
440
330
9
100
AcDbSymbolTableRecord
100
AcDbRegAppTableRecord
  2
ACAD_DSTYLE_DIMTALN
 70
     0
  0
APPID
  5
441
330
9
100
AcDbSymbolTableRecord
100
AcDbRegAppTableRecord
  2
AMG_2DHIDE
 70
     0
  0
APPID
  5
442
330
9
100
AcDbSymbolTableRecord
100
AcDbRegAppTableRecord
  2
AMG_2DSTRUCT_BTR
 70
     0
  0
APPID
  5
443
330
9
100
AcDbSymbolTableRecord
100
AcDbRegAppTableRecord
  2
GEVID1208845772
 70
     0
  0
APPID
  5
444
330
9
100
AcDbSymbolTableRecord
100
AcDbRegAppTableRecord
  2
GEVID1208845773
 70
     0
  0
APPID
  5
445
330
9
100
AcDbSymbolTableRecord
100
AcDbRegAppTableRecord
  2
ACADM_2DVIEW_IGN_NOTIFY
 70
     0
  0
APPID
  5
446
330
9
100
AcDbSymbolTableRecord
100
AcDbRegAppTableRecord
  2
GEVID1208845774
 70
     0
  0
APPID
  5
447
330
9
100
AcDbSymbolTableRecord
100
AcDbRegAppTableRecord
  2
GEVID1208845775
 70
     0
  0
APPID
  5
448
330
9
100
AcDbSymbolTableRecord
100
AcDbRegAppTableRecord
  2
GEVID1208845776
 70
     0
  0
APPID
  5
449
330
9
100
AcDbSymbolTableRecord
100
AcDbRegAppTableRecord
  2
GEVID1208845777
 70
     0
  0
APPID
  5
44A
330
9
100
AcDbSymbolTableRecord
100
AcDbRegAppTableRecord
  2
GEVCON
 70
     0
  0
APPID
  5
44B
330
9
100
AcDbSymbolTableRecord
100
AcDbRegAppTableRecord
  2
GENIUS_GENOBJ-F-SCPASSM_13
 70
     0
  0
APPID
  5
44C
330
9
100
AcDbSymbolTableRecord
100
AcDbRegAppTableRecord
  2
GEVID1208845778
 70
     0
  0
APPID
  5
44D
330
9
100
AcDbSymbolTableRecord
100
AcDbRegAppTableRecord
  2
GEVID1208845779
 70
     0
  0
APPID
  5
44E
330
9
100
AcDbSymbolTableRecord
100
AcDbRegAppTableRecord
  2
GEVID1208845780
 70
     0
  0
APPID
  5
44F
330
9
100
AcDbSymbolTableRecord
100
AcDbRegAppTableRecord
  2
GEVID1208845781
 70
     0
  0
APPID
  5
450
330
9
100
AcDbSymbolTableRecord
100
AcDbRegAppTableRecord
  2
GEVID1208845782
 70
     0
  0
APPID
  5
451
330
9
100
AcDbSymbolTableRecord
100
AcDbRegAppTableRecord
  2
GEVID1208845783
 70
     0
  0
APPID
  5
452
330
9
100
AcDbSymbolTableRecord
100
AcDbRegAppTableRecord
  2
GEVID1208845784
 70
     0
  0
APPID
  5
453
330
9
100
AcDbSymbolTableRecord
100
AcDbRegAppTableRecord
  2
GEVID1208845785
 70
     0
  0
APPID
  5
454
330
9
100
AcDbSymbolTableRecord
100
AcDbRegAppTableRecord
  2
GEVID1208845787
 70
     0
  0
APPID
  5
455
330
9
100
AcDbSymbolTableRecord
100
AcDbRegAppTableRecord
  2
GEVID1208845788
 70
     0
  0
APPID
  5
456
330
9
100
AcDbSymbolTableRecord
100
AcDbRegAppTableRecord
  2
GEVID1208845789
 70
     0
  0
APPID
  5
457
330
9
100
AcDbSymbolTableRecord
100
AcDbRegAppTableRecord
  2
GEVID1208845790
 70
     0
  0
APPID
  5
458
330
9
100
AcDbSymbolTableRecord
100
AcDbRegAppTableRecord
  2
GEVID1208845791
 70
     0
  0
APPID
  5
459
330
9
100
AcDbSymbolTableRecord
100
AcDbRegAppTableRecord
  2
GEVID1208845792
 70
     0
  0
APPID
  5
45A
330
9
100
AcDbSymbolTableRecord
100
AcDbRegAppTableRecord
  2
GEVID1208845793
 70
     0
  0
APPID
  5
45B
330
9
100
AcDbSymbolTableRecord
100
AcDbRegAppTableRecord
  2
GEVID1208845794
 70
     0
  0
APPID
  5
45C
330
9
100
AcDbSymbolTableRecord
100
AcDbRegAppTableRecord
  2
GEVID1208845795
 70
     0
  0
APPID
  5
45D
330
9
100
AcDbSymbolTableRecord
100
AcDbRegAppTableRecord
  2
GEVID1208845796
 70
     0
  0
APPID
  5
45E
330
9
100
AcDbSymbolTableRecord
100
AcDbRegAppTableRecord
  2
GEVID1208845797
 70
     0
  0
APPID
  5
45F
330
9
100
AcDbSymbolTableRecord
100
AcDbRegAppTableRecord
  2
GEVID1208845798
 70
     0
  0
APPID
  5
460
330
9
100
AcDbSymbolTableRecord
100
AcDbRegAppTableRecord
  2
GEVID1208845799
 70
     0
  0
APPID
  5
461
330
9
100
AcDbSymbolTableRecord
100
AcDbRegAppTableRecord
  2
GEVID1208845800
 70
     0
  0
APPID
  5
462
330
9
100
AcDbSymbolTableRecord
100
AcDbRegAppTableRecord
  2
GEVID1208845801
 70
     0
  0
APPID
  5
463
330
9
100
AcDbSymbolTableRecord
100
AcDbRegAppTableRecord
  2
GEVID1208845802
 70
     0
  0
APPID
  5
464
330
9
100
AcDbSymbolTableRecord
100
AcDbRegAppTableRecord
  2
GENIUS_GENOBJ-N-DIM_13
 70
     0
  0
APPID
  5
465
330
9
100
AcDbSymbolTableRecord
100
AcDbRegAppTableRecord
  2
GENIUS_GENDIM_13
 70
     0
  0
APPID
  5
466
330
9
100
AcDbSymbolTableRecord
100
AcDbRegAppTableRecord
  2
GENIUS_GENDIMSH_14
 70
     0
  0
APPID
  5
467
330
9
100
AcDbSymbolTableRecord
100
AcDbRegAppTableRecord
  2
GEVID1208845803
 70
     0
  0
APPID
  5
468
330
9
100
AcDbSymbolTableRecord
100
AcDbRegAppTableRecord
  2
GEVID1208845804
 70
     0
  0
APPID
  5
469
330
9
100
AcDbSymbolTableRecord
100
AcDbRegAppTableRecord
  2
GEVID1208845805
 70
     0
  0
APPID
  5
46A
330
9
100
AcDbSymbolTableRecord
100
AcDbRegAppTableRecord
  2
GEVID1208845806
 70
     0
  0
APPID
  5
46B
330
9
100
AcDbSymbolTableRecord
100
AcDbRegAppTableRecord
  2
GEVID1208845807
 70
     0
  0
APPID
  5
46C
330
9
100
AcDbSymbolTableRecord
100
AcDbRegAppTableRecord
  2
GEVID1208845808
 70
     0
  0
APPID
  5
46D
330
9
100
AcDbSymbolTableRecord
100
AcDbRegAppTableRecord
  2
GEVID1208845809
 70
     0
  0
APPID
  5
46E
330
9
100
AcDbSymbolTableRecord
100
AcDbRegAppTableRecord
  2
GEVID1208845810
 70
     0
  0
APPID
  5
46F
330
9
100
AcDbSymbolTableRecord
100
AcDbRegAppTableRecord
  2
GEVID1208845811
 70
     0
  0
APPID
  5
470
330
9
100
AcDbSymbolTableRecord
100
AcDbRegAppTableRecord
  2
GEVID1208845813
 70
     0
  0
APPID
  5
471
330
9
100
AcDbSymbolTableRecord
100
AcDbRegAppTableRecord
  2
GEVID1208845814
 70
     0
  0
APPID
  5
472
330
9
100
AcDbSymbolTableRecord
100
AcDbRegAppTableRecord
  2
GEVID1208845815
 70
     0
  0
APPID
  5
473
330
9
100
AcDbSymbolTableRecord
100
AcDbRegAppTableRecord
  2
GEVID1208845816
 70
     0
  0
APPID
  5
474
330
9
100
AcDbSymbolTableRecord
100
AcDbRegAppTableRecord
  2
GEVID1208845817
 70
     0
  0
APPID
  5
475
330
9
100
AcDbSymbolTableRecord
100
AcDbRegAppTableRecord
  2
GEVID1208845818
 70
     0
  0
APPID
  5
476
330
9
100
AcDbSymbolTableRecord
100
AcDbRegAppTableRecord
  2
GEVID1208845819
 70
     0
  0
APPID
  5
477
330
9
100
AcDbSymbolTableRecord
100
AcDbRegAppTableRecord
  2
GEVID1208845820
 70
     0
  0
APPID
  5
478
330
9
100
AcDbSymbolTableRecord
100
AcDbRegAppTableRecord
  2
GENIUS_GENOBJ-F-SHCL_13
 70
     0
  0
APPID
  5
479
330
9
100
AcDbSymbolTableRecord
100
AcDbRegAppTableRecord
  2
GENIUS_GEFMSH_13
 70
     0
  0
APPID
  5
47A
330
9
100
AcDbSymbolTableRecord
100
AcDbRegAppTableRecord
  2
GENIUS_GENOBJ-F-SHCA_13
 70
     0
  0
APPID
  5
47B
330
9
100
AcDbSymbolTableRecord
100
AcDbRegAppTableRecord
  2
GENIUS_GEFSH_13
 70
     0
  0
APPID
  5
47C
330
9
100
AcDbSymbolTableRecord
100
AcDbRegAppTableRecord
  2
GENIUS_GEFSHP_13
 70
     0
  0
APPID
  5
47D
330
9
100
AcDbSymbolTableRecord
100
AcDbRegAppTableRecord
  2
GENIUS_GEFSHP0_13
 70
     0
  0
APPID
  5
47E
330
9
100
AcDbSymbolTableRecord
100
AcDbRegAppTableRecord
  2
GENIUS_GEFSH0_13
 70
     0
  0
APPID
  5
47F
330
9
100
AcDbSymbolTableRecord
100
AcDbRegAppTableRecord
  2
GENIUS_GEFSHP1_13
 70
     0
  0
APPID
  5
480
330
9
100
AcDbSymbolTableRecord
100
AcDbRegAppTableRecord
  2
GENIUS_GEFSH1_13
 70
     0
  0
APPID
  5
481
330
9
100
AcDbSymbolTableRecord
100
AcDbRegAppTableRecord
  2
GEVID1208866337
 70
     0
  0
APPID
  5
482
330
9
100
AcDbSymbolTableRecord
100
AcDbRegAppTableRecord
  2
GEVID1208866338
 70
     0
  0
APPID
  5
483
330
9
100
AcDbSymbolTableRecord
100
AcDbRegAppTableRecord
  2
GEVID1208866339
 70
     0
  0
APPID
  5
484
330
9
100
AcDbSymbolTableRecord
100
AcDbRegAppTableRecord
  2
GEVID1208866340
 70
     0
  0
APPID
  5
485
330
9
100
AcDbSymbolTableRecord
100
AcDbRegAppTableRecord
  2
GEVID1208866341
 70
     0
  0
APPID
  5
486
330
9
100
AcDbSymbolTableRecord
100
AcDbRegAppTableRecord
  2
ACAD_PSEXT
 70
     0
  0
APPID
  5
487
330
9
100
AcDbSymbolTableRecord
100
AcDbRegAppTableRecord
  2
GEVID1208866342
 70
     0
  0
APPID
  5
488
330
9
100
AcDbSymbolTableRecord
100
AcDbRegAppTableRecord
  2
GEVID1208913836
 70
     0
  0
APPID
  5
489
330
9
100
AcDbSymbolTableRecord
100
AcDbRegAppTableRecord
  2
GEVID1208913837
 70
     0
  0
APPID
  5
48A
330
9
100
AcDbSymbolTableRecord
100
AcDbRegAppTableRecord
  2
GEVID1208913838
 70
     0
  0
APPID
  5
48B
330
9
100
AcDbSymbolTableRecord
100
AcDbRegAppTableRecord
  2
GEVID1208913839
 70
     0
  0
APPID
  5
48C
330
9
100
AcDbSymbolTableRecord
100
AcDbRegAppTableRecord
  2
GENIUS_GENDTOL_13
 70
     0
  0
APPID
  5
48D
330
9
100
AcDbSymbolTableRecord
100
AcDbRegAppTableRecord
  2
GEVID1208928889
 70
     0
  0
APPID
  5
48E
330
9
100
AcDbSymbolTableRecord
100
AcDbRegAppTableRecord
  2
GEVID1208928890
 70
     0
  0
APPID
  5
48F
330
9
100
AcDbSymbolTableRecord
100
AcDbRegAppTableRecord
  2
GEVID1208928891
 70
     0
  0
APPID
  5
490
330
9
100
AcDbSymbolTableRecord
100
AcDbRegAppTableRecord
  2
GEVID1208928892
 70
     0
  0
APPID
  5
491
330
9
100
AcDbSymbolTableRecord
100
AcDbRegAppTableRecord
  2
GEVID1208933827
 70
     0
  0
APPID
  5
492
330
9
100
AcDbSymbolTableRecord
100
AcDbRegAppTableRecord
  2
GEVID1208933829
 70
     0
  0
APPID
  5
493
330
9
100
AcDbSymbolTableRecord
100
AcDbRegAppTableRecord
  2
GEVID1208933830
 70
     0
  0
APPID
  5
494
330
9
100
AcDbSymbolTableRecord
100
AcDbRegAppTableRecord
  2
GEVID1208933831
 70
     0
  0
APPID
  5
495
330
9
100
AcDbSymbolTableRecord
100
AcDbRegAppTableRecord
  2
GEVID1208933832
 70
     0
  0
APPID
  5
496
330
9
100
AcDbSymbolTableRecord
100
AcDbRegAppTableRecord
  2
GEVID1208933833
 70
     0
  0
APPID
  5
497
330
9
100
AcDbSymbolTableRecord
100
AcDbRegAppTableRecord
  2
GEVID1208933834
 70
     0
  0
APPID
  5
498
330
9
100
AcDbSymbolTableRecord
100
AcDbRegAppTableRecord
  2
GEVID1208933835
 70
     0
  0
APPID
  5
499
330
9
100
AcDbSymbolTableRecord
100
AcDbRegAppTableRecord
  2
GEVID1208933836
 70
     0
  0
APPID
  5
49A
330
9
100
AcDbSymbolTableRecord
100
AcDbRegAppTableRecord
  2
GEVID1208933837
 70
     0
  0
APPID
  5
49B
330
9
100
AcDbSymbolTableRecord
100
AcDbRegAppTableRecord
  2
GEVID1208933838
 70
     0
  0
APPID
  5
49C
330
9
100
AcDbSymbolTableRecord
100
AcDbRegAppTableRecord
  2
GEVID1208933840
 70
     0
  0
APPID
  5
49D
330
9
100
AcDbSymbolTableRecord
100
AcDbRegAppTableRecord
  2
GEVID1208933842
 70
     0
  0
APPID
  5
49E
330
9
100
AcDbSymbolTableRecord
100
AcDbRegAppTableRecord
  2
GEVID1208933843
 70
     0
  0
APPID
  5
49F
330
9
100
AcDbSymbolTableRecord
100
AcDbRegAppTableRecord
  2
GEVID1208933844
 70
     0
  0
APPID
  5
4A0
330
9
100
AcDbSymbolTableRecord
100
AcDbRegAppTableRecord
  2
GEVID1208933845
 70
     0
  0
APPID
  5
4A1
330
9
100
AcDbSymbolTableRecord
100
AcDbRegAppTableRecord
  2
GEVID1208933846
 70
     0
  0
APPID
  5
4A2
330
9
100
AcDbSymbolTableRecord
100
AcDbRegAppTableRecord
  2
GEVID1208933847
 70
     0
  0
APPID
  5
4A3
330
9
100
AcDbSymbolTableRecord
100
AcDbRegAppTableRecord
  2
GEVID1208933848
 70
     0
  0
APPID
  5
4A4
330
9
100
AcDbSymbolTableRecord
100
AcDbRegAppTableRecord
  2
GEVID1208933849
 70
     0
  0
APPID
  5
4A5
330
9
100
AcDbSymbolTableRecord
100
AcDbRegAppTableRecord
  2
GEVID1208933850
 70
     0
  0
APPID
  5
4A6
330
9
100
AcDbSymbolTableRecord
100
AcDbRegAppTableRecord
  2
GEVID1208933851
 70
     0
  0
APPID
  5
4A7
330
9
100
AcDbSymbolTableRecord
100
AcDbRegAppTableRecord
  2
GEVID1208933852
 70
     0
  0
APPID
  5
4A8
330
9
100
AcDbSymbolTableRecord
100
AcDbRegAppTableRecord
  2
GEVID1208933853
 70
     0
  0
APPID
  5
4A9
330
9
100
AcDbSymbolTableRecord
100
AcDbRegAppTableRecord
  2
GEVID1208933854
 70
     0
  0
APPID
  5
4AA
330
9
100
AcDbSymbolTableRecord
100
AcDbRegAppTableRecord
  2
GEVID1208933855
 70
     0
  0
APPID
  5
4AB
330
9
100
AcDbSymbolTableRecord
100
AcDbRegAppTableRecord
  2
GEVID1208933856
 70
     0
  0
APPID
  5
4AC
330
9
100
AcDbSymbolTableRecord
100
AcDbRegAppTableRecord
  2
GEVID1208933857
 70
     0
  0
APPID
  5
4AD
330
9
100
AcDbSymbolTableRecord
100
AcDbRegAppTableRecord
  2
GEVID1208933858
 70
     0
  0
APPID
  5
4AE
330
9
100
AcDbSymbolTableRecord
100
AcDbRegAppTableRecord
  2
GEVID1208933859
 70
     0
  0
APPID
  5
4AF
330
9
100
AcDbSymbolTableRecord
100
AcDbRegAppTableRecord
  2
GEVID1208933860
 70
     0
  0
APPID
  5
4B0
330
9
100
AcDbSymbolTableRecord
100
AcDbRegAppTableRecord
  2
GEVID1208933861
 70
     0
  0
APPID
  5
4B1
330
9
100
AcDbSymbolTableRecord
100
AcDbRegAppTableRecord
  2
GEVID1208933862
 70
     0
  0
APPID
  5
4B2
330
9
100
AcDbSymbolTableRecord
100
AcDbRegAppTableRecord
  2
GEVID1208933863
 70
     0
  0
APPID
  5
4B3
330
9
100
AcDbSymbolTableRecord
100
AcDbRegAppTableRecord
  2
GEVID1208933864
 70
     0
  0
APPID
  5
4B4
330
9
100
AcDbSymbolTableRecord
100
AcDbRegAppTableRecord
  2
GEVID1208933865
 70
     0
  0
APPID
  5
4B5
330
9
100
AcDbSymbolTableRecord
100
AcDbRegAppTableRecord
  2
GEVID1208933866
 70
     0
  0
APPID
  5
4B6
330
9
100
AcDbSymbolTableRecord
100
AcDbRegAppTableRecord
  2
GEVID1208933867
 70
     0
  0
APPID
  5
4B7
330
9
100
AcDbSymbolTableRecord
100
AcDbRegAppTableRecord
  2
GEVID1208933868
 70
     0
  0
APPID
  5
4B8
330
9
100
AcDbSymbolTableRecord
100
AcDbRegAppTableRecord
  2
GEVID1208933869
 70
     0
  0
APPID
  5
4B9
330
9
100
AcDbSymbolTableRecord
100
AcDbRegAppTableRecord
  2
GEVID1208933870
 70
     0
  0
APPID
  5
4BA
330
9
100
AcDbSymbolTableRecord
100
AcDbRegAppTableRecord
  2
GEVID1208933871
 70
     0
  0
APPID
  5
4BB
330
9
100
AcDbSymbolTableRecord
100
AcDbRegAppTableRecord
  2
GEVID1208933872
 70
     0
  0
APPID
  5
4BC
330
9
100
AcDbSymbolTableRecord
100
AcDbRegAppTableRecord
  2
GEVID1208933873
 70
     0
  0
APPID
  5
4BD
330
9
100
AcDbSymbolTableRecord
100
AcDbRegAppTableRecord
  2
GEVID1208933874
 70
     0
  0
APPID
  5
4BE
330
9
100
AcDbSymbolTableRecord
100
AcDbRegAppTableRecord
  2
GEVID1208933875
 70
     0
  0
APPID
  5
4BF
330
9
100
AcDbSymbolTableRecord
100
AcDbRegAppTableRecord
  2
GEVID1208933876
 70
     0
  0
APPID
  5
4C0
330
9
100
AcDbSymbolTableRecord
100
AcDbRegAppTableRecord
  2
ACAD_DSTYLE_DIMRADIAL_EXTENSION
 70
     0
  0
APPID
  5
4C1
330
9
100
AcDbSymbolTableRecord
100
AcDbRegAppTableRecord
  2
GEVID1208999100
 70
     0
  0
APPID
  5
4C2
330
9
100
AcDbSymbolTableRecord
100
AcDbRegAppTableRecord
  2
GEVID1208999101
 70
     0
  0
APPID
  5
4C3
330
9
100
AcDbSymbolTableRecord
100
AcDbRegAppTableRecord
  2
GEVID1208999102
 70
     0
  0
APPID
  5
4C4
330
9
100
AcDbSymbolTableRecord
100
AcDbRegAppTableRecord
  2
GEVID1208999103
 70
     0
  0
APPID
  5
4C5
330
9
100
AcDbSymbolTableRecord
100
AcDbRegAppTableRecord
  2
GEVID1208999105
 70
     0
  0
APPID
  5
4C6
330
9
100
AcDbSymbolTableRecord
100
AcDbRegAppTableRecord
  2
GEVID1208999106
 70
     0
  0
APPID
  5
4C7
330
9
100
AcDbSymbolTableRecord
100
AcDbRegAppTableRecord
  2
GEVID1208999108
 70
     0
  0
APPID
  5
4C8
330
9
100
AcDbSymbolTableRecord
100
AcDbRegAppTableRecord
  2
GEVID1208999109
 70
     0
  0
APPID
  5
4C9
330
9
100
AcDbSymbolTableRecord
100
AcDbRegAppTableRecord
  2
GEVID1208999110
 70
     0
  0
APPID
  5
4CA
330
9
100
AcDbSymbolTableRecord
100
AcDbRegAppTableRecord
  2
GEVID1208999111
 70
     0
  0
APPID
  5
4CB
330
9
100
AcDbSymbolTableRecord
100
AcDbRegAppTableRecord
  2
GEVID1208999112
 70
     0
  0
APPID
  5
4CC
330
9
100
AcDbSymbolTableRecord
100
AcDbRegAppTableRecord
  2
GEVID1208999113
 70
     0
  0
APPID
  5
4CD
330
9
100
AcDbSymbolTableRecord
100
AcDbRegAppTableRecord
  2
GEVID1208999114
 70
     0
  0
APPID
  5
4CE
330
9
100
AcDbSymbolTableRecord
100
AcDbRegAppTableRecord
  2
GEVID1210218799
 70
     0
  0
APPID
  5
4CF
330
9
100
AcDbSymbolTableRecord
100
AcDbRegAppTableRecord
  2
GEVID1210218800
 70
     0
  0
APPID
  5
4D0
330
9
100
AcDbSymbolTableRecord
100
AcDbRegAppTableRecord
  2
GENIUS_GEFWELD_13
 70
     0
  0
APPID
  5
4D1
330
9
100
AcDbSymbolTableRecord
100
AcDbRegAppTableRecord
  2
GENIUS_GENOBJ-F-WELS_13
 70
     0
  0
APPID
  5
4D2
330
9
100
AcDbSymbolTableRecord
100
AcDbRegAppTableRecord
  2
AcadAnnotative
 70
     0
  0
APPID
  5
4D3
330
9
100
AcDbSymbolTableRecord
100
AcDbRegAppTableRecord
  2
GEVID1210145339
 70
     0
  0
APPID
  5
4D4
330
9
100
AcDbSymbolTableRecord
100
AcDbRegAppTableRecord
  2
ACAD_DSTYLE_DIMBREAK
 70
     0
  0
APPID
  5
4D5
330
9
100
AcDbSymbolTableRecord
100
AcDbRegAppTableRecord
  2
GEVID1210145340
 70
     0
  0
APPID
  5
4D6
330
9
100
AcDbSymbolTableRecord
100
AcDbRegAppTableRecord
  2
GEVID1210145341
 70
     0
  0
APPID
  5
4D7
330
9
100
AcDbSymbolTableRecord
100
AcDbRegAppTableRecord
  2
GEVID1210145342
 70
     0
  0
APPID
  5
4D8
330
9
100
AcDbSymbolTableRecord
100
AcDbRegAppTableRecord
  2
GEVID1210145343
 70
     0
  0
APPID
  5
4D9
330
9
100
AcDbSymbolTableRecord
100
AcDbRegAppTableRecord
  2
GEVID1210145344
 70
     0
  0
APPID
  5
4DA
330
9
100
AcDbSymbolTableRecord
100
AcDbRegAppTableRecord
  2
GEVID1210145345
 70
     0
  0
APPID
  5
4DB
330
9
100
AcDbSymbolTableRecord
100
AcDbRegAppTableRecord
  2
GEVID1210152816
 70
     0
  0
APPID
  5
4DC
330
9
100
AcDbSymbolTableRecord
100
AcDbRegAppTableRecord
  2
GEVID1210153850
 70
     0
  0
APPID
  5
4DD
330
9
100
AcDbSymbolTableRecord
100
AcDbRegAppTableRecord
  2
GEVID1210153851
 70
     0
  0
APPID
  5
4DE
330
9
100
AcDbSymbolTableRecord
100
AcDbRegAppTableRecord
  2
GEVID1210153852
 70
     0
  0
APPID
  5
4DF
330
9
100
AcDbSymbolTableRecord
100
AcDbRegAppTableRecord
  2
GEVID1210549898
 70
     0
  0
APPID
  5
4E0
330
9
100
AcDbSymbolTableRecord
100
AcDbRegAppTableRecord
  2
GEVID1210549899
 70
     0
  0
APPID
  5
4E1
330
9
100
AcDbSymbolTableRecord
100
AcDbRegAppTableRecord
  2
GEVID1210549900
 70
     0
  0
APPID
  5
4E2
330
9
100
AcDbSymbolTableRecord
100
AcDbRegAppTableRecord
  2
GEVID1210549901
 70
     0
  0
APPID
  5
4E3
330
9
100
AcDbSymbolTableRecord
100
AcDbRegAppTableRecord
  2
GEVID1210549902
 70
     0
  0
APPID
  5
4E4
330
9
100
AcDbSymbolTableRecord
100
AcDbRegAppTableRecord
  2
GEVID1210549903
 70
     0
  0
APPID
  5
4E5
330
9
100
AcDbSymbolTableRecord
100
AcDbRegAppTableRecord
  2
GEVID1210549904
 70
     0
  0
APPID
  5
4E6
330
9
100
AcDbSymbolTableRecord
100
AcDbRegAppTableRecord
  2
GEVID1210549905
 70
     0
  0
APPID
  5
4E7
330
9
100
AcDbSymbolTableRecord
100
AcDbRegAppTableRecord
  2
GEVID1210549906
 70
     0
  0
APPID
  5
4E8
330
9
100
AcDbSymbolTableRecord
100
AcDbRegAppTableRecord
  2
GEVID1210549907
 70
     0
  0
APPID
  5
4E9
330
9
100
AcDbSymbolTableRecord
100
AcDbRegAppTableRecord
  2
GEVID1210549908
 70
     0
  0
APPID
  5
4EA
330
9
100
AcDbSymbolTableRecord
100
AcDbRegAppTableRecord
  2
GEVID1210549909
 70
     0
  0
APPID
  5
4EB
330
9
100
AcDbSymbolTableRecord
100
AcDbRegAppTableRecord
  2
GEVID1210549910
 70
     0
  0
APPID
  5
4EC
330
9
100
AcDbSymbolTableRecord
100
AcDbRegAppTableRecord
  2
GEVID1210549911
 70
     0
  0
APPID
  5
4ED
330
9
100
AcDbSymbolTableRecord
100
AcDbRegAppTableRecord
  2
GEVID1210549912
 70
     0
  0
APPID
  5
4EE
330
9
100
AcDbSymbolTableRecord
100
AcDbRegAppTableRecord
  2
GEVID1210549913
 70
     0
  0
APPID
  5
4EF
330
9
100
AcDbSymbolTableRecord
100
AcDbRegAppTableRecord
  2
GEVID1210549914
 70
     0
  0
APPID
  5
4F0
330
9
100
AcDbSymbolTableRecord
100
AcDbRegAppTableRecord
  2
GEVID1210549915
 70
     0
  0
APPID
  5
4F1
330
9
100
AcDbSymbolTableRecord
100
AcDbRegAppTableRecord
  2
GEVID1210549916
 70
     0
  0
APPID
  5
4F2
330
9
100
AcDbSymbolTableRecord
100
AcDbRegAppTableRecord
  2
GEVID1210549917
 70
     0
  0
APPID
  5
4F3
330
9
100
AcDbSymbolTableRecord
100
AcDbRegAppTableRecord
  2
GENIUS_GENOBJ-N-CRS_13
 70
     0
  0
APPID
  5
4F4
330
9
100
AcDbSymbolTableRecord
100
AcDbRegAppTableRecord
  2
GEVID1210549918
 70
     0
  0
APPID
  5
4F5
330
9
100
AcDbSymbolTableRecord
100
AcDbRegAppTableRecord
  2
GENIUS_GENOBJ-N-CRC_13
 70
     0
  0
APPID
  5
4F6
330
9
100
AcDbSymbolTableRecord
100
AcDbRegAppTableRecord
  2
GENIUS_GENCRC_14
 70
     0
  0
APPID
  5
4F7
330
9
100
AcDbSymbolTableRecord
100
AcDbRegAppTableRecord
  2
GEVID1210549919
 70
     0
  0
APPID
  5
4F8
330
9
100
AcDbSymbolTableRecord
100
AcDbRegAppTableRecord
  2
GEVID1210549921
 70
     0
  0
APPID
  5
4F9
330
9
100
AcDbSymbolTableRecord
100
AcDbRegAppTableRecord
  2
GEVID1210549922
 70
     0
  0
APPID
  5
4FA
330
9
100
AcDbSymbolTableRecord
100
AcDbRegAppTableRecord
  2
GEVID1210635173
 70
     0
  0
APPID
  5
4FB
330
9
100
AcDbSymbolTableRecord
100
AcDbRegAppTableRecord
  2
GEVID1210635174
 70
     0
  0
APPID
  5
4FC
330
9
100
AcDbSymbolTableRecord
100
AcDbRegAppTableRecord
  2
GEVID1210635175
 70
     0
  0
APPID
  5
4FD
330
9
100
AcDbSymbolTableRecord
100
AcDbRegAppTableRecord
  2
GEVID1210635176
 70
     0
  0
APPID
  5
4FE
330
9
100
AcDbSymbolTableRecord
100
AcDbRegAppTableRecord
  2
GEVID1210635177
 70
     0
  0
APPID
  5
4FF
330
9
100
AcDbSymbolTableRecord
100
AcDbRegAppTableRecord
  2
GEVID1210635178
 70
     0
  0
APPID
  5
500
330
9
100
AcDbSymbolTableRecord
100
AcDbRegAppTableRecord
  2
GENIUS_GENIUS_GENBHEDTMP_13
 70
     0
  0
APPID
  5
501
330
9
100
AcDbSymbolTableRecord
100
AcDbRegAppTableRecord
  2
GEVID1210635179
 70
     0
  0
APPID
  5
502
330
9
100
AcDbSymbolTableRecord
100
AcDbRegAppTableRecord
  2
GEVID1210635180
 70
     0
  0
APPID
  5
503
330
9
100
AcDbSymbolTableRecord
100
AcDbRegAppTableRecord
  2
GEVID1210635181
 70
     0
  0
APPID
  5
504
330
9
100
AcDbSymbolTableRecord
100
AcDbRegAppTableRecord
  2
GEVID1210635182
 70
     0
  0
APPID
  5
505
330
9
100
AcDbSymbolTableRecord
100
AcDbRegAppTableRecord
  2
GEVID1210635184
 70
     0
  0
APPID
  5
506
330
9
100
AcDbSymbolTableRecord
100
AcDbRegAppTableRecord
  2
GEVID1210635185
 70
     0
  0
APPID
  5
507
330
9
100
AcDbSymbolTableRecord
100
AcDbRegAppTableRecord
  2
GEVID1210635186
 70
     0
  0
APPID
  5
508
330
9
100
AcDbSymbolTableRecord
100
AcDbRegAppTableRecord
  2
GEVID1210635187
 70
     0
  0
APPID
  5
509
330
9
100
AcDbSymbolTableRecord
100
AcDbRegAppTableRecord
  2
GEVID1210635188
 70
     0
  0
APPID
  5
50A
330
9
100
AcDbSymbolTableRecord
100
AcDbRegAppTableRecord
  2
GEVID1210635189
 70
     0
  0
APPID
  5
50B
330
9
100
AcDbSymbolTableRecord
100
AcDbRegAppTableRecord
  2
GEVID1210635190
 70
     0
  0
APPID
  5
50C
330
9
100
AcDbSymbolTableRecord
100
AcDbRegAppTableRecord
  2
GENIUS_GENREC_14
 70
     0
  0
APPID
  5
50D
330
9
100
AcDbSymbolTableRecord
100
AcDbRegAppTableRecord
  2
GENIUS_GENOBJ-N-REC_13
 70
     0
  0
APPID
  5
50E
330
9
100
AcDbSymbolTableRecord
100
AcDbRegAppTableRecord
  2
GEVID1210676655
 70
     0
  0
APPID
  5
50F
330
9
100
AcDbSymbolTableRecord
100
AcDbRegAppTableRecord
  2
GEVID1210676656
 70
     0
  0
APPID
  5
510
330
9
100
AcDbSymbolTableRecord
100
AcDbRegAppTableRecord
  2
GEVID1210676657
 70
     0
  0
APPID
  5
511
330
9
100
AcDbSymbolTableRecord
100
AcDbRegAppTableRecord
  2
GEVID1210676659
 70
     0
  0
APPID
  5
512
330
9
100
AcDbSymbolTableRecord
100
AcDbRegAppTableRecord
  2
GEVID1210676660
 70
     0
  0
APPID
  5
513
330
9
100
AcDbSymbolTableRecord
100
AcDbRegAppTableRecord
  2
GEVID1210676661
 70
     0
  0
APPID
  5
514
330
9
100
AcDbSymbolTableRecord
100
AcDbRegAppTableRecord
  2
GEVID1210676662
 70
     0
  0
APPID
  5
515
330
9
100
AcDbSymbolTableRecord
100
AcDbRegAppTableRecord
  2
GEVID1210721646
 70
     0
  0
APPID
  5
516
330
9
100
AcDbSymbolTableRecord
100
AcDbRegAppTableRecord
  2
GEVID1210721647
 70
     0
  0
APPID
  5
517
330
9
100
AcDbSymbolTableRecord
100
AcDbRegAppTableRecord
  2
GEVID1210721648
 70
     0
  0
APPID
  5
518
330
9
100
AcDbSymbolTableRecord
100
AcDbRegAppTableRecord
  2
GEVID1210721649
 70
     0
  0
APPID
  5
519
330
9
100
AcDbSymbolTableRecord
100
AcDbRegAppTableRecord
  2
GEVID1210721650
 70
     0
  0
APPID
  5
51A
330
9
100
AcDbSymbolTableRecord
100
AcDbRegAppTableRecord
  2
GEVID1210721651
 70
     0
  0
APPID
  5
51B
330
9
100
AcDbSymbolTableRecord
100
AcDbRegAppTableRecord
  2
GEVID1210721652
 70
     0
  0
APPID
  5
51C
330
9
100
AcDbSymbolTableRecord
100
AcDbRegAppTableRecord
  2
GEVID1210721653
 70
     0
  0
APPID
  5
51D
330
9
100
AcDbSymbolTableRecord
100
AcDbRegAppTableRecord
  2
PE_URL
 70
     0
  0
APPID
  5
51E
330
9
100
AcDbSymbolTableRecord
100
AcDbRegAppTableRecord
  2
GEVID1210825555
 70
     0
  0
APPID
  5
51F
330
9
100
AcDbSymbolTableRecord
100
AcDbRegAppTableRecord
  2
GEVID1210825556
 70
     0
  0
APPID
  5
520
330
9
100
AcDbSymbolTableRecord
100
AcDbRegAppTableRecord
  2
GEVID1210825557
 70
     0
  0
APPID
  5
521
330
9
100
AcDbSymbolTableRecord
100
AcDbRegAppTableRecord
  2
GEVID1210825558
 70
     0
  0
APPID
  5
522
330
9
100
AcDbSymbolTableRecord
100
AcDbRegAppTableRecord
  2
GEVID1210825559
 70
     0
  0
APPID
  5
523
330
9
100
AcDbSymbolTableRecord
100
AcDbRegAppTableRecord
  2
GEVID1210825560
 70
     0
  0
APPID
  5
524
330
9
100
AcDbSymbolTableRecord
100
AcDbRegAppTableRecord
  2
GEVID1210825561
 70
     0
  0
APPID
  5
525
330
9
100
AcDbSymbolTableRecord
100
AcDbRegAppTableRecord
  2
GEVID1210825562
 70
     0
  0
APPID
  5
526
330
9
100
AcDbSymbolTableRecord
100
AcDbRegAppTableRecord
  2
GEVID1210825563
 70
     0
  0
APPID
  5
527
330
9
100
AcDbSymbolTableRecord
100
AcDbRegAppTableRecord
  2
GEVID1210825564
 70
     0
  0
APPID
  5
528
330
9
100
AcDbSymbolTableRecord
100
AcDbRegAppTableRecord
  2
GEVID1210825565
 70
     0
  0
APPID
  5
529
330
9
100
AcDbSymbolTableRecord
100
AcDbRegAppTableRecord
  2
GEVID1210825566
 70
     0
  0
APPID
  5
52A
330
9
100
AcDbSymbolTableRecord
100
AcDbRegAppTableRecord
  2
GEVID1210825567
 70
     0
  0
APPID
  5
52B
330
9
100
AcDbSymbolTableRecord
100
AcDbRegAppTableRecord
  2
GENIUS_GENOBJ-N-ZOO_13
 70
     0
  0
APPID
  5
52C
330
9
100
AcDbSymbolTableRecord
100
AcDbRegAppTableRecord
  2
GENIUS_GENZOO_17
 70
     0
  0
APPID
  5
52D
330
9
100
AcDbSymbolTableRecord
100
AcDbRegAppTableRecord
  2
ACADANNOTATIVEDECOMPOSITION
 70
     0
  0
APPID
  5
52E
330
9
100
AcDbSymbolTableRecord
100
AcDbRegAppTableRecord
  2
GENIUS_GENOBJ-N-HTC_13
 70
     0
  0
APPID
  5
52F
330
9
100
AcDbSymbolTableRecord
100
AcDbRegAppTableRecord
  2
GENIUS_GENHATCH_13
 70
     0
  0
APPID
  5
530
330
9
100
AcDbSymbolTableRecord
100
AcDbRegAppTableRecord
  2
GEVID1210896020
 70
     0
  0
APPID
  5
531
330
9
100
AcDbSymbolTableRecord
100
AcDbRegAppTableRecord
  2
GEVID1210896021
 70
     0
  0
APPID
  5
532
330
9
100
AcDbSymbolTableRecord
100
AcDbRegAppTableRecord
  2
GEVID1209083540
 70
     0
  0
APPID
  5
533
330
9
100
AcDbSymbolTableRecord
100
AcDbRegAppTableRecord
  2
GEVMK
 70
     0
  0
APPID
  5
534
330
9
100
AcDbSymbolTableRecord
100
AcDbRegAppTableRecord
  2
GEVID1209083542
 70
     0
  0
APPID
  5
535
330
9
100
AcDbSymbolTableRecord
100
AcDbRegAppTableRecord
  2
GEVID1209083543
 70
     0
  0
APPID
  5
536
330
9
100
AcDbSymbolTableRecord
100
AcDbRegAppTableRecord
  2
GEVID1209083544
 70
     0
  0
APPID
  5
537
330
9
100
AcDbSymbolTableRecord
100
AcDbRegAppTableRecord
  2
GEVID1209083545
 70
     0
  0
APPID
  5
538
330
9
100
AcDbSymbolTableRecord
100
AcDbRegAppTableRecord
  2
GEVID1209083546
 70
     0
  0
APPID
  5
539
330
9
100
AcDbSymbolTableRecord
100
AcDbRegAppTableRecord
  2
GEVID1209083547
 70
     0
  0
APPID
  5
53A
330
9
100
AcDbSymbolTableRecord
100
AcDbRegAppTableRecord
  2
GEVID1209083548
 70
     0
  0
APPID
  5
53B
330
9
100
AcDbSymbolTableRecord
100
AcDbRegAppTableRecord
  2
GEVID1209083549
 70
     0
  0
APPID
  5
53C
330
9
100
AcDbSymbolTableRecord
100
AcDbRegAppTableRecord
  2
GEVID1209083550
 70
     0
  0
APPID
  5
53D
330
9
100
AcDbSymbolTableRecord
100
AcDbRegAppTableRecord
  2
GEVID1209083551
 70
     0
  0
APPID
  5
53E
330
9
100
AcDbSymbolTableRecord
100
AcDbRegAppTableRecord
  2
GEVID1209083552
 70
     0
  0
APPID
  5
53F
330
9
100
AcDbSymbolTableRecord
100
AcDbRegAppTableRecord
  2
GEVID1209083553
 70
     0
  0
APPID
  5
540
330
9
100
AcDbSymbolTableRecord
100
AcDbRegAppTableRecord
  2
GEVID1210896022
 70
     0
  0
APPID
  5
541
330
9
100
AcDbSymbolTableRecord
100
AcDbRegAppTableRecord
  2
GEVID1211508364
 70
     0
  0
APPID
  5
542
330
9
100
AcDbSymbolTableRecord
100
AcDbRegAppTableRecord
  2
GEVID1211414908
 70
     0
  0
APPID
  5
543
330
9
100
AcDbSymbolTableRecord
100
AcDbRegAppTableRecord
  2
GEVID1211414909
 70
     0
  0
APPID
  5
544
330
9
100
AcDbSymbolTableRecord
100
AcDbRegAppTableRecord
  2
GEVID1211508359
 70
     0
  0
APPID
  5
545
330
9
100
AcDbSymbolTableRecord
100
AcDbRegAppTableRecord
  2
GEVID1211508360
 70
     0
  0
APPID
  5
546
330
9
100
AcDbSymbolTableRecord
100
AcDbRegAppTableRecord
  2
GEVID1211508361
 70
     0
  0
APPID
  5
547
330
9
100
AcDbSymbolTableRecord
100
AcDbRegAppTableRecord
  2
GEVID1211508362
 70
     0
  0
APPID
  5
548
330
9
100
AcDbSymbolTableRecord
100
AcDbRegAppTableRecord
  2
GEVID1211508363
 70
     0
  0
APPID
  5
549
330
9
100
AcDbSymbolTableRecord
100
AcDbRegAppTableRecord
  2
GEVID1211878469
 70
     0
  0
APPID
  5
54A
330
9
100
AcDbSymbolTableRecord
100
AcDbRegAppTableRecord
  2
GEVID1212642819
 70
     0
  0
APPID
  5
54B
330
9
100
AcDbSymbolTableRecord
100
AcDbRegAppTableRecord
  2
GEVID1212642820
 70
     0
  0
APPID
  5
54C
330
9
100
AcDbSymbolTableRecord
100
AcDbRegAppTableRecord
  2
GEVID1212642821
 70
     0
  0
APPID
  5
54D
330
9
100
AcDbSymbolTableRecord
100
AcDbRegAppTableRecord
  2
GEVID1212642822
 70
     0
  0
APPID
  5
54E
330
9
100
AcDbSymbolTableRecord
100
AcDbRegAppTableRecord
  2
GEVID1212642823
 70
     0
  0
APPID
  5
54F
330
9
100
AcDbSymbolTableRecord
100
AcDbRegAppTableRecord
  2
GEVID1212642825
 70
     0
  0
APPID
  5
550
330
9
100
AcDbSymbolTableRecord
100
AcDbRegAppTableRecord
  2
GEVID1212642826
 70
     0
  0
APPID
  5
551
330
9
100
AcDbSymbolTableRecord
100
AcDbRegAppTableRecord
  2
GEVID1212642827
 70
     0
  0
APPID
  5
552
330
9
100
AcDbSymbolTableRecord
100
AcDbRegAppTableRecord
  2
GEVID1212642828
 70
     0
  0
APPID
  5
553
330
9
100
AcDbSymbolTableRecord
100
AcDbRegAppTableRecord
  2
GEVID1212642831
 70
     0
  0
APPID
  5
554
330
9
100
AcDbSymbolTableRecord
100
AcDbRegAppTableRecord
  2
GEVID1212642834
 70
     0
  0
APPID
  5
555
330
9
100
AcDbSymbolTableRecord
100
AcDbRegAppTableRecord
  2
GEVID1212642835
 70
     0
  0
APPID
  5
556
330
9
100
AcDbSymbolTableRecord
100
AcDbRegAppTableRecord
  2
GEVID1212642836
 70
     0
  0
APPID
  5
557
330
9
100
AcDbSymbolTableRecord
100
AcDbRegAppTableRecord
  2
GEVID1212642837
 70
     0
  0
APPID
  5
558
330
9
100
AcDbSymbolTableRecord
100
AcDbRegAppTableRecord
  2
GEVID1212642839
 70
     0
  0
APPID
  5
559
330
9
100
AcDbSymbolTableRecord
100
AcDbRegAppTableRecord
  2
GEVID1212642840
 70
     0
  0
APPID
  5
55A
330
9
100
AcDbSymbolTableRecord
100
AcDbRegAppTableRecord
  2
GEVID1212642841
 70
     0
  0
APPID
  5
55B
330
9
100
AcDbSymbolTableRecord
100
AcDbRegAppTableRecord
  2
GEVID1212655312
 70
     0
  0
APPID
  5
55C
330
9
100
AcDbSymbolTableRecord
100
AcDbRegAppTableRecord
  2
GEVID1212655313
 70
     0
  0
APPID
  5
55D
330
9
100
AcDbSymbolTableRecord
100
AcDbRegAppTableRecord
  2
GEVID1212656533
 70
     0
  0
APPID
  5
55E
330
9
100
AcDbSymbolTableRecord
100
AcDbRegAppTableRecord
  2
GEVID1212656534
 70
     0
  0
APPID
  5
55F
330
9
100
AcDbSymbolTableRecord
100
AcDbRegAppTableRecord
  2
GEVID1212656535
 70
     0
  0
APPID
  5
560
330
9
100
AcDbSymbolTableRecord
100
AcDbRegAppTableRecord
  2
GEVID1212656536
 70
     0
  0
APPID
  5
561
330
9
100
AcDbSymbolTableRecord
100
AcDbRegAppTableRecord
  2
GEVID1212656538
 70
     0
  0
APPID
  5
562
330
9
100
AcDbSymbolTableRecord
100
AcDbRegAppTableRecord
  2
GEVID1212656541
 70
     0
  0
APPID
  5
563
330
9
100
AcDbSymbolTableRecord
100
AcDbRegAppTableRecord
  2
GEVID1212656543
 70
     0
  0
APPID
  5
564
330
9
100
AcDbSymbolTableRecord
100
AcDbRegAppTableRecord
  2
GENIUS_GENOBJ-F-PFASSM_13
 70
     0
  0
APPID
  5
565
330
9
100
AcDbSymbolTableRecord
100
AcDbRegAppTableRecord
  2
GEVID1212656544
 70
     0
  0
APPID
  5
566
330
9
100
AcDbSymbolTableRecord
100
AcDbRegAppTableRecord
  2
GEVID1212656545
 70
     0
  0
APPID
  5
567
330
9
100
AcDbSymbolTableRecord
100
AcDbRegAppTableRecord
  2
GEVID1212656546
 70
     0
  0
APPID
  5
568
330
9
100
AcDbSymbolTableRecord
100
AcDbRegAppTableRecord
  2
GEVID1212656547
 70
     0
  0
APPID
  5
569
330
9
100
AcDbSymbolTableRecord
100
AcDbRegAppTableRecord
  2
GEVID1212656548
 70
     0
  0
APPID
  5
56A
330
9
100
AcDbSymbolTableRecord
100
AcDbRegAppTableRecord
  2
GEVID1212656549
 70
     0
  0
APPID
  5
56B
330
9
100
AcDbSymbolTableRecord
100
AcDbRegAppTableRecord
  2
GEVID1212656550
 70
     0
  0
APPID
  5
56C
330
9
100
AcDbSymbolTableRecord
100
AcDbRegAppTableRecord
  2
GEVID1212656552
 70
     0
  0
APPID
  5
56D
330
9
100
AcDbSymbolTableRecord
100
AcDbRegAppTableRecord
  2
GEVID1212656553
 70
     0
  0
APPID
  5
56E
330
9
100
AcDbSymbolTableRecord
100
AcDbRegAppTableRecord
  2
GEVID1212656554
 70
     0
  0
APPID
  5
56F
330
9
100
AcDbSymbolTableRecord
100
AcDbRegAppTableRecord
  2
GEVID1212656555
 70
     0
  0
APPID
  5
570
330
9
100
AcDbSymbolTableRecord
100
AcDbRegAppTableRecord
  2
GEVID1212656556
 70
     0
  0
APPID
  5
571
330
9
100
AcDbSymbolTableRecord
100
AcDbRegAppTableRecord
  2
GEVID1212656557
 70
     0
  0
APPID
  5
572
330
9
100
AcDbSymbolTableRecord
100
AcDbRegAppTableRecord
  2
GEVID1212656559
 70
     0
  0
APPID
  5
573
330
9
100
AcDbSymbolTableRecord
100
AcDbRegAppTableRecord
  2
GEVID1212656560
 70
     0
  0
APPID
  5
574
330
9
100
AcDbSymbolTableRecord
100
AcDbRegAppTableRecord
  2
GEVID1212656561
 70
     0
  0
APPID
  5
575
330
9
100
AcDbSymbolTableRecord
100
AcDbRegAppTableRecord
  2
GEVID1212656562
 70
     0
  0
APPID
  5
576
330
9
100
AcDbSymbolTableRecord
100
AcDbRegAppTableRecord
  2
GEVID1212656563
 70
     0
  0
APPID
  5
577
330
9
100
AcDbSymbolTableRecord
100
AcDbRegAppTableRecord
  2
GEVID1212711781
 70
     0
  0
APPID
  5
578
330
9
100
AcDbSymbolTableRecord
100
AcDbRegAppTableRecord
  2
GEVID1212711782
 70
     0
  0
APPID
  5
579
330
9
100
AcDbSymbolTableRecord
100
AcDbRegAppTableRecord
  2
GEVID1212711783
 70
     0
  0
APPID
  5
57A
330
9
100
AcDbSymbolTableRecord
100
AcDbRegAppTableRecord
  2
GEVID1212711784
 70
     0
  0
APPID
  5
57B
330
9
100
AcDbSymbolTableRecord
100
AcDbRegAppTableRecord
  2
GEVID1212711788
 70
     0
  0
APPID
  5
57C
330
9
100
AcDbSymbolTableRecord
100
AcDbRegAppTableRecord
  2
GEVID1212711789
 70
     0
  0
APPID
  5
57D
330
9
100
AcDbSymbolTableRecord
100
AcDbRegAppTableRecord
  2
GEVID1212711790
 70
     0
  0
APPID
  5
57E
330
9
100
AcDbSymbolTableRecord
100
AcDbRegAppTableRecord
  2
GEVID1212711791
 70
     0
  0
APPID
  5
57F
330
9
100
AcDbSymbolTableRecord
100
AcDbRegAppTableRecord
  2
GEVID1212711792
 70
     0
  0
APPID
  5
580
330
9
100
AcDbSymbolTableRecord
100
AcDbRegAppTableRecord
  2
GEVID1212711793
 70
     0
  0
APPID
  5
581
330
9
100
AcDbSymbolTableRecord
100
AcDbRegAppTableRecord
  2
GEVID1212711794
 70
     0
  0
APPID
  5
582
330
9
100
AcDbSymbolTableRecord
100
AcDbRegAppTableRecord
  2
GEVID1212711795
 70
     0
  0
APPID
  5
583
330
9
100
AcDbSymbolTableRecord
100
AcDbRegAppTableRecord
  2
GEVID1212711797
 70
     0
  0
APPID
  5
584
330
9
100
AcDbSymbolTableRecord
100
AcDbRegAppTableRecord
  2
GEVID1212711798
 70
     0
  0
APPID
  5
585
330
9
100
AcDbSymbolTableRecord
100
AcDbRegAppTableRecord
  2
GEVID1212711799
 70
     0
  0
APPID
  5
586
330
9
100
AcDbSymbolTableRecord
100
AcDbRegAppTableRecord
  2
GEVID1212711800
 70
     0
  0
APPID
  5
587
330
9
100
AcDbSymbolTableRecord
100
AcDbRegAppTableRecord
  2
GEVID1212711801
 70
     0
  0
APPID
  5
588
330
9
100
AcDbSymbolTableRecord
100
AcDbRegAppTableRecord
  2
GEVID1212711802
 70
     0
  0
APPID
  5
589
330
9
100
AcDbSymbolTableRecord
100
AcDbRegAppTableRecord
  2
GEVID1212711803
 70
     0
  0
APPID
  5
58A
330
9
100
AcDbSymbolTableRecord
100
AcDbRegAppTableRecord
  2
GEVID1212711804
 70
     0
  0
APPID
  5
58B
330
9
100
AcDbSymbolTableRecord
100
AcDbRegAppTableRecord
  2
GEVID1212711805
 70
     0
  0
APPID
  5
58C
330
9
100
AcDbSymbolTableRecord
100
AcDbRegAppTableRecord
  2
GEVID1212711806
 70
     0
  0
APPID
  5
58D
330
9
100
AcDbSymbolTableRecord
100
AcDbRegAppTableRecord
  2
GEVID1212711807
 70
     0
  0
APPID
  5
58E
330
9
100
AcDbSymbolTableRecord
100
AcDbRegAppTableRecord
  2
GEVID1212711808
 70
     0
  0
APPID
  5
58F
330
9
100
AcDbSymbolTableRecord
100
AcDbRegAppTableRecord
  2
GEVID1212711809
 70
     0
  0
APPID
  5
590
330
9
100
AcDbSymbolTableRecord
100
AcDbRegAppTableRecord
  2
GEVID1212711810
 70
     0
  0
APPID
  5
591
330
9
100
AcDbSymbolTableRecord
100
AcDbRegAppTableRecord
  2
GEVID1212711811
 70
     0
  0
APPID
  5
90A
330
9
100
AcDbSymbolTableRecord
100
AcDbRegAppTableRecord
  2
GENIUS_GENTRA_14
 70
     0
  0
APPID
  5
919
330
9
100
AcDbSymbolTableRecord
100
AcDbRegAppTableRecord
  2
GENIUS_GENOBJ-N-TIT_13
 70
     0
  0
APPID
  5
91A
330
9
100
AcDbSymbolTableRecord
100
AcDbRegAppTableRecord
  2
GENIUS_GENTITLE_13
 70
     0
  0
APPID
  5
949
330
9
100
AcDbSymbolTableRecord
100
AcDbRegAppTableRecord
  2
GENIUS_GENBLLY_14
 70
     0
  0
APPID
  5
DDD
330
9
100
AcDbSymbolTableRecord
100
AcDbRegAppTableRecord
  2
GEVID1213165152
 70
     0
  0
APPID
  5
12F9
330
9
100
AcDbSymbolTableRecord
100
AcDbRegAppTableRecord
  2
AcDbDynamicBlockTrueName
 70
     0
  0
APPID
  5
12FA
330
9
100
AcDbSymbolTableRecord
100
AcDbRegAppTableRecord
  2
ACDBBLOCKREPETAG
 70
     0
  0
APPID
  5
1C15
330
9
100
AcDbSymbolTableRecord
100
AcDbRegAppTableRecord
  2
GEVID1214872427
 70
     0
  0
APPID
  5
1C2A
330
9
100
AcDbSymbolTableRecord
100
AcDbRegAppTableRecord
  2
GEVID1214872428
 70
     0
  0
APPID
  5
1C2F
330
9
100
AcDbSymbolTableRecord
100
AcDbRegAppTableRecord
  2
GEVID1214872429
 70
     0
  0
APPID
  5
1C33
330
9
100
AcDbSymbolTableRecord
100
AcDbRegAppTableRecord
  2
GEVID1214872430
 70
     0
  0
APPID
  5
1C3F
330
9
100
AcDbSymbolTableRecord
100
AcDbRegAppTableRecord
  2
GEVID1214872432
 70
     0
  0
APPID
  5
1C4E
330
9
100
AcDbSymbolTableRecord
100
AcDbRegAppTableRecord
  2
GEVID1214872433
 70
     0
  0
APPID
  5
20DC
330
9
100
AcDbSymbolTableRecord
100
AcDbRegAppTableRecord
  2
AcDbDynamicBlockGUID
 70
     0
  0
APPID
  5
20FD
330
9
100
AcDbSymbolTableRecord
100
AcDbRegAppTableRecord
  2
GENIUS_GENOBJ-N-REV_13
 70
     0
  0
APPID
  5
20FE
330
9
100
AcDbSymbolTableRecord
100
AcDbRegAppTableRecord
  2
GENIUS_GENOBJ-N-RSSYM_13
 70
     0
  0
APPID
  5
20FF
330
9
100
AcDbSymbolTableRecord
100
AcDbRegAppTableRecord
  2
GENIUS_GENSYMENT_13
 70
     0
  0
APPID
  5
2100
330
9
100
AcDbSymbolTableRecord
100
AcDbRegAppTableRecord
  2
GENIUS_GENSCSYM_13
 70
     0
  0
APPID
  5
58DB
330
9
100
AcDbSymbolTableRecord
100
AcDbRegAppTableRecord
  2
GEVID1242179534
 70
     0
  0
APPID
  5
58E1
330
9
100
AcDbSymbolTableRecord
100
AcDbRegAppTableRecord
  2
GEVID1242179535
 70
     0
  0
APPID
  5
5BB6
330
9
100
AcDbSymbolTableRecord
100
AcDbRegAppTableRecord
  2
GEVID1242179536
 70
     0
  0
APPID
  5
5BBA
330
9
100
AcDbSymbolTableRecord
100
AcDbRegAppTableRecord
  2
GEVID1242179537
 70
     0
  0
APPID
  5
5BBE
330
9
100
AcDbSymbolTableRecord
100
AcDbRegAppTableRecord
  2
GEVID1242179538
 70
     0
  0
ENDTAB
  0
TABLE
  2
DIMSTYLE
  5
A
330
0
100
AcDbSymbolTable
 70
    29
100
AcDbDimStyleTable
 71
     1
340
5AB
  0
DIMSTYLE
105
5AB
330
A
100
AcDbSymbolTableRecord
100
AcDbDimStyleTableRecord
  2
SEISA
 70
     0
  4
"
 40
4.0
 41
2.5
 42
0.625
 43
10.0
 44
0.625
 47
0.1
 48
0.1
 73
     0
 74
     0
 77
     3
 78
     8
 79
     2
 90
     1
140
3.5
141
0.0
143
0.0393701
146
0.71
147
1.5
172
     1
176
     3
177
     3
178
     3
271
     2
272
     2
283
     0
286
     8
340
5D5
341
69
342
69
371
    -1
372
    -1
1001
ACAD_DSTYLE_DIMJAG
1070
   388
1040
1.5
1001
ACAD_DSTYLE_DIMTALN
1070
   392
1070
     1
  0
DIMSTYLE
105
5E9
102
{ACAD_REACTORS
330
59E7
330
59FF
330
5A17
330
5A76
330
5ADF
330
5ED0
330
5FB4
330
6008
330
6148
330
6160
330
6190
330
61A8
330
8DE2
330
8E1F
330
9552
330
9627
330
9651
330
979F
330
97FD
330
993A
102
}
330
A
100
AcDbSymbolTableRecord
100
AcDbDimStyleTableRecord
  2
SEISA$0
 70
     0
  4
"
 40
4.0
 41
2.5
 42
0.625
 43
10.0
 44
0.625
 47
0.1
 48
0.1
 73
     0
 74
     0
 77
     3
 78
     8
 79
     2
 90
     1
140
3.5
141
0.0
143
0.0393701
146
0.71
147
1.5
172
     1
176
     3
177
     3
178
     3
271
     2
272
     2
283
     0
286
     8
340
5D5
341
69
342
69
371
    -1
372
    -1
  0
DIMSTYLE
105
9C2D
330
A
100
AcDbSymbolTableRecord
100
AcDbDimStyleTableRecord
  2
AM_ISO
 70
     0
  4
"
 41
2.5
 42
1.0
 43
10.0
 44
1.0
 47
0.1
 48
0.1
 73
     0
 74
     0
 77
     1
 78
     8
 79
     2
 90
     1
140
3.5
141
0.0
143
0.0393701
146
0.71
147
1.5
172
     1
176
   256
177
   256
178
     2
271
     2
272
     3
274
     4
283
     0
284
     8
340
11
371
    -1
372
    -1
  0
DIMSTYLE
105
9C2E
330
A
100
AcDbSymbolTableRecord
100
AcDbDimStyleTableRecord
  2
AM_ISO$3
 70
     0
  4
"
 41
2.5
 42
1.0
 43
10.0
 44
1.0
 47
0.1
 48
0.1
 73
     0
 77
     1
 78
     8
 79
     2
 90
     1
140
3.5
141
0.0
143
0.0393701
146
0.71
147
1.5
176
   256
177
   256
178
     2
271
     2
272
     3
274
     4
283
     0
284
     8
288
     1
289
     0
340
11
371
    -1
372
    -1
  0
DIMSTYLE
105
9C2F
330
A
100
AcDbSymbolTableRecord
100
AcDbDimStyleTableRecord
  2
AM_ISO$4
 70
     0
  4
"
 41
2.5
 42
1.0
 43
10.0
 44
1.0
 47
0.1
 48
0.1
 73
     0
 77
     1
 78
     8
 79
     2
 90
     1
140
3.5
141
0.0
143
0.0393701
146
0.71
147
1.5
176
   256
177
   256
178
     2
271
     2
272
     3
274
     4
283
     0
284
     8
288
     1
289
     0
340
11
371
    -1
372
    -1
  0
DIMSTYLE
105
9C30
330
A
100
AcDbSymbolTableRecord
100
AcDbDimStyleTableRecord
  2
AM_ISO$6
 70
     0
  4
"
 41
2.5
 42
1.0
 43
10.0
 44
1.0
 47
0.1
 48
0.1
 73
     0
 74
     0
 78
     8
 79
     2
 90
     1
140
3.5
141
0.0
143
0.0393701
146
0.71
147
1.5
172
     1
176
   256
177
   256
178
     2
271
     2
272
     3
274
     4
283
     0
284
     8
340
11
371
    -1
372
    -1
  0
DIMSTYLE
105
9C31
330
A
100
AcDbSymbolTableRecord
100
AcDbDimStyleTableRecord
  2
AM_ISO$7
 70
     0
  4
"
 41
2.5
 42
1.0
 43
10.0
 44
1.0
 47
0.1
 48
0.1
 73
     0
 74
     0
 77
     1
 78
     8
 79
     2
 90
     1
140
5.0
141
0.0
143
0.0393701
146
0.71
147
1.5
172
     1
176
   256
177
   256
178
     2
271
     2
272
     3
274
     4
283
     0
284
     8
340
11
371
    -1
372
    -1
  0
DIMSTYLE
105
9C32
330
A
100
AcDbSymbolTableRecord
100
AcDbDimStyleTableRecord
  2
AM_ISO$SF
 70
     0
  4
"
 41
2.5
 42
1.0
 43
10.0
 44
1.0
 47
0.1
 48
0.1
 73
     0
 74
     0
 75
     1
 76
     1
 77
     1
 78
     8
 79
     2
 90
     1
140
3.5
141
0.0
143
0.0393701
146
0.71
147
1.5
172
     1
176
   256
177
   256
178
     2
271
     2
272
     3
274
     4
283
     0
284
     8
340
11
371
    -1
372
    -1
  0
DIMSTYLE
105
9C33
330
A
100
AcDbSymbolTableRecord
100
AcDbDimStyleTableRecord
  2
AM_ISO$SH
 70
     0
  4
"
 41
2.5
 42
1.0
 43
10.0
 44
1.0
 47
0.1
 48
0.1
 73
     0
 74
     0
 75
     1
 76
     1
 77
     1
 78
     8
 79
     2
 90
     1
140
3.5
141
0.0
143
0.0393701
144
2.0
146
0.71
147
1.5
172
     1
173
     1
176
   256
177
   256
178
     2
271
     2
272
     3
274
     4
283
     0
284
     8
340
11
343
74
371
    -1
372
    -1
  0
ENDTAB
  0
TABLE
  2
BLOCK_RECORD
  5
1
330
0
100
AcDbSymbolTable
 70
    49
  0
BLOCK_RECORD
  5
1F
102
{ACAD_XDICTIONARY
360
82
102
}
330
1
100
AcDbSymbolTableRecord
100
AcDbBlockTableRecord
  2
*Model_Space
340
22
 70
     0
280
     1
281
     0
  0
BLOCK_RECORD
  5
1B
330
1
100
AcDbSymbolTableRecord
100
AcDbBlockTableRecord
  2
*Paper_Space
340
1E
 70
     0
280
     1
281
     0
  0
BLOCK_RECORD
  5
23
330
1
100
AcDbSymbolTableRecord
100
AcDbBlockTableRecord
  2
*Paper_Space0
340
26
 70
     0
280
     1
281
     0
  0
BLOCK_RECORD
  5
69
330
1
100
AcDbSymbolTableRecord
100
AcDbBlockTableRecord
  2
_Open30
340
0
102
{BLKREFS
331
92A4
331
92A5
331
92AD
331
92AE
331
92B6
331
92B7
331
92D0
331
92D1
331
9300
331
9301
331
9317
331
9322
331
932A
331
932B
331
9333
331
9334
331
9344
331
9345
331
934D
331
934E
331
93AC
331
93B7
331
957E
331
957F
331
964B
331
964C
331
96B4
331
96B5
331
970A
331
970B
331
97F8
331
97F9
331
984C
331
984D
331
9982
331
9983
102
}
 70
     0
280
     1
281
     0
  0
BLOCK_RECORD
  5
74
330
1
100
AcDbSymbolTableRecord
100
AcDbBlockTableRecord
  2
GENAXEH
340
0
 70
     0
280
     1
281
     0
  0
BLOCK_RECORD
  5
2C8E
330
1
100
AcDbSymbolTableRecord
100
AcDbBlockTableRecord
  2
GENDOT
340
0
102
{BLKREFS
331
9316
331
9321
331
93AB
331
93B6
102
}
 70
     0
280
     1
281
     0
  0
BLOCK_RECORD
  5
4D26
102
{ACAD_XDICTIONARY
360
6B7A
102
}
330
1
100
AcDbSymbolTableRecord
100
AcDbBlockTableRecord
  2
ロッカクアナツキプラグ-1　R1／4
340
0
310
2800000020000000200000000100080000000000000400000000000000000000000000000000000000000000000080000080000000808000800000008000800080800000C0C0C000C0DCC000F0CAA6000020400000206000002080000020A0000020C0000020E00000400000004020000040400000406000004080000040A0
310
000040C0000040E00000600000006020000060400000606000006080000060A0000060C0000060E00000800000008020000080400000806000008080000080A0000080C0000080E00000A0000000A0200000A0400000A0600000A0800000A0A00000A0C00000A0E00000C0000000C0200000C0400000C0600000C0800000C0
310
A00000C0C00000C0E00000E0000000E0200000E0400000E0600000E0800000E0A00000E0C00000E0E00040000000400020004000400040006000400080004000A0004000C0004000E00040200000402020004020400040206000402080004020A0004020C0004020E000404000004040200040404000404060004040800040
310
40A0004040C0004040E00040600000406020004060400040606000406080004060A0004060C0004060E00040800000408020004080400040806000408080004080A0004080C0004080E00040A0000040A0200040A0400040A0600040A0800040A0A00040A0C00040A0E00040C0000040C0200040C0400040C0600040C08000
310
40C0A00040C0C00040C0E00040E0000040E0200040E0400040E0600040E0800040E0A00040E0C00040E0E00080000000800020008000400080006000800080008000A0008000C0008000E00080200000802020008020400080206000802080008020A0008020C0008020E00080400000804020008040400080406000804080
310
008040A0008040C0008040E00080600000806020008060400080606000806080008060A0008060C0008060E00080800000808020008080400080806000808080008080A0008080C0008080E00080A0000080A0200080A0400080A0600080A0800080A0A00080A0C00080A0E00080C0000080C0200080C0400080C0600080C0
310
800080C0A00080C0C00080C0E00080E0000080E0200080E0400080E0600080E0800080E0A00080E0C00080E0E000C0000000C0002000C0004000C0006000C0008000C000A000C000C000C000E000C0200000C0202000C0204000C0206000C0208000C020A000C020C000C020E000C0400000C0402000C0404000C0406000C0
310
408000C040A000C040C000C040E000C0600000C0602000C0604000C0606000C0608000C060A000C060C000C060E000C0800000C0802000C0804000C0806000C0808000C080A000C080C000C080E000C0A00000C0A02000C0A04000C0A06000C0A08000C0A0A000C0A0C000C0A0E000C0C00000C0C02000C0C04000C0C06000
310
C0C08000C0C0A000F0FBFF00A4A0A000808080000000FF0000FF000000FFFF00FF000000FF00FF00FFFF0000FFFFFF000000000000000000000000000000000000000000000000000000000000000000000000000000000000000000000000F900000000000000000000000000000000000000000000000000000000000000
310
F900000000000000000000000000000000000000000000000000000000000000F9FE000000000000000000000000000000000000000000000000000000FEFEFEF900FEFEFE00000000000000000000000000000000000000000000FEFEFFFFFFF9FFFFFFFFFFFE000000000000000000000000000000000000FEFEFFFF0000
310
00F90000000000FFFEFE000000000000000000000000000000FE00FF0000000000F9000000000000FF00FE00000000000000000000000000FE00FF000000000000F900000000000000FFFFFE000000000000000000000000FEFF00000000000000F90000000000000000FF00FE00000000000000000000FEFF000000000000
310
0000FF000000000000000000FFFE00000000000000000000FEFF000000000000FFFFF9FFFF00000000000000FFFE000000000000000000FEFF000000000000FF0000F90000FFFF000000000000FFFE0000000000000000FEFF0000000000FF000000F900000000FF0000000000FFFE0000000000000000FEFF0000000000FF
310
000000F900000000FF0000000000FF00FE00000000F9F9F9F9F9F9F9F9F9F9FFF9F9F9F9F9F9F9F9FFF9F9F9F9F9F9F9F9F9F900000000FE00FF0000000000FF000000F900000000FF0000000000FF00FE00000000000000FEFF0000000000FF000000F900000000FF0000000000FFFE0000000000000000FEFF0000000000
310
FF000000F900000000FF0000000000FFFE0000000000000000FEFF000000000000FFFF00F90000FFFF000000000000FFFE000000000000000000FEFF00000000000000FFF9FFFF00000000000000FFFE00000000000000000000FEFF0000000000000000FF000000000000000000FFFE0000000000000000000000FEFF0000
310
0000000000F90000000000000000FF00FE0000000000000000000000FE00FF000000000000F90000000000000000FFFE00000000000000000000000000FE00FF0000000000F9000000000000FFFFFE000000000000000000000000000000FE00FF00000000F90000000000FF00FE0000000000000000000000000000000000
310
FEFEFFFFFFFFF9FFFFFFFFFFFEFE000000000000000000000000000000000000000000FEFE00F900FEFEFE0000000000000000000000000000000000000000000000000000FEF9FE000000000000000000000000000000000000000000000000000000000000F9000000000000000000000000000000000000000000000000
310
00000000000000F9000000000000000000000000000000000000000000000000000000000000000000000000000000000000000000000000
102
{BLKREFS
331
4E3A
102
}
 70
     4
280
     1
281
     0
  0
BLOCK_RECORD
  5
4D34
102
{ACAD_XDICTIONARY
360
6C0D
102
}
330
1
100
AcDbSymbolTableRecord
100
AcDbBlockTableRecord
  2
ロッカクアナツキプラグ-2　R1／4
340
0
310
2800000020000000200000000100080000000000000400000000000000000000000000000000000000000000000080000080000000808000800000008000800080800000C0C0C000C0DCC000F0CAA6000020400000206000002080000020A0000020C0000020E00000400000004020000040400000406000004080000040A0
310
000040C0000040E00000600000006020000060400000606000006080000060A0000060C0000060E00000800000008020000080400000806000008080000080A0000080C0000080E00000A0000000A0200000A0400000A0600000A0800000A0A00000A0C00000A0E00000C0000000C0200000C0400000C0600000C0800000C0
310
A00000C0C00000C0E00000E0000000E0200000E0400000E0600000E0800000E0A00000E0C00000E0E00040000000400020004000400040006000400080004000A0004000C0004000E00040200000402020004020400040206000402080004020A0004020C0004020E000404000004040200040404000404060004040800040
310
40A0004040C0004040E00040600000406020004060400040606000406080004060A0004060C0004060E00040800000408020004080400040806000408080004080A0004080C0004080E00040A0000040A0200040A0400040A0600040A0800040A0A00040A0C00040A0E00040C0000040C0200040C0400040C0600040C08000
310
40C0A00040C0C00040C0E00040E0000040E0200040E0400040E0600040E0800040E0A00040E0C00040E0E00080000000800020008000400080006000800080008000A0008000C0008000E00080200000802020008020400080206000802080008020A0008020C0008020E00080400000804020008040400080406000804080
310
008040A0008040C0008040E00080600000806020008060400080606000806080008060A0008060C0008060E00080800000808020008080400080806000808080008080A0008080C0008080E00080A0000080A0200080A0400080A0600080A0800080A0A00080A0C00080A0E00080C0000080C0200080C0400080C0600080C0
310
800080C0A00080C0C00080C0E00080E0000080E0200080E0400080E0600080E0800080E0A00080E0C00080E0E000C0000000C0002000C0004000C0006000C0008000C000A000C000C000C000E000C0200000C0202000C0204000C0206000C0208000C020A000C020C000C020E000C0400000C0402000C0404000C0406000C0
310
408000C040A000C040C000C040E000C0600000C0602000C0604000C0606000C0608000C060A000C060C000C060E000C0800000C0802000C0804000C0806000C0808000C080A000C080C000C080E000C0A00000C0A02000C0A04000C0A06000C0A08000C0A0A000C0A0C000C0A0E000C0C00000C0C02000C0C04000C0C06000
310
C0C08000C0C0A000F0FBFF00A4A0A000808080000000FF0000FF000000FFFF00FF000000FF00FF00FFFF0000FFFFFF00000000000000000000000000000000000000000000000000000000000000000000000000000000000000000000000000F9000000000000000000000000000000000000000000000000000000000000
310
00F9000000000000000000000000000000000000000000000000000000000000FEF9000000000000000000000000000000000000000000000000000000FEFEFE00F9FEFEFE00000000000000000000000000000000000000000000FEFEFFFFFFFFFFFFFFFFFFFE000000000000000000000000000000000000FEFEFFFF0000
310
0000F900000000FFFEFE000000000000000000000000000000FE00FF000000000000F90000000000FF00FE00000000000000000000000000FE00FF00000000000000F9000000000000FFFFFE000000000000000000000000FEFF0000000000000000F900000000000000FF00FE00000000000000000000FEFF000000000000
310
000000FF0000000000000000FFFE00000000000000000000FEFF00000000000000FFFFF9FFFF000000000000FFFE000000000000000000FEFF000000000000FFFF0000F90000FF000000000000FFFE0000000000000000FEFF0000000000FF00000000F9000000FF0000000000FFFE0000000000000000FEFF0000000000FF
310
00000000F9000000FF0000000000FF00FE00000000F9F9FEF9FFF9F9F9F9F9FFF9F9F9F9F9F9F9F9FFF9F9F9F9F9FFF9FEF9F900000000FE00FF0000000000FF00000000F9000000FF0000000000FF00FE00000000000000FEFF0000000000FF00000000F9000000FF0000000000FFFE0000000000000000FEFF0000000000
310
FF00000000F9000000FF0000000000FFFE0000000000000000FEFF000000000000FFFF0000F900FFFF000000000000FFFE000000000000000000FEFF00000000000000FFFFF9FF00000000000000FFFE00000000000000000000FEFF000000000000000000FF0000000000000000FFFE0000000000000000000000FEFF0000
310
000000000000F900000000000000FF00FE0000000000000000000000FE00FF00000000000000F900000000000000FFFE00000000000000000000000000FE00FF000000000000F90000000000FFFFFE000000000000000000000000000000FE00FF0000000000F900000000FF00FE0000000000000000000000000000000000
310
FEFEFFFFFFFFFFFFFFFFFFFFFEFE000000000000000000000000000000000000000000FEFEFE00F900FEFE000000000000000000000000000000000000000000000000000000FEF9FE000000000000000000000000000000000000000000000000000000000000F90000000000000000000000000000000000000000000000
310
0000000000000000F90000000000000000000000000000000000000000000000000000000000000000000000000000000000000000000000
102
{BLKREFS
331
501C
102
}
 70
     4
280
     1
281
     0
  0
BLOCK_RECORD
  5
4E01
102
{ACAD_XDICTIONARY
360
4EDC
102
}
330
1
100
AcDbSymbolTableRecord
100
AcDbBlockTableRecord
  2
ケースＡ-1 SAM280
340
0
310
2800000020000000200000000100080000000000000400000000000000000000000000000000000000000000000080000080000000808000800000008000800080800000C0C0C000C0DCC000F0CAA6000020400000206000002080000020A0000020C0000020E00000400000004020000040400000406000004080000040A0
310
000040C0000040E00000600000006020000060400000606000006080000060A0000060C0000060E00000800000008020000080400000806000008080000080A0000080C0000080E00000A0000000A0200000A0400000A0600000A0800000A0A00000A0C00000A0E00000C0000000C0200000C0400000C0600000C0800000C0
310
A00000C0C00000C0E00000E0000000E0200000E0400000E0600000E0800000E0A00000E0C00000E0E00040000000400020004000400040006000400080004000A0004000C0004000E00040200000402020004020400040206000402080004020A0004020C0004020E000404000004040200040404000404060004040800040
310
40A0004040C0004040E00040600000406020004060400040606000406080004060A0004060C0004060E00040800000408020004080400040806000408080004080A0004080C0004080E00040A0000040A0200040A0400040A0600040A0800040A0A00040A0C00040A0E00040C0000040C0200040C0400040C0600040C08000
310
40C0A00040C0C00040C0E00040E0000040E0200040E0400040E0600040E0800040E0A00040E0C00040E0E00080000000800020008000400080006000800080008000A0008000C0008000E00080200000802020008020400080206000802080008020A0008020C0008020E00080400000804020008040400080406000804080
310
008040A0008040C0008040E00080600000806020008060400080606000806080008060A0008060C0008060E00080800000808020008080400080806000808080008080A0008080C0008080E00080A0000080A0200080A0400080A0600080A0800080A0A00080A0C00080A0E00080C0000080C0200080C0400080C0600080C0
310
800080C0A00080C0C00080C0E00080E0000080E0200080E0400080E0600080E0800080E0A00080E0C00080E0E000C0000000C0002000C0004000C0006000C0008000C000A000C000C000C000E000C0200000C0202000C0204000C0206000C0208000C020A000C020C000C020E000C0400000C0402000C0404000C0406000C0
310
408000C040A000C040C000C040E000C0600000C0602000C0604000C0606000C0608000C060A000C060C000C060E000C0800000C0802000C0804000C0806000C0808000C080A000C080C000C080E000C0A00000C0A02000C0A04000C0A06000C0A08000C0A0A000C0A0C000C0A0E000C0C00000C0C02000C0C04000C0C06000
310
C0C08000C0C0A000F0FBFF00A4A0A000808080000000FF0000FF000000FFFF00FF000000FF00FF00FFFF0000FFFFFF000000000000000000000000000000000000000000000000000000000000000000000000000000000000000000FFFFFF0000000000000000000000000000000000000000000000000000000000FF00FF
310
0000000000000000000000000000000000000000000000000000000000FF00FF0000000000000000000000000000000000000000000000000000000000FF00FFFFFFFFFFFFFF0000000000000000000000000000000000000000000000FF00FF0000000000FF0000000000000000000000000000000000000000000000FF00
310
FF0000000000FF0000000000000000000000000000000000000000000000FF00FF0000000000FF0000000000000000000000000000000000000000000000FF00FF0000000000FF0000000000000000000000000000000000000000000000FF00FF0000000000FF0000000000000000000000000000000000000000000000FF
310
00FF0000000000FF0000000000000000000000000000000000000000000000FFF9FF0000000000FF0000000000000000000000000000000000000000000000F9FFF90000000000FF0000000000000000000000000000000000000000000000FFF9FE0000000000FF0000000000000000000000000000000000000000000000
310
FF00FF0000000000FF0000000000000000000000000000000000000000000000FF00FF0000000000FF0000000000000000000000000000000000000000000000FF00FF0000000000FF000000000000000000000000000000000000000000000000000000000000000000000000000000000000000000000000000000000000
310
00000000000000000000000000000000000000000000000000000000000000000000000000000000000000000000000000000000000000000000000000000000000000000000000000000000000000000000000000000000000000000000000000000000000000000000000000000000000000000000000000000000000000
310
00000000000000FAFAFAFA000000000000000000000000000000000000000000000000000000FAFAFAFAFAFAFA000000000000000000000000000000000000000000000000000000FAFAFA00FA000000000000000000000000000000000000000000000000000000FAFFFF0000000000000000000000000000000000000000
310
000000FFFFFFFFF9F9FFFFFF00000000000000000000000000000000000000000000FFFF00FFFFFFFFFFFFFF0000000000000000000000000000000000000000F9FFFFFFFFFFF9F900000000000000000000000000000000000000000000000000FFFFFFFFFF00000000000000000000000000000000000000000000000000
310
00000000FFFFFF00000000000000000000000000000000000000000000000000000000000000000000000000000000000000000000000000
102
{BLKREFS
331
4E3B
102
}
 70
     4
280
     1
281
     0
  0
BLOCK_RECORD
  5
4FE0
102
{ACAD_XDICTIONARY
360
50AF
102
}
330
1
100
AcDbSymbolTableRecord
100
AcDbBlockTableRecord
  2
ケースＡ-2 SAM280
340
0
310
2800000020000000200000000100080000000000000400000000000000000000000000000000000000000000000080000080000000808000800000008000800080800000C0C0C000C0DCC000F0CAA6000020400000206000002080000020A0000020C0000020E00000400000004020000040400000406000004080000040A0
310
000040C0000040E00000600000006020000060400000606000006080000060A0000060C0000060E00000800000008020000080400000806000008080000080A0000080C0000080E00000A0000000A0200000A0400000A0600000A0800000A0A00000A0C00000A0E00000C0000000C0200000C0400000C0600000C0800000C0
310
A00000C0C00000C0E00000E0000000E0200000E0400000E0600000E0800000E0A00000E0C00000E0E00040000000400020004000400040006000400080004000A0004000C0004000E00040200000402020004020400040206000402080004020A0004020C0004020E000404000004040200040404000404060004040800040
310
40A0004040C0004040E00040600000406020004060400040606000406080004060A0004060C0004060E00040800000408020004080400040806000408080004080A0004080C0004080E00040A0000040A0200040A0400040A0600040A0800040A0A00040A0C00040A0E00040C0000040C0200040C0400040C0600040C08000
310
40C0A00040C0C00040C0E00040E0000040E0200040E0400040E0600040E0800040E0A00040E0C00040E0E00080000000800020008000400080006000800080008000A0008000C0008000E00080200000802020008020400080206000802080008020A0008020C0008020E00080400000804020008040400080406000804080
310
008040A0008040C0008040E00080600000806020008060400080606000806080008060A0008060C0008060E00080800000808020008080400080806000808080008080A0008080C0008080E00080A0000080A0200080A0400080A0600080A0800080A0A00080A0C00080A0E00080C0000080C0200080C0400080C0600080C0
310
800080C0A00080C0C00080C0E00080E0000080E0200080E0400080E0600080E0800080E0A00080E0C00080E0E000C0000000C0002000C0004000C0006000C0008000C000A000C000C000C000E000C0200000C0202000C0204000C0206000C0208000C020A000C020C000C020E000C0400000C0402000C0404000C0406000C0
310
408000C040A000C040C000C040E000C0600000C0602000C0604000C0606000C0608000C060A000C060C000C060E000C0800000C0802000C0804000C0806000C0808000C080A000C080C000C080E000C0A00000C0A02000C0A04000C0A06000C0A08000C0A0A000C0A0C000C0A0E000C0C00000C0C02000C0C04000C0C06000
310
C0C08000C0C0A000F0FBFF00A4A0A000808080000000FF0000FF000000FFFF00FF000000FF00FF00FFFF0000FFFFFF0000000000000000000000000000000000000000000000000000000000000000000000000000000000000000000000000000FFFFFF000000000000000000000000000000000000000000000000000000
310
0000FF00FF00000000000000000000000000000000000000000000000000000000F9F9F9F9F9F9F90000000000000000000000000000000000000000FFFFFFFFFFFFFF00FF0000000000000000000000000000000000000000000000FF0000000000FF00FF0000000000000000000000000000000000000000000000FF0000
310
000000FF00FF0000000000000000000000000000000000000000000000FF0000000000FF00FF0000000000000000000000000000000000000000000000FF0000000000FF00FF0000000000000000000000000000000000000000000000FF0000000000FF00FF0000000000000000000000000000000000000000000000FF00
310
00000000FF00FF0000000000000000000000000000000000000000000000FF0000000000FFF9FF0000000000000000000000000000000000000000000000FF0000000000FFFFFF0000000000000000000000000000000000000000000000FF0000000000FFFFFF0000000000000000000000000000000000000000000000FF
310
0000000000FF00FF0000000000000000000000000000000000000000000000FF0000000000FF00FF0000000000000000000000000000000000000000000000FF0000000000FF00FF00000000000000000000000000000000000000000000000000000000000000000000000000000000000000000000000000000000000000
310
00000000000000000000000000000000000000000000000000000000000000000000000000000000000000000000000000000000000000000000000000000000000000000000000000000000000000000000000000000000000000000000000000000000000000000000000000000000000000000000000000000000000000
310
0000FAFA000000000000000000000000000000000000000000000000000000FAFAFAFAFAFAFA000000000000000000000000000000000000000000000000FAFAFAFAFAFA000000000000000000000000000000000000000000000000000000FAFAFFFFFA000000000000000000000000000000000000000000000000000000
310
0000FFFFFFFFFFFFFFFFFF0000000000000000000000000000000000000000000000FFFFFFFFFFFFFF00FFFF0000000000000000000000000000000000000000000000000000F9F9FFF9FFF9F9F9F900000000000000000000000000000000000000000000000000FFFFFFFFFF000000000000000000000000000000000000
310
000000000000000000FFFFFF0000000000000000000000000000000000000000000000000000000000000000000000000000000000000000
102
{BLKREFS
331
5266
102
}
 70
     4
280
     1
281
     0
  0
BLOCK_RECORD
  5
50F2
102
{ACAD_XDICTIONARY
360
5165
102
}
330
1
100
AcDbSymbolTableRecord
100
AcDbBlockTableRecord
  2
センタ-1 SAM280
340
0
310
2800000020000000200000000100080000000000000400000000000000000000000000000000000000000000000080000080000000808000800000008000800080800000C0C0C000C0DCC000F0CAA6000020400000206000002080000020A0000020C0000020E00000400000004020000040400000406000004080000040A0
310
000040C0000040E00000600000006020000060400000606000006080000060A0000060C0000060E00000800000008020000080400000806000008080000080A0000080C0000080E00000A0000000A0200000A0400000A0600000A0800000A0A00000A0C00000A0E00000C0000000C0200000C0400000C0600000C0800000C0
310
A00000C0C00000C0E00000E0000000E0200000E0400000E0600000E0800000E0A00000E0C00000E0E00040000000400020004000400040006000400080004000A0004000C0004000E00040200000402020004020400040206000402080004020A0004020C0004020E000404000004040200040404000404060004040800040
310
40A0004040C0004040E00040600000406020004060400040606000406080004060A0004060C0004060E00040800000408020004080400040806000408080004080A0004080C0004080E00040A0000040A0200040A0400040A0600040A0800040A0A00040A0C00040A0E00040C0000040C0200040C0400040C0600040C08000
310
40C0A00040C0C00040C0E00040E0000040E0200040E0400040E0600040E0800040E0A00040E0C00040E0E00080000000800020008000400080006000800080008000A0008000C0008000E00080200000802020008020400080206000802080008020A0008020C0008020E00080400000804020008040400080406000804080
310
008040A0008040C0008040E00080600000806020008060400080606000806080008060A0008060C0008060E00080800000808020008080400080806000808080008080A0008080C0008080E00080A0000080A0200080A0400080A0600080A0800080A0A00080A0C00080A0E00080C0000080C0200080C0400080C0600080C0
310
800080C0A00080C0C00080C0E00080E0000080E0200080E0400080E0600080E0800080E0A00080E0C00080E0E000C0000000C0002000C0004000C0006000C0008000C000A000C000C000C000E000C0200000C0202000C0204000C0206000C0208000C020A000C020C000C020E000C0400000C0402000C0404000C0406000C0
310
408000C040A000C040C000C040E000C0600000C0602000C0604000C0606000C0608000C060A000C060C000C060E000C0800000C0802000C0804000C0806000C0808000C080A000C080C000C080E000C0A00000C0A02000C0A04000C0A06000C0A08000C0A0A000C0A0C000C0A0E000C0C00000C0C02000C0C04000C0C06000
310
C0C08000C0C0A000F0FBFF00A4A0A000808080000000FF0000FF000000FFFF00FF000000FF00FF00FFFF0000FFFFFF0000000000000000000000000000000000000000000000000000000000000000000000000000000000000000000000000000FFFFFF000000000000000000000000000000000000000000000000000000
310
00000000FFFFFFFFFFFFFFFF000000000000000000000000000000000000000000000000FFFF0000000000FF000000000000000000000000000000000000000000000000FFFF0000000000FF000000000000000000000000000000000000000000000000FFFF0000000000FF00000000000000000000000000000000000000
310
0000000000FFFF0000000000FF000000000000000000000000000000000000000000000000FFFF0000000000FF000000000000000000000000000000000000000000000000FFFF0000000000FF000000000000000000000000000000000000000000000000FFFF0000000000FF000000000000000000000000000000000000
310
000000000000FFFF0000000000FF000000000000000000000000000000000000000000000000FFFF0000000000FF000000000000000000000000000000000000000000000000FFFF0000000000FF000000000000000000000000000000000000000000000000FFFF0000000000FF000000000000000000000000FF0000A4A4
310
00000000000000FFFF0000000000FF000000000000000000000000A4A4A4A4A40000000000000000000000000000FF000000000000000000000000FF000000000000000000000000000000000000FF000000000000000000000000FF000000000000000000000000000000000000FF000000000000000000000000FF000000
310
000000000000000000000000000000FF000000000000000000000000FF000000000000000000000000000000000000FF000000000000000000000000FF000000000000000000000000000000000000FF000000000000000000000000FF000000000000000000000000000000000000FF000000000000000000000000FFFFFF
310
FFFFFFFFFFFFFFFFFFFFFFFFFFFFFFFFFF000000000000000000000000FFFFFFFFFFFFFFFFFFFFFFFFFFFFFFFFFFFFFFFF000000000000000000000000FF000000000000000000000000000000000000FF00000000000000000000F9F9F9F9F900000000000000000000000000000000FF000000000000000000000000FF00
310
0000000000000000000000000000000000FF000000000000000000000000FFFFFF00F90000000000000000FFFFFFFFFFFFFF0000000000000000000000000000FFFFF9FFFFFFFFFFFFFFFF000000000000000000000000000000000000000000FFFFF9FFFFFF00000000000000000000000000000000000000000000000000
310
000000F900000000000000000000000000000000000000000000000000000000000000000000000000000000000000000000000000000000
102
{BLKREFS
331
5119
102
}
 70
     4
280
     1
281
     0
  0
BLOCK_RECORD
  5
5218
102
{ACAD_XDICTIONARY
360
528E
102
}
330
1
100
AcDbSymbolTableRecord
100
AcDbBlockTableRecord
  2
センタ-2 SAM280
340
0
310
2800000020000000200000000100080000000000000400000000000000000000000000000000000000000000000080000080000000808000800000008000800080800000C0C0C000C0DCC000F0CAA6000020400000206000002080000020A0000020C0000020E00000400000004020000040400000406000004080000040A0
310
000040C0000040E00000600000006020000060400000606000006080000060A0000060C0000060E00000800000008020000080400000806000008080000080A0000080C0000080E00000A0000000A0200000A0400000A0600000A0800000A0A00000A0C00000A0E00000C0000000C0200000C0400000C0600000C0800000C0
310
A00000C0C00000C0E00000E0000000E0200000E0400000E0600000E0800000E0A00000E0C00000E0E00040000000400020004000400040006000400080004000A0004000C0004000E00040200000402020004020400040206000402080004020A0004020C0004020E000404000004040200040404000404060004040800040
310
40A0004040C0004040E00040600000406020004060400040606000406080004060A0004060C0004060E00040800000408020004080400040806000408080004080A0004080C0004080E00040A0000040A0200040A0400040A0600040A0800040A0A00040A0C00040A0E00040C0000040C0200040C0400040C0600040C08000
310
40C0A00040C0C00040C0E00040E0000040E0200040E0400040E0600040E0800040E0A00040E0C00040E0E00080000000800020008000400080006000800080008000A0008000C0008000E00080200000802020008020400080206000802080008020A0008020C0008020E00080400000804020008040400080406000804080
310
008040A0008040C0008040E00080600000806020008060400080606000806080008060A0008060C0008060E00080800000808020008080400080806000808080008080A0008080C0008080E00080A0000080A0200080A0400080A0600080A0800080A0A00080A0C00080A0E00080C0000080C0200080C0400080C0600080C0
310
800080C0A00080C0C00080C0E00080E0000080E0200080E0400080E0600080E0800080E0A00080E0C00080E0E000C0000000C0002000C0004000C0006000C0008000C000A000C000C000C000E000C0200000C0202000C0204000C0206000C0208000C020A000C020C000C020E000C0400000C0402000C0404000C0406000C0
310
408000C040A000C040C000C040E000C0600000C0602000C0604000C0606000C0608000C060A000C060C000C060E000C0800000C0802000C0804000C0806000C0808000C080A000C080C000C080E000C0A00000C0A02000C0A04000C0A06000C0A08000C0A0A000C0A0C000C0A0E000C0C00000C0C02000C0C04000C0C06000
310
C0C08000C0C0A000F0FBFF00A4A0A000808080000000FF0000FF000000FFFF00FF000000FF00FF00FFFF0000FFFFFF00000000000000000000000000000000000000000000000000000000000000000000000000000000000000000000000000000000FFFFFF00000000000000000000000000000000000000000000000000
310
00000000FF00FF0000000000000000000000000000000000000000000000000000000000FF00FF0000000000000000000000000000000000000000000000FFFFFFFFFFFFFF00FF0000000000000000000000000000000000000000000000FF0000000000FF00FF00000000000000000000000000000000FFFFFFFFFFFFFFFF
310
0000000000FF00FF00000000000000000000000000000000FF00000000FF00FF0000000000FF00FF00000000000000000000000000000000FF00000000FF00FF0000000000FF00FF00000000000000000000000000000000FF00000000FF00FF0000000000FF00FF00000000000000000000000000000000FF00000000FF00
310
FF0000000000FF00FF00000000000000000000000000000000FF00000000FF00FF0000000000FFF9FF00000000000000000000000000000000FF00000000FF00FF0000000000FFFFFF00000000000000000000000000000000FF00000000FF00FF0000000000FFFFFE00000000000000000000000000000000FF00000000FF
310
00FF0000000000FF00FF00000000000000000000000000000000FF00000000FF00FF0000000000FF00FF00000000000000000000000000000000FF00000000FF00FF000000A4A4FFA4FF00000000000000000000000000000000FF00000000000000000000000000FF0000000000000000000000000000000000FF00000000
310
000000000000000000FF0000000000000000000000000000000000FF00000000000000000000000000FF0000000000000000000000000000000000FF00000000000000000000000000FF0000000000000000000000000000000000FFFFFFFFFFFFFFFFFFFFFFFFFFFFFF0000000000000000000000000000000000FFFFFFFF
310
FFFFFFFFFFFFFFFFFFFFFF0000000000000000000000000000000000FF00000000000000000000000000FF0000000000000000000000000000000000FF00000000000000000000000000FF0000000000000000000000000000000000FFFFFFFFFFFFFFFFFFFFFFFFFFFFFF0000000000000000000000000000000000000000
310
00000000FFFFFFFFFFFFFFFFFFFF00000000000000000000000000000000000000000000FFFFFFFFFFFFFF00FFFF0000000000000000000000000000000000000000000000000000F9F9FFF9FFF9F9F9F900000000000000000000000000000000000000000000000000FFFFFF000000000000000000000000000000000000
310
0000000000000000000000FFFFFF000000000000000000000000000000000000000000000000000000000000000000000000000000000000
102
{BLKREFS
331
5240
102
}
 70
     4
280
     1
281
     0
  0
BLOCK_RECORD
  5
5611
102
{ACAD_XDICTIONARY
360
56A4
102
}
330
1
100
AcDbSymbolTableRecord
100
AcDbBlockTableRecord
  2
リーマボルト-1 SAM280 M12
340
0
310
2800000020000000200000000100080000000000000400000000000000000000000000000000000000000000000080000080000000808000800000008000800080800000C0C0C000C0DCC000F0CAA6000020400000206000002080000020A0000020C0000020E00000400000004020000040400000406000004080000040A0
310
000040C0000040E00000600000006020000060400000606000006080000060A0000060C0000060E00000800000008020000080400000806000008080000080A0000080C0000080E00000A0000000A0200000A0400000A0600000A0800000A0A00000A0C00000A0E00000C0000000C0200000C0400000C0600000C0800000C0
310
A00000C0C00000C0E00000E0000000E0200000E0400000E0600000E0800000E0A00000E0C00000E0E00040000000400020004000400040006000400080004000A0004000C0004000E00040200000402020004020400040206000402080004020A0004020C0004020E000404000004040200040404000404060004040800040
310
40A0004040C0004040E00040600000406020004060400040606000406080004060A0004060C0004060E00040800000408020004080400040806000408080004080A0004080C0004080E00040A0000040A0200040A0400040A0600040A0800040A0A00040A0C00040A0E00040C0000040C0200040C0400040C0600040C08000
310
40C0A00040C0C00040C0E00040E0000040E0200040E0400040E0600040E0800040E0A00040E0C00040E0E00080000000800020008000400080006000800080008000A0008000C0008000E00080200000802020008020400080206000802080008020A0008020C0008020E00080400000804020008040400080406000804080
310
008040A0008040C0008040E00080600000806020008060400080606000806080008060A0008060C0008060E00080800000808020008080400080806000808080008080A0008080C0008080E00080A0000080A0200080A0400080A0600080A0800080A0A00080A0C00080A0E00080C0000080C0200080C0400080C0600080C0
310
800080C0A00080C0C00080C0E00080E0000080E0200080E0400080E0600080E0800080E0A00080E0C00080E0E000C0000000C0002000C0004000C0006000C0008000C000A000C000C000C000E000C0200000C0202000C0204000C0206000C0208000C020A000C020C000C020E000C0400000C0402000C0404000C0406000C0
310
408000C040A000C040C000C040E000C0600000C0602000C0604000C0606000C0608000C060A000C060C000C060E000C0800000C0802000C0804000C0806000C0808000C080A000C080C000C080E000C0A00000C0A02000C0A04000C0A06000C0A08000C0A0A000C0A0C000C0A0E000C0C00000C0C02000C0C04000C0C06000
310
C0C08000C0C0A000F0FBFF00A4A0A000808080000000FF0000FF000000FFFF00FF000000FF00FF00FFFF0000FFFFFF0000000000000000000000000000000000000000000000000000000000000000000000000000000000000000000000000000000000000000000000000000000000000000000000000000000000000000
310
00000000000000000000000000000000000000000000000000000000000000000000000000000000000000000000000000000000000000000000000000000000000000000000000000000000000000000000000000000000000000000000000000000000000000000000000000000000000000000000000000000000000000
310
00000000000000000000000000000000000000000000000000000000000000000000000000000000000000000000000000000000000000000000000000000000000000000000000000000000000000000000000000000000000000000000000000000000000000000000000000000000000000000000000000000000000000
310
0000000000000000000000000000000000000000000000000000000000000000000000000000000000FFFFFFFFFFFF0000000000FFFFFFFFFF0000000000000000000000000000000000FF000000FFFF00000000FFFF0000FFFF00000000000000000000000000FFFFFFFFFFFFFFFFFEFE000000FFFF000000FF0000000000
310
0000000000000000FF00FFFF000000FFFFFFFF0000FFFF000000FF00000000000000000000000000FF00FFFF000000FFFFFFFF0000FFFF000000FF00000000000000000000000000FF00FFFF000000FFFFFFFF0000FFFF000000FF00000000000000000000000000FF00FFFF000000FFFFFFFF0000FFFF0000FFFF00000000
310
000000000000000000FFFFFFFFFFFFFFFFFEFE000000FFFFFFFFFF0000000000000000000000000000000000FF000000FFFF00000000000000000000000000000000000000000000000000FFFFFFFFFFFF00000000000000000000000000000000000000000000000000000000000000000000000000000000000000000000
310
00000000000000000000000000000000000000000000000000000000000000000000000000000000000000000000000000000000000000000000000000000000000000000000000000000000000000000000000000000000000000000000000000000000000000000000000000000000000000000000000000000000000000
310
00000000000000000000000000000000000000000000000000000000000000000000000000000000000000000000000000000000000000000000000000000000000000000000000000000000000000000000000000000000000000000000000000000000000000000000000000000000000000000000000000000000000000
310
0000000000000000000000000000000000000000000000000000000000000000000000000000000000000000000000000000000000000000
102
{BLKREFS
331
563F
102
}
 70
     4
280
     1
281
     0
  0
BLOCK_RECORD
  5
56AE
102
{ACAD_XDICTIONARY
360
5745
102
}
330
1
100
AcDbSymbolTableRecord
100
AcDbBlockTableRecord
  2
リーマボルト-2 SAM280 M12
340
0
310
2800000020000000200000000100080000000000000400000000000000000000000000000000000000000000000080000080000000808000800000008000800080800000C0C0C000C0DCC000F0CAA6000020400000206000002080000020A0000020C0000020E00000400000004020000040400000406000004080000040A0
310
000040C0000040E00000600000006020000060400000606000006080000060A0000060C0000060E00000800000008020000080400000806000008080000080A0000080C0000080E00000A0000000A0200000A0400000A0600000A0800000A0A00000A0C00000A0E00000C0000000C0200000C0400000C0600000C0800000C0
310
A00000C0C00000C0E00000E0000000E0200000E0400000E0600000E0800000E0A00000E0C00000E0E00040000000400020004000400040006000400080004000A0004000C0004000E00040200000402020004020400040206000402080004020A0004020C0004020E000404000004040200040404000404060004040800040
310
40A0004040C0004040E00040600000406020004060400040606000406080004060A0004060C0004060E00040800000408020004080400040806000408080004080A0004080C0004080E00040A0000040A0200040A0400040A0600040A0800040A0A00040A0C00040A0E00040C0000040C0200040C0400040C0600040C08000
310
40C0A00040C0C00040C0E00040E0000040E0200040E0400040E0600040E0800040E0A00040E0C00040E0E00080000000800020008000400080006000800080008000A0008000C0008000E00080200000802020008020400080206000802080008020A0008020C0008020E00080400000804020008040400080406000804080
310
008040A0008040C0008040E00080600000806020008060400080606000806080008060A0008060C0008060E00080800000808020008080400080806000808080008080A0008080C0008080E00080A0000080A0200080A0400080A0600080A0800080A0A00080A0C00080A0E00080C0000080C0200080C0400080C0600080C0
310
800080C0A00080C0C00080C0E00080E0000080E0200080E0400080E0600080E0800080E0A00080E0C00080E0E000C0000000C0002000C0004000C0006000C0008000C000A000C000C000C000E000C0200000C0202000C0204000C0206000C0208000C020A000C020C000C020E000C0400000C0402000C0404000C0406000C0
310
408000C040A000C040C000C040E000C0600000C0602000C0604000C0606000C0608000C060A000C060C000C060E000C0800000C0802000C0804000C0806000C0808000C080A000C080C000C080E000C0A00000C0A02000C0A04000C0A06000C0A08000C0A0A000C0A0C000C0A0E000C0C00000C0C02000C0C04000C0C06000
310
C0C08000C0C0A000F0FBFF00A4A0A000808080000000FF0000FF000000FFFF00FF000000FF00FF00FFFF0000FFFFFF0000000000000000000000000000000000000000000000000000000000000000000000000000000000000000000000000000000000000000000000000000000000000000000000000000000000000000
310
00000000000000000000000000000000000000000000000000000000000000000000000000000000000000000000000000000000000000000000000000000000000000000000000000000000000000000000000000000000000000000000000000000000000000000000000000000000000000000000000000000000000000
310
00000000000000000000000000000000000000000000000000000000000000000000000000000000000000000000000000000000000000000000000000000000000000000000000000000000000000000000000000000000000000000000000000000000000000000000000000000000000000000000000000000000000000
310
0000000000000000000000000000000000000000000000FFFFFFFFFFFF00000000000000000000000000000000000000000000000000FFFF000000FF0000000000000000000000000000000000FFFFFFFFFF000000FFFFFFFFFFFFFFFFFEFF00000000000000000000000000FFFF0000FFFF0000FFFFFFFF000000FFFF00FF
310
00000000000000000000000000FF000000FFFF0000FFFFFFFF000000FFFF00FF00000000000000000000000000FF000000FFFF0000FFFFFFFF000000FFFF00FF00000000000000000000000000FF000000FFFF0000FFFFFFFF000000FFFF00FF00000000000000000000000000FF000000FFFF000000FFFFFFFFFFFFFFFFFE
310
FF00000000000000000000000000FFFF0000FFFF00000000FFFF000000FF0000000000000000000000000000000000FFFFFFFFFF0000000000FFFFFFFFFFFF00000000000000000000000000000000000000000000000000000000000000000000000000000000000000000000000000000000000000000000000000000000
310
00000000000000000000000000000000000000000000000000000000000000000000000000000000000000000000000000000000000000000000000000000000000000000000000000000000000000000000000000000000000000000000000000000000000000000000000000000000000000000000000000000000000000
310
00000000000000000000000000000000000000000000000000000000000000000000000000000000000000000000000000000000000000000000000000000000000000000000000000000000000000000000000000000000000000000000000000000000000000000000000000000000000000000000000000000000000000
310
0000000000000000000000000000000000000000000000000000000000000000000000000000000000000000000000000000000000000000
102
{BLKREFS
331
56DD
102
}
 70
     4
280
     1
281
     0
  0
BLOCK_RECORD
  5
59E8
330
1
100
AcDbSymbolTableRecord
100
AcDbBlockTableRecord
  2
*D15
340
0
 70
     0
280
     1
281
     0
  0
BLOCK_RECORD
  5
5A00
330
1
100
AcDbSymbolTableRecord
100
AcDbBlockTableRecord
  2
*D16
340
0
 70
     0
280
     1
281
     0
  0
BLOCK_RECORD
  5
5A18
330
1
100
AcDbSymbolTableRecord
100
AcDbBlockTableRecord
  2
*D17
340
0
 70
     0
280
     1
281
     0
  0
BLOCK_RECORD
  5
5A77
330
1
100
AcDbSymbolTableRecord
100
AcDbBlockTableRecord
  2
*D18
340
0
 70
     0
280
     1
281
     0
  0
BLOCK_RECORD
  5
5AE0
330
1
100
AcDbSymbolTableRecord
100
AcDbBlockTableRecord
  2
*D19
340
0
 70
     0
280
     1
281
     0
  0
BLOCK_RECORD
  5
5ED1
330
1
100
AcDbSymbolTableRecord
100
AcDbBlockTableRecord
  2
*D20
340
0
 70
     0
280
     1
281
     0
  0
BLOCK_RECORD
  5
5FB5
330
1
100
AcDbSymbolTableRecord
100
AcDbBlockTableRecord
  2
*D21
340
0
 70
     0
280
     1
281
     0
  0
BLOCK_RECORD
  5
6009
330
1
100
AcDbSymbolTableRecord
100
AcDbBlockTableRecord
  2
*D22
340
0
 70
     0
280
     1
281
     0
  0
BLOCK_RECORD
  5
6149
330
1
100
AcDbSymbolTableRecord
100
AcDbBlockTableRecord
  2
*D23
340
0
 70
     0
280
     1
281
     0
  0
BLOCK_RECORD
  5
6161
330
1
100
AcDbSymbolTableRecord
100
AcDbBlockTableRecord
  2
*D24
340
0
 70
     0
280
     1
281
     0
  0
BLOCK_RECORD
  5
6191
330
1
100
AcDbSymbolTableRecord
100
AcDbBlockTableRecord
  2
*D25
340
0
 70
     0
280
     1
281
     0
  0
BLOCK_RECORD
  5
61A9
330
1
100
AcDbSymbolTableRecord
100
AcDbBlockTableRecord
  2
*D26
340
0
 70
     0
280
     1
281
     0
  0
BLOCK_RECORD
  5
7834
102
{ACAD_XDICTIONARY
360
7A4B
102
}
330
1
100
AcDbSymbolTableRecord
100
AcDbBlockTableRecord
  2
ＧＣスペーサ SAMY280
340
0
310
2800000020000000200000000100080000000000000400000000000000000000000000000000000000000000000080000080000000808000800000008000800080800000C0C0C000C0DCC000F0CAA6000020400000206000002080000020A0000020C0000020E00000400000004020000040400000406000004080000040A0
310
000040C0000040E00000600000006020000060400000606000006080000060A0000060C0000060E00000800000008020000080400000806000008080000080A0000080C0000080E00000A0000000A0200000A0400000A0600000A0800000A0A00000A0C00000A0E00000C0000000C0200000C0400000C0600000C0800000C0
310
A00000C0C00000C0E00000E0000000E0200000E0400000E0600000E0800000E0A00000E0C00000E0E00040000000400020004000400040006000400080004000A0004000C0004000E00040200000402020004020400040206000402080004020A0004020C0004020E000404000004040200040404000404060004040800040
310
40A0004040C0004040E00040600000406020004060400040606000406080004060A0004060C0004060E00040800000408020004080400040806000408080004080A0004080C0004080E00040A0000040A0200040A0400040A0600040A0800040A0A00040A0C00040A0E00040C0000040C0200040C0400040C0600040C08000
310
40C0A00040C0C00040C0E00040E0000040E0200040E0400040E0600040E0800040E0A00040E0C00040E0E00080000000800020008000400080006000800080008000A0008000C0008000E00080200000802020008020400080206000802080008020A0008020C0008020E00080400000804020008040400080406000804080
310
008040A0008040C0008040E00080600000806020008060400080606000806080008060A0008060C0008060E00080800000808020008080400080806000808080008080A0008080C0008080E00080A0000080A0200080A0400080A0600080A0800080A0A00080A0C00080A0E00080C0000080C0200080C0400080C0600080C0
310
800080C0A00080C0C00080C0E00080E0000080E0200080E0400080E0600080E0800080E0A00080E0C00080E0E000C0000000C0002000C0004000C0006000C0008000C000A000C000C000C000E000C0200000C0202000C0204000C0206000C0208000C020A000C020C000C020E000C0400000C0402000C0404000C0406000C0
310
408000C040A000C040C000C040E000C0600000C0602000C0604000C0606000C0608000C060A000C060C000C060E000C0800000C0802000C0804000C0806000C0808000C080A000C080C000C080E000C0A00000C0A02000C0A04000C0A06000C0A08000C0A0A000C0A0C000C0A0E000C0C00000C0C02000C0C04000C0C06000
310
C0C08000C0C0A000F0FBFF00A4A0A000808080000000FF0000FF000000FFFF00FF000000FF00FF00FFFF0000FFFFFF00000000000000000000000000000000000000000000000000000000000000000000000000000000000000000000000000000000000000000000000000000000000000FFFFFF00000000000000000000
310
000000000000000000000000FFFFFF000000F9FFF9FF00000000000000000000000000000000000000000000FFF9FFF9000000FF00FF00000000000000000000000000000000000000000000FF00FF00000000FF00FFFFFFFFFFFFFFFFFFFFFFFFFEFFFFFFFFFFFFFFFFFFFFFF00FF00000000FF00FF000000000000000000
310
0000FE00000000000000000000FF00FF00000000FF00FF00000000000000000000FEFE00000000000000000000FF00FF00000000FF00FF00000000000000000000FEFE00000000000000000000FF00FF00000000FF00FF00000000000000000000FEFE00000000000000000000FF00FF00000000FF00FF0000000000000000
310
000000FE00000000000000000000FF00FF00000000FF00FF0000000000000000000000FE00000000000000000000FF00FF00000000FF00FF00000000000000000000FEFE00000000000000000000FF00FF00000000FF00FF00000000000000000000FEFE00000000000000000000FF00FF00000000FF00FF00000000000000
310
000000FEFE00000000000000000000FF00FF00000000FF00FF0000000000000000000000FE00000000000000000000FF00FF00000000FF00FFFF00000000000000000000FE000000000000000000FFFF00FF00000000FF0000FF000000000000000000FEFE000000000000000000FF0000FF00000000FF0000FF0000000000
310
00000000FEFE000000000000000000FF0000FF00000000FF0000FF000000000000000000FEFE000000000000000000FF0000FF00000000FF0000FF00000000000000000000FE000000000000000000FF0000FF00000000FF0000FF00000000000000000000FE000000000000000000FF0000FF00000000FF0000FF00000000
310
0000000000FEFE000000000000000000FF0000FF00000000FF0000FF000000000000000000FEFE000000000000000000FF0000FF00000000FF0000FF000000000000000000FEFE000000000000000000FF0000FF00000000FF00FFFFFFFFFFFFFFFFFFFFFFFFFEFFFFFFFFFFFFFFFFF9F9F900FF00000000FF00F9F9F9FFFF
310
FFFFFFFFFFFFFFFEFFFFFFFFFFFFFFFFF9F9F900FF00000000FFFFFFF90000000000000000000000000000000000000000F9FFFFFF00000000FF00FF00000000000000000000000000000000000000000000FF00FF00000000FFFFFF00000000000000000000000000000000000000000000FFFFFF00000000000000000000
310
0000000000000000000000000000000000000000000000000000000000000000000000000000000000000000000000000000000000000000
102
{BLKREFS
331
78A7
102
}
 70
     4
280
     1
281
     0
  0
BLOCK_RECORD
  5
8DE3
330
1
100
AcDbSymbolTableRecord
100
AcDbBlockTableRecord
  2
*D28
340
0
 70
     0
280
     1
281
     0
  0
BLOCK_RECORD
  5
8E20
330
1
100
AcDbSymbolTableRecord
100
AcDbBlockTableRecord
  2
*D29
340
0
 70
     0
280
     1
281
     0
  0
BLOCK_RECORD
  5
9553
330
1
100
AcDbSymbolTableRecord
100
AcDbBlockTableRecord
  2
*D30
340
0
 70
     0
280
     1
281
     0
  0
BLOCK_RECORD
  5
9628
330
1
100
AcDbSymbolTableRecord
100
AcDbBlockTableRecord
  2
*D31
340
0
 70
     0
280
     1
281
     0
  0
BLOCK_RECORD
  5
9652
330
1
100
AcDbSymbolTableRecord
100
AcDbBlockTableRecord
  2
*D32
340
0
 70
     0
280
     1
281
     0
  0
BLOCK_RECORD
  5
97A0
330
1
100
AcDbSymbolTableRecord
100
AcDbBlockTableRecord
  2
*D33
340
0
 70
     0
280
     1
281
     0
  0
BLOCK_RECORD
  5
97FE
330
1
100
AcDbSymbolTableRecord
100
AcDbBlockTableRecord
  2
*D34
340
0
 70
     0
280
     1
281
     0
  0
BLOCK_RECORD
  5
993B
330
1
100
AcDbSymbolTableRecord
100
AcDbBlockTableRecord
  2
*D35
340
0
 70
     0
280
     1
281
     0
  0
BLOCK_RECORD
  5
99C2
102
{ACAD_XDICTIONARY
360
9A07
102
}
330
1
100
AcDbSymbolTableRecord
100
AcDbBlockTableRecord
  2
ケース
340
0
310
2800000020000000200000000100080000000000000400000000000000000000000000000000000000000000000080000080000000808000800000008000800080800000C0C0C000C0DCC000F0CAA6000020400000206000002080000020A0000020C0000020E00000400000004020000040400000406000004080000040A0
310
000040C0000040E00000600000006020000060400000606000006080000060A0000060C0000060E00000800000008020000080400000806000008080000080A0000080C0000080E00000A0000000A0200000A0400000A0600000A0800000A0A00000A0C00000A0E00000C0000000C0200000C0400000C0600000C0800000C0
310
A00000C0C00000C0E00000E0000000E0200000E0400000E0600000E0800000E0A00000E0C00000E0E00040000000400020004000400040006000400080004000A0004000C0004000E00040200000402020004020400040206000402080004020A0004020C0004020E000404000004040200040404000404060004040800040
310
40A0004040C0004040E00040600000406020004060400040606000406080004060A0004060C0004060E00040800000408020004080400040806000408080004080A0004080C0004080E00040A0000040A0200040A0400040A0600040A0800040A0A00040A0C00040A0E00040C0000040C0200040C0400040C0600040C08000
310
40C0A00040C0C00040C0E00040E0000040E0200040E0400040E0600040E0800040E0A00040E0C00040E0E00080000000800020008000400080006000800080008000A0008000C0008000E00080200000802020008020400080206000802080008020A0008020C0008020E00080400000804020008040400080406000804080
310
008040A0008040C0008040E00080600000806020008060400080606000806080008060A0008060C0008060E00080800000808020008080400080806000808080008080A0008080C0008080E00080A0000080A0200080A0400080A0600080A0800080A0A00080A0C00080A0E00080C0000080C0200080C0400080C0600080C0
310
800080C0A00080C0C00080C0E00080E0000080E0200080E0400080E0600080E0800080E0A00080E0C00080E0E000C0000000C0002000C0004000C0006000C0008000C000A000C000C000C000E000C0200000C0202000C0204000C0206000C0208000C020A000C020C000C020E000C0400000C0402000C0404000C0406000C0
310
408000C040A000C040C000C040E000C0600000C0602000C0604000C0606000C0608000C060A000C060C000C060E000C0800000C0802000C0804000C0806000C0808000C080A000C080C000C080E000C0A00000C0A02000C0A04000C0A06000C0A08000C0A0A000C0A0C000C0A0E000C0C00000C0C02000C0C04000C0C06000
310
C0C08000C0C0A000F0FBFF00A4A0A000808080000000FF0000FF000000FFFF00FF000000FF00FF00FFFF0000FFFFFF0000000000000000000000000000000000000000000000000000000000000000000000000000000000000000000000000000000000000000000000000000000000000000000000000000000000000000
310
00000000000000000000000000000000000000000000000000000000000000000000000000000000000000000000000000000000000000000000000000000000000000000000000000000000000000000000000000000000000000000000000000000000000000000000000000000000000000000000000000000000000000
310
0000000000000000000000000000000000000000000000000000000000000000000000000000000000000000000000000000000000000000000000000000000000000000000000000000000000000000000000FC00FC0000000000000000FC00FC000000000000000000000000000000000000FCFCFC0000000000000000FC
310
FCFC000000000000000000000000000000000000FC00FC0000000000000000FC00FC000000000000000000000000000000000000FC00FC0000000000000000FC00FC00000000FCFCFCFCFCFCFCFCFCFCFCFC0000FC00FC0000000000000000FC00FC000000FC0000000000000000000000000000FC00FCFCFCFCFCFCFCFCFC
310
FC00FC0000FCFCFCFCFCFCFCFCFCFCFCFCFCFC0000FC000000000000000000000000FC000000FC0000000000000000000000000000FC000000000000000000000000FC000000FC0000000000000000000000000000FC00000000000000000000000000FCFCFCFCFCFCFCFCFCFCFCFCFCFCFCFC0000FC000000000000000000
310
00000000000000000000000000000000000000000000FC0000000000000000000000000000000000000000000000000000000000000000FCFC0000000000000000000000000000000000000000000000000000000000000000FC0000000000000000000000000000000000000000000000000000000000000000FCFCFCFCFC
310
FCFCFCFCFCFCFCFCFCFCFCFCFCFCFCFCFCFCFCFCFC00000000000000000000000000000000000000000000000000000000000000000000000000000000000000000000000000000000000000000000000000000000000000000000000000000000000000000000000000000000000000000000000000000000000000000000
310
00000000000000000000000000000000000000000000000000000000000000000000000000000000000000000000000000000000000000000000000000000000000000000000000000000000000000000000000000000000000000000000000000000000000000000000000000000000000000000000000000000000000000
310
0000000000000000000000000000000000000000000000000000000000000000000000000000000000000000000000000000000000000000
102
{BLKREFS
331
99D9
102
}
 70
     4
280
     1
281
     1
  0
ENDTAB
  0
ENDSEC
  0
SECTION
  2
BLOCKS
  0
BLOCK
  5
20
330
1F
100
AcDbEntity
  8
0
100
AcDbBlockBegin
  2
*Model_Space
 70
     0
 10
0.0
 20
0.0
 30
0.0
  3
*Model_Space
  1

  0
ENDBLK
  5
21
330
1F
100
AcDbEntity
  8
0
100
AcDbBlockEnd
  0
BLOCK
  5
1C
330
1B
100
AcDbEntity
 67
     1
  8
0
100
AcDbBlockBegin
  2
*Paper_Space
 70
     0
 10
0.0
 20
0.0
 30
0.0
  3
*Paper_Space
  1

  0
ENDBLK
  5
1D
330
1B
100
AcDbEntity
 67
     1
  8
0
100
AcDbBlockEnd
  0
BLOCK
  5
24
330
23
100
AcDbEntity
 67
     1
  8
0
100
AcDbBlockBegin
  2
*Paper_Space0
 70
     0
 10
0.0
 20
0.0
 30
0.0
  3
*Paper_Space0
  1

  0
ENDBLK
  5
25
330
23
100
AcDbEntity
 67
     1
  8
0
100
AcDbBlockEnd
  0
BLOCK
  5
6D
330
69
100
AcDbEntity
  8
0
100
AcDbBlockBegin
  2
_Open30
 70
     0
 10
0.0
 20
0.0
 30
0.0
  3
_Open30
  1

  0
LINE
  5
6A
330
69
100
AcDbEntity
  8
0
  6
ByBlock
 62
     0
370
    -2
100
AcDbLine
 10
-1.0
 20
0.26794919
 30
0.0
 11
0.0
 21
0.0
 31
0.0
  0
LINE
  5
6B
330
69
100
AcDbEntity
  8
0
  6
ByBlock
 62
     0
370
    -2
100
AcDbLine
 10
0.0
 20
0.0
 30
0.0
 11
-1.0
 21
-0.26794919
 31
0.0
  0
LINE
  5
6C
330
69
100
AcDbEntity
  8
0
  6
ByBlock
 62
     0
370
    -2
100
AcDbLine
 10
0.0
 20
0.0
 30
0.0
 11
-1.0
 21
0.0
 31
0.0
  0
ENDBLK
  5
6E
330
69
100
AcDbEntity
  8
0
100
AcDbBlockEnd
  0
BLOCK
  5
76
330
74
100
AcDbEntity
  8
0
100
AcDbBlockBegin
  2
GENAXEH
 70
     0
 10
0.0
 20
0.0
 30
0.0
  3
GENAXEH
  1

  0
LINE
  5
75
330
74
100
AcDbEntity
  8
0
100
AcDbLine
 10
-1.0
 20
0.0
 30
0.0
 11
1.0
 21
0.0
 31
0.0
  0
ENDBLK
  5
77
330
74
100
AcDbEntity
  8
0
100
AcDbBlockEnd
  0
BLOCK
  5
2C8F
330
2C8E
100
AcDbEntity
  8
0
100
AcDbBlockBegin
  2
GENDOT
 70
     0
 10
0.0
 20
0.0
 30
0.0
  3
GENDOT
  1

  0
LINE
  5
2C90
330
2C8E
100
AcDbEntity
  8
0
100
AcDbLine
 10
0.0
 20
0.0
 30
0.0
 11
-1.0
 21
0.0
 31
0.0
  0
LWPOLYLINE
  5
2C91
330
2C8E
100
AcDbEntity
  8
0
100
AcDbPolyline
 90
        2
 70
     1
 43
0.25
 10
-0.125
 20
0.0
 42
1.0
 10
0.125
 20
0.0
 42
1.0
  0
ENDBLK
  5
2C92
330
2C8E
100
AcDbEntity
  8
0
100
AcDbBlockEnd
  0
BLOCK
  5
4D27
330
4D26
100
AcDbEntity
  8
0
100
AcDbBlockBegin
  2
ロッカクアナツキプラグ-1　R1／4
 70
     0
 10
0.0
 20
0.0
 30
0.0
  3
ロッカクアナツキプラグ-1　R1／4
  1

  0
CIRCLE
  5
4D29
330
4D26
100
AcDbEntity
  8
AM_4 細線
100
AcDbCircle
 10
0.0
 20
0.0
 30
0.0
 40
7.174975999999999
  0
LINE
  5
4D2A
330
4D26
100
AcDbEntity
  8
AM_0 外形線1
100
AcDbLine
 10
-2.611067000000048
 20
-1.50750000000005
 30
0.0
 11
0.0
 21
-3.014999999999986
 31
0.0
  0
LINE
  5
4D2B
330
4D26
100
AcDbEntity
  8
AM_0 外形線1
100
AcDbLine
 10
0.0
 20
3.014999999999986
 30
0.0
 11
-2.611067000000048
 21
1.507499999999935
 31
0.0
  0
CIRCLE
  5
4D2C
330
4D26
100
AcDbEntity
  8
AM_0 外形線1
100
AcDbCircle
 10
0.0
 20
0.0
 30
0.0
 40
6.504976
  0
LINE
  5
4D2D
330
4D26
100
AcDbEntity
  8
AM_7 中心線
100
AcDbLine
 10
8.404976000000031
 20
0.0
 30
0.0
 11
-8.404976000000031
 21
0.0
 31
0.0
  0
LINE
  5
4D2E
330
4D26
100
AcDbEntity
  8
AM_0 外形線1
100
AcDbLine
 10
-2.611067000000048
 20
1.507499999999935
 30
0.0
 11
-2.611067000000048
 21
-1.50750000000005
 31
0.0
  0
LINE
  5
4D2F
330
4D26
100
AcDbEntity
  8
AM_7 中心線
100
AcDbLine
 10
0.0
 20
8.404976000000031
 30
0.0
 11
0.0
 21
-8.404976000000031
 31
0.0
  0
LINE
  5
4D30
330
4D26
100
AcDbEntity
  8
AM_0 外形線1
100
AcDbLine
 10
2.611065999999937
 20
-1.50750000000005
 30
0.0
 11
2.611065999999937
 21
1.507499999999935
 31
0.0
  0
LINE
  5
4D31
330
4D26
100
AcDbEntity
  8
AM_0 外形線1
100
AcDbLine
 10
0.0
 20
-3.014999999999986
 30
0.0
 11
2.611065999999937
 21
-1.50750000000005
 31
0.0
  0
LINE
  5
4D32
330
4D26
100
AcDbEntity
  8
AM_0 外形線1
100
AcDbLine
 10
2.611065999999937
 20
1.507499999999935
 30
0.0
 11
0.0
 21
3.014999999999986
 31
0.0
  0
ENDBLK
  5
4D28
330
4D26
100
AcDbEntity
  8
0
100
AcDbBlockEnd
  0
BLOCK
  5
4D35
330
4D34
100
AcDbEntity
  8
0
100
AcDbBlockBegin
  2
ロッカクアナツキプラグ-2　R1／4
 70
     0
 10
0.0
 20
0.0
 30
0.0
  3
ロッカクアナツキプラグ-2　R1／4
  1

  0
LINE
  5
4D37
330
4D34
100
AcDbEntity
  8
AM_7 中心線
100
AcDbLine
 10
-8.404976000000031
 20
0.0
 30
0.0
 11
8.404976000000031
 21
0.0
 31
0.0
  0
CIRCLE
  5
4D38
330
4D34
100
AcDbEntity
  8
AM_4 細線
100
AcDbCircle
 10
0.0
 20
0.0
 30
0.0
 40
7.174975999999999
  0
LINE
  5
4D39
330
4D34
100
AcDbEntity
  8
AM_0 外形線1
100
AcDbLine
 10
2.611066000000164
 20
1.507499999999935
 30
0.0
 11
2.611066000000164
 21
-1.50750000000005
 31
0.0
  0
LINE
  5
4D3A
330
4D34
100
AcDbEntity
  8
AM_7 中心線
100
AcDbLine
 10
0.0
 20
-8.404976000000031
 30
0.0
 11
0.0
 21
8.404976000000031
 31
0.0
  0
LINE
  5
4D3B
330
4D34
100
AcDbEntity
  8
AM_0 外形線1
100
AcDbLine
 10
-2.611067000000048
 20
-1.50750000000005
 30
0.0
 11
-2.611067000000048
 21
1.507499999999935
 31
0.0
  0
LINE
  5
4D3C
330
4D34
100
AcDbEntity
  8
AM_0 外形線1
100
AcDbLine
 10
0.0
 20
-3.014999999999986
 30
0.0
 11
-2.611067000000048
 21
-1.50750000000005
 31
0.0
  0
LINE
  5
4D3D
330
4D34
100
AcDbEntity
  8
AM_0 外形線1
100
AcDbLine
 10
2.611066000000164
 20
-1.50750000000005
 30
0.0
 11
0.0
 21
-3.014999999999986
 31
0.0
  0
LINE
  5
4D3E
330
4D34
100
AcDbEntity
  8
AM_0 外形線1
100
AcDbLine
 10
0.0
 20
3.014999999999986
 30
0.0
 11
2.611066000000164
 21
1.507499999999935
 31
0.0
  0
LINE
  5
4D3F
330
4D34
100
AcDbEntity
  8
AM_0 外形線1
100
AcDbLine
 10
-2.611067000000048
 20
1.507499999999935
 30
0.0
 11
0.0
 21
3.014999999999986
 31
0.0
  0
CIRCLE
  5
4D40
330
4D34
100
AcDbEntity
  8
AM_0 外形線1
100
AcDbCircle
 10
0.0
 20
0.0
 30
0.0
 40
6.504976
  0
ENDBLK
  5
4D36
330
4D34
100
AcDbEntity
  8
0
100
AcDbBlockEnd
  0
BLOCK
  5
4E02
330
4E01
100
AcDbEntity
  8
0
100
AcDbBlockBegin
  2
ケースＡ-1 SAM280
 70
     0
 10
0.0
 20
0.0
 30
0.0
  3
ケースＡ-1 SAM280
  1

  0
ELLIPSE
  5
4E04
330
4E01
100
AcDbEntity
  8
AM_0 外形線1
100
AcDbEllipse
 10
1.350000000000135
 20
113.225
 30
0.0
 11
0.0
 21
2.224999999999794
 31
0.0
210
0.0
220
0.0
230
0.9999999999999998
 40
0.6067415730337228
 41
0.0
 42
6.283185307179585
  0
ELLIPSE
  5
4E05
330
4E01
100
AcDbEntity
  8
AM_0 外形線1
100
AcDbEllipse
 10
73.99999999999976
 20
98.44999999999991
 30
0.0
 11
-5.600000000000021
 21
0.0
 31
0.0
210
0.0
220
0.0
230
1.0
 40
0.6160714285714342
 41
0.0
 42
6.283185307179585
  0
LINE
  5
4E06
330
4E01
100
AcDbEntity
  8
AM_0 外形線1
100
AcDbLine
 10
82.0
 20
-108.0
 30
0.0
 11
82.0
 21
0.0
 31
0.0
  0
LINE
  5
4E07
330
4E01
100
AcDbEntity
  8
AM_0 外形線1
100
AcDbLine
 10
0.0
 20
0.0
 30
0.0
 11
0.0
 21
-139.0
 31
0.0
  0
LINE
  5
4E08
330
4E01
100
AcDbEntity
  8
AM_0 外形線1
100
AcDbLine
 10
21.0
 20
-139.0
 30
0.0
 11
21.0
 21
0.0
 31
0.0
  0
LINE
  5
4E09
330
4E01
100
AcDbEntity
  8
AM_0 外形線1
100
AcDbLine
 10
1.0
 20
-140.0
 30
0.0
 11
20.0
 21
-140.0
 31
0.0
  0
LINE
  5
4E0A
330
4E01
100
AcDbEntity
  8
AM_0 外形線1
100
AcDbLine
 10
0.0
 20
-139.0
 30
0.0
 11
1.0
 21
-140.0
 31
0.0
  0
LINE
  5
4E0B
330
4E01
100
AcDbEntity
  8
AM_0 外形線1
100
AcDbLine
 10
20.0
 20
-140.0
 30
0.0
 11
21.0
 21
-139.0
 31
0.0
  0
LINE
  5
4E0C
330
4E01
100
AcDbEntity
  8
AM_0 外形線1
100
AcDbLine
 10
25.0
 20
-112.0
 30
0.0
 11
78.0
 21
-112.0
 31
0.0
  0
ARC
  5
4E0D
330
4E01
100
AcDbEntity
  8
AM_0 外形線1
100
AcDbCircle
 10
25.0
 20
-116.0
 30
0.0
 40
4.0
100
AcDbArc
 50
90.0
 51
180.0
  0
ARC
  5
4E0E
330
4E01
100
AcDbEntity
  8
AM_0 外形線1
100
AcDbCircle
 10
78.0
 20
-108.0
 30
0.0
 40
4.0
100
AcDbArc
 50
270.0
 51
0.0
  0
LINE
  5
4E0F
330
4E01
100
AcDbEntity
  8
AM_7 中心線
100
AcDbLine
 10
-34.0
 20
127.9999999999999
 30
0.0
 11
44.0
 21
127.9999999999999
 31
0.0
  0
LINE
  5
4E10
330
4E01
100
AcDbEntity
  8
AM_0 外形線1
100
AcDbLine
 10
24.86602540378431
 20
105.0
 30
0.0
 11
60.13397459621547
 21
105.0
 31
0.0
  0
LINE
  5
4E11
330
4E01
100
AcDbEntity
  8
AM_3 隠れ線
100
AcDbLine
 10
28.5
 20
99.60000000000002
 30
0.0
 11
59.0
 21
99.60000000000002
 31
0.0
  0
LINE
  5
4E12
330
4E01
100
AcDbEntity
  8
AM_7 中心線
100
AcDbLine
 10
23.0
 20
102.0
 30
0.0
 11
62.0
 21
102.0
 31
0.0
  0
LINE
  5
4E13
330
4E01
100
AcDbEntity
  8
AM_0 外形線1
100
AcDbLine
 10
25.0
 20
112.0
 30
0.0
 11
78.0
 21
112.0
 31
0.0
  0
LINE
  5
4E15
330
4E01
100
AcDbEntity
  8
AM_0 外形線1
100
AcDbLine
 10
21.0
 20
120.9999999999997
 30
0.0
 11
0.0
 21
120.9999999999997
 31
0.0
  0
LINE
  5
4E17
330
4E01
100
AcDbEntity
  8
AM_0 外形線1
100
AcDbLine
 10
24.0
 20
105.5
 30
0.0
 11
-4.0
 21
105.5
 31
0.0
  0
LINE
  5
4E18
330
4E01
100
AcDbEntity
  8
AM_0 外形線1
100
AcDbLine
 10
1.0
 20
140.0
 30
0.0
 11
20.0
 21
140.0
 31
0.0
  0
LINE
  5
4E19
330
4E01
100
AcDbEntity
  8
AM_0 外形線1
100
AcDbLine
 10
0.0
 20
115.4499999999999
 30
0.0
 11
0.0
 21
120.9999999999999
 31
0.0
  0
LINE
  5
4E1A
330
4E01
100
AcDbEntity
  8
AM_0 外形線1
100
AcDbLine
 10
2.200000000000045
 20
115.4499999999999
 30
0.0
 11
0.0
 21
115.4499999999999
 31
0.0
  0
ARC
  5
4E1B
330
4E01
100
AcDbEntity
  8
AM_0 外形線1
100
AcDbCircle
 10
2.200000000000045
 20
114.9499999999999
 30
0.0
 40
0.5
100
AcDbArc
 50
0.0
 51
90.0
  0
LINE
  5
4E1C
330
4E01
100
AcDbEntity
  8
AM_0 外形線1
100
AcDbLine
 10
2.700000000000044
 20
111.5
 30
0.0
 11
2.700000000000044
 21
114.9499999999999
 31
0.0
  0
ARC
  5
4E1D
330
4E01
100
AcDbEntity
  8
AM_0 外形線1
100
AcDbCircle
 10
2.200000000000045
 20
111.5
 30
0.0
 40
0.5
100
AcDbArc
 50
270.0
 51
0.0
  0
LINE
  5
4E1E
330
4E01
100
AcDbEntity
  8
AM_0 外形線1
100
AcDbLine
 10
-4.0
 20
110.5
 30
0.0
 11
-3.5
 21
111.0
 31
0.0
  0
LINE
  5
4E1F
330
4E01
100
AcDbEntity
  8
AM_0 外形線1
100
AcDbLine
 10
-4.0
 20
105.5
 30
0.0
 11
-4.0
 21
110.5
 31
0.0
  0
LINE
  5
4E20
330
4E01
100
AcDbEntity
  8
AM_0 外形線1
100
AcDbLine
 10
0.0
 20
135.0
 30
0.0
 11
0.0
 21
139.0
 31
0.0
  0
LINE
  5
4E21
330
4E01
100
AcDbEntity
  8
AM_0 外形線1
100
AcDbLine
 10
0.0
 20
139.0
 30
0.0
 11
1.0
 21
140.0
 31
0.0
  0
LINE
  5
4E22
330
4E01
100
AcDbEntity
  8
AM_0 外形線1
100
AcDbLine
 10
21.0
 20
116.0
 30
0.0
 11
21.0
 21
139.0
 31
0.0
  0
ARC
  5
4E23
330
4E01
100
AcDbEntity
  8
AM_0 外形線1
100
AcDbCircle
 10
24.0
 20
104.5
 30
0.0
 40
1.0
100
AcDbArc
 50
0.0
 51
90.0
  0
LINE
  5
4E24
330
4E01
100
AcDbEntity
  8
AM_0 外形線1
100
AcDbLine
 10
26.0
 20
99.60000000000002
 30
0.0
 11
25.0
 21
100.6
 31
0.0
  0
LINE
  5
4E25
330
4E01
100
AcDbEntity
  8
AM_0 外形線1
100
AcDbLine
 10
25.0
 20
100.6
 30
0.0
 11
25.0
 21
104.5
 31
0.0
  0
ARC
  5
4E26
330
4E01
100
AcDbEntity
  8
AM_0 外形線1
100
AcDbCircle
 10
25.0
 20
116.0
 30
0.0
 40
4.0
100
AcDbArc
 50
180.0
 51
270.0
  0
LINE
  5
4E27
330
4E01
100
AcDbEntity
  8
AM_0 外形線1
100
AcDbLine
 10
28.5
 20
99.60000000000002
 30
0.0
 11
26.0
 21
99.60000000000002
 31
0.0
  0
LINE
  5
4E28
330
4E01
100
AcDbEntity
  8
AM_0 外形線1
100
AcDbLine
 10
20.0
 20
140.0
 30
0.0
 11
21.0
 21
139.0
 31
0.0
  0
LINE
  5
4E29
330
4E01
100
AcDbEntity
  8
AM_0 外形線1
100
AcDbLine
 10
82.0
 20
108.0
 30
0.0
 11
82.0
 21
95.0
 31
0.0
  0
LINE
  5
4E2A
330
4E01
100
AcDbEntity
  8
AM_0 外形線1
100
AcDbLine
 10
79.59999999999991
 20
95.0
 30
0.0
 11
79.59999999999991
 21
101.4
 31
0.0
  0
LINE
  5
4E2B
330
4E01
100
AcDbEntity
  8
AM_0 外形線1
100
AcDbLine
 10
68.39999999999986
 20
101.4
 30
0.0
 11
68.39999999999986
 21
95.0
 31
0.0
  0
LINE
  5
4E2C
330
4E01
100
AcDbEntity
  8
AM_0 外形線1
100
AcDbLine
 10
66.0
 20
95.0
 30
0.0
 11
66.0
 21
104.5
 31
0.0
  0
LINE
  5
4E2D
330
4E01
100
AcDbEntity
  8
AM_0 外形線1
100
AcDbLine
 10
79.09999999999991
 20
101.8999999999999
 30
0.0
 11
68.89999999999986
 21
101.8999999999999
 31
0.0
  0
ARC
  5
4E2E
330
4E01
100
AcDbEntity
  8
AM_0 外形線1
100
AcDbCircle
 10
68.89999999999986
 20
101.4
 30
0.0
 40
0.5
100
AcDbArc
 50
90.0
 51
180.0
  0
ARC
  5
4E2F
330
4E01
100
AcDbEntity
  8
AM_0 外形線1
100
AcDbCircle
 10
61.0
 20
104.5
 30
0.0
 40
1.0
100
AcDbArc
 50
90.0
 51
180.0
  0
LINE
  5
4E30
330
4E01
100
AcDbEntity
  8
AM_0 外形線1
100
AcDbLine
 10
65.0
 20
105.5
 30
0.0
 11
61.0
 21
105.5
 31
0.0
  0
ARC
  5
4E31
330
4E01
100
AcDbEntity
  8
AM_0 外形線1
100
AcDbCircle
 10
65.0
 20
104.5
 30
0.0
 40
1.0
100
AcDbArc
 50
0.0
 51
90.0
  0
LINE
  5
4E32
330
4E01
100
AcDbEntity
  8
AM_3 隠れ線
100
AcDbLine
 10
60.0
 20
103.472796
 30
0.0
 11
60.0
 21
100.6
 31
0.0
  0
LINE
  5
4E33
330
4E01
100
AcDbEntity
  8
AM_3 隠れ線
100
AcDbLine
 10
60.0
 20
100.6
 30
0.0
 11
59.0
 21
99.60000000000002
 31
0.0
  0
LINE
  5
4E34
330
4E01
100
AcDbEntity
  8
AM_0 外形線1
100
AcDbLine
 10
60.0
 20
103.472796
 30
0.0
 11
60.0
 21
104.5
 31
0.0
  0
LINE
  5
4E35
330
4E01
100
AcDbEntity
  8
AM_0 外形線1
100
AcDbLine
 10
68.39999999999986
 20
96.5
 30
0.0
 11
66.0
 21
96.5
 31
0.0
  0
ARC
  5
4E36
330
4E01
100
AcDbEntity
  8
AM_0 外形線1
100
AcDbCircle
 10
79.09999999999991
 20
101.4
 30
0.0
 40
0.5
100
AcDbArc
 50
0.0
 51
90.0
  0
LINE
  5
4E37
330
4E01
100
AcDbEntity
  8
AM_0 外形線1
100
AcDbLine
 10
82.0
 20
96.5
 30
0.0
 11
79.59999999999991
 21
96.5
 31
0.0
  0
ARC
  5
4E38
330
4E01
100
AcDbEntity
  8
AM_0 外形線1
100
AcDbCircle
 10
78.0
 20
108.0
 30
0.0
 40
4.0
100
AcDbArc
 50
0.0
 51
90.0
  0
LINE
  5
4E39
330
4E01
100
AcDbEntity
  8
AM_0 外形線1
100
AcDbLine
 10
2.200000000000045
 20
111.0
 30
0.0
 11
-3.5
 21
111.0
 31
0.0
  0
INSERT
  5
4E3A
330
4E01
100
AcDbEntity
  8
AM_0 外形線1
100
AcDbBlockReference
  2
ロッカクアナツキプラグ-1　R1／4
 10
10.5
 20
-33.12883800000009
 30
0.0
  0
LINE
  5
4EDB
330
4E01
100
AcDbEntity
  8
AM_0 外形線1
100
AcDbLine
 10
0.0000000000001137
 20
134.9999999999997
 30
0.0
 11
21.0
 21
134.9999999999997
 31
0.0
  0
ENDBLK
  5
4E03
330
4E01
100
AcDbEntity
  8
0
100
AcDbBlockEnd
  0
BLOCK
  5
4FE1
330
4FE0
100
AcDbEntity
  8
0
100
AcDbBlockBegin
  2
ケースＡ-2 SAM280
 70
     0
 10
0.0
 20
0.0
 30
0.0
  3
ケースＡ-2 SAM280
  1

  0
LINE
  5
4FE3
330
4FE0
100
AcDbEntity
  8
AM_0 外形線1
100
AcDbLine
 10
0.0
 20
0.0
 30
0.0
 11
0.0
 21
-139.0
 31
0.0
  0
LINE
  5
4FE4
330
4FE0
100
AcDbEntity
  8
AM_0 外形線1
100
AcDbLine
 10
-21.0
 20
-139.0
 30
0.0
 11
-21.0
 21
0.0
 31
0.0
  0
LINE
  5
4FE5
330
4FE0
100
AcDbEntity
  8
AM_0 外形線1
100
AcDbLine
 10
-82.0
 20
-108.0
 30
0.0
 11
-82.0
 21
0.0
 31
0.0
  0
LINE
  5
4FE6
330
4FE0
100
AcDbEntity
  8
AM_0 外形線1
100
AcDbLine
 10
-1.0
 20
-140.0
 30
0.0
 11
-20.0
 21
-140.0
 31
0.0
  0
LINE
  5
4FE7
330
4FE0
100
AcDbEntity
  8
AM_0 外形線1
100
AcDbLine
 10
-20.0
 20
-140.0
 30
0.0
 11
-21.0
 21
-139.0
 31
0.0
  0
LINE
  5
4FE8
330
4FE0
100
AcDbEntity
  8
AM_0 外形線1
100
AcDbLine
 10
-25.0
 20
-112.0
 30
0.0
 11
-78.0
 21
-112.0
 31
0.0
  0
ARC
  5
4FE9
330
4FE0
100
AcDbEntity
  8
AM_0 外形線1
100
AcDbCircle
 10
-78.0
 20
-108.0
 30
0.0
 40
4.0
100
AcDbArc
 50
180.0
 51
270.0
  0
ARC
  5
4FEA
330
4FE0
100
AcDbEntity
  8
AM_0 外形線1
100
AcDbCircle
 10
-25.0
 20
-116.0
 30
0.0
 40
4.0
100
AcDbArc
 50
0.0
 51
90.0
  0
LINE
  5
4FEB
330
4FE0
100
AcDbEntity
  8
AM_0 外形線1
100
AcDbLine
 10
0.0
 20
-139.0
 30
0.0
 11
-1.0
 21
-140.0
 31
0.0
  0
LINE
  5
4FEE
330
4FE0
100
AcDbEntity
  8
AM_0 外形線1
100
AcDbLine
 10
-21.0
 20
120.9999999999997
 30
0.0
 11
0.0
 21
120.9999999999999
 31
0.0
  0
LINE
  5
4FEF
330
4FE0
100
AcDbEntity
  8
AM_0 外形線1
100
AcDbLine
 10
-24.0
 20
105.5
 30
0.0
 11
4.0
 21
105.5
 31
0.0
  0
LINE
  5
4FF0
330
4FE0
100
AcDbEntity
  8
AM_0 外形線1
100
AcDbLine
 10
-1.0
 20
140.0
 30
0.0
 11
-20.0
 21
140.0
 31
0.0
  0
LINE
  5
4FF1
330
4FE0
100
AcDbEntity
  8
AM_7 中心線
100
AcDbLine
 10
34.0
 20
127.9999999999999
 30
0.0
 11
-44.0
 21
127.9999999999999
 31
0.0
  0
LWPOLYLINE
  5
4FF2
330
4FE0
100
AcDbEntity
  8
AM_0 外形線1
100
AcDbPolyline
 90
       73
 70
     0
 43
0.0
 10
-68.39999999999986
 20
98.44999999999991
 10
-68.42130999999993
 20
98.75068699999985
 10
-68.48507700000005
 20
99.04908599999986
 10
-68.59081599999989
 20
99.34292599999992
 10
-68.73772200000008
 20
99.62996899999996
 10
-68.9246770000002
 20
99.90803299999996
 10
-69.15025799999989
 20
100.1749999999999
 10
-69.41274900000006
 20
100.4288389999999
 10
-69.7101520000001
 20
100.6676169999999
 10
-70.04020200000013
 20
100.8895179999999
 10
-70.40039000000001
 20
101.0928529999999
 10
-70.78797200000008
 20
101.2760739999998
 10
-71.20000000000004
 20
101.4377879999999
 10
-71.63333800000009
 20
101.5767619999999
 10
-72.08468800000014
 20
101.6919389999999
 10
-72.55061399999998
 20
101.7824439999999
 10
-73.02757100000007
 20
101.8475869999998
 10
-73.51192800000013
 20
101.8868719999999
 10
-74.0
 20
101.8999999999999
 10
-74.48807299999998
 20
101.8868719999999
 10
-74.97243000000003
 20
101.8475869999998
 10
-75.4493870000001
 20
101.7824439999999
 10
-75.91531299999997
 20
101.6919389999999
 10
-76.36666300000001
 20
101.5767619999999
 10
-76.79999999999996
 20
101.4377879999999
 10
-77.21202900000003
 20
101.2760739999998
 10
-77.59961100000009
 20
101.0928529999999
 10
-77.95979800000009
 20
100.8895179999999
 10
-78.289849
 20
100.6676169999999
 10
-78.58725200000003
 20
100.4288389999999
 10
-78.84974299999997
 20
100.1749999999999
 10
-79.07532399999991
 20
99.90803299999996
 10
-79.26227900000005
 20
99.62996899999996
 10
-79.40918499999998
 20
99.34292599999992
 10
-79.51492400000006
 20
99.04908599999986
 10
-79.57869099999993
 20
98.75068699999985
 10
-79.59999999999991
 20
98.44999999999991
 10
-79.57869099999993
 20
98.14931300000001
 10
-79.51492400000006
 20
97.85091399999998
 10
-79.40918499999998
 20
97.55707399999996
 10
-79.26227900000005
 20
97.2700299999999
 10
-79.07532399999991
 20
96.99196699999994
 10
-78.84974299999997
 20
96.72500000000002
 10
-78.58725200000003
 20
96.47116099999994
 10
-78.289849
 20
96.23238299999993
 10
-77.95979800000009
 20
96.01048099999992
 10
-77.59961100000009
 20
95.80714699999999
 10
-77.21202900000003
 20
95.62392499999999
 10
-76.79999999999996
 20
95.4622119999999
 10
-76.36666300000001
 20
95.32323799999996
 10
-75.91531299999997
 20
95.20805999999991
 10
-75.4493870000001
 20
95.11755599999991
 10
-74.97243000000003
 20
95.05241299999999
 10
-74.48807299999998
 20
95.01312799999992
 10
-74.0
 20
95.0
 10
-73.51192800000013
 20
95.01312799999992
 10
-73.02757100000007
 20
95.05241299999999
 10
-72.55061399999998
 20
95.11755599999991
 10
-72.08468800000014
 20
95.20805999999991
 10
-71.63333800000009
 20
95.32323799999996
 10
-71.20000000000004
 20
95.4622119999999
 10
-70.78797200000008
 20
95.62392499999999
 10
-70.40039000000001
 20
95.80714699999999
 10
-70.04020200000013
 20
96.01048099999992
 10
-69.7101520000001
 20
96.23238299999993
 10
-69.41274900000006
 20
96.47116099999994
 10
-69.15025799999989
 20
96.72500000000002
 10
-68.9246770000002
 20
96.99196699999994
 10
-68.73772200000008
 20
97.2700299999999
 10
-68.59081599999989
 20
97.55707399999996
 10
-68.48507700000005
 20
97.85091399999998
 10
-68.42130999999993
 20
98.14931300000001
 10
-68.39999999999986
 20
98.44999999999991
  0
LINE
  5
4FF3
330
4FE0
100
AcDbEntity
  8
AM_0 外形線1
100
AcDbLine
 10
-79.09999999999991
 20
101.8999999999999
 30
0.0
 11
-68.89999999999986
 21
101.8999999999999
 31
0.0
  0
LINE
  5
4FF4
330
4FE0
100
AcDbEntity
  8
AM_0 外形線1
100
AcDbLine
 10
-25.0
 20
112.0
 30
0.0
 11
-78.0
 21
112.0
 31
0.0
  0
LINE
  5
4FF6
330
4FE0
100
AcDbEntity
  8
AM_0 外形線1
100
AcDbLine
 10
-79.59999999999991
 20
95.0
 30
0.0
 11
-79.59999999999991
 21
101.4
 31
0.0
  0
LINE
  5
4FF7
330
4FE0
100
AcDbEntity
  8
AM_0 外形線1
100
AcDbLine
 10
-82.0
 20
108.0
 30
0.0
 11
-82.0
 21
95.0
 31
0.0
  0
ARC
  5
4FF8
330
4FE0
100
AcDbEntity
  8
AM_0 外形線1
100
AcDbCircle
 10
-79.09999999999991
 20
101.4
 30
0.0
 40
0.5
100
AcDbArc
 50
90.0
 51
180.0
  0
LINE
  5
4FF9
330
4FE0
100
AcDbEntity
  8
AM_0 外形線1
100
AcDbLine
 10
-82.0
 20
96.5
 30
0.0
 11
-79.59999999999991
 21
96.5
 31
0.0
  0
ARC
  5
4FFA
330
4FE0
100
AcDbEntity
  8
AM_0 外形線1
100
AcDbCircle
 10
-78.0
 20
108.0
 30
0.0
 40
4.0
100
AcDbArc
 50
90.0
 51
180.0
  0
LINE
  5
4FFB
330
4FE0
100
AcDbEntity
  8
AM_0 外形線1
100
AcDbLine
 10
-66.0
 20
95.0
 30
0.0
 11
-66.0
 21
104.5
 31
0.0
  0
LINE
  5
4FFC
330
4FE0
100
AcDbEntity
  8
AM_0 外形線1
100
AcDbLine
 10
-68.39999999999986
 20
101.4
 30
0.0
 11
-68.39999999999986
 21
95.0
 31
0.0
  0
LINE
  5
4FFD
330
4FE0
100
AcDbEntity
  8
AM_3 隠れ線
100
AcDbLine
 10
-28.5
 20
99.60000000000002
 30
0.0
 11
-59.0
 21
99.60000000000002
 31
0.0
  0
LINE
  5
4FFE
330
4FE0
100
AcDbEntity
  8
AM_7 中心線
100
AcDbLine
 10
-23.0
 20
102.0
 30
0.0
 11
-62.0
 21
102.0
 31
0.0
  0
LINE
  5
4FFF
330
4FE0
100
AcDbEntity
  8
AM_0 外形線1
100
AcDbLine
 10
-24.86602540378431
 20
105.0
 30
0.0
 11
-60.13397459621568
 21
105.0
 31
0.0
  0
ARC
  5
5000
330
4FE0
100
AcDbEntity
  8
AM_0 外形線1
100
AcDbCircle
 10
-68.89999999999986
 20
101.4
 30
0.0
 40
0.5
100
AcDbArc
 50
0.0
 51
90.0
  0
LINE
  5
5001
330
4FE0
100
AcDbEntity
  8
AM_3 隠れ線
100
AcDbLine
 10
-60.0
 20
103.472796
 30
0.0
 11
-60.0
 21
100.6
 31
0.0
  0
LINE
  5
5002
330
4FE0
100
AcDbEntity
  8
AM_3 隠れ線
100
AcDbLine
 10
-60.0
 20
100.6
 30
0.0
 11
-59.0
 21
99.60000000000002
 31
0.0
  0
LINE
  5
5003
330
4FE0
100
AcDbEntity
  8
AM_0 外形線1
100
AcDbLine
 10
-60.0
 20
103.472796
 30
0.0
 11
-60.0
 21
104.5
 31
0.0
  0
ARC
  5
5004
330
4FE0
100
AcDbEntity
  8
AM_0 外形線1
100
AcDbCircle
 10
-61.0
 20
104.5
 30
0.0
 40
1.0
100
AcDbArc
 50
0.0
 51
90.0
  0
ARC
  5
5005
330
4FE0
100
AcDbEntity
  8
AM_0 外形線1
100
AcDbCircle
 10
-65.0
 20
104.5
 30
0.0
 40
1.0
100
AcDbArc
 50
90.0
 51
180.0
  0
LINE
  5
5006
330
4FE0
100
AcDbEntity
  8
AM_0 外形線1
100
AcDbLine
 10
-68.39999999999986
 20
96.5
 30
0.0
 11
-66.0
 21
96.5
 31
0.0
  0
LINE
  5
5007
330
4FE0
100
AcDbEntity
  8
AM_0 外形線1
100
AcDbLine
 10
-65.0
 20
105.5
 30
0.0
 11
-61.0
 21
105.5
 31
0.0
  0
LINE
  5
5008
330
4FE0
100
AcDbEntity
  8
AM_0 外形線1
100
AcDbLine
 10
-21.0
 20
116.0
 30
0.0
 11
-21.0
 21
139.0
 31
0.0
  0
LINE
  5
5009
330
4FE0
100
AcDbEntity
  8
AM_0 外形線1
100
AcDbLine
 10
-28.5
 20
99.60000000000002
 30
0.0
 11
-26.0
 21
99.60000000000002
 31
0.0
  0
ARC
  5
500A
330
4FE0
100
AcDbEntity
  8
AM_0 外形線1
100
AcDbCircle
 10
-24.0
 20
104.5
 30
0.0
 40
1.0
100
AcDbArc
 50
90.0
 51
180.0
  0
LINE
  5
500B
330
4FE0
100
AcDbEntity
  8
AM_0 外形線1
100
AcDbLine
 10
-25.0
 20
100.6
 30
0.0
 11
-25.0
 21
104.5
 31
0.0
  0
LINE
  5
500C
330
4FE0
100
AcDbEntity
  8
AM_0 外形線1
100
AcDbLine
 10
-26.0
 20
99.60000000000002
 30
0.0
 11
-25.0
 21
100.6
 31
0.0
  0
ARC
  5
500D
330
4FE0
100
AcDbEntity
  8
AM_0 外形線1
100
AcDbCircle
 10
-25.0
 20
116.0
 30
0.0
 40
4.0
100
AcDbArc
 50
270.0
 51
0.0
  0
LINE
  5
500E
330
4FE0
100
AcDbEntity
  8
AM_0 外形線1
100
AcDbLine
 10
-20.0
 20
140.0
 30
0.0
 11
-21.0
 21
139.0
 31
0.0
  0
LINE
  5
500F
330
4FE0
100
AcDbEntity
  8
AM_0 外形線1
100
AcDbLine
 10
0.0
 20
115.4499999999999
 30
0.0
 11
0.0
 21
120.9999999999999
 31
0.0
  0
LINE
  5
5010
330
4FE0
100
AcDbEntity
  8
AM_0 外形線1
100
AcDbLine
 10
4.0
 20
110.5
 30
0.0
 11
3.5
 21
111.0
 31
0.0
  0
LINE
  5
5011
330
4FE0
100
AcDbEntity
  8
AM_0 外形線1
100
AcDbLine
 10
4.0
 20
105.5
 30
0.0
 11
4.0
 21
110.5
 31
0.0
  0
LWPOLYLINE
  5
5012
330
4FE0
100
AcDbEntity
  8
AM_0 外形線1
100
AcDbPolyline
 90
       73
 70
     0
 43
0.0
 10
-1.349999999999909
 20
111.0
 10
-1.232340000000021
 20
111.008467
 10
-1.115575000000034
 20
111.0338029999999
 10
-1.000595000000202
 20
111.0758149999999
 10
-0.8882730000000265
 20
111.134184
 10
-0.7794659999999567
 20
111.2084649999999
 10
-0.6749999999999547
 20
111.298093
 10
-0.575672000000168
 20
111.4023869999998
 10
-0.4822369999999411
 20
111.5205509999999
 10
-0.3954059999998662
 20
111.6516869999999
 10
-0.3158399999999801
 20
111.7947969999999
 10
-0.2441450000001168
 20
111.9487919999999
 10
-0.1808659999999236
 20
112.1124999999999
 10
-0.1264850000000024
 20
112.2846739999999
 10
-0.081414999999879
 20
112.4640049999999
 10
-0.0460009999999329
 20
112.6491279999999
 10
-0.0205100000000584
 20
112.8386329999998
 10
-0.0051379999999881
 20
113.0310779999998
 10
0.0
 20
113.225
 10
-0.0051379999999881
 20
113.4189209999999
 10
-0.0205100000000584
 20
113.611367
 10
-0.0460009999999329
 20
113.8008719999999
 10
-0.081414999999879
 20
113.9859949999999
 10
-0.1264850000000024
 20
114.1653259999999
 10
-0.1808659999999236
 20
114.3375
 10
-0.2441450000001168
 20
114.5012069999999
 10
-0.3158399999999801
 20
114.6552019999999
 10
-0.3954059999998662
 20
114.7983119999999
 10
-0.4822369999999411
 20
114.9294489999998
 10
-0.575672000000168
 20
115.0476129999999
 10
-0.6749999999999547
 20
115.1519059999999
 10
-0.7794659999999567
 20
115.2415349999999
 10
-0.8882730000000265
 20
115.3158159999999
 10
-1.000595000000202
 20
115.3741849999999
 10
-1.115575000000034
 20
115.4161969999999
 10
-1.232340000000021
 20
115.4415329999999
 10
-1.349999999999909
 20
115.4499999999999
 10
-1.467661000000134
 20
115.4415329999999
 10
-1.584425999999893
 20
115.4161969999999
 10
-1.699405999999953
 20
115.3741849999999
 10
-1.811727999999901
 20
115.3158159999999
 10
-1.920534999999971
 20
115.2415349999999
 10
-2.024999999999862
 20
115.1519059999999
 10
-2.124328999999987
 20
115.0476129999999
 10
-2.217763999999988
 20
114.9294489999998
 10
-2.304595000000063
 20
114.7983119999999
 10
-2.384159999999837
 20
114.6552019999999
 10
-2.455856000000038
 20
114.5012069999999
 10
-2.519134999999778
 20
114.3375
 10
-2.573515999999925
 20
114.1653259999999
 10
-2.618586000000049
 20
113.9859949999999
 10
-2.653999999999995
 20
113.8008719999999
 10
-2.679491000000098
 20
113.611367
 10
-2.694862999999941
 20
113.4189209999999
 10
-2.700000000000044
 20
113.225
 10
-2.694862999999941
 20
113.0310779999998
 10
-2.679491000000098
 20
112.8386329999998
 10
-2.653999999999995
 20
112.6491279999999
 10
-2.618586000000049
 20
112.4640049999999
 10
-2.573515999999925
 20
112.2846739999999
 10
-2.519134999999778
 20
112.1124999999999
 10
-2.455856000000038
 20
111.9487919999999
 10
-2.384159999999837
 20
111.7947969999999
 10
-2.304595000000063
 20
111.6516869999999
 10
-2.217763999999988
 20
111.5205509999999
 10
-2.124328999999987
 20
111.4023869999998
 10
-2.024999999999862
 20
111.298093
 10
-1.920534999999971
 20
111.2084649999999
 10
-1.811727999999901
 20
111.134184
 10
-1.699405999999953
 20
111.0758149999999
 10
-1.584425999999893
 20
111.0338029999999
 10
-1.467661000000134
 20
111.008467
 10
-1.349999999999909
 20
111.0
  0
LINE
  5
5013
330
4FE0
100
AcDbEntity
  8
AM_0 外形線1
100
AcDbLine
 10
-2.200000000000045
 20
115.4499999999999
 30
0.0
 11
0.0
 21
115.4499999999999
 31
0.0
  0
ARC
  5
5014
330
4FE0
100
AcDbEntity
  8
AM_0 外形線1
100
AcDbCircle
 10
-2.200000000000045
 20
114.9499999999999
 30
0.0
 40
0.5
100
AcDbArc
 50
90.0
 51
180.0
  0
LINE
  5
5015
330
4FE0
100
AcDbEntity
  8
AM_0 外形線1
100
AcDbLine
 10
-2.700000000000044
 20
111.5
 30
0.0
 11
-2.700000000000044
 21
114.9499999999999
 31
0.0
  0
ARC
  5
5016
330
4FE0
100
AcDbEntity
  8
AM_0 外形線1
100
AcDbCircle
 10
-2.200000000000045
 20
111.5
 30
0.0
 40
0.5
100
AcDbArc
 50
180.0
 51
270.0
  0
LINE
  5
5019
330
4FE0
100
AcDbEntity
  8
AM_0 外形線1
100
AcDbLine
 10
0.0
 20
135.0
 30
0.0
 11
0.0
 21
139.0
 31
0.0
  0
LINE
  5
501A
330
4FE0
100
AcDbEntity
  8
AM_0 外形線1
100
AcDbLine
 10
0.0
 20
139.0
 30
0.0
 11
-1.0
 21
140.0
 31
0.0
  0
INSERT
  5
501C
330
4FE0
100
AcDbEntity
  8
AM_0 外形線1
100
AcDbBlockReference
  2
ロッカクアナツキプラグ-2　R1／4
 10
-10.5
 20
-33.12883800000009
 30
0.0
  0
LINE
  5
50AD
330
4FE0
100
AcDbEntity
  8
AM_0 外形線1
100
AcDbLine
 10
3.5
 20
111.0000000000001
 30
0.0
 11
-2.200000000000045
 21
111.0
 31
0.0
  0
LINE
  5
50AE
330
4FE0
100
AcDbEntity
  8
AM_0 外形線1
100
AcDbLine
 10
0.0
 20
134.9999999999997
 30
0.0
 11
-21.0
 21
134.9999999999997
 31
0.0
  0
ENDBLK
  5
4FE2
330
4FE0
100
AcDbEntity
  8
0
100
AcDbBlockEnd
  0
BLOCK
  5
50F3
330
50F2
100
AcDbEntity
  8
0
100
AcDbBlockBegin
  2
センタ-1 SAM280
 70
     0
 10
0.0
 20
0.0
 30
0.0
  3
センタ-1 SAM280
  1

  0
LINE
  5
50F6
330
50F2
100
AcDbEntity
  8
AM_0 外形線1
100
AcDbLine
 10
140.0
 20
53.18834458788888
 30
0.0
 11
0.0000000000002274
 21
53.18834458788888
 31
0.0
  0
LINE
  5
50F7
330
50F2
100
AcDbEntity
  8
AM_0 外形線1
100
AcDbLine
 10
136.0
 20
94.19999999999992
 30
0.0
 11
95.5
 21
94.19999999999992
 31
0.0
  0
LINE
  5
50F8
330
50F2
100
AcDbEntity
  8
AM_0 外形線1
100
AcDbLine
 10
95.5
 20
-94.20000000000003
 30
0.0
 11
136.0
 21
-94.20000000000003
 31
0.0
  0
LINE
  5
50F9
330
50F2
100
AcDbEntity
  8
AM_0 外形線1
100
AcDbLine
 10
95.5
 20
-94.20000000000003
 30
0.0
 11
95.5
 21
0.0
 31
0.0
  0
LINE
  5
50FA
330
50F2
100
AcDbEntity
  8
AM_0 外形線1
100
AcDbLine
 10
93.49999999999999
 20
-95.0
 30
0.0
 11
93.49999999999999
 21
0.0
 31
0.0
  0
LINE
  5
50FB
330
50F2
100
AcDbEntity
  8
AM_0 外形線1
100
AcDbLine
 10
75.0
 20
-95.0
 30
0.0
 11
93.49999999999999
 21
-95.0
 31
0.0
  0
LINE
  5
50FC
330
50F2
100
AcDbEntity
  8
AM_0 外形線1
100
AcDbLine
 10
93.49999999999999
 20
-95.0
 30
0.0
 11
95.5
 21
-94.20000000000003
 31
0.0
  0
LINE
  5
50FD
330
50F2
100
AcDbEntity
  8
AM_0 外形線1
100
AcDbLine
 10
0.0
 20
93.49999999999999
 30
0.0
 11
0.0
 21
0.0
 31
0.0
  0
LINE
  5
50FE
330
50F2
100
AcDbEntity
  8
AM_3 隠れ線
100
AcDbLine
 10
33.0
 20
5.149999999999637
 30
0.0
 11
35.97335399999997
 21
0.0
 31
0.0
  0
LINE
  5
50FF
330
50F2
100
AcDbEntity
  8
AM_3 隠れ線
100
AcDbLine
 10
33.0
 20
5.149999999999637
 30
0.0
 11
33.0
 21
0.0
 31
0.0
  0
LINE
  5
5100
330
50F2
100
AcDbEntity
  8
AM_3 隠れ線
100
AcDbLine
 10
28.49074800000017
 20
5.149999999999637
 30
0.0
 11
28.49074800000017
 21
0.0
 31
0.0
  0
LINE
  5
5101
330
50F2
100
AcDbEntity
  8
AM_3 隠れ線
100
AcDbLine
 10
28.0
 20
6.0
 30
0.0
 11
28.0
 21
0.0
 31
0.0
  0
LINE
  5
5102
330
50F2
100
AcDbEntity
  8
AM_3 隠れ線
100
AcDbLine
 10
0.0
 20
6.0
 30
0.0
 11
28.0
 21
6.0
 31
0.0
  0
LINE
  5
5103
330
50F2
100
AcDbEntity
  8
AM_3 隠れ線
100
AcDbLine
 10
0.0
 20
5.149999999999637
 30
0.0
 11
33.0
 21
5.149999999999637
 31
0.0
  0
LINE
  5
5104
330
50F2
100
AcDbEntity
  8
AM_3 隠れ線
  6
HIDDEN
100
AcDbLine
 10
28.0
 20
6.0
 30
0.0
 11
28.49074800000017
 21
5.149999999999637
 31
0.0
  0
ARC
  5
5107
330
50F2
100
AcDbEntity
  8
AM_0 外形線1
100
AcDbCircle
 10
36.0
 20
0.0
 30
0.0
 40
104.86
100
AcDbArc
 50
80.39300099999948
 51
97.39696600000231
  0
LINE
  5
5108
330
50F2
100
AcDbEntity
  8
AM_0 外形線1
100
AcDbLine
 10
21.5
 20
102.8526339999999
 30
0.0
 11
21.5
 21
95.0
 31
0.0
  0
LINE
  5
5109
330
50F2
100
AcDbEntity
  8
AM_0 外形線1
100
AcDbLine
 10
21.0
 20
94.50000000000001
 30
0.0
 11
1.0
 21
94.50000000000001
 31
0.0
  0
LINE
  5
510A
330
50F2
100
AcDbEntity
  8
AM_0 外形線1
100
AcDbLine
 10
1.0
 20
94.50000000000001
 30
0.0
 11
0.0
 21
93.49999999999999
 31
0.0
  0
ARC
  5
510B
330
50F2
100
AcDbEntity
  8
AM_0 外形線1
100
AcDbCircle
 10
21.0
 20
95.0
 30
0.0
 40
0.5
100
AcDbArc
 50
270.0
 51
0.0
  0
LINE
  5
510C
330
50F2
100
AcDbEntity
  8
AM_0 外形線1
100
AcDbLine
 10
22.5
 20
103.9873529999999
 30
0.0
 11
21.5
 21
102.8526339999999
 31
0.0
  0
LINE
  5
510D
330
50F2
100
AcDbEntity
  8
AM_0 外形線1
100
AcDbLine
 10
54.5
 20
95.5
 30
0.0
 11
54.5
 21
102.2151619999998
 31
0.0
  0
LINE
  5
510E
330
50F2
100
AcDbEntity
  8
AM_7 中心線
100
AcDbLine
 10
36.0
 20
109.86
 30
0.0
 11
36.0
 21
93.69999999999992
 31
0.0
  0
LINE
  5
510F
330
50F2
100
AcDbEntity
  8
AM_0 外形線1
100
AcDbLine
 10
93.49999999999999
 20
95.0
 30
0.0
 11
55.0
 21
95.0
 31
0.0
  0
ARC
  5
5110
330
50F2
100
AcDbEntity
  8
AM_0 外形線1
100
AcDbCircle
 10
55.0
 20
95.5
 30
0.0
 40
0.5
100
AcDbArc
 50
180.0
 51
270.0
  0
LINE
  5
5111
330
50F2
100
AcDbEntity
  8
AM_0 外形線1
100
AcDbLine
 10
95.5
 20
94.19999999999992
 30
0.0
 11
93.49999999999999
 21
95.0
 31
0.0
  0
LINE
  5
5112
330
50F2
100
AcDbEntity
  8
AM_0 外形線1
100
AcDbLine
 10
54.5
 20
102.2151619999998
 30
0.0
 11
53.5
 21
103.3894069999999
 31
0.0
  0
LINE
  5
5113
330
50F2
100
AcDbEntity
  8
AM_0 外形線1
100
AcDbLine
 10
140.0
 20
-90.20000000000003
 30
0.0
 11
140.0
 21
90.19999999999994
 31
0.0
  0
ARC
  5
5114
330
50F2
100
AcDbEntity
  8
AM_0 外形線1
100
AcDbCircle
 10
136.0
 20
-90.20000000000003
 30
0.0
 40
4.0
100
AcDbArc
 50
270.0
 51
0.0
  0
ARC
  5
5117
330
50F2
100
AcDbEntity
  8
AM_0 外形線1
100
AcDbCircle
 10
136.0
 20
90.19999999999994
 30
0.0
 40
4.0
100
AcDbArc
 50
0.0
 51
90.0
  0
ARC
  5
977E
330
50F2
100
AcDbEntity
  8
AM_7 中心線
100
AcDbCircle
 10
35.97335400000021
 20
0.0
 30
0.0
 40
102.0000034804379
100
AcDbArc
 50
77.5462905532607
 51
100.0541120505295
  0
ARC
  5
977F
330
50F2
100
AcDbEntity
  8
AM_0 外形線1
100
AcDbCircle
 10
36.00000000000023
 20
-0.0000000000001137
 30
0.0
 40
98.70000000000016
100
AcDbArc
 50
79.1967707631551
 51
98.44788876842365
  0
ENDBLK
  5
50F4
330
50F2
100
AcDbEntity
  8
0
100
AcDbBlockEnd
  0
BLOCK
  5
5219
330
5218
100
AcDbEntity
  8
0
100
AcDbBlockBegin
  2
センタ-2 SAM280
 70
     0
 10
0.0
 20
0.0
 30
0.0
  3
センタ-2 SAM280
  1

  0
LINE
  5
521C
330
5218
100
AcDbEntity
  8
AM_0 外形線1
100
AcDbLine
 10
0.0
 20
57.82732917920384
 30
0.0
 11
-140.0
 21
57.82732917920384
 31
0.0
  0
LINE
  5
521D
330
5218
100
AcDbEntity
  8
AM_0 外形線1
100
AcDbLine
 10
-136.0
 20
94.19999999999992
 30
0.0
 11
-95.5
 21
94.19999999999992
 31
0.0
  0
LINE
  5
521E
330
5218
100
AcDbEntity
  8
AM_0 外形線1
100
AcDbLine
 10
-95.5
 20
-94.20000000000003
 30
0.0
 11
-136.0
 21
-94.20000000000003
 31
0.0
  0
LINE
  5
521F
330
5218
100
AcDbEntity
  8
AM_0 外形線1
100
AcDbLine
 10
-140.0
 20
-90.20000000000003
 30
0.0
 11
-140.0
 21
90.19999999999994
 31
0.0
  0
ARC
  5
5220
330
5218
100
AcDbEntity
  8
AM_0 外形線1
100
AcDbCircle
 10
-136.0
 20
-90.20000000000003
 30
0.0
 40
4.0
100
AcDbArc
 50
180.0
 51
270.0
  0
ARC
  5
5223
330
5218
100
AcDbEntity
  8
AM_0 外形線1
100
AcDbCircle
 10
-136.0
 20
90.19999999999994
 30
0.0
 40
4.0
100
AcDbArc
 50
90.0
 51
180.0
  0
LINE
  5
5224
330
5218
100
AcDbEntity
  8
AM_0 外形線1
100
AcDbLine
 10
-95.5
 20
-94.20000000000003
 30
0.0
 11
-95.5
 21
0.0
 31
0.0
  0
LINE
  5
5225
330
5218
100
AcDbEntity
  8
AM_0 外形線1
100
AcDbLine
 10
-93.49999999999999
 20
-95.0
 30
0.0
 11
-93.49999999999999
 21
0.0
 31
0.0
  0
LINE
  5
5226
330
5218
100
AcDbEntity
  8
AM_0 外形線1
100
AcDbLine
 10
-93.49999999999999
 20
-95.0
 30
0.0
 11
-95.5
 21
-94.20000000000003
 31
0.0
  0
LINE
  5
5227
330
5218
100
AcDbEntity
  8
AM_0 外形線1
100
AcDbLine
 10
-75.0
 20
-95.0
 30
0.0
 11
-93.49999999999999
 21
-95.0
 31
0.0
  0
LINE
  5
5228
330
5218
100
AcDbEntity
  8
AM_0 外形線1
100
AcDbLine
 10
0.0
 20
93.49999999999999
 30
0.0
 11
0.0
 21
79.0
 31
0.0
  0
LINE
  5
5229
330
5218
100
AcDbEntity
  8
AM_0 外形線1
100
AcDbLine
 10
0.0
 20
89.11069403916192
 30
0.0
 11
0.0
 21
0.0
 31
0.0
  0
LINE
  5
522A
330
5218
100
AcDbEntity
  8
AM_3 隠れ線
100
AcDbLine
 10
-33.0
 20
5.149999999999637
 30
0.0
 11
-35.97335399999997
 21
0.0
 31
0.0
  0
LINE
  5
522B
330
5218
100
AcDbEntity
  8
AM_3 隠れ線
100
AcDbLine
 10
-33.0
 20
5.149999999999637
 30
0.0
 11
-33.0
 21
0.0
 31
0.0
  0
LINE
  5
522C
330
5218
100
AcDbEntity
  8
AM_3 隠れ線
100
AcDbLine
 10
-28.49074800000017
 20
5.149999999999637
 30
0.0
 11
-28.49074800000017
 21
0.0
 31
0.0
  0
LINE
  5
522D
330
5218
100
AcDbEntity
  8
AM_3 隠れ線
100
AcDbLine
 10
-28.0
 20
6.0
 30
0.0
 11
-28.0
 21
0.0
 31
0.0
  0
LINE
  5
522E
330
5218
100
AcDbEntity
  8
AM_3 隠れ線
100
AcDbLine
 10
0.0
 20
5.149999999999637
 30
0.0
 11
-33.0
 21
5.149999999999637
 31
0.0
  0
LINE
  5
522F
330
5218
100
AcDbEntity
  8
AM_3 隠れ線
100
AcDbLine
 10
0.0
 20
6.0
 30
0.0
 11
-28.0
 21
6.0
 31
0.0
  0
LINE
  5
5230
330
5218
100
AcDbEntity
  8
AM_3 隠れ線
100
AcDbLine
 10
-28.0
 20
6.0
 30
0.0
 11
-28.49074800000017
 21
5.149999999999637
 31
0.0
  0
LINE
  5
5231
330
5218
100
AcDbEntity
  8
AM_0 外形線1
100
AcDbLine
 10
-93.49999999999999
 20
95.0
 30
0.0
 11
-55.0
 21
95.0
 31
0.0
  0
LINE
  5
5232
330
5218
100
AcDbEntity
  8
AM_0 外形線1
100
AcDbLine
 10
-95.5
 20
94.19999999999992
 30
0.0
 11
-93.49999999999999
 21
95.0
 31
0.0
  0
LINE
  5
5233
330
5218
100
AcDbEntity
  8
AM_0 外形線1
100
AcDbLine
 10
-21.5
 20
102.8526339999998
 30
0.0
 11
-21.5
 21
95.0
 31
0.0
  0
LINE
  5
5234
330
5218
100
AcDbEntity
  8
AM_7 中心線
100
AcDbLine
 10
-36.0
 20
109.8600000000001
 30
0.0
 11
-36.0
 21
93.69999999999992
 31
0.0
  0
LINE
  5
5235
330
5218
100
AcDbEntity
  8
AM_0 外形線1
100
AcDbLine
 10
-54.5
 20
95.5
 30
0.0
 11
-54.5
 21
102.2151619999999
 31
0.0
  0
ARC
  5
5236
330
5218
100
AcDbEntity
  8
AM_0 外形線1
100
AcDbCircle
 10
-55.0
 20
95.5
 30
0.0
 40
0.5
100
AcDbArc
 50
270.0
 51
0.0
  0
LINE
  5
5237
330
5218
100
AcDbEntity
  8
AM_0 外形線1
100
AcDbLine
 10
-21.0
 20
94.50000000000001
 30
0.0
 11
-1.0
 21
94.50000000000001
 31
0.0
  0
ARC
  5
5238
330
5218
100
AcDbEntity
  8
AM_0 外形線1
100
AcDbCircle
 10
-21.0
 20
95.0
 30
0.0
 40
0.5
100
AcDbArc
 50
180.0
 51
270.0
  0
LINE
  5
5239
330
5218
100
AcDbEntity
  8
AM_0 外形線1
100
AcDbLine
 10
-1.0
 20
94.50000000000001
 30
0.0
 11
0.0
 21
93.49999999999999
 31
0.0
  0
ARC
  5
523B
330
5218
100
AcDbEntity
  8
AM_0 外形線1
100
AcDbCircle
 10
-36.0
 20
0.0
 30
0.0
 40
104.86
100
AcDbArc
 50
82.60303399999768
 51
99.60699900000051
  0
LINE
  5
523D
330
5218
100
AcDbEntity
  8
AM_0 外形線1
100
AcDbLine
 10
-54.5
 20
102.2151619999999
 30
0.0
 11
-53.5
 21
103.3894069999999
 31
0.0
  0
LINE
  5
523E
330
5218
100
AcDbEntity
  8
AM_0 外形線1
100
AcDbLine
 10
-22.5
 20
103.987353
 30
0.0
 11
-21.5
 21
102.8526339999998
 31
0.0
  0
ARC
  5
95B2
330
5218
100
AcDbEntity
  8
AM_7 中心線
100
AcDbCircle
 10
-35.97335399999997
 20
0.0
 30
0.0
 40
102.0000034804379
100
AcDbArc
 50
79.94588794947045
 51
102.4537094467393
  0
ARC
  5
95B3
330
5218
100
AcDbEntity
  8
AM_0 外形線1
100
AcDbCircle
 10
-36.0
 20
-0.0000000000001137
 30
0.0
 40
98.70000000000016
100
AcDbArc
 50
81.55211123156993
 51
100.8032292368449
  0
ENDBLK
  5
521A
330
5218
100
AcDbEntity
  8
0
100
AcDbBlockEnd
  0
BLOCK
  5
5612
330
5611
100
AcDbEntity
  8
0
100
AcDbBlockBegin
  2
リーマボルト-1 SAM280 M12
 70
     0
 10
0.0
 20
0.0
 30
0.0
  3
リーマボルト-1 SAM280 M12
  1

  0
LINE
  5
5614
330
5611
100
AcDbEntity
  8
0
  6
ByBlock
 62
     0
100
AcDbLine
 10
0.0
 20
9.500000000000113
 30
0.0
 11
-7.5
 21
9.500000000000113
 31
0.0
  0
LINE
  5
5615
330
5611
100
AcDbEntity
  8
0
  6
ByBlock
 62
     0
100
AcDbLine
 10
0.0
 20
-9.5
 30
0.0
 11
-7.5
 21
-9.5
 31
0.0
  0
LINE
  5
5616
330
5611
100
AcDbEntity
  8
0
  6
ByBlock
 62
     0
100
AcDbLine
 10
-7.5
 20
-9.5
 30
0.0
 11
-8.0
 21
-9.0
 31
0.0
  0
ARC
  5
5617
330
5611
100
AcDbEntity
  8
0
  6
ByBlock
 62
     0
100
AcDbCircle
 10
6.008480240631115
 20
-4.75
 30
0.0
 40
13.7198052406311
100
AcDbArc
 50
159.7444344830208
 51
200.2554134315808
  0
LINE
  5
5618
330
5611
100
AcDbEntity
  8
0
  6
ByBlock
 62
     0
100
AcDbLine
 10
-7.5
 20
9.500000000000113
 30
0.0
 11
-8.0
 21
9.000000000000113
 31
0.0
  0
ARC
  5
5619
330
5611
100
AcDbEntity
  8
0
  6
ByBlock
 62
     0
100
AcDbCircle
 10
6.008480240631115
 20
4.750000000000113
 30
0.0
 40
13.7198052406311
100
AcDbArc
 50
159.7444344830208
 51
200.2554134315808
  0
LINE
  5
561A
330
5611
100
AcDbEntity
  8
0
  6
ByBlock
 62
     0
100
AcDbLine
 10
-8.0
 20
9.000000000000113
 30
0.0
 11
-8.0
 21
-9.0
 31
0.0
  0
ARC
  5
561B
330
5611
100
AcDbEntity
  8
AM_0 外形線1
100
AcDbCircle
 10
1.0
 20
6.999999999999886
 30
0.0
 40
1.0
100
AcDbArc
 50
180.0
 51
0.0
  0
ARC
  5
561C
330
5611
100
AcDbEntity
  8
AM_0 外形線1
100
AcDbCircle
 10
1.0
 20
-7.000000000000111
 30
0.0
 40
1.0
100
AcDbArc
 50
0.0
 51
180.0
  0
LINE
  5
561D
330
5611
100
AcDbEntity
  8
AM_0 外形線1
100
AcDbLine
 10
2.0
 20
-7.000000000000111
 30
0.0
 11
2.0
 21
6.999999999999886
 31
0.0
  0
LINE
  5
561E
330
5611
100
AcDbEntity
  8
AM_0 外形線1
100
AcDbLine
 10
55.0
 20
9.500000000000113
 30
0.0
 11
55.0
 21
-9.499999999999886
 31
0.0
  0
ARC
  5
561F
330
5611
100
AcDbEntity
  8
AM_0 外形線1
100
AcDbCircle
 10
50.12167199999999
 20
-8.217413999999962
 30
0.0
 40
4.878327999999998
100
AcDbArc
 50
325.9339550000068
 51
34.06604499999309
  0
LINE
  5
5620
330
5611
100
AcDbEntity
  8
AM_0 外形線1
100
AcDbLine
 10
45.0
 20
-10.94999999999993
 30
0.0
 11
45.0
 21
10.94999999999993
 31
0.0
  0
LINE
  5
5621
330
5611
100
AcDbEntity
  8
AM_0 外形線1
100
AcDbLine
 10
54.16284199999996
 20
-10.94999999999993
 30
0.0
 11
45.0
 21
-10.94999999999993
 31
0.0
  0
LINE
  5
5622
330
5611
100
AcDbEntity
  8
AM_0 外形線1
100
AcDbLine
 10
42.0
 20
-10.74999999999988
 30
0.0
 11
45.0
 21
-10.74999999999988
 31
0.0
  0
LINE
  5
5623
330
5611
100
AcDbEntity
  8
AM_0 外形線1
100
AcDbLine
 10
55.0
 20
-9.499999999999886
 30
0.0
 11
54.16284199999996
 21
-10.94999999999993
 31
0.0
  0
LINE
  5
5624
330
5611
100
AcDbEntity
  8
AM_0 外形線1
100
AcDbLine
 10
45.0
 20
-5.484827999999993
 30
0.0
 11
54.16284199999996
 21
-5.484827999999993
 31
0.0
  0
LINE
  5
5625
330
5611
100
AcDbEntity
  8
AM_0 外形線1
100
AcDbLine
 10
45.0
 20
5.484827000000108
 30
0.0
 11
54.16284199999996
 21
5.484827000000108
 31
0.0
  0
LINE
  5
5626
330
5611
100
AcDbEntity
  8
AM_0 外形線1
100
AcDbLine
 10
45.0
 20
10.94999999999993
 30
0.0
 11
54.16284199999996
 21
10.94999999999993
 31
0.0
  0
LINE
  5
5627
330
5611
100
AcDbEntity
  8
AM_4 細線
100
AcDbLine
 10
41.0
 20
5.124999999999886
 30
0.0
 11
42.0
 21
5.124999999999886
 31
0.0
  0
LINE
  5
5628
330
5611
100
AcDbEntity
  8
AM_4 細線
100
AcDbLine
 10
41.0
 20
5.124999999999886
 30
0.0
 11
39.48445554337718
 21
5.999999999999886
 31
0.0
  0
LINE
  5
5629
330
5611
100
AcDbEntity
  8
AM_0 外形線1
100
AcDbLine
 10
37.5
 20
5.999999999999886
 30
0.0
 11
35.76794919243094
 21
6.999999999999886
 31
0.0
  0
LINE
  5
562A
330
5611
100
AcDbEntity
  8
AM_0 外形線1
100
AcDbLine
 10
37.5
 20
5.999999999999886
 30
0.0
 11
42.0
 21
5.999999999999886
 31
0.0
  0
LINE
  5
562B
330
5611
100
AcDbEntity
  8
AM_4 細線
100
AcDbLine
 10
41.0
 20
-5.125000000000113
 30
0.0
 11
42.0
 21
-5.125000000000113
 31
0.0
  0
LINE
  5
562C
330
5611
100
AcDbEntity
  8
AM_4 細線
100
AcDbLine
 10
41.0
 20
-5.125000000000113
 30
0.0
 11
39.48445554337718
 21
-6.000000000000111
 31
0.0
  0
LINE
  5
562D
330
5611
100
AcDbEntity
  8
AM_0 外形線1
100
AcDbLine
 10
37.5
 20
-6.000000000000111
 30
0.0
 11
35.76794919243094
 21
-7.000000000000111
 31
0.0
  0
LINE
  5
562E
330
5611
100
AcDbEntity
  8
AM_0 外形線1
100
AcDbLine
 10
37.5
 20
-6.000000000000111
 30
0.0
 11
42.0
 21
-6.000000000000111
 31
0.0
  0
LINE
  5
562F
330
5611
100
AcDbEntity
  8
AM_0 外形線1
100
AcDbLine
 10
35.76794919243094
 20
6.999999999999886
 30
0.0
 11
35.76794919243094
 21
-7.000000000000111
 31
0.0
  0
LINE
  5
5630
330
5611
100
AcDbEntity
  8
AM_0 外形線1
100
AcDbLine
 10
37.5
 20
5.999999999999886
 30
0.0
 11
37.5
 21
-6.000000000000111
 31
0.0
  0
LINE
  5
5631
330
5611
100
AcDbEntity
  8
AM_0 外形線1
100
AcDbLine
 10
41.0
 20
5.999999999999886
 30
0.0
 11
41.0
 21
-6.000000000000111
 31
0.0
  0
LINE
  5
5632
330
5611
100
AcDbEntity
  8
AM_0 外形線1
100
AcDbLine
 10
45.0
 20
1.0
 30
0.0
 11
42.0
 21
-2.0
 31
0.0
  0
LINE
  5
5633
330
5611
100
AcDbEntity
  8
AM_0 外形線1
100
AcDbLine
 10
45.0
 20
2.0
 30
0.0
 11
42.0
 21
-1.0
 31
0.0
  0
LINE
  5
5634
330
5611
100
AcDbEntity
  8
AM_0 外形線1
100
AcDbLine
 10
45.0
 20
10.75000000000011
 30
0.0
 11
42.0
 21
10.75000000000011
 31
0.0
  0
LINE
  5
5635
330
5611
100
AcDbEntity
  8
AM_0 外形線1
100
AcDbLine
 10
58.0
 20
6.000000000000111
 30
0.0
 11
58.0
 21
-6.0
 31
0.0
  0
LINE
  5
5636
330
5611
100
AcDbEntity
  8
AM_0 外形線1
100
AcDbLine
 10
60.0
 20
-4.0
 30
0.0
 11
58.0
 21
-6.0
 31
0.0
  0
LINE
  5
5637
330
5611
100
AcDbEntity
  8
AM_0 外形線1
100
AcDbLine
 10
60.0
 20
4.000000000000113
 30
0.0
 11
60.0
 21
-4.0
 31
0.0
  0
LINE
  5
5638
330
5611
100
AcDbEntity
  8
AM_0 外形線1
100
AcDbLine
 10
58.0
 20
6.000000000000111
 30
0.0
 11
60.0
 21
4.000000000000113
 31
0.0
  0
ARC
  5
5639
330
5611
100
AcDbEntity
  8
AM_0 外形線1
100
AcDbCircle
 10
36.61388199999989
 20
0.0
 30
0.0
 40
18.386117
100
AcDbArc
 50
342.6436619999964
 51
17.35633800000355
  0
ARC
  5
563A
330
5611
100
AcDbEntity
  8
AM_0 外形線1
100
AcDbCircle
 10
50.12167199999999
 20
8.217414000000076
 30
0.0
 40
4.878327999999998
100
AcDbArc
 50
325.9339550000068
 51
34.06604499999309
  0
LINE
  5
563B
330
5611
100
AcDbEntity
  8
AM_0 外形線1
100
AcDbLine
 10
58.0
 20
-6.0
 30
0.0
 11
55.0
 21
-6.0
 31
0.0
  0
LINE
  5
563C
330
5611
100
AcDbEntity
  8
AM_0 外形線1
100
AcDbLine
 10
55.0
 20
6.000000000000111
 30
0.0
 11
58.0
 21
6.000000000000111
 31
0.0
  0
LINE
  5
563D
330
5611
100
AcDbEntity
  8
AM_4 細線
100
AcDbLine
 10
55.0
 20
-5.125
 30
0.0
 11
58.875
 21
-5.125
 31
0.0
  0
LINE
  5
563E
330
5611
100
AcDbEntity
  8
AM_4 細線
100
AcDbLine
 10
55.0
 20
5.125000000000113
 30
0.0
 11
58.875
 21
5.125000000000113
 31
0.0
  0
LINE
  5
569F
330
5611
100
AcDbEntity
  8
AM_0 外形線1
100
AcDbLine
 10
-6.862822572499907
 20
0.0
 30
0.0
 11
0.0
 21
0.0
 31
0.0
  0
LINE
  5
56A0
330
5611
100
AcDbEntity
  8
AM_0 外形線1
100
AcDbLine
 10
0.0
 20
9.500000000000113
 30
0.0
 11
0.0
 21
-9.5
 31
0.0
  0
LINE
  5
56A1
330
5611
100
AcDbEntity
  8
AM_0 外形線1
100
AcDbLine
 10
2.0
 20
6.999999999999886
 30
0.0
 11
35.76794919243094
 21
6.999999999999886
 31
0.0
  0
LINE
  5
56A2
330
5611
100
AcDbEntity
  8
AM_0 外形線1
100
AcDbLine
 10
2.0
 20
-7.000000000000111
 30
0.0
 11
35.76794919243094
 21
-7.000000000000111
 31
0.0
  0
LINE
  5
56A3
330
5611
100
AcDbEntity
  8
AM_0 外形線1
100
AcDbLine
 10
42.0
 20
10.75000000000011
 30
0.0
 11
42.0
 21
-10.74999999999988
 31
0.0
  0
ENDBLK
  5
5613
330
5611
100
AcDbEntity
  8
0
100
AcDbBlockEnd
  0
BLOCK
  5
56AF
330
56AE
100
AcDbEntity
  8
0
100
AcDbBlockBegin
  2
リーマボルト-2 SAM280 M12
 70
     0
 10
0.0
 20
0.0
 30
0.0
  3
リーマボルト-2 SAM280 M12
  1

  0
LINE
  5
56B1
330
56AE
100
AcDbEntity
  8
AM_0 外形線1
100
AcDbLine
 10
-58.0
 20
-6.0
 30
0.0
 11
-55.0
 21
-6.0
 31
0.0
  0
LINE
  5
56B2
330
56AE
100
AcDbEntity
  8
AM_0 外形線1
100
AcDbLine
 10
-55.0
 20
6.000000000000111
 30
0.0
 11
-58.0
 21
6.000000000000111
 31
0.0
  0
LINE
  5
56B3
330
56AE
100
AcDbEntity
  8
AM_4 細線
100
AcDbLine
 10
-55.0
 20
-5.125
 30
0.0
 11
-58.875
 21
-5.125
 31
0.0
  0
LINE
  5
56B4
330
56AE
100
AcDbEntity
  8
AM_4 細線
100
AcDbLine
 10
-55.0
 20
5.125000000000113
 30
0.0
 11
-58.875
 21
5.125000000000113
 31
0.0
  0
LINE
  5
56B5
330
56AE
100
AcDbEntity
  8
AM_0 外形線1
100
AcDbLine
 10
-58.0
 20
6.000000000000111
 30
0.0
 11
-58.0
 21
-6.0
 31
0.0
  0
LINE
  5
56B6
330
56AE
100
AcDbEntity
  8
AM_0 外形線1
100
AcDbLine
 10
-60.0
 20
-4.0
 30
0.0
 11
-58.0
 21
-6.0
 31
0.0
  0
LINE
  5
56B7
330
56AE
100
AcDbEntity
  8
AM_0 外形線1
100
AcDbLine
 10
-60.0
 20
4.000000000000113
 30
0.0
 11
-60.0
 21
-4.0
 31
0.0
  0
LINE
  5
56B8
330
56AE
100
AcDbEntity
  8
AM_0 外形線1
100
AcDbLine
 10
-58.0
 20
6.000000000000111
 30
0.0
 11
-60.0
 21
4.000000000000113
 31
0.0
  0
LINE
  5
56B9
330
56AE
100
AcDbEntity
  8
AM_0 外形線1
100
AcDbLine
 10
-55.0
 20
9.500000000000113
 30
0.0
 11
-55.0
 21
-9.499999999999886
 31
0.0
  0
ARC
  5
56BA
330
56AE
100
AcDbEntity
  8
AM_0 外形線1
100
AcDbCircle
 10
-50.12167299999987
 20
-8.217413999999962
 30
0.0
 40
4.878327999999998
100
AcDbArc
 50
145.9339550000069
 51
214.0660449999931
  0
LINE
  5
56BB
330
56AE
100
AcDbEntity
  8
AM_0 外形線1
100
AcDbLine
 10
-45.0
 20
-10.94999999999993
 30
0.0
 11
-45.0
 21
10.94999999999993
 31
0.0
  0
LINE
  5
56BC
330
56AE
100
AcDbEntity
  8
AM_0 外形線1
100
AcDbLine
 10
-42.0
 20
-10.74999999999988
 30
0.0
 11
-45.0
 21
-10.74999999999988
 31
0.0
  0
LINE
  5
56BD
330
56AE
100
AcDbEntity
  8
AM_0 外形線1
100
AcDbLine
 10
-54.16284299999984
 20
-10.94999999999993
 30
0.0
 11
-45.0
 21
-10.94999999999993
 31
0.0
  0
LINE
  5
56BE
330
56AE
100
AcDbEntity
  8
AM_0 外形線1
100
AcDbLine
 10
-55.0
 20
-9.499999999999886
 30
0.0
 11
-54.16284299999984
 21
-10.94999999999993
 31
0.0
  0
LINE
  5
56BF
330
56AE
100
AcDbEntity
  8
AM_0 外形線1
100
AcDbLine
 10
-37.5
 20
-6.000000000000111
 30
0.0
 11
-42.0
 21
-6.000000000000111
 31
0.0
  0
LINE
  5
56C0
330
56AE
100
AcDbEntity
  8
AM_4 細線
100
AcDbLine
 10
-41.0
 20
-5.125000000000113
 30
0.0
 11
-42.0
 21
-5.125000000000113
 31
0.0
  0
LINE
  5
56C1
330
56AE
100
AcDbEntity
  8
AM_4 細線
100
AcDbLine
 10
-41.0
 20
5.124999999999886
 30
0.0
 11
-42.0
 21
5.124999999999886
 31
0.0
  0
LINE
  5
56C2
330
56AE
100
AcDbEntity
  8
AM_0 外形線1
100
AcDbLine
 10
-37.5
 20
5.999999999999886
 30
0.0
 11
-42.0
 21
5.999999999999886
 31
0.0
  0
LINE
  5
56C3
330
56AE
100
AcDbEntity
  8
AM_0 外形線1
100
AcDbLine
 10
-42.0
 20
1.0
 30
0.0
 11
-45.0
 21
-2.0
 31
0.0
  0
LINE
  5
56C4
330
56AE
100
AcDbEntity
  8
AM_0 外形線1
100
AcDbLine
 10
-45.0
 20
-1.0
 30
0.0
 11
-42.0
 21
2.0
 31
0.0
  0
LINE
  5
56C5
330
56AE
100
AcDbEntity
  8
AM_0 外形線1
100
AcDbLine
 10
-45.0
 20
10.75000000000011
 30
0.0
 11
-42.0
 21
10.75000000000011
 31
0.0
  0
ARC
  5
56C6
330
56AE
100
AcDbEntity
  8
AM_0 外形線1
100
AcDbCircle
 10
-36.61388299999999
 20
0.0
 30
0.0
 40
18.386117
100
AcDbArc
 50
162.6436619999964
 51
197.3563380000035
  0
ARC
  5
56C7
330
56AE
100
AcDbEntity
  8
AM_0 外形線1
100
AcDbCircle
 10
-50.12167299999987
 20
8.217414000000076
 30
0.0
 40
4.878327999999998
100
AcDbArc
 50
145.9339550000069
 51
214.0660449999931
  0
LINE
  5
56C8
330
56AE
100
AcDbEntity
  8
AM_0 外形線1
100
AcDbLine
 10
-54.16284299999984
 20
10.94999999999993
 30
0.0
 11
-55.0
 21
9.500000000000113
 31
0.0
  0
LINE
  5
56C9
330
56AE
100
AcDbEntity
  8
AM_0 外形線1
100
AcDbLine
 10
-45.0
 20
-5.484827999999993
 30
0.0
 11
-54.16284299999984
 21
-5.484827999999993
 31
0.0
  0
LINE
  5
56CA
330
56AE
100
AcDbEntity
  8
AM_0 外形線1
100
AcDbLine
 10
-45.0
 20
5.484827000000108
 30
0.0
 11
-54.16284299999984
 21
5.484827000000108
 31
0.0
  0
LINE
  5
56CB
330
56AE
100
AcDbEntity
  8
AM_0 外形線1
100
AcDbLine
 10
-45.0
 20
10.94999999999993
 30
0.0
 11
-54.16284299999984
 21
10.94999999999993
 31
0.0
  0
LINE
  5
56CC
330
56AE
100
AcDbEntity
  8
AM_4 細線
100
AcDbLine
 10
-41.0
 20
-5.125000000000113
 30
0.0
 11
-39.48445554337718
 21
-6.000000000000111
 31
0.0
  0
LINE
  5
56CD
330
56AE
100
AcDbEntity
  8
AM_0 外形線1
100
AcDbLine
 10
-37.5
 20
-6.000000000000111
 30
0.0
 11
-35.76794919243094
 21
-7.000000000000111
 31
0.0
  0
LINE
  5
56CE
330
56AE
100
AcDbEntity
  8
AM_4 細線
100
AcDbLine
 10
-41.0
 20
5.124999999999886
 30
0.0
 11
-39.48445554337718
 21
5.999999999999886
 31
0.0
  0
LINE
  5
56CF
330
56AE
100
AcDbEntity
  8
AM_0 外形線1
100
AcDbLine
 10
-41.0
 20
5.999999999999886
 30
0.0
 11
-41.0
 21
-6.000000000000111
 31
0.0
  0
LINE
  5
56D0
330
56AE
100
AcDbEntity
  8
AM_0 外形線1
100
AcDbLine
 10
-37.5
 20
5.999999999999886
 30
0.0
 11
-37.5
 21
-6.000000000000111
 31
0.0
  0
LINE
  5
56D1
330
56AE
100
AcDbEntity
  8
AM_0 外形線1
100
AcDbLine
 10
-35.76794919243094
 20
6.999999999999886
 30
0.0
 11
-35.76794919243094
 21
-7.000000000000111
 31
0.0
  0
LINE
  5
56D2
330
56AE
100
AcDbEntity
  8
AM_0 外形線1
100
AcDbLine
 10
-37.5
 20
5.999999999999886
 30
0.0
 11
-35.76794919243094
 21
6.999999999999886
 31
0.0
  0
ARC
  5
56D3
330
56AE
100
AcDbEntity
  8
0
  6
ByBlock
 62
     0
100
AcDbCircle
 10
-6.008480240631115
 20
-4.75
 30
0.0
 40
13.7198052406311
100
AcDbArc
 50
339.7445865684192
 51
20.25556551697922
  0
LINE
  5
56D4
330
56AE
100
AcDbEntity
  8
0
  6
ByBlock
 62
     0
100
AcDbLine
 10
7.5
 20
-9.5
 30
0.0
 11
8.0
 21
-9.0
 31
0.0
  0
LINE
  5
56D5
330
56AE
100
AcDbEntity
  8
0
  6
ByBlock
 62
     0
100
AcDbLine
 10
0.0
 20
-9.5
 30
0.0
 11
7.5
 21
-9.5
 31
0.0
  0
ARC
  5
56D6
330
56AE
100
AcDbEntity
  8
AM_0 外形線1
100
AcDbCircle
 10
-1.0
 20
6.999999999999886
 30
0.0
 40
1.0
100
AcDbArc
 50
180.0
 51
0.0
  0
ARC
  5
56D7
330
56AE
100
AcDbEntity
  8
AM_0 外形線1
100
AcDbCircle
 10
-1.0
 20
-7.000000000000111
 30
0.0
 40
1.0
100
AcDbArc
 50
0.0
 51
180.0
  0
LINE
  5
56D8
330
56AE
100
AcDbEntity
  8
AM_0 外形線1
100
AcDbLine
 10
-2.0
 20
-7.000000000000111
 30
0.0
 11
-2.0
 21
6.999999999999886
 31
0.0
  0
LINE
  5
56D9
330
56AE
100
AcDbEntity
  8
0
  6
ByBlock
 62
     0
100
AcDbLine
 10
7.5
 20
9.500000000000113
 30
0.0
 11
8.0
 21
9.000000000000113
 31
0.0
  0
LINE
  5
56DA
330
56AE
100
AcDbEntity
  8
0
  6
ByBlock
 62
     0
100
AcDbLine
 10
0.0
 20
9.500000000000113
 30
0.0
 11
7.5
 21
9.500000000000113
 31
0.0
  0
LINE
  5
56DB
330
56AE
100
AcDbEntity
  8
0
  6
ByBlock
 62
     0
100
AcDbLine
 10
8.0
 20
9.000000000000113
 30
0.0
 11
8.0
 21
-9.0
 31
0.0
  0
ARC
  5
56DC
330
56AE
100
AcDbEntity
  8
0
  6
ByBlock
 62
     0
100
AcDbCircle
 10
-6.008480240631115
 20
4.750000000000113
 30
0.0
 40
13.7198052406311
100
AcDbArc
 50
339.7445865684192
 51
20.25556551697922
  0
LINE
  5
5740
330
56AE
100
AcDbEntity
  8
AM_0 外形線1
100
AcDbLine
 10
-42.0
 20
10.75000000000011
 30
0.0
 11
-42.0
 21
-10.74999999999988
 31
0.0
  0
LINE
  5
5741
330
56AE
100
AcDbEntity
  8
AM_0 外形線1
100
AcDbLine
 10
-35.76794919243094
 20
6.999999999999886
 30
0.0
 11
-2.000000000000112
 21
6.999999999999886
 31
0.0
  0
LINE
  5
5742
330
56AE
100
AcDbEntity
  8
AM_0 外形線1
100
AcDbLine
 10
-35.76794919243094
 20
-6.999999999999656
 30
0.0
 11
-2.000000000000112
 21
-6.999999999999656
 31
0.0
  0
LINE
  5
5743
330
56AE
100
AcDbEntity
  8
AM_0 外形線1
100
AcDbLine
 10
0.0
 20
0.0
 30
0.0
 11
6.862822572499907
 21
0.0
 31
0.0
  0
LINE
  5
5744
330
56AE
100
AcDbEntity
  8
AM_0 外形線1
100
AcDbLine
 10
0.0
 20
9.500000000000113
 30
0.0
 11
0.0
 21
-9.5
 31
0.0
  0
ENDBLK
  5
56B0
330
56AE
100
AcDbEntity
  8
0
100
AcDbBlockEnd
  0
BLOCK
  5
59E9
330
59E8
100
AcDbEntity
  8
0
100
AcDbBlockBegin
  2
*D15
 70
     1
 10
0.0
 20
0.0
 30
0.0
  3
*D15
  1

  0
LINE
  5
92A1
330
59E8
100
AcDbEntity
  8
AM_5 寸法線
 62
     3
100
AcDbLine
 10
1059.724939006553
 20
951.3981274357456
 30
0.0
 11
1186.224939006553
 21
951.3981274357456
 31
0.0
  0
LINE
  5
92A2
330
59E8
100
AcDbEntity
  8
AM_5 寸法線
 62
     3
100
AcDbLine
 10
1059.724939006553
 20
761.3981274357455
 30
0.0
 11
1186.224939006553
 21
761.3981274357455
 31
0.0
  0
LINE
  5
92A3
330
59E8
100
AcDbEntity
  8
AM_5 寸法線
 62
     3
100
AcDbLine
 10
1183.724939006553
 20
941.3981274357457
 30
0.0
 11
1183.724939006553
 21
771.3981274357455
 31
0.0
  0
INSERT
  5
92A4
330
59E8
100
AcDbEntity
  8
AM_5 寸法線
 62
     3
100
AcDbBlockReference
  2
_Open30
 10
1183.724939006553
 20
951.3981274357456
 30
0.0
 41
10.0
 42
10.0
 43
10.0
 50
90.0
  0
INSERT
  5
92A5
330
59E8
100
AcDbEntity
  8
AM_5 寸法線
 62
     3
100
AcDbBlockReference
  2
_Open30
 10
1183.724939006553
 20
761.3981274357455
 30
0.0
 41
10.0
 42
10.0
 43
10.0
 50
270.0
  0
MTEXT
  5
92A6
330
59E8
100
AcDbEntity
  8
AM_5 寸法線
 62
     3
100
AcDbMText
 10
1170.724939006553
 20
856.3981274357457
 30
0.0
 40
14.0
 41
0.0
 46
0.0
 71
     5
 72
     1
  1
%%c190
  7
SEISA
 11
0.0000000000000001
 21
1.0
 31
0.0
 73
     1
 44
1.0
  0
POINT
  5
92A7
330
59E8
100
AcDbEntity
  8
Defpoints
 62
     0
100
AcDbPoint
 10
1057.224939006553
 20
951.3981274357456
 30
0.0
  0
POINT
  5
92A8
330
59E8
100
AcDbEntity
  8
Defpoints
 62
     0
100
AcDbPoint
 10
1057.224939006553
 20
761.3981274357455
 30
0.0
  0
POINT
  5
92A9
330
59E8
100
AcDbEntity
  8
Defpoints
 62
     0
100
AcDbPoint
 10
1183.724939006553
 20
761.3981274357455
 30
0.0
  0
ENDBLK
  5
59EA
330
59E8
100
AcDbEntity
  8
0
100
AcDbBlockEnd
  0
BLOCK
  5
5A01
330
5A00
100
AcDbEntity
  8
0
100
AcDbBlockBegin
  2
*D16
 70
     1
 10
0.0
 20
0.0
 30
0.0
  3
*D16
  1

  0
LINE
  5
92AA
330
5A00
100
AcDbEntity
  8
AM_5 寸法線
 62
     3
100
AcDbLine
 10
1037.224939006553
 20
968.3981274357456
 30
0.0
 11
1226.224939006553
 21
968.3981274357456
 31
0.0
  0
LINE
  5
92AB
330
5A00
100
AcDbEntity
  8
AM_5 寸法線
 62
     3
100
AcDbLine
 10
1037.224939006553
 20
744.3981274357456
 30
0.0
 11
1226.224939006553
 21
744.3981274357456
 31
0.0
  0
LINE
  5
92AC
330
5A00
100
AcDbEntity
  8
AM_5 寸法線
 62
     3
100
AcDbLine
 10
1223.724939006553
 20
958.3981274357457
 30
0.0
 11
1223.724939006553
 21
754.3981274357456
 31
0.0
  0
INSERT
  5
92AD
330
5A00
100
AcDbEntity
  8
AM_5 寸法線
 62
     3
100
AcDbBlockReference
  2
_Open30
 10
1223.724939006553
 20
968.3981274357456
 30
0.0
 41
10.0
 42
10.0
 43
10.0
 50
90.0
  0
INSERT
  5
92AE
330
5A00
100
AcDbEntity
  8
AM_5 寸法線
 62
     3
100
AcDbBlockReference
  2
_Open30
 10
1223.724939006553
 20
744.3981274357456
 30
0.0
 41
10.0
 42
10.0
 43
10.0
 50
270.0
  0
MTEXT
  5
92AF
330
5A00
100
AcDbEntity
  8
AM_5 寸法線
 62
     3
100
AcDbMText
 10
1210.724939006553
 20
856.3981274357457
 30
0.0
 40
14.0
 41
0.0
 46
0.0
 71
     5
 72
     1
  1
%%c224
  7
SEISA
 11
0.0000000000000001
 21
1.0
 31
0.0
 73
     1
 44
1.0
  0
POINT
  5
92B0
330
5A00
100
AcDbEntity
  8
Defpoints
 62
     0
100
AcDbPoint
 10
1034.724939006553
 20
968.3981274357456
 30
0.0
  0
POINT
  5
92B1
330
5A00
100
AcDbEntity
  8
Defpoints
 62
     0
100
AcDbPoint
 10
1034.724939006553
 20
744.3981274357456
 30
0.0
  0
POINT
  5
92B2
330
5A00
100
AcDbEntity
  8
Defpoints
 62
     0
100
AcDbPoint
 10
1223.724939006553
 20
744.3981274357456
 30
0.0
  0
ENDBLK
  5
5A02
330
5A00
100
AcDbEntity
  8
0
100
AcDbBlockEnd
  0
BLOCK
  5
5A19
330
5A18
100
AcDbEntity
  8
0
100
AcDbBlockBegin
  2
*D17
 70
     1
 10
0.0
 20
0.0
 30
0.0
  3
*D17
  1

  0
LINE
  5
92B3
330
5A18
100
AcDbEntity
  8
AM_5 寸法線
 62
     3
100
AcDbLine
 10
979.2249390065531
 20
996.3981274357456
 30
0.0
 11
1266.224939006553
 21
996.3981274357456
 31
0.0
  0
LINE
  5
92B4
330
5A18
100
AcDbEntity
  8
AM_5 寸法線
 62
     3
100
AcDbLine
 10
979.2249390065531
 20
716.3981274357456
 30
0.0
 11
1266.224939006553
 21
716.3981274357456
 31
0.0
  0
LINE
  5
92B5
330
5A18
100
AcDbEntity
  8
AM_5 寸法線
 62
     3
100
AcDbLine
 10
1263.724939006553
 20
986.3981274357456
 30
0.0
 11
1263.724939006553
 21
726.3981274357456
 31
0.0
  0
INSERT
  5
92B6
330
5A18
100
AcDbEntity
  8
AM_5 寸法線
 62
     3
100
AcDbBlockReference
  2
_Open30
 10
1263.724939006553
 20
996.3981274357456
 30
0.0
 41
10.0
 42
10.0
 43
10.0
 50
90.0
  0
INSERT
  5
92B7
330
5A18
100
AcDbEntity
  8
AM_5 寸法線
 62
     3
100
AcDbBlockReference
  2
_Open30
 10
1263.724939006553
 20
716.3981274357456
 30
0.0
 41
10.0
 42
10.0
 43
10.0
 50
270.0
  0
MTEXT
  5
92B8
330
5A18
100
AcDbEntity
  8
AM_5 寸法線
 62
     3
100
AcDbMText
 10
1250.724939006553
 20
856.3981274357457
 30
0.0
 40
14.0
 41
0.0
 46
0.0
 71
     5
 72
     1
  1
%%c280
  7
SEISA
 11
0.0000000000000001
 21
1.0
 31
0.0
 73
     1
 44
1.0
  0
POINT
  5
92B9
330
5A18
100
AcDbEntity
  8
Defpoints
 62
     0
100
AcDbPoint
 10
976.7249390065531
 20
996.3981274357456
 30
0.0
  0
POINT
  5
92BA
330
5A18
100
AcDbEntity
  8
Defpoints
 62
     0
100
AcDbPoint
 10
976.7249390065531
 20
716.3981274357456
 30
0.0
  0
POINT
  5
92BB
330
5A18
100
AcDbEntity
  8
Defpoints
 62
     0
100
AcDbPoint
 10
1263.724939006553
 20
716.3981274357456
 30
0.0
  0
ENDBLK
  5
5A1A
330
5A18
100
AcDbEntity
  8
0
100
AcDbBlockEnd
  0
BLOCK
  5
5A78
330
5A77
100
AcDbEntity
  8
0
100
AcDbBlockBegin
  2
*D18
 70
     1
 10
0.0
 20
0.0
 30
0.0
  3
*D18
  1

  0
LINE
  5
96B0
330
5A77
100
AcDbEntity
  8
AM_5 寸法線
 62
     3
100
AcDbLine
 10
666.7249390065533
 20
858.8981274357456
 30
0.0
 11
666.7249390065533
 21
873.4353864357457
 31
0.0
  0
LINE
  5
96B1
330
5A77
100
AcDbEntity
  8
AM_5 寸法線
 62
     3
100
AcDbLine
 10
526.7249390065533
 20
858.8981274357456
 30
0.0
 11
526.7249390065533
 21
873.4353864357457
 31
0.0
  0
LINE
  5
96B2
330
5A77
100
AcDbEntity
  8
AM_5 寸法線
 62
     3
100
AcDbLine
 10
656.7249390065533
 20
870.9353864357456
 30
0.0
 11
536.7249390065532
 21
870.9353864357456
 31
0.0
  0
MTEXT
  5
96B3
330
5A77
100
AcDbEntity
  8
AM_5 寸法線
 62
     3
100
AcDbMText
 10
557.7736585869176
 20
884.2411607212115
 30
0.0
 40
14.0
 41
0.0
 46
0.0
 71
     5
 72
     1
  1
140
  7
SEISA
 73
     1
 44
1.0
  0
INSERT
  5
96B4
330
5A77
100
AcDbEntity
  8
AM_5 寸法線
 62
     3
100
AcDbBlockReference
  2
_Open30
 10
666.7249390065533
 20
870.9353864357456
 30
0.0
 41
10.0
 42
10.0
 43
10.0
  0
INSERT
  5
96B5
330
5A77
100
AcDbEntity
  8
AM_5 寸法線
 62
     3
100
AcDbBlockReference
  2
_Open30
 10
526.7249390065533
 20
870.9353864357456
 30
0.0
 41
10.0
 42
10.0
 43
10.0
 50
180.0
  0
POINT
  5
96B6
330
5A77
100
AcDbEntity
  8
Defpoints
 62
     0
100
AcDbPoint
 10
666.7249390065533
 20
856.3981274357455
 30
0.0
  0
POINT
  5
96B7
330
5A77
100
AcDbEntity
  8
Defpoints
 62
     0
100
AcDbPoint
 10
526.7249390065533
 20
856.3981274357455
 30
0.0
  0
POINT
  5
96B8
330
5A77
100
AcDbEntity
  8
Defpoints
 62
     0
100
AcDbPoint
 10
526.7249390065533
 20
870.9353864357456
 30
0.0
  0
ENDBLK
  5
5A79
330
5A77
100
AcDbEntity
  8
0
100
AcDbBlockEnd
  0
BLOCK
  5
5AE1
330
5AE0
100
AcDbEntity
  8
0
100
AcDbBlockBegin
  2
*D19
 70
     1
 10
0.0
 20
0.0
 30
0.0
  3
*D19
  1

  0
LINE
  5
92CD
330
5AE0
100
AcDbEntity
  8
AM_5 寸法線
 62
     3
100
AcDbLine
 10
963.7249390065532
 20
858.8981274357456
 30
0.0
 11
963.7249390065532
 21
873.4353864357457
 31
0.0
  0
LINE
  5
92CE
330
5AE0
100
AcDbEntity
  8
AM_5 寸法線
 62
     3
100
AcDbLine
 10
1103.724939006553
 20
858.8981274357456
 30
0.0
 11
1103.724939006553
 21
873.4353864357457
 31
0.0
  0
LINE
  5
92CF
330
5AE0
100
AcDbEntity
  8
AM_5 寸法線
 62
     3
100
AcDbLine
 10
973.7249390065532
 20
870.9353864357456
 30
0.0
 11
1093.724939006553
 21
870.9353864357456
 31
0.0
  0
INSERT
  5
92D0
330
5AE0
100
AcDbEntity
  8
AM_5 寸法線
 62
     3
100
AcDbBlockReference
  2
_Open30
 10
963.7249390065532
 20
870.9353864357456
 30
0.0
 41
10.0
 42
10.0
 43
10.0
 50
180.0
  0
INSERT
  5
92D1
330
5AE0
100
AcDbEntity
  8
AM_5 寸法線
 62
     3
100
AcDbBlockReference
  2
_Open30
 10
1103.724939006553
 20
870.9353864357456
 30
0.0
 41
10.0
 42
10.0
 43
10.0
  0
MTEXT
  5
92D2
330
5AE0
100
AcDbEntity
  8
AM_5 寸法線
 62
     3
100
AcDbMText
 10
1033.724939006553
 20
883.9353864357455
 30
0.0
 40
14.0
 41
0.0
 46
0.0
 71
     5
 72
     1
  1
140
  7
SEISA
 73
     1
 44
1.0
  0
POINT
  5
92D3
330
5AE0
100
AcDbEntity
  8
Defpoints
 62
     0
100
AcDbPoint
 10
963.7249390065532
 20
856.3981274357457
 30
0.0
  0
POINT
  5
92D4
330
5AE0
100
AcDbEntity
  8
Defpoints
 62
     0
100
AcDbPoint
 10
1103.724939006553
 20
856.3981274357457
 30
0.0
  0
POINT
  5
92D5
330
5AE0
100
AcDbEntity
  8
Defpoints
 62
     0
100
AcDbPoint
 10
1103.724939006553
 20
870.9353864357456
 30
0.0
  0
ENDBLK
  5
5AE2
330
5AE0
100
AcDbEntity
  8
0
100
AcDbBlockEnd
  0
BLOCK
  5
5ED2
330
5ED1
100
AcDbEntity
  8
0
100
AcDbBlockBegin
  2
*D20
 70
     1
 10
0.0
 20
0.0
 30
0.0
  3
*D20
  1

  0
LINE
  5
92FB
330
5ED1
100
AcDbEntity
  8
AM_5 寸法線
 62
     3
100
AcDbLine
 10
612.2249390065533
 20
949.3981274357457
 30
0.0
 11
612.2249390065533
 21
925.7512574003937
 31
0.0
  0
LINE
  5
92FC
330
5ED1
100
AcDbEntity
  8
AM_5 寸法線
 62
     3
100
AcDbLine
 10
607.7249390065532
 20
948.8981274357456
 30
0.0
 11
607.7249390065532
 21
925.7512574003937
 31
0.0
  0
LINE
  5
92FD
330
5ED1
100
AcDbEntity
  8
AM_5 寸法線
 62
     3
100
AcDbLine
 10
622.2249390065533
 20
928.2512574003936
 30
0.0
 11
632.2249390065532
 21
928.2512574003936
 31
0.0
  0
LINE
  5
92FE
330
5ED1
100
AcDbEntity
  8
AM_5 寸法線
 62
     3
100
AcDbLine
 10
597.7249390065533
 20
928.2512574003936
 30
0.0
 11
549.3249390065533
 21
928.2512574003936
 31
0.0
  0
LINE
  5
92FF
330
5ED1
100
AcDbEntity
  8
AM_5 寸法線
 62
     3
100
AcDbLine
 10
612.2249390065533
 20
928.2512574003936
 30
0.0
 11
607.7249390065532
 21
928.2512574003936
 31
0.0
  0
INSERT
  5
9300
330
5ED1
100
AcDbEntity
  8
AM_5 寸法線
 62
     3
100
AcDbBlockReference
  2
_Open30
 10
612.2249390065533
 20
928.2512574003936
 30
0.0
 41
10.0
 42
10.0
 43
10.0
 50
180.0
  0
INSERT
  5
9301
330
5ED1
100
AcDbEntity
  8
AM_5 寸法線
 62
     3
100
AcDbBlockReference
  2
_Open30
 10
607.7249390065532
 20
928.2512574003936
 30
0.0
 41
10.0
 42
10.0
 43
10.0
  0
MTEXT
  5
9302
330
5ED1
100
AcDbEntity
  8
AM_5 寸法線
 62
     3
100
AcDbMText
 10
568.5249390065532
 20
941.2512574003937
 30
0.0
 40
14.0
 41
0.0
 46
0.0
 71
     5
 72
     1
  1
4.5
  7
SEISA
 73
     1
 44
1.0
  0
POINT
  5
9303
102
{ACAD_REACTORS
330
9635
102
}
330
5ED1
100
AcDbEntity
  8
Defpoints
 62
     0
100
AcDbPoint
 10
612.2249390065533
 20
951.8981274357456
 30
0.0
  0
POINT
  5
9304
330
5ED1
100
AcDbEntity
  8
Defpoints
 62
     0
100
AcDbPoint
 10
607.7249390065532
 20
951.3981274357456
 30
0.0
  0
POINT
  5
9305
330
5ED1
100
AcDbEntity
  8
Defpoints
 62
     0
100
AcDbPoint
 10
607.7249390065532
 20
928.2512574003936
 30
0.0
  0
ENDBLK
  5
5ED3
330
5ED1
100
AcDbEntity
  8
0
100
AcDbBlockEnd
  0
BLOCK
  5
5FB6
330
5FB5
100
AcDbEntity
  8
0
100
AcDbBlockBegin
  2
*D21
 70
     1
 10
0.0
 20
0.0
 30
0.0
  3
*D21
  1

  0
LINE
  5
9311
330
5FB5
100
AcDbEntity
  8
AM_5 寸法線
 62
     3
100
AcDbLine
 10
673.7249390065533
 20
714.8981274357456
 30
0.0
 11
673.7249390065533
 21
653.8981274357456
 31
0.0
  0
LINE
  5
9312
330
5FB5
100
AcDbEntity
  8
AM_5 寸法線
 62
     3
100
AcDbLine
 10
652.7249390065533
 20
714.8981274357456
 30
0.0
 11
652.7249390065533
 21
653.8981274357456
 31
0.0
  0
LINE
  5
9313
330
5FB5
100
AcDbEntity
  8
AM_5 寸法線
 62
     3
100
AcDbLine
 10
683.7249390065533
 20
656.3981274357456
 30
0.0
 11
693.7249390065532
 21
656.3981274357456
 31
0.0
  0
LINE
  5
9314
330
5FB5
100
AcDbEntity
  8
AM_5 寸法線
 62
     3
100
AcDbLine
 10
642.7249390065533
 20
656.3981274357456
 30
0.0
 11
603.9249390065532
 21
656.3981274357456
 31
0.0
  0
LINE
  5
9315
330
5FB5
100
AcDbEntity
  8
AM_5 寸法線
 62
     3
100
AcDbLine
 10
673.7249390065533
 20
656.3981274357456
 30
0.0
 11
652.7249390065533
 21
656.3981274357456
 31
0.0
  0
INSERT
  5
9316
330
5FB5
100
AcDbEntity
  8
AM_5 寸法線
 62
     3
100
AcDbBlockReference
  2
GENDOT
 10
673.7249390065533
 20
656.3981274357456
 30
0.0
 41
10.0
 42
10.0
 43
10.0
 50
180.0
  0
INSERT
  5
9317
330
5FB5
100
AcDbEntity
  8
AM_5 寸法線
 62
     3
100
AcDbBlockReference
  2
_Open30
 10
652.7249390065533
 20
656.3981274357456
 30
0.0
 41
10.0
 42
10.0
 43
10.0
  0
MTEXT
  5
9318
330
5FB5
100
AcDbEntity
  8
AM_5 寸法線
 62
     3
100
AcDbMText
 10
618.3249390065532
 20
669.3981274357456
 30
0.0
 40
14.0
 41
0.0
 46
0.0
 71
     5
 72
     1
  1
21
  7
SEISA
 73
     1
 44
1.0
  0
POINT
  5
9319
330
5FB5
100
AcDbEntity
  8
Defpoints
 62
     0
100
AcDbPoint
 10
673.7249390065533
 20
717.3981274357457
 30
0.0
  0
POINT
  5
931A
330
5FB5
100
AcDbEntity
  8
Defpoints
 62
     0
100
AcDbPoint
 10
652.7249390065533
 20
717.3981274357457
 30
0.0
  0
POINT
  5
931B
330
5FB5
100
AcDbEntity
  8
Defpoints
 62
     0
100
AcDbPoint
 10
652.7249390065533
 20
656.3981274357456
 30
0.0
  0
ENDBLK
  5
5FB7
330
5FB5
100
AcDbEntity
  8
0
100
AcDbBlockEnd
  0
BLOCK
  5
600A
330
6009
100
AcDbEntity
  8
0
100
AcDbBlockBegin
  2
*D22
 70
     1
 10
0.0
 20
0.0
 30
0.0
  3
*D22
  1

  0
LINE
  5
931C
330
6009
100
AcDbEntity
  8
AM_5 寸法線
 62
     3
100
AcDbLine
 10
956.7249390065532
 20
714.8981274357456
 30
0.0
 11
956.7249390065532
 21
653.8981274357456
 31
0.0
  0
LINE
  5
931D
330
6009
100
AcDbEntity
  8
AM_5 寸法線
 62
     3
100
AcDbLine
 10
977.7249390065533
 20
714.8981274357456
 30
0.0
 11
977.7249390065533
 21
653.8981274357456
 31
0.0
  0
LINE
  5
931E
330
6009
100
AcDbEntity
  8
AM_5 寸法線
 62
     3
100
AcDbLine
 10
946.7249390065532
 20
656.3981274357456
 30
0.0
 11
936.7249390065532
 21
656.3981274357456
 31
0.0
  0
LINE
  5
931F
330
6009
100
AcDbEntity
  8
AM_5 寸法線
 62
     3
100
AcDbLine
 10
987.7249390065532
 20
656.3981274357456
 30
0.0
 11
1026.524939006553
 21
656.3981274357456
 31
0.0
  0
LINE
  5
9320
330
6009
100
AcDbEntity
  8
AM_5 寸法線
 62
     3
100
AcDbLine
 10
956.7249390065532
 20
656.3981274357456
 30
0.0
 11
977.7249390065533
 21
656.3981274357456
 31
0.0
  0
INSERT
  5
9321
330
6009
100
AcDbEntity
  8
AM_5 寸法線
 62
     3
100
AcDbBlockReference
  2
GENDOT
 10
956.7249390065532
 20
656.3981274357456
 30
0.0
 41
10.0
 42
10.0
 43
10.0
  0
INSERT
  5
9322
330
6009
100
AcDbEntity
  8
AM_5 寸法線
 62
     3
100
AcDbBlockReference
  2
_Open30
 10
977.7249390065533
 20
656.3981274357456
 30
0.0
 41
10.0
 42
10.0
 43
10.0
 50
180.0
  0
MTEXT
  5
9323
330
6009
100
AcDbEntity
  8
AM_5 寸法線
 62
     3
100
AcDbMText
 10
1012.124939006553
 20
669.3981274357456
 30
0.0
 40
14.0
 41
0.0
 46
0.0
 71
     5
 72
     1
  1
21
  7
SEISA
 73
     1
 44
1.0
  0
POINT
  5
9324
330
6009
100
AcDbEntity
  8
Defpoints
 62
     0
100
AcDbPoint
 10
956.7249390065532
 20
717.3981274357457
 30
0.0
  0
POINT
  5
9325
330
6009
100
AcDbEntity
  8
Defpoints
 62
     0
100
AcDbPoint
 10
977.7249390065533
 20
717.3981274357457
 30
0.0
  0
POINT
  5
9326
330
6009
100
AcDbEntity
  8
Defpoints
 62
     0
100
AcDbPoint
 10
977.7249390065533
 20
656.3981274357456
 30
0.0
  0
ENDBLK
  5
600B
330
6009
100
AcDbEntity
  8
0
100
AcDbBlockEnd
  0
BLOCK
  5
614A
330
6149
100
AcDbEntity
  8
0
100
AcDbBlockBegin
  2
*D23
 70
     1
 10
0.0
 20
0.0
 30
0.0
  3
*D23
  1

  0
LINE
  5
9327
330
6149
100
AcDbEntity
  8
AM_5 寸法線
 62
     3
100
AcDbLine
 10
526.7249390065533
 20
763.6981274357457
 30
0.0
 11
526.7249390065533
 21
613.8981274357456
 31
0.0
  0
LINE
  5
9328
330
6149
100
AcDbEntity
  8
AM_5 寸法線
 62
     3
100
AcDbLine
 10
591.7249390065533
 20
745.8981274357456
 30
0.0
 11
591.7249390065533
 21
613.8981274357456
 31
0.0
  0
LINE
  5
9329
330
6149
100
AcDbEntity
  8
AM_5 寸法線
 62
     3
100
AcDbLine
 10
536.7249390065532
 20
616.3981274357456
 30
0.0
 11
581.7249390065533
 21
616.3981274357456
 31
0.0
  0
INSERT
  5
932A
330
6149
100
AcDbEntity
  8
AM_5 寸法線
 62
     3
100
AcDbBlockReference
  2
_Open30
 10
526.7249390065533
 20
616.3981274357456
 30
0.0
 41
10.0
 42
10.0
 43
10.0
 50
180.0
  0
INSERT
  5
932B
330
6149
100
AcDbEntity
  8
AM_5 寸法線
 62
     3
100
AcDbBlockReference
  2
_Open30
 10
591.7249390065533
 20
616.3981274357456
 30
0.0
 41
10.0
 42
10.0
 43
10.0
  0
MTEXT
  5
932C
330
6149
100
AcDbEntity
  8
AM_5 寸法線
 62
     3
100
AcDbMText
 10
559.2249390065533
 20
629.3981274357456
 30
0.0
 40
14.0
 41
0.0
 46
0.0
 71
     5
 72
     1
  1
65
  7
SEISA
 73
     1
 44
1.0
  0
POINT
  5
932D
330
6149
100
AcDbEntity
  8
Defpoints
 62
     0
100
AcDbPoint
 10
526.7249390065533
 20
766.1981274357457
 30
0.0
  0
POINT
  5
932E
330
6149
100
AcDbEntity
  8
Defpoints
 62
     0
100
AcDbPoint
 10
591.7249390065533
 20
748.3981274357456
 30
0.0
  0
POINT
  5
932F
330
6149
100
AcDbEntity
  8
Defpoints
 62
     0
100
AcDbPoint
 10
591.7249390065533
 20
616.3981274357456
 30
0.0
  0
ENDBLK
  5
614B
330
6149
100
AcDbEntity
  8
0
100
AcDbBlockEnd
  0
BLOCK
  5
6162
330
6161
100
AcDbEntity
  8
0
100
AcDbBlockBegin
  2
*D24
 70
     1
 10
0.0
 20
0.0
 30
0.0
  3
*D24
  1

  0
LINE
  5
9330
330
6161
100
AcDbEntity
  8
AM_5 寸法線
 62
     3
100
AcDbLine
 10
591.7249390065533
 20
745.8981274357456
 30
0.0
 11
591.7249390065533
 21
613.8981274357456
 31
0.0
  0
LINE
  5
9331
330
6161
100
AcDbEntity
  8
AM_5 寸法線
 62
     3
100
AcDbLine
 10
673.7249390065533
 20
714.8981274357456
 30
0.0
 11
673.7249390065533
 21
613.8981274357456
 31
0.0
  0
LINE
  5
9332
330
6161
100
AcDbEntity
  8
AM_5 寸法線
 62
     3
100
AcDbLine
 10
601.7249390065533
 20
616.3981274357456
 30
0.0
 11
663.7249390065533
 21
616.3981274357456
 31
0.0
  0
INSERT
  5
9333
330
6161
100
AcDbEntity
  8
AM_5 寸法線
 62
     3
100
AcDbBlockReference
  2
_Open30
 10
591.7249390065533
 20
616.3981274357456
 30
0.0
 41
10.0
 42
10.0
 43
10.0
 50
180.0
  0
INSERT
  5
9334
330
6161
100
AcDbEntity
  8
AM_5 寸法線
 62
     3
100
AcDbBlockReference
  2
_Open30
 10
673.7249390065533
 20
616.3981274357456
 30
0.0
 41
10.0
 42
10.0
 43
10.0
  0
MTEXT
  5
9335
330
6161
100
AcDbEntity
  8
AM_5 寸法線
 62
     3
100
AcDbMText
 10
632.7249390065532
 20
629.3981274357456
 30
0.0
 40
14.0
 41
0.0
 46
0.0
 71
     5
 72
     1
  1
82
  7
SEISA
 73
     1
 44
1.0
  0
POINT
  5
9336
330
6161
100
AcDbEntity
  8
Defpoints
 62
     0
100
AcDbPoint
 10
591.7249390065533
 20
748.3981274357456
 30
0.0
  0
POINT
  5
9337
330
6161
100
AcDbEntity
  8
Defpoints
 62
     0
100
AcDbPoint
 10
673.7249390065533
 20
717.3981274357457
 30
0.0
  0
POINT
  5
9338
330
6161
100
AcDbEntity
  8
Defpoints
 62
     0
100
AcDbPoint
 10
673.7249390065533
 20
616.3981274357456
 30
0.0
  0
ENDBLK
  5
6163
330
6161
100
AcDbEntity
  8
0
100
AcDbBlockEnd
  0
BLOCK
  5
6192
330
6191
100
AcDbEntity
  8
0
100
AcDbBlockBegin
  2
*D25
 70
     1
 10
0.0
 20
0.0
 30
0.0
  3
*D25
  1

  0
LINE
  5
9341
330
6191
100
AcDbEntity
  8
AM_5 寸法線
 62
     3
100
AcDbLine
 10
956.7249390065532
 20
714.8981274357456
 30
0.0
 11
956.7249390065532
 21
613.8981274357456
 31
0.0
  0
LINE
  5
9342
330
6191
100
AcDbEntity
  8
AM_5 寸法線
 62
     3
100
AcDbLine
 10
1038.724939006553
 20
745.8981274357456
 30
0.0
 11
1038.724939006553
 21
613.8981274357456
 31
0.0
  0
LINE
  5
9343
330
6191
100
AcDbEntity
  8
AM_5 寸法線
 62
     3
100
AcDbLine
 10
966.7249390065531
 20
616.3981274357456
 30
0.0
 11
1028.724939006553
 21
616.3981274357456
 31
0.0
  0
INSERT
  5
9344
330
6191
100
AcDbEntity
  8
AM_5 寸法線
 62
     3
100
AcDbBlockReference
  2
_Open30
 10
956.7249390065532
 20
616.3981274357456
 30
0.0
 41
10.0
 42
10.0
 43
10.0
 50
180.0
  0
INSERT
  5
9345
330
6191
100
AcDbEntity
  8
AM_5 寸法線
 62
     3
100
AcDbBlockReference
  2
_Open30
 10
1038.724939006553
 20
616.3981274357456
 30
0.0
 41
10.0
 42
10.0
 43
10.0
  0
MTEXT
  5
9346
330
6191
100
AcDbEntity
  8
AM_5 寸法線
 62
     3
100
AcDbMText
 10
997.7249390065534
 20
629.3981274357456
 30
0.0
 40
14.0
 41
0.0
 46
0.0
 71
     5
 72
     1
  1
82
  7
SEISA
 73
     1
 44
1.0
  0
POINT
  5
9347
330
6191
100
AcDbEntity
  8
Defpoints
 62
     0
100
AcDbPoint
 10
956.7249390065532
 20
717.3981274357457
 30
0.0
  0
POINT
  5
9348
330
6191
100
AcDbEntity
  8
Defpoints
 62
     0
100
AcDbPoint
 10
1038.724939006553
 20
748.3981274357456
 30
0.0
  0
POINT
  5
9349
330
6191
100
AcDbEntity
  8
Defpoints
 62
     0
100
AcDbPoint
 10
1038.724939006553
 20
616.3981274357456
 30
0.0
  0
ENDBLK
  5
6193
330
6191
100
AcDbEntity
  8
0
100
AcDbBlockEnd
  0
BLOCK
  5
61AA
330
61A9
100
AcDbEntity
  8
0
100
AcDbBlockBegin
  2
*D26
 70
     1
 10
0.0
 20
0.0
 30
0.0
  3
*D26
  1

  0
LINE
  5
934A
330
61A9
100
AcDbEntity
  8
AM_5 寸法線
 62
     3
100
AcDbLine
 10
1038.724939006553
 20
745.8981274357456
 30
0.0
 11
1038.724939006553
 21
613.8981274357456
 31
0.0
  0
LINE
  5
934B
330
61A9
100
AcDbEntity
  8
AM_5 寸法線
 62
     3
100
AcDbLine
 10
1103.724939006553
 20
763.6981274357457
 30
0.0
 11
1103.724939006553
 21
613.8981274357456
 31
0.0
  0
LINE
  5
934C
330
61A9
100
AcDbEntity
  8
AM_5 寸法線
 62
     3
100
AcDbLine
 10
1048.724939006553
 20
616.3981274357456
 30
0.0
 11
1093.724939006553
 21
616.3981274357456
 31
0.0
  0
INSERT
  5
934D
330
61A9
100
AcDbEntity
  8
AM_5 寸法線
 62
     3
100
AcDbBlockReference
  2
_Open30
 10
1038.724939006553
 20
616.3981274357456
 30
0.0
 41
10.0
 42
10.0
 43
10.0
 50
180.0
  0
INSERT
  5
934E
330
61A9
100
AcDbEntity
  8
AM_5 寸法線
 62
     3
100
AcDbBlockReference
  2
_Open30
 10
1103.724939006553
 20
616.3981274357456
 30
0.0
 41
10.0
 42
10.0
 43
10.0
  0
MTEXT
  5
934F
330
61A9
100
AcDbEntity
  8
AM_5 寸法線
 62
     3
100
AcDbMText
 10
1071.224939006553
 20
629.3981274357456
 30
0.0
 40
14.0
 41
0.0
 46
0.0
 71
     5
 72
     1
  1
65
  7
SEISA
 73
     1
 44
1.0
  0
POINT
  5
9350
330
61A9
100
AcDbEntity
  8
Defpoints
 62
     0
100
AcDbPoint
 10
1038.724939006553
 20
748.3981274357456
 30
0.0
  0
POINT
  5
9351
330
61A9
100
AcDbEntity
  8
Defpoints
 62
     0
100
AcDbPoint
 10
1103.724939006553
 20
766.1981274357457
 30
0.0
  0
POINT
  5
9352
330
61A9
100
AcDbEntity
  8
Defpoints
 62
     0
100
AcDbPoint
 10
1103.724939006553
 20
616.3981274357456
 30
0.0
  0
ENDBLK
  5
61AB
330
61A9
100
AcDbEntity
  8
0
100
AcDbBlockEnd
  0
BLOCK
  5
7835
330
7834
100
AcDbEntity
  8
0
100
AcDbBlockBegin
  2
ＧＣスペーサ SAMY280
 70
     0
 10
0.0
 20
0.0
 30
0.0
  3
ＧＣスペーサ SAMY280
  1

  0
LINE
  5
7837
330
7834
100
AcDbEntity
  8
AM_0 外形線1
100
AcDbLine
 10
45.0
 20
-108.1500000000002
 30
0.0
 11
141.6694839725979
 21
-108.1500000000001
 31
0.0
  0
HATCH
  5
7838
330
7834
100
AcDbEntity
  8
AM_8 ハッチング
100
AcDbHatch
 10
0.0
 20
0.0
 30
0.0
210
0.0
220
0.0
230
1.0
  2
_USER
 70
     0
 71
     1
 91
        1
 92
        7
 72
     1
 73
     1
 93
        5
 10
42.71798906476306
 20
108.1499999999995
 42
0.0
 10
25.99999999999989
 20
108.1499999999995
 42
0.0
 10
25.99999999999977
 20
98.04999999999997
 42
0.4142135623730951
 10
30.99999999999977
 20
93.04999999999997
 42
0.0
 10
33.99999999999977
 20
93.04999999999997
 42
0.0
 97
        5
330
7839
330
7894
330
7895
330
783A
330
7897
 75
     0
 76
     0
 52
45.0
 41
1.0
 77
     0
 78
     1
 53
45.0
 43
-446.9722733930543
 44
-558.1029769958111
 45
-0.7071067811865475
 46
0.7071067811865476
 79
     0
 47
0.0506424825518839
 98
        1
 10
33.56754396278973
 20
102.2088969725226
1001
ACAD
1010
0.0
1020
0.0
1030
0.0
  0
LINE
  5
7839
102
{ACAD_REACTORS
330
7838
102
}
330
7834
100
AcDbEntity
  8
AM_0 外形線1
100
AcDbLine
 10
25.99999999999977
 20
108.1499999999995
 30
0.0
 11
141.6694839725982
 21
108.15
 31
0.0
  0
LINE
  5
783A
102
{ACAD_REACTORS
330
7838
102
}
330
7834
100
AcDbEntity
  8
AM_0 外形線1
100
AcDbLine
 10
30.99999999999977
 20
93.04999999999997
 30
0.0
 11
137.7765637222971
 21
93.04999999999971
 31
0.0
  0
LINE
  5
783B
330
7834
100
AcDbEntity
  8
AM_7 中心線
100
AcDbLine
 10
257.0000000000001
 20
-128.0
 30
0.0
 11
309.0
 21
-128.0
 31
0.0
  0
LINE
  5
783C
330
7834
100
AcDbEntity
  8
AM_0 外形線1
100
AcDbLine
 10
147.6694839725982
 20
108.15
 30
0.0
 11
257.0000000000001
 21
108.15
 31
0.0
  0
LINE
  5
783D
330
7834
100
AcDbEntity
  8
AM_0 外形線1
100
AcDbLine
 10
143.7765637222971
 20
93.05000000000021
 30
0.0
 11
252.0000000000004
 21
93.04999999999971
 31
0.0
  0
LINE
  5
783E
330
7834
100
AcDbEntity
  8
AM_0 外形線1
100
AcDbLine
 10
147.6694839725979
 20
-108.1500000000001
 30
0.0
 11
238.0000000000001
 21
-108.1500000000002
 31
0.0
  0
POLYLINE
  5
783F
330
7834
100
AcDbEntity
  8
AM_4 細線
100
AcDb2dPolyline
 66
     1
 10
0.0
 20
0.0
 30
0.0
 70
     2
  0
VERTEX
  5
9AED
330
783F
100
AcDbEntity
  8
AM_4 細線
100
AcDbVertex
100
AcDb2dVertex
 10
147.6694839725982
 20
108.15
 30
0.0
 42
0.041254318999567
  0
VERTEX
  5
9AEE
330
783F
100
AcDbEntity
  8
AM_4 細線
100
AcDbVertex
100
AcDb2dVertex
 10
143.6088103246649
 20
92.0718779496078
 30
0.0
 42
0.062510436426143
 70
     1
  0
VERTEX
  5
9AEF
330
783F
100
AcDbEntity
  8
AM_4 細線
100
AcDbVertex
100
AcDb2dVertex
 10
143.1694839725982
 20
81.11249999999973
 30
0.0
 42
0.0488196463282018
  0
VERTEX
  5
9AF0
330
783F
100
AcDbEntity
  8
AM_4 細線
100
AcDbVertex
100
AcDb2dVertex
 10
146.0970093753064
 20
65.23684623060126
 30
0.0
 42
-0.07009363914024
 70
     1
  0
VERTEX
  5
9AF1
330
783F
100
AcDbEntity
  8
AM_4 細線
100
AcDbVertex
100
AcDb2dVertex
 10
147.669483972598
 20
54.07499999999981
 30
0.0
 42
-0.0826493004002781
  0
VERTEX
  5
9AF2
330
783F
100
AcDbEntity
  8
AM_4 細線
100
AcDbVertex
100
AcDb2dVertex
 10
145.419483972598
 20
40.55625000000008
 30
0.0
 42
0.0826493004002774
 70
     1
  0
VERTEX
  5
9AF3
330
783F
100
AcDbEntity
  8
AM_4 細線
100
AcDbVertex
100
AcDb2dVertex
 10
143.169483972598
 20
27.03749999999991
 30
0.0
 42
0.0826493004002785
  0
VERTEX
  5
9AF4
330
783F
100
AcDbEntity
  8
AM_4 細線
100
AcDbVertex
100
AcDb2dVertex
 10
145.419483972598
 20
13.51874999999973
 30
0.0
 42
-0.0826493004002789
 70
     1
  0
VERTEX
  5
9AF5
330
783F
100
AcDbEntity
  8
AM_4 細線
100
AcDbVertex
100
AcDb2dVertex
 10
147.669483972598
 20
0.0
 30
0.0
 42
-0.0826493004002783
  0
VERTEX
  5
9AF6
330
783F
100
AcDbEntity
  8
AM_4 細線
100
AcDbVertex
100
AcDb2dVertex
 10
145.419483972598
 20
-13.51875000000018
 30
0.0
 42
0.0826493004002778
 70
     1
  0
VERTEX
  5
9AF7
330
783F
100
AcDbEntity
  8
AM_4 細線
100
AcDbVertex
100
AcDb2dVertex
 10
143.169483972598
 20
-27.03749999999991
 30
0.0
 42
0.082649300400279
  0
VERTEX
  5
9AF8
330
783F
100
AcDbEntity
  8
AM_4 細線
100
AcDbVertex
100
AcDb2dVertex
 10
145.419483972598
 20
-40.55625000000008
 30
0.0
 42
-0.0826493004002789
 70
     1
  0
VERTEX
  5
9AF9
330
783F
100
AcDbEntity
  8
AM_4 細線
100
AcDbVertex
100
AcDb2dVertex
 10
147.669483972598
 20
-54.07500000000028
 30
0.0
 42
-0.0700936391402483
  0
VERTEX
  5
9AFA
330
783F
100
AcDbEntity
  8
AM_4 細線
100
AcDbVertex
100
AcDb2dVertex
 10
146.0970093753062
 20
-65.23684623060171
 30
0.0
 42
0.0488196463282001
 70
     1
  0
VERTEX
  5
9AFB
330
783F
100
AcDbEntity
  8
AM_4 細線
100
AcDbVertex
100
AcDb2dVertex
 10
143.1694839725979
 20
-81.11250000000017
 30
0.0
 42
0.0625104364261443
  0
VERTEX
  5
9AFC
330
783F
100
AcDbEntity
  8
AM_4 細線
100
AcDbVertex
100
AcDb2dVertex
 10
143.6088103246646
 20
-92.07187794960828
 30
0.0
 42
0.0412543189995636
 70
     1
  0
VERTEX
  5
9AFD
330
783F
100
AcDbEntity
  8
AM_4 細線
100
AcDbVertex
100
AcDb2dVertex
 10
147.6694839725979
 20
-108.1500000000001
 30
0.0
  0
SEQEND
  5
9AFE
330
783F
100
AcDbEntity
  8
AM_4 細線
  0
POLYLINE
  5
7852
330
7834
100
AcDbEntity
  8
AM_4 細線
100
AcDb2dPolyline
 66
     1
 10
0.0
 20
0.0
 30
0.0
 70
     2
  0
VERTEX
  5
9B00
330
7852
100
AcDbEntity
  8
AM_4 細線
100
AcDbVertex
100
AcDb2dVertex
 10
141.6694839725982
 20
108.15
 30
0.0
 42
0.041254318999567
  0
VERTEX
  5
9B01
330
7852
100
AcDbEntity
  8
AM_4 細線
100
AcDbVertex
100
AcDb2dVertex
 10
137.6088103246649
 20
92.0718779496078
 30
0.0
 42
0.062510436426143
 70
     1
  0
VERTEX
  5
9B02
330
7852
100
AcDbEntity
  8
AM_4 細線
100
AcDbVertex
100
AcDb2dVertex
 10
137.1694839725982
 20
81.11249999999973
 30
0.0
 42
0.0488196463282018
  0
VERTEX
  5
9B03
330
7852
100
AcDbEntity
  8
AM_4 細線
100
AcDbVertex
100
AcDb2dVertex
 10
140.0970093753064
 20
65.23684623060126
 30
0.0
 42
-0.07009363914024
 70
     1
  0
VERTEX
  5
9B04
330
7852
100
AcDbEntity
  8
AM_4 細線
100
AcDbVertex
100
AcDb2dVertex
 10
141.669483972598
 20
54.07499999999981
 30
0.0
 42
-0.0826493004002781
  0
VERTEX
  5
9B05
330
7852
100
AcDbEntity
  8
AM_4 細線
100
AcDbVertex
100
AcDb2dVertex
 10
139.419483972598
 20
40.55625000000008
 30
0.0
 42
0.0826493004002774
 70
     1
  0
VERTEX
  5
9B06
330
7852
100
AcDbEntity
  8
AM_4 細線
100
AcDbVertex
100
AcDb2dVertex
 10
137.169483972598
 20
27.03749999999991
 30
0.0
 42
0.0826493004002785
  0
VERTEX
  5
9B07
330
7852
100
AcDbEntity
  8
AM_4 細線
100
AcDbVertex
100
AcDb2dVertex
 10
139.419483972598
 20
13.51874999999973
 30
0.0
 42
-0.0826493004002789
 70
     1
  0
VERTEX
  5
9B08
330
7852
100
AcDbEntity
  8
AM_4 細線
100
AcDbVertex
100
AcDb2dVertex
 10
141.669483972598
 20
0.0
 30
0.0
 42
-0.0826493004002783
  0
VERTEX
  5
9B09
330
7852
100
AcDbEntity
  8
AM_4 細線
100
AcDbVertex
100
AcDb2dVertex
 10
139.419483972598
 20
-13.51875000000018
 30
0.0
 42
0.0826493004002778
 70
     1
  0
VERTEX
  5
9B0A
330
7852
100
AcDbEntity
  8
AM_4 細線
100
AcDbVertex
100
AcDb2dVertex
 10
137.169483972598
 20
-27.03749999999991
 30
0.0
 42
0.082649300400279
  0
VERTEX
  5
9B0B
330
7852
100
AcDbEntity
  8
AM_4 細線
100
AcDbVertex
100
AcDb2dVertex
 10
139.419483972598
 20
-40.55625000000008
 30
0.0
 42
-0.0826493004002789
 70
     1
  0
VERTEX
  5
9B0C
330
7852
100
AcDbEntity
  8
AM_4 細線
100
AcDbVertex
100
AcDb2dVertex
 10
141.669483972598
 20
-54.07500000000028
 30
0.0
 42
-0.0700936391402483
  0
VERTEX
  5
9B0D
330
7852
100
AcDbEntity
  8
AM_4 細線
100
AcDbVertex
100
AcDb2dVertex
 10
140.0970093753062
 20
-65.23684623060171
 30
0.0
 42
0.0488196463282001
 70
     1
  0
VERTEX
  5
9B0E
330
7852
100
AcDbEntity
  8
AM_4 細線
100
AcDbVertex
100
AcDb2dVertex
 10
137.1694839725979
 20
-81.11250000000017
 30
0.0
 42
0.0625104364261443
  0
VERTEX
  5
9B0F
330
7852
100
AcDbEntity
  8
AM_4 細線
100
AcDbVertex
100
AcDb2dVertex
 10
137.6088103246646
 20
-92.07187794960828
 30
0.0
 42
0.0412543189995636
 70
     1
  0
VERTEX
  5
9B10
330
7852
100
AcDbEntity
  8
AM_4 細線
100
AcDbVertex
100
AcDb2dVertex
 10
141.6694839725979
 20
-108.1500000000001
 30
0.0
  0
SEQEND
  5
9B11
330
7852
100
AcDbEntity
  8
AM_4 細線
  0
LINE
  5
7865
330
7834
100
AcDbEntity
  8
AM_0 外形線1
100
AcDbLine
 10
283.0000000000001
 20
0.0000000000002274
 30
0.0
 11
283.0000000000001
 21
-139.5
 31
0.0
  0
LINE
  5
7866
330
7834
100
AcDbEntity
  8
AM_0 外形線1
100
AcDbLine
 10
282.5000000000001
 20
-140.0
 30
0.0
 11
283.0000000000001
 21
-139.5
 31
0.0
1001
GENIUS_GENFIL_13
1070
     0
1040
0.5
1040
0.5
1040
0.500000000000057
1040
44.99999999999348
1000
~T
1001
GENIUS_GENOREF_13
1005
78A6
  0
LINE
  5
7867
330
7834
100
AcDbEntity
  8
AM_0 外形線1
100
AcDbLine
 10
282.5000000000001
 20
-140.0
 30
0.0
 11
263.0000000000001
 21
-140.0
 31
0.0
  0
LINE
  5
7868
330
7834
100
AcDbEntity
  8
AM_0 外形線1
100
AcDbLine
 10
262.0
 20
-139.0
 30
0.0
 11
263.0000000000001
 21
-140.0
 31
0.0
1001
GENIUS_GENFIL_13
1070
     0
1040
1.0
1040
1.0
1040
1.000000000000055
1040
45.0
1000
~T
1001
GENIUS_GENOREF_13
1005
78A5
  0
LINE
  5
7869
330
7834
100
AcDbEntity
  8
AM_0 外形線1
100
AcDbLine
 10
262.0
 20
-139.0
 30
0.0
 11
262.0
 21
0.0000000000002274
 31
0.0
  0
LINE
  5
786A
330
7834
100
AcDbEntity
  8
AM_0 外形線1
100
AcDbLine
 10
257.0000000000001
 20
-118.0000000000002
 30
0.0
 11
257.0000000000015
 21
0.0
 31
0.0
  0
LINE
  5
786B
330
7834
100
AcDbEntity
  8
AM_0 外形線1
100
AcDbLine
 10
262.0
 20
-118.0000000000002
 30
0.0
 11
257.0000000000001
 21
-118.0000000000002
 31
0.0
  0
ARC
  5
786C
330
7834
100
AcDbEntity
  8
AM_0 外形線1
100
AcDbCircle
 10
238.0000000000001
 20
-118.1500000000003
 30
0.0
 40
10.0
100
AcDbArc
 50
58.69656700403421
 51
90.0
  0
LINE
  5
786D
330
7834
100
AcDbEntity
  8
AM_0 外形線1
100
AcDbLine
 10
257.0000000000001
 20
-118.0000000000002
 30
0.0
 11
243.1957030762741
 21
-109.6057229947063
 31
0.0
  0
LINE
  5
786E
330
7834
100
AcDbEntity
  8
AM_0 外形線1
100
AcDbLine
 10
283.0
 20
111.4999999999999
 30
0.0
 11
283.0
 21
120.9999999999994
 31
0.0
  0
LINE
  5
786F
330
7834
100
AcDbEntity
  8
AM_0 外形線1
100
AcDbLine
 10
282.5
 20
110.9999999999999
 30
0.0
 11
283.0
 21
111.4999999999999
 31
0.0
1001
GENIUS_GENFIL_13
1070
     0
1040
0.5
1040
0.5
1040
0.500000000000057
1040
45.0
1000
~T
1001
GENIUS_GENOREF_13
1005
78A4
  0
LINE
  5
7870
330
7834
100
AcDbEntity
  8
AM_0 外形線1
100
AcDbLine
 10
282.5
 20
139.9999999999999
 30
0.0
 11
283.0
 21
139.4999999999999
 31
0.0
1001
GENIUS_GENFIL_13
1070
     0
1040
0.5
1040
0.5
1040
0.500000000000057
1040
45.0
1000
~T
1001
GENIUS_GENOREF_13
1005
78A3
  0
LINE
  5
7871
330
7834
100
AcDbEntity
  8
AM_0 外形線1
100
AcDbLine
 10
278.0000000000002
 20
0.0
 30
0.0
 11
278.0000000000001
 21
110.9999999999999
 31
0.0
  0
LINE
  5
7872
330
7834
100
AcDbEntity
  8
AM_0 外形線1
100
AcDbLine
 10
247.0000000000005
 20
0.0
 30
0.0
 11
247.0000000000003
 21
93.04999999999997
 31
0.0
  0
LINE
  5
7873
330
7834
100
AcDbEntity
  8
AM_0 外形線1
100
AcDbLine
 10
282.5
 20
139.9999999999999
 30
0.0
 11
263.0000000000001
 21
139.9999999999999
 31
0.0
  0
LINE
  5
7874
330
7834
100
AcDbEntity
  8
AM_0 外形線1
100
AcDbLine
 10
262.0
 20
138.9999999999999
 30
0.0
 11
263.0000000000001
 21
139.9999999999999
 31
0.0
1001
GENIUS_GENFIL_13
1070
     0
1040
1.0
1040
1.0
1040
1.000000000000055
1040
45.0
1000
~T
1001
GENIUS_GENOREF_13
1005
78A2
  0
LINE
  5
7875
330
7834
100
AcDbEntity
  8
AM_0 外形線1
100
AcDbLine
 10
278.0000000000001
 20
110.9999999999999
 30
0.0
 11
282.5
 21
110.9999999999999
 31
0.0
  0
LINE
  5
7876
330
7834
100
AcDbEntity
  8
AM_0 外形線1
100
AcDbLine
 10
262.0
 20
138.9999999999999
 30
0.0
 11
262.0
 21
117.9999999999999
 31
0.0
  0
LINE
  5
7877
330
7834
100
AcDbEntity
  8
AM_0 外形線1
100
AcDbLine
 10
257.0000000000001
 20
117.9999999999999
 30
0.0
 11
257.0000000000003
 21
98.04999999999997
 31
0.0
  0
ARC
  5
7878
330
7834
100
AcDbEntity
  8
AM_0 外形線1
100
AcDbCircle
 10
252.0000000000004
 20
98.04999999999997
 30
0.0
 40
5.0
100
AcDbArc
 50
270.0
 51
0.0
1001
GENIUS_GENODEF_13
1002
{
1000
HIER
1070
     0
1002
}
1002
{
1000
MANEDIT
1070
     0
1002
}
1002
{
1000
NOSEL
1070
     0
1002
}
1002
{
1000
BEHIND
1070
     0
1002
}
1002
{
1000
OTHER
1070
     0
1002
}
1002
{
1000
REACTOR
1002
}
1001
GENIUS_GENOBJ-N-FIL_13
1002
{
1000
OWNER
1000
GEN
1002
}
  0
LINE
  5
7879
330
7834
100
AcDbEntity
  8
AM_0 外形線1
100
AcDbLine
 10
262.0
 20
117.9999999999999
 30
0.0
 11
257.0000000000001
 21
117.9999999999999
 31
0.0
  0
LINE
  5
787A
330
7834
100
AcDbEntity
  8
AM_0 外形線1
100
AcDbLine
 10
249.0000000000003
 20
93.04999999999997
 30
0.0
 11
240.2820109352368
 21
108.15
 31
0.0
  0
ARC
  5
787B
330
7834
100
AcDbEntity
  8
AM_0 外形線1
100
AcDbCircle
 10
238.0000000000001
 20
118.1499999999999
 30
0.0
 40
10.0
100
AcDbArc
 50
270.0
 51
301.3034329959658
  0
LINE
  5
787C
330
7834
100
AcDbEntity
  8
AM_0 外形線1
100
AcDbLine
 10
257.0000000000001
 20
117.9999999999999
 30
0.0
 11
243.1957030762741
 21
109.6057229947058
 31
0.0
  0
HATCH
  5
787D
330
7834
100
AcDbEntity
  8
AM_8 ハッチング
100
AcDbHatch
 10
0.0
 20
0.0
 30
0.0
210
0.0
220
0.0
230
1.0
  2
_USER
 70
     0
 71
     0
 91
        1
 92
        1
 93
        4
 72
     1
 10
243.1957030762741
 20
109.6057229947058
 11
257.0000000000001
 21
117.9999999999999
 72
     1
 10
257.0000000000001
 20
117.9999999999999
 11
257.0000000000001
 21
108.15
 72
     1
 10
257.0000000000001
 20
108.15
 11
238.0000000000001
 21
108.15
 72
     2
 10
238.0000000000001
 20
118.1499999999999
 40
9.999999999999943
 50
270.0000000000002
 51
301.3034329959651
 73
     1
 97
        0
 75
     0
 76
     0
 52
45.0
 41
1.0
 77
     0
 78
     1
 53
45.0
 43
-537.3377966922427
 44
-558.1029769958111
 45
-0.7071067811865475
 46
0.7071067811865476
 79
     0
 98
        1
 10
121.1852931613879
 20
-250.1121349352529
1001
GENIUS_GENOBJ-N-HTC_13
1002
{
1000
OWNER
1000
GEN
1002
}
1001
GENIUS_GENODEF_13
1002
{
1000
HIER
1070
     0
1002
}
1002
{
1000
MANEDIT
1070
     0
1002
}
1002
{
1000
NOSEL
1070
     0
1002
}
1002
{
1000
BEHIND
1070
     0
1002
}
1002
{
1000
OTHER
1070
     0
1002
}
1002
{
1000
REACTOR
1002
}
1001
GENIUS_GENHATCH_13
1002
{
1000
DATA
1040
45.0
1042
-0.5
1000
_U
1070
     0
1011
215.1758096144425
1021
109.9603307364654
1031
0.0
1002
}
1002
{
1000
UCS
1010
0.0
1020
0.0
1030
0.0
1010
1.0
1020
0.0
1030
0.0
1010
0.0
1020
1.0
1030
0.0
1002
}
1001
ACAD
1010
0.0
1020
0.0
1030
0.0
  0
HATCH
  5
787E
330
7834
100
AcDbEntity
  8
AM_8 ハッチング
100
AcDbHatch
 10
0.0
 20
0.0
 30
0.0
210
0.0
220
0.0
230
1.0
  2
_USER
 70
     0
 71
     0
 91
        1
 92
        1
 93
        6
 72
     1
 10
257.0000000000001
 20
108.15
 11
257.0000000000002
 21
98.04999999999985
 72
     2
 10
252.0000000000004
 20
98.04999999999971
 40
5.0
 50
359.9999999999987
 51
450.0
 73
     0
 72
     1
 10
252.0000000000004
 20
93.04999999999997
 11
249.0000000000003
 21
93.04999999999997
 72
     1
 10
249.0000000000003
 20
93.04999999999997
 11
240.2820109352368
 21
108.1500000000001
 72
     1
 10
240.2820109352368
 20
108.15
 11
252.3581363410261
 21
108.15
 72
     1
 10
252.3581363410261
 20
108.15
 11
257.0000000000001
 21
108.15
 97
        0
 75
     0
 76
     0
 52
45.0
 41
1.0
 77
     0
 78
     1
 53
45.0
 43
-537.3377966922427
 44
-558.1029769958111
 45
-0.7071067811865475
 46
0.7071067811865476
 79
     0
 98
        1
 10
121.1852931613879
 20
-250.1121349352529
1001
GENIUS_GENOBJ-N-HTC_13
1002
{
1000
OWNER
1000
GEN
1002
}
1001
GENIUS_GENODEF_13
1002
{
1000
HIER
1070
     0
1002
}
1002
{
1000
MANEDIT
1070
     0
1002
}
1002
{
1000
NOSEL
1070
     0
1002
}
1002
{
1000
BEHIND
1070
     0
1002
}
1002
{
1000
OTHER
1070
     0
1002
}
1002
{
1000
REACTOR
1002
}
1001
GENIUS_GENHATCH_13
1002
{
1000
DATA
1040
45.0
1042
-0.5
1000
_U
1070
     0
1011
218.4825877877764
1021
106.6114859644916
1031
0.0
1002
}
1002
{
1000
UCS
1010
0.0
1020
0.0
1030
0.0
1010
1.0
1020
0.0
1030
0.0
1010
0.0
1020
1.0
1030
0.0
1002
}
1001
ACAD
1010
0.0
1020
0.0
1030
0.0
  0
LINE
  5
787F
330
7834
100
AcDbEntity
  8
AM_0 外形線1
100
AcDbLine
 10
262.0
 20
134.9999999999994
 30
0.0
 11
283.0000000000001
 21
134.9999999999994
 31
0.0
  0
LINE
  5
7880
330
7834
100
AcDbEntity
  8
AM_0 外形線1
100
AcDbLine
 10
262.0
 20
120.9999999999994
 30
0.0
 11
283.0000000000001
 21
120.9999999999994
 31
0.0
  0
LINE
  5
7881
330
7834
100
AcDbEntity
  8
AM_7 中心線
100
AcDbLine
 10
26.0
 20
-128.0
 30
0.0
 11
-26.0
 21
-128.0
 31
0.0
  0
LINE
  5
7882
330
7834
100
AcDbEntity
  8
AM_0 外形線1
100
AcDbLine
 10
0.0
 20
0.0
 30
0.0
 11
0.0
 21
-139.5
 31
0.0
  0
LINE
  5
7883
330
7834
100
AcDbEntity
  8
AM_0 外形線1
100
AcDbLine
 10
0.5
 20
-140.0
 30
0.0
 11
0.0
 21
-139.5
 31
0.0
1001
GENIUS_GENFIL_13
1070
     0
1040
0.5
1040
0.5
1040
0.500000000000057
1040
44.99999999999348
1000
~T
1001
GENIUS_GENOREF_13
1005
78A1
  0
LINE
  5
7884
330
7834
100
AcDbEntity
  8
AM_0 外形線1
100
AcDbLine
 10
0.5
 20
-140.0
 30
0.0
 11
20.0
 21
-140.0
 31
0.0
  0
LINE
  5
7885
330
7834
100
AcDbEntity
  8
AM_0 外形線1
100
AcDbLine
 10
21.0
 20
-139.0
 30
0.0
 11
20.0
 21
-140.0
 31
0.0
1001
GENIUS_GENFIL_13
1070
     0
1040
1.0
1040
1.0
1040
1.000000000000055
1040
45.0
1000
~T
1001
GENIUS_GENOREF_13
1005
78A0
  0
LINE
  5
7886
330
7834
100
AcDbEntity
  8
AM_0 外形線1
100
AcDbLine
 10
21.0
 20
-139.0
 30
0.0
 11
21.0
 21
0.0000000000002274
 31
0.0
  0
LINE
  5
7887
330
7834
100
AcDbEntity
  8
AM_0 外形線1
100
AcDbLine
 10
26.0
 20
-118.0000000000002
 30
0.0
 11
25.99999999999875
 21
0.0
 31
0.0
  0
LINE
  5
7888
330
7834
100
AcDbEntity
  8
AM_0 外形線1
100
AcDbLine
 10
21.0
 20
-118.0000000000002
 30
0.0
 11
26.0
 21
-118.0000000000002
 31
0.0
  0
ARC
  5
7889
330
7834
100
AcDbEntity
  8
AM_0 外形線1
100
AcDbCircle
 10
45.0
 20
-118.1500000000003
 30
0.0
 40
10.0
100
AcDbArc
 50
90.0
 51
121.3034329959657
  0
LINE
  5
788A
330
7834
100
AcDbEntity
  8
AM_0 外形線1
100
AcDbLine
 10
26.0
 20
-118.0000000000002
 30
0.0
 11
39.80429692372616
 21
-109.6057229947063
 31
0.0
  0
LINE
  5
788B
330
7834
100
AcDbEntity
  8
AM_0 外形線1
100
AcDbLine
 10
0.0
 20
111.4999999999999
 30
0.0
 11
0.0000000000001137
 21
120.9999999999994
 31
0.0
  0
LINE
  5
788C
330
7834
100
AcDbEntity
  8
AM_0 外形線1
100
AcDbLine
 10
0.5
 20
110.9999999999999
 30
0.0
 11
0.0
 21
111.4999999999999
 31
0.0
1001
GENIUS_GENFIL_13
1070
     0
1040
0.5
1040
0.5
1040
0.500000000000057
1040
45.0
1000
~T
1001
GENIUS_GENOREF_13
1005
789F
  0
LINE
  5
788D
330
7834
100
AcDbEntity
  8
AM_0 外形線1
100
AcDbLine
 10
0.5
 20
139.9999999999999
 30
0.0
 11
0.0
 21
139.4999999999999
 31
0.0
1001
GENIUS_GENFIL_13
1070
     0
1040
0.5
1040
0.5
1040
0.500000000000057
1040
45.0
1000
~T
1001
GENIUS_GENOREF_13
1005
789E
  0
LINE
  5
788E
330
7834
100
AcDbEntity
  8
AM_0 外形線1
100
AcDbLine
 10
4.999999999999886
 20
0.0
 30
0.0
 11
5.0
 21
110.9999999999999
 31
0.0
  0
LINE
  5
788F
330
7834
100
AcDbEntity
  8
AM_0 外形線1
100
AcDbLine
 10
35.99999999999966
 20
0.0
 30
0.0
 11
35.99999999999977
 21
93.04999999999997
 31
0.0
  0
LINE
  5
7890
330
7834
100
AcDbEntity
  8
AM_0 外形線1
100
AcDbLine
 10
0.5
 20
139.9999999999999
 30
0.0
 11
20.0
 21
139.9999999999999
 31
0.0
  0
LINE
  5
7891
330
7834
100
AcDbEntity
  8
AM_0 外形線1
100
AcDbLine
 10
21.0
 20
138.9999999999999
 30
0.0
 11
20.0
 21
139.9999999999999
 31
0.0
1001
GENIUS_GENFIL_13
1070
     0
1040
1.0
1040
1.0
1040
1.000000000000055
1040
45.0
1000
~T
1001
GENIUS_GENOREF_13
1005
789D
  0
LINE
  5
7892
330
7834
100
AcDbEntity
  8
AM_0 外形線1
100
AcDbLine
 10
5.0
 20
110.9999999999999
 30
0.0
 11
0.5
 21
110.9999999999999
 31
0.0
  0
LINE
  5
7893
330
7834
100
AcDbEntity
  8
AM_0 外形線1
100
AcDbLine
 10
21.0
 20
138.9999999999999
 30
0.0
 11
21.0
 21
117.9999999999999
 31
0.0
  0
LINE
  5
7894
102
{ACAD_REACTORS
330
7838
102
}
330
7834
100
AcDbEntity
  8
AM_0 外形線1
100
AcDbLine
 10
26.0
 20
117.9999999999999
 30
0.0
 11
25.99999999999977
 21
98.04999999999997
 31
0.0
  0
ARC
  5
7895
102
{ACAD_REACTORS
330
7838
102
}
330
7834
100
AcDbEntity
  8
AM_0 外形線1
100
AcDbCircle
 10
30.99999999999977
 20
98.04999999999997
 30
0.0
 40
5.0
100
AcDbArc
 50
180.0
 51
270.0
1001
GENIUS_GENODEF_13
1002
{
1000
HIER
1070
     0
1002
}
1002
{
1000
MANEDIT
1070
     0
1002
}
1002
{
1000
NOSEL
1070
     0
1002
}
1002
{
1000
BEHIND
1070
     0
1002
}
1002
{
1000
OTHER
1070
     0
1002
}
1002
{
1000
REACTOR
1002
}
1001
GENIUS_GENOBJ-N-FIL_13
1002
{
1000
OWNER
1000
GEN
1002
}
  0
LINE
  5
7896
330
7834
100
AcDbEntity
  8
AM_0 外形線1
100
AcDbLine
 10
21.0
 20
117.9999999999999
 30
0.0
 11
26.0
 21
117.9999999999999
 31
0.0
  0
LINE
  5
7897
102
{ACAD_REACTORS
330
7838
102
}
330
7834
100
AcDbEntity
  8
AM_0 外形線1
100
AcDbLine
 10
33.99999999999977
 20
93.04999999999997
 30
0.0
 11
42.71798906476329
 21
108.15
 31
0.0
  0
ARC
  5
7898
330
7834
100
AcDbEntity
  8
AM_0 外形線1
100
AcDbCircle
 10
45.0
 20
118.1499999999999
 30
0.0
 40
10.0
100
AcDbArc
 50
238.6965670040342
 51
270.0
  0
LINE
  5
7899
330
7834
100
AcDbEntity
  8
AM_0 外形線1
100
AcDbLine
 10
26.0
 20
117.9999999999999
 30
0.0
 11
39.80429692372604
 21
109.6057229947058
 31
0.0
  0
HATCH
  5
789A
330
7834
100
AcDbEntity
  8
AM_8 ハッチング
100
AcDbHatch
 10
0.0
 20
0.0
 30
0.0
210
0.0
220
0.0
230
1.0
  2
_USER
 70
     0
 71
     0
 91
        1
 92
        1
 93
        4
 72
     1
 10
39.80429692372604
 20
109.6057229947058
 11
26.0
 21
117.9999999999999
 72
     1
 10
26.0
 20
117.9999999999999
 11
26.0
 21
108.15
 72
     1
 10
26.0
 20
108.15
 11
45.0
 21
108.15
 72
     2
 10
45.0
 20
118.1499999999999
 40
9.999999999999943
 50
90.00000000000026
 51
121.303432995965
 73
     0
 97
        0
 75
     0
 76
     0
 52
45.0
 41
1.0
 77
     0
 78
     1
 53
45.0
 43
-446.9722733930543
 44
-558.1029769958111
 45
-0.7071067811865475
 46
0.7071067811865476
 79
     0
 98
        1
 10
161.8147068386122
 20
-250.1121349352529
1001
GENIUS_GENOBJ-N-HTC_13
1002
{
1000
OWNER
1000
GEN
1002
}
1001
GENIUS_GENODEF_13
1002
{
1000
HIER
1070
     0
1002
}
1002
{
1000
MANEDIT
1070
     0
1002
}
1002
{
1000
NOSEL
1070
     0
1002
}
1002
{
1000
BEHIND
1070
     0
1002
}
1002
{
1000
OTHER
1070
     0
1002
}
1002
{
1000
REACTOR
1002
}
1001
GENIUS_GENHATCH_13
1002
{
1000
DATA
1040
45.0
1042
0.5
1000
_U
1070
     0
1011
33.94864183230789
1021
109.9603307364654
1031
0.0
1002
}
1002
{
1000
UCS
1010
0.0
1020
0.0
1030
0.0
1010
1.0
1020
0.0
1030
0.0
1010
0.0
1020
1.0
1030
0.0
1002
}
1001
ACAD
1010
0.0
1020
0.0
1030
0.0
  0
LINE
  5
789B
330
7834
100
AcDbEntity
  8
AM_0 外形線1
100
AcDbLine
 10
21.0
 20
134.9999999999994
 30
0.0
 11
0.0
 21
134.9999999999994
 31
0.0
  0
LINE
  5
789C
330
7834
100
AcDbEntity
  8
AM_0 外形線1
100
AcDbLine
 10
21.0
 20
120.9999999999994
 30
0.0
 11
0.0
 21
120.9999999999994
 31
0.0
  0
POINT
  5
789D
330
7834
100
AcDbEntity
  8
0
 60
     1
100
AcDbPoint
 10
2165.888231024654
 20
3701.118687986109
 30
0.0
1001
GENIUS_GENOBJ-N-CHA_13
1002
{
1000
OWNER
1000
GEN
1002
}
1001
GENIUS_GENOENT_13
1002
{
1000
MYREF
1005
789D
1002
}
1002
{
1000
GRP
1005
0
1002
}
1001
GENIUS_GENODEF_13
1002
{
1000
HIER
1070
     1
1002
}
1002
{
1000
MANEDIT
1070
     1
1002
}
1002
{
1000
NOSEL
1070
     0
1002
}
1002
{
1000
BEHIND
1070
     0
1002
}
1002
{
1000
OTHER
1070
     0
1002
}
1002
{
1000
REACTOR
1002
}
1001
GENIUS_GENOLIS_13
1002
{
1000
ENT
1005
7891
1002
}
  0
POINT
  5
789E
330
7834
100
AcDbEntity
  8
0
 60
     1
100
AcDbPoint
 10
2165.888231024654
 20
3701.118687986109
 30
0.0
1001
GENIUS_GENOENT_13
1002
{
1000
MYREF
1005
789E
1002
}
1002
{
1000
GRP
1005
0
1002
}
1001
GENIUS_GENOBJ-N-CHA_13
1002
{
1000
OWNER
1000
GEN
1002
}
1001
GENIUS_GENODEF_13
1002
{
1000
HIER
1070
     1
1002
}
1002
{
1000
MANEDIT
1070
     1
1002
}
1002
{
1000
NOSEL
1070
     0
1002
}
1002
{
1000
BEHIND
1070
     0
1002
}
1002
{
1000
OTHER
1070
     0
1002
}
1002
{
1000
REACTOR
1002
}
1001
GENIUS_GENOLIS_13
1002
{
1000
ENT
1005
788D
1002
}
  0
POINT
  5
789F
330
7834
100
AcDbEntity
  8
0
 60
     1
100
AcDbPoint
 10
2165.888231024654
 20
3701.118687986109
 30
0.0
1001
GENIUS_GENOENT_13
1002
{
1000
MYREF
1005
789F
1002
}
1002
{
1000
GRP
1005
0
1002
}
1001
GENIUS_GENOBJ-N-CHA_13
1002
{
1000
OWNER
1000
GEN
1002
}
1001
GENIUS_GENODEF_13
1002
{
1000
HIER
1070
     1
1002
}
1002
{
1000
MANEDIT
1070
     1
1002
}
1002
{
1000
NOSEL
1070
     0
1002
}
1002
{
1000
BEHIND
1070
     0
1002
}
1002
{
1000
OTHER
1070
     0
1002
}
1002
{
1000
REACTOR
1002
}
1001
GENIUS_GENOLIS_13
1002
{
1000
ENT
1005
788C
1002
}
  0
POINT
  5
78A0
330
7834
100
AcDbEntity
  8
0
 60
     1
100
AcDbPoint
 10
3511.312291266524
 20
3844.57775089854
 30
0.0
 50
180.0
1001
GENIUS_GENODEF_13
1002
{
1000
HIER
1070
     1
1002
}
1002
{
1000
MANEDIT
1070
     0
1002
}
1002
{
1000
NOSEL
1070
     0
1002
}
1002
{
1000
BEHIND
1070
     0
1002
}
1002
{
1000
OTHER
1070
     0
1002
}
1002
{
1000
REACTOR
1002
}
1001
GENIUS_GENOBJ-N-CHA_13
1002
{
1000
OWNER
1000
GEN
1002
}
1001
GENIUS_GENOENT_13
1002
{
1000
MYREF
1005
78A0
1002
}
1002
{
1000
GRP
1005
0
1002
}
1001
GENIUS_GENOLIS_13
1002
{
1000
ENT
1005
7885
1002
}
  0
POINT
  5
78A1
330
7834
100
AcDbEntity
  8
0
 60
     1
100
AcDbPoint
 10
3511.312291266524
 20
3844.57775089854
 30
0.0
 50
180.0
1001
GENIUS_GENODEF_13
1002
{
1000
HIER
1070
     1
1002
}
1002
{
1000
MANEDIT
1070
     0
1002
}
1002
{
1000
NOSEL
1070
     0
1002
}
1002
{
1000
BEHIND
1070
     0
1002
}
1002
{
1000
OTHER
1070
     0
1002
}
1002
{
1000
REACTOR
1002
}
1001
GENIUS_GENOENT_13
1002
{
1000
MYREF
1005
78A1
1002
}
1002
{
1000
GRP
1005
0
1002
}
1001
GENIUS_GENOLIS_13
1002
{
1000
ENT
1005
7883
1002
}
1001
GENIUS_GENOBJ-N-CHA_13
1002
{
1000
OWNER
1000
GEN
1002
}
  0
POINT
  5
78A2
330
7834
100
AcDbEntity
  8
0
 60
     1
100
AcDbPoint
 10
2165.888231024654
 20
3701.118687986109
 30
0.0
1001
GENIUS_GENOBJ-N-CHA_13
1002
{
1000
OWNER
1000
GEN
1002
}
1001
GENIUS_GENOENT_13
1002
{
1000
MYREF
1005
78A2
1002
}
1002
{
1000
GRP
1005
0
1002
}
1001
GENIUS_GENODEF_13
1002
{
1000
HIER
1070
     1
1002
}
1002
{
1000
MANEDIT
1070
     1
1002
}
1002
{
1000
NOSEL
1070
     0
1002
}
1002
{
1000
BEHIND
1070
     0
1002
}
1002
{
1000
OTHER
1070
     0
1002
}
1002
{
1000
REACTOR
1002
}
1001
GENIUS_GENOLIS_13
1002
{
1000
ENT
1005
7874
1002
}
  0
POINT
  5
78A3
330
7834
100
AcDbEntity
  8
0
 60
     1
100
AcDbPoint
 10
2165.888231024654
 20
3701.118687986109
 30
0.0
1001
GENIUS_GENOBJ-N-CHA_13
1002
{
1000
OWNER
1000
GEN
1002
}
1001
GENIUS_GENOENT_13
1002
{
1000
MYREF
1005
78A3
1002
}
1002
{
1000
GRP
1005
0
1002
}
1001
GENIUS_GENODEF_13
1002
{
1000
HIER
1070
     1
1002
}
1002
{
1000
MANEDIT
1070
     1
1002
}
1002
{
1000
NOSEL
1070
     0
1002
}
1002
{
1000
BEHIND
1070
     0
1002
}
1002
{
1000
OTHER
1070
     0
1002
}
1002
{
1000
REACTOR
1002
}
1001
GENIUS_GENOLIS_13
1002
{
1000
ENT
1005
7870
1002
}
  0
POINT
  5
78A4
330
7834
100
AcDbEntity
  8
0
 60
     1
100
AcDbPoint
 10
2165.888231024654
 20
3701.118687986109
 30
0.0
1001
GENIUS_GENOENT_13
1002
{
1000
MYREF
1005
78A4
1002
}
1002
{
1000
GRP
1005
0
1002
}
1001
GENIUS_GENOBJ-N-CHA_13
1002
{
1000
OWNER
1000
GEN
1002
}
1001
GENIUS_GENODEF_13
1002
{
1000
HIER
1070
     1
1002
}
1002
{
1000
MANEDIT
1070
     1
1002
}
1002
{
1000
NOSEL
1070
     0
1002
}
1002
{
1000
BEHIND
1070
     0
1002
}
1002
{
1000
OTHER
1070
     0
1002
}
1002
{
1000
REACTOR
1002
}
1001
GENIUS_GENOLIS_13
1002
{
1000
ENT
1005
786F
1002
}
  0
POINT
  5
78A5
330
7834
100
AcDbEntity
  8
0
 60
     1
100
AcDbPoint
 10
2087.774240868082
 20
3844.57775089854
 30
0.0
1001
GENIUS_GENODEF_13
1002
{
1000
HIER
1070
     1
1002
}
1002
{
1000
MANEDIT
1070
     0
1002
}
1002
{
1000
NOSEL
1070
     0
1002
}
1002
{
1000
BEHIND
1070
     0
1002
}
1002
{
1000
OTHER
1070
     0
1002
}
1002
{
1000
REACTOR
1002
}
1001
GENIUS_GENOBJ-N-CHA_13
1002
{
1000
OWNER
1000
GEN
1002
}
1001
GENIUS_GENOENT_13
1002
{
1000
MYREF
1005
78A5
1002
}
1002
{
1000
GRP
1005
0
1002
}
1001
GENIUS_GENOLIS_13
1002
{
1000
ENT
1005
7868
1002
}
  0
POINT
  5
78A6
330
7834
100
AcDbEntity
  8
0
 60
     1
100
AcDbPoint
 10
2087.774240868082
 20
3844.57775089854
 30
0.0
1001
GENIUS_GENODEF_13
1002
{
1000
HIER
1070
     1
1002
}
1002
{
1000
MANEDIT
1070
     0
1002
}
1002
{
1000
NOSEL
1070
     0
1002
}
1002
{
1000
BEHIND
1070
     0
1002
}
1002
{
1000
OTHER
1070
     0
1002
}
1002
{
1000
REACTOR
1002
}
1001
GENIUS_GENOENT_13
1002
{
1000
MYREF
1005
78A6
1002
}
1002
{
1000
GRP
1005
0
1002
}
1001
GENIUS_GENOLIS_13
1002
{
1000
ENT
1005
7866
1002
}
1001
GENIUS_GENOBJ-N-CHA_13
1002
{
1000
OWNER
1000
GEN
1002
}
  0
LINE
  5
7B39
330
7834
100
AcDbEntity
  8
AM_0 外形線1
100
AcDbLine
 10
0.0000000000001137
 20
134.9999999999992
 30
0.0
 11
0.0
 21
139.4999999999999
 31
0.0
  0
LINE
  5
7B3A
330
7834
100
AcDbEntity
  8
AM_0 外形線1
100
AcDbLine
 10
283.0
 20
134.9999999999994
 30
0.0
 11
283.0
 21
139.4999999999999
 31
0.0
  0
LINE
  5
9B56
330
7834
100
AcDbEntity
  8
AM_0 外形線1
100
AcDbLine
 10
240.8017824986059
 20
-108.15
 30
0.0
 11
240.8017824986059
 21
-0.0000000000001137
 31
0.0
  0
LINE
  5
9B57
330
7834
100
AcDbEntity
  8
AM_0 外形線1
100
AcDbLine
 10
42.19821750139431
 20
-108.1500000000001
 30
0.0
 11
42.19821750139374
 21
-0.0000000000001137
 31
0.0
  0
ENDBLK
  5
7836
330
7834
100
AcDbEntity
  8
0
100
AcDbBlockEnd
  0
BLOCK
  5
8DE4
330
8DE3
100
AcDbEntity
  8
0
100
AcDbBlockBegin
  2
*D28
 70
     1
 10
0.0
 20
0.0
 30
0.0
  3
*D28
  1

  0
LINE
  5
93A6
330
8DE3
100
AcDbEntity
  8
AM_5 寸法線
 62
     3
100
AcDbLine
 10
673.7249390065533
 20
714.8850214865224
 30
0.0
 11
673.7249390065533
 21
653.8981274357452
 31
0.0
  0
LINE
  5
93A7
330
8DE3
100
AcDbEntity
  8
AM_5 寸法線
 62
     3
100
AcDbLine
 10
694.7249390065532
 20
714.8850214865224
 30
0.0
 11
694.7249390065532
 21
653.8981274357452
 31
0.0
  0
LINE
  5
93A8
330
8DE3
100
AcDbEntity
  8
AM_5 寸法線
 62
     3
100
AcDbLine
 10
663.7249390065533
 20
656.3981274357452
 30
0.0
 11
653.7249390065532
 21
656.3981274357452
 31
0.0
  0
LINE
  5
93A9
330
8DE3
100
AcDbEntity
  8
AM_5 寸法線
 62
     3
100
AcDbLine
 10
704.7249390065531
 20
656.3981274357452
 30
0.0
 11
743.5249390065531
 21
656.3981274357452
 31
0.0
  0
LINE
  5
93AA
330
8DE3
100
AcDbEntity
  8
AM_5 寸法線
 62
     3
100
AcDbLine
 10
673.7249390065533
 20
656.3981274357452
 30
0.0
 11
694.7249390065532
 21
656.3981274357452
 31
0.0
  0
INSERT
  5
93AB
330
8DE3
100
AcDbEntity
  8
AM_5 寸法線
 62
     3
100
AcDbBlockReference
  2
GENDOT
 10
673.7249390065533
 20
656.3981274357452
 30
0.0
 41
10.0
 42
10.0
 43
10.0
  0
INSERT
  5
93AC
330
8DE3
100
AcDbEntity
  8
AM_5 寸法線
 62
     3
100
AcDbBlockReference
  2
_Open30
 10
694.7249390065532
 20
656.3981274357452
 30
0.0
 41
10.0
 42
10.0
 43
10.0
 50
180.0
  0
MTEXT
  5
93AD
330
8DE3
100
AcDbEntity
  8
AM_5 寸法線
 62
     3
100
AcDbMText
 10
729.1249390065531
 20
669.3981274357452
 30
0.0
 40
14.0
 41
0.0
 46
0.0
 71
     5
 72
     1
  1
21
  7
SEISA
 73
     1
 44
1.0
  0
POINT
  5
93AE
330
8DE3
100
AcDbEntity
  8
Defpoints
 62
     0
100
AcDbPoint
 10
673.7249390065533
 20
717.3850214865224
 30
0.0
  0
POINT
  5
93AF
330
8DE3
100
AcDbEntity
  8
Defpoints
 62
     0
100
AcDbPoint
 10
694.7249390065532
 20
717.3850214865224
 30
0.0
  0
POINT
  5
93B0
330
8DE3
100
AcDbEntity
  8
Defpoints
 62
     0
100
AcDbPoint
 10
694.7249390065532
 20
656.3981274357452
 30
0.0
  0
ENDBLK
  5
8DE5
330
8DE3
100
AcDbEntity
  8
0
100
AcDbBlockEnd
  0
BLOCK
  5
8E21
330
8E20
100
AcDbEntity
  8
0
100
AcDbBlockBegin
  2
*D29
 70
     1
 10
0.0
 20
0.0
 30
0.0
  3
*D29
  1

  0
LINE
  5
93B1
330
8E20
100
AcDbEntity
  8
AM_5 寸法線
 62
     3
100
AcDbLine
 10
956.7249390065532
 20
714.9214462401677
 30
0.0
 11
956.7249390065532
 21
653.8981274357452
 31
0.0
  0
LINE
  5
93B2
330
8E20
100
AcDbEntity
  8
AM_5 寸法線
 62
     3
100
AcDbLine
 10
935.7249390065533
 20
714.9214462401677
 30
0.0
 11
935.7249390065533
 21
653.8981274357452
 31
0.0
  0
LINE
  5
93B3
330
8E20
100
AcDbEntity
  8
AM_5 寸法線
 62
     3
100
AcDbLine
 10
966.7249390065531
 20
656.3981274357452
 30
0.0
 11
976.7249390065536
 21
656.3981274357452
 31
0.0
  0
LINE
  5
93B4
330
8E20
100
AcDbEntity
  8
AM_5 寸法線
 62
     3
100
AcDbLine
 10
925.7249390065537
 20
656.3981274357452
 30
0.0
 11
886.9249390065535
 21
656.3981274357452
 31
0.0
  0
LINE
  5
93B5
330
8E20
100
AcDbEntity
  8
AM_5 寸法線
 62
     3
100
AcDbLine
 10
956.7249390065532
 20
656.3981274357452
 30
0.0
 11
935.7249390065533
 21
656.3981274357452
 31
0.0
  0
INSERT
  5
93B6
330
8E20
100
AcDbEntity
  8
AM_5 寸法線
 62
     3
100
AcDbBlockReference
  2
GENDOT
 10
956.7249390065532
 20
656.3981274357452
 30
0.0
 41
10.0
 42
10.0
 43
10.0
 50
180.0
  0
INSERT
  5
93B7
330
8E20
100
AcDbEntity
  8
AM_5 寸法線
 62
     3
100
AcDbBlockReference
  2
_Open30
 10
935.7249390065533
 20
656.3981274357452
 30
0.0
 41
10.0
 42
10.0
 43
10.0
  0
MTEXT
  5
93B8
330
8E20
100
AcDbEntity
  8
AM_5 寸法線
 62
     3
100
AcDbMText
 10
901.3249390065537
 20
669.3981274357452
 30
0.0
 40
14.0
 41
0.0
 46
0.0
 71
     5
 72
     1
  1
21
  7
SEISA
 73
     1
 44
1.0
  0
POINT
  5
93B9
330
8E20
100
AcDbEntity
  8
Defpoints
 62
     0
100
AcDbPoint
 10
956.7249390065532
 20
717.4214462401677
 30
0.0
  0
POINT
  5
93BA
330
8E20
100
AcDbEntity
  8
Defpoints
 62
     0
100
AcDbPoint
 10
935.7249390065533
 20
717.4214462401677
 30
0.0
  0
POINT
  5
93BB
330
8E20
100
AcDbEntity
  8
Defpoints
 62
     0
100
AcDbPoint
 10
935.7249390065533
 20
656.3981274357452
 30
0.0
  0
ENDBLK
  5
8E22
330
8E20
100
AcDbEntity
  8
0
100
AcDbBlockEnd
  0
BLOCK
  5
9554
330
9553
100
AcDbEntity
  8
0
100
AcDbBlockBegin
  2
*D30
 70
     1
 10
0.0
 20
0.0
 30
0.0
  3
*D30
  1

  0
LINE
  5
9579
330
9553
100
AcDbEntity
  8
AM_5 寸法線
 62
     3
100
AcDbLine
 10
525.7249390065533
 20
953.8981274357457
 30
0.0
 11
525.7249390065533
 21
995.9945791461771
 31
0.0
  0
LINE
  5
957A
330
9553
100
AcDbEntity
  8
AM_5 寸法線
 62
     3
100
AcDbLine
 10
526.7249390065533
 20
949.0981274357457
 30
0.0
 11
526.7249390065533
 21
995.9945791461771
 31
0.0
  0
LINE
  5
957B
330
9553
100
AcDbEntity
  8
AM_5 寸法線
 62
     3
100
AcDbLine
 10
515.7249390065532
 20
993.4945791461771
 30
0.0
 11
505.7249390065534
 21
993.4945791461771
 31
0.0
  0
LINE
  5
957C
330
9553
100
AcDbEntity
  8
AM_5 寸法線
 62
     3
100
AcDbLine
 10
536.7249390065532
 20
993.4945791461771
 30
0.0
 11
561.7249390065532
 21
993.4945791461771
 31
0.0
  0
LINE
  5
957D
330
9553
100
AcDbEntity
  8
AM_5 寸法線
 62
     3
100
AcDbLine
 10
525.7249390065533
 20
993.4945791461771
 30
0.0
 11
526.7249390065533
 21
993.4945791461771
 31
0.0
  0
INSERT
  5
957E
330
9553
100
AcDbEntity
  8
AM_5 寸法線
 62
     3
100
AcDbBlockReference
  2
_Open30
 10
525.7249390065533
 20
993.4945791461771
 30
0.0
 41
10.0
 42
10.0
 43
10.0
  0
INSERT
  5
957F
330
9553
100
AcDbEntity
  8
AM_5 寸法線
 62
     3
100
AcDbBlockReference
  2
_Open30
 10
526.7249390065533
 20
993.4945791461771
 30
0.0
 41
10.0
 42
10.0
 43
10.0
 50
180.0
  0
MTEXT
  5
9580
330
9553
100
AcDbEntity
  8
AM_5 寸法線
 62
     3
100
AcDbMText
 10
554.2249390065533
 20
1006.494579146177
 30
0.0
 40
14.0
 41
0.0
 46
0.0
 71
     5
 72
     1
  1
1
  7
SEISA
 73
     1
 44
1.0
  0
POINT
  5
9581
330
9553
100
AcDbEntity
  8
Defpoints
 62
     0
100
AcDbPoint
 10
525.7249390065533
 20
951.3981274357456
 30
0.0
  0
POINT
  5
9582
330
9553
100
AcDbEntity
  8
Defpoints
 62
     0
100
AcDbPoint
 10
526.7249390065533
 20
946.5981274357456
 30
0.0
  0
POINT
  5
9583
330
9553
100
AcDbEntity
  8
Defpoints
 62
     0
100
AcDbPoint
 10
526.7249390065533
 20
993.4945791461771
 30
0.0
  0
ENDBLK
  5
9555
330
9553
100
AcDbEntity
  8
0
100
AcDbBlockEnd
  0
BLOCK
  5
9629
330
9628
100
AcDbEntity
  8
0
100
AcDbBlockBegin
  2
*D31
 70
     1
 10
0.0
 20
0.0
 30
0.0
  3
*D31
  1

  0
LINE
  5
9648
330
9628
100
AcDbEntity
  8
AM_5 寸法線
 62
     3
100
AcDbLine
 10
612.2249390065533
 20
949.3981274357457
 30
0.0
 11
612.2249390065533
 21
925.7512574003945
 31
0.0
  0
LINE
  5
9649
330
9628
100
AcDbEntity
  8
AM_5 寸法線
 62
     3
100
AcDbLine
 10
645.2249390065532
 20
949.3981274357457
 30
0.0
 11
645.2249390065532
 21
925.7512574003945
 31
0.0
  0
LINE
  5
964A
330
9628
100
AcDbEntity
  8
AM_5 寸法線
 62
     3
100
AcDbLine
 10
622.2249390065533
 20
928.2512574003945
 30
0.0
 11
635.2249390065533
 21
928.2512574003945
 31
0.0
  0
INSERT
  5
964B
330
9628
100
AcDbEntity
  8
AM_5 寸法線
 62
     3
100
AcDbBlockReference
  2
_Open30
 10
612.2249390065533
 20
928.2512574003945
 30
0.0
 41
10.0
 42
10.0
 43
10.0
 50
180.0
  0
INSERT
  5
964C
330
9628
100
AcDbEntity
  8
AM_5 寸法線
 62
     3
100
AcDbBlockReference
  2
_Open30
 10
645.2249390065532
 20
928.2512574003945
 30
0.0
 41
10.0
 42
10.0
 43
10.0
  0
MTEXT
  5
964D
330
9628
100
AcDbEntity
  8
AM_5 寸法線
 62
     3
100
AcDbMText
 10
628.7249390065532
 20
941.2512574003944
 30
0.0
 40
14.0
 41
0.0
 46
0.0
 71
     5
 72
     1
  1
33
  7
SEISA
 73
     1
 44
1.0
  0
POINT
  5
964E
330
9628
100
AcDbEntity
  8
Defpoints
 62
     0
100
AcDbPoint
 10
612.2249390065533
 20
951.8981274357456
 30
0.0
  0
POINT
  5
964F
330
9628
100
AcDbEntity
  8
Defpoints
 62
     0
100
AcDbPoint
 10
645.2249390065532
 20
951.8981274357456
 30
0.0
  0
POINT
  5
9650
330
9628
100
AcDbEntity
  8
Defpoints
 62
     0
100
AcDbPoint
 10
645.2249390065532
 20
928.2512574003945
 30
0.0
  0
ENDBLK
  5
962A
330
9628
100
AcDbEntity
  8
0
100
AcDbBlockEnd
  0
BLOCK
  5
9653
330
9652
100
AcDbEntity
  8
0
100
AcDbBlockBegin
  2
*D32
 70
     1
 10
0.0
 20
0.0
 30
0.0
  3
*D32
  1

  0
LINE
  5
9701
330
9652
100
AcDbEntity
  8
AM_5 寸法線
 62
     3
100
AcDbLine
 10
645.2249390065532
 20
948.8981274357456
 30
0.0
 11
645.2249390065532
 21
925.7512574003945
 31
0.0
  0
LINE
  5
9702
330
9652
100
AcDbEntity
  8
AM_5 寸法線
 62
     3
100
AcDbLine
 10
666.7249390065533
 20
947.3981274357456
 30
0.0
 11
666.7249390065533
 21
925.7512574003945
 31
0.0
  0
LINE
  5
9703
330
9652
100
AcDbEntity
  8
AM_5 寸法線
 62
     3
100
AcDbLine
 10
635.2249390065533
 20
928.2512574003945
 30
0.0
 11
625.2249390065533
 21
928.2512574003945
 31
0.0
  0
LINE
  5
9704
330
9652
100
AcDbEntity
  8
AM_5 寸法線
 62
     3
100
AcDbLine
 10
676.7249390065533
 20
928.2512574003945
 30
0.0
 11
686.7249390065532
 21
928.2512574003945
 31
0.0
  0
LINE
  5
9705
330
9652
100
AcDbEntity
  8
AM_5 寸法線
 62
     3
100
AcDbLine
 10
655.9749390065533
 20
928.2512574003945
 30
0.0
 11
651.2423932554098
 21
890.022579866885
 31
0.0
  0
LINE
  5
9706
330
9652
100
AcDbEntity
  8
AM_5 寸法線
 62
     3
100
AcDbLine
 10
651.2423932554098
 20
890.022579866885
 30
0.0
 11
600.8423932554099
 21
890.022579866885
 31
0.0
  0
MTEXT
  5
9707
330
9652
100
AcDbEntity
  8
AM_5 寸法線
 62
     3
100
AcDbMText
 10
626.0423932554098
 20
903.0225798668848
 30
0.0
 40
14.0
 41
0.0
 46
0.0
 71
     5
 72
     1
  1
21.5
  7
SEISA
 73
     1
 44
1.0
  0
LINE
  5
9708
330
9652
100
AcDbEntity
  8
AM_5 寸法線
 62
     3
100
AcDbLine
 10
645.2249390065532
 20
928.2512574003945
 30
0.0
 11
666.7249390065533
 21
928.2512574003945
 31
0.0
  0
LINE
  5
9709
330
9652
100
AcDbEntity
  8
AM_5 寸法線
 62
     3
100
AcDbLine
 10
645.2249390065532
 20
928.2512574003945
 30
0.0
 11
666.7249390065533
 21
928.2512574003945
 31
0.0
  0
INSERT
  5
970A
330
9652
100
AcDbEntity
  8
AM_5 寸法線
 62
     3
100
AcDbBlockReference
  2
_Open30
 10
645.2249390065532
 20
928.2512574003945
 30
0.0
 41
10.0
 42
10.0
 43
10.0
  0
INSERT
  5
970B
330
9652
100
AcDbEntity
  8
AM_5 寸法線
 62
     3
100
AcDbBlockReference
  2
_Open30
 10
666.7249390065533
 20
928.2512574003945
 30
0.0
 41
10.0
 42
10.0
 43
10.0
 50
180.0
  0
POINT
  5
970C
330
9652
100
AcDbEntity
  8
Defpoints
 62
     0
100
AcDbPoint
 10
645.2249390065532
 20
951.3981274357456
 30
0.0
  0
POINT
  5
970D
330
9652
100
AcDbEntity
  8
Defpoints
 62
     0
100
AcDbPoint
 10
666.7249390065533
 20
949.8981274357456
 30
0.0
  0
POINT
  5
970E
330
9652
100
AcDbEntity
  8
Defpoints
 62
     0
100
AcDbPoint
 10
666.7249390065533
 20
928.2512574003945
 30
0.0
  0
ENDBLK
  5
9654
330
9652
100
AcDbEntity
  8
0
100
AcDbBlockEnd
  0
BLOCK
  5
97A1
330
97A0
100
AcDbEntity
  8
0
100
AcDbBlockBegin
  2
*D33
 70
     1
 10
0.0
 20
0.0
 30
0.0
  3
*D33
  1

  0
LINE
  5
97F2
330
97A0
100
AcDbEntity
  8
AM_5 寸法線
 62
     3
100
AcDbLine
 10
673.7249390065533
 20
965.3981274357457
 30
0.0
 11
673.7249390065533
 21
880.1906576937787
 31
0.0
  0
LINE
  5
97F3
330
97A0
100
AcDbEntity
  8
AM_5 寸法線
 62
     3
100
AcDbLine
 10
666.7249390065533
 20
898.4534744553267
 30
0.0
 11
666.7249390065533
 21
880.1906576937787
 31
0.0
  0
LINE
  5
97F4
330
97A0
100
AcDbEntity
  8
AM_5 寸法線
 62
     3
100
AcDbLine
 10
683.7249390065533
 20
882.6906576937787
 30
0.0
 11
693.7249390065532
 21
882.6906576937787
 31
0.0
  0
LINE
  5
97F5
330
97A0
100
AcDbEntity
  8
AM_5 寸法線
 62
     3
100
AcDbLine
 10
656.7249390065533
 20
882.6906576937787
 30
0.0
 11
646.7249390065533
 21
882.6906576937787
 31
0.0
  0
MTEXT
  5
97F6
330
97A0
100
AcDbEntity
  8
AM_5 寸法線
 62
     3
100
AcDbMText
 10
692.4274371297581
 20
896.6197860209877
 30
0.0
 40
14.0
 41
0.0
 46
0.0
 71
     5
 72
     1
  1
7
  7
SEISA
 73
     1
 44
1.0
  0
LINE
  5
97F7
330
97A0
100
AcDbEntity
  8
AM_5 寸法線
 62
     3
100
AcDbLine
 10
673.7249390065533
 20
882.6906576937787
 30
0.0
 11
666.7249390065533
 21
882.6906576937787
 31
0.0
  0
INSERT
  5
97F8
330
97A0
100
AcDbEntity
  8
AM_5 寸法線
 62
     3
100
AcDbBlockReference
  2
_Open30
 10
673.7249390065533
 20
882.6906576937787
 30
0.0
 41
10.0
 42
10.0
 43
10.0
 50
180.0
  0
INSERT
  5
97F9
330
97A0
100
AcDbEntity
  8
AM_5 寸法線
 62
     3
100
AcDbBlockReference
  2
_Open30
 10
666.7249390065533
 20
882.6906576937787
 30
0.0
 41
10.0
 42
10.0
 43
10.0
  0
POINT
  5
97FA
330
97A0
100
AcDbEntity
  8
Defpoints
 62
     0
100
AcDbPoint
 10
673.7249390065533
 20
967.8981274357456
 30
0.0
  0
POINT
  5
97FB
330
97A0
100
AcDbEntity
  8
Defpoints
 62
     0
100
AcDbPoint
 10
666.7249390065533
 20
900.9534744553263
 30
0.0
  0
POINT
  5
97FC
330
97A0
100
AcDbEntity
  8
Defpoints
 62
     0
100
AcDbPoint
 10
666.7249390065533
 20
882.6906576937787
 30
0.0
  0
ENDBLK
  5
97A2
330
97A0
100
AcDbEntity
  8
0
100
AcDbBlockEnd
  0
BLOCK
  5
97FF
330
97FE
100
AcDbEntity
  8
0
100
AcDbBlockBegin
  2
*D34
 70
     1
 10
0.0
 20
0.0
 30
0.0
  3
*D34
  1

  0
LINE
  5
9846
330
97FE
100
AcDbEntity
  8
AM_5 寸法線
 62
     3
100
AcDbLine
 10
956.7249390065532
 20
965.3981274357457
 30
0.0
 11
956.7249390065532
 21
880.1906576937787
 31
0.0
  0
LINE
  5
9847
330
97FE
100
AcDbEntity
  8
AM_5 寸法線
 62
     3
100
AcDbLine
 10
963.7249390065532
 20
947.3981274357456
 30
0.0
 11
963.7249390065532
 21
880.1906576937787
 31
0.0
  0
LINE
  5
9848
330
97FE
100
AcDbEntity
  8
AM_5 寸法線
 62
     3
100
AcDbLine
 10
946.7249390065532
 20
882.6906576937787
 30
0.0
 11
936.7249390065532
 21
882.6906576937787
 31
0.0
  0
LINE
  5
9849
330
97FE
100
AcDbEntity
  8
AM_5 寸法線
 62
     3
100
AcDbLine
 10
973.7249390065532
 20
882.6906576937787
 30
0.0
 11
983.7249390065531
 21
882.6906576937787
 31
0.0
  0
MTEXT
  5
984A
330
97FE
100
AcDbEntity
  8
AM_5 寸法線
 62
     3
100
AcDbMText
 10
943.8066795354048
 20
892.1482129877299
 30
0.0
 40
14.0
 41
0.0
 46
0.0
 71
     5
 72
     1
  1
7
  7
SEISA
 73
     1
 44
1.0
  0
LINE
  5
984B
330
97FE
100
AcDbEntity
  8
AM_5 寸法線
 62
     3
100
AcDbLine
 10
956.7249390065532
 20
882.6906576937787
 30
0.0
 11
963.7249390065532
 21
882.6906576937787
 31
0.0
  0
INSERT
  5
984C
330
97FE
100
AcDbEntity
  8
AM_5 寸法線
 62
     3
100
AcDbBlockReference
  2
_Open30
 10
956.7249390065532
 20
882.6906576937787
 30
0.0
 41
10.0
 42
10.0
 43
10.0
  0
INSERT
  5
984D
330
97FE
100
AcDbEntity
  8
AM_5 寸法線
 62
     3
100
AcDbBlockReference
  2
_Open30
 10
963.7249390065532
 20
882.6906576937787
 30
0.0
 41
10.0
 42
10.0
 43
10.0
 50
180.0
  0
POINT
  5
984E
330
97FE
100
AcDbEntity
  8
Defpoints
 62
     0
100
AcDbPoint
 10
956.7249390065532
 20
967.8981274357456
 30
0.0
  0
POINT
  5
984F
330
97FE
100
AcDbEntity
  8
Defpoints
 62
     0
100
AcDbPoint
 10
963.7249390065532
 20
949.8981274357456
 30
0.0
  0
POINT
  5
9850
330
97FE
100
AcDbEntity
  8
Defpoints
 62
     0
100
AcDbPoint
 10
963.7249390065532
 20
882.6906576937787
 30
0.0
  0
ENDBLK
  5
9800
330
97FE
100
AcDbEntity
  8
0
100
AcDbBlockEnd
  0
BLOCK
  5
993C
330
993B
100
AcDbEntity
  8
0
100
AcDbBlockBegin
  2
*D35
 70
     1
 10
0.0
 20
0.0
 30
0.0
  3
*D35
  1

  0
LINE
  5
997F
330
993B
100
AcDbEntity
  8
AM_5 寸法線
 62
     3
100
AcDbLine
 10
570.7249390065533
 20
951.3981274357456
 30
0.0
 11
468.2249390065534
 21
951.3981274357456
 31
0.0
  0
LINE
  5
9980
330
993B
100
AcDbEntity
  8
AM_5 寸法線
 62
     3
100
AcDbLine
 10
570.7249390065533
 20
761.3981274357456
 30
0.0
 11
468.2249390065532
 21
761.3981274357456
 31
0.0
  0
LINE
  5
9981
330
993B
100
AcDbEntity
  8
AM_5 寸法線
 62
     3
100
AcDbLine
 10
470.7249390065533
 20
941.3981274357457
 30
0.0
 11
470.7249390065531
 21
771.3981274357457
 31
0.0
  0
INSERT
  5
9982
330
993B
100
AcDbEntity
  8
AM_5 寸法線
 62
     3
100
AcDbBlockReference
  2
_Open30
 10
470.7249390065533
 20
951.3981274357456
 30
0.0
 41
10.0
 42
10.0
 43
10.0
 50
90.0
  0
INSERT
  5
9983
330
993B
100
AcDbEntity
  8
AM_5 寸法線
 62
     3
100
AcDbBlockReference
  2
_Open30
 10
470.7249390065531
 20
761.3981274357456
 30
0.0
 41
10.0
 42
10.0
 43
10.0
 50
270.0
  0
MTEXT
  5
9984
330
993B
100
AcDbEntity
  8
AM_5 寸法線
 62
     3
100
AcDbMText
 10
457.7249390065531
 20
856.3981274357457
 30
0.0
 40
14.0
 41
0.0
 46
0.0
 71
     5
 72
     1
  1
%%c190
  7
SEISA
 11
0.0000000000000001
 21
1.0
 31
0.0
 73
     1
 44
1.0
  0
POINT
  5
9985
330
993B
100
AcDbEntity
  8
Defpoints
 62
     0
100
AcDbPoint
 10
573.2249390065533
 20
951.3981274357456
 30
0.0
  0
POINT
  5
9986
330
993B
100
AcDbEntity
  8
Defpoints
 62
     0
100
AcDbPoint
 10
573.2249390065533
 20
761.3981274357456
 30
0.0
  0
POINT
  5
9987
330
993B
100
AcDbEntity
  8
Defpoints
 62
     0
100
AcDbPoint
 10
470.7249390065531
 20
761.3981274357456
 30
0.0
  0
ENDBLK
  5
993D
330
993B
100
AcDbEntity
  8
0
100
AcDbBlockEnd
  0
BLOCK
  5
99C3
330
99C2
100
AcDbEntity
  8
0
100
AcDbBlockBegin
  2
ケース
 70
     0
 10
0.0
 20
0.0
 30
0.0
  3
ケース
  1

  0
LINE
  5
99C5
330
99C2
100
AcDbEntity
  8
AM_11 想像線
 48
0.1
100
AcDbLine
 10
-33.44043157427905
 20
-10.10000000000002
 30
0.0
 11
-23.240431574279
 21
-10.10000000000002
 31
0.0
  0
LINE
  5
99C6
330
99C2
100
AcDbEntity
  8
AM_11 想像線
 48
0.1
100
AcDbLine
 10
0.0
 20
0.0
 30
0.0
 11
-32.34043157427914
 21
0.0
 31
0.0
  0
LINE
  5
99C7
330
99C2
100
AcDbEntity
  8
AM_11 想像線
 48
0.1
100
AcDbLine
 10
-33.94043157427905
 20
-17.0
 30
0.0
 11
-33.94043157427905
 21
-10.60000000000002
 31
0.0
  0
LINE
  5
99C8
330
99C2
100
AcDbEntity
  8
AM_11 想像線
 48
0.1
100
AcDbLine
 10
-36.34043157427914
 20
-4.0
 30
0.0
 11
-36.34043157427914
 21
-17.0
 31
0.0
  0
ARC
  5
99C9
330
99C2
100
AcDbEntity
  8
AM_11 想像線
 48
0.1
100
AcDbCircle
 10
-33.44043157427905
 20
-10.60000000000002
 30
0.0
 40
0.5
100
AcDbArc
 50
90.0
 51
180.0
  0
LINE
  5
99CA
330
99C2
100
AcDbEntity
  8
AM_11 想像線
 48
0.1
100
AcDbLine
 10
-36.34043157427914
 20
-15.5
 30
0.0
 11
-33.94043157427905
 21
-15.5
 31
0.0
  0
ARC
  5
99CB
330
99C2
100
AcDbEntity
  8
AM_11 想像線
 48
0.1
100
AcDbCircle
 10
-32.34043157427914
 20
-4.0
 30
0.0
 40
4.0
100
AcDbArc
 50
90.0
 51
180.0
  0
LINE
  5
99CC
330
99C2
100
AcDbEntity
  8
AM_11 想像線
 48
0.1
100
AcDbLine
 10
-20.34043157427914
 20
-17.0
 30
0.0
 11
-20.34043157427914
 21
-7.5
 31
0.0
  0
LINE
  5
99CD
330
99C2
100
AcDbEntity
  8
AM_11 想像線
 48
0.1
100
AcDbLine
 10
-22.740431574279
 20
-10.60000000000002
 30
0.0
 11
-22.740431574279
 21
-17.0
 31
0.0
  0
LINE
  5
99CE
330
99C2
100
AcDbEntity
  8
AM_11 想像線
 48
0.1
100
AcDbLine
 10
0.0
 20
-12.39999999999997
 30
0.0
 11
-13.34043157427913
 21
-12.39999999999997
 31
0.0
  0
LINE
  5
99CF
330
99C2
100
AcDbEntity
  8
AM_11 想像線
 48
0.1
100
AcDbLine
 10
0.0
 20
-10.0
 30
0.0
 11
-16.34043157427913
 21
-10.0
 31
0.0
  0
LINE
  5
99D0
330
99C2
100
AcDbEntity
  8
AM_11 想像線
 48
0.1
100
AcDbLine
 10
0.0
 20
-7.0
 30
0.0
 11
-14.47440617049483
 21
-7.0
 31
0.0
  0
ARC
  5
99D1
330
99C2
100
AcDbEntity
  8
AM_11 想像線
 48
0.1
100
AcDbCircle
 10
-23.240431574279
 20
-10.60000000000002
 30
0.0
 40
0.5
100
AcDbArc
 50
0.0
 51
90.0
  0
LINE
  5
99D2
330
99C2
100
AcDbEntity
  8
AM_11 想像線
 48
0.1
100
AcDbLine
 10
-14.34043157427914
 20
-8.527203999999981
 30
0.0
 11
-14.34043157427914
 21
-11.39999999999997
 31
0.0
  0
LINE
  5
99D3
330
99C2
100
AcDbEntity
  8
AM_11 想像線
 48
0.1
100
AcDbLine
 10
-14.34043157427914
 20
-11.39999999999997
 30
0.0
 11
-13.34043157427913
 21
-12.39999999999997
 31
0.0
  0
LINE
  5
99D4
330
99C2
100
AcDbEntity
  8
AM_11 想像線
 48
0.1
100
AcDbLine
 10
-14.34043157427914
 20
-8.527203999999981
 30
0.0
 11
-14.34043157427914
 21
-7.5
 31
0.0
  0
ARC
  5
99D5
330
99C2
100
AcDbEntity
  8
AM_11 想像線
 48
0.1
100
AcDbCircle
 10
-15.34043157427914
 20
-7.5
 30
0.0
 40
1.0
100
AcDbArc
 50
0.0
 51
90.0
  0
ARC
  5
99D6
330
99C2
100
AcDbEntity
  8
AM_11 想像線
 48
0.1
100
AcDbCircle
 10
-19.34043157427914
 20
-7.5
 30
0.0
 40
1.0
100
AcDbArc
 50
90.0
 51
180.0
  0
LINE
  5
99D7
330
99C2
100
AcDbEntity
  8
AM_11 想像線
 48
0.1
100
AcDbLine
 10
-22.740431574279
 20
-15.5
 30
0.0
 11
-20.34043157427914
 21
-15.5
 31
0.0
  0
LINE
  5
99D8
330
99C2
100
AcDbEntity
  8
AM_11 想像線
 48
0.1
100
AcDbLine
 10
-19.34043157427914
 20
-6.5
 30
0.0
 11
-15.34043157427914
 21
-6.5
 31
0.0
  0
ENDBLK
  5
99C4
330
99C2
100
AcDbEntity
  8
0
100
AcDbBlockEnd
  0
ENDSEC
  0
SECTION
  2
ENTITIES
  0
LINE
  5
43D1
330
1F
100
AcDbEntity
  8
AM_7 中心線
100
AcDbLine
 10
1111.980212006553
 20
856.3981274357457
 30
0.0
 11
519.2505270065534
 21
856.3981274357457
 31
0.0
  0
LINE
  5
447A
330
1F
100
AcDbEntity
  8
0
  6
ByBlock
 62
     0
100
AcDbLine
 10
694.7249390065532
 20
984.3981274357457
 30
0.0
 11
701.5877615790532
 21
984.3981274357457
 31
0.0
  0
LINE
  5
44AD
330
1F
100
AcDbEntity
  8
0
  6
ByBlock
 62
     0
100
AcDbLine
 10
935.7249390065531
 20
984.3981274357457
 30
0.0
 11
928.8621164340533
 21
984.3981274357457
 31
0.0
  0
LINE
  5
4512
330
1F
100
AcDbEntity
  8
AM_0 外形線1
100
AcDbLine
 10
989.8877810065531
 20
995.3481274357457
 30
0.0
 11
990.7249390065532
 21
993.8981274357457
 31
0.0
  0
INSERT
  5
4E3B
102
{ACAD_REACTORS
330
5A16
330
5A2E
330
6023
330
61A7
330
61BF
102
}
330
1F
100
AcDbEntity
  8
AM_0 外形線1
100
AcDbBlockReference
  2
ケースＡ-1 SAM280
 10
956.7249390065532
 20
856.3981274357457
 30
0.0
  0
INSERT
  5
5119
102
{ACAD_REACTORS
330
59FE
330
5AF6
330
61BF
330
980D
102
}
330
1F
100
AcDbEntity
  8
AM_0 外形線1
100
AcDbBlockReference
  2
センタ-1 SAM280
 10
963.7249390065532
 20
856.3981274357457
 30
0.0
  0
INSERT
  5
5240
102
{ACAD_REACTORS
330
5EEB
330
615F
330
9562
330
9635
330
9661
102
}
330
1F
100
AcDbEntity
  8
AM_0 外形線1
100
AcDbBlockReference
  2
センタ-2 SAM280
 10
666.7249390065533
 20
856.3981274357457
 30
0.0
  0
INSERT
  5
5266
102
{ACAD_REACTORS
330
5EEB
330
5FCF
330
615F
330
6177
102
}
330
1F
100
AcDbEntity
  8
AM_0 外形線1
100
AcDbBlockReference
  2
ケースＡ-2 SAM280
 10
673.7249390065533
 20
856.3981274357457
 30
0.0
  0
INSERT
  5
563F
330
1F
100
AcDbEntity
  8
AM_0 外形線1
100
AcDbBlockReference
  2
リーマボルト-1 SAM280 M12
 10
935.7249390065531
 20
984.3981274357457
 30
0.0
  0
INSERT
  5
56DD
330
1F
100
AcDbEntity
  8
AM_0 外形線1
100
AcDbBlockReference
  2
リーマボルト-2 SAM280 M12
 10
694.7249390065532
 20
984.3981274357457
 30
0.0
  0
DIMENSION
  5
59E7
102
{ACAD_XDICTIONARY
360
59F4
102
}
102
{ACAD_REACTORS
330
59FE
102
}
330
1F
100
AcDbEntity
  8
AM_5 寸法線
100
AcDbDimension
  2
*D15
 10
1183.724939006553
 20
761.3981274357455
 30
0.0
 11
1170.724939006553
 21
856.3981274357457
 31
0.0
 70
    32
  1
%%c<>
 71
     5
 42
190.0000000000001
 73
     0
 74
     0
 75
     0
  3
SEISA$0
100
AcDbAlignedDimension
 13
1057.224939006553
 23
951.3981274357456
 33
0.0
 14
1057.224939006553
 24
761.3981274357455
 34
0.0
 50
90.0
100
AcDbRotatedDimension
1001
ACAD_DSTYLE_DIMINSPECT
1070
   396
1000
100%
1070
   395
1000

1070
   394
1070
    33
1070
   393
1070
     0
  0
DIMENSION
  5
59FF
102
{ACAD_XDICTIONARY
360
5A0C
102
}
102
{ACAD_REACTORS
330
5A16
102
}
330
1F
100
AcDbEntity
  8
AM_5 寸法線
100
AcDbDimension
  2
*D16
 10
1223.724939006553
 20
744.3981274357456
 30
0.0
 11
1210.724939006553
 21
856.3981274357457
 31
0.0
 70
    32
  1
%%c<>
 71
     5
 42
224.0
 73
     0
 74
     0
 75
     0
  3
SEISA$0
100
AcDbAlignedDimension
 13
1034.724939006553
 23
968.3981274357456
 33
0.0
 14
1034.724939006553
 24
744.3981274357456
 34
0.0
 50
90.0
100
AcDbRotatedDimension
1001
ACAD_DSTYLE_DIMINSPECT
1070
   396
1000
100%
1070
   395
1000

1070
   394
1070
    33
1070
   393
1070
     0
  0
DIMENSION
  5
5A17
102
{ACAD_XDICTIONARY
360
5A24
102
}
102
{ACAD_REACTORS
330
5A2E
102
}
330
1F
100
AcDbEntity
  8
AM_5 寸法線
100
AcDbDimension
  2
*D17
 10
1263.724939006553
 20
716.3981274357456
 30
0.0
 11
1250.724939006553
 21
856.3981274357457
 31
0.0
 70
    32
  1
%%c<>
 71
     5
 42
279.9999999999999
 73
     0
 74
     0
 75
     0
  3
SEISA$0
100
AcDbAlignedDimension
 13
976.7249390065531
 23
996.3981274357456
 33
0.0
 14
976.7249390065531
 24
716.3981274357456
 34
0.0
 50
90.0
100
AcDbRotatedDimension
1001
ACAD_DSTYLE_DIMINSPECT
1070
   396
1000
100%
1070
   395
1000

1070
   394
1070
    33
1070
   393
1070
     0
  0
DIMENSION
  5
5A76
330
1F
100
AcDbEntity
  8
AM_5 寸法線
100
AcDbDimension
  2
*D18
 10
526.7249390065533
 20
870.9353864357456
 30
0.0
 11
557.7736585869176
 21
884.2411607212115
 31
0.0
 70
   160
 71
     5
 42
140.0
 73
     0
 74
     0
 75
     0
  3
SEISA$0
100
AcDbAlignedDimension
 13
666.7249390065533
 23
856.3981274357455
 33
0.0
 14
526.7249390065533
 24
856.3981274357455
 34
0.0
100
AcDbRotatedDimension
1001
ACAD
1000
DSTYLE
1002
{
1070
   279
1070
     2
1002
}
  0
DIMENSION
  5
5ADF
102
{ACAD_XDICTIONARY
360
5AEC
102
}
102
{ACAD_REACTORS
330
5AF6
102
}
330
1F
100
AcDbEntity
  8
AM_5 寸法線
100
AcDbDimension
  2
*D19
 10
1103.724939006553
 20
870.9353864357456
 30
0.0
 11
1033.724939006553
 21
883.9353864357455
 31
0.0
 70
    32
 71
     5
 42
140.0
 73
     0
 74
     0
 75
     0
  3
SEISA$0
100
AcDbAlignedDimension
 13
963.7249390065532
 23
856.3981274357457
 33
0.0
 14
1103.724939006553
 24
856.3981274357457
 34
0.0
100
AcDbRotatedDimension
  0
DIMENSION
  5
5ED0
102
{ACAD_XDICTIONARY
360
5EDF
102
}
102
{ACAD_REACTORS
330
5EEB
330
9635
102
}
330
1F
100
AcDbEntity
  8
AM_5 寸法線
100
AcDbDimension
  2
*D20
 10
607.7249390065532
 20
928.2512574003936
 30
0.0
 11
568.5249390065532
 21
941.2512574003937
 31
0.0
 70
    32
 71
     5
 42
4.5
 73
     0
 74
     0
 75
     0
  3
SEISA$0
100
AcDbAlignedDimension
 13
612.2249390065533
 23
951.8981274357456
 33
0.0
 14
607.7249390065532
 24
951.3981274357456
 34
0.0
100
AcDbRotatedDimension
  0
DIMENSION
  5
5FB4
102
{ACAD_XDICTIONARY
360
5FC3
102
}
102
{ACAD_REACTORS
330
5FCF
102
}
330
1F
100
AcDbEntity
  8
AM_5 寸法線
100
AcDbDimension
  2
*D21
 10
652.7249390065533
 20
656.3981274357456
 30
0.0
 11
618.3249390065532
 21
669.3981274357456
 31
0.0
 70
    32
 71
     5
 42
21.0
 73
     0
 74
     0
 75
     0
  3
SEISA$0
100
AcDbAlignedDimension
 13
673.7249390065533
 23
717.3981274357457
 33
0.0
 14
652.7249390065533
 24
717.3981274357457
 34
0.0
100
AcDbRotatedDimension
1001
ACAD_DSTYLE_DIMINSPECT
1070
   396
1000
100%
1070
   395
1000

1070
   394
1070
    33
1070
   393
1070
     0
1001
ACAD
1000
DSTYLE
1002
{
1070
   173
1070
     1
1070
   342
1005
0
1070
   343
1005
2C8E
1070
   344
1005
69
1002
}
  0
DIMENSION
  5
6008
102
{ACAD_XDICTIONARY
360
6017
102
}
102
{ACAD_REACTORS
330
6023
102
}
330
1F
100
AcDbEntity
  8
AM_5 寸法線
100
AcDbDimension
  2
*D22
 10
977.7249390065533
 20
656.3981274357456
 30
0.0
 11
1012.124939006553
 21
669.3981274357456
 31
0.0
 70
    32
 71
     5
 42
21.0
 73
     0
 74
     0
 75
     0
  3
SEISA$0
100
AcDbAlignedDimension
 13
956.7249390065532
 23
717.3981274357457
 33
0.0
 14
977.7249390065533
 24
717.3981274357457
 34
0.0
100
AcDbRotatedDimension
1001
ACAD_DSTYLE_DIMINSPECT
1070
   396
1000
100%
1070
   395
1000

1070
   394
1070
    33
1070
   393
1070
     0
1001
ACAD
1000
DSTYLE
1002
{
1070
   173
1070
     1
1070
   342
1005
0
1070
   343
1005
2C8E
1070
   344
1005
69
1002
}
  0
DIMENSION
  5
6148
102
{ACAD_XDICTIONARY
360
6155
102
}
102
{ACAD_REACTORS
330
615F
102
}
330
1F
100
AcDbEntity
  8
AM_5 寸法線
100
AcDbDimension
  2
*D23
 10
591.7249390065533
 20
616.3981274357456
 30
0.0
 11
559.2249390065533
 21
629.3981274357456
 31
0.0
 70
    32
 71
     5
 42
65.0
 73
     0
 74
     0
 75
     0
  3
SEISA$0
100
AcDbAlignedDimension
 13
526.7249390065533
 23
766.1981274357457
 33
0.0
 14
591.7249390065533
 24
748.3981274357456
 34
0.0
100
AcDbRotatedDimension
  0
DIMENSION
  5
6160
102
{ACAD_XDICTIONARY
360
616D
102
}
102
{ACAD_REACTORS
330
6177
102
}
330
1F
100
AcDbEntity
  8
AM_5 寸法線
100
AcDbDimension
  2
*D24
 10
673.7249390065533
 20
616.3981274357456
 30
0.0
 11
632.7249390065532
 21
629.3981274357456
 31
0.0
 70
    32
 71
     5
 42
82.0
 73
     0
 74
     0
 75
     0
  3
SEISA$0
100
AcDbAlignedDimension
 13
591.7249390065533
 23
748.3981274357456
 33
0.0
 14
673.7249390065533
 24
717.3981274357457
 34
0.0
100
AcDbRotatedDimension
  0
DIMENSION
  5
6190
102
{ACAD_XDICTIONARY
360
619D
102
}
102
{ACAD_REACTORS
330
61A7
102
}
330
1F
100
AcDbEntity
  8
AM_5 寸法線
100
AcDbDimension
  2
*D25
 10
1038.724939006553
 20
616.3981274357456
 30
0.0
 11
997.7249390065534
 21
629.3981274357456
 31
0.0
 70
    32
 71
     5
 42
82.0
 73
     0
 74
     0
 75
     0
  3
SEISA$0
100
AcDbAlignedDimension
 13
956.7249390065532
 23
717.3981274357457
 33
0.0
 14
1038.724939006553
 24
748.3981274357456
 34
0.0
100
AcDbRotatedDimension
  0
DIMENSION
  5
61A8
102
{ACAD_XDICTIONARY
360
61B5
102
}
102
{ACAD_REACTORS
330
61BF
102
}
330
1F
100
AcDbEntity
  8
AM_5 寸法線
100
AcDbDimension
  2
*D26
 10
1103.724939006553
 20
616.3981274357456
 30
0.0
 11
1071.224939006553
 21
629.3981274357456
 31
0.0
 70
    32
 71
     5
 42
65.0
 73
     0
 74
     0
 75
     0
  3
SEISA$0
100
AcDbAlignedDimension
 13
1038.724939006553
 23
748.3981274357456
 33
0.0
 14
1103.724939006553
 24
766.1981274357457
 34
0.0
100
AcDbRotatedDimension
  0
INSERT
  5
78A7
102
{ACAD_REACTORS
330
8DF2
330
8E2F
330
97AF
330
980D
102
}
330
1F
100
AcDbEntity
  8
AM_0 外形線1
100
AcDbBlockReference
  2
ＧＣスペーサ SAMY280
 10
673.7249390065533
 20
856.3981274357457
 30
0.0
  0
DIMENSION
  5
8DE2
102
{ACAD_XDICTIONARY
360
8DF1
102
}
102
{ACAD_REACTORS
330
8DF2
102
}
330
1F
100
AcDbEntity
  8
AM_5 寸法線
100
AcDbDimension
  2
*D28
 10
694.7249390065532
 20
656.3981274357452
 30
0.0
 11
729.1249390065531
 21
669.3981274357452
 31
0.0
 70
    32
 71
     5
 42
21.0
 73
     0
 74
     0
 75
     0
  3
SEISA$0
100
AcDbAlignedDimension
 13
673.7249390065533
 23
717.3850214865224
 33
0.0
 14
694.7249390065532
 24
717.3850214865224
 34
0.0
100
AcDbRotatedDimension
1001
ACAD_DSTYLE_DIMINSPECT
1070
   396
1000
100%
1070
   395
1000

1070
   394
1070
    33
1070
   393
1070
     0
1001
ACAD
1000
DSTYLE
1002
{
1070
   173
1070
     1
1070
   342
1005
0
1070
   343
1005
2C8E
1070
   344
1005
69
1002
}
  0
DIMENSION
  5
8E1F
102
{ACAD_XDICTIONARY
360
8E2E
102
}
102
{ACAD_REACTORS
330
8E2F
102
}
330
1F
100
AcDbEntity
  8
AM_5 寸法線
100
AcDbDimension
  2
*D29
 10
935.7249390065533
 20
656.3981274357452
 30
0.0
 11
901.3249390065537
 21
669.3981274357452
 31
0.0
 70
    32
 71
     5
 42
21.0
 73
     0
 74
     0
 75
     0
  3
SEISA$0
100
AcDbAlignedDimension
 13
956.7249390065532
 23
717.4214462401677
 33
0.0
 14
935.7249390065533
 24
717.4214462401677
 34
0.0
100
AcDbRotatedDimension
1001
ACAD_DSTYLE_DIMINSPECT
1070
   396
1000
100%
1070
   395
1000

1070
   394
1070
    33
1070
   393
1070
     0
1001
ACAD
1000
DSTYLE
1002
{
1070
   173
1070
     1
1070
   342
1005
0
1070
   343
1005
2C8E
1070
   344
1005
69
1002
}
  0
MTEXT
  5
9515
330
1F
100
AcDbEntity
  8
AM_6 文字
100
AcDbMText
 10
1133.745646734419
 20
693.2464015460859
 30
0.0
 40
14.0
 41
301.2521364989179
 46
36.59667923986956
 71
     1
 72
     5
  1
{\W0.6;TYPE:SAM280/SAMH280\PSHAFT DIA:MAX/MIN φ135/φ42}
  7
SEISA
 73
     1
 44
1.0
  0
DIMENSION
  5
9552
102
{ACAD_XDICTIONARY
360
9561
102
}
102
{ACAD_REACTORS
330
9562
102
}
330
1F
100
AcDbEntity
  8
AM_5 寸法線
100
AcDbDimension
  2
*D30
 10
526.7249390065533
 20
993.4945791461771
 30
0.0
 11
554.2249390065533
 21
1006.494579146177
 31
0.0
 70
    32
 71
     5
 42
-1.0
 73
     0
 74
     0
 75
     0
  3
SEISA$0
100
AcDbAlignedDimension
 13
525.7249390065533
 23
951.3981274357456
 33
0.0
 14
526.7249390065533
 24
946.5981274357456
 34
0.0
100
AcDbRotatedDimension
1001
ACAD_DSTYLE_DIMINSPECT
1070
   396
1000
100%
1070
   395
1000

1070
   394
1070
    33
1070
   393
1070
     0
  0
DIMENSION
  5
9627
102
{ACAD_XDICTIONARY
360
9634
102
}
102
{ACAD_REACTORS
330
9635
102
}
330
1F
100
AcDbEntity
  8
AM_5 寸法線
100
AcDbDimension
  2
*D31
 10
645.2249390065532
 20
928.2512574003945
 30
0.0
 11
628.7249390065532
 21
941.2512574003944
 31
0.0
 70
    32
 71
     5
 42
33.0
 73
     0
 74
     0
 75
     0
  3
SEISA$0
100
AcDbAlignedDimension
 13
612.2249390065533
 23
951.8981274357456
 33
0.0
 14
645.2249390065532
 24
951.8981274357456
 34
0.0
 50
0.0000000000001132
100
AcDbRotatedDimension
1001
ACAD_DSTYLE_DIMINSPECT
1070
   396
1000
100%
1070
   395
1000

1070
   394
1070
    33
1070
   393
1070
     0
  0
DIMENSION
  5
9651
102
{ACAD_XDICTIONARY
360
9660
102
}
102
{ACAD_REACTORS
330
9661
102
}
330
1F
100
AcDbEntity
  8
AM_5 寸法線
100
AcDbDimension
  2
*D32
 10
666.7249390065533
 20
928.2512574003945
 30
0.0
 11
645.2423932554097
 21
890.022579866885
 31
0.0
 70
   160
 71
     5
 42
21.50000000000011
 73
     0
 74
     0
 75
     0
  3
SEISA$0
100
AcDbAlignedDimension
 13
645.2249390065532
 23
951.3981274357456
 33
0.0
 14
666.7249390065533
 24
949.8981274357456
 34
0.0
 50
0.0000000000001132
100
AcDbRotatedDimension
1001
ACAD_DSTYLE_DIMINSPECT
1070
   396
1000
100%
1070
   395
1000

1070
   394
1070
    33
1070
   393
1070
     0
1001
ACAD
1000
DSTYLE
1002
{
1070
   279
1070
     1
1002
}
  0
DIMENSION
  5
979F
102
{ACAD_XDICTIONARY
360
97AE
102
}
102
{ACAD_REACTORS
330
97AF
102
}
330
1F
100
AcDbEntity
  8
AM_5 寸法線
100
AcDbDimension
  2
*D33
 10
666.7249390065533
 20
882.6906576937787
 30
0.0
 11
692.4274371297581
 21
883.6197860209876
 31
0.0
 70
   160
 71
     5
 42
7.0
 73
     0
 74
     0
 75
     0
  3
SEISA$0
100
AcDbAlignedDimension
 13
673.7249390065533
 23
967.8981274357456
 33
0.0
 14
666.7249390065533
 24
900.9534744553263
 34
0.0
 50
0.0000000000001132
100
AcDbRotatedDimension
1001
ACAD_DSTYLE_DIMINSPECT
1070
   396
1000
100%
1070
   395
1000

1070
   394
1070
    33
1070
   393
1070
     0
1001
ACAD
1000
DSTYLE
1002
{
1070
   279
1070
     1
1002
}
  0
DIMENSION
  5
97FD
102
{ACAD_XDICTIONARY
360
980C
102
}
102
{ACAD_REACTORS
330
980D
102
}
330
1F
100
AcDbEntity
  8
AM_5 寸法線
100
AcDbDimension
  2
*D34
 10
963.7249390065532
 20
882.6906576937787
 30
0.0
 11
943.8066795354048
 21
892.1482129877299
 31
0.0
 70
   160
 71
     5
 42
7.0
 73
     0
 74
     0
 75
     0
  3
SEISA$0
100
AcDbAlignedDimension
 13
956.7249390065532
 23
967.8981274357456
 33
0.0
 14
963.7249390065532
 24
949.8981274357456
 34
0.0
 50
0.0000000000001132
100
AcDbRotatedDimension
1001
ACAD_DSTYLE_DIMINSPECT
1070
   396
1000
100%
1070
   395
1000

1070
   394
1070
    33
1070
   393
1070
     0
1001
ACAD
1000
DSTYLE
1002
{
1070
   279
1070
     2
1002
}
  0
DIMENSION
  5
993A
330
1F
100
AcDbEntity
  8
AM_5 寸法線
100
AcDbDimension
  2
*D35
 10
470.7249390065531
 20
761.3981274357456
 30
0.0
 11
457.7249390065531
 21
856.3981274357457
 31
0.0
 70
    32
  1
%%c<>
 71
     5
 42
190.0
 73
     0
 74
     0
 75
     0
  3
SEISA$0
100
AcDbAlignedDimension
 13
573.2249390065533
 23
951.3981274357456
 33
0.0
 14
573.2249390065533
 24
761.3981274357456
 34
0.0
 50
90.00000000000005
100
AcDbRotatedDimension
1001
ACAD_DSTYLE_DIMINSPECT
1070
   396
1000
100%
1070
   395
1000

1070
   394
1070
    33
1070
   393
1070
     0
  0
INSERT
  5
99D9
330
1F
100
AcDbEntity
  8
AM_0 外形線1
100
AcDbBlockReference
  2
ケース
 10
562.0653705808323
 20
968.3981274357456
 30
0.0
  0
ENDSEC
  0
SECTION
  2
OBJECTS
  0
DICTIONARY
  5
C
330
0
100
AcDbDictionary
281
     1
  3
ACAD_COLOR
350
C5
  3
ACAD_GROUP
350
D
  3
ACAD_LAYOUT
350
1A
  3
ACAD_MATERIAL
350
C4
  3
ACAD_MLEADERSTYLE
350
2D5
  3
ACAD_MLINESTYLE
350
17
  3
ACAD_PLOTSETTINGS
350
19
  3
ACAD_PLOTSTYLENAME
350
E
  3
ACAD_SCALELIST
350
2B3
  3
ACAD_TABLESTYLE
350
121
  3
ACAD_VISUALSTYLE
350
27F
  3
ACDB_RECOMPOSE_DATA
350
2F7
  3
AcDbVariableDictionary
350
34
  3
AcmDictionary
350
49
  3
AMG
350
2B
  3
AMGSNAPSETTINGS
350
1DE
  0
DICTIONARY
  5
BF
330
2
100
AcDbDictionary
280
     1
281
     1
  3
ACAD_LAYERSTATES
360
2D6F
  3
AMLAYER_GROUPCOLORS
360
C0
  0
DICTIONARY
  5
29F7
330
10
100
AcDbDictionary
280
     1
281
     1
  3
ADSK_XREC_LAYER_RECONCILED
360
29F8
  0
DICTIONARY
  5
29F9
330
81
100
AcDbDictionary
280
     1
281
     1
  3
ADSK_XREC_LAYER_RECONCILED
360
29FA
  0
DICTIONARY
  5
2D68
330
2D67
100
AcDbDictionary
280
     1
281
     1
  0
DICTIONARY
  5
72DC
330
72DB
100
AcDbDictionary
280
     1
281
     1
  0
DICTIONARY
  5
82
330
1F
100
AcDbDictionary
280
     1
281
     1
  3
ACAD_SORTENTS
360
A41
  0
DICTIONARY
  5
6B7A
330
4D26
100
AcDbDictionary
280
     1
281
     1
  3
ACAD_SORTENTS
360
6B7B
  0
DICTIONARY
  5
6C0D
330
4D34
100
AcDbDictionary
280
     1
281
     1
  3
ACAD_SORTENTS
360
6C0E
  0
DICTIONARY
  5
4EDC
330
4E01
100
AcDbDictionary
280
     1
281
     1
  3
ACAD_SORTENTS
360
6BEC
  0
DICTIONARY
  5
50AF
330
4FE0
100
AcDbDictionary
280
     1
281
     1
  3
ACAD_SORTENTS
360
6C7F
  0
DICTIONARY
  5
5165
330
50F2
100
AcDbDictionary
280
     1
281
     1
  3
ACAD_SORTENTS
360
979E
  0
DICTIONARY
  5
528E
330
5218
100
AcDbDictionary
280
     1
281
     1
  3
ACAD_SORTENTS
360
9898
  0
DICTIONARY
  5
56A4
330
5611
100
AcDbDictionary
280
     1
281
     1
  3
ACAD_SORTENTS
360
6EF0
  0
DICTIONARY
  5
5745
330
56AE
100
AcDbDictionary
280
     1
281
     1
  3
ACAD_SORTENTS
360
6F57
  0
DICTIONARY
  5
7A4B
330
7834
100
AcDbDictionary
280
     1
281
     1
  3
ACAD_SORTENTS
360
9B58
  0
DICTIONARY
  5
9A07
330
99C2
100
AcDbDictionary
280
     1
281
     1
  3
ACAD_SORTENTS
360
9A08
  0
DICTIONARY
  5
59F4
330
59E7
100
AcDbDictionary
280
     1
281
     1
  3
ACAD_DIMASSOC
360
59FE
  0
DICTIONARY
  5
5A0C
330
59FF
100
AcDbDictionary
280
     1
281
     1
  3
ACAD_DIMASSOC
360
5A16
  0
DICTIONARY
  5
5A24
330
5A17
100
AcDbDictionary
280
     1
281
     1
  3
ACAD_DIMASSOC
360
5A2E
  0
DICTIONARY
  5
5AEC
330
5ADF
100
AcDbDictionary
280
     1
281
     1
  3
ACAD_DIMASSOC
360
5AF6
  0
DICTIONARY
  5
5EDF
330
5ED0
100
AcDbDictionary
280
     1
281
     1
  3
ACAD_DIMASSOC
360
5EEB
  0
DICTIONARY
  5
5FC3
330
5FB4
100
AcDbDictionary
280
     1
281
     1
  3
ACAD_DIMASSOC
360
5FCF
  0
DICTIONARY
  5
6017
330
6008
100
AcDbDictionary
280
     1
281
     1
  3
ACAD_DIMASSOC
360
6023
  0
DICTIONARY
  5
6155
330
6148
100
AcDbDictionary
280
     1
281
     1
  3
ACAD_DIMASSOC
360
615F
  0
DICTIONARY
  5
616D
330
6160
100
AcDbDictionary
280
     1
281
     1
  3
ACAD_DIMASSOC
360
6177
  0
DICTIONARY
  5
619D
330
6190
100
AcDbDictionary
280
     1
281
     1
  3
ACAD_DIMASSOC
360
61A7
  0
DICTIONARY
  5
61B5
330
61A8
100
AcDbDictionary
280
     1
281
     1
  3
ACAD_DIMASSOC
360
61BF
  0
DICTIONARY
  5
8DF1
330
8DE2
100
AcDbDictionary
280
     1
281
     1
  3
ACAD_DIMASSOC
360
8DF2
  0
DICTIONARY
  5
8E2E
330
8E1F
100
AcDbDictionary
280
     1
281
     1
  3
ACAD_DIMASSOC
360
8E2F
  0
DICTIONARY
  5
9561
330
9552
100
AcDbDictionary
280
     1
281
     1
  3
ACAD_DIMASSOC
360
9562
  0
DICTIONARY
  5
9634
330
9627
100
AcDbDictionary
280
     1
281
     1
  3
ACAD_DIMASSOC
360
9635
  0
DICTIONARY
  5
9660
330
9651
100
AcDbDictionary
280
     1
281
     1
  3
ACAD_DIMASSOC
360
9661
  0
DICTIONARY
  5
97AE
330
979F
100
AcDbDictionary
280
     1
281
     1
  3
ACAD_DIMASSOC
360
97AF
  0
DICTIONARY
  5
980C
330
97FD
100
AcDbDictionary
280
     1
281
     1
  3
ACAD_DIMASSOC
360
980D
  0
DICTIONARY
  5
C5
102
{ACAD_REACTORS
330
C
102
}
330
C
100
AcDbDictionary
281
     1
  0
DICTIONARY
  5
D
102
{ACAD_REACTORS
330
C
102
}
330
C
100
AcDbDictionary
281
     1
  0
DICTIONARY
  5
1A
102
{ACAD_REACTORS
330
C
102
}
330
C
100
AcDbDictionary
281
     1
  3
Model
350
22
  3
レイアウト1
350
1E
  3
レイアウト2
350
26
  0
DICTIONARY
  5
C4
102
{ACAD_REACTORS
330
C
102
}
330
C
100
AcDbDictionary
281
     1
  3
ByBlock
350
27D
  3
ByLayer
350
27C
  3
Global
350
27E
  0
DICTIONARY
  5
2D5
102
{ACAD_REACTORS
330
C
102
}
330
C
100
AcDbDictionary
281
     1
  3
Standard
350
2D6
  0
DICTIONARY
  5
17
102
{ACAD_REACTORS
330
C
102
}
330
C
100
AcDbDictionary
281
     1
  3
Standard
350
18
  0
DICTIONARY
  5
19
102
{ACAD_REACTORS
330
C
102
}
330
C
100
AcDbDictionary
281
     1
  3
SEISA基本
350
1C7E
  0
ACDBDICTIONARYWDFLT
  5
E
102
{ACAD_REACTORS
330
C
102
}
330
C
100
AcDbDictionary
281
     1
  3
Normal
350
F
100
AcDbDictionaryWithDefault
340
F
  0
DICTIONARY
  5
2B3
102
{ACAD_REACTORS
330
C
102
}
330
C
100
AcDbDictionary
281
     1
  3
*A1
350
2D6E
  3
*A2
350
72DE
  3
*A3
350
950C
  3
A0
350
2B4
  3
A1
350
2B5
  3
A2
350
2B6
  3
A3
350
2B7
  3
A4
350
2B8
  3
A5
350
2B9
  3
A6
350
2BA
  3
A7
350
2BB
  3
A8
350
2BC
  3
A9
350
2BD
  3
B0
350
2BE
  3
B1
350
2BF
  3
B2
350
2C0
  3
B3
350
2C1
  3
B4
350
2C2
  3
B5
350
2C3
  3
B6
350
2C4
  3
B7
350
2C5
  3
B8
350
2C6
  3
B9
350
2C7
  3
C0
350
2C8
  3
C1
350
2C9
  3
C2
350
2CA
  3
C3
350
2CB
  3
C4
350
2CC
  3
C5
350
2CD
  3
C6
350
2CE
  3
C7
350
2CF
  3
C8
350
2D0
  3
C9
350
2D1
  3
D0
350
2D2
  3
D1
350
2D3
  3
D2
350
2D4
  0
DICTIONARY
  5
121
102
{ACAD_REACTORS
330
C
102
}
330
C
100
AcDbDictionary
281
     1
  3
Standard
350
122
  0
DICTIONARY
  5
27F
102
{ACAD_REACTORS
330
C
102
}
330
C
100
AcDbDictionary
281
     1
  3
2dWireframe
350
285
  3
3D Hidden
350
287
  3
3dWireframe
350
286
  3
Basic
350
284
  3
Brighten
350
28B
  3
ColorChange
350
28F
  3
Conceptual
350
288
  3
Dim
350
28A
  3
Facepattern
350
28E
  3
Flat
350
280
  3
FlatWithEdges
350
281
  3
Gouraud
350
282
  3
GouraudWithEdges
350
283
  3
Linepattern
350
28D
  3
Realistic
350
289
  3
Thicken
350
28C
  0
XRECORD
  5
2F7
102
{ACAD_REACTORS
330
C
102
}
330
C
100
AcDbXrecord
280
     1
 90
        1
330
122
  0
DICTIONARY
  5
34
102
{ACAD_REACTORS
330
C
102
}
330
C
100
AcDbDictionary
281
     1
  3
CANNOSCALE
350
2FA
  3
CMLEADERSTYLE
350
2F8
  3
CTABLESTYLE
350
140
  3
DIMASSOC
350
AC
  3
INDEXCTL
350
35
  3
LAYEREVAL
350
6FDE
  3
LAYERNOTIFY
350
6FDF
  3
LIGHTINGUNITS
350
2FB
  3
MSLTSCALE
350
2F9
  0
DICTIONARY
  5
49
102
{ACAD_REACTORS
330
C
102
}
330
C
100
AcDbDictionary
281
     1
  3
AcmBOM
350
161B
  3
AcmStdDictionary
350
4A
  3
AMDTSECTSYM_ARROWCOLOR
350
12B
  0
DICTIONARY
  5
2B
102
{ACAD_REACTORS
330
C
102
}
330
C
100
AcDbDictionary
281
     1
  0
DICTIONARY
  5
1DE
102
{ACAD_REACTORS
330
C
102
}
330
C
100
AcDbDictionary
281
     1
  0
DICTIONARY
  5
2D6F
102
{ACAD_REACTORS
330
BF
102
}
330
BF
100
AcDbDictionary
281
     1
  0
DICTIONARY
  5
C0
102
{ACAD_REACTORS
330
BF
102
}
330
BF
100
AcDbDictionary
280
     1
281
     1
  0
XRECORD
  5
29F8
102
{ACAD_REACTORS
330
29F7
102
}
330
29F7
100
AcDbXrecord
280
     1
290
     1
  0
XRECORD
  5
29FA
102
{ACAD_REACTORS
330
29F9
102
}
330
29F9
100
AcDbXrecord
280
     1
290
     1
  0
SORTENTSTABLE
  5
A41
102
{ACAD_REACTORS
330
82
102
}
330
82
100
AcDbSortentsTable
330
1F
331
8E1F
  5
8E1F
331
447A
  5
447A
331
6190
  5
6190
331
5A17
  5
5A8E
331
5ADF
  5
5BBB
331
44AD
  5
44AD
331
6008
  5
6008
331
6160
  5
6160
331
59FF
  5
5A76
331
5119
  5
550E
331
9515
  5
9515
331
5FB4
  5
5FB4
331
8DE2
  5
8DE2
331
4E3B
  5
5240
331
9552
  5
9552
331
5A76
  5
5B48
331
6148
  5
6148
331
59E7
  5
5A75
331
78A7
  5
78A7
331
4512
  5
4512
331
5ED0
  5
5ED0
331
61A8
  5
61A8
331
5240
  5
554B
331
43D1
  5
43D1
331
56DD
  5
5815
331
5266
  5
563F
331
563F
  5
57E4
  0
SORTENTSTABLE
  5
6B7B
102
{ACAD_REACTORS
330
6B7A
102
}
330
6B7A
100
AcDbSortentsTable
330
4D26
  0
SORTENTSTABLE
  5
6C0E
102
{ACAD_REACTORS
330
6C0D
102
}
330
6C0D
100
AcDbSortentsTable
330
4D34
  0
SORTENTSTABLE
  5
6BEC
102
{ACAD_REACTORS
330
4EDC
102
}
330
4EDC
100
AcDbSortentsTable
330
4E01
331
4E1F
  5
4E20
331
4E19
  5
4E1A
331
4E36
  5
4E37
331
4E30
  5
4E31
331
4E2A
  5
4E2B
331
4E26
  5
4E27
331
4E20
  5
4E21
331
4E1A
  5
4E1B
331
4E37
  5
4E38
331
4E31
  5
4E32
331
4E27
  5
4E28
331
4E2B
  5
4E2C
331
4E21
  5
4E22
331
4E1B
  5
4E1C
331
4E32
  5
4E33
331
4E2C
  5
4E2D
331
4E38
  5
4E39
331
4E22
  5
4E23
331
4E1C
  5
4E1D
331
4EDB
  5
4E17
331
4E33
  5
4E34
331
4E39
  5
4E3A
331
4E2D
  5
4E2E
331
4E23
  5
4E24
331
4E1D
  5
4E1E
331
4E17
  5
4E18
331
4E34
  5
4E35
331
4E2E
  5
4E2F
331
4E3A
  5
4EDB
331
4E24
  5
4E25
331
4E28
  5
4E29
331
4E1E
  5
4E1F
331
4E18
  5
4E19
331
4E35
  5
4E36
331
4E2F
  5
4E30
331
4E25
  5
4E26
331
4E29
  5
4E2A
  0
SORTENTSTABLE
  5
6C7F
102
{ACAD_REACTORS
330
50AF
102
}
330
50AF
100
AcDbSortentsTable
330
4FE0
331
5000
  5
5001
331
501C
  5
50AE
331
4FF1
  5
4FF2
331
5016
  5
5019
331
500B
  5
500C
331
500A
  5
500B
331
4FFF
  5
5000
331
5015
  5
5016
331
4FF0
  5
4FF1
331
4FFE
  5
4FFF
331
501A
  5
501C
331
4FEF
  5
4FF0
331
5014
  5
5015
331
5009
  5
500A
331
5008
  5
5009
331
4FFD
  5
4FFE
331
5013
  5
5014
331
4FEE
  5
4FEF
331
5019
  5
501A
331
4FFC
  5
4FFD
331
5012
  5
5013
331
50AE
  5
4FEE
331
5007
  5
5008
331
5011
  5
5012
331
5006
  5
5007
331
4FF7
  5
4FF8
331
4FFB
  5
4FFC
331
5010
  5
5011
331
5005
  5
5006
331
4FF6
  5
4FF7
331
4FFA
  5
4FFB
331
500F
  5
5010
331
5004
  5
5005
331
4FF9
  5
4FFA
331
500E
  5
500F
331
5003
  5
5004
331
4FF4
  5
4FF6
331
4FF8
  5
4FF9
331
500D
  5
500E
331
5002
  5
5003
331
4FF3
  5
4FF4
331
500C
  5
500D
331
5001
  5
5002
331
4FF2
  5
4FF3
  0
SORTENTSTABLE
  5
979E
102
{ACAD_REACTORS
330
5165
102
}
330
5165
100
AcDbSortentsTable
330
50F2
331
50F9
  5
50FB
331
50F8
  5
50FA
331
50FB
  5
50FD
331
50FA
  5
50FC
331
50FE
  5
5100
331
50FD
  5
50FF
331
50FC
  5
50FE
331
5100
  5
5102
331
977F
  5
50F7
331
50FF
  5
5101
331
5102
  5
5104
331
5101
  5
5103
331
5104
  5
5108
331
5103
  5
5107
331
5108
  5
510A
331
5107
  5
5109
331
510A
  5
510C
331
5109
  5
510B
331
510C
  5
510E
331
510B
  5
510D
331
510F
  5
5111
331
510E
  5
5110
331
5111
  5
5113
331
5110
  5
5112
331
5113
  5
5117
331
5112
  5
5114
331
50F6
  5
50F8
331
5117
  5
977F
331
50F7
  5
50F9
331
5114
  5
977E
331
510D
  5
510F
331
977E
  5
50F6
  0
SORTENTSTABLE
  5
9898
102
{ACAD_REACTORS
330
528E
102
}
330
528E
100
AcDbSortentsTable
330
5218
331
5225
  5
5227
331
522D
  5
522F
331
5235
  5
5237
331
521E
  5
5220
331
523D
  5
95B2
331
5224
  5
5226
331
522C
  5
522E
331
5234
  5
5236
331
521D
  5
521F
331
5223
  5
5225
331
522B
  5
522D
331
5233
  5
5235
331
521C
  5
521E
331
523B
  5
523E
331
95B3
  5
521D
331
522A
  5
522C
331
5232
  5
5234
331
95B2
  5
521C
331
5229
  5
522B
331
5231
  5
5233
331
5239
  5
523D
331
5220
  5
5224
331
5228
  5
522A
331
5230
  5
5232
331
5238
  5
523B
331
5227
  5
5229
331
522F
  5
5231
331
5237
  5
5239
331
5226
  5
5228
331
522E
  5
5230
331
5236
  5
5238
331
521F
  5
5223
331
523E
  5
95B3
  0
SORTENTSTABLE
  5
6EF0
102
{ACAD_REACTORS
330
56A4
102
}
330
56A4
100
AcDbSortentsTable
330
5611
  0
SORTENTSTABLE
  5
6F57
102
{ACAD_REACTORS
330
5745
102
}
330
5745
100
AcDbSortentsTable
330
56AE
  0
SORTENTSTABLE
  5
9B58
102
{ACAD_REACTORS
330
7A4B
102
}
330
7A4B
100
AcDbSortentsTable
330
7834
331
787A
  5
787B
331
789A
  5
789C
331
7893
  5
7895
331
7880
  5
7881
331
7890
  5
7892
331
787D
  5
787E
331
7889
  5
788A
331
7886
  5
7887
331
7896
  5
7898
331
788F
  5
7891
331
7871
  5
7872
331
788C
  5
788E
331
7883
  5
7884
331
7877
  5
7878
331
7874
  5
7875
331
7879
  5
787A
331
787C
  5
787D
331
789C
  5
7B3A
331
7882
  5
7883
331
7892
  5
7894
331
7895
  5
7897
331
7B3A
  5
786F
331
787F
  5
7880
331
7899
  5
789B
331
788B
  5
788C
331
7888
  5
7889
331
788E
  5
7890
331
7873
  5
7874
331
7870
  5
7871
331
7885
  5
7886
331
7876
  5
7877
331
7878
  5
7879
331
7898
  5
789A
331
787B
  5
787C
331
787E
  5
787F
331
789B
  5
7B39
331
7B39
  5
788D
331
7897
  5
7899
331
7884
  5
7885
331
7894
  5
7896
331
7881
  5
7882
331
7891
  5
7893
331
788D
  5
788F
331
786F
  5
7870
331
788A
  5
788B
331
7875
  5
7876
331
7872
  5
7873
331
7887
  5
7888
  0
SORTENTSTABLE
  5
9A08
102
{ACAD_REACTORS
330
9A07
102
}
330
9A07
100
AcDbSortentsTable
330
99C2
  0
DIMASSOC
  5
59FE
102
{ACAD_REACTORS
330
59F4
102
}
330
59F4
100
AcDbDimAssoc
330
59E7
 90
        3
 70
     0
 71
     0
  1
AcDbOsnapPointRef
 72
    13
331
5119
331
510F
 73
     2
 91
        0
 40
0.0
 10
0.0
 20
0.0
 30
2.000000000000000E+50
 75
     0
  1
AcDbOsnapPointRef
 72
     8
331
5119
331
50FB
 73
     2
 91
        0
 40
1.0
 10
0.0
 20
0.0
 30
0.0
 75
     1
  1
AcDbOsnapPointRef
 72
    13
331
5119
331
510F
 73
     2
 91
        0
 40
0.0
 10
0.0
 20
0.0
 30
2.000000000000000E+50
 75
     0
  0
DIMASSOC
  5
5A16
102
{ACAD_REACTORS
330
5A0C
102
}
330
5A0C
100
AcDbDimAssoc
330
59FF
 90
        3
 70
     0
 71
     0
  1
AcDbOsnapPointRef
 72
     1
331
4E3B
331
4E13
 73
     2
 91
        0
 40
1.0
 10
0.0
 20
0.0
 30
2.000000000000000E+50
 75
     0
  1
AcDbOsnapPointRef
 72
     1
331
4E3B
331
4E0C
 73
     2
 91
        0
 40
1.0
 10
0.0
 20
0.0
 30
2.000000000000000E+50
 75
     0
  0
DIMASSOC
  5
5A2E
102
{ACAD_REACTORS
330
5A24
102
}
330
5A24
100
AcDbDimAssoc
330
5A17
 90
        3
 70
     0
 71
     0
  1
AcDbOsnapPointRef
 72
     1
331
4E3B
331
4E18
 73
     2
 91
        0
 40
1.0
 10
0.0
 20
0.0
 30
2.000000000000000E+50
 75
     0
  1
AcDbOsnapPointRef
 72
     8
331
4E3B
331
4E09
 73
     2
 91
        0
 40
1.0
 10
0.0
 20
0.0
 30
0.0
 75
     1
  1
AcDbOsnapPointRef
 72
     1
331
4E3B
331
4E18
 73
     2
 91
        0
 40
1.0
 10
0.0
 20
0.0
 30
2.000000000000000E+50
 75
     0
  0
DIMASSOC
  5
5AF6
102
{ACAD_REACTORS
330
5AEC
102
}
330
5AEC
100
AcDbDimAssoc
330
5ADF
 90
        2
 70
     0
 71
     0
  1
AcDbOsnapPointRef
 72
     2
331
5119
331
5113
 73
     2
 91
        0
 40
0.5000000000000005
 10
0.0
 20
0.0
 30
0.0
 75
     0
  0
DIMASSOC
  5
5EEB
102
{ACAD_REACTORS
330
5EDF
102
}
330
5EDF
100
AcDbDimAssoc
330
5ED0
 90
        3
 70
     0
 71
     0
  1
AcDbOsnapPointRef
 72
    13
331
5240
331
5235
 73
     2
 91
        0
 40
0.0
 10
0.0
 20
0.0
 30
2.000000000000000E+50
 75
     0
  1
AcDbOsnapPointRef
 72
    13
331
5266
331
4FFB
 73
     2
 91
        0
 40
0.0
 10
0.0
 20
0.0
 30
2.000000000000000E+50
 75
     0
  0
DIMASSOC
  5
5FCF
102
{ACAD_REACTORS
330
5FC3
102
}
330
5FC3
100
AcDbDimAssoc
330
5FB4
 90
        2
 70
     0
 71
     0
  1
AcDbOsnapPointRef
 72
    13
331
5266
331
4FE4
 73
     2
 91
        0
 40
0.0
 10
0.0
 20
0.0
 30
2.000000000000000E+50
 75
     0
  0
DIMASSOC
  5
6023
102
{ACAD_REACTORS
330
6017
102
}
330
6017
100
AcDbDimAssoc
330
6008
 90
        2
 70
     0
 71
     0
  1
AcDbOsnapPointRef
 72
    13
331
4E3B
331
4E08
 73
     2
 91
        0
 40
0.0
 10
0.0
 20
0.0
 30
2.000000000000000E+50
 75
     0
  0
DIMASSOC
  5
615F
102
{ACAD_REACTORS
330
6155
102
}
330
6155
100
AcDbDimAssoc
330
6148
 90
        3
 70
     0
 71
     0
  1
AcDbOsnapPointRef
 72
    13
331
5240
331
521F
 73
     2
 91
        0
 40
0.0
 10
0.0
 20
0.0
 30
2.000000000000000E+50
 75
     0
  1
AcDbOsnapPointRef
 72
    13
331
5266
331
4FE5
 73
     2
 91
        0
 40
0.0
 10
0.0
 20
0.0
 30
2.000000000000000E+50
 75
     0
  0
DIMASSOC
  5
6177
102
{ACAD_REACTORS
330
616D
102
}
330
616D
100
AcDbDimAssoc
330
6160
 90
        1
 70
     0
 71
     0
  1
AcDbOsnapPointRef
 72
    13
331
5266
331
4FE5
 73
     2
 91
        0
 40
0.0
 10
0.0
 20
0.0
 30
2.000000000000000E+50
 75
     0
  0
DIMASSOC
  5
61A7
102
{ACAD_REACTORS
330
619D
102
}
330
619D
100
AcDbDimAssoc
330
6190
 90
        2
 70
     0
 71
     0
  1
AcDbOsnapPointRef
 72
    13
331
4E3B
331
4E06
 73
     2
 91
        0
 40
0.0
 10
0.0
 20
0.0
 30
2.000000000000000E+50
 75
     0
  0
DIMASSOC
  5
61BF
102
{ACAD_REACTORS
330
61B5
102
}
330
61B5
100
AcDbDimAssoc
330
61A8
 90
        3
 70
     0
 71
     0
  1
AcDbOsnapPointRef
 72
    13
331
4E3B
331
4E06
 73
     2
 91
        0
 40
0.0
 10
0.0
 20
0.0
 30
2.000000000000000E+50
 75
     0
  1
AcDbOsnapPointRef
 72
    13
331
5119
331
5113
 73
     2
 91
        0
 40
0.0
 10
0.0
 20
0.0
 30
2.000000000000000E+50
 75
     0
  0
DIMASSOC
  5
8DF2
102
{ACAD_REACTORS
330
8DF1
102
}
330
8DF1
100
AcDbDimAssoc
330
8DE2
 90
        3
 70
     0
 71
     0
  1
AcDbOsnapPointRef
 72
    10
331
78A7
331
7882
 73
     0
 91
        0
 40
0.9965097200661171
 10
0.0
 20
0.0
 30
0.0
 75
     0
  1
AcDbOsnapPointRef
 72
     8
331
78A7
331
7886
 73
     0
 91
        0
 40
-0.0000942874044846
 10
0.0
 20
0.0
 30
0.0
 75
     1
  1
AcDbOsnapPointRef
 72
    10
331
78A7
331
7882
 73
     0
 91
        0
 40
0.9965097200661171
 10
0.0
 20
0.0
 30
0.0
 75
     0
  0
DIMASSOC
  5
8E2F
102
{ACAD_REACTORS
330
8E2E
102
}
330
8E2E
100
AcDbDimAssoc
330
8E1F
 90
        3
 70
     0
 71
     0
  1
AcDbOsnapPointRef
 72
    10
331
78A7
331
7865
 73
     0
 91
        0
 40
0.9962486107209887
 10
0.0
 20
0.0
 30
0.0
 75
     0
  1
AcDbOsnapPointRef
 72
     8
331
78A7
331
7869
 73
     0
 91
        0
 40
0.0001677611828924
 10
0.0
 20
0.0
 30
0.0
 75
     1
  1
AcDbOsnapPointRef
 72
    10
331
78A7
331
7865
 73
     0
 91
        0
 40
0.9962486107209887
 10
0.0
 20
0.0
 30
0.0
 75
     0
  0
DIMASSOC
  5
9562
102
{ACAD_REACTORS
330
9561
102
}
330
9561
100
AcDbDimAssoc
330
9552
 90
        2
 70
     0
 71
     0
  1
AcDbOsnapPointRef
 72
     1
331
5240
331
521F
 73
     0
 91
        0
 40
0.0
 10
0.0
 20
0.0
 30
2.000000000000000E+50
 75
     0
  0
DIMASSOC
  5
9635
102
{ACAD_REACTORS
330
9634
102
}
330
9634
100
AcDbDimAssoc
330
9627
 90
        3
 70
     0
 71
     0
  1
AcDbOsnapPointRef
 72
     4
331
5ED0
331
9303
 73
     0
 91
        0
 40
0.0
 10
0.0
 20
0.0
 30
0.0
 75
     0
  1
AcDbOsnapPointRef
 72
     8
331
5240
331
5233
 73
     0
 91
        0
 40
0.9363270973790438
 10
0.0
 20
0.0
 30
0.0
 75
     1
  1
AcDbOsnapPointRef
 72
     4
331
5ED0
331
9303
 73
     0
 91
        0
 40
0.0
 10
0.0
 20
0.0
 30
0.0
 75
     0
  0
DIMASSOC
  5
9661
102
{ACAD_REACTORS
330
9660
102
}
330
9660
100
AcDbDimAssoc
330
9651
 90
        3
 70
     0
 71
     0
  1
AcDbOsnapPointRef
 72
     6
331
5240
331
5238
 73
     0
 91
        0
 40
3.141592653589792
 10
0.0
 20
0.0
 30
0.0
332
5240
332
5233
 74
     0
 92
        0
 75
     0
  1
AcDbOsnapPointRef
 72
    13
331
5240
331
5228
 73
     0
 91
        0
 40
0.0
 10
0.0
 20
0.0
 30
2.000000000000000E+50
 75
     0
  0
DIMASSOC
  5
97AF
102
{ACAD_REACTORS
330
97AE
102
}
330
97AE
100
AcDbDimAssoc
330
979F
 90
        1
 70
     0
 71
     0
  1
AcDbOsnapPointRef
 72
    13
331
78A7
331
788B
 73
     0
 91
        0
 40
0.0
 10
0.0
 20
0.0
 30
2.000000000000000E+50
 75
     0
  0
DIMASSOC
  5
980D
102
{ACAD_REACTORS
330
980C
102
}
330
980C
100
AcDbDimAssoc
330
97FD
 90
        3
 70
     0
 71
     0
  1
AcDbOsnapPointRef
 72
    13
331
78A7
331
786E
 73
     0
 91
        0
 40
0.0
 10
0.0
 20
0.0
 30
2.000000000000000E+50
 75
     0
  1
AcDbOsnapPointRef
 72
    13
331
5119
331
50FD
 73
     0
 91
        0
 40
0.0
 10
0.0
 20
0.0
 30
2.000000000000000E+50
 75
     0
  0
LAYOUT
  5
22
102
{ACAD_REACTORS
330
1A
102
}
330
1A
100
AcDbPlotSettings
  1

  2
KONICA MINOLTA 501 PCL
  4
A4
  6

 40
5.027082920074462
 41
5.027085781097412
 42
5.027069091796875
 43
5.027069091796875
 44
209.9733276367186
 45
296.9259948730469
 46
0.0
 47
2.078927134022506
 48
0.0
 49
0.0
140
0.0
141
0.0
142
1.0
143
5.943126867362852
 70
 11956
 72
     1
 73
     1
 74
     1
  7
SEISA.ctb
 75
     0
147
0.1682615939921421
 76
     0
 77
     2
 78
   300
148
0.1025336027792036
149
0.0725049687785031
100
AcDbLayout
  1
Model
 70
     1
 71
     0
 10
0.0
 20
0.0
 11
12.0
 21
9.0
 12
0.0
 22
0.0
 32
0.0
 14
0.0
 24
0.0
 34
0.0
 15
0.0
 25
0.0
 35
0.0
146
0.0
 13
0.0
 23
0.0
 33
0.0
 16
1.0
 26
0.0
 36
0.0
 17
0.0
 27
1.0
 37
0.0
 76
     0
330
1F
331
27A
1001
ACAD_PSEXT
1000
KONICA MINOLTA 501 PCL
1000
KONICA MINOLTA 501/421/361PCL
1000
IP_192.168.20.231_(1)
1000

1070
     0
  0
LAYOUT
  5
1E
102
{ACAD_REACTORS
330
1A
102
}
330
1A
100
AcDbPlotSettings
  1

  2
none_device
  4
Letter_(8.50_x_11.00_Inches)
  6

 40
6.349999904632567
 41
6.349999904632567
 42
6.350006103515625
 43
6.350006103515625
 44
215.8999938964844
 45
279.3999938964844
 46
0.0
 47
0.0
 48
0.0
 49
0.0
140
0.0
141
0.0
142
1.0
143
1.0
 70
 15024
 72
     1
 73
     1
 74
     5
  7
SEISA.ctb
 75
    16
147
1.0
 76
     0
 77
     2
 78
   300
148
0.0
149
0.0
100
AcDbLayout
  1
レイアウト1
 70
     1
 71
     1
 10
0.0
 20
0.0
 11
420.0
 21
297.0
 12
0.0
 22
0.0
 32
0.0
 14
1.000000000000000E+20
 24
1.000000000000000E+20
 34
1.000000000000000E+20
 15
-1.000000000000000E+20
 25
-1.000000000000000E+20
 35
-1.000000000000000E+20
146
0.0
 13
0.0
 23
0.0
 33
0.0
 16
1.0
 26
0.0
 36
0.0
 17
0.0
 27
1.0
 37
0.0
 76
     0
330
1B
  0
LAYOUT
  5
26
102
{ACAD_REACTORS
330
1A
102
}
330
1A
100
AcDbPlotSettings
  1

  2
none_device
  4
Letter_(8.50_x_11.00_Inches)
  6

 40
6.349999904632567
 41
6.349999904632567
 42
6.350006103515625
 43
6.350006103515625
 44
215.8999938964844
 45
279.3999938964844
 46
0.0
 47
0.0
 48
0.0
 49
0.0
140
0.0
141
0.0
142
1.0
143
1.0
 70
 15024
 72
     1
 73
     1
 74
     5
  7
SEISA.ctb
 75
    16
147
1.0
 76
     0
 77
     2
 78
   300
148
0.0
149
0.0
100
AcDbLayout
  1
レイアウト2
 70
     1
 71
     2
 10
0.0
 20
0.0
 11
12.0
 21
9.0
 12
0.0
 22
0.0
 32
0.0
 14
0.0
 24
0.0
 34
0.0
 15
0.0
 25
0.0
 35
0.0
146
0.0
 13
0.0
 23
0.0
 33
0.0
 16
1.0
 26
0.0
 36
0.0
 17
0.0
 27
1.0
 37
0.0
 76
     0
330
23
  0
MATERIAL
  5
27D
102
{ACAD_REACTORS
330
C4
102
}
330
C4
100
AcDbMaterial
  1
ByBlock
 73
     1
 78
     1
172
     1
176
     1
270
     1
274
     1
 94
       63
  0
MATERIAL
  5
27C
102
{ACAD_REACTORS
330
C4
102
}
330
C4
100
AcDbMaterial
  1
ByLayer
 73
     1
 78
     1
172
     1
176
     1
270
     1
274
     1
 94
       63
  0
MATERIAL
  5
27E
102
{ACAD_REACTORS
330
C4
102
}
330
C4
100
AcDbMaterial
  1
Global
 73
     1
 78
     1
172
     1
176
     1
270
     1
274
     1
 94
       63
  0
MLEADERSTYLE
  5
2D6
102
{ACAD_REACTORS
330
2D5
102
}
330
2D5
100
AcDbMLeaderStyle
170
     2
171
     1
172
     0
 90
        2
 40
0.0
 41
0.0
173
     1
 91
-1056964608
340
14
 92
       -2
290
     1
 42
2.0
291
     1
 43
0.36
  3
Standard
 44
4.0
300

342
11
174
     1
178
     6
175
     1
176
     0
 93
-1056964608
 45
4.0
292
     0
297
     0
 46
4.0
 94
-1056964608
 47
1.0
 49
1.0
140
1.0
293
     1
141
0.0
294
     1
177
     0
142
1.0
295
     0
296
     0
143
0.125
1001
ACAD_MLEADERVER
1070
     2
  0
MLINESTYLE
  5
18
102
{ACAD_REACTORS
330
17
102
}
330
17
100
AcDbMlineStyle
  2
STANDARD
 70
     0
  3

 62
   256
 51
90.0
 52
90.0
 71
     2
 49
0.5
 62
   256
  6
BYLAYER
 49
-0.5
 62
   256
  6
BYLAYER
  0
PLOTSETTINGS
  5
1C7E
102
{ACAD_REACTORS
330
19
102
}
330
19
100
AcDbPlotSettings
  1
SEISA基本
  2
none_device
  4
Letter_(8.50_x_11.00_Inches)
  6

 40
6.349999904632567
 41
6.349999904632567
 42
6.350006103515625
 43
6.350006103515625
 44
215.8999938964844
 45
279.3999938964844
 46
7.302498226506357
 47
0.0
 48
0.0
 49
0.0
140
0.0
141
0.0
142
1.0
143
1.574803221122935
 70
 11956
 72
     1
 73
     1
 74
     2
  7
SEISA.ctb
 75
     0
147
0.6349999711627054
 76
     0
 77
     2
 78
   300
148
0.0
149
0.0
1001
ACAD_PSEXT
1000
なし
1000
なし
1000
適切ではありません
1000
新しいプロッタ環境設定名を選択しない限り、レイアウトは印刷されません。
1070
     0
  0
ACDBPLACEHOLDER
  5
F
102
{ACAD_REACTORS
330
E
102
}
330
E
  0
SCALE
  5
2D6E
102
{ACAD_REACTORS
330
2B3
102
}
330
2B3
100
AcDbScale
 70
     0
300
1:1.5
140
1.0
141
1.5
290
     0
  0
SCALE
  5
72DE
102
{ACAD_REACTORS
330
2B3
102
}
330
2B3
100
AcDbScale
 70
     0
300
1:3
140
1.0
141
3.0
290
     0
  0
SCALE
  5
950C
102
{ACAD_REACTORS
330
2B3
102
}
330
2B3
100
AcDbScale
 70
     0
300
1:2.5
140
1.0
141
2.5
290
     0
  0
SCALE
  5
2B4
102
{ACAD_REACTORS
330
2B3
102
}
330
2B3
100
AcDbScale
 70
     0
300
1:1
140
1.0
141
1.0
290
     1
  0
SCALE
  5
2B5
102
{ACAD_REACTORS
330
2B3
102
}
330
2B3
100
AcDbScale
 70
     0
300
1:2
140
1.0
141
2.0
290
     0
  0
SCALE
  5
2B6
102
{ACAD_REACTORS
330
2B3
102
}
330
2B3
100
AcDbScale
 70
     0
300
1:4
140
1.0
141
4.0
290
     0
  0
SCALE
  5
2B7
102
{ACAD_REACTORS
330
2B3
102
}
330
2B3
100
AcDbScale
 70
     0
300
1:5
140
1.0
141
5.0
290
     0
  0
SCALE
  5
2B8
102
{ACAD_REACTORS
330
2B3
102
}
330
2B3
100
AcDbScale
 70
     0
300
1:8
140
1.0
141
8.0
290
     0
  0
SCALE
  5
2B9
102
{ACAD_REACTORS
330
2B3
102
}
330
2B3
100
AcDbScale
 70
     0
300
1:10
140
1.0
141
10.0
290
     0
  0
SCALE
  5
2BA
102
{ACAD_REACTORS
330
2B3
102
}
330
2B3
100
AcDbScale
 70
     0
300
1:16
140
1.0
141
16.0
290
     0
  0
SCALE
  5
2BB
102
{ACAD_REACTORS
330
2B3
102
}
330
2B3
100
AcDbScale
 70
     0
300
1:20
140
1.0
141
20.0
290
     0
  0
SCALE
  5
2BC
102
{ACAD_REACTORS
330
2B3
102
}
330
2B3
100
AcDbScale
 70
     0
300
1:30
140
1.0
141
30.0
290
     0
  0
SCALE
  5
2BD
102
{ACAD_REACTORS
330
2B3
102
}
330
2B3
100
AcDbScale
 70
     0
300
1:40
140
1.0
141
40.0
290
     0
  0
SCALE
  5
2BE
102
{ACAD_REACTORS
330
2B3
102
}
330
2B3
100
AcDbScale
 70
     0
300
1:50
140
1.0
141
50.0
290
     0
  0
SCALE
  5
2BF
102
{ACAD_REACTORS
330
2B3
102
}
330
2B3
100
AcDbScale
 70
     0
300
1:100
140
1.0
141
100.0
290
     0
  0
SCALE
  5
2C0
102
{ACAD_REACTORS
330
2B3
102
}
330
2B3
100
AcDbScale
 70
     0
300
2:1
140
2.0
141
1.0
290
     0
  0
SCALE
  5
2C1
102
{ACAD_REACTORS
330
2B3
102
}
330
2B3
100
AcDbScale
 70
     0
300
4:1
140
4.0
141
1.0
290
     0
  0
SCALE
  5
2C2
102
{ACAD_REACTORS
330
2B3
102
}
330
2B3
100
AcDbScale
 70
     0
300
8:1
140
8.0
141
1.0
290
     0
  0
SCALE
  5
2C3
102
{ACAD_REACTORS
330
2B3
102
}
330
2B3
100
AcDbScale
 70
     0
300
10:1
140
10.0
141
1.0
290
     0
  0
SCALE
  5
2C4
102
{ACAD_REACTORS
330
2B3
102
}
330
2B3
100
AcDbScale
 70
     0
300
100:1
140
100.0
141
1.0
290
     0
  0
SCALE
  5
2C5
102
{ACAD_REACTORS
330
2B3
102
}
330
2B3
100
AcDbScale
 70
     0
300
1/128" = 1'-0"
140
0.0078125
141
12.0
290
     0
  0
SCALE
  5
2C6
102
{ACAD_REACTORS
330
2B3
102
}
330
2B3
100
AcDbScale
 70
     0
300
1/64" = 1'-0"
140
0.015625
141
12.0
290
     0
  0
SCALE
  5
2C7
102
{ACAD_REACTORS
330
2B3
102
}
330
2B3
100
AcDbScale
 70
     0
300
1/32" = 1'-0"
140
0.03125
141
12.0
290
     0
  0
SCALE
  5
2C8
102
{ACAD_REACTORS
330
2B3
102
}
330
2B3
100
AcDbScale
 70
     0
300
1/16" = 1'-0"
140
0.0625
141
12.0
290
     0
  0
SCALE
  5
2C9
102
{ACAD_REACTORS
330
2B3
102
}
330
2B3
100
AcDbScale
 70
     0
300
3/32" = 1'-0"
140
0.09375
141
12.0
290
     0
  0
SCALE
  5
2CA
102
{ACAD_REACTORS
330
2B3
102
}
330
2B3
100
AcDbScale
 70
     0
300
1/8" = 1'-0"
140
0.125
141
12.0
290
     0
  0
SCALE
  5
2CB
102
{ACAD_REACTORS
330
2B3
102
}
330
2B3
100
AcDbScale
 70
     0
300
3/16" = 1'-0"
140
0.1875
141
12.0
290
     0
  0
SCALE
  5
2CC
102
{ACAD_REACTORS
330
2B3
102
}
330
2B3
100
AcDbScale
 70
     0
300
1/4" = 1'-0"
140
0.25
141
12.0
290
     0
  0
SCALE
  5
2CD
102
{ACAD_REACTORS
330
2B3
102
}
330
2B3
100
AcDbScale
 70
     0
300
3/8" = 1'-0"
140
0.375
141
12.0
290
     0
  0
SCALE
  5
2CE
102
{ACAD_REACTORS
330
2B3
102
}
330
2B3
100
AcDbScale
 70
     0
300
1/2" = 1'-0"
140
0.5
141
12.0
290
     0
  0
SCALE
  5
2CF
102
{ACAD_REACTORS
330
2B3
102
}
330
2B3
100
AcDbScale
 70
     0
300
3/4" = 1'-0"
140
0.75
141
12.0
290
     0
  0
SCALE
  5
2D0
102
{ACAD_REACTORS
330
2B3
102
}
330
2B3
100
AcDbScale
 70
     0
300
1" = 1'-0"
140
1.0
141
12.0
290
     0
  0
SCALE
  5
2D1
102
{ACAD_REACTORS
330
2B3
102
}
330
2B3
100
AcDbScale
 70
     0
300
1-1/2" = 1'-0"
140
1.5
141
12.0
290
     0
  0
SCALE
  5
2D2
102
{ACAD_REACTORS
330
2B3
102
}
330
2B3
100
AcDbScale
 70
     0
300
3" = 1'-0"
140
3.0
141
12.0
290
     0
  0
SCALE
  5
2D3
102
{ACAD_REACTORS
330
2B3
102
}
330
2B3
100
AcDbScale
 70
     0
300
6" = 1'-0"
140
6.0
141
12.0
290
     0
  0
SCALE
  5
2D4
102
{ACAD_REACTORS
330
2B3
102
}
330
2B3
100
AcDbScale
 70
     0
300
1'-0" = 1'-0"
140
12.0
141
12.0
290
     0
  0
TABLESTYLE
  5
122
102
{ACAD_XDICTIONARY
360
2F5
102
}
102
{ACAD_REACTORS
330
121
102
}
330
121
100
AcDbTableStyle
  3
Standard
 70
     0
 71
     0
 40
1.5
 41
1.5
280
     0
281
     0
  7
STANDARD
140
4.5
170
     2
 62
     0
 63
     7
283
     0
 90
      512
 91
        0
  1

274
    -2
284
     1
 64
     0
275
    -2
285
     1
 65
     0
276
    -2
286
     1
 66
     0
277
    -2
287
     1
 67
     0
278
    -2
288
     1
 68
     0
279
    -2
289
     1
 69
     0
  7
STANDARD
140
6.0
170
     5
 62
     0
 63
     7
283
     0
 90
      512
 91
        0
  1

274
    -2
284
     1
 64
     0
275
    -2
285
     1
 65
     0
276
    -2
286
     1
 66
     0
277
    -2
287
     1
 67
     0
278
    -2
288
     1
 68
     0
279
    -2
289
     1
 69
     0
  7
STANDARD
140
4.5
170
     5
 62
     0
 63
     7
283
     0
 90
      512
 91
        0
  1

274
    -2
284
     1
 64
     0
275
    -2
285
     1
 65
     0
276
    -2
286
     1
 66
     0
277
    -2
287
     1
 67
     0
278
    -2
288
     1
 68
     0
279
    -2
289
     1
 69
     0
  0
VISUALSTYLE
  5
285
102
{ACAD_REACTORS
330
27F
102
}
330
27F
100
AcDbVisualStyle
  2
2dWireframe
 70
     4
 71
     0
 72
     2
 73
     0
 90
        0
 40
-0.6
 41
-30.0
 62
     5
 63
     7
421
 16777215
 74
     1
 91
        4
 64
     7
 65
   257
 75
     1
175
     1
 42
1.0
 92
        0
 66
   257
 43
1.0
 76
     1
 77
     6
 78
     2
 67
     7
 79
     5
170
     0
171
     0
290
     0
174
     0
 93
        1
 44
0.0
173
     0
291
     0
 45
0.0
  0
VISUALSTYLE
  5
287
102
{ACAD_REACTORS
330
27F
102
}
330
27F
100
AcDbVisualStyle
  2
3D Hidden
 70
     6
 71
     1
 72
     2
 73
     2
 90
        0
 40
-0.6
 41
-30.0
 62
     5
 63
     7
421
 16777215
 74
     2
 91
        2
 64
     7
 65
   257
 75
     2
175
     1
 42
40.0
 92
        0
 66
   257
 43
1.0
 76
     1
 77
     6
 78
     2
 67
     7
 79
     3
170
     0
171
     0
290
     0
174
     0
 93
        1
 44
0.0
173
     0
291
     0
 45
0.0
  0
VISUALSTYLE
  5
286
102
{ACAD_REACTORS
330
27F
102
}
330
27F
100
AcDbVisualStyle
  2
3dWireframe
 70
     5
 71
     0
 72
     2
 73
     0
 90
        0
 40
-0.6
 41
-30.0
 62
     5
 63
     7
421
 16777215
 74
     1
 91
        4
 64
     7
 65
   257
 75
     1
175
     1
 42
1.0
 92
        0
 66
   257
 43
1.0
 76
     1
 77
     6
 78
     2
 67
     7
 79
     5
170
     0
171
     0
290
     0
174
     0
 93
        1
 44
0.0
173
     0
291
     0
 45
0.0
  0
VISUALSTYLE
  5
284
102
{ACAD_REACTORS
330
27F
102
}
330
27F
100
AcDbVisualStyle
  2
Basic
 70
     7
 71
     1
 72
     0
 73
     1
 90
        0
 40
-0.6
 41
-30.0
 62
     5
 63
     7
421
 16777215
 74
     0
 91
        4
 64
     7
 65
   257
 75
     1
175
     1
 42
1.0
 92
        8
 66
     7
 43
1.0
 76
     1
 77
     6
 78
     2
 67
     7
 79
     5
170
     0
171
     0
290
     0
174
     0
 93
        1
 44
0.0
173
     0
291
     1
 45
0.0
  0
VISUALSTYLE
  5
28B
102
{ACAD_REACTORS
330
27F
102
}
330
27F
100
AcDbVisualStyle
  2
Brighten
 70
    12
 71
     2
 72
     2
 73
     0
 90
        0
 40
-0.6
 41
-30.0
 62
     5
 63
     7
421
 16777215
 74
     1
 91
        4
 64
     7
 65
   257
 75
     1
175
     1
 42
1.0
 92
        8
 66
     7
 43
1.0
 76
     1
 77
     6
 78
     2
 67
     7
 79
     5
170
     0
171
     0
290
     0
174
     0
 93
        1
 44
50.0
173
     0
291
     1
 45
0.0
  0
VISUALSTYLE
  5
28F
102
{ACAD_REACTORS
330
27F
102
}
330
27F
100
AcDbVisualStyle
  2
ColorChange
 70
    16
 71
     2
 72
     2
 73
     3
 90
        0
 40
-0.6
 41
-30.0
 62
     5
 63
     8
421
  8421504
 74
     1
 91
        4
 64
     7
 65
   257
 75
     1
175
     1
 42
1.0
 92
        8
 66
     8
424
  8421504
 43
1.0
 76
     1
 77
     6
 78
     2
 67
     7
 79
     5
170
     0
171
     0
290
     0
174
     0
 93
        1
 44
0.0
173
     0
291
     1
 45
0.0
  0
VISUALSTYLE
  5
288
102
{ACAD_REACTORS
330
27F
102
}
330
27F
100
AcDbVisualStyle
  2
Conceptual
 70
     9
 71
     3
 72
     2
 73
     0
 90
        0
 40
-0.6
 41
-30.0
 62
     5
 63
     7
421
 16777215
 74
     2
 91
        2
 64
     7
 65
   257
 75
     1
175
     1
 42
40.0
 92
        8
 66
     7
 43
1.0
 76
     1
 77
     6
 78
     2
 67
     7
 79
     3
170
     0
171
     0
290
     0
174
     0
 93
        1
 44
0.0
173
     0
291
     0
 45
0.0
  0
VISUALSTYLE
  5
28A
102
{ACAD_REACTORS
330
27F
102
}
330
27F
100
AcDbVisualStyle
  2
Dim
 70
    11
 71
     2
 72
     2
 73
     0
 90
        0
 40
-0.6
 41
-30.0
 62
     5
 63
     7
421
 16777215
 74
     1
 91
        4
 64
     7
 65
   257
 75
     1
175
     1
 42
1.0
 92
        8
 66
     7
 43
1.0
 76
     1
 77
     6
 78
     2
 67
     7
 79
     5
170
     0
171
     0
290
     0
174
     0
 93
        1
 44
-50.0
173
     0
291
     1
 45
0.0
  0
VISUALSTYLE
  5
28E
102
{ACAD_REACTORS
330
27F
102
}
330
27F
100
AcDbVisualStyle
  2
Facepattern
 70
    15
 71
     2
 72
     2
 73
     0
 90
        0
 40
-0.6
 41
-30.0
 62
     5
 63
     7
421
 16777215
 74
     1
 91
        4
 64
     7
 65
   257
 75
     1
175
     1
 42
1.0
 92
        8
 66
     7
 43
1.0
 76
     1
 77
     6
 78
     2
 67
     7
 79
     5
170
     0
171
     0
290
     0
174
     0
 93
        1
 44
0.0
173
     0
291
     1
 45
0.0
  0
VISUALSTYLE
  5
280
102
{ACAD_REACTORS
330
27F
102
}
330
27F
100
AcDbVisualStyle
  2
Flat
 70
     0
 71
     2
 72
     1
 73
     1
 90
        2
 40
-0.6
 41
30.0
 62
     5
 63
     7
421
 16777215
 74
     0
 91
        4
 64
     7
 65
   257
 75
     1
175
     1
 42
1.0
 92
        8
 66
     7
 43
1.0
 76
     1
 77
     6
 78
     2
 67
     7
 79
     5
170
     0
171
     0
290
     0
174
     0
 93
       13
 44
0.0
173
     0
291
     1
 45
0.0
  0
VISUALSTYLE
  5
281
102
{ACAD_REACTORS
330
27F
102
}
330
27F
100
AcDbVisualStyle
  2
FlatWithEdges
 70
     1
 71
     2
 72
     1
 73
     1
 90
        2
 40
-0.6
 41
30.0
 62
     5
 63
     7
421
 16777215
 74
     1
 91
        4
 64
     7
 65
   257
 75
     1
175
     1
 42
1.0
 92
        0
 66
   257
 43
1.0
 76
     1
 77
     6
 78
     2
 67
     7
 79
     5
170
     0
171
     0
290
     0
174
     0
 93
       13
 44
0.0
173
     0
291
     1
 45
0.0
  0
VISUALSTYLE
  5
282
102
{ACAD_REACTORS
330
27F
102
}
330
27F
100
AcDbVisualStyle
  2
Gouraud
 70
     2
 71
     2
 72
     2
 73
     1
 90
        2
 40
-0.6
 41
30.0
 62
     5
 63
     7
421
 16777215
 74
     0
 91
        4
 64
     7
 65
   257
 75
     1
175
     1
 42
1.0
 92
        0
 66
     7
 43
1.0
 76
     1
 77
     6
 78
     2
 67
     7
 79
     5
170
     0
171
     0
290
     0
174
     0
 93
       13
 44
0.0
173
     0
291
     1
 45
0.0
  0
VISUALSTYLE
  5
283
102
{ACAD_REACTORS
330
27F
102
}
330
27F
100
AcDbVisualStyle
  2
GouraudWithEdges
 70
     3
 71
     2
 72
     2
 73
     1
 90
        2
 40
-0.6
 41
30.0
 62
     5
 63
     7
421
 16777215
 74
     1
 91
        4
 64
     7
 65
   257
 75
     1
175
     1
 42
1.0
 92
        0
 66
   257
 43
1.0
 76
     1
 77
     6
 78
     2
 67
     7
 79
     5
170
     0
171
     0
290
     0
174
     0
 93
       13
 44
0.0
173
     0
291
     1
 45
0.0
  0
VISUALSTYLE
  5
28D
102
{ACAD_REACTORS
330
27F
102
}
330
27F
100
AcDbVisualStyle
  2
Linepattern
 70
    14
 71
     2
 72
     2
 73
     0
 90
        0
 40
-0.6
 41
-30.0
 62
     5
 63
     7
421
 16777215
 74
     1
 91
        4
 64
     7
 65
   257
 75
     7
175
     7
 42
1.0
 92
        8
 66
     7
 43
1.0
 76
     1
 77
     6
 78
     2
 67
     7
 79
     5
170
     0
171
     0
290
     0
174
     0
 93
        1
 44
0.0
173
     0
291
     1
 45
0.0
  0
VISUALSTYLE
  5
289
102
{ACAD_REACTORS
330
27F
102
}
330
27F
100
AcDbVisualStyle
  2
Realistic
 70
     8
 71
     2
 72
     2
 73
     0
 90
        0
 40
-0.6
 41
-30.0
 62
     5
 63
     7
421
 16777215
 74
     1
 91
        0
 64
     7
 65
   257
 75
     1
175
     1
 42
1.0
 92
        8
 66
     8
424
  7895160
 43
1.0
 76
     1
 77
     6
 78
     2
 67
     7
 79
     5
170
     0
171
     0
290
     0
174
     0
 93
       13
 44
0.0
173
     0
291
     0
 45
0.0
  0
VISUALSTYLE
  5
28C
102
{ACAD_REACTORS
330
27F
102
}
330
27F
100
AcDbVisualStyle
  2
Thicken
 70
    13
 71
     2
 72
     2
 73
     0
 90
        0
 40
-0.6
 41
-30.0
 62
     5
 63
     7
421
 16777215
 74
     1
 91
        4
 64
     7
 65
   257
 75
     1
175
     1
 42
1.0
 92
       12
 66
     7
 43
1.0
 76
     1
 77
     6
 78
     2
 67
     7
 79
     5
170
     0
171
     0
290
     0
174
     0
 93
        1
 44
0.0
173
     0
291
     1
 45
0.0
  0
DICTIONARYVAR
  5
2FA
102
{ACAD_REACTORS
330
34
102
}
330
34
100
DictionaryVariables
280
     0
  1
1:4
  0
DICTIONARYVAR
  5
2F8
102
{ACAD_REACTORS
330
34
102
}
330
34
100
DictionaryVariables
280
     0
  1
STANDARD
  0
DICTIONARYVAR
  5
140
102
{ACAD_REACTORS
330
34
102
}
330
34
100
DictionaryVariables
280
     0
  1
STANDARD
  0
DICTIONARYVAR
  5
AC
102
{ACAD_REACTORS
330
34
102
}
330
34
100
DictionaryVariables
280
     0
  1
1
  0
DICTIONARYVAR
  5
35
102
{ACAD_REACTORS
330
34
102
}
330
34
100
DictionaryVariables
280
     0
  1
1
  0
DICTIONARYVAR
  5
6FDE
102
{ACAD_REACTORS
330
34
102
}
330
34
100
DictionaryVariables
280
     0
  1
1
  0
DICTIONARYVAR
  5
6FDF
102
{ACAD_REACTORS
330
34
102
}
330
34
100
DictionaryVariables
280
     0
  1
15
  0
DICTIONARYVAR
  5
2FB
102
{ACAD_REACTORS
330
34
102
}
330
34
100
DictionaryVariables
280
     0
  1
0
  0
DICTIONARYVAR
  5
2F9
102
{ACAD_REACTORS
330
34
102
}
330
34
100
DictionaryVariables
280
     0
  1
0
  0
DICTIONARY
  5
161B
102
{ACAD_REACTORS
330
49
102
}
330
49
100
AcDbDictionary
281
     1
  0
DICTIONARY
  5
4A
102
{ACAD_REACTORS
330
49
102
}
330
49
100
AcDbDictionary
281
     1
  0
XRECORD
  5
12B
102
{ACAD_REACTORS
330
49
102
}
330
49
100
AcDbXrecord
280
     1
 90
-1023410169
  0
DICTIONARY
  5
2F5
330
122
100
AcDbDictionary
280
     1
281
     1
  3
ACAD_ROUNDTRIP_2008_TABLESTYLE_CELLSTYLEMAP
360
9C36
  0
CELLSTYLEMAP
  5
9C36
102
{ACAD_REACTORS
330
2F5
102
}
330
2F5
100
AcDbCellStyleMap
 90
        3
300
CELLSTYLE
  1
TABLEFORMAT_BEGIN
 90
        5
170
     1
 91
        0
 92
    32768
 62
   257
 93
        1
300
CONTENTFORMAT
  1
CONTENTFORMAT_BEGIN
 90
        0
 91
        0
 92
      512
 93
        0
300

 40
0.0
140
1.0
 94
        5
 62
     0
340
11
144
6.0
309
CONTENTFORMAT_END
171
     1
301
MARGIN
  1
CELLMARGIN_BEGIN
 40
1.5
 40
1.5
 40
1.5
 40
1.5
 40
0.18
 40
0.18
309
CELLMARGIN_END
 94
        6
 95
        1
302
GRIDFORMAT
  1
GRIDFORMAT_BEGIN
 90
        0
 91
        1
 62
     0
 92
       -2
340
0
 93
        0
 40
0.045
309
GRIDFORMAT_END
 95
        2
302
GRIDFORMAT
  1
GRIDFORMAT_BEGIN
 90
        0
 91
        1
 62
     0
 92
       -2
340
0
 93
        0
 40
0.045
309
GRIDFORMAT_END
 95
        4
302
GRIDFORMAT
  1
GRIDFORMAT_BEGIN
 90
        0
 91
        1
 62
     0
 92
       -2
340
0
 93
        0
 40
0.045
309
GRIDFORMAT_END
 95
        8
302
GRIDFORMAT
  1
GRIDFORMAT_BEGIN
 90
        0
 91
        1
 62
     0
 92
       -2
340
0
 93
        0
 40
0.045
309
GRIDFORMAT_END
 95
       16
302
GRIDFORMAT
  1
GRIDFORMAT_BEGIN
 90
        0
 91
        1
 62
     0
 92
       -2
340
0
 93
        0
 40
0.045
309
GRIDFORMAT_END
 95
       32
302
GRIDFORMAT
  1
GRIDFORMAT_BEGIN
 90
        0
 91
        1
 62
     0
 92
       -2
340
0
 93
        0
 40
0.045
309
GRIDFORMAT_END
309
TABLEFORMAT_END
  1
CELLSTYLE_BEGIN
 90
        1
 91
        1
300
_TITLE
309
CELLSTYLE_END
300
CELLSTYLE
  1
TABLEFORMAT_BEGIN
 90
        5
170
     1
 91
        0
 92
        0
 62
   257
 93
        1
300
CONTENTFORMAT
  1
CONTENTFORMAT_BEGIN
 90
        0
 91
        0
 92
      512
 93
        0
300

 40
0.0
140
1.0
 94
        5
 62
     0
340
11
144
4.5
309
CONTENTFORMAT_END
171
     1
301
MARGIN
  1
CELLMARGIN_BEGIN
 40
1.5
 40
1.5
 40
1.5
 40
1.5
 40
0.18
 40
0.18
309
CELLMARGIN_END
 94
        6
 95
        1
302
GRIDFORMAT
  1
GRIDFORMAT_BEGIN
 90
        0
 91
        1
 62
     0
 92
       -2
340
0
 93
        0
 40
0.045
309
GRIDFORMAT_END
 95
        2
302
GRIDFORMAT
  1
GRIDFORMAT_BEGIN
 90
        0
 91
        1
 62
     0
 92
       -2
340
0
 93
        0
 40
0.045
309
GRIDFORMAT_END
 95
        4
302
GRIDFORMAT
  1
GRIDFORMAT_BEGIN
 90
        0
 91
        1
 62
     0
 92
       -2
340
0
 93
        0
 40
0.045
309
GRIDFORMAT_END
 95
        8
302
GRIDFORMAT
  1
GRIDFORMAT_BEGIN
 90
        0
 91
        1
 62
     0
 92
       -2
340
0
 93
        0
 40
0.045
309
GRIDFORMAT_END
 95
       16
302
GRIDFORMAT
  1
GRIDFORMAT_BEGIN
 90
        0
 91
        1
 62
     0
 92
       -2
340
0
 93
        0
 40
0.045
309
GRIDFORMAT_END
 95
       32
302
GRIDFORMAT
  1
GRIDFORMAT_BEGIN
 90
        0
 91
        1
 62
     0
 92
       -2
340
0
 93
        0
 40
0.045
309
GRIDFORMAT_END
309
TABLEFORMAT_END
  1
CELLSTYLE_BEGIN
 90
        2
 91
        1
300
_HEADER
309
CELLSTYLE_END
300
CELLSTYLE
  1
TABLEFORMAT_BEGIN
 90
        5
170
     1
 91
        0
 92
        0
 62
   257
 93
        1
300
CONTENTFORMAT
  1
CONTENTFORMAT_BEGIN
 90
        0
 91
        0
 92
      512
 93
        0
300

 40
0.0
140
1.0
 94
        2
 62
     0
340
11
144
4.5
309
CONTENTFORMAT_END
171
     1
301
MARGIN
  1
CELLMARGIN_BEGIN
 40
1.5
 40
1.5
 40
1.5
 40
1.5
 40
0.18
 40
0.18
309
CELLMARGIN_END
 94
        6
 95
        1
302
GRIDFORMAT
  1
GRIDFORMAT_BEGIN
 90
        0
 91
        1
 62
     0
 92
       -2
340
0
 93
        0
 40
0.045
309
GRIDFORMAT_END
 95
        2
302
GRIDFORMAT
  1
GRIDFORMAT_BEGIN
 90
        0
 91
        1
 62
     0
 92
       -2
340
0
 93
        0
 40
0.045
309
GRIDFORMAT_END
 95
        4
302
GRIDFORMAT
  1
GRIDFORMAT_BEGIN
 90
        0
 91
        1
 62
     0
 92
       -2
340
0
 93
        0
 40
0.045
309
GRIDFORMAT_END
 95
        8
302
GRIDFORMAT
  1
GRIDFORMAT_BEGIN
 90
        0
 91
        1
 62
     0
 92
       -2
340
0
 93
        0
 40
0.045
309
GRIDFORMAT_END
 95
       16
302
GRIDFORMAT
  1
GRIDFORMAT_BEGIN
 90
        0
 91
        1
 62
     0
 92
       -2
340
0
 93
        0
 40
0.045
309
GRIDFORMAT_END
 95
       32
302
GRIDFORMAT
  1
GRIDFORMAT_BEGIN
 90
        0
 91
        1
 62
     0
 92
       -2
340
0
 93
        0
 40
0.045
309
GRIDFORMAT_END
309
TABLEFORMAT_END
  1
CELLSTYLE_BEGIN
 90
        3
 91
        2
300
_DATA
309
CELLSTYLE_END
  0
ENDSEC
  0
EOF
