  0
SECTION
  2
HEADER
  9
$ACADVER
  1
AC1021
  9
$ACADMAINTVER
 70
    26
  9
$DWGCODEPAGE
  3
ANSI_932
  9
$LASTSAVEDBY
  1
Htm_Terada
  9
$CUSTOMPROPERTYTAG
  1
AmdtFileType
  9
$CUSTOMPROPERTY
  1
84
  9
$INSBASE
 10
0.0
 20
0.0
 30
0.0
  9
$EXTMIN
 10
257.6870765618605
 20
499.3385047405363
 30
-0.0000000349181948
  9
$EXTMAX
 10
1013.46405351393
 20
829.5071900007288
 30
0.0000000814935747
  9
$LIMMIN
 10
0.0000005743015663
 20
0.0000011081461935
  9
$LIMMAX
 10
1260.000000574301
 20
891.0000011081463
  9
$ORTHOMODE
 70
     0
  9
$REGENMODE
 70
     1
  9
$FILLMODE
 70
     1
  9
$QTEXTMODE
 70
     0
  9
$MIRRTEXT
 70
     1
  9
$LTSCALE
 40
3.0
  9
$ATTMODE
 70
     1
  9
$TEXTSIZE
 40
25.0
  9
$TRACEWID
 40
1.0
  9
$TEXTSTYLE
  7
SEISA
  9
$CLAYER
  8
AM_0 外形線1
  9
$CELTYPE
  6
ByLayer
  9
$CECOLOR
 62
   256
  9
$CELTSCALE
 40
1.0
  9
$DISPSILH
 70
     0
  9
$DIMSCALE
 40
3.0
  9
$DIMASZ
 40
2.5
  9
$DIMEXO
 40
0.625
  9
$DIMDLI
 40
10.0
  9
$DIMRND
 40
0.0
  9
$DIMDLE
 40
0.0
  9
$DIMEXE
 40
0.625
  9
$DIMTP
 40
0.1
  9
$DIMTM
 40
0.1
  9
$DIMTXT
 40
3.5
  9
$DIMCEN
 40
0.0
  9
$DIMTSZ
 40
0.0
  9
$DIMTOL
 70
     0
  9
$DIMLIM
 70
     0
  9
$DIMTIH
 70
     0
  9
$DIMTOH
 70
     0
  9
$DIMSE1
 70
     0
  9
$DIMSE2
 70
     0
  9
$DIMTAD
 70
     3
  9
$DIMZIN
 70
     8
  9
$DIMBLK
  1
Open30
  9
$DIMASO
 70
     1
  9
$DIMSHO
 70
     1
  9
$DIMPOST
  1

  9
$DIMAPOST
  1
"
  9
$DIMALT
 70
     0
  9
$DIMALTD
 70
     2
  9
$DIMALTF
 40
0.0393701
  9
$DIMLFAC
 40
1.0
  9
$DIMTOFL
 70
     1
  9
$DIMTVP
 40
0.0
  9
$DIMTIX
 70
     0
  9
$DIMSOXD
 70
     0
  9
$DIMSAH
 70
     0
  9
$DIMBLK1
  1

  9
$DIMBLK2
  1

  9
$DIMSTYLE
  2
SEISA
  9
$DIMCLRD
 70
     3
  9
$DIMCLRE
 70
     3
  9
$DIMCLRT
 70
     3
  9
$DIMTFAC
 40
0.71
  9
$DIMGAP
 40
1.5
  9
$DIMJUST
 70
     0
  9
$DIMSD1
 70
     0
  9
$DIMSD2
 70
     0
  9
$DIMTOLJ
 70
     0
  9
$DIMTZIN
 70
     0
  9
$DIMALTZ
 70
     0
  9
$DIMALTTZ
 70
     8
  9
$DIMUPT
 70
     0
  9
$DIMDEC
 70
     2
  9
$DIMTDEC
 70
     2
  9
$DIMALTU
 70
     2
  9
$DIMALTTD
 70
     2
  9
$DIMTXSTY
  7
SEISA
  9
$DIMAUNIT
 70
     0
  9
$DIMADEC
 70
     0
  9
$DIMALTRND
 40
0.0
  9
$DIMAZIN
 70
     2
  9
$DIMDSEP
 70
    46
  9
$DIMATFIT
 70
     3
  9
$DIMFRAC
 70
     0
  9
$DIMLDRBLK
  1
Open30
  9
$DIMLUNIT
 70
     2
  9
$DIMLWD
 70
    -1
  9
$DIMLWE
 70
    -1
  9
$DIMTMOVE
 70
     0
  9
$DIMFXL
 40
1.0
  9
$DIMFXLON
 70
     0
  9
$DIMJOGANG
 40
0.7853981633974483
  9
$DIMTFILL
 70
     0
  9
$DIMTFILLCLR
 70
     0
  9
$DIMARCSYM
 70
     1
  9
$DIMLTYPE
  6

  9
$DIMLTEX1
  6

  9
$DIMLTEX2
  6

  9
$LUNITS
 70
     2
  9
$LUPREC
 70
     2
  9
$SKETCHINC
 40
1.0
  9
$FILLETRAD
 40
0.6
  9
$AUNITS
 70
     0
  9
$AUPREC
 70
     0
  9
$MENU
  1
.
  9
$ELEVATION
 40
0.0
  9
$PELEVATION
 40
0.0
  9
$THICKNESS
 40
0.0
  9
$LIMCHECK
 70
     0
  9
$CHAMFERA
 40
0.9999999999997726
  9
$CHAMFERB
 40
0.9999999999997726
  9
$CHAMFERC
 40
0.9999999999997726
  9
$CHAMFERD
 40
0.7853981633973346
  9
$SKPOLY
 70
     0
  9
$TDCREATE
 40
2454965.416667894
  9
$TDUCREATE
 40
2454965.041667894
  9
$TDUPDATE
 40
2456479.584638310
  9
$TDUUPDATE
 40
2456479.209638310
  9
$TDINDWG
 40
0.3885062731
  9
$TDUSRTIMER
 40
0.3885055440
  9
$USRTIMER
 70
     1
  9
$ANGBASE
 50
0.0
  9
$ANGDIR
 70
     0
  9
$PDMODE
 70
     0
  9
$PDSIZE
 40
0.0
  9
$PLINEWID
 40
0.0
  9
$SPLFRAME
 70
     0
  9
$SPLINETYPE
 70
     6
  9
$SPLINESEGS
 70
     8
  9
$HANDSEED
  5
9B7F
  9
$SURFTAB1
 70
     6
  9
$SURFTAB2
 70
     6
  9
$SURFTYPE
 70
     6
  9
$SURFU
 70
     6
  9
$SURFV
 70
     6
  9
$UCSBASE
  2

  9
$UCSNAME
  2

  9
$UCSORG
 10
0.0
 20
0.0
 30
0.0
  9
$UCSXDIR
 10
1.0
 20
0.0
 30
0.0
  9
$UCSYDIR
 10
0.0
 20
1.0
 30
0.0
  9
$UCSORTHOREF
  2

  9
$UCSORTHOVIEW
 70
     0
  9
$UCSORGTOP
 10
0.0
 20
0.0
 30
0.0
  9
$UCSORGBOTTOM
 10
0.0
 20
0.0
 30
0.0
  9
$UCSORGLEFT
 10
0.0
 20
0.0
 30
0.0
  9
$UCSORGRIGHT
 10
0.0
 20
0.0
 30
0.0
  9
$UCSORGFRONT
 10
0.0
 20
0.0
 30
0.0
  9
$UCSORGBACK
 10
0.0
 20
0.0
 30
0.0
  9
$PUCSBASE
  2

  9
$PUCSNAME
  2

  9
$PUCSORG
 10
0.0
 20
0.0
 30
0.0
  9
$PUCSXDIR
 10
1.0
 20
0.0
 30
0.0
  9
$PUCSYDIR
 10
0.0
 20
1.0
 30
0.0
  9
$PUCSORTHOREF
  2

  9
$PUCSORTHOVIEW
 70
     0
  9
$PUCSORGTOP
 10
0.0
 20
0.0
 30
0.0
  9
$PUCSORGBOTTOM
 10
0.0
 20
0.0
 30
0.0
  9
$PUCSORGLEFT
 10
0.0
 20
0.0
 30
0.0
  9
$PUCSORGRIGHT
 10
0.0
 20
0.0
 30
0.0
  9
$PUCSORGFRONT
 10
0.0
 20
0.0
 30
0.0
  9
$PUCSORGBACK
 10
0.0
 20
0.0
 30
0.0
  9
$USERI1
 70
     0
  9
$USERI2
 70
     0
  9
$USERI3
 70
     0
  9
$USERI4
 70
     0
  9
$USERI5
 70
     0
  9
$USERR1
 40
0.0
  9
$USERR2
 40
0.0
  9
$USERR3
 40
0.0
  9
$USERR4
 40
0.0
  9
$USERR5
 40
0.0
  9
$WORLDVIEW
 70
     1
  9
$SHADEDGE
 70
     3
  9
$SHADEDIF
 70
    70
  9
$TILEMODE
 70
     1
  9
$MAXACTVP
 70
    64
  9
$PINSBASE
 10
0.0
 20
0.0
 30
0.0
  9
$PLIMCHECK
 70
     0
  9
$PEXTMIN
 10
1.000000000000000E+20
 20
1.000000000000000E+20
 30
1.000000000000000E+20
  9
$PEXTMAX
 10
-1.000000000000000E+20
 20
-1.000000000000000E+20
 30
-1.000000000000000E+20
  9
$PLIMMIN
 10
0.0
 20
0.0
  9
$PLIMMAX
 10
420.0
 20
297.0
  9
$UNITMODE
 70
     0
  9
$VISRETAIN
 70
     1
  9
$PLINEGEN
 70
     0
  9
$PSLTSCALE
 70
     1
  9
$TREEDEPTH
 70
  3020
  9
$CMLSTYLE
  2
Standard
  9
$CMLJUST
 70
     0
  9
$CMLSCALE
 40
20.0
  9
$PROXYGRAPHICS
 70
     1
  9
$MEASUREMENT
 70
     1
  9
$CELWEIGHT
370
    -1
  9
$ENDCAPS
280
     0
  9
$JOINSTYLE
280
     0
  9
$LWDISPLAY
290
     0
  9
$INSUNITS
 70
     4
  9
$HYPERLINKBASE
  1

  9
$STYLESHEET
  1
SEISA.CTB
  9
$XEDIT
290
     1
  9
$CEPSNTYPE
380
     0
  9
$PSTYLEMODE
290
     1
  9
$FINGERPRINTGUID
  2
{29882394-87D7-41DC-B426-38DA309292E6}
  9
$VERSIONGUID
  2
{2164D3F6-9821-4ABA-87A8-DF91F92900B8}
  9
$EXTNAMES
290
     1
  9
$PSVPSCALE
 40
0.0
  9
$OLESTARTUP
290
     0
  9
$SORTENTS
280
   127
  9
$INDEXCTL
280
     0
  9
$HIDETEXT
280
     0
  9
$XCLIPFRAME
290
     0
  9
$HALOGAP
280
     0
  9
$OBSCOLOR
 70
   257
  9
$OBSLTYPE
280
     0
  9
$INTERSECTIONDISPLAY
280
     0
  9
$INTERSECTIONCOLOR
 70
   257
  9
$DIMASSOC
280
     2
  9
$PROJECTNAME
  1

  9
$CAMERADISPLAY
290
     0
  9
$LENSLENGTH
 40
50.0
  9
$CAMERAHEIGHT
 40
0.0
  9
$STEPSPERSEC
 40
2.0
  9
$STEPSIZE
 40
6.0
  9
$3DDWFPREC
 40
2.0
  9
$PSOLWIDTH
 40
0.25
  9
$PSOLHEIGHT
 40
4.0
  9
$LOFTANG1
 40
1.570796326794896
  9
$LOFTANG2
 40
1.570796326794896
  9
$LOFTMAG1
 40
0.0
  9
$LOFTMAG2
 40
0.0
  9
$LOFTPARAM
 70
     7
  9
$LOFTNORMALS
280
     1
  9
$LATITUDE
 40
37.795
  9
$LONGITUDE
 40
-122.394
  9
$NORTHDIRECTION
 40
0.0
  9
$TIMEZONE
 70
 -8000
  9
$LIGHTGLYPHDISPLAY
280
     1
  9
$TILEMODELIGHTSYNCH
280
     1
  9
$CMATERIAL
347
27C
  9
$SOLIDHIST
280
     1
  9
$SHOWHIST
280
     1
  9
$DWFFRAME
280
     2
  9
$DGNFRAME
280
     0
  9
$REALWORLDSCALE
290
     1
  9
$INTERFERECOLOR
 62
     1
  9
$INTERFEREOBJVS
345
289
  9
$INTERFEREVPVS
346
286
  9
$CSHADOW
280
     0
  9
$SHADOWPLANELOCATION
 40
0.0
  0
ENDSEC
  0
SECTION
  2
CLASSES
  0
CLASS
  1
ACDBDICTIONARYWDFLT
  2
AcDbDictionaryWithDefault
  3
ObjectDBX Classes
 90
        0
 91
        1
280
     0
281
     0
  0
CLASS
  1
AMGSETTINGSOBJ
  2
AmgSettingsObj
  3
"AcadM|Product Description: AutoCAD Mechanical|Company: Autodesk, Inc."
 90
     1024
 91
        2
280
     0
281
     0
  0
CLASS
  1
ACME_DOCUMENT
  2
AcMeDbDoc
  3
AcMeServices
 90
     1024
 91
        1
280
     0
281
     0
  0
CLASS
  1
ACMESCOPE
  2
AcMeScope
  3
AcMeServices
 90
     1024
 91
        1
280
     0
281
     0
  0
CLASS
  1
ACMECOMMANDHISTORY
  2
AcMeCommandHistory
  3
AcMeServices
 90
     1024
 91
        1
280
     0
281
     0
  0
CLASS
  1
DICTIONARYVAR
  2
AcDbDictionaryVar
  3
ObjectDBX Classes
 90
        0
 91
        9
280
     0
281
     0
  0
CLASS
  1
ACIMSYSVARMAN
  2
AcImSysVarManager
  3
AcMeServices
 90
     1024
 91
        5
280
     0
281
     0
  0
CLASS
  1
ACIMREALSYSVAR
  2
AcImRealSysVar
  3
AcMeServices
 90
     1024
 91
        1
280
     0
281
     0
  0
CLASS
  1
ACIMINTSYSVAR
  2
AcImIntSysVar
  3
AcMeServices
 90
     1024
 91
       27
280
     0
281
     0
  0
CLASS
  1
ACMEDRAWINGMAN
  2
AcMeDrawingMan
  3
AcMeServices
 90
     1024
 91
        1
280
     0
281
     0
  0
CLASS
  1
ACMEVIEW
  2
AcMeView
  3
AcMeServices
 90
     1024
 91
        1
280
     0
281
     0
  0
CLASS
  1
ACDBENTITYCACHE
  2
AcMeEntityCache
  3
AcMeServices
 90
     1024
 91
        1
280
     0
281
     0
  0
CLASS
  1
GSMANAGER
  2
AcMeGSManager
  3
AcMeServices
 90
     1024
 91
        1
280
     0
281
     0
  0
CLASS
  1
AMDTINTERNALREACTOR
  2
AmdtInternalReactor
  3
AcMeServices
 90
     1024
 91
        2
280
     0
281
     0
  0
CLASS
  1
ACMESTATEMGR
  2
AcMeStateMgr
  3
AcMeServices
 90
     1024
 91
        1
280
     0
281
     0
  0
CLASS
  1
ACGREFMASTER
  2
AcGrefMaster
  3
AcAttribServices
 90
     1024
 91
        1
280
     0
281
     0
  0
CLASS
  1
ACME_DATABASE
  2
AcMeDbDatabase
  3
AcMeServices
 90
     1024
 91
        1
280
     0
281
     0
  0
CLASS
  1
ACRFINSADJUSTERMGR
  2
AcRfInsAdjusterMgr
  3
AcMeServices
 90
     1024
 91
        1
280
     0
281
     0
  0
CLASS
  1
ACGREFACADMASTER
  2
AcGrefacadMaster
  3
AcGrefServices
 90
     1024
 91
        1
280
     0
281
     0
  0
CLASS
  1
AMIMASTER
  2
AmiMaster
  3
AmiServices
 90
     1024
 91
        1
280
     0
281
     0
  0
CLASS
  1
ACIMSTRSYSVAR
  2
AcImStrSysVar
  3
AcMeServices
 90
     1024
 91
        5
280
     0
281
     0
  0
CLASS
  1
ACMSTANDARDJIS
  2
AcmStandardJIS
  3
"Amdt_StdImp|Product Description: AutoCAD Mechanical|Company: Autodesk, Inc."
 90
     1024
 91
        0
280
     0
281
     0
  0
CLASS
  1
AMGOBJPROPCFG
  2
AmgObjPropCfg
  3
"AmgLay|Product Description: AutoCAD Mechanical|Company: Autodesk, Inc."
 90
     1025
 91
        1
280
     0
281
     0
  0
CLASS
  1
ACMSURFSTANDARDJIS
  2
AcmSurfTextStdJIS
  3
"Amdt_StdImp|Product Description: AutoCAD Mechanical|Company: Autodesk, Inc."
 90
     1024
 91
        0
280
     0
281
     0
  0
CLASS
  1
ACMFCFSTANDARDJIS
  2
AcmFCFStdJIS
  3
"Amdt_StdImp|Product Description: AutoCAD Mechanical|Company: Autodesk, Inc."
 90
     1024
 91
        0
280
     0
281
     0
  0
CLASS
  1
ACMWELDSTANDARDJIS
  2
AcmWeldingStdJIS
  3
"Amdt_StdImp|Product Description: AutoCAD Mechanical|Company: Autodesk, Inc."
 90
     1024
 91
        0
280
     0
281
     0
  0
CLASS
  1
ACMIDSTANDARDJIS
  2
AcmIdStdJIS
  3
"Amdt_StdImp|Product Description: AutoCAD Mechanical|Company: Autodesk, Inc."
 90
     1024
 91
        0
280
     0
281
     0
  0
CLASS
  1
ACMDATUMSTANDARDJIS
  2
AcmDatumStdJIS
  3
"Amdt_StdImp|Product Description: AutoCAD Mechanical|Company: Autodesk, Inc."
 90
     1024
 91
        0
280
     0
281
     0
  0
CLASS
  1
ACMBOMSTANDARDJIS
  2
AcmBOMStdJIS
  3
"Amdt_StdImp|Product Description: AutoCAD Mechanical|Company: Autodesk, Inc."
 90
     1024
 91
        0
280
     0
281
     0
  0
CLASS
  1
ACMDETAILSTANDARDJIS
  2
AmdtDetailSymStdJIS
  3
"Amdt_StdImp|Product Description: AutoCAD Mechanical|Company: Autodesk, Inc."
 90
     1024
 91
        0
280
     0
281
     0
  0
CLASS
  1
ACMSECTIONSTANDARDJIS
  2
AmdtSectionSymStdJIS
  3
"Amdt_StdImp|Product Description: AutoCAD Mechanical|Company: Autodesk, Inc."
 90
     1024
 91
        0
280
     0
281
     0
  0
CLASS
  1
ACMCENTERLINESTANDARDJIS
  2
AmdtCenterLineStdJIS
  3
"Amdt_StdImp|Product Description: AutoCAD Mechanical|Company: Autodesk, Inc."
 90
     1024
 91
        0
280
     0
281
     0
  0
CLASS
  1
ACMTHREADLINESTANDARDJIS
  2
AmdtThreadLineStdJIS
  3
"Amdt_StdImp|Product Description: AutoCAD Mechanical|Company: Autodesk, Inc."
 90
     1024
 91
        0
280
     0
281
     0
  0
CLASS
  1
ACAMGLAYSTD
  2
AcAmgLayStd
  3
"AmgLay|Product Description: AutoCAD Mechanical|Company: Autodesk, Inc."
 90
     1024
 91
        1
280
     0
281
     0
  0
CLASS
  1
ACAMGDIMSTD
  2
AcAmgDimStd
  3
"AmgDim|Product Description: AutoCAD Mechanical|Company: Autodesk, Inc."
 90
     1024
 91
        1
280
     0
281
     0
  0
CLASS
  1
ACAMGTITLESTD
  2
AcAmgTitleStd
  3
"AmgTitle|Product Description: AutoCAD Mechanical|Company: Autodesk, Inc."
 90
     4095
 91
        1
280
     0
281
     0
  0
CLASS
  1
ACMDATADICTIONARY
  2
AcmDataDictionary
  3
"AcmSymBB|Product Description: AutoCAD Mechanical|Company: Autodesk, Inc."
 90
     1024
 91
        1
280
     0
281
     0
  0
CLASS
  1
ACMDATAENTRYBLOCK
  2
AcmDataEntryBlock
  3
AcmSymBB|Product Description: AutoCAD Mechanical|Company: Autodesk, Inc.
 90
     1024
 91
        0
280
     0
281
     0
  0
CLASS
  1
LAYER_INDEX
  2
AcDbLayerIndex
  3
ObjectDBX Classes
 90
        0
 91
        0
280
     0
281
     0
  0
CLASS
  1
IDBUFFER
  2
AcDbIdBuffer
  3
ObjectDBX Classes
 90
        0
 91
        0
280
     0
281
     0
  0
CLASS
  1
ACMNOTESTANDARDJIS
  2
AmdtNoteStdJIS
  3
"Amdt_StdImp|Product Description: AutoCAD Mechanical|Company: Autodesk, Inc."
 90
     1024
 91
        0
280
     0
281
     0
  0
CLASS
  1
ACAMGHOLECHARTSTDJIS
  2
AcAmgHoleChartStdJIS
  3
AmgDim|Product Description: AutoCAD Mechanical|Company: Autodesk, Inc.
 90
     1024
 91
        0
280
     0
281
     0
  0
CLASS
  1
AM_DRAWING_MGR
  2
AcDmDwgMgr
  3
AcMechDwgViewMgmt
 90
     1024
 91
        1
280
     0
281
     0
  0
CLASS
  1
AM_DWG_DOCUMENT
  2
AcDmDwgDocument
  3
AcMechDwgViewMgmt
 90
     1024
 91
        1
280
     0
281
     0
  0
CLASS
  1
AM_DWG_SHEET
  2
AcDmSheet
  3
AcMechDwgViewMgmt
 90
     1024
 91
        2
280
     0
281
     0
  0
CLASS
  1
AM_VIEWDIMPARMAP
  2
AcDmViewDimParMap
  3
AcMechDwgViewMgmt
 90
     1024
 91
        2
280
     0
281
     0
  0
CLASS
  1
AM_DWGMGR_NAME
  2
AcDmDwgMgrName
  3
AcMechDwgViewMgmt
 90
     1024
 91
        1
280
     0
281
     0
  0
CLASS
  1
AMDTMENUSTATEMGR
  2
AmdtMenuStateMgr
  3
McadcomServices
 90
     1024
 91
        1
280
     0
281
     0
  0
CLASS
  1
AMDTMCOMMENUSTATE
  2
AmdtMcomMenuState
  3
McadcomServices
 90
     1024
 91
        1
280
     0
281
     0
  0
CLASS
  1
MAPIAMMOUDLE
  2
MApiAmModule
  3
MApiAmServices
 90
     1024
 91
        1
280
     0
281
     0
  0
CLASS
  1
AMDTADMENUSTATE
  2
AmdtAdMenuState
  3
DesignerServices
 90
     1024
 91
        1
280
     0
281
     0
  0
CLASS
  1
ADAPPL
  2
AcAdAppl
  3
DesignerServices
 90
     1024
 91
        1
280
     0
281
     0
  0
CLASS
  1
DEPMGR
  2
AcAdDepMgr
  3
DesignerServices
 90
     1024
 91
        1
280
     0
281
     0
  0
CLASS
  1
PARAMMGR
  2
AcAdParamMgr
  3
DesignerServices
 90
     1024
 91
        1
280
     0
281
     0
  0
CLASS
  1
PARAMSCOPE
  2
AcAdParamScope
  3
DesignerServices
 90
     1024
 91
        1
280
     0
281
     0
  0
CLASS
  1
NAMEDAPPL
  2
AcAdNamedAppl
  3
DesignerServices
 90
     1024
 91
        1
280
     0
281
     0
  0
CLASS
  1
AMDTDMMENUSTATE
  2
AmdtDmMenuState
  3
AcMechDwgViewMgmt
 90
     1024
 91
        1
280
     0
281
     0
  0
CLASS
  1
AMDTAMMENUSTATE
  2
AmdtAmMenuState
  3
DesignerAssemblies
 90
     1024
 91
        1
280
     0
281
     0
  0
CLASS
  1
ACAMPROJECT
  2
AcAmProject
  3
DesignerAssemblies
 90
     1024
 91
        1
280
     0
281
     0
  0
CLASS
  1
ACAMGRCOMPDEF
  2
AcAmGrCompDef
  3
DesignerAssemblies
 90
     1024
 91
        1
280
     0
281
     0
  0
CLASS
  1
ACCMCONTEXT
  2
AcCmContext
  3
DesignerAssemblies
 90
     1024
 91
        1
280
     0
281
     0
  0
CLASS
  1
ACAMCOMPDEF
  2
AcAmCompDef
  3
DesignerAssemblies
 90
     1024
 91
        1
280
     0
281
     0
  0
CLASS
  1
ACAMCOMPDEFMGR
  2
AcAmCompDefMgr
  3
DesignerAssemblies
 90
     1024
 91
        1
280
     0
281
     0
  0
CLASS
  1
AMCONTEXTMGR
  2
AcAmContextMgr
  3
DesignerAssemblies
 90
     1024
 91
        1
280
     0
281
     0
  0
CLASS
  1
ACAMCONTEXTMODELER
  2
AcAmContextModeler
  3
DesignerAssemblies
 90
     1024
 91
        1
280
     0
281
     0
  0
CLASS
  1
CATALOGSTATE
  2
AcAmCatalogState
  3
DesignerAssemblies
 90
     1024
 91
        1
280
     0
281
     0
  0
CLASS
  1
ACAMGRCOMPDEFSET
  2
AcAmGrCompDefSet
  3
DesignerAssemblies
 90
     1024
 91
        1
280
     0
281
     0
  0
CLASS
  1
AMDTBROWSERDBTAB
  2
AmdtBrowserDbTab
  3
McadcomServices
 90
     1024
 91
        1
280
     0
281
     0
  0
CLASS
  1
CBROWSERAPPOBJECT
  2
CBrowserAppObject
  3
McadcomServices
 90
     1024
 91
        3
280
     0
281
     0
  0
CLASS
  1
DM_PLACEHOLDER
  2
AcDmSelsetPlaceholder
  3
AcMechDwgViewMgmt
 90
     1024
 91
        1
280
     0
281
     0
  0
CLASS
  1
TABLESTYLE
  2
AcDbTableStyle
  3
ObjectDBX Classes
 90
     4095
 91
        1
280
     0
281
     0
  0
CLASS
  1
VAACXREFPANELOBJECT
  2
VaAcXREFPanelObject
  3
VAAC_ADDIN
 90
        0
 91
        0
280
     0
281
     0
  0
CLASS
  1
VAACIMAGEINVENTORY
  2
VaAcImageInventory
  3
VAAC_ADDIN
 90
        0
 91
        0
280
     0
281
     0
  0
CLASS
  1
AMDTNOTETEMPLATEDB
  2
AmdtNoteTemplateDB
  3
AcmSymBB|Product Description: AutoCAD Mechanical|Company: Autodesk, Inc.
 90
     1024
 91
        6
280
     0
281
     0
  0
CLASS
  1
ACAMGFILTERDAT
  2
AcAmgFilterDat
  3
"AcadM|Product Description: AutoCAD Mechanical|Company: Autodesk, Inc."
 90
     1024
 91
        0
280
     0
281
     0
  0
CLASS
  1
MATERIAL
  2
AcDbMaterial
  3
ObjectDBX Classes
 90
     1153
 91
        3
280
     0
281
     0
  0
CLASS
  1
VISUALSTYLE
  2
AcDbVisualStyle
  3
ObjectDBX Classes
 90
     4095
 91
       16
280
     0
281
     0
  0
CLASS
  1
ACRFATTGENMGR
  2
AcRfAttGeneralMgr
  3
AcAttribServices
 90
     1024
 91
        0
280
     0
281
     0
  0
CLASS
  1
ACRFOBJATTMGR
  2
AcRfObjAttGroupMgr
  3
AcAttribServices
 90
     1024
 91
        0
280
     0
281
     0
  0
CLASS
  1
ACRFMCADAPIATTHOLDER
  2
AcRfMCADAPIAttHolder
  3
AcAttribServices
 90
     1024
 91
        0
280
     0
281
     0
  0
CLASS
  1
AMDTSYSATTR
  2
AmdtSystemAttribute
  3
AcAttribServices
 90
     1024
 91
        0
280
     0
281
     0
  0
CLASS
  1
ACMTAPERSTANDARDJIS
  2
AcmTaperStdJIS
  3
"Amdt_StdImp|Product Description: AutoCAD Mechanical|Company: Autodesk, Inc."
 90
     1024
 91
        0
280
     0
281
     0
  0
CLASS
  1
CAMSSTRUCTBTNSTATE
  2
StructBtnState
  3
DesignerAssemblies
 90
     1024
 91
        0
280
     0
281
     0
  0
CLASS
  1
SCALE
  2
AcDbScale
  3
ObjectDBX Classes
 90
     1153
 91
       36
280
     0
281
     0
  0
CLASS
  1
MLEADERSTYLE
  2
AcDbMLeaderStyle
  3
ACDB_MLEADERSTYLE_CLASS
 90
     4095
 91
        1
280
     0
281
     0
  0
CLASS
  1
ACMANOOTATIONVIEWSTANDARDJIS
  2
AmdtAnViewStdJIS
  3
"Amdt_StdImp|Product Description: AutoCAD Mechanical|Company: Autodesk, Inc."
 90
     1024
 91
        0
280
     0
281
     0
  0
CLASS
  1
ACMSURFSTANDARDJIS2003
  2
AcmSurfTextStdJIS2003
  3
"Amdt_StdImp|Product Description: AutoCAD Mechanical|Company: Autodesk, Inc."
 90
     1024
 91
        0
280
     0
281
     0
  0
CLASS
  1
CELLSTYLEMAP
  2
AcDbCellStyleMap
  3
ObjectDBX Classes
 90
     1152
 91
        2
280
     0
281
     0
  0
CLASS
  1
ACMFCFSTANDARDJIS98
  2
AcmFCFStdJIS98
  3
"Amdt_StdImp|Product Description: AutoCAD Mechanical|Company: Autodesk, Inc."
 90
     1024
 91
        0
280
     0
281
     0
  0
CLASS
  1
SORTENTSTABLE
  2
AcDbSortentsTable
  3
ObjectDBX Classes
 90
        0
 91
       13
280
     0
281
     0
  0
CLASS
  1
DIMASSOC
  2
AcDbDimAssoc
  3
"AcDbDimAssoc|Product Desc:     AcDim ARX App For Dimension|Company:          Autodesk, Inc.|WEB Address:      www.autodesk.com"
 90
        0
 91
        4
280
     0
281
     0
  0
CLASS
  1
STDPART2D
  2
AmgStdPart
  3
AmgStdPart|Product Description: AutoCAD Mechanical|Company: Autodesk, Inc.
 90
     4095
 91
        0
280
     0
281
     1
  0
CLASS
  1
ACMDATAENTRYPART
  2
AcmDataEntryPart
  3
AcmSymBB|Product Description: AutoCAD Mechanical|Company: Autodesk, Inc.
 90
     1024
 91
        0
280
     0
281
     0
  0
CLASS
  1
ACMPARTREF
  2
AcmPartRef
  3
"AcmSymBB|Product Description: AutoCAD Mechanical|Company: Autodesk, Inc."
 90
     4095
 91
        0
280
     0
281
     1
  0
CLASS
  1
ACDBSTDPARTRES_LINE
  2
AcDbStdPartRes_Line
  3
AmgStdPart|Product Description: AutoCAD Mechanical|Company: Autodesk, Inc.
 90
     1024
 91
        0
280
     0
281
     0
  0
CLASS
  1
ACMBOM
  2
AcmBom
  3
"AcmSymBB|Product Description: AutoCAD Mechanical|Company: Autodesk, Inc."
 90
     1024
 91
        0
280
     0
281
     0
  0
CLASS
  1
AMDTFORMULAUPDATEDISPATCHER
  2
AmdtFormulaUpdateDispatcher
  3
AcMeServices
 90
     1024
 91
        0
280
     0
281
     0
  0
CLASS
  1
ACMBOMROW
  2
AcmBomRow
  3
"AcmSymBB|Product Description: AutoCAD Mechanical|Company: Autodesk, Inc."
 90
     1024
 91
        0
280
     0
281
     0
  0
CLASS
  1
ACMPARTLIST
  2
AcmPartList
  3
"AcmSymBB|Product Description: AutoCAD Mechanical|Company: Autodesk, Inc."
 90
     4095
 91
        0
280
     0
281
     1
  0
CLASS
  1
ACDBLINERES
  2
AcDbLineRes
  3
AcGrefServices
 90
     1024
 91
        0
280
     0
281
     0
  0
CLASS
  1
ACRFINSADJ
  2
AcRfInsAdjuster
  3
AcMeServices
 90
     1024
 91
        0
280
     0
281
     0
  0
CLASS
  1
ACMSTANDARDISO
  2
AcmStandardISO
  3
"Amdt_StdImp|Product Description: AutoCAD Mechanical|Company: Autodesk, Inc."
 90
     1024
 91
        1
280
     0
281
     0
  0
CLASS
  1
AMDTEDGESTANDARDISO13715
  2
AmdtEdgeStdISO13715
  3
"Amdt_StdImp|Product Description: AutoCAD Mechanical|Company: Autodesk, Inc."
 90
     1024
 91
        1
280
     0
281
     0
  0
CLASS
  1
ACMSURFSTANDARDISO2002
  2
AcmSurfTextStdISO2002
  3
"Amdt_StdImp|Product Description: AutoCAD Mechanical|Company: Autodesk, Inc."
 90
     1024
 91
        1
280
     0
281
     0
  0
CLASS
  1
ACMFCFSTANDARDISO
  2
AcmFCFStdISO
  3
"Amdt_StdImp|Product Description: AutoCAD Mechanical|Company: Autodesk, Inc."
 90
     1024
 91
        1
280
     0
281
     0
  0
CLASS
  1
ACMWELDSTANDARDISO
  2
AcmWeldingStdISO
  3
"Amdt_StdImp|Product Description: AutoCAD Mechanical|Company: Autodesk, Inc."
 90
     1024
 91
        1
280
     0
281
     0
  0
CLASS
  1
ACMIDSTANDARDISO
  2
AcmIdStdISO
  3
"Amdt_StdImp|Product Description: AutoCAD Mechanical|Company: Autodesk, Inc."
 90
     1024
 91
        1
280
     0
281
     0
  0
CLASS
  1
ACMDATUMSTANDARDISO
  2
AcmDatumStdISO
  3
"Amdt_StdImp|Product Description: AutoCAD Mechanical|Company: Autodesk, Inc."
 90
     1024
 91
        1
280
     0
281
     0
  0
CLASS
  1
ACMBOMSTANDARDISO
  2
AcmBOMStdISO
  3
"Amdt_StdImp|Product Description: AutoCAD Mechanical|Company: Autodesk, Inc."
 90
     1024
 91
        1
280
     0
281
     0
  0
CLASS
  1
ACMDETAILSTANDARDISO
  2
AmdtDetailSymStdISO
  3
"Amdt_StdImp|Product Description: AutoCAD Mechanical|Company: Autodesk, Inc."
 90
     1024
 91
        1
280
     0
281
     0
  0
CLASS
  1
ACMSECTIONSTANDARDISO2001
  2
AmdtSectionSymStdISO2001
  3
"Amdt_StdImp|Product Description: AutoCAD Mechanical|Company: Autodesk, Inc."
 90
     1024
 91
        1
280
     0
281
     0
  0
CLASS
  1
ACMCENTERLINESTANDARDISO
  2
AmdtCenterLineStdISO
  3
"Amdt_StdImp|Product Description: AutoCAD Mechanical|Company: Autodesk, Inc."
 90
     1024
 91
        1
280
     0
281
     0
  0
CLASS
  1
ACMTHREADLINESTANDARDISO
  2
AmdtThreadLineStdISO
  3
"Amdt_StdImp|Product Description: AutoCAD Mechanical|Company: Autodesk, Inc."
 90
     1024
 91
        1
280
     0
281
     0
  0
CLASS
  1
ACMNOTESTANDARDISO
  2
AmdtNoteStdISO
  3
"Amdt_StdImp|Product Description: AutoCAD Mechanical|Company: Autodesk, Inc."
 90
     1024
 91
        1
280
     0
281
     0
  0
CLASS
  1
ACMTAPERSTANDARDISO
  2
AcmTaperStdISO
  3
"Amdt_StdImp|Product Description: AutoCAD Mechanical|Company: Autodesk, Inc."
 90
     1024
 91
        1
280
     0
281
     0
  0
CLASS
  1
ACMANOOTATIONVIEWSTANDARDISO
  2
AmdtAnViewStdISO
  3
"Amdt_StdImp|Product Description: AutoCAD Mechanical|Company: Autodesk, Inc."
 90
     1024
 91
        1
280
     0
281
     0
  0
CLASS
  1
ACAMGHOLECHARTSTDISO
  2
AcAmgHoleChartStdISO
  3
AmgDim|Product Description: AutoCAD Mechanical|Company: Autodesk, Inc.
 90
     1024
 91
        1
280
     0
281
     0
  0
CLASS
  1
EXACXREFPANELOBJECT
  2
ExAcXREFPanelObject
  3
EXAC_ESW
 90
     1025
 91
        0
280
     0
281
     0
  0
CLASS
  1
NPOCOLLECTION
  2
AcDbImpNonPersistentObjectsCollection
  3
ObjectDBX Classes
 90
     1153
 91
        0
280
     0
281
     0
  0
CLASS
  1
ACDBSTDPARTRES_ARC
  2
AcDbStdPartRes_Arc
  3
AmgStdPart|Product Description: AutoCAD Mechanical|Company: Autodesk, Inc.
 90
     1024
 91
        0
280
     0
281
     0
  0
CLASS
  1
AMDTNOTE
  2
AmdtNote
  3
"AcmSymBB|Product Description: AutoCAD Mechanical|Company: Autodesk, Inc."
 90
     4095
 91
        0
280
     0
281
     1
  0
CLASS
  1
PLOTSETTINGS
  2
AcDbPlotSettings
  3
ObjectDBX Classes
 90
        0
 91
        1
280
     0
281
     0
  0
CLASS
  1
ACMSTANDARDANSI
  2
AcmStandardANSI
  3
"Amdt_StdImp|Product Description: AutoCAD Mechanical|Company: Autodesk, Inc."
 90
     1024
 91
        0
280
     0
281
     0
  0
CLASS
  1
ACMSURFSTANDARDANSI
  2
AcmSurfTextStdANSI
  3
"Amdt_StdImp|Product Description: AutoCAD Mechanical|Company: Autodesk, Inc."
 90
     1024
 91
        0
280
     0
281
     0
  0
CLASS
  1
ACMFCFSTANDARDANSI
  2
AcmFCFStdANSI
  3
"Amdt_StdImp|Product Description: AutoCAD Mechanical|Company: Autodesk, Inc."
 90
     1024
 91
        0
280
     0
281
     0
  0
CLASS
  1
ACMWELDSTANDARDANSI
  2
AcmWeldingStdANSI
  3
"Amdt_StdImp|Product Description: AutoCAD Mechanical|Company: Autodesk, Inc."
 90
     1024
 91
        0
280
     0
281
     0
  0
CLASS
  1
ACMIDSTANDARDANSI
  2
AcmIdStdANSI
  3
"Amdt_StdImp|Product Description: AutoCAD Mechanical|Company: Autodesk, Inc."
 90
     1024
 91
        0
280
     0
281
     0
  0
CLASS
  1
ACMDATUMSTANDARDANSI
  2
AcmDatumStdANSI
  3
"Amdt_StdImp|Product Description: AutoCAD Mechanical|Company: Autodesk, Inc."
 90
     1024
 91
        0
280
     0
281
     0
  0
CLASS
  1
ACMBOMSTANDARDANSI
  2
AcmBOMStdANSI
  3
"Amdt_StdImp|Product Description: AutoCAD Mechanical|Company: Autodesk, Inc."
 90
     1024
 91
        0
280
     0
281
     0
  0
CLASS
  1
ACMDETAILSTANDARDANSI
  2
AmdtDetailSymStdANSI
  3
"Amdt_StdImp|Product Description: AutoCAD Mechanical|Company: Autodesk, Inc."
 90
     1024
 91
        0
280
     0
281
     0
  0
CLASS
  1
ACMSECTIONSTANDARDANSI
  2
AmdtSectionSymStdANSI
  3
"Amdt_StdImp|Product Description: AutoCAD Mechanical|Company: Autodesk, Inc."
 90
     1024
 91
        0
280
     0
281
     0
  0
CLASS
  1
ACMCENTERLINESTANDARDANSI
  2
AmdtCenterLineStdANSI
  3
"Amdt_StdImp|Product Description: AutoCAD Mechanical|Company: Autodesk, Inc."
 90
     1024
 91
        0
280
     0
281
     0
  0
CLASS
  1
ACMTHREADLINESTANDARDANSI
  2
AmdtThreadLineStdANSI
  3
"Amdt_StdImp|Product Description: AutoCAD Mechanical|Company: Autodesk, Inc."
 90
     1024
 91
        0
280
     0
281
     0
  0
CLASS
  1
ACMNOTESTANDARDANSI
  2
AmdtNoteStdANSI
  3
"Amdt_StdImp|Product Description: AutoCAD Mechanical|Company: Autodesk, Inc."
 90
     1024
 91
        0
280
     0
281
     0
  0
CLASS
  1
ACMTAPERSTANDARDANSI
  2
AcmTaperStdANSI
  3
"Amdt_StdImp|Product Description: AutoCAD Mechanical|Company: Autodesk, Inc."
 90
     1024
 91
        0
280
     0
281
     0
  0
CLASS
  1
ACMANOOTATIONVIEWSTANDARDANSI
  2
AmdtAnViewStdANSI
  3
"Amdt_StdImp|Product Description: AutoCAD Mechanical|Company: Autodesk, Inc."
 90
     1024
 91
        0
280
     0
281
     0
  0
CLASS
  1
ACAMGHOLECHARTSTDANSI
  2
AcAmgHoleChartStdANSI
  3
AmgDim|Product Description: AutoCAD Mechanical|Company: Autodesk, Inc.
 90
     1024
 91
        0
280
     0
281
     0
  0
CLASS
  1
ACMSTANDARDBSI
  2
AcmStandardBSI
  3
"Amdt_StdImp|Product Description: AutoCAD Mechanical|Company: Autodesk, Inc."
 90
     1024
 91
        0
280
     0
281
     0
  0
CLASS
  1
ACMSURFSTANDARDBSI2002
  2
AcmSurfTextStdBSI2002
  3
"Amdt_StdImp|Product Description: AutoCAD Mechanical|Company: Autodesk, Inc."
 90
     1024
 91
        0
280
     0
281
     0
  0
CLASS
  1
ACMFCFSTANDARDBSI
  2
AcmFCFStdBSI
  3
"Amdt_StdImp|Product Description: AutoCAD Mechanical|Company: Autodesk, Inc."
 90
     1024
 91
        0
280
     0
281
     0
  0
CLASS
  1
ACMWELDSTANDARDBSI
  2
AcmWeldingStdBSI
  3
"Amdt_StdImp|Product Description: AutoCAD Mechanical|Company: Autodesk, Inc."
 90
     1024
 91
        0
280
     0
281
     0
  0
CLASS
  1
ACMIDSTANDARDBSI
  2
AcmIdStdBSI
  3
"Amdt_StdImp|Product Description: AutoCAD Mechanical|Company: Autodesk, Inc."
 90
     1024
 91
        0
280
     0
281
     0
  0
CLASS
  1
ACMDATUMSTANDARDBSI
  2
AcmDatumStdBSI
  3
"Amdt_StdImp|Product Description: AutoCAD Mechanical|Company: Autodesk, Inc."
 90
     1024
 91
        0
280
     0
281
     0
  0
CLASS
  1
ACMBOMSTANDARDBSI
  2
AcmBOMStdBSI
  3
"Amdt_StdImp|Product Description: AutoCAD Mechanical|Company: Autodesk, Inc."
 90
     1024
 91
        0
280
     0
281
     0
  0
CLASS
  1
ACMDETAILSTANDARDBSI
  2
AmdtDetailSymStdBSI
  3
"Amdt_StdImp|Product Description: AutoCAD Mechanical|Company: Autodesk, Inc."
 90
     1024
 91
        0
280
     0
281
     0
  0
CLASS
  1
ACMSECTIONSTANDARDBSI2001
  2
AmdtSectionSymStdBSI2001
  3
"Amdt_StdImp|Product Description: AutoCAD Mechanical|Company: Autodesk, Inc."
 90
     1024
 91
        0
280
     0
281
     0
  0
CLASS
  1
ACMCENTERLINESTANDARDBSI
  2
AmdtCenterLineStdBSI
  3
"Amdt_StdImp|Product Description: AutoCAD Mechanical|Company: Autodesk, Inc."
 90
     1024
 91
        0
280
     0
281
     0
  0
CLASS
  1
ACMTHREADLINESTANDARDBSI
  2
AmdtThreadLineStdBSI
  3
"Amdt_StdImp|Product Description: AutoCAD Mechanical|Company: Autodesk, Inc."
 90
     1024
 91
        0
280
     0
281
     0
  0
CLASS
  1
ACMNOTESTANDARDBSI
  2
AmdtNoteStdBSI
  3
"Amdt_StdImp|Product Description: AutoCAD Mechanical|Company: Autodesk, Inc."
 90
     1024
 91
        0
280
     0
281
     0
  0
CLASS
  1
ACMTAPERSTANDARDBSI
  2
AcmTaperStdBSI
  3
"Amdt_StdImp|Product Description: AutoCAD Mechanical|Company: Autodesk, Inc."
 90
     1024
 91
        0
280
     0
281
     0
  0
CLASS
  1
ACMANOOTATIONVIEWSTANDARDBSI
  2
AmdtAnViewStdBSI
  3
"Amdt_StdImp|Product Description: AutoCAD Mechanical|Company: Autodesk, Inc."
 90
     1024
 91
        0
280
     0
281
     0
  0
CLASS
  1
ACAMGHOLECHARTSTDBSI
  2
AcAmgHoleChartStdBSI
  3
AmgDim|Product Description: AutoCAD Mechanical|Company: Autodesk, Inc.
 90
     1024
 91
        0
280
     0
281
     0
  0
CLASS
  1
AMDTEDGESTANDARDJIS
  2
AmdtEdgeStdJIS
  3
"Amdt_StdImp|Product Description: AutoCAD Mechanical|Company: Autodesk, Inc."
 90
     1024
 91
        0
280
     0
281
     0
  0
CLASS
  1
ACMSURFSYM
  2
AcmSurfaceTexture
  3
"AcmSymBB|Product Description: AutoCAD Mechanical|Company: Autodesk, Inc."
 90
     4095
 91
        0
280
     0
281
     1
  0
CLASS
  1
ACDBDIMENSIONRES
  2
AcDbDimensionRes
  3
AcmSymBB|Product Description: AutoCAD Mechanical|Company: Autodesk, Inc.
 90
     1024
 91
        0
280
     0
281
     0
  0
CLASS
  1
ACDBCIRCARCRES
  2
AcDbCircArcRes
  3
AcGrefServices
 90
     1024
 91
        0
280
     0
281
     0
  0
CLASS
  1
ACMDIMBREAKPERSREACTOR
  2
AcmDimBreakPersReactor
  3
AmgDim|Product Description: AutoCAD Mechanical|Company: Autodesk, Inc.
 90
     4095
 91
        0
280
     0
281
     0
  0
CLASS
  1
ACDBOPPOLYLINERES
  2
AcDbOpPolylineRes
  3
AcGrefServices
 90
     1024
 91
        0
280
     0
281
     0
  0
CLASS
  1
AMDTACMWBLOCKBOMENTITY
  2
AmdtAcmWblockBomEntity
  3
"AcmSymBB|Product Description: AutoCAD Mechanical|Company: Autodesk, Inc."
 90
     4095
 91
        0
280
     0
281
     1
  0
CLASS
  1
ACDB_BLKREFOBJECTCONTEXTDATA_CLASS
  2
AcDbBlkRefObjectContextData
  3
ObjectDBX Classes
 90
     1153
 91
        0
280
     0
281
     0
  0
CLASS
  1
ACMPICKOBJ
  2
AcmPickEnt
  3
"AcmSymBB|Product Description: AutoCAD Mechanical|Company: Autodesk, Inc."
 90
     1024
 91
        0
280
     0
281
     1
  0
CLASS
  1
ACDBELLIPSERES
  2
AcDbEllipseRes
  3
AcGrefServices
 90
     1024
 91
        0
280
     0
281
     0
  0
CLASS
  1
ACMBALLOON
  2
AcmBalloon
  3
"AcmSymBB|Product Description: AutoCAD Mechanical|Company: Autodesk, Inc."
 90
     4095
 91
        0
280
     0
281
     1
  0
CLASS
  1
BREAKDATA
  2
AcDbBreakData
  3
ObjectDBX Classes
 90
     1024
 91
        0
280
     0
281
     0
  0
CLASS
  1
ACMDATUMID
  2
AcmDatumId
  3
"AcmSymBB|Product Description: AutoCAD Mechanical|Company: Autodesk, Inc."
 90
     4095
 91
        0
280
     0
281
     1
  0
CLASS
  1
ACMWELDSYM
  2
AcmWelding
  3
"AcmSymBB|Product Description: AutoCAD Mechanical|Company: Autodesk, Inc."
 90
     4095
 91
        0
280
     0
281
     1
  0
ENDSEC
  0
SECTION
  2
TABLES
  0
TABLE
  2
VPORT
  5
8
330
0
100
AcDbSymbolTable
 70
     1
  0
VPORT
  5
27A
330
8
100
AcDbSymbolTableRecord
100
AcDbViewportTableRecord
  2
*Active
 70
     0
 10
0.0
 20
0.0
 11
1.0
 21
1.0
 12
635.575565037895
 22
664.4228473706325
 13
0.0
 23
0.0
 14
7.5
 24
7.5
 15
30.0
 25
30.0
 16
0.0
 26
0.0
 36
1.0
 17
0.0
 27
0.0
 37
0.0
 40
483.2882855513158
 41
1.571428571428571
 42
50.0
 43
0.0
 44
0.0
 50
0.0
 51
0.0
 71
    16
 72
 20000
 73
     1
 74
     3
 75
     0
 76
     0
 77
     0
 78
     0
281
     0
 65
     0
110
0.0
120
0.0
130
0.0
111
1.0
121
0.0
131
0.0
112
0.0
122
1.0
132
0.0
 79
     0
146
0.0
348
285
 60
     3
 61
     5
292
     1
282
     0
141
0.0
142
0.0
 63
   250
421
  3355443
  0
ENDTAB
  0
TABLE
  2
LTYPE
  5
5
330
0
100
AcDbSymbolTable
 70
    22
  0
LTYPE
  5
14
330
5
100
AcDbSymbolTableRecord
100
AcDbLinetypeTableRecord
  2
ByBlock
 70
     0
  3

 72
    65
 73
     0
 40
0.0
  0
LTYPE
  5
15
330
5
100
AcDbSymbolTableRecord
100
AcDbLinetypeTableRecord
  2
ByLayer
 70
     0
  3

 72
    65
 73
     0
 40
0.0
  0
LTYPE
  5
16
330
5
100
AcDbSymbolTableRecord
100
AcDbLinetypeTableRecord
  2
Continuous
 70
     0
  3
Solid line
 72
    65
 73
     0
 40
0.0
  0
LTYPE
  5
4D
330
5
100
AcDbSymbolTableRecord
100
AcDbLinetypeTableRecord
  2
AM_ISO02W050
 70
     0
  3
__ __ __ __ __ __ __ __ __ __ __ __ __ __ __
 72
    65
 73
     2
 40
7.5
 49
6.0
 74
     0
 49
-1.5
 74
     0
  0
LTYPE
  5
4E
330
5
100
AcDbSymbolTableRecord
100
AcDbLinetypeTableRecord
  2
AM_ISO08W050
 70
     0
  3
____ . ____ . ____ . ____ . ____ . ____ . ____
 72
    65
 73
     4
 40
18.0
 49
12.0
 74
     0
 49
-1.5
 74
     0
 49
3.0
 74
     0
 49
-1.5
 74
     0
  0
LTYPE
  5
4F
330
5
100
AcDbSymbolTableRecord
100
AcDbLinetypeTableRecord
  2
AM_ISO09W050
 70
     0
  3
_____ . . _____ . . _____ . . ____ .. ____
 72
    65
 73
     6
 40
22.5
 49
12.0
 74
     0
 49
-1.5
 74
     0
 49
3.0
 74
     0
 49
-1.5
 74
     0
 49
3.0
 74
     0
 49
-1.5
 74
     0
  0
LTYPE
  5
50
330
5
100
AcDbSymbolTableRecord
100
AcDbLinetypeTableRecord
  2
Amconstr
 70
     0
  3
_______________________
 72
    65
 73
     2
 40
9999.0
 49
9999.0
 74
     0
 49
0.0
 74
     0
  0
LTYPE
  5
51
330
5
100
AcDbSymbolTableRecord
100
AcDbLinetypeTableRecord
  2
AM_ISO08W050x2
 70
     0
  3
__ . __ . __ . __ . __ . __
 72
    65
 73
     4
 40
9.0
 49
6.0
 74
     0
 49
-0.75
 74
     0
 49
1.5
 74
     0
 49
-0.75
 74
     0
  0
LTYPE
  5
52
330
5
100
AcDbSymbolTableRecord
100
AcDbLinetypeTableRecord
  2
AM_ISO02W050x2
 70
     0
  3
 _ _ _ _ _ _ _ _ _ _ _ _
 72
    65
 73
     2
 40
3.75
 49
3.0
 74
     0
 49
-0.75
 74
     0
  0
LTYPE
  5
55
330
5
100
AcDbSymbolTableRecord
100
AcDbLinetypeTableRecord
  2
Amzigzag
 70
     0
  3
/\/-/\/-/\/-/\/-/\/-/\/
 72
    65
 73
     2
 40
11.0001
 49
0.0001
 74
     4
 75
   136
340
23D
 46
0.04
 50
0.0
 44
0.0
 45
0.0
 49
-11.0
 74
     0
  0
LTYPE
  5
65
330
5
100
AcDbSymbolTableRecord
100
AcDbLinetypeTableRecord
  2
CENTER
 70
     0
  3
__ . __
 72
    65
 73
     4
 40
7.0
 49
4.0
 74
     0
 49
-1.0
 74
     0
 49
1.0
 74
     0
 49
-1.0
 74
     0
  0
LTYPE
  5
E0
330
5
100
AcDbSymbolTableRecord
100
AcDbLinetypeTableRecord
  2
HIDDEN
 70
     0
  3
Hidden __ __ __ __ __ __ __ __ __ __ __ __ __ _
 72
    65
 73
     2
 40
9.524999999999996
 49
6.349999999999998
 74
     0
 49
-3.174999999999998
 74
     0
  0
LTYPE
  5
E1
330
5
100
AcDbSymbolTableRecord
100
AcDbLinetypeTableRecord
  2
PHANTOM2
 70
     0
  3
Phantom (.5x) ___ _ _ ___ _ _ ___ _ _ ___ _ _
 72
    65
 73
     6
 40
31.75
 49
15.875
 74
     0
 49
-3.174999999999998
 74
     0
 49
3.174999999999998
 74
     0
 49
-3.174999999999998
 74
     0
 49
3.174999999999998
 74
     0
 49
-3.174999999999998
 74
     0
  0
LTYPE
  5
5A2
330
5
100
AcDbSymbolTableRecord
100
AcDbLinetypeTableRecord
  2
ACJISWELD
 70
     0
  3
_ _ _ _ _
 72
    65
 73
     2
 40
2.0
 49
2.0
 74
     0
 49
-1.0
 74
     0
  0
LTYPE
  5
9B6A
330
5
100
AcDbSymbolTableRecord
100
AcDbLinetypeTableRecord
  2
ACISOWELD
 70
     0
  3
_ _ _ _ _
 72
    65
 73
     2
 40
2.0
 49
2.0
 74
     0
 49
-1.0
 74
     0
  0
LTYPE
  5
9B6B
330
5
100
AcDbSymbolTableRecord
100
AcDbLinetypeTableRecord
  2
ACISOTGB
 70
     0
  3
__ . . __ . .
 72
    65
 73
     6
 40
9.0
 49
4.0
 74
     0
 49
-1.0
 74
     0
 49
1.0
 74
     0
 49
-1.0
 74
     0
 49
1.0
 74
     0
 49
-1.0
 74
     0
  0
LTYPE
  5
9B6C
330
5
100
AcDbSymbolTableRecord
100
AcDbLinetypeTableRecord
  2
ACISOTGL
 70
     0
  3
_ _ _ _ _
 72
    65
 73
     2
 40
3.0
 49
2.0
 74
     0
 49
-1.0
 74
     0
  0
ENDTAB
  0
TABLE
  2
LAYER
  5
2
102
{ACAD_XDICTIONARY
360
BF
102
}
330
0
100
AcDbSymbolTable
 70
    11
  0
LAYER
  5
10
102
{ACAD_XDICTIONARY
360
29F7
102
}
330
2
100
AcDbSymbolTableRecord
100
AcDbLayerTableRecord
  2
0
 70
     0
 62
     7
  6
Continuous
370
    -3
390
F
347
27E
  0
LAYER
  5
81
102
{ACAD_XDICTIONARY
360
29F9
102
}
330
2
100
AcDbSymbolTableRecord
100
AcDbLayerTableRecord
  2
AM_0 外形線1
 70
     0
 62
     7
  6
Continuous
370
    25
390
F
347
27E
  0
LAYER
  5
427
330
2
100
AcDbSymbolTableRecord
100
AcDbLayerTableRecord
  2
Defpoints
 70
     0
 62
     7
  6
Continuous
290
     0
370
    -3
390
F
347
27E
  0
LAYER
  5
2E13
330
2
100
AcDbSymbolTableRecord
100
AcDbLayerTableRecord
  2
AM_6 文字
 70
     0
 62
     2
  6
Continuous
370
    13
390
F
347
27E
1001
AcAecLayerStandard
1000

1000

  0
LAYER
  5
3B20
330
2
100
AcDbSymbolTableRecord
100
AcDbLayerTableRecord
  2
AM_5 寸法線
 70
     0
 62
     3
  6
Continuous
370
    13
390
F
347
27E
1001
AcAecLayerStandard
1000

1000

  0
LAYER
  5
3B21
330
2
100
AcDbSymbolTableRecord
100
AcDbLayerTableRecord
  2
AM_4 細線
 70
     0
 62
     4
  6
Continuous
370
    13
390
F
347
27E
1001
AcAecLayerStandard
1000

1000

  0
LAYER
  5
3B22
330
2
100
AcDbSymbolTableRecord
100
AcDbLayerTableRecord
  2
AM_7 中心線
 70
     0
 62
     1
  6
AM_ISO08W050
370
    13
390
F
347
27E
1001
AcAecLayerStandard
1000

1000

  0
LAYER
  5
3B23
330
2
100
AcDbSymbolTableRecord
100
AcDbLayerTableRecord
  2
AM_3 隠れ線
 70
     0
 62
     8
  6
ACJISWELD
370
    13
390
F
347
27E
1001
AcAecLayerStandard
1000

1000

  0
LAYER
  5
791D
102
{ACAD_XDICTIONARY
360
791E
102
}
330
2
100
AcDbSymbolTableRecord
100
AcDbLayerTableRecord
  2
AM_8 ハッチング
 70
     0
 62
     1
  6
Continuous
370
    13
390
F
347
27E
1001
AcAecLayerStandard
1000

1000

  0
LAYER
  5
956C
330
2
100
AcDbSymbolTableRecord
100
AcDbLayerTableRecord
  2
AM_11 想像線
 70
     0
 62
     5
  6
AM_ISO09W050
370
    13
390
F
347
27E
1001
AcAecLayerStandard
1000

1000

  0
ENDTAB
  0
TABLE
  2
STYLE
  5
3
330
0
100
AcDbSymbolTable
 70
    11
  0
STYLE
  5
11
330
3
100
AcDbSymbolTableRecord
100
AcDbTextStyleTableRecord
  2
STANDARD
 70
     0
 40
0.0
 41
1.0
 50
0.0
 71
     0
 42
25.0
  3
ISOCP.SHX
  4
EXTFONT.SHX
  0
STYLE
  5
23D
330
3
100
AcDbSymbolTableRecord
100
AcDbTextStyleTableRecord
  2

 70
     1
 40
0.0
 41
1.0
 50
0.0
 71
     0
 42
2.5
  3
genltshp.shx
  4

  0
STYLE
  5
5D5
330
3
100
AcDbSymbolTableRecord
100
AcDbTextStyleTableRecord
  2
SEISA
 70
     0
 40
0.0
 41
0.9
 50
0.0
 71
     0
 42
25.0
  3
romans.shx
  4
extfont2.shx
  0
STYLE
  5
9B5A
330
3
100
AcDbSymbolTableRecord
100
AcDbTextStyleTableRecord
  2
ACISOTS
 70
     0
 40
1.0
 41
1.0
 50
0.0
 71
     0
 42
25.0
  3
isocp.shx
  4
extfont.shx
  0
STYLE
  5
9B69
330
3
100
AcDbSymbolTableRecord
100
AcDbTextStyleTableRecord
  2
ACISOGDT
 70
     0
 40
0.0
 41
1.0
 50
0.0
 71
     0
 42
25.0
  3
amgdt.shx
  4

  0
ENDTAB
  0
TABLE
  2
VIEW
  5
6
330
0
100
AcDbSymbolTable
 70
     6
  0
VIEW
  5
91B
330
6
100
AcDbSymbolTableRecord
100
AcDbViewTableRecord
  2
AM_VIEW1
 70
     0
 40
445.5
 10
430.6865769289815
 20
668.2500011081462
 41
861.3731527093596
 11
0.0
 21
0.0
 31
1.0
 12
0.0
 22
0.0
 32
0.0
 42
50.0
 43
0.0
 44
0.0
 50
0.0
 71
    16
281
     0
 72
     0
 73
     0
  0
VIEW
  5
91C
330
6
100
AcDbSymbolTableRecord
100
AcDbViewTableRecord
  2
AM_VIEW2
 70
     0
 40
445.5
 10
829.3134242196217
 20
668.2500011081462
 41
861.3731527093596
 11
0.0
 21
0.0
 31
1.0
 12
0.0
 22
0.0
 32
0.0
 42
50.0
 43
0.0
 44
0.0
 50
0.0
 71
    16
281
     0
 72
     0
 73
     0
  0
VIEW
  5
91D
330
6
100
AcDbSymbolTableRecord
100
AcDbViewTableRecord
  2
AM_VIEW3
 70
     0
 40
445.5
 10
430.6865769289815
 20
222.7500011081462
 41
861.3731527093596
 11
0.0
 21
0.0
 31
1.0
 12
0.0
 22
0.0
 32
0.0
 42
50.0
 43
0.0
 44
0.0
 50
0.0
 71
    16
281
     0
 72
     0
 73
     0
  0
VIEW
  5
91E
330
6
100
AcDbSymbolTableRecord
100
AcDbViewTableRecord
  2
AM_VIEW4
 70
     0
 40
445.5
 10
829.3134242196217
 20
222.7500011081462
 41
861.3731527093596
 11
0.0
 21
0.0
 31
1.0
 12
0.0
 22
0.0
 32
0.0
 42
50.0
 43
0.0
 44
0.0
 50
0.0
 71
    16
281
     0
 72
     0
 73
     0
  0
VIEW
  5
91F
330
6
100
AcDbSymbolTableRecord
100
AcDbViewTableRecord
  2
AM_VIEW5
 70
     0
 40
445.5
 10
630.0000005743015
 20
445.5000011081462
 41
861.37315270936
 11
0.0
 21
0.0
 31
1.0
 12
0.0
 22
0.0
 32
0.0
 42
50.0
 43
0.0
 44
0.0
 50
0.0
 71
    16
281
     0
 72
     0
 73
     0
  0
VIEW
  5
920
330
6
100
AcDbSymbolTableRecord
100
AcDbViewTableRecord
  2
AM_VIEW6
 70
     0
 40
890.9910900000001
 10
630.0000005743015
 20
445.5000011081462
 41
1722.729077955666
 11
0.0
 21
0.0
 31
1.0
 12
0.0
 22
0.0
 32
0.0
 42
50.0
 43
0.0
 44
0.0
 50
0.0
 71
    16
281
     0
 72
     0
 73
     0
  0
ENDTAB
  0
TABLE
  2
UCS
  5
7
330
0
100
AcDbSymbolTable
 70
     0
  0
ENDTAB
  0
TABLE
  2
APPID
  5
9
330
0
100
AcDbSymbolTable
 70
   396
  0
APPID
  5
12
330
9
100
AcDbSymbolTableRecord
100
AcDbRegAppTableRecord
  2
ACAD
 70
     0
  0
APPID
  5
30
330
9
100
AcDbSymbolTableRecord
100
AcDbRegAppTableRecord
  2
MCAD_NO_VIS
 70
     0
  0
APPID
  5
31
330
9
100
AcDbSymbolTableRecord
100
AcDbRegAppTableRecord
  2
ACAD_TEMP_GRAPHIC
 70
     0
  0
APPID
  5
44
330
9
100
AcDbSymbolTableRecord
100
AcDbRegAppTableRecord
  2
ACATTRIBSERVICES
 70
     0
  0
APPID
  5
F6
330
9
100
AcDbSymbolTableRecord
100
AcDbRegAppTableRecord
  2
AD_DRAW
 70
     0
  0
APPID
  5
114
330
9
100
AcDbSymbolTableRecord
100
AcDbRegAppTableRecord
  2
DESIGNERASSEMBLIES
 70
     0
  0
APPID
  5
118
330
9
100
AcDbSymbolTableRecord
100
AcDbRegAppTableRecord
  2
ACADM_DIM_EDIT
 70
     0
  0
APPID
  5
119
330
9
100
AcDbSymbolTableRecord
100
AcDbRegAppTableRecord
  2
AMDT_DM_ADJ
 70
     0
  0
APPID
  5
1AF
330
9
100
AcDbSymbolTableRecord
100
AcDbRegAppTableRecord
  2
ACAD_DSTYLE_DIMARC_LENGTH_SYMBOL
 70
     0
  0
APPID
  5
1B0
330
9
100
AcDbSymbolTableRecord
100
AcDbRegAppTableRecord
  2
ACAD_DSTYLE_DIMJOGGED_JOGANGLE_SYMBOL
 70
     0
  0
APPID
  5
2D7
330
9
100
AcDbSymbolTableRecord
100
AcDbRegAppTableRecord
  2
ACAD_MLEADERVER
 70
     0
  0
APPID
  5
355
330
9
100
AcDbSymbolTableRecord
100
AcDbRegAppTableRecord
  2
AcadAnnoPO
 70
     0
  0
APPID
  5
428
330
9
100
AcDbSymbolTableRecord
100
AcDbRegAppTableRecord
  2
ACAD_DSTYLE_DIMTEXT_FILL
 70
     0
  0
APPID
  5
429
330
9
100
AcDbSymbolTableRecord
100
AcDbRegAppTableRecord
  2
GENIUS_GENSCREG_15
 70
     0
  0
APPID
  5
42A
330
9
100
AcDbSymbolTableRecord
100
AcDbRegAppTableRecord
  2
GENIUS_GENOBJ-N-SDF_13
 70
     0
  0
APPID
  5
42B
330
9
100
AcDbSymbolTableRecord
100
AcDbRegAppTableRecord
  2
GENIUS_GENODEF_13
 70
     0
  0
APPID
  5
42C
330
9
100
AcDbSymbolTableRecord
100
AcDbRegAppTableRecord
  2
ACAD_EXEMPT_FROM_CAD_STANDARDS
 70
     0
  0
APPID
  5
42D
330
9
100
AcDbSymbolTableRecord
100
AcDbRegAppTableRecord
  2
AcAecLayerStandard
 70
     0
  0
APPID
  5
42E
330
9
100
AcDbSymbolTableRecord
100
AcDbRegAppTableRecord
  2
GENIUS_GENOBJ-N-CEN_13
 70
     0
  0
APPID
  5
42F
330
9
100
AcDbSymbolTableRecord
100
AcDbRegAppTableRecord
  2
GENIUS_GENCEN_19
 70
     0
  0
APPID
  5
430
330
9
100
AcDbSymbolTableRecord
100
AcDbRegAppTableRecord
  2
ACAD_DSTYLE_DIMINSPECT
 70
     0
  0
APPID
  5
431
330
9
100
AcDbSymbolTableRecord
100
AcDbRegAppTableRecord
  2
GENIUS_AMGTXT_16
 70
     0
  0
APPID
  5
432
330
9
100
AcDbSymbolTableRecord
100
AcDbRegAppTableRecord
  2
GENIUS_GENFIL_13
 70
     0
  0
APPID
  5
433
330
9
100
AcDbSymbolTableRecord
100
AcDbRegAppTableRecord
  2
GENIUS_GENOLIS_13
 70
     0
  0
APPID
  5
434
330
9
100
AcDbSymbolTableRecord
100
AcDbRegAppTableRecord
  2
GENIUS_GENOBJ-N-CHA_13
 70
     0
  0
APPID
  5
435
330
9
100
AcDbSymbolTableRecord
100
AcDbRegAppTableRecord
  2
GENIUS_GENOENT_13
 70
     0
  0
APPID
  5
436
330
9
100
AcDbSymbolTableRecord
100
AcDbRegAppTableRecord
  2
GENIUS_GENOREF_13
 70
     0
  0
APPID
  5
437
330
9
100
AcDbSymbolTableRecord
100
AcDbRegAppTableRecord
  2
GENIUS_GENOBJ-N-FIL_13
 70
     0
  0
APPID
  5
438
330
9
100
AcDbSymbolTableRecord
100
AcDbRegAppTableRecord
  2
GEVID1208829536
 70
     0
  0
APPID
  5
439
330
9
100
AcDbSymbolTableRecord
100
AcDbRegAppTableRecord
  2
GEVDC
 70
     0
  0
APPID
  5
43A
330
9
100
AcDbSymbolTableRecord
100
AcDbRegAppTableRecord
  2
GEVRADREF
 70
     0
  0
APPID
  5
43B
330
9
100
AcDbSymbolTableRecord
100
AcDbRegAppTableRecord
  2
GENIUS_GENBH_13
 70
     0
  0
APPID
  5
43C
330
9
100
AcDbSymbolTableRecord
100
AcDbRegAppTableRecord
  2
GENIUS_GENOBJ-NBEHI-BHF_13
 70
     0
  0
APPID
  5
43D
330
9
100
AcDbSymbolTableRecord
100
AcDbRegAppTableRecord
  2
GENIUS_GENOBJ-NBEHI-BHB_13
 70
     0
  0
APPID
  5
43E
330
9
100
AcDbSymbolTableRecord
100
AcDbRegAppTableRecord
  2
GEVID1208829537
 70
     0
  0
APPID
  5
43F
330
9
100
AcDbSymbolTableRecord
100
AcDbRegAppTableRecord
  2
ACAD_DSTYLE_DIMJAG
 70
     0
  0
APPID
  5
440
330
9
100
AcDbSymbolTableRecord
100
AcDbRegAppTableRecord
  2
ACAD_DSTYLE_DIMTALN
 70
     0
  0
APPID
  5
441
330
9
100
AcDbSymbolTableRecord
100
AcDbRegAppTableRecord
  2
AMG_2DHIDE
 70
     0
  0
APPID
  5
442
330
9
100
AcDbSymbolTableRecord
100
AcDbRegAppTableRecord
  2
AMG_2DSTRUCT_BTR
 70
     0
  0
APPID
  5
443
330
9
100
AcDbSymbolTableRecord
100
AcDbRegAppTableRecord
  2
GEVID1208845772
 70
     0
  0
APPID
  5
444
330
9
100
AcDbSymbolTableRecord
100
AcDbRegAppTableRecord
  2
GEVID1208845773
 70
     0
  0
APPID
  5
445
330
9
100
AcDbSymbolTableRecord
100
AcDbRegAppTableRecord
  2
ACADM_2DVIEW_IGN_NOTIFY
 70
     0
  0
APPID
  5
446
330
9
100
AcDbSymbolTableRecord
100
AcDbRegAppTableRecord
  2
GEVID1208845774
 70
     0
  0
APPID
  5
447
330
9
100
AcDbSymbolTableRecord
100
AcDbRegAppTableRecord
  2
GEVID1208845775
 70
     0
  0
APPID
  5
448
330
9
100
AcDbSymbolTableRecord
100
AcDbRegAppTableRecord
  2
GEVID1208845776
 70
     0
  0
APPID
  5
449
330
9
100
AcDbSymbolTableRecord
100
AcDbRegAppTableRecord
  2
GEVID1208845777
 70
     0
  0
APPID
  5
44A
330
9
100
AcDbSymbolTableRecord
100
AcDbRegAppTableRecord
  2
GEVCON
 70
     0
  0
APPID
  5
44B
330
9
100
AcDbSymbolTableRecord
100
AcDbRegAppTableRecord
  2
GENIUS_GENOBJ-F-SCPASSM_13
 70
     0
  0
APPID
  5
44C
330
9
100
AcDbSymbolTableRecord
100
AcDbRegAppTableRecord
  2
GEVID1208845778
 70
     0
  0
APPID
  5
44D
330
9
100
AcDbSymbolTableRecord
100
AcDbRegAppTableRecord
  2
GEVID1208845779
 70
     0
  0
APPID
  5
44E
330
9
100
AcDbSymbolTableRecord
100
AcDbRegAppTableRecord
  2
GEVID1208845780
 70
     0
  0
APPID
  5
44F
330
9
100
AcDbSymbolTableRecord
100
AcDbRegAppTableRecord
  2
GEVID1208845781
 70
     0
  0
APPID
  5
450
330
9
100
AcDbSymbolTableRecord
100
AcDbRegAppTableRecord
  2
GEVID1208845782
 70
     0
  0
APPID
  5
451
330
9
100
AcDbSymbolTableRecord
100
AcDbRegAppTableRecord
  2
GEVID1208845783
 70
     0
  0
APPID
  5
452
330
9
100
AcDbSymbolTableRecord
100
AcDbRegAppTableRecord
  2
GEVID1208845784
 70
     0
  0
APPID
  5
453
330
9
100
AcDbSymbolTableRecord
100
AcDbRegAppTableRecord
  2
GEVID1208845785
 70
     0
  0
APPID
  5
454
330
9
100
AcDbSymbolTableRecord
100
AcDbRegAppTableRecord
  2
GEVID1208845787
 70
     0
  0
APPID
  5
455
330
9
100
AcDbSymbolTableRecord
100
AcDbRegAppTableRecord
  2
GEVID1208845788
 70
     0
  0
APPID
  5
456
330
9
100
AcDbSymbolTableRecord
100
AcDbRegAppTableRecord
  2
GEVID1208845789
 70
     0
  0
APPID
  5
457
330
9
100
AcDbSymbolTableRecord
100
AcDbRegAppTableRecord
  2
GEVID1208845790
 70
     0
  0
APPID
  5
458
330
9
100
AcDbSymbolTableRecord
100
AcDbRegAppTableRecord
  2
GEVID1208845791
 70
     0
  0
APPID
  5
459
330
9
100
AcDbSymbolTableRecord
100
AcDbRegAppTableRecord
  2
GEVID1208845792
 70
     0
  0
APPID
  5
45A
330
9
100
AcDbSymbolTableRecord
100
AcDbRegAppTableRecord
  2
GEVID1208845793
 70
     0
  0
APPID
  5
45B
330
9
100
AcDbSymbolTableRecord
100
AcDbRegAppTableRecord
  2
GEVID1208845794
 70
     0
  0
APPID
  5
45C
330
9
100
AcDbSymbolTableRecord
100
AcDbRegAppTableRecord
  2
GEVID1208845795
 70
     0
  0
APPID
  5
45D
330
9
100
AcDbSymbolTableRecord
100
AcDbRegAppTableRecord
  2
GEVID1208845796
 70
     0
  0
APPID
  5
45E
330
9
100
AcDbSymbolTableRecord
100
AcDbRegAppTableRecord
  2
GEVID1208845797
 70
     0
  0
APPID
  5
45F
330
9
100
AcDbSymbolTableRecord
100
AcDbRegAppTableRecord
  2
GEVID1208845798
 70
     0
  0
APPID
  5
460
330
9
100
AcDbSymbolTableRecord
100
AcDbRegAppTableRecord
  2
GEVID1208845799
 70
     0
  0
APPID
  5
461
330
9
100
AcDbSymbolTableRecord
100
AcDbRegAppTableRecord
  2
GEVID1208845800
 70
     0
  0
APPID
  5
462
330
9
100
AcDbSymbolTableRecord
100
AcDbRegAppTableRecord
  2
GEVID1208845801
 70
     0
  0
APPID
  5
463
330
9
100
AcDbSymbolTableRecord
100
AcDbRegAppTableRecord
  2
GEVID1208845802
 70
     0
  0
APPID
  5
464
330
9
100
AcDbSymbolTableRecord
100
AcDbRegAppTableRecord
  2
GENIUS_GENOBJ-N-DIM_13
 70
     0
  0
APPID
  5
465
330
9
100
AcDbSymbolTableRecord
100
AcDbRegAppTableRecord
  2
GENIUS_GENDIM_13
 70
     0
  0
APPID
  5
466
330
9
100
AcDbSymbolTableRecord
100
AcDbRegAppTableRecord
  2
GENIUS_GENDIMSH_14
 70
     0
  0
APPID
  5
467
330
9
100
AcDbSymbolTableRecord
100
AcDbRegAppTableRecord
  2
GEVID1208845803
 70
     0
  0
APPID
  5
468
330
9
100
AcDbSymbolTableRecord
100
AcDbRegAppTableRecord
  2
GEVID1208845804
 70
     0
  0
APPID
  5
469
330
9
100
AcDbSymbolTableRecord
100
AcDbRegAppTableRecord
  2
GEVID1208845805
 70
     0
  0
APPID
  5
46A
330
9
100
AcDbSymbolTableRecord
100
AcDbRegAppTableRecord
  2
GEVID1208845806
 70
     0
  0
APPID
  5
46B
330
9
100
AcDbSymbolTableRecord
100
AcDbRegAppTableRecord
  2
GEVID1208845807
 70
     0
  0
APPID
  5
46C
330
9
100
AcDbSymbolTableRecord
100
AcDbRegAppTableRecord
  2
GEVID1208845808
 70
     0
  0
APPID
  5
46D
330
9
100
AcDbSymbolTableRecord
100
AcDbRegAppTableRecord
  2
GEVID1208845809
 70
     0
  0
APPID
  5
46E
330
9
100
AcDbSymbolTableRecord
100
AcDbRegAppTableRecord
  2
GEVID1208845810
 70
     0
  0
APPID
  5
46F
330
9
100
AcDbSymbolTableRecord
100
AcDbRegAppTableRecord
  2
GEVID1208845811
 70
     0
  0
APPID
  5
470
330
9
100
AcDbSymbolTableRecord
100
AcDbRegAppTableRecord
  2
GEVID1208845813
 70
     0
  0
APPID
  5
471
330
9
100
AcDbSymbolTableRecord
100
AcDbRegAppTableRecord
  2
GEVID1208845814
 70
     0
  0
APPID
  5
472
330
9
100
AcDbSymbolTableRecord
100
AcDbRegAppTableRecord
  2
GEVID1208845815
 70
     0
  0
APPID
  5
473
330
9
100
AcDbSymbolTableRecord
100
AcDbRegAppTableRecord
  2
GEVID1208845816
 70
     0
  0
APPID
  5
474
330
9
100
AcDbSymbolTableRecord
100
AcDbRegAppTableRecord
  2
GEVID1208845817
 70
     0
  0
APPID
  5
475
330
9
100
AcDbSymbolTableRecord
100
AcDbRegAppTableRecord
  2
GEVID1208845818
 70
     0
  0
APPID
  5
476
330
9
100
AcDbSymbolTableRecord
100
AcDbRegAppTableRecord
  2
GEVID1208845819
 70
     0
  0
APPID
  5
477
330
9
100
AcDbSymbolTableRecord
100
AcDbRegAppTableRecord
  2
GEVID1208845820
 70
     0
  0
APPID
  5
478
330
9
100
AcDbSymbolTableRecord
100
AcDbRegAppTableRecord
  2
GENIUS_GENOBJ-F-SHCL_13
 70
     0
  0
APPID
  5
479
330
9
100
AcDbSymbolTableRecord
100
AcDbRegAppTableRecord
  2
GENIUS_GEFMSH_13
 70
     0
  0
APPID
  5
47A
330
9
100
AcDbSymbolTableRecord
100
AcDbRegAppTableRecord
  2
GENIUS_GENOBJ-F-SHCA_13
 70
     0
  0
APPID
  5
47B
330
9
100
AcDbSymbolTableRecord
100
AcDbRegAppTableRecord
  2
GENIUS_GEFSH_13
 70
     0
  0
APPID
  5
47C
330
9
100
AcDbSymbolTableRecord
100
AcDbRegAppTableRecord
  2
GENIUS_GEFSHP_13
 70
     0
  0
APPID
  5
47D
330
9
100
AcDbSymbolTableRecord
100
AcDbRegAppTableRecord
  2
GENIUS_GEFSHP0_13
 70
     0
  0
APPID
  5
47E
330
9
100
AcDbSymbolTableRecord
100
AcDbRegAppTableRecord
  2
GENIUS_GEFSH0_13
 70
     0
  0
APPID
  5
47F
330
9
100
AcDbSymbolTableRecord
100
AcDbRegAppTableRecord
  2
GENIUS_GEFSHP1_13
 70
     0
  0
APPID
  5
480
330
9
100
AcDbSymbolTableRecord
100
AcDbRegAppTableRecord
  2
GENIUS_GEFSH1_13
 70
     0
  0
APPID
  5
481
330
9
100
AcDbSymbolTableRecord
100
AcDbRegAppTableRecord
  2
GEVID1208866337
 70
     0
  0
APPID
  5
482
330
9
100
AcDbSymbolTableRecord
100
AcDbRegAppTableRecord
  2
GEVID1208866338
 70
     0
  0
APPID
  5
483
330
9
100
AcDbSymbolTableRecord
100
AcDbRegAppTableRecord
  2
GEVID1208866339
 70
     0
  0
APPID
  5
484
330
9
100
AcDbSymbolTableRecord
100
AcDbRegAppTableRecord
  2
GEVID1208866340
 70
     0
  0
APPID
  5
485
330
9
100
AcDbSymbolTableRecord
100
AcDbRegAppTableRecord
  2
GEVID1208866341
 70
     0
  0
APPID
  5
486
330
9
100
AcDbSymbolTableRecord
100
AcDbRegAppTableRecord
  2
ACAD_PSEXT
 70
     0
  0
APPID
  5
487
330
9
100
AcDbSymbolTableRecord
100
AcDbRegAppTableRecord
  2
GEVID1208866342
 70
     0
  0
APPID
  5
488
330
9
100
AcDbSymbolTableRecord
100
AcDbRegAppTableRecord
  2
GEVID1208913836
 70
     0
  0
APPID
  5
489
330
9
100
AcDbSymbolTableRecord
100
AcDbRegAppTableRecord
  2
GEVID1208913837
 70
     0
  0
APPID
  5
48A
330
9
100
AcDbSymbolTableRecord
100
AcDbRegAppTableRecord
  2
GEVID1208913838
 70
     0
  0
APPID
  5
48B
330
9
100
AcDbSymbolTableRecord
100
AcDbRegAppTableRecord
  2
GEVID1208913839
 70
     0
  0
APPID
  5
48C
330
9
100
AcDbSymbolTableRecord
100
AcDbRegAppTableRecord
  2
GENIUS_GENDTOL_13
 70
     0
  0
APPID
  5
48D
330
9
100
AcDbSymbolTableRecord
100
AcDbRegAppTableRecord
  2
GEVID1208928889
 70
     0
  0
APPID
  5
48E
330
9
100
AcDbSymbolTableRecord
100
AcDbRegAppTableRecord
  2
GEVID1208928890
 70
     0
  0
APPID
  5
48F
330
9
100
AcDbSymbolTableRecord
100
AcDbRegAppTableRecord
  2
GEVID1208928891
 70
     0
  0
APPID
  5
490
330
9
100
AcDbSymbolTableRecord
100
AcDbRegAppTableRecord
  2
GEVID1208928892
 70
     0
  0
APPID
  5
491
330
9
100
AcDbSymbolTableRecord
100
AcDbRegAppTableRecord
  2
GEVID1208933827
 70
     0
  0
APPID
  5
492
330
9
100
AcDbSymbolTableRecord
100
AcDbRegAppTableRecord
  2
GEVID1208933829
 70
     0
  0
APPID
  5
493
330
9
100
AcDbSymbolTableRecord
100
AcDbRegAppTableRecord
  2
GEVID1208933830
 70
     0
  0
APPID
  5
494
330
9
100
AcDbSymbolTableRecord
100
AcDbRegAppTableRecord
  2
GEVID1208933831
 70
     0
  0
APPID
  5
495
330
9
100
AcDbSymbolTableRecord
100
AcDbRegAppTableRecord
  2
GEVID1208933832
 70
     0
  0
APPID
  5
496
330
9
100
AcDbSymbolTableRecord
100
AcDbRegAppTableRecord
  2
GEVID1208933833
 70
     0
  0
APPID
  5
497
330
9
100
AcDbSymbolTableRecord
100
AcDbRegAppTableRecord
  2
GEVID1208933834
 70
     0
  0
APPID
  5
498
330
9
100
AcDbSymbolTableRecord
100
AcDbRegAppTableRecord
  2
GEVID1208933835
 70
     0
  0
APPID
  5
499
330
9
100
AcDbSymbolTableRecord
100
AcDbRegAppTableRecord
  2
GEVID1208933836
 70
     0
  0
APPID
  5
49A
330
9
100
AcDbSymbolTableRecord
100
AcDbRegAppTableRecord
  2
GEVID1208933837
 70
     0
  0
APPID
  5
49B
330
9
100
AcDbSymbolTableRecord
100
AcDbRegAppTableRecord
  2
GEVID1208933838
 70
     0
  0
APPID
  5
49C
330
9
100
AcDbSymbolTableRecord
100
AcDbRegAppTableRecord
  2
GEVID1208933840
 70
     0
  0
APPID
  5
49D
330
9
100
AcDbSymbolTableRecord
100
AcDbRegAppTableRecord
  2
GEVID1208933842
 70
     0
  0
APPID
  5
49E
330
9
100
AcDbSymbolTableRecord
100
AcDbRegAppTableRecord
  2
GEVID1208933843
 70
     0
  0
APPID
  5
49F
330
9
100
AcDbSymbolTableRecord
100
AcDbRegAppTableRecord
  2
GEVID1208933844
 70
     0
  0
APPID
  5
4A0
330
9
100
AcDbSymbolTableRecord
100
AcDbRegAppTableRecord
  2
GEVID1208933845
 70
     0
  0
APPID
  5
4A1
330
9
100
AcDbSymbolTableRecord
100
AcDbRegAppTableRecord
  2
GEVID1208933846
 70
     0
  0
APPID
  5
4A2
330
9
100
AcDbSymbolTableRecord
100
AcDbRegAppTableRecord
  2
GEVID1208933847
 70
     0
  0
APPID
  5
4A3
330
9
100
AcDbSymbolTableRecord
100
AcDbRegAppTableRecord
  2
GEVID1208933848
 70
     0
  0
APPID
  5
4A4
330
9
100
AcDbSymbolTableRecord
100
AcDbRegAppTableRecord
  2
GEVID1208933849
 70
     0
  0
APPID
  5
4A5
330
9
100
AcDbSymbolTableRecord
100
AcDbRegAppTableRecord
  2
GEVID1208933850
 70
     0
  0
APPID
  5
4A6
330
9
100
AcDbSymbolTableRecord
100
AcDbRegAppTableRecord
  2
GEVID1208933851
 70
     0
  0
APPID
  5
4A7
330
9
100
AcDbSymbolTableRecord
100
AcDbRegAppTableRecord
  2
GEVID1208933852
 70
     0
  0
APPID
  5
4A8
330
9
100
AcDbSymbolTableRecord
100
AcDbRegAppTableRecord
  2
GEVID1208933853
 70
     0
  0
APPID
  5
4A9
330
9
100
AcDbSymbolTableRecord
100
AcDbRegAppTableRecord
  2
GEVID1208933854
 70
     0
  0
APPID
  5
4AA
330
9
100
AcDbSymbolTableRecord
100
AcDbRegAppTableRecord
  2
GEVID1208933855
 70
     0
  0
APPID
  5
4AB
330
9
100
AcDbSymbolTableRecord
100
AcDbRegAppTableRecord
  2
GEVID1208933856
 70
     0
  0
APPID
  5
4AC
330
9
100
AcDbSymbolTableRecord
100
AcDbRegAppTableRecord
  2
GEVID1208933857
 70
     0
  0
APPID
  5
4AD
330
9
100
AcDbSymbolTableRecord
100
AcDbRegAppTableRecord
  2
GEVID1208933858
 70
     0
  0
APPID
  5
4AE
330
9
100
AcDbSymbolTableRecord
100
AcDbRegAppTableRecord
  2
GEVID1208933859
 70
     0
  0
APPID
  5
4AF
330
9
100
AcDbSymbolTableRecord
100
AcDbRegAppTableRecord
  2
GEVID1208933860
 70
     0
  0
APPID
  5
4B0
330
9
100
AcDbSymbolTableRecord
100
AcDbRegAppTableRecord
  2
GEVID1208933861
 70
     0
  0
APPID
  5
4B1
330
9
100
AcDbSymbolTableRecord
100
AcDbRegAppTableRecord
  2
GEVID1208933862
 70
     0
  0
APPID
  5
4B2
330
9
100
AcDbSymbolTableRecord
100
AcDbRegAppTableRecord
  2
GEVID1208933863
 70
     0
  0
APPID
  5
4B3
330
9
100
AcDbSymbolTableRecord
100
AcDbRegAppTableRecord
  2
GEVID1208933864
 70
     0
  0
APPID
  5
4B4
330
9
100
AcDbSymbolTableRecord
100
AcDbRegAppTableRecord
  2
GEVID1208933865
 70
     0
  0
APPID
  5
4B5
330
9
100
AcDbSymbolTableRecord
100
AcDbRegAppTableRecord
  2
GEVID1208933866
 70
     0
  0
APPID
  5
4B6
330
9
100
AcDbSymbolTableRecord
100
AcDbRegAppTableRecord
  2
GEVID1208933867
 70
     0
  0
APPID
  5
4B7
330
9
100
AcDbSymbolTableRecord
100
AcDbRegAppTableRecord
  2
GEVID1208933868
 70
     0
  0
APPID
  5
4B8
330
9
100
AcDbSymbolTableRecord
100
AcDbRegAppTableRecord
  2
GEVID1208933869
 70
     0
  0
APPID
  5
4B9
330
9
100
AcDbSymbolTableRecord
100
AcDbRegAppTableRecord
  2
GEVID1208933870
 70
     0
  0
APPID
  5
4BA
330
9
100
AcDbSymbolTableRecord
100
AcDbRegAppTableRecord
  2
GEVID1208933871
 70
     0
  0
APPID
  5
4BB
330
9
100
AcDbSymbolTableRecord
100
AcDbRegAppTableRecord
  2
GEVID1208933872
 70
     0
  0
APPID
  5
4BC
330
9
100
AcDbSymbolTableRecord
100
AcDbRegAppTableRecord
  2
GEVID1208933873
 70
     0
  0
APPID
  5
4BD
330
9
100
AcDbSymbolTableRecord
100
AcDbRegAppTableRecord
  2
GEVID1208933874
 70
     0
  0
APPID
  5
4BE
330
9
100
AcDbSymbolTableRecord
100
AcDbRegAppTableRecord
  2
GEVID1208933875
 70
     0
  0
APPID
  5
4BF
330
9
100
AcDbSymbolTableRecord
100
AcDbRegAppTableRecord
  2
GEVID1208933876
 70
     0
  0
APPID
  5
4C0
330
9
100
AcDbSymbolTableRecord
100
AcDbRegAppTableRecord
  2
ACAD_DSTYLE_DIMRADIAL_EXTENSION
 70
     0
  0
APPID
  5
4C1
330
9
100
AcDbSymbolTableRecord
100
AcDbRegAppTableRecord
  2
GEVID1208999100
 70
     0
  0
APPID
  5
4C2
330
9
100
AcDbSymbolTableRecord
100
AcDbRegAppTableRecord
  2
GEVID1208999101
 70
     0
  0
APPID
  5
4C3
330
9
100
AcDbSymbolTableRecord
100
AcDbRegAppTableRecord
  2
GEVID1208999102
 70
     0
  0
APPID
  5
4C4
330
9
100
AcDbSymbolTableRecord
100
AcDbRegAppTableRecord
  2
GEVID1208999103
 70
     0
  0
APPID
  5
4C5
330
9
100
AcDbSymbolTableRecord
100
AcDbRegAppTableRecord
  2
GEVID1208999105
 70
     0
  0
APPID
  5
4C6
330
9
100
AcDbSymbolTableRecord
100
AcDbRegAppTableRecord
  2
GEVID1208999106
 70
     0
  0
APPID
  5
4C7
330
9
100
AcDbSymbolTableRecord
100
AcDbRegAppTableRecord
  2
GEVID1208999108
 70
     0
  0
APPID
  5
4C8
330
9
100
AcDbSymbolTableRecord
100
AcDbRegAppTableRecord
  2
GEVID1208999109
 70
     0
  0
APPID
  5
4C9
330
9
100
AcDbSymbolTableRecord
100
AcDbRegAppTableRecord
  2
GEVID1208999110
 70
     0
  0
APPID
  5
4CA
330
9
100
AcDbSymbolTableRecord
100
AcDbRegAppTableRecord
  2
GEVID1208999111
 70
     0
  0
APPID
  5
4CB
330
9
100
AcDbSymbolTableRecord
100
AcDbRegAppTableRecord
  2
GEVID1208999112
 70
     0
  0
APPID
  5
4CC
330
9
100
AcDbSymbolTableRecord
100
AcDbRegAppTableRecord
  2
GEVID1208999113
 70
     0
  0
APPID
  5
4CD
330
9
100
AcDbSymbolTableRecord
100
AcDbRegAppTableRecord
  2
GEVID1208999114
 70
     0
  0
APPID
  5
4CE
330
9
100
AcDbSymbolTableRecord
100
AcDbRegAppTableRecord
  2
GEVID1210218799
 70
     0
  0
APPID
  5
4CF
330
9
100
AcDbSymbolTableRecord
100
AcDbRegAppTableRecord
  2
GEVID1210218800
 70
     0
  0
APPID
  5
4D0
330
9
100
AcDbSymbolTableRecord
100
AcDbRegAppTableRecord
  2
GENIUS_GEFWELD_13
 70
     0
  0
APPID
  5
4D1
330
9
100
AcDbSymbolTableRecord
100
AcDbRegAppTableRecord
  2
GENIUS_GENOBJ-F-WELS_13
 70
     0
  0
APPID
  5
4D2
330
9
100
AcDbSymbolTableRecord
100
AcDbRegAppTableRecord
  2
AcadAnnotative
 70
     0
  0
APPID
  5
4D3
330
9
100
AcDbSymbolTableRecord
100
AcDbRegAppTableRecord
  2
GEVID1210145339
 70
     0
  0
APPID
  5
4D4
330
9
100
AcDbSymbolTableRecord
100
AcDbRegAppTableRecord
  2
ACAD_DSTYLE_DIMBREAK
 70
     0
  0
APPID
  5
4D5
330
9
100
AcDbSymbolTableRecord
100
AcDbRegAppTableRecord
  2
GEVID1210145340
 70
     0
  0
APPID
  5
4D6
330
9
100
AcDbSymbolTableRecord
100
AcDbRegAppTableRecord
  2
GEVID1210145341
 70
     0
  0
APPID
  5
4D7
330
9
100
AcDbSymbolTableRecord
100
AcDbRegAppTableRecord
  2
GEVID1210145342
 70
     0
  0
APPID
  5
4D8
330
9
100
AcDbSymbolTableRecord
100
AcDbRegAppTableRecord
  2
GEVID1210145343
 70
     0
  0
APPID
  5
4D9
330
9
100
AcDbSymbolTableRecord
100
AcDbRegAppTableRecord
  2
GEVID1210145344
 70
     0
  0
APPID
  5
4DA
330
9
100
AcDbSymbolTableRecord
100
AcDbRegAppTableRecord
  2
GEVID1210145345
 70
     0
  0
APPID
  5
4DB
330
9
100
AcDbSymbolTableRecord
100
AcDbRegAppTableRecord
  2
GEVID1210152816
 70
     0
  0
APPID
  5
4DC
330
9
100
AcDbSymbolTableRecord
100
AcDbRegAppTableRecord
  2
GEVID1210153850
 70
     0
  0
APPID
  5
4DD
330
9
100
AcDbSymbolTableRecord
100
AcDbRegAppTableRecord
  2
GEVID1210153851
 70
     0
  0
APPID
  5
4DE
330
9
100
AcDbSymbolTableRecord
100
AcDbRegAppTableRecord
  2
GEVID1210153852
 70
     0
  0
APPID
  5
4DF
330
9
100
AcDbSymbolTableRecord
100
AcDbRegAppTableRecord
  2
GEVID1210549898
 70
     0
  0
APPID
  5
4E0
330
9
100
AcDbSymbolTableRecord
100
AcDbRegAppTableRecord
  2
GEVID1210549899
 70
     0
  0
APPID
  5
4E1
330
9
100
AcDbSymbolTableRecord
100
AcDbRegAppTableRecord
  2
GEVID1210549900
 70
     0
  0
APPID
  5
4E2
330
9
100
AcDbSymbolTableRecord
100
AcDbRegAppTableRecord
  2
GEVID1210549901
 70
     0
  0
APPID
  5
4E3
330
9
100
AcDbSymbolTableRecord
100
AcDbRegAppTableRecord
  2
GEVID1210549902
 70
     0
  0
APPID
  5
4E4
330
9
100
AcDbSymbolTableRecord
100
AcDbRegAppTableRecord
  2
GEVID1210549903
 70
     0
  0
APPID
  5
4E5
330
9
100
AcDbSymbolTableRecord
100
AcDbRegAppTableRecord
  2
GEVID1210549904
 70
     0
  0
APPID
  5
4E6
330
9
100
AcDbSymbolTableRecord
100
AcDbRegAppTableRecord
  2
GEVID1210549905
 70
     0
  0
APPID
  5
4E7
330
9
100
AcDbSymbolTableRecord
100
AcDbRegAppTableRecord
  2
GEVID1210549906
 70
     0
  0
APPID
  5
4E8
330
9
100
AcDbSymbolTableRecord
100
AcDbRegAppTableRecord
  2
GEVID1210549907
 70
     0
  0
APPID
  5
4E9
330
9
100
AcDbSymbolTableRecord
100
AcDbRegAppTableRecord
  2
GEVID1210549908
 70
     0
  0
APPID
  5
4EA
330
9
100
AcDbSymbolTableRecord
100
AcDbRegAppTableRecord
  2
GEVID1210549909
 70
     0
  0
APPID
  5
4EB
330
9
100
AcDbSymbolTableRecord
100
AcDbRegAppTableRecord
  2
GEVID1210549910
 70
     0
  0
APPID
  5
4EC
330
9
100
AcDbSymbolTableRecord
100
AcDbRegAppTableRecord
  2
GEVID1210549911
 70
     0
  0
APPID
  5
4ED
330
9
100
AcDbSymbolTableRecord
100
AcDbRegAppTableRecord
  2
GEVID1210549912
 70
     0
  0
APPID
  5
4EE
330
9
100
AcDbSymbolTableRecord
100
AcDbRegAppTableRecord
  2
GEVID1210549913
 70
     0
  0
APPID
  5
4EF
330
9
100
AcDbSymbolTableRecord
100
AcDbRegAppTableRecord
  2
GEVID1210549914
 70
     0
  0
APPID
  5
4F0
330
9
100
AcDbSymbolTableRecord
100
AcDbRegAppTableRecord
  2
GEVID1210549915
 70
     0
  0
APPID
  5
4F1
330
9
100
AcDbSymbolTableRecord
100
AcDbRegAppTableRecord
  2
GEVID1210549916
 70
     0
  0
APPID
  5
4F2
330
9
100
AcDbSymbolTableRecord
100
AcDbRegAppTableRecord
  2
GEVID1210549917
 70
     0
  0
APPID
  5
4F3
330
9
100
AcDbSymbolTableRecord
100
AcDbRegAppTableRecord
  2
GENIUS_GENOBJ-N-CRS_13
 70
     0
  0
APPID
  5
4F4
330
9
100
AcDbSymbolTableRecord
100
AcDbRegAppTableRecord
  2
GEVID1210549918
 70
     0
  0
APPID
  5
4F5
330
9
100
AcDbSymbolTableRecord
100
AcDbRegAppTableRecord
  2
GENIUS_GENOBJ-N-CRC_13
 70
     0
  0
APPID
  5
4F6
330
9
100
AcDbSymbolTableRecord
100
AcDbRegAppTableRecord
  2
GENIUS_GENCRC_14
 70
     0
  0
APPID
  5
4F7
330
9
100
AcDbSymbolTableRecord
100
AcDbRegAppTableRecord
  2
GEVID1210549919
 70
     0
  0
APPID
  5
4F8
330
9
100
AcDbSymbolTableRecord
100
AcDbRegAppTableRecord
  2
GEVID1210549921
 70
     0
  0
APPID
  5
4F9
330
9
100
AcDbSymbolTableRecord
100
AcDbRegAppTableRecord
  2
GEVID1210549922
 70
     0
  0
APPID
  5
4FA
330
9
100
AcDbSymbolTableRecord
100
AcDbRegAppTableRecord
  2
GEVID1210635173
 70
     0
  0
APPID
  5
4FB
330
9
100
AcDbSymbolTableRecord
100
AcDbRegAppTableRecord
  2
GEVID1210635174
 70
     0
  0
APPID
  5
4FC
330
9
100
AcDbSymbolTableRecord
100
AcDbRegAppTableRecord
  2
GEVID1210635175
 70
     0
  0
APPID
  5
4FD
330
9
100
AcDbSymbolTableRecord
100
AcDbRegAppTableRecord
  2
GEVID1210635176
 70
     0
  0
APPID
  5
4FE
330
9
100
AcDbSymbolTableRecord
100
AcDbRegAppTableRecord
  2
GEVID1210635177
 70
     0
  0
APPID
  5
4FF
330
9
100
AcDbSymbolTableRecord
100
AcDbRegAppTableRecord
  2
GEVID1210635178
 70
     0
  0
APPID
  5
500
330
9
100
AcDbSymbolTableRecord
100
AcDbRegAppTableRecord
  2
GENIUS_GENIUS_GENBHEDTMP_13
 70
     0
  0
APPID
  5
501
330
9
100
AcDbSymbolTableRecord
100
AcDbRegAppTableRecord
  2
GEVID1210635179
 70
     0
  0
APPID
  5
502
330
9
100
AcDbSymbolTableRecord
100
AcDbRegAppTableRecord
  2
GEVID1210635180
 70
     0
  0
APPID
  5
503
330
9
100
AcDbSymbolTableRecord
100
AcDbRegAppTableRecord
  2
GEVID1210635181
 70
     0
  0
APPID
  5
504
330
9
100
AcDbSymbolTableRecord
100
AcDbRegAppTableRecord
  2
GEVID1210635182
 70
     0
  0
APPID
  5
505
330
9
100
AcDbSymbolTableRecord
100
AcDbRegAppTableRecord
  2
GEVID1210635184
 70
     0
  0
APPID
  5
506
330
9
100
AcDbSymbolTableRecord
100
AcDbRegAppTableRecord
  2
GEVID1210635185
 70
     0
  0
APPID
  5
507
330
9
100
AcDbSymbolTableRecord
100
AcDbRegAppTableRecord
  2
GEVID1210635186
 70
     0
  0
APPID
  5
508
330
9
100
AcDbSymbolTableRecord
100
AcDbRegAppTableRecord
  2
GEVID1210635187
 70
     0
  0
APPID
  5
509
330
9
100
AcDbSymbolTableRecord
100
AcDbRegAppTableRecord
  2
GEVID1210635188
 70
     0
  0
APPID
  5
50A
330
9
100
AcDbSymbolTableRecord
100
AcDbRegAppTableRecord
  2
GEVID1210635189
 70
     0
  0
APPID
  5
50B
330
9
100
AcDbSymbolTableRecord
100
AcDbRegAppTableRecord
  2
GEVID1210635190
 70
     0
  0
APPID
  5
50C
330
9
100
AcDbSymbolTableRecord
100
AcDbRegAppTableRecord
  2
GENIUS_GENREC_14
 70
     0
  0
APPID
  5
50D
330
9
100
AcDbSymbolTableRecord
100
AcDbRegAppTableRecord
  2
GENIUS_GENOBJ-N-REC_13
 70
     0
  0
APPID
  5
50E
330
9
100
AcDbSymbolTableRecord
100
AcDbRegAppTableRecord
  2
GEVID1210676655
 70
     0
  0
APPID
  5
50F
330
9
100
AcDbSymbolTableRecord
100
AcDbRegAppTableRecord
  2
GEVID1210676656
 70
     0
  0
APPID
  5
510
330
9
100
AcDbSymbolTableRecord
100
AcDbRegAppTableRecord
  2
GEVID1210676657
 70
     0
  0
APPID
  5
511
330
9
100
AcDbSymbolTableRecord
100
AcDbRegAppTableRecord
  2
GEVID1210676659
 70
     0
  0
APPID
  5
512
330
9
100
AcDbSymbolTableRecord
100
AcDbRegAppTableRecord
  2
GEVID1210676660
 70
     0
  0
APPID
  5
513
330
9
100
AcDbSymbolTableRecord
100
AcDbRegAppTableRecord
  2
GEVID1210676661
 70
     0
  0
APPID
  5
514
330
9
100
AcDbSymbolTableRecord
100
AcDbRegAppTableRecord
  2
GEVID1210676662
 70
     0
  0
APPID
  5
515
330
9
100
AcDbSymbolTableRecord
100
AcDbRegAppTableRecord
  2
GEVID1210721646
 70
     0
  0
APPID
  5
516
330
9
100
AcDbSymbolTableRecord
100
AcDbRegAppTableRecord
  2
GEVID1210721647
 70
     0
  0
APPID
  5
517
330
9
100
AcDbSymbolTableRecord
100
AcDbRegAppTableRecord
  2
GEVID1210721648
 70
     0
  0
APPID
  5
518
330
9
100
AcDbSymbolTableRecord
100
AcDbRegAppTableRecord
  2
GEVID1210721649
 70
     0
  0
APPID
  5
519
330
9
100
AcDbSymbolTableRecord
100
AcDbRegAppTableRecord
  2
GEVID1210721650
 70
     0
  0
APPID
  5
51A
330
9
100
AcDbSymbolTableRecord
100
AcDbRegAppTableRecord
  2
GEVID1210721651
 70
     0
  0
APPID
  5
51B
330
9
100
AcDbSymbolTableRecord
100
AcDbRegAppTableRecord
  2
GEVID1210721652
 70
     0
  0
APPID
  5
51C
330
9
100
AcDbSymbolTableRecord
100
AcDbRegAppTableRecord
  2
GEVID1210721653
 70
     0
  0
APPID
  5
51D
330
9
100
AcDbSymbolTableRecord
100
AcDbRegAppTableRecord
  2
PE_URL
 70
     0
  0
APPID
  5
51E
330
9
100
AcDbSymbolTableRecord
100
AcDbRegAppTableRecord
  2
GEVID1210825555
 70
     0
  0
APPID
  5
51F
330
9
100
AcDbSymbolTableRecord
100
AcDbRegAppTableRecord
  2
GEVID1210825556
 70
     0
  0
APPID
  5
520
330
9
100
AcDbSymbolTableRecord
100
AcDbRegAppTableRecord
  2
GEVID1210825557
 70
     0
  0
APPID
  5
521
330
9
100
AcDbSymbolTableRecord
100
AcDbRegAppTableRecord
  2
GEVID1210825558
 70
     0
  0
APPID
  5
522
330
9
100
AcDbSymbolTableRecord
100
AcDbRegAppTableRecord
  2
GEVID1210825559
 70
     0
  0
APPID
  5
523
330
9
100
AcDbSymbolTableRecord
100
AcDbRegAppTableRecord
  2
GEVID1210825560
 70
     0
  0
APPID
  5
524
330
9
100
AcDbSymbolTableRecord
100
AcDbRegAppTableRecord
  2
GEVID1210825561
 70
     0
  0
APPID
  5
525
330
9
100
AcDbSymbolTableRecord
100
AcDbRegAppTableRecord
  2
GEVID1210825562
 70
     0
  0
APPID
  5
526
330
9
100
AcDbSymbolTableRecord
100
AcDbRegAppTableRecord
  2
GEVID1210825563
 70
     0
  0
APPID
  5
527
330
9
100
AcDbSymbolTableRecord
100
AcDbRegAppTableRecord
  2
GEVID1210825564
 70
     0
  0
APPID
  5
528
330
9
100
AcDbSymbolTableRecord
100
AcDbRegAppTableRecord
  2
GEVID1210825565
 70
     0
  0
APPID
  5
529
330
9
100
AcDbSymbolTableRecord
100
AcDbRegAppTableRecord
  2
GEVID1210825566
 70
     0
  0
APPID
  5
52A
330
9
100
AcDbSymbolTableRecord
100
AcDbRegAppTableRecord
  2
GEVID1210825567
 70
     0
  0
APPID
  5
52B
330
9
100
AcDbSymbolTableRecord
100
AcDbRegAppTableRecord
  2
GENIUS_GENOBJ-N-ZOO_13
 70
     0
  0
APPID
  5
52C
330
9
100
AcDbSymbolTableRecord
100
AcDbRegAppTableRecord
  2
GENIUS_GENZOO_17
 70
     0
  0
APPID
  5
52D
330
9
100
AcDbSymbolTableRecord
100
AcDbRegAppTableRecord
  2
ACADANNOTATIVEDECOMPOSITION
 70
     0
  0
APPID
  5
52E
330
9
100
AcDbSymbolTableRecord
100
AcDbRegAppTableRecord
  2
GENIUS_GENOBJ-N-HTC_13
 70
     0
  0
APPID
  5
52F
330
9
100
AcDbSymbolTableRecord
100
AcDbRegAppTableRecord
  2
GENIUS_GENHATCH_13
 70
     0
  0
APPID
  5
530
330
9
100
AcDbSymbolTableRecord
100
AcDbRegAppTableRecord
  2
GEVID1210896020
 70
     0
  0
APPID
  5
531
330
9
100
AcDbSymbolTableRecord
100
AcDbRegAppTableRecord
  2
GEVID1210896021
 70
     0
  0
APPID
  5
532
330
9
100
AcDbSymbolTableRecord
100
AcDbRegAppTableRecord
  2
GEVID1209083540
 70
     0
  0
APPID
  5
533
330
9
100
AcDbSymbolTableRecord
100
AcDbRegAppTableRecord
  2
GEVMK
 70
     0
  0
APPID
  5
534
330
9
100
AcDbSymbolTableRecord
100
AcDbRegAppTableRecord
  2
GEVID1209083542
 70
     0
  0
APPID
  5
535
330
9
100
AcDbSymbolTableRecord
100
AcDbRegAppTableRecord
  2
GEVID1209083543
 70
     0
  0
APPID
  5
536
330
9
100
AcDbSymbolTableRecord
100
AcDbRegAppTableRecord
  2
GEVID1209083544
 70
     0
  0
APPID
  5
537
330
9
100
AcDbSymbolTableRecord
100
AcDbRegAppTableRecord
  2
GEVID1209083545
 70
     0
  0
APPID
  5
538
330
9
100
AcDbSymbolTableRecord
100
AcDbRegAppTableRecord
  2
GEVID1209083546
 70
     0
  0
APPID
  5
539
330
9
100
AcDbSymbolTableRecord
100
AcDbRegAppTableRecord
  2
GEVID1209083547
 70
     0
  0
APPID
  5
53A
330
9
100
AcDbSymbolTableRecord
100
AcDbRegAppTableRecord
  2
GEVID1209083548
 70
     0
  0
APPID
  5
53B
330
9
100
AcDbSymbolTableRecord
100
AcDbRegAppTableRecord
  2
GEVID1209083549
 70
     0
  0
APPID
  5
53C
330
9
100
AcDbSymbolTableRecord
100
AcDbRegAppTableRecord
  2
GEVID1209083550
 70
     0
  0
APPID
  5
53D
330
9
100
AcDbSymbolTableRecord
100
AcDbRegAppTableRecord
  2
GEVID1209083551
 70
     0
  0
APPID
  5
53E
330
9
100
AcDbSymbolTableRecord
100
AcDbRegAppTableRecord
  2
GEVID1209083552
 70
     0
  0
APPID
  5
53F
330
9
100
AcDbSymbolTableRecord
100
AcDbRegAppTableRecord
  2
GEVID1209083553
 70
     0
  0
APPID
  5
540
330
9
100
AcDbSymbolTableRecord
100
AcDbRegAppTableRecord
  2
GEVID1210896022
 70
     0
  0
APPID
  5
541
330
9
100
AcDbSymbolTableRecord
100
AcDbRegAppTableRecord
  2
GEVID1211508364
 70
     0
  0
APPID
  5
542
330
9
100
AcDbSymbolTableRecord
100
AcDbRegAppTableRecord
  2
GEVID1211414908
 70
     0
  0
APPID
  5
543
330
9
100
AcDbSymbolTableRecord
100
AcDbRegAppTableRecord
  2
GEVID1211414909
 70
     0
  0
APPID
  5
544
330
9
100
AcDbSymbolTableRecord
100
AcDbRegAppTableRecord
  2
GEVID1211508359
 70
     0
  0
APPID
  5
545
330
9
100
AcDbSymbolTableRecord
100
AcDbRegAppTableRecord
  2
GEVID1211508360
 70
     0
  0
APPID
  5
546
330
9
100
AcDbSymbolTableRecord
100
AcDbRegAppTableRecord
  2
GEVID1211508361
 70
     0
  0
APPID
  5
547
330
9
100
AcDbSymbolTableRecord
100
AcDbRegAppTableRecord
  2
GEVID1211508362
 70
     0
  0
APPID
  5
548
330
9
100
AcDbSymbolTableRecord
100
AcDbRegAppTableRecord
  2
GEVID1211508363
 70
     0
  0
APPID
  5
549
330
9
100
AcDbSymbolTableRecord
100
AcDbRegAppTableRecord
  2
GEVID1211878469
 70
     0
  0
APPID
  5
54A
330
9
100
AcDbSymbolTableRecord
100
AcDbRegAppTableRecord
  2
GEVID1212642819
 70
     0
  0
APPID
  5
54B
330
9
100
AcDbSymbolTableRecord
100
AcDbRegAppTableRecord
  2
GEVID1212642820
 70
     0
  0
APPID
  5
54C
330
9
100
AcDbSymbolTableRecord
100
AcDbRegAppTableRecord
  2
GEVID1212642821
 70
     0
  0
APPID
  5
54D
330
9
100
AcDbSymbolTableRecord
100
AcDbRegAppTableRecord
  2
GEVID1212642822
 70
     0
  0
APPID
  5
54E
330
9
100
AcDbSymbolTableRecord
100
AcDbRegAppTableRecord
  2
GEVID1212642823
 70
     0
  0
APPID
  5
54F
330
9
100
AcDbSymbolTableRecord
100
AcDbRegAppTableRecord
  2
GEVID1212642825
 70
     0
  0
APPID
  5
550
330
9
100
AcDbSymbolTableRecord
100
AcDbRegAppTableRecord
  2
GEVID1212642826
 70
     0
  0
APPID
  5
551
330
9
100
AcDbSymbolTableRecord
100
AcDbRegAppTableRecord
  2
GEVID1212642827
 70
     0
  0
APPID
  5
552
330
9
100
AcDbSymbolTableRecord
100
AcDbRegAppTableRecord
  2
GEVID1212642828
 70
     0
  0
APPID
  5
553
330
9
100
AcDbSymbolTableRecord
100
AcDbRegAppTableRecord
  2
GEVID1212642831
 70
     0
  0
APPID
  5
554
330
9
100
AcDbSymbolTableRecord
100
AcDbRegAppTableRecord
  2
GEVID1212642834
 70
     0
  0
APPID
  5
555
330
9
100
AcDbSymbolTableRecord
100
AcDbRegAppTableRecord
  2
GEVID1212642835
 70
     0
  0
APPID
  5
556
330
9
100
AcDbSymbolTableRecord
100
AcDbRegAppTableRecord
  2
GEVID1212642836
 70
     0
  0
APPID
  5
557
330
9
100
AcDbSymbolTableRecord
100
AcDbRegAppTableRecord
  2
GEVID1212642837
 70
     0
  0
APPID
  5
558
330
9
100
AcDbSymbolTableRecord
100
AcDbRegAppTableRecord
  2
GEVID1212642839
 70
     0
  0
APPID
  5
559
330
9
100
AcDbSymbolTableRecord
100
AcDbRegAppTableRecord
  2
GEVID1212642840
 70
     0
  0
APPID
  5
55A
330
9
100
AcDbSymbolTableRecord
100
AcDbRegAppTableRecord
  2
GEVID1212642841
 70
     0
  0
APPID
  5
55B
330
9
100
AcDbSymbolTableRecord
100
AcDbRegAppTableRecord
  2
GEVID1212655312
 70
     0
  0
APPID
  5
55C
330
9
100
AcDbSymbolTableRecord
100
AcDbRegAppTableRecord
  2
GEVID1212655313
 70
     0
  0
APPID
  5
55D
330
9
100
AcDbSymbolTableRecord
100
AcDbRegAppTableRecord
  2
GEVID1212656533
 70
     0
  0
APPID
  5
55E
330
9
100
AcDbSymbolTableRecord
100
AcDbRegAppTableRecord
  2
GEVID1212656534
 70
     0
  0
APPID
  5
55F
330
9
100
AcDbSymbolTableRecord
100
AcDbRegAppTableRecord
  2
GEVID1212656535
 70
     0
  0
APPID
  5
560
330
9
100
AcDbSymbolTableRecord
100
AcDbRegAppTableRecord
  2
GEVID1212656536
 70
     0
  0
APPID
  5
561
330
9
100
AcDbSymbolTableRecord
100
AcDbRegAppTableRecord
  2
GEVID1212656538
 70
     0
  0
APPID
  5
562
330
9
100
AcDbSymbolTableRecord
100
AcDbRegAppTableRecord
  2
GEVID1212656541
 70
     0
  0
APPID
  5
563
330
9
100
AcDbSymbolTableRecord
100
AcDbRegAppTableRecord
  2
GEVID1212656543
 70
     0
  0
APPID
  5
564
330
9
100
AcDbSymbolTableRecord
100
AcDbRegAppTableRecord
  2
GENIUS_GENOBJ-F-PFASSM_13
 70
     0
  0
APPID
  5
565
330
9
100
AcDbSymbolTableRecord
100
AcDbRegAppTableRecord
  2
GEVID1212656544
 70
     0
  0
APPID
  5
566
330
9
100
AcDbSymbolTableRecord
100
AcDbRegAppTableRecord
  2
GEVID1212656545
 70
     0
  0
APPID
  5
567
330
9
100
AcDbSymbolTableRecord
100
AcDbRegAppTableRecord
  2
GEVID1212656546
 70
     0
  0
APPID
  5
568
330
9
100
AcDbSymbolTableRecord
100
AcDbRegAppTableRecord
  2
GEVID1212656547
 70
     0
  0
APPID
  5
569
330
9
100
AcDbSymbolTableRecord
100
AcDbRegAppTableRecord
  2
GEVID1212656548
 70
     0
  0
APPID
  5
56A
330
9
100
AcDbSymbolTableRecord
100
AcDbRegAppTableRecord
  2
GEVID1212656549
 70
     0
  0
APPID
  5
56B
330
9
100
AcDbSymbolTableRecord
100
AcDbRegAppTableRecord
  2
GEVID1212656550
 70
     0
  0
APPID
  5
56C
330
9
100
AcDbSymbolTableRecord
100
AcDbRegAppTableRecord
  2
GEVID1212656552
 70
     0
  0
APPID
  5
56D
330
9
100
AcDbSymbolTableRecord
100
AcDbRegAppTableRecord
  2
GEVID1212656553
 70
     0
  0
APPID
  5
56E
330
9
100
AcDbSymbolTableRecord
100
AcDbRegAppTableRecord
  2
GEVID1212656554
 70
     0
  0
APPID
  5
56F
330
9
100
AcDbSymbolTableRecord
100
AcDbRegAppTableRecord
  2
GEVID1212656555
 70
     0
  0
APPID
  5
570
330
9
100
AcDbSymbolTableRecord
100
AcDbRegAppTableRecord
  2
GEVID1212656556
 70
     0
  0
APPID
  5
571
330
9
100
AcDbSymbolTableRecord
100
AcDbRegAppTableRecord
  2
GEVID1212656557
 70
     0
  0
APPID
  5
572
330
9
100
AcDbSymbolTableRecord
100
AcDbRegAppTableRecord
  2
GEVID1212656559
 70
     0
  0
APPID
  5
573
330
9
100
AcDbSymbolTableRecord
100
AcDbRegAppTableRecord
  2
GEVID1212656560
 70
     0
  0
APPID
  5
574
330
9
100
AcDbSymbolTableRecord
100
AcDbRegAppTableRecord
  2
GEVID1212656561
 70
     0
  0
APPID
  5
575
330
9
100
AcDbSymbolTableRecord
100
AcDbRegAppTableRecord
  2
GEVID1212656562
 70
     0
  0
APPID
  5
576
330
9
100
AcDbSymbolTableRecord
100
AcDbRegAppTableRecord
  2
GEVID1212656563
 70
     0
  0
APPID
  5
577
330
9
100
AcDbSymbolTableRecord
100
AcDbRegAppTableRecord
  2
GEVID1212711781
 70
     0
  0
APPID
  5
578
330
9
100
AcDbSymbolTableRecord
100
AcDbRegAppTableRecord
  2
GEVID1212711782
 70
     0
  0
APPID
  5
579
330
9
100
AcDbSymbolTableRecord
100
AcDbRegAppTableRecord
  2
GEVID1212711783
 70
     0
  0
APPID
  5
57A
330
9
100
AcDbSymbolTableRecord
100
AcDbRegAppTableRecord
  2
GEVID1212711784
 70
     0
  0
APPID
  5
57B
330
9
100
AcDbSymbolTableRecord
100
AcDbRegAppTableRecord
  2
GEVID1212711788
 70
     0
  0
APPID
  5
57C
330
9
100
AcDbSymbolTableRecord
100
AcDbRegAppTableRecord
  2
GEVID1212711789
 70
     0
  0
APPID
  5
57D
330
9
100
AcDbSymbolTableRecord
100
AcDbRegAppTableRecord
  2
GEVID1212711790
 70
     0
  0
APPID
  5
57E
330
9
100
AcDbSymbolTableRecord
100
AcDbRegAppTableRecord
  2
GEVID1212711791
 70
     0
  0
APPID
  5
57F
330
9
100
AcDbSymbolTableRecord
100
AcDbRegAppTableRecord
  2
GEVID1212711792
 70
     0
  0
APPID
  5
580
330
9
100
AcDbSymbolTableRecord
100
AcDbRegAppTableRecord
  2
GEVID1212711793
 70
     0
  0
APPID
  5
581
330
9
100
AcDbSymbolTableRecord
100
AcDbRegAppTableRecord
  2
GEVID1212711794
 70
     0
  0
APPID
  5
582
330
9
100
AcDbSymbolTableRecord
100
AcDbRegAppTableRecord
  2
GEVID1212711795
 70
     0
  0
APPID
  5
583
330
9
100
AcDbSymbolTableRecord
100
AcDbRegAppTableRecord
  2
GEVID1212711797
 70
     0
  0
APPID
  5
584
330
9
100
AcDbSymbolTableRecord
100
AcDbRegAppTableRecord
  2
GEVID1212711798
 70
     0
  0
APPID
  5
585
330
9
100
AcDbSymbolTableRecord
100
AcDbRegAppTableRecord
  2
GEVID1212711799
 70
     0
  0
APPID
  5
586
330
9
100
AcDbSymbolTableRecord
100
AcDbRegAppTableRecord
  2
GEVID1212711800
 70
     0
  0
APPID
  5
587
330
9
100
AcDbSymbolTableRecord
100
AcDbRegAppTableRecord
  2
GEVID1212711801
 70
     0
  0
APPID
  5
588
330
9
100
AcDbSymbolTableRecord
100
AcDbRegAppTableRecord
  2
GEVID1212711802
 70
     0
  0
APPID
  5
589
330
9
100
AcDbSymbolTableRecord
100
AcDbRegAppTableRecord
  2
GEVID1212711803
 70
     0
  0
APPID
  5
58A
330
9
100
AcDbSymbolTableRecord
100
AcDbRegAppTableRecord
  2
GEVID1212711804
 70
     0
  0
APPID
  5
58B
330
9
100
AcDbSymbolTableRecord
100
AcDbRegAppTableRecord
  2
GEVID1212711805
 70
     0
  0
APPID
  5
58C
330
9
100
AcDbSymbolTableRecord
100
AcDbRegAppTableRecord
  2
GEVID1212711806
 70
     0
  0
APPID
  5
58D
330
9
100
AcDbSymbolTableRecord
100
AcDbRegAppTableRecord
  2
GEVID1212711807
 70
     0
  0
APPID
  5
58E
330
9
100
AcDbSymbolTableRecord
100
AcDbRegAppTableRecord
  2
GEVID1212711808
 70
     0
  0
APPID
  5
58F
330
9
100
AcDbSymbolTableRecord
100
AcDbRegAppTableRecord
  2
GEVID1212711809
 70
     0
  0
APPID
  5
590
330
9
100
AcDbSymbolTableRecord
100
AcDbRegAppTableRecord
  2
GEVID1212711810
 70
     0
  0
APPID
  5
591
330
9
100
AcDbSymbolTableRecord
100
AcDbRegAppTableRecord
  2
GEVID1212711811
 70
     0
  0
APPID
  5
90A
330
9
100
AcDbSymbolTableRecord
100
AcDbRegAppTableRecord
  2
GENIUS_GENTRA_14
 70
     0
  0
APPID
  5
919
330
9
100
AcDbSymbolTableRecord
100
AcDbRegAppTableRecord
  2
GENIUS_GENOBJ-N-TIT_13
 70
     0
  0
APPID
  5
91A
330
9
100
AcDbSymbolTableRecord
100
AcDbRegAppTableRecord
  2
GENIUS_GENTITLE_13
 70
     0
  0
APPID
  5
949
330
9
100
AcDbSymbolTableRecord
100
AcDbRegAppTableRecord
  2
GENIUS_GENBLLY_14
 70
     0
  0
APPID
  5
DDD
330
9
100
AcDbSymbolTableRecord
100
AcDbRegAppTableRecord
  2
GEVID1213165152
 70
     0
  0
APPID
  5
12F9
330
9
100
AcDbSymbolTableRecord
100
AcDbRegAppTableRecord
  2
AcDbDynamicBlockTrueName
 70
     0
  0
APPID
  5
12FA
330
9
100
AcDbSymbolTableRecord
100
AcDbRegAppTableRecord
  2
ACDBBLOCKREPETAG
 70
     0
  0
APPID
  5
1C15
330
9
100
AcDbSymbolTableRecord
100
AcDbRegAppTableRecord
  2
GEVID1214872427
 70
     0
  0
APPID
  5
1C2A
330
9
100
AcDbSymbolTableRecord
100
AcDbRegAppTableRecord
  2
GEVID1214872428
 70
     0
  0
APPID
  5
1C2F
330
9
100
AcDbSymbolTableRecord
100
AcDbRegAppTableRecord
  2
GEVID1214872429
 70
     0
  0
APPID
  5
1C33
330
9
100
AcDbSymbolTableRecord
100
AcDbRegAppTableRecord
  2
GEVID1214872430
 70
     0
  0
APPID
  5
1C3F
330
9
100
AcDbSymbolTableRecord
100
AcDbRegAppTableRecord
  2
GEVID1214872432
 70
     0
  0
APPID
  5
1C4E
330
9
100
AcDbSymbolTableRecord
100
AcDbRegAppTableRecord
  2
GEVID1214872433
 70
     0
  0
APPID
  5
20DC
330
9
100
AcDbSymbolTableRecord
100
AcDbRegAppTableRecord
  2
AcDbDynamicBlockGUID
 70
     0
  0
APPID
  5
20FD
330
9
100
AcDbSymbolTableRecord
100
AcDbRegAppTableRecord
  2
GENIUS_GENOBJ-N-REV_13
 70
     0
  0
APPID
  5
20FE
330
9
100
AcDbSymbolTableRecord
100
AcDbRegAppTableRecord
  2
GENIUS_GENOBJ-N-RSSYM_13
 70
     0
  0
APPID
  5
20FF
330
9
100
AcDbSymbolTableRecord
100
AcDbRegAppTableRecord
  2
GENIUS_GENSYMENT_13
 70
     0
  0
APPID
  5
2100
330
9
100
AcDbSymbolTableRecord
100
AcDbRegAppTableRecord
  2
GENIUS_GENSCSYM_13
 70
     0
  0
APPID
  5
5852
330
9
100
AcDbSymbolTableRecord
100
AcDbRegAppTableRecord
  2
GEVID1242179530
 70
     0
  0
APPID
  5
5857
330
9
100
AcDbSymbolTableRecord
100
AcDbRegAppTableRecord
  2
GEVID1242179531
 70
     0
  0
APPID
  5
5A4F
330
9
100
AcDbSymbolTableRecord
100
AcDbRegAppTableRecord
  2
GEVID1242179532
 70
     0
  0
APPID
  5
5A53
330
9
100
AcDbSymbolTableRecord
100
AcDbRegAppTableRecord
  2
GEVID1242179533
 70
     0
  0
ENDTAB
  0
TABLE
  2
DIMSTYLE
  5
A
330
0
100
AcDbSymbolTable
 70
    29
100
AcDbDimStyleTable
 71
     1
340
5AB
  0
DIMSTYLE
105
5AB
330
A
100
AcDbSymbolTableRecord
100
AcDbDimStyleTableRecord
  2
SEISA
 70
     0
  4
"
 40
3.0
 41
2.5
 42
0.625
 43
10.0
 44
0.625
 47
0.1
 48
0.1
 73
     0
 74
     0
 77
     3
 78
     8
 79
     2
 90
     1
140
3.5
141
0.0
143
0.0393701
146
0.71
147
1.5
172
     1
176
     3
177
     3
178
     3
271
     2
272
     2
283
     0
286
     8
340
5D5
341
69
342
69
371
    -1
372
    -1
1001
ACAD_DSTYLE_DIMJAG
1070
   388
1040
1.5
1001
ACAD_DSTYLE_DIMTALN
1070
   392
1070
     1
  0
DIMSTYLE
105
5E9
102
{ACAD_REACTORS
330
5B14
330
5B4E
330
5C14
330
5C44
330
5D6E
330
5D8A
330
5DA6
330
5DC2
330
5DDE
330
5DF6
330
5E26
330
5E3E
330
612D
330
6145
330
615D
330
956D
330
97EA
330
9814
330
98CF
330
9901
102
}
330
A
100
AcDbSymbolTableRecord
100
AcDbDimStyleTableRecord
  2
SEISA$0
 70
     0
  4
"
 40
3.0
 41
2.5
 42
0.625
 43
10.0
 44
0.625
 47
0.1
 48
0.1
 73
     0
 74
     0
 77
     3
 78
     8
 79
     2
 90
     1
140
3.5
141
0.0
143
0.0393701
146
0.71
147
1.5
172
     1
176
     3
177
     3
178
     3
271
     2
272
     2
283
     0
286
     8
340
5D5
341
69
342
69
371
    -1
372
    -1
  0
DIMSTYLE
105
9B75
330
A
100
AcDbSymbolTableRecord
100
AcDbDimStyleTableRecord
  2
AM_ISO
 70
     0
  4
"
 41
2.5
 42
1.0
 43
10.0
 44
1.0
 47
0.1
 48
0.1
 73
     0
 74
     0
 77
     1
 78
     8
 79
     2
 90
     1
140
3.5
141
0.0
143
0.0393701
146
0.71
147
1.5
172
     1
176
   256
177
   256
178
     2
271
     2
272
     3
274
     4
283
     0
284
     8
340
11
371
    -1
372
    -1
  0
DIMSTYLE
105
9B76
330
A
100
AcDbSymbolTableRecord
100
AcDbDimStyleTableRecord
  2
AM_ISO$3
 70
     0
  4
"
 41
2.5
 42
1.0
 43
10.0
 44
1.0
 47
0.1
 48
0.1
 73
     0
 77
     1
 78
     8
 79
     2
 90
     1
140
3.5
141
0.0
143
0.0393701
146
0.71
147
1.5
176
   256
177
   256
178
     2
271
     2
272
     3
274
     4
283
     0
284
     8
288
     1
289
     0
340
11
371
    -1
372
    -1
  0
DIMSTYLE
105
9B77
330
A
100
AcDbSymbolTableRecord
100
AcDbDimStyleTableRecord
  2
AM_ISO$4
 70
     0
  4
"
 41
2.5
 42
1.0
 43
10.0
 44
1.0
 47
0.1
 48
0.1
 73
     0
 77
     1
 78
     8
 79
     2
 90
     1
140
3.5
141
0.0
143
0.0393701
146
0.71
147
1.5
176
   256
177
   256
178
     2
271
     2
272
     3
274
     4
283
     0
284
     8
288
     1
289
     0
340
11
371
    -1
372
    -1
  0
DIMSTYLE
105
9B78
330
A
100
AcDbSymbolTableRecord
100
AcDbDimStyleTableRecord
  2
AM_ISO$6
 70
     0
  4
"
 41
2.5
 42
1.0
 43
10.0
 44
1.0
 47
0.1
 48
0.1
 73
     0
 74
     0
 78
     8
 79
     2
 90
     1
140
3.5
141
0.0
143
0.0393701
146
0.71
147
1.5
172
     1
176
   256
177
   256
178
     2
271
     2
272
     3
274
     4
283
     0
284
     8
340
11
371
    -1
372
    -1
  0
DIMSTYLE
105
9B79
330
A
100
AcDbSymbolTableRecord
100
AcDbDimStyleTableRecord
  2
AM_ISO$7
 70
     0
  4
"
 41
2.5
 42
1.0
 43
10.0
 44
1.0
 47
0.1
 48
0.1
 73
     0
 74
     0
 77
     1
 78
     8
 79
     2
 90
     1
140
5.0
141
0.0
143
0.0393701
146
0.71
147
1.5
172
     1
176
   256
177
   256
178
     2
271
     2
272
     3
274
     4
283
     0
284
     8
340
11
371
    -1
372
    -1
  0
DIMSTYLE
105
9B7A
330
A
100
AcDbSymbolTableRecord
100
AcDbDimStyleTableRecord
  2
AM_ISO$SF
 70
     0
  4
"
 41
2.5
 42
1.0
 43
10.0
 44
1.0
 47
0.1
 48
0.1
 73
     0
 74
     0
 75
     1
 76
     1
 77
     1
 78
     8
 79
     2
 90
     1
140
3.5
141
0.0
143
0.0393701
146
0.71
147
1.5
172
     1
176
   256
177
   256
178
     2
271
     2
272
     3
274
     4
283
     0
284
     8
340
11
371
    -1
372
    -1
  0
DIMSTYLE
105
9B7B
330
A
100
AcDbSymbolTableRecord
100
AcDbDimStyleTableRecord
  2
AM_ISO$SH
 70
     0
  4
"
 41
2.5
 42
1.0
 43
10.0
 44
1.0
 47
0.1
 48
0.1
 73
     0
 74
     0
 75
     1
 76
     1
 77
     1
 78
     8
 79
     2
 90
     1
140
3.5
141
0.0
143
0.0393701
144
2.0
146
0.71
147
1.5
172
     1
173
     1
176
   256
177
   256
178
     2
271
     2
272
     3
274
     4
283
     0
284
     8
340
11
343
74
371
    -1
372
    -1
  0
ENDTAB
  0
TABLE
  2
BLOCK_RECORD
  5
1
330
0
100
AcDbSymbolTable
 70
    38
  0
BLOCK_RECORD
  5
1F
102
{ACAD_XDICTIONARY
360
82
102
}
330
1
100
AcDbSymbolTableRecord
100
AcDbBlockTableRecord
  2
*Model_Space
340
22
 70
     0
280
     1
281
     0
  0
BLOCK_RECORD
  5
1B
330
1
100
AcDbSymbolTableRecord
100
AcDbBlockTableRecord
  2
*Paper_Space
340
1E
 70
     0
280
     1
281
     0
  0
BLOCK_RECORD
  5
23
330
1
100
AcDbSymbolTableRecord
100
AcDbBlockTableRecord
  2
*Paper_Space0
340
26
 70
     0
280
     1
281
     0
  0
BLOCK_RECORD
  5
69
330
1
100
AcDbSymbolTableRecord
100
AcDbBlockTableRecord
  2
_Open30
340
0
102
{BLKREFS
331
8BE4
331
95DD
331
95E5
331
95E6
331
95EE
331
95EF
331
95F7
331
95F8
331
9600
331
9601
331
960B
331
960C
331
961C
331
961D
331
9630
331
9631
331
9639
331
963A
331
9645
331
9650
331
9658
331
9659
331
9661
331
9662
331
966A
331
966B
331
98B6
331
98B7
331
98BE
331
98BF
331
98CA
331
98CB
331
98FB
331
98FC
331
9950
331
9951
102
}
 70
     0
280
     1
281
     0
  0
BLOCK_RECORD
  5
74
330
1
100
AcDbSymbolTableRecord
100
AcDbBlockTableRecord
  2
GENAXEH
340
0
 70
     0
280
     1
281
     0
  0
BLOCK_RECORD
  5
38B7
102
{ACAD_XDICTIONARY
360
38B8
102
}
330
1
100
AcDbSymbolTableRecord
100
AcDbBlockTableRecord
  2
ロッカクアナツキプラグ-1　R1／8
340
0
310
2800000020000000200000000100080000000000000400000000000000000000000000000000000000000000000080000080000000808000800000008000800080800000C0C0C000C0DCC000F0CAA6000020400000206000002080000020A0000020C0000020E00000400000004020000040400000406000004080000040A0
310
000040C0000040E00000600000006020000060400000606000006080000060A0000060C0000060E00000800000008020000080400000806000008080000080A0000080C0000080E00000A0000000A0200000A0400000A0600000A0800000A0A00000A0C00000A0E00000C0000000C0200000C0400000C0600000C0800000C0
310
A00000C0C00000C0E00000E0000000E0200000E0400000E0600000E0800000E0A00000E0C00000E0E00040000000400020004000400040006000400080004000A0004000C0004000E00040200000402020004020400040206000402080004020A0004020C0004020E000404000004040200040404000404060004040800040
310
40A0004040C0004040E00040600000406020004060400040606000406080004060A0004060C0004060E00040800000408020004080400040806000408080004080A0004080C0004080E00040A0000040A0200040A0400040A0600040A0800040A0A00040A0C00040A0E00040C0000040C0200040C0400040C0600040C08000
310
40C0A00040C0C00040C0E00040E0000040E0200040E0400040E0600040E0800040E0A00040E0C00040E0E00080000000800020008000400080006000800080008000A0008000C0008000E00080200000802020008020400080206000802080008020A0008020C0008020E00080400000804020008040400080406000804080
310
008040A0008040C0008040E00080600000806020008060400080606000806080008060A0008060C0008060E00080800000808020008080400080806000808080008080A0008080C0008080E00080A0000080A0200080A0400080A0600080A0800080A0A00080A0C00080A0E00080C0000080C0200080C0400080C0600080C0
310
800080C0A00080C0C00080C0E00080E0000080E0200080E0400080E0600080E0800080E0A00080E0C00080E0E000C0000000C0002000C0004000C0006000C0008000C000A000C000C000C000E000C0200000C0202000C0204000C0206000C0208000C020A000C020C000C020E000C0400000C0402000C0404000C0406000C0
310
408000C040A000C040C000C040E000C0600000C0602000C0604000C0606000C0608000C060A000C060C000C060E000C0800000C0802000C0804000C0806000C0808000C080A000C080C000C080E000C0A00000C0A02000C0A04000C0A06000C0A08000C0A0A000C0A0C000C0A0E000C0C00000C0C02000C0C04000C0C06000
310
C0C08000C0C0A000F0FBFF00A4A0A000808080000000FF0000FF000000FFFF00FF000000FF00FF00FFFF0000FFFFFF00000000000000000000000000000000000000000000000000000000000000000000000000000000000000000000000000F9000000000000000000000000000000000000000000000000000000000000
310
00F900000000000000000000000000000000000000000000000000000000000000F90000000000000000000000000000000000000000000000000000000000FEFEF9000000000000000000000000000000000000000000000000000000FEFEFFFFF9FEFEFEFE000000000000000000000000000000000000000000FEFEFFFF
310
0000F900FFFF00FE000000000000000000000000000000000000FEFEFFFF00000000F9000000FFFFFE00000000000000000000000000000000FE00FF000000000000F90000000000FFFEFE00000000000000000000000000FE00FF00000000000000F9000000000000FFFE00000000000000000000000000FE00FF00000000
310
000000FF00000000000000FFFE0000000000000000000000FE00FF000000000000FFFFF9FF000000000000FFFE0000000000000000000000FE00FF00000000FFFF0000F900FFFF0000000000FFFE00000000000000000000FEFF00000000FF00000000F9000000FF00000000FFFE00000000000000000000FEFF00000000FF
310
00000000F9000000FF00000000FFFE00000000000000000000FE0000000000FF00000000F9000000FF0000000000FFFE0000000000F9F9F9F9F9F9F9F9F9F9FFF9F9F9F9F9F9F9F9FFF9F9F9F9F9F9F9F9F9F9000000000000FEFF00000000FF00000000F9000000FF0000000000FFFE000000000000000000FEFF00000000
310
FF00000000F9000000FF00000000FFFE00000000000000000000FE00FF00000000FFFF0000F90000FF0000000000FFFE00000000000000000000FE00FF000000000000FFFFF9FFFF0000000000FFFE000000000000000000000000FE00FF00000000000000FF00000000000000FFFE000000000000000000000000FE00FF00
310
000000000000F9000000000000FFFE0000000000000000000000000000FE00FF000000000000F90000000000FF00FE000000000000000000000000000000FE00FF0000000000F900000000FFFEFE0000000000000000000000000000000000FEFEFFFF000000F90000FFFFFE00000000000000000000000000000000000000
310
0000FEFEFEFFFFF9FEFEFEFE00000000000000000000000000000000000000000000000000FEFEF900000000000000000000000000000000000000000000000000000000000000F900000000000000000000000000000000000000000000000000000000000000F90000000000000000000000000000000000000000000000
310
0000000000000000F90000000000000000000000000000000000000000000000000000000000000000000000000000000000000000000000
102
{BLKREFS
331
4E56
102
}
 70
     4
280
     1
281
     0
  0
BLOCK_RECORD
  5
3A49
330
1
100
AcDbSymbolTableRecord
100
AcDbBlockTableRecord
  2
GENDOT
340
0
102
{BLKREFS
331
8BE3
331
95DC
331
9644
331
964F
102
}
 70
     0
280
     1
281
     0
  0
BLOCK_RECORD
  5
3AE9
102
{ACAD_XDICTIONARY
360
4D75
102
}
330
1
100
AcDbSymbolTableRecord
100
AcDbBlockTableRecord
  2
ロッカクアナツキプラグ-2　R1／8
340
0
310
2800000020000000200000000100080000000000000400000000000000000000000000000000000000000000000080000080000000808000800000008000800080800000C0C0C000C0DCC000F0CAA6000020400000206000002080000020A0000020C0000020E00000400000004020000040400000406000004080000040A0
310
000040C0000040E00000600000006020000060400000606000006080000060A0000060C0000060E00000800000008020000080400000806000008080000080A0000080C0000080E00000A0000000A0200000A0400000A0600000A0800000A0A00000A0C00000A0E00000C0000000C0200000C0400000C0600000C0800000C0
310
A00000C0C00000C0E00000E0000000E0200000E0400000E0600000E0800000E0A00000E0C00000E0E00040000000400020004000400040006000400080004000A0004000C0004000E00040200000402020004020400040206000402080004020A0004020C0004020E000404000004040200040404000404060004040800040
310
40A0004040C0004040E00040600000406020004060400040606000406080004060A0004060C0004060E00040800000408020004080400040806000408080004080A0004080C0004080E00040A0000040A0200040A0400040A0600040A0800040A0A00040A0C00040A0E00040C0000040C0200040C0400040C0600040C08000
310
40C0A00040C0C00040C0E00040E0000040E0200040E0400040E0600040E0800040E0A00040E0C00040E0E00080000000800020008000400080006000800080008000A0008000C0008000E00080200000802020008020400080206000802080008020A0008020C0008020E00080400000804020008040400080406000804080
310
008040A0008040C0008040E00080600000806020008060400080606000806080008060A0008060C0008060E00080800000808020008080400080806000808080008080A0008080C0008080E00080A0000080A0200080A0400080A0600080A0800080A0A00080A0C00080A0E00080C0000080C0200080C0400080C0600080C0
310
800080C0A00080C0C00080C0E00080E0000080E0200080E0400080E0600080E0800080E0A00080E0C00080E0E000C0000000C0002000C0004000C0006000C0008000C000A000C000C000C000E000C0200000C0202000C0204000C0206000C0208000C020A000C020C000C020E000C0400000C0402000C0404000C0406000C0
310
408000C040A000C040C000C040E000C0600000C0602000C0604000C0606000C0608000C060A000C060C000C060E000C0800000C0802000C0804000C0806000C0808000C080A000C080C000C080E000C0A00000C0A02000C0A04000C0A06000C0A08000C0A0A000C0A0C000C0A0E000C0C00000C0C02000C0C04000C0C06000
310
C0C08000C0C0A000F0FBFF00A4A0A000808080000000FF0000FF000000FFFF00FF000000FF00FF00FFFF0000FFFFFF00000000000000000000000000000000000000000000000000000000000000000000000000000000000000000000000000F9000000000000000000000000000000000000000000000000000000000000
310
00F900000000000000000000000000000000000000000000000000000000000000F90000000000000000000000000000000000000000000000000000000000FEFEF9000000000000000000000000000000000000000000000000000000FEFEFFFFF9FEFEFEFE000000000000000000000000000000000000000000FEFEFFFF
310
0000F900FFFF00FE000000000000000000000000000000000000FEFEFFFF00000000F9000000FFFFFE00000000000000000000000000000000FE00FF000000000000F90000000000FFFEFE00000000000000000000000000FE00FF00000000000000F9000000000000FFFE00000000000000000000000000FE00FF00000000
310
000000FF00000000000000FFFE0000000000000000000000FE00FF000000000000FFFFF9FFFF0000000000FFFE0000000000000000000000FE00FF00000000FFFF0000F90000FF0000000000FFFE00000000000000000000FEFF00000000FF00000000F9000000FF00000000FFFE00000000000000000000FEFF00000000FF
310
00000000F9000000FF00000000FFFE00000000000000000000FE0000000000FF00000000F9000000FF0000000000FFFE0000000000F9F9F9F9F9F9F9F9F9F9FFF9F9F9F9F9F9F9F9FFF9F9F9F9F9F9F9F9F9F9000000000000FEFF00000000FF00000000F9000000FF0000000000FFFE000000000000000000FEFF00000000
310
FF00000000F9000000FF00000000FFFE00000000000000000000FE00FF00000000FFFF0000F900FFFF0000000000FFFE00000000000000000000FE00FF000000000000FFFFF9FF000000000000FFFE000000000000000000000000FE00FF00000000000000FF00000000000000FFFE000000000000000000000000FE00FF00
310
000000000000F9000000000000FFFE0000000000000000000000000000FE00FF000000000000F90000000000FF00FE000000000000000000000000000000FE00FF0000000000F900000000FFFEFE0000000000000000000000000000000000FEFEFFFF000000F90000FFFFFE00000000000000000000000000000000000000
310
0000FEFEFEFFFFF9FEFEFEFE00000000000000000000000000000000000000000000000000FEFEF900000000000000000000000000000000000000000000000000000000000000F900000000000000000000000000000000000000000000000000000000000000F90000000000000000000000000000000000000000000000
310
0000000000000000F90000000000000000000000000000000000000000000000000000000000000000000000000000000000000000000000
102
{BLKREFS
331
4F9A
102
}
 70
     4
280
     1
281
     0
  0
BLOCK_RECORD
  5
4E19
102
{ACAD_XDICTIONARY
360
4EDD
102
}
330
1
100
AcDbSymbolTableRecord
100
AcDbBlockTableRecord
  2
ケースＡ-1 SAM250
340
0
310
2800000020000000200000000100080000000000000400000000000000000000000000000000000000000000000080000080000000808000800000008000800080800000C0C0C000C0DCC000F0CAA6000020400000206000002080000020A0000020C0000020E00000400000004020000040400000406000004080000040A0
310
000040C0000040E00000600000006020000060400000606000006080000060A0000060C0000060E00000800000008020000080400000806000008080000080A0000080C0000080E00000A0000000A0200000A0400000A0600000A0800000A0A00000A0C00000A0E00000C0000000C0200000C0400000C0600000C0800000C0
310
A00000C0C00000C0E00000E0000000E0200000E0400000E0600000E0800000E0A00000E0C00000E0E00040000000400020004000400040006000400080004000A0004000C0004000E00040200000402020004020400040206000402080004020A0004020C0004020E000404000004040200040404000404060004040800040
310
40A0004040C0004040E00040600000406020004060400040606000406080004060A0004060C0004060E00040800000408020004080400040806000408080004080A0004080C0004080E00040A0000040A0200040A0400040A0600040A0800040A0A00040A0C00040A0E00040C0000040C0200040C0400040C0600040C08000
310
40C0A00040C0C00040C0E00040E0000040E0200040E0400040E0600040E0800040E0A00040E0C00040E0E00080000000800020008000400080006000800080008000A0008000C0008000E00080200000802020008020400080206000802080008020A0008020C0008020E00080400000804020008040400080406000804080
310
008040A0008040C0008040E00080600000806020008060400080606000806080008060A0008060C0008060E00080800000808020008080400080806000808080008080A0008080C0008080E00080A0000080A0200080A0400080A0600080A0800080A0A00080A0C00080A0E00080C0000080C0200080C0400080C0600080C0
310
800080C0A00080C0C00080C0E00080E0000080E0200080E0400080E0600080E0800080E0A00080E0C00080E0E000C0000000C0002000C0004000C0006000C0008000C000A000C000C000C000E000C0200000C0202000C0204000C0206000C0208000C020A000C020C000C020E000C0400000C0402000C0404000C0406000C0
310
408000C040A000C040C000C040E000C0600000C0602000C0604000C0606000C0608000C060A000C060C000C060E000C0800000C0802000C0804000C0806000C0808000C080A000C080C000C080E000C0A00000C0A02000C0A04000C0A06000C0A08000C0A0A000C0A0C000C0A0E000C0C00000C0C02000C0C04000C0C06000
310
C0C08000C0C0A000F0FBFF00A4A0A000808080000000FF0000FF000000FFFF00FF000000FF00FF00FFFF0000FFFFFF00000000000000000000000000000000000000000000000000000000000000000000000000000000000000000000FFFF000000000000000000000000000000000000000000000000000000000000FF00
310
FF0000000000000000000000000000000000000000000000000000000000FF00FF0000000000000000000000000000000000000000000000000000000000FF00FFFFFFFFFFFFFF0000000000000000000000000000000000000000000000FF00FF0000000000FF0000000000000000000000000000000000000000000000FF
310
00FF0000000000FF0000000000000000000000000000000000000000000000FF00FF0000000000FF0000000000000000000000000000000000000000000000FF00FF0000000000FF0000000000000000000000000000000000000000000000FF00FF0000000000FF0000000000000000000000000000000000000000000000
310
FF00FF0000000000FF0000000000000000000000000000000000000000000000FFF9FF0000000000FF0000000000000000000000000000000000000000000000FFFFFF0000000000FF0000000000000000000000000000000000000000000000FEF9FF0000000000FF00000000000000000000000000000000000000000000
310
00FF00FF0000000000FF0000000000000000000000000000000000000000000000FF00FF0000000000FF0000000000000000000000000000000000000000000000FF00FF0000000000FF0000000000000000000000000000000000000000000000000000000000000000000000000000000000000000000000000000000000
310
00000000000000000000000000000000000000000000000000000000000000000000000000000000000000000000000000000000000000000000000000000000000000000000000000000000000000000000000000000000000000000000000000000000000000000000000000000000000000000000000000000000000000
310
0000000000000000000000000000000000000000000000000000000000000000000000000000000000000000000000000000000000000000000000000000000000000000000000000000000000000000000000000000000000000000000000000000FF000000FFA4A4FFFFFF00000000000000000000000000000000000000
310
000000FFFFFFFFFFF9F9FFFFFF00000000000000000000000000000000000000000000FFFF00FFFFFFFFFFFFFF0000000000000000000000000000000000000000F9FFFFFFFFFFF9F900000000000000000000000000000000000000000000000000FFFFFFFFFF000000000000000000000000000000000000000000000000
310
0000000000FFFF00000000000000000000000000000000000000000000000000000000000000000000000000000000000000000000000000
102
{BLKREFS
331
539C
102
}
 70
     4
280
     1
281
     0
  0
BLOCK_RECORD
  5
4F5E
102
{ACAD_XDICTIONARY
360
501E
102
}
330
1
100
AcDbSymbolTableRecord
100
AcDbBlockTableRecord
  2
ケースＡ-2 SAM250
340
0
310
2800000020000000200000000100080000000000000400000000000000000000000000000000000000000000000080000080000000808000800000008000800080800000C0C0C000C0DCC000F0CAA6000020400000206000002080000020A0000020C0000020E00000400000004020000040400000406000004080000040A0
310
000040C0000040E00000600000006020000060400000606000006080000060A0000060C0000060E00000800000008020000080400000806000008080000080A0000080C0000080E00000A0000000A0200000A0400000A0600000A0800000A0A00000A0C00000A0E00000C0000000C0200000C0400000C0600000C0800000C0
310
A00000C0C00000C0E00000E0000000E0200000E0400000E0600000E0800000E0A00000E0C00000E0E00040000000400020004000400040006000400080004000A0004000C0004000E00040200000402020004020400040206000402080004020A0004020C0004020E000404000004040200040404000404060004040800040
310
40A0004040C0004040E00040600000406020004060400040606000406080004060A0004060C0004060E00040800000408020004080400040806000408080004080A0004080C0004080E00040A0000040A0200040A0400040A0600040A0800040A0A00040A0C00040A0E00040C0000040C0200040C0400040C0600040C08000
310
40C0A00040C0C00040C0E00040E0000040E0200040E0400040E0600040E0800040E0A00040E0C00040E0E00080000000800020008000400080006000800080008000A0008000C0008000E00080200000802020008020400080206000802080008020A0008020C0008020E00080400000804020008040400080406000804080
310
008040A0008040C0008040E00080600000806020008060400080606000806080008060A0008060C0008060E00080800000808020008080400080806000808080008080A0008080C0008080E00080A0000080A0200080A0400080A0600080A0800080A0A00080A0C00080A0E00080C0000080C0200080C0400080C0600080C0
310
800080C0A00080C0C00080C0E00080E0000080E0200080E0400080E0600080E0800080E0A00080E0C00080E0E000C0000000C0002000C0004000C0006000C0008000C000A000C000C000C000E000C0200000C0202000C0204000C0206000C0208000C020A000C020C000C020E000C0400000C0402000C0404000C0406000C0
310
408000C040A000C040C000C040E000C0600000C0602000C0604000C0606000C0608000C060A000C060C000C060E000C0800000C0802000C0804000C0806000C0808000C080A000C080C000C080E000C0A00000C0A02000C0A04000C0A06000C0A08000C0A0A000C0A0C000C0A0E000C0C00000C0C02000C0C04000C0C06000
310
C0C08000C0C0A000F0FBFF00A4A0A000808080000000FF0000FF000000FFFF00FF000000FF00FF00FFFF0000FFFFFF0000000000000000000000000000000000000000000000000000000000000000000000000000000000000000000000000000FFFFFF000000000000000000000000000000000000000000000000000000
310
0000FF00FF0000000000000000000000000000000000000000000000000000000000FF00FF0000000000000000000000000000000000000000000000FFFFFFFFFFFFFF00FF0000000000000000000000000000000000000000000000FF0000000000FF00FF0000000000000000000000000000000000000000000000FF0000
310
000000FF00FF0000000000000000000000000000000000000000000000FF0000000000FF00FF0000000000000000000000000000000000000000000000FF0000000000FF00FF0000000000000000000000000000000000000000000000FF0000000000FF00FF0000000000000000000000000000000000000000000000FF00
310
00000000FF00FF0000000000000000000000000000000000000000000000FF0000000000FFF9FF0000000000000000000000000000000000000000000000FF0000000000F9FFF90000000000000000000000000000000000000000000000FF0000000000FFF9FF0000000000000000000000000000000000000000000000FF
310
0000000000FF00FF0000000000000000000000000000000000000000000000FF0000000000FF00FF0000000000000000000000000000000000000000000000FF0000000000FF00FF00000000000000000000000000000000000000000000000000000000000000000000000000000000000000000000000000000000000000
310
00000000000000000000000000000000000000000000000000000000000000000000000000000000000000000000000000000000000000000000000000000000000000000000000000000000000000000000000000000000000000000000000000000000000000000000000000000000000000000000000000000000000000
310
00000000000000000000000000000000000000000000000000000000000000000000000000000000000000000000000000000000000000000000000000000000000000000000000000000000000000000000000000000000000000000000000000FFFFA4A4A4FF0000FF000000000000000000000000000000000000000000
310
0000FFFFFFFFFFFFFFFFFF0000000000000000000000000000000000000000000000FFFFFFFFFFFFFF00FF0000000000000000000000000000000000000000000000000000000000FFFFFFFF00000000000000000000000000000000000000000000000000000000FFFFFFFF00000000000000000000000000000000000000
310
000000000000000000FFFFFF0000000000000000000000000000000000000000000000000000000000000000000000000000000000000000
102
{BLKREFS
331
9695
102
}
 70
     4
280
     1
281
     0
  0
BLOCK_RECORD
  5
5071
102
{ACAD_XDICTIONARY
360
50E5
102
}
330
1
100
AcDbSymbolTableRecord
100
AcDbBlockTableRecord
  2
センタ-1 SAM250
340
0
310
2800000020000000200000000100080000000000000400000000000000000000000000000000000000000000000080000080000000808000800000008000800080800000C0C0C000C0DCC000F0CAA6000020400000206000002080000020A0000020C0000020E00000400000004020000040400000406000004080000040A0
310
000040C0000040E00000600000006020000060400000606000006080000060A0000060C0000060E00000800000008020000080400000806000008080000080A0000080C0000080E00000A0000000A0200000A0400000A0600000A0800000A0A00000A0C00000A0E00000C0000000C0200000C0400000C0600000C0800000C0
310
A00000C0C00000C0E00000E0000000E0200000E0400000E0600000E0800000E0A00000E0C00000E0E00040000000400020004000400040006000400080004000A0004000C0004000E00040200000402020004020400040206000402080004020A0004020C0004020E000404000004040200040404000404060004040800040
310
40A0004040C0004040E00040600000406020004060400040606000406080004060A0004060C0004060E00040800000408020004080400040806000408080004080A0004080C0004080E00040A0000040A0200040A0400040A0600040A0800040A0A00040A0C00040A0E00040C0000040C0200040C0400040C0600040C08000
310
40C0A00040C0C00040C0E00040E0000040E0200040E0400040E0600040E0800040E0A00040E0C00040E0E00080000000800020008000400080006000800080008000A0008000C0008000E00080200000802020008020400080206000802080008020A0008020C0008020E00080400000804020008040400080406000804080
310
008040A0008040C0008040E00080600000806020008060400080606000806080008060A0008060C0008060E00080800000808020008080400080806000808080008080A0008080C0008080E00080A0000080A0200080A0400080A0600080A0800080A0A00080A0C00080A0E00080C0000080C0200080C0400080C0600080C0
310
800080C0A00080C0C00080C0E00080E0000080E0200080E0400080E0600080E0800080E0A00080E0C00080E0E000C0000000C0002000C0004000C0006000C0008000C000A000C000C000C000E000C0200000C0202000C0204000C0206000C0208000C020A000C020C000C020E000C0400000C0402000C0404000C0406000C0
310
408000C040A000C040C000C040E000C0600000C0602000C0604000C0606000C0608000C060A000C060C000C060E000C0800000C0802000C0804000C0806000C0808000C080A000C080C000C080E000C0A00000C0A02000C0A04000C0A06000C0A08000C0A0A000C0A0C000C0A0E000C0C00000C0C02000C0C04000C0C06000
310
C0C08000C0C0A000F0FBFF00A4A0A000808080000000FF0000FF000000FFFF00FF000000FF00FF00FFFF0000FFFFFF00000000000000000000000000000000000000000000000000000000000000000000000000000000000000000000000000FFFFFF00000000000000000000000000000000000000000000000000000000
310
000000FFFFFFFFFFFFFFFF000000000000000000000000000000000000000000000000FF000000000000FF000000000000000000000000000000000000000000000000FF000000000000FF000000000000000000000000000000000000000000000000FF000000000000FF0000000000000000000000000000000000000000
310
00000000FF000000000000FF000000000000000000000000000000000000000000000000FF000000000000FF000000000000000000000000000000000000000000000000FF000000000000FF000000000000000000000000000000000000000000000000FF000000000000FF00000000000000000000000000000000000000
310
0000000000FF000000000000FF000000000000000000000000000000000000000000000000FF000000000000FF000000000000000000000000000000000000000000000000FF000000000000FF000000000000000000000000000000000000000000000000FF000000000000FF000000000000000000000000FF0000A4A4A4
310
000000000000FF000000000000FF000000000000000000000000A4A4A4A4A40000000000000000000000000000FF000000000000000000000000FF000000000000000000000000000000000000FF000000000000000000000000FF000000000000000000000000000000000000FF000000000000000000000000FF00000000
310
0000000000000000000000000000FF000000000000000000000000FF000000000000000000000000000000000000FF000000000000000000000000FF000000000000000000000000000000000000FF000000000000000000000000FF000000000000000000000000000000000000FF000000000000000000000000FF000000
310
000000000000000000000000000000FF000000000000000000000000FFFFFFFFFFFFFFFFFFFFFFFFFFFFFFFFFFFFFFFF000000000000000000000000FFFFFFFFFFFFFFFFFFFFFFFFFFFFFFFFFFFFFFFF000000000000000000000000FF000000000000000000000000000000000000FF000000000000000000000000FF0000
310
00000000000000000000000000000000FF000000000000000000000000FFFFFFFF00F900FFFFFFFFFFFFFFFFFFFFFFFFFF000000000000000000000000000000FFF9F9F9FFF90000000000000000000000000000000000000000000000000000FFFFF9FFFF0000000000000000000000000000000000000000000000000000
310
000000F900000000000000000000000000000000000000000000000000000000000000000000000000000000000000000000000000000000
102
{BLKREFS
331
5098
102
}
 70
     4
280
     1
281
     0
  0
BLOCK_RECORD
  5
5118
102
{ACAD_XDICTIONARY
360
515F
102
}
330
1
100
AcDbSymbolTableRecord
100
AcDbBlockTableRecord
  2
センタ-2 SAM250
340
0
310
2800000020000000200000000100080000000000000400000000000000000000000000000000000000000000000080000080000000808000800000008000800080800000C0C0C000C0DCC000F0CAA6000020400000206000002080000020A0000020C0000020E00000400000004020000040400000406000004080000040A0
310
000040C0000040E00000600000006020000060400000606000006080000060A0000060C0000060E00000800000008020000080400000806000008080000080A0000080C0000080E00000A0000000A0200000A0400000A0600000A0800000A0A00000A0C00000A0E00000C0000000C0200000C0400000C0600000C0800000C0
310
A00000C0C00000C0E00000E0000000E0200000E0400000E0600000E0800000E0A00000E0C00000E0E00040000000400020004000400040006000400080004000A0004000C0004000E00040200000402020004020400040206000402080004020A0004020C0004020E000404000004040200040404000404060004040800040
310
40A0004040C0004040E00040600000406020004060400040606000406080004060A0004060C0004060E00040800000408020004080400040806000408080004080A0004080C0004080E00040A0000040A0200040A0400040A0600040A0800040A0A00040A0C00040A0E00040C0000040C0200040C0400040C0600040C08000
310
40C0A00040C0C00040C0E00040E0000040E0200040E0400040E0600040E0800040E0A00040E0C00040E0E00080000000800020008000400080006000800080008000A0008000C0008000E00080200000802020008020400080206000802080008020A0008020C0008020E00080400000804020008040400080406000804080
310
008040A0008040C0008040E00080600000806020008060400080606000806080008060A0008060C0008060E00080800000808020008080400080806000808080008080A0008080C0008080E00080A0000080A0200080A0400080A0600080A0800080A0A00080A0C00080A0E00080C0000080C0200080C0400080C0600080C0
310
800080C0A00080C0C00080C0E00080E0000080E0200080E0400080E0600080E0800080E0A00080E0C00080E0E000C0000000C0002000C0004000C0006000C0008000C000A000C000C000C000E000C0200000C0202000C0204000C0206000C0208000C020A000C020C000C020E000C0400000C0402000C0404000C0406000C0
310
408000C040A000C040C000C040E000C0600000C0602000C0604000C0606000C0608000C060A000C060C000C060E000C0800000C0802000C0804000C0806000C0808000C080A000C080C000C080E000C0A00000C0A02000C0A04000C0A06000C0A08000C0A0A000C0A0C000C0A0E000C0C00000C0C02000C0C04000C0C06000
310
C0C08000C0C0A000F0FBFF00A4A0A000808080000000FF0000FF000000FFFF00FF000000FF00FF00FFFF0000FFFFFF0000000000000000000000000000000000000000000000000000000000000000000000000000000000000000000000000000000000000000000000000000000000000000000000000000000000000000
310
000000000000000000000000000000000000000000000000000000000000000000000000000000000000000000000000000000000000000000000000000000000000000000000000000000000000000000000000000000000000000000000000000000000000000000000000000000000000FFFF0000000000000000000000
310
00000000000000000000000000000000000000FFFF000000000000000000000000000000000000000000000000000000000000FFFF000000000000000000000000000000000000000000000000000000000000FFFF000000000000000000000000000000000000000000000000000000000000FFFF00000000000000000000
310
0000000000000000000000000000000000000000FFFF000000000000000000000000000000000000000000000000000000000000FFFF000000000000000000000000000000000000000000000000000000000000FFFF000000000000000000000000000000000000000000000000000000000000FFFF000000000000000000
310
000000000000000000000000000000000000000000FFFF000000000000000000000000000000000000000000000000000000000000FFFF000000000000000000000000000000000000000000000000000000000000FFFF000000000000000000000000000000000000000000000000000000000000FFFFFFFFFFFFFFFFFFFF
310
FFFFFFFFFFFFFFFFFFFFFFFFFFFFFFFFFFFFFFFF0000FF00000000000000000000000000000000000000000000000000000000000000FFFFFFFFFFFFFFFFFFFFFFFFFFFFFFFFFFFFFFFFFFFFFFFFFFFFFFFFFFFF0000FF00000000000000000000000000000000000000000000000000000000000000FF0000000000000000
310
0000000000000000000000000000000000000000000000FF00000000000000000000000000000000000000000000000000000000000000FF0000000000000000000000000000000000000000000000000000000000000000FFFFFFFFFFFFFFFFFFFFFFFFFFFFFFFFFFFF000000000000000000000000000000000000000000
310
00000000000000000000000000000000000000000000000000000000000000000000000000000000000000000000000000000000000000000000000000000000000000000000000000000000000000000000000000000000000000000000000000000000000000000000000000000000000000000000000000000000000000
310
0000000000000000000000000000000000000000000000000000000000000000000000000000000000000000000000000000000000000000
102
{BLKREFS
331
5124
102
}
 70
     4
280
     1
281
     0
  0
BLOCK_RECORD
  5
5572
102
{ACAD_XDICTIONARY
360
55FF
102
}
330
1
100
AcDbSymbolTableRecord
100
AcDbBlockTableRecord
  2
リーマボルト-1 SAM250 M10
340
0
310
2800000020000000200000000100080000000000000400000000000000000000000000000000000000000000000080000080000000808000800000008000800080800000C0C0C000C0DCC000F0CAA6000020400000206000002080000020A0000020C0000020E00000400000004020000040400000406000004080000040A0
310
000040C0000040E00000600000006020000060400000606000006080000060A0000060C0000060E00000800000008020000080400000806000008080000080A0000080C0000080E00000A0000000A0200000A0400000A0600000A0800000A0A00000A0C00000A0E00000C0000000C0200000C0400000C0600000C0800000C0
310
A00000C0C00000C0E00000E0000000E0200000E0400000E0600000E0800000E0A00000E0C00000E0E00040000000400020004000400040006000400080004000A0004000C0004000E00040200000402020004020400040206000402080004020A0004020C0004020E000404000004040200040404000404060004040800040
310
40A0004040C0004040E00040600000406020004060400040606000406080004060A0004060C0004060E00040800000408020004080400040806000408080004080A0004080C0004080E00040A0000040A0200040A0400040A0600040A0800040A0A00040A0C00040A0E00040C0000040C0200040C0400040C0600040C08000
310
40C0A00040C0C00040C0E00040E0000040E0200040E0400040E0600040E0800040E0A00040E0C00040E0E00080000000800020008000400080006000800080008000A0008000C0008000E00080200000802020008020400080206000802080008020A0008020C0008020E00080400000804020008040400080406000804080
310
008040A0008040C0008040E00080600000806020008060400080606000806080008060A0008060C0008060E00080800000808020008080400080806000808080008080A0008080C0008080E00080A0000080A0200080A0400080A0600080A0800080A0A00080A0C00080A0E00080C0000080C0200080C0400080C0600080C0
310
800080C0A00080C0C00080C0E00080E0000080E0200080E0400080E0600080E0800080E0A00080E0C00080E0E000C0000000C0002000C0004000C0006000C0008000C000A000C000C000C000E000C0200000C0202000C0204000C0206000C0208000C020A000C020C000C020E000C0400000C0402000C0404000C0406000C0
310
408000C040A000C040C000C040E000C0600000C0602000C0604000C0606000C0608000C060A000C060C000C060E000C0800000C0802000C0804000C0806000C0808000C080A000C080C000C080E000C0A00000C0A02000C0A04000C0A06000C0A08000C0A0A000C0A0C000C0A0E000C0C00000C0C02000C0C04000C0C06000
310
C0C08000C0C0A000F0FBFF00A4A0A000808080000000FF0000FF000000FFFF00FF000000FF00FF00FFFF0000FFFFFF0000000000000000000000000000000000000000000000000000000000000000000000000000000000000000000000000000000000000000000000000000000000000000000000000000000000000000
310
00000000000000000000000000000000000000000000000000000000000000000000000000000000000000000000000000000000000000000000000000000000000000000000000000000000000000000000000000000000000000000000000000000000000000000000000000000000000000000000000000000000000000
310
00000000000000000000000000000000000000000000000000000000000000000000000000000000000000000000000000000000000000000000000000000000000000000000000000000000000000000000000000000000000000000000000000000000000000000000000000000000000000000000000000000000000000
310
00000000000000000000FFFFFFFFFF000000000000FFFFFFFF000000000000000000000000000000FFFFFF000000FF000000000000FF0000000000000000000000000000000000000000FF000000FF0000000000FFFF0000FFFF00000000000000000000000000FFFF00FFFFFFFFFFFFFFFF0000FFFF000000FF0000000000
310
0000000000000000FF0000FF000000FF00FFFF0000FFFF000000FF00000000000000000000000000FFFF00FF000000FF00FFFF0000FFFF000000FF00000000000000000000000000FF00FFFF000000FF00FFFF0000FFFF000000FF00000000000000000000000000FF0000FF000000FF00FFFF0000FFFF0000FFFF00000000
310
000000000000000000FFFF00FFFFFFFFFFFEFFFF000000FF0000000000000000000000000000000000000000FF000000FF000000000000FFFFFFFF000000000000000000000000000000FFFFFF000000FF000000000000000000000000000000000000000000000000000000FFFFFFFFFF0000000000000000000000000000
310
00000000000000000000000000000000000000000000000000000000000000000000000000000000000000000000000000000000000000000000000000000000000000000000000000000000000000000000000000000000000000000000000000000000000000000000000000000000000000000000000000000000000000
310
00000000000000000000000000000000000000000000000000000000000000000000000000000000000000000000000000000000000000000000000000000000000000000000000000000000000000000000000000000000000000000000000000000000000000000000000000000000000000000000000000000000000000
310
0000000000000000000000000000000000000000000000000000000000000000000000000000000000000000000000000000000000000000
102
{BLKREFS
331
559E
102
}
 70
     4
280
     1
281
     0
  0
BLOCK_RECORD
  5
5666
102
{ACAD_XDICTIONARY
360
56F1
102
}
330
1
100
AcDbSymbolTableRecord
100
AcDbBlockTableRecord
  2
リーマボルト-2 SAM250 M10
340
0
310
2800000020000000200000000100080000000000000400000000000000000000000000000000000000000000000080000080000000808000800000008000800080800000C0C0C000C0DCC000F0CAA6000020400000206000002080000020A0000020C0000020E00000400000004020000040400000406000004080000040A0
310
000040C0000040E00000600000006020000060400000606000006080000060A0000060C0000060E00000800000008020000080400000806000008080000080A0000080C0000080E00000A0000000A0200000A0400000A0600000A0800000A0A00000A0C00000A0E00000C0000000C0200000C0400000C0600000C0800000C0
310
A00000C0C00000C0E00000E0000000E0200000E0400000E0600000E0800000E0A00000E0C00000E0E00040000000400020004000400040006000400080004000A0004000C0004000E00040200000402020004020400040206000402080004020A0004020C0004020E000404000004040200040404000404060004040800040
310
40A0004040C0004040E00040600000406020004060400040606000406080004060A0004060C0004060E00040800000408020004080400040806000408080004080A0004080C0004080E00040A0000040A0200040A0400040A0600040A0800040A0A00040A0C00040A0E00040C0000040C0200040C0400040C0600040C08000
310
40C0A00040C0C00040C0E00040E0000040E0200040E0400040E0600040E0800040E0A00040E0C00040E0E00080000000800020008000400080006000800080008000A0008000C0008000E00080200000802020008020400080206000802080008020A0008020C0008020E00080400000804020008040400080406000804080
310
008040A0008040C0008040E00080600000806020008060400080606000806080008060A0008060C0008060E00080800000808020008080400080806000808080008080A0008080C0008080E00080A0000080A0200080A0400080A0600080A0800080A0A00080A0C00080A0E00080C0000080C0200080C0400080C0600080C0
310
800080C0A00080C0C00080C0E00080E0000080E0200080E0400080E0600080E0800080E0A00080E0C00080E0E000C0000000C0002000C0004000C0006000C0008000C000A000C000C000C000E000C0200000C0202000C0204000C0206000C0208000C020A000C020C000C020E000C0400000C0402000C0404000C0406000C0
310
408000C040A000C040C000C040E000C0600000C0602000C0604000C0606000C0608000C060A000C060C000C060E000C0800000C0802000C0804000C0806000C0808000C080A000C080C000C080E000C0A00000C0A02000C0A04000C0A06000C0A08000C0A0A000C0A0C000C0A0E000C0C00000C0C02000C0C04000C0C06000
310
C0C08000C0C0A000F0FBFF00A4A0A000808080000000FF0000FF000000FFFF00FF000000FF00FF00FFFF0000FFFFFF0000000000000000000000000000000000000000000000000000000000000000000000000000000000000000000000000000000000000000000000000000000000000000000000000000000000000000
310
00000000000000000000000000000000000000000000000000000000000000000000000000000000000000000000000000000000000000000000000000000000000000000000000000000000000000000000000000000000000000000000000000000000000000000000000000000000000000000000000000000000000000
310
00000000000000000000000000000000000000000000000000000000000000000000000000000000000000000000000000000000000000000000000000000000000000000000000000000000000000000000000000000000000000000000000000000000000000000000000000000000000000000000FFFFFFFFFF00000000
310
0000000000000000000000000000000000000000000000FF000000FFFFFF000000000000000000000000000000FFFFFFFF000000000000FF000000FF0000000000000000000000000000000000000000FF000000FFFFFFFFFFFFFFFF00FFFF00000000000000000000000000FFFF0000FFFF0000FFFF00FF000000FF0000FF
310
00000000000000000000000000FF000000FFFF0000FFFF00FF000000FF0000FF00000000000000000000000000FF000000FFFF0000FFFF00FF000000FFFFFFFF00000000000000000000000000FF000000FFFF0000FFFF00FF000000FF0000FF00000000000000000000000000FF000000FFFF0000FFFFFEFFFFFFFFFF00FF
310
FF00000000000000000000000000FFFF0000FFFF0000000000FF000000FF0000000000000000000000000000000000000000FF000000000000FF000000FFFFFF000000000000000000000000000000FFFFFFFF000000000000FFFFFFFFFF000000000000000000000000000000000000000000000000000000000000000000
310
00000000000000000000000000000000000000000000000000000000000000000000000000000000000000000000000000000000000000000000000000000000000000000000000000000000000000000000000000000000000000000000000000000000000000000000000000000000000000000000000000000000000000
310
00000000000000000000000000000000000000000000000000000000000000000000000000000000000000000000000000000000000000000000000000000000000000000000000000000000000000000000000000000000000000000000000000000000000000000000000000000000000000000000000000000000000000
310
0000000000000000000000000000000000000000000000000000000000000000000000000000000000000000000000000000000000000000
102
{BLKREFS
331
5692
102
}
 70
     4
280
     1
281
     0
  0
BLOCK_RECORD
  5
5B15
330
1
100
AcDbSymbolTableRecord
100
AcDbBlockTableRecord
  2
*D15
340
0
 70
     0
280
     1
281
     0
  0
BLOCK_RECORD
  5
5B4F
330
1
100
AcDbSymbolTableRecord
100
AcDbBlockTableRecord
  2
*D16
340
0
 70
     0
280
     1
281
     0
  0
BLOCK_RECORD
  5
5C15
330
1
100
AcDbSymbolTableRecord
100
AcDbBlockTableRecord
  2
*D17
340
0
 70
     0
280
     1
281
     0
  0
BLOCK_RECORD
  5
5C45
330
1
100
AcDbSymbolTableRecord
100
AcDbBlockTableRecord
  2
*D18
340
0
 70
     0
280
     1
281
     0
  0
BLOCK_RECORD
  5
5D6F
330
1
100
AcDbSymbolTableRecord
100
AcDbBlockTableRecord
  2
*D19
340
0
 70
     0
280
     1
281
     0
  0
BLOCK_RECORD
  5
5D8B
330
1
100
AcDbSymbolTableRecord
100
AcDbBlockTableRecord
  2
*D20
340
0
 70
     0
280
     1
281
     0
  0
BLOCK_RECORD
  5
5DA7
330
1
100
AcDbSymbolTableRecord
100
AcDbBlockTableRecord
  2
*D21
340
0
 70
     0
280
     1
281
     0
  0
BLOCK_RECORD
  5
5DC3
330
1
100
AcDbSymbolTableRecord
100
AcDbBlockTableRecord
  2
*D22
340
0
 70
     0
280
     1
281
     0
  0
BLOCK_RECORD
  5
5DDF
330
1
100
AcDbSymbolTableRecord
100
AcDbBlockTableRecord
  2
*D23
340
0
 70
     0
280
     1
281
     0
  0
BLOCK_RECORD
  5
5DF7
330
1
100
AcDbSymbolTableRecord
100
AcDbBlockTableRecord
  2
*D24
340
0
 70
     0
280
     1
281
     0
  0
BLOCK_RECORD
  5
5E27
330
1
100
AcDbSymbolTableRecord
100
AcDbBlockTableRecord
  2
*D25
340
0
 70
     0
280
     1
281
     0
  0
BLOCK_RECORD
  5
5E3F
330
1
100
AcDbSymbolTableRecord
100
AcDbBlockTableRecord
  2
*D26
340
0
 70
     0
280
     1
281
     0
  0
BLOCK_RECORD
  5
612E
330
1
100
AcDbSymbolTableRecord
100
AcDbBlockTableRecord
  2
*D27
340
0
 70
     0
280
     1
281
     0
  0
BLOCK_RECORD
  5
6146
330
1
100
AcDbSymbolTableRecord
100
AcDbBlockTableRecord
  2
*D28
340
0
 70
     0
280
     1
281
     0
  0
BLOCK_RECORD
  5
615E
330
1
100
AcDbSymbolTableRecord
100
AcDbBlockTableRecord
  2
*D29
340
0
 70
     0
280
     1
281
     0
  0
BLOCK_RECORD
  5
7E8A
102
{ACAD_XDICTIONARY
360
80C6
102
}
330
1
100
AcDbSymbolTableRecord
100
AcDbBlockTableRecord
  2
ＧＣスペーサ SAMY250
340
0
310
2800000020000000200000000100080000000000000400000000000000000000000000000000000000000000000080000080000000808000800000008000800080800000C0C0C000C0DCC000F0CAA6000020400000206000002080000020A0000020C0000020E00000400000004020000040400000406000004080000040A0
310
000040C0000040E00000600000006020000060400000606000006080000060A0000060C0000060E00000800000008020000080400000806000008080000080A0000080C0000080E00000A0000000A0200000A0400000A0600000A0800000A0A00000A0C00000A0E00000C0000000C0200000C0400000C0600000C0800000C0
310
A00000C0C00000C0E00000E0000000E0200000E0400000E0600000E0800000E0A00000E0C00000E0E00040000000400020004000400040006000400080004000A0004000C0004000E00040200000402020004020400040206000402080004020A0004020C0004020E000404000004040200040404000404060004040800040
310
40A0004040C0004040E00040600000406020004060400040606000406080004060A0004060C0004060E00040800000408020004080400040806000408080004080A0004080C0004080E00040A0000040A0200040A0400040A0600040A0800040A0A00040A0C00040A0E00040C0000040C0200040C0400040C0600040C08000
310
40C0A00040C0C00040C0E00040E0000040E0200040E0400040E0600040E0800040E0A00040E0C00040E0E00080000000800020008000400080006000800080008000A0008000C0008000E00080200000802020008020400080206000802080008020A0008020C0008020E00080400000804020008040400080406000804080
310
008040A0008040C0008040E00080600000806020008060400080606000806080008060A0008060C0008060E00080800000808020008080400080806000808080008080A0008080C0008080E00080A0000080A0200080A0400080A0600080A0800080A0A00080A0C00080A0E00080C0000080C0200080C0400080C0600080C0
310
800080C0A00080C0C00080C0E00080E0000080E0200080E0400080E0600080E0800080E0A00080E0C00080E0E000C0000000C0002000C0004000C0006000C0008000C000A000C000C000C000E000C0200000C0202000C0204000C0206000C0208000C020A000C020C000C020E000C0400000C0402000C0404000C0406000C0
310
408000C040A000C040C000C040E000C0600000C0602000C0604000C0606000C0608000C060A000C060C000C060E000C0800000C0802000C0804000C0806000C0808000C080A000C080C000C080E000C0A00000C0A02000C0A04000C0A06000C0A08000C0A0A000C0A0C000C0A0E000C0C00000C0C02000C0C04000C0C06000
310
C0C08000C0C0A000F0FBFF00A4A0A000808080000000FF0000FF000000FFFF00FF000000FF00FF00FFFF0000FFFFFF0000000000000000000000000000000000000000000000000000000000000000000000FFFFFF00000000000000000000000000000000000000000000FFFFFF00000000FF00FF00000000000000000000
310
000000000000000000000000FF00FF00000000F9F9FF00000000000000000000000000000000000000000000FFF9F900000000FF00FF00000000000000000000000000000000000000000000FF00FF00000000FF00FFFF0000000000000000000000000000000000000000FFFF00FF00000000FF00FF00FFFFFFFFFFFFFFFF
310
FFFEFEFFFFFFFFFFFFFFFFFF00FF00FF00000000FF00FF00000000000000000000FEFE00000000000000000000FF00FF00000000FF00FF000000000000000000FEFE0000000000000000000000FF00FF00000000FF00FF000000000000000000FEFE0000000000000000000000FF00FF00000000FF00FF0000000000000000
310
0000FE0000000000000000000000FF00FF00000000FF00FF00000000000000000000FEFE00000000000000000000FF00FF00000000FF00FF00000000000000000000FE0000000000000000000000FF00FF00000000FF00FF000000000000000000FEFE0000000000000000000000FF00FF00000000FF00FF00000000000000
310
000000FE0000000000000000000000FF00FF00000000FF00FF00000000000000000000FEFE00000000000000000000FFFFFF00000000FFFFFFFF000000000000000000FEFE000000000000000000FFFFFFFF0000000000FF00FF000000000000000000FE00000000000000000000FF00FF000000000000FF00FF0000000000
310
000000FEFE00000000000000000000FF00FF000000000000FF00FF000000000000000000FE00000000000000000000FF00FF000000000000FF00FF000000000000000000FEFE000000000000000000FF00FF000000000000FF00FF000000000000000000FE00000000000000000000FF00FF000000000000FF00FF00000000
310
00000000FEFE00000000000000000000FF00FF000000000000FFFFFFFFFFFFFFFFFFFFFFFEFEFFFFFFFFFFFFFFFFFFF9FFF9FF000000000000FFFFF9FF0000000000000000FEFE0000000000000000F9F9F9FF000000000000FFF9F9F9F9FFFFFFFFFFFFFFFEFEFFFFFFFFFFFFFFF9F9F9F9FF000000000000FFF9F9F90000
310
0000000000000000000000000000000000F9F9FF0000000000FFFFF9F90000000000000000000000000000000000000000F9F9FFFF00000000FFFFFF00000000000000000000000000000000000000000000FFFFFF00000000FFFFFF00000000000000000000000000000000000000000000FFFFFF00000000FFFFFF000000
310
00000000000000000000000000000000000000FFFFFF00000000000000000000000000000000000000000000000000000000000000000000
102
{BLKREFS
331
7F02
102
}
 70
     4
280
     1
281
     0
  0
BLOCK_RECORD
  5
956E
330
1
100
AcDbSymbolTableRecord
100
AcDbBlockTableRecord
  2
*D31
340
0
 70
     0
280
     1
281
     0
  0
BLOCK_RECORD
  5
97EB
330
1
100
AcDbSymbolTableRecord
100
AcDbBlockTableRecord
  2
*D32
340
0
 70
     0
280
     1
281
     0
  0
BLOCK_RECORD
  5
9815
330
1
100
AcDbSymbolTableRecord
100
AcDbBlockTableRecord
  2
*D33
340
0
 70
     0
280
     1
281
     0
  0
BLOCK_RECORD
  5
98D0
330
1
100
AcDbSymbolTableRecord
100
AcDbBlockTableRecord
  2
*D34
340
0
 70
     0
280
     1
281
     0
  0
BLOCK_RECORD
  5
9902
330
1
100
AcDbSymbolTableRecord
100
AcDbBlockTableRecord
  2
*D35
340
0
 70
     0
280
     1
281
     0
  0
BLOCK_RECORD
  5
99A1
330
1
100
AcDbSymbolTableRecord
100
AcDbBlockTableRecord
  2
ケース
340
0
310
2800000020000000200000000100080000000000000400000000000000000000000000000000000000000000000080000080000000808000800000008000800080800000C0C0C000C0DCC000F0CAA6000020400000206000002080000020A0000020C0000020E00000400000004020000040400000406000004080000040A0
310
000040C0000040E00000600000006020000060400000606000006080000060A0000060C0000060E00000800000008020000080400000806000008080000080A0000080C0000080E00000A0000000A0200000A0400000A0600000A0800000A0A00000A0C00000A0E00000C0000000C0200000C0400000C0600000C0800000C0
310
A00000C0C00000C0E00000E0000000E0200000E0400000E0600000E0800000E0A00000E0C00000E0E00040000000400020004000400040006000400080004000A0004000C0004000E00040200000402020004020400040206000402080004020A0004020C0004020E000404000004040200040404000404060004040800040
310
40A0004040C0004040E00040600000406020004060400040606000406080004060A0004060C0004060E00040800000408020004080400040806000408080004080A0004080C0004080E00040A0000040A0200040A0400040A0600040A0800040A0A00040A0C00040A0E00040C0000040C0200040C0400040C0600040C08000
310
40C0A00040C0C00040C0E00040E0000040E0200040E0400040E0600040E0800040E0A00040E0C00040E0E00080000000800020008000400080006000800080008000A0008000C0008000E00080200000802020008020400080206000802080008020A0008020C0008020E00080400000804020008040400080406000804080
310
008040A0008040C0008040E00080600000806020008060400080606000806080008060A0008060C0008060E00080800000808020008080400080806000808080008080A0008080C0008080E00080A0000080A0200080A0400080A0600080A0800080A0A00080A0C00080A0E00080C0000080C0200080C0400080C0600080C0
310
800080C0A00080C0C00080C0E00080E0000080E0200080E0400080E0600080E0800080E0A00080E0C00080E0E000C0000000C0002000C0004000C0006000C0008000C000A000C000C000C000E000C0200000C0202000C0204000C0206000C0208000C020A000C020C000C020E000C0400000C0402000C0404000C0406000C0
310
408000C040A000C040C000C040E000C0600000C0602000C0604000C0606000C0608000C060A000C060C000C060E000C0800000C0802000C0804000C0806000C0808000C080A000C080C000C080E000C0A00000C0A02000C0A04000C0A06000C0A08000C0A0A000C0A0C000C0A0E000C0C00000C0C02000C0C04000C0C06000
310
C0C08000C0C0A000F0FBFF00A4A0A000808080000000FF0000FF000000FFFF00FF000000FF00FF00FFFF0000FFFFFF0000000000000000000000000000000000000000000000000000000000000000000000000000000000000000000000000000000000000000000000000000000000000000000000000000000000000000
310
00000000000000000000000000000000000000000000000000000000000000000000000000000000000000000000000000000000000000000000000000000000000000000000000000000000000000000000000000000000000000000000000000000000000000000000000000000000000000000000000000000000000000
310
000000000000000000000000000000000000000000000000000000000000000000000000000000000000000000000000000000FC0000FC000000000000000000FC00FC00000000000000000000000000000000FCFCFCFC000000000000000000FCFCFC00000000000000000000000000000000FC0000FC0000000000000000
310
00FC00FC00000000000000000000000000000000FC0000FC000000000000000000FC00FC00000000000000000000000000000000FC0000FC000000000000000000FC00FC0000000000FCFCFCFCFCFCFCFCFC0000FC0000FC000000000000000000FC00FC00000000FC0000000000000000000000FC0000FCFCFCFCFCFCFCFC
310
FCFC0000FC000000FCFCFCFCFCFCFCFCFCFCFC0000FC0000000000000000000000000000FC00000000FC0000000000000000000000FC0000000000000000000000000000FC00000000FC0000000000000000000000FC0000000000000000000000000000FC00000000FCFCFCFCFCFCFCFCFCFC0000FC000000000000000000
310
000000000000FCFCFCFCFC0000000000000000000000FC00000000000000000000000000000000000000000000000000000000000000FC0000000000000000000000000000000000000000000000000000000000000000FCFC0000000000000000000000000000000000000000000000000000000000000000FC0000000000
310
000000000000000000000000000000000000000000000000000000FCFCFCFCFCFCFCFCFCFCFCFCFCFCFCFCFCFCFCFCFCFCFCFCFCFC0000000000000000000000000000000000000000000000000000000000000000000000000000000000000000000000000000000000000000000000000000000000000000000000000000
310
00000000000000000000000000000000000000000000000000000000000000000000000000000000000000000000000000000000000000000000000000000000000000000000000000000000000000000000000000000000000000000000000000000000000000000000000000000000000000000000000000000000000000
310
0000000000000000000000000000000000000000000000000000000000000000000000000000000000000000000000000000000000000000
102
{BLKREFS
331
99BC
102
}
 70
     4
280
     1
281
     1
  0
ENDTAB
  0
ENDSEC
  0
SECTION
  2
BLOCKS
  0
BLOCK
  5
20
330
1F
100
AcDbEntity
  8
0
100
AcDbBlockBegin
  2
*Model_Space
 70
     0
 10
0.0
 20
0.0
 30
0.0
  3
*Model_Space
  1

  0
ENDBLK
  5
21
330
1F
100
AcDbEntity
  8
0
100
AcDbBlockEnd
  0
BLOCK
  5
1C
330
1B
100
AcDbEntity
 67
     1
  8
0
100
AcDbBlockBegin
  2
*Paper_Space
 70
     0
 10
0.0
 20
0.0
 30
0.0
  3
*Paper_Space
  1

  0
ENDBLK
  5
1D
330
1B
100
AcDbEntity
 67
     1
  8
0
100
AcDbBlockEnd
  0
BLOCK
  5
24
330
23
100
AcDbEntity
 67
     1
  8
0
100
AcDbBlockBegin
  2
*Paper_Space0
 70
     0
 10
0.0
 20
0.0
 30
0.0
  3
*Paper_Space0
  1

  0
ENDBLK
  5
25
330
23
100
AcDbEntity
 67
     1
  8
0
100
AcDbBlockEnd
  0
BLOCK
  5
6D
330
69
100
AcDbEntity
  8
0
100
AcDbBlockBegin
  2
_Open30
 70
     0
 10
0.0
 20
0.0
 30
0.0
  3
_Open30
  1

  0
LINE
  5
6A
330
69
100
AcDbEntity
  8
0
  6
ByBlock
 62
     0
370
    -2
100
AcDbLine
 10
-1.0
 20
0.26794919
 30
0.0
 11
0.0
 21
0.0
 31
0.0
  0
LINE
  5
6B
330
69
100
AcDbEntity
  8
0
  6
ByBlock
 62
     0
370
    -2
100
AcDbLine
 10
0.0
 20
0.0
 30
0.0
 11
-1.0
 21
-0.26794919
 31
0.0
  0
LINE
  5
6C
330
69
100
AcDbEntity
  8
0
  6
ByBlock
 62
     0
370
    -2
100
AcDbLine
 10
0.0
 20
0.0
 30
0.0
 11
-1.0
 21
0.0
 31
0.0
  0
ENDBLK
  5
6E
330
69
100
AcDbEntity
  8
0
100
AcDbBlockEnd
  0
BLOCK
  5
76
330
74
100
AcDbEntity
  8
0
100
AcDbBlockBegin
  2
GENAXEH
 70
     0
 10
0.0
 20
0.0
 30
0.0
  3
GENAXEH
  1

  0
LINE
  5
75
330
74
100
AcDbEntity
  8
0
100
AcDbLine
 10
-1.0
 20
0.0
 30
0.0
 11
1.0
 21
0.0
 31
0.0
  0
ENDBLK
  5
77
330
74
100
AcDbEntity
  8
0
100
AcDbBlockEnd
  0
BLOCK
  5
38BA
330
38B7
100
AcDbEntity
  8
0
100
AcDbBlockBegin
  2
ロッカクアナツキプラグ-1　R1／8
 70
     0
 10
0.0
 20
0.0
 30
0.0
  3
ロッカクアナツキプラグ-1　R1／8
  1

  0
CIRCLE
  5
4D42
330
38B7
100
AcDbEntity
  8
AM_0 外形線1
100
AcDbCircle
 10
0.0
 20
0.0
 30
0.0
 40
4.816232
  0
CIRCLE
  5
4D43
330
38B7
100
AcDbEntity
  8
AM_4 細線
100
AcDbCircle
 10
0.0
 20
0.0
 30
0.0
 40
5.271232
  0
LINE
  5
4D44
330
38B7
100
AcDbEntity
  8
AM_7 中心線
100
AcDbLine
 10
0.0
 20
6.71623199999999
 30
0.0
 11
0.0
 21
-6.71623199999999
 31
0.0
  0
LINE
  5
4D45
330
38B7
100
AcDbEntity
  8
AM_0 外形線1
100
AcDbLine
 10
2.178053999999974
 20
1.257499999999936
 30
0.0
 11
0.0
 21
2.514999999999985
 31
0.0
  0
LINE
  5
4D46
330
38B7
100
AcDbEntity
  8
AM_7 中心線
100
AcDbLine
 10
6.71623199999999
 20
0.0
 30
0.0
 11
-6.716232000000103
 21
0.0
 31
0.0
  0
LINE
  5
4D47
330
38B7
100
AcDbEntity
  8
AM_0 外形線1
100
AcDbLine
 10
0.0
 20
-2.5150000000001
 30
0.0
 11
2.178053999999974
 21
-1.257499999999936
 31
0.0
  0
LINE
  5
4D48
330
38B7
100
AcDbEntity
  8
AM_0 外形線1
100
AcDbLine
 10
0.0
 20
2.514999999999985
 30
0.0
 11
-2.178054000000088
 21
1.257499999999936
 31
0.0
  0
LINE
  5
4D49
330
38B7
100
AcDbEntity
  8
AM_0 外形線1
100
AcDbLine
 10
-2.178054000000088
 20
-1.257499999999936
 30
0.0
 11
0.0
 21
-2.5150000000001
 31
0.0
  0
LINE
  5
4D4A
330
38B7
100
AcDbEntity
  8
AM_0 外形線1
100
AcDbLine
 10
-2.178054000000088
 20
1.257499999999936
 30
0.0
 11
-2.178054000000088
 21
-1.257499999999936
 31
0.0
  0
LINE
  5
4D4B
330
38B7
100
AcDbEntity
  8
AM_0 外形線1
100
AcDbLine
 10
2.178053999999974
 20
-1.257499999999936
 30
0.0
 11
2.178053999999974
 21
1.257499999999936
 31
0.0
  0
ENDBLK
  5
38C5
330
38B7
100
AcDbEntity
  8
0
100
AcDbBlockEnd
  0
BLOCK
  5
3A4A
330
3A49
100
AcDbEntity
  8
0
100
AcDbBlockBegin
  2
GENDOT
 70
     0
 10
0.0
 20
0.0
 30
0.0
  3
GENDOT
  1

  0
LINE
  5
3A4B
330
3A49
100
AcDbEntity
  8
0
100
AcDbLine
 10
0.0
 20
0.0
 30
0.0
 11
-1.0
 21
0.0
 31
0.0
  0
LWPOLYLINE
  5
3A4C
330
3A49
100
AcDbEntity
  8
0
100
AcDbPolyline
 90
        2
 70
     1
 43
0.25
 10
-0.125
 20
0.0
 42
1.0
 10
0.125
 20
0.0
 42
1.0
  0
ENDBLK
  5
3A4D
330
3A49
100
AcDbEntity
  8
0
100
AcDbBlockEnd
  0
BLOCK
  5
3AEA
330
3AE9
100
AcDbEntity
  8
0
100
AcDbBlockBegin
  2
ロッカクアナツキプラグ-2　R1／8
 70
     0
 10
0.0
 20
0.0
 30
0.0
  3
ロッカクアナツキプラグ-2　R1／8
  1

  0
CIRCLE
  5
4D77
330
3AE9
100
AcDbEntity
  8
AM_0 外形線1
100
AcDbCircle
 10
0.0
 20
0.0
 30
0.0
 40
4.816232
  0
CIRCLE
  5
4D78
330
3AE9
100
AcDbEntity
  8
AM_4 細線
100
AcDbCircle
 10
0.0
 20
0.0
 30
0.0
 40
5.271232
  0
LINE
  5
4D79
330
3AE9
100
AcDbEntity
  8
AM_7 中心線
100
AcDbLine
 10
0.0
 20
-6.71623199999999
 30
0.0
 11
0.0
 21
6.71623199999999
 31
0.0
  0
LINE
  5
4D7A
330
3AE9
100
AcDbEntity
  8
AM_7 中心線
100
AcDbLine
 10
-6.716232000000218
 20
0.0
 30
0.0
 11
6.716231999999762
 21
0.0
 31
0.0
  0
LINE
  5
4D7B
330
3AE9
100
AcDbEntity
  8
AM_0 外形線1
100
AcDbLine
 10
-2.178053999999974
 20
1.257499999999936
 30
0.0
 11
0.0
 21
2.514999999999985
 31
0.0
  0
LINE
  5
4D7C
330
3AE9
100
AcDbEntity
  8
AM_0 外形線1
100
AcDbLine
 10
0.0
 20
2.514999999999985
 30
0.0
 11
2.178053999999974
 21
1.257499999999936
 31
0.0
  0
LINE
  5
4D7D
330
3AE9
100
AcDbEntity
  8
AM_0 外形線1
100
AcDbLine
 10
2.178053999999974
 20
-1.257499999999936
 30
0.0
 11
0.0
 21
-2.5150000000001
 31
0.0
  0
LINE
  5
4D7E
330
3AE9
100
AcDbEntity
  8
AM_0 外形線1
100
AcDbLine
 10
0.0
 20
-2.5150000000001
 30
0.0
 11
-2.178053999999974
 21
-1.257499999999936
 31
0.0
  0
LINE
  5
4D7F
330
3AE9
100
AcDbEntity
  8
AM_0 外形線1
100
AcDbLine
 10
2.178053999999974
 20
1.257499999999936
 30
0.0
 11
2.178053999999974
 21
-1.257499999999936
 31
0.0
  0
LINE
  5
4D80
330
3AE9
100
AcDbEntity
  8
AM_0 外形線1
100
AcDbLine
 10
-2.178053999999974
 20
-1.257499999999936
 30
0.0
 11
-2.178053999999974
 21
1.257499999999936
 31
0.0
  0
ENDBLK
  5
3AF5
330
3AE9
100
AcDbEntity
  8
0
100
AcDbBlockEnd
  0
BLOCK
  5
4E1A
330
4E19
100
AcDbEntity
  8
0
100
AcDbBlockBegin
  2
ケースＡ-1 SAM250
 70
     0
 10
0.0
 20
0.0
 30
0.0
  3
ケースＡ-1 SAM250
  1

  0
LINE
  5
4E1C
330
4E19
100
AcDbEntity
  8
AM_0 外形線1
100
AcDbLine
 10
74.0
 20
-96.0
 30
0.0
 11
74.0
 21
0.0
 31
0.0
  0
LINE
  5
4E1D
330
4E19
100
AcDbEntity
  8
AM_0 外形線1
100
AcDbLine
 10
15.0
 20
-124.0
 30
0.0
 11
15.0
 21
0.0
 31
0.0
  0
LINE
  5
4E1E
330
4E19
100
AcDbEntity
  8
AM_0 外形線1
100
AcDbLine
 10
0.0
 20
0.0
 30
0.0
 11
0.0
 21
-124.0
 31
0.0
  0
LINE
  5
4E1F
330
4E19
100
AcDbEntity
  8
AM_0 外形線1
100
AcDbLine
 10
19.0
 20
-100.0
 30
0.0
 11
70.0
 21
-100.0
 31
0.0
  0
ARC
  5
4E20
330
4E19
100
AcDbEntity
  8
AM_0 外形線1
100
AcDbCircle
 10
19.0
 20
-104.0
 30
0.0
 40
4.0
100
AcDbArc
 50
90.0
 51
180.0
  0
LINE
  5
4E21
330
4E19
100
AcDbEntity
  8
AM_0 外形線1
100
AcDbLine
 10
1.0
 20
-125.0
 30
0.0
 11
14.0
 21
-125.0
 31
0.0
  0
LINE
  5
4E22
330
4E19
100
AcDbEntity
  8
AM_0 外形線1
100
AcDbLine
 10
0.0
 20
-124.0
 30
0.0
 11
1.0
 21
-125.0
 31
0.0
  0
LINE
  5
4E23
330
4E19
100
AcDbEntity
  8
AM_0 外形線1
100
AcDbLine
 10
14.0
 20
-125.0
 30
0.0
 11
15.0
 21
-124.0
 31
0.0
  0
ARC
  5
4E24
330
4E19
100
AcDbEntity
  8
AM_0 外形線1
100
AcDbCircle
 10
70.0
 20
-96.0
 30
0.0
 40
4.0
100
AcDbArc
 50
270.0
 51
0.0
  0
LINE
  5
4E25
330
4E19
100
AcDbEntity
  8
AM_7 中心線
100
AcDbLine
 10
-27.0
 20
114.0
 30
0.0
 11
35.0
 21
114.0
 31
0.0
  0
LINE
  5
4E26
330
4E19
100
AcDbEntity
  8
AM_0 外形線1
100
AcDbLine
 10
25.0
 20
93.0
 30
0.0
 11
52.0
 21
93.0
 31
0.0
  0
LINE
  5
4E27
330
4E19
100
AcDbEntity
  8
AM_7 中心線
100
AcDbLine
 10
23.0
 20
90.0
 30
0.0
 11
54.0
 21
90.0
 31
0.0
  0
LINE
  5
4E28
330
4E19
100
AcDbEntity
  8
AM_3 隠れ線
100
AcDbLine
 10
28.0
 20
87.60000000000003
 30
0.0
 11
51.0
 21
87.60000000000003
 31
0.0
  0
LINE
  5
4E29
330
4E19
100
AcDbEntity
  8
AM_0 外形線1
100
AcDbLine
 10
19.0
 20
100.0
 30
0.0
 11
70.0
 21
100.0
 31
0.0
  0
LINE
  5
4E2A
330
4E19
100
AcDbEntity
  8
AM_0 外形線1
100
AcDbLine
 10
0.0
 20
102.4
 30
0.0
 11
0.0
 21
108.5
 31
0.0
  0
LINE
  5
4E2B
330
4E19
100
AcDbEntity
  8
AM_0 外形線1
100
AcDbLine
 10
15.0
 20
104.0
 30
0.0
 11
15.0
 21
124.0
 31
0.0
  0
LINE
  5
4E2C
330
4E19
100
AcDbEntity
  8
AM_0 外形線1
100
AcDbLine
 10
24.0
 20
93.49999999999999
 30
0.0
 11
-4.0
 21
93.49999999999999
 31
0.0
  0
LINE
  5
4E2E
330
4E19
100
AcDbEntity
  8
AM_0 外形線1
100
AcDbLine
 10
-4.0
 20
97.5
 30
0.0
 11
-3.5
 21
98.0
 31
0.0
  0
LINE
  5
4E30
330
4E19
100
AcDbEntity
  8
AM_0 外形線1
100
AcDbLine
 10
-4.0
 20
93.49999999999999
 30
0.0
 11
-4.0
 21
97.5
 31
0.0
  0
ARC
  5
4E31
330
4E19
100
AcDbEntity
  8
AM_0 外形線1
100
AcDbCircle
 10
2.199999999999931
 20
98.50000000000001
 30
0.0
 40
0.5
100
AcDbArc
 50
270.0
 51
0.0
  0
LINE
  5
4E32
330
4E19
100
AcDbEntity
  8
AM_0 外形線1
100
AcDbLine
 10
2.69999999999993
 20
98.50000000000001
 30
0.0
 11
2.69999999999993
 21
101.8999999999999
 31
0.0
  0
ARC
  5
4E33
330
4E19
100
AcDbEntity
  8
AM_0 外形線1
100
AcDbCircle
 10
2.199999999999931
 20
101.8999999999999
 30
0.0
 40
0.5
100
AcDbArc
 50
0.0
 51
90.0
  0
LINE
  5
4E34
330
4E19
100
AcDbEntity
  8
AM_0 外形線1
100
AcDbLine
 10
2.199999999999931
 20
102.4
 30
0.0
 11
0.0
 21
102.4
 31
0.0
  0
LINE
  5
4E35
330
4E19
100
AcDbEntity
  8
AM_0 外形線1
100
AcDbLine
 10
25.0
 20
88.60000000000002
 30
0.0
 11
25.0
 21
92.5
 31
0.0
  0
LINE
  5
4E36
330
4E19
100
AcDbEntity
  8
AM_0 外形線1
100
AcDbLine
 10
28.0
 20
87.60000000000003
 30
0.0
 11
26.0
 21
87.60000000000003
 31
0.0
  0
LINE
  5
4E37
330
4E19
100
AcDbEntity
  8
AM_0 外形線1
100
AcDbLine
 10
26.0
 20
87.60000000000003
 30
0.0
 11
25.0
 21
88.60000000000002
 31
0.0
  0
ARC
  5
4E38
330
4E19
100
AcDbEntity
  8
AM_0 外形線1
100
AcDbCircle
 10
19.0
 20
104.0
 30
0.0
 40
4.0
100
AcDbArc
 50
180.0
 51
270.0
  0
ARC
  5
4E39
330
4E19
100
AcDbEntity
  8
AM_0 外形線1
100
AcDbCircle
 10
24.0
 20
92.5
 30
0.0
 40
1.0
100
AcDbArc
 50
0.0
 51
90.0
  0
LINE
  5
4E3A
330
4E19
100
AcDbEntity
  8
AM_0 外形線1
100
AcDbLine
 10
1.0
 20
125.0
 30
0.0
 11
14.0
 21
125.0
 31
0.0
  0
LINE
  5
4E3D
330
4E19
100
AcDbEntity
  8
AM_0 外形線1
100
AcDbLine
 10
0.0
 20
119.5
 30
0.0
 11
0.0
 21
123.9999999999999
 31
0.0
  0
LINE
  5
4E3E
330
4E19
100
AcDbEntity
  8
AM_0 外形線1
100
AcDbLine
 10
0.0
 20
124.0
 30
0.0
 11
1.0
 21
125.0
 31
0.0
  0
LINE
  5
4E3F
330
4E19
100
AcDbEntity
  8
AM_0 外形線1
100
AcDbLine
 10
14.0
 20
125.0
 30
0.0
 11
15.0
 21
124.0
 31
0.0
  0
ARC
  5
4E40
330
4E19
100
AcDbEntity
  8
AM_0 外形線1
100
AcDbCircle
 10
57.0
 20
92.5
 30
0.0
 40
1.0
100
AcDbArc
 50
0.0
 51
90.0
  0
LINE
  5
4E41
330
4E19
100
AcDbEntity
  8
AM_3 隠れ線
100
AcDbLine
 10
52.0
 20
91.96067400000003
 30
0.0
 11
52.0
 21
88.60000000000002
 31
0.0
  0
LINE
  5
4E42
330
4E19
100
AcDbEntity
  8
AM_3 隠れ線
100
AcDbLine
 10
52.0
 20
88.60000000000002
 30
0.0
 11
51.0
 21
87.60000000000003
 31
0.0
  0
ARC
  5
4E43
330
4E19
100
AcDbEntity
  8
AM_0 外形線1
100
AcDbCircle
 10
53.0
 20
92.5
 30
0.0
 40
1.0
100
AcDbArc
 50
90.0
 51
180.0
  0
LINE
  5
4E44
330
4E19
100
AcDbEntity
  8
AM_0 外形線1
100
AcDbLine
 10
57.0
 20
93.49999999999999
 30
0.0
 11
53.0
 21
93.49999999999999
 31
0.0
  0
LINE
  5
4E45
330
4E19
100
AcDbEntity
  8
AM_0 外形線1
100
AcDbLine
 10
52.0
 20
91.96067400000003
 30
0.0
 11
52.0
 21
92.5
 31
0.0
  0
ARC
  5
4E46
330
4E19
100
AcDbEntity
  8
AM_0 外形線1
100
AcDbCircle
 10
71.10000000000002
 20
88.95000000000003
 30
0.0
 40
0.5
100
AcDbArc
 50
0.0
 51
90.0
  0
ARC
  5
4E47
330
4E19
100
AcDbEntity
  8
AM_0 外形線1
100
AcDbCircle
 10
60.89999999999998
 20
88.95000000000003
 30
0.0
 40
0.5
100
AcDbArc
 50
90.0
 51
180.0
  0
LINE
  5
4E48
330
4E19
100
AcDbEntity
  8
AM_0 外形線1
100
AcDbLine
 10
74.0
 20
96.0
 30
0.0
 11
74.0
 21
84.0
 31
0.0
  0
LINE
  5
4E49
330
4E19
100
AcDbEntity
  8
AM_0 外形線1
100
AcDbLine
 10
58.0
 20
84.0
 30
0.0
 11
58.0
 21
92.5
 31
0.0
  0
LINE
  5
4E4A
330
4E19
100
AcDbEntity
  8
AM_0 外形線1
100
AcDbLine
 10
60.39999999999999
 20
84.0
 30
0.0
 11
60.39999999999999
 21
82.5
 31
0.0
  0
LINE
  5
4E4B
330
4E19
100
AcDbEntity
  8
AM_0 外形線1
100
AcDbLine
 10
58.0
 20
84.0
 30
0.0
 11
58.0
 21
82.5
 31
0.0
  0
LINE
  5
4E4C
330
4E19
100
AcDbEntity
  8
AM_0 外形線1
100
AcDbLine
 10
60.39999999999999
 20
88.95000000000003
 30
0.0
 11
60.39999999999999
 21
84.0
 31
0.0
  0
LINE
  5
4E4D
330
4E19
100
AcDbEntity
  8
AM_0 外形線1
100
AcDbLine
 10
60.39999999999999
 20
84.0
 30
0.0
 11
58.0
 21
84.0
 31
0.0
  0
LINE
  5
4E4E
330
4E19
100
AcDbEntity
  8
AM_0 外形線1
100
AcDbLine
 10
71.60000000000002
 20
84.0
 30
0.0
 11
71.60000000000002
 21
82.5
 31
0.0
  0
LINE
  5
4E4F
330
4E19
100
AcDbEntity
  8
AM_0 外形線1
100
AcDbLine
 10
74.0
 20
84.0
 30
0.0
 11
74.0
 21
82.5
 31
0.0
  0
LINE
  5
4E50
330
4E19
100
AcDbEntity
  8
AM_0 外形線1
100
AcDbLine
 10
74.0
 20
84.0
 30
0.0
 11
71.60000000000002
 21
84.0
 31
0.0
  0
LINE
  5
4E51
330
4E19
100
AcDbEntity
  8
AM_0 外形線1
100
AcDbLine
 10
71.60000000000002
 20
84.0
 30
0.0
 11
71.60000000000002
 21
88.95000000000003
 31
0.0
  0
ARC
  5
4E52
330
4E19
100
AcDbEntity
  8
AM_0 外形線1
100
AcDbCircle
 10
70.0
 20
96.0
 30
0.0
 40
4.0
100
AcDbArc
 50
0.0
 51
90.0
  0
LINE
  5
4E53
330
4E19
100
AcDbEntity
  8
AM_0 外形線1
100
AcDbLine
 10
71.10000000000002
 20
89.45000000000003
 30
0.0
 11
60.89999999999998
 21
89.45000000000003
 31
0.0
  0
ELLIPSE
  5
4E54
330
4E19
100
AcDbEntity
  8
AM_0 外形線1
100
AcDbEllipse
 10
1.350000000000022
 20
100.2
 30
0.0
 11
0.0
 21
2.199999999999931
 31
0.0
210
0.0
220
0.0
230
1.0
 40
0.6136363636363413
 41
0.0
 42
6.283185307179585
  0
ELLIPSE
  5
4E55
330
4E19
100
AcDbEntity
  8
AM_0 外形線1
100
AcDbEllipse
 10
66.0
 20
85.97499999999991
 30
0.0
 11
-5.600000000000021
 21
0.0
 31
0.0
210
0.0
220
0.0
230
1.0
 40
0.6205357142857361
 41
0.0
 42
6.283185307179585
  0
INSERT
  5
4E56
330
4E19
100
AcDbEntity
  8
AM_0 外形線1
100
AcDbBlockReference
  2
ロッカクアナツキプラグ-1　R1／8
 10
7.5
 20
-29.50537099999997
 30
0.0
  0
LINE
  5
4EDA
330
4E19
100
AcDbEntity
  8
AM_0 外形線1
100
AcDbLine
 10
-3.5
 20
98.0
 30
0.0
 11
2.199999999999931
 21
98.0
 31
0.0
  0
LINE
  5
4EDB
330
4E19
100
AcDbEntity
  8
AM_0 外形線1
100
AcDbLine
 10
0.0
 20
108.5
 30
0.0
 11
15.0
 21
108.5
 31
0.0
  0
LINE
  5
4EDC
330
4E19
100
AcDbEntity
  8
AM_0 外形線1
100
AcDbLine
 10
0.0
 20
119.5
 30
0.0
 11
15.0
 21
119.5
 31
0.0
  0
ENDBLK
  5
4E1B
330
4E19
100
AcDbEntity
  8
0
100
AcDbBlockEnd
  0
BLOCK
  5
4F5F
330
4F5E
100
AcDbEntity
  8
0
100
AcDbBlockBegin
  2
ケースＡ-2 SAM250
 70
     0
 10
0.0
 20
0.0
 30
0.0
  3
ケースＡ-2 SAM250
  1

  0
LINE
  5
4F61
330
4F5E
100
AcDbEntity
  8
AM_0 外形線1
100
AcDbLine
 10
-19.0
 20
-100.0
 30
0.0
 11
-70.0
 21
-100.0
 31
0.0
  0
LINE
  5
4F62
330
4F5E
100
AcDbEntity
  8
AM_0 外形線1
100
AcDbLine
 10
-74.0
 20
-96.0
 30
0.0
 11
-74.0
 21
0.0
 31
0.0
  0
ARC
  5
4F63
330
4F5E
100
AcDbEntity
  8
AM_0 外形線1
100
AcDbCircle
 10
-70.0
 20
-96.0
 30
0.0
 40
4.0
100
AcDbArc
 50
180.0
 51
270.0
  0
LINE
  5
4F64
330
4F5E
100
AcDbEntity
  8
AM_0 外形線1
100
AcDbLine
 10
0.0
 20
0.0
 30
0.0
 11
0.0
 21
-124.0
 31
0.0
  0
LINE
  5
4F65
330
4F5E
100
AcDbEntity
  8
AM_0 外形線1
100
AcDbLine
 10
-15.0
 20
-124.0
 30
0.0
 11
-15.0
 21
0.0
 31
0.0
  0
ARC
  5
4F66
330
4F5E
100
AcDbEntity
  8
AM_0 外形線1
100
AcDbCircle
 10
-19.0
 20
-104.0
 30
0.0
 40
4.0
100
AcDbArc
 50
0.0
 51
90.0
  0
LINE
  5
4F67
330
4F5E
100
AcDbEntity
  8
AM_0 外形線1
100
AcDbLine
 10
-1.0
 20
-125.0
 30
0.0
 11
-14.0
 21
-125.0
 31
0.0
  0
LINE
  5
4F68
330
4F5E
100
AcDbEntity
  8
AM_0 外形線1
100
AcDbLine
 10
-14.0
 20
-125.0
 30
0.0
 11
-15.0
 21
-124.0
 31
0.0
  0
LINE
  5
4F69
330
4F5E
100
AcDbEntity
  8
AM_0 外形線1
100
AcDbLine
 10
0.0
 20
-124.0
 30
0.0
 11
-1.0
 21
-125.0
 31
0.0
  0
ARC
  5
4F6A
330
4F5E
100
AcDbEntity
  8
AM_0 外形線1
100
AcDbCircle
 10
-24.0
 20
92.5
 30
0.0
 40
1.0
100
AcDbArc
 50
90.0
 51
180.0
  0
LINE
  5
4F6B
330
4F5E
100
AcDbEntity
  8
AM_7 中心線
100
AcDbLine
 10
-23.0
 20
90.0
 30
0.0
 11
-54.0
 21
90.0
 31
0.0
  0
LINE
  5
4F6C
330
4F5E
100
AcDbEntity
  8
AM_0 外形線1
100
AcDbLine
 10
-19.0
 20
100.0
 30
0.0
 11
-70.0
 21
100.0
 31
0.0
  0
LINE
  5
4F6D
330
4F5E
100
AcDbEntity
  8
AM_0 外形線1
100
AcDbLine
 10
-74.0
 20
84.0
 30
0.0
 11
-71.60000000000014
 21
84.0
 31
0.0
  0
ARC
  5
4F6E
330
4F5E
100
AcDbEntity
  8
AM_0 外形線1
100
AcDbCircle
 10
-70.0
 20
96.0
 30
0.0
 40
4.0
100
AcDbArc
 50
90.0
 51
180.0
  0
LINE
  5
4F6F
330
4F5E
100
AcDbEntity
  8
AM_0 外形線1
100
AcDbLine
 10
-74.0
 20
96.0
 30
0.0
 11
-74.0
 21
84.0
 31
0.0
  0
LINE
  5
4F70
330
4F5E
100
AcDbEntity
  8
AM_0 外形線1
100
AcDbLine
 10
-74.0
 20
84.0
 30
0.0
 11
-74.0
 21
82.5
 31
0.0
  0
LINE
  5
4F71
330
4F5E
100
AcDbEntity
  8
AM_0 外形線1
100
AcDbLine
 10
-25.0
 20
93.0
 30
0.0
 11
-52.0
 21
93.0
 31
0.0
  0
LINE
  5
4F72
330
4F5E
100
AcDbEntity
  8
AM_3 隠れ線
100
AcDbLine
 10
-28.0
 20
87.60000000000003
 30
0.0
 11
-51.0
 21
87.60000000000003
 31
0.0
  0
LINE
  5
4F73
330
4F5E
100
AcDbEntity
  8
AM_3 隠れ線
100
AcDbLine
 10
-52.0
 20
91.96067400000003
 30
0.0
 11
-52.0
 21
88.60000000000002
 31
0.0
  0
ARC
  5
4F74
330
4F5E
100
AcDbEntity
  8
AM_0 外形線1
100
AcDbCircle
 10
-60.9000000000001
 20
88.95000000000003
 30
0.0
 40
0.5
100
AcDbArc
 50
0.0
 51
90.0
  0
ARC
  5
4F75
330
4F5E
100
AcDbEntity
  8
AM_0 外形線1
100
AcDbCircle
 10
-71.10000000000012
 20
88.95000000000003
 30
0.0
 40
0.5
100
AcDbArc
 50
90.0
 51
180.0
  0
LWPOLYLINE
  5
4F76
330
4F5E
100
AcDbEntity
  8
AM_0 外形線1
100
AcDbPolyline
 90
       73
 70
     0
 43
0.0
 10
-60.40000000000009
 20
85.97500000000001
 10
-60.42131000000019
 20
86.27786600000002
 10
-60.48507700000027
 20
86.57842699999992
 10
-60.59081500000002
 20
86.87439600000002
 10
-60.73772099999996
 20
87.16352000000004
 10
-60.92467600000009
 20
87.44359799999996
 10
-61.15025800000012
 20
87.71249999999998
 10
-61.41274900000007
 20
87.96817800000008
 10
-61.71015100000023
 20
88.20868700000003
 10
-62.04020200000013
 20
88.43219599999995
 10
-62.40038900000013
 20
88.63700400000004
 10
-62.78797200000007
 20
88.82155299999999
 10
-63.20000000000028
 20
88.98443799999997
 10
-63.6333380000001
 20
89.12441899999997
 10
-64.08468700000003
 20
89.24043200000005
 10
-64.5506130000001
 20
89.331592
 10
-65.0275700000002
 20
89.39720700000009
 10
-65.51192800000014
 20
89.43677599999999
 10
-66.0
 20
89.45000000000003
 10
-66.4880720000001
 20
89.43677599999999
 10
-66.97243000000026
 20
89.39720700000009
 10
-67.44938700000012
 20
89.331592
 10
-67.91531299999997
 20
89.24043200000005
 10
-68.36666200000014
 20
89.12441899999997
 10
-68.80000000000018
 20
88.98443799999997
 10
-69.21202800000014
 20
88.82155299999999
 10
-69.59961100000009
 20
88.63700400000004
 10
-69.95979800000032
 20
88.43219599999995
 10
-70.28984900000023
 20
88.20868700000003
 10
-70.58725200000026
 20
87.96817800000008
 10
-70.84974200000011
 20
87.71249999999998
 10
-71.07532400000014
 20
87.44359799999996
 10
-71.26227900000003
 20
87.16352000000004
 10
-71.40918499999997
 20
86.87439600000002
 10
-71.51492400000006
 20
86.57842699999992
 10
-71.57869000000028
 20
86.27786600000002
 10
-71.60000000000014
 20
85.97500000000001
 10
-71.57869000000028
 20
85.67213400000003
 10
-71.51492400000006
 20
85.37157200000001
 10
-71.40918499999997
 20
85.075604
 10
-71.26227900000003
 20
84.78647999999997
 10
-71.07532400000014
 20
84.50640099999999
 10
-70.84974200000011
 20
84.23749999999996
 10
-70.58725200000026
 20
83.98182199999997
 10
-70.28984900000023
 20
83.741313
 10
-69.95979800000032
 20
83.51780400000007
 10
-69.59961100000009
 20
83.312995
 10
-69.21202800000014
 20
83.12844600000005
 10
-68.80000000000018
 20
82.96556199999997
 10
-68.36666200000014
 20
82.82557999999992
 10
-67.91531299999997
 20
82.70956799999998
 10
-67.44938700000012
 20
82.61840800000005
 10
-66.97243000000026
 20
82.55279299999996
 10
-66.4880720000001
 20
82.51322299999992
 10
-66.0
 20
82.5
 10
-65.51192800000014
 20
82.51322299999992
 10
-65.0275700000002
 20
82.55279299999996
 10
-64.5506130000001
 20
82.61840800000005
 10
-64.08468700000003
 20
82.70956799999998
 10
-63.6333380000001
 20
82.82557999999992
 10
-63.20000000000028
 20
82.96556199999997
 10
-62.78797200000007
 20
83.12844600000005
 10
-62.40038900000013
 20
83.312995
 10
-62.04020200000013
 20
83.51780400000007
 10
-61.71015100000023
 20
83.741313
 10
-61.41274900000007
 20
83.98182199999997
 10
-61.15025800000012
 20
84.23749999999996
 10
-60.92467600000009
 20
84.50640099999999
 10
-60.73772099999996
 20
84.78647999999997
 10
-60.59081500000002
 20
85.075604
 10
-60.48507700000027
 20
85.37157200000001
 10
-60.42131000000019
 20
85.67213400000003
 10
-60.40000000000009
 20
85.97500000000001
  0
LINE
  5
4F77
330
4F5E
100
AcDbEntity
  8
AM_0 外形線1
100
AcDbLine
 10
-58.0
 20
84.0
 30
0.0
 11
-58.0
 21
92.5
 31
0.0
  0
LINE
  5
4F78
330
4F5E
100
AcDbEntity
  8
AM_0 外形線1
100
AcDbLine
 10
-71.60000000000014
 20
84.0
 30
0.0
 11
-71.60000000000014
 21
82.5
 31
0.0
  0
LINE
  5
4F79
330
4F5E
100
AcDbEntity
  8
AM_0 外形線1
100
AcDbLine
 10
-71.60000000000014
 20
84.0
 30
0.0
 11
-71.60000000000014
 21
88.95000000000003
 31
0.0
  0
LINE
  5
4F7A
330
4F5E
100
AcDbEntity
  8
AM_0 外形線1
100
AcDbLine
 10
-60.40000000000009
 20
84.0
 30
0.0
 11
-60.40000000000009
 21
82.5
 31
0.0
  0
LINE
  5
4F7B
330
4F5E
100
AcDbEntity
  8
AM_0 外形線1
100
AcDbLine
 10
-58.0
 20
84.0
 30
0.0
 11
-58.0
 21
82.5
 31
0.0
  0
LINE
  5
4F7C
330
4F5E
100
AcDbEntity
  8
AM_0 外形線1
100
AcDbLine
 10
-60.40000000000009
 20
88.95000000000003
 30
0.0
 11
-60.40000000000009
 21
84.0
 31
0.0
  0
LINE
  5
4F7D
330
4F5E
100
AcDbEntity
  8
AM_0 外形線1
100
AcDbLine
 10
-60.40000000000009
 20
84.0
 30
0.0
 11
-58.0
 21
84.0
 31
0.0
  0
LINE
  5
4F7E
330
4F5E
100
AcDbEntity
  8
AM_3 隠れ線
100
AcDbLine
 10
-52.0
 20
88.60000000000002
 30
0.0
 11
-51.0
 21
87.60000000000003
 31
0.0
  0
LINE
  5
4F7F
330
4F5E
100
AcDbEntity
  8
AM_0 外形線1
100
AcDbLine
 10
-71.10000000000012
 20
89.45000000000003
 30
0.0
 11
-60.9000000000001
 21
89.45000000000003
 31
0.0
  0
ARC
  5
4F80
330
4F5E
100
AcDbEntity
  8
AM_0 外形線1
100
AcDbCircle
 10
-53.0
 20
92.5
 30
0.0
 40
1.0
100
AcDbArc
 50
0.0
 51
90.0
  0
ARC
  5
4F81
330
4F5E
100
AcDbEntity
  8
AM_0 外形線1
100
AcDbCircle
 10
-57.0
 20
92.5
 30
0.0
 40
1.0
100
AcDbArc
 50
90.0
 51
180.0
  0
LINE
  5
4F82
330
4F5E
100
AcDbEntity
  8
AM_0 外形線1
100
AcDbLine
 10
-57.0
 20
93.49999999999999
 30
0.0
 11
-53.0
 21
93.49999999999999
 31
0.0
  0
LINE
  5
4F83
330
4F5E
100
AcDbEntity
  8
AM_0 外形線1
100
AcDbLine
 10
-52.0
 20
91.96067400000003
 30
0.0
 11
-52.0
 21
92.5
 31
0.0
  0
LINE
  5
4F84
330
4F5E
100
AcDbEntity
  8
AM_0 外形線1
100
AcDbLine
 10
-25.0
 20
88.60000000000002
 30
0.0
 11
-25.0
 21
92.5
 31
0.0
  0
LINE
  5
4F85
330
4F5E
100
AcDbEntity
  8
AM_0 外形線1
100
AcDbLine
 10
-26.0
 20
87.60000000000003
 30
0.0
 11
-25.0
 21
88.60000000000002
 31
0.0
  0
LINE
  5
4F86
330
4F5E
100
AcDbEntity
  8
AM_0 外形線1
100
AcDbLine
 10
-28.0
 20
87.60000000000003
 30
0.0
 11
-26.0
 21
87.60000000000003
 31
0.0
  0
LINE
  5
4F87
330
4F5E
100
AcDbEntity
  8
AM_0 外形線1
100
AcDbLine
 10
0.0
 20
102.4
 30
0.0
 11
0.0
 21
108.5
 31
0.0
  0
LINE
  5
4F88
330
4F5E
100
AcDbEntity
  8
AM_0 外形線1
100
AcDbLine
 10
-15.0
 20
104.0
 30
0.0
 11
-15.0
 21
124.0
 31
0.0
  0
LINE
  5
4F89
330
4F5E
100
AcDbEntity
  8
AM_0 外形線1
100
AcDbLine
 10
-2.200000000000271
 20
98.0
 30
0.0
 11
3.5
 21
98.0
 31
0.0
  0
LINE
  5
4F8A
330
4F5E
100
AcDbEntity
  8
AM_0 外形線1
100
AcDbLine
 10
-24.0
 20
93.49999999999999
 30
0.0
 11
4.0
 21
93.49999999999999
 31
0.0
  0
ARC
  5
4F8B
330
4F5E
100
AcDbEntity
  8
AM_0 外形線1
100
AcDbCircle
 10
-19.0
 20
104.0
 30
0.0
 40
4.0
100
AcDbArc
 50
270.0
 51
0.0
  0
ARC
  5
4F8C
330
4F5E
100
AcDbEntity
  8
AM_0 外形線1
100
AcDbCircle
 10
-2.200000000000271
 20
98.50000000000001
 30
0.0
 40
0.5
100
AcDbArc
 50
180.0
 51
270.0
  0
LINE
  5
4F8D
330
4F5E
100
AcDbEntity
  8
AM_0 外形線1
100
AcDbLine
 10
-2.700000000000271
 20
98.50000000000001
 30
0.0
 11
-2.700000000000271
 21
101.8999999999999
 31
0.0
  0
ARC
  5
4F8E
330
4F5E
100
AcDbEntity
  8
AM_0 外形線1
100
AcDbCircle
 10
-2.200000000000271
 20
101.8999999999999
 30
0.0
 40
0.5
100
AcDbArc
 50
90.0
 51
180.0
  0
LINE
  5
4F8F
330
4F5E
100
AcDbEntity
  8
AM_0 外形線1
100
AcDbLine
 10
-2.200000000000271
 20
102.4
 30
0.0
 11
0.0
 21
102.4
 31
0.0
  0
LWPOLYLINE
  5
4F90
330
4F5E
100
AcDbEntity
  8
AM_0 外形線1
100
AcDbPolyline
 90
       73
 70
     0
 43
0.0
 10
-1.350000000000135
 20
98.0
 10
-1.232340000000021
 20
98.00837100000002
 10
-1.115575000000261
 20
98.03342299999997
 10
-1.00059400000009
 20
98.07496300000003
 10
-0.8882730000000265
 20
98.13267599999996
 10
-0.7794650000000729
 20
98.20612299999993
 10
-0.6750000000001819
 20
98.29474399999993
 10
-0.575672000000168
 20
98.39786499999993
 10
-0.4822370000001685
 20
98.51470199999994
 10
-0.3954060000000936
 20
98.64436500000001
 10
-0.3158400000002075
 20
98.78586700000006
 10
-0.2441450000001168
 20
98.938132
 10
-0.1808660000001509
 20
99.10000000000003
 10
-0.1264850000002298
 20
99.27023999999995
 10
-0.0814150000001064
 20
99.44755499999997
 10
-0.0460000000002765
 20
99.63059799999996
 10
-0.0205100000000584
 20
99.81797400000004
 10
-0.0051370000001043
 20
100.008257
 10
0.0
 20
100.2
 10
-0.0051370000001043
 20
100.391742
 10
-0.0205100000000584
 20
100.582026
 10
-0.0460000000002765
 20
100.769402
 10
-0.0814150000001064
 20
100.9524439999999
 10
-0.1264850000002298
 20
101.1297599999999
 10
-0.1808660000001509
 20
101.2999999999999
 10
-0.2441450000001168
 20
101.461868
 10
-0.3158400000002075
 20
101.614133
 10
-0.3954060000000936
 20
101.7556349999999
 10
-0.4822370000001685
 20
101.8852979999999
 10
-0.575672000000168
 20
102.0021339999999
 10
-0.6750000000001819
 20
102.1052559999999
 10
-0.7794650000000729
 20
102.1938769999999
 10
-0.8882730000000265
 20
102.267324
 10
-1.00059400000009
 20
102.325037
 10
-1.115575000000261
 20
102.366577
 10
-1.232340000000021
 20
102.3916280000001
 10
-1.350000000000135
 20
102.4
 10
-1.467660000000249
 20
102.3916280000001
 10
-1.58442500000001
 20
102.366577
 10
-1.69940600000018
 20
102.325037
 10
-1.811727000000245
 20
102.267324
 10
-1.920535000000199
 20
102.1938769999999
 10
-2.02500000000009
 20
102.1052559999999
 10
-2.124328000000331
 20
102.0021339999999
 10
-2.217763000000104
 20
101.8852979999999
 10
-2.304594000000179
 20
101.7556349999999
 10
-2.384160000000064
 20
101.614133
 10
-2.455855000000154
 20
101.461868
 10
-2.51913400000012
 20
101.2999999999999
 10
-2.573516000000154
 20
101.1297599999999
 10
-2.618585000000166
 20
100.9524439999999
 10
-2.653999999999995
 20
100.769402
 10
-2.679491000000098
 20
100.582026
 10
-2.694863000000168
 20
100.391742
 10
-2.700000000000271
 20
100.2
 10
-2.694863000000168
 20
100.008257
 10
-2.679491000000098
 20
99.81797400000004
 10
-2.653999999999995
 20
99.63059799999996
 10
-2.618585000000166
 20
99.44755499999997
 10
-2.573516000000154
 20
99.27023999999995
 10
-2.51913400000012
 20
99.10000000000003
 10
-2.455855000000154
 20
98.938132
 10
-2.384160000000064
 20
98.78586700000006
 10
-2.304594000000179
 20
98.64436500000001
 10
-2.217763000000104
 20
98.51470199999994
 10
-2.124328000000331
 20
98.39786499999993
 10
-2.02500000000009
 20
98.29474399999993
 10
-1.920535000000199
 20
98.20612299999993
 10
-1.811727000000245
 20
98.13267599999996
 10
-1.69940600000018
 20
98.07496300000003
 10
-1.58442500000001
 20
98.03342299999997
 10
-1.467660000000249
 20
98.00837100000002
 10
-1.350000000000135
 20
98.0
  0
LINE
  5
4F92
330
4F5E
100
AcDbEntity
  8
AM_0 外形線1
100
AcDbLine
 10
4.0
 20
93.49999999999999
 30
0.0
 11
4.0
 21
97.5
 31
0.0
  0
LINE
  5
4F93
330
4F5E
100
AcDbEntity
  8
AM_0 外形線1
100
AcDbLine
 10
4.0
 20
97.5
 30
0.0
 11
3.5
 21
98.0
 31
0.0
  0
LINE
  5
4F94
330
4F5E
100
AcDbEntity
  8
AM_0 外形線1
100
AcDbLine
 10
-15.0
 20
119.5
 30
0.0
 11
0.0
 21
119.5
 31
0.0
  0
LINE
  5
4F95
330
4F5E
100
AcDbEntity
  8
AM_0 外形線1
100
AcDbLine
 10
-15.0
 20
108.5
 30
0.0
 11
-0.0000000000000568
 21
108.5
 31
0.0
  0
LINE
  5
4F96
330
4F5E
100
AcDbEntity
  8
AM_0 外形線1
100
AcDbLine
 10
0.0
 20
119.5
 30
0.0
 11
0.0
 21
123.9999999999999
 31
0.0
  0
LINE
  5
4F97
330
4F5E
100
AcDbEntity
  8
AM_0 外形線1
100
AcDbLine
 10
-1.0
 20
125.0
 30
0.0
 11
-14.0
 21
125.0
 31
0.0
  0
LINE
  5
4F98
330
4F5E
100
AcDbEntity
  8
AM_0 外形線1
100
AcDbLine
 10
-14.0
 20
125.0
 30
0.0
 11
-15.0
 21
124.0
 31
0.0
  0
LINE
  5
4F99
330
4F5E
100
AcDbEntity
  8
AM_0 外形線1
100
AcDbLine
 10
0.0
 20
124.0
 30
0.0
 11
-1.0
 21
125.0
 31
0.0
  0
INSERT
  5
4F9A
330
4F5E
100
AcDbEntity
  8
AM_0 外形線1
100
AcDbBlockReference
  2
ロッカクアナツキプラグ-2　R1／8
 10
-7.5
 20
-29.50537099999997
 30
0.0
  0
LINE
  5
501D
330
4F5E
100
AcDbEntity
  8
AM_7 中心線
100
AcDbLine
 10
27.0
 20
114.0
 30
0.0
 11
-35.0
 21
114.0
 31
0.0
  0
ENDBLK
  5
4F60
330
4F5E
100
AcDbEntity
  8
0
100
AcDbBlockEnd
  0
BLOCK
  5
5072
330
5071
100
AcDbEntity
  8
0
100
AcDbBlockBegin
  2
センタ-1 SAM250
 70
     0
 10
0.0
 20
0.0
 30
0.0
  3
センタ-1 SAM250
  1

  0
LINE
  5
5074
330
5071
100
AcDbEntity
  8
AM_0 外形線1
100
AcDbLine
 10
125.0
 20
0.0
 30
0.0
 11
125.0
 21
77.70000000000004
 31
0.0
  0
LINE
  5
5075
330
5071
100
AcDbEntity
  8
AM_0 外形線1
100
AcDbLine
 10
0.0
 20
81.0
 30
0.0
 11
0.0
 21
0.0
 31
0.0
  0
ARC
  5
5076
330
5071
100
AcDbEntity
  8
AM_0 外形線1
100
AcDbCircle
 10
121.0
 20
-77.70000000000004
 30
0.0
 40
4.0
100
AcDbArc
 50
270.0
 51
0.0
  0
LINE
  5
5077
330
5071
100
AcDbEntity
  8
AM_0 外形線1
100
AcDbLine
 10
81.0
 20
-81.70000000000005
 30
0.0
 11
81.0
 21
0.0
 31
0.0
  0
LINE
  5
5078
330
5071
100
AcDbEntity
  8
AM_0 外形線1
100
AcDbLine
 10
79.0
 20
-82.5
 30
0.0
 11
79.0
 21
0.0
 31
0.0
  0
LINE
  5
5079
330
5071
100
AcDbEntity
  8
AM_0 外形線1
100
AcDbLine
 10
125.0
 20
-77.70000000000004
 30
0.0
 11
125.0
 21
0.0
 31
0.0
  0
LINE
  5
507A
330
5071
100
AcDbEntity
  8
AM_0 外形線1
100
AcDbLine
 10
68.0
 20
-82.5
 30
0.0
 11
79.0
 21
-82.5
 31
0.0
  0
LINE
  5
507B
330
5071
100
AcDbEntity
  8
AM_0 外形線1
100
AcDbLine
 10
81.0
 20
-81.70000000000005
 30
0.0
 11
121.0
 21
-81.70000000000005
 31
0.0
  0
LINE
  5
507C
330
5071
100
AcDbEntity
  8
AM_0 外形線1
100
AcDbLine
 10
79.0
 20
-82.5
 30
0.0
 11
81.0
 21
-81.70000000000005
 31
0.0
  0
LINE
  5
507E
330
5071
100
AcDbEntity
  8
AM_0 外形線1
100
AcDbLine
 10
0.0
 20
53.18834466663918
 30
0.0
 11
125.0
 21
53.18834466663929
 31
0.0
  0
LINE
  5
507F
330
5071
100
AcDbEntity
  8
AM_3 隠れ線
100
AcDbLine
 10
0.0
 20
4.25
 30
0.0
 11
29.0
 21
4.25
 31
0.0
  0
LINE
  5
5080
330
5071
100
AcDbEntity
  8
AM_3 隠れ線
100
AcDbLine
 10
24.43301299999996
 20
4.25
 30
0.0
 11
24.43301299999996
 21
0.0
 31
0.0
  0
LINE
  5
5081
330
5071
100
AcDbEntity
  8
AM_3 隠れ線
100
AcDbLine
 10
24.0
 20
5.0
 30
0.0
 11
24.0
 21
0.0
 31
0.0
  0
LINE
  5
5082
330
5071
100
AcDbEntity
  8
AM_3 隠れ線
100
AcDbLine
 10
0.0
 20
5.0
 30
0.0
 11
24.0
 21
5.0
 31
0.0
  0
LINE
  5
5083
330
5071
100
AcDbEntity
  8
AM_3 隠れ線
100
AcDbLine
 10
24.0
 20
5.0
 30
0.0
 11
24.43301299999996
 21
4.25
 31
0.0
  0
LINE
  5
5084
330
5071
100
AcDbEntity
  8
AM_3 隠れ線
100
AcDbLine
 10
29.0
 20
4.25
 30
0.0
 11
31.45373899999993
 21
0.0
 31
0.0
  0
LINE
  5
5085
330
5071
100
AcDbEntity
  8
AM_3 隠れ線
100
AcDbLine
 10
29.0
 20
4.25
 30
0.0
 11
29.0
 21
0.0
 31
0.0
  0
ARC
  5
5088
330
5071
100
AcDbEntity
  8
AM_0 外形線1
100
AcDbCircle
 10
121.0
 20
77.70000000000004
 30
0.0
 40
4.0
100
AcDbArc
 50
0.0
 51
90.0
  0
ARC
  5
5089
330
5071
100
AcDbEntity
  8
AM_0 外形線1
100
AcDbCircle
 10
33.0
 20
0.0
 30
0.0
 40
92.87499999999999
100
AcDbArc
 50
81.33017300000679
 51
96.18111099999694
  0
LINE
  5
508C
330
5071
100
AcDbEntity
  8
AM_0 外形線1
100
AcDbLine
 10
21.5
 20
82.0
 30
0.0
 11
1.0
 21
82.0
 31
0.0
  0
LINE
  5
508D
330
5071
100
AcDbEntity
  8
AM_0 外形線1
100
AcDbLine
 10
1.0
 20
82.0
 30
0.0
 11
0.0
 21
81.0
 31
0.0
  0
LINE
  5
508E
330
5071
100
AcDbEntity
  8
AM_0 外形線1
100
AcDbLine
 10
22.0
 20
91.22128600000008
 30
0.0
 11
22.0
 21
82.5
 31
0.0
  0
ARC
  5
508F
330
5071
100
AcDbEntity
  8
AM_0 外形線1
100
AcDbCircle
 10
21.5
 20
82.5
 30
0.0
 40
0.5
100
AcDbArc
 50
270.0
 51
0.0
  0
LINE
  5
5090
330
5071
100
AcDbEntity
  8
AM_0 外形線1
100
AcDbLine
 10
23.0
 20
92.33507199999996
 30
0.0
 11
22.0
 21
91.22128600000008
 31
0.0
  0
LINE
  5
5091
330
5071
100
AcDbEntity
  8
AM_0 外形線1
100
AcDbLine
 10
79.0
 20
82.5
 30
0.0
 11
48.5
 21
82.5
 31
0.0
  0
LINE
  5
5092
330
5071
100
AcDbEntity
  8
AM_0 外形線1
100
AcDbLine
 10
48.0
 20
83.0
 30
0.0
 11
48.0
 21
90.65568999999994
 31
0.0
  0
LINE
  5
5093
330
5071
100
AcDbEntity
  8
AM_7 中心線
100
AcDbLine
 10
33.0
 20
97.87500000000001
 30
0.0
 11
33.0
 21
81.70000000000005
 31
0.0
  0
ARC
  5
5094
330
5071
100
AcDbEntity
  8
AM_0 外形線1
100
AcDbCircle
 10
48.5
 20
83.0
 30
0.0
 40
0.5
100
AcDbArc
 50
180.0
 51
270.0
  0
LINE
  5
5095
330
5071
100
AcDbEntity
  8
AM_0 外形線1
100
AcDbLine
 10
48.0
 20
90.65568999999994
 30
0.0
 11
47.0
 21
91.81375499999999
 31
0.0
  0
LINE
  5
5096
330
5071
100
AcDbEntity
  8
AM_0 外形線1
100
AcDbLine
 10
121.0
 20
81.70000000000005
 30
0.0
 11
81.0
 21
81.70000000000005
 31
0.0
  0
LINE
  5
5097
330
5071
100
AcDbEntity
  8
AM_0 外形線1
100
AcDbLine
 10
81.0
 20
81.70000000000005
 30
0.0
 11
79.0
 21
82.5
 31
0.0
  0
ARC
  5
9765
330
5071
100
AcDbEntity
  8
AM_0 外形線1
100
AcDbCircle
 10
33.00000000000011
 20
0.0
 30
0.0
 40
86.70000000000003
100
AcDbArc
 50
80.03710469882227
 51
97.28900594521931
  0
ARC
  5
9766
330
5071
100
AcDbEntity
  8
AM_7 中心線
100
AcDbCircle
 10
33.00000000000011
 20
0.0
 30
0.0
 40
90.00000000000012
100
AcDbArc
 50
78.69205150855094
 51
98.94901806533006
  0
ENDBLK
  5
5073
330
5071
100
AcDbEntity
  8
0
100
AcDbBlockEnd
  0
BLOCK
  5
5119
330
5118
100
AcDbEntity
  8
0
100
AcDbBlockBegin
  2
センタ-2 SAM250
 70
     0
 10
0.0
 20
0.0
 30
0.0
  3
センタ-2 SAM250
  1

  0
LINE
  5
511B
330
5118
100
AcDbEntity
  8
AM_0 外形線1
100
AcDbLine
 10
-125.0000000000002
 20
0.0
 30
0.0
 11
-125.0000000000002
 21
77.70000000000004
 31
0.0
  0
LINE
  5
511C
330
5118
100
AcDbEntity
  8
AM_0 外形線1
100
AcDbLine
 10
-121.0000000000002
 20
81.70000000000005
 30
0.0
 11
-81.0
 21
81.70000000000005
 31
0.0
  0
ARC
  5
511D
330
5118
100
AcDbEntity
  8
AM_0 外形線1
100
AcDbCircle
 10
-121.0000000000002
 20
77.70000000000004
 30
0.0
 40
4.0
100
AcDbArc
 50
90.0
 51
180.0
  0
LINE
  5
511E
330
5118
100
AcDbEntity
  8
AM_0 外形線1
100
AcDbLine
 10
-79.0
 20
82.5
 30
0.0
 11
-48.5
 21
82.5
 31
0.0
  0
LINE
  5
511F
330
5118
100
AcDbEntity
  8
AM_0 外形線1
100
AcDbLine
 10
-81.0
 20
81.70000000000005
 30
0.0
 11
-79.0
 21
82.5
 31
0.0
  0
LINE
  5
5120
330
5118
100
AcDbEntity
  8
AM_0 外形線1
100
AcDbLine
 10
-0.0000000000002274
 20
53.18834466663918
 30
0.0
 11
-125.0000000000002
 21
53.18834466663929
 31
0.0
  0
LINE
  5
5144
330
5118
100
AcDbEntity
  8
AM_0 外形線1
100
AcDbLine
 10
0.0
 20
81.0
 30
0.0
 11
0.0
 21
0.0
 31
0.0
  0
LINE
  5
5145
330
5118
100
AcDbEntity
  8
AM_3 隠れ線
100
AcDbLine
 10
0.0
 20
4.25
 30
0.0
 11
-29.0
 21
4.25
 31
0.0
  0
LINE
  5
5146
330
5118
100
AcDbEntity
  8
AM_3 隠れ線
100
AcDbLine
 10
0.0
 20
5.0
 30
0.0
 11
-24.0
 21
5.0
 31
0.0
  0
LINE
  5
5147
330
5118
100
AcDbEntity
  8
AM_0 外形線1
100
AcDbLine
 10
-81.0
 20
-81.70000000000005
 30
0.0
 11
-81.0
 21
0.0
 31
0.0
  0
LINE
  5
5148
330
5118
100
AcDbEntity
  8
AM_0 外形線1
100
AcDbLine
 10
-79.0
 20
-82.5
 30
0.0
 11
-79.0
 21
0.0
 31
0.0
  0
LINE
  5
5149
330
5118
100
AcDbEntity
  8
AM_0 外形線1
100
AcDbLine
 10
-125.0000000000002
 20
-77.70000000000004
 30
0.0
 11
-125.0000000000002
 21
0.0
 31
0.0
  0
LINE
  5
514A
330
5118
100
AcDbEntity
  8
AM_0 外形線1
100
AcDbLine
 10
-81.0
 20
-81.70000000000005
 30
0.0
 11
-121.0000000000002
 21
-81.70000000000005
 31
0.0
  0
ARC
  5
514B
330
5118
100
AcDbEntity
  8
AM_0 外形線1
100
AcDbCircle
 10
-121.0000000000002
 20
-77.70000000000004
 30
0.0
 40
4.0
100
AcDbArc
 50
180.0
 51
270.0
  0
LINE
  5
514C
330
5118
100
AcDbEntity
  8
AM_0 外形線1
100
AcDbLine
 10
-79.0
 20
-82.5
 30
0.0
 11
-81.0
 21
-81.70000000000005
 31
0.0
  0
LINE
  5
514D
330
5118
100
AcDbEntity
  8
AM_0 外形線1
100
AcDbLine
 10
-68.0
 20
-82.5
 30
0.0
 11
-79.0
 21
-82.5
 31
0.0
  0
LINE
  5
514E
330
5118
100
AcDbEntity
  8
AM_3 隠れ線
100
AcDbLine
 10
-29.0
 20
4.25
 30
0.0
 11
-29.0
 21
0.0
 31
0.0
  0
LINE
  5
514F
330
5118
100
AcDbEntity
  8
AM_3 隠れ線
100
AcDbLine
 10
-24.43301300000007
 20
4.25
 30
0.0
 11
-24.43301300000007
 21
0.0
 31
0.0
  0
LINE
  5
5150
330
5118
100
AcDbEntity
  8
AM_3 隠れ線
100
AcDbLine
 10
-24.0
 20
5.0
 30
0.0
 11
-24.0
 21
0.0
 31
0.0
  0
LINE
  5
5151
330
5118
100
AcDbEntity
  8
AM_3 隠れ線
100
AcDbLine
 10
-29.0
 20
4.25
 30
0.0
 11
-31.45373900000004
 21
0.0
 31
0.0
  0
LINE
  5
5152
330
5118
100
AcDbEntity
  8
AM_3 隠れ線
100
AcDbLine
 10
-24.0
 20
5.0
 30
0.0
 11
-24.43301300000007
 21
4.25
 31
0.0
  0
LINE
  5
5153
330
5118
100
AcDbEntity
  8
AM_0 外形線1
100
AcDbLine
 10
-21.5
 20
82.0
 30
0.0
 11
-1.0
 21
82.0
 31
0.0
  0
ARC
  5
5155
330
5118
100
AcDbEntity
  8
AM_0 外形線1
100
AcDbCircle
 10
-33.0
 20
0.0
 30
0.0
 40
92.87499999999999
100
AcDbArc
 50
83.81888900000303
 51
98.6698269999932
  0
LINE
  5
5157
330
5118
100
AcDbEntity
  8
AM_0 外形線1
100
AcDbLine
 10
-48.0
 20
83.0
 30
0.0
 11
-48.0
 21
90.65568999999994
 31
0.0
  0
ARC
  5
5158
330
5118
100
AcDbEntity
  8
AM_0 外形線1
100
AcDbCircle
 10
-48.5
 20
83.0
 30
0.0
 40
0.5
100
AcDbArc
 50
270.0
 51
0.0
  0
LINE
  5
5159
330
5118
100
AcDbEntity
  8
AM_0 外形線1
100
AcDbLine
 10
-48.0
 20
90.65568999999994
 30
0.0
 11
-47.0
 21
91.81375499999999
 31
0.0
  0
LINE
  5
515A
330
5118
100
AcDbEntity
  8
AM_0 外形線1
100
AcDbLine
 10
-22.0
 20
91.22128600000008
 30
0.0
 11
-22.0
 21
82.5
 31
0.0
  0
LINE
  5
515B
330
5118
100
AcDbEntity
  8
AM_7 中心線
100
AcDbLine
 10
-33.0
 20
97.87500000000001
 30
0.0
 11
-33.0
 21
81.70000000000005
 31
0.0
  0
ARC
  5
515C
330
5118
100
AcDbEntity
  8
AM_0 外形線1
100
AcDbCircle
 10
-21.5
 20
82.5
 30
0.0
 40
0.5
100
AcDbArc
 50
180.0
 51
270.0
  0
LINE
  5
515D
330
5118
100
AcDbEntity
  8
AM_0 外形線1
100
AcDbLine
 10
-23.0
 20
92.33507199999996
 30
0.0
 11
-22.0
 21
91.22128600000008
 31
0.0
  0
LINE
  5
515E
330
5118
100
AcDbEntity
  8
AM_0 外形線1
100
AcDbLine
 10
-1.0
 20
82.0
 30
0.0
 11
0.0
 21
81.0
 31
0.0
  0
INSERT
  5
9695
330
5118
100
AcDbEntity
  8
AM_0 外形線1
100
AcDbBlockReference
  2
ケースＡ-2 SAM250
 10
6.0
 20
0.0
 30
0.0
  0
ARC
  5
96E8
330
5118
100
AcDbEntity
  8
AM_7 中心線
100
AcDbCircle
 10
-33.0
 20
0.0
 30
0.0
 40
90.00000000000012
100
AcDbArc
 50
81.05098193466995
 51
101.3079484914535
  0
ARC
  5
96E9
330
5118
100
AcDbEntity
  8
AM_0 外形線1
100
AcDbCircle
 10
-33.0
 20
0.0
 30
0.0
 40
86.70000000000003
100
AcDbArc
 50
82.71099405478716
 51
99.9628953011777
  0
ENDBLK
  5
511A
330
5118
100
AcDbEntity
  8
0
100
AcDbBlockEnd
  0
BLOCK
  5
5573
330
5572
100
AcDbEntity
  8
0
100
AcDbBlockBegin
  2
リーマボルト-1 SAM250 M10
 70
     0
 10
0.0
 20
0.0
 30
0.0
  3
リーマボルト-1 SAM250 M10
  1

  0
LINE
  5
5575
330
5572
100
AcDbEntity
  8
AM_0 外形線1
100
AcDbLine
 10
0.0
 20
8.487050102675311
 30
0.0
 11
-6.249445000000036
 21
8.487050102675311
 31
0.0
  0
LINE
  5
5576
330
5572
100
AcDbEntity
  8
AM_0 外形線1
100
AcDbLine
 10
-6.249445000000036
 20
-8.487047897324826
 30
0.0
 11
0.0
 21
-8.487047897324826
 31
0.0
  0
ARC
  5
5577
330
5572
100
AcDbEntity
  8
AM_0 外形線1
100
AcDbCircle
 10
5.261475999999902
 20
-4.243523897324735
 30
0.0
 40
12.268203
100
AcDbArc
 50
159.7634889999921
 51
200.2365110000079
  0
ARC
  5
5578
330
5572
100
AcDbEntity
  8
AM_0 外形線1
100
AcDbCircle
 10
5.261475999999902
 20
4.243525102675221
 30
0.0
 40
12.268203
100
AcDbArc
 50
159.7634889999921
 51
200.2365110000079
  0
LINE
  5
5579
330
5572
100
AcDbEntity
  8
AM_0 外形線1
100
AcDbLine
 10
-7.0
 20
4.649727102675228
 30
0.0
 11
-7.0
 21
-3.83732189732484
 31
0.0
  0
ARC
  5
557A
330
5572
100
AcDbEntity
  8
AM_0 外形線1
100
AcDbCircle
 10
36.13821100000007
 20
-7.353737897324662
 30
0.0
 40
4.361788999999999
100
AcDbArc
 50
325.8861589999972
 51
34.11384100000282
  0
LINE
  5
557B
330
5572
100
AcDbEntity
  8
AM_0 外形線1
100
AcDbLine
 10
40.49999999999999
 20
8.500001102675241
 30
0.0
 11
40.49999999999999
 21
-8.499998897324758
 31
0.0
  0
LINE
  5
557C
330
5572
100
AcDbEntity
  8
AM_0 外形線1
100
AcDbLine
 10
32.5
 20
-9.799998897324712
 30
0.0
 11
32.5
 21
9.800001102675194
 31
0.0
  0
LINE
  5
557D
330
5572
100
AcDbEntity
  8
AM_0 外形線1
100
AcDbLine
 10
39.74944500000004
 20
-9.799998897324712
 30
0.0
 11
32.5
 21
-9.799998897324712
 31
0.0
  0
LINE
  5
557E
330
5572
100
AcDbEntity
  8
AM_0 外形線1
100
AcDbLine
 10
30.0
 20
-9.199998897324805
 30
0.0
 11
32.5
 21
-9.199998897324805
 31
0.0
  0
LINE
  5
557F
330
5572
100
AcDbEntity
  8
AM_0 外形線1
100
AcDbLine
 10
40.49999999999999
 20
-8.499998897324758
 30
0.0
 11
39.74944500000004
 21
-9.799998897324712
 31
0.0
  0
ARC
  5
5580
330
5572
100
AcDbEntity
  8
AM_0 外形線1
100
AcDbCircle
 10
0.5
 20
5.50000110267524
 30
0.0
 40
0.5
100
AcDbArc
 50
180.0
 51
270.0
  0
LINE
  5
5581
330
5572
100
AcDbEntity
  8
AM_0 外形線1
100
AcDbLine
 10
0.5
 20
5.00000110267524
 30
0.0
 11
1.0
 21
5.00000110267524
 31
0.0
  0
ARC
  5
5582
330
5572
100
AcDbEntity
  8
AM_0 外形線1
100
AcDbCircle
 10
1.0
 20
5.50000110267524
 30
0.0
 40
0.5
100
AcDbArc
 50
270.0
 51
0.0
  0
ARC
  5
5583
330
5572
100
AcDbEntity
  8
AM_0 外形線1
100
AcDbCircle
 10
0.5
 20
-5.499998897324757
 30
0.0
 40
0.5
100
AcDbArc
 50
90.0
 51
180.0
  0
LINE
  5
5584
330
5572
100
AcDbEntity
  8
AM_0 外形線1
100
AcDbLine
 10
0.5
 20
-4.999998897324757
 30
0.0
 11
1.0
 21
-4.999998897324757
 31
0.0
  0
ARC
  5
5585
330
5572
100
AcDbEntity
  8
AM_0 外形線1
100
AcDbCircle
 10
1.0
 20
-5.499998897324757
 30
0.0
 40
0.5
100
AcDbArc
 50
0.0
 51
90.0
  0
LINE
  5
5586
330
5572
100
AcDbEntity
  8
AM_0 外形線1
100
AcDbLine
 10
1.5
 20
-5.499998897324757
 30
0.0
 11
1.5
 21
5.50000110267524
 31
0.0
  0
LINE
  5
5587
330
5572
100
AcDbEntity
  8
AM_0 外形線1
100
AcDbLine
 10
32.5
 20
9.800001102675194
 30
0.0
 11
39.74944500000004
 21
9.800001102675194
 31
0.0
  0
LINE
  5
5588
330
5572
100
AcDbEntity
  8
AM_0 外形線1
100
AcDbLine
 10
32.5
 20
4.907478102675212
 30
0.0
 11
39.74944500000004
 21
4.907478102675212
 31
0.0
  0
LINE
  5
5589
330
5572
100
AcDbEntity
  8
AM_0 外形線1
100
AcDbLine
 10
32.5
 20
-4.907476897324726
 30
0.0
 11
39.74944500000004
 21
-4.907476897324726
 31
0.0
  0
LINE
  5
558A
330
5572
100
AcDbEntity
  8
AM_0 外形線1
100
AcDbLine
 10
27.0
 20
5.50000110267524
 30
0.0
 11
28.0
 21
4.922651102675216
 31
0.0
  0
LINE
  5
558B
330
5572
100
AcDbEntity
  8
AM_0 外形線1
100
AcDbLine
 10
32.5
 20
9.200001102675287
 30
0.0
 11
30.0
 21
9.200001102675287
 31
0.0
  0
LINE
  5
558C
330
5572
100
AcDbEntity
  8
AM_0 外形線1
100
AcDbLine
 10
32.5
 20
1.666667102675319
 30
0.0
 11
30.0
 21
-0.8333328973246807
 31
0.0
  0
LINE
  5
558D
330
5572
100
AcDbEntity
  8
AM_0 外形線1
100
AcDbLine
 10
32.5
 20
0.8333341026752805
 30
0.0
 11
30.0
 21
-1.666665897324719
 31
0.0
  0
LINE
  5
558E
330
5572
100
AcDbEntity
  8
AM_0 外形線1
100
AcDbLine
 10
28.0
 20
4.922651102675216
 30
0.0
 11
30.0
 21
4.922651102675216
 31
0.0
  0
LINE
  5
558F
330
5572
100
AcDbEntity
  8
AM_0 外形線1
100
AcDbLine
 10
28.0
 20
-4.922648897324733
 30
0.0
 11
27.0
 21
-5.499998897324757
 31
0.0
  0
LINE
  5
5590
330
5572
100
AcDbEntity
  8
AM_0 外形線1
100
AcDbLine
 10
28.0
 20
-4.922648897324733
 30
0.0
 11
30.0
 21
-4.922648897324733
 31
0.0
  0
LINE
  5
5591
330
5572
100
AcDbEntity
  8
AM_0 外形線1
100
AcDbLine
 10
28.0
 20
4.922651102675216
 30
0.0
 11
28.0
 21
-4.922648897324733
 31
0.0
  0
LINE
  5
5592
330
5572
100
AcDbEntity
  8
AM_0 外形線1
100
AcDbLine
 10
27.0
 20
5.50000110267524
 30
0.0
 11
27.0
 21
-5.499998897324757
 31
0.0
  0
LINE
  5
5593
330
5572
100
AcDbEntity
  8
AM_0 外形線1
100
AcDbLine
 10
39.74944500000004
 20
9.800001102675194
 30
0.0
 11
40.49999999999999
 21
8.500001102675241
 31
0.0
  0
ARC
  5
5594
330
5572
100
AcDbEntity
  8
AM_0 外形線1
100
AcDbCircle
 10
36.13821100000007
 20
7.353739102675262
 30
0.0
 40
4.361788999999999
100
AcDbArc
 50
325.8861589999972
 51
34.11384100000282
  0
LINE
  5
5595
330
5572
100
AcDbEntity
  8
AM_0 外形線1
100
AcDbLine
 10
40.49999999999999
 20
5.00000110267524
 30
0.0
 11
44.0
 21
5.00000110267524
 31
0.0
  0
LINE
  5
5596
330
5572
100
AcDbEntity
  8
AM_0 外形線1
100
AcDbLine
 10
44.0
 20
5.00000110267524
 30
0.0
 11
45.0
 21
4.00000110267524
 31
0.0
  0
LINE
  5
5597
330
5572
100
AcDbEntity
  8
AM_0 外形線1
100
AcDbLine
 10
45.0
 20
4.00000110267524
 30
0.0
 11
45.0
 21
-3.999998897324758
 31
0.0
  0
LINE
  5
5598
330
5572
100
AcDbEntity
  8
AM_4 細線
100
AcDbLine
 10
40.49999999999999
 20
4.25000110267524
 30
0.0
 11
44.75
 21
4.25000110267524
 31
0.0
  0
LINE
  5
5599
330
5572
100
AcDbEntity
  8
AM_4 細線
100
AcDbLine
 10
40.49999999999999
 20
-4.249998897324758
 30
0.0
 11
44.75
 21
-4.249998897324758
 31
0.0
  0
LINE
  5
559A
330
5572
100
AcDbEntity
  8
AM_0 外形線1
100
AcDbLine
 10
44.0
 20
-4.999998897324757
 30
0.0
 11
40.49999999999999
 21
-4.999998897324757
 31
0.0
  0
ARC
  5
559B
330
5572
100
AcDbEntity
  8
AM_0 外形線1
100
AcDbCircle
 10
24.0810459999999
 20
0.0000011026752418
 30
0.0
 40
16.418953
100
AcDbArc
 50
342.6089940000023
 51
17.3910059999977
  0
LINE
  5
559C
330
5572
100
AcDbEntity
  8
AM_0 外形線1
100
AcDbLine
 10
45.0
 20
-3.999998897324758
 30
0.0
 11
44.0
 21
-4.999998897324757
 31
0.0
  0
LINE
  5
559D
330
5572
100
AcDbEntity
  8
AM_0 外形線1
100
AcDbLine
 10
44.0
 20
5.00000110267524
 30
0.0
 11
44.0
 21
-4.999998897324757
 31
0.0
  0
LINE
  5
55FA
330
5572
100
AcDbEntity
  8
AM_0 外形線1
100
AcDbLine
 10
0.0
 20
8.487050102675311
 30
0.0
 11
0.0
 21
-8.487047897324826
 31
0.0
  0
LINE
  5
55FB
330
5572
100
AcDbEntity
  8
AM_0 外形線1
100
AcDbLine
 10
1.5
 20
5.50000110267524
 30
0.0
 11
27.0
 21
5.50000110267524
 31
0.0
  0
LINE
  5
55FC
330
5572
100
AcDbEntity
  8
AM_0 外形線1
100
AcDbLine
 10
1.5
 20
-5.499998897324757
 30
0.0
 11
27.0
 21
-5.499998897324757
 31
0.0
  0
LINE
  5
55FD
330
5572
100
AcDbEntity
  8
AM_0 外形線1
100
AcDbLine
 10
30.0
 20
9.200001102675287
 30
0.0
 11
30.0
 21
-9.199998897324805
 31
0.0
  0
LINE
  5
55FE
330
5572
100
AcDbEntity
  8
AM_0 外形線1
100
AcDbLine
 10
-6.249445123125497
 20
0.0000005513376209
 30
0.0
 11
0.0
 21
0.0000005513376209
 31
0.0
  0
ENDBLK
  5
5574
330
5572
100
AcDbEntity
  8
0
100
AcDbBlockEnd
  0
BLOCK
  5
5667
330
5666
100
AcDbEntity
  8
0
100
AcDbBlockBegin
  2
リーマボルト-2 SAM250 M10
 70
     0
 10
0.0
 20
0.0
 30
0.0
  3
リーマボルト-2 SAM250 M10
  1

  0
LINE
  5
5669
330
5666
100
AcDbEntity
  8
AM_0 外形線1
100
AcDbLine
 10
-32.5
 20
9.799999999999952
 30
0.0
 11
-39.74944500000015
 21
9.799999999999952
 31
0.0
  0
LINE
  5
566A
330
5666
100
AcDbEntity
  8
AM_0 外形線1
100
AcDbLine
 10
-39.74944500000015
 20
-9.799999999999952
 30
0.0
 11
-32.5
 21
-9.799999999999952
 31
0.0
  0
LINE
  5
566B
330
5666
100
AcDbEntity
  8
AM_0 外形線1
100
AcDbLine
 10
-32.5
 20
4.907476999999971
 30
0.0
 11
-39.74944500000015
 21
4.907476999999971
 31
0.0
  0
LINE
  5
566C
330
5666
100
AcDbEntity
  8
AM_0 外形線1
100
AcDbLine
 10
-32.5
 20
-4.907477999999969
 30
0.0
 11
-39.74944500000015
 21
-4.907477999999969
 31
0.0
  0
ARC
  5
566D
330
5666
100
AcDbEntity
  8
AM_0 外形線1
100
AcDbCircle
 10
-36.13821100000019
 20
-7.353738999999903
 30
0.0
 40
4.361788999999999
100
AcDbArc
 50
145.8861589999971
 51
214.1138410000028
  0
LINE
  5
566E
330
5666
100
AcDbEntity
  8
AM_0 外形線1
100
AcDbLine
 10
-40.49999999999999
 20
8.5
 30
0.0
 11
-40.49999999999999
 21
-8.5
 31
0.0
  0
LINE
  5
566F
330
5666
100
AcDbEntity
  8
AM_0 外形線1
100
AcDbLine
 10
-40.49999999999999
 20
-8.5
 30
0.0
 11
-39.74944500000015
 21
-9.799999999999952
 31
0.0
  0
LINE
  5
5670
330
5666
100
AcDbEntity
  8
AM_0 外形線1
100
AcDbLine
 10
-39.74944500000015
 20
9.799999999999952
 30
0.0
 11
-40.49999999999999
 21
8.5
 31
0.0
  0
ARC
  5
5671
330
5666
100
AcDbEntity
  8
AM_0 外形線1
100
AcDbCircle
 10
-36.13821100000019
 20
7.353738000000021
 30
0.0
 40
4.361788999999999
100
AcDbArc
 50
145.8861589999971
 51
214.1138410000028
  0
LINE
  5
5672
330
5666
100
AcDbEntity
  8
AM_0 外形線1
100
AcDbLine
 10
-40.49999999999999
 20
5.0
 30
0.0
 11
-44.0
 21
5.0
 31
0.0
  0
LINE
  5
5673
330
5666
100
AcDbEntity
  8
AM_0 外形線1
100
AcDbLine
 10
-44.0
 20
5.0
 30
0.0
 11
-45.0
 21
4.0
 31
0.0
  0
LINE
  5
5674
330
5666
100
AcDbEntity
  8
AM_0 外形線1
100
AcDbLine
 10
-45.0
 20
4.0
 30
0.0
 11
-45.0
 21
-4.0
 31
0.0
  0
LINE
  5
5675
330
5666
100
AcDbEntity
  8
AM_4 細線
100
AcDbLine
 10
-40.49999999999999
 20
4.25
 30
0.0
 11
-44.75
 21
4.25
 31
0.0
  0
LINE
  5
5676
330
5666
100
AcDbEntity
  8
AM_4 細線
100
AcDbLine
 10
-40.49999999999999
 20
-4.25
 30
0.0
 11
-44.75
 21
-4.25
 31
0.0
  0
LINE
  5
5677
330
5666
100
AcDbEntity
  8
AM_0 外形線1
100
AcDbLine
 10
-44.0
 20
-5.0
 30
0.0
 11
-40.49999999999999
 21
-5.0
 31
0.0
  0
ARC
  5
5678
330
5666
100
AcDbEntity
  8
AM_0 外形線1
100
AcDbCircle
 10
-24.08104700000013
 20
0.0
 30
0.0
 40
16.418953
100
AcDbArc
 50
162.6089940000013
 51
197.3910059999987
  0
LINE
  5
5679
330
5666
100
AcDbEntity
  8
AM_0 外形線1
100
AcDbLine
 10
-45.0
 20
-4.0
 30
0.0
 11
-44.0
 21
-5.0
 31
0.0
  0
LINE
  5
567A
330
5666
100
AcDbEntity
  8
AM_0 外形線1
100
AcDbLine
 10
-44.0
 20
5.0
 30
0.0
 11
-44.0
 21
-5.0
 31
0.0
  0
LINE
  5
567B
330
5666
100
AcDbEntity
  8
AM_0 外形線1
100
AcDbLine
 10
-32.5
 20
-9.799999999999952
 30
0.0
 11
-32.5
 21
9.799999999999952
 31
0.0
  0
ARC
  5
567C
330
5666
100
AcDbEntity
  8
AM_0 外形線1
100
AcDbCircle
 10
-5.261476000000128
 20
-4.243524999999976
 30
0.0
 40
12.268203
100
AcDbArc
 50
339.7634889999932
 51
20.2365110000068
  0
LINE
  5
567D
330
5666
100
AcDbEntity
  8
AM_0 外形線1
100
AcDbLine
 10
-30.0
 20
-9.200000000000043
 30
0.0
 11
-32.5
 21
-9.200000000000043
 31
0.0
  0
LINE
  5
567E
330
5666
100
AcDbEntity
  8
AM_0 外形線1
100
AcDbLine
 10
6.249444999999922
 20
-8.48704900000007
 30
0.0
 11
0.0
 21
-8.48704900000007
 31
0.0
  0
LINE
  5
567F
330
5666
100
AcDbEntity
  8
AM_0 外形線1
100
AcDbLine
 10
-27.0
 20
5.5
 30
0.0
 11
-28.0
 21
4.922649999999974
 31
0.0
  0
LINE
  5
5680
330
5666
100
AcDbEntity
  8
AM_0 外形線1
100
AcDbLine
 10
-32.5
 20
9.200000000000043
 30
0.0
 11
-30.0
 21
9.200000000000043
 31
0.0
  0
LINE
  5
5681
330
5666
100
AcDbEntity
  8
AM_0 外形線1
100
AcDbLine
 10
-28.0
 20
4.922649999999974
 30
0.0
 11
-30.0
 21
4.922649999999974
 31
0.0
  0
LINE
  5
5682
330
5666
100
AcDbEntity
  8
AM_0 外形線1
100
AcDbLine
 10
-32.5
 20
-1.666666999999961
 30
0.0
 11
-30.0
 21
0.8333330000000387
 31
0.0
  0
LINE
  5
5683
330
5666
100
AcDbEntity
  8
AM_0 外形線1
100
AcDbLine
 10
-32.5
 20
-0.8333339999999225
 30
0.0
 11
-30.0
 21
1.666666000000076
 31
0.0
  0
LINE
  5
5684
330
5666
100
AcDbEntity
  8
AM_0 外形線1
100
AcDbLine
 10
-28.0
 20
-4.922649999999974
 30
0.0
 11
-27.0
 21
-5.5
 31
0.0
  0
LINE
  5
5685
330
5666
100
AcDbEntity
  8
AM_0 外形線1
100
AcDbLine
 10
-28.0
 20
-4.922649999999974
 30
0.0
 11
-30.0
 21
-4.922649999999974
 31
0.0
  0
LINE
  5
5686
330
5666
100
AcDbEntity
  8
AM_0 外形線1
100
AcDbLine
 10
-28.0
 20
4.922649999999974
 30
0.0
 11
-28.0
 21
-4.922649999999974
 31
0.0
  0
LINE
  5
5687
330
5666
100
AcDbEntity
  8
AM_0 外形線1
100
AcDbLine
 10
-27.0
 20
5.5
 30
0.0
 11
-27.0
 21
-5.5
 31
0.0
  0
ARC
  5
5688
330
5666
100
AcDbEntity
  8
AM_0 外形線1
100
AcDbCircle
 10
-0.5
 20
5.5
 30
0.0
 40
0.5
100
AcDbArc
 50
270.0
 51
0.0
  0
LINE
  5
5689
330
5666
100
AcDbEntity
  8
AM_0 外形線1
100
AcDbLine
 10
-0.5
 20
5.0
 30
0.0
 11
-1.0
 21
5.0
 31
0.0
  0
ARC
  5
568A
330
5666
100
AcDbEntity
  8
AM_0 外形線1
100
AcDbCircle
 10
-1.0
 20
5.5
 30
0.0
 40
0.5
100
AcDbArc
 50
180.0
 51
270.0
  0
LINE
  5
568B
330
5666
100
AcDbEntity
  8
AM_0 外形線1
100
AcDbLine
 10
0.0
 20
8.48704900000007
 30
0.0
 11
6.249444999999922
 21
8.48704900000007
 31
0.0
  0
ARC
  5
568C
330
5666
100
AcDbEntity
  8
AM_0 外形線1
100
AcDbCircle
 10
-5.261476000000128
 20
4.243523999999978
 30
0.0
 40
12.268203
100
AcDbArc
 50
339.7634889999932
 51
20.2365110000068
  0
LINE
  5
568D
330
5666
100
AcDbEntity
  8
AM_0 外形線1
100
AcDbLine
 10
7.0
 20
4.649725999999986
 30
0.0
 11
7.0
 21
-3.837323000000082
 31
0.0
  0
ARC
  5
568E
330
5666
100
AcDbEntity
  8
AM_0 外形線1
100
AcDbCircle
 10
-0.5
 20
-5.5
 30
0.0
 40
0.5
100
AcDbArc
 50
0.0
 51
90.0
  0
LINE
  5
568F
330
5666
100
AcDbEntity
  8
AM_0 外形線1
100
AcDbLine
 10
-0.5
 20
-5.0
 30
0.0
 11
-1.0
 21
-5.0
 31
0.0
  0
ARC
  5
5690
330
5666
100
AcDbEntity
  8
AM_0 外形線1
100
AcDbCircle
 10
-1.0
 20
-5.5
 30
0.0
 40
0.5
100
AcDbArc
 50
90.0
 51
180.0
  0
LINE
  5
5691
330
5666
100
AcDbEntity
  8
AM_0 外形線1
100
AcDbLine
 10
-1.5
 20
-5.5
 30
0.0
 11
-1.5
 21
5.5
 31
0.0
  0
LINE
  5
56ED
330
5666
100
AcDbEntity
  8
AM_0 外形線1
100
AcDbLine
 10
-30.0
 20
9.200000000000043
 30
0.0
 11
-30.0
 21
-9.200000000000043
 31
0.0
  0
LINE
  5
56EE
330
5666
100
AcDbEntity
  8
AM_0 外形線1
100
AcDbLine
 10
-27.0
 20
5.5
 30
0.0
 11
-1.5
 21
5.5
 31
0.0
  0
LINE
  5
56EF
330
5666
100
AcDbEntity
  8
AM_0 外形線1
100
AcDbLine
 10
-27.0
 20
-5.5
 30
0.0
 11
-1.5
 21
-5.5
 31
0.0
  0
LINE
  5
56F0
330
5666
100
AcDbEntity
  8
AM_0 外形線1
100
AcDbLine
 10
0.0
 20
8.48704900000007
 30
0.0
 11
0.0
 21
-8.48704900000007
 31
0.0
  0
ENDBLK
  5
5668
330
5666
100
AcDbEntity
  8
0
100
AcDbBlockEnd
  0
BLOCK
  5
5B16
330
5B15
100
AcDbEntity
  8
0
100
AcDbBlockBegin
  2
*D15
 70
     1
 10
0.0
 20
0.0
 30
0.0
  3
*D15
  1

  0
LINE
  5
95F4
330
5B15
100
AcDbEntity
  8
AM_5 寸法線
 62
     3
100
AcDbLine
 10
376.8635250816983
 20
769.481016403407
 30
0.0
 11
270.8635250816981
 21
769.481016403407
 31
0.0
  0
LINE
  5
95F5
330
5B15
100
AcDbEntity
  8
AM_5 寸法線
 62
     3
100
AcDbLine
 10
376.8635250816983
 20
604.4810164034069
 30
0.0
 11
270.8635250816981
 21
604.4810164034069
 31
0.0
  0
LINE
  5
95F6
330
5B15
100
AcDbEntity
  8
AM_5 寸法線
 62
     3
100
AcDbLine
 10
272.7385250816981
 20
761.981016403407
 30
0.0
 11
272.7385250816981
 21
611.981016403407
 31
0.0
  0
INSERT
  5
95F7
330
5B15
100
AcDbEntity
  8
AM_5 寸法線
 62
     3
100
AcDbBlockReference
  2
_Open30
 10
272.7385250816981
 20
769.481016403407
 30
0.0
 41
7.5
 42
7.5
 43
7.5
 50
90.0
  0
INSERT
  5
95F8
330
5B15
100
AcDbEntity
  8
AM_5 寸法線
 62
     3
100
AcDbBlockReference
  2
_Open30
 10
272.7385250816981
 20
604.4810164034069
 30
0.0
 41
7.5
 42
7.5
 43
7.5
 50
270.0
  0
MTEXT
  5
95F9
330
5B15
100
AcDbEntity
  8
AM_5 寸法線
 62
     3
100
AcDbMText
 10
262.988525081698
 20
686.981016403407
 30
0.0
 40
10.5
 41
0.0
 46
0.0
 71
     5
 72
     1
  1
%%c165
  7
SEISA
 11
0.0000000000000001
 21
1.0
 31
0.0
 73
     1
 44
1.0
  0
POINT
  5
95FA
330
5B15
100
AcDbEntity
  8
Defpoints
 62
     0
100
AcDbPoint
 10
378.7385250816983
 20
769.481016403407
 30
0.0
  0
POINT
  5
95FB
330
5B15
100
AcDbEntity
  8
Defpoints
 62
     0
100
AcDbPoint
 10
378.7385250816983
 20
604.4810164034069
 30
0.0
  0
POINT
  5
95FC
330
5B15
100
AcDbEntity
  8
Defpoints
 62
     0
100
AcDbPoint
 10
272.7385250816981
 20
604.4810164034069
 30
0.0
  0
ENDBLK
  5
5B17
330
5B15
100
AcDbEntity
  8
0
100
AcDbBlockEnd
  0
BLOCK
  5
5B50
330
5B4F
100
AcDbEntity
  8
0
100
AcDbBlockBegin
  2
*D16
 70
     1
 10
0.0
 20
0.0
 30
0.0
  3
*D16
  1

  0
LINE
  5
98B0
330
5B4F
100
AcDbEntity
  8
AM_5 寸法線
 62
     3
100
AcDbLine
 10
409.7385250816983
 20
768.106016403407
 30
0.0
 11
409.7385250816983
 21
745.3148451260708
 31
0.0
  0
LINE
  5
98B1
330
5B4F
100
AcDbEntity
  8
AM_5 寸法線
 62
     3
100
AcDbLine
 10
405.7385250816983
 20
767.606016403407
 30
0.0
 11
405.7385250816983
 21
745.3148451260708
 31
0.0
  0
LINE
  5
98B2
330
5B4F
100
AcDbEntity
  8
AM_5 寸法線
 62
     3
100
AcDbLine
 10
417.2385250816983
 20
747.189845126071
 30
0.0
 11
424.738525081698
 21
747.189845126071
 31
0.0
  0
LINE
  5
98B3
330
5B4F
100
AcDbEntity
  8
AM_5 寸法線
 62
     3
100
AcDbLine
 10
398.2385250816983
 20
747.189845126071
 30
0.0
 11
390.7385250816983
 21
747.189845126071
 31
0.0
  0
MTEXT
  5
98B4
330
5B4F
100
AcDbEntity
  8
AM_5 寸法線
 62
     3
100
AcDbMText
 10
395.1111107512527
 20
754.5497828227341
 30
0.0
 40
10.5
 41
0.0
 46
0.0
 71
     5
 72
     1
  1
4
  7
SEISA
 73
     1
 44
1.0
  0
LINE
  5
98B5
330
5B4F
100
AcDbEntity
  8
AM_5 寸法線
 62
     3
100
AcDbLine
 10
409.7385250816983
 20
747.189845126071
 30
0.0
 11
405.7385250816983
 21
747.189845126071
 31
0.0
  0
INSERT
  5
98B6
330
5B4F
100
AcDbEntity
  8
AM_5 寸法線
 62
     3
100
AcDbBlockReference
  2
_Open30
 10
409.7385250816983
 20
747.189845126071
 30
0.0
 41
7.5
 42
7.5
 43
7.5
 50
180.0
  0
INSERT
  5
98B7
330
5B4F
100
AcDbEntity
  8
AM_5 寸法線
 62
     3
100
AcDbBlockReference
  2
_Open30
 10
405.7385250816983
 20
747.189845126071
 30
0.0
 41
7.5
 42
7.5
 43
7.5
  0
POINT
  5
98B8
330
5B4F
100
AcDbEntity
  8
Defpoints
 62
     0
100
AcDbPoint
 10
409.7385250816983
 20
769.981016403407
 30
0.0
  0
POINT
  5
98B9
330
5B4F
100
AcDbEntity
  8
Defpoints
 62
     0
100
AcDbPoint
 10
405.7385250816983
 20
769.481016403407
 30
0.0
  0
POINT
  5
98BA
330
5B4F
100
AcDbEntity
  8
Defpoints
 62
     0
100
AcDbPoint
 10
405.7385250816983
 20
747.189845126071
 30
0.0
  0
ENDBLK
  5
5B51
330
5B4F
100
AcDbEntity
  8
0
100
AcDbBlockEnd
  0
BLOCK
  5
5C16
330
5C15
100
AcDbEntity
  8
0
100
AcDbBlockBegin
  2
*D17
 70
     1
 10
0.0
 20
0.0
 30
0.0
  3
*D17
  1

  0
LINE
  5
95FD
330
5C15
100
AcDbEntity
  8
AM_5 寸法線
 62
     3
100
AcDbLine
 10
457.738525081698
 20
688.8560164034068
 30
0.0
 11
457.738525081698
 21
701.5703544034083
 31
0.0
  0
LINE
  5
95FE
330
5C15
100
AcDbEntity
  8
AM_5 寸法線
 62
     3
100
AcDbLine
 10
332.7385250816981
 20
688.8560164034068
 30
0.0
 11
332.7385250816981
 21
701.5703544034083
 31
0.0
  0
LINE
  5
95FF
330
5C15
100
AcDbEntity
  8
AM_5 寸法線
 62
     3
100
AcDbLine
 10
450.2385250816983
 20
699.6953544034083
 30
0.0
 11
340.2385250816981
 21
699.6953544034083
 31
0.0
  0
INSERT
  5
9600
330
5C15
100
AcDbEntity
  8
AM_5 寸法線
 62
     3
100
AcDbBlockReference
  2
_Open30
 10
457.738525081698
 20
699.6953544034083
 30
0.0
 41
7.5
 42
7.5
 43
7.5
  0
INSERT
  5
9601
330
5C15
100
AcDbEntity
  8
AM_5 寸法線
 62
     3
100
AcDbBlockReference
  2
_Open30
 10
332.7385250816981
 20
699.6953544034083
 30
0.0
 41
7.5
 42
7.5
 43
7.5
 50
180.0
  0
MTEXT
  5
9602
330
5C15
100
AcDbEntity
  8
AM_5 寸法線
 62
     3
100
AcDbMText
 10
395.2385250816981
 20
709.4453544034085
 30
0.0
 40
10.5
 41
0.0
 46
0.0
 71
     5
 72
     1
  1
125
  7
SEISA
 73
     1
 44
1.0
  0
POINT
  5
9603
330
5C15
100
AcDbEntity
  8
Defpoints
 62
     0
100
AcDbPoint
 10
457.738525081698
 20
686.981016403407
 30
0.0
  0
POINT
  5
9604
330
5C15
100
AcDbEntity
  8
Defpoints
 62
     0
100
AcDbPoint
 10
332.7385250816981
 20
686.981016403407
 30
0.0
  0
POINT
  5
9605
330
5C15
100
AcDbEntity
  8
Defpoints
 62
     0
100
AcDbPoint
 10
332.7385250816981
 20
699.6953544034083
 30
0.0
  0
ENDBLK
  5
5C17
330
5C15
100
AcDbEntity
  8
0
100
AcDbBlockEnd
  0
BLOCK
  5
5C46
330
5C45
100
AcDbEntity
  8
0
100
AcDbBlockBegin
  2
*D18
 70
     1
 10
0.0
 20
0.0
 30
0.0
  3
*D18
  1

  0
LINE
  5
9619
330
5C45
100
AcDbEntity
  8
AM_5 寸法線
 62
     3
100
AcDbLine
 10
707.7385250816981
 20
688.8560164034068
 30
0.0
 11
707.7385250816981
 21
701.5703544034083
 31
0.0
  0
LINE
  5
961A
330
5C45
100
AcDbEntity
  8
AM_5 寸法線
 62
     3
100
AcDbLine
 10
832.7385250816982
 20
688.8560164034068
 30
0.0
 11
832.7385250816982
 21
701.5703544034083
 31
0.0
  0
LINE
  5
961B
330
5C45
100
AcDbEntity
  8
AM_5 寸法線
 62
     3
100
AcDbLine
 10
715.2385250816982
 20
699.6953544034083
 30
0.0
 11
825.2385250816981
 21
699.6953544034083
 31
0.0
  0
INSERT
  5
961C
330
5C45
100
AcDbEntity
  8
AM_5 寸法線
 62
     3
100
AcDbBlockReference
  2
_Open30
 10
707.7385250816981
 20
699.6953544034083
 30
0.0
 41
7.5
 42
7.5
 43
7.5
 50
180.0
  0
INSERT
  5
961D
330
5C45
100
AcDbEntity
  8
AM_5 寸法線
 62
     3
100
AcDbBlockReference
  2
_Open30
 10
832.7385250816982
 20
699.6953544034083
 30
0.0
 41
7.5
 42
7.5
 43
7.5
  0
MTEXT
  5
961E
330
5C45
100
AcDbEntity
  8
AM_5 寸法線
 62
     3
100
AcDbMText
 10
770.2385250816981
 20
709.4453544034085
 30
0.0
 40
10.5
 41
0.0
 46
0.0
 71
     5
 72
     1
  1
125
  7
SEISA
 73
     1
 44
1.0
  0
POINT
  5
961F
330
5C45
100
AcDbEntity
  8
Defpoints
 62
     0
100
AcDbPoint
 10
707.7385250816981
 20
686.981016403407
 30
0.0
  0
POINT
  5
9620
330
5C45
100
AcDbEntity
  8
Defpoints
 62
     0
100
AcDbPoint
 10
832.7385250816982
 20
686.981016403407
 30
0.0
  0
POINT
  5
9621
330
5C45
100
AcDbEntity
  8
Defpoints
 62
     0
100
AcDbPoint
 10
832.7385250816982
 20
699.6953544034083
 30
0.0
  0
ENDBLK
  5
5C47
330
5C45
100
AcDbEntity
  8
0
100
AcDbBlockEnd
  0
BLOCK
  5
5D70
330
5D6F
100
AcDbEntity
  8
0
100
AcDbBlockBegin
  2
*D19
 70
     1
 10
0.0
 20
0.0
 30
0.0
  3
*D19
  1

  0
LINE
  5
963F
330
5D6F
100
AcDbEntity
  8
AM_5 寸法線
 62
     3
100
AcDbLine
 10
701.7385250816983
 20
561.106016403407
 30
0.0
 11
701.7385250816983
 21
530.106016403407
 31
0.0
  0
LINE
  5
9640
330
5D6F
100
AcDbEntity
  8
AM_5 寸法線
 62
     3
100
AcDbLine
 10
686.7385250816981
 20
561.106016403407
 30
0.0
 11
686.7385250816981
 21
530.106016403407
 31
0.0
  0
LINE
  5
9641
330
5D6F
100
AcDbEntity
  8
AM_5 寸法線
 62
     3
100
AcDbLine
 10
709.2385250816981
 20
531.981016403407
 30
0.0
 11
716.7385250816981
 21
531.981016403407
 31
0.0
  0
LINE
  5
9642
330
5D6F
100
AcDbEntity
  8
AM_5 寸法線
 62
     3
100
AcDbLine
 10
679.2385250816981
 20
531.981016403407
 30
0.0
 11
648.7885250816981
 21
531.981016403407
 31
0.0
  0
LINE
  5
9643
330
5D6F
100
AcDbEntity
  8
AM_5 寸法線
 62
     3
100
AcDbLine
 10
701.7385250816983
 20
531.981016403407
 30
0.0
 11
686.7385250816981
 21
531.981016403407
 31
0.0
  0
INSERT
  5
9644
330
5D6F
100
AcDbEntity
  8
AM_5 寸法線
 62
     3
100
AcDbBlockReference
  2
GENDOT
 10
701.7385250816983
 20
531.981016403407
 30
0.0
 41
7.5
 42
7.5
 43
7.5
 50
180.0
  0
INSERT
  5
9645
330
5D6F
100
AcDbEntity
  8
AM_5 寸法線
 62
     3
100
AcDbBlockReference
  2
_Open30
 10
686.7385250816981
 20
531.981016403407
 30
0.0
 41
7.5
 42
7.5
 43
7.5
  0
MTEXT
  5
9646
330
5D6F
100
AcDbEntity
  8
AM_5 寸法線
 62
     3
100
AcDbMText
 10
660.2635250816981
 20
541.731016403407
 30
0.0
 40
10.5
 41
0.0
 46
0.0
 71
     5
 72
     1
  1
15
  7
SEISA
 73
     1
 44
1.0
  0
POINT
  5
9647
330
5D6F
100
AcDbEntity
  8
Defpoints
 62
     0
100
AcDbPoint
 10
701.7385250816983
 20
562.9810164034068
 30
0.0
  0
POINT
  5
9648
330
5D6F
100
AcDbEntity
  8
Defpoints
 62
     0
100
AcDbPoint
 10
686.7385250816981
 20
562.9810164034068
 30
0.0
  0
POINT
  5
9649
330
5D6F
100
AcDbEntity
  8
Defpoints
 62
     0
100
AcDbPoint
 10
686.7385250816981
 20
531.981016403407
 30
0.0
  0
ENDBLK
  5
5D71
330
5D6F
100
AcDbEntity
  8
0
100
AcDbBlockEnd
  0
BLOCK
  5
5D8C
330
5D8B
100
AcDbEntity
  8
0
100
AcDbBlockBegin
  2
*D20
 70
     1
 10
0.0
 20
0.0
 30
0.0
  3
*D20
  1

  0
LINE
  5
964A
330
5D8B
100
AcDbEntity
  8
AM_5 寸法線
 62
     3
100
AcDbLine
 10
701.7385250816983
 20
561.106016403407
 30
0.0
 11
701.7385250816983
 21
530.106016403407
 31
0.0
  0
LINE
  5
964B
330
5D8B
100
AcDbEntity
  8
AM_5 寸法線
 62
     3
100
AcDbLine
 10
716.7385250816981
 20
561.106016403407
 30
0.0
 11
716.7385250816981
 21
530.106016403407
 31
0.0
  0
LINE
  5
964C
330
5D8B
100
AcDbEntity
  8
AM_5 寸法線
 62
     3
100
AcDbLine
 10
694.2385250816982
 20
531.981016403407
 30
0.0
 11
686.7385250816981
 21
531.981016403407
 31
0.0
  0
LINE
  5
964D
330
5D8B
100
AcDbEntity
  8
AM_5 寸法線
 62
     3
100
AcDbLine
 10
724.2385250816981
 20
531.981016403407
 30
0.0
 11
754.6885250816983
 21
531.981016403407
 31
0.0
  0
LINE
  5
964E
330
5D8B
100
AcDbEntity
  8
AM_5 寸法線
 62
     3
100
AcDbLine
 10
701.7385250816983
 20
531.981016403407
 30
0.0
 11
716.7385250816981
 21
531.981016403407
 31
0.0
  0
INSERT
  5
964F
330
5D8B
100
AcDbEntity
  8
AM_5 寸法線
 62
     3
100
AcDbBlockReference
  2
GENDOT
 10
701.7385250816983
 20
531.981016403407
 30
0.0
 41
7.5
 42
7.5
 43
7.5
  0
INSERT
  5
9650
330
5D8B
100
AcDbEntity
  8
AM_5 寸法線
 62
     3
100
AcDbBlockReference
  2
_Open30
 10
716.7385250816981
 20
531.981016403407
 30
0.0
 41
7.5
 42
7.5
 43
7.5
 50
180.0
  0
MTEXT
  5
9651
330
5D8B
100
AcDbEntity
  8
AM_5 寸法線
 62
     3
100
AcDbMText
 10
743.2135250816983
 20
541.731016403407
 30
0.0
 40
10.5
 41
0.0
 46
0.0
 71
     5
 72
     1
  1
15
  7
SEISA
 73
     1
 44
1.0
  0
POINT
  5
9652
330
5D8B
100
AcDbEntity
  8
Defpoints
 62
     0
100
AcDbPoint
 10
701.7385250816983
 20
562.9810164034068
 30
0.0
  0
POINT
  5
9653
330
5D8B
100
AcDbEntity
  8
Defpoints
 62
     0
100
AcDbPoint
 10
716.7385250816981
 20
562.9810164034068
 30
0.0
  0
POINT
  5
9654
330
5D8B
100
AcDbEntity
  8
Defpoints
 62
     0
100
AcDbPoint
 10
716.7385250816981
 20
531.981016403407
 30
0.0
  0
ENDBLK
  5
5D8D
330
5D8B
100
AcDbEntity
  8
0
100
AcDbBlockEnd
  0
BLOCK
  5
5DA8
330
5DA7
100
AcDbEntity
  8
0
100
AcDbBlockBegin
  2
*D21
 70
     1
 10
0.0
 20
0.0
 30
0.0
  3
*D21
  1

  0
LINE
  5
95D7
330
5DA7
100
AcDbEntity
  8
AM_5 寸法線
 62
     3
100
AcDbLine
 10
463.7385250816983
 20
561.106016403407
 30
0.0
 11
463.7385250816983
 21
530.106016403407
 31
0.0
  0
LINE
  5
95D8
330
5DA7
100
AcDbEntity
  8
AM_5 寸法線
 62
     3
100
AcDbLine
 10
448.7385250816981
 20
561.106016403407
 30
0.0
 11
448.7385250816981
 21
530.106016403407
 31
0.0
  0
LINE
  5
95D9
330
5DA7
100
AcDbEntity
  8
AM_5 寸法線
 62
     3
100
AcDbLine
 10
471.2385250816983
 20
531.981016403407
 30
0.0
 11
478.738525081698
 21
531.981016403407
 31
0.0
  0
LINE
  5
95DA
330
5DA7
100
AcDbEntity
  8
AM_5 寸法線
 62
     3
100
AcDbLine
 10
441.238525081698
 20
531.981016403407
 30
0.0
 11
410.7885250816981
 21
531.981016403407
 31
0.0
  0
LINE
  5
95DB
330
5DA7
100
AcDbEntity
  8
AM_5 寸法線
 62
     3
100
AcDbLine
 10
463.7385250816983
 20
531.981016403407
 30
0.0
 11
448.7385250816981
 21
531.981016403407
 31
0.0
  0
INSERT
  5
95DC
330
5DA7
100
AcDbEntity
  8
AM_5 寸法線
 62
     3
100
AcDbBlockReference
  2
GENDOT
 10
463.7385250816983
 20
531.981016403407
 30
0.0
 41
7.5
 42
7.5
 43
7.5
 50
180.0
  0
INSERT
  5
95DD
330
5DA7
100
AcDbEntity
  8
AM_5 寸法線
 62
     3
100
AcDbBlockReference
  2
_Open30
 10
448.7385250816981
 20
531.981016403407
 30
0.0
 41
7.5
 42
7.5
 43
7.5
  0
MTEXT
  5
95DE
330
5DA7
100
AcDbEntity
  8
AM_5 寸法線
 62
     3
100
AcDbMText
 10
422.2635250816981
 20
541.731016403407
 30
0.0
 40
10.5
 41
0.0
 46
0.0
 71
     5
 72
     1
  1
15
  7
SEISA
 73
     1
 44
1.0
  0
POINT
  5
95DF
330
5DA7
100
AcDbEntity
  8
Defpoints
 62
     0
100
AcDbPoint
 10
463.7385250816983
 20
562.9810164034068
 30
0.0
  0
POINT
  5
95E0
330
5DA7
100
AcDbEntity
  8
Defpoints
 62
     0
100
AcDbPoint
 10
448.7385250816981
 20
562.9810164034068
 30
0.0
  0
POINT
  5
95E1
330
5DA7
100
AcDbEntity
  8
Defpoints
 62
     0
100
AcDbPoint
 10
448.7385250816981
 20
531.981016403407
 30
0.0
  0
ENDBLK
  5
5DA9
330
5DA7
100
AcDbEntity
  8
0
100
AcDbBlockEnd
  0
BLOCK
  5
5DC4
330
5DC3
100
AcDbEntity
  8
0
100
AcDbBlockBegin
  2
*D22
 70
     1
 10
0.0
 20
0.0
 30
0.0
  3
*D22
  1

  0
LINE
  5
8BDE
330
5DC3
100
AcDbEntity
  8
AM_5 寸法線
 62
     3
100
AcDbLine
 10
463.7385250816983
 20
561.106016403407
 30
0.0
 11
463.7385250816983
 21
530.106016403407
 31
0.0
  0
LINE
  5
8BDF
330
5DC3
100
AcDbEntity
  8
AM_5 寸法線
 62
     3
100
AcDbLine
 10
478.738525081698
 20
561.106016403407
 30
0.0
 11
478.738525081698
 21
530.106016403407
 31
0.0
  0
LINE
  5
8BE0
330
5DC3
100
AcDbEntity
  8
AM_5 寸法線
 62
     3
100
AcDbLine
 10
456.2385250816983
 20
531.981016403407
 30
0.0
 11
448.7385250816981
 21
531.981016403407
 31
0.0
  0
LINE
  5
8BE1
330
5DC3
100
AcDbEntity
  8
AM_5 寸法線
 62
     3
100
AcDbLine
 10
486.2385250816981
 20
531.981016403407
 30
0.0
 11
516.6885250816983
 21
531.981016403407
 31
0.0
  0
LINE
  5
8BE2
330
5DC3
100
AcDbEntity
  8
AM_5 寸法線
 62
     3
100
AcDbLine
 10
463.7385250816983
 20
531.981016403407
 30
0.0
 11
478.738525081698
 21
531.981016403407
 31
0.0
  0
INSERT
  5
8BE3
330
5DC3
100
AcDbEntity
  8
AM_5 寸法線
 62
     3
100
AcDbBlockReference
  2
GENDOT
 10
463.7385250816983
 20
531.981016403407
 30
0.0
 41
7.5
 42
7.5
 43
7.5
  0
INSERT
  5
8BE4
330
5DC3
100
AcDbEntity
  8
AM_5 寸法線
 62
     3
100
AcDbBlockReference
  2
_Open30
 10
478.738525081698
 20
531.981016403407
 30
0.0
 41
7.5
 42
7.5
 43
7.5
 50
180.0
  0
MTEXT
  5
8BE5
330
5DC3
100
AcDbEntity
  8
AM_5 寸法線
 62
     3
100
AcDbMText
 10
505.2135250816983
 20
541.731016403407
 30
0.0
 40
10.5
 41
0.0
 46
0.0
 71
     5
 72
     1
  1
15
  7
SEISA
 73
     1
 44
1.0
  0
POINT
  5
8BE6
330
5DC3
100
AcDbEntity
  8
Defpoints
 62
     0
100
AcDbPoint
 10
463.7385250816983
 20
562.9810164034068
 30
0.0
  0
POINT
  5
8BE7
330
5DC3
100
AcDbEntity
  8
Defpoints
 62
     0
100
AcDbPoint
 10
478.738525081698
 20
562.9810164034068
 30
0.0
  0
POINT
  5
8BE8
330
5DC3
100
AcDbEntity
  8
Defpoints
 62
     0
100
AcDbPoint
 10
478.738525081698
 20
531.981016403407
 30
0.0
  0
ENDBLK
  5
5DC5
330
5DC3
100
AcDbEntity
  8
0
100
AcDbBlockEnd
  0
BLOCK
  5
5DE0
330
5DDF
100
AcDbEntity
  8
0
100
AcDbBlockBegin
  2
*D23
 70
     1
 10
0.0
 20
0.0
 30
0.0
  3
*D23
  1

  0
LINE
  5
95E2
330
5DDF
100
AcDbEntity
  8
AM_5 寸法線
 62
     3
100
AcDbLine
 10
332.7385250816981
 20
607.406016403407
 30
0.0
 11
332.7385250816981
 21
500.1060164034069
 31
0.0
  0
LINE
  5
95E3
330
5DDF
100
AcDbEntity
  8
AM_5 寸法線
 62
     3
100
AcDbLine
 10
389.7385250816983
 20
589.106016403407
 30
0.0
 11
389.7385250816983
 21
500.1060164034069
 31
0.0
  0
LINE
  5
95E4
330
5DDF
100
AcDbEntity
  8
AM_5 寸法線
 62
     3
100
AcDbLine
 10
340.2385250816981
 20
501.9810164034069
 30
0.0
 11
382.2385250816984
 21
501.9810164034069
 31
0.0
  0
INSERT
  5
95E5
330
5DDF
100
AcDbEntity
  8
AM_5 寸法線
 62
     3
100
AcDbBlockReference
  2
_Open30
 10
332.7385250816981
 20
501.9810164034069
 30
0.0
 41
7.5
 42
7.5
 43
7.5
 50
180.0
  0
INSERT
  5
95E6
330
5DDF
100
AcDbEntity
  8
AM_5 寸法線
 62
     3
100
AcDbBlockReference
  2
_Open30
 10
389.7385250816983
 20
501.9810164034069
 30
0.0
 41
7.5
 42
7.5
 43
7.5
  0
MTEXT
  5
95E7
330
5DDF
100
AcDbEntity
  8
AM_5 寸法線
 62
     3
100
AcDbMText
 10
361.2385250816981
 20
511.7310164034069
 30
0.0
 40
10.5
 41
0.0
 46
0.0
 71
     5
 72
     1
  1
57
  7
SEISA
 73
     1
 44
1.0
  0
POINT
  5
95E8
330
5DDF
100
AcDbEntity
  8
Defpoints
 62
     0
100
AcDbPoint
 10
332.7385250816981
 20
609.2810164034069
 30
0.0
  0
POINT
  5
95E9
330
5DDF
100
AcDbEntity
  8
Defpoints
 62
     0
100
AcDbPoint
 10
389.7385250816983
 20
590.981016403407
 30
0.0
  0
POINT
  5
95EA
330
5DDF
100
AcDbEntity
  8
Defpoints
 62
     0
100
AcDbPoint
 10
389.7385250816983
 20
501.9810164034069
 30
0.0
  0
ENDBLK
  5
5DE1
330
5DDF
100
AcDbEntity
  8
0
100
AcDbBlockEnd
  0
BLOCK
  5
5DF8
330
5DF7
100
AcDbEntity
  8
0
100
AcDbBlockBegin
  2
*D24
 70
     1
 10
0.0
 20
0.0
 30
0.0
  3
*D24
  1

  0
LINE
  5
95EB
330
5DF7
100
AcDbEntity
  8
AM_5 寸法線
 62
     3
100
AcDbLine
 10
389.7385250816983
 20
589.106016403407
 30
0.0
 11
389.7385250816983
 21
500.1060164034069
 31
0.0
  0
LINE
  5
95EC
330
5DF7
100
AcDbEntity
  8
AM_5 寸法線
 62
     3
100
AcDbLine
 10
463.7385250816983
 20
561.106016403407
 30
0.0
 11
463.7385250816983
 21
500.1060164034069
 31
0.0
  0
LINE
  5
95ED
330
5DF7
100
AcDbEntity
  8
AM_5 寸法線
 62
     3
100
AcDbLine
 10
397.2385250816983
 20
501.9810164034069
 30
0.0
 11
456.2385250816983
 21
501.9810164034069
 31
0.0
  0
INSERT
  5
95EE
330
5DF7
100
AcDbEntity
  8
AM_5 寸法線
 62
     3
100
AcDbBlockReference
  2
_Open30
 10
389.7385250816983
 20
501.9810164034069
 30
0.0
 41
7.5
 42
7.5
 43
7.5
 50
180.0
  0
INSERT
  5
95EF
330
5DF7
100
AcDbEntity
  8
AM_5 寸法線
 62
     3
100
AcDbBlockReference
  2
_Open30
 10
463.7385250816983
 20
501.9810164034069
 30
0.0
 41
7.5
 42
7.5
 43
7.5
  0
MTEXT
  5
95F0
330
5DF7
100
AcDbEntity
  8
AM_5 寸法線
 62
     3
100
AcDbMText
 10
426.7385250816983
 20
511.7310164034069
 30
0.0
 40
10.5
 41
0.0
 46
0.0
 71
     5
 72
     1
  1
74
  7
SEISA
 73
     1
 44
1.0
  0
POINT
  5
95F1
330
5DF7
100
AcDbEntity
  8
Defpoints
 62
     0
100
AcDbPoint
 10
389.7385250816983
 20
590.981016403407
 30
0.0
  0
POINT
  5
95F2
330
5DF7
100
AcDbEntity
  8
Defpoints
 62
     0
100
AcDbPoint
 10
463.7385250816983
 20
562.9810164034068
 30
0.0
  0
POINT
  5
95F3
330
5DF7
100
AcDbEntity
  8
Defpoints
 62
     0
100
AcDbPoint
 10
463.7385250816983
 20
501.9810164034069
 30
0.0
  0
ENDBLK
  5
5DF9
330
5DF7
100
AcDbEntity
  8
0
100
AcDbBlockEnd
  0
BLOCK
  5
5E28
330
5E27
100
AcDbEntity
  8
0
100
AcDbBlockBegin
  2
*D25
 70
     1
 10
0.0
 20
0.0
 30
0.0
  3
*D25
  1

  0
LINE
  5
9655
330
5E27
100
AcDbEntity
  8
AM_5 寸法線
 62
     3
100
AcDbLine
 10
701.7385250816983
 20
561.106016403407
 30
0.0
 11
701.7385250816983
 21
500.1060164034069
 31
0.0
  0
LINE
  5
9656
330
5E27
100
AcDbEntity
  8
AM_5 寸法線
 62
     3
100
AcDbLine
 10
775.7385250816981
 20
589.106016403407
 30
0.0
 11
775.7385250816981
 21
500.1060164034069
 31
0.0
  0
LINE
  5
9657
330
5E27
100
AcDbEntity
  8
AM_5 寸法線
 62
     3
100
AcDbLine
 10
709.2385250816981
 20
501.9810164034069
 30
0.0
 11
768.2385250816983
 21
501.9810164034069
 31
0.0
  0
INSERT
  5
9658
330
5E27
100
AcDbEntity
  8
AM_5 寸法線
 62
     3
100
AcDbBlockReference
  2
_Open30
 10
701.7385250816983
 20
501.9810164034069
 30
0.0
 41
7.5
 42
7.5
 43
7.5
 50
180.0
  0
INSERT
  5
9659
330
5E27
100
AcDbEntity
  8
AM_5 寸法線
 62
     3
100
AcDbBlockReference
  2
_Open30
 10
775.7385250816981
 20
501.9810164034069
 30
0.0
 41
7.5
 42
7.5
 43
7.5
  0
MTEXT
  5
965A
330
5E27
100
AcDbEntity
  8
AM_5 寸法線
 62
     3
100
AcDbMText
 10
738.7385250816983
 20
511.7310164034069
 30
0.0
 40
10.5
 41
0.0
 46
0.0
 71
     5
 72
     1
  1
74
  7
SEISA
 73
     1
 44
1.0
  0
POINT
  5
965B
330
5E27
100
AcDbEntity
  8
Defpoints
 62
     0
100
AcDbPoint
 10
701.7385250816983
 20
562.9810164034068
 30
0.0
  0
POINT
  5
965C
330
5E27
100
AcDbEntity
  8
Defpoints
 62
     0
100
AcDbPoint
 10
775.7385250816981
 20
590.981016403407
 30
0.0
  0
POINT
  5
965D
330
5E27
100
AcDbEntity
  8
Defpoints
 62
     0
100
AcDbPoint
 10
775.7385250816981
 20
501.9810164034069
 30
0.0
  0
ENDBLK
  5
5E29
330
5E27
100
AcDbEntity
  8
0
100
AcDbBlockEnd
  0
BLOCK
  5
5E40
330
5E3F
100
AcDbEntity
  8
0
100
AcDbBlockBegin
  2
*D26
 70
     1
 10
0.0
 20
0.0
 30
0.0
  3
*D26
  1

  0
LINE
  5
962D
330
5E3F
100
AcDbEntity
  8
AM_5 寸法線
 62
     3
100
AcDbLine
 10
775.7385250816981
 20
589.106016403407
 30
0.0
 11
775.7385250816981
 21
500.1060164034069
 31
0.0
  0
LINE
  5
962E
330
5E3F
100
AcDbEntity
  8
AM_5 寸法線
 62
     3
100
AcDbLine
 10
832.7385250816979
 20
607.406016403407
 30
0.0
 11
832.7385250816979
 21
500.1060164034069
 31
0.0
  0
LINE
  5
962F
330
5E3F
100
AcDbEntity
  8
AM_5 寸法線
 62
     3
100
AcDbLine
 10
783.2385250816981
 20
501.9810164034069
 30
0.0
 11
825.2385250816981
 21
501.9810164034069
 31
0.0
  0
INSERT
  5
9630
330
5E3F
100
AcDbEntity
  8
AM_5 寸法線
 62
     3
100
AcDbBlockReference
  2
_Open30
 10
775.7385250816981
 20
501.9810164034069
 30
0.0
 41
7.5
 42
7.5
 43
7.5
 50
180.0
  0
INSERT
  5
9631
330
5E3F
100
AcDbEntity
  8
AM_5 寸法線
 62
     3
100
AcDbBlockReference
  2
_Open30
 10
832.7385250816979
 20
501.9810164034069
 30
0.0
 41
7.5
 42
7.5
 43
7.5
  0
MTEXT
  5
9632
330
5E3F
100
AcDbEntity
  8
AM_5 寸法線
 62
     3
100
AcDbMText
 10
804.2385250816979
 20
511.7310164034069
 30
0.0
 40
10.5
 41
0.0
 46
0.0
 71
     5
 72
     1
  1
57
  7
SEISA
 73
     1
 44
1.0
  0
POINT
  5
9633
330
5E3F
100
AcDbEntity
  8
Defpoints
 62
     0
100
AcDbPoint
 10
775.7385250816981
 20
590.981016403407
 30
0.0
  0
POINT
  5
9634
330
5E3F
100
AcDbEntity
  8
Defpoints
 62
     0
100
AcDbPoint
 10
832.7385250816979
 20
609.2810164034069
 30
0.0
  0
POINT
  5
9635
330
5E3F
100
AcDbEntity
  8
Defpoints
 62
     0
100
AcDbPoint
 10
832.7385250816979
 20
501.9810164034069
 30
0.0
  0
ENDBLK
  5
5E41
330
5E3F
100
AcDbEntity
  8
0
100
AcDbBlockEnd
  0
BLOCK
  5
612F
330
612E
100
AcDbEntity
  8
0
100
AcDbBlockBegin
  2
*D27
 70
     1
 10
0.0
 20
0.0
 30
0.0
  3
*D27
  1

  0
LINE
  5
9636
330
612E
100
AcDbEntity
  8
AM_5 寸法線
 62
     3
100
AcDbLine
 10
788.6135250816981
 20
769.481016403407
 30
0.0
 11
894.6135250816983
 21
769.481016403407
 31
0.0
  0
LINE
  5
9637
330
612E
100
AcDbEntity
  8
AM_5 寸法線
 62
     3
100
AcDbLine
 10
788.6135250816981
 20
604.4810164034069
 30
0.0
 11
894.6135250816981
 21
604.4810164034069
 31
0.0
  0
LINE
  5
9638
330
612E
100
AcDbEntity
  8
AM_5 寸法線
 62
     3
100
AcDbLine
 10
892.7385250816982
 20
761.981016403407
 30
0.0
 11
892.7385250816982
 21
611.981016403407
 31
0.0
  0
INSERT
  5
9639
330
612E
100
AcDbEntity
  8
AM_5 寸法線
 62
     3
100
AcDbBlockReference
  2
_Open30
 10
892.7385250816982
 20
769.481016403407
 30
0.0
 41
7.5
 42
7.5
 43
7.5
 50
90.0
  0
INSERT
  5
963A
330
612E
100
AcDbEntity
  8
AM_5 寸法線
 62
     3
100
AcDbBlockReference
  2
_Open30
 10
892.7385250816982
 20
604.4810164034069
 30
0.0
 41
7.5
 42
7.5
 43
7.5
 50
270.0
  0
MTEXT
  5
963B
330
612E
100
AcDbEntity
  8
AM_5 寸法線
 62
     3
100
AcDbMText
 10
882.988525081698
 20
686.9810164034072
 30
0.0
 40
10.5
 41
0.0
 46
0.0
 71
     5
 72
     1
  1
%%c165
  7
SEISA
 11
0.0000000000000001
 21
1.0
 31
0.0
 73
     1
 44
1.0
  0
POINT
  5
963C
330
612E
100
AcDbEntity
  8
Defpoints
 62
     0
100
AcDbPoint
 10
786.7385250816981
 20
769.481016403407
 30
0.0
  0
POINT
  5
963D
330
612E
100
AcDbEntity
  8
Defpoints
 62
     0
100
AcDbPoint
 10
786.7385250816981
 20
604.4810164034069
 30
0.0
  0
POINT
  5
963E
330
612E
100
AcDbEntity
  8
Defpoints
 62
     0
100
AcDbPoint
 10
892.7385250816982
 20
604.4810164034069
 30
0.0
  0
ENDBLK
  5
6130
330
612E
100
AcDbEntity
  8
0
100
AcDbBlockEnd
  0
BLOCK
  5
6147
330
6146
100
AcDbEntity
  8
0
100
AcDbBlockBegin
  2
*D28
 70
     1
 10
0.0
 20
0.0
 30
0.0
  3
*D28
  1

  0
LINE
  5
965E
330
6146
100
AcDbEntity
  8
AM_5 寸法線
 62
     3
100
AcDbLine
 10
773.6135250816983
 20
786.981016403407
 30
0.0
 11
924.6135250816983
 21
786.981016403407
 31
0.0
  0
LINE
  5
965F
330
6146
100
AcDbEntity
  8
AM_5 寸法線
 62
     3
100
AcDbLine
 10
773.6135250816983
 20
586.981016403407
 30
0.0
 11
924.6135250816983
 21
586.981016403407
 31
0.0
  0
LINE
  5
9660
330
6146
100
AcDbEntity
  8
AM_5 寸法線
 62
     3
100
AcDbLine
 10
922.7385250816983
 20
779.4810164034068
 30
0.0
 11
922.7385250816979
 21
594.481016403407
 31
0.0
  0
INSERT
  5
9661
330
6146
100
AcDbEntity
  8
AM_5 寸法線
 62
     3
100
AcDbBlockReference
  2
_Open30
 10
922.7385250816983
 20
786.981016403407
 30
0.0
 41
7.5
 42
7.5
 43
7.5
 50
90.0
  0
INSERT
  5
9662
330
6146
100
AcDbEntity
  8
AM_5 寸法線
 62
     3
100
AcDbBlockReference
  2
_Open30
 10
922.7385250816979
 20
586.981016403407
 30
0.0
 41
7.5
 42
7.5
 43
7.5
 50
270.0
  0
MTEXT
  5
9663
330
6146
100
AcDbEntity
  8
AM_5 寸法線
 62
     3
100
AcDbMText
 10
912.9885250816979
 20
686.9810164034072
 30
0.0
 40
10.5
 41
0.0
 46
0.0
 71
     5
 72
     1
  1
%%c200
  7
SEISA
 11
0.0000000000000001
 21
1.0
 31
0.0
 73
     1
 44
1.0
  0
POINT
  5
9664
330
6146
100
AcDbEntity
  8
Defpoints
 62
     0
100
AcDbPoint
 10
771.7385250816983
 20
786.981016403407
 30
0.0
  0
POINT
  5
9665
330
6146
100
AcDbEntity
  8
Defpoints
 62
     0
100
AcDbPoint
 10
771.7385250816983
 20
586.981016403407
 30
0.0
  0
POINT
  5
9666
330
6146
100
AcDbEntity
  8
Defpoints
 62
     0
100
AcDbPoint
 10
922.7385250816979
 20
586.981016403407
 30
0.0
  0
ENDBLK
  5
6148
330
6146
100
AcDbEntity
  8
0
100
AcDbBlockEnd
  0
BLOCK
  5
615F
330
615E
100
AcDbEntity
  8
0
100
AcDbBlockBegin
  2
*D29
 70
     1
 10
0.0
 20
0.0
 30
0.0
  3
*D29
  1

  0
LINE
  5
9667
330
615E
100
AcDbEntity
  8
AM_5 寸法線
 62
     3
100
AcDbLine
 10
717.6135250816981
 20
811.981016403407
 30
0.0
 11
954.6135250816982
 21
811.9810164034067
 31
0.0
  0
LINE
  5
9668
330
615E
100
AcDbEntity
  8
AM_5 寸法線
 62
     3
100
AcDbLine
 10
717.6135250816981
 20
561.981016403407
 30
0.0
 11
954.6135250816982
 21
561.9810164034069
 31
0.0
  0
LINE
  5
9669
330
615E
100
AcDbEntity
  8
AM_5 寸法線
 62
     3
100
AcDbLine
 10
952.7385250816983
 20
804.4810164034068
 30
0.0
 11
952.7385250816983
 21
569.4810164034069
 31
0.0
  0
INSERT
  5
966A
330
615E
100
AcDbEntity
  8
AM_5 寸法線
 62
     3
100
AcDbBlockReference
  2
_Open30
 10
952.7385250816983
 20
811.9810164034067
 30
0.0
 41
7.5
 42
7.5
 43
7.5
 50
90.0
  0
INSERT
  5
966B
330
615E
100
AcDbEntity
  8
AM_5 寸法線
 62
     3
100
AcDbBlockReference
  2
_Open30
 10
952.7385250816983
 20
561.9810164034069
 30
0.0
 41
7.5
 42
7.5
 43
7.5
 50
270.0
  0
MTEXT
  5
966C
330
615E
100
AcDbEntity
  8
AM_5 寸法線
 62
     3
100
AcDbMText
 10
942.988525081698
 20
686.981016403407
 30
0.0
 40
10.5
 41
0.0
 46
0.0
 71
     5
 72
     1
  1
%%c250
  7
SEISA
 11
0.0000000000000001
 21
1.0
 31
0.0
 73
     1
 44
1.0
  0
POINT
  5
966D
330
615E
100
AcDbEntity
  8
Defpoints
 62
     0
100
AcDbPoint
 10
715.7385250816981
 20
811.981016403407
 30
0.0
  0
POINT
  5
966E
330
615E
100
AcDbEntity
  8
Defpoints
 62
     0
100
AcDbPoint
 10
715.7385250816981
 20
561.981016403407
 30
0.0
  0
POINT
  5
966F
330
615E
100
AcDbEntity
  8
Defpoints
 62
     0
100
AcDbPoint
 10
952.7385250816983
 20
561.9810164034069
 30
0.0
  0
ENDBLK
  5
6160
330
615E
100
AcDbEntity
  8
0
100
AcDbBlockEnd
  0
BLOCK
  5
7E8B
330
7E8A
100
AcDbEntity
  8
0
100
AcDbBlockBegin
  2
ＧＣスペーサ SAMY250
 70
     0
 10
0.0
 20
0.0
 30
0.0
  3
ＧＣスペーサ SAMY250
  1

  0
HATCH
  5
7E8D
330
7E8A
100
AcDbEntity
  8
AM_8 ハッチング
100
AcDbHatch
 10
0.0
 20
0.0
 30
0.0
210
0.0
220
0.0
230
1.0
  2
_USER
 70
     0
 71
     1
 91
        1
 92
        7
 72
     1
 73
     1
 93
        5
 10
38.50777489925065
 20
82.6000000000006
 42
0.0
 10
19.9999999999988
 20
82.6000000000006
 42
0.0
 10
19.99999999999886
 20
69.40000000000009
 42
0.4142135623730817
 10
24.99999999999886
 20
64.40000000000032
 42
0.0
 10
27.99999999999943
 20
64.40000000000032
 42
0.0
 97
        5
330
7E92
330
7EE8
330
7EE9
330
7E8E
330
7EF1
 75
     0
 76
     0
 52
45.0
 41
1.0
 77
     0
 78
     1
 53
45.0
 43
-419.1131014387558
 44
-560.4068632439028
 45
-0.7071067811865475
 46
0.7071067811865476
 79
     0
 47
0.0643268014400083
 98
        1
 10
29.07271270511296
 20
73.10835196911624
1001
ACAD
1010
0.0
1020
0.0
1030
0.0
  0
LINE
  5
7E8E
102
{ACAD_REACTORS
330
7E8D
102
}
330
7E8A
100
AcDbEntity
  8
AM_0 外形線1
100
AcDbLine
 10
24.99999999999886
 20
64.40000000000032
 30
0.0
 11
109.075803168661
 21
64.40000000000009
 31
0.0
  0
LINE
  5
7E8F
330
7E8A
100
AcDbEntity
  8
AM_0 外形線1
100
AcDbLine
 10
115.4298432609492
 20
64.40000000000009
 30
0.0
 11
213.0000000000012
 21
64.40000000000054
 31
0.0
  0
LINE
  5
7E90
330
7E8A
100
AcDbEntity
  8
AM_0 外形線1
100
AcDbLine
 10
44.99999999999983
 20
-82.59999999999957
 30
0.0
 11
114.0462825902764
 21
-82.5999999999999
 31
0.0
  0
LINE
  5
7E91
330
7E8A
100
AcDbEntity
  8
AM_0 外形線1
100
AcDbLine
 10
120.0462825902764
 20
-82.5999999999999
 30
0.0
 11
193.0000000000003
 21
-82.5999999999999
 31
0.0
  0
LINE
  5
7E92
102
{ACAD_REACTORS
330
7E8D
102
}
330
7E8A
100
AcDbEntity
  8
AM_0 外形線1
100
AcDbLine
 10
20.0
 20
82.6000000000006
 30
0.0
 11
114.0462825902766
 21
82.60000000000038
 31
0.0
  0
LINE
  5
7E93
330
7E8A
100
AcDbEntity
  8
AM_0 外形線1
100
AcDbLine
 10
120.0462825902766
 20
82.60000000000038
 30
0.0
 11
218.0000000000002
 21
82.60000000000038
 31
0.0
  0
LINE
  5
7E94
330
7E8A
100
AcDbEntity
  8
AM_0 外形線1
100
AcDbLine
 10
237.9999999999999
 20
-0.0000000000002274
 30
0.0
 11
238.0000000000002
 21
-124.5
 31
0.0
  0
LINE
  5
7E95
330
7E8A
100
AcDbEntity
  8
AM_7 中心線
100
AcDbLine
 10
218.0000000000002
 20
-114.0
 30
0.0
 11
257.9999999999998
 21
-114.0
 31
0.0
  0
LINE
  5
7E96
330
7E8A
100
AcDbEntity
  8
AM_0 外形線1
100
AcDbLine
 10
238.0000000000005
 20
98.50000000000001
 30
0.0
 11
238.0000000000003
 21
108.5000000000004
 31
0.0
  0
LINE
  5
7E97
330
7E8A
100
AcDbEntity
  8
AM_0 外形線1
100
AcDbLine
 10
238.0000000000003
 20
119.5000000000007
 30
0.0
 11
238.0000000000002
 21
124.4999999999995
 31
0.0
  0
LINE
  5
7E98
330
7E8A
100
AcDbEntity
  8
AM_0 外形線1
100
AcDbLine
 10
237.5000000000001
 20
97.99999999999954
 30
0.0
 11
238.0000000000001
 21
98.49999999999957
 31
0.0
1001
GENIUS_GENFIL_13
1070
     0
1040
0.5
1040
0.5
1040
0.5
1040
44.99999999999348
1000
~T
1001
GENIUS_GENOREF_13
1005
7F01
  0
POLYLINE
  5
7E99
330
7E8A
100
AcDbEntity
  8
AM_4 細線
100
AcDb2dPolyline
 66
     1
 10
0.0
 20
0.0
 30
0.0
 70
     2
  0
VERTEX
  5
9AA7
330
7E99
100
AcDbEntity
  8
AM_4 細線
100
AcDbVertex
100
AcDb2dVertex
 10
120.0462825902765
 20
82.5999999999999
 30
0.0
 42
0.0536923184883127
  0
VERTEX
  5
9AA8
330
7E99
100
AcDbEntity
  8
AM_4 細線
100
AcDbVertex
100
AcDb2dVertex
 10
116.0971529527243
 20
70.75633467487023
 30
0.0
 42
0.0761923129909502
 70
     1
  0
VERTEX
  5
9AA9
330
7E99
100
AcDbEntity
  8
AM_4 細線
100
AcDbVertex
100
AcDb2dVertex
 10
115.5462825902765
 20
61.94999999999982
 30
0.0
 42
0.0723089252938392
  0
VERTEX
  5
9AAA
330
7E99
100
AcDbEntity
  8
AM_4 細線
100
AcDbVertex
100
AcDb2dVertex
 10
118.3232091654442
 20
50.29940676354089
 30
0.0
 42
-0.0948709701459117
 70
     1
  0
VERTEX
  5
9AAB
330
7E99
100
AcDbEntity
  8
AM_4 細線
100
AcDbVertex
100
AcDb2dVertex
 10
120.0462825902765
 20
41.30000000000018
 30
0.0
 42
-0.1076951074394953
  0
VERTEX
  5
9AAC
330
7E99
100
AcDbEntity
  8
AM_4 細線
100
AcDbVertex
100
AcDb2dVertex
 10
117.7962825902765
 20
30.97499999999991
 30
0.0
 42
0.1076951074394961
 70
     1
  0
VERTEX
  5
9AAD
330
7E99
100
AcDbEntity
  8
AM_4 細線
100
AcDbVertex
100
AcDb2dVertex
 10
115.5462825902765
 20
20.65000000000009
 30
0.0
 42
0.1076951074394958
  0
VERTEX
  5
9AAE
330
7E99
100
AcDbEntity
  8
AM_4 細線
100
AcDbVertex
100
AcDb2dVertex
 10
117.7962825902765
 20
10.32499999999981
 30
0.0
 42
-0.1076951074394958
 70
     1
  0
VERTEX
  5
9AAF
330
7E99
100
AcDbEntity
  8
AM_4 細線
100
AcDbVertex
100
AcDb2dVertex
 10
120.0462825902765
 20
0.0
 30
0.0
 42
-0.1076951074394961
  0
VERTEX
  5
9AB0
330
7E99
100
AcDbEntity
  8
AM_4 細線
100
AcDbVertex
100
AcDb2dVertex
 10
117.7962825902765
 20
-10.32499999999981
 30
0.0
 42
0.1076951074394953
 70
     1
  0
VERTEX
  5
9AB1
330
7E99
100
AcDbEntity
  8
AM_4 細線
100
AcDbVertex
100
AcDb2dVertex
 10
115.5462825902765
 20
-20.65000000000009
 30
0.0
 42
0.1076951074394955
  0
VERTEX
  5
9AB2
330
7E99
100
AcDbEntity
  8
AM_4 細線
100
AcDbVertex
100
AcDb2dVertex
 10
117.7962825902765
 20
-30.97499999999991
 30
0.0
 42
-0.1076951074394965
 70
     1
  0
VERTEX
  5
9AB3
330
7E99
100
AcDbEntity
  8
AM_4 細線
100
AcDbVertex
100
AcDb2dVertex
 10
120.0462825902765
 20
-41.30000000000018
 30
0.0
 42
-0.0948709701459239
  0
VERTEX
  5
9AB4
330
7E99
100
AcDbEntity
  8
AM_4 細線
100
AcDbVertex
100
AcDb2dVertex
 10
118.323209165444
 20
-50.29940676354089
 30
0.0
 42
0.0723089252938299
 70
     1
  0
VERTEX
  5
9AB5
330
7E99
100
AcDbEntity
  8
AM_4 細線
100
AcDbVertex
100
AcDb2dVertex
 10
115.5462825902765
 20
-61.94999999999982
 30
0.0
 42
0.0761923129909514
  0
VERTEX
  5
9AB6
330
7E99
100
AcDbEntity
  8
AM_4 細線
100
AcDbVertex
100
AcDb2dVertex
 10
116.0971529527243
 20
-70.75633467486976
 30
0.0
 42
0.0536923184883131
 70
     1
  0
VERTEX
  5
9AB7
330
7E99
100
AcDbEntity
  8
AM_4 細線
100
AcDbVertex
100
AcDb2dVertex
 10
120.0462825902765
 20
-82.5999999999999
 30
0.0
  0
SEQEND
  5
9AB8
330
7E99
100
AcDbEntity
  8
AM_4 細線
  0
POLYLINE
  5
7EAC
330
7E8A
100
AcDbEntity
  8
AM_4 細線
100
AcDb2dPolyline
 66
     1
 10
0.0
 20
0.0
 30
0.0
 70
     2
  0
VERTEX
  5
9ABA
330
7EAC
100
AcDbEntity
  8
AM_4 細線
100
AcDbVertex
100
AcDb2dVertex
 10
114.0462825902765
 20
82.5999999999999
 30
0.0
 42
0.0536923184883127
  0
VERTEX
  5
9ABB
330
7EAC
100
AcDbEntity
  8
AM_4 細線
100
AcDbVertex
100
AcDb2dVertex
 10
110.0971529527243
 20
70.75633467487023
 30
0.0
 42
0.0761923129909502
 70
     1
  0
VERTEX
  5
9ABC
330
7EAC
100
AcDbEntity
  8
AM_4 細線
100
AcDbVertex
100
AcDb2dVertex
 10
109.5462825902765
 20
61.94999999999982
 30
0.0
 42
0.0723089252938392
  0
VERTEX
  5
9ABD
330
7EAC
100
AcDbEntity
  8
AM_4 細線
100
AcDbVertex
100
AcDb2dVertex
 10
112.3232091654442
 20
50.29940676354089
 30
0.0
 42
-0.0948709701459117
 70
     1
  0
VERTEX
  5
9ABE
330
7EAC
100
AcDbEntity
  8
AM_4 細線
100
AcDbVertex
100
AcDb2dVertex
 10
114.0462825902765
 20
41.30000000000018
 30
0.0
 42
-0.1076951074394953
  0
VERTEX
  5
9ABF
330
7EAC
100
AcDbEntity
  8
AM_4 細線
100
AcDbVertex
100
AcDb2dVertex
 10
111.7962825902765
 20
30.97499999999991
 30
0.0
 42
0.1076951074394961
 70
     1
  0
VERTEX
  5
9AC0
330
7EAC
100
AcDbEntity
  8
AM_4 細線
100
AcDbVertex
100
AcDb2dVertex
 10
109.5462825902765
 20
20.65000000000009
 30
0.0
 42
0.1076951074394958
  0
VERTEX
  5
9AC1
330
7EAC
100
AcDbEntity
  8
AM_4 細線
100
AcDbVertex
100
AcDb2dVertex
 10
111.7962825902765
 20
10.32499999999981
 30
0.0
 42
-0.1076951074394958
 70
     1
  0
VERTEX
  5
9AC2
330
7EAC
100
AcDbEntity
  8
AM_4 細線
100
AcDbVertex
100
AcDb2dVertex
 10
114.0462825902765
 20
0.0
 30
0.0
 42
-0.1076951074394961
  0
VERTEX
  5
9AC3
330
7EAC
100
AcDbEntity
  8
AM_4 細線
100
AcDbVertex
100
AcDb2dVertex
 10
111.7962825902765
 20
-10.32499999999981
 30
0.0
 42
0.1076951074394953
 70
     1
  0
VERTEX
  5
9AC4
330
7EAC
100
AcDbEntity
  8
AM_4 細線
100
AcDbVertex
100
AcDb2dVertex
 10
109.5462825902765
 20
-20.65000000000009
 30
0.0
 42
0.1076951074394955
  0
VERTEX
  5
9AC5
330
7EAC
100
AcDbEntity
  8
AM_4 細線
100
AcDbVertex
100
AcDb2dVertex
 10
111.7962825902765
 20
-30.97499999999991
 30
0.0
 42
-0.1076951074394965
 70
     1
  0
VERTEX
  5
9AC6
330
7EAC
100
AcDbEntity
  8
AM_4 細線
100
AcDbVertex
100
AcDb2dVertex
 10
114.0462825902765
 20
-41.30000000000018
 30
0.0
 42
-0.0948709701459239
  0
VERTEX
  5
9AC7
330
7EAC
100
AcDbEntity
  8
AM_4 細線
100
AcDbVertex
100
AcDb2dVertex
 10
112.323209165444
 20
-50.29940676354089
 30
0.0
 42
0.0723089252938299
 70
     1
  0
VERTEX
  5
9AC8
330
7EAC
100
AcDbEntity
  8
AM_4 細線
100
AcDbVertex
100
AcDb2dVertex
 10
109.5462825902765
 20
-61.94999999999982
 30
0.0
 42
0.0761923129909514
  0
VERTEX
  5
9AC9
330
7EAC
100
AcDbEntity
  8
AM_4 細線
100
AcDbVertex
100
AcDb2dVertex
 10
110.0971529527243
 20
-70.75633467486976
 30
0.0
 42
0.0536923184883131
 70
     1
  0
VERTEX
  5
9ACA
330
7EAC
100
AcDbEntity
  8
AM_4 細線
100
AcDbVertex
100
AcDb2dVertex
 10
114.0462825902765
 20
-82.5999999999999
 30
0.0
  0
SEQEND
  5
9ACB
330
7EAC
100
AcDbEntity
  8
AM_4 細線
  0
LINE
  5
7EBF
330
7E8A
100
AcDbEntity
  8
AM_0 外形線1
100
AcDbLine
 10
218.0000000000003
 20
-105.0
 30
0.0
 11
218.0000000000011
 21
0.0
 31
0.0
  0
LINE
  5
7EC0
330
7E8A
100
AcDbEntity
  8
AM_0 外形線1
100
AcDbLine
 10
237.5000000000003
 20
-125.0
 30
0.0
 11
238.0000000000003
 21
-124.5
 31
0.0
1001
GENIUS_GENFIL_13
1070
     0
1040
0.5
1040
0.5
1040
0.5
1040
45.00000000000325
1000
~T
1001
GENIUS_GENOREF_13
1005
7F00
  0
LINE
  5
7EC1
330
7E8A
100
AcDbEntity
  8
AM_7 中心線
100
AcDbLine
 10
218.0000000000003
 20
-114.0
 30
0.0
 11
258.0
 21
-114.0
 31
0.0
  0
LINE
  5
7EC2
330
7E8A
100
AcDbEntity
  8
AM_0 外形線1
100
AcDbLine
 10
237.5000000000003
 20
-125.0
 30
0.0
 11
224.0000000000003
 21
-125.0
 31
0.0
  0
LINE
  5
7EC3
330
7E8A
100
AcDbEntity
  8
AM_0 外形線1
100
AcDbLine
 10
223.0000000000003
 20
-124.0
 30
0.0
 11
224.0000000000003
 21
-125.0
 31
0.0
1001
GENIUS_GENFIL_13
1070
     0
1040
1.0
1040
1.0
1040
1.000000000000055
1040
44.99999999999836
1000
~T
1001
GENIUS_GENOREF_13
1005
7EFF
  0
LINE
  5
7EC4
330
7E8A
100
AcDbEntity
  8
AM_0 外形線1
100
AcDbLine
 10
223.0000000000003
 20
-124.0
 30
0.0
 11
223.0000000000004
 21
-0.0000000000002274
 31
0.0
  0
LINE
  5
7EC5
330
7E8A
100
AcDbEntity
  8
AM_0 外形線1
100
AcDbLine
 10
223.0000000000003
 20
-105.0
 30
0.0
 11
218.0000000000003
 21
-105.0
 31
0.0
  0
ARC
  5
7EC6
330
7E8A
100
AcDbEntity
  8
AM_0 外形線1
100
AcDbCircle
 10
193.0000000000003
 20
-97.5999999999999
 30
0.0
 40
15.0
100
AcDbArc
 50
38.38883145805347
 51
90.0
  0
LINE
  5
7EC7
330
7E8A
100
AcDbEntity
  8
AM_0 外形線1
100
AcDbLine
 10
218.0000000000003
 20
-105.0
 30
0.0
 11
204.7572178213729
 21
-88.28507492779488
 31
0.0
  0
LINE
  5
7EC8
330
7E8A
100
AcDbEntity
  8
AM_7 中心線
100
AcDbLine
 10
221.0000000000014
 20
113.9999999999997
 30
0.0
 11
240.0000000000014
 21
113.9999999999995
 31
0.0
  0
LINE
  5
7EC9
330
7E8A
100
AcDbEntity
  8
AM_0 外形線1
100
AcDbLine
 10
218.0000000000013
 20
104.9999999999998
 30
0.0
 11
218.0000000000013
 21
69.39999999999987
 31
0.0
  0
ARC
  5
7ECA
330
7E8A
100
AcDbEntity
  8
AM_0 外形線1
100
AcDbCircle
 10
213.0000000000012
 20
69.39999999999987
 30
0.0
 40
5.0
100
AcDbArc
 50
270.0
 51
0.0
1001
GENIUS_GENOBJ-N-FIL_13
1002
{
1000
OWNER
1000
GEN
1002
}
1001
GENIUS_GENODEF_13
1002
{
1000
HIER
1070
     0
1002
}
1002
{
1000
MANEDIT
1070
     0
1002
}
1002
{
1000
NOSEL
1070
     0
1002
}
1002
{
1000
BEHIND
1070
     0
1002
}
1002
{
1000
OTHER
1070
     0
1002
}
1002
{
1000
REACTOR
1002
}
  0
LINE
  5
7ECB
330
7E8A
100
AcDbEntity
  8
AM_0 外形線1
100
AcDbLine
 10
233.0000000000014
 20
97.99999999999954
 30
0.0
 11
233.0000000000008
 21
-0.0000000000004547
 31
0.0
  0
LINE
  5
7ECC
330
7E8A
100
AcDbEntity
  8
AM_0 外形線1
100
AcDbLine
 10
237.5000000000002
 20
124.9999999999995
 30
0.0
 11
238.0000000000002
 21
124.4999999999995
 31
0.0
1001
GENIUS_GENFIL_13
1070
     0
1040
0.5
1040
0.5
1040
0.5
1040
45.00000000000325
1000
~T
1001
GENIUS_GENOREF_13
1005
7EFE
  0
LINE
  5
7ECD
330
7E8A
100
AcDbEntity
  8
AM_0 外形線1
100
AcDbLine
 10
237.5000000000002
 20
124.9999999999995
 30
0.0
 11
224.0000000000016
 21
124.9999999999998
 31
0.0
  0
LINE
  5
7ECE
330
7E8A
100
AcDbEntity
  8
AM_0 外形線1
100
AcDbLine
 10
223.0000000000016
 20
123.9999999999997
 30
0.0
 11
224.0000000000016
 21
124.9999999999998
 31
0.0
1001
GENIUS_GENFIL_13
1070
     0
1040
1.0
1040
1.0
1040
1.000000000000055
1040
44.99999999999836
1000
~T
1001
GENIUS_GENOREF_13
1005
7EFD
  0
LINE
  5
7ECF
330
7E8A
100
AcDbEntity
  8
AM_0 外形線1
100
AcDbLine
 10
223.0000000000016
 20
123.9999999999997
 30
0.0
 11
223.0000000000014
 21
104.9999999999998
 31
0.0
  0
LINE
  5
7ED0
330
7E8A
100
AcDbEntity
  8
AM_0 外形線1
100
AcDbLine
 10
223.0000000000014
 20
104.9999999999998
 30
0.0
 11
218.0000000000013
 21
104.9999999999998
 31
0.0
  0
LINE
  5
7ED1
330
7E8A
100
AcDbEntity
  8
AM_0 外形線1
100
AcDbLine
 10
237.5000000000014
 20
97.99999999999954
 30
0.0
 11
233.0000000000014
 21
97.99999999999954
 31
0.0
  0
LINE
  5
7ED2
330
7E8A
100
AcDbEntity
  8
AM_0 外形線1
100
AcDbLine
 10
210.0000000000008
 20
64.39999999999987
 30
0.0
 11
199.4922251007497
 21
82.5999999999999
 31
0.0
  0
HATCH
  5
7ED3
330
7E8A
100
AcDbEntity
  8
AM_8 ハッチング
100
AcDbHatch
 10
0.0
 20
0.0
 30
0.0
210
0.0
220
0.0
230
1.0
  2
_USER
 70
     0
 71
     0
 91
        1
 92
        1
 93
        5
 72
     2
 10
213.0000000000012
 20
69.39999999999987
 40
5.0
 50
0.0000000000005813
 51
90.00000000000056
 73
     0
 72
     1
 10
213.0000000000012
 20
64.39999999999987
 11
210.0000000000008
 21
64.39999999999987
 72
     1
 10
210.0000000000008
 20
64.39999999999987
 11
199.4922251007498
 21
82.5999999999999
 72
     1
 10
199.4922251007497
 20
82.5999999999999
 11
218.0000000000011
 21
82.59999999999967
 72
     1
 10
218.0000000000011
 20
82.5999999999999
 11
218.0000000000013
 21
69.39999999999987
 97
        0
 75
     0
 76
     0
 52
45.0
 41
1.0
 77
     0
 78
     1
 53
45.0
 43
-551.2945024387554
 44
-560.4068632439028
 45
-0.7071067811865475
 46
0.7071067811865476
 79
     0
 98
        1
 10
-1244.213406050938
 20
-245.953663284264
1001
GENIUS_GENODEF_13
1002
{
1000
HIER
1070
     0
1002
}
1002
{
1000
MANEDIT
1070
     0
1002
}
1002
{
1000
NOSEL
1070
     0
1002
}
1002
{
1000
BEHIND
1070
     0
1002
}
1002
{
1000
OTHER
1070
     0
1002
}
1002
{
1000
REACTOR
1002
}
1001
GENIUS_GENOBJ-N-HTC_13
1002
{
1000
OWNER
1000
GEN
1002
}
1001
GENIUS_GENHATCH_13
1002
{
1000
DATA
1040
45.0
1042
-0.5
1000
_U
1070
     0
1011
212.6872387723543
1021
78.64797943645317
1031
0.0
1002
}
1002
{
1000
UCS
1010
0.0
1020
0.0
1030
0.0
1010
1.0
1020
0.0
1030
0.0
1010
0.0
1020
1.0
1030
0.0
1002
}
1001
ACAD
1010
0.0
1020
0.0
1030
0.0
  0
ARC
  5
7ED4
330
7E8A
100
AcDbEntity
  8
AM_0 外形線1
100
AcDbCircle
 10
193.0000000000013
 20
97.60000000000013
 30
0.0
 40
15.0
100
AcDbArc
 50
270.0
 51
321.6111685419465
  0
LINE
  5
7ED5
330
7E8A
100
AcDbEntity
  8
AM_0 外形線1
100
AcDbLine
 10
218.0000000000013
 20
104.9999999999998
 30
0.0
 11
204.7572178213739
 21
88.28507492779477
 31
0.0
  0
HATCH
  5
7ED6
330
7E8A
100
AcDbEntity
  8
AM_8 ハッチング
100
AcDbHatch
 10
0.0
 20
0.0
 30
0.0
210
0.0
220
0.0
230
1.0
  2
_USER
 70
     0
 71
     0
 91
        1
 92
        1
 93
        4
 72
     2
 10
193.0000000000013
 20
97.60000000000013
 40
15.0
 50
269.9999999999994
 51
321.6111685419495
 73
     1
 72
     1
 10
204.7572178213739
 20
88.28507492779477
 11
218.0000000000013
 21
105.0
 72
     1
 10
218.0000000000013
 20
104.9999999999998
 11
218.0000000000011
 21
82.5999999999999
 72
     1
 10
218.0000000000011
 20
82.5999999999999
 11
193.0000000000011
 21
82.60000000000012
 97
        0
 75
     0
 76
     0
 52
45.0
 41
1.0
 77
     0
 78
     1
 53
45.0
 43
-551.2945024387554
 44
-560.4068632439028
 45
-0.7071067811865475
 46
0.7071067811865476
 79
     0
 98
        1
 10
-1244.213406050938
 20
-245.953663284264
1001
GENIUS_GENODEF_13
1002
{
1000
HIER
1070
     0
1002
}
1002
{
1000
MANEDIT
1070
     0
1002
}
1002
{
1000
NOSEL
1070
     0
1002
}
1002
{
1000
BEHIND
1070
     0
1002
}
1002
{
1000
OTHER
1070
     0
1002
}
1002
{
1000
REACTOR
1002
}
1001
GENIUS_GENOBJ-N-HTC_13
1002
{
1000
OWNER
1000
GEN
1002
}
1001
GENIUS_GENHATCH_13
1002
{
1000
DATA
1040
45.0
1042
-0.5
1000
_U
1070
     0
1011
213.2872593011026
1021
88.40953089392087
1031
0.0
1002
}
1002
{
1000
UCS
1010
0.0
1020
0.0
1030
0.0
1010
1.0
1020
0.0
1030
0.0
1010
0.0
1020
1.0
1030
0.0
1002
}
1001
ACAD
1010
0.0
1020
0.0
1030
0.0
  0
LINE
  5
7ED7
330
7E8A
100
AcDbEntity
  8
AM_0 外形線1
100
AcDbLine
 10
208.0000000000001
 20
64.40000000000009
 30
0.0
 11
208.0000000000007
 21
0.0
 31
0.0
  0
LINE
  5
7ED8
330
7E8A
100
AcDbEntity
  8
AM_0 外形線1
100
AcDbLine
 10
223.0000000000002
 20
108.5000000000004
 30
0.0
 11
238.0000000000002
 21
108.5000000000004
 31
0.0
  0
LINE
  5
7ED9
330
7E8A
100
AcDbEntity
  8
AM_0 外形線1
100
AcDbLine
 10
223.0000000000002
 20
119.5000000000004
 30
0.0
 11
238.0000000000002
 21
119.5000000000004
 31
0.0
  0
LINE
  5
7EDA
330
7E8A
100
AcDbEntity
  8
AM_0 外形線1
100
AcDbLine
 10
0.0
 20
0.0
 30
0.0
 11
-0.0000000000001137
 21
-124.4999999999997
 31
0.0
  0
LINE
  5
7EDB
330
7E8A
100
AcDbEntity
  8
AM_7 中心線
100
AcDbLine
 10
19.99999999999988
 20
-113.9999999999997
 30
0.0
 11
-19.99999999999988
 21
-113.9999999999997
 31
0.0
  0
LINE
  5
7EDC
330
7E8A
100
AcDbEntity
  8
AM_0 外形線1
100
AcDbLine
 10
-0.0000000000001137
 20
98.49999999999957
 30
0.0
 11
-0.0000000000001705
 21
108.5000000000007
 31
0.0
  0
LINE
  5
7EDD
330
7E8A
100
AcDbEntity
  8
AM_0 外形線1
100
AcDbLine
 10
-0.0000000000001705
 20
119.5000000000009
 30
0.0
 11
-0.0000000000001705
 21
124.4999999999997
 31
0.0
  0
LINE
  5
7EDE
330
7E8A
100
AcDbEntity
  8
AM_0 外形線1
100
AcDbLine
 10
0.4999999999998864
 20
97.99999999999977
 30
0.0
 11
-0.0000000000001137
 21
98.4999999999998
 31
0.0
1001
GENIUS_GENFIL_13
1070
     0
1040
0.5
1040
0.5
1040
0.5
1040
45.00000000000325
1000
~T
1001
GENIUS_GENOREF_13
1005
7EFC
  0
LINE
  5
7EDF
330
7E8A
100
AcDbEntity
  8
AM_0 外形線1
100
AcDbLine
 10
19.99999999999977
 20
-104.9999999999998
 30
0.0
 11
19.99999999999914
 21
0.0000000000002274
 31
0.0
  0
LINE
  5
7EE0
330
7E8A
100
AcDbEntity
  8
AM_0 外形線1
100
AcDbLine
 10
0.4999999999997728
 20
-124.9999999999998
 30
0.0
 11
-0.0000000000002274
 21
-124.4999999999997
 31
0.0
1001
GENIUS_GENFIL_13
1070
     0
1040
0.5
1040
0.5
1040
0.5
1040
45.00000000000325
1000
~T
1001
GENIUS_GENOREF_13
1005
7EFB
  0
LINE
  5
7EE1
330
7E8A
100
AcDbEntity
  8
AM_7 中心線
100
AcDbLine
 10
19.99999999999977
 20
-113.9999999999997
 30
0.0
 11
-20.0
 21
-113.9999999999997
 31
0.0
  0
LINE
  5
7EE2
330
7E8A
100
AcDbEntity
  8
AM_0 外形線1
100
AcDbLine
 10
0.4999999999997728
 20
-124.9999999999998
 30
0.0
 11
13.99999999999977
 21
-124.9999999999998
 31
0.0
  0
LINE
  5
7EE3
330
7E8A
100
AcDbEntity
  8
AM_0 外形線1
100
AcDbLine
 10
14.99999999999977
 20
-123.9999999999997
 30
0.0
 11
13.99999999999977
 21
-124.9999999999998
 31
0.0
1001
GENIUS_GENFIL_13
1070
     0
1040
1.0
1040
1.0
1040
1.000000000000055
1040
44.99999999999836
1000
~T
1001
GENIUS_GENOREF_13
1005
7EFA
  0
LINE
  5
7EE4
330
7E8A
100
AcDbEntity
  8
AM_0 外形線1
100
AcDbLine
 10
14.99999999999977
 20
-123.9999999999997
 30
0.0
 11
14.99999999999977
 21
0.0
 31
0.0
  0
LINE
  5
7EE5
330
7E8A
100
AcDbEntity
  8
AM_0 外形線1
100
AcDbLine
 10
14.99999999999977
 20
-104.9999999999998
 30
0.0
 11
19.99999999999977
 21
-104.9999999999998
 31
0.0
  0
ARC
  5
7EE6
330
7E8A
100
AcDbEntity
  8
AM_0 外形線1
100
AcDbCircle
 10
44.99999999999977
 20
-97.59999999999969
 30
0.0
 40
15.0
100
AcDbArc
 50
90.0
 51
141.6111685419465
  0
LINE
  5
7EE7
330
7E8A
100
AcDbEntity
  8
AM_0 外形線1
100
AcDbLine
 10
19.99999999999977
 20
-104.9999999999998
 30
0.0
 11
33.24278217862701
 21
-88.28507492779456
 31
0.0
  0
LINE
  5
7EE8
102
{ACAD_REACTORS
330
7E8D
102
}
330
7E8A
100
AcDbEntity
  8
AM_0 外形線1
100
AcDbLine
 10
19.99999999999875
 20
105.0
 30
0.0
 11
19.99999999999886
 21
69.40000000000009
 31
0.0
  0
ARC
  5
7EE9
102
{ACAD_REACTORS
330
7E8D
102
}
330
7E8A
100
AcDbEntity
  8
AM_0 外形線1
100
AcDbCircle
 10
24.99999999999886
 20
69.40000000000009
 30
0.0
 40
5.0
100
AcDbArc
 50
180.0
 51
270.0
1001
GENIUS_GENOBJ-N-FIL_13
1002
{
1000
OWNER
1000
GEN
1002
}
1001
GENIUS_GENODEF_13
1002
{
1000
HIER
1070
     0
1002
}
1002
{
1000
MANEDIT
1070
     0
1002
}
1002
{
1000
NOSEL
1070
     0
1002
}
1002
{
1000
BEHIND
1070
     0
1002
}
1002
{
1000
OTHER
1070
     0
1002
}
1002
{
1000
REACTOR
1002
}
  0
LINE
  5
7EEA
330
7E8A
100
AcDbEntity
  8
AM_0 外形線1
100
AcDbLine
 10
4.999999999998748
 20
97.99999999999977
 30
0.0
 11
4.999999999999316
 21
-0.0000000000002274
 31
0.0
  0
LINE
  5
7EEB
330
7E8A
100
AcDbEntity
  8
AM_0 外形線1
100
AcDbLine
 10
-0.0000000000002274
 20
124.4999999999997
 30
0.0
 11
0.4999999999997728
 21
124.9999999999998
 31
0.0
1001
GENIUS_GENFIL_13
1070
     0
1040
0.5
1040
0.5
1040
0.5
1040
45.00000000000325
1000
~T
1001
GENIUS_GENOREF_13
1005
7EF9
  0
LINE
  5
7EEC
330
7E8A
100
AcDbEntity
  8
AM_0 外形線1
100
AcDbLine
 10
0.4999999999998296
 20
124.9999999999998
 30
0.0
 11
13.99999999999852
 21
125.0
 31
0.0
  0
LINE
  5
7EED
330
7E8A
100
AcDbEntity
  8
AM_0 外形線1
100
AcDbLine
 10
14.99999999999852
 20
124.0
 30
0.0
 11
13.99999999999852
 21
125.0
 31
0.0
1001
GENIUS_GENFIL_13
1070
     0
1040
1.0
1040
1.0
1040
1.000000000000055
1040
44.99999999999836
1000
~T
1001
GENIUS_GENOREF_13
1005
7EF8
  0
LINE
  5
7EEE
330
7E8A
100
AcDbEntity
  8
AM_0 外形線1
100
AcDbLine
 10
14.99999999999852
 20
124.0
 30
0.0
 11
14.99999999999875
 21
105.0
 31
0.0
  0
LINE
  5
7EEF
330
7E8A
100
AcDbEntity
  8
AM_0 外形線1
100
AcDbLine
 10
14.99999999999875
 20
105.0
 30
0.0
 11
19.99999999999875
 21
105.0
 31
0.0
  0
LINE
  5
7EF0
330
7E8A
100
AcDbEntity
  8
AM_0 外形線1
100
AcDbLine
 10
0.4999999999987496
 20
97.99999999999977
 30
0.0
 11
4.999999999998748
 21
97.99999999999977
 31
0.0
  0
LINE
  5
7EF1
102
{ACAD_REACTORS
330
7E8D
102
}
330
7E8A
100
AcDbEntity
  8
AM_0 外形線1
100
AcDbLine
 10
27.99999999999932
 20
64.40000000000009
 30
0.0
 11
38.50777489925042
 21
82.60000000000012
 31
0.0
  0
ARC
  5
7EF2
330
7E8A
100
AcDbEntity
  8
AM_0 外形線1
100
AcDbCircle
 10
44.99999999999874
 20
97.60000000000037
 30
0.0
 40
15.0
100
AcDbArc
 50
218.3888314580535
 51
270.0
  0
LINE
  5
7EF3
330
7E8A
100
AcDbEntity
  8
AM_0 外形線1
100
AcDbLine
 10
19.99999999999875
 20
105.0
 30
0.0
 11
33.24278217862616
 21
88.28507492779499
 31
0.0
  0
HATCH
  5
7EF4
330
7E8A
100
AcDbEntity
  8
AM_8 ハッチング
100
AcDbHatch
 10
0.0
 20
0.0
 30
0.0
210
0.0
220
0.0
230
1.0
  2
_USER
 70
     0
 71
     0
 91
        1
 92
        1
 93
        4
 72
     2
 10
44.99999999999874
 20
97.60000000000037
 40
15.0
 50
89.99999999999944
 51
141.6111685419494
 73
     0
 72
     1
 10
33.24278217862616
 20
88.28507492779499
 11
19.99999999999875
 21
105.0
 72
     1
 10
19.99999999999875
 20
105.0
 11
19.99999999999898
 21
82.5999999999999
 72
     1
 10
19.99999999999898
 20
82.60000000000012
 11
44.99999999999896
 21
82.60000000000038
 97
        0
 75
     0
 76
     0
 52
45.0
 41
1.0
 77
     0
 78
     1
 53
45.0
 43
-419.1131014387558
 44
-560.4068632439028
 45
-0.7071067811865475
 46
0.7071067811865476
 79
     0
 98
        1
 10
1482.213406050938
 20
-245.9536632842637
1001
GENIUS_GENODEF_13
1002
{
1000
HIER
1070
     0
1002
}
1002
{
1000
MANEDIT
1070
     0
1002
}
1002
{
1000
NOSEL
1070
     0
1002
}
1002
{
1000
BEHIND
1070
     0
1002
}
1002
{
1000
OTHER
1070
     0
1002
}
1002
{
1000
REACTOR
1002
}
1001
GENIUS_GENOBJ-N-HTC_13
1002
{
1000
OWNER
1000
GEN
1002
}
1001
GENIUS_GENHATCH_13
1002
{
1000
DATA
1040
45.0
1042
0.5
1000
_U
1070
     0
1011
37.59711732119081
1021
88.40953089392135
1031
0.0
1002
}
1002
{
1000
UCS
1010
0.0
1020
0.0
1030
0.0
1010
1.0
1020
0.0
1030
0.0
1010
0.0
1020
1.0
1030
0.0
1002
}
1001
ACAD
1010
0.0
1020
0.0
1030
0.0
  0
LINE
  5
7EF5
330
7E8A
100
AcDbEntity
  8
AM_0 外形線1
100
AcDbLine
 10
30.0
 20
64.40000000000032
 30
0.0
 11
29.99999999999943
 21
0.0000000000002274
 31
0.0
  0
LINE
  5
7EF6
330
7E8A
100
AcDbEntity
  8
AM_0 外形線1
100
AcDbLine
 10
14.99999999999988
 20
108.5000000000007
 30
0.0
 11
-0.0000000000001137
 21
108.5000000000007
 31
0.0
  0
LINE
  5
7EF7
330
7E8A
100
AcDbEntity
  8
AM_0 外形線1
100
AcDbLine
 10
14.99999999999988
 20
119.5000000000007
 30
0.0
 11
-0.0000000000001137
 21
119.5000000000007
 31
0.0
  0
POINT
  5
7EF8
330
7E8A
100
AcDbEntity
  8
0
 60
     1
100
AcDbPoint
 10
1422.956622265744
 20
2165.22648635396
 30
0.0
1001
GENIUS_GENOBJ-N-CHA_13
1002
{
1000
OWNER
1000
GEN
1002
}
1001
GENIUS_GENOENT_13
1002
{
1000
MYREF
1005
7EF8
1002
}
1002
{
1000
GRP
1005
0
1002
}
1001
GENIUS_GENODEF_13
1002
{
1000
HIER
1070
     1
1002
}
1002
{
1000
MANEDIT
1070
     1
1002
}
1002
{
1000
NOSEL
1070
     0
1002
}
1002
{
1000
BEHIND
1070
     0
1002
}
1002
{
1000
OTHER
1070
     0
1002
}
1002
{
1000
REACTOR
1002
}
1001
GENIUS_GENOLIS_13
1002
{
1000
ENT
1005
7EED
1002
}
  0
POINT
  5
7EF9
330
7E8A
100
AcDbEntity
  8
0
 60
     1
100
AcDbPoint
 10
1422.956622265744
 20
2165.22648635396
 30
0.0
1001
GENIUS_GENOENT_13
1002
{
1000
MYREF
1005
7EF9
1002
}
1002
{
1000
GRP
1005
0
1002
}
1001
GENIUS_GENOBJ-N-CHA_13
1002
{
1000
OWNER
1000
GEN
1002
}
1001
GENIUS_GENODEF_13
1002
{
1000
HIER
1070
     1
1002
}
1002
{
1000
MANEDIT
1070
     1
1002
}
1002
{
1000
NOSEL
1070
     0
1002
}
1002
{
1000
BEHIND
1070
     0
1002
}
1002
{
1000
OTHER
1070
     0
1002
}
1002
{
1000
REACTOR
1002
}
1001
GENIUS_GENOLIS_13
1002
{
1000
ENT
1005
7EEB
1002
}
  0
POINT
  5
7EFA
330
7E8A
100
AcDbEntity
  8
0
 60
     1
100
AcDbPoint
 10
1651.916016750015
 20
2114.986176406587
 30
0.0
 50
180.0
1001
GENIUS_GENODEF_13
1002
{
1000
HIER
1070
     1
1002
}
1002
{
1000
MANEDIT
1070
     0
1002
}
1002
{
1000
NOSEL
1070
     0
1002
}
1002
{
1000
BEHIND
1070
     0
1002
}
1002
{
1000
OTHER
1070
     0
1002
}
1002
{
1000
REACTOR
1002
}
1001
GENIUS_GENOBJ-N-CHA_13
1002
{
1000
OWNER
1000
GEN
1002
}
1001
GENIUS_GENOENT_13
1002
{
1000
MYREF
1005
7EFA
1002
}
1002
{
1000
GRP
1005
0
1002
}
1001
GENIUS_GENOLIS_13
1002
{
1000
ENT
1005
7EE3
1002
}
  0
POINT
  5
7EFB
330
7E8A
100
AcDbEntity
  8
0
 60
     1
100
AcDbPoint
 10
1651.916016750015
 20
2114.986176406587
 30
0.0
 50
180.0
1001
GENIUS_GENOBJ-N-CHA_13
1002
{
1000
OWNER
1000
GEN
1002
}
1001
GENIUS_GENOENT_13
1002
{
1000
MYREF
1005
7EFB
1002
}
1002
{
1000
GRP
1005
0
1002
}
1001
GENIUS_GENOLIS_13
1002
{
1000
ENT
1005
7EE0
1002
}
1001
GENIUS_GENODEF_13
1002
{
1000
HIER
1070
     1
1002
}
1002
{
1000
MANEDIT
1070
     0
1002
}
1002
{
1000
NOSEL
1070
     0
1002
}
1002
{
1000
BEHIND
1070
     0
1002
}
1002
{
1000
OTHER
1070
     0
1002
}
1002
{
1000
REACTOR
1002
}
  0
POINT
  5
7EFC
330
7E8A
100
AcDbEntity
  8
0
 60
     1
100
AcDbPoint
 10
1422.956622265744
 20
2165.22648635396
 30
0.0
1001
GENIUS_GENOBJ-N-CHA_13
1002
{
1000
OWNER
1000
GEN
1002
}
1001
GENIUS_GENOENT_13
1002
{
1000
MYREF
1005
7EFC
1002
}
1002
{
1000
GRP
1005
0
1002
}
1001
GENIUS_GENODEF_13
1002
{
1000
HIER
1070
     1
1002
}
1002
{
1000
MANEDIT
1070
     1
1002
}
1002
{
1000
NOSEL
1070
     0
1002
}
1002
{
1000
BEHIND
1070
     0
1002
}
1002
{
1000
OTHER
1070
     0
1002
}
1002
{
1000
REACTOR
1002
}
1001
GENIUS_GENOLIS_13
1002
{
1000
ENT
1005
7EDE
1002
}
  0
POINT
  5
7EFD
330
7E8A
100
AcDbEntity
  8
0
 60
     1
100
AcDbPoint
 10
1422.956622265744
 20
2165.22648635396
 30
0.0
1001
GENIUS_GENOENT_13
1002
{
1000
MYREF
1005
7EFD
1002
}
1002
{
1000
GRP
1005
0
1002
}
1001
GENIUS_GENOBJ-N-CHA_13
1002
{
1000
OWNER
1000
GEN
1002
}
1001
GENIUS_GENODEF_13
1002
{
1000
HIER
1070
     1
1002
}
1002
{
1000
MANEDIT
1070
     1
1002
}
1002
{
1000
NOSEL
1070
     0
1002
}
1002
{
1000
BEHIND
1070
     0
1002
}
1002
{
1000
OTHER
1070
     0
1002
}
1002
{
1000
REACTOR
1002
}
1001
GENIUS_GENOLIS_13
1002
{
1000
ENT
1005
7ECE
1002
}
  0
POINT
  5
7EFE
330
7E8A
100
AcDbEntity
  8
0
 60
     1
100
AcDbPoint
 10
1422.956622265744
 20
2165.22648635396
 30
0.0
1001
GENIUS_GENOBJ-N-CHA_13
1002
{
1000
OWNER
1000
GEN
1002
}
1001
GENIUS_GENOENT_13
1002
{
1000
MYREF
1005
7EFE
1002
}
1002
{
1000
GRP
1005
0
1002
}
1001
GENIUS_GENODEF_13
1002
{
1000
HIER
1070
     1
1002
}
1002
{
1000
MANEDIT
1070
     1
1002
}
1002
{
1000
NOSEL
1070
     0
1002
}
1002
{
1000
BEHIND
1070
     0
1002
}
1002
{
1000
OTHER
1070
     0
1002
}
1002
{
1000
REACTOR
1002
}
1001
GENIUS_GENOLIS_13
1002
{
1000
ENT
1005
7ECC
1002
}
  0
POINT
  5
7EFF
330
7E8A
100
AcDbEntity
  8
0
 60
     1
100
AcDbPoint
 10
2402.404831658984
 20
2114.986176406587
 30
0.0
1001
GENIUS_GENODEF_13
1002
{
1000
HIER
1070
     1
1002
}
1002
{
1000
MANEDIT
1070
     0
1002
}
1002
{
1000
NOSEL
1070
     0
1002
}
1002
{
1000
BEHIND
1070
     0
1002
}
1002
{
1000
OTHER
1070
     0
1002
}
1002
{
1000
REACTOR
1002
}
1001
GENIUS_GENOBJ-N-CHA_13
1002
{
1000
OWNER
1000
GEN
1002
}
1001
GENIUS_GENOENT_13
1002
{
1000
MYREF
1005
7EFF
1002
}
1002
{
1000
GRP
1005
0
1002
}
1001
GENIUS_GENOLIS_13
1002
{
1000
ENT
1005
7EC3
1002
}
  0
POINT
  5
7F00
330
7E8A
100
AcDbEntity
  8
0
 60
     1
100
AcDbPoint
 10
2402.404831658984
 20
2114.986176406587
 30
0.0
1001
GENIUS_GENOBJ-N-CHA_13
1002
{
1000
OWNER
1000
GEN
1002
}
1001
GENIUS_GENOENT_13
1002
{
1000
MYREF
1005
7F00
1002
}
1002
{
1000
GRP
1005
0
1002
}
1001
GENIUS_GENOLIS_13
1002
{
1000
ENT
1005
7EC0
1002
}
1001
GENIUS_GENODEF_13
1002
{
1000
HIER
1070
     1
1002
}
1002
{
1000
MANEDIT
1070
     0
1002
}
1002
{
1000
NOSEL
1070
     0
1002
}
1002
{
1000
BEHIND
1070
     0
1002
}
1002
{
1000
OTHER
1070
     0
1002
}
1002
{
1000
REACTOR
1002
}
  0
POINT
  5
7F01
330
7E8A
100
AcDbEntity
  8
0
 60
     1
100
AcDbPoint
 10
1422.956622265744
 20
2165.22648635396
 30
0.0
1001
GENIUS_GENOBJ-N-CHA_13
1002
{
1000
OWNER
1000
GEN
1002
}
1001
GENIUS_GENOENT_13
1002
{
1000
MYREF
1005
7F01
1002
}
1002
{
1000
GRP
1005
0
1002
}
1001
GENIUS_GENODEF_13
1002
{
1000
HIER
1070
     1
1002
}
1002
{
1000
MANEDIT
1070
     1
1002
}
1002
{
1000
NOSEL
1070
     0
1002
}
1002
{
1000
BEHIND
1070
     0
1002
}
1002
{
1000
OTHER
1070
     0
1002
}
1002
{
1000
REACTOR
1002
}
1001
GENIUS_GENOLIS_13
1002
{
1000
ENT
1005
7E98
1002
}
  0
LINE
  5
9A98
330
7E8A
100
AcDbEntity
  8
AM_0 外形線1
100
AcDbLine
 10
200.2530870153573
 20
-82.5999999999999
 30
0.0
 11
200.2530870153573
 21
0.0000000000001137
 31
0.0
  0
LINE
  5
9A99
330
7E8A
100
AcDbEntity
  8
AM_0 外形線1
100
AcDbLine
 10
37.74691298464268
 20
-82.59999999999967
 30
0.0
 11
37.74691298464261
 21
0.0
 31
0.0
  0
ENDBLK
  5
7E8C
330
7E8A
100
AcDbEntity
  8
0
100
AcDbBlockEnd
  0
BLOCK
  5
956F
330
956E
100
AcDbEntity
  8
0
100
AcDbBlockBegin
  2
*D31
 70
     1
 10
0.0
 20
0.0
 30
0.0
  3
*D31
  1

  0
LINE
  5
9606
330
956E
100
AcDbEntity
  8
AM_5 寸法線
 62
     3
100
AcDbLine
 10
331.7385250816983
 20
771.356016403407
 30
0.0
 11
331.7385250816983
 21
816.356016403407
 31
0.0
  0
LINE
  5
9607
330
956E
100
AcDbEntity
  8
AM_5 寸法線
 62
     3
100
AcDbLine
 10
332.7385250816981
 20
766.5560164034069
 30
0.0
 11
332.7385250816981
 21
816.356016403407
 31
0.0
  0
LINE
  5
9608
330
956E
100
AcDbEntity
  8
AM_5 寸法線
 62
     3
100
AcDbLine
 10
324.2385250816984
 20
814.4810164034067
 30
0.0
 11
316.7385250816983
 21
814.4810164034067
 31
0.0
  0
LINE
  5
9609
330
956E
100
AcDbEntity
  8
AM_5 寸法線
 62
     3
100
AcDbLine
 10
340.2385250816981
 20
814.4810164034067
 30
0.0
 11
358.9885250816981
 21
814.4810164034067
 31
0.0
  0
LINE
  5
960A
330
956E
100
AcDbEntity
  8
AM_5 寸法線
 62
     3
100
AcDbLine
 10
331.7385250816983
 20
814.4810164034067
 30
0.0
 11
332.7385250816981
 21
814.4810164034067
 31
0.0
  0
INSERT
  5
960B
330
956E
100
AcDbEntity
  8
AM_5 寸法線
 62
     3
100
AcDbBlockReference
  2
_Open30
 10
331.7385250816983
 20
814.4810164034067
 30
0.0
 41
7.5
 42
7.5
 43
7.5
  0
INSERT
  5
960C
330
956E
100
AcDbEntity
  8
AM_5 寸法線
 62
     3
100
AcDbBlockReference
  2
_Open30
 10
332.7385250816981
 20
814.4810164034067
 30
0.0
 41
7.5
 42
7.5
 43
7.5
 50
180.0
  0
MTEXT
  5
960D
330
956E
100
AcDbEntity
  8
AM_5 寸法線
 62
     3
100
AcDbMText
 10
353.3635250816981
 20
824.2310164034067
 30
0.0
 40
10.5
 41
0.0
 46
0.0
 71
     5
 72
     1
  1
1
  7
SEISA
 73
     1
 44
1.0
  0
POINT
  5
960E
330
956E
100
AcDbEntity
  8
Defpoints
 62
     0
100
AcDbPoint
 10
331.7385250816983
 20
769.481016403407
 30
0.0
  0
POINT
  5
960F
330
956E
100
AcDbEntity
  8
Defpoints
 62
     0
100
AcDbPoint
 10
332.7385250816981
 20
764.6810164034071
 30
0.0
  0
POINT
  5
9610
330
956E
100
AcDbEntity
  8
Defpoints
 62
     0
100
AcDbPoint
 10
332.7385250816981
 20
814.4810164034067
 30
0.0
  0
ENDBLK
  5
9570
330
956E
100
AcDbEntity
  8
0
100
AcDbBlockEnd
  0
BLOCK
  5
97EC
330
97EB
100
AcDbEntity
  8
0
100
AcDbBlockBegin
  2
*D32
 70
     1
 10
0.0
 20
0.0
 30
0.0
  3
*D32
  1

  0
LINE
  5
98BB
330
97EB
100
AcDbEntity
  8
AM_5 寸法線
 62
     3
100
AcDbLine
 10
409.7385250816983
 20
768.106016403407
 30
0.0
 11
409.7385250816983
 21
745.3148451260714
 31
0.0
  0
LINE
  5
98BC
330
97EB
100
AcDbEntity
  8
AM_5 寸法線
 62
     3
100
AcDbLine
 10
435.7385250816983
 20
767.606016403407
 30
0.0
 11
435.7385250816983
 21
745.3148451260714
 31
0.0
  0
LINE
  5
98BD
330
97EB
100
AcDbEntity
  8
AM_5 寸法線
 62
     3
100
AcDbLine
 10
417.2385250816983
 20
747.1898451260714
 30
0.0
 11
428.2385250816981
 21
747.1898451260714
 31
0.0
  0
INSERT
  5
98BE
330
97EB
100
AcDbEntity
  8
AM_5 寸法線
 62
     3
100
AcDbBlockReference
  2
_Open30
 10
409.7385250816983
 20
747.1898451260714
 30
0.0
 41
7.5
 42
7.5
 43
7.5
 50
180.0
  0
INSERT
  5
98BF
330
97EB
100
AcDbEntity
  8
AM_5 寸法線
 62
     3
100
AcDbBlockReference
  2
_Open30
 10
435.7385250816983
 20
747.1898451260714
 30
0.0
 41
7.5
 42
7.5
 43
7.5
  0
MTEXT
  5
98C0
330
97EB
100
AcDbEntity
  8
AM_5 寸法線
 62
     3
100
AcDbMText
 10
422.7385250816983
 20
756.9398451260714
 30
0.0
 40
10.5
 41
0.0
 46
0.0
 71
     5
 72
     1
  1
26
  7
SEISA
 73
     1
 44
1.0
  0
POINT
  5
98C1
330
97EB
100
AcDbEntity
  8
Defpoints
 62
     0
100
AcDbPoint
 10
409.7385250816983
 20
769.981016403407
 30
0.0
  0
POINT
  5
98C2
330
97EB
100
AcDbEntity
  8
Defpoints
 62
     0
100
AcDbPoint
 10
435.7385250816983
 20
769.481016403407
 30
0.0
  0
POINT
  5
98C3
330
97EB
100
AcDbEntity
  8
Defpoints
 62
     0
100
AcDbPoint
 10
435.7385250816983
 20
747.1898451260714
 30
0.0
  0
ENDBLK
  5
97ED
330
97EB
100
AcDbEntity
  8
0
100
AcDbBlockEnd
  0
BLOCK
  5
9816
330
9815
100
AcDbEntity
  8
0
100
AcDbBlockBegin
  2
*D33
 70
     1
 10
0.0
 20
0.0
 30
0.0
  3
*D33
  1

  0
LINE
  5
98C4
330
9815
100
AcDbEntity
  8
AM_5 寸法線
 62
     3
100
AcDbLine
 10
435.7385250816983
 20
767.606016403407
 30
0.0
 11
435.7385250816983
 21
745.3148451260714
 31
0.0
  0
LINE
  5
98C5
330
9815
100
AcDbEntity
  8
AM_5 寸法線
 62
     3
100
AcDbLine
 10
457.738525081698
 20
766.1060164034068
 30
0.0
 11
457.738525081698
 21
745.3148451260714
 31
0.0
  0
LINE
  5
98C6
330
9815
100
AcDbEntity
  8
AM_5 寸法線
 62
     3
100
AcDbLine
 10
428.2385250816981
 20
747.1898451260714
 30
0.0
 11
420.7385250816981
 21
747.1898451260714
 31
0.0
  0
LINE
  5
98C7
330
9815
100
AcDbEntity
  8
AM_5 寸法線
 62
     3
100
AcDbLine
 10
465.2385250816981
 20
747.1898451260714
 30
0.0
 11
472.7385250816983
 21
747.1898451260714
 31
0.0
  0
MTEXT
  5
98C8
330
9815
100
AcDbEntity
  8
AM_5 寸法線
 62
     3
100
AcDbMText
 10
447.2693403684951
 20
755.1681077843211
 30
0.0
 40
10.5
 41
0.0
 46
0.0
 71
     5
 72
     1
  1
22
  7
SEISA
 73
     1
 44
1.0
  0
LINE
  5
98C9
330
9815
100
AcDbEntity
  8
AM_5 寸法線
 62
     3
100
AcDbLine
 10
435.7385250816983
 20
747.1898451260714
 30
0.0
 11
457.738525081698
 21
747.1898451260714
 31
0.0
  0
INSERT
  5
98CA
330
9815
100
AcDbEntity
  8
AM_5 寸法線
 62
     3
100
AcDbBlockReference
  2
_Open30
 10
435.7385250816983
 20
747.1898451260714
 30
0.0
 41
7.5
 42
7.5
 43
7.5
  0
INSERT
  5
98CB
330
9815
100
AcDbEntity
  8
AM_5 寸法線
 62
     3
100
AcDbBlockReference
  2
_Open30
 10
457.738525081698
 20
747.1898451260714
 30
0.0
 41
7.5
 42
7.5
 43
7.5
 50
180.0
  0
POINT
  5
98CC
330
9815
100
AcDbEntity
  8
Defpoints
 62
     0
100
AcDbPoint
 10
435.7385250816983
 20
769.481016403407
 30
0.0
  0
POINT
  5
98CD
102
{ACAD_REACTORS
330
98DF
102
}
330
9815
100
AcDbEntity
  8
Defpoints
 62
     0
100
AcDbPoint
 10
457.738525081698
 20
767.981016403407
 30
0.0
  0
POINT
  5
98CE
330
9815
100
AcDbEntity
  8
Defpoints
 62
     0
100
AcDbPoint
 10
457.738525081698
 20
747.1898451260714
 30
0.0
  0
ENDBLK
  5
9817
330
9815
100
AcDbEntity
  8
0
100
AcDbBlockEnd
  0
BLOCK
  5
98D1
330
98D0
100
AcDbEntity
  8
0
100
AcDbBlockBegin
  2
*D34
 70
     1
 10
0.0
 20
0.0
 30
0.0
  3
*D34
  1

  0
LINE
  5
98F6
330
98D0
100
AcDbEntity
  8
AM_5 寸法線
 62
     3
100
AcDbLine
 10
463.7385250816981
 20
783.6060164034067
 30
0.0
 11
463.7385250816981
 21
715.3148451260713
 31
0.0
  0
LINE
  5
98F7
330
98D0
100
AcDbEntity
  8
AM_5 寸法線
 62
     3
100
AcDbLine
 10
457.738525081698
 20
766.1060164034068
 30
0.0
 11
457.738525081698
 21
715.3148451260713
 31
0.0
  0
LINE
  5
98F8
330
98D0
100
AcDbEntity
  8
AM_5 寸法線
 62
     3
100
AcDbLine
 10
471.2385250816981
 20
717.1898451260712
 30
0.0
 11
478.738525081698
 21
717.1898451260712
 31
0.0
  0
LINE
  5
98F9
330
98D0
100
AcDbEntity
  8
AM_5 寸法線
 62
     3
100
AcDbLine
 10
450.2385250816983
 20
717.1898451260712
 30
0.0
 11
427.8885250816983
 21
717.1898451260712
 31
0.0
  0
LINE
  5
98FA
330
98D0
100
AcDbEntity
  8
AM_5 寸法線
 62
     3
100
AcDbLine
 10
463.7385250816981
 20
717.1898451260712
 30
0.0
 11
457.738525081698
 21
717.1898451260712
 31
0.0
  0
INSERT
  5
98FB
330
98D0
100
AcDbEntity
  8
AM_5 寸法線
 62
     3
100
AcDbBlockReference
  2
_Open30
 10
463.7385250816981
 20
717.1898451260712
 30
0.0
 41
7.5
 42
7.5
 43
7.5
 50
180.0
  0
INSERT
  5
98FC
330
98D0
100
AcDbEntity
  8
AM_5 寸法線
 62
     3
100
AcDbBlockReference
  2
_Open30
 10
457.738525081698
 20
717.1898451260712
 30
0.0
 41
7.5
 42
7.5
 43
7.5
  0
MTEXT
  5
98FD
330
98D0
100
AcDbEntity
  8
AM_5 寸法線
 62
     3
100
AcDbMText
 10
435.3135250816983
 20
726.9398451260713
 30
0.0
 40
10.5
 41
0.0
 46
0.0
 71
     5
 72
     1
  1
6
  7
SEISA
 73
     1
 44
1.0
  0
POINT
  5
98FE
330
98D0
100
AcDbEntity
  8
Defpoints
 62
     0
100
AcDbPoint
 10
463.7385250816981
 20
785.4810164034066
 30
0.0
  0
POINT
  5
98FF
330
98D0
100
AcDbEntity
  8
Defpoints
 62
     0
100
AcDbPoint
 10
457.738525081698
 20
767.981016403407
 30
0.0
  0
POINT
  5
9900
330
98D0
100
AcDbEntity
  8
Defpoints
 62
     0
100
AcDbPoint
 10
457.738525081698
 20
717.1898451260712
 30
0.0
  0
ENDBLK
  5
98D2
330
98D0
100
AcDbEntity
  8
0
100
AcDbBlockEnd
  0
BLOCK
  5
9903
330
9902
100
AcDbEntity
  8
0
100
AcDbBlockBegin
  2
*D35
 70
     1
 10
0.0
 20
0.0
 30
0.0
  3
*D35
  1

  0
LINE
  5
994A
330
9902
100
AcDbEntity
  8
AM_5 寸法線
 62
     3
100
AcDbLine
 10
701.7385250816983
 20
783.6060164034067
 30
0.0
 11
701.7385250816983
 21
715.3148451260713
 31
0.0
  0
LINE
  5
994B
330
9902
100
AcDbEntity
  8
AM_5 寸法線
 62
     3
100
AcDbLine
 10
707.7385250816981
 20
766.1060164034068
 30
0.0
 11
707.7385250816981
 21
715.3148451260713
 31
0.0
  0
LINE
  5
994C
330
9902
100
AcDbEntity
  8
AM_5 寸法線
 62
     3
100
AcDbLine
 10
694.2385250816982
 20
717.1898451260712
 30
0.0
 11
686.7385250816984
 21
717.1898451260712
 31
0.0
  0
LINE
  5
994D
330
9902
100
AcDbEntity
  8
AM_5 寸法線
 62
     3
100
AcDbLine
 10
715.2385250816982
 20
717.1898451260712
 30
0.0
 11
722.7385250816983
 21
717.1898451260712
 31
0.0
  0
MTEXT
  5
994E
330
9902
100
AcDbEntity
  8
AM_5 寸法線
 62
     3
100
AcDbMText
 10
689.0755433548958
 20
725.9196250065861
 30
0.0
 40
10.5
 41
0.0
 46
0.0
 71
     5
 72
     1
  1
6
  7
SEISA
 73
     1
 44
1.0
  0
LINE
  5
994F
330
9902
100
AcDbEntity
  8
AM_5 寸法線
 62
     3
100
AcDbLine
 10
701.7385250816983
 20
717.1898451260712
 30
0.0
 11
707.7385250816981
 21
717.1898451260712
 31
0.0
  0
INSERT
  5
9950
330
9902
100
AcDbEntity
  8
AM_5 寸法線
 62
     3
100
AcDbBlockReference
  2
_Open30
 10
701.7385250816983
 20
717.1898451260712
 30
0.0
 41
7.5
 42
7.5
 43
7.5
  0
INSERT
  5
9951
330
9902
100
AcDbEntity
  8
AM_5 寸法線
 62
     3
100
AcDbBlockReference
  2
_Open30
 10
707.7385250816981
 20
717.1898451260712
 30
0.0
 41
7.5
 42
7.5
 43
7.5
 50
180.0
  0
POINT
  5
9952
330
9902
100
AcDbEntity
  8
Defpoints
 62
     0
100
AcDbPoint
 10
701.7385250816983
 20
785.4810164034065
 30
0.0
  0
POINT
  5
9953
330
9902
100
AcDbEntity
  8
Defpoints
 62
     0
100
AcDbPoint
 10
707.7385250816981
 20
767.981016403407
 30
0.0
  0
POINT
  5
9954
330
9902
100
AcDbEntity
  8
Defpoints
 62
     0
100
AcDbPoint
 10
707.7385250816981
 20
717.1898451260712
 30
0.0
  0
ENDBLK
  5
9904
330
9902
100
AcDbEntity
  8
0
100
AcDbBlockEnd
  0
BLOCK
  5
99A2
330
99A1
100
AcDbEntity
  8
0
100
AcDbBlockBegin
  2
ケース
 70
     0
 10
0.0
 20
0.0
 30
0.0
  3
ケース
  1

  0
LINE
  5
99A4
330
99A1
100
AcDbEntity
  8
AM_11 想像線
 48
0.1
100
AcDbLine
 10
0.0
 20
-10.0
 30
0.0
 11
-10.94390702402597
 21
-10.0
 31
0.0
  0
LINE
  5
99A5
330
99A1
100
AcDbEntity
  8
AM_11 想像線
 48
0.1
100
AcDbLine
 10
0.0
 20
0.0
 30
0.0
 11
-26.94390702402598
 21
0.0
 31
0.0
  0
LINE
  5
99A6
330
99A1
100
AcDbEntity
  8
AM_11 想像線
 48
0.1
100
AcDbLine
 10
-30.94390702402598
 20
-16.0
 30
0.0
 11
-28.54390702402611
 21
-16.0
 31
0.0
  0
ARC
  5
99A7
330
99A1
100
AcDbEntity
  8
AM_11 想像線
 48
0.1
100
AcDbCircle
 10
-26.94390702402598
 20
-4.0
 30
0.0
 40
4.0
100
AcDbArc
 50
90.0
 51
180.0
  0
LINE
  5
99A8
330
99A1
100
AcDbEntity
  8
AM_11 想像線
 48
0.1
100
AcDbLine
 10
-30.94390702402598
 20
-4.0
 30
0.0
 11
-30.94390702402598
 21
-16.0
 31
0.0
  0
LINE
  5
99A9
330
99A1
100
AcDbEntity
  8
AM_11 想像線
 48
0.1
100
AcDbLine
 10
-30.94390702402598
 20
-16.0
 30
0.0
 11
-30.94390702402598
 21
-17.5
 31
0.0
  0
LINE
  5
99AA
330
99A1
100
AcDbEntity
  8
AM_11 想像線
 48
0.1
100
AcDbLine
 10
0.0
 20
-7.0
 30
0.0
 11
-8.943907024025973
 21
-7.0
 31
0.0
  0
LINE
  5
99AB
330
99A1
100
AcDbEntity
  8
AM_11 想像線
 48
0.1
100
AcDbLine
 10
0.0
 20
-12.39999999999997
 30
0.0
 11
-7.943907024025974
 21
-12.39999999999997
 31
0.0
  0
LINE
  5
99AC
330
99A1
100
AcDbEntity
  8
AM_11 想像線
 48
0.1
100
AcDbLine
 10
-8.943907024025973
 20
-8.03932599999996
 30
0.0
 11
-8.943907024025973
 21
-11.39999999999997
 31
0.0
  0
ARC
  5
99AD
330
99A1
100
AcDbEntity
  8
AM_11 想像線
 48
0.1
100
AcDbCircle
 10
-17.84390702402606
 20
-11.04999999999995
 30
0.0
 40
0.5
100
AcDbArc
 50
0.0
 51
90.0
  0
ARC
  5
99AE
330
99A1
100
AcDbEntity
  8
AM_11 想像線
 48
0.1
100
AcDbCircle
 10
-28.04390702402611
 20
-11.04999999999995
 30
0.0
 40
0.5
100
AcDbArc
 50
90.0
 51
180.0
  0
LINE
  5
99AF
330
99A1
100
AcDbEntity
  8
AM_11 想像線
 48
0.1
100
AcDbLine
 10
-14.94390702402597
 20
-16.0
 30
0.0
 11
-14.94390702402597
 21
-7.5
 31
0.0
  0
LINE
  5
99B0
330
99A1
100
AcDbEntity
  8
AM_11 想像線
 48
0.1
100
AcDbLine
 10
-28.54390702402611
 20
-16.0
 30
0.0
 11
-28.54390702402611
 21
-17.5
 31
0.0
  0
LINE
  5
99B1
330
99A1
100
AcDbEntity
  8
AM_11 想像線
 48
0.1
100
AcDbLine
 10
-28.54390702402611
 20
-16.0
 30
0.0
 11
-28.54390702402611
 21
-11.04999999999995
 31
0.0
  0
LINE
  5
99B2
330
99A1
100
AcDbEntity
  8
AM_11 想像線
 48
0.1
100
AcDbLine
 10
-17.34390702402606
 20
-16.0
 30
0.0
 11
-17.34390702402606
 21
-17.5
 31
0.0
  0
LINE
  5
99B3
330
99A1
100
AcDbEntity
  8
AM_11 想像線
 48
0.1
100
AcDbLine
 10
-14.94390702402597
 20
-16.0
 30
0.0
 11
-14.94390702402597
 21
-17.5
 31
0.0
  0
LINE
  5
99B4
330
99A1
100
AcDbEntity
  8
AM_11 想像線
 48
0.1
100
AcDbLine
 10
-17.34390702402606
 20
-11.04999999999995
 30
0.0
 11
-17.34390702402606
 21
-16.0
 31
0.0
  0
LINE
  5
99B5
330
99A1
100
AcDbEntity
  8
AM_11 想像線
 48
0.1
100
AcDbLine
 10
-17.34390702402606
 20
-16.0
 30
0.0
 11
-14.94390702402597
 21
-16.0
 31
0.0
  0
LINE
  5
99B6
330
99A1
100
AcDbEntity
  8
AM_11 想像線
 48
0.1
100
AcDbLine
 10
-8.943907024025973
 20
-11.39999999999997
 30
0.0
 11
-7.943907024025974
 21
-12.39999999999997
 31
0.0
  0
LINE
  5
99B7
330
99A1
100
AcDbEntity
  8
AM_11 想像線
 48
0.1
100
AcDbLine
 10
-28.04390702402611
 20
-10.54999999999995
 30
0.0
 11
-17.84390702402606
 21
-10.54999999999995
 31
0.0
  0
ARC
  5
99B8
330
99A1
100
AcDbEntity
  8
AM_11 想像線
 48
0.1
100
AcDbCircle
 10
-9.943907024025977
 20
-7.5
 30
0.0
 40
1.0
100
AcDbArc
 50
0.0
 51
90.0
  0
ARC
  5
99B9
330
99A1
100
AcDbEntity
  8
AM_11 想像線
 48
0.1
100
AcDbCircle
 10
-13.94390702402597
 20
-7.5
 30
0.0
 40
1.0
100
AcDbArc
 50
90.0
 51
180.0
  0
LINE
  5
99BA
330
99A1
100
AcDbEntity
  8
AM_11 想像線
 48
0.1
100
AcDbLine
 10
-13.94390702402597
 20
-6.5
 30
0.0
 11
-9.943907024025977
 21
-6.5
 31
0.0
  0
LINE
  5
99BB
330
99A1
100
AcDbEntity
  8
AM_11 想像線
 48
0.1
100
AcDbLine
 10
-8.943907024025973
 20
-8.03932599999996
 30
0.0
 11
-8.943907024025973
 21
-7.5
 31
0.0
  0
ENDBLK
  5
99A3
330
99A1
100
AcDbEntity
  8
0
100
AcDbBlockEnd
  0
ENDSEC
  0
SECTION
  2
ENTITIES
  0
LINE
  5
453E
330
1F
100
AcDbEntity
  8
AM_7 中心線
100
AcDbLine
 10
327.7385250816981
 20
686.981016403407
 30
0.0
 11
837.7385250816981
 21
686.981016403407
 31
0.0
  0
LINE
  5
460B
330
1F
100
AcDbEntity
  8
AM_0 外形線1
100
AcDbLine
 10
701.7385250816983
 20
686.981016403407
 30
0.0
 11
701.7385250816983
 21
562.9810164034068
 31
0.0
  0
LINE
  5
4FDA
330
1F
100
AcDbEntity
  8
AM_0 外形線1
100
AcDbLine
 10
463.7385250816983
 20
795.481016403407
 30
0.0
 11
477.2385250816983
 21
795.481016403407
 31
0.0
  0
INSERT
  5
5098
102
{ACAD_REACTORS
330
9911
102
}
330
1F
100
AcDbEntity
  8
AM_0 外形線1
100
AcDbBlockReference
  2
センタ-1 SAM250
 10
707.7385250816981
 20
686.981016403407
 30
0.0
  0
INSERT
  5
5124
102
{ACAD_REACTORS
330
97F8
330
9824
102
}
330
1F
100
AcDbEntity
  8
AM_0 外形線1
100
AcDbBlockReference
  2
センタ-2 SAM250
 10
457.738525081698
 20
686.981016403407
 30
0.0
  0
INSERT
  5
539C
330
1F
100
AcDbEntity
  8
AM_0 外形線1
100
AcDbBlockReference
  2
ケースＡ-1 SAM250
 10
701.7385250816983
 20
686.981016403407
 30
0.0
  0
INSERT
  5
559E
330
1F
100
AcDbEntity
  8
AM_0 外形線1
100
AcDbBlockReference
  2
リーマボルト-1 SAM250 M10
 10
686.7385250816981
 20
800.9810153007318
 30
0.0
  0
INSERT
  5
5692
330
1F
100
AcDbEntity
  8
AM_0 外形線1
100
AcDbBlockReference
  2
リーマボルト-2 SAM250 M10
 10
478.738525081698
 20
800.9810164034067
 30
0.0
  0
DIMENSION
  5
5B14
330
1F
100
AcDbEntity
  8
AM_5 寸法線
100
AcDbDimension
  2
*D15
 10
272.7385250816981
 20
604.4810164034069
 30
0.0
 11
262.988525081698
 21
686.981016403407
 31
0.0
 70
    32
  1
%%c<>
 71
     5
 42
165.0
 73
     0
 74
     0
 75
     0
  3
SEISA$0
100
AcDbAlignedDimension
 13
378.7385250816983
 23
769.481016403407
 33
0.0
 14
378.7385250816983
 24
604.4810164034069
 34
0.0
 50
90.0
100
AcDbRotatedDimension
1001
ACAD_DSTYLE_DIMINSPECT
1070
   396
1000
100%
1070
   395
1000

1070
   394
1070
    33
1070
   393
1070
     0
  0
DIMENSION
  5
5B4E
330
1F
100
AcDbEntity
  8
AM_5 寸法線
100
AcDbDimension
  2
*D16
 10
405.7385250816983
 20
747.189845126071
 30
0.0
 11
395.1111107512527
 21
744.799782822734
 31
0.0
 70
   160
 71
     5
 42
4.0
 73
     0
 74
     0
 75
     0
  3
SEISA$0
100
AcDbAlignedDimension
 13
409.7385250816983
 23
769.981016403407
 33
0.0
 14
405.7385250816983
 24
769.481016403407
 34
0.0
100
AcDbRotatedDimension
1001
ACAD
1000
DSTYLE
1002
{
1070
   279
1070
     1
1002
}
  0
DIMENSION
  5
5C14
330
1F
100
AcDbEntity
  8
AM_5 寸法線
100
AcDbDimension
  2
*D17
 10
332.7385250816981
 20
699.6953544034083
 30
0.0
 11
395.2385250816981
 21
709.4453544034085
 31
0.0
 70
    32
 71
     5
 42
125.0000000000002
 73
     0
 74
     0
 75
     0
  3
SEISA$0
100
AcDbAlignedDimension
 13
457.738525081698
 23
686.981016403407
 33
0.0
 14
332.7385250816981
 24
686.981016403407
 34
0.0
100
AcDbRotatedDimension
  0
DIMENSION
  5
5C44
330
1F
100
AcDbEntity
  8
AM_5 寸法線
100
AcDbDimension
  2
*D18
 10
832.7385250816982
 20
699.6953544034083
 30
0.0
 11
770.2385250816981
 21
709.4453544034085
 31
0.0
 70
    32
 71
     5
 42
125.0
 73
     0
 74
     0
 75
     0
  3
SEISA$0
100
AcDbAlignedDimension
 13
707.7385250816981
 23
686.981016403407
 33
0.0
 14
832.7385250816982
 24
686.981016403407
 34
0.0
100
AcDbRotatedDimension
  0
DIMENSION
  5
5D6E
330
1F
100
AcDbEntity
  8
AM_5 寸法線
100
AcDbDimension
  2
*D19
 10
686.7385250816981
 20
531.981016403407
 30
0.0
 11
660.2635250816981
 21
541.731016403407
 31
0.0
 70
    32
 71
     5
 42
15.0
 73
     0
 74
     0
 75
     0
  3
SEISA$0
100
AcDbAlignedDimension
 13
701.7385250816983
 23
562.9810164034068
 33
0.0
 14
686.7385250816981
 24
562.9810164034068
 34
0.0
100
AcDbRotatedDimension
1001
ACAD_DSTYLE_DIMINSPECT
1070
   396
1000
100%
1070
   395
1000

1070
   394
1070
    33
1070
   393
1070
     0
1001
ACAD
1000
DSTYLE
1002
{
1070
   173
1070
     1
1070
   342
1005
0
1070
   343
1005
3A49
1070
   344
1005
69
1002
}
  0
DIMENSION
  5
5D8A
330
1F
100
AcDbEntity
  8
AM_5 寸法線
100
AcDbDimension
  2
*D20
 10
716.7385250816981
 20
531.981016403407
 30
0.0
 11
743.2135250816983
 21
541.731016403407
 31
0.0
 70
    32
 71
     5
 42
15.0
 73
     0
 74
     0
 75
     0
  3
SEISA$0
100
AcDbAlignedDimension
 13
701.7385250816983
 23
562.9810164034068
 33
0.0
 14
716.7385250816981
 24
562.9810164034068
 34
0.0
100
AcDbRotatedDimension
1001
ACAD_DSTYLE_DIMINSPECT
1070
   396
1000
100%
1070
   395
1000

1070
   394
1070
    33
1070
   393
1070
     0
1001
ACAD
1000
DSTYLE
1002
{
1070
   173
1070
     1
1070
   342
1005
0
1070
   343
1005
3A49
1070
   344
1005
69
1002
}
  0
DIMENSION
  5
5DA6
330
1F
100
AcDbEntity
  8
AM_5 寸法線
100
AcDbDimension
  2
*D21
 10
448.7385250816981
 20
531.981016403407
 30
0.0
 11
422.2635250816981
 21
541.731016403407
 31
0.0
 70
    32
 71
     5
 42
15.0
 73
     0
 74
     0
 75
     0
  3
SEISA$0
100
AcDbAlignedDimension
 13
463.7385250816983
 23
562.9810164034068
 33
0.0
 14
448.7385250816981
 24
562.9810164034068
 34
0.0
100
AcDbRotatedDimension
1001
ACAD_DSTYLE_DIMINSPECT
1070
   396
1000
100%
1070
   395
1000

1070
   394
1070
    33
1070
   393
1070
     0
1001
ACAD
1000
DSTYLE
1002
{
1070
   173
1070
     1
1070
   342
1005
0
1070
   343
1005
3A49
1070
   344
1005
69
1002
}
  0
DIMENSION
  5
5DC2
330
1F
100
AcDbEntity
  8
AM_5 寸法線
100
AcDbDimension
  2
*D22
 10
478.738525081698
 20
531.981016403407
 30
0.0
 11
505.2135250816983
 21
541.731016403407
 31
0.0
 70
    32
 71
     5
 42
15.0
 73
     0
 74
     0
 75
     0
  3
SEISA$0
100
AcDbAlignedDimension
 13
463.7385250816983
 23
562.9810164034068
 33
0.0
 14
478.738525081698
 24
562.9810164034068
 34
0.0
100
AcDbRotatedDimension
1001
ACAD_DSTYLE_DIMINSPECT
1070
   396
1000
100%
1070
   395
1000

1070
   394
1070
    33
1070
   393
1070
     0
1001
ACAD
1000
DSTYLE
1002
{
1070
   173
1070
     1
1070
   342
1005
0
1070
   343
1005
3A49
1070
   344
1005
69
1002
}
  0
DIMENSION
  5
5DDE
330
1F
100
AcDbEntity
  8
AM_5 寸法線
100
AcDbDimension
  2
*D23
 10
389.7385250816983
 20
501.9810164034069
 30
0.0
 11
361.2385250816981
 21
511.7310164034069
 31
0.0
 70
    32
 71
     5
 42
57.00000000000027
 73
     0
 74
     0
 75
     0
  3
SEISA$0
100
AcDbAlignedDimension
 13
332.7385250816981
 23
609.2810164034069
 33
0.0
 14
389.7385250816983
 24
590.981016403407
 34
0.0
100
AcDbRotatedDimension
1001
ACAD
1000
DSTYLE
1002
{
1070
   279
1070
     0
1002
}
  0
DIMENSION
  5
5DF6
330
1F
100
AcDbEntity
  8
AM_5 寸法線
100
AcDbDimension
  2
*D24
 10
463.7385250816983
 20
501.9810164034069
 30
0.0
 11
426.7385250816983
 21
511.7310164034069
 31
0.0
 70
    32
 71
     5
 42
74.0
 73
     0
 74
     0
 75
     0
  3
SEISA$0
100
AcDbAlignedDimension
 13
389.7385250816983
 23
590.981016403407
 33
0.0
 14
463.7385250816983
 24
562.9810164034068
 34
0.0
100
AcDbRotatedDimension
  0
DIMENSION
  5
5E26
330
1F
100
AcDbEntity
  8
AM_5 寸法線
100
AcDbDimension
  2
*D25
 10
775.7385250816981
 20
501.9810164034069
 30
0.0
 11
738.7385250816983
 21
511.7310164034069
 31
0.0
 70
    32
 71
     5
 42
74.0
 73
     0
 74
     0
 75
     0
  3
SEISA$0
100
AcDbAlignedDimension
 13
701.7385250816983
 23
562.9810164034068
 33
0.0
 14
775.7385250816981
 24
590.981016403407
 34
0.0
100
AcDbRotatedDimension
  0
DIMENSION
  5
5E3E
330
1F
100
AcDbEntity
  8
AM_5 寸法線
100
AcDbDimension
  2
*D26
 10
832.7385250816979
 20
501.9810164034069
 30
0.0
 11
804.2385250816979
 21
511.7310164034069
 31
0.0
 70
    32
 71
     5
 42
56.99999999999988
 73
     0
 74
     0
 75
     0
  3
SEISA$0
100
AcDbAlignedDimension
 13
775.7385250816981
 23
590.981016403407
 33
0.0
 14
832.7385250816979
 24
609.2810164034069
 34
0.0
100
AcDbRotatedDimension
  0
DIMENSION
  5
612D
330
1F
100
AcDbEntity
  8
AM_5 寸法線
100
AcDbDimension
  2
*D27
 10
892.7385250816982
 20
604.4810164034069
 30
0.0
 11
882.988525081698
 21
686.9810164034072
 31
0.0
 70
    32
  1
%%c<>
 71
     5
 42
165.0
 73
     0
 74
     0
 75
     0
  3
SEISA$0
100
AcDbAlignedDimension
 13
786.7385250816981
 23
769.481016403407
 33
0.0
 14
786.7385250816981
 24
604.4810164034069
 34
0.0
 50
90.0
100
AcDbRotatedDimension
1001
ACAD_DSTYLE_DIMINSPECT
1070
   396
1000
100%
1070
   395
1000

1070
   394
1070
    33
1070
   393
1070
     0
  0
DIMENSION
  5
6145
330
1F
100
AcDbEntity
  8
AM_5 寸法線
100
AcDbDimension
  2
*D28
 10
922.7385250816979
 20
586.981016403407
 30
0.0
 11
912.9885250816979
 21
686.9810164034072
 31
0.0
 70
    32
  1
%%c<>
 71
     5
 42
200.0
 73
     0
 74
     0
 75
     0
  3
SEISA$0
100
AcDbAlignedDimension
 13
771.7385250816983
 23
786.981016403407
 33
0.0
 14
771.7385250816983
 24
586.981016403407
 34
0.0
 50
90.0
100
AcDbRotatedDimension
1001
ACAD_DSTYLE_DIMINSPECT
1070
   396
1000
100%
1070
   395
1000

1070
   394
1070
    33
1070
   393
1070
     0
  0
DIMENSION
  5
615D
330
1F
100
AcDbEntity
  8
AM_5 寸法線
100
AcDbDimension
  2
*D29
 10
952.7385250816983
 20
561.9810164034069
 30
0.0
 11
942.988525081698
 21
686.981016403407
 31
0.0
 70
    32
  1
%%c<>
 71
     5
 42
250.0
 73
     0
 74
     0
 75
     0
  3
SEISA$0
100
AcDbAlignedDimension
 13
715.7385250816981
 23
811.981016403407
 33
0.0
 14
715.7385250816981
 24
561.981016403407
 34
0.0
 50
90.0
100
AcDbRotatedDimension
1001
ACAD_DSTYLE_DIMINSPECT
1070
   396
1000
100%
1070
   395
1000

1070
   394
1070
    33
1070
   393
1070
     0
  0
INSERT
  5
7F02
102
{ACAD_REACTORS
330
98DF
330
9911
102
}
330
1F
100
AcDbEntity
  8
AM_0 外形線1
100
AcDbBlockReference
  2
ＧＣスペーサ SAMY250
 10
463.7385250816983
 20
686.981016403407
 30
0.0
  0
MTEXT
  5
952C
330
1F
100
AcDbEntity
  8
AM_6 文字
100
AcDbMText
 10
864.1830655903964
 20
534.8387674866645
 30
0.0
 40
10.5
 41
164.0949394765895
 46
27.66929097590912
 71
     1
 72
     5
  1
{\W0.6;TYPE:SAM250/SAMH250\PSHAFT DIA:MAX/MIN φ115/φ42}
  7
SEISA
 73
     1
 44
1.0
  0
DIMENSION
  5
956D
330
1F
100
AcDbEntity
  8
AM_5 寸法線
100
AcDbDimension
  2
*D31
 10
332.7385250816981
 20
814.4810164034067
 30
0.0
 11
353.3635250816981
 21
824.2310164034067
 31
0.0
 70
    32
 71
     5
 42
0.9999999999996587
 73
     0
 74
     0
 75
     0
  3
SEISA$0
100
AcDbAlignedDimension
 13
331.7385250816983
 23
769.481016403407
 33
0.0
 14
332.7385250816981
 24
764.6810164034071
 34
0.0
100
AcDbRotatedDimension
1001
ACAD_DSTYLE_DIMINSPECT
1070
   396
1000
100%
1070
   395
1000

1070
   394
1070
    33
1070
   393
1070
     0
  0
DIMENSION
  5
97EA
102
{ACAD_XDICTIONARY
360
97F7
102
}
102
{ACAD_REACTORS
330
97F8
102
}
330
1F
100
AcDbEntity
  8
AM_5 寸法線
100
AcDbDimension
  2
*D32
 10
435.7385250816983
 20
747.1898451260714
 30
0.0
 11
422.7385250816983
 21
756.9398451260714
 31
0.0
 70
    32
 71
     5
 42
26.0
 73
     0
 74
     0
 75
     0
  3
SEISA$0
100
AcDbAlignedDimension
 13
409.7385250816983
 23
769.981016403407
 33
0.0
 14
435.7385250816983
 24
769.481016403407
 34
0.0
 50
0.0000000000001132
100
AcDbRotatedDimension
1001
ACAD_DSTYLE_DIMINSPECT
1070
   396
1000
100%
1070
   395
1000

1070
   394
1070
    33
1070
   393
1070
     0
  0
DIMENSION
  5
9814
102
{ACAD_XDICTIONARY
360
9823
102
}
102
{ACAD_REACTORS
330
9824
330
98DF
102
}
330
1F
100
AcDbEntity
  8
AM_5 寸法線
100
AcDbDimension
  2
*D33
 10
457.738525081698
 20
747.1898451260714
 30
0.0
 11
447.2693403684951
 21
755.1681077843211
 31
0.0
 70
   160
 71
     5
 42
22.0
 73
     0
 74
     0
 75
     0
  3
SEISA$0
100
AcDbAlignedDimension
 13
435.7385250816983
 23
769.481016403407
 33
0.0
 14
457.738525081698
 24
767.981016403407
 34
0.0
 50
0.0000000000001132
100
AcDbRotatedDimension
1001
ACAD_DSTYLE_DIMINSPECT
1070
   396
1000
100%
1070
   395
1000

1070
   394
1070
    33
1070
   393
1070
     0
1001
ACAD
1000
DSTYLE
1002
{
1070
   279
1070
     2
1002
}
  0
DIMENSION
  5
98CF
102
{ACAD_XDICTIONARY
360
98DE
102
}
102
{ACAD_REACTORS
330
98DF
102
}
330
1F
100
AcDbEntity
  8
AM_5 寸法線
100
AcDbDimension
  2
*D34
 10
457.738525081698
 20
717.1898451260712
 30
0.0
 11
435.3135250816983
 21
726.9398451260713
 31
0.0
 70
    32
 71
     5
 42
5.999999999999886
 73
     0
 74
     0
 75
     0
  3
SEISA$0
100
AcDbAlignedDimension
 13
463.7385250816981
 23
785.4810164034066
 33
0.0
 14
457.738525081698
 24
767.981016403407
 34
0.0
 50
0.0000000000001132
100
AcDbRotatedDimension
1001
ACAD_DSTYLE_DIMINSPECT
1070
   396
1000
100%
1070
   395
1000

1070
   394
1070
    33
1070
   393
1070
     0
  0
DIMENSION
  5
9901
102
{ACAD_XDICTIONARY
360
9910
102
}
102
{ACAD_REACTORS
330
9911
102
}
330
1F
100
AcDbEntity
  8
AM_5 寸法線
100
AcDbDimension
  2
*D35
 10
707.7385250816981
 20
717.1898451260712
 30
0.0
 11
689.0755433548958
 21
716.1696250065861
 31
0.0
 70
   160
 71
     5
 42
5.999999999999772
 73
     0
 74
     0
 75
     0
  3
SEISA$0
100
AcDbAlignedDimension
 13
701.7385250816983
 23
785.4810164034065
 33
0.0
 14
707.7385250816981
 24
767.981016403407
 34
0.0
 50
0.0000000000001132
100
AcDbRotatedDimension
1001
ACAD_DSTYLE_DIMINSPECT
1070
   396
1000
100%
1070
   395
1000

1070
   394
1070
    33
1070
   393
1070
     0
1001
ACAD
1000
DSTYLE
1002
{
1070
   279
1070
     1
1002
}
  0
INSERT
  5
99BC
330
1F
100
AcDbEntity
  8
AM_11 想像線
100
AcDbBlockReference
  2
ケース
 10
362.6824321057244
 20
786.981016403407
 30
0.0
  0
ENDSEC
  0
SECTION
  2
OBJECTS
  0
DICTIONARY
  5
C
330
0
100
AcDbDictionary
281
     1
  3
ACAD_COLOR
350
C5
  3
ACAD_GROUP
350
D
  3
ACAD_LAYOUT
350
1A
  3
ACAD_MATERIAL
350
C4
  3
ACAD_MLEADERSTYLE
350
2D5
  3
ACAD_MLINESTYLE
350
17
  3
ACAD_PLOTSETTINGS
350
19
  3
ACAD_PLOTSTYLENAME
350
E
  3
ACAD_SCALELIST
350
2B3
  3
ACAD_TABLESTYLE
350
121
  3
ACAD_VISUALSTYLE
350
27F
  3
ACDB_RECOMPOSE_DATA
350
2F7
  3
AcDbVariableDictionary
350
34
  3
AcmDictionary
350
49
  3
AMG
350
2B
  3
AMGSNAPSETTINGS
350
1DE
  0
DICTIONARY
  5
BF
330
2
100
AcDbDictionary
280
     1
281
     1
  3
ACAD_LAYERSTATES
360
2E20
  3
AMLAYER_GROUPCOLORS
360
C0
  0
DICTIONARY
  5
29F7
330
10
100
AcDbDictionary
280
     1
281
     1
  3
ADSK_XREC_LAYER_RECONCILED
360
29F8
  0
DICTIONARY
  5
29F9
330
81
100
AcDbDictionary
280
     1
281
     1
  3
ADSK_XREC_LAYER_RECONCILED
360
29FA
  0
DICTIONARY
  5
791E
330
791D
100
AcDbDictionary
280
     1
281
     1
  0
DICTIONARY
  5
82
330
1F
100
AcDbDictionary
280
     1
281
     1
  3
ACAD_SORTENTS
360
A41
  0
DICTIONARY
  5
38B8
330
38B7
100
AcDbDictionary
280
     1
281
     1
  3
ACAD_SORTENTS
360
6EFE
  0
DICTIONARY
  5
4D75
330
3AE9
100
AcDbDictionary
280
     1
281
     1
  3
ACAD_SORTENTS
360
6F17
  0
DICTIONARY
  5
4EDD
330
4E19
100
AcDbDictionary
280
     1
281
     1
  3
ACAD_SORTENTS
360
6F90
  0
DICTIONARY
  5
501E
330
4F5E
100
AcDbDictionary
280
     1
281
     1
  3
ACAD_SORTENTS
360
7011
  0
DICTIONARY
  5
50E5
330
5071
100
AcDbDictionary
280
     1
281
     1
  3
ACAD_SORTENTS
360
98AD
  0
DICTIONARY
  5
515F
330
5118
100
AcDbDictionary
280
     1
281
     1
  3
ACAD_SORTENTS
360
973C
  0
DICTIONARY
  5
55FF
330
5572
100
AcDbDictionary
280
     1
281
     1
  3
ACAD_SORTENTS
360
72AB
  0
DICTIONARY
  5
56F1
330
5666
100
AcDbDictionary
280
     1
281
     1
  3
ACAD_SORTENTS
360
7312
  0
DICTIONARY
  5
80C6
330
7E8A
100
AcDbDictionary
280
     1
281
     1
  3
ACAD_SORTENTS
360
9AEE
  0
DICTIONARY
  5
97F7
330
97EA
100
AcDbDictionary
280
     1
281
     1
  3
ACAD_DIMASSOC
360
97F8
  0
DICTIONARY
  5
9823
330
9814
100
AcDbDictionary
280
     1
281
     1
  3
ACAD_DIMASSOC
360
9824
  0
DICTIONARY
  5
98DE
330
98CF
100
AcDbDictionary
280
     1
281
     1
  3
ACAD_DIMASSOC
360
98DF
  0
DICTIONARY
  5
9910
330
9901
100
AcDbDictionary
280
     1
281
     1
  3
ACAD_DIMASSOC
360
9911
  0
DICTIONARY
  5
C5
102
{ACAD_REACTORS
330
C
102
}
330
C
100
AcDbDictionary
281
     1
  0
DICTIONARY
  5
D
102
{ACAD_REACTORS
330
C
102
}
330
C
100
AcDbDictionary
281
     1
  0
DICTIONARY
  5
1A
102
{ACAD_REACTORS
330
C
102
}
330
C
100
AcDbDictionary
281
     1
  3
Model
350
22
  3
レイアウト1
350
1E
  3
レイアウト2
350
26
  0
DICTIONARY
  5
C4
102
{ACAD_REACTORS
330
C
102
}
330
C
100
AcDbDictionary
281
     1
  3
ByBlock
350
27D
  3
ByLayer
350
27C
  3
Global
350
27E
  0
DICTIONARY
  5
2D5
102
{ACAD_REACTORS
330
C
102
}
330
C
100
AcDbDictionary
281
     1
  3
Standard
350
2D6
  0
DICTIONARY
  5
17
102
{ACAD_REACTORS
330
C
102
}
330
C
100
AcDbDictionary
281
     1
  3
Standard
350
18
  0
DICTIONARY
  5
19
102
{ACAD_REACTORS
330
C
102
}
330
C
100
AcDbDictionary
281
     1
  3
SEISA基本
350
1C7E
  0
ACDBDICTIONARYWDFLT
  5
E
102
{ACAD_REACTORS
330
C
102
}
330
C
100
AcDbDictionary
281
     1
  3
Normal
350
F
100
AcDbDictionaryWithDefault
340
F
  0
DICTIONARY
  5
2B3
102
{ACAD_REACTORS
330
C
102
}
330
C
100
AcDbDictionary
281
     1
  3
*A1
350
2A04
  3
*A2
350
3B25
  3
*A3
350
9523
  3
A0
350
2B4
  3
A1
350
2B5
  3
A2
350
2B6
  3
A3
350
2B7
  3
A4
350
2B8
  3
A5
350
2B9
  3
A6
350
2BA
  3
A7
350
2BB
  3
A8
350
2BC
  3
A9
350
2BD
  3
B0
350
2BE
  3
B1
350
2BF
  3
B2
350
2C0
  3
B3
350
2C1
  3
B4
350
2C2
  3
B5
350
2C3
  3
B6
350
2C4
  3
B7
350
2C5
  3
B8
350
2C6
  3
B9
350
2C7
  3
C0
350
2C8
  3
C1
350
2C9
  3
C2
350
2CA
  3
C3
350
2CB
  3
C4
350
2CC
  3
C5
350
2CD
  3
C6
350
2CE
  3
C7
350
2CF
  3
C8
350
2D0
  3
C9
350
2D1
  3
D0
350
2D2
  3
D1
350
2D3
  3
D2
350
2D4
  0
DICTIONARY
  5
121
102
{ACAD_REACTORS
330
C
102
}
330
C
100
AcDbDictionary
281
     1
  3
Standard
350
122
  0
DICTIONARY
  5
27F
102
{ACAD_REACTORS
330
C
102
}
330
C
100
AcDbDictionary
281
     1
  3
2dWireframe
350
285
  3
3D Hidden
350
287
  3
3dWireframe
350
286
  3
Basic
350
284
  3
Brighten
350
28B
  3
ColorChange
350
28F
  3
Conceptual
350
288
  3
Dim
350
28A
  3
Facepattern
350
28E
  3
Flat
350
280
  3
FlatWithEdges
350
281
  3
Gouraud
350
282
  3
GouraudWithEdges
350
283
  3
Linepattern
350
28D
  3
Realistic
350
289
  3
Thicken
350
28C
  0
XRECORD
  5
2F7
102
{ACAD_REACTORS
330
C
102
}
330
C
100
AcDbXrecord
280
     1
 90
        1
330
122
  0
DICTIONARY
  5
34
102
{ACAD_REACTORS
330
C
102
}
330
C
100
AcDbDictionary
281
     1
  3
CANNOSCALE
350
2FA
  3
CMLEADERSTYLE
350
2F8
  3
CTABLESTYLE
350
140
  3
DIMASSOC
350
AC
  3
INDEXCTL
350
35
  3
LAYEREVAL
350
740F
  3
LAYERNOTIFY
350
7410
  3
LIGHTINGUNITS
350
2FB
  3
MSLTSCALE
350
2F9
  0
DICTIONARY
  5
49
102
{ACAD_REACTORS
330
C
102
}
330
C
100
AcDbDictionary
281
     1
  3
AcmBOM
350
161B
  3
AcmStdDictionary
350
4A
  3
AMDTSECTSYM_ARROWCOLOR
350
12B
  0
DICTIONARY
  5
2B
102
{ACAD_REACTORS
330
C
102
}
330
C
100
AcDbDictionary
281
     1
  0
DICTIONARY
  5
1DE
102
{ACAD_REACTORS
330
C
102
}
330
C
100
AcDbDictionary
281
     1
  0
DICTIONARY
  5
2E20
102
{ACAD_REACTORS
330
BF
102
}
330
BF
100
AcDbDictionary
281
     1
  0
DICTIONARY
  5
C0
102
{ACAD_REACTORS
330
BF
102
}
330
BF
100
AcDbDictionary
280
     1
281
     1
  0
XRECORD
  5
29F8
102
{ACAD_REACTORS
330
29F7
102
}
330
29F7
100
AcDbXrecord
280
     1
290
     1
  0
XRECORD
  5
29FA
102
{ACAD_REACTORS
330
29F9
102
}
330
29F9
100
AcDbXrecord
280
     1
290
     1
  0
SORTENTSTABLE
  5
A41
102
{ACAD_REACTORS
330
82
102
}
330
82
100
AcDbSortentsTable
330
1F
331
5C44
  5
5C44
331
5692
  5
5716
331
5C14
  5
5C14
331
5E3E
  5
5E3E
331
5B14
  5
5B14
331
5E26
  5
5E26
331
5DF6
  5
5DF6
331
5DC2
  5
5DC2
331
453E
  5
453E
331
5DDE
  5
5DDE
331
5D8A
  5
5D8A
331
952C
  5
952C
331
5B4E
  5
5B4E
331
5098
  5
546D
331
615D
  5
615D
331
6145
  5
6145
331
559E
  5
5715
331
7F02
  5
7F02
331
4FDA
  5
539C
331
5DA6
  5
5DA6
331
5124
  5
54A6
331
5D6E
  5
5D6E
331
460B
  5
460B
331
539C
  5
5692
331
612D
  5
612D
  0
SORTENTSTABLE
  5
6EFE
102
{ACAD_REACTORS
330
38B8
102
}
330
38B8
100
AcDbSortentsTable
330
38B7
  0
SORTENTSTABLE
  5
6F17
102
{ACAD_REACTORS
330
4D75
102
}
330
4D75
100
AcDbSortentsTable
330
3AE9
  0
SORTENTSTABLE
  5
6F90
102
{ACAD_REACTORS
330
4EDD
102
}
330
4EDD
100
AcDbSortentsTable
330
4E19
331
4EDB
  5
4E3F
331
4E36
  5
4E37
331
4E53
  5
4E56
331
4E45
  5
4E48
331
4E40
  5
4E43
331
4E31
  5
4E32
331
4E4F
  5
4E52
331
4E4A
  5
4E4D
331
4E32
  5
4E33
331
4E41
  5
4E44
331
4EDC
  5
4E3E
331
4E4B
  5
4E4E
331
4E46
  5
4E49
331
4E37
  5
4E38
331
4E54
  5
4EDA
331
4E38
  5
4E39
331
4E55
  5
4EDB
331
4E33
  5
4E34
331
4E50
  5
4E53
331
4E47
  5
4E4A
331
4E42
  5
4E45
331
4E4C
  5
4E4F
331
4E3D
  5
4E40
331
4E56
  5
4EDC
331
4E34
  5
4E35
331
4E51
  5
4E54
331
4E43
  5
4E46
331
4E3E
  5
4E41
331
4E4D
  5
4E50
331
4E48
  5
4E4B
331
4E39
  5
4E3A
331
4E30
  5
4E31
331
4E3A
  5
4E3D
331
4EDA
  5
4E30
331
4E35
  5
4E36
331
4E52
  5
4E55
331
4E49
  5
4E4C
331
4E44
  5
4E47
331
4E4E
  5
4E51
331
4E3F
  5
4E42
  0
SORTENTSTABLE
  5
7011
102
{ACAD_REACTORS
330
501E
102
}
330
501E
100
AcDbSortentsTable
330
4F5E
331
4F85
  5
4F86
331
4F7A
  5
4F7B
331
4F61
  5
4F62
331
4F9A
  5
501D
331
4F89
  5
4F8A
331
4F7E
  5
4F7F
331
4F65
  5
4F66
331
4F8D
  5
4F8E
331
4F69
  5
4F6A
331
4F95
  5
4F96
331
4F6D
  5
4F6E
331
4F71
  5
4F72
331
4F75
  5
4F76
331
4F80
  5
4F81
331
4F84
  5
4F85
331
4F79
  5
4F7A
331
4F99
  5
4F9A
331
4F88
  5
4F89
331
4F7D
  5
4F7E
331
4F64
  5
4F65
331
4F8C
  5
4F8D
331
4F68
  5
4F69
331
4F90
  5
4F92
331
4F6C
  5
4F6D
331
4F94
  5
4F95
331
4F70
  5
4F71
331
4F74
  5
4F75
331
4F83
  5
4F84
331
4F78
  5
4F79
331
4F98
  5
4F99
331
4F87
  5
4F88
331
4F7C
  5
4F7D
331
4F63
  5
4F64
331
4F8B
  5
4F8C
331
501D
  5
4F61
331
4F67
  5
4F68
331
4F8F
  5
4F90
331
4F6B
  5
4F6C
331
4F93
  5
4F94
331
4F97
  5
4F98
331
4F6F
  5
4F70
331
4F73
  5
4F74
331
4F77
  5
4F78
331
4F82
  5
4F83
331
4F86
  5
4F87
331
4F7B
  5
4F7C
331
4F62
  5
4F63
331
4F8A
  5
4F8B
331
4F7F
  5
4F80
331
4F66
  5
4F67
331
4F8E
  5
4F8F
331
4F6A
  5
4F6B
331
4F92
  5
4F93
331
4F6E
  5
4F6F
331
4F96
  5
4F97
331
4F72
  5
4F73
331
4F81
  5
4F82
331
4F76
  5
4F77
  0
SORTENTSTABLE
  5
98AD
102
{ACAD_REACTORS
330
50E5
102
}
330
50E5
100
AcDbSortentsTable
330
5071
331
5090
  5
5092
331
5078
  5
507A
331
508F
  5
5091
331
5097
  5
9766
331
9766
  5
5075
331
508E
  5
5090
331
507F
  5
5081
331
9765
  5
5074
331
5096
  5
9765
331
5085
  5
5089
331
508D
  5
508F
331
507E
  5
5080
331
5095
  5
5097
331
5084
  5
5088
331
508C
  5
508E
331
5077
  5
5079
331
5094
  5
5096
331
5083
  5
5085
331
507C
  5
507F
331
5076
  5
5078
331
5093
  5
5095
331
5082
  5
5084
331
507B
  5
507E
331
5075
  5
5077
331
5092
  5
5094
331
5081
  5
5083
331
5089
  5
508D
331
507A
  5
507C
331
5074
  5
5076
331
5091
  5
5093
331
5080
  5
5082
331
5088
  5
508C
331
5079
  5
507B
  0
SORTENTSTABLE
  5
973C
102
{ACAD_REACTORS
330
515F
102
}
330
515F
100
AcDbSortentsTable
330
5118
331
514C
  5
5149
331
5148
  5
5145
331
5120
  5
96E9
331
96E9
  5
511C
331
511D
  5
515E
331
515C
  5
5159
331
5155
  5
5151
331
5144
  5
511E
331
5158
  5
5153
331
5151
  5
514E
331
514D
  5
514A
331
5149
  5
5146
331
511E
  5
9695
331
515D
  5
515A
331
5145
  5
511F
331
5159
  5
5155
331
5152
  5
514F
331
514E
  5
514B
331
514A
  5
5147
331
5146
  5
5120
331
511F
  5
96E8
331
5157
  5
5152
331
515E
  5
515B
331
511B
  5
515C
331
5153
  5
5150
331
515A
  5
5157
331
514F
  5
514C
331
514B
  5
5148
331
5147
  5
5144
331
96E8
  5
511D
331
515B
  5
5158
331
511C
  5
515D
331
5150
  5
514D
331
9695
  5
511B
  0
SORTENTSTABLE
  5
72AB
102
{ACAD_REACTORS
330
55FF
102
}
330
55FF
100
AcDbSortentsTable
330
5572
  0
SORTENTSTABLE
  5
7312
102
{ACAD_REACTORS
330
56F1
102
}
330
56F1
100
AcDbSortentsTable
330
5666
  0
SORTENTSTABLE
  5
9AEE
102
{ACAD_REACTORS
330
80C6
102
}
330
80C6
100
AcDbSortentsTable
330
7E8A
  0
DIMASSOC
  5
97F8
102
{ACAD_REACTORS
330
97F7
102
}
330
97F7
100
AcDbDimAssoc
330
97EA
 90
        2
 70
     0
 71
     0
  1
AcDbOsnapPointRef
 72
     1
331
5124
331
515A
 73
     0
 91
        0
 40
0.0
 10
0.0
 20
0.0
 30
2.000000000000000E+50
 75
     0
  0
DIMASSOC
  5
9824
102
{ACAD_REACTORS
330
9823
102
}
330
9823
100
AcDbDimAssoc
330
9814
 90
        2
 70
     0
 71
     0
  1
AcDbOsnapPointRef
 72
    13
331
5124
331
5144
 73
     0
 91
        0
 40
0.0
 10
0.0
 20
0.0
 30
2.000000000000000E+50
 75
     0
  0
DIMASSOC
  5
98DF
102
{ACAD_REACTORS
330
98DE
102
}
330
98DE
100
AcDbDimAssoc
330
98CF
 90
        3
 70
     0
 71
     0
  1
AcDbOsnapPointRef
 72
     1
331
7F02
331
7EDE
 73
     0
 91
        0
 40
0.0
 10
0.0
 20
0.0
 30
2.000000000000000E+50
 75
     0
  1
AcDbOsnapPointRef
 72
     4
331
9814
331
98CD
 73
     0
 91
        0
 40
0.0
 10
0.0
 20
0.0
 30
0.0
 75
     0
  0
DIMASSOC
  5
9911
102
{ACAD_REACTORS
330
9910
102
}
330
9910
100
AcDbDimAssoc
330
9901
 90
        3
 70
     0
 71
     0
  1
AcDbOsnapPointRef
 72
     1
331
7F02
331
7E98
 73
     0
 91
        0
 40
0.0
 10
0.0
 20
0.0
 30
2.000000000000000E+50
 75
     0
  1
AcDbOsnapPointRef
 72
    13
331
5098
331
5075
 73
     0
 91
        0
 40
0.0
 10
0.0
 20
0.0
 30
2.000000000000000E+50
 75
     0
  0
LAYOUT
  5
22
102
{ACAD_REACTORS
330
1A
102
}
330
1A
100
AcDbPlotSettings
  1

  2
KONICA MINOLTA 501 PCL
  4
A4
  6

 40
5.027082920074462
 41
5.027085781097412
 42
5.027069091796875
 43
5.027069091796875
 44
209.9733276367186
 45
296.9259948730469
 46
37.29818032089236
 47
0.0
 48
0.0
 49
0.0
140
0.0
141
0.0
142
1.0
143
2.634545715437483
 70
 11956
 72
     1
 73
     1
 74
     1
  7
SEISA.ctb
 75
     0
147
0.3795720811145397
 76
     0
 77
     2
 78
   300
148
-257.6870765618605
149
-499.3385047405358
100
AcDbLayout
  1
Model
 70
     1
 71
     0
 10
0.0
 20
0.0
 11
12.0
 21
9.0
 12
0.0
 22
0.0
 32
0.0
 14
0.0
 24
0.0
 34
0.0
 15
0.0
 25
0.0
 35
0.0
146
0.0
 13
0.0
 23
0.0
 33
0.0
 16
1.0
 26
0.0
 36
0.0
 17
0.0
 27
1.0
 37
0.0
 76
     0
330
1F
331
27A
1001
ACAD_PSEXT
1000
KONICA MINOLTA 501 PCL
1000
KONICA MINOLTA 501/421/361PCL
1000
IP_192.168.20.231_(1)
1000

1070
     0
  0
LAYOUT
  5
1E
102
{ACAD_REACTORS
330
1A
102
}
330
1A
100
AcDbPlotSettings
  1

  2
none_device
  4
Letter_(8.50_x_11.00_Inches)
  6

 40
6.349999904632567
 41
6.349999904632567
 42
6.350006103515625
 43
6.350006103515625
 44
215.8999938964844
 45
279.3999938964844
 46
0.0
 47
0.0
 48
0.0
 49
0.0
140
0.0
141
0.0
142
1.0
143
1.0
 70
 15024
 72
     1
 73
     1
 74
     5
  7
SEISA.ctb
 75
    16
147
1.0
 76
     0
 77
     2
 78
   300
148
0.0
149
0.0
100
AcDbLayout
  1
レイアウト1
 70
     1
 71
     1
 10
0.0
 20
0.0
 11
420.0
 21
297.0
 12
0.0
 22
0.0
 32
0.0
 14
1.000000000000000E+20
 24
1.000000000000000E+20
 34
1.000000000000000E+20
 15
-1.000000000000000E+20
 25
-1.000000000000000E+20
 35
-1.000000000000000E+20
146
0.0
 13
0.0
 23
0.0
 33
0.0
 16
1.0
 26
0.0
 36
0.0
 17
0.0
 27
1.0
 37
0.0
 76
     0
330
1B
  0
LAYOUT
  5
26
102
{ACAD_REACTORS
330
1A
102
}
330
1A
100
AcDbPlotSettings
  1

  2
none_device
  4
Letter_(8.50_x_11.00_Inches)
  6

 40
6.349999904632567
 41
6.349999904632567
 42
6.350006103515625
 43
6.350006103515625
 44
215.8999938964844
 45
279.3999938964844
 46
0.0
 47
0.0
 48
0.0
 49
0.0
140
0.0
141
0.0
142
1.0
143
1.0
 70
 15024
 72
     1
 73
     1
 74
     5
  7
SEISA.ctb
 75
    16
147
1.0
 76
     0
 77
     2
 78
   300
148
0.0
149
0.0
100
AcDbLayout
  1
レイアウト2
 70
     1
 71
     2
 10
0.0
 20
0.0
 11
12.0
 21
9.0
 12
0.0
 22
0.0
 32
0.0
 14
0.0
 24
0.0
 34
0.0
 15
0.0
 25
0.0
 35
0.0
146
0.0
 13
0.0
 23
0.0
 33
0.0
 16
1.0
 26
0.0
 36
0.0
 17
0.0
 27
1.0
 37
0.0
 76
     0
330
23
  0
MATERIAL
  5
27D
102
{ACAD_REACTORS
330
C4
102
}
330
C4
100
AcDbMaterial
  1
ByBlock
 73
     1
 78
     1
172
     1
176
     1
270
     1
274
     1
 94
       63
  0
MATERIAL
  5
27C
102
{ACAD_REACTORS
330
C4
102
}
330
C4
100
AcDbMaterial
  1
ByLayer
 73
     1
 78
     1
172
     1
176
     1
270
     1
274
     1
 94
       63
  0
MATERIAL
  5
27E
102
{ACAD_REACTORS
330
C4
102
}
330
C4
100
AcDbMaterial
  1
Global
 73
     1
 78
     1
172
     1
176
     1
270
     1
274
     1
 94
       63
  0
MLEADERSTYLE
  5
2D6
102
{ACAD_REACTORS
330
2D5
102
}
330
2D5
100
AcDbMLeaderStyle
170
     2
171
     1
172
     0
 90
        2
 40
0.0
 41
0.0
173
     1
 91
-1056964608
340
14
 92
       -2
290
     1
 42
2.0
291
     1
 43
0.36
  3
Standard
 44
4.0
300

342
11
174
     1
178
     6
175
     1
176
     0
 93
-1056964608
 45
4.0
292
     0
297
     0
 46
4.0
 94
-1056964608
 47
1.0
 49
1.0
140
1.0
293
     1
141
0.0
294
     1
177
     0
142
1.0
295
     0
296
     0
143
0.125
1001
ACAD_MLEADERVER
1070
     2
  0
MLINESTYLE
  5
18
102
{ACAD_REACTORS
330
17
102
}
330
17
100
AcDbMlineStyle
  2
STANDARD
 70
     0
  3

 62
   256
 51
90.0
 52
90.0
 71
     2
 49
0.5
 62
   256
  6
BYLAYER
 49
-0.5
 62
   256
  6
BYLAYER
  0
PLOTSETTINGS
  5
1C7E
102
{ACAD_REACTORS
330
19
102
}
330
19
100
AcDbPlotSettings
  1
SEISA基本
  2
none_device
  4
Letter_(8.50_x_11.00_Inches)
  6

 40
6.349999904632567
 41
6.349999904632567
 42
6.350006103515625
 43
6.350006103515625
 44
215.8999938964844
 45
279.3999938964844
 46
7.302498226506357
 47
0.0
 48
0.0
 49
0.0
140
0.0
141
0.0
142
1.0
143
1.574803221122935
 70
 11956
 72
     1
 73
     1
 74
     2
  7
SEISA.ctb
 75
     0
147
0.6349999711627054
 76
     0
 77
     2
 78
   300
148
0.0
149
0.0
1001
ACAD_PSEXT
1000
なし
1000
なし
1000
適切ではありません
1000
新しいプロッタ環境設定名を選択しない限り、レイアウトは印刷されません。
1070
     0
  0
ACDBPLACEHOLDER
  5
F
102
{ACAD_REACTORS
330
E
102
}
330
E
  0
SCALE
  5
2A04
102
{ACAD_REACTORS
330
2B3
102
}
330
2B3
100
AcDbScale
 70
     0
300
1:3
140
1.0
141
3.0
290
     0
  0
SCALE
  5
3B25
102
{ACAD_REACTORS
330
2B3
102
}
330
2B3
100
AcDbScale
 70
     0
300
1:1.5
140
1.0
141
1.5
290
     0
  0
SCALE
  5
9523
102
{ACAD_REACTORS
330
2B3
102
}
330
2B3
100
AcDbScale
 70
     0
300
1:2.5
140
1.0
141
2.5
290
     0
  0
SCALE
  5
2B4
102
{ACAD_REACTORS
330
2B3
102
}
330
2B3
100
AcDbScale
 70
     0
300
1:1
140
1.0
141
1.0
290
     1
  0
SCALE
  5
2B5
102
{ACAD_REACTORS
330
2B3
102
}
330
2B3
100
AcDbScale
 70
     0
300
1:2
140
1.0
141
2.0
290
     0
  0
SCALE
  5
2B6
102
{ACAD_REACTORS
330
2B3
102
}
330
2B3
100
AcDbScale
 70
     0
300
1:4
140
1.0
141
4.0
290
     0
  0
SCALE
  5
2B7
102
{ACAD_REACTORS
330
2B3
102
}
330
2B3
100
AcDbScale
 70
     0
300
1:5
140
1.0
141
5.0
290
     0
  0
SCALE
  5
2B8
102
{ACAD_REACTORS
330
2B3
102
}
330
2B3
100
AcDbScale
 70
     0
300
1:8
140
1.0
141
8.0
290
     0
  0
SCALE
  5
2B9
102
{ACAD_REACTORS
330
2B3
102
}
330
2B3
100
AcDbScale
 70
     0
300
1:10
140
1.0
141
10.0
290
     0
  0
SCALE
  5
2BA
102
{ACAD_REACTORS
330
2B3
102
}
330
2B3
100
AcDbScale
 70
     0
300
1:16
140
1.0
141
16.0
290
     0
  0
SCALE
  5
2BB
102
{ACAD_REACTORS
330
2B3
102
}
330
2B3
100
AcDbScale
 70
     0
300
1:20
140
1.0
141
20.0
290
     0
  0
SCALE
  5
2BC
102
{ACAD_REACTORS
330
2B3
102
}
330
2B3
100
AcDbScale
 70
     0
300
1:30
140
1.0
141
30.0
290
     0
  0
SCALE
  5
2BD
102
{ACAD_REACTORS
330
2B3
102
}
330
2B3
100
AcDbScale
 70
     0
300
1:40
140
1.0
141
40.0
290
     0
  0
SCALE
  5
2BE
102
{ACAD_REACTORS
330
2B3
102
}
330
2B3
100
AcDbScale
 70
     0
300
1:50
140
1.0
141
50.0
290
     0
  0
SCALE
  5
2BF
102
{ACAD_REACTORS
330
2B3
102
}
330
2B3
100
AcDbScale
 70
     0
300
1:100
140
1.0
141
100.0
290
     0
  0
SCALE
  5
2C0
102
{ACAD_REACTORS
330
2B3
102
}
330
2B3
100
AcDbScale
 70
     0
300
2:1
140
2.0
141
1.0
290
     0
  0
SCALE
  5
2C1
102
{ACAD_REACTORS
330
2B3
102
}
330
2B3
100
AcDbScale
 70
     0
300
4:1
140
4.0
141
1.0
290
     0
  0
SCALE
  5
2C2
102
{ACAD_REACTORS
330
2B3
102
}
330
2B3
100
AcDbScale
 70
     0
300
8:1
140
8.0
141
1.0
290
     0
  0
SCALE
  5
2C3
102
{ACAD_REACTORS
330
2B3
102
}
330
2B3
100
AcDbScale
 70
     0
300
10:1
140
10.0
141
1.0
290
     0
  0
SCALE
  5
2C4
102
{ACAD_REACTORS
330
2B3
102
}
330
2B3
100
AcDbScale
 70
     0
300
100:1
140
100.0
141
1.0
290
     0
  0
SCALE
  5
2C5
102
{ACAD_REACTORS
330
2B3
102
}
330
2B3
100
AcDbScale
 70
     0
300
1/128" = 1'-0"
140
0.0078125
141
12.0
290
     0
  0
SCALE
  5
2C6
102
{ACAD_REACTORS
330
2B3
102
}
330
2B3
100
AcDbScale
 70
     0
300
1/64" = 1'-0"
140
0.015625
141
12.0
290
     0
  0
SCALE
  5
2C7
102
{ACAD_REACTORS
330
2B3
102
}
330
2B3
100
AcDbScale
 70
     0
300
1/32" = 1'-0"
140
0.03125
141
12.0
290
     0
  0
SCALE
  5
2C8
102
{ACAD_REACTORS
330
2B3
102
}
330
2B3
100
AcDbScale
 70
     0
300
1/16" = 1'-0"
140
0.0625
141
12.0
290
     0
  0
SCALE
  5
2C9
102
{ACAD_REACTORS
330
2B3
102
}
330
2B3
100
AcDbScale
 70
     0
300
3/32" = 1'-0"
140
0.09375
141
12.0
290
     0
  0
SCALE
  5
2CA
102
{ACAD_REACTORS
330
2B3
102
}
330
2B3
100
AcDbScale
 70
     0
300
1/8" = 1'-0"
140
0.125
141
12.0
290
     0
  0
SCALE
  5
2CB
102
{ACAD_REACTORS
330
2B3
102
}
330
2B3
100
AcDbScale
 70
     0
300
3/16" = 1'-0"
140
0.1875
141
12.0
290
     0
  0
SCALE
  5
2CC
102
{ACAD_REACTORS
330
2B3
102
}
330
2B3
100
AcDbScale
 70
     0
300
1/4" = 1'-0"
140
0.25
141
12.0
290
     0
  0
SCALE
  5
2CD
102
{ACAD_REACTORS
330
2B3
102
}
330
2B3
100
AcDbScale
 70
     0
300
3/8" = 1'-0"
140
0.375
141
12.0
290
     0
  0
SCALE
  5
2CE
102
{ACAD_REACTORS
330
2B3
102
}
330
2B3
100
AcDbScale
 70
     0
300
1/2" = 1'-0"
140
0.5
141
12.0
290
     0
  0
SCALE
  5
2CF
102
{ACAD_REACTORS
330
2B3
102
}
330
2B3
100
AcDbScale
 70
     0
300
3/4" = 1'-0"
140
0.75
141
12.0
290
     0
  0
SCALE
  5
2D0
102
{ACAD_REACTORS
330
2B3
102
}
330
2B3
100
AcDbScale
 70
     0
300
1" = 1'-0"
140
1.0
141
12.0
290
     0
  0
SCALE
  5
2D1
102
{ACAD_REACTORS
330
2B3
102
}
330
2B3
100
AcDbScale
 70
     0
300
1-1/2" = 1'-0"
140
1.5
141
12.0
290
     0
  0
SCALE
  5
2D2
102
{ACAD_REACTORS
330
2B3
102
}
330
2B3
100
AcDbScale
 70
     0
300
3" = 1'-0"
140
3.0
141
12.0
290
     0
  0
SCALE
  5
2D3
102
{ACAD_REACTORS
330
2B3
102
}
330
2B3
100
AcDbScale
 70
     0
300
6" = 1'-0"
140
6.0
141
12.0
290
     0
  0
SCALE
  5
2D4
102
{ACAD_REACTORS
330
2B3
102
}
330
2B3
100
AcDbScale
 70
     0
300
1'-0" = 1'-0"
140
12.0
141
12.0
290
     0
  0
TABLESTYLE
  5
122
102
{ACAD_XDICTIONARY
360
2F5
102
}
102
{ACAD_REACTORS
330
121
102
}
330
121
100
AcDbTableStyle
  3
Standard
 70
     0
 71
     0
 40
1.5
 41
1.5
280
     0
281
     0
  7
STANDARD
140
4.5
170
     2
 62
     0
 63
     7
283
     0
 90
      512
 91
        0
  1

274
    -2
284
     1
 64
     0
275
    -2
285
     1
 65
     0
276
    -2
286
     1
 66
     0
277
    -2
287
     1
 67
     0
278
    -2
288
     1
 68
     0
279
    -2
289
     1
 69
     0
  7
STANDARD
140
6.0
170
     5
 62
     0
 63
     7
283
     0
 90
      512
 91
        0
  1

274
    -2
284
     1
 64
     0
275
    -2
285
     1
 65
     0
276
    -2
286
     1
 66
     0
277
    -2
287
     1
 67
     0
278
    -2
288
     1
 68
     0
279
    -2
289
     1
 69
     0
  7
STANDARD
140
4.5
170
     5
 62
     0
 63
     7
283
     0
 90
      512
 91
        0
  1

274
    -2
284
     1
 64
     0
275
    -2
285
     1
 65
     0
276
    -2
286
     1
 66
     0
277
    -2
287
     1
 67
     0
278
    -2
288
     1
 68
     0
279
    -2
289
     1
 69
     0
  0
VISUALSTYLE
  5
285
102
{ACAD_REACTORS
330
27F
102
}
330
27F
100
AcDbVisualStyle
  2
2dWireframe
 70
     4
 71
     0
 72
     2
 73
     0
 90
        0
 40
-0.6
 41
-30.0
 62
     5
 63
     7
421
 16777215
 74
     1
 91
        4
 64
     7
 65
   257
 75
     1
175
     1
 42
1.0
 92
        0
 66
   257
 43
1.0
 76
     1
 77
     6
 78
     2
 67
     7
 79
     5
170
     0
171
     0
290
     0
174
     0
 93
        1
 44
0.0
173
     0
291
     0
 45
0.0
  0
VISUALSTYLE
  5
287
102
{ACAD_REACTORS
330
27F
102
}
330
27F
100
AcDbVisualStyle
  2
3D Hidden
 70
     6
 71
     1
 72
     2
 73
     2
 90
        0
 40
-0.6
 41
-30.0
 62
     5
 63
     7
421
 16777215
 74
     2
 91
        2
 64
     7
 65
   257
 75
     2
175
     1
 42
40.0
 92
        0
 66
   257
 43
1.0
 76
     1
 77
     6
 78
     2
 67
     7
 79
     3
170
     0
171
     0
290
     0
174
     0
 93
        1
 44
0.0
173
     0
291
     0
 45
0.0
  0
VISUALSTYLE
  5
286
102
{ACAD_REACTORS
330
27F
102
}
330
27F
100
AcDbVisualStyle
  2
3dWireframe
 70
     5
 71
     0
 72
     2
 73
     0
 90
        0
 40
-0.6
 41
-30.0
 62
     5
 63
     7
421
 16777215
 74
     1
 91
        4
 64
     7
 65
   257
 75
     1
175
     1
 42
1.0
 92
        0
 66
   257
 43
1.0
 76
     1
 77
     6
 78
     2
 67
     7
 79
     5
170
     0
171
     0
290
     0
174
     0
 93
        1
 44
0.0
173
     0
291
     0
 45
0.0
  0
VISUALSTYLE
  5
284
102
{ACAD_REACTORS
330
27F
102
}
330
27F
100
AcDbVisualStyle
  2
Basic
 70
     7
 71
     1
 72
     0
 73
     1
 90
        0
 40
-0.6
 41
-30.0
 62
     5
 63
     7
421
 16777215
 74
     0
 91
        4
 64
     7
 65
   257
 75
     1
175
     1
 42
1.0
 92
        8
 66
     7
 43
1.0
 76
     1
 77
     6
 78
     2
 67
     7
 79
     5
170
     0
171
     0
290
     0
174
     0
 93
        1
 44
0.0
173
     0
291
     1
 45
0.0
  0
VISUALSTYLE
  5
28B
102
{ACAD_REACTORS
330
27F
102
}
330
27F
100
AcDbVisualStyle
  2
Brighten
 70
    12
 71
     2
 72
     2
 73
     0
 90
        0
 40
-0.6
 41
-30.0
 62
     5
 63
     7
421
 16777215
 74
     1
 91
        4
 64
     7
 65
   257
 75
     1
175
     1
 42
1.0
 92
        8
 66
     7
 43
1.0
 76
     1
 77
     6
 78
     2
 67
     7
 79
     5
170
     0
171
     0
290
     0
174
     0
 93
        1
 44
50.0
173
     0
291
     1
 45
0.0
  0
VISUALSTYLE
  5
28F
102
{ACAD_REACTORS
330
27F
102
}
330
27F
100
AcDbVisualStyle
  2
ColorChange
 70
    16
 71
     2
 72
     2
 73
     3
 90
        0
 40
-0.6
 41
-30.0
 62
     5
 63
     8
421
  8421504
 74
     1
 91
        4
 64
     7
 65
   257
 75
     1
175
     1
 42
1.0
 92
        8
 66
     8
424
  8421504
 43
1.0
 76
     1
 77
     6
 78
     2
 67
     7
 79
     5
170
     0
171
     0
290
     0
174
     0
 93
        1
 44
0.0
173
     0
291
     1
 45
0.0
  0
VISUALSTYLE
  5
288
102
{ACAD_REACTORS
330
27F
102
}
330
27F
100
AcDbVisualStyle
  2
Conceptual
 70
     9
 71
     3
 72
     2
 73
     0
 90
        0
 40
-0.6
 41
-30.0
 62
     5
 63
     7
421
 16777215
 74
     2
 91
        2
 64
     7
 65
   257
 75
     1
175
     1
 42
40.0
 92
        8
 66
     7
 43
1.0
 76
     1
 77
     6
 78
     2
 67
     7
 79
     3
170
     0
171
     0
290
     0
174
     0
 93
        1
 44
0.0
173
     0
291
     0
 45
0.0
  0
VISUALSTYLE
  5
28A
102
{ACAD_REACTORS
330
27F
102
}
330
27F
100
AcDbVisualStyle
  2
Dim
 70
    11
 71
     2
 72
     2
 73
     0
 90
        0
 40
-0.6
 41
-30.0
 62
     5
 63
     7
421
 16777215
 74
     1
 91
        4
 64
     7
 65
   257
 75
     1
175
     1
 42
1.0
 92
        8
 66
     7
 43
1.0
 76
     1
 77
     6
 78
     2
 67
     7
 79
     5
170
     0
171
     0
290
     0
174
     0
 93
        1
 44
-50.0
173
     0
291
     1
 45
0.0
  0
VISUALSTYLE
  5
28E
102
{ACAD_REACTORS
330
27F
102
}
330
27F
100
AcDbVisualStyle
  2
Facepattern
 70
    15
 71
     2
 72
     2
 73
     0
 90
        0
 40
-0.6
 41
-30.0
 62
     5
 63
     7
421
 16777215
 74
     1
 91
        4
 64
     7
 65
   257
 75
     1
175
     1
 42
1.0
 92
        8
 66
     7
 43
1.0
 76
     1
 77
     6
 78
     2
 67
     7
 79
     5
170
     0
171
     0
290
     0
174
     0
 93
        1
 44
0.0
173
     0
291
     1
 45
0.0
  0
VISUALSTYLE
  5
280
102
{ACAD_REACTORS
330
27F
102
}
330
27F
100
AcDbVisualStyle
  2
Flat
 70
     0
 71
     2
 72
     1
 73
     1
 90
        2
 40
-0.6
 41
30.0
 62
     5
 63
     7
421
 16777215
 74
     0
 91
        4
 64
     7
 65
   257
 75
     1
175
     1
 42
1.0
 92
        8
 66
     7
 43
1.0
 76
     1
 77
     6
 78
     2
 67
     7
 79
     5
170
     0
171
     0
290
     0
174
     0
 93
       13
 44
0.0
173
     0
291
     1
 45
0.0
  0
VISUALSTYLE
  5
281
102
{ACAD_REACTORS
330
27F
102
}
330
27F
100
AcDbVisualStyle
  2
FlatWithEdges
 70
     1
 71
     2
 72
     1
 73
     1
 90
        2
 40
-0.6
 41
30.0
 62
     5
 63
     7
421
 16777215
 74
     1
 91
        4
 64
     7
 65
   257
 75
     1
175
     1
 42
1.0
 92
        0
 66
   257
 43
1.0
 76
     1
 77
     6
 78
     2
 67
     7
 79
     5
170
     0
171
     0
290
     0
174
     0
 93
       13
 44
0.0
173
     0
291
     1
 45
0.0
  0
VISUALSTYLE
  5
282
102
{ACAD_REACTORS
330
27F
102
}
330
27F
100
AcDbVisualStyle
  2
Gouraud
 70
     2
 71
     2
 72
     2
 73
     1
 90
        2
 40
-0.6
 41
30.0
 62
     5
 63
     7
421
 16777215
 74
     0
 91
        4
 64
     7
 65
   257
 75
     1
175
     1
 42
1.0
 92
        0
 66
     7
 43
1.0
 76
     1
 77
     6
 78
     2
 67
     7
 79
     5
170
     0
171
     0
290
     0
174
     0
 93
       13
 44
0.0
173
     0
291
     1
 45
0.0
  0
VISUALSTYLE
  5
283
102
{ACAD_REACTORS
330
27F
102
}
330
27F
100
AcDbVisualStyle
  2
GouraudWithEdges
 70
     3
 71
     2
 72
     2
 73
     1
 90
        2
 40
-0.6
 41
30.0
 62
     5
 63
     7
421
 16777215
 74
     1
 91
        4
 64
     7
 65
   257
 75
     1
175
     1
 42
1.0
 92
        0
 66
   257
 43
1.0
 76
     1
 77
     6
 78
     2
 67
     7
 79
     5
170
     0
171
     0
290
     0
174
     0
 93
       13
 44
0.0
173
     0
291
     1
 45
0.0
  0
VISUALSTYLE
  5
28D
102
{ACAD_REACTORS
330
27F
102
}
330
27F
100
AcDbVisualStyle
  2
Linepattern
 70
    14
 71
     2
 72
     2
 73
     0
 90
        0
 40
-0.6
 41
-30.0
 62
     5
 63
     7
421
 16777215
 74
     1
 91
        4
 64
     7
 65
   257
 75
     7
175
     7
 42
1.0
 92
        8
 66
     7
 43
1.0
 76
     1
 77
     6
 78
     2
 67
     7
 79
     5
170
     0
171
     0
290
     0
174
     0
 93
        1
 44
0.0
173
     0
291
     1
 45
0.0
  0
VISUALSTYLE
  5
289
102
{ACAD_REACTORS
330
27F
102
}
330
27F
100
AcDbVisualStyle
  2
Realistic
 70
     8
 71
     2
 72
     2
 73
     0
 90
        0
 40
-0.6
 41
-30.0
 62
     5
 63
     7
421
 16777215
 74
     1
 91
        0
 64
     7
 65
   257
 75
     1
175
     1
 42
1.0
 92
        8
 66
     8
424
  7895160
 43
1.0
 76
     1
 77
     6
 78
     2
 67
     7
 79
     5
170
     0
171
     0
290
     0
174
     0
 93
       13
 44
0.0
173
     0
291
     0
 45
0.0
  0
VISUALSTYLE
  5
28C
102
{ACAD_REACTORS
330
27F
102
}
330
27F
100
AcDbVisualStyle
  2
Thicken
 70
    13
 71
     2
 72
     2
 73
     0
 90
        0
 40
-0.6
 41
-30.0
 62
     5
 63
     7
421
 16777215
 74
     1
 91
        4
 64
     7
 65
   257
 75
     1
175
     1
 42
1.0
 92
       12
 66
     7
 43
1.0
 76
     1
 77
     6
 78
     2
 67
     7
 79
     5
170
     0
171
     0
290
     0
174
     0
 93
        1
 44
0.0
173
     0
291
     1
 45
0.0
  0
DICTIONARYVAR
  5
2FA
102
{ACAD_REACTORS
330
34
102
}
330
34
100
DictionaryVariables
280
     0
  1
1:3
  0
DICTIONARYVAR
  5
2F8
102
{ACAD_REACTORS
330
34
102
}
330
34
100
DictionaryVariables
280
     0
  1
STANDARD
  0
DICTIONARYVAR
  5
140
102
{ACAD_REACTORS
330
34
102
}
330
34
100
DictionaryVariables
280
     0
  1
STANDARD
  0
DICTIONARYVAR
  5
AC
102
{ACAD_REACTORS
330
34
102
}
330
34
100
DictionaryVariables
280
     0
  1
1
  0
DICTIONARYVAR
  5
35
102
{ACAD_REACTORS
330
34
102
}
330
34
100
DictionaryVariables
280
     0
  1
1
  0
DICTIONARYVAR
  5
740F
102
{ACAD_REACTORS
330
34
102
}
330
34
100
DictionaryVariables
280
     0
  1
1
  0
DICTIONARYVAR
  5
7410
102
{ACAD_REACTORS
330
34
102
}
330
34
100
DictionaryVariables
280
     0
  1
15
  0
DICTIONARYVAR
  5
2FB
102
{ACAD_REACTORS
330
34
102
}
330
34
100
DictionaryVariables
280
     0
  1
0
  0
DICTIONARYVAR
  5
2F9
102
{ACAD_REACTORS
330
34
102
}
330
34
100
DictionaryVariables
280
     0
  1
0
  0
DICTIONARY
  5
161B
102
{ACAD_REACTORS
330
49
102
}
330
49
100
AcDbDictionary
281
     1
  0
DICTIONARY
  5
4A
102
{ACAD_REACTORS
330
49
102
}
330
49
100
AcDbDictionary
281
     1
  0
XRECORD
  5
12B
102
{ACAD_REACTORS
330
49
102
}
330
49
100
AcDbXrecord
280
     1
 90
-1023410169
  0
DICTIONARY
  5
2F5
330
122
100
AcDbDictionary
280
     1
281
     1
  3
ACAD_ROUNDTRIP_2008_TABLESTYLE_CELLSTYLEMAP
360
9B7E
  0
CELLSTYLEMAP
  5
9B7E
102
{ACAD_REACTORS
330
2F5
102
}
330
2F5
100
AcDbCellStyleMap
 90
        3
300
CELLSTYLE
  1
TABLEFORMAT_BEGIN
 90
        5
170
     1
 91
        0
 92
    32768
 62
   257
 93
        1
300
CONTENTFORMAT
  1
CONTENTFORMAT_BEGIN
 90
        0
 91
        0
 92
      512
 93
        0
300

 40
0.0
140
1.0
 94
        5
 62
     0
340
11
144
6.0
309
CONTENTFORMAT_END
171
     1
301
MARGIN
  1
CELLMARGIN_BEGIN
 40
1.5
 40
1.5
 40
1.5
 40
1.5
 40
0.18
 40
0.18
309
CELLMARGIN_END
 94
        6
 95
        1
302
GRIDFORMAT
  1
GRIDFORMAT_BEGIN
 90
        0
 91
        1
 62
     0
 92
       -2
340
0
 93
        0
 40
0.045
309
GRIDFORMAT_END
 95
        2
302
GRIDFORMAT
  1
GRIDFORMAT_BEGIN
 90
        0
 91
        1
 62
     0
 92
       -2
340
0
 93
        0
 40
0.045
309
GRIDFORMAT_END
 95
        4
302
GRIDFORMAT
  1
GRIDFORMAT_BEGIN
 90
        0
 91
        1
 62
     0
 92
       -2
340
0
 93
        0
 40
0.045
309
GRIDFORMAT_END
 95
        8
302
GRIDFORMAT
  1
GRIDFORMAT_BEGIN
 90
        0
 91
        1
 62
     0
 92
       -2
340
0
 93
        0
 40
0.045
309
GRIDFORMAT_END
 95
       16
302
GRIDFORMAT
  1
GRIDFORMAT_BEGIN
 90
        0
 91
        1
 62
     0
 92
       -2
340
0
 93
        0
 40
0.045
309
GRIDFORMAT_END
 95
       32
302
GRIDFORMAT
  1
GRIDFORMAT_BEGIN
 90
        0
 91
        1
 62
     0
 92
       -2
340
0
 93
        0
 40
0.045
309
GRIDFORMAT_END
309
TABLEFORMAT_END
  1
CELLSTYLE_BEGIN
 90
        1
 91
        1
300
_TITLE
309
CELLSTYLE_END
300
CELLSTYLE
  1
TABLEFORMAT_BEGIN
 90
        5
170
     1
 91
        0
 92
        0
 62
   257
 93
        1
300
CONTENTFORMAT
  1
CONTENTFORMAT_BEGIN
 90
        0
 91
        0
 92
      512
 93
        0
300

 40
0.0
140
1.0
 94
        5
 62
     0
340
11
144
4.5
309
CONTENTFORMAT_END
171
     1
301
MARGIN
  1
CELLMARGIN_BEGIN
 40
1.5
 40
1.5
 40
1.5
 40
1.5
 40
0.18
 40
0.18
309
CELLMARGIN_END
 94
        6
 95
        1
302
GRIDFORMAT
  1
GRIDFORMAT_BEGIN
 90
        0
 91
        1
 62
     0
 92
       -2
340
0
 93
        0
 40
0.045
309
GRIDFORMAT_END
 95
        2
302
GRIDFORMAT
  1
GRIDFORMAT_BEGIN
 90
        0
 91
        1
 62
     0
 92
       -2
340
0
 93
        0
 40
0.045
309
GRIDFORMAT_END
 95
        4
302
GRIDFORMAT
  1
GRIDFORMAT_BEGIN
 90
        0
 91
        1
 62
     0
 92
       -2
340
0
 93
        0
 40
0.045
309
GRIDFORMAT_END
 95
        8
302
GRIDFORMAT
  1
GRIDFORMAT_BEGIN
 90
        0
 91
        1
 62
     0
 92
       -2
340
0
 93
        0
 40
0.045
309
GRIDFORMAT_END
 95
       16
302
GRIDFORMAT
  1
GRIDFORMAT_BEGIN
 90
        0
 91
        1
 62
     0
 92
       -2
340
0
 93
        0
 40
0.045
309
GRIDFORMAT_END
 95
       32
302
GRIDFORMAT
  1
GRIDFORMAT_BEGIN
 90
        0
 91
        1
 62
     0
 92
       -2
340
0
 93
        0
 40
0.045
309
GRIDFORMAT_END
309
TABLEFORMAT_END
  1
CELLSTYLE_BEGIN
 90
        2
 91
        1
300
_HEADER
309
CELLSTYLE_END
300
CELLSTYLE
  1
TABLEFORMAT_BEGIN
 90
        5
170
     1
 91
        0
 92
        0
 62
   257
 93
        1
300
CONTENTFORMAT
  1
CONTENTFORMAT_BEGIN
 90
        0
 91
        0
 92
      512
 93
        0
300

 40
0.0
140
1.0
 94
        2
 62
     0
340
11
144
4.5
309
CONTENTFORMAT_END
171
     1
301
MARGIN
  1
CELLMARGIN_BEGIN
 40
1.5
 40
1.5
 40
1.5
 40
1.5
 40
0.18
 40
0.18
309
CELLMARGIN_END
 94
        6
 95
        1
302
GRIDFORMAT
  1
GRIDFORMAT_BEGIN
 90
        0
 91
        1
 62
     0
 92
       -2
340
0
 93
        0
 40
0.045
309
GRIDFORMAT_END
 95
        2
302
GRIDFORMAT
  1
GRIDFORMAT_BEGIN
 90
        0
 91
        1
 62
     0
 92
       -2
340
0
 93
        0
 40
0.045
309
GRIDFORMAT_END
 95
        4
302
GRIDFORMAT
  1
GRIDFORMAT_BEGIN
 90
        0
 91
        1
 62
     0
 92
       -2
340
0
 93
        0
 40
0.045
309
GRIDFORMAT_END
 95
        8
302
GRIDFORMAT
  1
GRIDFORMAT_BEGIN
 90
        0
 91
        1
 62
     0
 92
       -2
340
0
 93
        0
 40
0.045
309
GRIDFORMAT_END
 95
       16
302
GRIDFORMAT
  1
GRIDFORMAT_BEGIN
 90
        0
 91
        1
 62
     0
 92
       -2
340
0
 93
        0
 40
0.045
309
GRIDFORMAT_END
 95
       32
302
GRIDFORMAT
  1
GRIDFORMAT_BEGIN
 90
        0
 91
        1
 62
     0
 92
       -2
340
0
 93
        0
 40
0.045
309
GRIDFORMAT_END
309
TABLEFORMAT_END
  1
CELLSTYLE_BEGIN
 90
        3
 91
        2
300
_DATA
309
CELLSTYLE_END
  0
ENDSEC
  0
EOF
