  0
SECTION
  2
HEADER
  9
$ACADVER
  1
AC1021
  9
$ACADMAINTVER
 70
    26
  9
$DWGCODEPAGE
  3
ANSI_932
  9
$LASTSAVEDBY
  1
Htm_Terada
  9
$CUSTOMPROPERTYTAG
  1
AmdtFileType
  9
$CUSTOMPROPERTY
  1
84
  9
$INSBASE
 10
0.0
 20
0.0
 30
0.0
  9
$EXTMIN
 10
267.8768959096605
 20
497.6390571067222
 30
-0.0000000349181948
  9
$EXTMAX
 10
1019.616397271092
 20
808.9098846788989
 30
0.0000000814935747
  9
$LIMMIN
 10
0.0000005743015663
 20
0.0000011081461935
  9
$LIMMAX
 10
1260.000000574301
 20
891.0000011081463
  9
$ORTHOMODE
 70
     0
  9
$REGENMODE
 70
     1
  9
$FILLMODE
 70
     1
  9
$QTEXTMODE
 70
     0
  9
$MIRRTEXT
 70
     1
  9
$LTSCALE
 40
3.0
  9
$ATTMODE
 70
     1
  9
$TEXTSIZE
 40
25.0
  9
$TRACEWID
 40
1.0
  9
$TEXTSTYLE
  7
SEISA
  9
$CLAYER
  8
AM_0 外形線1
  9
$CELTYPE
  6
ByLayer
  9
$CECOLOR
 62
   256
  9
$CELTSCALE
 40
1.0
  9
$DISPSILH
 70
     0
  9
$DIMSCALE
 40
3.0
  9
$DIMASZ
 40
2.5
  9
$DIMEXO
 40
0.625
  9
$DIMDLI
 40
10.0
  9
$DIMRND
 40
0.0
  9
$DIMDLE
 40
0.0
  9
$DIMEXE
 40
0.625
  9
$DIMTP
 40
0.1
  9
$DIMTM
 40
0.1
  9
$DIMTXT
 40
3.5
  9
$DIMCEN
 40
0.0
  9
$DIMTSZ
 40
0.0
  9
$DIMTOL
 70
     0
  9
$DIMLIM
 70
     0
  9
$DIMTIH
 70
     0
  9
$DIMTOH
 70
     0
  9
$DIMSE1
 70
     0
  9
$DIMSE2
 70
     0
  9
$DIMTAD
 70
     3
  9
$DIMZIN
 70
     8
  9
$DIMBLK
  1
Open30
  9
$DIMASO
 70
     1
  9
$DIMSHO
 70
     1
  9
$DIMPOST
  1

  9
$DIMAPOST
  1
"
  9
$DIMALT
 70
     0
  9
$DIMALTD
 70
     2
  9
$DIMALTF
 40
0.0393701
  9
$DIMLFAC
 40
1.0
  9
$DIMTOFL
 70
     1
  9
$DIMTVP
 40
0.0
  9
$DIMTIX
 70
     0
  9
$DIMSOXD
 70
     0
  9
$DIMSAH
 70
     0
  9
$DIMBLK1
  1

  9
$DIMBLK2
  1

  9
$DIMSTYLE
  2
SEISA
  9
$DIMCLRD
 70
     3
  9
$DIMCLRE
 70
     3
  9
$DIMCLRT
 70
     3
  9
$DIMTFAC
 40
0.71
  9
$DIMGAP
 40
1.5
  9
$DIMJUST
 70
     0
  9
$DIMSD1
 70
     0
  9
$DIMSD2
 70
     0
  9
$DIMTOLJ
 70
     0
  9
$DIMTZIN
 70
     0
  9
$DIMALTZ
 70
     0
  9
$DIMALTTZ
 70
     8
  9
$DIMUPT
 70
     0
  9
$DIMDEC
 70
     2
  9
$DIMTDEC
 70
     2
  9
$DIMALTU
 70
     2
  9
$DIMALTTD
 70
     2
  9
$DIMTXSTY
  7
SEISA
  9
$DIMAUNIT
 70
     0
  9
$DIMADEC
 70
     0
  9
$DIMALTRND
 40
0.0
  9
$DIMAZIN
 70
     2
  9
$DIMDSEP
 70
    46
  9
$DIMATFIT
 70
     3
  9
$DIMFRAC
 70
     0
  9
$DIMLDRBLK
  1
Open30
  9
$DIMLUNIT
 70
     2
  9
$DIMLWD
 70
    -1
  9
$DIMLWE
 70
    -1
  9
$DIMTMOVE
 70
     0
  9
$DIMFXL
 40
1.0
  9
$DIMFXLON
 70
     0
  9
$DIMJOGANG
 40
0.7853981633974483
  9
$DIMTFILL
 70
     0
  9
$DIMTFILLCLR
 70
     0
  9
$DIMARCSYM
 70
     1
  9
$DIMLTYPE
  6

  9
$DIMLTEX1
  6

  9
$DIMLTEX2
  6

  9
$LUNITS
 70
     2
  9
$LUPREC
 70
     2
  9
$SKETCHINC
 40
1.0
  9
$FILLETRAD
 40
0.6
  9
$AUNITS
 70
     0
  9
$AUPREC
 70
     0
  9
$MENU
  1
.
  9
$ELEVATION
 40
0.0
  9
$PELEVATION
 40
0.0
  9
$THICKNESS
 40
0.0
  9
$LIMCHECK
 70
     0
  9
$CHAMFERA
 40
1.5
  9
$CHAMFERB
 40
1.5
  9
$CHAMFERC
 40
1.5
  9
$CHAMFERD
 40
0.7853981633974483
  9
$SKPOLY
 70
     0
  9
$TDCREATE
 40
2454964.670747026
  9
$TDUCREATE
 40
2454964.295747025
  9
$TDUPDATE
 40
2456479.584102280
  9
$TDUUPDATE
 40
2456479.209102280
  9
$TDINDWG
 40
0.5272970718
  9
$TDUSRTIMER
 40
0.5272961806
  9
$USRTIMER
 70
     1
  9
$ANGBASE
 50
0.0
  9
$ANGDIR
 70
     0
  9
$PDMODE
 70
     0
  9
$PDSIZE
 40
0.0
  9
$PLINEWID
 40
0.0
  9
$SPLFRAME
 70
     0
  9
$SPLINETYPE
 70
     6
  9
$SPLINESEGS
 70
     8
  9
$HANDSEED
  5
A219
  9
$SURFTAB1
 70
     6
  9
$SURFTAB2
 70
     6
  9
$SURFTYPE
 70
     6
  9
$SURFU
 70
     6
  9
$SURFV
 70
     6
  9
$UCSBASE
  2

  9
$UCSNAME
  2

  9
$UCSORG
 10
0.0
 20
0.0
 30
0.0
  9
$UCSXDIR
 10
1.0
 20
0.0
 30
0.0
  9
$UCSYDIR
 10
0.0
 20
1.0
 30
0.0
  9
$UCSORTHOREF
  2

  9
$UCSORTHOVIEW
 70
     0
  9
$UCSORGTOP
 10
0.0
 20
0.0
 30
0.0
  9
$UCSORGBOTTOM
 10
0.0
 20
0.0
 30
0.0
  9
$UCSORGLEFT
 10
0.0
 20
0.0
 30
0.0
  9
$UCSORGRIGHT
 10
0.0
 20
0.0
 30
0.0
  9
$UCSORGFRONT
 10
0.0
 20
0.0
 30
0.0
  9
$UCSORGBACK
 10
0.0
 20
0.0
 30
0.0
  9
$PUCSBASE
  2

  9
$PUCSNAME
  2

  9
$PUCSORG
 10
0.0
 20
0.0
 30
0.0
  9
$PUCSXDIR
 10
1.0
 20
0.0
 30
0.0
  9
$PUCSYDIR
 10
0.0
 20
1.0
 30
0.0
  9
$PUCSORTHOREF
  2

  9
$PUCSORTHOVIEW
 70
     0
  9
$PUCSORGTOP
 10
0.0
 20
0.0
 30
0.0
  9
$PUCSORGBOTTOM
 10
0.0
 20
0.0
 30
0.0
  9
$PUCSORGLEFT
 10
0.0
 20
0.0
 30
0.0
  9
$PUCSORGRIGHT
 10
0.0
 20
0.0
 30
0.0
  9
$PUCSORGFRONT
 10
0.0
 20
0.0
 30
0.0
  9
$PUCSORGBACK
 10
0.0
 20
0.0
 30
0.0
  9
$USERI1
 70
     0
  9
$USERI2
 70
     0
  9
$USERI3
 70
     0
  9
$USERI4
 70
     0
  9
$USERI5
 70
     0
  9
$USERR1
 40
0.0
  9
$USERR2
 40
0.0
  9
$USERR3
 40
0.0
  9
$USERR4
 40
0.0
  9
$USERR5
 40
0.0
  9
$WORLDVIEW
 70
     1
  9
$SHADEDGE
 70
     3
  9
$SHADEDIF
 70
    70
  9
$TILEMODE
 70
     1
  9
$MAXACTVP
 70
    64
  9
$PINSBASE
 10
0.0
 20
0.0
 30
0.0
  9
$PLIMCHECK
 70
     0
  9
$PEXTMIN
 10
1.000000000000000E+20
 20
1.000000000000000E+20
 30
1.000000000000000E+20
  9
$PEXTMAX
 10
-1.000000000000000E+20
 20
-1.000000000000000E+20
 30
-1.000000000000000E+20
  9
$PLIMMIN
 10
0.0
 20
0.0
  9
$PLIMMAX
 10
420.0
 20
297.0
  9
$UNITMODE
 70
     0
  9
$VISRETAIN
 70
     1
  9
$PLINEGEN
 70
     0
  9
$PSLTSCALE
 70
     1
  9
$TREEDEPTH
 70
  3020
  9
$CMLSTYLE
  2
Standard
  9
$CMLJUST
 70
     0
  9
$CMLSCALE
 40
20.0
  9
$PROXYGRAPHICS
 70
     1
  9
$MEASUREMENT
 70
     1
  9
$CELWEIGHT
370
    -1
  9
$ENDCAPS
280
     0
  9
$JOINSTYLE
280
     0
  9
$LWDISPLAY
290
     0
  9
$INSUNITS
 70
     4
  9
$HYPERLINKBASE
  1

  9
$STYLESHEET
  1
SEISA.CTB
  9
$XEDIT
290
     1
  9
$CEPSNTYPE
380
     0
  9
$PSTYLEMODE
290
     1
  9
$FINGERPRINTGUID
  2
{62915115-6A79-4126-B7CC-55E6AB81FA37}
  9
$VERSIONGUID
  2
{293C8098-3EF6-4655-8461-47D9EE4589F4}
  9
$EXTNAMES
290
     1
  9
$PSVPSCALE
 40
0.0
  9
$OLESTARTUP
290
     0
  9
$SORTENTS
280
   127
  9
$INDEXCTL
280
     0
  9
$HIDETEXT
280
     0
  9
$XCLIPFRAME
290
     0
  9
$HALOGAP
280
     0
  9
$OBSCOLOR
 70
   257
  9
$OBSLTYPE
280
     0
  9
$INTERSECTIONDISPLAY
280
     0
  9
$INTERSECTIONCOLOR
 70
   257
  9
$DIMASSOC
280
     2
  9
$PROJECTNAME
  1

  9
$CAMERADISPLAY
290
     0
  9
$LENSLENGTH
 40
50.0
  9
$CAMERAHEIGHT
 40
0.0
  9
$STEPSPERSEC
 40
2.0
  9
$STEPSIZE
 40
6.0
  9
$3DDWFPREC
 40
2.0
  9
$PSOLWIDTH
 40
0.25
  9
$PSOLHEIGHT
 40
4.0
  9
$LOFTANG1
 40
1.570796326794896
  9
$LOFTANG2
 40
1.570796326794896
  9
$LOFTMAG1
 40
0.0
  9
$LOFTMAG2
 40
0.0
  9
$LOFTPARAM
 70
     7
  9
$LOFTNORMALS
280
     1
  9
$LATITUDE
 40
37.795
  9
$LONGITUDE
 40
-122.394
  9
$NORTHDIRECTION
 40
0.0
  9
$TIMEZONE
 70
 -8000
  9
$LIGHTGLYPHDISPLAY
280
     1
  9
$TILEMODELIGHTSYNCH
280
     1
  9
$CMATERIAL
347
27C
  9
$SOLIDHIST
280
     1
  9
$SHOWHIST
280
     1
  9
$DWFFRAME
280
     2
  9
$DGNFRAME
280
     0
  9
$REALWORLDSCALE
290
     1
  9
$INTERFERECOLOR
 62
     1
  9
$INTERFEREOBJVS
345
289
  9
$INTERFEREVPVS
346
286
  9
$CSHADOW
280
     0
  9
$SHADOWPLANELOCATION
 40
0.0
  0
ENDSEC
  0
SECTION
  2
CLASSES
  0
CLASS
  1
ACDBDICTIONARYWDFLT
  2
AcDbDictionaryWithDefault
  3
ObjectDBX Classes
 90
        0
 91
        1
280
     0
281
     0
  0
CLASS
  1
AMGSETTINGSOBJ
  2
AmgSettingsObj
  3
"AcadM|Product Description: AutoCAD Mechanical|Company: Autodesk, Inc."
 90
     1024
 91
        2
280
     0
281
     0
  0
CLASS
  1
ACME_DOCUMENT
  2
AcMeDbDoc
  3
AcMeServices
 90
     1024
 91
        1
280
     0
281
     0
  0
CLASS
  1
ACMESCOPE
  2
AcMeScope
  3
AcMeServices
 90
     1024
 91
        1
280
     0
281
     0
  0
CLASS
  1
ACMECOMMANDHISTORY
  2
AcMeCommandHistory
  3
AcMeServices
 90
     1024
 91
        1
280
     0
281
     0
  0
CLASS
  1
DICTIONARYVAR
  2
AcDbDictionaryVar
  3
ObjectDBX Classes
 90
        0
 91
       10
280
     0
281
     0
  0
CLASS
  1
ACIMSYSVARMAN
  2
AcImSysVarManager
  3
AcMeServices
 90
     1024
 91
        5
280
     0
281
     0
  0
CLASS
  1
ACIMREALSYSVAR
  2
AcImRealSysVar
  3
AcMeServices
 90
     1024
 91
        1
280
     0
281
     0
  0
CLASS
  1
ACIMINTSYSVAR
  2
AcImIntSysVar
  3
AcMeServices
 90
     1024
 91
       27
280
     0
281
     0
  0
CLASS
  1
ACMEDRAWINGMAN
  2
AcMeDrawingMan
  3
AcMeServices
 90
     1024
 91
        1
280
     0
281
     0
  0
CLASS
  1
ACMEVIEW
  2
AcMeView
  3
AcMeServices
 90
     1024
 91
        1
280
     0
281
     0
  0
CLASS
  1
ACDBENTITYCACHE
  2
AcMeEntityCache
  3
AcMeServices
 90
     1024
 91
        1
280
     0
281
     0
  0
CLASS
  1
GSMANAGER
  2
AcMeGSManager
  3
AcMeServices
 90
     1024
 91
        1
280
     0
281
     0
  0
CLASS
  1
AMDTINTERNALREACTOR
  2
AmdtInternalReactor
  3
AcMeServices
 90
     1024
 91
        2
280
     0
281
     0
  0
CLASS
  1
ACMESTATEMGR
  2
AcMeStateMgr
  3
AcMeServices
 90
     1024
 91
        1
280
     0
281
     0
  0
CLASS
  1
ACGREFMASTER
  2
AcGrefMaster
  3
AcAttribServices
 90
     1024
 91
        1
280
     0
281
     0
  0
CLASS
  1
ACME_DATABASE
  2
AcMeDbDatabase
  3
AcMeServices
 90
     1024
 91
        1
280
     0
281
     0
  0
CLASS
  1
ACRFINSADJUSTERMGR
  2
AcRfInsAdjusterMgr
  3
AcMeServices
 90
     1024
 91
        1
280
     0
281
     0
  0
CLASS
  1
ACGREFACADMASTER
  2
AcGrefacadMaster
  3
AcGrefServices
 90
     1024
 91
        1
280
     0
281
     0
  0
CLASS
  1
AMIMASTER
  2
AmiMaster
  3
AmiServices
 90
     1024
 91
        1
280
     0
281
     0
  0
CLASS
  1
ACIMSTRSYSVAR
  2
AcImStrSysVar
  3
AcMeServices
 90
     1024
 91
        5
280
     0
281
     0
  0
CLASS
  1
ACMSTANDARDJIS
  2
AcmStandardJIS
  3
"Amdt_StdImp|Product Description: AutoCAD Mechanical|Company: Autodesk, Inc."
 90
     1024
 91
        0
280
     0
281
     0
  0
CLASS
  1
AMGOBJPROPCFG
  2
AmgObjPropCfg
  3
"AmgLay|Product Description: AutoCAD Mechanical|Company: Autodesk, Inc."
 90
     1025
 91
        1
280
     0
281
     0
  0
CLASS
  1
ACMSURFSTANDARDJIS
  2
AcmSurfTextStdJIS
  3
"Amdt_StdImp|Product Description: AutoCAD Mechanical|Company: Autodesk, Inc."
 90
     1024
 91
        0
280
     0
281
     0
  0
CLASS
  1
ACMFCFSTANDARDJIS
  2
AcmFCFStdJIS
  3
"Amdt_StdImp|Product Description: AutoCAD Mechanical|Company: Autodesk, Inc."
 90
     1024
 91
        0
280
     0
281
     0
  0
CLASS
  1
ACMWELDSTANDARDJIS
  2
AcmWeldingStdJIS
  3
"Amdt_StdImp|Product Description: AutoCAD Mechanical|Company: Autodesk, Inc."
 90
     1024
 91
        0
280
     0
281
     0
  0
CLASS
  1
ACMIDSTANDARDJIS
  2
AcmIdStdJIS
  3
"Amdt_StdImp|Product Description: AutoCAD Mechanical|Company: Autodesk, Inc."
 90
     1024
 91
        0
280
     0
281
     0
  0
CLASS
  1
ACMDATUMSTANDARDJIS
  2
AcmDatumStdJIS
  3
"Amdt_StdImp|Product Description: AutoCAD Mechanical|Company: Autodesk, Inc."
 90
     1024
 91
        0
280
     0
281
     0
  0
CLASS
  1
ACMBOMSTANDARDJIS
  2
AcmBOMStdJIS
  3
"Amdt_StdImp|Product Description: AutoCAD Mechanical|Company: Autodesk, Inc."
 90
     1024
 91
        0
280
     0
281
     0
  0
CLASS
  1
ACMDETAILSTANDARDJIS
  2
AmdtDetailSymStdJIS
  3
"Amdt_StdImp|Product Description: AutoCAD Mechanical|Company: Autodesk, Inc."
 90
     1024
 91
        0
280
     0
281
     0
  0
CLASS
  1
ACMSECTIONSTANDARDJIS
  2
AmdtSectionSymStdJIS
  3
"Amdt_StdImp|Product Description: AutoCAD Mechanical|Company: Autodesk, Inc."
 90
     1024
 91
        0
280
     0
281
     0
  0
CLASS
  1
ACMCENTERLINESTANDARDJIS
  2
AmdtCenterLineStdJIS
  3
"Amdt_StdImp|Product Description: AutoCAD Mechanical|Company: Autodesk, Inc."
 90
     1024
 91
        0
280
     0
281
     0
  0
CLASS
  1
ACMTHREADLINESTANDARDJIS
  2
AmdtThreadLineStdJIS
  3
"Amdt_StdImp|Product Description: AutoCAD Mechanical|Company: Autodesk, Inc."
 90
     1024
 91
        0
280
     0
281
     0
  0
CLASS
  1
ACAMGLAYSTD
  2
AcAmgLayStd
  3
"AmgLay|Product Description: AutoCAD Mechanical|Company: Autodesk, Inc."
 90
     1024
 91
        1
280
     0
281
     0
  0
CLASS
  1
ACAMGDIMSTD
  2
AcAmgDimStd
  3
"AmgDim|Product Description: AutoCAD Mechanical|Company: Autodesk, Inc."
 90
     1024
 91
        1
280
     0
281
     0
  0
CLASS
  1
ACAMGTITLESTD
  2
AcAmgTitleStd
  3
"AmgTitle|Product Description: AutoCAD Mechanical|Company: Autodesk, Inc."
 90
     4095
 91
        1
280
     0
281
     0
  0
CLASS
  1
ACMDATADICTIONARY
  2
AcmDataDictionary
  3
"AcmSymBB|Product Description: AutoCAD Mechanical|Company: Autodesk, Inc."
 90
     1024
 91
        1
280
     0
281
     0
  0
CLASS
  1
ACMDATAENTRYBLOCK
  2
AcmDataEntryBlock
  3
AcmSymBB|Product Description: AutoCAD Mechanical|Company: Autodesk, Inc.
 90
     1024
 91
        0
280
     0
281
     0
  0
CLASS
  1
LAYER_INDEX
  2
AcDbLayerIndex
  3
ObjectDBX Classes
 90
        0
 91
        0
280
     0
281
     0
  0
CLASS
  1
IDBUFFER
  2
AcDbIdBuffer
  3
ObjectDBX Classes
 90
        0
 91
        0
280
     0
281
     0
  0
CLASS
  1
ACMNOTESTANDARDJIS
  2
AmdtNoteStdJIS
  3
"Amdt_StdImp|Product Description: AutoCAD Mechanical|Company: Autodesk, Inc."
 90
     1024
 91
        0
280
     0
281
     0
  0
CLASS
  1
ACAMGHOLECHARTSTDJIS
  2
AcAmgHoleChartStdJIS
  3
AmgDim|Product Description: AutoCAD Mechanical|Company: Autodesk, Inc.
 90
     1024
 91
        0
280
     0
281
     0
  0
CLASS
  1
AM_DRAWING_MGR
  2
AcDmDwgMgr
  3
AcMechDwgViewMgmt
 90
     1024
 91
        1
280
     0
281
     0
  0
CLASS
  1
AM_DWG_DOCUMENT
  2
AcDmDwgDocument
  3
AcMechDwgViewMgmt
 90
     1024
 91
        1
280
     0
281
     0
  0
CLASS
  1
AM_DWG_SHEET
  2
AcDmSheet
  3
AcMechDwgViewMgmt
 90
     1024
 91
        2
280
     0
281
     0
  0
CLASS
  1
AM_VIEWDIMPARMAP
  2
AcDmViewDimParMap
  3
AcMechDwgViewMgmt
 90
     1024
 91
        2
280
     0
281
     0
  0
CLASS
  1
AM_DWGMGR_NAME
  2
AcDmDwgMgrName
  3
AcMechDwgViewMgmt
 90
     1024
 91
        1
280
     0
281
     0
  0
CLASS
  1
AMDTMENUSTATEMGR
  2
AmdtMenuStateMgr
  3
McadcomServices
 90
     1024
 91
        1
280
     0
281
     0
  0
CLASS
  1
AMDTMCOMMENUSTATE
  2
AmdtMcomMenuState
  3
McadcomServices
 90
     1024
 91
        1
280
     0
281
     0
  0
CLASS
  1
MAPIAMMOUDLE
  2
MApiAmModule
  3
MApiAmServices
 90
     1024
 91
        1
280
     0
281
     0
  0
CLASS
  1
AMDTADMENUSTATE
  2
AmdtAdMenuState
  3
DesignerServices
 90
     1024
 91
        1
280
     0
281
     0
  0
CLASS
  1
ADAPPL
  2
AcAdAppl
  3
DesignerServices
 90
     1024
 91
        1
280
     0
281
     0
  0
CLASS
  1
DEPMGR
  2
AcAdDepMgr
  3
DesignerServices
 90
     1024
 91
        1
280
     0
281
     0
  0
CLASS
  1
PARAMMGR
  2
AcAdParamMgr
  3
DesignerServices
 90
     1024
 91
        1
280
     0
281
     0
  0
CLASS
  1
PARAMSCOPE
  2
AcAdParamScope
  3
DesignerServices
 90
     1024
 91
        1
280
     0
281
     0
  0
CLASS
  1
NAMEDAPPL
  2
AcAdNamedAppl
  3
DesignerServices
 90
     1024
 91
        1
280
     0
281
     0
  0
CLASS
  1
AMDTDMMENUSTATE
  2
AmdtDmMenuState
  3
AcMechDwgViewMgmt
 90
     1024
 91
        1
280
     0
281
     0
  0
CLASS
  1
AMDTAMMENUSTATE
  2
AmdtAmMenuState
  3
DesignerAssemblies
 90
     1024
 91
        1
280
     0
281
     0
  0
CLASS
  1
ACAMPROJECT
  2
AcAmProject
  3
DesignerAssemblies
 90
     1024
 91
        1
280
     0
281
     0
  0
CLASS
  1
ACAMGRCOMPDEF
  2
AcAmGrCompDef
  3
DesignerAssemblies
 90
     1024
 91
        1
280
     0
281
     0
  0
CLASS
  1
ACCMCONTEXT
  2
AcCmContext
  3
DesignerAssemblies
 90
     1024
 91
        1
280
     0
281
     0
  0
CLASS
  1
ACAMCOMPDEF
  2
AcAmCompDef
  3
DesignerAssemblies
 90
     1024
 91
        1
280
     0
281
     0
  0
CLASS
  1
ACAMCOMPDEFMGR
  2
AcAmCompDefMgr
  3
DesignerAssemblies
 90
     1024
 91
        1
280
     0
281
     0
  0
CLASS
  1
AMCONTEXTMGR
  2
AcAmContextMgr
  3
DesignerAssemblies
 90
     1024
 91
        1
280
     0
281
     0
  0
CLASS
  1
ACAMCONTEXTMODELER
  2
AcAmContextModeler
  3
DesignerAssemblies
 90
     1024
 91
        1
280
     0
281
     0
  0
CLASS
  1
CATALOGSTATE
  2
AcAmCatalogState
  3
DesignerAssemblies
 90
     1024
 91
        1
280
     0
281
     0
  0
CLASS
  1
ACAMGRCOMPDEFSET
  2
AcAmGrCompDefSet
  3
DesignerAssemblies
 90
     1024
 91
        1
280
     0
281
     0
  0
CLASS
  1
AMDTBROWSERDBTAB
  2
AmdtBrowserDbTab
  3
McadcomServices
 90
     1024
 91
        1
280
     0
281
     0
  0
CLASS
  1
CBROWSERAPPOBJECT
  2
CBrowserAppObject
  3
McadcomServices
 90
     1024
 91
        3
280
     0
281
     0
  0
CLASS
  1
DM_PLACEHOLDER
  2
AcDmSelsetPlaceholder
  3
AcMechDwgViewMgmt
 90
     1024
 91
        1
280
     0
281
     0
  0
CLASS
  1
TABLESTYLE
  2
AcDbTableStyle
  3
ObjectDBX Classes
 90
     4095
 91
        1
280
     0
281
     0
  0
CLASS
  1
VAACXREFPANELOBJECT
  2
VaAcXREFPanelObject
  3
VAAC_ADDIN
 90
        0
 91
        0
280
     0
281
     0
  0
CLASS
  1
VAACIMAGEINVENTORY
  2
VaAcImageInventory
  3
VAAC_ADDIN
 90
        0
 91
        0
280
     0
281
     0
  0
CLASS
  1
AMDTNOTETEMPLATEDB
  2
AmdtNoteTemplateDB
  3
AcmSymBB|Product Description: AutoCAD Mechanical|Company: Autodesk, Inc.
 90
     1024
 91
        6
280
     0
281
     0
  0
CLASS
  1
ACAMGFILTERDAT
  2
AcAmgFilterDat
  3
"AcadM|Product Description: AutoCAD Mechanical|Company: Autodesk, Inc."
 90
     1024
 91
        0
280
     0
281
     0
  0
CLASS
  1
MATERIAL
  2
AcDbMaterial
  3
ObjectDBX Classes
 90
     1153
 91
        3
280
     0
281
     0
  0
CLASS
  1
VISUALSTYLE
  2
AcDbVisualStyle
  3
ObjectDBX Classes
 90
     4095
 91
       16
280
     0
281
     0
  0
CLASS
  1
ACRFATTGENMGR
  2
AcRfAttGeneralMgr
  3
AcAttribServices
 90
     1024
 91
        0
280
     0
281
     0
  0
CLASS
  1
ACRFOBJATTMGR
  2
AcRfObjAttGroupMgr
  3
AcAttribServices
 90
     1024
 91
        0
280
     0
281
     0
  0
CLASS
  1
ACRFMCADAPIATTHOLDER
  2
AcRfMCADAPIAttHolder
  3
AcAttribServices
 90
     1024
 91
        0
280
     0
281
     0
  0
CLASS
  1
AMDTSYSATTR
  2
AmdtSystemAttribute
  3
AcAttribServices
 90
     1024
 91
        0
280
     0
281
     0
  0
CLASS
  1
ACMTAPERSTANDARDJIS
  2
AcmTaperStdJIS
  3
"Amdt_StdImp|Product Description: AutoCAD Mechanical|Company: Autodesk, Inc."
 90
     1024
 91
        0
280
     0
281
     0
  0
CLASS
  1
CAMSSTRUCTBTNSTATE
  2
StructBtnState
  3
DesignerAssemblies
 90
     1024
 91
        0
280
     0
281
     0
  0
CLASS
  1
SCALE
  2
AcDbScale
  3
ObjectDBX Classes
 90
     1153
 91
       36
280
     0
281
     0
  0
CLASS
  1
MLEADERSTYLE
  2
AcDbMLeaderStyle
  3
ACDB_MLEADERSTYLE_CLASS
 90
     4095
 91
        1
280
     0
281
     0
  0
CLASS
  1
ACMANOOTATIONVIEWSTANDARDJIS
  2
AmdtAnViewStdJIS
  3
"Amdt_StdImp|Product Description: AutoCAD Mechanical|Company: Autodesk, Inc."
 90
     1024
 91
        0
280
     0
281
     0
  0
CLASS
  1
ACMSURFSTANDARDJIS2003
  2
AcmSurfTextStdJIS2003
  3
"Amdt_StdImp|Product Description: AutoCAD Mechanical|Company: Autodesk, Inc."
 90
     1024
 91
        0
280
     0
281
     0
  0
CLASS
  1
CELLSTYLEMAP
  2
AcDbCellStyleMap
  3
ObjectDBX Classes
 90
     1152
 91
        2
280
     0
281
     0
  0
CLASS
  1
ACMFCFSTANDARDJIS98
  2
AcmFCFStdJIS98
  3
"Amdt_StdImp|Product Description: AutoCAD Mechanical|Company: Autodesk, Inc."
 90
     1024
 91
        0
280
     0
281
     0
  0
CLASS
  1
SORTENTSTABLE
  2
AcDbSortentsTable
  3
ObjectDBX Classes
 90
        0
 91
       13
280
     0
281
     0
  0
CLASS
  1
DIMASSOC
  2
AcDbDimAssoc
  3
"AcDbDimAssoc|Product Desc:     AcDim ARX App For Dimension|Company:          Autodesk, Inc.|WEB Address:      www.autodesk.com"
 90
        0
 91
       18
280
     0
281
     0
  0
CLASS
  1
STDPART2D
  2
AmgStdPart
  3
AmgStdPart|Product Description: AutoCAD Mechanical|Company: Autodesk, Inc.
 90
     4095
 91
        0
280
     0
281
     1
  0
CLASS
  1
ACMDATAENTRYPART
  2
AcmDataEntryPart
  3
AcmSymBB|Product Description: AutoCAD Mechanical|Company: Autodesk, Inc.
 90
     1024
 91
        0
280
     0
281
     0
  0
CLASS
  1
ACMPARTREF
  2
AcmPartRef
  3
"AcmSymBB|Product Description: AutoCAD Mechanical|Company: Autodesk, Inc."
 90
     4095
 91
        0
280
     0
281
     1
  0
CLASS
  1
ACDBSTDPARTRES_LINE
  2
AcDbStdPartRes_Line
  3
AmgStdPart|Product Description: AutoCAD Mechanical|Company: Autodesk, Inc.
 90
     1024
 91
        0
280
     0
281
     0
  0
CLASS
  1
ACMBOM
  2
AcmBom
  3
"AcmSymBB|Product Description: AutoCAD Mechanical|Company: Autodesk, Inc."
 90
     1024
 91
        0
280
     0
281
     0
  0
CLASS
  1
AMDTFORMULAUPDATEDISPATCHER
  2
AmdtFormulaUpdateDispatcher
  3
AcMeServices
 90
     1024
 91
        0
280
     0
281
     0
  0
CLASS
  1
ACMBOMROW
  2
AcmBomRow
  3
"AcmSymBB|Product Description: AutoCAD Mechanical|Company: Autodesk, Inc."
 90
     1024
 91
        0
280
     0
281
     0
  0
CLASS
  1
ACMPARTLIST
  2
AcmPartList
  3
"AcmSymBB|Product Description: AutoCAD Mechanical|Company: Autodesk, Inc."
 90
     4095
 91
        0
280
     0
281
     1
  0
CLASS
  1
ACDBLINERES
  2
AcDbLineRes
  3
AcGrefServices
 90
     1024
 91
        0
280
     0
281
     0
  0
CLASS
  1
ACRFINSADJ
  2
AcRfInsAdjuster
  3
AcMeServices
 90
     1024
 91
        0
280
     0
281
     0
  0
CLASS
  1
ACMSTANDARDISO
  2
AcmStandardISO
  3
"Amdt_StdImp|Product Description: AutoCAD Mechanical|Company: Autodesk, Inc."
 90
     1024
 91
        1
280
     0
281
     0
  0
CLASS
  1
AMDTEDGESTANDARDISO13715
  2
AmdtEdgeStdISO13715
  3
"Amdt_StdImp|Product Description: AutoCAD Mechanical|Company: Autodesk, Inc."
 90
     1024
 91
        1
280
     0
281
     0
  0
CLASS
  1
ACMSURFSTANDARDISO2002
  2
AcmSurfTextStdISO2002
  3
"Amdt_StdImp|Product Description: AutoCAD Mechanical|Company: Autodesk, Inc."
 90
     1024
 91
        1
280
     0
281
     0
  0
CLASS
  1
ACMFCFSTANDARDISO
  2
AcmFCFStdISO
  3
"Amdt_StdImp|Product Description: AutoCAD Mechanical|Company: Autodesk, Inc."
 90
     1024
 91
        1
280
     0
281
     0
  0
CLASS
  1
ACMWELDSTANDARDISO
  2
AcmWeldingStdISO
  3
"Amdt_StdImp|Product Description: AutoCAD Mechanical|Company: Autodesk, Inc."
 90
     1024
 91
        1
280
     0
281
     0
  0
CLASS
  1
ACMIDSTANDARDISO
  2
AcmIdStdISO
  3
"Amdt_StdImp|Product Description: AutoCAD Mechanical|Company: Autodesk, Inc."
 90
     1024
 91
        1
280
     0
281
     0
  0
CLASS
  1
ACMDATUMSTANDARDISO
  2
AcmDatumStdISO
  3
"Amdt_StdImp|Product Description: AutoCAD Mechanical|Company: Autodesk, Inc."
 90
     1024
 91
        1
280
     0
281
     0
  0
CLASS
  1
ACMBOMSTANDARDISO
  2
AcmBOMStdISO
  3
"Amdt_StdImp|Product Description: AutoCAD Mechanical|Company: Autodesk, Inc."
 90
     1024
 91
        1
280
     0
281
     0
  0
CLASS
  1
ACMDETAILSTANDARDISO
  2
AmdtDetailSymStdISO
  3
"Amdt_StdImp|Product Description: AutoCAD Mechanical|Company: Autodesk, Inc."
 90
     1024
 91
        1
280
     0
281
     0
  0
CLASS
  1
ACMSECTIONSTANDARDISO2001
  2
AmdtSectionSymStdISO2001
  3
"Amdt_StdImp|Product Description: AutoCAD Mechanical|Company: Autodesk, Inc."
 90
     1024
 91
        1
280
     0
281
     0
  0
CLASS
  1
ACMCENTERLINESTANDARDISO
  2
AmdtCenterLineStdISO
  3
"Amdt_StdImp|Product Description: AutoCAD Mechanical|Company: Autodesk, Inc."
 90
     1024
 91
        1
280
     0
281
     0
  0
CLASS
  1
ACMTHREADLINESTANDARDISO
  2
AmdtThreadLineStdISO
  3
"Amdt_StdImp|Product Description: AutoCAD Mechanical|Company: Autodesk, Inc."
 90
     1024
 91
        1
280
     0
281
     0
  0
CLASS
  1
ACMNOTESTANDARDISO
  2
AmdtNoteStdISO
  3
"Amdt_StdImp|Product Description: AutoCAD Mechanical|Company: Autodesk, Inc."
 90
     1024
 91
        1
280
     0
281
     0
  0
CLASS
  1
ACMTAPERSTANDARDISO
  2
AcmTaperStdISO
  3
"Amdt_StdImp|Product Description: AutoCAD Mechanical|Company: Autodesk, Inc."
 90
     1024
 91
        1
280
     0
281
     0
  0
CLASS
  1
ACMANOOTATIONVIEWSTANDARDISO
  2
AmdtAnViewStdISO
  3
"Amdt_StdImp|Product Description: AutoCAD Mechanical|Company: Autodesk, Inc."
 90
     1024
 91
        1
280
     0
281
     0
  0
CLASS
  1
ACAMGHOLECHARTSTDISO
  2
AcAmgHoleChartStdISO
  3
AmgDim|Product Description: AutoCAD Mechanical|Company: Autodesk, Inc.
 90
     1024
 91
        1
280
     0
281
     0
  0
CLASS
  1
EXACXREFPANELOBJECT
  2
ExAcXREFPanelObject
  3
EXAC_ESW
 90
     1025
 91
        0
280
     0
281
     0
  0
CLASS
  1
NPOCOLLECTION
  2
AcDbImpNonPersistentObjectsCollection
  3
ObjectDBX Classes
 90
     1153
 91
        0
280
     0
281
     0
  0
CLASS
  1
ACDBSTDPARTRES_ARC
  2
AcDbStdPartRes_Arc
  3
AmgStdPart|Product Description: AutoCAD Mechanical|Company: Autodesk, Inc.
 90
     1024
 91
        0
280
     0
281
     0
  0
CLASS
  1
AMDTNOTE
  2
AmdtNote
  3
"AcmSymBB|Product Description: AutoCAD Mechanical|Company: Autodesk, Inc."
 90
     4095
 91
        0
280
     0
281
     1
  0
CLASS
  1
PLOTSETTINGS
  2
AcDbPlotSettings
  3
ObjectDBX Classes
 90
        0
 91
        1
280
     0
281
     0
  0
CLASS
  1
ACMSTANDARDANSI
  2
AcmStandardANSI
  3
"Amdt_StdImp|Product Description: AutoCAD Mechanical|Company: Autodesk, Inc."
 90
     1024
 91
        0
280
     0
281
     0
  0
CLASS
  1
ACMSURFSTANDARDANSI
  2
AcmSurfTextStdANSI
  3
"Amdt_StdImp|Product Description: AutoCAD Mechanical|Company: Autodesk, Inc."
 90
     1024
 91
        0
280
     0
281
     0
  0
CLASS
  1
ACMFCFSTANDARDANSI
  2
AcmFCFStdANSI
  3
"Amdt_StdImp|Product Description: AutoCAD Mechanical|Company: Autodesk, Inc."
 90
     1024
 91
        0
280
     0
281
     0
  0
CLASS
  1
ACMWELDSTANDARDANSI
  2
AcmWeldingStdANSI
  3
"Amdt_StdImp|Product Description: AutoCAD Mechanical|Company: Autodesk, Inc."
 90
     1024
 91
        0
280
     0
281
     0
  0
CLASS
  1
ACMIDSTANDARDANSI
  2
AcmIdStdANSI
  3
"Amdt_StdImp|Product Description: AutoCAD Mechanical|Company: Autodesk, Inc."
 90
     1024
 91
        0
280
     0
281
     0
  0
CLASS
  1
ACMDATUMSTANDARDANSI
  2
AcmDatumStdANSI
  3
"Amdt_StdImp|Product Description: AutoCAD Mechanical|Company: Autodesk, Inc."
 90
     1024
 91
        0
280
     0
281
     0
  0
CLASS
  1
ACMBOMSTANDARDANSI
  2
AcmBOMStdANSI
  3
"Amdt_StdImp|Product Description: AutoCAD Mechanical|Company: Autodesk, Inc."
 90
     1024
 91
        0
280
     0
281
     0
  0
CLASS
  1
ACMDETAILSTANDARDANSI
  2
AmdtDetailSymStdANSI
  3
"Amdt_StdImp|Product Description: AutoCAD Mechanical|Company: Autodesk, Inc."
 90
     1024
 91
        0
280
     0
281
     0
  0
CLASS
  1
ACMSECTIONSTANDARDANSI
  2
AmdtSectionSymStdANSI
  3
"Amdt_StdImp|Product Description: AutoCAD Mechanical|Company: Autodesk, Inc."
 90
     1024
 91
        0
280
     0
281
     0
  0
CLASS
  1
ACMCENTERLINESTANDARDANSI
  2
AmdtCenterLineStdANSI
  3
"Amdt_StdImp|Product Description: AutoCAD Mechanical|Company: Autodesk, Inc."
 90
     1024
 91
        0
280
     0
281
     0
  0
CLASS
  1
ACMTHREADLINESTANDARDANSI
  2
AmdtThreadLineStdANSI
  3
"Amdt_StdImp|Product Description: AutoCAD Mechanical|Company: Autodesk, Inc."
 90
     1024
 91
        0
280
     0
281
     0
  0
CLASS
  1
ACMNOTESTANDARDANSI
  2
AmdtNoteStdANSI
  3
"Amdt_StdImp|Product Description: AutoCAD Mechanical|Company: Autodesk, Inc."
 90
     1024
 91
        0
280
     0
281
     0
  0
CLASS
  1
ACMTAPERSTANDARDANSI
  2
AcmTaperStdANSI
  3
"Amdt_StdImp|Product Description: AutoCAD Mechanical|Company: Autodesk, Inc."
 90
     1024
 91
        0
280
     0
281
     0
  0
CLASS
  1
ACMANOOTATIONVIEWSTANDARDANSI
  2
AmdtAnViewStdANSI
  3
"Amdt_StdImp|Product Description: AutoCAD Mechanical|Company: Autodesk, Inc."
 90
     1024
 91
        0
280
     0
281
     0
  0
CLASS
  1
ACAMGHOLECHARTSTDANSI
  2
AcAmgHoleChartStdANSI
  3
AmgDim|Product Description: AutoCAD Mechanical|Company: Autodesk, Inc.
 90
     1024
 91
        0
280
     0
281
     0
  0
CLASS
  1
ACMSTANDARDBSI
  2
AcmStandardBSI
  3
"Amdt_StdImp|Product Description: AutoCAD Mechanical|Company: Autodesk, Inc."
 90
     1024
 91
        0
280
     0
281
     0
  0
CLASS
  1
ACMSURFSTANDARDBSI2002
  2
AcmSurfTextStdBSI2002
  3
"Amdt_StdImp|Product Description: AutoCAD Mechanical|Company: Autodesk, Inc."
 90
     1024
 91
        0
280
     0
281
     0
  0
CLASS
  1
ACMFCFSTANDARDBSI
  2
AcmFCFStdBSI
  3
"Amdt_StdImp|Product Description: AutoCAD Mechanical|Company: Autodesk, Inc."
 90
     1024
 91
        0
280
     0
281
     0
  0
CLASS
  1
ACMWELDSTANDARDBSI
  2
AcmWeldingStdBSI
  3
"Amdt_StdImp|Product Description: AutoCAD Mechanical|Company: Autodesk, Inc."
 90
     1024
 91
        0
280
     0
281
     0
  0
CLASS
  1
ACMIDSTANDARDBSI
  2
AcmIdStdBSI
  3
"Amdt_StdImp|Product Description: AutoCAD Mechanical|Company: Autodesk, Inc."
 90
     1024
 91
        0
280
     0
281
     0
  0
CLASS
  1
ACMDATUMSTANDARDBSI
  2
AcmDatumStdBSI
  3
"Amdt_StdImp|Product Description: AutoCAD Mechanical|Company: Autodesk, Inc."
 90
     1024
 91
        0
280
     0
281
     0
  0
CLASS
  1
ACMBOMSTANDARDBSI
  2
AcmBOMStdBSI
  3
"Amdt_StdImp|Product Description: AutoCAD Mechanical|Company: Autodesk, Inc."
 90
     1024
 91
        0
280
     0
281
     0
  0
CLASS
  1
ACMDETAILSTANDARDBSI
  2
AmdtDetailSymStdBSI
  3
"Amdt_StdImp|Product Description: AutoCAD Mechanical|Company: Autodesk, Inc."
 90
     1024
 91
        0
280
     0
281
     0
  0
CLASS
  1
ACMSECTIONSTANDARDBSI2001
  2
AmdtSectionSymStdBSI2001
  3
"Amdt_StdImp|Product Description: AutoCAD Mechanical|Company: Autodesk, Inc."
 90
     1024
 91
        0
280
     0
281
     0
  0
CLASS
  1
ACMCENTERLINESTANDARDBSI
  2
AmdtCenterLineStdBSI
  3
"Amdt_StdImp|Product Description: AutoCAD Mechanical|Company: Autodesk, Inc."
 90
     1024
 91
        0
280
     0
281
     0
  0
CLASS
  1
ACMTHREADLINESTANDARDBSI
  2
AmdtThreadLineStdBSI
  3
"Amdt_StdImp|Product Description: AutoCAD Mechanical|Company: Autodesk, Inc."
 90
     1024
 91
        0
280
     0
281
     0
  0
CLASS
  1
ACMNOTESTANDARDBSI
  2
AmdtNoteStdBSI
  3
"Amdt_StdImp|Product Description: AutoCAD Mechanical|Company: Autodesk, Inc."
 90
     1024
 91
        0
280
     0
281
     0
  0
CLASS
  1
ACMTAPERSTANDARDBSI
  2
AcmTaperStdBSI
  3
"Amdt_StdImp|Product Description: AutoCAD Mechanical|Company: Autodesk, Inc."
 90
     1024
 91
        0
280
     0
281
     0
  0
CLASS
  1
ACMANOOTATIONVIEWSTANDARDBSI
  2
AmdtAnViewStdBSI
  3
"Amdt_StdImp|Product Description: AutoCAD Mechanical|Company: Autodesk, Inc."
 90
     1024
 91
        0
280
     0
281
     0
  0
CLASS
  1
ACAMGHOLECHARTSTDBSI
  2
AcAmgHoleChartStdBSI
  3
AmgDim|Product Description: AutoCAD Mechanical|Company: Autodesk, Inc.
 90
     1024
 91
        0
280
     0
281
     0
  0
CLASS
  1
AMDTEDGESTANDARDJIS
  2
AmdtEdgeStdJIS
  3
"Amdt_StdImp|Product Description: AutoCAD Mechanical|Company: Autodesk, Inc."
 90
     1024
 91
        0
280
     0
281
     0
  0
CLASS
  1
ACMSURFSYM
  2
AcmSurfaceTexture
  3
"AcmSymBB|Product Description: AutoCAD Mechanical|Company: Autodesk, Inc."
 90
     4095
 91
        0
280
     0
281
     1
  0
CLASS
  1
ACDBDIMENSIONRES
  2
AcDbDimensionRes
  3
AcmSymBB|Product Description: AutoCAD Mechanical|Company: Autodesk, Inc.
 90
     1024
 91
        0
280
     0
281
     0
  0
CLASS
  1
ACDBCIRCARCRES
  2
AcDbCircArcRes
  3
AcGrefServices
 90
     1024
 91
        0
280
     0
281
     0
  0
CLASS
  1
ACMDIMBREAKPERSREACTOR
  2
AcmDimBreakPersReactor
  3
AmgDim|Product Description: AutoCAD Mechanical|Company: Autodesk, Inc.
 90
     4095
 91
        0
280
     0
281
     0
  0
CLASS
  1
ACDBOPPOLYLINERES
  2
AcDbOpPolylineRes
  3
AcGrefServices
 90
     1024
 91
        0
280
     0
281
     0
  0
CLASS
  1
AMDTACMWBLOCKBOMENTITY
  2
AmdtAcmWblockBomEntity
  3
"AcmSymBB|Product Description: AutoCAD Mechanical|Company: Autodesk, Inc."
 90
     4095
 91
        0
280
     0
281
     1
  0
CLASS
  1
ACDB_BLKREFOBJECTCONTEXTDATA_CLASS
  2
AcDbBlkRefObjectContextData
  3
ObjectDBX Classes
 90
     1153
 91
        0
280
     0
281
     0
  0
CLASS
  1
ACMPICKOBJ
  2
AcmPickEnt
  3
"AcmSymBB|Product Description: AutoCAD Mechanical|Company: Autodesk, Inc."
 90
     1024
 91
        0
280
     0
281
     1
  0
CLASS
  1
ACMBALLOON
  2
AcmBalloon
  3
"AcmSymBB|Product Description: AutoCAD Mechanical|Company: Autodesk, Inc."
 90
     4095
 91
        0
280
     0
281
     1
  0
CLASS
  1
BREAKDATA
  2
AcDbBreakData
  3
ObjectDBX Classes
 90
     1024
 91
        0
280
     0
281
     0
  0
CLASS
  1
ACMFCFRAME
  2
AcmFCF
  3
"AcmSymBB|Product Description: AutoCAD Mechanical|Company: Autodesk, Inc."
 90
     4095
 91
        0
280
     0
281
     1
  0
CLASS
  1
ACMDATUMID
  2
AcmDatumId
  3
"AcmSymBB|Product Description: AutoCAD Mechanical|Company: Autodesk, Inc."
 90
     4095
 91
        0
280
     0
281
     1
  0
CLASS
  1
ACMWELDSYM
  2
AcmWelding
  3
"AcmSymBB|Product Description: AutoCAD Mechanical|Company: Autodesk, Inc."
 90
     4095
 91
        0
280
     0
281
     1
  0
ENDSEC
  0
SECTION
  2
TABLES
  0
TABLE
  2
VPORT
  5
8
330
0
100
AcDbSymbolTable
 70
     1
  0
VPORT
  5
27A
330
8
100
AcDbSymbolTableRecord
100
AcDbViewportTableRecord
  2
*Active
 70
     0
 10
0.0
 20
0.0
 11
1.0
 21
1.0
 12
643.7466465903762
 22
653.2744708928105
 13
0.0
 23
0.0
 14
7.5
 24
7.5
 15
30.0
 25
30.0
 16
0.0
 26
0.0
 36
1.0
 17
0.0
 27
0.0
 37
0.0
 40
480.7064860050743
 41
1.571428571428571
 42
50.0
 43
0.0
 44
0.0
 50
0.0
 51
0.0
 71
    16
 72
 20000
 73
     1
 74
     3
 75
     0
 76
     0
 77
     0
 78
     0
281
     0
 65
     0
110
0.0
120
0.0
130
0.0
111
1.0
121
0.0
131
0.0
112
0.0
122
1.0
132
0.0
 79
     0
146
0.0
348
285
 60
     3
 61
     5
292
     1
282
     0
141
0.0
142
0.0
 63
   250
421
  3355443
  0
ENDTAB
  0
TABLE
  2
LTYPE
  5
5
330
0
100
AcDbSymbolTable
 70
    18
  0
LTYPE
  5
14
330
5
100
AcDbSymbolTableRecord
100
AcDbLinetypeTableRecord
  2
ByBlock
 70
     0
  3

 72
    65
 73
     0
 40
0.0
  0
LTYPE
  5
15
330
5
100
AcDbSymbolTableRecord
100
AcDbLinetypeTableRecord
  2
ByLayer
 70
     0
  3

 72
    65
 73
     0
 40
0.0
  0
LTYPE
  5
16
330
5
100
AcDbSymbolTableRecord
100
AcDbLinetypeTableRecord
  2
Continuous
 70
     0
  3
Solid line
 72
    65
 73
     0
 40
0.0
  0
LTYPE
  5
4D
330
5
100
AcDbSymbolTableRecord
100
AcDbLinetypeTableRecord
  2
AM_ISO02W050
 70
     0
  3
__ __ __ __ __ __ __ __ __ __ __ __ __ __ __
 72
    65
 73
     2
 40
7.5
 49
6.0
 74
     0
 49
-1.5
 74
     0
  0
LTYPE
  5
4E
330
5
100
AcDbSymbolTableRecord
100
AcDbLinetypeTableRecord
  2
AM_ISO08W050
 70
     0
  3
____ . ____ . ____ . ____ . ____ . ____ . ____
 72
    65
 73
     4
 40
18.0
 49
12.0
 74
     0
 49
-1.5
 74
     0
 49
3.0
 74
     0
 49
-1.5
 74
     0
  0
LTYPE
  5
4F
330
5
100
AcDbSymbolTableRecord
100
AcDbLinetypeTableRecord
  2
AM_ISO09W050
 70
     0
  3
_____ . . _____ . . _____ . . ____ .. ____
 72
    65
 73
     6
 40
22.5
 49
12.0
 74
     0
 49
-1.5
 74
     0
 49
3.0
 74
     0
 49
-1.5
 74
     0
 49
3.0
 74
     0
 49
-1.5
 74
     0
  0
LTYPE
  5
50
330
5
100
AcDbSymbolTableRecord
100
AcDbLinetypeTableRecord
  2
Amconstr
 70
     0
  3
_______________________
 72
    65
 73
     2
 40
9999.0
 49
9999.0
 74
     0
 49
0.0
 74
     0
  0
LTYPE
  5
51
330
5
100
AcDbSymbolTableRecord
100
AcDbLinetypeTableRecord
  2
AM_ISO08W050x2
 70
     0
  3
__ . __ . __ . __ . __ . __
 72
    65
 73
     4
 40
9.0
 49
6.0
 74
     0
 49
-0.75
 74
     0
 49
1.5
 74
     0
 49
-0.75
 74
     0
  0
LTYPE
  5
52
330
5
100
AcDbSymbolTableRecord
100
AcDbLinetypeTableRecord
  2
AM_ISO02W050x2
 70
     0
  3
 _ _ _ _ _ _ _ _ _ _ _ _
 72
    65
 73
     2
 40
3.75
 49
3.0
 74
     0
 49
-0.75
 74
     0
  0
LTYPE
  5
55
330
5
100
AcDbSymbolTableRecord
100
AcDbLinetypeTableRecord
  2
Amzigzag
 70
     0
  3
/\/-/\/-/\/-/\/-/\/-/\/
 72
    65
 73
     2
 40
11.0001
 49
0.0001
 74
     4
 75
   136
340
23D
 46
0.04
 50
0.0
 44
0.0
 45
0.0
 49
-11.0
 74
     0
  0
LTYPE
  5
65
330
5
100
AcDbSymbolTableRecord
100
AcDbLinetypeTableRecord
  2
CENTER
 70
     0
  3
__ . __
 72
    65
 73
     4
 40
7.0
 49
4.0
 74
     0
 49
-1.0
 74
     0
 49
1.0
 74
     0
 49
-1.0
 74
     0
  0
LTYPE
  5
E0
330
5
100
AcDbSymbolTableRecord
100
AcDbLinetypeTableRecord
  2
HIDDEN
 70
     0
  3
Hidden __ __ __ __ __ __ __ __ __ __ __ __ __ _
 72
    65
 73
     2
 40
9.524999999999996
 49
6.349999999999998
 74
     0
 49
-3.174999999999998
 74
     0
  0
LTYPE
  5
E1
330
5
100
AcDbSymbolTableRecord
100
AcDbLinetypeTableRecord
  2
PHANTOM2
 70
     0
  3
Phantom (.5x) ___ _ _ ___ _ _ ___ _ _ ___ _ _
 72
    65
 73
     6
 40
31.75
 49
15.875
 74
     0
 49
-3.174999999999998
 74
     0
 49
3.174999999999998
 74
     0
 49
-3.174999999999998
 74
     0
 49
3.174999999999998
 74
     0
 49
-3.174999999999998
 74
     0
  0
LTYPE
  5
5A2
330
5
100
AcDbSymbolTableRecord
100
AcDbLinetypeTableRecord
  2
ACJISWELD
 70
     0
  3
_ _ _ _ _
 72
    65
 73
     2
 40
2.0
 49
2.0
 74
     0
 49
-1.0
 74
     0
  0
LTYPE
  5
A204
330
5
100
AcDbSymbolTableRecord
100
AcDbLinetypeTableRecord
  2
ACISOWELD
 70
     0
  3
_ _ _ _ _
 72
    65
 73
     2
 40
2.0
 49
2.0
 74
     0
 49
-1.0
 74
     0
  0
LTYPE
  5
A205
330
5
100
AcDbSymbolTableRecord
100
AcDbLinetypeTableRecord
  2
ACISOTGB
 70
     0
  3
__ . . __ . .
 72
    65
 73
     6
 40
9.0
 49
4.0
 74
     0
 49
-1.0
 74
     0
 49
1.0
 74
     0
 49
-1.0
 74
     0
 49
1.0
 74
     0
 49
-1.0
 74
     0
  0
LTYPE
  5
A206
330
5
100
AcDbSymbolTableRecord
100
AcDbLinetypeTableRecord
  2
ACISOTGL
 70
     0
  3
_ _ _ _ _
 72
    65
 73
     2
 40
3.0
 49
2.0
 74
     0
 49
-1.0
 74
     0
  0
ENDTAB
  0
TABLE
  2
LAYER
  5
2
102
{ACAD_XDICTIONARY
360
BF
102
}
330
0
100
AcDbSymbolTable
 70
    11
  0
LAYER
  5
10
102
{ACAD_XDICTIONARY
360
29F7
102
}
330
2
100
AcDbSymbolTableRecord
100
AcDbLayerTableRecord
  2
0
 70
     0
 62
     7
  6
Continuous
370
    -3
390
F
347
27E
  0
LAYER
  5
81
102
{ACAD_XDICTIONARY
360
29F9
102
}
330
2
100
AcDbSymbolTableRecord
100
AcDbLayerTableRecord
  2
AM_0 外形線1
 70
     0
 62
     7
  6
Continuous
370
    25
390
F
347
27E
  0
LAYER
  5
427
330
2
100
AcDbSymbolTableRecord
100
AcDbLayerTableRecord
  2
Defpoints
 70
     0
 62
     7
  6
Continuous
290
     0
370
    -3
390
F
347
27E
  0
LAYER
  5
2E27
102
{ACAD_XDICTIONARY
360
2E28
102
}
330
2
100
AcDbSymbolTableRecord
100
AcDbLayerTableRecord
  2
AM_5 寸法線
 70
     0
 62
     3
  6
Continuous
370
    13
390
F
347
27E
1001
AcAecLayerStandard
1000

1000

  0
LAYER
  5
2E2A
330
2
100
AcDbSymbolTableRecord
100
AcDbLayerTableRecord
  2
AM_4 細線
 70
     0
 62
     4
  6
Continuous
370
    13
390
F
347
27E
1001
AcAecLayerStandard
1000

1000

  0
LAYER
  5
2E2B
330
2
100
AcDbSymbolTableRecord
100
AcDbLayerTableRecord
  2
AM_6 文字
 70
     0
 62
     2
  6
Continuous
370
    13
390
F
347
27E
1001
AcAecLayerStandard
1000

1000

  0
LAYER
  5
2E2C
330
2
100
AcDbSymbolTableRecord
100
AcDbLayerTableRecord
  2
AM_7 中心線
 70
     0
 62
     1
  6
AM_ISO08W050
370
    13
390
F
347
27E
1001
AcAecLayerStandard
1000

1000

  0
LAYER
  5
2E2D
330
2
100
AcDbSymbolTableRecord
100
AcDbLayerTableRecord
  2
AM_3 隠れ線
 70
     0
 62
     8
  6
ACJISWELD
370
    13
390
F
347
27E
1001
AcAecLayerStandard
1000

1000

  0
LAYER
  5
7B0E
102
{ACAD_XDICTIONARY
360
7B0F
102
}
330
2
100
AcDbSymbolTableRecord
100
AcDbLayerTableRecord
  2
AM_8 ハッチング
 70
     0
 62
     1
  6
Continuous
370
    13
390
F
347
27E
1001
AcAecLayerStandard
1000

1000

  0
LAYER
  5
9AD1
330
2
100
AcDbSymbolTableRecord
100
AcDbLayerTableRecord
  2
AM_11 想像線
 70
     0
 62
     5
  6
AM_ISO09W050
370
    13
390
F
347
27E
1001
AcAecLayerStandard
1000

1000

  0
ENDTAB
  0
TABLE
  2
STYLE
  5
3
330
0
100
AcDbSymbolTable
 70
     9
  0
STYLE
  5
11
330
3
100
AcDbSymbolTableRecord
100
AcDbTextStyleTableRecord
  2
STANDARD
 70
     0
 40
0.0
 41
1.0
 50
0.0
 71
     0
 42
25.0
  3
ISOCP.SHX
  4
EXTFONT.SHX
  0
STYLE
  5
23D
330
3
100
AcDbSymbolTableRecord
100
AcDbTextStyleTableRecord
  2

 70
     1
 40
0.0
 41
1.0
 50
0.0
 71
     0
 42
2.5
  3
genltshp.shx
  4

  0
STYLE
  5
5D5
330
3
100
AcDbSymbolTableRecord
100
AcDbTextStyleTableRecord
  2
SEISA
 70
     0
 40
0.0
 41
0.9
 50
0.0
 71
     0
 42
25.0
  3
romans.shx
  4
extfont2.shx
  0
STYLE
  5
A1F4
330
3
100
AcDbSymbolTableRecord
100
AcDbTextStyleTableRecord
  2
ACISOTS
 70
     0
 40
1.0
 41
1.0
 50
0.0
 71
     0
 42
25.0
  3
isocp.shx
  4
extfont.shx
  0
STYLE
  5
A203
330
3
100
AcDbSymbolTableRecord
100
AcDbTextStyleTableRecord
  2
ACISOGDT
 70
     0
 40
0.0
 41
1.0
 50
0.0
 71
     0
 42
25.0
  3
amgdt.shx
  4

  0
ENDTAB
  0
TABLE
  2
VIEW
  5
6
330
0
100
AcDbSymbolTable
 70
     6
  0
VIEW
  5
91B
330
6
100
AcDbSymbolTableRecord
100
AcDbViewTableRecord
  2
AM_VIEW1
 70
     0
 40
445.5
 10
430.6865769289815
 20
668.2500011081462
 41
861.3731527093596
 11
0.0
 21
0.0
 31
1.0
 12
0.0
 22
0.0
 32
0.0
 42
50.0
 43
0.0
 44
0.0
 50
0.0
 71
    16
281
     0
 72
     0
 73
     0
  0
VIEW
  5
91C
330
6
100
AcDbSymbolTableRecord
100
AcDbViewTableRecord
  2
AM_VIEW2
 70
     0
 40
445.5
 10
829.3134242196217
 20
668.2500011081462
 41
861.3731527093596
 11
0.0
 21
0.0
 31
1.0
 12
0.0
 22
0.0
 32
0.0
 42
50.0
 43
0.0
 44
0.0
 50
0.0
 71
    16
281
     0
 72
     0
 73
     0
  0
VIEW
  5
91D
330
6
100
AcDbSymbolTableRecord
100
AcDbViewTableRecord
  2
AM_VIEW3
 70
     0
 40
445.5
 10
430.6865769289815
 20
222.7500011081462
 41
861.3731527093596
 11
0.0
 21
0.0
 31
1.0
 12
0.0
 22
0.0
 32
0.0
 42
50.0
 43
0.0
 44
0.0
 50
0.0
 71
    16
281
     0
 72
     0
 73
     0
  0
VIEW
  5
91E
330
6
100
AcDbSymbolTableRecord
100
AcDbViewTableRecord
  2
AM_VIEW4
 70
     0
 40
445.5
 10
829.3134242196217
 20
222.7500011081462
 41
861.3731527093596
 11
0.0
 21
0.0
 31
1.0
 12
0.0
 22
0.0
 32
0.0
 42
50.0
 43
0.0
 44
0.0
 50
0.0
 71
    16
281
     0
 72
     0
 73
     0
  0
VIEW
  5
91F
330
6
100
AcDbSymbolTableRecord
100
AcDbViewTableRecord
  2
AM_VIEW5
 70
     0
 40
445.5
 10
630.0000005743015
 20
445.5000011081462
 41
861.37315270936
 11
0.0
 21
0.0
 31
1.0
 12
0.0
 22
0.0
 32
0.0
 42
50.0
 43
0.0
 44
0.0
 50
0.0
 71
    16
281
     0
 72
     0
 73
     0
  0
VIEW
  5
920
330
6
100
AcDbSymbolTableRecord
100
AcDbViewTableRecord
  2
AM_VIEW6
 70
     0
 40
890.9910900000001
 10
630.0000005743015
 20
445.5000011081462
 41
1722.729077955666
 11
0.0
 21
0.0
 31
1.0
 12
0.0
 22
0.0
 32
0.0
 42
50.0
 43
0.0
 44
0.0
 50
0.0
 71
    16
281
     0
 72
     0
 73
     0
  0
ENDTAB
  0
TABLE
  2
UCS
  5
7
330
0
100
AcDbSymbolTable
 70
     0
  0
ENDTAB
  0
TABLE
  2
APPID
  5
9
330
0
100
AcDbSymbolTable
 70
   397
  0
APPID
  5
12
330
9
100
AcDbSymbolTableRecord
100
AcDbRegAppTableRecord
  2
ACAD
 70
     0
  0
APPID
  5
30
330
9
100
AcDbSymbolTableRecord
100
AcDbRegAppTableRecord
  2
MCAD_NO_VIS
 70
     0
  0
APPID
  5
31
330
9
100
AcDbSymbolTableRecord
100
AcDbRegAppTableRecord
  2
ACAD_TEMP_GRAPHIC
 70
     0
  0
APPID
  5
44
330
9
100
AcDbSymbolTableRecord
100
AcDbRegAppTableRecord
  2
ACATTRIBSERVICES
 70
     0
  0
APPID
  5
F6
330
9
100
AcDbSymbolTableRecord
100
AcDbRegAppTableRecord
  2
AD_DRAW
 70
     0
  0
APPID
  5
114
330
9
100
AcDbSymbolTableRecord
100
AcDbRegAppTableRecord
  2
DESIGNERASSEMBLIES
 70
     0
  0
APPID
  5
118
330
9
100
AcDbSymbolTableRecord
100
AcDbRegAppTableRecord
  2
ACADM_DIM_EDIT
 70
     0
  0
APPID
  5
119
330
9
100
AcDbSymbolTableRecord
100
AcDbRegAppTableRecord
  2
AMDT_DM_ADJ
 70
     0
  0
APPID
  5
1AF
330
9
100
AcDbSymbolTableRecord
100
AcDbRegAppTableRecord
  2
ACAD_DSTYLE_DIMARC_LENGTH_SYMBOL
 70
     0
  0
APPID
  5
1B0
330
9
100
AcDbSymbolTableRecord
100
AcDbRegAppTableRecord
  2
ACAD_DSTYLE_DIMJOGGED_JOGANGLE_SYMBOL
 70
     0
  0
APPID
  5
2D7
330
9
100
AcDbSymbolTableRecord
100
AcDbRegAppTableRecord
  2
ACAD_MLEADERVER
 70
     0
  0
APPID
  5
355
330
9
100
AcDbSymbolTableRecord
100
AcDbRegAppTableRecord
  2
AcadAnnoPO
 70
     0
  0
APPID
  5
428
330
9
100
AcDbSymbolTableRecord
100
AcDbRegAppTableRecord
  2
ACAD_DSTYLE_DIMTEXT_FILL
 70
     0
  0
APPID
  5
429
330
9
100
AcDbSymbolTableRecord
100
AcDbRegAppTableRecord
  2
GENIUS_GENSCREG_15
 70
     0
  0
APPID
  5
42A
330
9
100
AcDbSymbolTableRecord
100
AcDbRegAppTableRecord
  2
GENIUS_GENOBJ-N-SDF_13
 70
     0
  0
APPID
  5
42B
330
9
100
AcDbSymbolTableRecord
100
AcDbRegAppTableRecord
  2
GENIUS_GENODEF_13
 70
     0
  0
APPID
  5
42C
330
9
100
AcDbSymbolTableRecord
100
AcDbRegAppTableRecord
  2
ACAD_EXEMPT_FROM_CAD_STANDARDS
 70
     0
  0
APPID
  5
42D
330
9
100
AcDbSymbolTableRecord
100
AcDbRegAppTableRecord
  2
AcAecLayerStandard
 70
     0
  0
APPID
  5
42E
330
9
100
AcDbSymbolTableRecord
100
AcDbRegAppTableRecord
  2
GENIUS_GENOBJ-N-CEN_13
 70
     0
  0
APPID
  5
42F
330
9
100
AcDbSymbolTableRecord
100
AcDbRegAppTableRecord
  2
GENIUS_GENCEN_19
 70
     0
  0
APPID
  5
430
330
9
100
AcDbSymbolTableRecord
100
AcDbRegAppTableRecord
  2
ACAD_DSTYLE_DIMINSPECT
 70
     0
  0
APPID
  5
431
330
9
100
AcDbSymbolTableRecord
100
AcDbRegAppTableRecord
  2
GENIUS_AMGTXT_16
 70
     0
  0
APPID
  5
432
330
9
100
AcDbSymbolTableRecord
100
AcDbRegAppTableRecord
  2
GENIUS_GENFIL_13
 70
     0
  0
APPID
  5
433
330
9
100
AcDbSymbolTableRecord
100
AcDbRegAppTableRecord
  2
GENIUS_GENOLIS_13
 70
     0
  0
APPID
  5
434
330
9
100
AcDbSymbolTableRecord
100
AcDbRegAppTableRecord
  2
GENIUS_GENOBJ-N-CHA_13
 70
     0
  0
APPID
  5
435
330
9
100
AcDbSymbolTableRecord
100
AcDbRegAppTableRecord
  2
GENIUS_GENOENT_13
 70
     0
  0
APPID
  5
436
330
9
100
AcDbSymbolTableRecord
100
AcDbRegAppTableRecord
  2
GENIUS_GENOREF_13
 70
     0
  0
APPID
  5
437
330
9
100
AcDbSymbolTableRecord
100
AcDbRegAppTableRecord
  2
GENIUS_GENOBJ-N-FIL_13
 70
     0
  0
APPID
  5
438
330
9
100
AcDbSymbolTableRecord
100
AcDbRegAppTableRecord
  2
GEVID1208829536
 70
     0
  0
APPID
  5
439
330
9
100
AcDbSymbolTableRecord
100
AcDbRegAppTableRecord
  2
GEVDC
 70
     0
  0
APPID
  5
43A
330
9
100
AcDbSymbolTableRecord
100
AcDbRegAppTableRecord
  2
GEVRADREF
 70
     0
  0
APPID
  5
43B
330
9
100
AcDbSymbolTableRecord
100
AcDbRegAppTableRecord
  2
GENIUS_GENBH_13
 70
     0
  0
APPID
  5
43C
330
9
100
AcDbSymbolTableRecord
100
AcDbRegAppTableRecord
  2
GENIUS_GENOBJ-NBEHI-BHF_13
 70
     0
  0
APPID
  5
43D
330
9
100
AcDbSymbolTableRecord
100
AcDbRegAppTableRecord
  2
GENIUS_GENOBJ-NBEHI-BHB_13
 70
     0
  0
APPID
  5
43E
330
9
100
AcDbSymbolTableRecord
100
AcDbRegAppTableRecord
  2
GEVID1208829537
 70
     0
  0
APPID
  5
43F
330
9
100
AcDbSymbolTableRecord
100
AcDbRegAppTableRecord
  2
ACAD_DSTYLE_DIMJAG
 70
     0
  0
APPID
  5
440
330
9
100
AcDbSymbolTableRecord
100
AcDbRegAppTableRecord
  2
ACAD_DSTYLE_DIMTALN
 70
     0
  0
APPID
  5
441
330
9
100
AcDbSymbolTableRecord
100
AcDbRegAppTableRecord
  2
AMG_2DHIDE
 70
     0
  0
APPID
  5
442
330
9
100
AcDbSymbolTableRecord
100
AcDbRegAppTableRecord
  2
AMG_2DSTRUCT_BTR
 70
     0
  0
APPID
  5
443
330
9
100
AcDbSymbolTableRecord
100
AcDbRegAppTableRecord
  2
GEVID1208845772
 70
     0
  0
APPID
  5
444
330
9
100
AcDbSymbolTableRecord
100
AcDbRegAppTableRecord
  2
GEVID1208845773
 70
     0
  0
APPID
  5
445
330
9
100
AcDbSymbolTableRecord
100
AcDbRegAppTableRecord
  2
ACADM_2DVIEW_IGN_NOTIFY
 70
     0
  0
APPID
  5
446
330
9
100
AcDbSymbolTableRecord
100
AcDbRegAppTableRecord
  2
GEVID1208845774
 70
     0
  0
APPID
  5
447
330
9
100
AcDbSymbolTableRecord
100
AcDbRegAppTableRecord
  2
GEVID1208845775
 70
     0
  0
APPID
  5
448
330
9
100
AcDbSymbolTableRecord
100
AcDbRegAppTableRecord
  2
GEVID1208845776
 70
     0
  0
APPID
  5
449
330
9
100
AcDbSymbolTableRecord
100
AcDbRegAppTableRecord
  2
GEVID1208845777
 70
     0
  0
APPID
  5
44A
330
9
100
AcDbSymbolTableRecord
100
AcDbRegAppTableRecord
  2
GEVCON
 70
     0
  0
APPID
  5
44B
330
9
100
AcDbSymbolTableRecord
100
AcDbRegAppTableRecord
  2
GENIUS_GENOBJ-F-SCPASSM_13
 70
     0
  0
APPID
  5
44C
330
9
100
AcDbSymbolTableRecord
100
AcDbRegAppTableRecord
  2
GEVID1208845778
 70
     0
  0
APPID
  5
44D
330
9
100
AcDbSymbolTableRecord
100
AcDbRegAppTableRecord
  2
GEVID1208845779
 70
     0
  0
APPID
  5
44E
330
9
100
AcDbSymbolTableRecord
100
AcDbRegAppTableRecord
  2
GEVID1208845780
 70
     0
  0
APPID
  5
44F
330
9
100
AcDbSymbolTableRecord
100
AcDbRegAppTableRecord
  2
GEVID1208845781
 70
     0
  0
APPID
  5
450
330
9
100
AcDbSymbolTableRecord
100
AcDbRegAppTableRecord
  2
GEVID1208845782
 70
     0
  0
APPID
  5
451
330
9
100
AcDbSymbolTableRecord
100
AcDbRegAppTableRecord
  2
GEVID1208845783
 70
     0
  0
APPID
  5
452
330
9
100
AcDbSymbolTableRecord
100
AcDbRegAppTableRecord
  2
GEVID1208845784
 70
     0
  0
APPID
  5
453
330
9
100
AcDbSymbolTableRecord
100
AcDbRegAppTableRecord
  2
GEVID1208845785
 70
     0
  0
APPID
  5
454
330
9
100
AcDbSymbolTableRecord
100
AcDbRegAppTableRecord
  2
GEVID1208845787
 70
     0
  0
APPID
  5
455
330
9
100
AcDbSymbolTableRecord
100
AcDbRegAppTableRecord
  2
GEVID1208845788
 70
     0
  0
APPID
  5
456
330
9
100
AcDbSymbolTableRecord
100
AcDbRegAppTableRecord
  2
GEVID1208845789
 70
     0
  0
APPID
  5
457
330
9
100
AcDbSymbolTableRecord
100
AcDbRegAppTableRecord
  2
GEVID1208845790
 70
     0
  0
APPID
  5
458
330
9
100
AcDbSymbolTableRecord
100
AcDbRegAppTableRecord
  2
GEVID1208845791
 70
     0
  0
APPID
  5
459
330
9
100
AcDbSymbolTableRecord
100
AcDbRegAppTableRecord
  2
GEVID1208845792
 70
     0
  0
APPID
  5
45A
330
9
100
AcDbSymbolTableRecord
100
AcDbRegAppTableRecord
  2
GEVID1208845793
 70
     0
  0
APPID
  5
45B
330
9
100
AcDbSymbolTableRecord
100
AcDbRegAppTableRecord
  2
GEVID1208845794
 70
     0
  0
APPID
  5
45C
330
9
100
AcDbSymbolTableRecord
100
AcDbRegAppTableRecord
  2
GEVID1208845795
 70
     0
  0
APPID
  5
45D
330
9
100
AcDbSymbolTableRecord
100
AcDbRegAppTableRecord
  2
GEVID1208845796
 70
     0
  0
APPID
  5
45E
330
9
100
AcDbSymbolTableRecord
100
AcDbRegAppTableRecord
  2
GEVID1208845797
 70
     0
  0
APPID
  5
45F
330
9
100
AcDbSymbolTableRecord
100
AcDbRegAppTableRecord
  2
GEVID1208845798
 70
     0
  0
APPID
  5
460
330
9
100
AcDbSymbolTableRecord
100
AcDbRegAppTableRecord
  2
GEVID1208845799
 70
     0
  0
APPID
  5
461
330
9
100
AcDbSymbolTableRecord
100
AcDbRegAppTableRecord
  2
GEVID1208845800
 70
     0
  0
APPID
  5
462
330
9
100
AcDbSymbolTableRecord
100
AcDbRegAppTableRecord
  2
GEVID1208845801
 70
     0
  0
APPID
  5
463
330
9
100
AcDbSymbolTableRecord
100
AcDbRegAppTableRecord
  2
GEVID1208845802
 70
     0
  0
APPID
  5
464
330
9
100
AcDbSymbolTableRecord
100
AcDbRegAppTableRecord
  2
GENIUS_GENOBJ-N-DIM_13
 70
     0
  0
APPID
  5
465
330
9
100
AcDbSymbolTableRecord
100
AcDbRegAppTableRecord
  2
GENIUS_GENDIM_13
 70
     0
  0
APPID
  5
466
330
9
100
AcDbSymbolTableRecord
100
AcDbRegAppTableRecord
  2
GENIUS_GENDIMSH_14
 70
     0
  0
APPID
  5
467
330
9
100
AcDbSymbolTableRecord
100
AcDbRegAppTableRecord
  2
GEVID1208845803
 70
     0
  0
APPID
  5
468
330
9
100
AcDbSymbolTableRecord
100
AcDbRegAppTableRecord
  2
GEVID1208845804
 70
     0
  0
APPID
  5
469
330
9
100
AcDbSymbolTableRecord
100
AcDbRegAppTableRecord
  2
GEVID1208845805
 70
     0
  0
APPID
  5
46A
330
9
100
AcDbSymbolTableRecord
100
AcDbRegAppTableRecord
  2
GEVID1208845806
 70
     0
  0
APPID
  5
46B
330
9
100
AcDbSymbolTableRecord
100
AcDbRegAppTableRecord
  2
GEVID1208845807
 70
     0
  0
APPID
  5
46C
330
9
100
AcDbSymbolTableRecord
100
AcDbRegAppTableRecord
  2
GEVID1208845808
 70
     0
  0
APPID
  5
46D
330
9
100
AcDbSymbolTableRecord
100
AcDbRegAppTableRecord
  2
GEVID1208845809
 70
     0
  0
APPID
  5
46E
330
9
100
AcDbSymbolTableRecord
100
AcDbRegAppTableRecord
  2
GEVID1208845810
 70
     0
  0
APPID
  5
46F
330
9
100
AcDbSymbolTableRecord
100
AcDbRegAppTableRecord
  2
GEVID1208845811
 70
     0
  0
APPID
  5
470
330
9
100
AcDbSymbolTableRecord
100
AcDbRegAppTableRecord
  2
GEVID1208845813
 70
     0
  0
APPID
  5
471
330
9
100
AcDbSymbolTableRecord
100
AcDbRegAppTableRecord
  2
GEVID1208845814
 70
     0
  0
APPID
  5
472
330
9
100
AcDbSymbolTableRecord
100
AcDbRegAppTableRecord
  2
GEVID1208845815
 70
     0
  0
APPID
  5
473
330
9
100
AcDbSymbolTableRecord
100
AcDbRegAppTableRecord
  2
GEVID1208845816
 70
     0
  0
APPID
  5
474
330
9
100
AcDbSymbolTableRecord
100
AcDbRegAppTableRecord
  2
GEVID1208845817
 70
     0
  0
APPID
  5
475
330
9
100
AcDbSymbolTableRecord
100
AcDbRegAppTableRecord
  2
GEVID1208845818
 70
     0
  0
APPID
  5
476
330
9
100
AcDbSymbolTableRecord
100
AcDbRegAppTableRecord
  2
GEVID1208845819
 70
     0
  0
APPID
  5
477
330
9
100
AcDbSymbolTableRecord
100
AcDbRegAppTableRecord
  2
GEVID1208845820
 70
     0
  0
APPID
  5
478
330
9
100
AcDbSymbolTableRecord
100
AcDbRegAppTableRecord
  2
GENIUS_GENOBJ-F-SHCL_13
 70
     0
  0
APPID
  5
479
330
9
100
AcDbSymbolTableRecord
100
AcDbRegAppTableRecord
  2
GENIUS_GEFMSH_13
 70
     0
  0
APPID
  5
47A
330
9
100
AcDbSymbolTableRecord
100
AcDbRegAppTableRecord
  2
GENIUS_GENOBJ-F-SHCA_13
 70
     0
  0
APPID
  5
47B
330
9
100
AcDbSymbolTableRecord
100
AcDbRegAppTableRecord
  2
GENIUS_GEFSH_13
 70
     0
  0
APPID
  5
47C
330
9
100
AcDbSymbolTableRecord
100
AcDbRegAppTableRecord
  2
GENIUS_GEFSHP_13
 70
     0
  0
APPID
  5
47D
330
9
100
AcDbSymbolTableRecord
100
AcDbRegAppTableRecord
  2
GENIUS_GEFSHP0_13
 70
     0
  0
APPID
  5
47E
330
9
100
AcDbSymbolTableRecord
100
AcDbRegAppTableRecord
  2
GENIUS_GEFSH0_13
 70
     0
  0
APPID
  5
47F
330
9
100
AcDbSymbolTableRecord
100
AcDbRegAppTableRecord
  2
GENIUS_GEFSHP1_13
 70
     0
  0
APPID
  5
480
330
9
100
AcDbSymbolTableRecord
100
AcDbRegAppTableRecord
  2
GENIUS_GEFSH1_13
 70
     0
  0
APPID
  5
481
330
9
100
AcDbSymbolTableRecord
100
AcDbRegAppTableRecord
  2
GEVID1208866337
 70
     0
  0
APPID
  5
482
330
9
100
AcDbSymbolTableRecord
100
AcDbRegAppTableRecord
  2
GEVID1208866338
 70
     0
  0
APPID
  5
483
330
9
100
AcDbSymbolTableRecord
100
AcDbRegAppTableRecord
  2
GEVID1208866339
 70
     0
  0
APPID
  5
484
330
9
100
AcDbSymbolTableRecord
100
AcDbRegAppTableRecord
  2
GEVID1208866340
 70
     0
  0
APPID
  5
485
330
9
100
AcDbSymbolTableRecord
100
AcDbRegAppTableRecord
  2
GEVID1208866341
 70
     0
  0
APPID
  5
486
330
9
100
AcDbSymbolTableRecord
100
AcDbRegAppTableRecord
  2
ACAD_PSEXT
 70
     0
  0
APPID
  5
487
330
9
100
AcDbSymbolTableRecord
100
AcDbRegAppTableRecord
  2
GEVID1208866342
 70
     0
  0
APPID
  5
488
330
9
100
AcDbSymbolTableRecord
100
AcDbRegAppTableRecord
  2
GEVID1208913836
 70
     0
  0
APPID
  5
489
330
9
100
AcDbSymbolTableRecord
100
AcDbRegAppTableRecord
  2
GEVID1208913837
 70
     0
  0
APPID
  5
48A
330
9
100
AcDbSymbolTableRecord
100
AcDbRegAppTableRecord
  2
GEVID1208913838
 70
     0
  0
APPID
  5
48B
330
9
100
AcDbSymbolTableRecord
100
AcDbRegAppTableRecord
  2
GEVID1208913839
 70
     0
  0
APPID
  5
48C
330
9
100
AcDbSymbolTableRecord
100
AcDbRegAppTableRecord
  2
GENIUS_GENDTOL_13
 70
     0
  0
APPID
  5
48D
330
9
100
AcDbSymbolTableRecord
100
AcDbRegAppTableRecord
  2
GEVID1208928889
 70
     0
  0
APPID
  5
48E
330
9
100
AcDbSymbolTableRecord
100
AcDbRegAppTableRecord
  2
GEVID1208928890
 70
     0
  0
APPID
  5
48F
330
9
100
AcDbSymbolTableRecord
100
AcDbRegAppTableRecord
  2
GEVID1208928891
 70
     0
  0
APPID
  5
490
330
9
100
AcDbSymbolTableRecord
100
AcDbRegAppTableRecord
  2
GEVID1208928892
 70
     0
  0
APPID
  5
491
330
9
100
AcDbSymbolTableRecord
100
AcDbRegAppTableRecord
  2
GEVID1208933827
 70
     0
  0
APPID
  5
492
330
9
100
AcDbSymbolTableRecord
100
AcDbRegAppTableRecord
  2
GEVID1208933829
 70
     0
  0
APPID
  5
493
330
9
100
AcDbSymbolTableRecord
100
AcDbRegAppTableRecord
  2
GEVID1208933830
 70
     0
  0
APPID
  5
494
330
9
100
AcDbSymbolTableRecord
100
AcDbRegAppTableRecord
  2
GEVID1208933831
 70
     0
  0
APPID
  5
495
330
9
100
AcDbSymbolTableRecord
100
AcDbRegAppTableRecord
  2
GEVID1208933832
 70
     0
  0
APPID
  5
496
330
9
100
AcDbSymbolTableRecord
100
AcDbRegAppTableRecord
  2
GEVID1208933833
 70
     0
  0
APPID
  5
497
330
9
100
AcDbSymbolTableRecord
100
AcDbRegAppTableRecord
  2
GEVID1208933834
 70
     0
  0
APPID
  5
498
330
9
100
AcDbSymbolTableRecord
100
AcDbRegAppTableRecord
  2
GEVID1208933835
 70
     0
  0
APPID
  5
499
330
9
100
AcDbSymbolTableRecord
100
AcDbRegAppTableRecord
  2
GEVID1208933836
 70
     0
  0
APPID
  5
49A
330
9
100
AcDbSymbolTableRecord
100
AcDbRegAppTableRecord
  2
GEVID1208933837
 70
     0
  0
APPID
  5
49B
330
9
100
AcDbSymbolTableRecord
100
AcDbRegAppTableRecord
  2
GEVID1208933838
 70
     0
  0
APPID
  5
49C
330
9
100
AcDbSymbolTableRecord
100
AcDbRegAppTableRecord
  2
GEVID1208933840
 70
     0
  0
APPID
  5
49D
330
9
100
AcDbSymbolTableRecord
100
AcDbRegAppTableRecord
  2
GEVID1208933842
 70
     0
  0
APPID
  5
49E
330
9
100
AcDbSymbolTableRecord
100
AcDbRegAppTableRecord
  2
GEVID1208933843
 70
     0
  0
APPID
  5
49F
330
9
100
AcDbSymbolTableRecord
100
AcDbRegAppTableRecord
  2
GEVID1208933844
 70
     0
  0
APPID
  5
4A0
330
9
100
AcDbSymbolTableRecord
100
AcDbRegAppTableRecord
  2
GEVID1208933845
 70
     0
  0
APPID
  5
4A1
330
9
100
AcDbSymbolTableRecord
100
AcDbRegAppTableRecord
  2
GEVID1208933846
 70
     0
  0
APPID
  5
4A2
330
9
100
AcDbSymbolTableRecord
100
AcDbRegAppTableRecord
  2
GEVID1208933847
 70
     0
  0
APPID
  5
4A3
330
9
100
AcDbSymbolTableRecord
100
AcDbRegAppTableRecord
  2
GEVID1208933848
 70
     0
  0
APPID
  5
4A4
330
9
100
AcDbSymbolTableRecord
100
AcDbRegAppTableRecord
  2
GEVID1208933849
 70
     0
  0
APPID
  5
4A5
330
9
100
AcDbSymbolTableRecord
100
AcDbRegAppTableRecord
  2
GEVID1208933850
 70
     0
  0
APPID
  5
4A6
330
9
100
AcDbSymbolTableRecord
100
AcDbRegAppTableRecord
  2
GEVID1208933851
 70
     0
  0
APPID
  5
4A7
330
9
100
AcDbSymbolTableRecord
100
AcDbRegAppTableRecord
  2
GEVID1208933852
 70
     0
  0
APPID
  5
4A8
330
9
100
AcDbSymbolTableRecord
100
AcDbRegAppTableRecord
  2
GEVID1208933853
 70
     0
  0
APPID
  5
4A9
330
9
100
AcDbSymbolTableRecord
100
AcDbRegAppTableRecord
  2
GEVID1208933854
 70
     0
  0
APPID
  5
4AA
330
9
100
AcDbSymbolTableRecord
100
AcDbRegAppTableRecord
  2
GEVID1208933855
 70
     0
  0
APPID
  5
4AB
330
9
100
AcDbSymbolTableRecord
100
AcDbRegAppTableRecord
  2
GEVID1208933856
 70
     0
  0
APPID
  5
4AC
330
9
100
AcDbSymbolTableRecord
100
AcDbRegAppTableRecord
  2
GEVID1208933857
 70
     0
  0
APPID
  5
4AD
330
9
100
AcDbSymbolTableRecord
100
AcDbRegAppTableRecord
  2
GEVID1208933858
 70
     0
  0
APPID
  5
4AE
330
9
100
AcDbSymbolTableRecord
100
AcDbRegAppTableRecord
  2
GEVID1208933859
 70
     0
  0
APPID
  5
4AF
330
9
100
AcDbSymbolTableRecord
100
AcDbRegAppTableRecord
  2
GEVID1208933860
 70
     0
  0
APPID
  5
4B0
330
9
100
AcDbSymbolTableRecord
100
AcDbRegAppTableRecord
  2
GEVID1208933861
 70
     0
  0
APPID
  5
4B1
330
9
100
AcDbSymbolTableRecord
100
AcDbRegAppTableRecord
  2
GEVID1208933862
 70
     0
  0
APPID
  5
4B2
330
9
100
AcDbSymbolTableRecord
100
AcDbRegAppTableRecord
  2
GEVID1208933863
 70
     0
  0
APPID
  5
4B3
330
9
100
AcDbSymbolTableRecord
100
AcDbRegAppTableRecord
  2
GEVID1208933864
 70
     0
  0
APPID
  5
4B4
330
9
100
AcDbSymbolTableRecord
100
AcDbRegAppTableRecord
  2
GEVID1208933865
 70
     0
  0
APPID
  5
4B5
330
9
100
AcDbSymbolTableRecord
100
AcDbRegAppTableRecord
  2
GEVID1208933866
 70
     0
  0
APPID
  5
4B6
330
9
100
AcDbSymbolTableRecord
100
AcDbRegAppTableRecord
  2
GEVID1208933867
 70
     0
  0
APPID
  5
4B7
330
9
100
AcDbSymbolTableRecord
100
AcDbRegAppTableRecord
  2
GEVID1208933868
 70
     0
  0
APPID
  5
4B8
330
9
100
AcDbSymbolTableRecord
100
AcDbRegAppTableRecord
  2
GEVID1208933869
 70
     0
  0
APPID
  5
4B9
330
9
100
AcDbSymbolTableRecord
100
AcDbRegAppTableRecord
  2
GEVID1208933870
 70
     0
  0
APPID
  5
4BA
330
9
100
AcDbSymbolTableRecord
100
AcDbRegAppTableRecord
  2
GEVID1208933871
 70
     0
  0
APPID
  5
4BB
330
9
100
AcDbSymbolTableRecord
100
AcDbRegAppTableRecord
  2
GEVID1208933872
 70
     0
  0
APPID
  5
4BC
330
9
100
AcDbSymbolTableRecord
100
AcDbRegAppTableRecord
  2
GEVID1208933873
 70
     0
  0
APPID
  5
4BD
330
9
100
AcDbSymbolTableRecord
100
AcDbRegAppTableRecord
  2
GEVID1208933874
 70
     0
  0
APPID
  5
4BE
330
9
100
AcDbSymbolTableRecord
100
AcDbRegAppTableRecord
  2
GEVID1208933875
 70
     0
  0
APPID
  5
4BF
330
9
100
AcDbSymbolTableRecord
100
AcDbRegAppTableRecord
  2
GEVID1208933876
 70
     0
  0
APPID
  5
4C0
330
9
100
AcDbSymbolTableRecord
100
AcDbRegAppTableRecord
  2
ACAD_DSTYLE_DIMRADIAL_EXTENSION
 70
     0
  0
APPID
  5
4C1
330
9
100
AcDbSymbolTableRecord
100
AcDbRegAppTableRecord
  2
GEVID1208999100
 70
     0
  0
APPID
  5
4C2
330
9
100
AcDbSymbolTableRecord
100
AcDbRegAppTableRecord
  2
GEVID1208999101
 70
     0
  0
APPID
  5
4C3
330
9
100
AcDbSymbolTableRecord
100
AcDbRegAppTableRecord
  2
GEVID1208999102
 70
     0
  0
APPID
  5
4C4
330
9
100
AcDbSymbolTableRecord
100
AcDbRegAppTableRecord
  2
GEVID1208999103
 70
     0
  0
APPID
  5
4C5
330
9
100
AcDbSymbolTableRecord
100
AcDbRegAppTableRecord
  2
GEVID1208999105
 70
     0
  0
APPID
  5
4C6
330
9
100
AcDbSymbolTableRecord
100
AcDbRegAppTableRecord
  2
GEVID1208999106
 70
     0
  0
APPID
  5
4C7
330
9
100
AcDbSymbolTableRecord
100
AcDbRegAppTableRecord
  2
GEVID1208999108
 70
     0
  0
APPID
  5
4C8
330
9
100
AcDbSymbolTableRecord
100
AcDbRegAppTableRecord
  2
GEVID1208999109
 70
     0
  0
APPID
  5
4C9
330
9
100
AcDbSymbolTableRecord
100
AcDbRegAppTableRecord
  2
GEVID1208999110
 70
     0
  0
APPID
  5
4CA
330
9
100
AcDbSymbolTableRecord
100
AcDbRegAppTableRecord
  2
GEVID1208999111
 70
     0
  0
APPID
  5
4CB
330
9
100
AcDbSymbolTableRecord
100
AcDbRegAppTableRecord
  2
GEVID1208999112
 70
     0
  0
APPID
  5
4CC
330
9
100
AcDbSymbolTableRecord
100
AcDbRegAppTableRecord
  2
GEVID1208999113
 70
     0
  0
APPID
  5
4CD
330
9
100
AcDbSymbolTableRecord
100
AcDbRegAppTableRecord
  2
GEVID1208999114
 70
     0
  0
APPID
  5
4CE
330
9
100
AcDbSymbolTableRecord
100
AcDbRegAppTableRecord
  2
GEVID1210218799
 70
     0
  0
APPID
  5
4CF
330
9
100
AcDbSymbolTableRecord
100
AcDbRegAppTableRecord
  2
GEVID1210218800
 70
     0
  0
APPID
  5
4D0
330
9
100
AcDbSymbolTableRecord
100
AcDbRegAppTableRecord
  2
GENIUS_GEFWELD_13
 70
     0
  0
APPID
  5
4D1
330
9
100
AcDbSymbolTableRecord
100
AcDbRegAppTableRecord
  2
GENIUS_GENOBJ-F-WELS_13
 70
     0
  0
APPID
  5
4D2
330
9
100
AcDbSymbolTableRecord
100
AcDbRegAppTableRecord
  2
AcadAnnotative
 70
     0
  0
APPID
  5
4D3
330
9
100
AcDbSymbolTableRecord
100
AcDbRegAppTableRecord
  2
GEVID1210145339
 70
     0
  0
APPID
  5
4D4
330
9
100
AcDbSymbolTableRecord
100
AcDbRegAppTableRecord
  2
ACAD_DSTYLE_DIMBREAK
 70
     0
  0
APPID
  5
4D5
330
9
100
AcDbSymbolTableRecord
100
AcDbRegAppTableRecord
  2
GEVID1210145340
 70
     0
  0
APPID
  5
4D6
330
9
100
AcDbSymbolTableRecord
100
AcDbRegAppTableRecord
  2
GEVID1210145341
 70
     0
  0
APPID
  5
4D7
330
9
100
AcDbSymbolTableRecord
100
AcDbRegAppTableRecord
  2
GEVID1210145342
 70
     0
  0
APPID
  5
4D8
330
9
100
AcDbSymbolTableRecord
100
AcDbRegAppTableRecord
  2
GEVID1210145343
 70
     0
  0
APPID
  5
4D9
330
9
100
AcDbSymbolTableRecord
100
AcDbRegAppTableRecord
  2
GEVID1210145344
 70
     0
  0
APPID
  5
4DA
330
9
100
AcDbSymbolTableRecord
100
AcDbRegAppTableRecord
  2
GEVID1210145345
 70
     0
  0
APPID
  5
4DB
330
9
100
AcDbSymbolTableRecord
100
AcDbRegAppTableRecord
  2
GEVID1210152816
 70
     0
  0
APPID
  5
4DC
330
9
100
AcDbSymbolTableRecord
100
AcDbRegAppTableRecord
  2
GEVID1210153850
 70
     0
  0
APPID
  5
4DD
330
9
100
AcDbSymbolTableRecord
100
AcDbRegAppTableRecord
  2
GEVID1210153851
 70
     0
  0
APPID
  5
4DE
330
9
100
AcDbSymbolTableRecord
100
AcDbRegAppTableRecord
  2
GEVID1210153852
 70
     0
  0
APPID
  5
4DF
330
9
100
AcDbSymbolTableRecord
100
AcDbRegAppTableRecord
  2
GEVID1210549898
 70
     0
  0
APPID
  5
4E0
330
9
100
AcDbSymbolTableRecord
100
AcDbRegAppTableRecord
  2
GEVID1210549899
 70
     0
  0
APPID
  5
4E1
330
9
100
AcDbSymbolTableRecord
100
AcDbRegAppTableRecord
  2
GEVID1210549900
 70
     0
  0
APPID
  5
4E2
330
9
100
AcDbSymbolTableRecord
100
AcDbRegAppTableRecord
  2
GEVID1210549901
 70
     0
  0
APPID
  5
4E3
330
9
100
AcDbSymbolTableRecord
100
AcDbRegAppTableRecord
  2
GEVID1210549902
 70
     0
  0
APPID
  5
4E4
330
9
100
AcDbSymbolTableRecord
100
AcDbRegAppTableRecord
  2
GEVID1210549903
 70
     0
  0
APPID
  5
4E5
330
9
100
AcDbSymbolTableRecord
100
AcDbRegAppTableRecord
  2
GEVID1210549904
 70
     0
  0
APPID
  5
4E6
330
9
100
AcDbSymbolTableRecord
100
AcDbRegAppTableRecord
  2
GEVID1210549905
 70
     0
  0
APPID
  5
4E7
330
9
100
AcDbSymbolTableRecord
100
AcDbRegAppTableRecord
  2
GEVID1210549906
 70
     0
  0
APPID
  5
4E8
330
9
100
AcDbSymbolTableRecord
100
AcDbRegAppTableRecord
  2
GEVID1210549907
 70
     0
  0
APPID
  5
4E9
330
9
100
AcDbSymbolTableRecord
100
AcDbRegAppTableRecord
  2
GEVID1210549908
 70
     0
  0
APPID
  5
4EA
330
9
100
AcDbSymbolTableRecord
100
AcDbRegAppTableRecord
  2
GEVID1210549909
 70
     0
  0
APPID
  5
4EB
330
9
100
AcDbSymbolTableRecord
100
AcDbRegAppTableRecord
  2
GEVID1210549910
 70
     0
  0
APPID
  5
4EC
330
9
100
AcDbSymbolTableRecord
100
AcDbRegAppTableRecord
  2
GEVID1210549911
 70
     0
  0
APPID
  5
4ED
330
9
100
AcDbSymbolTableRecord
100
AcDbRegAppTableRecord
  2
GEVID1210549912
 70
     0
  0
APPID
  5
4EE
330
9
100
AcDbSymbolTableRecord
100
AcDbRegAppTableRecord
  2
GEVID1210549913
 70
     0
  0
APPID
  5
4EF
330
9
100
AcDbSymbolTableRecord
100
AcDbRegAppTableRecord
  2
GEVID1210549914
 70
     0
  0
APPID
  5
4F0
330
9
100
AcDbSymbolTableRecord
100
AcDbRegAppTableRecord
  2
GEVID1210549915
 70
     0
  0
APPID
  5
4F1
330
9
100
AcDbSymbolTableRecord
100
AcDbRegAppTableRecord
  2
GEVID1210549916
 70
     0
  0
APPID
  5
4F2
330
9
100
AcDbSymbolTableRecord
100
AcDbRegAppTableRecord
  2
GEVID1210549917
 70
     0
  0
APPID
  5
4F3
330
9
100
AcDbSymbolTableRecord
100
AcDbRegAppTableRecord
  2
GENIUS_GENOBJ-N-CRS_13
 70
     0
  0
APPID
  5
4F4
330
9
100
AcDbSymbolTableRecord
100
AcDbRegAppTableRecord
  2
GEVID1210549918
 70
     0
  0
APPID
  5
4F5
330
9
100
AcDbSymbolTableRecord
100
AcDbRegAppTableRecord
  2
GENIUS_GENOBJ-N-CRC_13
 70
     0
  0
APPID
  5
4F6
330
9
100
AcDbSymbolTableRecord
100
AcDbRegAppTableRecord
  2
GENIUS_GENCRC_14
 70
     0
  0
APPID
  5
4F7
330
9
100
AcDbSymbolTableRecord
100
AcDbRegAppTableRecord
  2
GEVID1210549919
 70
     0
  0
APPID
  5
4F8
330
9
100
AcDbSymbolTableRecord
100
AcDbRegAppTableRecord
  2
GEVID1210549921
 70
     0
  0
APPID
  5
4F9
330
9
100
AcDbSymbolTableRecord
100
AcDbRegAppTableRecord
  2
GEVID1210549922
 70
     0
  0
APPID
  5
4FA
330
9
100
AcDbSymbolTableRecord
100
AcDbRegAppTableRecord
  2
GEVID1210635173
 70
     0
  0
APPID
  5
4FB
330
9
100
AcDbSymbolTableRecord
100
AcDbRegAppTableRecord
  2
GEVID1210635174
 70
     0
  0
APPID
  5
4FC
330
9
100
AcDbSymbolTableRecord
100
AcDbRegAppTableRecord
  2
GEVID1210635175
 70
     0
  0
APPID
  5
4FD
330
9
100
AcDbSymbolTableRecord
100
AcDbRegAppTableRecord
  2
GEVID1210635176
 70
     0
  0
APPID
  5
4FE
330
9
100
AcDbSymbolTableRecord
100
AcDbRegAppTableRecord
  2
GEVID1210635177
 70
     0
  0
APPID
  5
4FF
330
9
100
AcDbSymbolTableRecord
100
AcDbRegAppTableRecord
  2
GEVID1210635178
 70
     0
  0
APPID
  5
500
330
9
100
AcDbSymbolTableRecord
100
AcDbRegAppTableRecord
  2
GENIUS_GENIUS_GENBHEDTMP_13
 70
     0
  0
APPID
  5
501
330
9
100
AcDbSymbolTableRecord
100
AcDbRegAppTableRecord
  2
GEVID1210635179
 70
     0
  0
APPID
  5
502
330
9
100
AcDbSymbolTableRecord
100
AcDbRegAppTableRecord
  2
GEVID1210635180
 70
     0
  0
APPID
  5
503
330
9
100
AcDbSymbolTableRecord
100
AcDbRegAppTableRecord
  2
GEVID1210635181
 70
     0
  0
APPID
  5
504
330
9
100
AcDbSymbolTableRecord
100
AcDbRegAppTableRecord
  2
GEVID1210635182
 70
     0
  0
APPID
  5
505
330
9
100
AcDbSymbolTableRecord
100
AcDbRegAppTableRecord
  2
GEVID1210635184
 70
     0
  0
APPID
  5
506
330
9
100
AcDbSymbolTableRecord
100
AcDbRegAppTableRecord
  2
GEVID1210635185
 70
     0
  0
APPID
  5
507
330
9
100
AcDbSymbolTableRecord
100
AcDbRegAppTableRecord
  2
GEVID1210635186
 70
     0
  0
APPID
  5
508
330
9
100
AcDbSymbolTableRecord
100
AcDbRegAppTableRecord
  2
GEVID1210635187
 70
     0
  0
APPID
  5
509
330
9
100
AcDbSymbolTableRecord
100
AcDbRegAppTableRecord
  2
GEVID1210635188
 70
     0
  0
APPID
  5
50A
330
9
100
AcDbSymbolTableRecord
100
AcDbRegAppTableRecord
  2
GEVID1210635189
 70
     0
  0
APPID
  5
50B
330
9
100
AcDbSymbolTableRecord
100
AcDbRegAppTableRecord
  2
GEVID1210635190
 70
     0
  0
APPID
  5
50C
330
9
100
AcDbSymbolTableRecord
100
AcDbRegAppTableRecord
  2
GENIUS_GENREC_14
 70
     0
  0
APPID
  5
50D
330
9
100
AcDbSymbolTableRecord
100
AcDbRegAppTableRecord
  2
GENIUS_GENOBJ-N-REC_13
 70
     0
  0
APPID
  5
50E
330
9
100
AcDbSymbolTableRecord
100
AcDbRegAppTableRecord
  2
GEVID1210676655
 70
     0
  0
APPID
  5
50F
330
9
100
AcDbSymbolTableRecord
100
AcDbRegAppTableRecord
  2
GEVID1210676656
 70
     0
  0
APPID
  5
510
330
9
100
AcDbSymbolTableRecord
100
AcDbRegAppTableRecord
  2
GEVID1210676657
 70
     0
  0
APPID
  5
511
330
9
100
AcDbSymbolTableRecord
100
AcDbRegAppTableRecord
  2
GEVID1210676659
 70
     0
  0
APPID
  5
512
330
9
100
AcDbSymbolTableRecord
100
AcDbRegAppTableRecord
  2
GEVID1210676660
 70
     0
  0
APPID
  5
513
330
9
100
AcDbSymbolTableRecord
100
AcDbRegAppTableRecord
  2
GEVID1210676661
 70
     0
  0
APPID
  5
514
330
9
100
AcDbSymbolTableRecord
100
AcDbRegAppTableRecord
  2
GEVID1210676662
 70
     0
  0
APPID
  5
515
330
9
100
AcDbSymbolTableRecord
100
AcDbRegAppTableRecord
  2
GEVID1210721646
 70
     0
  0
APPID
  5
516
330
9
100
AcDbSymbolTableRecord
100
AcDbRegAppTableRecord
  2
GEVID1210721647
 70
     0
  0
APPID
  5
517
330
9
100
AcDbSymbolTableRecord
100
AcDbRegAppTableRecord
  2
GEVID1210721648
 70
     0
  0
APPID
  5
518
330
9
100
AcDbSymbolTableRecord
100
AcDbRegAppTableRecord
  2
GEVID1210721649
 70
     0
  0
APPID
  5
519
330
9
100
AcDbSymbolTableRecord
100
AcDbRegAppTableRecord
  2
GEVID1210721650
 70
     0
  0
APPID
  5
51A
330
9
100
AcDbSymbolTableRecord
100
AcDbRegAppTableRecord
  2
GEVID1210721651
 70
     0
  0
APPID
  5
51B
330
9
100
AcDbSymbolTableRecord
100
AcDbRegAppTableRecord
  2
GEVID1210721652
 70
     0
  0
APPID
  5
51C
330
9
100
AcDbSymbolTableRecord
100
AcDbRegAppTableRecord
  2
GEVID1210721653
 70
     0
  0
APPID
  5
51D
330
9
100
AcDbSymbolTableRecord
100
AcDbRegAppTableRecord
  2
PE_URL
 70
     0
  0
APPID
  5
51E
330
9
100
AcDbSymbolTableRecord
100
AcDbRegAppTableRecord
  2
GEVID1210825555
 70
     0
  0
APPID
  5
51F
330
9
100
AcDbSymbolTableRecord
100
AcDbRegAppTableRecord
  2
GEVID1210825556
 70
     0
  0
APPID
  5
520
330
9
100
AcDbSymbolTableRecord
100
AcDbRegAppTableRecord
  2
GEVID1210825557
 70
     0
  0
APPID
  5
521
330
9
100
AcDbSymbolTableRecord
100
AcDbRegAppTableRecord
  2
GEVID1210825558
 70
     0
  0
APPID
  5
522
330
9
100
AcDbSymbolTableRecord
100
AcDbRegAppTableRecord
  2
GEVID1210825559
 70
     0
  0
APPID
  5
523
330
9
100
AcDbSymbolTableRecord
100
AcDbRegAppTableRecord
  2
GEVID1210825560
 70
     0
  0
APPID
  5
524
330
9
100
AcDbSymbolTableRecord
100
AcDbRegAppTableRecord
  2
GEVID1210825561
 70
     0
  0
APPID
  5
525
330
9
100
AcDbSymbolTableRecord
100
AcDbRegAppTableRecord
  2
GEVID1210825562
 70
     0
  0
APPID
  5
526
330
9
100
AcDbSymbolTableRecord
100
AcDbRegAppTableRecord
  2
GEVID1210825563
 70
     0
  0
APPID
  5
527
330
9
100
AcDbSymbolTableRecord
100
AcDbRegAppTableRecord
  2
GEVID1210825564
 70
     0
  0
APPID
  5
528
330
9
100
AcDbSymbolTableRecord
100
AcDbRegAppTableRecord
  2
GEVID1210825565
 70
     0
  0
APPID
  5
529
330
9
100
AcDbSymbolTableRecord
100
AcDbRegAppTableRecord
  2
GEVID1210825566
 70
     0
  0
APPID
  5
52A
330
9
100
AcDbSymbolTableRecord
100
AcDbRegAppTableRecord
  2
GEVID1210825567
 70
     0
  0
APPID
  5
52B
330
9
100
AcDbSymbolTableRecord
100
AcDbRegAppTableRecord
  2
GENIUS_GENOBJ-N-ZOO_13
 70
     0
  0
APPID
  5
52C
330
9
100
AcDbSymbolTableRecord
100
AcDbRegAppTableRecord
  2
GENIUS_GENZOO_17
 70
     0
  0
APPID
  5
52D
330
9
100
AcDbSymbolTableRecord
100
AcDbRegAppTableRecord
  2
ACADANNOTATIVEDECOMPOSITION
 70
     0
  0
APPID
  5
52E
330
9
100
AcDbSymbolTableRecord
100
AcDbRegAppTableRecord
  2
GENIUS_GENOBJ-N-HTC_13
 70
     0
  0
APPID
  5
52F
330
9
100
AcDbSymbolTableRecord
100
AcDbRegAppTableRecord
  2
GENIUS_GENHATCH_13
 70
     0
  0
APPID
  5
530
330
9
100
AcDbSymbolTableRecord
100
AcDbRegAppTableRecord
  2
GEVID1210896020
 70
     0
  0
APPID
  5
531
330
9
100
AcDbSymbolTableRecord
100
AcDbRegAppTableRecord
  2
GEVID1210896021
 70
     0
  0
APPID
  5
532
330
9
100
AcDbSymbolTableRecord
100
AcDbRegAppTableRecord
  2
GEVID1209083540
 70
     0
  0
APPID
  5
533
330
9
100
AcDbSymbolTableRecord
100
AcDbRegAppTableRecord
  2
GEVMK
 70
     0
  0
APPID
  5
534
330
9
100
AcDbSymbolTableRecord
100
AcDbRegAppTableRecord
  2
GEVID1209083542
 70
     0
  0
APPID
  5
535
330
9
100
AcDbSymbolTableRecord
100
AcDbRegAppTableRecord
  2
GEVID1209083543
 70
     0
  0
APPID
  5
536
330
9
100
AcDbSymbolTableRecord
100
AcDbRegAppTableRecord
  2
GEVID1209083544
 70
     0
  0
APPID
  5
537
330
9
100
AcDbSymbolTableRecord
100
AcDbRegAppTableRecord
  2
GEVID1209083545
 70
     0
  0
APPID
  5
538
330
9
100
AcDbSymbolTableRecord
100
AcDbRegAppTableRecord
  2
GEVID1209083546
 70
     0
  0
APPID
  5
539
330
9
100
AcDbSymbolTableRecord
100
AcDbRegAppTableRecord
  2
GEVID1209083547
 70
     0
  0
APPID
  5
53A
330
9
100
AcDbSymbolTableRecord
100
AcDbRegAppTableRecord
  2
GEVID1209083548
 70
     0
  0
APPID
  5
53B
330
9
100
AcDbSymbolTableRecord
100
AcDbRegAppTableRecord
  2
GEVID1209083549
 70
     0
  0
APPID
  5
53C
330
9
100
AcDbSymbolTableRecord
100
AcDbRegAppTableRecord
  2
GEVID1209083550
 70
     0
  0
APPID
  5
53D
330
9
100
AcDbSymbolTableRecord
100
AcDbRegAppTableRecord
  2
GEVID1209083551
 70
     0
  0
APPID
  5
53E
330
9
100
AcDbSymbolTableRecord
100
AcDbRegAppTableRecord
  2
GEVID1209083552
 70
     0
  0
APPID
  5
53F
330
9
100
AcDbSymbolTableRecord
100
AcDbRegAppTableRecord
  2
GEVID1209083553
 70
     0
  0
APPID
  5
540
330
9
100
AcDbSymbolTableRecord
100
AcDbRegAppTableRecord
  2
GEVID1210896022
 70
     0
  0
APPID
  5
541
330
9
100
AcDbSymbolTableRecord
100
AcDbRegAppTableRecord
  2
GEVID1211508364
 70
     0
  0
APPID
  5
542
330
9
100
AcDbSymbolTableRecord
100
AcDbRegAppTableRecord
  2
GEVID1211414908
 70
     0
  0
APPID
  5
543
330
9
100
AcDbSymbolTableRecord
100
AcDbRegAppTableRecord
  2
GEVID1211414909
 70
     0
  0
APPID
  5
544
330
9
100
AcDbSymbolTableRecord
100
AcDbRegAppTableRecord
  2
GEVID1211508359
 70
     0
  0
APPID
  5
545
330
9
100
AcDbSymbolTableRecord
100
AcDbRegAppTableRecord
  2
GEVID1211508360
 70
     0
  0
APPID
  5
546
330
9
100
AcDbSymbolTableRecord
100
AcDbRegAppTableRecord
  2
GEVID1211508361
 70
     0
  0
APPID
  5
547
330
9
100
AcDbSymbolTableRecord
100
AcDbRegAppTableRecord
  2
GEVID1211508362
 70
     0
  0
APPID
  5
548
330
9
100
AcDbSymbolTableRecord
100
AcDbRegAppTableRecord
  2
GEVID1211508363
 70
     0
  0
APPID
  5
549
330
9
100
AcDbSymbolTableRecord
100
AcDbRegAppTableRecord
  2
GEVID1211878469
 70
     0
  0
APPID
  5
54A
330
9
100
AcDbSymbolTableRecord
100
AcDbRegAppTableRecord
  2
GEVID1212642819
 70
     0
  0
APPID
  5
54B
330
9
100
AcDbSymbolTableRecord
100
AcDbRegAppTableRecord
  2
GEVID1212642820
 70
     0
  0
APPID
  5
54C
330
9
100
AcDbSymbolTableRecord
100
AcDbRegAppTableRecord
  2
GEVID1212642821
 70
     0
  0
APPID
  5
54D
330
9
100
AcDbSymbolTableRecord
100
AcDbRegAppTableRecord
  2
GEVID1212642822
 70
     0
  0
APPID
  5
54E
330
9
100
AcDbSymbolTableRecord
100
AcDbRegAppTableRecord
  2
GEVID1212642823
 70
     0
  0
APPID
  5
54F
330
9
100
AcDbSymbolTableRecord
100
AcDbRegAppTableRecord
  2
GEVID1212642825
 70
     0
  0
APPID
  5
550
330
9
100
AcDbSymbolTableRecord
100
AcDbRegAppTableRecord
  2
GEVID1212642826
 70
     0
  0
APPID
  5
551
330
9
100
AcDbSymbolTableRecord
100
AcDbRegAppTableRecord
  2
GEVID1212642827
 70
     0
  0
APPID
  5
552
330
9
100
AcDbSymbolTableRecord
100
AcDbRegAppTableRecord
  2
GEVID1212642828
 70
     0
  0
APPID
  5
553
330
9
100
AcDbSymbolTableRecord
100
AcDbRegAppTableRecord
  2
GEVID1212642831
 70
     0
  0
APPID
  5
554
330
9
100
AcDbSymbolTableRecord
100
AcDbRegAppTableRecord
  2
GEVID1212642834
 70
     0
  0
APPID
  5
555
330
9
100
AcDbSymbolTableRecord
100
AcDbRegAppTableRecord
  2
GEVID1212642835
 70
     0
  0
APPID
  5
556
330
9
100
AcDbSymbolTableRecord
100
AcDbRegAppTableRecord
  2
GEVID1212642836
 70
     0
  0
APPID
  5
557
330
9
100
AcDbSymbolTableRecord
100
AcDbRegAppTableRecord
  2
GEVID1212642837
 70
     0
  0
APPID
  5
558
330
9
100
AcDbSymbolTableRecord
100
AcDbRegAppTableRecord
  2
GEVID1212642839
 70
     0
  0
APPID
  5
559
330
9
100
AcDbSymbolTableRecord
100
AcDbRegAppTableRecord
  2
GEVID1212642840
 70
     0
  0
APPID
  5
55A
330
9
100
AcDbSymbolTableRecord
100
AcDbRegAppTableRecord
  2
GEVID1212642841
 70
     0
  0
APPID
  5
55B
330
9
100
AcDbSymbolTableRecord
100
AcDbRegAppTableRecord
  2
GEVID1212655312
 70
     0
  0
APPID
  5
55C
330
9
100
AcDbSymbolTableRecord
100
AcDbRegAppTableRecord
  2
GEVID1212655313
 70
     0
  0
APPID
  5
55D
330
9
100
AcDbSymbolTableRecord
100
AcDbRegAppTableRecord
  2
GEVID1212656533
 70
     0
  0
APPID
  5
55E
330
9
100
AcDbSymbolTableRecord
100
AcDbRegAppTableRecord
  2
GEVID1212656534
 70
     0
  0
APPID
  5
55F
330
9
100
AcDbSymbolTableRecord
100
AcDbRegAppTableRecord
  2
GEVID1212656535
 70
     0
  0
APPID
  5
560
330
9
100
AcDbSymbolTableRecord
100
AcDbRegAppTableRecord
  2
GEVID1212656536
 70
     0
  0
APPID
  5
561
330
9
100
AcDbSymbolTableRecord
100
AcDbRegAppTableRecord
  2
GEVID1212656538
 70
     0
  0
APPID
  5
562
330
9
100
AcDbSymbolTableRecord
100
AcDbRegAppTableRecord
  2
GEVID1212656541
 70
     0
  0
APPID
  5
563
330
9
100
AcDbSymbolTableRecord
100
AcDbRegAppTableRecord
  2
GEVID1212656543
 70
     0
  0
APPID
  5
564
330
9
100
AcDbSymbolTableRecord
100
AcDbRegAppTableRecord
  2
GENIUS_GENOBJ-F-PFASSM_13
 70
     0
  0
APPID
  5
565
330
9
100
AcDbSymbolTableRecord
100
AcDbRegAppTableRecord
  2
GEVID1212656544
 70
     0
  0
APPID
  5
566
330
9
100
AcDbSymbolTableRecord
100
AcDbRegAppTableRecord
  2
GEVID1212656545
 70
     0
  0
APPID
  5
567
330
9
100
AcDbSymbolTableRecord
100
AcDbRegAppTableRecord
  2
GEVID1212656546
 70
     0
  0
APPID
  5
568
330
9
100
AcDbSymbolTableRecord
100
AcDbRegAppTableRecord
  2
GEVID1212656547
 70
     0
  0
APPID
  5
569
330
9
100
AcDbSymbolTableRecord
100
AcDbRegAppTableRecord
  2
GEVID1212656548
 70
     0
  0
APPID
  5
56A
330
9
100
AcDbSymbolTableRecord
100
AcDbRegAppTableRecord
  2
GEVID1212656549
 70
     0
  0
APPID
  5
56B
330
9
100
AcDbSymbolTableRecord
100
AcDbRegAppTableRecord
  2
GEVID1212656550
 70
     0
  0
APPID
  5
56C
330
9
100
AcDbSymbolTableRecord
100
AcDbRegAppTableRecord
  2
GEVID1212656552
 70
     0
  0
APPID
  5
56D
330
9
100
AcDbSymbolTableRecord
100
AcDbRegAppTableRecord
  2
GEVID1212656553
 70
     0
  0
APPID
  5
56E
330
9
100
AcDbSymbolTableRecord
100
AcDbRegAppTableRecord
  2
GEVID1212656554
 70
     0
  0
APPID
  5
56F
330
9
100
AcDbSymbolTableRecord
100
AcDbRegAppTableRecord
  2
GEVID1212656555
 70
     0
  0
APPID
  5
570
330
9
100
AcDbSymbolTableRecord
100
AcDbRegAppTableRecord
  2
GEVID1212656556
 70
     0
  0
APPID
  5
571
330
9
100
AcDbSymbolTableRecord
100
AcDbRegAppTableRecord
  2
GEVID1212656557
 70
     0
  0
APPID
  5
572
330
9
100
AcDbSymbolTableRecord
100
AcDbRegAppTableRecord
  2
GEVID1212656559
 70
     0
  0
APPID
  5
573
330
9
100
AcDbSymbolTableRecord
100
AcDbRegAppTableRecord
  2
GEVID1212656560
 70
     0
  0
APPID
  5
574
330
9
100
AcDbSymbolTableRecord
100
AcDbRegAppTableRecord
  2
GEVID1212656561
 70
     0
  0
APPID
  5
575
330
9
100
AcDbSymbolTableRecord
100
AcDbRegAppTableRecord
  2
GEVID1212656562
 70
     0
  0
APPID
  5
576
330
9
100
AcDbSymbolTableRecord
100
AcDbRegAppTableRecord
  2
GEVID1212656563
 70
     0
  0
APPID
  5
577
330
9
100
AcDbSymbolTableRecord
100
AcDbRegAppTableRecord
  2
GEVID1212711781
 70
     0
  0
APPID
  5
578
330
9
100
AcDbSymbolTableRecord
100
AcDbRegAppTableRecord
  2
GEVID1212711782
 70
     0
  0
APPID
  5
579
330
9
100
AcDbSymbolTableRecord
100
AcDbRegAppTableRecord
  2
GEVID1212711783
 70
     0
  0
APPID
  5
57A
330
9
100
AcDbSymbolTableRecord
100
AcDbRegAppTableRecord
  2
GEVID1212711784
 70
     0
  0
APPID
  5
57B
330
9
100
AcDbSymbolTableRecord
100
AcDbRegAppTableRecord
  2
GEVID1212711788
 70
     0
  0
APPID
  5
57C
330
9
100
AcDbSymbolTableRecord
100
AcDbRegAppTableRecord
  2
GEVID1212711789
 70
     0
  0
APPID
  5
57D
330
9
100
AcDbSymbolTableRecord
100
AcDbRegAppTableRecord
  2
GEVID1212711790
 70
     0
  0
APPID
  5
57E
330
9
100
AcDbSymbolTableRecord
100
AcDbRegAppTableRecord
  2
GEVID1212711791
 70
     0
  0
APPID
  5
57F
330
9
100
AcDbSymbolTableRecord
100
AcDbRegAppTableRecord
  2
GEVID1212711792
 70
     0
  0
APPID
  5
580
330
9
100
AcDbSymbolTableRecord
100
AcDbRegAppTableRecord
  2
GEVID1212711793
 70
     0
  0
APPID
  5
581
330
9
100
AcDbSymbolTableRecord
100
AcDbRegAppTableRecord
  2
GEVID1212711794
 70
     0
  0
APPID
  5
582
330
9
100
AcDbSymbolTableRecord
100
AcDbRegAppTableRecord
  2
GEVID1212711795
 70
     0
  0
APPID
  5
583
330
9
100
AcDbSymbolTableRecord
100
AcDbRegAppTableRecord
  2
GEVID1212711797
 70
     0
  0
APPID
  5
584
330
9
100
AcDbSymbolTableRecord
100
AcDbRegAppTableRecord
  2
GEVID1212711798
 70
     0
  0
APPID
  5
585
330
9
100
AcDbSymbolTableRecord
100
AcDbRegAppTableRecord
  2
GEVID1212711799
 70
     0
  0
APPID
  5
586
330
9
100
AcDbSymbolTableRecord
100
AcDbRegAppTableRecord
  2
GEVID1212711800
 70
     0
  0
APPID
  5
587
330
9
100
AcDbSymbolTableRecord
100
AcDbRegAppTableRecord
  2
GEVID1212711801
 70
     0
  0
APPID
  5
588
330
9
100
AcDbSymbolTableRecord
100
AcDbRegAppTableRecord
  2
GEVID1212711802
 70
     0
  0
APPID
  5
589
330
9
100
AcDbSymbolTableRecord
100
AcDbRegAppTableRecord
  2
GEVID1212711803
 70
     0
  0
APPID
  5
58A
330
9
100
AcDbSymbolTableRecord
100
AcDbRegAppTableRecord
  2
GEVID1212711804
 70
     0
  0
APPID
  5
58B
330
9
100
AcDbSymbolTableRecord
100
AcDbRegAppTableRecord
  2
GEVID1212711805
 70
     0
  0
APPID
  5
58C
330
9
100
AcDbSymbolTableRecord
100
AcDbRegAppTableRecord
  2
GEVID1212711806
 70
     0
  0
APPID
  5
58D
330
9
100
AcDbSymbolTableRecord
100
AcDbRegAppTableRecord
  2
GEVID1212711807
 70
     0
  0
APPID
  5
58E
330
9
100
AcDbSymbolTableRecord
100
AcDbRegAppTableRecord
  2
GEVID1212711808
 70
     0
  0
APPID
  5
58F
330
9
100
AcDbSymbolTableRecord
100
AcDbRegAppTableRecord
  2
GEVID1212711809
 70
     0
  0
APPID
  5
590
330
9
100
AcDbSymbolTableRecord
100
AcDbRegAppTableRecord
  2
GEVID1212711810
 70
     0
  0
APPID
  5
591
330
9
100
AcDbSymbolTableRecord
100
AcDbRegAppTableRecord
  2
GEVID1212711811
 70
     0
  0
APPID
  5
90A
330
9
100
AcDbSymbolTableRecord
100
AcDbRegAppTableRecord
  2
GENIUS_GENTRA_14
 70
     0
  0
APPID
  5
919
330
9
100
AcDbSymbolTableRecord
100
AcDbRegAppTableRecord
  2
GENIUS_GENOBJ-N-TIT_13
 70
     0
  0
APPID
  5
91A
330
9
100
AcDbSymbolTableRecord
100
AcDbRegAppTableRecord
  2
GENIUS_GENTITLE_13
 70
     0
  0
APPID
  5
949
330
9
100
AcDbSymbolTableRecord
100
AcDbRegAppTableRecord
  2
GENIUS_GENBLLY_14
 70
     0
  0
APPID
  5
DDD
330
9
100
AcDbSymbolTableRecord
100
AcDbRegAppTableRecord
  2
GEVID1213165152
 70
     0
  0
APPID
  5
12F9
330
9
100
AcDbSymbolTableRecord
100
AcDbRegAppTableRecord
  2
AcDbDynamicBlockTrueName
 70
     0
  0
APPID
  5
12FA
330
9
100
AcDbSymbolTableRecord
100
AcDbRegAppTableRecord
  2
ACDBBLOCKREPETAG
 70
     0
  0
APPID
  5
1C15
330
9
100
AcDbSymbolTableRecord
100
AcDbRegAppTableRecord
  2
GEVID1214872427
 70
     0
  0
APPID
  5
1C2A
330
9
100
AcDbSymbolTableRecord
100
AcDbRegAppTableRecord
  2
GEVID1214872428
 70
     0
  0
APPID
  5
1C2F
330
9
100
AcDbSymbolTableRecord
100
AcDbRegAppTableRecord
  2
GEVID1214872429
 70
     0
  0
APPID
  5
1C33
330
9
100
AcDbSymbolTableRecord
100
AcDbRegAppTableRecord
  2
GEVID1214872430
 70
     0
  0
APPID
  5
1C3F
330
9
100
AcDbSymbolTableRecord
100
AcDbRegAppTableRecord
  2
GEVID1214872432
 70
     0
  0
APPID
  5
1C4E
330
9
100
AcDbSymbolTableRecord
100
AcDbRegAppTableRecord
  2
GEVID1214872433
 70
     0
  0
APPID
  5
20DC
330
9
100
AcDbSymbolTableRecord
100
AcDbRegAppTableRecord
  2
AcDbDynamicBlockGUID
 70
     0
  0
APPID
  5
20FD
330
9
100
AcDbSymbolTableRecord
100
AcDbRegAppTableRecord
  2
GENIUS_GENOBJ-N-REV_13
 70
     0
  0
APPID
  5
20FE
330
9
100
AcDbSymbolTableRecord
100
AcDbRegAppTableRecord
  2
GENIUS_GENOBJ-N-RSSYM_13
 70
     0
  0
APPID
  5
20FF
330
9
100
AcDbSymbolTableRecord
100
AcDbRegAppTableRecord
  2
GENIUS_GENSYMENT_13
 70
     0
  0
APPID
  5
2100
330
9
100
AcDbSymbolTableRecord
100
AcDbRegAppTableRecord
  2
GENIUS_GENSCSYM_13
 70
     0
  0
APPID
  5
5D59
330
9
100
AcDbSymbolTableRecord
100
AcDbRegAppTableRecord
  2
GEVID1242116642
 70
     0
  0
APPID
  5
5D5E
330
9
100
AcDbSymbolTableRecord
100
AcDbRegAppTableRecord
  2
GEVID1242116643
 70
     0
  0
APPID
  5
5F9B
330
9
100
AcDbSymbolTableRecord
100
AcDbRegAppTableRecord
  2
GEVID1242116644
 70
     0
  0
APPID
  5
5F9F
330
9
100
AcDbSymbolTableRecord
100
AcDbRegAppTableRecord
  2
GEVID1242116645
 70
     0
  0
APPID
  5
9417
330
9
100
AcDbSymbolTableRecord
100
AcDbRegAppTableRecord
  2
ACAD_DSTYLE_DIMANGULAR_EXTENSION
 70
     0
  0
ENDTAB
  0
TABLE
  2
DIMSTYLE
  5
A
330
0
100
AcDbSymbolTable
 70
    23
100
AcDbDimStyleTable
 71
     1
340
5AB
  0
DIMSTYLE
105
5AB
330
A
100
AcDbSymbolTableRecord
100
AcDbDimStyleTableRecord
  2
SEISA
 70
     0
  4
"
 40
3.0
 41
2.5
 42
0.625
 43
10.0
 44
0.625
 47
0.1
 48
0.1
 73
     0
 74
     0
 77
     3
 78
     8
 79
     2
 90
     1
140
3.5
141
0.0
143
0.0393701
146
0.71
147
1.5
172
     1
176
     3
177
     3
178
     3
271
     2
272
     2
283
     0
286
     8
340
5D5
341
69
342
69
371
    -1
372
    -1
1001
ACAD_DSTYLE_DIMJAG
1070
   388
1040
1.5
1001
ACAD_DSTYLE_DIMTALN
1070
   392
1070
     1
  0
DIMSTYLE
105
5E9
102
{ACAD_REACTORS
330
6106
330
6140
330
61A0
330
61C0
330
6213
330
622B
330
6243
330
631B
330
636F
330
6606
330
6636
330
835B
330
83AB
330
9A09
330
65EE
330
664E
330
9B72
330
9E55
330
9EAC
330
9F1E
102
}
330
A
100
AcDbSymbolTableRecord
100
AcDbDimStyleTableRecord
  2
SEISA$0
 70
     0
  4
"
 40
3.0
 41
2.5
 42
0.625
 43
10.0
 44
0.625
 47
0.1
 48
0.1
 73
     0
 74
     0
 77
     3
 78
     8
 79
     2
 90
     1
140
3.5
141
0.0
143
0.0393701
146
0.71
147
1.5
172
     1
176
     3
177
     3
178
     3
271
     2
272
     2
283
     0
286
     8
340
5D5
341
69
342
69
371
    -1
372
    -1
  0
DIMSTYLE
105
A20F
330
A
100
AcDbSymbolTableRecord
100
AcDbDimStyleTableRecord
  2
AM_ISO
 70
     0
  4
"
 41
2.5
 42
1.0
 43
10.0
 44
1.0
 47
0.1
 48
0.1
 73
     0
 74
     0
 77
     1
 78
     8
 79
     2
 90
     1
140
3.5
141
0.0
143
0.0393701
146
0.71
147
1.5
172
     1
176
   256
177
   256
178
     2
271
     2
272
     3
274
     4
283
     0
284
     8
340
11
371
    -1
372
    -1
  0
DIMSTYLE
105
A210
330
A
100
AcDbSymbolTableRecord
100
AcDbDimStyleTableRecord
  2
AM_ISO$3
 70
     0
  4
"
 41
2.5
 42
1.0
 43
10.0
 44
1.0
 47
0.1
 48
0.1
 73
     0
 77
     1
 78
     8
 79
     2
 90
     1
140
3.5
141
0.0
143
0.0393701
146
0.71
147
1.5
176
   256
177
   256
178
     2
271
     2
272
     3
274
     4
283
     0
284
     8
288
     1
289
     0
340
11
371
    -1
372
    -1
  0
DIMSTYLE
105
A211
330
A
100
AcDbSymbolTableRecord
100
AcDbDimStyleTableRecord
  2
AM_ISO$4
 70
     0
  4
"
 41
2.5
 42
1.0
 43
10.0
 44
1.0
 47
0.1
 48
0.1
 73
     0
 77
     1
 78
     8
 79
     2
 90
     1
140
3.5
141
0.0
143
0.0393701
146
0.71
147
1.5
176
   256
177
   256
178
     2
271
     2
272
     3
274
     4
283
     0
284
     8
288
     1
289
     0
340
11
371
    -1
372
    -1
  0
DIMSTYLE
105
A212
330
A
100
AcDbSymbolTableRecord
100
AcDbDimStyleTableRecord
  2
AM_ISO$6
 70
     0
  4
"
 41
2.5
 42
1.0
 43
10.0
 44
1.0
 47
0.1
 48
0.1
 73
     0
 74
     0
 78
     8
 79
     2
 90
     1
140
3.5
141
0.0
143
0.0393701
146
0.71
147
1.5
172
     1
176
   256
177
   256
178
     2
271
     2
272
     3
274
     4
283
     0
284
     8
340
11
371
    -1
372
    -1
  0
DIMSTYLE
105
A213
330
A
100
AcDbSymbolTableRecord
100
AcDbDimStyleTableRecord
  2
AM_ISO$7
 70
     0
  4
"
 41
2.5
 42
1.0
 43
10.0
 44
1.0
 47
0.1
 48
0.1
 73
     0
 74
     0
 77
     1
 78
     8
 79
     2
 90
     1
140
5.0
141
0.0
143
0.0393701
146
0.71
147
1.5
172
     1
176
   256
177
   256
178
     2
271
     2
272
     3
274
     4
283
     0
284
     8
340
11
371
    -1
372
    -1
  0
DIMSTYLE
105
A214
330
A
100
AcDbSymbolTableRecord
100
AcDbDimStyleTableRecord
  2
AM_ISO$SF
 70
     0
  4
"
 41
2.5
 42
1.0
 43
10.0
 44
1.0
 47
0.1
 48
0.1
 73
     0
 74
     0
 75
     1
 76
     1
 77
     1
 78
     8
 79
     2
 90
     1
140
3.5
141
0.0
143
0.0393701
146
0.71
147
1.5
172
     1
176
   256
177
   256
178
     2
271
     2
272
     3
274
     4
283
     0
284
     8
340
11
371
    -1
372
    -1
  0
DIMSTYLE
105
A215
330
A
100
AcDbSymbolTableRecord
100
AcDbDimStyleTableRecord
  2
AM_ISO$SH
 70
     0
  4
"
 41
2.5
 42
1.0
 43
10.0
 44
1.0
 47
0.1
 48
0.1
 73
     0
 74
     0
 75
     1
 76
     1
 77
     1
 78
     8
 79
     2
 90
     1
140
3.5
141
0.0
143
0.0393701
144
2.0
146
0.71
147
1.5
172
     1
173
     1
176
   256
177
   256
178
     2
271
     2
272
     3
274
     4
283
     0
284
     8
340
11
343
74
371
    -1
372
    -1
  0
ENDTAB
  0
TABLE
  2
BLOCK_RECORD
  5
1
330
0
100
AcDbSymbolTable
 70
    38
  0
BLOCK_RECORD
  5
1F
102
{ACAD_XDICTIONARY
360
82
102
}
330
1
100
AcDbSymbolTableRecord
100
AcDbBlockTableRecord
  2
*Model_Space
340
22
 70
     0
280
     1
281
     0
  0
BLOCK_RECORD
  5
1B
330
1
100
AcDbSymbolTableRecord
100
AcDbBlockTableRecord
  2
*Paper_Space
340
1E
 70
     0
280
     1
281
     0
  0
BLOCK_RECORD
  5
23
330
1
100
AcDbSymbolTableRecord
100
AcDbBlockTableRecord
  2
*Paper_Space0
340
26
 70
     0
280
     1
281
     0
  0
BLOCK_RECORD
  5
69
330
1
100
AcDbSymbolTableRecord
100
AcDbBlockTableRecord
  2
_Open30
340
0
102
{BLKREFS
331
9031
331
9032
331
904E
331
904F
331
905F
331
9060
331
9071
331
9072
331
9088
331
9093
331
90C5
331
90C6
331
90CE
331
90CF
331
90DF
331
90E0
331
90E8
331
90E9
331
9112
331
911D
331
9A7D
331
9A7E
331
9ADE
331
9ADF
331
9B9E
331
9B9F
331
9F05
331
9F06
331
9F0E
331
9F0F
331
9F19
331
9F1A
331
9F4A
331
9F4B
331
9F56
331
9F57
102
}
 70
     0
280
     1
281
     0
  0
BLOCK_RECORD
  5
74
330
1
100
AcDbSymbolTableRecord
100
AcDbBlockTableRecord
  2
GENAXEH
340
0
 70
     0
280
     1
281
     0
  0
BLOCK_RECORD
  5
420F
102
{ACAD_XDICTIONARY
360
4210
102
}
330
1
100
AcDbSymbolTableRecord
100
AcDbBlockTableRecord
  2
ロッカクアナツキプラグ-1　R1／8
340
0
310
2800000020000000200000000100080000000000000400000000000000000000000000000000000000000000000080000080000000808000800000008000800080800000C0C0C000C0DCC000F0CAA6000020400000206000002080000020A0000020C0000020E00000400000004020000040400000406000004080000040A0
310
000040C0000040E00000600000006020000060400000606000006080000060A0000060C0000060E00000800000008020000080400000806000008080000080A0000080C0000080E00000A0000000A0200000A0400000A0600000A0800000A0A00000A0C00000A0E00000C0000000C0200000C0400000C0600000C0800000C0
310
A00000C0C00000C0E00000E0000000E0200000E0400000E0600000E0800000E0A00000E0C00000E0E00040000000400020004000400040006000400080004000A0004000C0004000E00040200000402020004020400040206000402080004020A0004020C0004020E000404000004040200040404000404060004040800040
310
40A0004040C0004040E00040600000406020004060400040606000406080004060A0004060C0004060E00040800000408020004080400040806000408080004080A0004080C0004080E00040A0000040A0200040A0400040A0600040A0800040A0A00040A0C00040A0E00040C0000040C0200040C0400040C0600040C08000
310
40C0A00040C0C00040C0E00040E0000040E0200040E0400040E0600040E0800040E0A00040E0C00040E0E00080000000800020008000400080006000800080008000A0008000C0008000E00080200000802020008020400080206000802080008020A0008020C0008020E00080400000804020008040400080406000804080
310
008040A0008040C0008040E00080600000806020008060400080606000806080008060A0008060C0008060E00080800000808020008080400080806000808080008080A0008080C0008080E00080A0000080A0200080A0400080A0600080A0800080A0A00080A0C00080A0E00080C0000080C0200080C0400080C0600080C0
310
800080C0A00080C0C00080C0E00080E0000080E0200080E0400080E0600080E0800080E0A00080E0C00080E0E000C0000000C0002000C0004000C0006000C0008000C000A000C000C000C000E000C0200000C0202000C0204000C0206000C0208000C020A000C020C000C020E000C0400000C0402000C0404000C0406000C0
310
408000C040A000C040C000C040E000C0600000C0602000C0604000C0606000C0608000C060A000C060C000C060E000C0800000C0802000C0804000C0806000C0808000C080A000C080C000C080E000C0A00000C0A02000C0A04000C0A06000C0A08000C0A0A000C0A0C000C0A0E000C0C00000C0C02000C0C04000C0C06000
310
C0C08000C0C0A000F0FBFF00A4A0A000808080000000FF0000FF000000FFFF00FF000000FF00FF00FFFF0000FFFFFF000000000000000000000000000000000000000000000000000000000000000000000000000000000000000000000000F900000000000000000000000000000000000000000000000000000000000000
310
F900000000000000000000000000000000000000000000000000000000000000F9000000000000000000000000000000000000000000000000000000000000FEFE00000000000000000000000000000000000000000000000000000000FEFEFFFFFEFEFEFEFE000000000000000000000000000000000000000000FEFEFFFF
310
00F90000FFFF00FE000000000000000000000000000000000000FEFEFFFF000000F900000000FFFFFE00000000000000000000000000000000FE00FF0000000000F9000000000000FFFEFE00000000000000000000000000FE00FF000000000000F900000000000000FFFE00000000000000000000000000FE00FF00000000
310
0000FF0000000000000000FFFE0000000000000000000000FE00FF0000000000FFFFF9FFFF000000000000FFFE0000000000000000000000FE00FF00000000FF0000F90000FFFF0000000000FFFE00000000000000000000FEFF00000000FF000000F900000000FF00000000FFFE00000000000000000000FEFF00000000FF
310
000000F900000000FF00000000FFFE00000000000000000000FE0000000000FF000000F900000000FF0000000000FFFE0000000000F9F9F9F9FEF9F9F9F9F9FFF9F9F9F9F9F9F9F9FFF9F9F9F9F9FFFEF9F9F9000000000000FEFF00000000FF000000F900000000FF0000000000FFFE000000000000000000FEFF00000000
310
FF000000F900000000FF00000000FFFE00000000000000000000FE00FF00000000FFFF00F90000FFFF0000000000FFFE00000000000000000000FE00FF000000000000FFF9FFFF000000000000FFFE000000000000000000000000FE00FF000000000000FF0000000000000000FFFE000000000000000000000000FE00FF00
310
0000000000F900000000000000FFFE0000000000000000000000000000FE00FF0000000000F9000000000000FF00FE000000000000000000000000000000FE00FF00000000F90000000000FFFEFE0000000000000000000000000000000000FEFEFFFF0000F9000000FFFFFE00000000000000000000000000000000000000
310
0000FEFEFEFFFFFFFEFEFEFE00000000000000000000000000000000000000000000000000FEFEFE000000000000000000000000000000000000000000000000000000000000F900000000000000000000000000000000000000000000000000000000000000F9000000000000000000000000000000000000000000000000
310
00000000000000F9000000000000000000000000000000000000000000000000000000000000000000000000000000000000000000000000
102
{BLKREFS
331
516A
102
}
 70
     4
280
     1
281
     0
  0
BLOCK_RECORD
  5
43A1
330
1
100
AcDbSymbolTableRecord
100
AcDbBlockTableRecord
  2
GENDOT
340
0
102
{BLKREFS
331
9087
331
9092
331
9111
331
911C
102
}
 70
     0
280
     1
281
     0
  0
BLOCK_RECORD
  5
4441
102
{ACAD_XDICTIONARY
360
501D
102
}
330
1
100
AcDbSymbolTableRecord
100
AcDbBlockTableRecord
  2
ロッカクアナツキプラグ-2　R1／8
340
0
310
2800000020000000200000000100080000000000000400000000000000000000000000000000000000000000000080000080000000808000800000008000800080800000C0C0C000C0DCC000F0CAA6000020400000206000002080000020A0000020C0000020E00000400000004020000040400000406000004080000040A0
310
000040C0000040E00000600000006020000060400000606000006080000060A0000060C0000060E00000800000008020000080400000806000008080000080A0000080C0000080E00000A0000000A0200000A0400000A0600000A0800000A0A00000A0C00000A0E00000C0000000C0200000C0400000C0600000C0800000C0
310
A00000C0C00000C0E00000E0000000E0200000E0400000E0600000E0800000E0A00000E0C00000E0E00040000000400020004000400040006000400080004000A0004000C0004000E00040200000402020004020400040206000402080004020A0004020C0004020E000404000004040200040404000404060004040800040
310
40A0004040C0004040E00040600000406020004060400040606000406080004060A0004060C0004060E00040800000408020004080400040806000408080004080A0004080C0004080E00040A0000040A0200040A0400040A0600040A0800040A0A00040A0C00040A0E00040C0000040C0200040C0400040C0600040C08000
310
40C0A00040C0C00040C0E00040E0000040E0200040E0400040E0600040E0800040E0A00040E0C00040E0E00080000000800020008000400080006000800080008000A0008000C0008000E00080200000802020008020400080206000802080008020A0008020C0008020E00080400000804020008040400080406000804080
310
008040A0008040C0008040E00080600000806020008060400080606000806080008060A0008060C0008060E00080800000808020008080400080806000808080008080A0008080C0008080E00080A0000080A0200080A0400080A0600080A0800080A0A00080A0C00080A0E00080C0000080C0200080C0400080C0600080C0
310
800080C0A00080C0C00080C0E00080E0000080E0200080E0400080E0600080E0800080E0A00080E0C00080E0E000C0000000C0002000C0004000C0006000C0008000C000A000C000C000C000E000C0200000C0202000C0204000C0206000C0208000C020A000C020C000C020E000C0400000C0402000C0404000C0406000C0
310
408000C040A000C040C000C040E000C0600000C0602000C0604000C0606000C0608000C060A000C060C000C060E000C0800000C0802000C0804000C0806000C0808000C080A000C080C000C080E000C0A00000C0A02000C0A04000C0A06000C0A08000C0A0A000C0A0C000C0A0E000C0C00000C0C02000C0C04000C0C06000
310
C0C08000C0C0A000F0FBFF00A4A0A000808080000000FF0000FF000000FFFF00FF000000FF00FF00FFFF0000FFFFFF000000000000000000000000000000000000000000000000000000000000000000000000000000000000000000000000F900000000000000000000000000000000000000000000000000000000000000
310
F900000000000000000000000000000000000000000000000000000000000000F9000000000000000000000000000000000000000000000000000000000000FEFE00000000000000000000000000000000000000000000000000000000FEFEFFFFFEFEFEFEFE000000000000000000000000000000000000000000FEFEFFFF
310
00F90000FFFF00FE000000000000000000000000000000000000FEFEFFFF000000F900000000FFFFFE00000000000000000000000000000000FE00FF0000000000F9000000000000FFFEFE00000000000000000000000000FE00FF000000000000F900000000000000FFFE00000000000000000000000000FE00FF00000000
310
0000FF0000000000000000FFFE0000000000000000000000FE00FF000000000000FFF9FFFF000000000000FFFE0000000000000000000000FE00FF00000000FFFF00F90000FFFF0000000000FFFE00000000000000000000FEFF00000000FF000000F900000000FF00000000FFFE00000000000000000000FEFF00000000FF
310
000000F900000000FF00000000FFFE00000000000000000000FE0000000000FF000000F900000000FF0000000000FFFE0000000000F9F9F9F9FEF9F9F9F9F9FFF9F9F9F9F9F9F9F9FFF9F9F9F9F9F9FEF9F9F9000000000000FEFF00000000FF000000F900000000FF0000000000FFFE000000000000000000FEFF00000000
310
FF000000F900000000FF00000000FFFE00000000000000000000FE00FF00000000FF0000F90000FFFF0000000000FFFE00000000000000000000FE00FF0000000000FFFFF9FFFF000000000000FFFE000000000000000000000000FE00FF000000000000FF0000000000000000FFFE000000000000000000000000FE00FF00
310
0000000000F900000000000000FFFE0000000000000000000000000000FE00FF0000000000F9000000000000FF00FE000000000000000000000000000000FE00FF00000000F90000000000FFFEFE0000000000000000000000000000000000FEFEFFFF0000F9000000FFFFFE00000000000000000000000000000000000000
310
0000FEFEFEFFFFFFFEFEFEFE00000000000000000000000000000000000000000000000000FEFEFE000000000000000000000000000000000000000000000000000000000000F900000000000000000000000000000000000000000000000000000000000000F9000000000000000000000000000000000000000000000000
310
00000000000000F9000000000000000000000000000000000000000000000000000000000000000000000000000000000000000000000000
102
{BLKREFS
331
542C
102
}
 70
     4
280
     1
281
     0
  0
BLOCK_RECORD
  5
5133
102
{ACAD_XDICTIONARY
360
51E5
102
}
330
1
100
AcDbSymbolTableRecord
100
AcDbBlockTableRecord
  2
ケースＡ-1 SAM224
340
0
310
2800000020000000200000000100080000000000000400000000000000000000000000000000000000000000000080000080000000808000800000008000800080800000C0C0C000C0DCC000F0CAA6000020400000206000002080000020A0000020C0000020E00000400000004020000040400000406000004080000040A0
310
000040C0000040E00000600000006020000060400000606000006080000060A0000060C0000060E00000800000008020000080400000806000008080000080A0000080C0000080E00000A0000000A0200000A0400000A0600000A0800000A0A00000A0C00000A0E00000C0000000C0200000C0400000C0600000C0800000C0
310
A00000C0C00000C0E00000E0000000E0200000E0400000E0600000E0800000E0A00000E0C00000E0E00040000000400020004000400040006000400080004000A0004000C0004000E00040200000402020004020400040206000402080004020A0004020C0004020E000404000004040200040404000404060004040800040
310
40A0004040C0004040E00040600000406020004060400040606000406080004060A0004060C0004060E00040800000408020004080400040806000408080004080A0004080C0004080E00040A0000040A0200040A0400040A0600040A0800040A0A00040A0C00040A0E00040C0000040C0200040C0400040C0600040C08000
310
40C0A00040C0C00040C0E00040E0000040E0200040E0400040E0600040E0800040E0A00040E0C00040E0E00080000000800020008000400080006000800080008000A0008000C0008000E00080200000802020008020400080206000802080008020A0008020C0008020E00080400000804020008040400080406000804080
310
008040A0008040C0008040E00080600000806020008060400080606000806080008060A0008060C0008060E00080800000808020008080400080806000808080008080A0008080C0008080E00080A0000080A0200080A0400080A0600080A0800080A0A00080A0C00080A0E00080C0000080C0200080C0400080C0600080C0
310
800080C0A00080C0C00080C0E00080E0000080E0200080E0400080E0600080E0800080E0A00080E0C00080E0E000C0000000C0002000C0004000C0006000C0008000C000A000C000C000C000E000C0200000C0202000C0204000C0206000C0208000C020A000C020C000C020E000C0400000C0402000C0404000C0406000C0
310
408000C040A000C040C000C040E000C0600000C0602000C0604000C0606000C0608000C060A000C060C000C060E000C0800000C0802000C0804000C0806000C0808000C080A000C080C000C080E000C0A00000C0A02000C0A04000C0A06000C0A08000C0A0A000C0A0C000C0A0E000C0C00000C0C02000C0C04000C0C06000
310
C0C08000C0C0A000F0FBFF00A4A0A000808080000000FF0000FF000000FFFF00FF000000FF00FF00FFFF0000FFFFFF00000000000000000000000000000000000000000000000000000000000000000000000000000000000000000000FFFFFF0000000000000000000000000000000000000000000000000000000000FF00
310
FF0000000000000000000000000000000000000000000000000000000000FF00FF0000000000000000000000000000000000000000000000000000000000FF00FF0000000000000000000000000000000000000000000000000000000000FF00FFFFFFFFFFFFFF0000000000000000000000000000000000000000000000FF
310
FEFF0000000000FF0000000000000000000000000000000000000000000000FEFFFE0000000000FF0000000000000000000000000000000000000000000000FFFEFF0000000000FF0000000000000000000000000000000000000000000000FF00FF0000000000FF0000000000000000000000000000000000000000000000
310
FF00FF0000000000FF0000000000000000000000000000000000000000000000FF00FF0000000000FF0000000000000000000000000000000000000000000000FF00FF0000000000FF0000000000000000000000000000000000000000000000FF00FF0000000000FF00000000000000000000000000000000000000000000
310
00FF00FF0000000000FF0000000000000000000000000000000000000000000000FF00FF0000000000FF00000000000000000000000000000000000000000000000000000000000000000000000000000000000000000000000000000000000000000000000000000000000000000000000000000000000000000000000000
310
00000000000000000000000000000000000000000000000000000000000000000000000000000000000000000000000000000000000000000000000000000000000000000000000000000000000000000000000000000000000000000000000000000000000000000000000000000000000000000000000000000000000000
310
000000000000000000000000000000000000000000000000000000000000000000000000000000000000000000000000000000000000000000000000000000000000000000000000000000000000000000000000000000000000000000000000000000FF00F9FFA4A4FFFFFF00000000000000000000000000000000000000
310
000000FFFFFFFFFFFFFFFFFFFF0000000000000000000000000000000000000000000000FF00FF0000000000000000000000000000000000000000000000000000F9F9F9FFF9FFF9F9F9000000000000000000000000000000000000000000000000FFFFFFFFFF000000000000000000000000000000000000000000000000
310
0000000000FFFFFF000000000000000000000000000000000000000000000000000000000000000000000000000000000000000000000000
102
{BLKREFS
331
516B
102
}
 70
     4
280
     1
281
     0
  0
BLOCK_RECORD
  5
5286
102
{ACAD_XDICTIONARY
360
5349
102
}
330
1
100
AcDbSymbolTableRecord
100
AcDbBlockTableRecord
  2
ケースＡ-2 SAM224
340
0
310
2800000020000000200000000100080000000000000400000000000000000000000000000000000000000000000080000080000000808000800000008000800080800000C0C0C000C0DCC000F0CAA6000020400000206000002080000020A0000020C0000020E00000400000004020000040400000406000004080000040A0
310
000040C0000040E00000600000006020000060400000606000006080000060A0000060C0000060E00000800000008020000080400000806000008080000080A0000080C0000080E00000A0000000A0200000A0400000A0600000A0800000A0A00000A0C00000A0E00000C0000000C0200000C0400000C0600000C0800000C0
310
A00000C0C00000C0E00000E0000000E0200000E0400000E0600000E0800000E0A00000E0C00000E0E00040000000400020004000400040006000400080004000A0004000C0004000E00040200000402020004020400040206000402080004020A0004020C0004020E000404000004040200040404000404060004040800040
310
40A0004040C0004040E00040600000406020004060400040606000406080004060A0004060C0004060E00040800000408020004080400040806000408080004080A0004080C0004080E00040A0000040A0200040A0400040A0600040A0800040A0A00040A0C00040A0E00040C0000040C0200040C0400040C0600040C08000
310
40C0A00040C0C00040C0E00040E0000040E0200040E0400040E0600040E0800040E0A00040E0C00040E0E00080000000800020008000400080006000800080008000A0008000C0008000E00080200000802020008020400080206000802080008020A0008020C0008020E00080400000804020008040400080406000804080
310
008040A0008040C0008040E00080600000806020008060400080606000806080008060A0008060C0008060E00080800000808020008080400080806000808080008080A0008080C0008080E00080A0000080A0200080A0400080A0600080A0800080A0A00080A0C00080A0E00080C0000080C0200080C0400080C0600080C0
310
800080C0A00080C0C00080C0E00080E0000080E0200080E0400080E0600080E0800080E0A00080E0C00080E0E000C0000000C0002000C0004000C0006000C0008000C000A000C000C000C000E000C0200000C0202000C0204000C0206000C0208000C020A000C020C000C020E000C0400000C0402000C0404000C0406000C0
310
408000C040A000C040C000C040E000C0600000C0602000C0604000C0606000C0608000C060A000C060C000C060E000C0800000C0802000C0804000C0806000C0808000C080A000C080C000C080E000C0A00000C0A02000C0A04000C0A06000C0A08000C0A0A000C0A0C000C0A0E000C0C00000C0C02000C0C04000C0C06000
310
C0C08000C0C0A000F0FBFF00A4A0A000808080000000FF0000FF000000FFFF00FF000000FF00FF00FFFF0000FFFFFF00000000000000000000000000000000000000000000000000000000000000000000000000000000000000000000000000FFFFFF00000000000000000000000000000000000000000000000000000000
310
00FF00FF0000000000000000000000000000000000000000000000000000000000FF00FF0000000000000000000000000000000000000000000000000000000000FF00FF0000000000000000000000000000000000000000000000FFFFFFFFFFFFFF00FF0000000000000000000000000000000000000000000000FF000000
310
0000FF00FF0000000000000000000000000000000000000000000000FF0000000000FF00FF0000000000000000000000000000000000000000000000FF0000000000FF00FF0000000000000000000000000000000000000000000000FF0000000000FF00FF0000000000000000000000000000000000000000000000FF0000
310
000000FF00FF0000000000000000000000000000000000000000000000FF0000000000FF00FF0000000000000000000000000000000000000000000000FF0000000000FF00FF0000000000000000000000000000000000000000000000FF0000000000FF00FF0000000000000000000000000000000000000000000000FF00
310
00000000FF00FF0000000000000000000000000000000000000000000000FF0000000000FF00FF00000000000000000000000000000000000000000000000000000000000000000000000000000000000000000000000000000000000000000000000000000000000000000000000000000000000000000000000000000000
310
00000000000000000000000000000000000000000000000000000000000000000000000000000000000000000000000000000000000000000000000000000000000000000000000000000000000000000000000000000000000000000000000000000000000000000000000000000000000000000000000000000000000000
310
FAFAFAFAFA00000000000000000000000000000000000000000000000000000000FAFAFAFA00000000000000000000000000000000000000000000000000000000FAFA00FA000000000000000000000000000000000000000000000000000000FFFFFFA4A4FFF90000FF000000000000000000000000000000000000000000
310
00FFFFFFFFFFFFFFFFFFFF00000000000000000000000000000000000000000000000000000000FF00FF000000000000000000000000000000000000000000000000000000F9F9FFFFFFFFFFF90000000000000000000000000000000000000000000000000000FFFFFFFFFF00000000000000000000000000000000000000
310
0000000000000000FFFFFF000000000000000000000000000000000000000000000000000000000000000000000000000000000000000000
102
{BLKREFS
331
52BE
102
}
 70
     4
280
     1
281
     0
  0
BLOCK_RECORD
  5
548F
102
{ACAD_XDICTIONARY
360
6F4E
102
}
330
1
100
AcDbSymbolTableRecord
100
AcDbBlockTableRecord
  2
センタ-1 SAM224
340
0
310
2800000020000000200000000100080000000000000400000000000000000000000000000000000000000000000080000080000000808000800000008000800080800000C0C0C000C0DCC000F0CAA6000020400000206000002080000020A0000020C0000020E00000400000004020000040400000406000004080000040A0
310
000040C0000040E00000600000006020000060400000606000006080000060A0000060C0000060E00000800000008020000080400000806000008080000080A0000080C0000080E00000A0000000A0200000A0400000A0600000A0800000A0A00000A0C00000A0E00000C0000000C0200000C0400000C0600000C0800000C0
310
A00000C0C00000C0E00000E0000000E0200000E0400000E0600000E0800000E0A00000E0C00000E0E00040000000400020004000400040006000400080004000A0004000C0004000E00040200000402020004020400040206000402080004020A0004020C0004020E000404000004040200040404000404060004040800040
310
40A0004040C0004040E00040600000406020004060400040606000406080004060A0004060C0004060E00040800000408020004080400040806000408080004080A0004080C0004080E00040A0000040A0200040A0400040A0600040A0800040A0A00040A0C00040A0E00040C0000040C0200040C0400040C0600040C08000
310
40C0A00040C0C00040C0E00040E0000040E0200040E0400040E0600040E0800040E0A00040E0C00040E0E00080000000800020008000400080006000800080008000A0008000C0008000E00080200000802020008020400080206000802080008020A0008020C0008020E00080400000804020008040400080406000804080
310
008040A0008040C0008040E00080600000806020008060400080606000806080008060A0008060C0008060E00080800000808020008080400080806000808080008080A0008080C0008080E00080A0000080A0200080A0400080A0600080A0800080A0A00080A0C00080A0E00080C0000080C0200080C0400080C0600080C0
310
800080C0A00080C0C00080C0E00080E0000080E0200080E0400080E0600080E0800080E0A00080E0C00080E0E000C0000000C0002000C0004000C0006000C0008000C000A000C000C000C000E000C0200000C0202000C0204000C0206000C0208000C020A000C020C000C020E000C0400000C0402000C0404000C0406000C0
310
408000C040A000C040C000C040E000C0600000C0602000C0604000C0606000C0608000C060A000C060C000C060E000C0800000C0802000C0804000C0806000C0808000C080A000C080C000C080E000C0A00000C0A02000C0A04000C0A06000C0A08000C0A0A000C0A0C000C0A0E000C0C00000C0C02000C0C04000C0C06000
310
C0C08000C0C0A000F0FBFF00A4A0A000808080000000FF0000FF000000FFFF00FF000000FF00FF00FFFF0000FFFFFF00000000000000000000000000000000000000000000000000000000000000000000000000000000000000000000000000FFFFFF00000000000000000000000000000000000000000000000000000000
310
000000FFFFFFFFFFFFFFFFFF0000000000000000000000000000000000000000000000FFFF000000000000FF0000000000000000000000000000000000000000000000FFFF000000000000FF0000000000000000000000000000000000000000000000FFFF000000000000FF00000000000000000000000000000000000000
310
00000000FFFF000000000000FF0000000000000000000000000000000000000000000000FFFF000000000000FF0000000000000000000000000000000000000000000000FFFF000000000000FF0000000000000000000000000000000000000000000000FFFF000000000000FF000000000000000000000000000000000000
310
0000000000FFFF000000000000FF0000000000000000000000000000000000000000000000FFFF000000000000FF0000000000000000000000000000000000000000000000FFFF000000000000FF0000000000000000000000000000000000000000000000FFFF000000000000FF00000000000000000000FF00000000A4A4
310
000000000000FFFF0000000000FFFF00000000000000000000A4A4A4A4A4A4A400000000000000000000000000FFFF00000000000000000000FF00000000000000000000000000000000000000FFFF00000000000000000000FF00000000000000000000000000000000000000FFFF00000000000000000000FF0000000000
310
0000000000000000000000000000FFFF00000000000000000000FF00000000000000000000000000000000000000FFFF00000000000000000000FF00000000000000000000000000000000000000FFFF00000000000000000000FF00000000000000000000000000000000000000FFFF00000000000000000000FFFFFFFFFF
310
FFFFFFFFFFFFFFFFFFFFFFFFFFFFFFFFFF00000000000000000000FFFFFFFFFFFFFFFFFFFFFFFFFFFFFFFFFFFFFFFFFFFF00000000000000000000FF0000000000000000000000000000000000000000FF00000000000000000000FF0000000000000000000000000000000000000000FF00000000000000000000FF000000
310
0000000000000000000000000000000000FF00000000000000000000FFFFFFFFFF00F900FFFFFFFFFFFFFFFFFFFFFFFFFFFF00000000000000000000000000F9FFF9F9F9FF000000000000000000000000000000000000000000000000000000FFFFF9FFFF0000000000000000000000000000000000000000000000000000
310
000000F900000000000000000000000000000000000000000000000000000000000000000000000000000000000000000000000000000000
102
{BLKREFS
331
54B5
102
}
 70
     4
280
     1
281
     0
  0
BLOCK_RECORD
  5
54FF
102
{ACAD_XDICTIONARY
360
5573
102
}
330
1
100
AcDbSymbolTableRecord
100
AcDbBlockTableRecord
  2
センタ-2 SAM224
340
0
310
2800000020000000200000000100080000000000000400000000000000000000000000000000000000000000000080000080000000808000800000008000800080800000C0C0C000C0DCC000F0CAA6000020400000206000002080000020A0000020C0000020E00000400000004020000040400000406000004080000040A0
310
000040C0000040E00000600000006020000060400000606000006080000060A0000060C0000060E00000800000008020000080400000806000008080000080A0000080C0000080E00000A0000000A0200000A0400000A0600000A0800000A0A00000A0C00000A0E00000C0000000C0200000C0400000C0600000C0800000C0
310
A00000C0C00000C0E00000E0000000E0200000E0400000E0600000E0800000E0A00000E0C00000E0E00040000000400020004000400040006000400080004000A0004000C0004000E00040200000402020004020400040206000402080004020A0004020C0004020E000404000004040200040404000404060004040800040
310
40A0004040C0004040E00040600000406020004060400040606000406080004060A0004060C0004060E00040800000408020004080400040806000408080004080A0004080C0004080E00040A0000040A0200040A0400040A0600040A0800040A0A00040A0C00040A0E00040C0000040C0200040C0400040C0600040C08000
310
40C0A00040C0C00040C0E00040E0000040E0200040E0400040E0600040E0800040E0A00040E0C00040E0E00080000000800020008000400080006000800080008000A0008000C0008000E00080200000802020008020400080206000802080008020A0008020C0008020E00080400000804020008040400080406000804080
310
008040A0008040C0008040E00080600000806020008060400080606000806080008060A0008060C0008060E00080800000808020008080400080806000808080008080A0008080C0008080E00080A0000080A0200080A0400080A0600080A0800080A0A00080A0C00080A0E00080C0000080C0200080C0400080C0600080C0
310
800080C0A00080C0C00080C0E00080E0000080E0200080E0400080E0600080E0800080E0A00080E0C00080E0E000C0000000C0002000C0004000C0006000C0008000C000A000C000C000C000E000C0200000C0202000C0204000C0206000C0208000C020A000C020C000C020E000C0400000C0402000C0404000C0406000C0
310
408000C040A000C040C000C040E000C0600000C0602000C0604000C0606000C0608000C060A000C060C000C060E000C0800000C0802000C0804000C0806000C0808000C080A000C080C000C080E000C0A00000C0A02000C0A04000C0A06000C0A08000C0A0A000C0A0C000C0A0E000C0C00000C0C02000C0C04000C0C06000
310
C0C08000C0C0A000F0FBFF00A4A0A000808080000000FF0000FF000000FFFF00FF000000FF00FF00FFFF0000FFFFFF00000000000000000000000000000000000000000000000000000000000000000000000000000000000000000000FFFFFF000000000000000000000000000000000000000000FFFFFFFFFFFFFFFFFF00
310
00000000000000000000000000000000000000000000FF000000000000FFFF0000000000000000000000000000000000000000000000FF000000000000FFFF0000000000000000000000000000000000000000000000FF000000000000FFFF0000000000000000000000000000000000000000000000FF000000000000FFFF
310
0000000000000000000000000000000000000000000000FF000000000000FFFF0000000000000000000000000000000000000000000000FF000000000000FFFF0000000000000000000000000000000000000000000000FF000000000000FFFF0000000000000000000000000000000000000000000000FF000000000000FF
310
FF0000000000000000000000000000000000000000000000FF000000000000FFFF0000000000000000000000000000000000000000000000FF000000000000FFFF0000000000000000000000000000000000000000000000FF000000000000FFFF0000000000000000000000000000000000000000000000FFFF0000000000
310
FFFF000000000000A4A400000000FF00000000000000000000FFFF00000000000000000000000000A4A4A4A4A4A4FF00000000000000000000FFFF00000000000000000000000000000000000000FF00000000000000000000FFFF00000000000000000000000000000000000000FF00000000000000000000FFFF00000000
310
000000000000000000000000000000FF00000000000000000000FFFF00000000000000000000000000000000000000FF00000000000000000000FFFF00000000000000000000000000000000000000FF00000000000000000000FFFF00000000000000000000000000000000000000FF00000000000000000000FFFFFFFFFF
310
FFFFFFFFFFFFFFFFFFFFFFFFFFFFFFFFFF00000000000000000000FFFFFFFFFFFFFFFFFFFFFFFFFFFFFFFFFFFFFFFFFFFF00000000000000000000FF0000000000000000000000000000000000000000FF00000000000000000000FF0000000000000000000000000000000000000000FF00000000000000000000FF000000
310
0000000000000000000000000000000000FF00000000000000000000FFFFFFFFFFFFFFFFFFFFFFFFFFFF00F900FFFFFFFFFF0000000000000000000000000000000000000000000000FFF9F9F9FFF90000000000000000000000000000000000000000000000000000FFFFFFFFFF0000000000000000000000000000000000
310
000000000000000000000000F900000000000000000000000000000000000000000000000000000000000000000000000000000000000000
102
{BLKREFS
331
5525
102
}
 70
     4
280
     1
281
     0
  0
BLOCK_RECORD
  5
5A2B
102
{ACAD_XDICTIONARY
360
5AB8
102
}
330
1
100
AcDbSymbolTableRecord
100
AcDbBlockTableRecord
  2
リーマボルト-1 SAM224 M10
340
0
310
2800000020000000200000000100080000000000000400000000000000000000000000000000000000000000000080000080000000808000800000008000800080800000C0C0C000C0DCC000F0CAA6000020400000206000002080000020A0000020C0000020E00000400000004020000040400000406000004080000040A0
310
000040C0000040E00000600000006020000060400000606000006080000060A0000060C0000060E00000800000008020000080400000806000008080000080A0000080C0000080E00000A0000000A0200000A0400000A0600000A0800000A0A00000A0C00000A0E00000C0000000C0200000C0400000C0600000C0800000C0
310
A00000C0C00000C0E00000E0000000E0200000E0400000E0600000E0800000E0A00000E0C00000E0E00040000000400020004000400040006000400080004000A0004000C0004000E00040200000402020004020400040206000402080004020A0004020C0004020E000404000004040200040404000404060004040800040
310
40A0004040C0004040E00040600000406020004060400040606000406080004060A0004060C0004060E00040800000408020004080400040806000408080004080A0004080C0004080E00040A0000040A0200040A0400040A0600040A0800040A0A00040A0C00040A0E00040C0000040C0200040C0400040C0600040C08000
310
40C0A00040C0C00040C0E00040E0000040E0200040E0400040E0600040E0800040E0A00040E0C00040E0E00080000000800020008000400080006000800080008000A0008000C0008000E00080200000802020008020400080206000802080008020A0008020C0008020E00080400000804020008040400080406000804080
310
008040A0008040C0008040E00080600000806020008060400080606000806080008060A0008060C0008060E00080800000808020008080400080806000808080008080A0008080C0008080E00080A0000080A0200080A0400080A0600080A0800080A0A00080A0C00080A0E00080C0000080C0200080C0400080C0600080C0
310
800080C0A00080C0C00080C0E00080E0000080E0200080E0400080E0600080E0800080E0A00080E0C00080E0E000C0000000C0002000C0004000C0006000C0008000C000A000C000C000C000E000C0200000C0202000C0204000C0206000C0208000C020A000C020C000C020E000C0400000C0402000C0404000C0406000C0
310
408000C040A000C040C000C040E000C0600000C0602000C0604000C0606000C0608000C060A000C060C000C060E000C0800000C0802000C0804000C0806000C0808000C080A000C080C000C080E000C0A00000C0A02000C0A04000C0A06000C0A08000C0A0A000C0A0C000C0A0E000C0C00000C0C02000C0C04000C0C06000
310
C0C08000C0C0A000F0FBFF00A4A0A000808080000000FF0000FF000000FFFF00FF000000FF00FF00FFFF0000FFFFFF0000000000000000000000000000000000000000000000000000000000000000000000000000000000000000000000000000000000000000000000000000000000000000000000000000000000000000
310
00000000000000000000000000000000000000000000000000000000000000000000000000000000000000000000000000000000000000000000000000000000000000000000000000000000000000000000000000000000000000000000000000000000000000000000000000000000000000000000000000000000000000
310
00000000000000000000000000000000000000000000000000000000000000000000000000000000000000000000000000000000000000000000000000000000000000000000000000000000000000000000000000000000000000000000000000000000000000000000000000000000000000000000000000000000000000
310
00000000000000000000FFFFFFFFFF000000000000FFFFFFFF000000000000000000000000000000FFFFFF000000FF000000000000FF0000000000000000000000000000000000000000FF000000FF0000000000FFFF0000FFFF00000000000000000000000000FFFF00FFFFFFFFFFFEFFFF0000FFFF000000FF0000000000
310
0000000000000000FF0000FF000000FF00FFFF0000FFFF000000FF00000000000000000000000000FFFF00FF000000FF00FFFF0000FFFF000000FF00000000000000000000000000FF00FFFF000000FF00FFFF0000FFFF000000FF00000000000000000000000000FF0000FF000000FF00FFFF0000FFFF0000FFFF00000000
310
000000000000000000FFFF00FFFFFFFFFFFEFFFF000000FF0000000000000000000000000000000000000000FF000000FF000000000000FFFFFFFF000000000000000000000000000000FFFFFF000000FF000000000000000000000000000000000000000000000000000000FFFFFFFFFF0000000000000000000000000000
310
00000000000000000000000000000000000000000000000000000000000000000000000000000000000000000000000000000000000000000000000000000000000000000000000000000000000000000000000000000000000000000000000000000000000000000000000000000000000000000000000000000000000000
310
00000000000000000000000000000000000000000000000000000000000000000000000000000000000000000000000000000000000000000000000000000000000000000000000000000000000000000000000000000000000000000000000000000000000000000000000000000000000000000000000000000000000000
310
0000000000000000000000000000000000000000000000000000000000000000000000000000000000000000000000000000000000000000
102
{BLKREFS
331
5A57
102
}
 70
     4
280
     1
281
     0
  0
BLOCK_RECORD
  5
5B2F
102
{ACAD_XDICTIONARY
360
5BBC
102
}
330
1
100
AcDbSymbolTableRecord
100
AcDbBlockTableRecord
  2
リーマボルト-2 SAM224 M10
340
0
310
2800000020000000200000000100080000000000000400000000000000000000000000000000000000000000000080000080000000808000800000008000800080800000C0C0C000C0DCC000F0CAA6000020400000206000002080000020A0000020C0000020E00000400000004020000040400000406000004080000040A0
310
000040C0000040E00000600000006020000060400000606000006080000060A0000060C0000060E00000800000008020000080400000806000008080000080A0000080C0000080E00000A0000000A0200000A0400000A0600000A0800000A0A00000A0C00000A0E00000C0000000C0200000C0400000C0600000C0800000C0
310
A00000C0C00000C0E00000E0000000E0200000E0400000E0600000E0800000E0A00000E0C00000E0E00040000000400020004000400040006000400080004000A0004000C0004000E00040200000402020004020400040206000402080004020A0004020C0004020E000404000004040200040404000404060004040800040
310
40A0004040C0004040E00040600000406020004060400040606000406080004060A0004060C0004060E00040800000408020004080400040806000408080004080A0004080C0004080E00040A0000040A0200040A0400040A0600040A0800040A0A00040A0C00040A0E00040C0000040C0200040C0400040C0600040C08000
310
40C0A00040C0C00040C0E00040E0000040E0200040E0400040E0600040E0800040E0A00040E0C00040E0E00080000000800020008000400080006000800080008000A0008000C0008000E00080200000802020008020400080206000802080008020A0008020C0008020E00080400000804020008040400080406000804080
310
008040A0008040C0008040E00080600000806020008060400080606000806080008060A0008060C0008060E00080800000808020008080400080806000808080008080A0008080C0008080E00080A0000080A0200080A0400080A0600080A0800080A0A00080A0C00080A0E00080C0000080C0200080C0400080C0600080C0
310
800080C0A00080C0C00080C0E00080E0000080E0200080E0400080E0600080E0800080E0A00080E0C00080E0E000C0000000C0002000C0004000C0006000C0008000C000A000C000C000C000E000C0200000C0202000C0204000C0206000C0208000C020A000C020C000C020E000C0400000C0402000C0404000C0406000C0
310
408000C040A000C040C000C040E000C0600000C0602000C0604000C0606000C0608000C060A000C060C000C060E000C0800000C0802000C0804000C0806000C0808000C080A000C080C000C080E000C0A00000C0A02000C0A04000C0A06000C0A08000C0A0A000C0A0C000C0A0E000C0C00000C0C02000C0C04000C0C06000
310
C0C08000C0C0A000F0FBFF00A4A0A000808080000000FF0000FF000000FFFF00FF000000FF00FF00FFFF0000FFFFFF0000000000000000000000000000000000000000000000000000000000000000000000000000000000000000000000000000000000000000000000000000000000000000000000000000000000000000
310
00000000000000000000000000000000000000000000000000000000000000000000000000000000000000000000000000000000000000000000000000000000000000000000000000000000000000000000000000000000000000000000000000000000000000000000000000000000000000000000000000000000000000
310
00000000000000000000000000000000000000000000000000000000000000000000000000000000000000000000000000000000000000000000000000000000000000000000000000000000000000000000000000000000000000000000000000000000000000000000000000000000000000000000FFFFFFFFFF00000000
310
0000000000000000000000000000000000000000000000FF000000FFFFFF000000000000000000000000000000FFFFFFFF000000000000FF000000FF0000000000000000000000000000000000000000FF000000FFFEFEFEFFFFFFFF00FFFF00000000000000000000000000FFFF0000FFFF0000FFFF00FF000000FF0000FF
310
00000000000000000000000000FF000000FFFF0000FFFF00FF000000FF0000FF00000000000000000000000000FF000000FFFF0000FFFF00FF000000FFFFFFFF00000000000000000000000000FF000000FFFF0000FFFF00FF000000FF0000FF00000000000000000000000000FF000000FFFF0000FFFEFEFEFFFFFFFF00FF
310
FF00000000000000000000000000FFFF0000FFFF0000000000FF000000FF0000000000000000000000000000000000000000FF000000000000FF000000FFFFFF000000000000000000000000000000FFFFFFFF000000000000FFFFFFFFFF000000000000000000000000000000000000000000000000000000000000000000
310
00000000000000000000000000000000000000000000000000000000000000000000000000000000000000000000000000000000000000000000000000000000000000000000000000000000000000000000000000000000000000000000000000000000000000000000000000000000000000000000000000000000000000
310
00000000000000000000000000000000000000000000000000000000000000000000000000000000000000000000000000000000000000000000000000000000000000000000000000000000000000000000000000000000000000000000000000000000000000000000000000000000000000000000000000000000000000
310
0000000000000000000000000000000000000000000000000000000000000000000000000000000000000000000000000000000000000000
102
{BLKREFS
331
5B5B
102
}
 70
     4
280
     1
281
     0
  0
BLOCK_RECORD
  5
6107
330
1
100
AcDbSymbolTableRecord
100
AcDbBlockTableRecord
  2
*D15
340
0
 70
     0
280
     1
281
     0
  0
BLOCK_RECORD
  5
6141
330
1
100
AcDbSymbolTableRecord
100
AcDbBlockTableRecord
  2
*D16
340
0
 70
     0
280
     1
281
     0
  0
BLOCK_RECORD
  5
61A1
330
1
100
AcDbSymbolTableRecord
100
AcDbBlockTableRecord
  2
*D17
340
0
 70
     0
280
     1
281
     0
  0
BLOCK_RECORD
  5
61C1
330
1
100
AcDbSymbolTableRecord
100
AcDbBlockTableRecord
  2
*D18
340
0
 70
     0
280
     1
281
     0
  0
BLOCK_RECORD
  5
6214
330
1
100
AcDbSymbolTableRecord
100
AcDbBlockTableRecord
  2
*D19
340
0
 70
     0
280
     1
281
     0
  0
BLOCK_RECORD
  5
622C
330
1
100
AcDbSymbolTableRecord
100
AcDbBlockTableRecord
  2
*D20
340
0
 70
     0
280
     1
281
     0
  0
BLOCK_RECORD
  5
6244
330
1
100
AcDbSymbolTableRecord
100
AcDbBlockTableRecord
  2
*D21
340
0
 70
     0
280
     1
281
     0
  0
BLOCK_RECORD
  5
631C
330
1
100
AcDbSymbolTableRecord
100
AcDbBlockTableRecord
  2
*D22
340
0
 70
     0
280
     1
281
     0
  0
BLOCK_RECORD
  5
6370
330
1
100
AcDbSymbolTableRecord
100
AcDbBlockTableRecord
  2
*D23
340
0
 70
     0
280
     1
281
     0
  0
BLOCK_RECORD
  5
65EF
330
1
100
AcDbSymbolTableRecord
100
AcDbBlockTableRecord
  2
*D24
340
0
 70
     0
280
     1
281
     0
  0
BLOCK_RECORD
  5
6607
330
1
100
AcDbSymbolTableRecord
100
AcDbBlockTableRecord
  2
*D25
340
0
 70
     0
280
     1
281
     0
  0
BLOCK_RECORD
  5
6637
330
1
100
AcDbSymbolTableRecord
100
AcDbBlockTableRecord
  2
*D26
340
0
 70
     0
280
     1
281
     0
  0
BLOCK_RECORD
  5
664F
330
1
100
AcDbSymbolTableRecord
100
AcDbBlockTableRecord
  2
*D27
340
0
 70
     0
280
     1
281
     0
  0
BLOCK_RECORD
  5
807F
102
{ACAD_XDICTIONARY
360
82CE
102
}
330
1
100
AcDbSymbolTableRecord
100
AcDbBlockTableRecord
  2
ＧＣスペーサ SAMY224
340
0
310
2800000020000000200000000100080000000000000400000000000000000000000000000000000000000000000080000080000000808000800000008000800080800000C0C0C000C0DCC000F0CAA6000020400000206000002080000020A0000020C0000020E00000400000004020000040400000406000004080000040A0
310
000040C0000040E00000600000006020000060400000606000006080000060A0000060C0000060E00000800000008020000080400000806000008080000080A0000080C0000080E00000A0000000A0200000A0400000A0600000A0800000A0A00000A0C00000A0E00000C0000000C0200000C0400000C0600000C0800000C0
310
A00000C0C00000C0E00000E0000000E0200000E0400000E0600000E0800000E0A00000E0C00000E0E00040000000400020004000400040006000400080004000A0004000C0004000E00040200000402020004020400040206000402080004020A0004020C0004020E000404000004040200040404000404060004040800040
310
40A0004040C0004040E00040600000406020004060400040606000406080004060A0004060C0004060E00040800000408020004080400040806000408080004080A0004080C0004080E00040A0000040A0200040A0400040A0600040A0800040A0A00040A0C00040A0E00040C0000040C0200040C0400040C0600040C08000
310
40C0A00040C0C00040C0E00040E0000040E0200040E0400040E0600040E0800040E0A00040E0C00040E0E00080000000800020008000400080006000800080008000A0008000C0008000E00080200000802020008020400080206000802080008020A0008020C0008020E00080400000804020008040400080406000804080
310
008040A0008040C0008040E00080600000806020008060400080606000806080008060A0008060C0008060E00080800000808020008080400080806000808080008080A0008080C0008080E00080A0000080A0200080A0400080A0600080A0800080A0A00080A0C00080A0E00080C0000080C0200080C0400080C0600080C0
310
800080C0A00080C0C00080C0E00080E0000080E0200080E0400080E0600080E0800080E0A00080E0C00080E0E000C0000000C0002000C0004000C0006000C0008000C000A000C000C000C000E000C0200000C0202000C0204000C0206000C0208000C020A000C020C000C020E000C0400000C0402000C0404000C0406000C0
310
408000C040A000C040C000C040E000C0600000C0602000C0604000C0606000C0608000C060A000C060C000C060E000C0800000C0802000C0804000C0806000C0808000C080A000C080C000C080E000C0A00000C0A02000C0A04000C0A06000C0A08000C0A0A000C0A0C000C0A0E000C0C00000C0C02000C0C04000C0C06000
310
C0C08000C0C0A000F0FBFF00A4A0A000808080000000FF0000FF000000FFFF00FF000000FF00FF00FFFF0000FFFFFF00000000000000000000000000000000000000000000000000000000000000000000000000000000000000000000000000000000000000000000000000000000000000FFFF0000000000000000000000
310
00000000000000000000000000FFFF00000000FFFF000000000000000000000000000000000000000000000000FFFF000000F9F9F9F900000000000000000000000000000000000000000000F9F9F9F9000000FFFFFF00000000000000000000000000000000000000000000FFFFFF00000000FFFFFFFFFFFFFFFFFFFFFFFF
310
FFFEFEFFFFFFFFFFFFFFFFFFFFFFFFFF00000000FFFFFF00000000000000000000FEFE00000000000000000000FFFFFF00000000FFFFFF00000000000000000000FE0000000000000000000000FFFFFF00000000FFFFFF00000000000000000000FEFE00000000000000000000FFFFFF00000000FFFFFF0000000000000000
310
0000FEFE00000000000000000000FFFFFF00000000FFFFFF00000000000000000000FEFE00000000000000000000FFFFFF00000000FFFFFF00000000000000000000FEFE00000000000000000000FFFFFF00000000FFFFFF00000000000000000000FE0000000000000000000000FFFFFF00000000FFFFFF00000000000000
310
000000FEFE00000000000000000000FFFFFF00000000FFFFFFFF000000000000000000FEFE000000000000000000FFFFFFFF00000000FF0000FF000000000000000000FEFE000000000000000000FF0000FF00000000FF0000FF000000000000000000FEFE000000000000000000FF0000FF00000000FF0000FF0000000000
310
00000000FE00000000000000000000FF0000FF00000000FF0000FF000000000000000000FEFE000000000000000000FF0000FF00000000FF0000FF000000000000000000FEFE000000000000000000FF0000FF00000000FF0000FF000000000000000000FEFE000000000000000000FF0000FF00000000FF0000FF00000000
310
0000000000FEFE000000000000000000FF0000FF00000000FF0000F9FFFFFFFFFFFFFFFFFFFEFFFFFFFFFFFFFFFFFFFFF90000FF00000000FF00F9F9FF0000000000000000FEFE0000000000000000F9F9F900FF00000000FF00F9F9F9FFFFFFFFFFFFFFFFFEFEFFFFFFFFFFFFFFFFF9F9F900FF00000000FFFFF9F9000000
310
0000000000000000000000000000000000F9F9FFFF00000000FFFF000000000000000000000000000000000000000000000000FFFF00000000FFFF000000000000000000000000000000000000000000000000FFFF00000000FFFF000000000000000000000000000000000000000000000000FFFF00000000000000000000
310
0000000000000000000000000000000000000000000000000000000000000000000000000000000000000000000000000000000000000000
102
{BLKREFS
331
80FA
102
}
 70
     4
280
     1
281
     0
  0
BLOCK_RECORD
  5
835C
330
1
100
AcDbSymbolTableRecord
100
AcDbBlockTableRecord
  2
*D29
340
0
 70
     0
280
     1
281
     0
  0
BLOCK_RECORD
  5
83AC
330
1
100
AcDbSymbolTableRecord
100
AcDbBlockTableRecord
  2
*D30
340
0
 70
     0
280
     1
281
     0
  0
BLOCK_RECORD
  5
9A0A
330
1
100
AcDbSymbolTableRecord
100
AcDbBlockTableRecord
  2
*D31
340
0
 70
     0
280
     1
281
     0
  0
BLOCK_RECORD
  5
9B73
330
1
100
AcDbSymbolTableRecord
100
AcDbBlockTableRecord
  2
*D32
340
0
 70
     0
280
     1
281
     0
  0
BLOCK_RECORD
  5
9E56
330
1
100
AcDbSymbolTableRecord
100
AcDbBlockTableRecord
  2
*D33
340
0
 70
     0
280
     1
281
     0
  0
BLOCK_RECORD
  5
9EAD
330
1
100
AcDbSymbolTableRecord
100
AcDbBlockTableRecord
  2
*D34
340
0
 70
     0
280
     1
281
     0
  0
BLOCK_RECORD
  5
9F1F
330
1
100
AcDbSymbolTableRecord
100
AcDbBlockTableRecord
  2
*D35
340
0
 70
     0
280
     1
281
     0
  0
BLOCK_RECORD
  5
9FEF
330
1
100
AcDbSymbolTableRecord
100
AcDbBlockTableRecord
  2
ケース
340
0
310
2800000020000000200000000100080000000000000400000000000000000000000000000000000000000000000080000080000000808000800000008000800080800000C0C0C000C0DCC000F0CAA6000020400000206000002080000020A0000020C0000020E00000400000004020000040400000406000004080000040A0
310
000040C0000040E00000600000006020000060400000606000006080000060A0000060C0000060E00000800000008020000080400000806000008080000080A0000080C0000080E00000A0000000A0200000A0400000A0600000A0800000A0A00000A0C00000A0E00000C0000000C0200000C0400000C0600000C0800000C0
310
A00000C0C00000C0E00000E0000000E0200000E0400000E0600000E0800000E0A00000E0C00000E0E00040000000400020004000400040006000400080004000A0004000C0004000E00040200000402020004020400040206000402080004020A0004020C0004020E000404000004040200040404000404060004040800040
310
40A0004040C0004040E00040600000406020004060400040606000406080004060A0004060C0004060E00040800000408020004080400040806000408080004080A0004080C0004080E00040A0000040A0200040A0400040A0600040A0800040A0A00040A0C00040A0E00040C0000040C0200040C0400040C0600040C08000
310
40C0A00040C0C00040C0E00040E0000040E0200040E0400040E0600040E0800040E0A00040E0C00040E0E00080000000800020008000400080006000800080008000A0008000C0008000E00080200000802020008020400080206000802080008020A0008020C0008020E00080400000804020008040400080406000804080
310
008040A0008040C0008040E00080600000806020008060400080606000806080008060A0008060C0008060E00080800000808020008080400080806000808080008080A0008080C0008080E00080A0000080A0200080A0400080A0600080A0800080A0A00080A0C00080A0E00080C0000080C0200080C0400080C0600080C0
310
800080C0A00080C0C00080C0E00080E0000080E0200080E0400080E0600080E0800080E0A00080E0C00080E0E000C0000000C0002000C0004000C0006000C0008000C000A000C000C000C000E000C0200000C0202000C0204000C0206000C0208000C020A000C020C000C020E000C0400000C0402000C0404000C0406000C0
310
408000C040A000C040C000C040E000C0600000C0602000C0604000C0606000C0608000C060A000C060C000C060E000C0800000C0802000C0804000C0806000C0808000C080A000C080C000C080E000C0A00000C0A02000C0A04000C0A06000C0A08000C0A0A000C0A0C000C0A0E000C0C00000C0C02000C0C04000C0C06000
310
C0C08000C0C0A000F0FBFF00A4A0A000808080000000FF0000FF000000FFFF00FF000000FF00FF00FFFF0000FFFFFF0000000000000000000000000000000000000000000000000000000000000000000000000000000000000000000000000000000000000000000000000000000000000000000000000000000000000000
310
00000000000000000000000000000000000000000000000000000000000000000000000000000000000000000000000000000000000000000000000000000000000000000000000000000000000000000000000000000000000000000000000000000000000000000000000000000000000000000000000000000000000000
310
000000000000000000000000000000000000000000000000000000000000000000000000000000000000000000000000000000FC0000FC00000000000000FC00FC000000000000000000000000000000000000FC0000FC00000000000000FC00FC000000000000000000000000000000000000FCFCFCFC00000000000000FC
310
FCFC000000000000000000000000000000000000FC0000FC00000000000000FC00FC0000000000FCFCFCFCFCFCFCFCFCFCFC0000FC0000FC00000000000000FC00FC00000000FC00000000000000000000000000FC0000FCFCFCFCFCFCFCFCFC00FC0000FCFCFCFCFCFCFCFCFCFCFCFCFCFC0000FC00000000000000000000
310
0000FC00000000FC00000000000000000000000000FC000000000000000000000000FC00000000FC00000000000000000000000000FC00000000000000000000000000FCFCFCFCFCFCFCFCFCFCFCFCFCFCFCFC0000FC00000000000000000000000000000000000000000000000000000000000000FC000000000000000000
310
00000000000000000000000000000000000000000000FC0000000000000000000000000000000000000000000000000000000000000000FC0000000000000000000000000000000000000000000000000000000000000000FC0000000000000000000000000000000000000000000000000000000000000000FC0000000000
310
000000000000000000000000000000000000000000000000000000FCFCFCFCFCFCFCFCFCFCFCFCFCFCFCFCFCFCFCFCFCFCFCFCFCFC0000000000000000000000000000000000000000000000000000000000000000000000000000000000000000000000000000000000000000000000000000000000000000000000000000
310
00000000000000000000000000000000000000000000000000000000000000000000000000000000000000000000000000000000000000000000000000000000000000000000000000000000000000000000000000000000000000000000000000000000000000000000000000000000000000000000000000000000000000
310
0000000000000000000000000000000000000000000000000000000000000000000000000000000000000000000000000000000000000000
102
{BLKREFS
331
A005
102
}
 70
     4
280
     1
281
     1
  0
ENDTAB
  0
ENDSEC
  0
SECTION
  2
BLOCKS
  0
BLOCK
  5
20
330
1F
100
AcDbEntity
  8
0
100
AcDbBlockBegin
  2
*Model_Space
 70
     0
 10
0.0
 20
0.0
 30
0.0
  3
*Model_Space
  1

  0
ENDBLK
  5
21
330
1F
100
AcDbEntity
  8
0
100
AcDbBlockEnd
  0
BLOCK
  5
1C
330
1B
100
AcDbEntity
 67
     1
  8
0
100
AcDbBlockBegin
  2
*Paper_Space
 70
     0
 10
0.0
 20
0.0
 30
0.0
  3
*Paper_Space
  1

  0
ENDBLK
  5
1D
330
1B
100
AcDbEntity
 67
     1
  8
0
100
AcDbBlockEnd
  0
BLOCK
  5
24
330
23
100
AcDbEntity
 67
     1
  8
0
100
AcDbBlockBegin
  2
*Paper_Space0
 70
     0
 10
0.0
 20
0.0
 30
0.0
  3
*Paper_Space0
  1

  0
ENDBLK
  5
25
330
23
100
AcDbEntity
 67
     1
  8
0
100
AcDbBlockEnd
  0
BLOCK
  5
6D
330
69
100
AcDbEntity
  8
0
100
AcDbBlockBegin
  2
_Open30
 70
     0
 10
0.0
 20
0.0
 30
0.0
  3
_Open30
  1

  0
LINE
  5
6A
330
69
100
AcDbEntity
  8
0
  6
ByBlock
 62
     0
370
    -2
100
AcDbLine
 10
-1.0
 20
0.26794919
 30
0.0
 11
0.0
 21
0.0
 31
0.0
  0
LINE
  5
6B
330
69
100
AcDbEntity
  8
0
  6
ByBlock
 62
     0
370
    -2
100
AcDbLine
 10
0.0
 20
0.0
 30
0.0
 11
-1.0
 21
-0.26794919
 31
0.0
  0
LINE
  5
6C
330
69
100
AcDbEntity
  8
0
  6
ByBlock
 62
     0
370
    -2
100
AcDbLine
 10
0.0
 20
0.0
 30
0.0
 11
-1.0
 21
0.0
 31
0.0
  0
ENDBLK
  5
6E
330
69
100
AcDbEntity
  8
0
100
AcDbBlockEnd
  0
BLOCK
  5
76
330
74
100
AcDbEntity
  8
0
100
AcDbBlockBegin
  2
GENAXEH
 70
     0
 10
0.0
 20
0.0
 30
0.0
  3
GENAXEH
  1

  0
LINE
  5
75
330
74
100
AcDbEntity
  8
0
100
AcDbLine
 10
-1.0
 20
0.0
 30
0.0
 11
1.0
 21
0.0
 31
0.0
  0
ENDBLK
  5
77
330
74
100
AcDbEntity
  8
0
100
AcDbBlockEnd
  0
BLOCK
  5
4212
330
420F
100
AcDbEntity
  8
0
100
AcDbBlockBegin
  2
ロッカクアナツキプラグ-1　R1／8
 70
     0
 10
0.0
 20
0.0
 30
0.0
  3
ロッカクアナツキプラグ-1　R1／8
  1

  0
LINE
  5
4FF2
330
420F
100
AcDbEntity
  8
AM_7 中心線
100
AcDbLine
 10
0.0
 20
6.71623199999999
 30
0.0
 11
0.0
 21
-6.71623199999999
 31
0.0
  0
LINE
  5
4FF3
330
420F
100
AcDbEntity
  8
AM_7 中心線
100
AcDbLine
 10
6.716233000000102
 20
0.0
 30
0.0
 11
-6.71623199999999
 21
0.0
 31
0.0
  0
CIRCLE
  5
4FF4
330
420F
100
AcDbEntity
  8
AM_0 外形線1
100
AcDbCircle
 10
0.0
 20
0.0
 30
0.0
 40
4.816232
  0
LINE
  5
4FF5
330
420F
100
AcDbEntity
  8
AM_0 外形線1
100
AcDbLine
 10
2.178053999999974
 20
1.257499999999936
 30
0.0
 11
0.0
 21
2.514999999999872
 31
0.0
  0
LINE
  5
4FF6
330
420F
100
AcDbEntity
  8
AM_0 外形線1
100
AcDbLine
 10
0.0
 20
2.514999999999872
 30
0.0
 11
-2.178052999999976
 21
1.257499999999936
 31
0.0
  0
LINE
  5
4FF7
330
420F
100
AcDbEntity
  8
AM_0 外形線1
100
AcDbLine
 10
-2.178052999999976
 20
1.257499999999936
 30
0.0
 11
-2.178052999999976
 21
-1.257499999999936
 31
0.0
  0
LINE
  5
4FF8
330
420F
100
AcDbEntity
  8
AM_0 外形線1
100
AcDbLine
 10
-2.178052999999976
 20
-1.257499999999936
 30
0.0
 11
0.0
 21
-2.514999999999872
 31
0.0
  0
LINE
  5
4FF9
330
420F
100
AcDbEntity
  8
AM_0 外形線1
100
AcDbLine
 10
0.0
 20
-2.514999999999872
 30
0.0
 11
2.178053999999974
 21
-1.257499999999936
 31
0.0
  0
LINE
  5
4FFA
330
420F
100
AcDbEntity
  8
AM_0 外形線1
100
AcDbLine
 10
2.178053999999974
 20
-1.257499999999936
 30
0.0
 11
2.178053999999974
 21
1.257499999999936
 31
0.0
  0
CIRCLE
  5
4FFB
330
420F
100
AcDbEntity
  8
AM_4 細線
100
AcDbCircle
 10
0.0
 20
0.0
 30
0.0
 40
5.271232
  0
ENDBLK
  5
421D
330
420F
100
AcDbEntity
  8
0
100
AcDbBlockEnd
  0
BLOCK
  5
43A2
330
43A1
100
AcDbEntity
  8
0
100
AcDbBlockBegin
  2
GENDOT
 70
     0
 10
0.0
 20
0.0
 30
0.0
  3
GENDOT
  1

  0
LINE
  5
43A3
330
43A1
100
AcDbEntity
  8
0
100
AcDbLine
 10
0.0
 20
0.0
 30
0.0
 11
-1.0
 21
0.0
 31
0.0
  0
LWPOLYLINE
  5
43A4
330
43A1
100
AcDbEntity
  8
0
100
AcDbPolyline
 90
        2
 70
     1
 43
0.25
 10
-0.125
 20
0.0
 42
1.0
 10
0.125
 20
0.0
 42
1.0
  0
ENDBLK
  5
43A5
330
43A1
100
AcDbEntity
  8
0
100
AcDbBlockEnd
  0
BLOCK
  5
4442
330
4441
100
AcDbEntity
  8
0
100
AcDbBlockBegin
  2
ロッカクアナツキプラグ-2　R1／8
 70
     0
 10
0.0
 20
0.0
 30
0.0
  3
ロッカクアナツキプラグ-2　R1／8
  1

  0
LINE
  5
501F
330
4441
100
AcDbEntity
  8
AM_7 中心線
100
AcDbLine
 10
0.0
 20
-6.71623199999999
 30
0.0
 11
0.0
 21
6.71623199999999
 31
0.0
  0
CIRCLE
  5
5020
330
4441
100
AcDbEntity
  8
AM_0 外形線1
100
AcDbCircle
 10
0.0
 20
0.0
 30
0.0
 40
4.816232
  0
LINE
  5
5021
330
4441
100
AcDbEntity
  8
AM_0 外形線1
100
AcDbLine
 10
-2.178052999999863
 20
1.257499999999936
 30
0.0
 11
0.0
 21
2.514999999999872
 31
0.0
  0
LINE
  5
5022
330
4441
100
AcDbEntity
  8
AM_0 外形線1
100
AcDbLine
 10
0.0
 20
-2.514999999999872
 30
0.0
 11
-2.178052999999863
 21
-1.257499999999936
 31
0.0
  0
LINE
  5
5023
330
4441
100
AcDbEntity
  8
AM_7 中心線
100
AcDbLine
 10
-6.716231999999762
 20
0.0
 30
0.0
 11
6.716233000000102
 21
0.0
 31
0.0
  0
CIRCLE
  5
5024
330
4441
100
AcDbEntity
  8
AM_4 細線
100
AcDbCircle
 10
0.0
 20
0.0
 30
0.0
 40
5.271232
  0
LINE
  5
5025
330
4441
100
AcDbEntity
  8
AM_0 外形線1
100
AcDbLine
 10
-2.178052999999863
 20
-1.257499999999936
 30
0.0
 11
-2.178052999999863
 21
1.257499999999936
 31
0.0
  0
LINE
  5
5026
330
4441
100
AcDbEntity
  8
AM_0 外形線1
100
AcDbLine
 10
0.0
 20
2.514999999999872
 30
0.0
 11
2.1780540000002
 21
1.257499999999936
 31
0.0
  0
LINE
  5
5027
330
4441
100
AcDbEntity
  8
AM_0 外形線1
100
AcDbLine
 10
2.1780540000002
 20
1.257499999999936
 30
0.0
 11
2.1780540000002
 21
-1.257499999999936
 31
0.0
  0
LINE
  5
5028
330
4441
100
AcDbEntity
  8
AM_0 外形線1
100
AcDbLine
 10
2.1780540000002
 20
-1.257499999999936
 30
0.0
 11
0.0
 21
-2.514999999999872
 31
0.0
  0
ENDBLK
  5
444D
330
4441
100
AcDbEntity
  8
0
100
AcDbBlockEnd
  0
BLOCK
  5
5134
330
5133
100
AcDbEntity
  8
0
100
AcDbBlockBegin
  2
ケースＡ-1 SAM224
 70
     0
 10
0.0
 20
0.0
 30
0.0
  3
ケースＡ-1 SAM224
  1

  0
LINE
  5
5136
330
5133
100
AcDbEntity
  8
AM_0 外形線1
100
AcDbLine
 10
18.0
 20
-86.99999999999977
 30
0.0
 11
61.0
 21
-86.99999999999977
 31
0.0
  0
LINE
  5
5137
330
5133
100
AcDbEntity
  8
AM_0 外形線1
100
AcDbLine
 10
15.0
 20
-110.9999999999997
 30
0.0
 11
15.0
 21
0.0
 31
0.0
  0
LINE
  5
5139
330
5133
100
AcDbEntity
  8
AM_0 外形線1
100
AcDbLine
 10
1.0
 20
-111.9999999999997
 30
0.0
 11
14.0
 21
-111.9999999999997
 31
0.0
  0
LINE
  5
513A
330
5133
100
AcDbEntity
  8
AM_0 外形線1
100
AcDbLine
 10
0.0
 20
-110.9999999999997
 30
0.0
 11
1.0
 21
-111.9999999999997
 31
0.0
  0
LINE
  5
513B
330
5133
100
AcDbEntity
  8
AM_0 外形線1
100
AcDbLine
 10
14.0
 20
-111.9999999999997
 30
0.0
 11
15.0
 21
-110.9999999999997
 31
0.0
  0
ARC
  5
513C
330
5133
100
AcDbEntity
  8
AM_0 外形線1
100
AcDbCircle
 10
18.0
 20
-89.99999999999976
 30
0.0
 40
3.0
100
AcDbArc
 50
90.0
 51
180.0
  0
LINE
  5
513D
330
5133
100
AcDbEntity
  8
AM_0 外形線1
100
AcDbLine
 10
65.0
 20
-82.99999999999975
 30
0.0
 11
65.0
 21
0.0
 31
0.0
  0
ARC
  5
513E
330
5133
100
AcDbEntity
  8
AM_0 外形線1
100
AcDbCircle
 10
61.0
 20
-82.99999999999975
 30
0.0
 40
4.0
100
AcDbArc
 50
270.0
 51
0.0
  0
LINE
  5
513F
330
5133
100
AcDbEntity
  8
AM_0 外形線1
100
AcDbLine
 10
18.0
 20
87.0
 30
0.0
 11
61.0
 21
87.0
 31
0.0
  0
LINE
  5
5140
330
5133
100
AcDbEntity
  8
AM_0 外形線1
100
AcDbLine
 10
21.0
 20
80.0
 30
0.0
 11
47.0
 21
80.0
 31
0.0
  0
LINE
  5
5141
330
5133
100
AcDbEntity
  8
AM_7 中心線
100
AcDbLine
 10
19.0
 20
77.5
 30
0.0
 11
49.0
 21
77.5
 31
0.0
  0
LINE
  5
5142
330
5133
100
AcDbEntity
  8
AM_3 隠れ線
100
AcDbLine
 10
24.0
 20
75.5
 30
0.0
 11
46.0
 21
75.5
 31
0.0
  0
LINE
  5
5144
330
5133
100
AcDbEntity
  8
AM_0 外形線1
100
AcDbLine
 10
21.0
 20
76.5
 30
0.0
 11
21.0
 21
79.5
 31
0.0
  0
LINE
  5
5145
330
5133
100
AcDbEntity
  8
AM_0 外形線1
100
AcDbLine
 10
22.0
 20
75.5
 30
0.0
 11
21.0
 21
76.5
 31
0.0
  0
LINE
  5
5146
330
5133
100
AcDbEntity
  8
AM_0 外形線1
100
AcDbLine
 10
24.0
 20
75.5
 30
0.0
 11
22.0
 21
75.5
 31
0.0
  0
LINE
  5
5149
330
5133
100
AcDbEntity
  8
AM_7 中心線
100
AcDbLine
 10
-27.0
 20
101.0
 30
0.0
 11
35.0
 21
101.0
 31
0.0
  0
LINE
  5
514A
330
5133
100
AcDbEntity
  8
AM_0 外形線1
100
AcDbLine
 10
1.0
 20
112.0
 30
0.0
 11
14.0
 21
112.0
 31
0.0
  0
LINE
  5
514B
330
5133
100
AcDbEntity
  8
AM_0 外形線1
100
AcDbLine
 10
20.0
 20
80.5
 30
0.0
 11
-4.0
 21
80.5
 31
0.0
  0
LINE
  5
514D
330
5133
100
AcDbEntity
  8
AM_0 外形線1
100
AcDbLine
 10
2.200000000000045
 20
89.4000000000001
 30
0.0
 11
0.0
 21
89.4000000000001
 31
0.0
  0
LWPOLYLINE
  5
514E
330
5133
100
AcDbEntity
  8
AM_0 外形線1
100
AcDbPolyline
 90
       73
 70
     0
 43
0.0
 10
1.350000000000022
 20
85.0
 10
1.467661000000134
 20
85.00837100000012
 10
1.584426000000006
 20
85.03342300000031
 10
1.699405999999953
 20
85.07496300000003
 10
1.811728000000129
 20
85.13267600000018
 10
1.920534999999971
 20
85.20612300000015
 10
2.02500000000009
 20
85.29474400000026
 10
2.124328999999987
 20
85.39786500000014
 10
2.217763999999988
 20
85.51470200000016
 10
2.304595000000063
 20
85.64436500000011
 10
2.384160000000064
 20
85.78586700000007
 10
2.455856000000038
 20
85.9381320000002
 10
2.519135000000004
 20
86.10000000000013
 10
2.57351600000004
 20
86.27024000000028
 10
2.618586000000049
 20
86.44755500000021
 10
2.653999999999995
 20
86.63059800000018
 10
2.679491000000098
 20
86.81797400000004
 10
2.694863000000054
 20
87.00825700000018
 10
2.700000000000044
 20
87.20000000000027
 10
2.694863000000054
 20
87.39174200000025
 10
2.679491000000098
 20
87.58202600000027
 10
2.653999999999995
 20
87.76940200000034
 10
2.618586000000049
 20
87.95244400000022
 10
2.57351600000004
 20
88.12976000000025
 10
2.519135000000004
 20
88.30000000000017
 10
2.455856000000038
 20
88.46186800000031
 10
2.384160000000064
 20
88.61413200000015
 10
2.304595000000063
 20
88.75563500000021
 10
2.217763999999988
 20
88.88529700000026
 10
2.124328999999987
 20
89.00213400000032
 10
2.02500000000009
 20
89.10525600000028
 10
1.920534999999971
 20
89.19387700000015
 10
1.811728000000129
 20
89.26732300000002
 10
1.699405999999953
 20
89.32503700000005
 10
1.584426000000006
 20
89.36657700000024
 10
1.467661000000134
 20
89.39162800000032
 10
1.350000000000022
 20
89.4000000000001
 10
1.232340000000021
 20
89.39162800000032
 10
1.115575000000034
 20
89.36657700000024
 10
1.000594999999975
 20
89.32503700000005
 10
0.8882730000000265
 20
89.26732300000002
 10
0.7794660000000704
 20
89.19387700000015
 10
0.6750000000000683
 20
89.10525600000028
 10
0.5756719999999405
 20
89.00213400000032
 10
0.4822370000000548
 20
88.88529700000026
 10
0.3954059999999799
 20
88.75563500000021
 10
0.3158400000000938
 20
88.61413200000015
 10
0.2441450000001168
 20
88.46186800000031
 10
0.1808660000000373
 20
88.30000000000017
 10
0.1264850000000024
 20
88.12976000000025
 10
0.0814150000001064
 20
87.95244400000022
 10
0.0460010000000466
 20
87.76940200000034
 10
0.0205100000000584
 20
87.58202600000027
 10
0.0051379999999881
 20
87.39174200000025
 10
0.0
 20
87.20000000000027
 10
0.0051379999999881
 20
87.00825700000018
 10
0.0205100000000584
 20
86.81797400000004
 10
0.0460010000000466
 20
86.63059800000018
 10
0.0814150000001064
 20
86.44755500000021
 10
0.1264850000000024
 20
86.27024000000028
 10
0.1808660000000373
 20
86.10000000000013
 10
0.2441450000001168
 20
85.9381320000002
 10
0.3158400000000938
 20
85.78586700000007
 10
0.3954059999999799
 20
85.64436500000011
 10
0.4822370000000548
 20
85.51470200000016
 10
0.5756719999999405
 20
85.39786500000014
 10
0.6750000000000683
 20
85.29474400000026
 10
0.7794660000000704
 20
85.20612300000015
 10
0.8882730000000265
 20
85.13267600000018
 10
1.000594999999975
 20
85.07496300000003
 10
1.115575000000034
 20
85.03342300000031
 10
1.232340000000021
 20
85.00837100000012
 10
1.350000000000022
 20
85.0
  0
LINE
  5
5150
330
5133
100
AcDbEntity
  8
AM_0 外形線1
100
AcDbLine
 10
-4.0
 20
80.5
 30
0.0
 11
-4.0
 21
84.50000000000001
 31
0.0
  0
LINE
  5
5151
330
5133
100
AcDbEntity
  8
AM_0 外形線1
100
AcDbLine
 10
-4.0
 20
84.50000000000001
 30
0.0
 11
-3.5
 21
85.0
 31
0.0
  0
ARC
  5
5152
330
5133
100
AcDbEntity
  8
AM_0 外形線1
100
AcDbCircle
 10
2.200000000000045
 20
85.5
 30
0.0
 40
0.5
100
AcDbArc
 50
270.0
 51
0.0
  0
LINE
  5
5153
330
5133
100
AcDbEntity
  8
AM_0 外形線1
100
AcDbLine
 10
2.700000000000044
 20
85.5
 30
0.0
 11
2.700000000000044
 21
88.90000000000009
 31
0.0
  0
ARC
  5
5154
330
5133
100
AcDbEntity
  8
AM_0 外形線1
100
AcDbCircle
 10
2.200000000000045
 20
88.90000000000009
 30
0.0
 40
0.5
100
AcDbArc
 50
0.0
 51
90.0
  0
LINE
  5
5155
330
5133
100
AcDbEntity
  8
AM_0 外形線1
100
AcDbLine
 10
0.0
 20
111.0
 30
0.0
 11
1.0
 21
112.0
 31
0.0
  0
LINE
  5
5156
330
5133
100
AcDbEntity
  8
AM_0 外形線1
100
AcDbLine
 10
0.0
 20
106.5
 30
0.0
 11
0.0
 21
111.0000000000001
 31
0.0
  0
LINE
  5
5157
330
5133
100
AcDbEntity
  8
AM_0 外形線1
100
AcDbLine
 10
15.0
 20
90.0
 30
0.0
 11
15.0
 21
111.0
 31
0.0
  0
ARC
  5
5158
330
5133
100
AcDbEntity
  8
AM_0 外形線1
100
AcDbCircle
 10
18.0
 20
90.0
 30
0.0
 40
3.0
100
AcDbArc
 50
180.0
 51
270.0
  0
ARC
  5
5159
330
5133
100
AcDbEntity
  8
AM_0 外形線1
100
AcDbCircle
 10
20.0
 20
79.5
 30
0.0
 40
1.0
100
AcDbArc
 50
0.0
 51
90.0
  0
LINE
  5
515A
330
5133
100
AcDbEntity
  8
AM_0 外形線1
100
AcDbLine
 10
14.0
 20
112.0
 30
0.0
 11
15.0
 21
111.0
 31
0.0
  0
LINE
  5
515B
330
5133
100
AcDbEntity
  8
AM_3 隠れ線
100
AcDbLine
 10
47.0
 20
78.90097100000001
 30
0.0
 11
47.0
 21
76.5
 31
0.0
  0
LINE
  5
515C
330
5133
100
AcDbEntity
  8
AM_0 外形線1
100
AcDbLine
 10
52.0
 20
72.5
 30
0.0
 11
52.0
 21
79.5
 31
0.0
  0
LINE
  5
515D
330
5133
100
AcDbEntity
  8
AM_0 外形線1
100
AcDbLine
 10
65.0
 20
83.0
 30
0.0
 11
65.0
 21
72.5
 31
0.0
  0
LINE
  5
515E
330
5133
100
AcDbEntity
  8
AM_0 外形線1
100
AcDbLine
 10
65.0
 20
73.75
 30
0.0
 11
62.30000000000007
 21
73.75
 31
0.0
  0
LINE
  5
515F
330
5133
100
AcDbEntity
  8
AM_3 隠れ線
100
AcDbLine
 10
47.0
 20
76.5
 30
0.0
 11
46.0
 21
75.5
 31
0.0
  0
LINE
  5
5160
330
5133
100
AcDbEntity
  8
AM_0 外形線1
100
AcDbLine
 10
62.30000000000007
 20
77.20000000000027
 30
0.0
 11
54.70000000000005
 21
77.20000000000027
 31
0.0
  0
LINE
  5
5161
330
5133
100
AcDbEntity
  8
AM_0 外形線1
100
AcDbLine
 10
54.70000000000005
 20
73.75
 30
0.0
 11
52.0
 21
73.75
 31
0.0
  0
LWPOLYLINE
  5
5162
330
5133
100
AcDbEntity
  8
AM_0 外形線1
100
AcDbPolyline
 90
       73
 70
     0
 43
0.0
 10
54.70000000000005
 20
74.85000000000012
 10
54.71446100000003
 20
74.6451840000002
 10
54.75773099999992
 20
74.44192600000019
 10
54.82948200000009
 20
74.24177500000019
 10
54.92916899999999
 20
74.04625200000009
 10
55.05603100000008
 20
73.85684700000024
 10
55.20910400000001
 20
73.6750000000002
 10
55.38722300000006
 20
73.50209500000028
 10
55.5890320000001
 20
73.33944900000004
 10
55.812995
 20
73.18829900000014
 10
56.05740800000011
 20
73.04979500000013
 10
56.32041000000004
 20
72.9249920000002
 10
56.60000000000001
 20
72.81484000000024
 10
56.89405099999999
 20
72.72017600000026
 10
57.20032400000015
 20
72.6417220000003
 10
57.51648799999998
 20
72.58007400000019
 10
57.84013700000002
 20
72.53570100000025
 10
58.16880900000001
 20
72.50894200000015
 10
58.5
 20
72.5
 10
58.8311920000001
 20
72.50894200000015
 10
59.15986399999997
 20
72.53570100000025
 10
59.48351300000002
 20
72.58007400000019
 10
59.7996770000001
 20
72.6417220000003
 10
60.10595000000011
 20
72.72017600000026
 10
60.40000000000009
 20
72.81484000000024
 10
60.67959100000006
 20
72.9249920000002
 10
60.94259299999999
 20
73.04979500000013
 10
61.187006
 20
73.18829900000014
 10
61.41096900000001
 20
73.33944900000004
 10
61.61277800000005
 20
73.50209500000028
 10
61.79089700000009
 20
73.6750000000002
 10
61.94397000000003
 20
73.85684700000024
 10
62.0708320000001
 20
74.04625200000009
 10
62.17051900000001
 20
74.24177500000019
 10
62.24227000000007
 20
74.44192600000019
 10
62.28554000000007
 20
74.6451840000002
 10
62.30000000000007
 20
74.85000000000012
 10
62.28554000000007
 20
75.0548160000003
 10
62.24227000000007
 20
75.25807300000019
 10
62.17051900000001
 20
75.4582240000002
 10
62.0708320000001
 20
75.65374700000029
 10
61.94397000000003
 20
75.84315300000024
 10
61.79089700000009
 20
76.02500000000009
 10
61.61277800000005
 20
76.1979040000001
 10
61.41096900000001
 20
76.3605510000002
 10
61.187006
 20
76.51170100000036
 10
60.94259299999999
 20
76.65020400000003
 10
60.67959100000006
 20
76.77500700000019
 10
60.40000000000009
 20
76.88515900000037
 10
60.10595000000011
 20
76.97982300000012
 10
59.7996770000001
 20
77.05827700000009
 10
59.48351300000002
 20
77.11992500000019
 10
59.15986399999997
 20
77.16429800000014
 10
58.8311920000001
 20
77.19105700000024
 10
58.5
 20
77.20000000000027
 10
58.16880900000001
 20
77.19105700000024
 10
57.84013700000002
 20
77.16429800000014
 10
57.51648799999998
 20
77.11992500000019
 10
57.20032400000015
 20
77.05827700000009
 10
56.89405099999999
 20
76.97982300000012
 10
56.60000000000001
 20
76.88515900000037
 10
56.32041000000004
 20
76.77500700000019
 10
56.05740800000011
 20
76.65020400000003
 10
55.812995
 20
76.51170100000036
 10
55.5890320000001
 20
76.3605510000002
 10
55.38722300000006
 20
76.1979040000001
 10
55.20910400000001
 20
76.02500000000009
 10
55.05603100000008
 20
75.84315300000024
 10
54.92916899999999
 20
75.65374700000029
 10
54.82948200000009
 20
75.4582240000002
 10
54.75773099999992
 20
75.25807300000019
 10
54.71446100000003
 20
75.0548160000003
 10
54.70000000000005
 20
74.85000000000012
  0
LINE
  5
5163
330
5133
100
AcDbEntity
  8
AM_0 外形線1
100
AcDbLine
 10
54.70000000000005
 20
77.20000000000027
 30
0.0
 11
54.70000000000005
 21
72.5
 31
0.0
  0
LINE
  5
5164
330
5133
100
AcDbEntity
  8
AM_0 外形線1
100
AcDbLine
 10
62.30000000000007
 20
72.5
 30
0.0
 11
62.30000000000007
 21
77.20000000000027
 31
0.0
  0
ARC
  5
5165
330
5133
100
AcDbEntity
  8
AM_0 外形線1
100
AcDbCircle
 10
61.0
 20
83.0
 30
0.0
 40
4.0
100
AcDbArc
 50
0.0
 51
90.0
  0
LINE
  5
5166
330
5133
100
AcDbEntity
  8
AM_0 外形線1
100
AcDbLine
 10
51.0
 20
80.5
 30
0.0
 11
48.0
 21
80.5
 31
0.0
  0
ARC
  5
5167
330
5133
100
AcDbEntity
  8
AM_0 外形線1
100
AcDbCircle
 10
48.0
 20
79.5
 30
0.0
 40
1.0
100
AcDbArc
 50
90.0
 51
180.0
  0
LINE
  5
5168
330
5133
100
AcDbEntity
  8
AM_0 外形線1
100
AcDbLine
 10
47.0
 20
78.90097100000001
 30
0.0
 11
47.0
 21
79.5
 31
0.0
  0
ARC
  5
5169
330
5133
100
AcDbEntity
  8
AM_0 外形線1
100
AcDbCircle
 10
51.0
 20
79.5
 30
0.0
 40
1.0
100
AcDbArc
 50
0.0
 51
90.0
  0
INSERT
  5
516A
330
5133
100
AcDbEntity
  8
AM_0 外形線1
100
AcDbBlockReference
  2
ロッカクアナツキプラグ-1　R1／8
 10
7.5
 20
-67.58219199999984
 30
0.0
  0
LINE
  5
51E0
330
5133
100
AcDbEntity
  8
AM_0 外形線1
100
AcDbLine
 10
-3.5
 20
85.0
 30
0.0
 11
2.200000000000045
 21
85.0
 31
0.0
  0
LINE
  5
51E1
330
5133
100
AcDbEntity
  8
AM_0 外形線1
100
AcDbLine
 10
0.0
 20
89.4000000000001
 30
0.0
 11
0.0
 21
95.5
 31
0.0
  0
LINE
  5
51E2
330
5133
100
AcDbEntity
  8
AM_0 外形線1
100
AcDbLine
 10
0.0
 20
95.5
 30
0.0
 11
15.0
 21
95.5
 31
0.0
  0
LINE
  5
51E3
330
5133
100
AcDbEntity
  8
AM_0 外形線1
100
AcDbLine
 10
0.0
 20
106.5
 30
0.0
 11
15.0
 21
106.5
 31
0.0
  0
LINE
  5
51E4
330
5133
100
AcDbEntity
  8
AM_0 外形線1
100
AcDbLine
 10
0.0
 20
-110.9999999999997
 30
0.0
 11
0.0
 21
0.0
 31
0.0
  0
ENDBLK
  5
5135
330
5133
100
AcDbEntity
  8
0
100
AcDbBlockEnd
  0
BLOCK
  5
5287
330
5286
100
AcDbEntity
  8
0
100
AcDbBlockBegin
  2
ケースＡ-2 SAM224
 70
     0
 10
0.0
 20
0.0
 30
0.0
  3
ケースＡ-2 SAM224
  1

  0
LINE
  5
5289
330
5286
100
AcDbEntity
  8
AM_7 中心線
100
AcDbLine
 10
27.0
 20
101.0
 30
0.0
 11
-35.0
 21
101.0
 31
0.0
  0
LINE
  5
528A
330
5286
100
AcDbEntity
  8
AM_0 外形線1
100
AcDbLine
 10
-18.0
 20
-86.99999999999977
 30
0.0
 11
-61.0
 21
-86.99999999999977
 31
0.0
  0
ARC
  5
528B
330
5286
100
AcDbEntity
  8
AM_0 外形線1
100
AcDbCircle
 10
-20.0
 20
79.5
 30
0.0
 40
1.0
100
AcDbArc
 50
90.0
 51
180.0
  0
LINE
  5
528C
330
5286
100
AcDbEntity
  8
AM_7 中心線
100
AcDbLine
 10
-19.0
 20
77.5
 30
0.0
 11
-49.0
 21
77.5
 31
0.0
  0
LINE
  5
528D
330
5286
100
AcDbEntity
  8
AM_0 外形線1
100
AcDbLine
 10
-18.0
 20
87.0
 30
0.0
 11
-61.0
 21
87.0
 31
0.0
  0
LINE
  5
528E
330
5286
100
AcDbEntity
  8
AM_0 外形線1
100
AcDbLine
 10
-65.0
 20
-82.99999999999975
 30
0.0
 11
-65.0
 21
0.0
 31
0.0
  0
ARC
  5
528F
330
5286
100
AcDbEntity
  8
AM_0 外形線1
100
AcDbCircle
 10
-61.0
 20
-82.99999999999975
 30
0.0
 40
4.0
100
AcDbArc
 50
180.0
 51
270.0
  0
LINE
  5
5290
330
5286
100
AcDbEntity
  8
AM_0 外形線1
100
AcDbLine
 10
-21.0
 20
76.5
 30
0.0
 11
-21.0
 21
79.5
 31
0.0
  0
LINE
  5
5291
330
5286
100
AcDbEntity
  8
AM_3 隠れ線
100
AcDbLine
 10
-47.0
 20
78.90097100000001
 30
0.0
 11
-47.0
 21
76.5
 31
0.0
  0
LINE
  5
5292
330
5286
100
AcDbEntity
  8
AM_0 外形線1
100
AcDbLine
 10
-65.0
 20
83.0
 30
0.0
 11
-65.0
 21
72.5
 31
0.0
  0
LINE
  5
5293
330
5286
100
AcDbEntity
  8
AM_0 外形線1
100
AcDbLine
 10
-52.0
 20
72.5
 30
0.0
 11
-52.0
 21
79.5
 31
0.0
  0
LINE
  5
5295
330
5286
100
AcDbEntity
  8
AM_3 隠れ線
100
AcDbLine
 10
-24.0
 20
75.5
 30
0.0
 11
-46.0
 21
75.5
 31
0.0
  0
LINE
  5
5296
330
5286
100
AcDbEntity
  8
AM_0 外形線1
100
AcDbLine
 10
-62.29999999999972
 20
77.20000000000027
 30
0.0
 11
-54.69999999999981
 21
77.20000000000027
 31
0.0
  0
LWPOLYLINE
  5
5297
330
5286
100
AcDbEntity
  8
AM_0 外形線1
100
AcDbPolyline
 90
       73
 70
     0
 43
0.0
 10
-54.69999999999981
 20
74.85000000000012
 10
-54.71445999999968
 20
75.0548160000003
 10
-54.75772999999981
 20
75.25807300000019
 10
-54.82948099999976
 20
75.4582240000002
 10
-54.92916799999965
 20
75.65374700000029
 10
-55.05602999999974
 20
75.84315300000024
 10
-55.2091029999999
 20
76.02500000000009
 10
-55.38722199999984
 20
76.1979040000001
 10
-55.58903099999975
 20
76.3605510000002
 10
-55.8129939999999
 20
76.51170100000036
 10
-56.05740699999977
 20
76.65020400000003
 10
-56.32040899999992
 20
76.77500700000019
 10
-56.5999999999999
 20
76.88515900000037
 10
-56.89404999999989
 20
76.97982300000012
 10
-57.2003229999998
 20
77.05827700000009
 10
-57.51648699999987
 20
77.11992500000019
 10
-57.8401359999998
 20
77.16429800000014
 10
-58.16880799999989
 20
77.19105700000024
 10
-58.5
 20
77.20000000000027
 10
-58.83119099999976
 20
77.19105700000024
 10
-59.15986299999985
 20
77.16429800000014
 10
-59.48351199999979
 20
77.11992500000019
 10
-59.79967599999985
 20
77.05827700000009
 10
-60.10594899999978
 20
76.97982300000012
 10
-60.39999999999985
 20
76.88515900000037
 10
-60.67958999999972
 20
76.77500700000019
 10
-60.94259199999989
 20
76.65020400000003
 10
-61.18700499999977
 20
76.51170100000036
 10
-61.41096799999967
 20
76.3605510000002
 10
-61.61277699999981
 20
76.1979040000001
 10
-61.79089599999997
 20
76.02500000000009
 10
-61.94396899999992
 20
75.84315300000024
 10
-62.07083099999977
 20
75.65374700000029
 10
-62.17051799999989
 20
75.4582240000002
 10
-62.24226899999984
 20
75.25807300000019
 10
-62.28553899999997
 20
75.0548160000003
 10
-62.29999999999972
 20
74.85000000000012
 10
-62.28553899999997
 20
74.6451840000002
 10
-62.24226899999984
 20
74.44192600000019
 10
-62.17051799999989
 20
74.24177500000019
 10
-62.07083099999977
 20
74.04625200000009
 10
-61.94396899999992
 20
73.85684700000024
 10
-61.79089599999997
 20
73.6750000000002
 10
-61.61277699999981
 20
73.50209500000028
 10
-61.41096799999967
 20
73.33944900000004
 10
-61.18700499999977
 20
73.18829900000014
 10
-60.94259199999989
 20
73.04979500000013
 10
-60.67958999999972
 20
72.9249920000002
 10
-60.39999999999985
 20
72.81484000000024
 10
-60.10594899999978
 20
72.72017600000026
 10
-59.79967599999985
 20
72.6417220000003
 10
-59.48351199999979
 20
72.58007400000019
 10
-59.15986299999985
 20
72.53570100000025
 10
-58.83119099999976
 20
72.50894200000015
 10
-58.5
 20
72.5
 10
-58.16880799999989
 20
72.50894200000015
 10
-57.8401359999998
 20
72.53570100000025
 10
-57.51648699999987
 20
72.58007400000019
 10
-57.2003229999998
 20
72.6417220000003
 10
-56.89404999999989
 20
72.72017600000026
 10
-56.5999999999999
 20
72.81484000000024
 10
-56.32040899999992
 20
72.9249920000002
 10
-56.05740699999977
 20
73.04979500000013
 10
-55.8129939999999
 20
73.18829900000014
 10
-55.58903099999975
 20
73.33944900000004
 10
-55.38722199999984
 20
73.50209500000028
 10
-55.2091029999999
 20
73.6750000000002
 10
-55.05602999999974
 20
73.85684700000024
 10
-54.92916799999965
 20
74.04625200000009
 10
-54.82948099999976
 20
74.24177500000019
 10
-54.75772999999981
 20
74.44192600000019
 10
-54.71445999999968
 20
74.6451840000002
 10
-54.69999999999981
 20
74.85000000000012
  0
LINE
  5
5298
330
5286
100
AcDbEntity
  8
AM_0 外形線1
100
AcDbLine
 10
-65.0
 20
73.75
 30
0.0
 11
-62.29999999999972
 21
73.75
 31
0.0
  0
LINE
  5
5299
330
5286
100
AcDbEntity
  8
AM_0 外形線1
100
AcDbLine
 10
-62.29999999999972
 20
72.5
 30
0.0
 11
-62.29999999999972
 21
77.20000000000027
 31
0.0
  0
LINE
  5
529A
330
5286
100
AcDbEntity
  8
AM_0 外形線1
100
AcDbLine
 10
-54.69999999999981
 20
73.75
 30
0.0
 11
-52.0
 21
73.75
 31
0.0
  0
LINE
  5
529B
330
5286
100
AcDbEntity
  8
AM_3 隠れ線
100
AcDbLine
 10
-47.0
 20
76.5
 30
0.0
 11
-46.0
 21
75.5
 31
0.0
  0
LINE
  5
529C
330
5286
100
AcDbEntity
  8
AM_0 外形線1
100
AcDbLine
 10
-54.69999999999981
 20
77.20000000000027
 30
0.0
 11
-54.69999999999981
 21
72.5
 31
0.0
  0
LINE
  5
529D
330
5286
100
AcDbEntity
  8
AM_0 外形線1
100
AcDbLine
 10
-22.0
 20
75.5
 30
0.0
 11
-21.0
 21
76.5
 31
0.0
  0
LINE
  5
529E
330
5286
100
AcDbEntity
  8
AM_0 外形線1
100
AcDbLine
 10
-24.0
 20
75.5
 30
0.0
 11
-22.0
 21
75.5
 31
0.0
  0
LINE
  5
529F
330
5286
100
AcDbEntity
  8
AM_0 外形線1
100
AcDbLine
 10
-21.0
 20
80.0
 30
0.0
 11
-47.0
 21
80.0
 31
0.0
  0
ARC
  5
52A0
330
5286
100
AcDbEntity
  8
AM_0 外形線1
100
AcDbCircle
 10
-61.0
 20
83.0
 30
0.0
 40
4.0
100
AcDbArc
 50
90.0
 51
180.0
  0
ARC
  5
52A1
330
5286
100
AcDbEntity
  8
AM_0 外形線1
100
AcDbCircle
 10
-51.0
 20
79.5
 30
0.0
 40
1.0
100
AcDbArc
 50
90.0
 51
180.0
  0
LINE
  5
52A2
330
5286
100
AcDbEntity
  8
AM_0 外形線1
100
AcDbLine
 10
-51.0
 20
80.5
 30
0.0
 11
-48.0
 21
80.5
 31
0.0
  0
ARC
  5
52A3
330
5286
100
AcDbEntity
  8
AM_0 外形線1
100
AcDbCircle
 10
-48.0
 20
79.5
 30
0.0
 40
1.0
100
AcDbArc
 50
0.0
 51
90.0
  0
LINE
  5
52A4
330
5286
100
AcDbEntity
  8
AM_0 外形線1
100
AcDbLine
 10
-47.0
 20
78.90097100000001
 30
0.0
 11
-47.0
 21
79.5
 31
0.0
  0
LINE
  5
52A5
330
5286
100
AcDbEntity
  8
AM_0 外形線1
100
AcDbLine
 10
-15.0
 20
-110.9999999999997
 30
0.0
 11
-15.0
 21
0.0
 31
0.0
  0
LINE
  5
52A7
330
5286
100
AcDbEntity
  8
AM_0 外形線1
100
AcDbLine
 10
-1.0
 20
-111.9999999999997
 30
0.0
 11
-14.0
 21
-111.9999999999997
 31
0.0
  0
LINE
  5
52A8
330
5286
100
AcDbEntity
  8
AM_0 外形線1
100
AcDbLine
 10
-14.0
 20
-111.9999999999997
 30
0.0
 11
-15.0
 21
-110.9999999999997
 31
0.0
  0
LINE
  5
52A9
330
5286
100
AcDbEntity
  8
AM_0 外形線1
100
AcDbLine
 10
0.0
 20
-110.9999999999997
 30
0.0
 11
-1.0
 21
-111.9999999999997
 31
0.0
  0
ARC
  5
52AA
330
5286
100
AcDbEntity
  8
AM_0 外形線1
100
AcDbCircle
 10
-18.0
 20
-89.99999999999976
 30
0.0
 40
3.0
100
AcDbArc
 50
0.0
 51
90.0
  0
LINE
  5
52AC
330
5286
100
AcDbEntity
  8
AM_0 外形線1
100
AcDbLine
 10
-15.0
 20
106.5
 30
0.0
 11
0.0000000000000568
 21
106.5
 31
0.0
  0
LINE
  5
52AD
330
5286
100
AcDbEntity
  8
AM_0 外形線1
100
AcDbLine
 10
-15.0
 20
95.5
 30
0.0
 11
0.0000000000001137
 21
95.50000000000013
 31
0.0
  0
LINE
  5
52AE
330
5286
100
AcDbEntity
  8
AM_0 外形線1
100
AcDbLine
 10
4.0
 20
84.50000000000001
 30
0.0
 11
3.5
 21
85.0
 31
0.0
  0
LINE
  5
52AF
330
5286
100
AcDbEntity
  8
AM_0 外形線1
100
AcDbLine
 10
-2.199999999999818
 20
85.0
 30
0.0
 11
3.5
 21
85.0
 31
0.0
  0
LINE
  5
52B0
330
5286
100
AcDbEntity
  8
AM_0 外形線1
100
AcDbLine
 10
-20.0
 20
80.5
 30
0.0
 11
4.0
 21
80.5
 31
0.0
  0
LINE
  5
52B1
330
5286
100
AcDbEntity
  8
AM_0 外形線1
100
AcDbLine
 10
-15.0
 20
90.0
 30
0.0
 11
-15.0
 21
111.0
 31
0.0
  0
ARC
  5
52B2
330
5286
100
AcDbEntity
  8
AM_0 外形線1
100
AcDbCircle
 10
-18.0
 20
90.0
 30
0.0
 40
3.0
100
AcDbArc
 50
270.0
 51
0.0
  0
ARC
  5
52B3
330
5286
100
AcDbEntity
  8
AM_0 外形線1
100
AcDbCircle
 10
-2.199999999999818
 20
85.5
 30
0.0
 40
0.5
100
AcDbArc
 50
180.0
 51
270.0
  0
LINE
  5
52B4
330
5286
100
AcDbEntity
  8
AM_0 外形線1
100
AcDbLine
 10
-2.699999999999818
 20
85.5
 30
0.0
 11
-2.699999999999818
 21
88.90000000000009
 31
0.0
  0
ARC
  5
52B5
330
5286
100
AcDbEntity
  8
AM_0 外形線1
100
AcDbCircle
 10
-2.199999999999818
 20
88.90000000000009
 30
0.0
 40
0.5
100
AcDbArc
 50
90.0
 51
180.0
  0
LINE
  5
52B6
330
5286
100
AcDbEntity
  8
AM_0 外形線1
100
AcDbLine
 10
-2.199999999999818
 20
89.4000000000001
 30
0.0
 11
0.0
 21
89.4000000000001
 31
0.0
  0
LINE
  5
52B7
330
5286
100
AcDbEntity
  8
AM_0 外形線1
100
AcDbLine
 10
0.0
 20
89.4000000000001
 30
0.0
 11
0.0
 21
95.5
 31
0.0
  0
LWPOLYLINE
  5
52B8
330
5286
100
AcDbEntity
  8
AM_0 外形線1
100
AcDbPolyline
 90
       73
 70
     0
 43
0.0
 10
-1.349999999999909
 20
85.0
 10
-1.232338999999682
 20
85.00837100000012
 10
-1.115573999999923
 20
85.03342300000031
 10
-1.000593999999863
 20
85.07496300000003
 10
-0.8882719999996878
 20
85.13267600000018
 10
-0.7794649999998457
 20
85.20612300000015
 10
-0.6749999999997272
 20
85.29474400000026
 10
-0.5756709999998293
 20
85.39786500000014
 10
-0.4822359999998298
 20
85.51470200000016
 10
-0.3954049999997551
 20
85.64436500000011
 10
-0.3158399999997528
 20
85.78586700000007
 10
-0.2441439999997783
 20
85.9381320000002
 10
-0.1808649999998124
 20
86.10000000000013
 10
-0.1264839999998912
 20
86.27024000000028
 10
-0.0814139999997679
 20
86.44755500000021
 10
-0.0459999999998218
 20
86.63059800000018
 10
-0.0205089999999473
 20
86.81797400000004
 10
-0.0051369999998769
 20
87.00825700000018
 10
0.0
 20
87.20000000000027
 10
-0.0051369999998769
 20
87.39174200000025
 10
-0.0205089999999473
 20
87.58202600000027
 10
-0.0459999999998218
 20
87.76940200000034
 10
-0.0814139999997679
 20
87.95244400000022
 10
-0.1264839999998912
 20
88.12976000000025
 10
-0.1808649999998124
 20
88.30000000000017
 10
-0.2441439999997783
 20
88.46186800000031
 10
-0.3158399999997528
 20
88.61413200000015
 10
-0.3954049999997551
 20
88.75563500000021
 10
-0.4822359999998298
 20
88.88529700000026
 10
-0.5756709999998293
 20
89.00213400000032
 10
-0.6749999999997272
 20
89.10525600000028
 10
-0.7794649999998457
 20
89.19387700000015
 10
-0.8882719999996878
 20
89.26732300000002
 10
-1.000593999999863
 20
89.32503700000005
 10
-1.115573999999923
 20
89.36657700000024
 10
-1.232338999999682
 20
89.39162800000032
 10
-1.349999999999909
 20
89.4000000000001
 10
-1.467659999999795
 20
89.39162800000032
 10
-1.58442500000001
 20
89.36657700000024
 10
-1.699404999999841
 20
89.32503700000005
 10
-1.811726999999791
 20
89.26732300000002
 10
-1.92053399999986
 20
89.19387700000015
 10
-2.024999999999862
 20
89.10525600000028
 10
-2.124327999999876
 20
89.00213400000032
 10
-2.217762999999877
 20
88.88529700000026
 10
-2.304593999999724
 20
88.75563500000021
 10
-2.384159999999837
 20
88.61413200000015
 10
-2.455854999999701
 20
88.46186800000031
 10
-2.519133999999667
 20
88.30000000000017
 10
-2.573515000000043
 20
88.12976000000025
 10
-2.61858499999971
 20
87.95244400000022
 10
-2.653998999999884
 20
87.76940200000034
 10
-2.679489999999987
 20
87.58202600000027
 10
-2.69486199999983
 20
87.39174200000025
 10
-2.699999999999818
 20
87.20000000000027
 10
-2.69486199999983
 20
87.00825700000018
 10
-2.679489999999987
 20
86.81797400000004
 10
-2.653998999999884
 20
86.63059800000018
 10
-2.61858499999971
 20
86.44755500000021
 10
-2.573515000000043
 20
86.27024000000028
 10
-2.519133999999667
 20
86.10000000000013
 10
-2.455854999999701
 20
85.9381320000002
 10
-2.384159999999837
 20
85.78586700000007
 10
-2.304593999999724
 20
85.64436500000011
 10
-2.217762999999877
 20
85.51470200000016
 10
-2.124327999999876
 20
85.39786500000014
 10
-2.024999999999862
 20
85.29474400000026
 10
-1.92053399999986
 20
85.20612300000015
 10
-1.811726999999791
 20
85.13267600000018
 10
-1.699404999999841
 20
85.07496300000003
 10
-1.58442500000001
 20
85.03342300000031
 10
-1.467659999999795
 20
85.00837100000012
 10
-1.349999999999909
 20
85.0
  0
LINE
  5
52B9
330
5286
100
AcDbEntity
  8
AM_0 外形線1
100
AcDbLine
 10
-1.0
 20
112.0
 30
0.0
 11
-14.0
 21
112.0
 31
0.0
  0
LINE
  5
52BA
330
5286
100
AcDbEntity
  8
AM_0 外形線1
100
AcDbLine
 10
-14.0
 20
112.0
 30
0.0
 11
-15.0
 21
111.0
 31
0.0
  0
LINE
  5
52BB
330
5286
100
AcDbEntity
  8
AM_0 外形線1
100
AcDbLine
 10
0.0
 20
111.0
 30
0.0
 11
-1.0
 21
112.0
 31
0.0
  0
LINE
  5
52BC
330
5286
100
AcDbEntity
  8
AM_0 外形線1
100
AcDbLine
 10
0.0
 20
106.5
 30
0.0
 11
0.0
 21
111.0000000000001
 31
0.0
  0
LINE
  5
52BD
330
5286
100
AcDbEntity
  8
AM_0 外形線1
100
AcDbLine
 10
4.0
 20
80.5
 30
0.0
 11
4.0
 21
84.50000000000001
 31
0.0
  0
LINE
  5
5348
330
5286
100
AcDbEntity
  8
AM_0 外形線1
100
AcDbLine
 10
0.0
 20
-110.9999999999997
 30
0.0
 11
0.0
 21
0.0
 31
0.0
  0
INSERT
  5
542C
330
5286
100
AcDbEntity
  8
AM_0 外形線1
100
AcDbBlockReference
  2
ロッカクアナツキプラグ-2　R1／8
 10
-7.5
 20
-67.58219199999984
 30
0.0
  0
ENDBLK
  5
5288
330
5286
100
AcDbEntity
  8
0
100
AcDbBlockEnd
  0
BLOCK
  5
5490
330
548F
100
AcDbEntity
  8
0
100
AcDbBlockBegin
  2
センタ-1 SAM224
 70
     0
 10
0.0
 20
0.0
 30
0.0
  3
センタ-1 SAM224
  1

  0
LINE
  5
5493
330
548F
100
AcDbEntity
  8
AM_0 外形線1
100
AcDbLine
 10
112.0
 20
-67.89999999999986
 30
0.0
 11
112.0
 21
67.90000000000009
 31
0.0
  0
LINE
  5
5494
330
548F
100
AcDbEntity
  8
AM_0 外形線1
100
AcDbLine
 10
0.0
 20
70.5
 30
0.0
 11
0.0
 21
0.0
 31
0.0
  0
LINE
  5
5495
330
548F
100
AcDbEntity
  8
AM_3 隠れ線
100
AcDbLine
 10
0.0
 20
4.25
 30
0.0
 11
29.0
 21
4.25
 31
0.0
  0
LINE
  5
5496
330
548F
100
AcDbEntity
  8
AM_3 隠れ線
100
AcDbLine
 10
0.0
 20
5.0
 30
0.0
 11
24.0
 21
5.0
 31
0.0
  0
LINE
  5
5497
330
548F
100
AcDbEntity
  8
AM_3 隠れ線
100
AcDbLine
 10
29.0
 20
4.25
 30
0.0
 11
31.45373900000004
 21
0.0
 31
0.0
  0
LINE
  5
5498
330
548F
100
AcDbEntity
  8
AM_3 隠れ線
100
AcDbLine
 10
29.0
 20
4.25
 30
0.0
 11
29.0
 21
0.0
 31
0.0
  0
LINE
  5
5499
330
548F
100
AcDbEntity
  8
AM_3 隠れ線
100
AcDbLine
 10
24.0
 20
5.0
 30
0.0
 11
24.43301300000007
 21
4.25
 31
0.0
  0
LINE
  5
549A
330
548F
100
AcDbEntity
  8
AM_3 隠れ線
100
AcDbLine
 10
24.43301300000007
 20
4.25
 30
0.0
 11
24.43301300000007
 21
0.0
 31
0.0
  0
LINE
  5
549B
330
548F
100
AcDbEntity
  8
AM_3 隠れ線
100
AcDbLine
 10
24.0
 20
0.0
 30
0.0
 11
24.0
 21
5.0
 31
0.0
  0
LINE
  5
549C
330
548F
100
AcDbEntity
  8
AM_0 外形線1
100
AcDbLine
 10
71.0
 20
-72.49999999999976
 30
0.0
 11
71.0
 21
0.0
 31
0.0
  0
LINE
  5
549D
330
548F
100
AcDbEntity
  8
AM_0 外形線1
100
AcDbLine
 10
73.0
 20
-71.89999999999987
 30
0.0
 11
73.0
 21
0.0
 31
0.0
  0
LINE
  5
549E
330
548F
100
AcDbEntity
  8
AM_0 外形線1
100
AcDbLine
 10
73.0
 20
-71.89999999999987
 30
0.0
 11
108.0
 21
-71.89999999999987
 31
0.0
  0
LINE
  5
549F
330
548F
100
AcDbEntity
  8
AM_0 外形線1
100
AcDbLine
 10
59.0
 20
-72.49999999999976
 30
0.0
 11
71.0
 21
-72.49999999999976
 31
0.0
  0
LINE
  5
54A0
330
548F
100
AcDbEntity
  8
AM_0 外形線1
100
AcDbLine
 10
71.0
 20
-72.49999999999976
 30
0.0
 11
73.0
 21
-71.89999999999987
 31
0.0
  0
ARC
  5
54A1
330
548F
100
AcDbEntity
  8
AM_0 外形線1
100
AcDbCircle
 10
108.0
 20
-67.89999999999986
 30
0.0
 40
4.0
100
AcDbArc
 50
270.0
 51
0.0
  0
LINE
  5
54A2
330
548F
100
AcDbEntity
  8
AM_0 外形線1
100
AcDbLine
 10
0.0
 20
43.2085945960747
 30
0.0
 11
112.0
 21
43.2085945960747
 31
0.0
  0
ARC
  5
54A3
330
548F
100
AcDbEntity
  8
AM_0 外形線1
100
AcDbCircle
 10
28.5
 20
0.0
 30
0.0
 40
79.88500000000001
100
AcDbArc
 50
80.99765199999593
 51
96.82983200000395
  0
LINE
  5
54A6
330
548F
100
AcDbEntity
  8
AM_0 外形線1
100
AcDbLine
 10
18.0
 20
78.19193900000026
 30
0.0
 11
18.0
 21
71.5
 31
0.0
  0
LINE
  5
54A7
330
548F
100
AcDbEntity
  8
AM_7 中心線
100
AcDbLine
 10
28.5
 20
84.88500000000021
 30
0.0
 11
28.5
 21
69.75
 31
0.0
  0
LINE
  5
54A8
330
548F
100
AcDbEntity
  8
AM_0 外形線1
100
AcDbLine
 10
17.5
 20
71.0
 30
0.0
 11
0.5
 21
71.0
 31
0.0
  0
LINE
  5
54A9
330
548F
100
AcDbEntity
  8
AM_0 外形線1
100
AcDbLine
 10
0.5
 20
71.0
 30
0.0
 11
0.0
 21
70.5
 31
0.0
  0
ARC
  5
54AA
330
548F
100
AcDbEntity
  8
AM_0 外形線1
100
AcDbCircle
 10
17.5
 20
71.5
 30
0.0
 40
0.5
100
AcDbArc
 50
270.0
 51
0.0
  0
LINE
  5
54AB
330
548F
100
AcDbEntity
  8
AM_0 外形線1
100
AcDbLine
 10
19.0
 20
79.31811400000015
 30
0.0
 11
18.0
 21
78.19193900000026
 31
0.0
  0
LINE
  5
54AC
330
548F
100
AcDbEntity
  8
AM_0 外形線1
100
AcDbLine
 10
42.0
 20
77.73603500000034
 30
0.0
 11
41.0
 21
78.90097100000001
 31
0.0
  0
LINE
  5
54AD
330
548F
100
AcDbEntity
  8
AM_0 外形線1
100
AcDbLine
 10
108.0
 20
71.90000000000009
 30
0.0
 11
73.0
 21
71.90000000000009
 31
0.0
  0
LINE
  5
54AE
330
548F
100
AcDbEntity
  8
AM_0 外形線1
100
AcDbLine
 10
71.0
 20
72.5
 30
0.0
 11
42.5
 21
72.5
 31
0.0
  0
ARC
  5
54AF
330
548F
100
AcDbEntity
  8
AM_0 外形線1
100
AcDbCircle
 10
42.5
 20
73.0
 30
0.0
 40
0.5
100
AcDbArc
 50
180.0
 51
270.0
  0
LINE
  5
54B0
330
548F
100
AcDbEntity
  8
AM_0 外形線1
100
AcDbLine
 10
42.0
 20
73.0
 30
0.0
 11
42.0
 21
77.73603500000034
 31
0.0
  0
LINE
  5
54B1
330
548F
100
AcDbEntity
  8
AM_0 外形線1
100
AcDbLine
 10
73.0
 20
71.90000000000009
 30
0.0
 11
71.0
 21
72.5
 31
0.0
  0
ARC
  5
54B3
330
548F
100
AcDbEntity
  8
AM_0 外形線1
100
AcDbCircle
 10
108.0
 20
67.90000000000009
 30
0.0
 40
4.0
100
AcDbArc
 50
0.0
 51
90.0
  0
ARC
  5
9CF1
330
548F
100
AcDbEntity
  8
AM_7 中心線
100
AcDbCircle
 10
28.50000000000012
 20
0.0
 30
0.0
 40
77.5000000000001
100
AcDbArc
 50
79.00164730842472
 51
98.98425509471032
  0
ARC
  5
9CF2
330
548F
100
AcDbEntity
  8
AM_0 外形線1
100
AcDbCircle
 10
28.50000000000012
 20
0.0
 30
0.0
 40
74.75000000000012
100
AcDbArc
 50
79.59517305294156
 51
98.07494144752613
  0
ENDBLK
  5
5491
330
548F
100
AcDbEntity
  8
0
100
AcDbBlockEnd
  0
BLOCK
  5
5500
330
54FF
100
AcDbEntity
  8
0
100
AcDbBlockBegin
  2
センタ-2 SAM224
 70
     0
 10
0.0
 20
0.0
 30
0.0
  3
センタ-2 SAM224
  1

  0
LINE
  5
5502
330
54FF
100
AcDbEntity
  8
AM_0 外形線1
100
AcDbLine
 10
0.0
 20
43.2085945960747
 30
0.0
 11
-111.9999999999997
 21
43.2085945960747
 31
0.0
  0
LINE
  5
5503
330
54FF
100
AcDbEntity
  8
AM_0 外形線1
100
AcDbLine
 10
-17.5
 20
71.0
 30
0.0
 11
-0.5
 21
71.0
 31
0.0
  0
LINE
  5
5504
330
54FF
100
AcDbEntity
  8
AM_3 隠れ線
100
AcDbLine
 10
0.0
 20
4.25
 30
0.0
 11
-29.0
 21
4.25
 31
0.0
  0
LINE
  5
5505
330
54FF
100
AcDbEntity
  8
AM_3 隠れ線
100
AcDbLine
 10
0.0
 20
5.0
 30
0.0
 11
-24.0
 21
5.0
 31
0.0
  0
LINE
  5
5506
330
54FF
100
AcDbEntity
  8
AM_0 外形線1
100
AcDbLine
 10
-111.9999999999997
 20
-67.89999999999986
 30
0.0
 11
-111.9999999999997
 21
67.90000000000009
 31
0.0
  0
LINE
  5
5508
330
54FF
100
AcDbEntity
  8
AM_0 外形線1
100
AcDbLine
 10
-71.0
 20
-72.49999999999976
 30
0.0
 11
-71.0
 21
0.0
 31
0.0
  0
LINE
  5
5509
330
54FF
100
AcDbEntity
  8
AM_0 外形線1
100
AcDbLine
 10
-73.0
 20
-71.89999999999987
 30
0.0
 11
-73.0
 21
0.0
 31
0.0
  0
LINE
  5
550A
330
54FF
100
AcDbEntity
  8
AM_0 外形線1
100
AcDbLine
 10
-59.0
 20
-72.49999999999976
 30
0.0
 11
-71.0
 21
-72.49999999999976
 31
0.0
  0
LINE
  5
550B
330
54FF
100
AcDbEntity
  8
AM_0 外形線1
100
AcDbLine
 10
-73.0
 20
-71.89999999999987
 30
0.0
 11
-107.9999999999998
 21
-71.89999999999987
 31
0.0
  0
ARC
  5
550C
330
54FF
100
AcDbEntity
  8
AM_0 外形線1
100
AcDbCircle
 10
-107.9999999999998
 20
-67.89999999999986
 30
0.0
 40
4.0
100
AcDbArc
 50
180.0
 51
270.0
  0
LINE
  5
550D
330
54FF
100
AcDbEntity
  8
AM_0 外形線1
100
AcDbLine
 10
-71.0
 20
-72.49999999999976
 30
0.0
 11
-73.0
 21
-71.89999999999987
 31
0.0
  0
LINE
  5
550E
330
54FF
100
AcDbEntity
  8
AM_3 隠れ線
100
AcDbLine
 10
-29.0
 20
4.25
 30
0.0
 11
-31.4537379999997
 21
0.0
 31
0.0
  0
LINE
  5
550F
330
54FF
100
AcDbEntity
  8
AM_3 隠れ線
100
AcDbLine
 10
-29.0
 20
4.25
 30
0.0
 11
-29.0
 21
0.0
 31
0.0
  0
LINE
  5
5510
330
54FF
100
AcDbEntity
  8
AM_3 隠れ線
100
AcDbLine
 10
-24.0
 20
5.0
 30
0.0
 11
-24.43301199999996
 21
4.25
 31
0.0
  0
LINE
  5
5511
330
54FF
100
AcDbEntity
  8
AM_3 隠れ線
100
AcDbLine
 10
-24.43301199999996
 20
4.25
 30
0.0
 11
-24.43301199999996
 21
0.0
 31
0.0
  0
LINE
  5
5512
330
54FF
100
AcDbEntity
  8
AM_3 隠れ線
100
AcDbLine
 10
-24.0
 20
0.0
 30
0.0
 11
-24.0
 21
5.0
 31
0.0
  0
LINE
  5
5513
330
54FF
100
AcDbEntity
  8
AM_0 外形線1
100
AcDbLine
 10
-18.0
 20
78.19193900000026
 30
0.0
 11
-18.0
 21
71.5
 31
0.0
  0
LINE
  5
5514
330
54FF
100
AcDbEntity
  8
AM_0 外形線1
100
AcDbLine
 10
-42.0
 20
77.73603500000034
 30
0.0
 11
-41.0
 21
78.90097100000001
 31
0.0
  0
LINE
  5
5515
330
54FF
100
AcDbEntity
  8
AM_7 中心線
100
AcDbLine
 10
-28.5
 20
84.88500000000021
 30
0.0
 11
-28.5
 21
69.75
 31
0.0
  0
LINE
  5
5516
330
54FF
100
AcDbEntity
  8
AM_0 外形線1
100
AcDbLine
 10
-71.0
 20
72.5
 30
0.0
 11
-42.5
 21
72.5
 31
0.0
  0
LINE
  5
5517
330
54FF
100
AcDbEntity
  8
AM_0 外形線1
100
AcDbLine
 10
-107.9999999999998
 20
71.90000000000009
 30
0.0
 11
-73.0
 21
71.90000000000009
 31
0.0
  0
ARC
  5
5519
330
54FF
100
AcDbEntity
  8
AM_0 外形線1
100
AcDbCircle
 10
-107.9999999999998
 20
67.90000000000009
 30
0.0
 40
4.0
100
AcDbArc
 50
90.0
 51
180.0
  0
LINE
  5
551A
330
54FF
100
AcDbEntity
  8
AM_0 外形線1
100
AcDbLine
 10
-73.0
 20
71.90000000000009
 30
0.0
 11
-71.0
 21
72.5
 31
0.0
  0
ARC
  5
551D
330
54FF
100
AcDbEntity
  8
AM_0 外形線1
100
AcDbCircle
 10
-42.5
 20
73.0
 30
0.0
 40
0.5
100
AcDbArc
 50
270.0
 51
0.0
  0
LINE
  5
551E
330
54FF
100
AcDbEntity
  8
AM_0 外形線1
100
AcDbLine
 10
-42.0
 20
73.0
 30
0.0
 11
-42.0
 21
77.73603500000034
 31
0.0
  0
ARC
  5
551F
330
54FF
100
AcDbEntity
  8
AM_0 外形線1
100
AcDbCircle
 10
-17.5
 20
71.5
 30
0.0
 40
0.5
100
AcDbArc
 50
180.0
 51
270.0
  0
ARC
  5
5520
330
54FF
100
AcDbEntity
  8
AM_0 外形線1
100
AcDbCircle
 10
-28.5
 20
0.0
 30
0.0
 40
79.88500000000001
100
AcDbArc
 50
83.17016799999604
 51
99.00234800000404
  0
LINE
  5
5521
330
54FF
100
AcDbEntity
  8
AM_0 外形線1
100
AcDbLine
 10
-19.0
 20
79.31811400000015
 30
0.0
 11
-18.0
 21
78.19193900000026
 31
0.0
  0
LINE
  5
5523
330
54FF
100
AcDbEntity
  8
AM_0 外形線1
100
AcDbLine
 10
-0.5
 20
71.0
 30
0.0
 11
0.0
 21
70.5
 31
0.0
  0
LINE
  5
5572
330
54FF
100
AcDbEntity
  8
AM_0 外形線1
100
AcDbLine
 10
0.0
 20
70.5
 30
0.0
 11
0.0
 21
0.0
 31
0.0
  0
ARC
  5
9BD2
330
54FF
100
AcDbEntity
  8
AM_7 中心線
100
AcDbCircle
 10
-28.5
 20
0.0
 30
0.0
 40
77.5000000000001
100
AcDbArc
 50
81.01574490529289
 51
100.9983526915752
  0
ARC
  5
9BD3
330
54FF
100
AcDbEntity
  8
AM_0 外形線1
100
AcDbCircle
 10
-28.5
 20
0.0
 30
0.0
 40
74.75000000000012
100
AcDbArc
 50
81.92505855248034
 51
100.4048269470552
  0
ENDBLK
  5
5501
330
54FF
100
AcDbEntity
  8
0
100
AcDbBlockEnd
  0
BLOCK
  5
5A2C
330
5A2B
100
AcDbEntity
  8
0
100
AcDbBlockBegin
  2
リーマボルト-1 SAM224 M10
 70
     0
 10
0.0
 20
0.0
 30
0.0
  3
リーマボルト-1 SAM224 M10
  1

  0
ARC
  5
5A2E
330
5A2B
100
AcDbEntity
  8
AM_0 外形線1
100
AcDbCircle
 10
0.5
 20
-5.5
 30
0.0
 40
0.5
100
AcDbArc
 50
90.0
 51
180.0
  0
ARC
  5
5A2F
330
5A2B
100
AcDbEntity
  8
AM_0 外形線1
100
AcDbCircle
 10
1.0
 20
-5.5
 30
0.0
 40
0.5
100
AcDbArc
 50
0.0
 51
90.0
  0
LINE
  5
5A30
330
5A2B
100
AcDbEntity
  8
AM_0 外形線1
100
AcDbLine
 10
1.5
 20
-5.5
 30
0.0
 11
1.5
 21
5.5
 31
0.0
  0
ARC
  5
5A31
330
5A2B
100
AcDbEntity
  8
AM_0 外形線1
100
AcDbCircle
 10
5.261477000000127
 20
-4.243524999999863
 30
0.0
 40
12.268203
100
AcDbArc
 50
159.7634889999921
 51
200.2365110000079
  0
LINE
  5
5A32
330
5A2B
100
AcDbEntity
  8
AM_0 外形線1
100
AcDbLine
 10
-6.249444000000039
 20
-8.487048999999842
 30
0.0
 11
0.0
 21
-8.487048999999842
 31
0.0
  0
ARC
  5
5A33
330
5A2B
100
AcDbEntity
  8
AM_0 外形線1
100
AcDbCircle
 10
0.5
 20
5.5
 30
0.0
 40
0.5
100
AcDbArc
 50
180.0
 51
270.0
  0
LINE
  5
5A34
330
5A2B
100
AcDbEntity
  8
AM_0 外形線1
100
AcDbLine
 10
0.5
 20
5.0
 30
0.0
 11
1.0
 21
5.0
 31
0.0
  0
ARC
  5
5A35
330
5A2B
100
AcDbEntity
  8
AM_0 外形線1
100
AcDbCircle
 10
1.0
 20
5.5
 30
0.0
 40
0.5
100
AcDbArc
 50
270.0
 51
0.0
  0
LINE
  5
5A36
330
5A2B
100
AcDbEntity
  8
AM_0 外形線1
100
AcDbLine
 10
0.5
 20
-5.0
 30
0.0
 11
1.0
 21
-5.0
 31
0.0
  0
LINE
  5
5A37
330
5A2B
100
AcDbEntity
  8
AM_0 外形線1
100
AcDbLine
 10
0.0
 20
8.487049000000297
 30
0.0
 11
-6.249444000000039
 21
8.487049000000297
 31
0.0
  0
ARC
  5
5A38
330
5A2B
100
AcDbEntity
  8
AM_0 外形線1
100
AcDbCircle
 10
5.261477000000127
 20
4.243524000000205
 30
0.0
 40
12.268203
100
AcDbArc
 50
159.7634889999921
 51
200.2365110000079
  0
LINE
  5
5A39
330
5A2B
100
AcDbEntity
  8
AM_0 外形線1
100
AcDbLine
 10
-7.0
 20
4.649726000000099
 30
0.0
 11
-7.0
 21
-3.837322999999742
 31
0.0
  0
LINE
  5
5A3A
330
5A2B
100
AcDbEntity
  8
AM_0 外形線1
100
AcDbLine
 10
28.0
 20
4.922649000000092
 30
0.0
 11
30.0
 21
4.922649000000092
 31
0.0
  0
LINE
  5
5A3B
330
5A2B
100
AcDbEntity
  8
AM_0 外形線1
100
AcDbLine
 10
28.0
 20
-4.922649999999974
 30
0.0
 11
30.0
 21
-4.922649999999974
 31
0.0
  0
LINE
  5
5A3C
330
5A2B
100
AcDbEntity
  8
AM_0 外形線1
100
AcDbLine
 10
28.0
 20
-4.922649999999974
 30
0.0
 11
27.0
 21
-5.5
 31
0.0
  0
LINE
  5
5A3D
330
5A2B
100
AcDbEntity
  8
AM_0 外形線1
100
AcDbLine
 10
27.0
 20
5.5
 30
0.0
 11
27.0
 21
-5.5
 31
0.0
  0
LINE
  5
5A3E
330
5A2B
100
AcDbEntity
  8
AM_0 外形線1
100
AcDbLine
 10
27.0
 20
5.5
 30
0.0
 11
28.0
 21
4.922649000000092
 31
0.0
  0
LINE
  5
5A3F
330
5A2B
100
AcDbEntity
  8
AM_0 外形線1
100
AcDbLine
 10
28.0
 20
4.922649000000092
 30
0.0
 11
28.0
 21
-4.922649999999974
 31
0.0
  0
LINE
  5
5A40
330
5A2B
100
AcDbEntity
  8
AM_0 外形線1
100
AcDbLine
 10
40.49999999999999
 20
8.5
 30
0.0
 11
40.49999999999999
 21
-8.5
 31
0.0
  0
LINE
  5
5A41
330
5A2B
100
AcDbEntity
  8
AM_0 外形線1
100
AcDbLine
 10
32.5
 20
-9.799999999999727
 30
0.0
 11
32.5
 21
9.80000000000018
 31
0.0
  0
ARC
  5
5A42
330
5A2B
100
AcDbEntity
  8
AM_0 外形線1
100
AcDbCircle
 10
36.13821200000007
 20
-7.353738999999678
 30
0.0
 40
4.361788999999999
100
AcDbArc
 50
325.8861589999972
 51
34.11384100000282
  0
LINE
  5
5A43
330
5A2B
100
AcDbEntity
  8
AM_0 外形線1
100
AcDbLine
 10
30.0
 20
-9.199999999999818
 30
0.0
 11
32.5
 21
-9.199999999999818
 31
0.0
  0
LINE
  5
5A44
330
5A2B
100
AcDbEntity
  8
AM_0 外形線1
100
AcDbLine
 10
40.49999999999999
 20
-8.5
 30
0.0
 11
39.74944500000004
 21
-9.799999999999727
 31
0.0
  0
LINE
  5
5A45
330
5A2B
100
AcDbEntity
  8
AM_0 外形線1
100
AcDbLine
 10
39.74944500000004
 20
-9.799999999999727
 30
0.0
 11
32.5
 21
-9.799999999999727
 31
0.0
  0
LINE
  5
5A46
330
5A2B
100
AcDbEntity
  8
AM_0 外形線1
100
AcDbLine
 10
40.49999999999999
 20
5.0
 30
0.0
 11
44.0
 21
5.0
 31
0.0
  0
LINE
  5
5A47
330
5A2B
100
AcDbEntity
  8
AM_0 外形線1
100
AcDbLine
 10
44.0
 20
-5.0
 30
0.0
 11
40.49999999999999
 21
-5.0
 31
0.0
  0
LINE
  5
5A48
330
5A2B
100
AcDbEntity
  8
AM_4 細線
100
AcDbLine
 10
40.49999999999999
 20
4.25
 30
0.0
 11
44.75
 21
4.25
 31
0.0
  0
LINE
  5
5A49
330
5A2B
100
AcDbEntity
  8
AM_4 細線
100
AcDbLine
 10
40.49999999999999
 20
-4.25
 30
0.0
 11
44.75
 21
-4.25
 31
0.0
  0
LINE
  5
5A4A
330
5A2B
100
AcDbEntity
  8
AM_0 外形線1
100
AcDbLine
 10
32.5
 20
9.200000000000272
 30
0.0
 11
30.0
 21
9.200000000000272
 31
0.0
  0
LINE
  5
5A4B
330
5A2B
100
AcDbEntity
  8
AM_0 外形線1
100
AcDbLine
 10
32.5
 20
9.80000000000018
 30
0.0
 11
39.74944500000004
 21
9.80000000000018
 31
0.0
  0
LINE
  5
5A4C
330
5A2B
100
AcDbEntity
  8
AM_0 外形線1
100
AcDbLine
 10
39.74944500000004
 20
9.80000000000018
 30
0.0
 11
40.49999999999999
 21
8.5
 31
0.0
  0
ARC
  5
5A4D
330
5A2B
100
AcDbEntity
  8
AM_0 外形線1
100
AcDbCircle
 10
36.13821200000007
 20
7.353738000000246
 30
0.0
 40
4.361788999999999
100
AcDbArc
 50
325.8861589999972
 51
34.11384100000282
  0
ARC
  5
5A4E
330
5A2B
100
AcDbEntity
  8
AM_0 外形線1
100
AcDbCircle
 10
24.08104700000001
 20
0.0
 30
0.0
 40
16.418953
100
AcDbArc
 50
342.6089940000023
 51
17.3910059999977
  0
LINE
  5
5A4F
330
5A2B
100
AcDbEntity
  8
AM_0 外形線1
100
AcDbLine
 10
32.5
 20
4.907477000000199
 30
0.0
 11
39.74944500000004
 21
4.907477000000199
 31
0.0
  0
LINE
  5
5A50
330
5A2B
100
AcDbEntity
  8
AM_0 外形線1
100
AcDbLine
 10
32.5
 20
-4.907477999999628
 30
0.0
 11
39.74944500000004
 21
-4.907477999999628
 31
0.0
  0
LINE
  5
5A51
330
5A2B
100
AcDbEntity
  8
AM_0 外形線1
100
AcDbLine
 10
32.5
 20
1.666666000000076
 30
0.0
 11
30.0
 21
-0.8333339999999225
 31
0.0
  0
LINE
  5
5A52
330
5A2B
100
AcDbEntity
  8
AM_0 外形線1
100
AcDbLine
 10
32.5
 20
0.8333330000000387
 30
0.0
 11
30.0
 21
-1.666666999999961
 31
0.0
  0
LINE
  5
5A53
330
5A2B
100
AcDbEntity
  8
AM_0 外形線1
100
AcDbLine
 10
44.0
 20
5.0
 30
0.0
 11
45.0
 21
4.0
 31
0.0
  0
LINE
  5
5A54
330
5A2B
100
AcDbEntity
  8
AM_0 外形線1
100
AcDbLine
 10
45.0
 20
4.0
 30
0.0
 11
45.0
 21
-4.0
 31
0.0
  0
LINE
  5
5A55
330
5A2B
100
AcDbEntity
  8
AM_0 外形線1
100
AcDbLine
 10
45.0
 20
-4.0
 30
0.0
 11
44.0
 21
-5.0
 31
0.0
  0
LINE
  5
5A56
330
5A2B
100
AcDbEntity
  8
AM_0 外形線1
100
AcDbLine
 10
44.0
 20
5.0
 30
0.0
 11
44.0
 21
-5.0
 31
0.0
  0
LINE
  5
5AB3
330
5A2B
100
AcDbEntity
  8
AM_0 外形線1
100
AcDbLine
 10
0.0
 20
8.487049000000297
 30
0.0
 11
0.0
 21
-8.487048999999842
 31
0.0
  0
LINE
  5
5AB4
330
5A2B
100
AcDbEntity
  8
AM_0 外形線1
100
AcDbLine
 10
-6.249444123125273
 20
-0.0000005513375072
 30
0.0
 11
0.0
 21
0.0000000000002274
 31
0.0
  0
LINE
  5
5AB5
330
5A2B
100
AcDbEntity
  8
AM_0 外形線1
100
AcDbLine
 10
1.5
 20
5.5
 30
0.0
 11
27.0
 21
5.5
 31
0.0
  0
LINE
  5
5AB6
330
5A2B
100
AcDbEntity
  8
AM_0 外形線1
100
AcDbLine
 10
1.5
 20
-5.5
 30
0.0
 11
27.0
 21
-5.5
 31
0.0
  0
LINE
  5
5AB7
330
5A2B
100
AcDbEntity
  8
AM_0 外形線1
100
AcDbLine
 10
30.0
 20
9.200000000000272
 30
0.0
 11
30.0
 21
-9.199999999999818
 31
0.0
  0
ENDBLK
  5
5A2D
330
5A2B
100
AcDbEntity
  8
0
100
AcDbBlockEnd
  0
BLOCK
  5
5B30
330
5B2F
100
AcDbEntity
  8
0
100
AcDbBlockBegin
  2
リーマボルト-2 SAM224 M10
 70
     0
 10
0.0
 20
0.0
 30
0.0
  3
リーマボルト-2 SAM224 M10
  1

  0
LINE
  5
5B32
330
5B2F
100
AcDbEntity
  8
AM_0 外形線1
100
AcDbLine
 10
-32.50000000000011
 20
9.800000000000068
 30
0.0
 11
-39.74944400000016
 21
9.800000000000068
 31
0.0
  0
LINE
  5
5B33
330
5B2F
100
AcDbEntity
  8
AM_0 外形線1
100
AcDbLine
 10
-39.74944400000016
 20
-9.79999999999984
 30
0.0
 11
-32.50000000000011
 21
-9.79999999999984
 31
0.0
  0
LINE
  5
5B34
330
5B2F
100
AcDbEntity
  8
AM_0 外形線1
100
AcDbLine
 10
-32.50000000000011
 20
4.907477000000085
 30
0.0
 11
-39.74944400000016
 21
4.907477000000085
 31
0.0
  0
LINE
  5
5B35
330
5B2F
100
AcDbEntity
  8
AM_0 外形線1
100
AcDbLine
 10
-32.50000000000011
 20
-4.90747799999974
 30
0.0
 11
-39.74944400000016
 21
-4.90747799999974
 31
0.0
  0
LINE
  5
5B36
330
5B2F
100
AcDbEntity
  8
AM_0 外形線1
100
AcDbLine
 10
-40.5000000000001
 20
8.499999999999886
 30
0.0
 11
-40.5000000000001
 21
-8.500000000000111
 31
0.0
  0
ARC
  5
5B37
330
5B2F
100
AcDbEntity
  8
AM_0 外形線1
100
AcDbCircle
 10
-36.13821100000007
 20
-7.353738999999791
 30
0.0
 40
4.361788999999999
100
AcDbArc
 50
145.8861589999971
 51
214.1138410000028
  0
LINE
  5
5B38
330
5B2F
100
AcDbEntity
  8
AM_0 外形線1
100
AcDbLine
 10
-40.5000000000001
 20
-8.500000000000111
 30
0.0
 11
-39.74944400000016
 21
-9.79999999999984
 31
0.0
  0
LINE
  5
5B39
330
5B2F
100
AcDbEntity
  8
AM_0 外形線1
100
AcDbLine
 10
-39.74944400000016
 20
9.800000000000068
 30
0.0
 11
-40.5000000000001
 21
8.499999999999886
 31
0.0
  0
ARC
  5
5B3A
330
5B2F
100
AcDbEntity
  8
AM_0 外形線1
100
AcDbCircle
 10
-36.13821100000007
 20
7.353738000000133
 30
0.0
 40
4.361788999999999
100
AcDbArc
 50
145.8861589999971
 51
214.1138410000028
  0
ARC
  5
5B3B
330
5B2F
100
AcDbEntity
  8
AM_0 外形線1
100
AcDbCircle
 10
-24.0810459999999
 20
-0.0000000000001137
 30
0.0
 40
16.418953
100
AcDbArc
 50
162.6089940000013
 51
197.3910059999987
  0
LINE
  5
5B3C
330
5B2F
100
AcDbEntity
  8
AM_0 外形線1
100
AcDbLine
 10
-40.5000000000001
 20
4.999999999999886
 30
0.0
 11
-44.00000000000011
 21
4.999999999999886
 31
0.0
  0
LINE
  5
5B3D
330
5B2F
100
AcDbEntity
  8
AM_0 外形線1
100
AcDbLine
 10
-44.00000000000011
 20
4.999999999999886
 30
0.0
 11
-45.0000000000001
 21
3.999999999999886
 31
0.0
  0
LINE
  5
5B3E
330
5B2F
100
AcDbEntity
  8
AM_0 外形線1
100
AcDbLine
 10
-45.0000000000001
 20
3.999999999999886
 30
0.0
 11
-45.0000000000001
 21
-4.000000000000113
 31
0.0
  0
LINE
  5
5B3F
330
5B2F
100
AcDbEntity
  8
AM_0 外形線1
100
AcDbLine
 10
-45.0000000000001
 20
-4.000000000000113
 30
0.0
 11
-44.00000000000011
 21
-5.000000000000113
 31
0.0
  0
LINE
  5
5B40
330
5B2F
100
AcDbEntity
  8
AM_0 外形線1
100
AcDbLine
 10
-44.00000000000011
 20
-5.000000000000113
 30
0.0
 11
-40.5000000000001
 21
-5.000000000000113
 31
0.0
  0
LINE
  5
5B41
330
5B2F
100
AcDbEntity
  8
AM_0 外形線1
100
AcDbLine
 10
-44.00000000000011
 20
4.999999999999886
 30
0.0
 11
-44.00000000000011
 21
-5.000000000000113
 31
0.0
  0
LINE
  5
5B42
330
5B2F
100
AcDbEntity
  8
AM_4 細線
100
AcDbLine
 10
-40.5000000000001
 20
4.249999999999886
 30
0.0
 11
-44.75000000000011
 21
4.249999999999886
 31
0.0
  0
LINE
  5
5B43
330
5B2F
100
AcDbEntity
  8
AM_4 細線
100
AcDbLine
 10
-40.5000000000001
 20
-4.250000000000113
 30
0.0
 11
-44.75000000000011
 21
-4.250000000000113
 31
0.0
  0
LINE
  5
5B44
330
5B2F
100
AcDbEntity
  8
AM_0 外形線1
100
AcDbLine
 10
-28.00000000000011
 20
-4.922650000000088
 30
0.0
 11
-27.00000000000012
 21
-5.500000000000113
 31
0.0
  0
LINE
  5
5B45
330
5B2F
100
AcDbEntity
  8
AM_0 外形線1
100
AcDbLine
 10
-27.00000000000012
 20
5.499999999999886
 30
0.0
 11
-27.00000000000012
 21
-5.500000000000113
 31
0.0
  0
LINE
  5
5B46
330
5B2F
100
AcDbEntity
  8
AM_0 外形線1
100
AcDbLine
 10
-32.50000000000011
 20
-9.79999999999984
 30
0.0
 11
-32.50000000000011
 21
9.800000000000068
 31
0.0
  0
LINE
  5
5B47
330
5B2F
100
AcDbEntity
  8
AM_0 外形線1
100
AcDbLine
 10
-30.00000000000011
 20
-9.199999999999931
 30
0.0
 11
-32.50000000000011
 21
-9.199999999999931
 31
0.0
  0
LINE
  5
5B48
330
5B2F
100
AcDbEntity
  8
AM_0 外形線1
100
AcDbLine
 10
-27.00000000000012
 20
5.499999999999886
 30
0.0
 11
-28.00000000000011
 21
4.922648999999978
 31
0.0
  0
LINE
  5
5B49
330
5B2F
100
AcDbEntity
  8
AM_0 外形線1
100
AcDbLine
 10
-28.00000000000011
 20
4.922648999999978
 30
0.0
 11
-28.00000000000011
 21
-4.922650000000088
 31
0.0
  0
LINE
  5
5B4A
330
5B2F
100
AcDbEntity
  8
AM_0 外形線1
100
AcDbLine
 10
-32.50000000000011
 20
9.200000000000159
 30
0.0
 11
-30.00000000000011
 21
9.200000000000159
 31
0.0
  0
LINE
  5
5B4B
330
5B2F
100
AcDbEntity
  8
AM_0 外形線1
100
AcDbLine
 10
-28.00000000000011
 20
4.922648999999978
 30
0.0
 11
-30.00000000000011
 21
4.922648999999978
 31
0.0
  0
LINE
  5
5B4C
330
5B2F
100
AcDbEntity
  8
AM_0 外形線1
100
AcDbLine
 10
-28.00000000000011
 20
-4.922650000000088
 30
0.0
 11
-30.00000000000011
 21
-4.922650000000088
 31
0.0
  0
LINE
  5
5B4D
330
5B2F
100
AcDbEntity
  8
AM_0 外形線1
100
AcDbLine
 10
-32.50000000000011
 20
-0.8333340000000362
 30
0.0
 11
-30.00000000000011
 21
1.666665999999963
 31
0.0
  0
LINE
  5
5B4E
330
5B2F
100
AcDbEntity
  8
AM_0 外形線1
100
AcDbLine
 10
-30.00000000000011
 20
0.833332999999925
 30
0.0
 11
-32.50000000000011
 21
-1.666667000000073
 31
0.0
  0
ARC
  5
5B4F
330
5B2F
100
AcDbEntity
  8
AM_0 外形線1
100
AcDbCircle
 10
-0.5000000000001137
 20
-5.500000000000113
 30
0.0
 40
0.5
100
AcDbArc
 50
0.0
 51
90.0
  0
ARC
  5
5B50
330
5B2F
100
AcDbEntity
  8
AM_0 外形線1
100
AcDbCircle
 10
-1.000000000000113
 20
-5.500000000000113
 30
0.0
 40
0.5
100
AcDbArc
 50
90.0
 51
180.0
  0
LINE
  5
5B51
330
5B2F
100
AcDbEntity
  8
AM_0 外形線1
100
AcDbLine
 10
-1.500000000000112
 20
-5.500000000000113
 30
0.0
 11
-1.500000000000112
 21
5.499999999999886
 31
0.0
  0
ARC
  5
5B52
330
5B2F
100
AcDbEntity
  8
AM_0 外形線1
100
AcDbCircle
 10
-5.261475999999787
 20
-4.243524999999976
 30
0.0
 40
12.268203
100
AcDbArc
 50
339.7634889999932
 51
20.2365110000068
  0
LINE
  5
5B53
330
5B2F
100
AcDbEntity
  8
AM_0 外形線1
100
AcDbLine
 10
6.249445000000036
 20
-8.487048999999956
 30
0.0
 11
-0.0000000000001137
 21
-8.487048999999956
 31
0.0
  0
LINE
  5
5B54
330
5B2F
100
AcDbEntity
  8
AM_0 外形線1
100
AcDbLine
 10
-0.0000000000001137
 20
8.487049000000181
 30
0.0
 11
6.249445000000036
 21
8.487049000000181
 31
0.0
  0
ARC
  5
5B55
330
5B2F
100
AcDbEntity
  8
AM_0 外形線1
100
AcDbCircle
 10
-0.5000000000001137
 20
5.499999999999886
 30
0.0
 40
0.5
100
AcDbArc
 50
270.0
 51
0.0
  0
LINE
  5
5B56
330
5B2F
100
AcDbEntity
  8
AM_0 外形線1
100
AcDbLine
 10
-0.5000000000001137
 20
4.999999999999886
 30
0.0
 11
-1.000000000000113
 21
4.999999999999886
 31
0.0
  0
ARC
  5
5B57
330
5B2F
100
AcDbEntity
  8
AM_0 外形線1
100
AcDbCircle
 10
-1.000000000000113
 20
5.499999999999886
 30
0.0
 40
0.5
100
AcDbArc
 50
180.0
 51
270.0
  0
LINE
  5
5B58
330
5B2F
100
AcDbEntity
  8
AM_0 外形線1
100
AcDbLine
 10
-0.5000000000001137
 20
-5.000000000000113
 30
0.0
 11
-1.000000000000113
 21
-5.000000000000113
 31
0.0
  0
ARC
  5
5B59
330
5B2F
100
AcDbEntity
  8
AM_0 外形線1
100
AcDbCircle
 10
-5.261475999999787
 20
4.243524000000093
 30
0.0
 40
12.268203
100
AcDbArc
 50
339.7634889999932
 51
20.2365110000068
  0
LINE
  5
5B5A
330
5B2F
100
AcDbEntity
  8
AM_0 外形線1
100
AcDbLine
 10
6.999999999999886
 20
4.649725999999986
 30
0.0
 11
6.999999999999886
 21
-3.837322999999855
 31
0.0
  0
LINE
  5
5BB7
330
5B2F
100
AcDbEntity
  8
AM_0 外形線1
100
AcDbLine
 10
-30.00000000000011
 20
9.200000000000159
 30
0.0
 11
-30.00000000000011
 21
-9.199999999999931
 31
0.0
  0
LINE
  5
5BB8
330
5B2F
100
AcDbEntity
  8
AM_0 外形線1
100
AcDbLine
 10
-27.00000000000012
 20
5.499999999999886
 30
0.0
 11
-1.500000000000112
 21
5.499999999999886
 31
0.0
  0
LINE
  5
5BB9
330
5B2F
100
AcDbEntity
  8
AM_0 外形線1
100
AcDbLine
 10
-27.00000000000012
 20
-5.500000000000113
 30
0.0
 11
-1.500000000000112
 21
-5.500000000000113
 31
0.0
  0
LINE
  5
5BBA
330
5B2F
100
AcDbEntity
  8
AM_0 外形線1
100
AcDbLine
 10
-0.0000000000001137
 20
8.487049000000181
 30
0.0
 11
-0.0000000000001137
 21
-8.487048999999956
 31
0.0
  0
LINE
  5
5BBB
330
5B2F
100
AcDbEntity
  8
AM_0 外形線1
100
AcDbLine
 10
0.0000000000001137
 20
-0.0000000000001137
 30
0.0
 11
6.249444919873893
 21
-0.0000000000002274
 31
0.0
  0
ENDBLK
  5
5B31
330
5B2F
100
AcDbEntity
  8
0
100
AcDbBlockEnd
  0
BLOCK
  5
6108
330
6107
100
AcDbEntity
  8
0
100
AcDbBlockBegin
  2
*D15
 70
     1
 10
0.0
 20
0.0
 30
0.0
  3
*D15
  1

  0
LINE
  5
902E
330
6107
100
AcDbEntity
  8
AM_5 寸法線
 62
     3
100
AcDbLine
 10
397.0399283745931
 20
759.1727520266817
 30
0.0
 11
281.0399283745933
 21
759.1727520266817
 31
0.0
  0
LINE
  5
902F
330
6107
100
AcDbEntity
  8
AM_5 寸法線
 62
     3
100
AcDbLine
 10
397.0399283745931
 20
614.1727520266821
 30
0.0
 11
281.0399283745933
 21
614.1727520266821
 31
0.0
  0
LINE
  5
9030
330
6107
100
AcDbEntity
  8
AM_5 寸法線
 62
     3
100
AcDbLine
 10
282.9149283745934
 20
751.6727520266818
 30
0.0
 11
282.9149283745934
 21
621.6727520266821
 31
0.0
  0
INSERT
  5
9031
330
6107
100
AcDbEntity
  8
AM_5 寸法線
 62
     3
100
AcDbBlockReference
  2
_Open30
 10
282.9149283745934
 20
759.1727520266817
 30
0.0
 41
7.5
 42
7.5
 43
7.5
 50
90.0
  0
INSERT
  5
9032
330
6107
100
AcDbEntity
  8
AM_5 寸法線
 62
     3
100
AcDbBlockReference
  2
_Open30
 10
282.9149283745934
 20
614.1727520266821
 30
0.0
 41
7.5
 42
7.5
 43
7.5
 50
270.0
  0
MTEXT
  5
9033
330
6107
100
AcDbEntity
  8
AM_5 寸法線
 62
     3
100
AcDbMText
 10
273.1649283745932
 20
686.6727520266821
 30
0.0
 40
10.5
 41
0.0
 46
0.0
 71
     5
 72
     1
  1
%%c145
  7
SEISA
 11
0.0000000000000001
 21
1.0
 31
0.0
 73
     1
 44
1.0
  0
POINT
  5
9034
330
6107
100
AcDbEntity
  8
Defpoints
 62
     0
100
AcDbPoint
 10
398.9149283745931
 20
759.1727520266817
 30
0.0
  0
POINT
  5
9035
330
6107
100
AcDbEntity
  8
Defpoints
 62
     0
100
AcDbPoint
 10
398.9149283745931
 20
614.1727520266821
 30
0.0
  0
POINT
  5
9036
330
6107
100
AcDbEntity
  8
Defpoints
 62
     0
100
AcDbPoint
 10
282.9149283745934
 20
614.1727520266821
 30
0.0
  0
ENDBLK
  5
6109
330
6107
100
AcDbEntity
  8
0
100
AcDbBlockEnd
  0
BLOCK
  5
6142
330
6141
100
AcDbEntity
  8
0
100
AcDbBlockBegin
  2
*D16
 70
     1
 10
0.0
 20
0.0
 30
0.0
  3
*D16
  1

  0
LINE
  5
9EFF
330
6141
100
AcDbEntity
  8
AM_5 寸法線
 62
     3
100
AcDbLine
 10
427.914928374593
 20
757.7977520266817
 30
0.0
 11
427.914928374593
 21
737.0368004344778
 31
0.0
  0
LINE
  5
9F00
330
6141
100
AcDbEntity
  8
AM_5 寸法線
 62
     3
100
AcDbLine
 10
423.914928374593
 20
757.2977520266817
 30
0.0
 11
423.914928374593
 21
737.0368004344778
 31
0.0
  0
LINE
  5
9F01
330
6141
100
AcDbEntity
  8
AM_5 寸法線
 62
     3
100
AcDbLine
 10
435.414928374593
 20
738.911800434478
 30
0.0
 11
442.9149283745929
 21
738.911800434478
 31
0.0
  0
LINE
  5
9F02
330
6141
100
AcDbEntity
  8
AM_5 寸法線
 62
     3
100
AcDbLine
 10
416.4149283745929
 20
738.911800434478
 30
0.0
 11
408.9149283745929
 21
738.911800434478
 31
0.0
  0
MTEXT
  5
9F03
330
6141
100
AcDbEntity
  8
AM_5 寸法線
 62
     3
100
AcDbMText
 10
412.3117452711616
 20
749.583648955831
 30
0.0
 40
10.5
 41
0.0
 46
0.0
 71
     5
 72
     1
  1
4
  7
SEISA
 73
     1
 44
1.0
  0
LINE
  5
9F04
330
6141
100
AcDbEntity
  8
AM_5 寸法線
 62
     3
100
AcDbLine
 10
427.914928374593
 20
738.911800434478
 30
0.0
 11
423.914928374593
 21
738.911800434478
 31
0.0
  0
INSERT
  5
9F05
330
6141
100
AcDbEntity
  8
AM_5 寸法線
 62
     3
100
AcDbBlockReference
  2
_Open30
 10
427.914928374593
 20
738.911800434478
 30
0.0
 41
7.5
 42
7.5
 43
7.5
 50
180.0
  0
INSERT
  5
9F06
330
6141
100
AcDbEntity
  8
AM_5 寸法線
 62
     3
100
AcDbBlockReference
  2
_Open30
 10
423.914928374593
 20
738.911800434478
 30
0.0
 41
7.5
 42
7.5
 43
7.5
  0
POINT
  5
9F07
330
6141
100
AcDbEntity
  8
Defpoints
 62
     0
100
AcDbPoint
 10
427.914928374593
 20
759.6727520266817
 30
0.0
  0
POINT
  5
9F08
330
6141
100
AcDbEntity
  8
Defpoints
 62
     0
100
AcDbPoint
 10
423.914928374593
 20
759.1727520266817
 30
0.0
  0
POINT
  5
9F09
330
6141
100
AcDbEntity
  8
Defpoints
 62
     0
100
AcDbPoint
 10
423.914928374593
 20
738.911800434478
 30
0.0
  0
ENDBLK
  5
6143
330
6141
100
AcDbEntity
  8
0
100
AcDbBlockEnd
  0
BLOCK
  5
61A2
330
61A1
100
AcDbEntity
  8
0
100
AcDbBlockBegin
  2
*D17
 70
     1
 10
0.0
 20
0.0
 30
0.0
  3
*D17
  1

  0
LINE
  5
9ADB
330
61A1
100
AcDbEntity
  8
AM_5 寸法線
 62
     3
100
AcDbLine
 10
469.9149283745923
 20
688.5477520266817
 30
0.0
 11
469.9149283745923
 21
700.7656270266823
 31
0.0
  0
LINE
  5
9ADC
330
61A1
100
AcDbEntity
  8
AM_5 寸法線
 62
     3
100
AcDbLine
 10
357.9149283745933
 20
688.5477520266817
 30
0.0
 11
357.9149283745933
 21
700.7656270266823
 31
0.0
  0
LINE
  5
9ADD
330
61A1
100
AcDbEntity
  8
AM_5 寸法線
 62
     3
100
AcDbLine
 10
462.4149283745923
 20
698.8906270266823
 30
0.0
 11
365.4149283745933
 21
698.8906270266823
 31
0.0
  0
INSERT
  5
9ADE
330
61A1
100
AcDbEntity
  8
AM_5 寸法線
 62
     3
100
AcDbBlockReference
  2
_Open30
 10
469.9149283745923
 20
698.8906270266823
 30
0.0
 41
7.5
 42
7.5
 43
7.5
  0
INSERT
  5
9ADF
330
61A1
100
AcDbEntity
  8
AM_5 寸法線
 62
     3
100
AcDbBlockReference
  2
_Open30
 10
357.9149283745933
 20
698.8906270266823
 30
0.0
 41
7.5
 42
7.5
 43
7.5
 50
180.0
  0
MTEXT
  5
9AE0
330
61A1
100
AcDbEntity
  8
AM_5 寸法線
 62
     3
100
AcDbMText
 10
413.9149283745926
 20
708.6406270266821
 30
0.0
 40
10.5
 41
0.0
 46
0.0
 71
     5
 72
     1
  1
112
  7
SEISA
 73
     1
 44
1.0
  0
POINT
  5
9AE1
330
61A1
100
AcDbEntity
  8
Defpoints
 62
     0
100
AcDbPoint
 10
469.9149283745923
 20
686.6727520266818
 30
0.0
  0
POINT
  5
9AE2
330
61A1
100
AcDbEntity
  8
Defpoints
 62
     0
100
AcDbPoint
 10
357.9149283745933
 20
686.6727520266818
 30
0.0
  0
POINT
  5
9AE3
330
61A1
100
AcDbEntity
  8
Defpoints
 62
     0
100
AcDbPoint
 10
357.9149283745933
 20
698.8906270266823
 30
0.0
  0
ENDBLK
  5
61A3
330
61A1
100
AcDbEntity
  8
0
100
AcDbBlockEnd
  0
BLOCK
  5
61C2
330
61C1
100
AcDbEntity
  8
0
100
AcDbBlockBegin
  2
*D18
 70
     1
 10
0.0
 20
0.0
 30
0.0
  3
*D18
  1

  0
LINE
  5
904B
330
61C1
100
AcDbEntity
  8
AM_5 寸法線
 62
     3
100
AcDbLine
 10
829.9149283745931
 20
688.5477520266817
 30
0.0
 11
829.9149283745931
 21
700.7656270266823
 31
0.0
  0
LINE
  5
904C
330
61C1
100
AcDbEntity
  8
AM_5 寸法線
 62
     3
100
AcDbLine
 10
717.9149283745931
 20
688.5477520266817
 30
0.0
 11
717.9149283745931
 21
700.7656270266823
 31
0.0
  0
LINE
  5
904D
330
61C1
100
AcDbEntity
  8
AM_5 寸法線
 62
     3
100
AcDbLine
 10
822.4149283745932
 20
698.8906270266823
 30
0.0
 11
725.4149283745931
 21
698.8906270266823
 31
0.0
  0
INSERT
  5
904E
330
61C1
100
AcDbEntity
  8
AM_5 寸法線
 62
     3
100
AcDbBlockReference
  2
_Open30
 10
829.9149283745931
 20
698.8906270266823
 30
0.0
 41
7.5
 42
7.5
 43
7.5
  0
INSERT
  5
904F
330
61C1
100
AcDbEntity
  8
AM_5 寸法線
 62
     3
100
AcDbBlockReference
  2
_Open30
 10
717.9149283745931
 20
698.8906270266823
 30
0.0
 41
7.5
 42
7.5
 43
7.5
 50
180.0
  0
MTEXT
  5
9050
330
61C1
100
AcDbEntity
  8
AM_5 寸法線
 62
     3
100
AcDbMText
 10
773.9149283745931
 20
708.6406270266821
 30
0.0
 40
10.5
 41
0.0
 46
0.0
 71
     5
 72
     1
  1
112
  7
SEISA
 73
     1
 44
1.0
  0
POINT
  5
9051
330
61C1
100
AcDbEntity
  8
Defpoints
 62
     0
100
AcDbPoint
 10
829.9149283745931
 20
686.6727520266818
 30
0.0
  0
POINT
  5
9052
330
61C1
100
AcDbEntity
  8
Defpoints
 62
     0
100
AcDbPoint
 10
717.9149283745931
 20
686.6727520266818
 30
0.0
  0
POINT
  5
9053
330
61C1
100
AcDbEntity
  8
Defpoints
 62
     0
100
AcDbPoint
 10
717.9149283745931
 20
698.8906270266823
 30
0.0
  0
ENDBLK
  5
61C3
330
61C1
100
AcDbEntity
  8
0
100
AcDbBlockEnd
  0
BLOCK
  5
6215
330
6214
100
AcDbEntity
  8
0
100
AcDbBlockBegin
  2
*D19
 70
     1
 10
0.0
 20
0.0
 30
0.0
  3
*D19
  1

  0
LINE
  5
905C
330
6214
100
AcDbEntity
  8
AM_5 寸法線
 62
     3
100
AcDbLine
 10
790.7899283745932
 20
759.1727520266817
 30
0.0
 11
906.7899283745932
 21
759.1727520266817
 31
0.0
  0
LINE
  5
905D
330
6214
100
AcDbEntity
  8
AM_5 寸法線
 62
     3
100
AcDbLine
 10
790.7899283745932
 20
614.1727520266821
 30
0.0
 11
906.7899283745932
 21
614.1727520266821
 31
0.0
  0
LINE
  5
905E
330
6214
100
AcDbEntity
  8
AM_5 寸法線
 62
     3
100
AcDbLine
 10
904.9149283745931
 20
751.6727520266818
 30
0.0
 11
904.9149283745931
 21
621.6727520266821
 31
0.0
  0
INSERT
  5
905F
330
6214
100
AcDbEntity
  8
AM_5 寸法線
 62
     3
100
AcDbBlockReference
  2
_Open30
 10
904.9149283745931
 20
759.1727520266817
 30
0.0
 41
7.5
 42
7.5
 43
7.5
 50
90.0
  0
INSERT
  5
9060
330
6214
100
AcDbEntity
  8
AM_5 寸法線
 62
     3
100
AcDbBlockReference
  2
_Open30
 10
904.9149283745931
 20
614.1727520266821
 30
0.0
 41
7.5
 42
7.5
 43
7.5
 50
270.0
  0
MTEXT
  5
9061
330
6214
100
AcDbEntity
  8
AM_5 寸法線
 62
     3
100
AcDbMText
 10
895.1649283745931
 20
686.6727520266822
 30
0.0
 40
10.5
 41
0.0
 46
0.0
 71
     5
 72
     1
  1
%%c145
  7
SEISA
 11
0.0000000000000001
 21
1.0
 31
0.0
 73
     1
 44
1.0
  0
POINT
  5
9062
330
6214
100
AcDbEntity
  8
Defpoints
 62
     0
100
AcDbPoint
 10
788.9149283745931
 20
759.1727520266817
 30
0.0
  0
POINT
  5
9063
330
6214
100
AcDbEntity
  8
Defpoints
 62
     0
100
AcDbPoint
 10
788.9149283745931
 20
614.1727520266821
 30
0.0
  0
POINT
  5
9064
330
6214
100
AcDbEntity
  8
Defpoints
 62
     0
100
AcDbPoint
 10
904.9149283745931
 20
614.1727520266821
 30
0.0
  0
ENDBLK
  5
6216
330
6214
100
AcDbEntity
  8
0
100
AcDbBlockEnd
  0
BLOCK
  5
622D
330
622C
100
AcDbEntity
  8
0
100
AcDbBlockBegin
  2
*D20
 70
     1
 10
0.0
 20
0.0
 30
0.0
  3
*D20
  1

  0
LINE
  5
9A7A
330
622C
100
AcDbEntity
  8
AM_5 寸法線
 62
     3
100
AcDbLine
 10
774.1048683745932
 20
773.6727520266818
 30
0.0
 11
936.7899283745931
 21
773.6727520266818
 31
0.0
  0
LINE
  5
9A7B
330
622C
100
AcDbEntity
  8
AM_5 寸法線
 62
     3
100
AcDbLine
 10
774.9691016706586
 20
599.6727520266821
 30
0.0
 11
936.7899283745931
 21
599.6727520266821
 31
0.0
  0
LINE
  5
9A7C
330
622C
100
AcDbEntity
  8
AM_5 寸法線
 62
     3
100
AcDbLine
 10
934.9149283745932
 20
766.1727520266818
 30
0.0
 11
934.9149283745932
 21
607.1727520266821
 31
0.0
  0
INSERT
  5
9A7D
330
622C
100
AcDbEntity
  8
AM_5 寸法線
 62
     3
100
AcDbBlockReference
  2
_Open30
 10
934.9149283745932
 20
773.6727520266818
 30
0.0
 41
7.5
 42
7.5
 43
7.5
 50
90.0
  0
INSERT
  5
9A7E
330
622C
100
AcDbEntity
  8
AM_5 寸法線
 62
     3
100
AcDbBlockReference
  2
_Open30
 10
934.9149283745932
 20
599.6727520266821
 30
0.0
 41
7.5
 42
7.5
 43
7.5
 50
270.0
  0
MTEXT
  5
9A7F
330
622C
100
AcDbEntity
  8
AM_5 寸法線
 62
     3
100
AcDbMText
 10
925.164928374593
 20
686.6727520266822
 30
0.0
 40
10.5
 41
0.0
 46
0.0
 71
     5
 72
     1
  1
%%c174
  7
SEISA
 11
0.0000000000000001
 21
1.0
 31
0.0
 73
     1
 44
1.0
  0
POINT
  5
9A80
330
622C
100
AcDbEntity
  8
Defpoints
 62
     0
100
AcDbPoint
 10
772.2298683745933
 20
773.6727520266818
 30
0.0
  0
POINT
  5
9A81
330
622C
100
AcDbEntity
  8
Defpoints
 62
     0
100
AcDbPoint
 10
773.0941016706586
 20
599.6727520266821
 30
0.0
  0
POINT
  5
9A82
330
622C
100
AcDbEntity
  8
Defpoints
 62
     0
100
AcDbPoint
 10
934.9149283745932
 20
599.6727520266821
 30
0.0
  0
ENDBLK
  5
622E
330
622C
100
AcDbEntity
  8
0
100
AcDbBlockEnd
  0
BLOCK
  5
6245
330
6244
100
AcDbEntity
  8
0
100
AcDbBlockBegin
  2
*D21
 70
     1
 10
0.0
 20
0.0
 30
0.0
  3
*D21
  1

  0
LINE
  5
906E
330
6244
100
AcDbEntity
  8
AM_5 寸法線
 62
     3
100
AcDbLine
 10
727.7899283745931
 20
798.6727520266818
 30
0.0
 11
966.7899283745931
 21
798.6727520266818
 31
0.0
  0
LINE
  5
906F
330
6244
100
AcDbEntity
  8
AM_5 寸法線
 62
     3
100
AcDbLine
 10
727.7899283745931
 20
574.6727520266821
 30
0.0
 11
966.7899283745931
 21
574.672752026682
 31
0.0
  0
LINE
  5
9070
330
6244
100
AcDbEntity
  8
AM_5 寸法線
 62
     3
100
AcDbLine
 10
964.9149283745931
 20
791.1727520266818
 30
0.0
 11
964.9149283745931
 21
582.1727520266819
 31
0.0
  0
INSERT
  5
9071
330
6244
100
AcDbEntity
  8
AM_5 寸法線
 62
     3
100
AcDbBlockReference
  2
_Open30
 10
964.9149283745931
 20
798.6727520266818
 30
0.0
 41
7.5
 42
7.5
 43
7.5
 50
90.0
  0
INSERT
  5
9072
330
6244
100
AcDbEntity
  8
AM_5 寸法線
 62
     3
100
AcDbBlockReference
  2
_Open30
 10
964.9149283745931
 20
574.672752026682
 30
0.0
 41
7.5
 42
7.5
 43
7.5
 50
270.0
  0
MTEXT
  5
9073
330
6244
100
AcDbEntity
  8
AM_5 寸法線
 62
     3
100
AcDbMText
 10
955.1649283745931
 20
686.6727520266821
 30
0.0
 40
10.5
 41
0.0
 46
0.0
 71
     5
 72
     1
  1
%%c224
  7
SEISA
 11
0.0000000000000001
 21
1.0
 31
0.0
 73
     1
 44
1.0
  0
POINT
  5
9074
330
6244
100
AcDbEntity
  8
Defpoints
 62
     0
100
AcDbPoint
 10
725.9149283745931
 20
798.6727520266818
 30
0.0
  0
POINT
  5
9075
330
6244
100
AcDbEntity
  8
Defpoints
 62
     0
100
AcDbPoint
 10
725.9149283745931
 20
574.6727520266821
 30
0.0
  0
POINT
  5
9076
330
6244
100
AcDbEntity
  8
Defpoints
 62
     0
100
AcDbPoint
 10
964.9149283745931
 20
574.672752026682
 30
0.0
  0
ENDBLK
  5
6246
330
6244
100
AcDbEntity
  8
0
100
AcDbBlockEnd
  0
BLOCK
  5
631D
330
631C
100
AcDbEntity
  8
0
100
AcDbBlockBegin
  2
*D22
 70
     1
 10
0.0
 20
0.0
 30
0.0
  3
*D22
  1

  0
LINE
  5
9082
330
631C
100
AcDbEntity
  8
AM_5 寸法線
 62
     3
100
AcDbLine
 10
475.9149283745929
 20
573.2977520266821
 30
0.0
 11
475.9149283745929
 21
527.7977520266821
 31
0.0
  0
LINE
  5
9083
330
631C
100
AcDbEntity
  8
AM_5 寸法線
 62
     3
100
AcDbLine
 10
460.914928374593
 20
573.7977520266821
 30
0.0
 11
460.914928374593
 21
527.7977520266821
 31
0.0
  0
LINE
  5
9084
330
631C
100
AcDbEntity
  8
AM_5 寸法線
 62
     3
100
AcDbLine
 10
483.4149283745929
 20
529.6727520266821
 30
0.0
 11
490.914928374593
 21
529.6727520266821
 31
0.0
  0
LINE
  5
9085
330
631C
100
AcDbEntity
  8
AM_5 寸法線
 62
     3
100
AcDbLine
 10
453.414928374593
 20
529.6727520266821
 30
0.0
 11
422.9649283745929
 21
529.6727520266821
 31
0.0
  0
LINE
  5
9086
330
631C
100
AcDbEntity
  8
AM_5 寸法線
 62
     3
100
AcDbLine
 10
475.9149283745929
 20
529.6727520266821
 30
0.0
 11
460.914928374593
 21
529.6727520266821
 31
0.0
  0
INSERT
  5
9087
330
631C
100
AcDbEntity
  8
AM_5 寸法線
 62
     3
100
AcDbBlockReference
  2
GENDOT
 10
475.9149283745929
 20
529.6727520266821
 30
0.0
 41
7.5
 42
7.5
 43
7.5
 50
180.0
  0
INSERT
  5
9088
330
631C
100
AcDbEntity
  8
AM_5 寸法線
 62
     3
100
AcDbBlockReference
  2
_Open30
 10
460.914928374593
 20
529.6727520266821
 30
0.0
 41
7.5
 42
7.5
 43
7.5
  0
MTEXT
  5
9089
330
631C
100
AcDbEntity
  8
AM_5 寸法線
 62
     3
100
AcDbMText
 10
434.4399283745929
 20
539.4227520266821
 30
0.0
 40
10.5
 41
0.0
 46
0.0
 71
     5
 72
     1
  1
15
  7
SEISA
 73
     1
 44
1.0
  0
POINT
  5
908A
330
631C
100
AcDbEntity
  8
Defpoints
 62
     0
100
AcDbPoint
 10
475.9149283745929
 20
575.1727520266821
 30
0.0
  0
POINT
  5
908B
330
631C
100
AcDbEntity
  8
Defpoints
 62
     0
100
AcDbPoint
 10
460.914928374593
 20
575.6727520266821
 30
0.0
  0
POINT
  5
908C
330
631C
100
AcDbEntity
  8
Defpoints
 62
     0
100
AcDbPoint
 10
460.914928374593
 20
529.6727520266821
 30
0.0
  0
ENDBLK
  5
631E
330
631C
100
AcDbEntity
  8
0
100
AcDbBlockEnd
  0
BLOCK
  5
6371
330
6370
100
AcDbEntity
  8
0
100
AcDbBlockBegin
  2
*D23
 70
     1
 10
0.0
 20
0.0
 30
0.0
  3
*D23
  1

  0
LINE
  5
908D
330
6370
100
AcDbEntity
  8
AM_5 寸法線
 62
     3
100
AcDbLine
 10
711.9149283745931
 20
573.2977520266821
 30
0.0
 11
711.9149283745931
 21
527.7977520266821
 31
0.0
  0
LINE
  5
908E
330
6370
100
AcDbEntity
  8
AM_5 寸法線
 62
     3
100
AcDbLine
 10
726.9149283745932
 20
573.7977520266821
 30
0.0
 11
726.9149283745932
 21
527.7977520266821
 31
0.0
  0
LINE
  5
908F
330
6370
100
AcDbEntity
  8
AM_5 寸法線
 62
     3
100
AcDbLine
 10
704.4149283745931
 20
529.6727520266821
 30
0.0
 11
696.9149283745931
 21
529.6727520266821
 31
0.0
  0
LINE
  5
9090
330
6370
100
AcDbEntity
  8
AM_5 寸法線
 62
     3
100
AcDbLine
 10
734.4149283745931
 20
529.6727520266821
 30
0.0
 11
764.8649283745932
 21
529.6727520266821
 31
0.0
  0
LINE
  5
9091
330
6370
100
AcDbEntity
  8
AM_5 寸法線
 62
     3
100
AcDbLine
 10
711.9149283745931
 20
529.6727520266821
 30
0.0
 11
726.9149283745932
 21
529.6727520266821
 31
0.0
  0
INSERT
  5
9092
330
6370
100
AcDbEntity
  8
AM_5 寸法線
 62
     3
100
AcDbBlockReference
  2
GENDOT
 10
711.9149283745931
 20
529.6727520266821
 30
0.0
 41
7.5
 42
7.5
 43
7.5
  0
INSERT
  5
9093
330
6370
100
AcDbEntity
  8
AM_5 寸法線
 62
     3
100
AcDbBlockReference
  2
_Open30
 10
726.9149283745932
 20
529.6727520266821
 30
0.0
 41
7.5
 42
7.5
 43
7.5
 50
180.0
  0
MTEXT
  5
9094
330
6370
100
AcDbEntity
  8
AM_5 寸法線
 62
     3
100
AcDbMText
 10
753.3899283745931
 20
539.4227520266821
 30
0.0
 40
10.5
 41
0.0
 46
0.0
 71
     5
 72
     1
  1
15
  7
SEISA
 73
     1
 44
1.0
  0
POINT
  5
9095
330
6370
100
AcDbEntity
  8
Defpoints
 62
     0
100
AcDbPoint
 10
711.9149283745931
 20
575.1727520266821
 30
0.0
  0
POINT
  5
9096
330
6370
100
AcDbEntity
  8
Defpoints
 62
     0
100
AcDbPoint
 10
726.9149283745932
 20
575.6727520266821
 30
0.0
  0
POINT
  5
9097
330
6370
100
AcDbEntity
  8
Defpoints
 62
     0
100
AcDbPoint
 10
726.9149283745932
 20
529.6727520266821
 30
0.0
  0
ENDBLK
  5
6372
330
6370
100
AcDbEntity
  8
0
100
AcDbBlockEnd
  0
BLOCK
  5
65F0
330
65EF
100
AcDbEntity
  8
0
100
AcDbBlockBegin
  2
*D24
 70
     1
 10
0.0
 20
0.0
 30
0.0
  3
*D24
  1

  0
LINE
  5
90C2
330
65EF
100
AcDbEntity
  8
AM_5 寸法線
 62
     3
100
AcDbLine
 10
357.9149283745933
 20
616.8977520266819
 30
0.0
 11
357.9149283745933
 21
497.7977520266821
 31
0.0
  0
LINE
  5
90C3
330
65EF
100
AcDbEntity
  8
AM_5 寸法線
 62
     3
100
AcDbLine
 10
410.914928374593
 20
601.7977520266821
 30
0.0
 11
410.914928374593
 21
497.7977520266821
 31
0.0
  0
LINE
  5
90C4
330
65EF
100
AcDbEntity
  8
AM_5 寸法線
 62
     3
100
AcDbLine
 10
365.4149283745933
 20
499.6727520266821
 30
0.0
 11
403.414928374593
 21
499.6727520266821
 31
0.0
  0
INSERT
  5
90C5
330
65EF
100
AcDbEntity
  8
AM_5 寸法線
 62
     3
100
AcDbBlockReference
  2
_Open30
 10
357.9149283745933
 20
499.6727520266821
 30
0.0
 41
7.5
 42
7.5
 43
7.5
 50
180.0
  0
INSERT
  5
90C6
330
65EF
100
AcDbEntity
  8
AM_5 寸法線
 62
     3
100
AcDbBlockReference
  2
_Open30
 10
410.914928374593
 20
499.6727520266821
 30
0.0
 41
7.5
 42
7.5
 43
7.5
  0
MTEXT
  5
90C7
330
65EF
100
AcDbEntity
  8
AM_5 寸法線
 62
     3
100
AcDbMText
 10
384.4149283745932
 20
509.4227520266821
 30
0.0
 40
10.5
 41
0.0
 46
0.0
 71
     5
 72
     1
  1
53
  7
SEISA
 73
     1
 44
1.0
  0
POINT
  5
90C8
330
65EF
100
AcDbEntity
  8
Defpoints
 62
     0
100
AcDbPoint
 10
357.9149283745933
 20
618.7727520266819
 30
0.0
  0
POINT
  5
90C9
330
65EF
100
AcDbEntity
  8
Defpoints
 62
     0
100
AcDbPoint
 10
410.914928374593
 20
603.6727520266821
 30
0.0
  0
POINT
  5
90CA
330
65EF
100
AcDbEntity
  8
Defpoints
 62
     0
100
AcDbPoint
 10
410.914928374593
 20
499.6727520266821
 30
0.0
  0
ENDBLK
  5
65F1
330
65EF
100
AcDbEntity
  8
0
100
AcDbBlockEnd
  0
BLOCK
  5
6608
330
6607
100
AcDbEntity
  8
0
100
AcDbBlockBegin
  2
*D25
 70
     1
 10
0.0
 20
0.0
 30
0.0
  3
*D25
  1

  0
LINE
  5
90CB
330
6607
100
AcDbEntity
  8
AM_5 寸法線
 62
     3
100
AcDbLine
 10
410.914928374593
 20
601.7977520266821
 30
0.0
 11
410.914928374593
 21
497.7977520266821
 31
0.0
  0
LINE
  5
90CC
330
6607
100
AcDbEntity
  8
AM_5 寸法線
 62
     3
100
AcDbLine
 10
475.9149283745929
 20
573.2977520266821
 30
0.0
 11
475.9149283745929
 21
497.7977520266821
 31
0.0
  0
LINE
  5
90CD
330
6607
100
AcDbEntity
  8
AM_5 寸法線
 62
     3
100
AcDbLine
 10
418.4149283745929
 20
499.6727520266821
 30
0.0
 11
468.414928374593
 21
499.6727520266821
 31
0.0
  0
INSERT
  5
90CE
330
6607
100
AcDbEntity
  8
AM_5 寸法線
 62
     3
100
AcDbBlockReference
  2
_Open30
 10
410.914928374593
 20
499.6727520266821
 30
0.0
 41
7.5
 42
7.5
 43
7.5
 50
180.0
  0
INSERT
  5
90CF
330
6607
100
AcDbEntity
  8
AM_5 寸法線
 62
     3
100
AcDbBlockReference
  2
_Open30
 10
475.9149283745929
 20
499.6727520266821
 30
0.0
 41
7.5
 42
7.5
 43
7.5
  0
MTEXT
  5
90D0
330
6607
100
AcDbEntity
  8
AM_5 寸法線
 62
     3
100
AcDbMText
 10
443.414928374593
 20
509.4227520266821
 30
0.0
 40
10.5
 41
0.0
 46
0.0
 71
     5
 72
     1
  1
65
  7
SEISA
 73
     1
 44
1.0
  0
POINT
  5
90D1
330
6607
100
AcDbEntity
  8
Defpoints
 62
     0
100
AcDbPoint
 10
410.914928374593
 20
603.6727520266821
 30
0.0
  0
POINT
  5
90D2
330
6607
100
AcDbEntity
  8
Defpoints
 62
     0
100
AcDbPoint
 10
475.9149283745929
 20
575.1727520266821
 30
0.0
  0
POINT
  5
90D3
330
6607
100
AcDbEntity
  8
Defpoints
 62
     0
100
AcDbPoint
 10
475.9149283745929
 20
499.6727520266821
 30
0.0
  0
ENDBLK
  5
6609
330
6607
100
AcDbEntity
  8
0
100
AcDbBlockEnd
  0
BLOCK
  5
6638
330
6637
100
AcDbEntity
  8
0
100
AcDbBlockBegin
  2
*D26
 70
     1
 10
0.0
 20
0.0
 30
0.0
  3
*D26
  1

  0
LINE
  5
90DC
330
6637
100
AcDbEntity
  8
AM_5 寸法線
 62
     3
100
AcDbLine
 10
711.9149283745931
 20
573.2977520266821
 30
0.0
 11
711.9149283745931
 21
497.7977520266821
 31
0.0
  0
LINE
  5
90DD
330
6637
100
AcDbEntity
  8
AM_5 寸法線
 62
     3
100
AcDbLine
 10
776.9149283745932
 20
601.7977520266821
 30
0.0
 11
776.9149283745932
 21
497.7977520266821
 31
0.0
  0
LINE
  5
90DE
330
6637
100
AcDbEntity
  8
AM_5 寸法線
 62
     3
100
AcDbLine
 10
719.4149283745931
 20
499.6727520266821
 30
0.0
 11
769.4149283745931
 21
499.6727520266821
 31
0.0
  0
INSERT
  5
90DF
330
6637
100
AcDbEntity
  8
AM_5 寸法線
 62
     3
100
AcDbBlockReference
  2
_Open30
 10
711.9149283745931
 20
499.6727520266821
 30
0.0
 41
7.5
 42
7.5
 43
7.5
 50
180.0
  0
INSERT
  5
90E0
330
6637
100
AcDbEntity
  8
AM_5 寸法線
 62
     3
100
AcDbBlockReference
  2
_Open30
 10
776.9149283745932
 20
499.6727520266821
 30
0.0
 41
7.5
 42
7.5
 43
7.5
  0
MTEXT
  5
90E1
330
6637
100
AcDbEntity
  8
AM_5 寸法線
 62
     3
100
AcDbMText
 10
744.4149283745931
 20
509.4227520266821
 30
0.0
 40
10.5
 41
0.0
 46
0.0
 71
     5
 72
     1
  1
65
  7
SEISA
 73
     1
 44
1.0
  0
POINT
  5
90E2
330
6637
100
AcDbEntity
  8
Defpoints
 62
     0
100
AcDbPoint
 10
711.9149283745931
 20
575.1727520266821
 30
0.0
  0
POINT
  5
90E3
330
6637
100
AcDbEntity
  8
Defpoints
 62
     0
100
AcDbPoint
 10
776.9149283745932
 20
603.6727520266821
 30
0.0
  0
POINT
  5
90E4
330
6637
100
AcDbEntity
  8
Defpoints
 62
     0
100
AcDbPoint
 10
776.9149283745932
 20
499.6727520266821
 30
0.0
  0
ENDBLK
  5
6639
330
6637
100
AcDbEntity
  8
0
100
AcDbBlockEnd
  0
BLOCK
  5
6650
330
664F
100
AcDbEntity
  8
0
100
AcDbBlockBegin
  2
*D27
 70
     1
 10
0.0
 20
0.0
 30
0.0
  3
*D27
  1

  0
LINE
  5
90E5
330
664F
100
AcDbEntity
  8
AM_5 寸法線
 62
     3
100
AcDbLine
 10
776.9149283745932
 20
601.7977520266821
 30
0.0
 11
776.9149283745932
 21
497.7977520266821
 31
0.0
  0
LINE
  5
90E6
330
664F
100
AcDbEntity
  8
AM_5 寸法線
 62
     3
100
AcDbLine
 10
829.9149283745931
 20
616.8977520266819
 30
0.0
 11
829.9149283745931
 21
497.7977520266821
 31
0.0
  0
LINE
  5
90E7
330
664F
100
AcDbEntity
  8
AM_5 寸法線
 62
     3
100
AcDbLine
 10
784.4149283745931
 20
499.6727520266821
 30
0.0
 11
822.4149283745932
 21
499.6727520266821
 31
0.0
  0
INSERT
  5
90E8
330
664F
100
AcDbEntity
  8
AM_5 寸法線
 62
     3
100
AcDbBlockReference
  2
_Open30
 10
776.9149283745932
 20
499.6727520266821
 30
0.0
 41
7.5
 42
7.5
 43
7.5
 50
180.0
  0
INSERT
  5
90E9
330
664F
100
AcDbEntity
  8
AM_5 寸法線
 62
     3
100
AcDbBlockReference
  2
_Open30
 10
829.9149283745931
 20
499.6727520266821
 30
0.0
 41
7.5
 42
7.5
 43
7.5
  0
MTEXT
  5
90EA
330
664F
100
AcDbEntity
  8
AM_5 寸法線
 62
     3
100
AcDbMText
 10
803.414928374593
 20
509.4227520266821
 30
0.0
 40
10.5
 41
0.0
 46
0.0
 71
     5
 72
     1
  1
53
  7
SEISA
 73
     1
 44
1.0
  0
POINT
  5
90EB
330
664F
100
AcDbEntity
  8
Defpoints
 62
     0
100
AcDbPoint
 10
776.9149283745932
 20
603.6727520266821
 30
0.0
  0
POINT
  5
90EC
330
664F
100
AcDbEntity
  8
Defpoints
 62
     0
100
AcDbPoint
 10
829.9149283745931
 20
618.7727520266819
 30
0.0
  0
POINT
  5
90ED
330
664F
100
AcDbEntity
  8
Defpoints
 62
     0
100
AcDbPoint
 10
829.9149283745931
 20
499.6727520266821
 30
0.0
  0
ENDBLK
  5
6651
330
664F
100
AcDbEntity
  8
0
100
AcDbBlockEnd
  0
BLOCK
  5
8080
330
807F
100
AcDbEntity
  8
0
100
AcDbBlockBegin
  2
ＧＣスペーサ SAMY224
 70
     0
 10
0.0
 20
0.0
 30
0.0
  3
ＧＣスペーサ SAMY224
  1

  0
LINE
  5
8082
330
807F
100
AcDbEntity
  8
AM_0 外形線1
100
AcDbLine
 10
236.0000000000002
 20
-47.76556855789522
 30
0.0
 11
236.0000000000002
 21
-111.4999999999997
 31
0.0
  0
LINE
  5
8083
330
807F
100
AcDbEntity
  8
AM_0 外形線1
100
AcDbLine
 10
235.5000000000002
 20
-111.9999999999997
 30
0.0
 11
236.0000000000002
 21
-111.4999999999997
 31
0.0
1001
GENIUS_GENFIL_13
1070
     0
1040
0.5
1040
0.5
1040
0.4999999999999858
1040
45.00000000000244
1000
~T
1001
GENIUS_GENOREF_13
1005
80F9
  0
LINE
  5
8084
330
807F
100
AcDbEntity
  8
AM_7 中心線
  6
CENTER
100
AcDbLine
 10
216.0000000000002
 20
-100.9999999999998
 30
0.0
 11
256.0
 21
-100.9999999999998
 31
0.0
  0
LINE
  5
8085
330
807F
100
AcDbEntity
  8
AM_0 外形線1
100
AcDbLine
 10
221.0000000000002
 20
-110.9999999999997
 30
0.0
 11
221.0000000000002
 21
0.0000000000002274
 31
0.0
  0
LINE
  5
8086
330
807F
100
AcDbEntity
  8
AM_0 外形線1
100
AcDbLine
 10
235.5000000000002
 20
-111.9999999999997
 30
0.0
 11
222.0000000000002
 21
-111.9999999999997
 31
0.0
  0
LINE
  5
8087
330
807F
100
AcDbEntity
  8
AM_0 外形線1
100
AcDbLine
 10
221.0000000000002
 20
-110.9999999999997
 30
0.0
 11
222.0000000000002
 21
-111.9999999999997
 31
0.0
1001
GENIUS_GENFIL_13
1070
     0
1040
1.0
1040
1.0
1040
1.0
1040
45.00000000000041
1000
~T
1001
GENIUS_GENOREF_13
1005
80F8
  0
LINE
  5
8088
330
807F
100
AcDbEntity
  8
AM_0 外形線1
100
AcDbLine
 10
216.0000000000002
 20
-91.99999999999977
 30
0.0
 11
216.0000000000003
 21
0.0000000000002274
 31
0.0
  0
LINE
  5
8089
330
807F
100
AcDbEntity
  8
AM_0 外形線1
100
AcDbLine
 10
221.0000000000002
 20
-91.99999999999977
 30
0.0
 11
216.0000000000002
 21
-91.99999999999977
 31
0.0
  0
ARC
  5
808A
330
807F
100
AcDbEntity
  8
AM_0 外形線1
100
AcDbCircle
 10
197.0000000000002
 20
-92.59999999999969
 30
0.0
 40
10.0
100
AcDbArc
 50
60.06954404012663
 51
90.0
  0
LINE
  5
808B
330
807F
100
AcDbEntity
  8
AM_0 外形線1
100
AcDbLine
 10
216.0000000000002
 20
-91.99999999999977
 30
0.0
 11
201.989484741493
 21
-83.93368348060041
 31
0.0
  0
LINE
  5
808C
330
807F
100
AcDbEntity
  8
AM_0 外形線1
100
AcDbLine
 10
39.0
 20
-82.5999999999999
 30
0.0
 11
116.6428167646383
 21
-82.59999999999967
 31
0.0
  0
LINE
  5
808D
330
807F
100
AcDbEntity
  8
AM_0 外形線1
100
AcDbLine
 10
20.00000000000011
 20
82.60000000000012
 30
0.0
 11
116.6428167646383
 21
82.60000000000012
 31
0.0
  0
LINE
  5
808E
330
807F
100
AcDbEntity
  8
AM_0 外形線1
100
AcDbLine
 10
25.00000000000051
 20
68.30000000000018
 30
0.0
 11
112.691214170217
 21
68.30000000000018
 31
0.0
  0
LINE
  5
808F
330
807F
100
AcDbEntity
  8
AM_0 外形線1
100
AcDbLine
 10
236.0000000000001
 20
0.0000000000002274
 30
0.0
 11
236.0000000000002
 21
-111.4999999999997
 31
0.0
  0
LINE
  5
8090
330
807F
100
AcDbEntity
  8
AM_7 中心線
  6
CENTER
100
AcDbLine
 10
216.0000000000002
 20
-100.9999999999998
 30
0.0
 11
256.0
 21
-100.9999999999998
 31
0.0
  0
LINE
  5
8091
330
807F
100
AcDbEntity
  8
AM_0 外形線1
100
AcDbLine
 10
236.0
 20
85.50000000000068
 30
0.0
 11
236.0000000000001
 21
95.50000000000023
 31
0.0
  0
LINE
  5
8092
330
807F
100
AcDbEntity
  8
AM_0 外形線1
100
AcDbLine
 10
197.0000000000002
 20
-82.59999999999957
 30
0.0
 11
121.6428167646382
 21
-82.59999999999946
 31
0.0
  0
LINE
  5
8093
330
807F
100
AcDbEntity
  8
AM_0 外形線1
100
AcDbLine
 10
216.0000000000002
 20
82.60000000000012
 30
0.0
 11
121.6428167646382
 21
82.60000000000012
 31
0.0
  0
LINE
  5
8094
330
807F
100
AcDbEntity
  8
AM_0 外形線1
100
AcDbLine
 10
210.9999999999998
 20
68.30000000000018
 30
0.0
 11
117.7363007386458
 21
68.29999999999995
 31
0.0
  0
POLYLINE
  5
8095
330
807F
100
AcDbEntity
  8
AM_4 細線
100
AcDb2dPolyline
 66
     1
 10
0.0
 20
0.0
 30
0.0
 70
     2
  0
VERTEX
  5
A120
330
8095
100
AcDbEntity
  8
AM_4 細線
100
AcDbVertex
100
AcDb2dVertex
 10
121.6428167646382
 20
82.60000000000012
 30
0.0
 42
0.0478702727195964
  0
VERTEX
  5
A121
330
8095
100
AcDbEntity
  8
AM_4 細線
100
AcDbVertex
100
AcDb2dVertex
 10
118.0870625727162
 20
70.55277524265216
 30
0.0
 42
0.0699844384192407
 70
     1
  0
VERTEX
  5
A122
330
8095
100
AcDbEntity
  8
AM_4 細線
100
AcDbVertex
100
AcDb2dVertex
 10
117.6428167646383
 20
61.95000000000003
 30
0.0
 42
0.0610117994427735
  0
VERTEX
  5
A123
330
8095
100
AcDbEntity
  8
AM_4 細線
100
AcDbVertex
100
AcDb2dVertex
 10
120.1694518281341
 20
50.09692845581025
 30
0.0
 42
-0.0831639584472565
 70
     1
  0
VERTEX
  5
A124
330
8095
100
AcDbEntity
  8
AM_4 細線
100
AcDbVertex
100
AcDb2dVertex
 10
121.6428167646382
 20
41.30000000000018
 30
0.0
 42
-0.09596044484505
  0
VERTEX
  5
A125
330
8095
100
AcDbEntity
  8
AM_4 細線
100
AcDbVertex
100
AcDb2dVertex
 10
119.6428167646383
 20
30.97500000000014
 30
0.0
 42
0.09596044484505
 70
     1
  0
VERTEX
  5
A126
330
8095
100
AcDbEntity
  8
AM_4 細線
100
AcDbVertex
100
AcDb2dVertex
 10
117.6428167646383
 20
20.65000000000032
 30
0.0
 42
0.09596044484505
  0
VERTEX
  5
A127
330
8095
100
AcDbEntity
  8
AM_4 細線
100
AcDbVertex
100
AcDb2dVertex
 10
119.6428167646383
 20
10.32500000000027
 30
0.0
 42
-0.09596044484505
 70
     1
  0
VERTEX
  5
A128
330
8095
100
AcDbEntity
  8
AM_4 細線
100
AcDbVertex
100
AcDb2dVertex
 10
121.6428167646382
 20
0.0000000000002274
 30
0.0
 42
-0.09596044484505
  0
VERTEX
  5
A129
330
8095
100
AcDbEntity
  8
AM_4 細線
100
AcDbVertex
100
AcDb2dVertex
 10
119.6428167646383
 20
-10.32499999999981
 30
0.0
 42
0.09596044484505
 70
     1
  0
VERTEX
  5
A12A
330
8095
100
AcDbEntity
  8
AM_4 細線
100
AcDbVertex
100
AcDb2dVertex
 10
117.6428167646383
 20
-20.64999999999987
 30
0.0
 42
0.09596044484505
  0
VERTEX
  5
A12B
330
8095
100
AcDbEntity
  8
AM_4 細線
100
AcDbVertex
100
AcDb2dVertex
 10
119.6428167646383
 20
-30.97499999999968
 30
0.0
 42
-0.09596044484505
 70
     1
  0
VERTEX
  5
A12C
330
8095
100
AcDbEntity
  8
AM_4 細線
100
AcDbVertex
100
AcDb2dVertex
 10
121.6428167646382
 20
-41.29999999999973
 30
0.0
 42
-0.0831639584472565
  0
VERTEX
  5
A12D
330
8095
100
AcDbEntity
  8
AM_4 細線
100
AcDbVertex
100
AcDb2dVertex
 10
120.1694518281341
 20
-50.09692845580979
 30
0.0
 42
0.0610117994427735
 70
     1
  0
VERTEX
  5
A12E
330
8095
100
AcDbEntity
  8
AM_4 細線
100
AcDbVertex
100
AcDb2dVertex
 10
117.6428167646383
 20
-61.94999999999959
 30
0.0
 42
0.069984438419244
  0
VERTEX
  5
A12F
330
8095
100
AcDbEntity
  8
AM_4 細線
100
AcDbVertex
100
AcDb2dVertex
 10
118.0870625727162
 20
-70.55277524265171
 30
0.0
 42
0.0478702727195992
 70
     1
  0
VERTEX
  5
A130
330
8095
100
AcDbEntity
  8
AM_4 細線
100
AcDbVertex
100
AcDb2dVertex
 10
121.6428167646382
 20
-82.59999999999967
 30
0.0
  0
SEQEND
  5
A131
330
8095
100
AcDbEntity
  8
AM_4 細線
  0
POLYLINE
  5
80A8
330
807F
100
AcDbEntity
  8
AM_4 細線
100
AcDb2dPolyline
 66
     1
 10
0.0
 20
0.0
 30
0.0
 70
     2
  0
VERTEX
  5
A133
330
80A8
100
AcDbEntity
  8
AM_4 細線
100
AcDbVertex
100
AcDb2dVertex
 10
116.6428167646383
 20
82.60000000000012
 30
0.0
 42
0.0478702727195964
  0
VERTEX
  5
A134
330
80A8
100
AcDbEntity
  8
AM_4 細線
100
AcDbVertex
100
AcDb2dVertex
 10
113.0870625727162
 20
70.55277524265216
 30
0.0
 42
0.0699844384192407
 70
     1
  0
VERTEX
  5
A135
330
80A8
100
AcDbEntity
  8
AM_4 細線
100
AcDbVertex
100
AcDb2dVertex
 10
112.6428167646382
 20
61.95000000000003
 30
0.0
 42
0.0610117994427735
  0
VERTEX
  5
A136
330
80A8
100
AcDbEntity
  8
AM_4 細線
100
AcDbVertex
100
AcDb2dVertex
 10
115.1694518281341
 20
50.09692845581025
 30
0.0
 42
-0.0831639584472565
 70
     1
  0
VERTEX
  5
A137
330
80A8
100
AcDbEntity
  8
AM_4 細線
100
AcDbVertex
100
AcDb2dVertex
 10
116.6428167646383
 20
41.30000000000018
 30
0.0
 42
-0.09596044484505
  0
VERTEX
  5
A138
330
80A8
100
AcDbEntity
  8
AM_4 細線
100
AcDbVertex
100
AcDb2dVertex
 10
114.6428167646383
 20
30.97500000000014
 30
0.0
 42
0.09596044484505
 70
     1
  0
VERTEX
  5
A139
330
80A8
100
AcDbEntity
  8
AM_4 細線
100
AcDbVertex
100
AcDb2dVertex
 10
112.6428167646382
 20
20.65000000000032
 30
0.0
 42
0.09596044484505
  0
VERTEX
  5
A13A
330
80A8
100
AcDbEntity
  8
AM_4 細線
100
AcDbVertex
100
AcDb2dVertex
 10
114.6428167646383
 20
10.32500000000027
 30
0.0
 42
-0.09596044484505
 70
     1
  0
VERTEX
  5
A13B
330
80A8
100
AcDbEntity
  8
AM_4 細線
100
AcDbVertex
100
AcDb2dVertex
 10
116.6428167646383
 20
0.0000000000002274
 30
0.0
 42
-0.09596044484505
  0
VERTEX
  5
A13C
330
80A8
100
AcDbEntity
  8
AM_4 細線
100
AcDbVertex
100
AcDb2dVertex
 10
114.6428167646383
 20
-10.32499999999981
 30
0.0
 42
0.09596044484505
 70
     1
  0
VERTEX
  5
A13D
330
80A8
100
AcDbEntity
  8
AM_4 細線
100
AcDbVertex
100
AcDb2dVertex
 10
112.6428167646382
 20
-20.64999999999987
 30
0.0
 42
0.09596044484505
  0
VERTEX
  5
A13E
330
80A8
100
AcDbEntity
  8
AM_4 細線
100
AcDbVertex
100
AcDb2dVertex
 10
114.6428167646383
 20
-30.97499999999968
 30
0.0
 42
-0.09596044484505
 70
     1
  0
VERTEX
  5
A13F
330
80A8
100
AcDbEntity
  8
AM_4 細線
100
AcDbVertex
100
AcDb2dVertex
 10
116.6428167646383
 20
-41.29999999999973
 30
0.0
 42
-0.0831639584472565
  0
VERTEX
  5
A140
330
80A8
100
AcDbEntity
  8
AM_4 細線
100
AcDbVertex
100
AcDb2dVertex
 10
115.1694518281341
 20
-50.09692845580979
 30
0.0
 42
0.0610117994427735
 70
     1
  0
VERTEX
  5
A141
330
80A8
100
AcDbEntity
  8
AM_4 細線
100
AcDbVertex
100
AcDb2dVertex
 10
112.6428167646382
 20
-61.94999999999959
 30
0.0
 42
0.069984438419244
  0
VERTEX
  5
A142
330
80A8
100
AcDbEntity
  8
AM_4 細線
100
AcDbVertex
100
AcDb2dVertex
 10
113.0870625727162
 20
-70.55277524265171
 30
0.0
 42
0.0478702727195992
 70
     1
  0
VERTEX
  5
A143
330
80A8
100
AcDbEntity
  8
AM_4 細線
100
AcDbVertex
100
AcDb2dVertex
 10
116.6428167646383
 20
-82.59999999999967
 30
0.0
  0
SEQEND
  5
A144
330
80A8
100
AcDbEntity
  8
AM_4 細線
  0
LINE
  5
80BB
330
807F
100
AcDbEntity
  8
AM_0 外形線1
100
AcDbLine
 10
236.0
 20
85.50000000000045
 30
0.0
 11
235.9999999999998
 21
95.50000000000023
 31
0.0
  0
LINE
  5
80BC
330
807F
100
AcDbEntity
  8
AM_0 外形線1
100
AcDbLine
 10
235.4999999999999
 20
85.00000000000046
 30
0.0
 11
235.9999999999999
 21
85.50000000000045
 31
0.0
1001
GENIUS_GENFIL_13
1070
     0
1040
0.5
1040
0.5
1040
0.4999999999999716
1040
44.99999999998697
1000
~T
1001
GENIUS_GENOREF_13
1005
80F7
  0
LINE
  5
80BD
330
807F
100
AcDbEntity
  8
AM_0 外形線1
100
AcDbLine
 10
235.5000000000002
 20
112.0000000000004
 30
0.0
 11
236.0000000000002
 21
111.5000000000004
 31
0.0
1001
GENIUS_GENFIL_13
1070
     0
1040
0.5
1040
0.5
1040
0.4999999999999858
1040
44.99999999999348
1000
~T
1001
GENIUS_GENOREF_13
1005
80F6
  0
LINE
  5
80BE
330
807F
100
AcDbEntity
  8
AM_0 外形線1
100
AcDbLine
 10
220.9999999999995
 20
111.0000000000002
 30
0.0
 11
221.0
 21
92.00000000000022
 31
0.0
  0
LINE
  5
80C0
330
807F
100
AcDbEntity
  8
AM_0 外形線1
100
AcDbLine
 10
235.5000000000002
 20
112.0000000000004
 30
0.0
 11
221.9999999999995
 21
112.0000000000002
 31
0.0
  0
LINE
  5
80C1
330
807F
100
AcDbEntity
  8
AM_0 外形線1
100
AcDbLine
 10
220.9999999999995
 20
111.0000000000002
 30
0.0
 11
221.9999999999995
 21
112.0000000000002
 31
0.0
1001
GENIUS_GENFIL_13
1070
     0
1040
1.0
1040
1.0
1040
1.0
1040
45.00000000000041
1000
~T
1001
GENIUS_GENOREF_13
1005
80F5
  0
LINE
  5
80C2
330
807F
100
AcDbEntity
  8
AM_0 外形線1
100
AcDbLine
 10
206.0000000000001
 20
68.29999999999995
 30
0.0
 11
206.0000000000007
 21
0.0000000000002274
 31
0.0
  0
LINE
  5
80C3
330
807F
100
AcDbEntity
  8
AM_0 外形線1
100
AcDbLine
 10
235.4999999999999
 20
85.00000000000046
 30
0.0
 11
230.9999999999998
 21
85.00000000000046
 31
0.0
  0
LINE
  5
80C4
330
807F
100
AcDbEntity
  8
AM_0 外形線1
100
AcDbLine
 10
215.9999999999998
 20
92.00000000000022
 30
0.0
 11
215.9999999999998
 21
73.30000000000019
 31
0.0
  0
ARC
  5
80C5
330
807F
100
AcDbEntity
  8
AM_0 外形線1
100
AcDbCircle
 10
210.9999999999998
 20
73.30000000000019
 30
0.0
 40
5.0
100
AcDbArc
 50
270.0
 51
0.0
1001
GENIUS_GENOBJ-N-FIL_13
1002
{
1000
OWNER
1000
GEN
1002
}
1001
GENIUS_GENODEF_13
1002
{
1000
HIER
1070
     0
1002
}
1002
{
1000
MANEDIT
1070
     0
1002
}
1002
{
1000
NOSEL
1070
     0
1002
}
1002
{
1000
BEHIND
1070
     0
1002
}
1002
{
1000
OTHER
1070
     0
1002
}
1002
{
1000
REACTOR
1002
}
  0
LINE
  5
80C6
330
807F
100
AcDbEntity
  8
AM_0 外形線1
100
AcDbLine
 10
220.9999999999998
 20
92.00000000000022
 30
0.0
 11
215.9999999999998
 21
92.00000000000022
 31
0.0
  0
LINE
  5
80C7
330
807F
100
AcDbEntity
  8
AM_0 外形線1
100
AcDbLine
 10
208.0000000000001
 20
68.29999999999995
 30
0.0
 11
199.7438911505881
 21
82.60000000000012
 31
0.0
  0
ARC
  5
80C8
330
807F
100
AcDbEntity
  8
AM_0 外形線1
100
AcDbCircle
 10
196.9999999999997
 20
92.60000000000013
 30
0.0
 40
10.0
100
AcDbArc
 50
270.0
 51
299.9304559598734
  0
LINE
  5
80C9
330
807F
100
AcDbEntity
  8
AM_0 外形線1
100
AcDbLine
 10
215.9999999999998
 20
92.00000000000022
 30
0.0
 11
201.9894847414926
 21
83.93368348060084
 31
0.0
  0
HATCH
  5
80CA
330
807F
100
AcDbEntity
  8
AM_8 ハッチング
100
AcDbHatch
 10
0.0
 20
0.0
 30
0.0
210
0.0
220
0.0
230
1.0
  2
_U
 70
     0
 71
     0
 91
        1
 92
        1
 93
        4
 72
     1
 10
215.9999999999998
 20
82.60000000000012
 11
196.9999999999997
 21
82.5999999999999
 72
     2
 10
196.9999999999997
 20
92.60000000000013
 40
10.0
 50
270.0000000000005
 51
299.9304559598801
 73
     1
 72
     1
 10
201.9894847414926
 20
83.93368348060084
 11
215.9999999999998
 21
92.00000000000043
 72
     1
 10
215.9999999999998
 20
92.00000000000022
 11
215.9999999999998
 21
82.60000000000012
 97
        0
 75
     0
 76
     0
 52
45.0
 41
1.25
 77
     0
 78
     1
 53
45.0
 43
-442.0318922318624
 44
-471.7229131767821
 45
-0.8838834764831842
 46
0.8838834764831844
 79
     0
 98
        1
 10
-37.90676271724385
 20
-103.8699941731829
1001
GENIUS_GENOBJ-N-HTC_13
1002
{
1000
OWNER
1000
GEN
1002
}
1001
GENIUS_GENODEF_13
1002
{
1000
HIER
1070
     0
1002
}
1002
{
1000
MANEDIT
1070
     0
1002
}
1002
{
1000
NOSEL
1070
     0
1002
}
1002
{
1000
BEHIND
1070
     0
1002
}
1002
{
1000
OTHER
1070
     0
1002
}
1002
{
1000
REACTOR
1002
}
1001
GENIUS_GENHATCH_13
1002
{
1000
DATA
1040
45.0
1042
-0.5
1000
_U
1070
     0
1011
213.0773001294201
1021
86.95434228810018
1031
0.0
1002
}
1002
{
1000
UCS
1010
0.0
1020
0.0
1030
0.0
1010
1.0
1020
0.0
1030
0.0
1010
0.0
1020
1.0
1030
0.0
1002
}
1001
ACAD
1010
0.0
1020
0.0
1030
0.0
  0
LINE
  5
80CB
330
807F
100
AcDbEntity
  8
AM_0 外形線1
100
AcDbLine
 10
235.9999999999997
 20
85.50000000000023
 30
0.0
 11
235.9999999999997
 21
95.50000000000023
 31
0.0
  0
LINE
  5
80CC
330
807F
100
AcDbEntity
  8
AM_0 外形線1
100
AcDbLine
 10
221.0000000000001
 20
106.5000000000002
 30
0.0
 11
236.0000000000001
 21
106.5000000000002
 31
0.0
  0
LINE
  5
80CD
330
807F
100
AcDbEntity
  8
AM_0 外形線1
100
AcDbLine
 10
221.0000000000001
 20
95.50000000000023
 30
0.0
 11
236.0000000000001
 21
95.50000000000023
 31
0.0
  0
LINE
  5
80CE
330
807F
100
AcDbEntity
  8
AM_0 外形線1
100
AcDbLine
 10
0.0000000000000568
 20
-47.76556855789522
 30
0.0
 11
0.0000000000000568
 21
-111.4999999999997
 31
0.0
  0
LINE
  5
80CF
330
807F
100
AcDbEntity
  8
AM_0 外形線1
100
AcDbLine
 10
0.500000000000057
 20
-111.9999999999997
 30
0.0
 11
0.0000000000000568
 21
-111.4999999999997
 31
0.0
1001
GENIUS_GENFIL_13
1070
     0
1040
0.5
1040
0.5
1040
0.4999999999999858
1040
45.00000000000244
1000
~T
1001
GENIUS_GENOREF_13
1005
80F4
  0
LINE
  5
80D0
330
807F
100
AcDbEntity
  8
AM_7 中心線
  6
CENTER
100
AcDbLine
 10
20.00000000000006
 20
-100.9999999999998
 30
0.0
 11
-19.99999999999994
 21
-100.9999999999998
 31
0.0
  0
LINE
  5
80D1
330
807F
100
AcDbEntity
  8
AM_0 外形線1
100
AcDbLine
 10
15.00000000000006
 20
-110.9999999999997
 30
0.0
 11
15.00000000000006
 21
0.0000000000002274
 31
0.0
  0
LINE
  5
80D2
330
807F
100
AcDbEntity
  8
AM_0 外形線1
100
AcDbLine
 10
0.500000000000057
 20
-111.9999999999997
 30
0.0
 11
14.00000000000005
 21
-111.9999999999997
 31
0.0
  0
LINE
  5
80D3
330
807F
100
AcDbEntity
  8
AM_0 外形線1
100
AcDbLine
 10
15.00000000000006
 20
-110.9999999999997
 30
0.0
 11
14.00000000000005
 21
-111.9999999999997
 31
0.0
1001
GENIUS_GENFIL_13
1070
     0
1040
1.0
1040
1.0
1040
1.0
1040
45.00000000000041
1000
~T
1001
GENIUS_GENOREF_13
1005
80F3
  0
LINE
  5
80D4
330
807F
100
AcDbEntity
  8
AM_0 外形線1
100
AcDbLine
 10
20.00000000000006
 20
-91.99999999999977
 30
0.0
 11
20.00000000000011
 21
0.0000000000002274
 31
0.0
  0
LINE
  5
80D5
330
807F
100
AcDbEntity
  8
AM_0 外形線1
100
AcDbLine
 10
15.00000000000006
 20
-91.99999999999977
 30
0.0
 11
20.00000000000006
 21
-91.99999999999977
 31
0.0
  0
ARC
  5
80D6
330
807F
100
AcDbEntity
  8
AM_0 外形線1
100
AcDbCircle
 10
39.0
 20
-92.59999999999969
 30
0.0
 40
10.0
100
AcDbArc
 50
90.0
 51
119.9304559598733
  0
LINE
  5
80D7
330
807F
100
AcDbEntity
  8
AM_0 外形線1
100
AcDbLine
 10
20.00000000000006
 20
-91.99999999999977
 30
0.0
 11
34.01051525850721
 21
-83.93368348060041
 31
0.0
  0
LINE
  5
80D8
330
807F
100
AcDbEntity
  8
AM_0 外形線1
100
AcDbLine
 10
0.0000000000000568
 20
111.5000000000002
 30
0.0
 11
0.0000000000001137
 21
106.5000000000002
 31
0.0
  0
LINE
  5
80D9
330
807F
100
AcDbEntity
  8
AM_0 外形線1
100
AcDbLine
 10
0.0000000000001137
 20
0.0000000000002274
 30
0.0
 11
0.0000000000000568
 21
-111.4999999999997
 31
0.0
  0
LINE
  5
80DA
330
807F
100
AcDbEntity
  8
AM_7 中心線
  6
CENTER
100
AcDbLine
 10
20.00000000000006
 20
-100.9999999999998
 30
0.0
 11
-19.99999999999994
 21
-100.9999999999998
 31
0.0
  0
LINE
  5
80DB
330
807F
100
AcDbEntity
  8
AM_0 外形線1
100
AcDbLine
 10
0.500000000000057
 20
85.00000000000046
 30
0.0
 11
0.0000000000000568
 21
85.50000000000045
 31
0.0
1001
GENIUS_GENFIL_13
1070
     0
1040
0.5
1040
0.5
1040
0.4999999999999716
1040
45.00000000000162
1000
~T
1001
GENIUS_GENOREF_13
1005
80F2
  0
LINE
  5
80DC
330
807F
100
AcDbEntity
  8
AM_0 外形線1
100
AcDbLine
 10
0.0000000000000568
 20
111.5000000000004
 30
0.0
 11
0.500000000000057
 21
112.0000000000004
 31
0.0
1001
GENIUS_GENFIL_13
1070
     0
1040
0.5
1040
0.5
1040
0.4999999999999858
1040
45.00000000000244
1000
~T
1001
GENIUS_GENOREF_13
1005
80F1
  0
LINE
  5
80DE
330
807F
100
AcDbEntity
  8
AM_0 外形線1
100
AcDbLine
 10
15.00000000000079
 20
111.0000000000002
 30
0.0
 11
15.00000000000051
 21
92.00000000000022
 31
0.0
  0
LINE
  5
80DF
330
807F
100
AcDbEntity
  8
AM_0 外形線1
100
AcDbLine
 10
0.5000000000006253
 20
112.0000000000004
 30
0.0
 11
14.00000000000062
 21
112.0000000000002
 31
0.0
  0
LINE
  5
80E0
330
807F
100
AcDbEntity
  8
AM_0 外形線1
100
AcDbLine
 10
15.00000000000062
 20
111.0000000000002
 30
0.0
 11
14.00000000000062
 21
112.0000000000002
 31
0.0
1001
GENIUS_GENFIL_13
1070
     0
1040
1.0
1040
1.0
1040
1.0
1040
45.00000000000325
1000
~T
1001
GENIUS_GENOREF_13
1005
80F0
  0
LINE
  5
80E1
330
807F
100
AcDbEntity
  8
AM_0 外形線1
100
AcDbLine
 10
30.00000000000017
 20
68.29999999999995
 30
0.0
 11
29.99999999999971
 21
0.0000000000002274
 31
0.0
  0
LINE
  5
80E2
330
807F
100
AcDbEntity
  8
AM_0 外形線1
100
AcDbLine
 10
0.500000000000057
 20
85.00000000000046
 30
0.0
 11
5.000000000000511
 21
85.00000000000046
 31
0.0
  0
LINE
  5
80E3
330
807F
100
AcDbEntity
  8
AM_0 外形線1
100
AcDbLine
 10
20.00000000000051
 20
92.00000000000022
 30
0.0
 11
20.00000000000051
 21
73.30000000000019
 31
0.0
  0
ARC
  5
80E4
330
807F
100
AcDbEntity
  8
AM_0 外形線1
100
AcDbCircle
 10
25.00000000000051
 20
73.30000000000019
 30
0.0
 40
5.0
100
AcDbArc
 50
180.0
 51
270.0
1001
GENIUS_GENOBJ-N-FIL_13
1002
{
1000
OWNER
1000
GEN
1002
}
1001
GENIUS_GENODEF_13
1002
{
1000
HIER
1070
     0
1002
}
1002
{
1000
MANEDIT
1070
     0
1002
}
1002
{
1000
NOSEL
1070
     0
1002
}
1002
{
1000
BEHIND
1070
     0
1002
}
1002
{
1000
OTHER
1070
     0
1002
}
1002
{
1000
REACTOR
1002
}
  0
LINE
  5
80E5
330
807F
100
AcDbEntity
  8
AM_0 外形線1
100
AcDbLine
 10
15.00000000000051
 20
92.00000000000022
 30
0.0
 11
20.00000000000051
 21
92.00000000000022
 31
0.0
  0
LINE
  5
80E6
330
807F
100
AcDbEntity
  8
AM_0 外形線1
100
AcDbLine
 10
28.00000000000017
 20
68.29999999999995
 30
0.0
 11
36.25610884941216
 21
82.60000000000012
 31
0.0
  0
ARC
  5
80E7
330
807F
100
AcDbEntity
  8
AM_0 外形線1
100
AcDbCircle
 10
39.00000000000046
 20
92.60000000000013
 30
0.0
 40
10.0
100
AcDbArc
 50
240.0695440401267
 51
270.0
  0
LINE
  5
80E8
330
807F
100
AcDbEntity
  8
AM_0 外形線1
100
AcDbLine
 10
20.00000000000051
 20
92.00000000000022
 30
0.0
 11
34.01051525850772
 21
83.93368348060084
 31
0.0
  0
HATCH
  5
80E9
330
807F
100
AcDbEntity
  8
AM_8 ハッチング
100
AcDbHatch
 10
0.0
 20
0.0
 30
0.0
210
0.0
220
0.0
230
1.0
  2
_U
 70
     0
 71
     0
 91
        1
 92
        1
 93
        5
 72
     1
 10
25.0000000000004
 20
68.30000000000018
 11
28.0000000000004
 21
68.30000000000018
 72
     1
 10
28.0000000000004
 20
68.30000000000018
 11
36.25610884941222
 21
82.60000000000012
 72
     1
 10
36.25610884941216
 20
82.60000000000012
 11
20.00000000000068
 21
82.60000000000038
 72
     1
 10
20.00000000000051
 20
82.60000000000012
 11
20.00000000000028
 21
73.30000000000019
 72
     2
 10
25.00000000000051
 20
73.30000000000019
 40
5.0
 50
539.9999999999994
 51
629.9999999999998
 73
     1
 97
        0
 75
     0
 76
     0
 52
45.0
 41
1.25
 77
     0
 78
     1
 53
45.0
 43
-338.0318922318628
 44
-471.7229131767821
 45
-0.8838834764831842
 46
0.8838834764831844
 79
     0
 98
        1
 10
273.9067627172441
 20
-103.8699941731829
1001
GENIUS_GENOBJ-N-HTC_13
1002
{
1000
OWNER
1000
GEN
1002
}
1001
GENIUS_GENODEF_13
1002
{
1000
HIER
1070
     0
1002
}
1002
{
1000
MANEDIT
1070
     0
1002
}
1002
{
1000
NOSEL
1070
     0
1002
}
1002
{
1000
BEHIND
1070
     0
1002
}
1002
{
1000
OTHER
1070
     0
1002
}
1002
{
1000
REACTOR
1002
}
1001
GENIUS_GENHATCH_13
1002
{
1000
DATA
1040
45.0
1042
0.5
1000
_U
1070
     0
1011
30.16354396968302
1021
77.90935735214816
1031
0.0
1002
}
1002
{
1000
UCS
1010
0.0
1020
0.0
1030
0.0
1010
1.0
1020
0.0
1030
0.0
1010
0.0
1020
1.0
1030
0.0
1002
}
1001
ACAD
1010
0.0
1020
0.0
1030
0.0
  0
HATCH
  5
80EA
330
807F
100
AcDbEntity
  8
AM_8 ハッチング
100
AcDbHatch
 10
0.0
 20
0.0
 30
0.0
210
0.0
220
0.0
230
1.0
  2
_U
 70
     0
 71
     0
 91
        1
 92
        1
 93
        4
 72
     1
 10
20.00000000000051
 20
82.60000000000012
 11
39.0000000000005
 21
82.5999999999999
 72
     2
 10
39.00000000000046
 20
92.60000000000013
 40
10.0
 50
90.00000000000046
 51
119.93045595988
 73
     0
 72
     1
 10
34.01051525850772
 20
83.93368348060084
 11
20.00000000000051
 21
92.00000000000043
 72
     1
 10
20.00000000000051
 20
92.00000000000022
 11
20.00000000000051
 21
82.60000000000012
 97
        0
 75
     0
 76
     0
 52
45.0
 41
1.25
 77
     0
 78
     1
 53
45.0
 43
-338.0318922318628
 44
-471.7229131767821
 45
-0.8838834764831842
 46
0.8838834764831844
 79
     0
 98
        1
 10
273.9067627172441
 20
-103.8699941731829
1001
GENIUS_GENOBJ-N-HTC_13
1002
{
1000
OWNER
1000
GEN
1002
}
1001
GENIUS_GENODEF_13
1002
{
1000
HIER
1070
     0
1002
}
1002
{
1000
MANEDIT
1070
     0
1002
}
1002
{
1000
NOSEL
1070
     0
1002
}
1002
{
1000
BEHIND
1070
     0
1002
}
1002
{
1000
OTHER
1070
     0
1002
}
1002
{
1000
REACTOR
1002
}
1001
GENIUS_GENHATCH_13
1002
{
1000
DATA
1040
45.0
1042
0.5
1000
_U
1070
     0
1011
28.39820759611587
1021
86.95434228810018
1031
0.0
1002
}
1002
{
1000
UCS
1010
0.0
1020
0.0
1030
0.0
1010
1.0
1020
0.0
1030
0.0
1010
0.0
1020
1.0
1030
0.0
1002
}
1001
ACAD
1010
0.0
1020
0.0
1030
0.0
  0
LINE
  5
80EB
330
807F
100
AcDbEntity
  8
AM_0 外形線1
100
AcDbLine
 10
15.00000000000017
 20
106.5000000000002
 30
0.0
 11
0.0000000000001705
 21
106.5000000000002
 31
0.0
  0
LINE
  5
80EC
330
807F
100
AcDbEntity
  8
AM_0 外形線1
100
AcDbLine
 10
15.00000000000017
 20
95.50000000000023
 30
0.0
 11
0.0000000000001705
 21
95.50000000000023
 31
0.0
  0
HATCH
  5
80ED
330
807F
100
AcDbEntity
  8
AM_8 ハッチング
100
AcDbHatch
 10
0.0
 20
0.0
 30
0.0
210
0.0
220
0.0
230
1.0
  2
_U
 70
     0
 71
     0
 91
        1
 92
        1
 93
        5
 72
     1
 10
199.7438911505881
 20
82.60000000000012
 11
208.0000000000001
 21
68.29999999999995
 72
     1
 10
208.0000000000001
 20
68.29999999999995
 11
210.9999999999998
 21
68.30000000000018
 72
     2
 10
210.9999999999998
 20
73.30000000000019
 40
5.0
 50
270.0
 51
360.0
 73
     1
 72
     1
 10
215.9999999999998
 20
73.30000000000019
 11
215.9999999999998
 21
82.60000000000012
 72
     1
 10
215.9999999999998
 20
82.60000000000012
 11
199.7438911505881
 21
82.60000000000012
 97
        0
 75
     0
 76
     0
 52
45.0
 41
1.25
 77
     0
 78
     1
 53
45.0
 43
-442.0318922318624
 44
-471.7229131767821
 45
-0.8838834764831842
 46
0.8838834764831844
 79
     0
 98
        1
 10
-442.0318922318624
 20
-471.7229131767821
1001
GENIUS_GENODEF_13
1002
{
1000
HIER
1070
     0
1002
}
1002
{
1000
MANEDIT
1070
     0
1002
}
1002
{
1000
NOSEL
1070
     0
1002
}
1002
{
1000
BEHIND
1070
     0
1002
}
1002
{
1000
OTHER
1070
     0
1002
}
1002
{
1000
REACTOR
1002
}
1001
GENIUS_GENOBJ-N-HTC_13
1002
{
1000
OWNER
1000
GEN
1002
}
1001
GENIUS_GENHATCH_13
1002
{
1000
DATA
1040
45.0
1042
0.5
1000
_U
1070
     0
1011
213.245062307329
1021
75.92935872100042
1031
0.0
1002
}
1002
{
1000
UCS
1010
0.0
1020
0.0
1030
0.0
1010
1.0
1020
0.0
1030
0.0
1010
0.0
1020
1.0
1030
0.0
1002
}
  0
LINE
  5
80EE
330
807F
100
AcDbEntity
  8
AM_0 外形線1
100
AcDbLine
 10
5.000000000000511
 20
85.00000000000046
 30
0.0
 11
5.000000000000511
 21
0.0000000000004547
 31
0.0
  0
LINE
  5
80EF
330
807F
100
AcDbEntity
  8
AM_0 外形線1
100
AcDbLine
 10
230.9999999999998
 20
85.00000000000046
 30
0.0
 11
230.9999999999998
 21
0.0
 31
0.0
  0
POINT
  5
80F0
330
807F
100
AcDbEntity
  8
0
 60
     1
100
AcDbPoint
 10
1519.032009425548
 20
2262.34032978933
 30
0.0
1001
GENIUS_GENOBJ-N-CHA_13
1002
{
1000
OWNER
1000
GEN
1002
}
1001
GENIUS_GENOENT_13
1002
{
1000
MYREF
1005
80F0
1002
}
1002
{
1000
GRP
1005
0
1002
}
1001
GENIUS_GENODEF_13
1002
{
1000
HIER
1070
     1
1002
}
1002
{
1000
MANEDIT
1070
     1
1002
}
1002
{
1000
NOSEL
1070
     0
1002
}
1002
{
1000
BEHIND
1070
     0
1002
}
1002
{
1000
OTHER
1070
     0
1002
}
1002
{
1000
REACTOR
1002
}
1001
GENIUS_GENOLIS_13
1002
{
1000
ENT
1005
80E0
1002
}
  0
POINT
  5
80F1
330
807F
100
AcDbEntity
  8
0
 60
     1
100
AcDbPoint
 10
1519.032009425548
 20
2262.34032978933
 30
0.0
1001
GENIUS_GENOBJ-N-CHA_13
1002
{
1000
OWNER
1000
GEN
1002
}
1001
GENIUS_GENOENT_13
1002
{
1000
MYREF
1005
80F1
1002
}
1002
{
1000
GRP
1005
0
1002
}
1001
GENIUS_GENODEF_13
1002
{
1000
HIER
1070
     1
1002
}
1002
{
1000
MANEDIT
1070
     1
1002
}
1002
{
1000
NOSEL
1070
     0
1002
}
1002
{
1000
BEHIND
1070
     0
1002
}
1002
{
1000
OTHER
1070
     0
1002
}
1002
{
1000
REACTOR
1002
}
1001
GENIUS_GENOLIS_13
1002
{
1000
ENT
1005
80DC
1002
}
  0
POINT
  5
80F2
330
807F
100
AcDbEntity
  8
0
 60
     1
100
AcDbPoint
 10
1519.032009425548
 20
2262.34032978933
 30
0.0
1001
GENIUS_GENOBJ-N-CHA_13
1002
{
1000
OWNER
1000
GEN
1002
}
1001
GENIUS_GENOENT_13
1002
{
1000
MYREF
1005
80F2
1002
}
1002
{
1000
GRP
1005
0
1002
}
1001
GENIUS_GENODEF_13
1002
{
1000
HIER
1070
     1
1002
}
1002
{
1000
MANEDIT
1070
     1
1002
}
1002
{
1000
NOSEL
1070
     0
1002
}
1002
{
1000
BEHIND
1070
     0
1002
}
1002
{
1000
OTHER
1070
     0
1002
}
1002
{
1000
REACTOR
1002
}
1001
GENIUS_GENOLIS_13
1002
{
1000
ENT
1005
80DB
1002
}
  0
POINT
  5
80F3
330
807F
100
AcDbEntity
  8
0
 60
     1
100
AcDbPoint
 10
2535.095793889273
 20
2262.34032978933
 30
0.0
 50
180.0
1001
GENIUS_GENODEF_13
1002
{
1000
HIER
1070
     1
1002
}
1002
{
1000
MANEDIT
1070
     0
1002
}
1002
{
1000
NOSEL
1070
     0
1002
}
1002
{
1000
BEHIND
1070
     0
1002
}
1002
{
1000
OTHER
1070
     0
1002
}
1002
{
1000
REACTOR
1002
}
1001
GENIUS_GENOLIS_13
1002
{
1000
ENT
1005
80D3
1002
}
1001
GENIUS_GENOENT_13
1002
{
1000
MYREF
1005
80F3
1002
}
1002
{
1000
GRP
1005
0
1002
}
1001
GENIUS_GENOBJ-N-CHA_13
1002
{
1000
OWNER
1000
GEN
1002
}
  0
POINT
  5
80F4
330
807F
100
AcDbEntity
  8
0
 60
     1
100
AcDbPoint
 10
2535.095793889273
 20
2262.34032978933
 30
0.0
 50
180.0
1001
GENIUS_GENOBJ-N-CHA_13
1002
{
1000
OWNER
1000
GEN
1002
}
1001
GENIUS_GENOLIS_13
1002
{
1000
ENT
1005
80CF
1002
}
1001
GENIUS_GENODEF_13
1002
{
1000
HIER
1070
     1
1002
}
1002
{
1000
MANEDIT
1070
     0
1002
}
1002
{
1000
NOSEL
1070
     0
1002
}
1002
{
1000
BEHIND
1070
     0
1002
}
1002
{
1000
OTHER
1070
     0
1002
}
1002
{
1000
REACTOR
1002
}
1001
GENIUS_GENOENT_13
1002
{
1000
MYREF
1005
80F4
1002
}
1002
{
1000
GRP
1005
0
1002
}
  0
POINT
  5
80F5
330
807F
100
AcDbEntity
  8
0
 60
     1
100
AcDbPoint
 10
1519.032009425548
 20
2262.34032978933
 30
0.0
1001
GENIUS_GENOBJ-N-CHA_13
1002
{
1000
OWNER
1000
GEN
1002
}
1001
GENIUS_GENOENT_13
1002
{
1000
MYREF
1005
80F5
1002
}
1002
{
1000
GRP
1005
0
1002
}
1001
GENIUS_GENODEF_13
1002
{
1000
HIER
1070
     1
1002
}
1002
{
1000
MANEDIT
1070
     1
1002
}
1002
{
1000
NOSEL
1070
     0
1002
}
1002
{
1000
BEHIND
1070
     0
1002
}
1002
{
1000
OTHER
1070
     0
1002
}
1002
{
1000
REACTOR
1002
}
1001
GENIUS_GENOLIS_13
1002
{
1000
ENT
1005
80C1
1002
}
  0
POINT
  5
80F6
330
807F
100
AcDbEntity
  8
0
 60
     1
100
AcDbPoint
 10
1519.032009425548
 20
2262.34032978933
 30
0.0
1001
GENIUS_GENOBJ-N-CHA_13
1002
{
1000
OWNER
1000
GEN
1002
}
1001
GENIUS_GENOENT_13
1002
{
1000
MYREF
1005
80F6
1002
}
1002
{
1000
GRP
1005
0
1002
}
1001
GENIUS_GENODEF_13
1002
{
1000
HIER
1070
     1
1002
}
1002
{
1000
MANEDIT
1070
     1
1002
}
1002
{
1000
NOSEL
1070
     0
1002
}
1002
{
1000
BEHIND
1070
     0
1002
}
1002
{
1000
OTHER
1070
     0
1002
}
1002
{
1000
REACTOR
1002
}
1001
GENIUS_GENOLIS_13
1002
{
1000
ENT
1005
80BD
1002
}
  0
POINT
  5
80F7
330
807F
100
AcDbEntity
  8
0
 60
     1
100
AcDbPoint
 10
1519.032009425548
 20
2262.34032978933
 30
0.0
1001
GENIUS_GENOBJ-N-CHA_13
1002
{
1000
OWNER
1000
GEN
1002
}
1001
GENIUS_GENOENT_13
1002
{
1000
MYREF
1005
80F7
1002
}
1002
{
1000
GRP
1005
0
1002
}
1001
GENIUS_GENODEF_13
1002
{
1000
HIER
1070
     1
1002
}
1002
{
1000
MANEDIT
1070
     1
1002
}
1002
{
1000
NOSEL
1070
     0
1002
}
1002
{
1000
BEHIND
1070
     0
1002
}
1002
{
1000
OTHER
1070
     0
1002
}
1002
{
1000
REACTOR
1002
}
1001
GENIUS_GENOLIS_13
1002
{
1000
ENT
1005
80BC
1002
}
  0
POINT
  5
80F8
330
807F
100
AcDbEntity
  8
0
 60
     1
100
AcDbPoint
 10
1519.032009425548
 20
2262.34032978933
 30
0.0
1001
GENIUS_GENODEF_13
1002
{
1000
HIER
1070
     1
1002
}
1002
{
1000
MANEDIT
1070
     0
1002
}
1002
{
1000
NOSEL
1070
     0
1002
}
1002
{
1000
BEHIND
1070
     0
1002
}
1002
{
1000
OTHER
1070
     0
1002
}
1002
{
1000
REACTOR
1002
}
1001
GENIUS_GENOLIS_13
1002
{
1000
ENT
1005
8087
1002
}
1001
GENIUS_GENOENT_13
1002
{
1000
MYREF
1005
80F8
1002
}
1002
{
1000
GRP
1005
0
1002
}
1001
GENIUS_GENOBJ-N-CHA_13
1002
{
1000
OWNER
1000
GEN
1002
}
  0
POINT
  5
80F9
330
807F
100
AcDbEntity
  8
0
 60
     1
100
AcDbPoint
 10
1519.032009425548
 20
2262.34032978933
 30
0.0
1001
GENIUS_GENOBJ-N-CHA_13
1002
{
1000
OWNER
1000
GEN
1002
}
1001
GENIUS_GENOLIS_13
1002
{
1000
ENT
1005
8083
1002
}
1001
GENIUS_GENODEF_13
1002
{
1000
HIER
1070
     1
1002
}
1002
{
1000
MANEDIT
1070
     0
1002
}
1002
{
1000
NOSEL
1070
     0
1002
}
1002
{
1000
BEHIND
1070
     0
1002
}
1002
{
1000
OTHER
1070
     0
1002
}
1002
{
1000
REACTOR
1002
}
1001
GENIUS_GENOENT_13
1002
{
1000
MYREF
1005
80F9
1002
}
1002
{
1000
GRP
1005
0
1002
}
  0
LINE
  5
82CA
330
807F
100
AcDbEntity
  8
AM_0 外形線1
100
AcDbLine
 10
0.0000000000001137
 20
95.50000000000023
 30
0.0
 11
0.0000000000001137
 21
85.50000000000057
 31
0.0
  0
LINE
  5
82CB
330
807F
100
AcDbEntity
  8
AM_0 外形線1
100
AcDbLine
 10
236.0000000000001
 20
106.5000000000002
 30
0.0
 11
236.0000000000002
 21
111.5000000000004
 31
0.0
  0
LINE
  5
82CC
330
807F
100
AcDbEntity
  8
AM_0 外形線1
100
AcDbLine
 10
235.9999999999998
 20
106.5000000000002
 30
0.0
 11
235.9999999999997
 21
111.5000000000004
 31
0.0
  0
LINE
  5
82CD
330
807F
100
AcDbEntity
  8
AM_0 外形線1
100
AcDbLine
 10
235.9999999999997
 20
106.5000000000002
 30
0.0
 11
235.9999999999997
 21
111.5000000000004
 31
0.0
  0
LINE
  5
A186
330
807F
100
AcDbEntity
  8
AM_0 外形線1
100
AcDbLine
 10
199.6729883939919
 20
-82.59999999999967
 30
0.0
 11
199.6729883939915
 21
-0.0000000000001137
 31
0.0
  0
LINE
  5
A187
330
807F
100
AcDbEntity
  8
AM_0 外形線1
100
AcDbLine
 10
36.32701160600812
 20
-82.5999999999998
 30
0.0
 11
36.32701160600812
 21
0.0
 31
0.0
  0
ENDBLK
  5
8081
330
807F
100
AcDbEntity
  8
0
100
AcDbBlockEnd
  0
BLOCK
  5
835D
330
835C
100
AcDbEntity
  8
0
100
AcDbBlockBegin
  2
*D29
 70
     1
 10
0.0
 20
0.0
 30
0.0
  3
*D29
  1

  0
LINE
  5
910C
330
835C
100
AcDbEntity
  8
AM_5 寸法線
 62
     3
100
AcDbLine
 10
475.9149283745931
 20
573.2977520266821
 30
0.0
 11
475.9149283745931
 21
527.7977520266817
 31
0.0
  0
LINE
  5
910D
330
835C
100
AcDbEntity
  8
AM_5 寸法線
 62
     3
100
AcDbLine
 10
490.914928374593
 20
573.7977520266821
 30
0.0
 11
490.914928374593
 21
527.7977520266817
 31
0.0
  0
LINE
  5
910E
330
835C
100
AcDbEntity
  8
AM_5 寸法線
 62
     3
100
AcDbLine
 10
468.4149283745931
 20
529.6727520266819
 30
0.0
 11
460.9149283745931
 21
529.6727520266819
 31
0.0
  0
LINE
  5
910F
330
835C
100
AcDbEntity
  8
AM_5 寸法線
 62
     3
100
AcDbLine
 10
498.4149283745931
 20
529.6727520266819
 30
0.0
 11
528.8649283745931
 21
529.6727520266819
 31
0.0
  0
LINE
  5
9110
330
835C
100
AcDbEntity
  8
AM_5 寸法線
 62
     3
100
AcDbLine
 10
475.9149283745931
 20
529.6727520266819
 30
0.0
 11
490.914928374593
 21
529.6727520266819
 31
0.0
  0
INSERT
  5
9111
330
835C
100
AcDbEntity
  8
AM_5 寸法線
 62
     3
100
AcDbBlockReference
  2
GENDOT
 10
475.9149283745931
 20
529.6727520266819
 30
0.0
 41
7.5
 42
7.5
 43
7.5
  0
INSERT
  5
9112
330
835C
100
AcDbEntity
  8
AM_5 寸法線
 62
     3
100
AcDbBlockReference
  2
_Open30
 10
490.914928374593
 20
529.6727520266819
 30
0.0
 41
7.5
 42
7.5
 43
7.5
 50
180.0
  0
MTEXT
  5
9113
330
835C
100
AcDbEntity
  8
AM_5 寸法線
 62
     3
100
AcDbMText
 10
517.3899283745931
 20
539.4227520266817
 30
0.0
 40
10.5
 41
0.0
 46
0.0
 71
     5
 72
     1
  1
15
  7
SEISA
 73
     1
 44
1.0
  0
POINT
  5
9114
330
835C
100
AcDbEntity
  8
Defpoints
 62
     0
100
AcDbPoint
 10
475.9149283745931
 20
575.1727520266821
 30
0.0
  0
POINT
  5
9115
330
835C
100
AcDbEntity
  8
Defpoints
 62
     0
100
AcDbPoint
 10
490.914928374593
 20
575.6727520266821
 30
0.0
  0
POINT
  5
9116
330
835C
100
AcDbEntity
  8
Defpoints
 62
     0
100
AcDbPoint
 10
490.914928374593
 20
529.6727520266819
 30
0.0
  0
ENDBLK
  5
835E
330
835C
100
AcDbEntity
  8
0
100
AcDbBlockEnd
  0
BLOCK
  5
83AD
330
83AC
100
AcDbEntity
  8
0
100
AcDbBlockBegin
  2
*D30
 70
     1
 10
0.0
 20
0.0
 30
0.0
  3
*D30
  1

  0
LINE
  5
9117
330
83AC
100
AcDbEntity
  8
AM_5 寸法線
 62
     3
100
AcDbLine
 10
711.9149283745931
 20
573.2977520266821
 30
0.0
 11
711.9149283745931
 21
527.7977520266817
 31
0.0
  0
LINE
  5
9118
330
83AC
100
AcDbEntity
  8
AM_5 寸法線
 62
     3
100
AcDbLine
 10
696.9149283745931
 20
573.7977520266821
 30
0.0
 11
696.9149283745931
 21
527.7977520266817
 31
0.0
  0
LINE
  5
9119
330
83AC
100
AcDbEntity
  8
AM_5 寸法線
 62
     3
100
AcDbLine
 10
719.4149283745931
 20
529.6727520266816
 30
0.0
 11
726.9149283745932
 21
529.6727520266816
 31
0.0
  0
LINE
  5
911A
330
83AC
100
AcDbEntity
  8
AM_5 寸法線
 62
     3
100
AcDbLine
 10
689.4149283745932
 20
529.6727520266816
 30
0.0
 11
658.9649283745932
 21
529.6727520266816
 31
0.0
  0
LINE
  5
911B
330
83AC
100
AcDbEntity
  8
AM_5 寸法線
 62
     3
100
AcDbLine
 10
711.9149283745931
 20
529.6727520266816
 30
0.0
 11
696.9149283745931
 21
529.6727520266816
 31
0.0
  0
INSERT
  5
911C
330
83AC
100
AcDbEntity
  8
AM_5 寸法線
 62
     3
100
AcDbBlockReference
  2
GENDOT
 10
711.9149283745931
 20
529.6727520266816
 30
0.0
 41
7.5
 42
7.5
 43
7.5
 50
180.0
  0
INSERT
  5
911D
330
83AC
100
AcDbEntity
  8
AM_5 寸法線
 62
     3
100
AcDbBlockReference
  2
_Open30
 10
696.9149283745931
 20
529.6727520266816
 30
0.0
 41
7.5
 42
7.5
 43
7.5
  0
MTEXT
  5
911E
330
83AC
100
AcDbEntity
  8
AM_5 寸法線
 62
     3
100
AcDbMText
 10
670.4399283745932
 20
539.4227520266817
 30
0.0
 40
10.5
 41
0.0
 46
0.0
 71
     5
 72
     1
  1
15
  7
SEISA
 73
     1
 44
1.0
  0
POINT
  5
911F
330
83AC
100
AcDbEntity
  8
Defpoints
 62
     0
100
AcDbPoint
 10
711.9149283745931
 20
575.1727520266821
 30
0.0
  0
POINT
  5
9120
330
83AC
100
AcDbEntity
  8
Defpoints
 62
     0
100
AcDbPoint
 10
696.9149283745931
 20
575.6727520266821
 30
0.0
  0
POINT
  5
9121
330
83AC
100
AcDbEntity
  8
Defpoints
 62
     0
100
AcDbPoint
 10
696.9149283745931
 20
529.6727520266816
 30
0.0
  0
ENDBLK
  5
83AE
330
83AC
100
AcDbEntity
  8
0
100
AcDbBlockEnd
  0
BLOCK
  5
9A0B
330
9A0A
100
AcDbEntity
  8
0
100
AcDbBlockBegin
  2
*D31
 70
     1
 10
0.0
 20
0.0
 30
0.0
  3
*D31
  1

  0
LINE
  5
9F51
330
9A0A
100
AcDbEntity
  8
AM_5 寸法線
 62
     3
100
AcDbLine
 10
717.9149283745931
 20
749.2612186040982
 30
0.0
 11
717.9149283745931
 21
707.0368004344783
 31
0.0
  0
LINE
  5
9F52
330
9A0A
100
AcDbEntity
  8
AM_5 寸法線
 62
     3
100
AcDbLine
 10
711.9149283745927
 20
770.2977520266821
 30
0.0
 11
711.9149283745927
 21
707.0368004344783
 31
0.0
  0
LINE
  5
9F53
330
9A0A
100
AcDbEntity
  8
AM_5 寸法線
 62
     3
100
AcDbLine
 10
725.4149283745931
 20
708.9118004344783
 30
0.0
 11
732.9149283745931
 21
708.9118004344783
 31
0.0
  0
LINE
  5
9F54
330
9A0A
100
AcDbEntity
  8
AM_5 寸法線
 62
     3
100
AcDbLine
 10
704.4149283745927
 20
708.9118004344783
 30
0.0
 11
682.0649283745925
 21
708.9118004344783
 31
0.0
  0
LINE
  5
9F55
330
9A0A
100
AcDbEntity
  8
AM_5 寸法線
 62
     3
100
AcDbLine
 10
717.9149283745931
 20
708.9118004344783
 30
0.0
 11
711.9149283745927
 21
708.9118004344783
 31
0.0
  0
INSERT
  5
9F56
330
9A0A
100
AcDbEntity
  8
AM_5 寸法線
 62
     3
100
AcDbBlockReference
  2
_Open30
 10
717.9149283745931
 20
708.9118004344783
 30
0.0
 41
7.5
 42
7.5
 43
7.5
 50
180.0
  0
INSERT
  5
9F57
330
9A0A
100
AcDbEntity
  8
AM_5 寸法線
 62
     3
100
AcDbBlockReference
  2
_Open30
 10
711.9149283745927
 20
708.9118004344783
 30
0.0
 41
7.5
 42
7.5
 43
7.5
  0
MTEXT
  5
9F58
330
9A0A
100
AcDbEntity
  8
AM_5 寸法線
 62
     3
100
AcDbMText
 10
689.4899283745927
 20
718.6618004344783
 30
0.0
 40
10.5
 41
0.0
 46
0.0
 71
     5
 72
     1
  1
6
  7
SEISA
 73
     1
 44
1.0
  0
POINT
  5
9F59
330
9A0A
100
AcDbEntity
  8
Defpoints
 62
     0
100
AcDbPoint
 10
717.9149283745931
 20
751.1362186040981
 30
0.0
  0
POINT
  5
9F5A
330
9A0A
100
AcDbEntity
  8
Defpoints
 62
     0
100
AcDbPoint
 10
711.9149283745927
 20
772.1727520266821
 30
0.0
  0
POINT
  5
9F5B
330
9A0A
100
AcDbEntity
  8
Defpoints
 62
     0
100
AcDbPoint
 10
711.9149283745927
 20
708.9118004344783
 30
0.0
  0
ENDBLK
  5
9A0C
330
9A0A
100
AcDbEntity
  8
0
100
AcDbBlockEnd
  0
BLOCK
  5
9B74
330
9B73
100
AcDbEntity
  8
0
100
AcDbBlockBegin
  2
*D32
 70
     1
 10
0.0
 20
0.0
 30
0.0
  3
*D32
  1

  0
LINE
  5
9B99
330
9B73
100
AcDbEntity
  8
AM_5 寸法線
 62
     3
100
AcDbLine
 10
356.9149283745932
 20
761.0477520266818
 30
0.0
 11
356.9149283745932
 21
795.7748427023297
 31
0.0
  0
LINE
  5
9B9A
330
9B73
100
AcDbEntity
  8
AM_5 寸法線
 62
     3
100
AcDbLine
 10
357.9149283745933
 20
756.4477520266818
 30
0.0
 11
357.9149283745933
 21
795.7748427023297
 31
0.0
  0
LINE
  5
9B9B
330
9B73
100
AcDbEntity
  8
AM_5 寸法線
 62
     3
100
AcDbLine
 10
349.4149283745932
 20
793.8998427023297
 30
0.0
 11
341.9149283745932
 21
793.8998427023297
 31
0.0
  0
LINE
  5
9B9C
330
9B73
100
AcDbEntity
  8
AM_5 寸法線
 62
     3
100
AcDbLine
 10
365.4149283745933
 20
793.8998427023297
 30
0.0
 11
384.1649283745933
 21
793.8998427023297
 31
0.0
  0
LINE
  5
9B9D
330
9B73
100
AcDbEntity
  8
AM_5 寸法線
 62
     3
100
AcDbLine
 10
356.9149283745932
 20
793.8998427023297
 30
0.0
 11
357.9149283745933
 21
793.8998427023297
 31
0.0
  0
INSERT
  5
9B9E
330
9B73
100
AcDbEntity
  8
AM_5 寸法線
 62
     3
100
AcDbBlockReference
  2
_Open30
 10
356.9149283745932
 20
793.8998427023297
 30
0.0
 41
7.5
 42
7.5
 43
7.5
  0
INSERT
  5
9B9F
330
9B73
100
AcDbEntity
  8
AM_5 寸法線
 62
     3
100
AcDbBlockReference
  2
_Open30
 10
357.9149283745933
 20
793.8998427023297
 30
0.0
 41
7.5
 42
7.5
 43
7.5
 50
180.0
  0
MTEXT
  5
9BA0
330
9B73
100
AcDbEntity
  8
AM_5 寸法線
 62
     3
100
AcDbMText
 10
378.5399283745933
 20
803.6498427023296
 30
0.0
 40
10.5
 41
0.0
 46
0.0
 71
     5
 72
     1
  1
1
  7
SEISA
 73
     1
 44
1.0
  0
POINT
  5
9BA1
330
9B73
100
AcDbEntity
  8
Defpoints
 62
     0
100
AcDbPoint
 10
356.9149283745932
 20
759.1727520266817
 30
0.0
  0
POINT
  5
9BA2
330
9B73
100
AcDbEntity
  8
Defpoints
 62
     0
100
AcDbPoint
 10
357.9149283745933
 20
754.572752026682
 30
0.0
  0
POINT
  5
9BA3
330
9B73
100
AcDbEntity
  8
Defpoints
 62
     0
100
AcDbPoint
 10
357.9149283745933
 20
793.8998427023297
 30
0.0
  0
ENDBLK
  5
9B75
330
9B73
100
AcDbEntity
  8
0
100
AcDbBlockEnd
  0
BLOCK
  5
9E57
330
9E56
100
AcDbEntity
  8
0
100
AcDbBlockBegin
  2
*D33
 70
     1
 10
0.0
 20
0.0
 30
0.0
  3
*D33
  1

  0
LINE
  5
9F0A
330
9E56
100
AcDbEntity
  8
AM_5 寸法線
 62
     3
100
AcDbLine
 10
427.914928374593
 20
757.7977520266817
 30
0.0
 11
427.914928374593
 21
737.0368004344784
 31
0.0
  0
LINE
  5
9F0B
330
9E56
100
AcDbEntity
  8
AM_5 寸法線
 62
     3
100
AcDbLine
 10
451.914928374593
 20
756.2977520266818
 30
0.0
 11
451.914928374593
 21
737.0368004344784
 31
0.0
  0
LINE
  5
9F0C
330
9E56
100
AcDbEntity
  8
AM_5 寸法線
 62
     3
100
AcDbLine
 10
435.414928374593
 20
738.9118004344784
 30
0.0
 11
444.414928374593
 21
738.9118004344784
 31
0.0
  0
MTEXT
  5
9F0D
330
9E56
100
AcDbEntity
  8
AM_5 寸法線
 62
     3
100
AcDbMText
 10
440.4389394462108
 20
746.5259223912872
 30
0.0
 40
10.5
 41
0.0
 46
0.0
 71
     5
 72
     1
  1
24
  7
SEISA
 73
     1
 44
1.0
  0
INSERT
  5
9F0E
330
9E56
100
AcDbEntity
  8
AM_5 寸法線
 62
     3
100
AcDbBlockReference
  2
_Open30
 10
427.914928374593
 20
738.9118004344784
 30
0.0
 41
7.5
 42
7.5
 43
7.5
 50
180.0
  0
INSERT
  5
9F0F
330
9E56
100
AcDbEntity
  8
AM_5 寸法線
 62
     3
100
AcDbBlockReference
  2
_Open30
 10
451.914928374593
 20
738.9118004344784
 30
0.0
 41
7.5
 42
7.5
 43
7.5
  0
POINT
  5
9F10
330
9E56
100
AcDbEntity
  8
Defpoints
 62
     0
100
AcDbPoint
 10
427.914928374593
 20
759.6727520266817
 30
0.0
  0
POINT
  5
9F11
330
9E56
100
AcDbEntity
  8
Defpoints
 62
     0
100
AcDbPoint
 10
451.914928374593
 20
758.1727520266817
 30
0.0
  0
POINT
  5
9F12
330
9E56
100
AcDbEntity
  8
Defpoints
 62
     0
100
AcDbPoint
 10
451.914928374593
 20
738.9118004344784
 30
0.0
  0
ENDBLK
  5
9E58
330
9E56
100
AcDbEntity
  8
0
100
AcDbBlockEnd
  0
BLOCK
  5
9EAE
330
9EAD
100
AcDbEntity
  8
0
100
AcDbBlockBegin
  2
*D34
 70
     1
 10
0.0
 20
0.0
 30
0.0
  3
*D34
  1

  0
LINE
  5
9F13
330
9EAD
100
AcDbEntity
  8
AM_5 寸法線
 62
     3
100
AcDbLine
 10
451.914928374593
 20
756.2977520266818
 30
0.0
 11
451.914928374593
 21
737.0368004344784
 31
0.0
  0
LINE
  5
9F14
330
9EAD
100
AcDbEntity
  8
AM_5 寸法線
 62
     3
100
AcDbLine
 10
469.914928374593
 20
755.2977520266818
 30
0.0
 11
469.914928374593
 21
737.0368004344784
 31
0.0
  0
LINE
  5
9F15
330
9EAD
100
AcDbEntity
  8
AM_5 寸法線
 62
     3
100
AcDbLine
 10
444.414928374593
 20
738.9118004344784
 30
0.0
 11
436.914928374593
 21
738.9118004344784
 31
0.0
  0
LINE
  5
9F16
330
9EAD
100
AcDbEntity
  8
AM_5 寸法線
 62
     3
100
AcDbLine
 10
477.414928374593
 20
738.9118004344784
 30
0.0
 11
484.9149283745929
 21
738.9118004344784
 31
0.0
  0
MTEXT
  5
9F17
330
9EAD
100
AcDbEntity
  8
AM_5 寸法線
 62
     3
100
AcDbMText
 10
460.0671822944767
 20
746.7801698610237
 30
0.0
 40
10.5
 41
0.0
 46
0.0
 71
     5
 72
     1
  1
18
  7
SEISA
 73
     1
 44
1.0
  0
LINE
  5
9F18
330
9EAD
100
AcDbEntity
  8
AM_5 寸法線
 62
     3
100
AcDbLine
 10
451.914928374593
 20
738.9118004344784
 30
0.0
 11
469.914928374593
 21
738.9118004344784
 31
0.0
  0
INSERT
  5
9F19
330
9EAD
100
AcDbEntity
  8
AM_5 寸法線
 62
     3
100
AcDbBlockReference
  2
_Open30
 10
451.914928374593
 20
738.9118004344784
 30
0.0
 41
7.5
 42
7.5
 43
7.5
  0
INSERT
  5
9F1A
330
9EAD
100
AcDbEntity
  8
AM_5 寸法線
 62
     3
100
AcDbBlockReference
  2
_Open30
 10
469.914928374593
 20
738.9118004344784
 30
0.0
 41
7.5
 42
7.5
 43
7.5
 50
180.0
  0
POINT
  5
9F1B
330
9EAD
100
AcDbEntity
  8
Defpoints
 62
     0
100
AcDbPoint
 10
451.914928374593
 20
758.1727520266817
 30
0.0
  0
POINT
  5
9F1C
102
{ACAD_REACTORS
330
9F2E
102
}
330
9EAD
100
AcDbEntity
  8
Defpoints
 62
     0
100
AcDbPoint
 10
469.914928374593
 20
757.1727520266818
 30
0.0
  0
POINT
  5
9F1D
330
9EAD
100
AcDbEntity
  8
Defpoints
 62
     0
100
AcDbPoint
 10
469.914928374593
 20
738.9118004344784
 30
0.0
  0
ENDBLK
  5
9EAF
330
9EAD
100
AcDbEntity
  8
0
100
AcDbBlockEnd
  0
BLOCK
  5
9F20
330
9F1F
100
AcDbEntity
  8
0
100
AcDbBlockBegin
  2
*D35
 70
     1
 10
0.0
 20
0.0
 30
0.0
  3
*D35
  1

  0
LINE
  5
9F45
330
9F1F
100
AcDbEntity
  8
AM_5 寸法線
 62
     3
100
AcDbLine
 10
475.9149283745931
 20
770.2977520266822
 30
0.0
 11
475.9149283745931
 21
707.0368004344783
 31
0.0
  0
LINE
  5
9F46
330
9F1F
100
AcDbEntity
  8
AM_5 寸法線
 62
     3
100
AcDbLine
 10
469.914928374593
 20
755.2977520266818
 30
0.0
 11
469.914928374593
 21
707.0368004344783
 31
0.0
  0
LINE
  5
9F47
330
9F1F
100
AcDbEntity
  8
AM_5 寸法線
 62
     3
100
AcDbLine
 10
483.414928374593
 20
708.9118004344783
 30
0.0
 11
490.914928374593
 21
708.9118004344783
 31
0.0
  0
LINE
  5
9F48
330
9F1F
100
AcDbEntity
  8
AM_5 寸法線
 62
     3
100
AcDbLine
 10
462.4149283745929
 20
708.9118004344783
 30
0.0
 11
440.0649283745929
 21
708.9118004344783
 31
0.0
  0
LINE
  5
9F49
330
9F1F
100
AcDbEntity
  8
AM_5 寸法線
 62
     3
100
AcDbLine
 10
475.9149283745931
 20
708.9118004344783
 30
0.0
 11
469.914928374593
 21
708.9118004344783
 31
0.0
  0
INSERT
  5
9F4A
330
9F1F
100
AcDbEntity
  8
AM_5 寸法線
 62
     3
100
AcDbBlockReference
  2
_Open30
 10
475.9149283745931
 20
708.9118004344783
 30
0.0
 41
7.5
 42
7.5
 43
7.5
 50
180.0
  0
INSERT
  5
9F4B
330
9F1F
100
AcDbEntity
  8
AM_5 寸法線
 62
     3
100
AcDbBlockReference
  2
_Open30
 10
469.914928374593
 20
708.9118004344783
 30
0.0
 41
7.5
 42
7.5
 43
7.5
  0
MTEXT
  5
9F4C
330
9F1F
100
AcDbEntity
  8
AM_5 寸法線
 62
     3
100
AcDbMText
 10
447.4899283745929
 20
718.6618004344783
 30
0.0
 40
10.5
 41
0.0
 46
0.0
 71
     5
 72
     1
  1
6
  7
SEISA
 73
     1
 44
1.0
  0
POINT
  5
9F4D
330
9F1F
100
AcDbEntity
  8
Defpoints
 62
     0
100
AcDbPoint
 10
475.9149283745931
 20
772.1727520266822
 30
0.0
  0
POINT
  5
9F4E
330
9F1F
100
AcDbEntity
  8
Defpoints
 62
     0
100
AcDbPoint
 10
469.914928374593
 20
757.1727520266818
 30
0.0
  0
POINT
  5
9F4F
330
9F1F
100
AcDbEntity
  8
Defpoints
 62
     0
100
AcDbPoint
 10
469.914928374593
 20
708.9118004344783
 30
0.0
  0
ENDBLK
  5
9F21
330
9F1F
100
AcDbEntity
  8
0
100
AcDbBlockEnd
  0
BLOCK
  5
9FF0
330
9FEF
100
AcDbEntity
  8
0
100
AcDbBlockBegin
  2
ケース
 70
     0
 10
0.0
 20
0.0
 30
0.0
  3
ケース
  1

  0
LINE
  5
9FF3
330
9FEF
100
AcDbEntity
  8
AM_11 想像線
 48
0.1
100
AcDbLine
 10
0.0
 20
-9.5
 30
0.0
 11
-12.43858310834957
 21
-9.5
 31
0.0
  0
LINE
  5
9FF4
330
9FEF
100
AcDbEntity
  8
AM_11 想像線
 48
0.1
100
AcDbLine
 10
0.0
 20
0.0
 30
0.0
 11
-24.43858310834958
 21
0.0
 31
0.0
  0
LINE
  5
9FF5
330
9FEF
100
AcDbEntity
  8
AM_11 想像線
 48
0.1
100
AcDbLine
 10
-10.43858310834957
 20
-8.099028999999973
 30
0.0
 11
-10.43858310834957
 21
-10.5
 31
0.0
  0
LINE
  5
9FF6
102
{ACAD_REACTORS
330
9B82
102
}
330
9FEF
100
AcDbEntity
  8
AM_11 想像線
 48
0.1
100
AcDbLine
 10
-28.43858310834958
 20
-4.0
 30
0.0
 11
-28.43858310834958
 21
-14.5
 31
0.0
  0
LINE
  5
9FF7
330
9FEF
100
AcDbEntity
  8
AM_11 想像線
 48
0.1
100
AcDbLine
 10
-15.43858310834957
 20
-14.5
 30
0.0
 11
-15.43858310834957
 21
-7.5
 31
0.0
  0
LINE
  5
9FF8
330
9FEF
100
AcDbEntity
  8
AM_11 想像線
 48
0.1
100
AcDbLine
 10
0.0
 20
-11.5
 30
0.0
 11
-9.438583108349575
 21
-11.5
 31
0.0
  0
LINE
  5
9FF9
330
9FEF
100
AcDbEntity
  8
AM_11 想像線
 48
0.1
100
AcDbLine
 10
-25.73858310834931
 20
-9.799999999999727
 30
0.0
 11
-18.13858310834939
 21
-9.799999999999727
 31
0.0
  0
LINE
  5
9FFA
330
9FEF
100
AcDbEntity
  8
AM_11 想像線
 48
0.1
100
AcDbLine
 10
-28.43858310834958
 20
-13.25
 30
0.0
 11
-25.73858310834931
 21
-13.25
 31
0.0
  0
LINE
  5
9FFB
330
9FEF
100
AcDbEntity
  8
AM_11 想像線
 48
0.1
100
AcDbLine
 10
-25.73858310834931
 20
-14.5
 30
0.0
 11
-25.73858310834931
 21
-9.799999999999727
 31
0.0
  0
LINE
  5
9FFC
330
9FEF
100
AcDbEntity
  8
AM_11 想像線
 48
0.1
100
AcDbLine
 10
-18.13858310834939
 20
-13.25
 30
0.0
 11
-15.43858310834957
 21
-13.25
 31
0.0
  0
LINE
  5
9FFD
330
9FEF
100
AcDbEntity
  8
AM_11 想像線
 48
0.1
100
AcDbLine
 10
-10.43858310834957
 20
-10.5
 30
0.0
 11
-9.438583108349575
 21
-11.5
 31
0.0
  0
LINE
  5
9FFE
330
9FEF
100
AcDbEntity
  8
AM_11 想像線
 48
0.1
100
AcDbLine
 10
-18.13858310834939
 20
-9.799999999999727
 30
0.0
 11
-18.13858310834939
 21
-14.5
 31
0.0
  0
LINE
  5
9FFF
330
9FEF
100
AcDbEntity
  8
AM_11 想像線
 48
0.1
100
AcDbLine
 10
0.0
 20
-7.0
 30
0.0
 11
-10.43858310834957
 21
-7.0
 31
0.0
  0
ARC
  5
A000
330
9FEF
100
AcDbEntity
  8
AM_11 想像線
 48
0.1
100
AcDbCircle
 10
-24.43858310834958
 20
-4.0
 30
0.0
 40
4.0
100
AcDbArc
 50
90.0
 51
180.0
  0
ARC
  5
A001
330
9FEF
100
AcDbEntity
  8
AM_11 想像線
 48
0.1
100
AcDbCircle
 10
-14.43858310834957
 20
-7.5
 30
0.0
 40
1.0
100
AcDbArc
 50
90.0
 51
180.0
  0
LINE
  5
A002
330
9FEF
100
AcDbEntity
  8
AM_11 想像線
 48
0.1
100
AcDbLine
 10
-14.43858310834957
 20
-6.5
 30
0.0
 11
-11.43858310834957
 21
-6.5
 31
0.0
  0
ARC
  5
A003
330
9FEF
100
AcDbEntity
  8
AM_11 想像線
 48
0.1
100
AcDbCircle
 10
-11.43858310834957
 20
-7.5
 30
0.0
 40
1.0
100
AcDbArc
 50
0.0
 51
90.0
  0
LINE
  5
A004
330
9FEF
100
AcDbEntity
  8
AM_11 想像線
 48
0.1
100
AcDbLine
 10
-10.43858310834957
 20
-8.099028999999973
 30
0.0
 11
-10.43858310834957
 21
-7.5
 31
0.0
  0
ENDBLK
  5
9FF1
330
9FEF
100
AcDbEntity
  8
0
100
AcDbBlockEnd
  0
ENDSEC
  0
SECTION
  2
ENTITIES
  0
LINE
  5
3BF7
102
{ACAD_REACTORS
330
61D7
102
}
330
1F
100
AcDbEntity
  8
AM_7 中心線
100
AcDbLine
 10
347.6697933745932
 20
686.6727520266818
 30
0.0
 11
834.9149283745932
 21
686.6727520266818
 31
0.0
  0
LINE
  5
3CA4
330
1F
100
AcDbEntity
  8
AM_0 外形線1
100
AcDbLine
 10
496.9149283745933
 20
778.6727520266818
 30
0.0
 11
496.9149283745933
 21
778.6727520266821
 31
0.0
  0
LINE
  5
3DB8
330
1F
100
AcDbEntity
  8
AM_0 外形線1
100
AcDbLine
 10
490.914928374593
 20
793.6727520266818
 30
0.0
 11
490.9149283745931
 21
781.6727520266821
 31
0.0
  0
INSERT
  5
516B
102
{ACAD_REACTORS
330
625A
330
638A
330
664D
330
6665
102
}
330
1F
100
AcDbEntity
  8
AM_0 外形線1
100
AcDbBlockReference
  2
ケースＡ-1 SAM224
 10
711.9149283745931
 20
686.6727520266818
 30
0.0
  0
INSERT
  5
52BE
102
{ACAD_REACTORS
330
615B
330
6336
330
661D
330
6605
102
}
330
1F
100
AcDbEntity
  8
AM_0 外形線1
100
AcDbBlockReference
  2
ケースＡ-2 SAM224
 10
475.9149283745929
 20
686.6727520266818
 30
0.0
  0
INSERT
  5
54B5
102
{ACAD_REACTORS
330
61D7
330
622A
330
6665
102
}
330
1F
100
AcDbEntity
  8
AM_0 外形線1
100
AcDbBlockReference
  2
センタ-1 SAM224
 10
717.9149283745931
 20
686.6727520266818
 30
0.0
  0
INSERT
  5
5525
102
{ACAD_REACTORS
330
611D
330
615B
330
6605
330
9B82
330
9E64
330
9EBC
102
}
330
1F
100
AcDbEntity
  8
AM_0 外形線1
100
AcDbBlockReference
  2
センタ-2 SAM224
 10
469.914928374593
 20
686.6727520266818
 30
0.0
  0
INSERT
  5
5A57
330
1F
100
AcDbEntity
  8
AM_0 外形線1
100
AcDbBlockReference
  2
リーマボルト-1 SAM224 M10
 10
696.9149283745931
 20
787.6727520266817
 30
0.0
  0
INSERT
  5
5B5B
330
1F
100
AcDbEntity
  8
AM_0 外形線1
100
AcDbBlockReference
  2
リーマボルト-2 SAM224 M10
 10
490.914928374593
 20
787.672752026682
 30
0.0
  0
DIMENSION
  5
6106
102
{ACAD_XDICTIONARY
360
6113
102
}
102
{ACAD_REACTORS
330
611D
102
}
330
1F
100
AcDbEntity
  8
AM_5 寸法線
100
AcDbDimension
  2
*D15
 10
282.9149283745934
 20
614.1727520266821
 30
0.0
 11
273.1649283745932
 21
686.6727520266821
 31
0.0
 70
    32
  1
%%c<>
 71
     5
 42
144.9999999999997
 73
     0
 74
     0
 75
     0
  3
SEISA$0
100
AcDbAlignedDimension
 13
398.9149283745931
 23
759.1727520266817
 33
0.0
 14
398.9149283745931
 24
614.1727520266821
 34
0.0
 50
90.0
100
AcDbRotatedDimension
1001
ACAD_DSTYLE_DIMINSPECT
1070
   396
1000
100%
1070
   395
1000

1070
   394
1070
    33
1070
   393
1070
     0
  0
DIMENSION
  5
6140
102
{ACAD_XDICTIONARY
360
614F
102
}
102
{ACAD_REACTORS
330
615B
102
}
330
1F
100
AcDbEntity
  8
AM_5 寸法線
100
AcDbDimension
  2
*D16
 10
423.914928374593
 20
738.911800434478
 30
0.0
 11
412.3117452711616
 21
739.8336489558309
 31
0.0
 70
   160
 71
     5
 42
4.0
 73
     0
 74
     0
 75
     0
  3
SEISA$0
100
AcDbAlignedDimension
 13
427.914928374593
 23
759.6727520266817
 33
0.0
 14
423.914928374593
 24
759.1727520266817
 34
0.0
100
AcDbRotatedDimension
1001
ACAD
1000
DSTYLE
1002
{
1070
   279
1070
     1
1002
}
  0
DIMENSION
  5
61A0
330
1F
100
AcDbEntity
  8
AM_5 寸法線
100
AcDbDimension
  2
*D17
 10
357.9149283745933
 20
698.8906270266823
 30
0.0
 11
413.9149283745926
 21
708.6406270266821
 31
0.0
 70
    32
 71
     5
 42
111.9999999999991
 73
     0
 74
     0
 75
     0
  3
SEISA$0
100
AcDbAlignedDimension
 13
469.9149283745923
 23
686.6727520266818
 33
0.0
 14
357.9149283745933
 24
686.6727520266818
 34
0.0
100
AcDbRotatedDimension
  0
DIMENSION
  5
61C0
102
{ACAD_XDICTIONARY
360
61CD
102
}
102
{ACAD_REACTORS
330
61D7
102
}
330
1F
100
AcDbEntity
  8
AM_5 寸法線
100
AcDbDimension
  2
*D18
 10
717.9149283745931
 20
698.8906270266823
 30
0.0
 11
773.9149283745931
 21
708.6406270266821
 31
0.0
 70
    32
 71
     5
 42
112.0
 73
     0
 74
     0
 75
     0
  3
SEISA$0
100
AcDbAlignedDimension
 13
829.9149283745931
 23
686.6727520266818
 33
0.0
 14
717.9149283745931
 24
686.6727520266818
 34
0.0
100
AcDbRotatedDimension
  0
DIMENSION
  5
6213
102
{ACAD_XDICTIONARY
360
6220
102
}
102
{ACAD_REACTORS
330
622A
102
}
330
1F
100
AcDbEntity
  8
AM_5 寸法線
100
AcDbDimension
  2
*D19
 10
904.9149283745931
 20
614.1727520266821
 30
0.0
 11
895.1649283745931
 21
686.6727520266822
 31
0.0
 70
    32
  1
%%c<>
 71
     5
 42
144.9999999999997
 73
     0
 74
     0
 75
     0
  3
SEISA$0
100
AcDbAlignedDimension
 13
788.9149283745931
 23
759.1727520266817
 33
0.0
 14
788.9149283745931
 24
614.1727520266821
 34
0.0
 50
90.0
100
AcDbRotatedDimension
1001
ACAD_DSTYLE_DIMINSPECT
1070
   396
1000
100%
1070
   395
1000

1070
   394
1070
    33
1070
   393
1070
     0
1001
ACAD
1000
DSTYLE
1002
{
1070
   279
1070
     0
1002
}
  0
DIMENSION
  5
622B
330
1F
100
AcDbEntity
  8
AM_5 寸法線
100
AcDbDimension
  2
*D20
 10
934.9149283745932
 20
599.6727520266821
 30
0.0
 11
934.914928374593
 21
686.6727520266821
 31
0.0
 70
   160
  1
%%c<>
 71
     5
 42
173.9999999999997
 73
     0
 74
     0
 75
     0
  3
SEISA$0
100
AcDbAlignedDimension
 13
772.2298683745933
 23
773.6727520266818
 33
0.0
 14
773.0941016706586
 24
599.6727520266821
 34
0.0
 50
90.0
100
AcDbRotatedDimension
1001
ACAD_DSTYLE_DIMINSPECT
1070
   396
1000
100%
1070
   395
1000

1070
   394
1070
    33
1070
   393
1070
     0
1001
ACAD
1000
DSTYLE
1002
{
1070
   279
1070
     0
1002
}
  0
DIMENSION
  5
6243
102
{ACAD_XDICTIONARY
360
6250
102
}
102
{ACAD_REACTORS
330
625A
102
}
330
1F
100
AcDbEntity
  8
AM_5 寸法線
100
AcDbDimension
  2
*D21
 10
964.9149283745931
 20
574.672752026682
 30
0.0
 11
964.9149283745931
 21
686.6727520266821
 31
0.0
 70
   160
  1
%%c<>
 71
     5
 42
223.9999999999998
 73
     0
 74
     0
 75
     0
  3
SEISA$0
100
AcDbAlignedDimension
 13
725.9149283745931
 23
798.6727520266818
 33
0.0
 14
725.9149283745931
 24
574.6727520266821
 34
0.0
 50
90.0
100
AcDbRotatedDimension
1001
ACAD_DSTYLE_DIMINSPECT
1070
   396
1000
100%
1070
   395
1000

1070
   394
1070
    33
1070
   393
1070
     0
1001
ACAD
1000
DSTYLE
1002
{
1070
   279
1070
     0
1002
}
  0
DIMENSION
  5
631B
102
{ACAD_XDICTIONARY
360
632A
102
}
102
{ACAD_REACTORS
330
6336
102
}
330
1F
100
AcDbEntity
  8
AM_5 寸法線
100
AcDbDimension
  2
*D22
 10
460.914928374593
 20
529.6727520266821
 30
0.0
 11
434.4399283745929
 21
539.4227520266821
 31
0.0
 70
    32
 71
     5
 42
15.0
 73
     0
 74
     0
 75
     0
  3
SEISA$0
100
AcDbAlignedDimension
 13
475.9149283745929
 23
575.1727520266821
 33
0.0
 14
460.914928374593
 24
575.6727520266821
 34
0.0
100
AcDbRotatedDimension
1001
ACAD_DSTYLE_DIMINSPECT
1070
   396
1000
100%
1070
   395
1000

1070
   394
1070
    33
1070
   393
1070
     0
1001
ACAD
1000
DSTYLE
1002
{
1070
   173
1070
     1
1070
   342
1005
0
1070
   343
1005
43A1
1070
   344
1005
69
1002
}
  0
DIMENSION
  5
636F
102
{ACAD_XDICTIONARY
360
637E
102
}
102
{ACAD_REACTORS
330
638A
102
}
330
1F
100
AcDbEntity
  8
AM_5 寸法線
100
AcDbDimension
  2
*D23
 10
726.9149283745932
 20
529.6727520266821
 30
0.0
 11
753.3899283745931
 21
539.4227520266821
 31
0.0
 70
    32
 71
     5
 42
15.0
 73
     0
 74
     0
 75
     0
  3
SEISA$0
100
AcDbAlignedDimension
 13
711.9149283745931
 23
575.1727520266821
 33
0.0
 14
726.9149283745932
 24
575.6727520266821
 34
0.0
100
AcDbRotatedDimension
1001
ACAD_DSTYLE_DIMINSPECT
1070
   396
1000
100%
1070
   395
1000

1070
   394
1070
    33
1070
   393
1070
     0
1001
ACAD
1000
DSTYLE
1002
{
1070
   173
1070
     1
1070
   342
1005
0
1070
   343
1005
43A1
1070
   344
1005
69
1002
}
  0
DIMENSION
  5
65EE
102
{ACAD_XDICTIONARY
360
65FB
102
}
102
{ACAD_REACTORS
330
6605
102
}
330
1F
100
AcDbEntity
  8
AM_5 寸法線
100
AcDbDimension
  2
*D24
 10
410.914928374593
 20
499.6727520266821
 30
0.0
 11
384.4149283745932
 21
509.4227520266821
 31
0.0
 70
    32
 71
     5
 42
52.99999999999977
 73
     0
 74
     0
 75
     0
  3
SEISA$0
100
AcDbAlignedDimension
 13
357.9149283745933
 23
618.7727520266819
 33
0.0
 14
410.914928374593
 24
603.6727520266821
 34
0.0
100
AcDbRotatedDimension
  0
DIMENSION
  5
6606
102
{ACAD_XDICTIONARY
360
6613
102
}
102
{ACAD_REACTORS
330
661D
102
}
330
1F
100
AcDbEntity
  8
AM_5 寸法線
100
AcDbDimension
  2
*D25
 10
475.9149283745929
 20
499.6727520266821
 30
0.0
 11
443.414928374593
 21
509.4227520266821
 31
0.0
 70
    32
 71
     5
 42
65.0
 73
     0
 74
     0
 75
     0
  3
SEISA$0
100
AcDbAlignedDimension
 13
410.914928374593
 23
603.6727520266821
 33
0.0
 14
475.9149283745929
 24
575.1727520266821
 34
0.0
100
AcDbRotatedDimension
  0
DIMENSION
  5
6636
102
{ACAD_XDICTIONARY
360
6643
102
}
102
{ACAD_REACTORS
330
664D
102
}
330
1F
100
AcDbEntity
  8
AM_5 寸法線
100
AcDbDimension
  2
*D26
 10
776.9149283745932
 20
499.6727520266821
 30
0.0
 11
744.4149283745931
 21
509.4227520266821
 31
0.0
 70
    32
 71
     5
 42
65.0
 73
     0
 74
     0
 75
     0
  3
SEISA$0
100
AcDbAlignedDimension
 13
711.9149283745931
 23
575.1727520266821
 33
0.0
 14
776.9149283745932
 24
603.6727520266821
 34
0.0
100
AcDbRotatedDimension
  0
DIMENSION
  5
664E
102
{ACAD_XDICTIONARY
360
665B
102
}
102
{ACAD_REACTORS
330
6665
102
}
330
1F
100
AcDbEntity
  8
AM_5 寸法線
100
AcDbDimension
  2
*D27
 10
829.9149283745931
 20
499.6727520266821
 30
0.0
 11
803.414928374593
 21
509.4227520266821
 31
0.0
 70
    32
 71
     5
 42
53.0
 73
     0
 74
     0
 75
     0
  3
SEISA$0
100
AcDbAlignedDimension
 13
776.9149283745932
 23
603.6727520266821
 33
0.0
 14
829.9149283745931
 24
618.7727520266819
 34
0.0
100
AcDbRotatedDimension
  0
INSERT
  5
80FA
102
{ACAD_REACTORS
330
83BB
330
836B
330
9A19
330
9F2E
102
}
330
1F
100
AcDbEntity
  8
AM_0 外形線1
100
AcDbBlockReference
  2
ＧＣスペーサ SAMY224
 10
475.9149283745929
 20
686.6727520266818
 30
0.0
  0
DIMENSION
  5
835B
102
{ACAD_XDICTIONARY
360
836A
102
}
102
{ACAD_REACTORS
330
836B
102
}
330
1F
100
AcDbEntity
  8
AM_5 寸法線
100
AcDbDimension
  2
*D29
 10
490.914928374593
 20
529.6727520266819
 30
0.0
 11
517.3899283745931
 21
539.4227520266817
 31
0.0
 70
    32
 71
     5
 42
15.0
 73
     0
 74
     0
 75
     0
  3
SEISA$0
100
AcDbAlignedDimension
 13
475.9149283745931
 23
575.1727520266821
 33
0.0
 14
490.914928374593
 24
575.6727520266821
 34
0.0
100
AcDbRotatedDimension
1001
ACAD_DSTYLE_DIMINSPECT
1070
   396
1000
100%
1070
   395
1000

1070
   394
1070
    33
1070
   393
1070
     0
1001
ACAD
1000
DSTYLE
1002
{
1070
   173
1070
     1
1070
   342
1005
0
1070
   343
1005
43A1
1070
   344
1005
69
1002
}
  0
DIMENSION
  5
83AB
102
{ACAD_XDICTIONARY
360
83BA
102
}
102
{ACAD_REACTORS
330
83BB
102
}
330
1F
100
AcDbEntity
  8
AM_5 寸法線
100
AcDbDimension
  2
*D30
 10
696.9149283745931
 20
529.6727520266816
 30
0.0
 11
670.4399283745932
 21
539.4227520266817
 31
0.0
 70
    32
 71
     5
 42
15.0
 73
     0
 74
     0
 75
     0
  3
SEISA$0
100
AcDbAlignedDimension
 13
711.9149283745931
 23
575.1727520266821
 33
0.0
 14
696.9149283745931
 24
575.6727520266821
 34
0.0
100
AcDbRotatedDimension
1001
ACAD_DSTYLE_DIMINSPECT
1070
   396
1000
100%
1070
   395
1000

1070
   394
1070
    33
1070
   393
1070
     0
1001
ACAD
1000
DSTYLE
1002
{
1070
   173
1070
     1
1070
   342
1005
0
1070
   343
1005
43A1
1070
   344
1005
69
1002
}
  0
DIMENSION
  5
9A09
102
{ACAD_XDICTIONARY
360
9A18
102
}
102
{ACAD_REACTORS
330
9A19
102
}
330
1F
100
AcDbEntity
  8
AM_5 寸法線
100
AcDbDimension
  2
*D31
 10
711.9149283745927
 20
708.9118004344783
 30
0.0
 11
689.4899283745927
 21
718.6618004344783
 31
0.0
 70
    32
 71
     5
 42
6.000000000000453
 73
     0
 74
     0
 75
     0
  3
SEISA$0
100
AcDbAlignedDimension
 13
717.9149283745931
 23
751.1362186040981
 33
0.0
 14
711.9149283745927
 24
772.1727520266821
 34
0.0
 50
0.0000000000001132
100
AcDbRotatedDimension
1001
ACAD_DSTYLE_DIMINSPECT
1070
   396
1000
100%
1070
   395
1000

1070
   394
1070
    33
1070
   393
1070
     0
  0
MTEXT
  5
9ADA
330
1F
100
AcDbEntity
  8
AM_6 文字
100
AcDbMText
 10
870.3131228817456
 20
550.6878884818696
 30
0.0
 40
10.5
 41
164.0949394765895
 46
27.66929097590912
 71
     1
 72
     5
  1
{\W0.6;TYPE:SAM224/SAMH224\PSHAFT DIA:MAX/MIN φ100/φ42}
  7
SEISA
 73
     1
 44
1.0
  0
DIMENSION
  5
9B72
102
{ACAD_XDICTIONARY
360
9B81
102
}
102
{ACAD_REACTORS
330
9B82
102
}
330
1F
100
AcDbEntity
  8
AM_5 寸法線
100
AcDbDimension
  2
*D32
 10
357.9149283745933
 20
793.8998427023297
 30
0.0
 11
378.5399283745933
 21
803.6498427023296
 31
0.0
 70
    32
 71
     5
 42
1.000000000000055
 73
     0
 74
     0
 75
     0
  3
SEISA$0
100
AcDbAlignedDimension
 13
356.9149283745932
 23
759.1727520266817
 33
0.0
 14
357.9149283745933
 24
754.572752026682
 34
0.0
100
AcDbRotatedDimension
1001
ACAD_DSTYLE_DIMINSPECT
1070
   396
1000
100%
1070
   395
1000

1070
   394
1070
    33
1070
   393
1070
     0
  0
DIMENSION
  5
9E55
102
{ACAD_XDICTIONARY
360
9E63
102
}
102
{ACAD_REACTORS
330
9E64
102
}
330
1F
100
AcDbEntity
  8
AM_5 寸法線
100
AcDbDimension
  2
*D33
 10
451.914928374593
 20
738.9118004344784
 30
0.0
 11
440.4389394462108
 21
736.7759223912872
 31
0.0
 70
   160
 71
     5
 42
24.0
 73
     0
 74
     0
 75
     0
  3
SEISA$0
100
AcDbAlignedDimension
 13
427.914928374593
 23
759.6727520266817
 33
0.0
 14
451.914928374593
 24
758.1727520266817
 34
0.0
 50
0.0000000000001132
100
AcDbRotatedDimension
1001
ACAD_DSTYLE_DIMINSPECT
1070
   396
1000
100%
1070
   395
1000

1070
   394
1070
    33
1070
   393
1070
     0
1001
ACAD
1000
DSTYLE
1002
{
1070
   279
1070
     1
1002
}
  0
DIMENSION
  5
9EAC
102
{ACAD_XDICTIONARY
360
9EBB
102
}
102
{ACAD_REACTORS
330
9EBC
330
9F2E
102
}
330
1F
100
AcDbEntity
  8
AM_5 寸法線
100
AcDbDimension
  2
*D34
 10
469.914928374593
 20
738.9118004344784
 30
0.0
 11
460.0671822944767
 21
746.7801698610237
 31
0.0
 70
   160
 71
     5
 42
18.0
 73
     0
 74
     0
 75
     0
  3
SEISA$0
100
AcDbAlignedDimension
 13
451.914928374593
 23
758.1727520266817
 33
0.0
 14
469.914928374593
 24
757.1727520266818
 34
0.0
 50
0.0000000000001132
100
AcDbRotatedDimension
1001
ACAD_DSTYLE_DIMINSPECT
1070
   396
1000
100%
1070
   395
1000

1070
   394
1070
    33
1070
   393
1070
     0
1001
ACAD
1000
DSTYLE
1002
{
1070
   279
1070
     2
1002
}
  0
DIMENSION
  5
9F1E
102
{ACAD_XDICTIONARY
360
9F2D
102
}
102
{ACAD_REACTORS
330
9F2E
102
}
330
1F
100
AcDbEntity
  8
AM_5 寸法線
100
AcDbDimension
  2
*D35
 10
469.914928374593
 20
708.9118004344783
 30
0.0
 11
447.4899283745929
 21
718.6618004344783
 31
0.0
 70
    32
 71
     5
 42
6.000000000000111
 73
     0
 74
     0
 75
     0
  3
SEISA$0
100
AcDbAlignedDimension
 13
475.9149283745931
 23
772.1727520266822
 33
0.0
 14
469.914928374593
 24
757.1727520266818
 34
0.0
 50
0.0000000000001132
100
AcDbRotatedDimension
1001
ACAD_DSTYLE_DIMINSPECT
1070
   396
1000
100%
1070
   395
1000

1070
   394
1070
    33
1070
   393
1070
     0
  0
INSERT
  5
A005
330
1F
100
AcDbEntity
  8
AM_0 外形線1
100
AcDbBlockReference
  2
ケース
 10
385.3535114829428
 20
773.6727520266818
 30
0.0
  0
ENDSEC
  0
SECTION
  2
OBJECTS
  0
DICTIONARY
  5
C
330
0
100
AcDbDictionary
281
     1
  3
ACAD_BGPLOT_KEY
350
9A5B
  3
ACAD_COLOR
350
C5
  3
ACAD_GROUP
350
D
  3
ACAD_LAYOUT
350
1A
  3
ACAD_MATERIAL
350
C4
  3
ACAD_MLEADERSTYLE
350
2D5
  3
ACAD_MLINESTYLE
350
17
  3
ACAD_PLOTSETTINGS
350
19
  3
ACAD_PLOTSTYLENAME
350
E
  3
ACAD_SCALELIST
350
2B3
  3
ACAD_TABLESTYLE
350
121
  3
ACAD_VISUALSTYLE
350
27F
  3
ACDB_RECOMPOSE_DATA
350
2F7
  3
AcDbVariableDictionary
350
34
  3
AcmDictionary
350
49
  3
AMG
350
2B
  3
AMGSNAPSETTINGS
350
1DE
  0
DICTIONARY
  5
BF
330
2
100
AcDbDictionary
280
     1
281
     1
  3
ACAD_LAYERSTATES
360
2E36
  3
AMLAYER_GROUPCOLORS
360
C0
  0
DICTIONARY
  5
29F7
330
10
100
AcDbDictionary
280
     1
281
     1
  3
ADSK_XREC_LAYER_RECONCILED
360
29F8
  0
DICTIONARY
  5
29F9
330
81
100
AcDbDictionary
280
     1
281
     1
  3
ADSK_XREC_LAYER_RECONCILED
360
29FA
  0
DICTIONARY
  5
2E28
330
2E27
100
AcDbDictionary
280
     1
281
     1
  0
DICTIONARY
  5
7B0F
330
7B0E
100
AcDbDictionary
280
     1
281
     1
  0
DICTIONARY
  5
82
330
1F
100
AcDbDictionary
280
     1
281
     1
  3
ACAD_SORTENTS
360
A41
  0
DICTIONARY
  5
4210
330
420F
100
AcDbDictionary
280
     1
281
     1
  3
ACAD_SORTENTS
360
7068
  0
DICTIONARY
  5
501D
330
4441
100
AcDbDictionary
280
     1
281
     1
  3
ACAD_SORTENTS
360
7161
  0
DICTIONARY
  5
51E5
330
5133
100
AcDbDictionary
280
     1
281
     1
  3
ACAD_SORTENTS
360
70D5
  0
DICTIONARY
  5
5349
330
5286
100
AcDbDictionary
280
     1
281
     1
  3
ACAD_SORTENTS
360
71CE
  0
DICTIONARY
  5
6F4E
330
548F
100
AcDbDictionary
280
     1
281
     1
  3
ACAD_SORTENTS
360
9D11
  0
DICTIONARY
  5
5573
330
54FF
100
AcDbDictionary
280
     1
281
     1
  3
ACAD_SORTENTS
360
9E51
  0
DICTIONARY
  5
5AB8
330
5A2B
100
AcDbDictionary
280
     1
281
     1
  3
ACAD_SORTENTS
360
73C6
  0
DICTIONARY
  5
5BBC
330
5B2F
100
AcDbDictionary
280
     1
281
     1
  3
ACAD_SORTENTS
360
7427
  0
DICTIONARY
  5
82CE
330
807F
100
AcDbDictionary
280
     1
281
     1
  3
ACAD_SORTENTS
360
A188
  0
DICTIONARY
  5
6113
330
6106
100
AcDbDictionary
280
     1
281
     1
  3
ACAD_DIMASSOC
360
611D
  0
DICTIONARY
  5
614F
330
6140
100
AcDbDictionary
280
     1
281
     1
  3
ACAD_DIMASSOC
360
615B
  0
DICTIONARY
  5
61CD
330
61C0
100
AcDbDictionary
280
     1
281
     1
  3
ACAD_DIMASSOC
360
61D7
  0
DICTIONARY
  5
6220
330
6213
100
AcDbDictionary
280
     1
281
     1
  3
ACAD_DIMASSOC
360
622A
  0
DICTIONARY
  5
6250
330
6243
100
AcDbDictionary
280
     1
281
     1
  3
ACAD_DIMASSOC
360
625A
  0
DICTIONARY
  5
632A
330
631B
100
AcDbDictionary
280
     1
281
     1
  3
ACAD_DIMASSOC
360
6336
  0
DICTIONARY
  5
637E
330
636F
100
AcDbDictionary
280
     1
281
     1
  3
ACAD_DIMASSOC
360
638A
  0
DICTIONARY
  5
65FB
330
65EE
100
AcDbDictionary
280
     1
281
     1
  3
ACAD_DIMASSOC
360
6605
  0
DICTIONARY
  5
6613
330
6606
100
AcDbDictionary
280
     1
281
     1
  3
ACAD_DIMASSOC
360
661D
  0
DICTIONARY
  5
6643
330
6636
100
AcDbDictionary
280
     1
281
     1
  3
ACAD_DIMASSOC
360
664D
  0
DICTIONARY
  5
665B
330
664E
100
AcDbDictionary
280
     1
281
     1
  3
ACAD_DIMASSOC
360
6665
  0
DICTIONARY
  5
836A
330
835B
100
AcDbDictionary
280
     1
281
     1
  3
ACAD_DIMASSOC
360
836B
  0
DICTIONARY
  5
83BA
330
83AB
100
AcDbDictionary
280
     1
281
     1
  3
ACAD_DIMASSOC
360
83BB
  0
DICTIONARY
  5
9A18
330
9A09
100
AcDbDictionary
280
     1
281
     1
  3
ACAD_DIMASSOC
360
9A19
  0
DICTIONARY
  5
9B81
330
9B72
100
AcDbDictionary
280
     1
281
     1
  3
ACAD_DIMASSOC
360
9B82
  0
DICTIONARY
  5
9E63
330
9E55
100
AcDbDictionary
280
     1
281
     1
  3
ACAD_DIMASSOC
360
9E64
  0
DICTIONARY
  5
9EBB
330
9EAC
100
AcDbDictionary
280
     1
281
     1
  3
ACAD_DIMASSOC
360
9EBC
  0
DICTIONARY
  5
9F2D
330
9F1E
100
AcDbDictionary
280
     1
281
     1
  3
ACAD_DIMASSOC
360
9F2E
  0
DICTIONARY
  5
9A5B
102
{ACAD_REACTORS
330
C
102
}
330
C
100
AcDbDictionary
280
     1
281
     1
  0
DICTIONARY
  5
C5
102
{ACAD_REACTORS
330
C
102
}
330
C
100
AcDbDictionary
281
     1
  0
DICTIONARY
  5
D
102
{ACAD_REACTORS
330
C
102
}
330
C
100
AcDbDictionary
281
     1
  0
DICTIONARY
  5
1A
102
{ACAD_REACTORS
330
C
102
}
330
C
100
AcDbDictionary
281
     1
  3
Model
350
22
  3
レイアウト1
350
1E
  3
レイアウト2
350
26
  0
DICTIONARY
  5
C4
102
{ACAD_REACTORS
330
C
102
}
330
C
100
AcDbDictionary
281
     1
  3
ByBlock
350
27D
  3
ByLayer
350
27C
  3
Global
350
27E
  0
DICTIONARY
  5
2D5
102
{ACAD_REACTORS
330
C
102
}
330
C
100
AcDbDictionary
281
     1
  3
Standard
350
2D6
  0
DICTIONARY
  5
17
102
{ACAD_REACTORS
330
C
102
}
330
C
100
AcDbDictionary
281
     1
  3
Standard
350
18
  0
DICTIONARY
  5
19
102
{ACAD_REACTORS
330
C
102
}
330
C
100
AcDbDictionary
281
     1
  3
SEISA基本
350
1C7E
  0
ACDBDICTIONARYWDFLT
  5
E
102
{ACAD_REACTORS
330
C
102
}
330
C
100
AcDbDictionary
281
     1
  3
Normal
350
F
100
AcDbDictionaryWithDefault
340
F
  0
DICTIONARY
  5
2B3
102
{ACAD_REACTORS
330
C
102
}
330
C
100
AcDbDictionary
281
     1
  3
*A1
350
2A04
  3
*A2
350
4479
  3
*A3
350
7B11
  3
A0
350
2B4
  3
A1
350
2B5
  3
A2
350
2B6
  3
A3
350
2B7
  3
A4
350
2B8
  3
A5
350
2B9
  3
A6
350
2BA
  3
A7
350
2BB
  3
A8
350
2BC
  3
A9
350
2BD
  3
B0
350
2BE
  3
B1
350
2BF
  3
B2
350
2C0
  3
B3
350
2C1
  3
B4
350
2C2
  3
B5
350
2C3
  3
B6
350
2C4
  3
B7
350
2C5
  3
B8
350
2C6
  3
B9
350
2C7
  3
C0
350
2C8
  3
C1
350
2C9
  3
C2
350
2CA
  3
C3
350
2CB
  3
C4
350
2CC
  3
C5
350
2CD
  3
C6
350
2CE
  3
C7
350
2CF
  3
C8
350
2D0
  3
C9
350
2D1
  3
D0
350
2D2
  3
D1
350
2D3
  3
D2
350
2D4
  0
DICTIONARY
  5
121
102
{ACAD_REACTORS
330
C
102
}
330
C
100
AcDbDictionary
281
     1
  3
Standard
350
122
  0
DICTIONARY
  5
27F
102
{ACAD_REACTORS
330
C
102
}
330
C
100
AcDbDictionary
281
     1
  3
2dWireframe
350
285
  3
3D Hidden
350
287
  3
3dWireframe
350
286
  3
Basic
350
284
  3
Brighten
350
28B
  3
ColorChange
350
28F
  3
Conceptual
350
288
  3
Dim
350
28A
  3
Facepattern
350
28E
  3
Flat
350
280
  3
FlatWithEdges
350
281
  3
Gouraud
350
282
  3
GouraudWithEdges
350
283
  3
Linepattern
350
28D
  3
Realistic
350
289
  3
Thicken
350
28C
  0
XRECORD
  5
2F7
102
{ACAD_REACTORS
330
C
102
}
330
C
100
AcDbXrecord
280
     1
 90
        1
330
122
  0
DICTIONARY
  5
34
102
{ACAD_REACTORS
330
C
102
}
330
C
100
AcDbDictionary
281
     1
  3
CANNOSCALE
350
2FA
  3
CMLEADERSTYLE
350
2F8
  3
CTABLESTYLE
350
140
  3
DIMASSOC
350
AC
  3
FIELDEVAL
350
9A89
  3
INDEXCTL
350
35
  3
LAYEREVAL
350
6E1F
  3
LAYERNOTIFY
350
6E20
  3
LIGHTINGUNITS
350
2FB
  3
MSLTSCALE
350
2F9
  0
DICTIONARY
  5
49
102
{ACAD_REACTORS
330
C
102
}
330
C
100
AcDbDictionary
281
     1
  3
AcmBOM
350
161B
  3
AcmStdDictionary
350
4A
  3
AMDTSECTSYM_ARROWCOLOR
350
12B
  0
DICTIONARY
  5
2B
102
{ACAD_REACTORS
330
C
102
}
330
C
100
AcDbDictionary
281
     1
  0
DICTIONARY
  5
1DE
102
{ACAD_REACTORS
330
C
102
}
330
C
100
AcDbDictionary
281
     1
  0
DICTIONARY
  5
2E36
102
{ACAD_REACTORS
330
BF
102
}
330
BF
100
AcDbDictionary
281
     1
  0
DICTIONARY
  5
C0
102
{ACAD_REACTORS
330
BF
102
}
330
BF
100
AcDbDictionary
280
     1
281
     1
  0
XRECORD
  5
29F8
102
{ACAD_REACTORS
330
29F7
102
}
330
29F7
100
AcDbXrecord
280
     1
290
     1
  0
XRECORD
  5
29FA
102
{ACAD_REACTORS
330
29F9
102
}
330
29F9
100
AcDbXrecord
280
     1
290
     1
  0
SORTENTSTABLE
  5
A41
102
{ACAD_REACTORS
330
82
102
}
330
82
100
AcDbSortentsTable
330
1F
331
65EE
  5
65EE
331
5B5B
  5
5C7F
331
631B
  5
6353
331
3DB8
  5
3DB8
331
6140
  5
6140
331
6213
  5
6213
331
83AB
  5
83AB
331
6636
  5
6636
331
5525
  5
5966
331
61A0
  5
61A0
331
664E
  5
664E
331
80FA
  5
80FA
331
516B
  5
5525
331
5A57
  5
5C6D
331
3BF7
  5
3BF7
331
622B
  5
622B
331
9B72
  5
9B72
331
6106
  5
6106
331
61C0
  5
61C0
331
9ADA
  5
9ADA
331
6243
  5
6243
331
636F
  5
6436
331
6606
  5
6606
331
9A09
  5
9A09
331
52BE
  5
5711
331
54B5
  5
5925
331
3CA4
  5
3CA4
331
835B
  5
835B
  0
SORTENTSTABLE
  5
7068
102
{ACAD_REACTORS
330
4210
102
}
330
4210
100
AcDbSortentsTable
330
420F
  0
SORTENTSTABLE
  5
7161
102
{ACAD_REACTORS
330
501D
102
}
330
501D
100
AcDbSortentsTable
330
4441
  0
SORTENTSTABLE
  5
70D5
102
{ACAD_REACTORS
330
51E5
102
}
330
51E5
100
AcDbSortentsTable
330
5133
331
5155
  5
515A
331
5145
  5
5146
331
515E
  5
5163
331
5139
  5
513A
331
514E
  5
5153
331
5169
  5
51E3
331
5162
  5
5167
331
5157
  5
515C
331
51E0
  5
5151
331
513B
  5
513C
331
5150
  5
5155
331
5164
  5
5169
331
5159
  5
515E
331
51E2
  5
514B
331
5140
  5
5141
331
513D
  5
513E
331
5149
  5
514D
331
5152
  5
5157
331
5166
  5
51E0
331
515B
  5
5160
331
51E4
  5
5139
331
5142
  5
5144
331
513F
  5
5140
331
514B
  5
5150
331
5154
  5
5159
331
515D
  5
5162
331
5144
  5
5145
331
5168
  5
51E2
331
5161
  5
5166
331
514D
  5
5152
331
5156
  5
515B
331
5146
  5
5149
331
515F
  5
5164
331
513A
  5
513B
331
516A
  5
51E4
331
5163
  5
5168
331
51E1
  5
5154
331
5158
  5
515D
331
513C
  5
513D
331
5165
  5
516A
331
5151
  5
5156
331
51E3
  5
514A
331
5141
  5
5142
331
515A
  5
515F
331
514A
  5
514E
331
513E
  5
513F
331
5167
  5
51E1
331
5153
  5
5158
331
515C
  5
5161
331
5160
  5
5165
  0
SORTENTSTABLE
  5
71CE
102
{ACAD_REACTORS
330
5349
102
}
330
5349
100
AcDbSortentsTable
330
5286
331
52AA
  5
52AD
331
528C
  5
528D
331
52B7
  5
52B9
331
5299
  5
529A
331
52B9
  5
52BB
331
52B1
  5
52B3
331
5293
  5
5295
331
52A4
  5
52A5
331
52BA
  5
52BC
331
529A
  5
529B
331
528D
  5
528E
331
52B2
  5
52B4
331
52A5
  5
52A7
331
52AC
  5
52AE
331
528E
  5
528F
331
529B
  5
529C
331
52BB
  5
52BD
331
52B3
  5
52B5
331
5295
  5
5296
331
52AD
  5
52AF
331
52A0
  5
52A1
331
52BC
  5
5348
331
529C
  5
529D
331
528F
  5
5290
331
52A7
  5
52A9
331
52B4
  5
52B6
331
5296
  5
5297
331
5289
  5
528A
331
52AE
  5
52B0
331
5348
  5
52A8
331
52A1
  5
52A2
331
52BD
  5
542C
331
529D
  5
529E
331
5290
  5
5291
331
528A
  5
528B
331
52B5
  5
52B7
331
52A8
  5
52AA
331
5297
  5
5298
331
52AF
  5
52B1
331
529E
  5
529F
331
5291
  5
5292
331
52A2
  5
52A3
331
52A9
  5
52AC
331
52B6
  5
52B8
331
52B8
  5
52BA
331
5298
  5
5299
331
528B
  5
528C
331
52B0
  5
52B2
331
5292
  5
5293
331
529F
  5
52A0
331
542C
  5
5289
331
52A3
  5
52A4
  0
SORTENTSTABLE
  5
9D11
102
{ACAD_REACTORS
330
6F4E
102
}
330
6F4E
100
AcDbSortentsTable
330
548F
331
5499
  5
549B
331
5498
  5
549A
331
549B
  5
549D
331
549A
  5
549C
331
549D
  5
549F
331
549C
  5
549E
331
549F
  5
54A1
331
549E
  5
54A0
331
54A1
  5
54A3
331
54A0
  5
54A2
331
54A6
  5
54A8
331
54A3
  5
54A7
331
54B0
  5
54B3
331
54A8
  5
54AA
331
54A7
  5
54A9
331
54B1
  5
9CF1
331
54AA
  5
54AC
331
9CF2
  5
5494
331
54A9
  5
54AB
331
54B3
  5
9CF2
331
54AC
  5
54AE
331
54AB
  5
54AD
331
54AE
  5
54B0
331
54AD
  5
54AF
331
5493
  5
5495
331
5495
  5
5497
331
5494
  5
5496
331
5497
  5
5499
331
5496
  5
5498
331
54AF
  5
54B1
331
9CF1
  5
5493
331
54A2
  5
54A6
  0
SORTENTSTABLE
  5
9E51
102
{ACAD_REACTORS
330
5573
102
}
330
5573
100
AcDbSortentsTable
330
54FF
331
5572
  5
9BD2
331
9BD3
  5
5503
331
5503
  5
5505
331
9BD2
  5
5502
331
5502
  5
5504
331
5505
  5
5508
331
5504
  5
5506
331
5506
  5
5509
331
5520
  5
5523
331
5521
  5
5572
331
5509
  5
550B
331
5508
  5
550A
331
5523
  5
9BD3
331
550B
  5
550D
331
550A
  5
550C
331
550E
  5
5510
331
550D
  5
550F
331
5510
  5
5512
331
550F
  5
5511
331
5512
  5
5514
331
5511
  5
5513
331
5514
  5
5516
331
5513
  5
5515
331
5516
  5
5519
331
5515
  5
5517
331
5517
  5
551A
331
551A
  5
551E
331
5519
  5
551D
331
550C
  5
550E
331
551F
  5
5521
331
551E
  5
5520
331
551D
  5
551F
  0
SORTENTSTABLE
  5
73C6
102
{ACAD_REACTORS
330
5AB8
102
}
330
5AB8
100
AcDbSortentsTable
330
5A2B
  0
SORTENTSTABLE
  5
7427
102
{ACAD_REACTORS
330
5BBC
102
}
330
5BBC
100
AcDbSortentsTable
330
5B2F
  0
SORTENTSTABLE
  5
A188
102
{ACAD_REACTORS
330
82CE
102
}
330
82CE
100
AcDbSortentsTable
330
807F
331
8092
  5
8093
331
80DC
  5
80E1
331
82CD
  5
80CE
331
80BE
  5
80C1
331
80EB
  5
80EF
331
80CD
  5
80D0
331
80A8
  5
80BB
331
80D5
  5
80D8
331
80C6
  5
80C8
331
80E4
  5
80E8
331
80EC
  5
82CA
331
80CE
  5
80D1
331
8093
  5
8094
331
80E5
  5
80E9
331
80D6
  5
80D9
331
80C7
  5
80C9
331
8094
  5
8095
331
80DE
  5
80E2
331
80ED
  5
82CB
331
80CF
  5
80D2
331
80C0
  5
80C2
331
80E6
  5
80EA
331
80D7
  5
80DA
331
80C8
  5
80CA
331
80D0
  5
80D3
331
80DF
  5
80E3
331
80EE
  5
82CC
331
80C1
  5
80C3
331
8095
  5
80A8
331
80E7
  5
80EB
331
80D8
  5
80DB
331
80C9
  5
80CB
331
80E0
  5
80E4
331
80D1
  5
80D4
331
80EF
  5
82CD
331
80C2
  5
80C4
331
80D9
  5
80DE
331
80E8
  5
80EC
331
80CA
  5
80CC
331
80BB
  5
80BC
331
82CA
  5
80DC
331
80E1
  5
80E5
331
80D2
  5
80D5
331
80C3
  5
80C5
331
80DA
  5
80DF
331
82CB
  5
8092
331
80E9
  5
80ED
331
80CB
  5
80CD
331
80BC
  5
80BE
331
80C4
  5
80C6
331
80E2
  5
80E6
331
80D3
  5
80D6
331
80DB
  5
80E0
331
82CC
  5
80BD
331
80EA
  5
80EE
331
80CC
  5
80CF
331
80BD
  5
80C0
331
80E3
  5
80E7
331
80D4
  5
80D7
331
80C5
  5
80C7
  0
DIMASSOC
  5
611D
102
{ACAD_REACTORS
330
6113
102
}
330
6113
100
AcDbDimAssoc
330
6106
 90
        3
 70
     0
 71
     0
  1
AcDbOsnapPointRef
 72
    13
331
5525
331
5516
 73
     2
 91
        0
 40
0.0
 10
0.0
 20
0.0
 30
2.000000000000000E+50
 75
     0
  1
AcDbOsnapPointRef
 72
    13
331
5525
331
5508
 73
     2
 91
        0
 40
0.0
 10
0.0
 20
0.0
 30
2.000000000000000E+50
 75
     0
  0
DIMASSOC
  5
615B
102
{ACAD_REACTORS
330
614F
102
}
330
614F
100
AcDbDimAssoc
330
6140
 90
        3
 70
     0
 71
     0
  1
AcDbOsnapPointRef
 72
     1
331
5525
331
551D
 73
     2
 91
        0
 40
6.283185307179585
 10
0.0
 20
0.0
 30
2.000000000000000E+50
 75
     0
  1
AcDbOsnapPointRef
 72
    13
331
52BE
331
5293
 73
     2
 91
        0
 40
0.0
 10
0.0
 20
0.0
 30
2.000000000000000E+50
 75
     0
  0
DIMASSOC
  5
61D7
102
{ACAD_REACTORS
330
61CD
102
}
330
61CD
100
AcDbDimAssoc
330
61C0
 90
        1
 70
     0
 71
     0
  1
AcDbOsnapPointRef
 72
     6
331
54B5
331
5493
 73
     2
 91
        0
 40
0.4999999999999992
 10
0.0
 20
0.0
 30
0.0
332
3BF7
 74
     2
 92
        0
 75
     0
  0
DIMASSOC
  5
622A
102
{ACAD_REACTORS
330
6220
102
}
330
6220
100
AcDbDimAssoc
330
6213
 90
        3
 70
     0
 71
     0
  1
AcDbOsnapPointRef
 72
    13
331
54B5
331
54AE
 73
     2
 91
        0
 40
0.0
 10
0.0
 20
0.0
 30
2.000000000000000E+50
 75
     0
  1
AcDbOsnapPointRef
 72
    13
331
54B5
331
549C
 73
     2
 91
        0
 40
0.0
 10
0.0
 20
0.0
 30
2.000000000000000E+50
 75
     0
  0
DIMASSOC
  5
625A
102
{ACAD_REACTORS
330
6250
102
}
330
6250
100
AcDbDimAssoc
330
6243
 90
        3
 70
     0
 71
     0
  1
AcDbOsnapPointRef
 72
     1
331
516B
331
514A
 73
     2
 91
        0
 40
1.0
 10
0.0
 20
0.0
 30
2.000000000000000E+50
 75
     0
  1
AcDbOsnapPointRef
 72
     1
331
516B
331
5139
 73
     2
 91
        0
 40
1.0
 10
0.0
 20
0.0
 30
2.000000000000000E+50
 75
     0
  0
DIMASSOC
  5
6336
102
{ACAD_REACTORS
330
632A
102
}
330
632A
100
AcDbDimAssoc
330
631B
 90
        2
 70
     0
 71
     0
  1
AcDbOsnapPointRef
 72
    13
331
52BE
331
52A5
 73
     2
 91
        0
 40
0.0
 10
0.0
 20
0.0
 30
2.000000000000000E+50
 75
     0
  0
DIMASSOC
  5
638A
102
{ACAD_REACTORS
330
637E
102
}
330
637E
100
AcDbDimAssoc
330
636F
 90
        2
 70
     0
 71
     0
  1
AcDbOsnapPointRef
 72
    13
331
516B
331
5137
 73
     2
 91
        0
 40
0.0
 10
0.0
 20
0.0
 30
2.000000000000000E+50
 75
     0
  0
DIMASSOC
  5
6605
102
{ACAD_REACTORS
330
65FB
102
}
330
65FB
100
AcDbDimAssoc
330
65EE
 90
        3
 70
     0
 71
     0
  1
AcDbOsnapPointRef
 72
    13
331
5525
331
5506
 73
     2
 91
        0
 40
0.0
 10
0.0
 20
0.0
 30
2.000000000000000E+50
 75
     0
  1
AcDbOsnapPointRef
 72
    13
331
52BE
331
528E
 73
     2
 91
        0
 40
0.0
 10
0.0
 20
0.0
 30
2.000000000000000E+50
 75
     0
  0
DIMASSOC
  5
661D
102
{ACAD_REACTORS
330
6613
102
}
330
6613
100
AcDbDimAssoc
330
6606
 90
        1
 70
     0
 71
     0
  1
AcDbOsnapPointRef
 72
    13
331
52BE
331
528E
 73
     2
 91
        0
 40
0.0
 10
0.0
 20
0.0
 30
2.000000000000000E+50
 75
     0
  0
DIMASSOC
  5
664D
102
{ACAD_REACTORS
330
6643
102
}
330
6643
100
AcDbDimAssoc
330
6636
 90
        2
 70
     0
 71
     0
  1
AcDbOsnapPointRef
 72
    13
331
516B
331
513D
 73
     2
 91
        0
 40
0.0
 10
0.0
 20
0.0
 30
2.000000000000000E+50
 75
     0
  0
DIMASSOC
  5
6665
102
{ACAD_REACTORS
330
665B
102
}
330
665B
100
AcDbDimAssoc
330
664E
 90
        3
 70
     0
 71
     0
  1
AcDbOsnapPointRef
 72
    13
331
516B
331
513D
 73
     2
 91
        0
 40
0.0
 10
0.0
 20
0.0
 30
2.000000000000000E+50
 75
     0
  1
AcDbOsnapPointRef
 72
    13
331
54B5
331
5493
 73
     2
 91
        0
 40
0.0
 10
0.0
 20
0.0
 30
2.000000000000000E+50
 75
     0
  0
DIMASSOC
  5
836B
102
{ACAD_REACTORS
330
836A
102
}
330
836A
100
AcDbDimAssoc
330
835B
 90
        1
 70
     0
 71
     0
  1
AcDbOsnapPointRef
 72
     1
331
80FA
331
80CE
 73
     0
 91
        0
 40
0.0
 10
0.0
 20
0.0
 30
2.000000000000000E+50
 75
     0
  0
DIMASSOC
  5
83BB
102
{ACAD_REACTORS
330
83BA
102
}
330
83BA
100
AcDbDimAssoc
330
83AB
 90
        3
 70
     0
 71
     0
  1
AcDbOsnapPointRef
 72
     1
331
80FA
331
8082
 73
     0
 91
        0
 40
0.0
 10
0.0
 20
0.0
 30
2.000000000000000E+50
 75
     0
  1
AcDbOsnapPointRef
 72
    13
331
80FA
331
8085
 73
     0
 91
        0
 40
0.0
 10
0.0
 20
0.0
 30
2.000000000000000E+50
 75
     0
  0
DIMASSOC
  5
9A19
102
{ACAD_REACTORS
330
9A18
102
}
330
9A18
100
AcDbDimAssoc
330
9A09
 90
        2
 70
     0
 71
     0
  1
AcDbOsnapPointRef
 72
    13
331
80FA
331
80CB
 73
     0
 91
        0
 40
0.0
 10
0.0
 20
0.0
 30
2.000000000000000E+50
 75
     0
  0
DIMASSOC
  5
9B82
102
{ACAD_REACTORS
330
9B81
102
}
330
9B81
100
AcDbDimAssoc
330
9B72
 90
        2
 70
     0
 71
     0
  1
AcDbOsnapPointRef
 72
     1
331
5525
331
5519
 73
     0
 91
        0
 40
0.0
 10
0.0
 20
0.0
 30
2.000000000000000E+50
 75
     0
  0
DIMASSOC
  5
9E64
102
{ACAD_REACTORS
330
9E63
102
}
330
9E63
100
AcDbDimAssoc
330
9E55
 90
        2
 70
     0
 71
     0
  1
AcDbOsnapPointRef
 72
     1
331
5525
331
5513
 73
     0
 91
        0
 40
0.0
 10
0.0
 20
0.0
 30
2.000000000000000E+50
 75
     0
  0
DIMASSOC
  5
9EBC
102
{ACAD_REACTORS
330
9EBB
102
}
330
9EBB
100
AcDbDimAssoc
330
9EAC
 90
        2
 70
     0
 71
     0
  1
AcDbOsnapPointRef
 72
    13
331
5525
331
5572
 73
     0
 91
        0
 40
0.0
 10
0.0
 20
0.0
 30
2.000000000000000E+50
 75
     0
  0
DIMASSOC
  5
9F2E
102
{ACAD_REACTORS
330
9F2D
102
}
330
9F2D
100
AcDbDimAssoc
330
9F1E
 90
        3
 70
     0
 71
     0
  1
AcDbOsnapPointRef
 72
     6
331
80FA
331
80DB
 73
     0
 91
        0
 40
0.9999999999998292
 10
0.0
 20
0.0
 30
0.0
332
80FA
332
82CA
 74
     0
 92
        0
 75
     0
  1
AcDbOsnapPointRef
 72
     4
331
9EAC
331
9F1C
 73
     0
 91
        0
 40
0.0
 10
0.0
 20
0.0
 30
0.0
 75
     0
  0
LAYOUT
  5
22
102
{ACAD_REACTORS
330
1A
102
}
330
1A
100
AcDbPlotSettings
  1

  2
KONICA MINOLTA 501 PCL
  4
A4
  6

 40
5.027082920074462
 41
5.027085781097412
 42
5.027069091796875
 43
5.027069091796875
 44
209.9733276367186
 45
296.9259948730469
 46
40.56744806036609
 47
0.0
 48
0.0
 49
0.0
140
0.0
141
0.0
142
1.0
143
2.620471571420295
 70
 11956
 72
     1
 73
     1
 74
     1
  7
SEISA.ctb
 75
     0
147
0.3816107035490561
 76
     0
 77
     2
 78
   300
148
-267.8768959096605
149
-497.6390571067217
100
AcDbLayout
  1
Model
 70
     1
 71
     0
 10
0.0
 20
0.0
 11
12.0
 21
9.0
 12
0.0
 22
0.0
 32
0.0
 14
0.0
 24
0.0
 34
0.0
 15
0.0
 25
0.0
 35
0.0
146
0.0
 13
0.0
 23
0.0
 33
0.0
 16
1.0
 26
0.0
 36
0.0
 17
0.0
 27
1.0
 37
0.0
 76
     0
330
1F
331
27A
1001
ACAD_PSEXT
1000
KONICA MINOLTA 501 PCL
1000
KONICA MINOLTA 501/421/361PCL
1000
IP_192.168.20.231_(1)
1000

1070
     0
  0
LAYOUT
  5
1E
102
{ACAD_REACTORS
330
1A
102
}
330
1A
100
AcDbPlotSettings
  1

  2
none_device
  4
Letter_(8.50_x_11.00_Inches)
  6

 40
6.349999904632567
 41
6.349999904632567
 42
6.350006103515625
 43
6.350006103515625
 44
215.8999938964844
 45
279.3999938964844
 46
0.0
 47
0.0
 48
0.0
 49
0.0
140
0.0
141
0.0
142
1.0
143
1.0
 70
 15024
 72
     1
 73
     1
 74
     5
  7
SEISA.ctb
 75
    16
147
1.0
 76
     0
 77
     2
 78
   300
148
0.0
149
0.0
100
AcDbLayout
  1
レイアウト1
 70
     1
 71
     1
 10
0.0
 20
0.0
 11
420.0
 21
297.0
 12
0.0
 22
0.0
 32
0.0
 14
1.000000000000000E+20
 24
1.000000000000000E+20
 34
1.000000000000000E+20
 15
-1.000000000000000E+20
 25
-1.000000000000000E+20
 35
-1.000000000000000E+20
146
0.0
 13
0.0
 23
0.0
 33
0.0
 16
1.0
 26
0.0
 36
0.0
 17
0.0
 27
1.0
 37
0.0
 76
     0
330
1B
  0
LAYOUT
  5
26
102
{ACAD_REACTORS
330
1A
102
}
330
1A
100
AcDbPlotSettings
  1

  2
none_device
  4
Letter_(8.50_x_11.00_Inches)
  6

 40
6.349999904632567
 41
6.349999904632567
 42
6.350006103515625
 43
6.350006103515625
 44
215.8999938964844
 45
279.3999938964844
 46
0.0
 47
0.0
 48
0.0
 49
0.0
140
0.0
141
0.0
142
1.0
143
1.0
 70
 15024
 72
     1
 73
     1
 74
     5
  7
SEISA.ctb
 75
    16
147
1.0
 76
     0
 77
     2
 78
   300
148
0.0
149
0.0
100
AcDbLayout
  1
レイアウト2
 70
     1
 71
     2
 10
0.0
 20
0.0
 11
12.0
 21
9.0
 12
0.0
 22
0.0
 32
0.0
 14
0.0
 24
0.0
 34
0.0
 15
0.0
 25
0.0
 35
0.0
146
0.0
 13
0.0
 23
0.0
 33
0.0
 16
1.0
 26
0.0
 36
0.0
 17
0.0
 27
1.0
 37
0.0
 76
     0
330
23
  0
MATERIAL
  5
27D
102
{ACAD_REACTORS
330
C4
102
}
330
C4
100
AcDbMaterial
  1
ByBlock
 73
     1
 78
     1
172
     1
176
     1
270
     1
274
     1
 94
       63
  0
MATERIAL
  5
27C
102
{ACAD_REACTORS
330
C4
102
}
330
C4
100
AcDbMaterial
  1
ByLayer
 73
     1
 78
     1
172
     1
176
     1
270
     1
274
     1
 94
       63
  0
MATERIAL
  5
27E
102
{ACAD_REACTORS
330
C4
102
}
330
C4
100
AcDbMaterial
  1
Global
 73
     1
 78
     1
172
     1
176
     1
270
     1
274
     1
 94
       63
  0
MLEADERSTYLE
  5
2D6
102
{ACAD_REACTORS
330
2D5
102
}
330
2D5
100
AcDbMLeaderStyle
170
     2
171
     1
172
     0
 90
        2
 40
0.0
 41
0.0
173
     1
 91
-1056964608
340
14
 92
       -2
290
     1
 42
2.0
291
     1
 43
0.36
  3
Standard
 44
4.0
300

342
11
174
     1
178
     6
175
     1
176
     0
 93
-1056964608
 45
4.0
292
     0
297
     0
 46
4.0
 94
-1056964608
 47
1.0
 49
1.0
140
1.0
293
     1
141
0.0
294
     1
177
     0
142
1.0
295
     0
296
     0
143
0.125
1001
ACAD_MLEADERVER
1070
     2
  0
MLINESTYLE
  5
18
102
{ACAD_REACTORS
330
17
102
}
330
17
100
AcDbMlineStyle
  2
STANDARD
 70
     0
  3

 62
   256
 51
90.0
 52
90.0
 71
     2
 49
0.5
 62
   256
  6
BYLAYER
 49
-0.5
 62
   256
  6
BYLAYER
  0
PLOTSETTINGS
  5
1C7E
102
{ACAD_REACTORS
330
19
102
}
330
19
100
AcDbPlotSettings
  1
SEISA基本
  2
none_device
  4
Letter_(8.50_x_11.00_Inches)
  6

 40
6.349999904632567
 41
6.349999904632567
 42
6.350006103515625
 43
6.350006103515625
 44
215.8999938964844
 45
279.3999938964844
 46
7.302498226506357
 47
0.0
 48
0.0
 49
0.0
140
0.0
141
0.0
142
1.0
143
1.574803221122935
 70
 11956
 72
     1
 73
     1
 74
     2
  7
SEISA.ctb
 75
     0
147
0.6349999711627054
 76
     0
 77
     2
 78
   300
148
0.0
149
0.0
1001
ACAD_PSEXT
1000
なし
1000
なし
1000
適切ではありません
1000
新しいプロッタ環境設定名を選択しない限り、レイアウトは印刷されません。
1070
     0
  0
ACDBPLACEHOLDER
  5
F
102
{ACAD_REACTORS
330
E
102
}
330
E
  0
SCALE
  5
2A04
102
{ACAD_REACTORS
330
2B3
102
}
330
2B3
100
AcDbScale
 70
     0
300
1:3
140
1.0
141
3.0
290
     0
  0
SCALE
  5
4479
102
{ACAD_REACTORS
330
2B3
102
}
330
2B3
100
AcDbScale
 70
     0
300
1:1.5
140
1.0
141
1.5
290
     0
  0
SCALE
  5
7B11
102
{ACAD_REACTORS
330
2B3
102
}
330
2B3
100
AcDbScale
 70
     0
300
1:2.5
140
1.0
141
2.5
290
     0
  0
SCALE
  5
2B4
102
{ACAD_REACTORS
330
2B3
102
}
330
2B3
100
AcDbScale
 70
     0
300
1:1
140
1.0
141
1.0
290
     1
  0
SCALE
  5
2B5
102
{ACAD_REACTORS
330
2B3
102
}
330
2B3
100
AcDbScale
 70
     0
300
1:2
140
1.0
141
2.0
290
     0
  0
SCALE
  5
2B6
102
{ACAD_REACTORS
330
2B3
102
}
330
2B3
100
AcDbScale
 70
     0
300
1:4
140
1.0
141
4.0
290
     0
  0
SCALE
  5
2B7
102
{ACAD_REACTORS
330
2B3
102
}
330
2B3
100
AcDbScale
 70
     0
300
1:5
140
1.0
141
5.0
290
     0
  0
SCALE
  5
2B8
102
{ACAD_REACTORS
330
2B3
102
}
330
2B3
100
AcDbScale
 70
     0
300
1:8
140
1.0
141
8.0
290
     0
  0
SCALE
  5
2B9
102
{ACAD_REACTORS
330
2B3
102
}
330
2B3
100
AcDbScale
 70
     0
300
1:10
140
1.0
141
10.0
290
     0
  0
SCALE
  5
2BA
102
{ACAD_REACTORS
330
2B3
102
}
330
2B3
100
AcDbScale
 70
     0
300
1:16
140
1.0
141
16.0
290
     0
  0
SCALE
  5
2BB
102
{ACAD_REACTORS
330
2B3
102
}
330
2B3
100
AcDbScale
 70
     0
300
1:20
140
1.0
141
20.0
290
     0
  0
SCALE
  5
2BC
102
{ACAD_REACTORS
330
2B3
102
}
330
2B3
100
AcDbScale
 70
     0
300
1:30
140
1.0
141
30.0
290
     0
  0
SCALE
  5
2BD
102
{ACAD_REACTORS
330
2B3
102
}
330
2B3
100
AcDbScale
 70
     0
300
1:40
140
1.0
141
40.0
290
     0
  0
SCALE
  5
2BE
102
{ACAD_REACTORS
330
2B3
102
}
330
2B3
100
AcDbScale
 70
     0
300
1:50
140
1.0
141
50.0
290
     0
  0
SCALE
  5
2BF
102
{ACAD_REACTORS
330
2B3
102
}
330
2B3
100
AcDbScale
 70
     0
300
1:100
140
1.0
141
100.0
290
     0
  0
SCALE
  5
2C0
102
{ACAD_REACTORS
330
2B3
102
}
330
2B3
100
AcDbScale
 70
     0
300
2:1
140
2.0
141
1.0
290
     0
  0
SCALE
  5
2C1
102
{ACAD_REACTORS
330
2B3
102
}
330
2B3
100
AcDbScale
 70
     0
300
4:1
140
4.0
141
1.0
290
     0
  0
SCALE
  5
2C2
102
{ACAD_REACTORS
330
2B3
102
}
330
2B3
100
AcDbScale
 70
     0
300
8:1
140
8.0
141
1.0
290
     0
  0
SCALE
  5
2C3
102
{ACAD_REACTORS
330
2B3
102
}
330
2B3
100
AcDbScale
 70
     0
300
10:1
140
10.0
141
1.0
290
     0
  0
SCALE
  5
2C4
102
{ACAD_REACTORS
330
2B3
102
}
330
2B3
100
AcDbScale
 70
     0
300
100:1
140
100.0
141
1.0
290
     0
  0
SCALE
  5
2C5
102
{ACAD_REACTORS
330
2B3
102
}
330
2B3
100
AcDbScale
 70
     0
300
1/128" = 1'-0"
140
0.0078125
141
12.0
290
     0
  0
SCALE
  5
2C6
102
{ACAD_REACTORS
330
2B3
102
}
330
2B3
100
AcDbScale
 70
     0
300
1/64" = 1'-0"
140
0.015625
141
12.0
290
     0
  0
SCALE
  5
2C7
102
{ACAD_REACTORS
330
2B3
102
}
330
2B3
100
AcDbScale
 70
     0
300
1/32" = 1'-0"
140
0.03125
141
12.0
290
     0
  0
SCALE
  5
2C8
102
{ACAD_REACTORS
330
2B3
102
}
330
2B3
100
AcDbScale
 70
     0
300
1/16" = 1'-0"
140
0.0625
141
12.0
290
     0
  0
SCALE
  5
2C9
102
{ACAD_REACTORS
330
2B3
102
}
330
2B3
100
AcDbScale
 70
     0
300
3/32" = 1'-0"
140
0.09375
141
12.0
290
     0
  0
SCALE
  5
2CA
102
{ACAD_REACTORS
330
2B3
102
}
330
2B3
100
AcDbScale
 70
     0
300
1/8" = 1'-0"
140
0.125
141
12.0
290
     0
  0
SCALE
  5
2CB
102
{ACAD_REACTORS
330
2B3
102
}
330
2B3
100
AcDbScale
 70
     0
300
3/16" = 1'-0"
140
0.1875
141
12.0
290
     0
  0
SCALE
  5
2CC
102
{ACAD_REACTORS
330
2B3
102
}
330
2B3
100
AcDbScale
 70
     0
300
1/4" = 1'-0"
140
0.25
141
12.0
290
     0
  0
SCALE
  5
2CD
102
{ACAD_REACTORS
330
2B3
102
}
330
2B3
100
AcDbScale
 70
     0
300
3/8" = 1'-0"
140
0.375
141
12.0
290
     0
  0
SCALE
  5
2CE
102
{ACAD_REACTORS
330
2B3
102
}
330
2B3
100
AcDbScale
 70
     0
300
1/2" = 1'-0"
140
0.5
141
12.0
290
     0
  0
SCALE
  5
2CF
102
{ACAD_REACTORS
330
2B3
102
}
330
2B3
100
AcDbScale
 70
     0
300
3/4" = 1'-0"
140
0.75
141
12.0
290
     0
  0
SCALE
  5
2D0
102
{ACAD_REACTORS
330
2B3
102
}
330
2B3
100
AcDbScale
 70
     0
300
1" = 1'-0"
140
1.0
141
12.0
290
     0
  0
SCALE
  5
2D1
102
{ACAD_REACTORS
330
2B3
102
}
330
2B3
100
AcDbScale
 70
     0
300
1-1/2" = 1'-0"
140
1.5
141
12.0
290
     0
  0
SCALE
  5
2D2
102
{ACAD_REACTORS
330
2B3
102
}
330
2B3
100
AcDbScale
 70
     0
300
3" = 1'-0"
140
3.0
141
12.0
290
     0
  0
SCALE
  5
2D3
102
{ACAD_REACTORS
330
2B3
102
}
330
2B3
100
AcDbScale
 70
     0
300
6" = 1'-0"
140
6.0
141
12.0
290
     0
  0
SCALE
  5
2D4
102
{ACAD_REACTORS
330
2B3
102
}
330
2B3
100
AcDbScale
 70
     0
300
1'-0" = 1'-0"
140
12.0
141
12.0
290
     0
  0
TABLESTYLE
  5
122
102
{ACAD_XDICTIONARY
360
2F5
102
}
102
{ACAD_REACTORS
330
121
102
}
330
121
100
AcDbTableStyle
  3
Standard
 70
     0
 71
     0
 40
1.5
 41
1.5
280
     0
281
     0
  7
STANDARD
140
4.5
170
     2
 62
     0
 63
     7
283
     0
 90
      512
 91
        0
  1

274
    -2
284
     1
 64
     0
275
    -2
285
     1
 65
     0
276
    -2
286
     1
 66
     0
277
    -2
287
     1
 67
     0
278
    -2
288
     1
 68
     0
279
    -2
289
     1
 69
     0
  7
STANDARD
140
6.0
170
     5
 62
     0
 63
     7
283
     0
 90
      512
 91
        0
  1

274
    -2
284
     1
 64
     0
275
    -2
285
     1
 65
     0
276
    -2
286
     1
 66
     0
277
    -2
287
     1
 67
     0
278
    -2
288
     1
 68
     0
279
    -2
289
     1
 69
     0
  7
STANDARD
140
4.5
170
     5
 62
     0
 63
     7
283
     0
 90
      512
 91
        0
  1

274
    -2
284
     1
 64
     0
275
    -2
285
     1
 65
     0
276
    -2
286
     1
 66
     0
277
    -2
287
     1
 67
     0
278
    -2
288
     1
 68
     0
279
    -2
289
     1
 69
     0
  0
VISUALSTYLE
  5
285
102
{ACAD_REACTORS
330
27F
102
}
330
27F
100
AcDbVisualStyle
  2
2dWireframe
 70
     4
 71
     0
 72
     2
 73
     0
 90
        0
 40
-0.6
 41
-30.0
 62
     5
 63
     7
421
 16777215
 74
     1
 91
        4
 64
     7
 65
   257
 75
     1
175
     1
 42
1.0
 92
        0
 66
   257
 43
1.0
 76
     1
 77
     6
 78
     2
 67
     7
 79
     5
170
     0
171
     0
290
     0
174
     0
 93
        1
 44
0.0
173
     0
291
     0
 45
0.0
  0
VISUALSTYLE
  5
287
102
{ACAD_REACTORS
330
27F
102
}
330
27F
100
AcDbVisualStyle
  2
3D Hidden
 70
     6
 71
     1
 72
     2
 73
     2
 90
        0
 40
-0.6
 41
-30.0
 62
     5
 63
     7
421
 16777215
 74
     2
 91
        2
 64
     7
 65
   257
 75
     2
175
     1
 42
40.0
 92
        0
 66
   257
 43
1.0
 76
     1
 77
     6
 78
     2
 67
     7
 79
     3
170
     0
171
     0
290
     0
174
     0
 93
        1
 44
0.0
173
     0
291
     0
 45
0.0
  0
VISUALSTYLE
  5
286
102
{ACAD_REACTORS
330
27F
102
}
330
27F
100
AcDbVisualStyle
  2
3dWireframe
 70
     5
 71
     0
 72
     2
 73
     0
 90
        0
 40
-0.6
 41
-30.0
 62
     5
 63
     7
421
 16777215
 74
     1
 91
        4
 64
     7
 65
   257
 75
     1
175
     1
 42
1.0
 92
        0
 66
   257
 43
1.0
 76
     1
 77
     6
 78
     2
 67
     7
 79
     5
170
     0
171
     0
290
     0
174
     0
 93
        1
 44
0.0
173
     0
291
     0
 45
0.0
  0
VISUALSTYLE
  5
284
102
{ACAD_REACTORS
330
27F
102
}
330
27F
100
AcDbVisualStyle
  2
Basic
 70
     7
 71
     1
 72
     0
 73
     1
 90
        0
 40
-0.6
 41
-30.0
 62
     5
 63
     7
421
 16777215
 74
     0
 91
        4
 64
     7
 65
   257
 75
     1
175
     1
 42
1.0
 92
        8
 66
     7
 43
1.0
 76
     1
 77
     6
 78
     2
 67
     7
 79
     5
170
     0
171
     0
290
     0
174
     0
 93
        1
 44
0.0
173
     0
291
     1
 45
0.0
  0
VISUALSTYLE
  5
28B
102
{ACAD_REACTORS
330
27F
102
}
330
27F
100
AcDbVisualStyle
  2
Brighten
 70
    12
 71
     2
 72
     2
 73
     0
 90
        0
 40
-0.6
 41
-30.0
 62
     5
 63
     7
421
 16777215
 74
     1
 91
        4
 64
     7
 65
   257
 75
     1
175
     1
 42
1.0
 92
        8
 66
     7
 43
1.0
 76
     1
 77
     6
 78
     2
 67
     7
 79
     5
170
     0
171
     0
290
     0
174
     0
 93
        1
 44
50.0
173
     0
291
     1
 45
0.0
  0
VISUALSTYLE
  5
28F
102
{ACAD_REACTORS
330
27F
102
}
330
27F
100
AcDbVisualStyle
  2
ColorChange
 70
    16
 71
     2
 72
     2
 73
     3
 90
        0
 40
-0.6
 41
-30.0
 62
     5
 63
     8
421
  8421504
 74
     1
 91
        4
 64
     7
 65
   257
 75
     1
175
     1
 42
1.0
 92
        8
 66
     8
424
  8421504
 43
1.0
 76
     1
 77
     6
 78
     2
 67
     7
 79
     5
170
     0
171
     0
290
     0
174
     0
 93
        1
 44
0.0
173
     0
291
     1
 45
0.0
  0
VISUALSTYLE
  5
288
102
{ACAD_REACTORS
330
27F
102
}
330
27F
100
AcDbVisualStyle
  2
Conceptual
 70
     9
 71
     3
 72
     2
 73
     0
 90
        0
 40
-0.6
 41
-30.0
 62
     5
 63
     7
421
 16777215
 74
     2
 91
        2
 64
     7
 65
   257
 75
     1
175
     1
 42
40.0
 92
        8
 66
     7
 43
1.0
 76
     1
 77
     6
 78
     2
 67
     7
 79
     3
170
     0
171
     0
290
     0
174
     0
 93
        1
 44
0.0
173
     0
291
     0
 45
0.0
  0
VISUALSTYLE
  5
28A
102
{ACAD_REACTORS
330
27F
102
}
330
27F
100
AcDbVisualStyle
  2
Dim
 70
    11
 71
     2
 72
     2
 73
     0
 90
        0
 40
-0.6
 41
-30.0
 62
     5
 63
     7
421
 16777215
 74
     1
 91
        4
 64
     7
 65
   257
 75
     1
175
     1
 42
1.0
 92
        8
 66
     7
 43
1.0
 76
     1
 77
     6
 78
     2
 67
     7
 79
     5
170
     0
171
     0
290
     0
174
     0
 93
        1
 44
-50.0
173
     0
291
     1
 45
0.0
  0
VISUALSTYLE
  5
28E
102
{ACAD_REACTORS
330
27F
102
}
330
27F
100
AcDbVisualStyle
  2
Facepattern
 70
    15
 71
     2
 72
     2
 73
     0
 90
        0
 40
-0.6
 41
-30.0
 62
     5
 63
     7
421
 16777215
 74
     1
 91
        4
 64
     7
 65
   257
 75
     1
175
     1
 42
1.0
 92
        8
 66
     7
 43
1.0
 76
     1
 77
     6
 78
     2
 67
     7
 79
     5
170
     0
171
     0
290
     0
174
     0
 93
        1
 44
0.0
173
     0
291
     1
 45
0.0
  0
VISUALSTYLE
  5
280
102
{ACAD_REACTORS
330
27F
102
}
330
27F
100
AcDbVisualStyle
  2
Flat
 70
     0
 71
     2
 72
     1
 73
     1
 90
        2
 40
-0.6
 41
30.0
 62
     5
 63
     7
421
 16777215
 74
     0
 91
        4
 64
     7
 65
   257
 75
     1
175
     1
 42
1.0
 92
        8
 66
     7
 43
1.0
 76
     1
 77
     6
 78
     2
 67
     7
 79
     5
170
     0
171
     0
290
     0
174
     0
 93
       13
 44
0.0
173
     0
291
     1
 45
0.0
  0
VISUALSTYLE
  5
281
102
{ACAD_REACTORS
330
27F
102
}
330
27F
100
AcDbVisualStyle
  2
FlatWithEdges
 70
     1
 71
     2
 72
     1
 73
     1
 90
        2
 40
-0.6
 41
30.0
 62
     5
 63
     7
421
 16777215
 74
     1
 91
        4
 64
     7
 65
   257
 75
     1
175
     1
 42
1.0
 92
        0
 66
   257
 43
1.0
 76
     1
 77
     6
 78
     2
 67
     7
 79
     5
170
     0
171
     0
290
     0
174
     0
 93
       13
 44
0.0
173
     0
291
     1
 45
0.0
  0
VISUALSTYLE
  5
282
102
{ACAD_REACTORS
330
27F
102
}
330
27F
100
AcDbVisualStyle
  2
Gouraud
 70
     2
 71
     2
 72
     2
 73
     1
 90
        2
 40
-0.6
 41
30.0
 62
     5
 63
     7
421
 16777215
 74
     0
 91
        4
 64
     7
 65
   257
 75
     1
175
     1
 42
1.0
 92
        0
 66
     7
 43
1.0
 76
     1
 77
     6
 78
     2
 67
     7
 79
     5
170
     0
171
     0
290
     0
174
     0
 93
       13
 44
0.0
173
     0
291
     1
 45
0.0
  0
VISUALSTYLE
  5
283
102
{ACAD_REACTORS
330
27F
102
}
330
27F
100
AcDbVisualStyle
  2
GouraudWithEdges
 70
     3
 71
     2
 72
     2
 73
     1
 90
        2
 40
-0.6
 41
30.0
 62
     5
 63
     7
421
 16777215
 74
     1
 91
        4
 64
     7
 65
   257
 75
     1
175
     1
 42
1.0
 92
        0
 66
   257
 43
1.0
 76
     1
 77
     6
 78
     2
 67
     7
 79
     5
170
     0
171
     0
290
     0
174
     0
 93
       13
 44
0.0
173
     0
291
     1
 45
0.0
  0
VISUALSTYLE
  5
28D
102
{ACAD_REACTORS
330
27F
102
}
330
27F
100
AcDbVisualStyle
  2
Linepattern
 70
    14
 71
     2
 72
     2
 73
     0
 90
        0
 40
-0.6
 41
-30.0
 62
     5
 63
     7
421
 16777215
 74
     1
 91
        4
 64
     7
 65
   257
 75
     7
175
     7
 42
1.0
 92
        8
 66
     7
 43
1.0
 76
     1
 77
     6
 78
     2
 67
     7
 79
     5
170
     0
171
     0
290
     0
174
     0
 93
        1
 44
0.0
173
     0
291
     1
 45
0.0
  0
VISUALSTYLE
  5
289
102
{ACAD_REACTORS
330
27F
102
}
330
27F
100
AcDbVisualStyle
  2
Realistic
 70
     8
 71
     2
 72
     2
 73
     0
 90
        0
 40
-0.6
 41
-30.0
 62
     5
 63
     7
421
 16777215
 74
     1
 91
        0
 64
     7
 65
   257
 75
     1
175
     1
 42
1.0
 92
        8
 66
     8
424
  7895160
 43
1.0
 76
     1
 77
     6
 78
     2
 67
     7
 79
     5
170
     0
171
     0
290
     0
174
     0
 93
       13
 44
0.0
173
     0
291
     0
 45
0.0
  0
VISUALSTYLE
  5
28C
102
{ACAD_REACTORS
330
27F
102
}
330
27F
100
AcDbVisualStyle
  2
Thicken
 70
    13
 71
     2
 72
     2
 73
     0
 90
        0
 40
-0.6
 41
-30.0
 62
     5
 63
     7
421
 16777215
 74
     1
 91
        4
 64
     7
 65
   257
 75
     1
175
     1
 42
1.0
 92
       12
 66
     7
 43
1.0
 76
     1
 77
     6
 78
     2
 67
     7
 79
     5
170
     0
171
     0
290
     0
174
     0
 93
        1
 44
0.0
173
     0
291
     1
 45
0.0
  0
DICTIONARYVAR
  5
2FA
102
{ACAD_REACTORS
330
34
102
}
330
34
100
DictionaryVariables
280
     0
  1
1:3
  0
DICTIONARYVAR
  5
2F8
102
{ACAD_REACTORS
330
34
102
}
330
34
100
DictionaryVariables
280
     0
  1
STANDARD
  0
DICTIONARYVAR
  5
140
102
{ACAD_REACTORS
330
34
102
}
330
34
100
DictionaryVariables
280
     0
  1
STANDARD
  0
DICTIONARYVAR
  5
AC
102
{ACAD_REACTORS
330
34
102
}
330
34
100
DictionaryVariables
280
     0
  1
1
  0
DICTIONARYVAR
  5
9A89
102
{ACAD_REACTORS
330
34
102
}
330
34
100
DictionaryVariables
280
     0
  1
4
  0
DICTIONARYVAR
  5
35
102
{ACAD_REACTORS
330
34
102
}
330
34
100
DictionaryVariables
280
     0
  1
1
  0
DICTIONARYVAR
  5
6E1F
102
{ACAD_REACTORS
330
34
102
}
330
34
100
DictionaryVariables
280
     0
  1
1
  0
DICTIONARYVAR
  5
6E20
102
{ACAD_REACTORS
330
34
102
}
330
34
100
DictionaryVariables
280
     0
  1
15
  0
DICTIONARYVAR
  5
2FB
102
{ACAD_REACTORS
330
34
102
}
330
34
100
DictionaryVariables
280
     0
  1
0
  0
DICTIONARYVAR
  5
2F9
102
{ACAD_REACTORS
330
34
102
}
330
34
100
DictionaryVariables
280
     0
  1
0
  0
DICTIONARY
  5
161B
102
{ACAD_REACTORS
330
49
102
}
330
49
100
AcDbDictionary
281
     1
  0
DICTIONARY
  5
4A
102
{ACAD_REACTORS
330
49
102
}
330
49
100
AcDbDictionary
281
     1
  0
XRECORD
  5
12B
102
{ACAD_REACTORS
330
49
102
}
330
49
100
AcDbXrecord
280
     1
 90
-1023410169
  0
DICTIONARY
  5
2F5
330
122
100
AcDbDictionary
280
     1
281
     1
  3
ACAD_ROUNDTRIP_2008_TABLESTYLE_CELLSTYLEMAP
360
A218
  0
CELLSTYLEMAP
  5
A218
102
{ACAD_REACTORS
330
2F5
102
}
330
2F5
100
AcDbCellStyleMap
 90
        3
300
CELLSTYLE
  1
TABLEFORMAT_BEGIN
 90
        5
170
     1
 91
        0
 92
    32768
 62
   257
 93
        1
300
CONTENTFORMAT
  1
CONTENTFORMAT_BEGIN
 90
        0
 91
        0
 92
      512
 93
        0
300

 40
0.0
140
1.0
 94
        5
 62
     0
340
11
144
6.0
309
CONTENTFORMAT_END
171
     1
301
MARGIN
  1
CELLMARGIN_BEGIN
 40
1.5
 40
1.5
 40
1.5
 40
1.5
 40
0.18
 40
0.18
309
CELLMARGIN_END
 94
        6
 95
        1
302
GRIDFORMAT
  1
GRIDFORMAT_BEGIN
 90
        0
 91
        1
 62
     0
 92
       -2
340
0
 93
        0
 40
0.045
309
GRIDFORMAT_END
 95
        2
302
GRIDFORMAT
  1
GRIDFORMAT_BEGIN
 90
        0
 91
        1
 62
     0
 92
       -2
340
0
 93
        0
 40
0.045
309
GRIDFORMAT_END
 95
        4
302
GRIDFORMAT
  1
GRIDFORMAT_BEGIN
 90
        0
 91
        1
 62
     0
 92
       -2
340
0
 93
        0
 40
0.045
309
GRIDFORMAT_END
 95
        8
302
GRIDFORMAT
  1
GRIDFORMAT_BEGIN
 90
        0
 91
        1
 62
     0
 92
       -2
340
0
 93
        0
 40
0.045
309
GRIDFORMAT_END
 95
       16
302
GRIDFORMAT
  1
GRIDFORMAT_BEGIN
 90
        0
 91
        1
 62
     0
 92
       -2
340
0
 93
        0
 40
0.045
309
GRIDFORMAT_END
 95
       32
302
GRIDFORMAT
  1
GRIDFORMAT_BEGIN
 90
        0
 91
        1
 62
     0
 92
       -2
340
0
 93
        0
 40
0.045
309
GRIDFORMAT_END
309
TABLEFORMAT_END
  1
CELLSTYLE_BEGIN
 90
        1
 91
        1
300
_TITLE
309
CELLSTYLE_END
300
CELLSTYLE
  1
TABLEFORMAT_BEGIN
 90
        5
170
     1
 91
        0
 92
        0
 62
   257
 93
        1
300
CONTENTFORMAT
  1
CONTENTFORMAT_BEGIN
 90
        0
 91
        0
 92
      512
 93
        0
300

 40
0.0
140
1.0
 94
        5
 62
     0
340
11
144
4.5
309
CONTENTFORMAT_END
171
     1
301
MARGIN
  1
CELLMARGIN_BEGIN
 40
1.5
 40
1.5
 40
1.5
 40
1.5
 40
0.18
 40
0.18
309
CELLMARGIN_END
 94
        6
 95
        1
302
GRIDFORMAT
  1
GRIDFORMAT_BEGIN
 90
        0
 91
        1
 62
     0
 92
       -2
340
0
 93
        0
 40
0.045
309
GRIDFORMAT_END
 95
        2
302
GRIDFORMAT
  1
GRIDFORMAT_BEGIN
 90
        0
 91
        1
 62
     0
 92
       -2
340
0
 93
        0
 40
0.045
309
GRIDFORMAT_END
 95
        4
302
GRIDFORMAT
  1
GRIDFORMAT_BEGIN
 90
        0
 91
        1
 62
     0
 92
       -2
340
0
 93
        0
 40
0.045
309
GRIDFORMAT_END
 95
        8
302
GRIDFORMAT
  1
GRIDFORMAT_BEGIN
 90
        0
 91
        1
 62
     0
 92
       -2
340
0
 93
        0
 40
0.045
309
GRIDFORMAT_END
 95
       16
302
GRIDFORMAT
  1
GRIDFORMAT_BEGIN
 90
        0
 91
        1
 62
     0
 92
       -2
340
0
 93
        0
 40
0.045
309
GRIDFORMAT_END
 95
       32
302
GRIDFORMAT
  1
GRIDFORMAT_BEGIN
 90
        0
 91
        1
 62
     0
 92
       -2
340
0
 93
        0
 40
0.045
309
GRIDFORMAT_END
309
TABLEFORMAT_END
  1
CELLSTYLE_BEGIN
 90
        2
 91
        1
300
_HEADER
309
CELLSTYLE_END
300
CELLSTYLE
  1
TABLEFORMAT_BEGIN
 90
        5
170
     1
 91
        0
 92
        0
 62
   257
 93
        1
300
CONTENTFORMAT
  1
CONTENTFORMAT_BEGIN
 90
        0
 91
        0
 92
      512
 93
        0
300

 40
0.0
140
1.0
 94
        2
 62
     0
340
11
144
4.5
309
CONTENTFORMAT_END
171
     1
301
MARGIN
  1
CELLMARGIN_BEGIN
 40
1.5
 40
1.5
 40
1.5
 40
1.5
 40
0.18
 40
0.18
309
CELLMARGIN_END
 94
        6
 95
        1
302
GRIDFORMAT
  1
GRIDFORMAT_BEGIN
 90
        0
 91
        1
 62
     0
 92
       -2
340
0
 93
        0
 40
0.045
309
GRIDFORMAT_END
 95
        2
302
GRIDFORMAT
  1
GRIDFORMAT_BEGIN
 90
        0
 91
        1
 62
     0
 92
       -2
340
0
 93
        0
 40
0.045
309
GRIDFORMAT_END
 95
        4
302
GRIDFORMAT
  1
GRIDFORMAT_BEGIN
 90
        0
 91
        1
 62
     0
 92
       -2
340
0
 93
        0
 40
0.045
309
GRIDFORMAT_END
 95
        8
302
GRIDFORMAT
  1
GRIDFORMAT_BEGIN
 90
        0
 91
        1
 62
     0
 92
       -2
340
0
 93
        0
 40
0.045
309
GRIDFORMAT_END
 95
       16
302
GRIDFORMAT
  1
GRIDFORMAT_BEGIN
 90
        0
 91
        1
 62
     0
 92
       -2
340
0
 93
        0
 40
0.045
309
GRIDFORMAT_END
 95
       32
302
GRIDFORMAT
  1
GRIDFORMAT_BEGIN
 90
        0
 91
        1
 62
     0
 92
       -2
340
0
 93
        0
 40
0.045
309
GRIDFORMAT_END
309
TABLEFORMAT_END
  1
CELLSTYLE_BEGIN
 90
        3
 91
        2
300
_DATA
309
CELLSTYLE_END
  0
ENDSEC
  0
EOF
