  0
SECTION
  2
HEADER
  9
$ACADVER
  1
AC1021
  9
$ACADMAINTVER
 70
    26
  9
$DWGCODEPAGE
  3
ANSI_932
  9
$LASTSAVEDBY
  1
Htm_Terada
  9
$CUSTOMPROPERTYTAG
  1
AmdtFileType
  9
$CUSTOMPROPERTY
  1
84
  9
$INSBASE
 10
0.0
 20
0.0
 30
0.0
  9
$EXTMIN
 10
238.6116059842898
 20
393.0595810516988
 30
-0.0000000349181948
  9
$EXTMAX
 10
860.6552151052229
 20
657.2670389909867
 30
0.0000000814935747
  9
$LIMMIN
 10
0.0000004785846386
 20
0.0000009234551612
  9
$LIMMAX
 10
1050.000000478584
 20
742.5000009234552
  9
$ORTHOMODE
 70
     0
  9
$REGENMODE
 70
     1
  9
$FILLMODE
 70
     1
  9
$QTEXTMODE
 70
     0
  9
$MIRRTEXT
 70
     1
  9
$LTSCALE
 40
2.5
  9
$ATTMODE
 70
     1
  9
$TEXTSIZE
 40
25.0
  9
$TRACEWID
 40
1.0
  9
$TEXTSTYLE
  7
SEISA
  9
$CLAYER
  8
AM_0 外形線1
  9
$CELTYPE
  6
ByLayer
  9
$CECOLOR
 62
   256
  9
$CELTSCALE
 40
1.0
  9
$DISPSILH
 70
     0
  9
$DIMSCALE
 40
2.5
  9
$DIMASZ
 40
2.5
  9
$DIMEXO
 40
0.625
  9
$DIMDLI
 40
10.0
  9
$DIMRND
 40
0.0
  9
$DIMDLE
 40
0.0
  9
$DIMEXE
 40
0.625
  9
$DIMTP
 40
0.1
  9
$DIMTM
 40
0.1
  9
$DIMTXT
 40
3.5
  9
$DIMCEN
 40
0.0
  9
$DIMTSZ
 40
0.0
  9
$DIMTOL
 70
     0
  9
$DIMLIM
 70
     0
  9
$DIMTIH
 70
     0
  9
$DIMTOH
 70
     0
  9
$DIMSE1
 70
     0
  9
$DIMSE2
 70
     0
  9
$DIMTAD
 70
     3
  9
$DIMZIN
 70
     8
  9
$DIMBLK
  1
Open30
  9
$DIMASO
 70
     1
  9
$DIMSHO
 70
     1
  9
$DIMPOST
  1

  9
$DIMAPOST
  1
"
  9
$DIMALT
 70
     0
  9
$DIMALTD
 70
     2
  9
$DIMALTF
 40
0.0393701
  9
$DIMLFAC
 40
1.0
  9
$DIMTOFL
 70
     1
  9
$DIMTVP
 40
0.0
  9
$DIMTIX
 70
     0
  9
$DIMSOXD
 70
     0
  9
$DIMSAH
 70
     0
  9
$DIMBLK1
  1

  9
$DIMBLK2
  1

  9
$DIMSTYLE
  2
SEISA
  9
$DIMCLRD
 70
     3
  9
$DIMCLRE
 70
     3
  9
$DIMCLRT
 70
     3
  9
$DIMTFAC
 40
0.71
  9
$DIMGAP
 40
1.5
  9
$DIMJUST
 70
     0
  9
$DIMSD1
 70
     0
  9
$DIMSD2
 70
     0
  9
$DIMTOLJ
 70
     0
  9
$DIMTZIN
 70
     0
  9
$DIMALTZ
 70
     0
  9
$DIMALTTZ
 70
     8
  9
$DIMUPT
 70
     0
  9
$DIMDEC
 70
     2
  9
$DIMTDEC
 70
     2
  9
$DIMALTU
 70
     2
  9
$DIMALTTD
 70
     2
  9
$DIMTXSTY
  7
SEISA
  9
$DIMAUNIT
 70
     0
  9
$DIMADEC
 70
     0
  9
$DIMALTRND
 40
0.0
  9
$DIMAZIN
 70
     2
  9
$DIMDSEP
 70
    46
  9
$DIMATFIT
 70
     3
  9
$DIMFRAC
 70
     0
  9
$DIMLDRBLK
  1
Open30
  9
$DIMLUNIT
 70
     2
  9
$DIMLWD
 70
    -1
  9
$DIMLWE
 70
    -1
  9
$DIMTMOVE
 70
     0
  9
$DIMFXL
 40
1.0
  9
$DIMFXLON
 70
     0
  9
$DIMJOGANG
 40
0.7853981633974483
  9
$DIMTFILL
 70
     0
  9
$DIMTFILLCLR
 70
     0
  9
$DIMARCSYM
 70
     1
  9
$DIMLTYPE
  6

  9
$DIMLTEX1
  6

  9
$DIMLTEX2
  6

  9
$LUNITS
 70
     2
  9
$LUPREC
 70
     2
  9
$SKETCHINC
 40
1.0
  9
$FILLETRAD
 40
0.4
  9
$AUNITS
 70
     0
  9
$AUPREC
 70
     0
  9
$MENU
  1
.
  9
$ELEVATION
 40
0.0
  9
$PELEVATION
 40
0.0
  9
$THICKNESS
 40
0.0
  9
$LIMCHECK
 70
     0
  9
$CHAMFERA
 40
1.0
  9
$CHAMFERB
 40
1.0
  9
$CHAMFERC
 40
0.5000000000001137
  9
$CHAMFERD
 40
0.7853981633973346
  9
$SKPOLY
 70
     0
  9
$TDCREATE
 40
2454963.599832095
  9
$TDUCREATE
 40
2454963.224832095
  9
$TDUPDATE
 40
2456479.581940637
  9
$TDUUPDATE
 40
2456479.206940636
  9
$TDINDWG
 40
0.4289986921
  9
$TDUSRTIMER
 40
0.4289981481
  9
$USRTIMER
 70
     1
  9
$ANGBASE
 50
0.0
  9
$ANGDIR
 70
     0
  9
$PDMODE
 70
     0
  9
$PDSIZE
 40
0.0
  9
$PLINEWID
 40
0.0
  9
$SPLFRAME
 70
     0
  9
$SPLINETYPE
 70
     6
  9
$SPLINESEGS
 70
     8
  9
$HANDSEED
  5
B4B2
  9
$SURFTAB1
 70
     6
  9
$SURFTAB2
 70
     6
  9
$SURFTYPE
 70
     6
  9
$SURFU
 70
     6
  9
$SURFV
 70
     6
  9
$UCSBASE
  2

  9
$UCSNAME
  2

  9
$UCSORG
 10
0.0
 20
0.0
 30
0.0
  9
$UCSXDIR
 10
1.0
 20
0.0
 30
0.0
  9
$UCSYDIR
 10
0.0
 20
1.0
 30
0.0
  9
$UCSORTHOREF
  2

  9
$UCSORTHOVIEW
 70
     0
  9
$UCSORGTOP
 10
0.0
 20
0.0
 30
0.0
  9
$UCSORGBOTTOM
 10
0.0
 20
0.0
 30
0.0
  9
$UCSORGLEFT
 10
0.0
 20
0.0
 30
0.0
  9
$UCSORGRIGHT
 10
0.0
 20
0.0
 30
0.0
  9
$UCSORGFRONT
 10
0.0
 20
0.0
 30
0.0
  9
$UCSORGBACK
 10
0.0
 20
0.0
 30
0.0
  9
$PUCSBASE
  2

  9
$PUCSNAME
  2

  9
$PUCSORG
 10
0.0
 20
0.0
 30
0.0
  9
$PUCSXDIR
 10
1.0
 20
0.0
 30
0.0
  9
$PUCSYDIR
 10
0.0
 20
1.0
 30
0.0
  9
$PUCSORTHOREF
  2

  9
$PUCSORTHOVIEW
 70
     0
  9
$PUCSORGTOP
 10
0.0
 20
0.0
 30
0.0
  9
$PUCSORGBOTTOM
 10
0.0
 20
0.0
 30
0.0
  9
$PUCSORGLEFT
 10
0.0
 20
0.0
 30
0.0
  9
$PUCSORGRIGHT
 10
0.0
 20
0.0
 30
0.0
  9
$PUCSORGFRONT
 10
0.0
 20
0.0
 30
0.0
  9
$PUCSORGBACK
 10
0.0
 20
0.0
 30
0.0
  9
$USERI1
 70
     0
  9
$USERI2
 70
     0
  9
$USERI3
 70
     0
  9
$USERI4
 70
     0
  9
$USERI5
 70
     0
  9
$USERR1
 40
0.0
  9
$USERR2
 40
0.0
  9
$USERR3
 40
0.0
  9
$USERR4
 40
0.0
  9
$USERR5
 40
0.0
  9
$WORLDVIEW
 70
     1
  9
$SHADEDGE
 70
     3
  9
$SHADEDIF
 70
    70
  9
$TILEMODE
 70
     1
  9
$MAXACTVP
 70
    64
  9
$PINSBASE
 10
0.0
 20
0.0
 30
0.0
  9
$PLIMCHECK
 70
     0
  9
$PEXTMIN
 10
1.000000000000000E+20
 20
1.000000000000000E+20
 30
1.000000000000000E+20
  9
$PEXTMAX
 10
-1.000000000000000E+20
 20
-1.000000000000000E+20
 30
-1.000000000000000E+20
  9
$PLIMMIN
 10
0.0
 20
0.0
  9
$PLIMMAX
 10
420.0
 20
297.0
  9
$UNITMODE
 70
     0
  9
$VISRETAIN
 70
     1
  9
$PLINEGEN
 70
     0
  9
$PSLTSCALE
 70
     1
  9
$TREEDEPTH
 70
  3020
  9
$CMLSTYLE
  2
Standard
  9
$CMLJUST
 70
     0
  9
$CMLSCALE
 40
20.0
  9
$PROXYGRAPHICS
 70
     1
  9
$MEASUREMENT
 70
     1
  9
$CELWEIGHT
370
    -1
  9
$ENDCAPS
280
     0
  9
$JOINSTYLE
280
     0
  9
$LWDISPLAY
290
     0
  9
$INSUNITS
 70
     4
  9
$HYPERLINKBASE
  1

  9
$STYLESHEET
  1
SEISA.CTB
  9
$XEDIT
290
     1
  9
$CEPSNTYPE
380
     0
  9
$PSTYLEMODE
290
     1
  9
$FINGERPRINTGUID
  2
{96278447-C799-441E-BEFA-DD44824F8A1F}
  9
$VERSIONGUID
  2
{B40E6727-B468-42B5-AA85-34E8AC209933}
  9
$EXTNAMES
290
     1
  9
$PSVPSCALE
 40
0.0
  9
$OLESTARTUP
290
     0
  9
$SORTENTS
280
   127
  9
$INDEXCTL
280
     0
  9
$HIDETEXT
280
     0
  9
$XCLIPFRAME
290
     0
  9
$HALOGAP
280
     0
  9
$OBSCOLOR
 70
   257
  9
$OBSLTYPE
280
     0
  9
$INTERSECTIONDISPLAY
280
     0
  9
$INTERSECTIONCOLOR
 70
   257
  9
$DIMASSOC
280
     2
  9
$PROJECTNAME
  1

  9
$CAMERADISPLAY
290
     0
  9
$LENSLENGTH
 40
50.0
  9
$CAMERAHEIGHT
 40
0.0
  9
$STEPSPERSEC
 40
2.0
  9
$STEPSIZE
 40
6.0
  9
$3DDWFPREC
 40
2.0
  9
$PSOLWIDTH
 40
0.25
  9
$PSOLHEIGHT
 40
4.0
  9
$LOFTANG1
 40
1.570796326794896
  9
$LOFTANG2
 40
1.570796326794896
  9
$LOFTMAG1
 40
0.0
  9
$LOFTMAG2
 40
0.0
  9
$LOFTPARAM
 70
     7
  9
$LOFTNORMALS
280
     1
  9
$LATITUDE
 40
37.795
  9
$LONGITUDE
 40
-122.394
  9
$NORTHDIRECTION
 40
0.0
  9
$TIMEZONE
 70
 -8000
  9
$LIGHTGLYPHDISPLAY
280
     1
  9
$TILEMODELIGHTSYNCH
280
     1
  9
$CMATERIAL
347
27C
  9
$SOLIDHIST
280
     1
  9
$SHOWHIST
280
     1
  9
$DWFFRAME
280
     2
  9
$DGNFRAME
280
     0
  9
$REALWORLDSCALE
290
     1
  9
$INTERFERECOLOR
 62
     1
  9
$INTERFEREOBJVS
345
289
  9
$INTERFEREVPVS
346
286
  9
$CSHADOW
280
     0
  9
$SHADOWPLANELOCATION
 40
0.0
  0
ENDSEC
  0
SECTION
  2
CLASSES
  0
CLASS
  1
ACDBDICTIONARYWDFLT
  2
AcDbDictionaryWithDefault
  3
ObjectDBX Classes
 90
        0
 91
        1
280
     0
281
     0
  0
CLASS
  1
AMGSETTINGSOBJ
  2
AmgSettingsObj
  3
"AcadM|Product Description: AutoCAD Mechanical|Company: Autodesk, Inc."
 90
     1024
 91
        2
280
     0
281
     0
  0
CLASS
  1
ACME_DOCUMENT
  2
AcMeDbDoc
  3
AcMeServices
 90
     1024
 91
        1
280
     0
281
     0
  0
CLASS
  1
ACMESCOPE
  2
AcMeScope
  3
AcMeServices
 90
     1024
 91
        1
280
     0
281
     0
  0
CLASS
  1
ACMECOMMANDHISTORY
  2
AcMeCommandHistory
  3
AcMeServices
 90
     1024
 91
        1
280
     0
281
     0
  0
CLASS
  1
DICTIONARYVAR
  2
AcDbDictionaryVar
  3
ObjectDBX Classes
 90
        0
 91
        9
280
     0
281
     0
  0
CLASS
  1
ACIMSYSVARMAN
  2
AcImSysVarManager
  3
AcMeServices
 90
     1024
 91
        5
280
     0
281
     0
  0
CLASS
  1
ACIMREALSYSVAR
  2
AcImRealSysVar
  3
AcMeServices
 90
     1024
 91
        1
280
     0
281
     0
  0
CLASS
  1
ACIMINTSYSVAR
  2
AcImIntSysVar
  3
AcMeServices
 90
     1024
 91
       27
280
     0
281
     0
  0
CLASS
  1
ACMEDRAWINGMAN
  2
AcMeDrawingMan
  3
AcMeServices
 90
     1024
 91
        1
280
     0
281
     0
  0
CLASS
  1
ACMEVIEW
  2
AcMeView
  3
AcMeServices
 90
     1024
 91
        1
280
     0
281
     0
  0
CLASS
  1
ACDBENTITYCACHE
  2
AcMeEntityCache
  3
AcMeServices
 90
     1024
 91
        1
280
     0
281
     0
  0
CLASS
  1
GSMANAGER
  2
AcMeGSManager
  3
AcMeServices
 90
     1024
 91
        1
280
     0
281
     0
  0
CLASS
  1
AMDTINTERNALREACTOR
  2
AmdtInternalReactor
  3
AcMeServices
 90
     1024
 91
        2
280
     0
281
     0
  0
CLASS
  1
ACMESTATEMGR
  2
AcMeStateMgr
  3
AcMeServices
 90
     1024
 91
        1
280
     0
281
     0
  0
CLASS
  1
ACGREFMASTER
  2
AcGrefMaster
  3
AcAttribServices
 90
     1024
 91
        1
280
     0
281
     0
  0
CLASS
  1
ACME_DATABASE
  2
AcMeDbDatabase
  3
AcMeServices
 90
     1024
 91
        1
280
     0
281
     0
  0
CLASS
  1
ACRFINSADJUSTERMGR
  2
AcRfInsAdjusterMgr
  3
AcMeServices
 90
     1024
 91
        1
280
     0
281
     0
  0
CLASS
  1
ACGREFACADMASTER
  2
AcGrefacadMaster
  3
AcGrefServices
 90
     1024
 91
        1
280
     0
281
     0
  0
CLASS
  1
AMIMASTER
  2
AmiMaster
  3
AmiServices
 90
     1024
 91
        1
280
     0
281
     0
  0
CLASS
  1
ACIMSTRSYSVAR
  2
AcImStrSysVar
  3
AcMeServices
 90
     1024
 91
        5
280
     0
281
     0
  0
CLASS
  1
ACMSTANDARDJIS
  2
AcmStandardJIS
  3
"Amdt_StdImp|Product Description: AutoCAD Mechanical|Company: Autodesk, Inc."
 90
     1024
 91
        0
280
     0
281
     0
  0
CLASS
  1
AMGOBJPROPCFG
  2
AmgObjPropCfg
  3
"AmgLay|Product Description: AutoCAD Mechanical|Company: Autodesk, Inc."
 90
     1025
 91
        1
280
     0
281
     0
  0
CLASS
  1
ACMSURFSTANDARDJIS
  2
AcmSurfTextStdJIS
  3
"Amdt_StdImp|Product Description: AutoCAD Mechanical|Company: Autodesk, Inc."
 90
     1024
 91
        0
280
     0
281
     0
  0
CLASS
  1
ACMFCFSTANDARDJIS
  2
AcmFCFStdJIS
  3
"Amdt_StdImp|Product Description: AutoCAD Mechanical|Company: Autodesk, Inc."
 90
     1024
 91
        0
280
     0
281
     0
  0
CLASS
  1
ACMWELDSTANDARDJIS
  2
AcmWeldingStdJIS
  3
"Amdt_StdImp|Product Description: AutoCAD Mechanical|Company: Autodesk, Inc."
 90
     1024
 91
        0
280
     0
281
     0
  0
CLASS
  1
ACMIDSTANDARDJIS
  2
AcmIdStdJIS
  3
"Amdt_StdImp|Product Description: AutoCAD Mechanical|Company: Autodesk, Inc."
 90
     1024
 91
        0
280
     0
281
     0
  0
CLASS
  1
ACMDATUMSTANDARDJIS
  2
AcmDatumStdJIS
  3
"Amdt_StdImp|Product Description: AutoCAD Mechanical|Company: Autodesk, Inc."
 90
     1024
 91
        0
280
     0
281
     0
  0
CLASS
  1
ACMBOMSTANDARDJIS
  2
AcmBOMStdJIS
  3
"Amdt_StdImp|Product Description: AutoCAD Mechanical|Company: Autodesk, Inc."
 90
     1024
 91
        0
280
     0
281
     0
  0
CLASS
  1
ACMDETAILSTANDARDJIS
  2
AmdtDetailSymStdJIS
  3
"Amdt_StdImp|Product Description: AutoCAD Mechanical|Company: Autodesk, Inc."
 90
     1024
 91
        0
280
     0
281
     0
  0
CLASS
  1
ACMSECTIONSTANDARDJIS
  2
AmdtSectionSymStdJIS
  3
"Amdt_StdImp|Product Description: AutoCAD Mechanical|Company: Autodesk, Inc."
 90
     1024
 91
        0
280
     0
281
     0
  0
CLASS
  1
ACMCENTERLINESTANDARDJIS
  2
AmdtCenterLineStdJIS
  3
"Amdt_StdImp|Product Description: AutoCAD Mechanical|Company: Autodesk, Inc."
 90
     1024
 91
        0
280
     0
281
     0
  0
CLASS
  1
ACMTHREADLINESTANDARDJIS
  2
AmdtThreadLineStdJIS
  3
"Amdt_StdImp|Product Description: AutoCAD Mechanical|Company: Autodesk, Inc."
 90
     1024
 91
        0
280
     0
281
     0
  0
CLASS
  1
ACAMGLAYSTD
  2
AcAmgLayStd
  3
"AmgLay|Product Description: AutoCAD Mechanical|Company: Autodesk, Inc."
 90
     1024
 91
        1
280
     0
281
     0
  0
CLASS
  1
ACAMGDIMSTD
  2
AcAmgDimStd
  3
"AmgDim|Product Description: AutoCAD Mechanical|Company: Autodesk, Inc."
 90
     1024
 91
        1
280
     0
281
     0
  0
CLASS
  1
ACAMGTITLESTD
  2
AcAmgTitleStd
  3
"AmgTitle|Product Description: AutoCAD Mechanical|Company: Autodesk, Inc."
 90
     4095
 91
        1
280
     0
281
     0
  0
CLASS
  1
ACMDATADICTIONARY
  2
AcmDataDictionary
  3
"AcmSymBB|Product Description: AutoCAD Mechanical|Company: Autodesk, Inc."
 90
     1024
 91
        1
280
     0
281
     0
  0
CLASS
  1
ACMDATAENTRYBLOCK
  2
AcmDataEntryBlock
  3
AcmSymBB|Product Description: AutoCAD Mechanical|Company: Autodesk, Inc.
 90
     1024
 91
        0
280
     0
281
     0
  0
CLASS
  1
LAYER_INDEX
  2
AcDbLayerIndex
  3
ObjectDBX Classes
 90
        0
 91
        0
280
     0
281
     0
  0
CLASS
  1
IDBUFFER
  2
AcDbIdBuffer
  3
ObjectDBX Classes
 90
        0
 91
        0
280
     0
281
     0
  0
CLASS
  1
ACMNOTESTANDARDJIS
  2
AmdtNoteStdJIS
  3
"Amdt_StdImp|Product Description: AutoCAD Mechanical|Company: Autodesk, Inc."
 90
     1024
 91
        0
280
     0
281
     0
  0
CLASS
  1
ACAMGHOLECHARTSTDJIS
  2
AcAmgHoleChartStdJIS
  3
AmgDim|Product Description: AutoCAD Mechanical|Company: Autodesk, Inc.
 90
     1024
 91
        0
280
     0
281
     0
  0
CLASS
  1
AM_DRAWING_MGR
  2
AcDmDwgMgr
  3
AcMechDwgViewMgmt
 90
     1024
 91
        1
280
     0
281
     0
  0
CLASS
  1
AM_DWG_DOCUMENT
  2
AcDmDwgDocument
  3
AcMechDwgViewMgmt
 90
     1024
 91
        1
280
     0
281
     0
  0
CLASS
  1
AM_DWG_SHEET
  2
AcDmSheet
  3
AcMechDwgViewMgmt
 90
     1024
 91
        2
280
     0
281
     0
  0
CLASS
  1
AM_VIEWDIMPARMAP
  2
AcDmViewDimParMap
  3
AcMechDwgViewMgmt
 90
     1024
 91
        2
280
     0
281
     0
  0
CLASS
  1
AM_DWGMGR_NAME
  2
AcDmDwgMgrName
  3
AcMechDwgViewMgmt
 90
     1024
 91
        1
280
     0
281
     0
  0
CLASS
  1
AMDTMENUSTATEMGR
  2
AmdtMenuStateMgr
  3
McadcomServices
 90
     1024
 91
        1
280
     0
281
     0
  0
CLASS
  1
AMDTMCOMMENUSTATE
  2
AmdtMcomMenuState
  3
McadcomServices
 90
     1024
 91
        1
280
     0
281
     0
  0
CLASS
  1
MAPIAMMOUDLE
  2
MApiAmModule
  3
MApiAmServices
 90
     1024
 91
        1
280
     0
281
     0
  0
CLASS
  1
AMDTADMENUSTATE
  2
AmdtAdMenuState
  3
DesignerServices
 90
     1024
 91
        1
280
     0
281
     0
  0
CLASS
  1
ADAPPL
  2
AcAdAppl
  3
DesignerServices
 90
     1024
 91
        1
280
     0
281
     0
  0
CLASS
  1
DEPMGR
  2
AcAdDepMgr
  3
DesignerServices
 90
     1024
 91
        1
280
     0
281
     0
  0
CLASS
  1
PARAMMGR
  2
AcAdParamMgr
  3
DesignerServices
 90
     1024
 91
        1
280
     0
281
     0
  0
CLASS
  1
PARAMSCOPE
  2
AcAdParamScope
  3
DesignerServices
 90
     1024
 91
        1
280
     0
281
     0
  0
CLASS
  1
NAMEDAPPL
  2
AcAdNamedAppl
  3
DesignerServices
 90
     1024
 91
        1
280
     0
281
     0
  0
CLASS
  1
AMDTDMMENUSTATE
  2
AmdtDmMenuState
  3
AcMechDwgViewMgmt
 90
     1024
 91
        1
280
     0
281
     0
  0
CLASS
  1
AMDTAMMENUSTATE
  2
AmdtAmMenuState
  3
DesignerAssemblies
 90
     1024
 91
        1
280
     0
281
     0
  0
CLASS
  1
ACAMPROJECT
  2
AcAmProject
  3
DesignerAssemblies
 90
     1024
 91
        1
280
     0
281
     0
  0
CLASS
  1
ACAMGRCOMPDEF
  2
AcAmGrCompDef
  3
DesignerAssemblies
 90
     1024
 91
        1
280
     0
281
     0
  0
CLASS
  1
ACCMCONTEXT
  2
AcCmContext
  3
DesignerAssemblies
 90
     1024
 91
        1
280
     0
281
     0
  0
CLASS
  1
ACAMCOMPDEF
  2
AcAmCompDef
  3
DesignerAssemblies
 90
     1024
 91
        1
280
     0
281
     0
  0
CLASS
  1
ACAMCOMPDEFMGR
  2
AcAmCompDefMgr
  3
DesignerAssemblies
 90
     1024
 91
        1
280
     0
281
     0
  0
CLASS
  1
AMCONTEXTMGR
  2
AcAmContextMgr
  3
DesignerAssemblies
 90
     1024
 91
        1
280
     0
281
     0
  0
CLASS
  1
ACAMCONTEXTMODELER
  2
AcAmContextModeler
  3
DesignerAssemblies
 90
     1024
 91
        1
280
     0
281
     0
  0
CLASS
  1
CATALOGSTATE
  2
AcAmCatalogState
  3
DesignerAssemblies
 90
     1024
 91
        1
280
     0
281
     0
  0
CLASS
  1
ACAMGRCOMPDEFSET
  2
AcAmGrCompDefSet
  3
DesignerAssemblies
 90
     1024
 91
        1
280
     0
281
     0
  0
CLASS
  1
AMDTBROWSERDBTAB
  2
AmdtBrowserDbTab
  3
McadcomServices
 90
     1024
 91
        1
280
     0
281
     0
  0
CLASS
  1
CBROWSERAPPOBJECT
  2
CBrowserAppObject
  3
McadcomServices
 90
     1024
 91
        3
280
     0
281
     0
  0
CLASS
  1
DM_PLACEHOLDER
  2
AcDmSelsetPlaceholder
  3
AcMechDwgViewMgmt
 90
     1024
 91
        1
280
     0
281
     0
  0
CLASS
  1
TABLESTYLE
  2
AcDbTableStyle
  3
ObjectDBX Classes
 90
     4095
 91
        1
280
     0
281
     0
  0
CLASS
  1
VAACXREFPANELOBJECT
  2
VaAcXREFPanelObject
  3
VAAC_ADDIN
 90
        0
 91
        0
280
     0
281
     0
  0
CLASS
  1
VAACIMAGEINVENTORY
  2
VaAcImageInventory
  3
VAAC_ADDIN
 90
        0
 91
        0
280
     0
281
     0
  0
CLASS
  1
AMDTNOTETEMPLATEDB
  2
AmdtNoteTemplateDB
  3
AcmSymBB|Product Description: AutoCAD Mechanical|Company: Autodesk, Inc.
 90
     1024
 91
        6
280
     0
281
     0
  0
CLASS
  1
ACAMGFILTERDAT
  2
AcAmgFilterDat
  3
"AcadM|Product Description: AutoCAD Mechanical|Company: Autodesk, Inc."
 90
     1024
 91
        0
280
     0
281
     0
  0
CLASS
  1
MATERIAL
  2
AcDbMaterial
  3
ObjectDBX Classes
 90
     1153
 91
        3
280
     0
281
     0
  0
CLASS
  1
VISUALSTYLE
  2
AcDbVisualStyle
  3
ObjectDBX Classes
 90
     4095
 91
       16
280
     0
281
     0
  0
CLASS
  1
ACRFATTGENMGR
  2
AcRfAttGeneralMgr
  3
AcAttribServices
 90
     1024
 91
        0
280
     0
281
     0
  0
CLASS
  1
ACRFOBJATTMGR
  2
AcRfObjAttGroupMgr
  3
AcAttribServices
 90
     1024
 91
        0
280
     0
281
     0
  0
CLASS
  1
ACRFMCADAPIATTHOLDER
  2
AcRfMCADAPIAttHolder
  3
AcAttribServices
 90
     1024
 91
        0
280
     0
281
     0
  0
CLASS
  1
AMDTSYSATTR
  2
AmdtSystemAttribute
  3
AcAttribServices
 90
     1024
 91
        0
280
     0
281
     0
  0
CLASS
  1
ACMTAPERSTANDARDJIS
  2
AcmTaperStdJIS
  3
"Amdt_StdImp|Product Description: AutoCAD Mechanical|Company: Autodesk, Inc."
 90
     1024
 91
        0
280
     0
281
     0
  0
CLASS
  1
CAMSSTRUCTBTNSTATE
  2
StructBtnState
  3
DesignerAssemblies
 90
     1024
 91
        0
280
     0
281
     0
  0
CLASS
  1
SCALE
  2
AcDbScale
  3
ObjectDBX Classes
 90
     1153
 91
       35
280
     0
281
     0
  0
CLASS
  1
MLEADERSTYLE
  2
AcDbMLeaderStyle
  3
ACDB_MLEADERSTYLE_CLASS
 90
     4095
 91
        1
280
     0
281
     0
  0
CLASS
  1
ACMANOOTATIONVIEWSTANDARDJIS
  2
AmdtAnViewStdJIS
  3
"Amdt_StdImp|Product Description: AutoCAD Mechanical|Company: Autodesk, Inc."
 90
     1024
 91
        0
280
     0
281
     0
  0
CLASS
  1
ACMSURFSTANDARDJIS2003
  2
AcmSurfTextStdJIS2003
  3
"Amdt_StdImp|Product Description: AutoCAD Mechanical|Company: Autodesk, Inc."
 90
     1024
 91
        0
280
     0
281
     0
  0
CLASS
  1
CELLSTYLEMAP
  2
AcDbCellStyleMap
  3
ObjectDBX Classes
 90
     1152
 91
        2
280
     0
281
     0
  0
CLASS
  1
ACMFCFSTANDARDJIS98
  2
AcmFCFStdJIS98
  3
"Amdt_StdImp|Product Description: AutoCAD Mechanical|Company: Autodesk, Inc."
 90
     1024
 91
        0
280
     0
281
     0
  0
CLASS
  1
SORTENTSTABLE
  2
AcDbSortentsTable
  3
ObjectDBX Classes
 90
        0
 91
       13
280
     0
281
     0
  0
CLASS
  1
DIMASSOC
  2
AcDbDimAssoc
  3
"AcDbDimAssoc|Product Desc:     AcDim ARX App For Dimension|Company:          Autodesk, Inc.|WEB Address:      www.autodesk.com"
 90
        0
 91
       19
280
     0
281
     0
  0
CLASS
  1
STDPART2D
  2
AmgStdPart
  3
AmgStdPart|Product Description: AutoCAD Mechanical|Company: Autodesk, Inc.
 90
     4095
 91
        0
280
     0
281
     1
  0
CLASS
  1
ACMDATAENTRYPART
  2
AcmDataEntryPart
  3
AcmSymBB|Product Description: AutoCAD Mechanical|Company: Autodesk, Inc.
 90
     1024
 91
        0
280
     0
281
     0
  0
CLASS
  1
ACMPARTREF
  2
AcmPartRef
  3
"AcmSymBB|Product Description: AutoCAD Mechanical|Company: Autodesk, Inc."
 90
     4095
 91
        0
280
     0
281
     1
  0
CLASS
  1
ACDBSTDPARTRES_LINE
  2
AcDbStdPartRes_Line
  3
AmgStdPart|Product Description: AutoCAD Mechanical|Company: Autodesk, Inc.
 90
     1024
 91
        0
280
     0
281
     0
  0
CLASS
  1
ACMBOM
  2
AcmBom
  3
"AcmSymBB|Product Description: AutoCAD Mechanical|Company: Autodesk, Inc."
 90
     1024
 91
        0
280
     0
281
     0
  0
CLASS
  1
AMDTFORMULAUPDATEDISPATCHER
  2
AmdtFormulaUpdateDispatcher
  3
AcMeServices
 90
     1024
 91
        0
280
     0
281
     0
  0
CLASS
  1
ACMBOMROW
  2
AcmBomRow
  3
"AcmSymBB|Product Description: AutoCAD Mechanical|Company: Autodesk, Inc."
 90
     1024
 91
        0
280
     0
281
     0
  0
CLASS
  1
ACMPARTLIST
  2
AcmPartList
  3
"AcmSymBB|Product Description: AutoCAD Mechanical|Company: Autodesk, Inc."
 90
     4095
 91
        0
280
     0
281
     1
  0
CLASS
  1
ACDBLINERES
  2
AcDbLineRes
  3
AcGrefServices
 90
     1024
 91
        0
280
     0
281
     0
  0
CLASS
  1
ACRFINSADJ
  2
AcRfInsAdjuster
  3
AcMeServices
 90
     1024
 91
        0
280
     0
281
     0
  0
CLASS
  1
ACMSTANDARDISO
  2
AcmStandardISO
  3
"Amdt_StdImp|Product Description: AutoCAD Mechanical|Company: Autodesk, Inc."
 90
     1024
 91
        1
280
     0
281
     0
  0
CLASS
  1
AMDTEDGESTANDARDISO13715
  2
AmdtEdgeStdISO13715
  3
"Amdt_StdImp|Product Description: AutoCAD Mechanical|Company: Autodesk, Inc."
 90
     1024
 91
        1
280
     0
281
     0
  0
CLASS
  1
ACMSURFSTANDARDISO2002
  2
AcmSurfTextStdISO2002
  3
"Amdt_StdImp|Product Description: AutoCAD Mechanical|Company: Autodesk, Inc."
 90
     1024
 91
        1
280
     0
281
     0
  0
CLASS
  1
ACMFCFSTANDARDISO
  2
AcmFCFStdISO
  3
"Amdt_StdImp|Product Description: AutoCAD Mechanical|Company: Autodesk, Inc."
 90
     1024
 91
        1
280
     0
281
     0
  0
CLASS
  1
ACMWELDSTANDARDISO
  2
AcmWeldingStdISO
  3
"Amdt_StdImp|Product Description: AutoCAD Mechanical|Company: Autodesk, Inc."
 90
     1024
 91
        1
280
     0
281
     0
  0
CLASS
  1
ACMIDSTANDARDISO
  2
AcmIdStdISO
  3
"Amdt_StdImp|Product Description: AutoCAD Mechanical|Company: Autodesk, Inc."
 90
     1024
 91
        1
280
     0
281
     0
  0
CLASS
  1
ACMDATUMSTANDARDISO
  2
AcmDatumStdISO
  3
"Amdt_StdImp|Product Description: AutoCAD Mechanical|Company: Autodesk, Inc."
 90
     1024
 91
        1
280
     0
281
     0
  0
CLASS
  1
ACMBOMSTANDARDISO
  2
AcmBOMStdISO
  3
"Amdt_StdImp|Product Description: AutoCAD Mechanical|Company: Autodesk, Inc."
 90
     1024
 91
        1
280
     0
281
     0
  0
CLASS
  1
ACMDETAILSTANDARDISO
  2
AmdtDetailSymStdISO
  3
"Amdt_StdImp|Product Description: AutoCAD Mechanical|Company: Autodesk, Inc."
 90
     1024
 91
        1
280
     0
281
     0
  0
CLASS
  1
ACMSECTIONSTANDARDISO2001
  2
AmdtSectionSymStdISO2001
  3
"Amdt_StdImp|Product Description: AutoCAD Mechanical|Company: Autodesk, Inc."
 90
     1024
 91
        1
280
     0
281
     0
  0
CLASS
  1
ACMCENTERLINESTANDARDISO
  2
AmdtCenterLineStdISO
  3
"Amdt_StdImp|Product Description: AutoCAD Mechanical|Company: Autodesk, Inc."
 90
     1024
 91
        1
280
     0
281
     0
  0
CLASS
  1
ACMTHREADLINESTANDARDISO
  2
AmdtThreadLineStdISO
  3
"Amdt_StdImp|Product Description: AutoCAD Mechanical|Company: Autodesk, Inc."
 90
     1024
 91
        1
280
     0
281
     0
  0
CLASS
  1
ACMNOTESTANDARDISO
  2
AmdtNoteStdISO
  3
"Amdt_StdImp|Product Description: AutoCAD Mechanical|Company: Autodesk, Inc."
 90
     1024
 91
        1
280
     0
281
     0
  0
CLASS
  1
ACMTAPERSTANDARDISO
  2
AcmTaperStdISO
  3
"Amdt_StdImp|Product Description: AutoCAD Mechanical|Company: Autodesk, Inc."
 90
     1024
 91
        1
280
     0
281
     0
  0
CLASS
  1
ACMANOOTATIONVIEWSTANDARDISO
  2
AmdtAnViewStdISO
  3
"Amdt_StdImp|Product Description: AutoCAD Mechanical|Company: Autodesk, Inc."
 90
     1024
 91
        1
280
     0
281
     0
  0
CLASS
  1
ACAMGHOLECHARTSTDISO
  2
AcAmgHoleChartStdISO
  3
AmgDim|Product Description: AutoCAD Mechanical|Company: Autodesk, Inc.
 90
     1024
 91
        1
280
     0
281
     0
  0
CLASS
  1
EXACXREFPANELOBJECT
  2
ExAcXREFPanelObject
  3
EXAC_ESW
 90
     1025
 91
        0
280
     0
281
     0
  0
CLASS
  1
NPOCOLLECTION
  2
AcDbImpNonPersistentObjectsCollection
  3
ObjectDBX Classes
 90
     1153
 91
        0
280
     0
281
     0
  0
CLASS
  1
ACDBSTDPARTRES_ARC
  2
AcDbStdPartRes_Arc
  3
AmgStdPart|Product Description: AutoCAD Mechanical|Company: Autodesk, Inc.
 90
     1024
 91
        0
280
     0
281
     0
  0
CLASS
  1
AMDTNOTE
  2
AmdtNote
  3
"AcmSymBB|Product Description: AutoCAD Mechanical|Company: Autodesk, Inc."
 90
     4095
 91
        0
280
     0
281
     1
  0
CLASS
  1
PLOTSETTINGS
  2
AcDbPlotSettings
  3
ObjectDBX Classes
 90
        0
 91
        1
280
     0
281
     0
  0
CLASS
  1
ACMSTANDARDANSI
  2
AcmStandardANSI
  3
"Amdt_StdImp|Product Description: AutoCAD Mechanical|Company: Autodesk, Inc."
 90
     1024
 91
        0
280
     0
281
     0
  0
CLASS
  1
ACMSURFSTANDARDANSI
  2
AcmSurfTextStdANSI
  3
"Amdt_StdImp|Product Description: AutoCAD Mechanical|Company: Autodesk, Inc."
 90
     1024
 91
        0
280
     0
281
     0
  0
CLASS
  1
ACMFCFSTANDARDANSI
  2
AcmFCFStdANSI
  3
"Amdt_StdImp|Product Description: AutoCAD Mechanical|Company: Autodesk, Inc."
 90
     1024
 91
        0
280
     0
281
     0
  0
CLASS
  1
ACMWELDSTANDARDANSI
  2
AcmWeldingStdANSI
  3
"Amdt_StdImp|Product Description: AutoCAD Mechanical|Company: Autodesk, Inc."
 90
     1024
 91
        0
280
     0
281
     0
  0
CLASS
  1
ACMIDSTANDARDANSI
  2
AcmIdStdANSI
  3
"Amdt_StdImp|Product Description: AutoCAD Mechanical|Company: Autodesk, Inc."
 90
     1024
 91
        0
280
     0
281
     0
  0
CLASS
  1
ACMDATUMSTANDARDANSI
  2
AcmDatumStdANSI
  3
"Amdt_StdImp|Product Description: AutoCAD Mechanical|Company: Autodesk, Inc."
 90
     1024
 91
        0
280
     0
281
     0
  0
CLASS
  1
ACMBOMSTANDARDANSI
  2
AcmBOMStdANSI
  3
"Amdt_StdImp|Product Description: AutoCAD Mechanical|Company: Autodesk, Inc."
 90
     1024
 91
        0
280
     0
281
     0
  0
CLASS
  1
ACMDETAILSTANDARDANSI
  2
AmdtDetailSymStdANSI
  3
"Amdt_StdImp|Product Description: AutoCAD Mechanical|Company: Autodesk, Inc."
 90
     1024
 91
        0
280
     0
281
     0
  0
CLASS
  1
ACMSECTIONSTANDARDANSI
  2
AmdtSectionSymStdANSI
  3
"Amdt_StdImp|Product Description: AutoCAD Mechanical|Company: Autodesk, Inc."
 90
     1024
 91
        0
280
     0
281
     0
  0
CLASS
  1
ACMCENTERLINESTANDARDANSI
  2
AmdtCenterLineStdANSI
  3
"Amdt_StdImp|Product Description: AutoCAD Mechanical|Company: Autodesk, Inc."
 90
     1024
 91
        0
280
     0
281
     0
  0
CLASS
  1
ACMTHREADLINESTANDARDANSI
  2
AmdtThreadLineStdANSI
  3
"Amdt_StdImp|Product Description: AutoCAD Mechanical|Company: Autodesk, Inc."
 90
     1024
 91
        0
280
     0
281
     0
  0
CLASS
  1
ACMNOTESTANDARDANSI
  2
AmdtNoteStdANSI
  3
"Amdt_StdImp|Product Description: AutoCAD Mechanical|Company: Autodesk, Inc."
 90
     1024
 91
        0
280
     0
281
     0
  0
CLASS
  1
ACMTAPERSTANDARDANSI
  2
AcmTaperStdANSI
  3
"Amdt_StdImp|Product Description: AutoCAD Mechanical|Company: Autodesk, Inc."
 90
     1024
 91
        0
280
     0
281
     0
  0
CLASS
  1
ACMANOOTATIONVIEWSTANDARDANSI
  2
AmdtAnViewStdANSI
  3
"Amdt_StdImp|Product Description: AutoCAD Mechanical|Company: Autodesk, Inc."
 90
     1024
 91
        0
280
     0
281
     0
  0
CLASS
  1
ACAMGHOLECHARTSTDANSI
  2
AcAmgHoleChartStdANSI
  3
AmgDim|Product Description: AutoCAD Mechanical|Company: Autodesk, Inc.
 90
     1024
 91
        0
280
     0
281
     0
  0
CLASS
  1
ACMSTANDARDBSI
  2
AcmStandardBSI
  3
"Amdt_StdImp|Product Description: AutoCAD Mechanical|Company: Autodesk, Inc."
 90
     1024
 91
        0
280
     0
281
     0
  0
CLASS
  1
ACMSURFSTANDARDBSI2002
  2
AcmSurfTextStdBSI2002
  3
"Amdt_StdImp|Product Description: AutoCAD Mechanical|Company: Autodesk, Inc."
 90
     1024
 91
        0
280
     0
281
     0
  0
CLASS
  1
ACMFCFSTANDARDBSI
  2
AcmFCFStdBSI
  3
"Amdt_StdImp|Product Description: AutoCAD Mechanical|Company: Autodesk, Inc."
 90
     1024
 91
        0
280
     0
281
     0
  0
CLASS
  1
ACMWELDSTANDARDBSI
  2
AcmWeldingStdBSI
  3
"Amdt_StdImp|Product Description: AutoCAD Mechanical|Company: Autodesk, Inc."
 90
     1024
 91
        0
280
     0
281
     0
  0
CLASS
  1
ACMIDSTANDARDBSI
  2
AcmIdStdBSI
  3
"Amdt_StdImp|Product Description: AutoCAD Mechanical|Company: Autodesk, Inc."
 90
     1024
 91
        0
280
     0
281
     0
  0
CLASS
  1
ACMDATUMSTANDARDBSI
  2
AcmDatumStdBSI
  3
"Amdt_StdImp|Product Description: AutoCAD Mechanical|Company: Autodesk, Inc."
 90
     1024
 91
        0
280
     0
281
     0
  0
CLASS
  1
ACMBOMSTANDARDBSI
  2
AcmBOMStdBSI
  3
"Amdt_StdImp|Product Description: AutoCAD Mechanical|Company: Autodesk, Inc."
 90
     1024
 91
        0
280
     0
281
     0
  0
CLASS
  1
ACMDETAILSTANDARDBSI
  2
AmdtDetailSymStdBSI
  3
"Amdt_StdImp|Product Description: AutoCAD Mechanical|Company: Autodesk, Inc."
 90
     1024
 91
        0
280
     0
281
     0
  0
CLASS
  1
ACMSECTIONSTANDARDBSI2001
  2
AmdtSectionSymStdBSI2001
  3
"Amdt_StdImp|Product Description: AutoCAD Mechanical|Company: Autodesk, Inc."
 90
     1024
 91
        0
280
     0
281
     0
  0
CLASS
  1
ACMCENTERLINESTANDARDBSI
  2
AmdtCenterLineStdBSI
  3
"Amdt_StdImp|Product Description: AutoCAD Mechanical|Company: Autodesk, Inc."
 90
     1024
 91
        0
280
     0
281
     0
  0
CLASS
  1
ACMTHREADLINESTANDARDBSI
  2
AmdtThreadLineStdBSI
  3
"Amdt_StdImp|Product Description: AutoCAD Mechanical|Company: Autodesk, Inc."
 90
     1024
 91
        0
280
     0
281
     0
  0
CLASS
  1
ACMNOTESTANDARDBSI
  2
AmdtNoteStdBSI
  3
"Amdt_StdImp|Product Description: AutoCAD Mechanical|Company: Autodesk, Inc."
 90
     1024
 91
        0
280
     0
281
     0
  0
CLASS
  1
ACMTAPERSTANDARDBSI
  2
AcmTaperStdBSI
  3
"Amdt_StdImp|Product Description: AutoCAD Mechanical|Company: Autodesk, Inc."
 90
     1024
 91
        0
280
     0
281
     0
  0
CLASS
  1
ACMANOOTATIONVIEWSTANDARDBSI
  2
AmdtAnViewStdBSI
  3
"Amdt_StdImp|Product Description: AutoCAD Mechanical|Company: Autodesk, Inc."
 90
     1024
 91
        0
280
     0
281
     0
  0
CLASS
  1
ACAMGHOLECHARTSTDBSI
  2
AcAmgHoleChartStdBSI
  3
AmgDim|Product Description: AutoCAD Mechanical|Company: Autodesk, Inc.
 90
     1024
 91
        0
280
     0
281
     0
  0
CLASS
  1
AMDTEDGESTANDARDJIS
  2
AmdtEdgeStdJIS
  3
"Amdt_StdImp|Product Description: AutoCAD Mechanical|Company: Autodesk, Inc."
 90
     1024
 91
        0
280
     0
281
     0
  0
CLASS
  1
ACMSURFSYM
  2
AcmSurfaceTexture
  3
"AcmSymBB|Product Description: AutoCAD Mechanical|Company: Autodesk, Inc."
 90
     4095
 91
        0
280
     0
281
     1
  0
CLASS
  1
ACDBDIMENSIONRES
  2
AcDbDimensionRes
  3
AcmSymBB|Product Description: AutoCAD Mechanical|Company: Autodesk, Inc.
 90
     1024
 91
        0
280
     0
281
     0
  0
CLASS
  1
ACDBCIRCARCRES
  2
AcDbCircArcRes
  3
AcGrefServices
 90
     1024
 91
        0
280
     0
281
     0
  0
CLASS
  1
ACMDIMBREAKPERSREACTOR
  2
AcmDimBreakPersReactor
  3
AmgDim|Product Description: AutoCAD Mechanical|Company: Autodesk, Inc.
 90
     4095
 91
        0
280
     0
281
     0
  0
CLASS
  1
ACDBOPPOLYLINERES
  2
AcDbOpPolylineRes
  3
AcGrefServices
 90
     1024
 91
        0
280
     0
281
     0
  0
CLASS
  1
AMDTACMWBLOCKBOMENTITY
  2
AmdtAcmWblockBomEntity
  3
"AcmSymBB|Product Description: AutoCAD Mechanical|Company: Autodesk, Inc."
 90
     4095
 91
        0
280
     0
281
     1
  0
CLASS
  1
ACDB_BLKREFOBJECTCONTEXTDATA_CLASS
  2
AcDbBlkRefObjectContextData
  3
ObjectDBX Classes
 90
     1153
 91
        0
280
     0
281
     0
  0
CLASS
  1
ACMPICKOBJ
  2
AcmPickEnt
  3
"AcmSymBB|Product Description: AutoCAD Mechanical|Company: Autodesk, Inc."
 90
     1024
 91
        0
280
     0
281
     1
  0
CLASS
  1
ACDBELLIPSERES
  2
AcDbEllipseRes
  3
AcGrefServices
 90
     1024
 91
        0
280
     0
281
     0
  0
CLASS
  1
ACMBALLOON
  2
AcmBalloon
  3
"AcmSymBB|Product Description: AutoCAD Mechanical|Company: Autodesk, Inc."
 90
     4095
 91
        0
280
     0
281
     1
  0
CLASS
  1
BREAKDATA
  2
AcDbBreakData
  3
ObjectDBX Classes
 90
     1024
 91
        0
280
     0
281
     0
  0
CLASS
  1
ACMFCFRAME
  2
AcmFCF
  3
"AcmSymBB|Product Description: AutoCAD Mechanical|Company: Autodesk, Inc."
 90
     4095
 91
        0
280
     0
281
     1
  0
CLASS
  1
ACMDATUMID
  2
AcmDatumId
  3
"AcmSymBB|Product Description: AutoCAD Mechanical|Company: Autodesk, Inc."
 90
     4095
 91
        0
280
     0
281
     1
  0
CLASS
  1
ACMWELDSYM
  2
AcmWelding
  3
"AcmSymBB|Product Description: AutoCAD Mechanical|Company: Autodesk, Inc."
 90
     4095
 91
        0
280
     0
281
     1
  0
ENDSEC
  0
SECTION
  2
TABLES
  0
TABLE
  2
VPORT
  5
8
330
0
100
AcDbSymbolTable
 70
     1
  0
VPORT
  5
27A
330
8
100
AcDbSymbolTableRecord
100
AcDbViewportTableRecord
  2
*Active
 70
     0
 10
0.0
 20
0.0
 11
1.0
 21
1.0
 12
549.6334105447563
 22
525.1633100213427
 13
0.0
 23
0.0
 14
6.25
 24
6.25
 15
25.0
 25
25.0
 16
0.0
 26
0.0
 36
1.0
 17
0.0
 27
0.0
 37
0.0
 40
397.7712983565443
 41
1.571428571428571
 42
50.0
 43
0.0
 44
0.0
 50
0.0
 51
0.0
 71
    16
 72
 20000
 73
     1
 74
     3
 75
     0
 76
     0
 77
     0
 78
     0
281
     0
 65
     0
110
0.0
120
0.0
130
0.0
111
1.0
121
0.0
131
0.0
112
0.0
122
1.0
132
0.0
 79
     0
146
0.0
348
285
 60
     3
 61
     5
292
     1
282
     0
141
0.0
142
0.0
 63
   250
421
  3355443
  0
ENDTAB
  0
TABLE
  2
LTYPE
  5
5
330
0
100
AcDbSymbolTable
 70
    22
  0
LTYPE
  5
14
330
5
100
AcDbSymbolTableRecord
100
AcDbLinetypeTableRecord
  2
ByBlock
 70
     0
  3

 72
    65
 73
     0
 40
0.0
  0
LTYPE
  5
15
330
5
100
AcDbSymbolTableRecord
100
AcDbLinetypeTableRecord
  2
ByLayer
 70
     0
  3

 72
    65
 73
     0
 40
0.0
  0
LTYPE
  5
16
330
5
100
AcDbSymbolTableRecord
100
AcDbLinetypeTableRecord
  2
Continuous
 70
     0
  3
Solid line
 72
    65
 73
     0
 40
0.0
  0
LTYPE
  5
4D
330
5
100
AcDbSymbolTableRecord
100
AcDbLinetypeTableRecord
  2
AM_ISO02W050
 70
     0
  3
__ __ __ __ __ __ __ __ __ __ __ __ __ __ __
 72
    65
 73
     2
 40
7.5
 49
6.0
 74
     0
 49
-1.5
 74
     0
  0
LTYPE
  5
4E
330
5
100
AcDbSymbolTableRecord
100
AcDbLinetypeTableRecord
  2
AM_ISO08W050
 70
     0
  3
____ . ____ . ____ . ____ . ____ . ____ . ____
 72
    65
 73
     4
 40
18.0
 49
12.0
 74
     0
 49
-1.5
 74
     0
 49
3.0
 74
     0
 49
-1.5
 74
     0
  0
LTYPE
  5
4F
330
5
100
AcDbSymbolTableRecord
100
AcDbLinetypeTableRecord
  2
AM_ISO09W050
 70
     0
  3
_____ . . _____ . . _____ . . ____ .. ____
 72
    65
 73
     6
 40
22.5
 49
12.0
 74
     0
 49
-1.5
 74
     0
 49
3.0
 74
     0
 49
-1.5
 74
     0
 49
3.0
 74
     0
 49
-1.5
 74
     0
  0
LTYPE
  5
50
330
5
100
AcDbSymbolTableRecord
100
AcDbLinetypeTableRecord
  2
Amconstr
 70
     0
  3
_______________________
 72
    65
 73
     2
 40
9999.0
 49
9999.0
 74
     0
 49
0.0
 74
     0
  0
LTYPE
  5
51
330
5
100
AcDbSymbolTableRecord
100
AcDbLinetypeTableRecord
  2
AM_ISO08W050x2
 70
     0
  3
__ . __ . __ . __ . __ . __
 72
    65
 73
     4
 40
9.0
 49
6.0
 74
     0
 49
-0.75
 74
     0
 49
1.5
 74
     0
 49
-0.75
 74
     0
  0
LTYPE
  5
52
330
5
100
AcDbSymbolTableRecord
100
AcDbLinetypeTableRecord
  2
AM_ISO02W050x2
 70
     0
  3
 _ _ _ _ _ _ _ _ _ _ _ _
 72
    65
 73
     2
 40
3.75
 49
3.0
 74
     0
 49
-0.75
 74
     0
  0
LTYPE
  5
55
330
5
100
AcDbSymbolTableRecord
100
AcDbLinetypeTableRecord
  2
Amzigzag
 70
     0
  3
/\/-/\/-/\/-/\/-/\/-/\/
 72
    65
 73
     2
 40
11.0001
 49
0.0001
 74
     4
 75
   136
340
23D
 46
0.04
 50
0.0
 44
0.0
 45
0.0
 49
-11.0
 74
     0
  0
LTYPE
  5
65
330
5
100
AcDbSymbolTableRecord
100
AcDbLinetypeTableRecord
  2
CENTER
 70
     0
  3
__ . __
 72
    65
 73
     4
 40
7.0
 49
4.0
 74
     0
 49
-1.0
 74
     0
 49
1.0
 74
     0
 49
-1.0
 74
     0
  0
LTYPE
  5
E0
330
5
100
AcDbSymbolTableRecord
100
AcDbLinetypeTableRecord
  2
HIDDEN
 70
     0
  3
Hidden __ __ __ __ __ __ __ __ __ __ __ __ __ _
 72
    65
 73
     2
 40
9.524999999999996
 49
6.349999999999998
 74
     0
 49
-3.174999999999998
 74
     0
  0
LTYPE
  5
E1
330
5
100
AcDbSymbolTableRecord
100
AcDbLinetypeTableRecord
  2
PHANTOM2
 70
     0
  3
Phantom (.5x) ___ _ _ ___ _ _ ___ _ _ ___ _ _
 72
    65
 73
     6
 40
31.75
 49
15.875
 74
     0
 49
-3.174999999999998
 74
     0
 49
3.174999999999998
 74
     0
 49
-3.174999999999998
 74
     0
 49
3.174999999999998
 74
     0
 49
-3.174999999999998
 74
     0
  0
LTYPE
  5
5A2
330
5
100
AcDbSymbolTableRecord
100
AcDbLinetypeTableRecord
  2
ACJISWELD
 70
     0
  3
_ _ _ _ _
 72
    65
 73
     2
 40
2.0
 49
2.0
 74
     0
 49
-1.0
 74
     0
  0
LTYPE
  5
B49D
330
5
100
AcDbSymbolTableRecord
100
AcDbLinetypeTableRecord
  2
ACISOWELD
 70
     0
  3
_ _ _ _ _
 72
    65
 73
     2
 40
2.0
 49
2.0
 74
     0
 49
-1.0
 74
     0
  0
LTYPE
  5
B49E
330
5
100
AcDbSymbolTableRecord
100
AcDbLinetypeTableRecord
  2
ACISOTGB
 70
     0
  3
__ . . __ . .
 72
    65
 73
     6
 40
9.0
 49
4.0
 74
     0
 49
-1.0
 74
     0
 49
1.0
 74
     0
 49
-1.0
 74
     0
 49
1.0
 74
     0
 49
-1.0
 74
     0
  0
LTYPE
  5
B49F
330
5
100
AcDbSymbolTableRecord
100
AcDbLinetypeTableRecord
  2
ACISOTGL
 70
     0
  3
_ _ _ _ _
 72
    65
 73
     2
 40
3.0
 49
2.0
 74
     0
 49
-1.0
 74
     0
  0
ENDTAB
  0
TABLE
  2
LAYER
  5
2
102
{ACAD_XDICTIONARY
360
BF
102
}
330
0
100
AcDbSymbolTable
 70
    11
  0
LAYER
  5
10
102
{ACAD_XDICTIONARY
360
29F7
102
}
330
2
100
AcDbSymbolTableRecord
100
AcDbLayerTableRecord
  2
0
 70
     0
 62
     7
  6
Continuous
370
    -3
390
F
347
27E
  0
LAYER
  5
81
102
{ACAD_XDICTIONARY
360
29F9
102
}
330
2
100
AcDbSymbolTableRecord
100
AcDbLayerTableRecord
  2
AM_0 外形線1
 70
     0
 62
     7
  6
Continuous
370
    25
390
F
347
27E
  0
LAYER
  5
427
330
2
100
AcDbSymbolTableRecord
100
AcDbLayerTableRecord
  2
Defpoints
 70
     0
 62
     7
  6
Continuous
290
     0
370
    -3
390
F
347
27E
  0
LAYER
  5
2E16
102
{ACAD_XDICTIONARY
360
2E17
102
}
330
2
100
AcDbSymbolTableRecord
100
AcDbLayerTableRecord
  2
AM_6 文字
 70
     0
 62
     2
  6
Continuous
370
    13
390
F
347
27E
1001
AcAecLayerStandard
1000

1000

  0
LAYER
  5
3D31
330
2
100
AcDbSymbolTableRecord
100
AcDbLayerTableRecord
  2
AM_5 寸法線
 70
     0
 62
     3
  6
Continuous
370
    13
390
F
347
27E
1001
AcAecLayerStandard
1000

1000

  0
LAYER
  5
3D32
330
2
100
AcDbSymbolTableRecord
100
AcDbLayerTableRecord
  2
AM_4 細線
 70
     0
 62
     4
  6
Continuous
370
    13
390
F
347
27E
1001
AcAecLayerStandard
1000

1000

  0
LAYER
  5
3D33
330
2
100
AcDbSymbolTableRecord
100
AcDbLayerTableRecord
  2
AM_7 中心線
 70
     0
 62
     1
  6
AM_ISO08W050
370
    13
390
F
347
27E
1001
AcAecLayerStandard
1000

1000

  0
LAYER
  5
3D34
330
2
100
AcDbSymbolTableRecord
100
AcDbLayerTableRecord
  2
AM_3 隠れ線
 70
     0
 62
     8
  6
ACJISWELD
370
    13
390
F
347
27E
1001
AcAecLayerStandard
1000

1000

  0
LAYER
  5
8C5D
102
{ACAD_XDICTIONARY
360
8C5E
102
}
330
2
100
AcDbSymbolTableRecord
100
AcDbLayerTableRecord
  2
AM_8 ハッチング
 70
     0
 62
     1
  6
Continuous
370
    13
390
F
347
27E
1001
AcAecLayerStandard
1000

1000

  0
LAYER
  5
AB89
330
2
100
AcDbSymbolTableRecord
100
AcDbLayerTableRecord
  2
AM_11 想像線
 70
     0
 62
     5
  6
AM_ISO09W050
370
    13
390
F
347
27E
1001
AcAecLayerStandard
1000

1000

  0
ENDTAB
  0
TABLE
  2
STYLE
  5
3
330
0
100
AcDbSymbolTable
 70
    11
  0
STYLE
  5
11
330
3
100
AcDbSymbolTableRecord
100
AcDbTextStyleTableRecord
  2
STANDARD
 70
     0
 40
0.0
 41
1.0
 50
0.0
 71
     0
 42
25.0
  3
ISOCP.SHX
  4
EXTFONT.SHX
  0
STYLE
  5
23D
330
3
100
AcDbSymbolTableRecord
100
AcDbTextStyleTableRecord
  2

 70
     1
 40
0.0
 41
1.0
 50
0.0
 71
     0
 42
2.5
  3
genltshp.shx
  4

  0
STYLE
  5
5D5
330
3
100
AcDbSymbolTableRecord
100
AcDbTextStyleTableRecord
  2
SEISA
 70
     0
 40
0.0
 41
0.9
 50
0.0
 71
     0
 42
25.0
  3
romans.shx
  4
extfont2.shx
  0
STYLE
  5
B48D
330
3
100
AcDbSymbolTableRecord
100
AcDbTextStyleTableRecord
  2
ACISOTS
 70
     0
 40
1.0
 41
1.0
 50
0.0
 71
     0
 42
25.0
  3
isocp.shx
  4
extfont.shx
  0
STYLE
  5
B49C
330
3
100
AcDbSymbolTableRecord
100
AcDbTextStyleTableRecord
  2
ACISOGDT
 70
     0
 40
0.0
 41
1.0
 50
0.0
 71
     0
 42
25.0
  3
amgdt.shx
  4

  0
ENDTAB
  0
TABLE
  2
VIEW
  5
6
330
0
100
AcDbSymbolTable
 70
     6
  0
VIEW
  5
91B
330
6
100
AcDbSymbolTableRecord
100
AcDbViewTableRecord
  2
AM_VIEW1
 70
     0
 40
371.25
 10
358.9054807741512
 20
556.8750009234552
 41
717.8109605911328
 11
0.0
 21
0.0
 31
1.0
 12
0.0
 22
0.0
 32
0.0
 42
50.0
 43
0.0
 44
0.0
 50
0.0
 71
    16
281
     0
 72
     0
 73
     0
  0
VIEW
  5
91C
330
6
100
AcDbSymbolTableRecord
100
AcDbViewTableRecord
  2
AM_VIEW2
 70
     0
 40
371.25
 10
691.0945201830181
 20
556.8750009234552
 41
717.8109605911328
 11
0.0
 21
0.0
 31
1.0
 12
0.0
 22
0.0
 32
0.0
 42
50.0
 43
0.0
 44
0.0
 50
0.0
 71
    16
281
     0
 72
     0
 73
     0
  0
VIEW
  5
91D
330
6
100
AcDbSymbolTableRecord
100
AcDbViewTableRecord
  2
AM_VIEW3
 70
     0
 40
371.25
 10
358.9054807741512
 20
185.6250009234551
 41
717.8109605911328
 11
0.0
 21
0.0
 31
1.0
 12
0.0
 22
0.0
 32
0.0
 42
50.0
 43
0.0
 44
0.0
 50
0.0
 71
    16
281
     0
 72
     0
 73
     0
  0
VIEW
  5
91E
330
6
100
AcDbSymbolTableRecord
100
AcDbViewTableRecord
  2
AM_VIEW4
 70
     0
 40
371.25
 10
691.0945201830181
 20
185.6250009234551
 41
717.8109605911328
 11
0.0
 21
0.0
 31
1.0
 12
0.0
 22
0.0
 32
0.0
 42
50.0
 43
0.0
 44
0.0
 50
0.0
 71
    16
281
     0
 72
     0
 73
     0
  0
VIEW
  5
91F
330
6
100
AcDbSymbolTableRecord
100
AcDbViewTableRecord
  2
AM_VIEW5
 70
     0
 40
371.2500000000002
 10
525.0000004785846
 20
371.2500009234552
 41
717.8109605911328
 11
0.0
 21
0.0
 31
1.0
 12
0.0
 22
0.0
 32
0.0
 42
50.0
 43
0.0
 44
0.0
 50
0.0
 71
    16
281
     0
 72
     0
 73
     0
  0
VIEW
  5
920
330
6
100
AcDbSymbolTableRecord
100
AcDbViewTableRecord
  2
AM_VIEW6
 70
     0
 40
742.4925749999998
 10
525.0000004785846
 20
371.2500009234551
 41
1435.607564963054
 11
0.0
 21
0.0
 31
1.0
 12
0.0
 22
0.0
 32
0.0
 42
50.0
 43
0.0
 44
0.0
 50
0.0
 71
    16
281
     0
 72
     0
 73
     0
  0
ENDTAB
  0
TABLE
  2
UCS
  5
7
330
0
100
AcDbSymbolTable
 70
     0
  0
ENDTAB
  0
TABLE
  2
APPID
  5
9
330
0
100
AcDbSymbolTable
 70
   392
  0
APPID
  5
12
330
9
100
AcDbSymbolTableRecord
100
AcDbRegAppTableRecord
  2
ACAD
 70
     0
  0
APPID
  5
30
330
9
100
AcDbSymbolTableRecord
100
AcDbRegAppTableRecord
  2
MCAD_NO_VIS
 70
     0
  0
APPID
  5
31
330
9
100
AcDbSymbolTableRecord
100
AcDbRegAppTableRecord
  2
ACAD_TEMP_GRAPHIC
 70
     0
  0
APPID
  5
44
330
9
100
AcDbSymbolTableRecord
100
AcDbRegAppTableRecord
  2
ACATTRIBSERVICES
 70
     0
  0
APPID
  5
F6
330
9
100
AcDbSymbolTableRecord
100
AcDbRegAppTableRecord
  2
AD_DRAW
 70
     0
  0
APPID
  5
114
330
9
100
AcDbSymbolTableRecord
100
AcDbRegAppTableRecord
  2
DESIGNERASSEMBLIES
 70
     0
  0
APPID
  5
118
330
9
100
AcDbSymbolTableRecord
100
AcDbRegAppTableRecord
  2
ACADM_DIM_EDIT
 70
     0
  0
APPID
  5
119
330
9
100
AcDbSymbolTableRecord
100
AcDbRegAppTableRecord
  2
AMDT_DM_ADJ
 70
     0
  0
APPID
  5
1AF
330
9
100
AcDbSymbolTableRecord
100
AcDbRegAppTableRecord
  2
ACAD_DSTYLE_DIMARC_LENGTH_SYMBOL
 70
     0
  0
APPID
  5
1B0
330
9
100
AcDbSymbolTableRecord
100
AcDbRegAppTableRecord
  2
ACAD_DSTYLE_DIMJOGGED_JOGANGLE_SYMBOL
 70
     0
  0
APPID
  5
2D7
330
9
100
AcDbSymbolTableRecord
100
AcDbRegAppTableRecord
  2
ACAD_MLEADERVER
 70
     0
  0
APPID
  5
355
330
9
100
AcDbSymbolTableRecord
100
AcDbRegAppTableRecord
  2
AcadAnnoPO
 70
     0
  0
APPID
  5
428
330
9
100
AcDbSymbolTableRecord
100
AcDbRegAppTableRecord
  2
ACAD_DSTYLE_DIMTEXT_FILL
 70
     0
  0
APPID
  5
429
330
9
100
AcDbSymbolTableRecord
100
AcDbRegAppTableRecord
  2
GENIUS_GENSCREG_15
 70
     0
  0
APPID
  5
42A
330
9
100
AcDbSymbolTableRecord
100
AcDbRegAppTableRecord
  2
GENIUS_GENOBJ-N-SDF_13
 70
     0
  0
APPID
  5
42B
330
9
100
AcDbSymbolTableRecord
100
AcDbRegAppTableRecord
  2
GENIUS_GENODEF_13
 70
     0
  0
APPID
  5
42C
330
9
100
AcDbSymbolTableRecord
100
AcDbRegAppTableRecord
  2
ACAD_EXEMPT_FROM_CAD_STANDARDS
 70
     0
  0
APPID
  5
42D
330
9
100
AcDbSymbolTableRecord
100
AcDbRegAppTableRecord
  2
AcAecLayerStandard
 70
     0
  0
APPID
  5
42E
330
9
100
AcDbSymbolTableRecord
100
AcDbRegAppTableRecord
  2
GENIUS_GENOBJ-N-CEN_13
 70
     0
  0
APPID
  5
42F
330
9
100
AcDbSymbolTableRecord
100
AcDbRegAppTableRecord
  2
GENIUS_GENCEN_19
 70
     0
  0
APPID
  5
430
330
9
100
AcDbSymbolTableRecord
100
AcDbRegAppTableRecord
  2
ACAD_DSTYLE_DIMINSPECT
 70
     0
  0
APPID
  5
431
330
9
100
AcDbSymbolTableRecord
100
AcDbRegAppTableRecord
  2
GENIUS_AMGTXT_16
 70
     0
  0
APPID
  5
432
330
9
100
AcDbSymbolTableRecord
100
AcDbRegAppTableRecord
  2
GENIUS_GENFIL_13
 70
     0
  0
APPID
  5
433
330
9
100
AcDbSymbolTableRecord
100
AcDbRegAppTableRecord
  2
GENIUS_GENOLIS_13
 70
     0
  0
APPID
  5
434
330
9
100
AcDbSymbolTableRecord
100
AcDbRegAppTableRecord
  2
GENIUS_GENOBJ-N-CHA_13
 70
     0
  0
APPID
  5
435
330
9
100
AcDbSymbolTableRecord
100
AcDbRegAppTableRecord
  2
GENIUS_GENOENT_13
 70
     0
  0
APPID
  5
436
330
9
100
AcDbSymbolTableRecord
100
AcDbRegAppTableRecord
  2
GENIUS_GENOREF_13
 70
     0
  0
APPID
  5
437
330
9
100
AcDbSymbolTableRecord
100
AcDbRegAppTableRecord
  2
GENIUS_GENOBJ-N-FIL_13
 70
     0
  0
APPID
  5
438
330
9
100
AcDbSymbolTableRecord
100
AcDbRegAppTableRecord
  2
GEVID1208829536
 70
     0
  0
APPID
  5
439
330
9
100
AcDbSymbolTableRecord
100
AcDbRegAppTableRecord
  2
GEVDC
 70
     0
  0
APPID
  5
43A
330
9
100
AcDbSymbolTableRecord
100
AcDbRegAppTableRecord
  2
GEVRADREF
 70
     0
  0
APPID
  5
43B
330
9
100
AcDbSymbolTableRecord
100
AcDbRegAppTableRecord
  2
GENIUS_GENBH_13
 70
     0
  0
APPID
  5
43C
330
9
100
AcDbSymbolTableRecord
100
AcDbRegAppTableRecord
  2
GENIUS_GENOBJ-NBEHI-BHF_13
 70
     0
  0
APPID
  5
43D
330
9
100
AcDbSymbolTableRecord
100
AcDbRegAppTableRecord
  2
GENIUS_GENOBJ-NBEHI-BHB_13
 70
     0
  0
APPID
  5
43E
330
9
100
AcDbSymbolTableRecord
100
AcDbRegAppTableRecord
  2
GEVID1208829537
 70
     0
  0
APPID
  5
43F
330
9
100
AcDbSymbolTableRecord
100
AcDbRegAppTableRecord
  2
ACAD_DSTYLE_DIMJAG
 70
     0
  0
APPID
  5
440
330
9
100
AcDbSymbolTableRecord
100
AcDbRegAppTableRecord
  2
ACAD_DSTYLE_DIMTALN
 70
     0
  0
APPID
  5
441
330
9
100
AcDbSymbolTableRecord
100
AcDbRegAppTableRecord
  2
AMG_2DHIDE
 70
     0
  0
APPID
  5
442
330
9
100
AcDbSymbolTableRecord
100
AcDbRegAppTableRecord
  2
AMG_2DSTRUCT_BTR
 70
     0
  0
APPID
  5
443
330
9
100
AcDbSymbolTableRecord
100
AcDbRegAppTableRecord
  2
GEVID1208845772
 70
     0
  0
APPID
  5
444
330
9
100
AcDbSymbolTableRecord
100
AcDbRegAppTableRecord
  2
GEVID1208845773
 70
     0
  0
APPID
  5
445
330
9
100
AcDbSymbolTableRecord
100
AcDbRegAppTableRecord
  2
ACADM_2DVIEW_IGN_NOTIFY
 70
     0
  0
APPID
  5
446
330
9
100
AcDbSymbolTableRecord
100
AcDbRegAppTableRecord
  2
GEVID1208845774
 70
     0
  0
APPID
  5
447
330
9
100
AcDbSymbolTableRecord
100
AcDbRegAppTableRecord
  2
GEVID1208845775
 70
     0
  0
APPID
  5
448
330
9
100
AcDbSymbolTableRecord
100
AcDbRegAppTableRecord
  2
GEVID1208845776
 70
     0
  0
APPID
  5
449
330
9
100
AcDbSymbolTableRecord
100
AcDbRegAppTableRecord
  2
GEVID1208845777
 70
     0
  0
APPID
  5
44A
330
9
100
AcDbSymbolTableRecord
100
AcDbRegAppTableRecord
  2
GEVCON
 70
     0
  0
APPID
  5
44B
330
9
100
AcDbSymbolTableRecord
100
AcDbRegAppTableRecord
  2
GENIUS_GENOBJ-F-SCPASSM_13
 70
     0
  0
APPID
  5
44C
330
9
100
AcDbSymbolTableRecord
100
AcDbRegAppTableRecord
  2
GEVID1208845778
 70
     0
  0
APPID
  5
44D
330
9
100
AcDbSymbolTableRecord
100
AcDbRegAppTableRecord
  2
GEVID1208845779
 70
     0
  0
APPID
  5
44E
330
9
100
AcDbSymbolTableRecord
100
AcDbRegAppTableRecord
  2
GEVID1208845780
 70
     0
  0
APPID
  5
44F
330
9
100
AcDbSymbolTableRecord
100
AcDbRegAppTableRecord
  2
GEVID1208845781
 70
     0
  0
APPID
  5
450
330
9
100
AcDbSymbolTableRecord
100
AcDbRegAppTableRecord
  2
GEVID1208845782
 70
     0
  0
APPID
  5
451
330
9
100
AcDbSymbolTableRecord
100
AcDbRegAppTableRecord
  2
GEVID1208845783
 70
     0
  0
APPID
  5
452
330
9
100
AcDbSymbolTableRecord
100
AcDbRegAppTableRecord
  2
GEVID1208845784
 70
     0
  0
APPID
  5
453
330
9
100
AcDbSymbolTableRecord
100
AcDbRegAppTableRecord
  2
GEVID1208845785
 70
     0
  0
APPID
  5
454
330
9
100
AcDbSymbolTableRecord
100
AcDbRegAppTableRecord
  2
GEVID1208845787
 70
     0
  0
APPID
  5
455
330
9
100
AcDbSymbolTableRecord
100
AcDbRegAppTableRecord
  2
GEVID1208845788
 70
     0
  0
APPID
  5
456
330
9
100
AcDbSymbolTableRecord
100
AcDbRegAppTableRecord
  2
GEVID1208845789
 70
     0
  0
APPID
  5
457
330
9
100
AcDbSymbolTableRecord
100
AcDbRegAppTableRecord
  2
GEVID1208845790
 70
     0
  0
APPID
  5
458
330
9
100
AcDbSymbolTableRecord
100
AcDbRegAppTableRecord
  2
GEVID1208845791
 70
     0
  0
APPID
  5
459
330
9
100
AcDbSymbolTableRecord
100
AcDbRegAppTableRecord
  2
GEVID1208845792
 70
     0
  0
APPID
  5
45A
330
9
100
AcDbSymbolTableRecord
100
AcDbRegAppTableRecord
  2
GEVID1208845793
 70
     0
  0
APPID
  5
45B
330
9
100
AcDbSymbolTableRecord
100
AcDbRegAppTableRecord
  2
GEVID1208845794
 70
     0
  0
APPID
  5
45C
330
9
100
AcDbSymbolTableRecord
100
AcDbRegAppTableRecord
  2
GEVID1208845795
 70
     0
  0
APPID
  5
45D
330
9
100
AcDbSymbolTableRecord
100
AcDbRegAppTableRecord
  2
GEVID1208845796
 70
     0
  0
APPID
  5
45E
330
9
100
AcDbSymbolTableRecord
100
AcDbRegAppTableRecord
  2
GEVID1208845797
 70
     0
  0
APPID
  5
45F
330
9
100
AcDbSymbolTableRecord
100
AcDbRegAppTableRecord
  2
GEVID1208845798
 70
     0
  0
APPID
  5
460
330
9
100
AcDbSymbolTableRecord
100
AcDbRegAppTableRecord
  2
GEVID1208845799
 70
     0
  0
APPID
  5
461
330
9
100
AcDbSymbolTableRecord
100
AcDbRegAppTableRecord
  2
GEVID1208845800
 70
     0
  0
APPID
  5
462
330
9
100
AcDbSymbolTableRecord
100
AcDbRegAppTableRecord
  2
GEVID1208845801
 70
     0
  0
APPID
  5
463
330
9
100
AcDbSymbolTableRecord
100
AcDbRegAppTableRecord
  2
GEVID1208845802
 70
     0
  0
APPID
  5
464
330
9
100
AcDbSymbolTableRecord
100
AcDbRegAppTableRecord
  2
GENIUS_GENOBJ-N-DIM_13
 70
     0
  0
APPID
  5
465
330
9
100
AcDbSymbolTableRecord
100
AcDbRegAppTableRecord
  2
GENIUS_GENDIM_13
 70
     0
  0
APPID
  5
466
330
9
100
AcDbSymbolTableRecord
100
AcDbRegAppTableRecord
  2
GENIUS_GENDIMSH_14
 70
     0
  0
APPID
  5
467
330
9
100
AcDbSymbolTableRecord
100
AcDbRegAppTableRecord
  2
GEVID1208845803
 70
     0
  0
APPID
  5
468
330
9
100
AcDbSymbolTableRecord
100
AcDbRegAppTableRecord
  2
GEVID1208845804
 70
     0
  0
APPID
  5
469
330
9
100
AcDbSymbolTableRecord
100
AcDbRegAppTableRecord
  2
GEVID1208845805
 70
     0
  0
APPID
  5
46A
330
9
100
AcDbSymbolTableRecord
100
AcDbRegAppTableRecord
  2
GEVID1208845806
 70
     0
  0
APPID
  5
46B
330
9
100
AcDbSymbolTableRecord
100
AcDbRegAppTableRecord
  2
GEVID1208845807
 70
     0
  0
APPID
  5
46C
330
9
100
AcDbSymbolTableRecord
100
AcDbRegAppTableRecord
  2
GEVID1208845808
 70
     0
  0
APPID
  5
46D
330
9
100
AcDbSymbolTableRecord
100
AcDbRegAppTableRecord
  2
GEVID1208845809
 70
     0
  0
APPID
  5
46E
330
9
100
AcDbSymbolTableRecord
100
AcDbRegAppTableRecord
  2
GEVID1208845810
 70
     0
  0
APPID
  5
46F
330
9
100
AcDbSymbolTableRecord
100
AcDbRegAppTableRecord
  2
GEVID1208845811
 70
     0
  0
APPID
  5
470
330
9
100
AcDbSymbolTableRecord
100
AcDbRegAppTableRecord
  2
GEVID1208845813
 70
     0
  0
APPID
  5
471
330
9
100
AcDbSymbolTableRecord
100
AcDbRegAppTableRecord
  2
GEVID1208845814
 70
     0
  0
APPID
  5
472
330
9
100
AcDbSymbolTableRecord
100
AcDbRegAppTableRecord
  2
GEVID1208845815
 70
     0
  0
APPID
  5
473
330
9
100
AcDbSymbolTableRecord
100
AcDbRegAppTableRecord
  2
GEVID1208845816
 70
     0
  0
APPID
  5
474
330
9
100
AcDbSymbolTableRecord
100
AcDbRegAppTableRecord
  2
GEVID1208845817
 70
     0
  0
APPID
  5
475
330
9
100
AcDbSymbolTableRecord
100
AcDbRegAppTableRecord
  2
GEVID1208845818
 70
     0
  0
APPID
  5
476
330
9
100
AcDbSymbolTableRecord
100
AcDbRegAppTableRecord
  2
GEVID1208845819
 70
     0
  0
APPID
  5
477
330
9
100
AcDbSymbolTableRecord
100
AcDbRegAppTableRecord
  2
GEVID1208845820
 70
     0
  0
APPID
  5
478
330
9
100
AcDbSymbolTableRecord
100
AcDbRegAppTableRecord
  2
GENIUS_GENOBJ-F-SHCL_13
 70
     0
  0
APPID
  5
479
330
9
100
AcDbSymbolTableRecord
100
AcDbRegAppTableRecord
  2
GENIUS_GEFMSH_13
 70
     0
  0
APPID
  5
47A
330
9
100
AcDbSymbolTableRecord
100
AcDbRegAppTableRecord
  2
GENIUS_GENOBJ-F-SHCA_13
 70
     0
  0
APPID
  5
47B
330
9
100
AcDbSymbolTableRecord
100
AcDbRegAppTableRecord
  2
GENIUS_GEFSH_13
 70
     0
  0
APPID
  5
47C
330
9
100
AcDbSymbolTableRecord
100
AcDbRegAppTableRecord
  2
GENIUS_GEFSHP_13
 70
     0
  0
APPID
  5
47D
330
9
100
AcDbSymbolTableRecord
100
AcDbRegAppTableRecord
  2
GENIUS_GEFSHP0_13
 70
     0
  0
APPID
  5
47E
330
9
100
AcDbSymbolTableRecord
100
AcDbRegAppTableRecord
  2
GENIUS_GEFSH0_13
 70
     0
  0
APPID
  5
47F
330
9
100
AcDbSymbolTableRecord
100
AcDbRegAppTableRecord
  2
GENIUS_GEFSHP1_13
 70
     0
  0
APPID
  5
480
330
9
100
AcDbSymbolTableRecord
100
AcDbRegAppTableRecord
  2
GENIUS_GEFSH1_13
 70
     0
  0
APPID
  5
481
330
9
100
AcDbSymbolTableRecord
100
AcDbRegAppTableRecord
  2
GEVID1208866337
 70
     0
  0
APPID
  5
482
330
9
100
AcDbSymbolTableRecord
100
AcDbRegAppTableRecord
  2
GEVID1208866338
 70
     0
  0
APPID
  5
483
330
9
100
AcDbSymbolTableRecord
100
AcDbRegAppTableRecord
  2
GEVID1208866339
 70
     0
  0
APPID
  5
484
330
9
100
AcDbSymbolTableRecord
100
AcDbRegAppTableRecord
  2
GEVID1208866340
 70
     0
  0
APPID
  5
485
330
9
100
AcDbSymbolTableRecord
100
AcDbRegAppTableRecord
  2
GEVID1208866341
 70
     0
  0
APPID
  5
486
330
9
100
AcDbSymbolTableRecord
100
AcDbRegAppTableRecord
  2
ACAD_PSEXT
 70
     0
  0
APPID
  5
487
330
9
100
AcDbSymbolTableRecord
100
AcDbRegAppTableRecord
  2
GEVID1208866342
 70
     0
  0
APPID
  5
488
330
9
100
AcDbSymbolTableRecord
100
AcDbRegAppTableRecord
  2
GEVID1208913836
 70
     0
  0
APPID
  5
489
330
9
100
AcDbSymbolTableRecord
100
AcDbRegAppTableRecord
  2
GEVID1208913837
 70
     0
  0
APPID
  5
48A
330
9
100
AcDbSymbolTableRecord
100
AcDbRegAppTableRecord
  2
GEVID1208913838
 70
     0
  0
APPID
  5
48B
330
9
100
AcDbSymbolTableRecord
100
AcDbRegAppTableRecord
  2
GEVID1208913839
 70
     0
  0
APPID
  5
48C
330
9
100
AcDbSymbolTableRecord
100
AcDbRegAppTableRecord
  2
GENIUS_GENDTOL_13
 70
     0
  0
APPID
  5
48D
330
9
100
AcDbSymbolTableRecord
100
AcDbRegAppTableRecord
  2
GEVID1208928889
 70
     0
  0
APPID
  5
48E
330
9
100
AcDbSymbolTableRecord
100
AcDbRegAppTableRecord
  2
GEVID1208928890
 70
     0
  0
APPID
  5
48F
330
9
100
AcDbSymbolTableRecord
100
AcDbRegAppTableRecord
  2
GEVID1208928891
 70
     0
  0
APPID
  5
490
330
9
100
AcDbSymbolTableRecord
100
AcDbRegAppTableRecord
  2
GEVID1208928892
 70
     0
  0
APPID
  5
491
330
9
100
AcDbSymbolTableRecord
100
AcDbRegAppTableRecord
  2
GEVID1208933827
 70
     0
  0
APPID
  5
492
330
9
100
AcDbSymbolTableRecord
100
AcDbRegAppTableRecord
  2
GEVID1208933829
 70
     0
  0
APPID
  5
493
330
9
100
AcDbSymbolTableRecord
100
AcDbRegAppTableRecord
  2
GEVID1208933830
 70
     0
  0
APPID
  5
494
330
9
100
AcDbSymbolTableRecord
100
AcDbRegAppTableRecord
  2
GEVID1208933831
 70
     0
  0
APPID
  5
495
330
9
100
AcDbSymbolTableRecord
100
AcDbRegAppTableRecord
  2
GEVID1208933832
 70
     0
  0
APPID
  5
496
330
9
100
AcDbSymbolTableRecord
100
AcDbRegAppTableRecord
  2
GEVID1208933833
 70
     0
  0
APPID
  5
497
330
9
100
AcDbSymbolTableRecord
100
AcDbRegAppTableRecord
  2
GEVID1208933834
 70
     0
  0
APPID
  5
498
330
9
100
AcDbSymbolTableRecord
100
AcDbRegAppTableRecord
  2
GEVID1208933835
 70
     0
  0
APPID
  5
499
330
9
100
AcDbSymbolTableRecord
100
AcDbRegAppTableRecord
  2
GEVID1208933836
 70
     0
  0
APPID
  5
49A
330
9
100
AcDbSymbolTableRecord
100
AcDbRegAppTableRecord
  2
GEVID1208933837
 70
     0
  0
APPID
  5
49B
330
9
100
AcDbSymbolTableRecord
100
AcDbRegAppTableRecord
  2
GEVID1208933838
 70
     0
  0
APPID
  5
49C
330
9
100
AcDbSymbolTableRecord
100
AcDbRegAppTableRecord
  2
GEVID1208933840
 70
     0
  0
APPID
  5
49D
330
9
100
AcDbSymbolTableRecord
100
AcDbRegAppTableRecord
  2
GEVID1208933842
 70
     0
  0
APPID
  5
49E
330
9
100
AcDbSymbolTableRecord
100
AcDbRegAppTableRecord
  2
GEVID1208933843
 70
     0
  0
APPID
  5
49F
330
9
100
AcDbSymbolTableRecord
100
AcDbRegAppTableRecord
  2
GEVID1208933844
 70
     0
  0
APPID
  5
4A0
330
9
100
AcDbSymbolTableRecord
100
AcDbRegAppTableRecord
  2
GEVID1208933845
 70
     0
  0
APPID
  5
4A1
330
9
100
AcDbSymbolTableRecord
100
AcDbRegAppTableRecord
  2
GEVID1208933846
 70
     0
  0
APPID
  5
4A2
330
9
100
AcDbSymbolTableRecord
100
AcDbRegAppTableRecord
  2
GEVID1208933847
 70
     0
  0
APPID
  5
4A3
330
9
100
AcDbSymbolTableRecord
100
AcDbRegAppTableRecord
  2
GEVID1208933848
 70
     0
  0
APPID
  5
4A4
330
9
100
AcDbSymbolTableRecord
100
AcDbRegAppTableRecord
  2
GEVID1208933849
 70
     0
  0
APPID
  5
4A5
330
9
100
AcDbSymbolTableRecord
100
AcDbRegAppTableRecord
  2
GEVID1208933850
 70
     0
  0
APPID
  5
4A6
330
9
100
AcDbSymbolTableRecord
100
AcDbRegAppTableRecord
  2
GEVID1208933851
 70
     0
  0
APPID
  5
4A7
330
9
100
AcDbSymbolTableRecord
100
AcDbRegAppTableRecord
  2
GEVID1208933852
 70
     0
  0
APPID
  5
4A8
330
9
100
AcDbSymbolTableRecord
100
AcDbRegAppTableRecord
  2
GEVID1208933853
 70
     0
  0
APPID
  5
4A9
330
9
100
AcDbSymbolTableRecord
100
AcDbRegAppTableRecord
  2
GEVID1208933854
 70
     0
  0
APPID
  5
4AA
330
9
100
AcDbSymbolTableRecord
100
AcDbRegAppTableRecord
  2
GEVID1208933855
 70
     0
  0
APPID
  5
4AB
330
9
100
AcDbSymbolTableRecord
100
AcDbRegAppTableRecord
  2
GEVID1208933856
 70
     0
  0
APPID
  5
4AC
330
9
100
AcDbSymbolTableRecord
100
AcDbRegAppTableRecord
  2
GEVID1208933857
 70
     0
  0
APPID
  5
4AD
330
9
100
AcDbSymbolTableRecord
100
AcDbRegAppTableRecord
  2
GEVID1208933858
 70
     0
  0
APPID
  5
4AE
330
9
100
AcDbSymbolTableRecord
100
AcDbRegAppTableRecord
  2
GEVID1208933859
 70
     0
  0
APPID
  5
4AF
330
9
100
AcDbSymbolTableRecord
100
AcDbRegAppTableRecord
  2
GEVID1208933860
 70
     0
  0
APPID
  5
4B0
330
9
100
AcDbSymbolTableRecord
100
AcDbRegAppTableRecord
  2
GEVID1208933861
 70
     0
  0
APPID
  5
4B1
330
9
100
AcDbSymbolTableRecord
100
AcDbRegAppTableRecord
  2
GEVID1208933862
 70
     0
  0
APPID
  5
4B2
330
9
100
AcDbSymbolTableRecord
100
AcDbRegAppTableRecord
  2
GEVID1208933863
 70
     0
  0
APPID
  5
4B3
330
9
100
AcDbSymbolTableRecord
100
AcDbRegAppTableRecord
  2
GEVID1208933864
 70
     0
  0
APPID
  5
4B4
330
9
100
AcDbSymbolTableRecord
100
AcDbRegAppTableRecord
  2
GEVID1208933865
 70
     0
  0
APPID
  5
4B5
330
9
100
AcDbSymbolTableRecord
100
AcDbRegAppTableRecord
  2
GEVID1208933866
 70
     0
  0
APPID
  5
4B6
330
9
100
AcDbSymbolTableRecord
100
AcDbRegAppTableRecord
  2
GEVID1208933867
 70
     0
  0
APPID
  5
4B7
330
9
100
AcDbSymbolTableRecord
100
AcDbRegAppTableRecord
  2
GEVID1208933868
 70
     0
  0
APPID
  5
4B8
330
9
100
AcDbSymbolTableRecord
100
AcDbRegAppTableRecord
  2
GEVID1208933869
 70
     0
  0
APPID
  5
4B9
330
9
100
AcDbSymbolTableRecord
100
AcDbRegAppTableRecord
  2
GEVID1208933870
 70
     0
  0
APPID
  5
4BA
330
9
100
AcDbSymbolTableRecord
100
AcDbRegAppTableRecord
  2
GEVID1208933871
 70
     0
  0
APPID
  5
4BB
330
9
100
AcDbSymbolTableRecord
100
AcDbRegAppTableRecord
  2
GEVID1208933872
 70
     0
  0
APPID
  5
4BC
330
9
100
AcDbSymbolTableRecord
100
AcDbRegAppTableRecord
  2
GEVID1208933873
 70
     0
  0
APPID
  5
4BD
330
9
100
AcDbSymbolTableRecord
100
AcDbRegAppTableRecord
  2
GEVID1208933874
 70
     0
  0
APPID
  5
4BE
330
9
100
AcDbSymbolTableRecord
100
AcDbRegAppTableRecord
  2
GEVID1208933875
 70
     0
  0
APPID
  5
4BF
330
9
100
AcDbSymbolTableRecord
100
AcDbRegAppTableRecord
  2
GEVID1208933876
 70
     0
  0
APPID
  5
4C0
330
9
100
AcDbSymbolTableRecord
100
AcDbRegAppTableRecord
  2
ACAD_DSTYLE_DIMRADIAL_EXTENSION
 70
     0
  0
APPID
  5
4C1
330
9
100
AcDbSymbolTableRecord
100
AcDbRegAppTableRecord
  2
GEVID1208999100
 70
     0
  0
APPID
  5
4C2
330
9
100
AcDbSymbolTableRecord
100
AcDbRegAppTableRecord
  2
GEVID1208999101
 70
     0
  0
APPID
  5
4C3
330
9
100
AcDbSymbolTableRecord
100
AcDbRegAppTableRecord
  2
GEVID1208999102
 70
     0
  0
APPID
  5
4C4
330
9
100
AcDbSymbolTableRecord
100
AcDbRegAppTableRecord
  2
GEVID1208999103
 70
     0
  0
APPID
  5
4C5
330
9
100
AcDbSymbolTableRecord
100
AcDbRegAppTableRecord
  2
GEVID1208999105
 70
     0
  0
APPID
  5
4C6
330
9
100
AcDbSymbolTableRecord
100
AcDbRegAppTableRecord
  2
GEVID1208999106
 70
     0
  0
APPID
  5
4C7
330
9
100
AcDbSymbolTableRecord
100
AcDbRegAppTableRecord
  2
GEVID1208999108
 70
     0
  0
APPID
  5
4C8
330
9
100
AcDbSymbolTableRecord
100
AcDbRegAppTableRecord
  2
GEVID1208999109
 70
     0
  0
APPID
  5
4C9
330
9
100
AcDbSymbolTableRecord
100
AcDbRegAppTableRecord
  2
GEVID1208999110
 70
     0
  0
APPID
  5
4CA
330
9
100
AcDbSymbolTableRecord
100
AcDbRegAppTableRecord
  2
GEVID1208999111
 70
     0
  0
APPID
  5
4CB
330
9
100
AcDbSymbolTableRecord
100
AcDbRegAppTableRecord
  2
GEVID1208999112
 70
     0
  0
APPID
  5
4CC
330
9
100
AcDbSymbolTableRecord
100
AcDbRegAppTableRecord
  2
GEVID1208999113
 70
     0
  0
APPID
  5
4CD
330
9
100
AcDbSymbolTableRecord
100
AcDbRegAppTableRecord
  2
GEVID1208999114
 70
     0
  0
APPID
  5
4CE
330
9
100
AcDbSymbolTableRecord
100
AcDbRegAppTableRecord
  2
GEVID1210218799
 70
     0
  0
APPID
  5
4CF
330
9
100
AcDbSymbolTableRecord
100
AcDbRegAppTableRecord
  2
GEVID1210218800
 70
     0
  0
APPID
  5
4D0
330
9
100
AcDbSymbolTableRecord
100
AcDbRegAppTableRecord
  2
GENIUS_GEFWELD_13
 70
     0
  0
APPID
  5
4D1
330
9
100
AcDbSymbolTableRecord
100
AcDbRegAppTableRecord
  2
GENIUS_GENOBJ-F-WELS_13
 70
     0
  0
APPID
  5
4D2
330
9
100
AcDbSymbolTableRecord
100
AcDbRegAppTableRecord
  2
AcadAnnotative
 70
     0
  0
APPID
  5
4D3
330
9
100
AcDbSymbolTableRecord
100
AcDbRegAppTableRecord
  2
GEVID1210145339
 70
     0
  0
APPID
  5
4D4
330
9
100
AcDbSymbolTableRecord
100
AcDbRegAppTableRecord
  2
ACAD_DSTYLE_DIMBREAK
 70
     0
  0
APPID
  5
4D5
330
9
100
AcDbSymbolTableRecord
100
AcDbRegAppTableRecord
  2
GEVID1210145340
 70
     0
  0
APPID
  5
4D6
330
9
100
AcDbSymbolTableRecord
100
AcDbRegAppTableRecord
  2
GEVID1210145341
 70
     0
  0
APPID
  5
4D7
330
9
100
AcDbSymbolTableRecord
100
AcDbRegAppTableRecord
  2
GEVID1210145342
 70
     0
  0
APPID
  5
4D8
330
9
100
AcDbSymbolTableRecord
100
AcDbRegAppTableRecord
  2
GEVID1210145343
 70
     0
  0
APPID
  5
4D9
330
9
100
AcDbSymbolTableRecord
100
AcDbRegAppTableRecord
  2
GEVID1210145344
 70
     0
  0
APPID
  5
4DA
330
9
100
AcDbSymbolTableRecord
100
AcDbRegAppTableRecord
  2
GEVID1210145345
 70
     0
  0
APPID
  5
4DB
330
9
100
AcDbSymbolTableRecord
100
AcDbRegAppTableRecord
  2
GEVID1210152816
 70
     0
  0
APPID
  5
4DC
330
9
100
AcDbSymbolTableRecord
100
AcDbRegAppTableRecord
  2
GEVID1210153850
 70
     0
  0
APPID
  5
4DD
330
9
100
AcDbSymbolTableRecord
100
AcDbRegAppTableRecord
  2
GEVID1210153851
 70
     0
  0
APPID
  5
4DE
330
9
100
AcDbSymbolTableRecord
100
AcDbRegAppTableRecord
  2
GEVID1210153852
 70
     0
  0
APPID
  5
4DF
330
9
100
AcDbSymbolTableRecord
100
AcDbRegAppTableRecord
  2
GEVID1210549898
 70
     0
  0
APPID
  5
4E0
330
9
100
AcDbSymbolTableRecord
100
AcDbRegAppTableRecord
  2
GEVID1210549899
 70
     0
  0
APPID
  5
4E1
330
9
100
AcDbSymbolTableRecord
100
AcDbRegAppTableRecord
  2
GEVID1210549900
 70
     0
  0
APPID
  5
4E2
330
9
100
AcDbSymbolTableRecord
100
AcDbRegAppTableRecord
  2
GEVID1210549901
 70
     0
  0
APPID
  5
4E3
330
9
100
AcDbSymbolTableRecord
100
AcDbRegAppTableRecord
  2
GEVID1210549902
 70
     0
  0
APPID
  5
4E4
330
9
100
AcDbSymbolTableRecord
100
AcDbRegAppTableRecord
  2
GEVID1210549903
 70
     0
  0
APPID
  5
4E5
330
9
100
AcDbSymbolTableRecord
100
AcDbRegAppTableRecord
  2
GEVID1210549904
 70
     0
  0
APPID
  5
4E6
330
9
100
AcDbSymbolTableRecord
100
AcDbRegAppTableRecord
  2
GEVID1210549905
 70
     0
  0
APPID
  5
4E7
330
9
100
AcDbSymbolTableRecord
100
AcDbRegAppTableRecord
  2
GEVID1210549906
 70
     0
  0
APPID
  5
4E8
330
9
100
AcDbSymbolTableRecord
100
AcDbRegAppTableRecord
  2
GEVID1210549907
 70
     0
  0
APPID
  5
4E9
330
9
100
AcDbSymbolTableRecord
100
AcDbRegAppTableRecord
  2
GEVID1210549908
 70
     0
  0
APPID
  5
4EA
330
9
100
AcDbSymbolTableRecord
100
AcDbRegAppTableRecord
  2
GEVID1210549909
 70
     0
  0
APPID
  5
4EB
330
9
100
AcDbSymbolTableRecord
100
AcDbRegAppTableRecord
  2
GEVID1210549910
 70
     0
  0
APPID
  5
4EC
330
9
100
AcDbSymbolTableRecord
100
AcDbRegAppTableRecord
  2
GEVID1210549911
 70
     0
  0
APPID
  5
4ED
330
9
100
AcDbSymbolTableRecord
100
AcDbRegAppTableRecord
  2
GEVID1210549912
 70
     0
  0
APPID
  5
4EE
330
9
100
AcDbSymbolTableRecord
100
AcDbRegAppTableRecord
  2
GEVID1210549913
 70
     0
  0
APPID
  5
4EF
330
9
100
AcDbSymbolTableRecord
100
AcDbRegAppTableRecord
  2
GEVID1210549914
 70
     0
  0
APPID
  5
4F0
330
9
100
AcDbSymbolTableRecord
100
AcDbRegAppTableRecord
  2
GEVID1210549915
 70
     0
  0
APPID
  5
4F1
330
9
100
AcDbSymbolTableRecord
100
AcDbRegAppTableRecord
  2
GEVID1210549916
 70
     0
  0
APPID
  5
4F2
330
9
100
AcDbSymbolTableRecord
100
AcDbRegAppTableRecord
  2
GEVID1210549917
 70
     0
  0
APPID
  5
4F3
330
9
100
AcDbSymbolTableRecord
100
AcDbRegAppTableRecord
  2
GENIUS_GENOBJ-N-CRS_13
 70
     0
  0
APPID
  5
4F4
330
9
100
AcDbSymbolTableRecord
100
AcDbRegAppTableRecord
  2
GEVID1210549918
 70
     0
  0
APPID
  5
4F5
330
9
100
AcDbSymbolTableRecord
100
AcDbRegAppTableRecord
  2
GENIUS_GENOBJ-N-CRC_13
 70
     0
  0
APPID
  5
4F6
330
9
100
AcDbSymbolTableRecord
100
AcDbRegAppTableRecord
  2
GENIUS_GENCRC_14
 70
     0
  0
APPID
  5
4F7
330
9
100
AcDbSymbolTableRecord
100
AcDbRegAppTableRecord
  2
GEVID1210549919
 70
     0
  0
APPID
  5
4F8
330
9
100
AcDbSymbolTableRecord
100
AcDbRegAppTableRecord
  2
GEVID1210549921
 70
     0
  0
APPID
  5
4F9
330
9
100
AcDbSymbolTableRecord
100
AcDbRegAppTableRecord
  2
GEVID1210549922
 70
     0
  0
APPID
  5
4FA
330
9
100
AcDbSymbolTableRecord
100
AcDbRegAppTableRecord
  2
GEVID1210635173
 70
     0
  0
APPID
  5
4FB
330
9
100
AcDbSymbolTableRecord
100
AcDbRegAppTableRecord
  2
GEVID1210635174
 70
     0
  0
APPID
  5
4FC
330
9
100
AcDbSymbolTableRecord
100
AcDbRegAppTableRecord
  2
GEVID1210635175
 70
     0
  0
APPID
  5
4FD
330
9
100
AcDbSymbolTableRecord
100
AcDbRegAppTableRecord
  2
GEVID1210635176
 70
     0
  0
APPID
  5
4FE
330
9
100
AcDbSymbolTableRecord
100
AcDbRegAppTableRecord
  2
GEVID1210635177
 70
     0
  0
APPID
  5
4FF
330
9
100
AcDbSymbolTableRecord
100
AcDbRegAppTableRecord
  2
GEVID1210635178
 70
     0
  0
APPID
  5
500
330
9
100
AcDbSymbolTableRecord
100
AcDbRegAppTableRecord
  2
GENIUS_GENIUS_GENBHEDTMP_13
 70
     0
  0
APPID
  5
501
330
9
100
AcDbSymbolTableRecord
100
AcDbRegAppTableRecord
  2
GEVID1210635179
 70
     0
  0
APPID
  5
502
330
9
100
AcDbSymbolTableRecord
100
AcDbRegAppTableRecord
  2
GEVID1210635180
 70
     0
  0
APPID
  5
503
330
9
100
AcDbSymbolTableRecord
100
AcDbRegAppTableRecord
  2
GEVID1210635181
 70
     0
  0
APPID
  5
504
330
9
100
AcDbSymbolTableRecord
100
AcDbRegAppTableRecord
  2
GEVID1210635182
 70
     0
  0
APPID
  5
505
330
9
100
AcDbSymbolTableRecord
100
AcDbRegAppTableRecord
  2
GEVID1210635184
 70
     0
  0
APPID
  5
506
330
9
100
AcDbSymbolTableRecord
100
AcDbRegAppTableRecord
  2
GEVID1210635185
 70
     0
  0
APPID
  5
507
330
9
100
AcDbSymbolTableRecord
100
AcDbRegAppTableRecord
  2
GEVID1210635186
 70
     0
  0
APPID
  5
508
330
9
100
AcDbSymbolTableRecord
100
AcDbRegAppTableRecord
  2
GEVID1210635187
 70
     0
  0
APPID
  5
509
330
9
100
AcDbSymbolTableRecord
100
AcDbRegAppTableRecord
  2
GEVID1210635188
 70
     0
  0
APPID
  5
50A
330
9
100
AcDbSymbolTableRecord
100
AcDbRegAppTableRecord
  2
GEVID1210635189
 70
     0
  0
APPID
  5
50B
330
9
100
AcDbSymbolTableRecord
100
AcDbRegAppTableRecord
  2
GEVID1210635190
 70
     0
  0
APPID
  5
50C
330
9
100
AcDbSymbolTableRecord
100
AcDbRegAppTableRecord
  2
GENIUS_GENREC_14
 70
     0
  0
APPID
  5
50D
330
9
100
AcDbSymbolTableRecord
100
AcDbRegAppTableRecord
  2
GENIUS_GENOBJ-N-REC_13
 70
     0
  0
APPID
  5
50E
330
9
100
AcDbSymbolTableRecord
100
AcDbRegAppTableRecord
  2
GEVID1210676655
 70
     0
  0
APPID
  5
50F
330
9
100
AcDbSymbolTableRecord
100
AcDbRegAppTableRecord
  2
GEVID1210676656
 70
     0
  0
APPID
  5
510
330
9
100
AcDbSymbolTableRecord
100
AcDbRegAppTableRecord
  2
GEVID1210676657
 70
     0
  0
APPID
  5
511
330
9
100
AcDbSymbolTableRecord
100
AcDbRegAppTableRecord
  2
GEVID1210676659
 70
     0
  0
APPID
  5
512
330
9
100
AcDbSymbolTableRecord
100
AcDbRegAppTableRecord
  2
GEVID1210676660
 70
     0
  0
APPID
  5
513
330
9
100
AcDbSymbolTableRecord
100
AcDbRegAppTableRecord
  2
GEVID1210676661
 70
     0
  0
APPID
  5
514
330
9
100
AcDbSymbolTableRecord
100
AcDbRegAppTableRecord
  2
GEVID1210676662
 70
     0
  0
APPID
  5
515
330
9
100
AcDbSymbolTableRecord
100
AcDbRegAppTableRecord
  2
GEVID1210721646
 70
     0
  0
APPID
  5
516
330
9
100
AcDbSymbolTableRecord
100
AcDbRegAppTableRecord
  2
GEVID1210721647
 70
     0
  0
APPID
  5
517
330
9
100
AcDbSymbolTableRecord
100
AcDbRegAppTableRecord
  2
GEVID1210721648
 70
     0
  0
APPID
  5
518
330
9
100
AcDbSymbolTableRecord
100
AcDbRegAppTableRecord
  2
GEVID1210721649
 70
     0
  0
APPID
  5
519
330
9
100
AcDbSymbolTableRecord
100
AcDbRegAppTableRecord
  2
GEVID1210721650
 70
     0
  0
APPID
  5
51A
330
9
100
AcDbSymbolTableRecord
100
AcDbRegAppTableRecord
  2
GEVID1210721651
 70
     0
  0
APPID
  5
51B
330
9
100
AcDbSymbolTableRecord
100
AcDbRegAppTableRecord
  2
GEVID1210721652
 70
     0
  0
APPID
  5
51C
330
9
100
AcDbSymbolTableRecord
100
AcDbRegAppTableRecord
  2
GEVID1210721653
 70
     0
  0
APPID
  5
51D
330
9
100
AcDbSymbolTableRecord
100
AcDbRegAppTableRecord
  2
PE_URL
 70
     0
  0
APPID
  5
51E
330
9
100
AcDbSymbolTableRecord
100
AcDbRegAppTableRecord
  2
GEVID1210825555
 70
     0
  0
APPID
  5
51F
330
9
100
AcDbSymbolTableRecord
100
AcDbRegAppTableRecord
  2
GEVID1210825556
 70
     0
  0
APPID
  5
520
330
9
100
AcDbSymbolTableRecord
100
AcDbRegAppTableRecord
  2
GEVID1210825557
 70
     0
  0
APPID
  5
521
330
9
100
AcDbSymbolTableRecord
100
AcDbRegAppTableRecord
  2
GEVID1210825558
 70
     0
  0
APPID
  5
522
330
9
100
AcDbSymbolTableRecord
100
AcDbRegAppTableRecord
  2
GEVID1210825559
 70
     0
  0
APPID
  5
523
330
9
100
AcDbSymbolTableRecord
100
AcDbRegAppTableRecord
  2
GEVID1210825560
 70
     0
  0
APPID
  5
524
330
9
100
AcDbSymbolTableRecord
100
AcDbRegAppTableRecord
  2
GEVID1210825561
 70
     0
  0
APPID
  5
525
330
9
100
AcDbSymbolTableRecord
100
AcDbRegAppTableRecord
  2
GEVID1210825562
 70
     0
  0
APPID
  5
526
330
9
100
AcDbSymbolTableRecord
100
AcDbRegAppTableRecord
  2
GEVID1210825563
 70
     0
  0
APPID
  5
527
330
9
100
AcDbSymbolTableRecord
100
AcDbRegAppTableRecord
  2
GEVID1210825564
 70
     0
  0
APPID
  5
528
330
9
100
AcDbSymbolTableRecord
100
AcDbRegAppTableRecord
  2
GEVID1210825565
 70
     0
  0
APPID
  5
529
330
9
100
AcDbSymbolTableRecord
100
AcDbRegAppTableRecord
  2
GEVID1210825566
 70
     0
  0
APPID
  5
52A
330
9
100
AcDbSymbolTableRecord
100
AcDbRegAppTableRecord
  2
GEVID1210825567
 70
     0
  0
APPID
  5
52B
330
9
100
AcDbSymbolTableRecord
100
AcDbRegAppTableRecord
  2
GENIUS_GENOBJ-N-ZOO_13
 70
     0
  0
APPID
  5
52C
330
9
100
AcDbSymbolTableRecord
100
AcDbRegAppTableRecord
  2
GENIUS_GENZOO_17
 70
     0
  0
APPID
  5
52D
330
9
100
AcDbSymbolTableRecord
100
AcDbRegAppTableRecord
  2
ACADANNOTATIVEDECOMPOSITION
 70
     0
  0
APPID
  5
52E
330
9
100
AcDbSymbolTableRecord
100
AcDbRegAppTableRecord
  2
GENIUS_GENOBJ-N-HTC_13
 70
     0
  0
APPID
  5
52F
330
9
100
AcDbSymbolTableRecord
100
AcDbRegAppTableRecord
  2
GENIUS_GENHATCH_13
 70
     0
  0
APPID
  5
530
330
9
100
AcDbSymbolTableRecord
100
AcDbRegAppTableRecord
  2
GEVID1210896020
 70
     0
  0
APPID
  5
531
330
9
100
AcDbSymbolTableRecord
100
AcDbRegAppTableRecord
  2
GEVID1210896021
 70
     0
  0
APPID
  5
532
330
9
100
AcDbSymbolTableRecord
100
AcDbRegAppTableRecord
  2
GEVID1209083540
 70
     0
  0
APPID
  5
533
330
9
100
AcDbSymbolTableRecord
100
AcDbRegAppTableRecord
  2
GEVMK
 70
     0
  0
APPID
  5
534
330
9
100
AcDbSymbolTableRecord
100
AcDbRegAppTableRecord
  2
GEVID1209083542
 70
     0
  0
APPID
  5
535
330
9
100
AcDbSymbolTableRecord
100
AcDbRegAppTableRecord
  2
GEVID1209083543
 70
     0
  0
APPID
  5
536
330
9
100
AcDbSymbolTableRecord
100
AcDbRegAppTableRecord
  2
GEVID1209083544
 70
     0
  0
APPID
  5
537
330
9
100
AcDbSymbolTableRecord
100
AcDbRegAppTableRecord
  2
GEVID1209083545
 70
     0
  0
APPID
  5
538
330
9
100
AcDbSymbolTableRecord
100
AcDbRegAppTableRecord
  2
GEVID1209083546
 70
     0
  0
APPID
  5
539
330
9
100
AcDbSymbolTableRecord
100
AcDbRegAppTableRecord
  2
GEVID1209083547
 70
     0
  0
APPID
  5
53A
330
9
100
AcDbSymbolTableRecord
100
AcDbRegAppTableRecord
  2
GEVID1209083548
 70
     0
  0
APPID
  5
53B
330
9
100
AcDbSymbolTableRecord
100
AcDbRegAppTableRecord
  2
GEVID1209083549
 70
     0
  0
APPID
  5
53C
330
9
100
AcDbSymbolTableRecord
100
AcDbRegAppTableRecord
  2
GEVID1209083550
 70
     0
  0
APPID
  5
53D
330
9
100
AcDbSymbolTableRecord
100
AcDbRegAppTableRecord
  2
GEVID1209083551
 70
     0
  0
APPID
  5
53E
330
9
100
AcDbSymbolTableRecord
100
AcDbRegAppTableRecord
  2
GEVID1209083552
 70
     0
  0
APPID
  5
53F
330
9
100
AcDbSymbolTableRecord
100
AcDbRegAppTableRecord
  2
GEVID1209083553
 70
     0
  0
APPID
  5
540
330
9
100
AcDbSymbolTableRecord
100
AcDbRegAppTableRecord
  2
GEVID1210896022
 70
     0
  0
APPID
  5
541
330
9
100
AcDbSymbolTableRecord
100
AcDbRegAppTableRecord
  2
GEVID1211508364
 70
     0
  0
APPID
  5
542
330
9
100
AcDbSymbolTableRecord
100
AcDbRegAppTableRecord
  2
GEVID1211414908
 70
     0
  0
APPID
  5
543
330
9
100
AcDbSymbolTableRecord
100
AcDbRegAppTableRecord
  2
GEVID1211414909
 70
     0
  0
APPID
  5
544
330
9
100
AcDbSymbolTableRecord
100
AcDbRegAppTableRecord
  2
GEVID1211508359
 70
     0
  0
APPID
  5
545
330
9
100
AcDbSymbolTableRecord
100
AcDbRegAppTableRecord
  2
GEVID1211508360
 70
     0
  0
APPID
  5
546
330
9
100
AcDbSymbolTableRecord
100
AcDbRegAppTableRecord
  2
GEVID1211508361
 70
     0
  0
APPID
  5
547
330
9
100
AcDbSymbolTableRecord
100
AcDbRegAppTableRecord
  2
GEVID1211508362
 70
     0
  0
APPID
  5
548
330
9
100
AcDbSymbolTableRecord
100
AcDbRegAppTableRecord
  2
GEVID1211508363
 70
     0
  0
APPID
  5
549
330
9
100
AcDbSymbolTableRecord
100
AcDbRegAppTableRecord
  2
GEVID1211878469
 70
     0
  0
APPID
  5
54A
330
9
100
AcDbSymbolTableRecord
100
AcDbRegAppTableRecord
  2
GEVID1212642819
 70
     0
  0
APPID
  5
54B
330
9
100
AcDbSymbolTableRecord
100
AcDbRegAppTableRecord
  2
GEVID1212642820
 70
     0
  0
APPID
  5
54C
330
9
100
AcDbSymbolTableRecord
100
AcDbRegAppTableRecord
  2
GEVID1212642821
 70
     0
  0
APPID
  5
54D
330
9
100
AcDbSymbolTableRecord
100
AcDbRegAppTableRecord
  2
GEVID1212642822
 70
     0
  0
APPID
  5
54E
330
9
100
AcDbSymbolTableRecord
100
AcDbRegAppTableRecord
  2
GEVID1212642823
 70
     0
  0
APPID
  5
54F
330
9
100
AcDbSymbolTableRecord
100
AcDbRegAppTableRecord
  2
GEVID1212642825
 70
     0
  0
APPID
  5
550
330
9
100
AcDbSymbolTableRecord
100
AcDbRegAppTableRecord
  2
GEVID1212642826
 70
     0
  0
APPID
  5
551
330
9
100
AcDbSymbolTableRecord
100
AcDbRegAppTableRecord
  2
GEVID1212642827
 70
     0
  0
APPID
  5
552
330
9
100
AcDbSymbolTableRecord
100
AcDbRegAppTableRecord
  2
GEVID1212642828
 70
     0
  0
APPID
  5
553
330
9
100
AcDbSymbolTableRecord
100
AcDbRegAppTableRecord
  2
GEVID1212642831
 70
     0
  0
APPID
  5
554
330
9
100
AcDbSymbolTableRecord
100
AcDbRegAppTableRecord
  2
GEVID1212642834
 70
     0
  0
APPID
  5
555
330
9
100
AcDbSymbolTableRecord
100
AcDbRegAppTableRecord
  2
GEVID1212642835
 70
     0
  0
APPID
  5
556
330
9
100
AcDbSymbolTableRecord
100
AcDbRegAppTableRecord
  2
GEVID1212642836
 70
     0
  0
APPID
  5
557
330
9
100
AcDbSymbolTableRecord
100
AcDbRegAppTableRecord
  2
GEVID1212642837
 70
     0
  0
APPID
  5
558
330
9
100
AcDbSymbolTableRecord
100
AcDbRegAppTableRecord
  2
GEVID1212642839
 70
     0
  0
APPID
  5
559
330
9
100
AcDbSymbolTableRecord
100
AcDbRegAppTableRecord
  2
GEVID1212642840
 70
     0
  0
APPID
  5
55A
330
9
100
AcDbSymbolTableRecord
100
AcDbRegAppTableRecord
  2
GEVID1212642841
 70
     0
  0
APPID
  5
55B
330
9
100
AcDbSymbolTableRecord
100
AcDbRegAppTableRecord
  2
GEVID1212655312
 70
     0
  0
APPID
  5
55C
330
9
100
AcDbSymbolTableRecord
100
AcDbRegAppTableRecord
  2
GEVID1212655313
 70
     0
  0
APPID
  5
55D
330
9
100
AcDbSymbolTableRecord
100
AcDbRegAppTableRecord
  2
GEVID1212656533
 70
     0
  0
APPID
  5
55E
330
9
100
AcDbSymbolTableRecord
100
AcDbRegAppTableRecord
  2
GEVID1212656534
 70
     0
  0
APPID
  5
55F
330
9
100
AcDbSymbolTableRecord
100
AcDbRegAppTableRecord
  2
GEVID1212656535
 70
     0
  0
APPID
  5
560
330
9
100
AcDbSymbolTableRecord
100
AcDbRegAppTableRecord
  2
GEVID1212656536
 70
     0
  0
APPID
  5
561
330
9
100
AcDbSymbolTableRecord
100
AcDbRegAppTableRecord
  2
GEVID1212656538
 70
     0
  0
APPID
  5
562
330
9
100
AcDbSymbolTableRecord
100
AcDbRegAppTableRecord
  2
GEVID1212656541
 70
     0
  0
APPID
  5
563
330
9
100
AcDbSymbolTableRecord
100
AcDbRegAppTableRecord
  2
GEVID1212656543
 70
     0
  0
APPID
  5
564
330
9
100
AcDbSymbolTableRecord
100
AcDbRegAppTableRecord
  2
GENIUS_GENOBJ-F-PFASSM_13
 70
     0
  0
APPID
  5
565
330
9
100
AcDbSymbolTableRecord
100
AcDbRegAppTableRecord
  2
GEVID1212656544
 70
     0
  0
APPID
  5
566
330
9
100
AcDbSymbolTableRecord
100
AcDbRegAppTableRecord
  2
GEVID1212656545
 70
     0
  0
APPID
  5
567
330
9
100
AcDbSymbolTableRecord
100
AcDbRegAppTableRecord
  2
GEVID1212656546
 70
     0
  0
APPID
  5
568
330
9
100
AcDbSymbolTableRecord
100
AcDbRegAppTableRecord
  2
GEVID1212656547
 70
     0
  0
APPID
  5
569
330
9
100
AcDbSymbolTableRecord
100
AcDbRegAppTableRecord
  2
GEVID1212656548
 70
     0
  0
APPID
  5
56A
330
9
100
AcDbSymbolTableRecord
100
AcDbRegAppTableRecord
  2
GEVID1212656549
 70
     0
  0
APPID
  5
56B
330
9
100
AcDbSymbolTableRecord
100
AcDbRegAppTableRecord
  2
GEVID1212656550
 70
     0
  0
APPID
  5
56C
330
9
100
AcDbSymbolTableRecord
100
AcDbRegAppTableRecord
  2
GEVID1212656552
 70
     0
  0
APPID
  5
56D
330
9
100
AcDbSymbolTableRecord
100
AcDbRegAppTableRecord
  2
GEVID1212656553
 70
     0
  0
APPID
  5
56E
330
9
100
AcDbSymbolTableRecord
100
AcDbRegAppTableRecord
  2
GEVID1212656554
 70
     0
  0
APPID
  5
56F
330
9
100
AcDbSymbolTableRecord
100
AcDbRegAppTableRecord
  2
GEVID1212656555
 70
     0
  0
APPID
  5
570
330
9
100
AcDbSymbolTableRecord
100
AcDbRegAppTableRecord
  2
GEVID1212656556
 70
     0
  0
APPID
  5
571
330
9
100
AcDbSymbolTableRecord
100
AcDbRegAppTableRecord
  2
GEVID1212656557
 70
     0
  0
APPID
  5
572
330
9
100
AcDbSymbolTableRecord
100
AcDbRegAppTableRecord
  2
GEVID1212656559
 70
     0
  0
APPID
  5
573
330
9
100
AcDbSymbolTableRecord
100
AcDbRegAppTableRecord
  2
GEVID1212656560
 70
     0
  0
APPID
  5
574
330
9
100
AcDbSymbolTableRecord
100
AcDbRegAppTableRecord
  2
GEVID1212656561
 70
     0
  0
APPID
  5
575
330
9
100
AcDbSymbolTableRecord
100
AcDbRegAppTableRecord
  2
GEVID1212656562
 70
     0
  0
APPID
  5
576
330
9
100
AcDbSymbolTableRecord
100
AcDbRegAppTableRecord
  2
GEVID1212656563
 70
     0
  0
APPID
  5
577
330
9
100
AcDbSymbolTableRecord
100
AcDbRegAppTableRecord
  2
GEVID1212711781
 70
     0
  0
APPID
  5
578
330
9
100
AcDbSymbolTableRecord
100
AcDbRegAppTableRecord
  2
GEVID1212711782
 70
     0
  0
APPID
  5
579
330
9
100
AcDbSymbolTableRecord
100
AcDbRegAppTableRecord
  2
GEVID1212711783
 70
     0
  0
APPID
  5
57A
330
9
100
AcDbSymbolTableRecord
100
AcDbRegAppTableRecord
  2
GEVID1212711784
 70
     0
  0
APPID
  5
57B
330
9
100
AcDbSymbolTableRecord
100
AcDbRegAppTableRecord
  2
GEVID1212711788
 70
     0
  0
APPID
  5
57C
330
9
100
AcDbSymbolTableRecord
100
AcDbRegAppTableRecord
  2
GEVID1212711789
 70
     0
  0
APPID
  5
57D
330
9
100
AcDbSymbolTableRecord
100
AcDbRegAppTableRecord
  2
GEVID1212711790
 70
     0
  0
APPID
  5
57E
330
9
100
AcDbSymbolTableRecord
100
AcDbRegAppTableRecord
  2
GEVID1212711791
 70
     0
  0
APPID
  5
57F
330
9
100
AcDbSymbolTableRecord
100
AcDbRegAppTableRecord
  2
GEVID1212711792
 70
     0
  0
APPID
  5
580
330
9
100
AcDbSymbolTableRecord
100
AcDbRegAppTableRecord
  2
GEVID1212711793
 70
     0
  0
APPID
  5
581
330
9
100
AcDbSymbolTableRecord
100
AcDbRegAppTableRecord
  2
GEVID1212711794
 70
     0
  0
APPID
  5
582
330
9
100
AcDbSymbolTableRecord
100
AcDbRegAppTableRecord
  2
GEVID1212711795
 70
     0
  0
APPID
  5
583
330
9
100
AcDbSymbolTableRecord
100
AcDbRegAppTableRecord
  2
GEVID1212711797
 70
     0
  0
APPID
  5
584
330
9
100
AcDbSymbolTableRecord
100
AcDbRegAppTableRecord
  2
GEVID1212711798
 70
     0
  0
APPID
  5
585
330
9
100
AcDbSymbolTableRecord
100
AcDbRegAppTableRecord
  2
GEVID1212711799
 70
     0
  0
APPID
  5
586
330
9
100
AcDbSymbolTableRecord
100
AcDbRegAppTableRecord
  2
GEVID1212711800
 70
     0
  0
APPID
  5
587
330
9
100
AcDbSymbolTableRecord
100
AcDbRegAppTableRecord
  2
GEVID1212711801
 70
     0
  0
APPID
  5
588
330
9
100
AcDbSymbolTableRecord
100
AcDbRegAppTableRecord
  2
GEVID1212711802
 70
     0
  0
APPID
  5
589
330
9
100
AcDbSymbolTableRecord
100
AcDbRegAppTableRecord
  2
GEVID1212711803
 70
     0
  0
APPID
  5
58A
330
9
100
AcDbSymbolTableRecord
100
AcDbRegAppTableRecord
  2
GEVID1212711804
 70
     0
  0
APPID
  5
58B
330
9
100
AcDbSymbolTableRecord
100
AcDbRegAppTableRecord
  2
GEVID1212711805
 70
     0
  0
APPID
  5
58C
330
9
100
AcDbSymbolTableRecord
100
AcDbRegAppTableRecord
  2
GEVID1212711806
 70
     0
  0
APPID
  5
58D
330
9
100
AcDbSymbolTableRecord
100
AcDbRegAppTableRecord
  2
GEVID1212711807
 70
     0
  0
APPID
  5
58E
330
9
100
AcDbSymbolTableRecord
100
AcDbRegAppTableRecord
  2
GEVID1212711808
 70
     0
  0
APPID
  5
58F
330
9
100
AcDbSymbolTableRecord
100
AcDbRegAppTableRecord
  2
GEVID1212711809
 70
     0
  0
APPID
  5
590
330
9
100
AcDbSymbolTableRecord
100
AcDbRegAppTableRecord
  2
GEVID1212711810
 70
     0
  0
APPID
  5
591
330
9
100
AcDbSymbolTableRecord
100
AcDbRegAppTableRecord
  2
GEVID1212711811
 70
     0
  0
APPID
  5
90A
330
9
100
AcDbSymbolTableRecord
100
AcDbRegAppTableRecord
  2
GENIUS_GENTRA_14
 70
     0
  0
APPID
  5
919
330
9
100
AcDbSymbolTableRecord
100
AcDbRegAppTableRecord
  2
GENIUS_GENOBJ-N-TIT_13
 70
     0
  0
APPID
  5
91A
330
9
100
AcDbSymbolTableRecord
100
AcDbRegAppTableRecord
  2
GENIUS_GENTITLE_13
 70
     0
  0
APPID
  5
949
330
9
100
AcDbSymbolTableRecord
100
AcDbRegAppTableRecord
  2
GENIUS_GENBLLY_14
 70
     0
  0
APPID
  5
DDD
330
9
100
AcDbSymbolTableRecord
100
AcDbRegAppTableRecord
  2
GEVID1213165152
 70
     0
  0
APPID
  5
12F9
330
9
100
AcDbSymbolTableRecord
100
AcDbRegAppTableRecord
  2
AcDbDynamicBlockTrueName
 70
     0
  0
APPID
  5
12FA
330
9
100
AcDbSymbolTableRecord
100
AcDbRegAppTableRecord
  2
ACDBBLOCKREPETAG
 70
     0
  0
APPID
  5
1C15
330
9
100
AcDbSymbolTableRecord
100
AcDbRegAppTableRecord
  2
GEVID1214872427
 70
     0
  0
APPID
  5
1C2A
330
9
100
AcDbSymbolTableRecord
100
AcDbRegAppTableRecord
  2
GEVID1214872428
 70
     0
  0
APPID
  5
1C2F
330
9
100
AcDbSymbolTableRecord
100
AcDbRegAppTableRecord
  2
GEVID1214872429
 70
     0
  0
APPID
  5
1C33
330
9
100
AcDbSymbolTableRecord
100
AcDbRegAppTableRecord
  2
GEVID1214872430
 70
     0
  0
APPID
  5
1C3F
330
9
100
AcDbSymbolTableRecord
100
AcDbRegAppTableRecord
  2
GEVID1214872432
 70
     0
  0
APPID
  5
1C4E
330
9
100
AcDbSymbolTableRecord
100
AcDbRegAppTableRecord
  2
GEVID1214872433
 70
     0
  0
APPID
  5
20DC
330
9
100
AcDbSymbolTableRecord
100
AcDbRegAppTableRecord
  2
AcDbDynamicBlockGUID
 70
     0
  0
APPID
  5
20FD
330
9
100
AcDbSymbolTableRecord
100
AcDbRegAppTableRecord
  2
GENIUS_GENOBJ-N-REV_13
 70
     0
  0
APPID
  5
20FE
330
9
100
AcDbSymbolTableRecord
100
AcDbRegAppTableRecord
  2
GENIUS_GENOBJ-N-RSSYM_13
 70
     0
  0
APPID
  5
20FF
330
9
100
AcDbSymbolTableRecord
100
AcDbRegAppTableRecord
  2
GENIUS_GENSYMENT_13
 70
     0
  0
APPID
  5
2100
330
9
100
AcDbSymbolTableRecord
100
AcDbRegAppTableRecord
  2
GENIUS_GENSCSYM_13
 70
     0
  0
ENDTAB
  0
TABLE
  2
DIMSTYLE
  5
A
330
0
100
AcDbSymbolTable
 70
    29
100
AcDbDimStyleTable
 71
     1
340
5AB
  0
DIMSTYLE
105
5AB
330
A
100
AcDbSymbolTableRecord
100
AcDbDimStyleTableRecord
  2
SEISA
 70
     0
  4
"
 40
2.5
 41
2.5
 42
0.625
 43
10.0
 44
0.625
 47
0.1
 48
0.1
 73
     0
 74
     0
 77
     3
 78
     8
 79
     2
 90
     1
140
3.5
141
0.0
143
0.0393701
146
0.71
147
1.5
172
     1
176
     3
177
     3
178
     3
271
     2
272
     2
283
     0
286
     8
340
5D5
341
69
342
69
371
    -1
372
    -1
1001
ACAD_DSTYLE_DIMJAG
1070
   388
1040
1.5
1001
ACAD_DSTYLE_DIMTALN
1070
   392
1070
     1
  0
DIMSTYLE
105
5E9
102
{ACAD_REACTORS
330
5DA8
330
5DC0
330
5E54
330
5E9A
330
5EB2
330
5ECA
330
6062
330
60C6
330
60E2
330
60FA
330
612A
330
6142
330
98ED
330
9A86
330
ABC9
330
AD39
330
AD5D
330
ADEA
330
AE32
330
AF57
102
}
330
A
100
AcDbSymbolTableRecord
100
AcDbDimStyleTableRecord
  2
SEISA$0
 70
     0
  4
"
 40
2.5
 41
2.5
 42
0.625
 43
10.0
 44
0.625
 47
0.1
 48
0.1
 73
     0
 74
     0
 77
     3
 78
     8
 79
     2
 90
     1
140
3.5
141
0.0
143
0.0393701
146
0.71
147
1.5
172
     1
176
     3
177
     3
178
     3
271
     2
272
     2
283
     0
286
     8
340
5D5
341
69
342
69
371
    -1
372
    -1
  0
DIMSTYLE
105
B4A8
330
A
100
AcDbSymbolTableRecord
100
AcDbDimStyleTableRecord
  2
AM_ISO
 70
     0
  4
"
 41
2.5
 42
1.0
 43
10.0
 44
1.0
 47
0.1
 48
0.1
 73
     0
 74
     0
 77
     1
 78
     8
 79
     2
 90
     1
140
3.5
141
0.0
143
0.0393701
146
0.71
147
1.5
172
     1
176
   256
177
   256
178
     2
271
     2
272
     3
274
     4
283
     0
284
     8
340
11
371
    -1
372
    -1
  0
DIMSTYLE
105
B4A9
330
A
100
AcDbSymbolTableRecord
100
AcDbDimStyleTableRecord
  2
AM_ISO$3
 70
     0
  4
"
 41
2.5
 42
1.0
 43
10.0
 44
1.0
 47
0.1
 48
0.1
 73
     0
 77
     1
 78
     8
 79
     2
 90
     1
140
3.5
141
0.0
143
0.0393701
146
0.71
147
1.5
176
   256
177
   256
178
     2
271
     2
272
     3
274
     4
283
     0
284
     8
288
     1
289
     0
340
11
371
    -1
372
    -1
  0
DIMSTYLE
105
B4AA
330
A
100
AcDbSymbolTableRecord
100
AcDbDimStyleTableRecord
  2
AM_ISO$4
 70
     0
  4
"
 41
2.5
 42
1.0
 43
10.0
 44
1.0
 47
0.1
 48
0.1
 73
     0
 77
     1
 78
     8
 79
     2
 90
     1
140
3.5
141
0.0
143
0.0393701
146
0.71
147
1.5
176
   256
177
   256
178
     2
271
     2
272
     3
274
     4
283
     0
284
     8
288
     1
289
     0
340
11
371
    -1
372
    -1
  0
DIMSTYLE
105
B4AB
330
A
100
AcDbSymbolTableRecord
100
AcDbDimStyleTableRecord
  2
AM_ISO$6
 70
     0
  4
"
 41
2.5
 42
1.0
 43
10.0
 44
1.0
 47
0.1
 48
0.1
 73
     0
 74
     0
 78
     8
 79
     2
 90
     1
140
3.5
141
0.0
143
0.0393701
146
0.71
147
1.5
172
     1
176
   256
177
   256
178
     2
271
     2
272
     3
274
     4
283
     0
284
     8
340
11
371
    -1
372
    -1
  0
DIMSTYLE
105
B4AC
330
A
100
AcDbSymbolTableRecord
100
AcDbDimStyleTableRecord
  2
AM_ISO$7
 70
     0
  4
"
 41
2.5
 42
1.0
 43
10.0
 44
1.0
 47
0.1
 48
0.1
 73
     0
 74
     0
 77
     1
 78
     8
 79
     2
 90
     1
140
5.0
141
0.0
143
0.0393701
146
0.71
147
1.5
172
     1
176
   256
177
   256
178
     2
271
     2
272
     3
274
     4
283
     0
284
     8
340
11
371
    -1
372
    -1
  0
DIMSTYLE
105
B4AD
330
A
100
AcDbSymbolTableRecord
100
AcDbDimStyleTableRecord
  2
AM_ISO$SF
 70
     0
  4
"
 41
2.5
 42
1.0
 43
10.0
 44
1.0
 47
0.1
 48
0.1
 73
     0
 74
     0
 75
     1
 76
     1
 77
     1
 78
     8
 79
     2
 90
     1
140
3.5
141
0.0
143
0.0393701
146
0.71
147
1.5
172
     1
176
   256
177
   256
178
     2
271
     2
272
     3
274
     4
283
     0
284
     8
340
11
371
    -1
372
    -1
  0
DIMSTYLE
105
B4AE
330
A
100
AcDbSymbolTableRecord
100
AcDbDimStyleTableRecord
  2
AM_ISO$SH
 70
     0
  4
"
 41
2.5
 42
1.0
 43
10.0
 44
1.0
 47
0.1
 48
0.1
 73
     0
 74
     0
 75
     1
 76
     1
 77
     1
 78
     8
 79
     2
 90
     1
140
3.5
141
0.0
143
0.0393701
144
2.0
146
0.71
147
1.5
172
     1
173
     1
176
   256
177
   256
178
     2
271
     2
272
     3
274
     4
283
     0
284
     8
340
11
343
74
371
    -1
372
    -1
  0
ENDTAB
  0
TABLE
  2
BLOCK_RECORD
  5
1
330
0
100
AcDbSymbolTable
 70
    38
  0
BLOCK_RECORD
  5
1F
102
{ACAD_XDICTIONARY
360
82
102
}
330
1
100
AcDbSymbolTableRecord
100
AcDbBlockTableRecord
  2
*Model_Space
340
22
 70
     0
280
     1
281
     0
  0
BLOCK_RECORD
  5
1B
330
1
100
AcDbSymbolTableRecord
100
AcDbBlockTableRecord
  2
*Paper_Space
340
1E
 70
     0
280
     1
281
     0
  0
BLOCK_RECORD
  5
23
330
1
100
AcDbSymbolTableRecord
100
AcDbBlockTableRecord
  2
*Paper_Space0
340
26
 70
     0
280
     1
281
     0
  0
BLOCK_RECORD
  5
69
330
1
100
AcDbSymbolTableRecord
100
AcDbBlockTableRecord
  2
_Open30
340
0
102
{BLKREFS
331
A689
331
A68A
331
A6B0
331
A6B1
331
A6B9
331
A6BA
331
A6C2
331
A6C3
331
A6CB
331
A6CC
331
A6ED
331
A6F8
331
A700
331
A701
331
A709
331
A70A
331
A71A
331
A71B
331
A723
331
A724
331
A763
331
A76E
331
ABF5
331
ABF6
331
ADE5
331
ADE6
331
AFA6
331
AFA7
331
B2EF
331
B2F0
331
B304
331
B305
331
B326
331
B327
331
B331
331
B332
102
}
 70
     0
280
     1
281
     0
  0
BLOCK_RECORD
  5
74
330
1
100
AcDbSymbolTableRecord
100
AcDbBlockTableRecord
  2
GENAXEH
340
0
 70
     0
280
     1
281
     0
  0
BLOCK_RECORD
  5
3AC8
102
{ACAD_XDICTIONARY
360
3AC9
102
}
330
1
100
AcDbSymbolTableRecord
100
AcDbBlockTableRecord
  2
ロッカクアナツキプラグ-1　R1／8
340
0
310
2800000020000000200000000100080000000000000400000000000000000000000000000000000000000000000080000080000000808000800000008000800080800000C0C0C000C0DCC000F0CAA6000020400000206000002080000020A0000020C0000020E00000400000004020000040400000406000004080000040A0
310
000040C0000040E00000600000006020000060400000606000006080000060A0000060C0000060E00000800000008020000080400000806000008080000080A0000080C0000080E00000A0000000A0200000A0400000A0600000A0800000A0A00000A0C00000A0E00000C0000000C0200000C0400000C0600000C0800000C0
310
A00000C0C00000C0E00000E0000000E0200000E0400000E0600000E0800000E0A00000E0C00000E0E00040000000400020004000400040006000400080004000A0004000C0004000E00040200000402020004020400040206000402080004020A0004020C0004020E000404000004040200040404000404060004040800040
310
40A0004040C0004040E00040600000406020004060400040606000406080004060A0004060C0004060E00040800000408020004080400040806000408080004080A0004080C0004080E00040A0000040A0200040A0400040A0600040A0800040A0A00040A0C00040A0E00040C0000040C0200040C0400040C0600040C08000
310
40C0A00040C0C00040C0E00040E0000040E0200040E0400040E0600040E0800040E0A00040E0C00040E0E00080000000800020008000400080006000800080008000A0008000C0008000E00080200000802020008020400080206000802080008020A0008020C0008020E00080400000804020008040400080406000804080
310
008040A0008040C0008040E00080600000806020008060400080606000806080008060A0008060C0008060E00080800000808020008080400080806000808080008080A0008080C0008080E00080A0000080A0200080A0400080A0600080A0800080A0A00080A0C00080A0E00080C0000080C0200080C0400080C0600080C0
310
800080C0A00080C0C00080C0E00080E0000080E0200080E0400080E0600080E0800080E0A00080E0C00080E0E000C0000000C0002000C0004000C0006000C0008000C000A000C000C000C000E000C0200000C0202000C0204000C0206000C0208000C020A000C020C000C020E000C0400000C0402000C0404000C0406000C0
310
408000C040A000C040C000C040E000C0600000C0602000C0604000C0606000C0608000C060A000C060C000C060E000C0800000C0802000C0804000C0806000C0808000C080A000C080C000C080E000C0A00000C0A02000C0A04000C0A06000C0A08000C0A0A000C0A0C000C0A0E000C0C00000C0C02000C0C04000C0C06000
310
C0C08000C0C0A000F0FBFF00A4A0A000808080000000FF0000FF000000FFFF00FF000000FF00FF00FFFF0000FFFFFF00000000000000000000000000000000000000000000000000000000000000000000000000000000000000000000000000F9000000000000000000000000000000000000000000000000000000000000
310
00F900000000000000000000000000000000000000000000000000000000000000F90000000000000000000000000000000000000000000000000000000000FEFEF9000000000000000000000000000000000000000000000000000000FEFEFFFFFEFEFEFEFE000000000000000000000000000000000000000000FEFEFFFF
310
0000F900FFFF00FE000000000000000000000000000000000000FEFEFFFF00000000F9000000FFFFFE00000000000000000000000000000000FE00FF000000000000F90000000000FFFEFE00000000000000000000000000FE00FF00000000000000F9000000000000FFFE00000000000000000000000000FE00FF00000000
310
000000FF00000000000000FFFE0000000000000000000000FE00FF000000000000FFFFF9FF000000000000FFFE0000000000000000000000FE00FF00000000FFFF0000F900FFFF0000000000FFFE00000000000000000000FEFF00000000FF00000000F9000000FF00000000FFFE00000000000000000000FEFF00000000FF
310
00000000F9000000FF00000000FFFE00000000000000000000FE0000000000FF00000000F9000000FF0000000000FFFE0000000000F9F9F9F9F9F9F9F9F9F9FFF9F9F9F9F9F9F9F9FFF9F9F9F9F9F9F9F9F9F9000000000000FEFF00000000FF00000000F9000000FF0000000000FFFE000000000000000000FEFF00000000
310
FF00000000F9000000FF00000000FFFE00000000000000000000FE00FF00000000FFFF0000F90000FF0000000000FFFE00000000000000000000FE00FF000000000000FFFFF9FFFF0000000000FFFE000000000000000000000000FE00FF00000000000000FF00000000000000FFFE000000000000000000000000FE00FF00
310
000000000000F9000000000000FFFE0000000000000000000000000000FE00FF000000000000F90000000000FF00FE000000000000000000000000000000FE00FF0000000000F900000000FFFEFE0000000000000000000000000000000000FEFEFFFF000000F90000FFFFFE00000000000000000000000000000000000000
310
0000FEFEFEFFFFF9FEFEFEFE00000000000000000000000000000000000000000000000000FEFEFE00000000000000000000000000000000000000000000000000000000000000F900000000000000000000000000000000000000000000000000000000000000F90000000000000000000000000000000000000000000000
310
0000000000000000F90000000000000000000000000000000000000000000000000000000000000000000000000000000000000000000000
102
{BLKREFS
331
4FF4
102
}
 70
     4
280
     1
281
     0
  0
BLOCK_RECORD
  5
3C5A
330
1
100
AcDbSymbolTableRecord
100
AcDbBlockTableRecord
  2
GENDOT
340
0
102
{BLKREFS
331
A6EC
331
A6F7
331
A762
331
A76D
102
}
 70
     0
280
     1
281
     0
  0
BLOCK_RECORD
  5
3CFA
102
{ACAD_XDICTIONARY
360
4EDB
102
}
330
1
100
AcDbSymbolTableRecord
100
AcDbBlockTableRecord
  2
ロッカクアナツキプラグ-2　R1／8
340
0
310
2800000020000000200000000100080000000000000400000000000000000000000000000000000000000000000080000080000000808000800000008000800080800000C0C0C000C0DCC000F0CAA6000020400000206000002080000020A0000020C0000020E00000400000004020000040400000406000004080000040A0
310
000040C0000040E00000600000006020000060400000606000006080000060A0000060C0000060E00000800000008020000080400000806000008080000080A0000080C0000080E00000A0000000A0200000A0400000A0600000A0800000A0A00000A0C00000A0E00000C0000000C0200000C0400000C0600000C0800000C0
310
A00000C0C00000C0E00000E0000000E0200000E0400000E0600000E0800000E0A00000E0C00000E0E00040000000400020004000400040006000400080004000A0004000C0004000E00040200000402020004020400040206000402080004020A0004020C0004020E000404000004040200040404000404060004040800040
310
40A0004040C0004040E00040600000406020004060400040606000406080004060A0004060C0004060E00040800000408020004080400040806000408080004080A0004080C0004080E00040A0000040A0200040A0400040A0600040A0800040A0A00040A0C00040A0E00040C0000040C0200040C0400040C0600040C08000
310
40C0A00040C0C00040C0E00040E0000040E0200040E0400040E0600040E0800040E0A00040E0C00040E0E00080000000800020008000400080006000800080008000A0008000C0008000E00080200000802020008020400080206000802080008020A0008020C0008020E00080400000804020008040400080406000804080
310
008040A0008040C0008040E00080600000806020008060400080606000806080008060A0008060C0008060E00080800000808020008080400080806000808080008080A0008080C0008080E00080A0000080A0200080A0400080A0600080A0800080A0A00080A0C00080A0E00080C0000080C0200080C0400080C0600080C0
310
800080C0A00080C0C00080C0E00080E0000080E0200080E0400080E0600080E0800080E0A00080E0C00080E0E000C0000000C0002000C0004000C0006000C0008000C000A000C000C000C000E000C0200000C0202000C0204000C0206000C0208000C020A000C020C000C020E000C0400000C0402000C0404000C0406000C0
310
408000C040A000C040C000C040E000C0600000C0602000C0604000C0606000C0608000C060A000C060C000C060E000C0800000C0802000C0804000C0806000C0808000C080A000C080C000C080E000C0A00000C0A02000C0A04000C0A06000C0A08000C0A0A000C0A0C000C0A0E000C0C00000C0C02000C0C04000C0C06000
310
C0C08000C0C0A000F0FBFF00A4A0A000808080000000FF0000FF000000FFFF00FF000000FF00FF00FFFF0000FFFFFF00000000000000000000000000000000000000000000000000000000000000000000000000000000000000000000000000F9000000000000000000000000000000000000000000000000000000000000
310
00F900000000000000000000000000000000000000000000000000000000000000F90000000000000000000000000000000000000000000000000000000000FEFEF9000000000000000000000000000000000000000000000000000000FEFEFFFFFEFEFEFEFE000000000000000000000000000000000000000000FEFEFFFF
310
0000F900FFFF00FE000000000000000000000000000000000000FEFEFFFF00000000F9000000FFFFFE00000000000000000000000000000000FE00FF000000000000F90000000000FFFEFE00000000000000000000000000FE00FF00000000000000F9000000000000FFFE00000000000000000000000000FE00FF00000000
310
000000FF00000000000000FFFE0000000000000000000000FE00FF000000000000FFFFF9FFFF0000000000FFFE0000000000000000000000FE00FF00000000FFFF0000F90000FF0000000000FFFE00000000000000000000FEFF00000000FF00000000F9000000FF00000000FFFE00000000000000000000FEFF00000000FF
310
00000000F9000000FF00000000FFFE00000000000000000000FE0000000000FF00000000F9000000FF0000000000FFFE0000000000F9F9F9F9FEF9F9F9F9F9FFF9F9F9F9F9F9F9F9FFF9F9F9F9F9FFFEF9F9F9000000000000FEFF00000000FF00000000F9000000FF0000000000FFFE000000000000000000FEFF00000000
310
FF00000000F9000000FF00000000FFFE00000000000000000000FE00FF00000000FFFF0000F900FFFF0000000000FFFE00000000000000000000FE00FF000000000000FFFFF9FF000000000000FFFE000000000000000000000000FE00FF00000000000000FF00000000000000FFFE000000000000000000000000FE00FF00
310
000000000000F9000000000000FFFE0000000000000000000000000000FE00FF000000000000F90000000000FF00FE000000000000000000000000000000FE00FF0000000000F900000000FFFEFE0000000000000000000000000000000000FEFEFFFF000000F90000FFFFFE00000000000000000000000000000000000000
310
0000FEFEFEFFFFFFFEFEFEFE00000000000000000000000000000000000000000000000000FEFEFE00000000000000000000000000000000000000000000000000000000000000F900000000000000000000000000000000000000000000000000000000000000F90000000000000000000000000000000000000000000000
310
0000000000000000F90000000000000000000000000000000000000000000000000000000000000000000000000000000000000000000000
102
{BLKREFS
331
516A
102
}
 70
     4
280
     1
281
     0
  0
BLOCK_RECORD
  5
4FB7
102
{ACAD_XDICTIONARY
360
5093
102
}
330
1
100
AcDbSymbolTableRecord
100
AcDbBlockTableRecord
  2
ケースＡ-1 SAM200
340
0
310
2800000020000000200000000100080000000000000400000000000000000000000000000000000000000000000080000080000000808000800000008000800080800000C0C0C000C0DCC000F0CAA6000020400000206000002080000020A0000020C0000020E00000400000004020000040400000406000004080000040A0
310
000040C0000040E00000600000006020000060400000606000006080000060A0000060C0000060E00000800000008020000080400000806000008080000080A0000080C0000080E00000A0000000A0200000A0400000A0600000A0800000A0A00000A0C00000A0E00000C0000000C0200000C0400000C0600000C0800000C0
310
A00000C0C00000C0E00000E0000000E0200000E0400000E0600000E0800000E0A00000E0C00000E0E00040000000400020004000400040006000400080004000A0004000C0004000E00040200000402020004020400040206000402080004020A0004020C0004020E000404000004040200040404000404060004040800040
310
40A0004040C0004040E00040600000406020004060400040606000406080004060A0004060C0004060E00040800000408020004080400040806000408080004080A0004080C0004080E00040A0000040A0200040A0400040A0600040A0800040A0A00040A0C00040A0E00040C0000040C0200040C0400040C0600040C08000
310
40C0A00040C0C00040C0E00040E0000040E0200040E0400040E0600040E0800040E0A00040E0C00040E0E00080000000800020008000400080006000800080008000A0008000C0008000E00080200000802020008020400080206000802080008020A0008020C0008020E00080400000804020008040400080406000804080
310
008040A0008040C0008040E00080600000806020008060400080606000806080008060A0008060C0008060E00080800000808020008080400080806000808080008080A0008080C0008080E00080A0000080A0200080A0400080A0600080A0800080A0A00080A0C00080A0E00080C0000080C0200080C0400080C0600080C0
310
800080C0A00080C0C00080C0E00080E0000080E0200080E0400080E0600080E0800080E0A00080E0C00080E0E000C0000000C0002000C0004000C0006000C0008000C000A000C000C000C000E000C0200000C0202000C0204000C0206000C0208000C020A000C020C000C020E000C0400000C0402000C0404000C0406000C0
310
408000C040A000C040C000C040E000C0600000C0602000C0604000C0606000C0608000C060A000C060C000C060E000C0800000C0802000C0804000C0806000C0808000C080A000C080C000C080E000C0A00000C0A02000C0A04000C0A06000C0A08000C0A0A000C0A0C000C0A0E000C0C00000C0C02000C0C04000C0C06000
310
C0C08000C0C0A000F0FBFF00A4A0A000808080000000FF0000FF000000FFFF00FF000000FF00FF00FFFF0000FFFFFF000000000000000000000000000000000000000000000000000000000000000000000000000000000000000000FFFFFF0000000000000000000000000000000000000000000000000000000000FF0000
310
FF00000000000000000000000000000000000000000000000000000000FF0000FF00000000000000000000000000000000000000000000000000000000FF0000FF00000000000000000000000000000000000000000000000000000000FF0000FFFFFFFFFFFFFF00000000000000000000000000000000000000000000FF00
310
00FF0000000000FF00000000000000000000000000000000000000000000FF0000FF0000000000FF00000000000000000000000000000000000000000000FF0000FF0000000000FF00000000000000000000000000000000000000000000FF0000FF0000000000FF00000000000000000000000000000000000000000000FF
310
0000FF0000000000FF00000000000000000000000000000000000000000000FFF900FF0000000000FF00000000000000000000000000000000000000000000FFFFFFFF0000000000FF00000000000000000000000000000000000000000000FFFFFEFF0000000000FF00000000000000000000000000000000000000000000
310
FF0000FF0000000000FF00000000000000000000000000000000000000000000FF0000FF0000000000FF00000000000000000000000000000000000000000000FF0000FF0000000000FF0000000000000000000000000000000000000000000000000000000000000000000000000000000000000000000000000000000000
310
0000000000000000000000000000000000000000000000000000000000000000000000000000000000000000000000000000000000000000000000000000000000000000000000000000000000000000000000000000000000000000000000000000000000000000FA00000000000000000000000000000000000000000000
310
00000000000000FAFAFAFAFAFA00000000000000000000000000000000000000000000000000000000FA00FAFA000000000000000000000000000000000000000000000000FFA4A4A4FFFFFF00000000000000000000000000000000000000000000FFFFFFFFFFFFFFFFFFFF00000000000000000000000000000000000000
310
000000FFFF00FFFFFFFFFFFFFF0000000000000000000000000000000000000000FFFFFFFFFFFF00000000000000000000000000000000000000000000000000F9F9F9F9F9F9FFF9F9000000000000000000000000000000000000000000000000FFFFFFFFFFFF000000000000000000000000000000000000000000000000
310
00000000FFFFFF00000000000000000000000000000000000000000000000000000000000000000000000000000000000000000000000000
102
{BLKREFS
331
4FF5
102
}
 70
     4
280
     1
281
     0
  0
BLOCK_RECORD
  5
512C
102
{ACAD_XDICTIONARY
360
520D
102
}
330
1
100
AcDbSymbolTableRecord
100
AcDbBlockTableRecord
  2
ケースＡ-2 SAM200
340
0
310
2800000020000000200000000100080000000000000400000000000000000000000000000000000000000000000080000080000000808000800000008000800080800000C0C0C000C0DCC000F0CAA6000020400000206000002080000020A0000020C0000020E00000400000004020000040400000406000004080000040A0
310
000040C0000040E00000600000006020000060400000606000006080000060A0000060C0000060E00000800000008020000080400000806000008080000080A0000080C0000080E00000A0000000A0200000A0400000A0600000A0800000A0A00000A0C00000A0E00000C0000000C0200000C0400000C0600000C0800000C0
310
A00000C0C00000C0E00000E0000000E0200000E0400000E0600000E0800000E0A00000E0C00000E0E00040000000400020004000400040006000400080004000A0004000C0004000E00040200000402020004020400040206000402080004020A0004020C0004020E000404000004040200040404000404060004040800040
310
40A0004040C0004040E00040600000406020004060400040606000406080004060A0004060C0004060E00040800000408020004080400040806000408080004080A0004080C0004080E00040A0000040A0200040A0400040A0600040A0800040A0A00040A0C00040A0E00040C0000040C0200040C0400040C0600040C08000
310
40C0A00040C0C00040C0E00040E0000040E0200040E0400040E0600040E0800040E0A00040E0C00040E0E00080000000800020008000400080006000800080008000A0008000C0008000E00080200000802020008020400080206000802080008020A0008020C0008020E00080400000804020008040400080406000804080
310
008040A0008040C0008040E00080600000806020008060400080606000806080008060A0008060C0008060E00080800000808020008080400080806000808080008080A0008080C0008080E00080A0000080A0200080A0400080A0600080A0800080A0A00080A0C00080A0E00080C0000080C0200080C0400080C0600080C0
310
800080C0A00080C0C00080C0E00080E0000080E0200080E0400080E0600080E0800080E0A00080E0C00080E0E000C0000000C0002000C0004000C0006000C0008000C000A000C000C000C000E000C0200000C0202000C0204000C0206000C0208000C020A000C020C000C020E000C0400000C0402000C0404000C0406000C0
310
408000C040A000C040C000C040E000C0600000C0602000C0604000C0606000C0608000C060A000C060C000C060E000C0800000C0802000C0804000C0806000C0808000C080A000C080C000C080E000C0A00000C0A02000C0A04000C0A06000C0A08000C0A0A000C0A0C000C0A0E000C0C00000C0C02000C0C04000C0C06000
310
C0C08000C0C0A000F0FBFF00A4A0A000808080000000FF0000FF000000FFFF00FF000000FF00FF00FFFF0000FFFFFF0000000000000000000000000000000000000000000000000000000000000000000000000000000000000000000000000000FFFFFF000000000000000000000000000000000000000000000000000000
310
00FF0000FF00000000000000000000000000000000000000000000000000000000FF0000FF00000000000000000000000000000000000000000000000000000000FF0000FF00000000000000000000000000000000000000000000FFFFFFFFFFFFFF0000FF00000000000000000000000000000000000000000000FF000000
310
0000FF0000FF00000000000000000000000000000000000000000000FF0000000000FF0000FF00000000000000000000000000000000000000000000FF0000000000FF0000FF00000000000000000000000000000000000000000000FF0000000000FF0000FF00000000000000000000000000000000000000000000FF0000
310
000000FF0000FF00000000000000000000000000000000000000000000FF0000000000FF00F9FF00000000000000000000000000000000000000000000FF0000000000FFFEFEFF00000000000000000000000000000000000000000000FF0000000000FFFEFEFF00000000000000000000000000000000000000000000FF00
310
00000000FF0000FF00000000000000000000000000000000000000000000FF0000000000FF0000FF00000000000000000000000000000000000000000000FF0000000000FF0000FF00000000000000000000000000000000000000000000000000000000000000000000000000000000000000000000000000000000000000
310
00000000000000000000000000000000000000000000000000000000000000000000000000000000000000000000000000000000000000000000000000000000000000000000000000000000000000000000000000000000000000000000000000FA00000000000000000000000000000000000000000000000000000000FA
310
FAFAFAFAFA0000000000000000000000000000000000000000000000000000FAFA00FA0000000000000000000000000000000000000000000000000000000000FFFFFFA4A4A4FF00000000000000000000000000000000000000000000000000FFFFFFFFFFFFFFFFFFFF000000000000000000000000000000000000000000
310
00FFFFFFFFFFFFFF00FFFF00000000000000000000000000000000000000000000000000000000FFFFFFFFFFFF000000000000000000000000000000000000000000000000F9F9FFF9F9F9F9F9F900000000000000000000000000000000000000000000000000FFFFFFFFFFFF000000000000000000000000000000000000
310
000000000000000000FFFFFF0000000000000000000000000000000000000000000000000000000000000000000000000000000000000000
102
{BLKREFS
331
516B
102
}
 70
     4
280
     1
281
     0
  0
BLOCK_RECORD
  5
5638
102
{ACAD_XDICTIONARY
360
56A2
102
}
330
1
100
AcDbSymbolTableRecord
100
AcDbBlockTableRecord
  2
センタ-1 SAM200
340
0
310
2800000020000000200000000100080000000000000400000000000000000000000000000000000000000000000080000080000000808000800000008000800080800000C0C0C000C0DCC000F0CAA6000020400000206000002080000020A0000020C0000020E00000400000004020000040400000406000004080000040A0
310
000040C0000040E00000600000006020000060400000606000006080000060A0000060C0000060E00000800000008020000080400000806000008080000080A0000080C0000080E00000A0000000A0200000A0400000A0600000A0800000A0A00000A0C00000A0E00000C0000000C0200000C0400000C0600000C0800000C0
310
A00000C0C00000C0E00000E0000000E0200000E0400000E0600000E0800000E0A00000E0C00000E0E00040000000400020004000400040006000400080004000A0004000C0004000E00040200000402020004020400040206000402080004020A0004020C0004020E000404000004040200040404000404060004040800040
310
40A0004040C0004040E00040600000406020004060400040606000406080004060A0004060C0004060E00040800000408020004080400040806000408080004080A0004080C0004080E00040A0000040A0200040A0400040A0600040A0800040A0A00040A0C00040A0E00040C0000040C0200040C0400040C0600040C08000
310
40C0A00040C0C00040C0E00040E0000040E0200040E0400040E0600040E0800040E0A00040E0C00040E0E00080000000800020008000400080006000800080008000A0008000C0008000E00080200000802020008020400080206000802080008020A0008020C0008020E00080400000804020008040400080406000804080
310
008040A0008040C0008040E00080600000806020008060400080606000806080008060A0008060C0008060E00080800000808020008080400080806000808080008080A0008080C0008080E00080A0000080A0200080A0400080A0600080A0800080A0A00080A0C00080A0E00080C0000080C0200080C0400080C0600080C0
310
800080C0A00080C0C00080C0E00080E0000080E0200080E0400080E0600080E0800080E0A00080E0C00080E0E000C0000000C0002000C0004000C0006000C0008000C000A000C000C000C000E000C0200000C0202000C0204000C0206000C0208000C020A000C020C000C020E000C0400000C0402000C0404000C0406000C0
310
408000C040A000C040C000C040E000C0600000C0602000C0604000C0606000C0608000C060A000C060C000C060E000C0800000C0802000C0804000C0806000C0808000C080A000C080C000C080E000C0A00000C0A02000C0A04000C0A06000C0A08000C0A0A000C0A0C000C0A0E000C0C00000C0C02000C0C04000C0C06000
310
C0C08000C0C0A000F0FBFF00A4A0A000808080000000FF0000FF000000FFFF00FF000000FF00FF00FFFF0000FFFFFF0000000000000000000000000000000000000000000000000000000000000000000000000000000000000000000000000000FFFFFF000000000000000000000000000000000000000000000000000000
310
00000000FFFFFFFFFFFFFFFF000000000000000000000000000000000000000000000000FFFF0000000000FF000000000000000000000000000000000000000000000000FFFF0000000000FF000000000000000000000000000000000000000000000000FFFF0000000000FF00000000000000000000000000000000000000
310
0000000000FFFF0000000000FF000000000000000000000000000000000000000000000000FFFF0000000000FF000000000000000000000000000000000000000000000000FFFF0000000000FF000000000000000000000000000000000000000000000000FFFF0000000000FF000000000000000000000000000000000000
310
000000000000FFFF0000000000FF000000000000000000000000000000000000000000000000FFFF0000000000FF000000000000000000000000000000000000000000000000FFFF0000000000FF000000000000000000000000000000000000000000000000FFFF0000000000FF00000000000000000000FF000000000000
310
00000000000000FFFF0000000000FF00000000000000000000FF0000000000000000000000000000000000000000FF00000000000000000000FF0000000000000000000000000000000000000000FF00000000000000000000FF0000000000000000000000000000000000000000FF00000000000000000000FF0000000000
310
000000000000000000000000000000FF00000000000000000000FF0000000000000000000000000000000000000000FF00000000000000000000FF0000000000000000000000000000000000000000FF00000000000000000000FFFFFFFFFFFFFFFFFFFFFFFFFFFFFFFFFFFFFFFFFFFF00000000000000000000FFFFFFFFFF
310
FFFFFFFFFFFFFFFFFFFFFFFFFFFFFFFFFF00000000000000000000FF0000000000000000000000000000000000000000FF00000000000000000000FF0000000000000000000000000000000000000000FF00000000000000000000FF0000000000000000000000000000000000000000FF00000000000000000000FF000000
310
00F9000000000000000000000000000000FF00000000000000000000FFFFFFFFFFF9FFFFFFFFFFFFFFFFFFFFFFFFFFFFFFFF00000000000000000000000000FFFFFFFFFFFFF9000000000000000000000000000000000000000000000000000000F90000000000000000000000000000000000000000000000000000000000
310
0000F90000000000000000000000000000000000000000000000000000000000000000000000000000000000000000000000000000000000
102
{BLKREFS
331
5659
102
}
 70
     4
280
     1
281
     0
  0
BLOCK_RECORD
  5
56D5
102
{ACAD_XDICTIONARY
360
574F
102
}
330
1
100
AcDbSymbolTableRecord
100
AcDbBlockTableRecord
  2
センタ-2 SAM200
340
0
310
2800000020000000200000000100080000000000000400000000000000000000000000000000000000000000000080000080000000808000800000008000800080800000C0C0C000C0DCC000F0CAA6000020400000206000002080000020A0000020C0000020E00000400000004020000040400000406000004080000040A0
310
000040C0000040E00000600000006020000060400000606000006080000060A0000060C0000060E00000800000008020000080400000806000008080000080A0000080C0000080E00000A0000000A0200000A0400000A0600000A0800000A0A00000A0C00000A0E00000C0000000C0200000C0400000C0600000C0800000C0
310
A00000C0C00000C0E00000E0000000E0200000E0400000E0600000E0800000E0A00000E0C00000E0E00040000000400020004000400040006000400080004000A0004000C0004000E00040200000402020004020400040206000402080004020A0004020C0004020E000404000004040200040404000404060004040800040
310
40A0004040C0004040E00040600000406020004060400040606000406080004060A0004060C0004060E00040800000408020004080400040806000408080004080A0004080C0004080E00040A0000040A0200040A0400040A0600040A0800040A0A00040A0C00040A0E00040C0000040C0200040C0400040C0600040C08000
310
40C0A00040C0C00040C0E00040E0000040E0200040E0400040E0600040E0800040E0A00040E0C00040E0E00080000000800020008000400080006000800080008000A0008000C0008000E00080200000802020008020400080206000802080008020A0008020C0008020E00080400000804020008040400080406000804080
310
008040A0008040C0008040E00080600000806020008060400080606000806080008060A0008060C0008060E00080800000808020008080400080806000808080008080A0008080C0008080E00080A0000080A0200080A0400080A0600080A0800080A0A00080A0C00080A0E00080C0000080C0200080C0400080C0600080C0
310
800080C0A00080C0C00080C0E00080E0000080E0200080E0400080E0600080E0800080E0A00080E0C00080E0E000C0000000C0002000C0004000C0006000C0008000C000A000C000C000C000E000C0200000C0202000C0204000C0206000C0208000C020A000C020C000C020E000C0400000C0402000C0404000C0406000C0
310
408000C040A000C040C000C040E000C0600000C0602000C0604000C0606000C0608000C060A000C060C000C060E000C0800000C0802000C0804000C0806000C0808000C080A000C080C000C080E000C0A00000C0A02000C0A04000C0A06000C0A08000C0A0A000C0A0C000C0A0E000C0C00000C0C02000C0C04000C0C06000
310
C0C08000C0C0A000F0FBFF00A4A0A000808080000000FF0000FF000000FFFF00FF000000FF00FF00FFFF0000FFFFFF000000000000000000000000000000000000000000000000000000000000000000000000000000000000000000FFFFFF00000000000000000000000000000000000000000000FFFFFFFFFFFFFFFF0000
310
00000000000000000000000000000000000000000000FF0000000000FFFF000000000000000000000000000000000000000000000000FF0000000000FFFF000000000000000000000000000000000000000000000000FF0000000000FFFF000000000000000000000000000000000000000000000000FF0000000000FFFF00
310
0000000000000000000000000000000000000000000000FF0000000000FFFF000000000000000000000000000000000000000000000000FF0000000000FFFF000000000000000000000000000000000000000000000000FF0000000000FFFF000000000000000000000000000000000000000000000000FF0000000000FFFF
310
000000000000000000000000000000000000000000000000FF0000000000FFFF000000000000000000000000000000000000000000000000FF0000000000FFFF000000000000000000000000000000000000000000000000FF0000000000FFFF000000000000000000000000000000000000000000000000FF0000000000FF
310
FF00000000000000000000000000FF00000000000000000000FF0000000000000000000000000000000000000000FF00000000000000000000FF0000000000000000000000000000000000000000FF00000000000000000000FF0000000000000000000000000000000000000000FF00000000000000000000FF0000000000
310
000000000000000000000000000000FF00000000000000000000FF0000000000000000000000000000000000000000FF00000000000000000000FF0000000000000000000000000000000000000000FF00000000000000000000FFFFFFFFFFFFFFFFFFFFFFFFFFFFFFFFFFFFFFFFFFFF00000000000000000000FFFFFFFFFF
310
FFFFFFFFFFFFFFFFFFFFFFFFFFFFFFFFFF00000000000000000000FF00000000000000000000FAFAFAFA000000000000FF00000000000000000000FF000000000000FAFAFAFAFAFAFAFAFA0000000000FF00000000000000000000FF00000000000000FAFA0000FAFA00000000000000FF00000000000000000000FF000000
310
00000000FAFA0000FAFA0000F900000000FF00000000000000000000FFFFFFFFFFFFFFFFFFFFFFFFFAFAFFFFFFFFFFFFFFFF00000000000000000000000000000000000000000000F9FFFFFFFFFFFF0000000000000000000000000000000000000000000000000000000000F9000000000000000000000000000000000000
310
00000000000000000000000000F9000000000000000000000000000000000000000000000000000000000000000000000000000000000000
102
{BLKREFS
331
56F6
102
}
 70
     4
280
     1
281
     0
  0
BLOCK_RECORD
  5
57C6
102
{ACAD_XDICTIONARY
360
58B9
102
}
330
1
100
AcDbSymbolTableRecord
100
AcDbBlockTableRecord
  2
リーマボルト-1 SAM200 M10
340
0
310
2800000020000000200000000100080000000000000400000000000000000000000000000000000000000000000080000080000000808000800000008000800080800000C0C0C000C0DCC000F0CAA6000020400000206000002080000020A0000020C0000020E00000400000004020000040400000406000004080000040A0
310
000040C0000040E00000600000006020000060400000606000006080000060A0000060C0000060E00000800000008020000080400000806000008080000080A0000080C0000080E00000A0000000A0200000A0400000A0600000A0800000A0A00000A0C00000A0E00000C0000000C0200000C0400000C0600000C0800000C0
310
A00000C0C00000C0E00000E0000000E0200000E0400000E0600000E0800000E0A00000E0C00000E0E00040000000400020004000400040006000400080004000A0004000C0004000E00040200000402020004020400040206000402080004020A0004020C0004020E000404000004040200040404000404060004040800040
310
40A0004040C0004040E00040600000406020004060400040606000406080004060A0004060C0004060E00040800000408020004080400040806000408080004080A0004080C0004080E00040A0000040A0200040A0400040A0600040A0800040A0A00040A0C00040A0E00040C0000040C0200040C0400040C0600040C08000
310
40C0A00040C0C00040C0E00040E0000040E0200040E0400040E0600040E0800040E0A00040E0C00040E0E00080000000800020008000400080006000800080008000A0008000C0008000E00080200000802020008020400080206000802080008020A0008020C0008020E00080400000804020008040400080406000804080
310
008040A0008040C0008040E00080600000806020008060400080606000806080008060A0008060C0008060E00080800000808020008080400080806000808080008080A0008080C0008080E00080A0000080A0200080A0400080A0600080A0800080A0A00080A0C00080A0E00080C0000080C0200080C0400080C0600080C0
310
800080C0A00080C0C00080C0E00080E0000080E0200080E0400080E0600080E0800080E0A00080E0C00080E0E000C0000000C0002000C0004000C0006000C0008000C000A000C000C000C000E000C0200000C0202000C0204000C0206000C0208000C020A000C020C000C020E000C0400000C0402000C0404000C0406000C0
310
408000C040A000C040C000C040E000C0600000C0602000C0604000C0606000C0608000C060A000C060C000C060E000C0800000C0802000C0804000C0806000C0808000C080A000C080C000C080E000C0A00000C0A02000C0A04000C0A06000C0A08000C0A0A000C0A0C000C0A0E000C0C00000C0C02000C0C04000C0C06000
310
C0C08000C0C0A000F0FBFF00A4A0A000808080000000FF0000FF000000FFFF00FF000000FF00FF00FFFF0000FFFFFF0000000000000000000000000000000000000000000000000000000000000000000000000000000000000000000000000000000000000000000000000000000000000000000000000000000000000000
310
00000000000000000000000000000000000000000000000000000000000000000000000000000000000000000000000000000000000000000000000000000000000000000000000000000000000000000000000000000000000000000000000000000000000000000000000000000000000000000000000000000000000000
310
00000000000000000000000000000000000000000000000000000000000000000000000000000000000000000000000000000000000000000000000000000000000000000000000000000000000000000000000000000000000000000000000000000000000000000000000000000000000000000000000000000000000000
310
00000000000000000000FFFFFFFFFF000000000000FFFFFFFF000000000000000000000000000000FFFFFF000000FF000000000000FF0000000000000000000000000000000000000000FF000000FF0000000000FFFF0000FFFF00000000000000000000000000FFFF00FFFFFFFFFFFFFFFF0000FFFF000000FF0000000000
310
0000000000000000FFFF00FF000000FF00FFFF0000FFFF000000FF00000000000000000000000000FFFFFFFF000000FF00FFFF0000FFFF000000FF00000000000000000000000000FF00FFFF000000FF00FFFF0000FFFF000000FF00000000000000000000000000FF0000FF000000FF00FFFF0000FFFF0000FFFF00000000
310
000000000000000000FFFF00FFFFFFFFFFFFFFFF000000FF0000000000000000000000000000000000000000FF000000FF000000000000FFFFFFFF000000000000000000000000000000FFFFFF000000FF000000000000000000000000000000000000000000000000000000FFFFFFFFFF0000000000000000000000000000
310
00000000000000000000000000000000000000000000000000000000000000000000000000000000000000000000000000000000000000000000000000000000000000000000000000000000000000000000000000000000000000000000000000000000000000000000000000000000000000000000000000000000000000
310
00000000000000000000000000000000000000000000000000000000000000000000000000000000000000000000000000000000000000000000000000000000000000000000000000000000000000000000000000000000000000000000000000000000000000000000000000000000000000000000000000000000000000
310
0000000000000000000000000000000000000000000000000000000000000000000000000000000000000000000000000000000000000000
102
{BLKREFS
331
5858
102
}
 70
     4
280
     1
281
     0
  0
BLOCK_RECORD
  5
5928
102
{ACAD_XDICTIONARY
360
59B5
102
}
330
1
100
AcDbSymbolTableRecord
100
AcDbBlockTableRecord
  2
リーマボルト-2 SAM200 M10
340
0
310
2800000020000000200000000100080000000000000400000000000000000000000000000000000000000000000080000080000000808000800000008000800080800000C0C0C000C0DCC000F0CAA6000020400000206000002080000020A0000020C0000020E00000400000004020000040400000406000004080000040A0
310
000040C0000040E00000600000006020000060400000606000006080000060A0000060C0000060E00000800000008020000080400000806000008080000080A0000080C0000080E00000A0000000A0200000A0400000A0600000A0800000A0A00000A0C00000A0E00000C0000000C0200000C0400000C0600000C0800000C0
310
A00000C0C00000C0E00000E0000000E0200000E0400000E0600000E0800000E0A00000E0C00000E0E00040000000400020004000400040006000400080004000A0004000C0004000E00040200000402020004020400040206000402080004020A0004020C0004020E000404000004040200040404000404060004040800040
310
40A0004040C0004040E00040600000406020004060400040606000406080004060A0004060C0004060E00040800000408020004080400040806000408080004080A0004080C0004080E00040A0000040A0200040A0400040A0600040A0800040A0A00040A0C00040A0E00040C0000040C0200040C0400040C0600040C08000
310
40C0A00040C0C00040C0E00040E0000040E0200040E0400040E0600040E0800040E0A00040E0C00040E0E00080000000800020008000400080006000800080008000A0008000C0008000E00080200000802020008020400080206000802080008020A0008020C0008020E00080400000804020008040400080406000804080
310
008040A0008040C0008040E00080600000806020008060400080606000806080008060A0008060C0008060E00080800000808020008080400080806000808080008080A0008080C0008080E00080A0000080A0200080A0400080A0600080A0800080A0A00080A0C00080A0E00080C0000080C0200080C0400080C0600080C0
310
800080C0A00080C0C00080C0E00080E0000080E0200080E0400080E0600080E0800080E0A00080E0C00080E0E000C0000000C0002000C0004000C0006000C0008000C000A000C000C000C000E000C0200000C0202000C0204000C0206000C0208000C020A000C020C000C020E000C0400000C0402000C0404000C0406000C0
310
408000C040A000C040C000C040E000C0600000C0602000C0604000C0606000C0608000C060A000C060C000C060E000C0800000C0802000C0804000C0806000C0808000C080A000C080C000C080E000C0A00000C0A02000C0A04000C0A06000C0A08000C0A0A000C0A0C000C0A0E000C0C00000C0C02000C0C04000C0C06000
310
C0C08000C0C0A000F0FBFF00A4A0A000808080000000FF0000FF000000FFFF00FF000000FF00FF00FFFF0000FFFFFF0000000000000000000000000000000000000000000000000000000000000000000000000000000000000000000000000000000000000000000000000000000000000000000000000000000000000000
310
00000000000000000000000000000000000000000000000000000000000000000000000000000000000000000000000000000000000000000000000000000000000000000000000000000000000000000000000000000000000000000000000000000000000000000000000000000000000000000000000000000000000000
310
00000000000000000000000000000000000000000000000000000000000000000000000000000000000000000000000000000000000000000000000000000000000000000000000000000000000000000000000000000000000000000000000000000000000000000000000000000000000000000000FFFFFFFFFF00000000
310
0000000000000000000000000000000000000000000000FF000000FFFFFF000000000000000000000000000000FFFFFFFF000000000000FF000000FF0000000000000000000000000000000000000000FF000000FFFFFFFFFFFFFFFF00FFFF00000000000000000000000000FFFF0000FFFF0000FFFF00FF000000FF0000FF
310
00000000000000000000000000FF000000FFFF0000FFFF00FF000000FFFFFFFF00000000000000000000000000FF000000FFFF0000FFFF00FF000000FFFF00FF00000000000000000000000000FF000000FFFF0000FFFF00FF000000FF00FFFF00000000000000000000000000FF000000FFFF0000FFFFFFFFFFFFFFFF00FF
310
FF00000000000000000000000000FFFF0000FFFF0000000000FF000000FF0000000000000000000000000000000000000000FF000000000000FF000000FFFFFF000000000000000000000000000000FFFFFFFF000000000000FFFFFFFFFF000000000000000000000000000000000000000000000000000000000000000000
310
00000000000000000000000000000000000000000000000000000000000000000000000000000000000000000000000000000000000000000000000000000000000000000000000000000000000000000000000000000000000000000000000000000000000000000000000000000000000000000000000000000000000000
310
00000000000000000000000000000000000000000000000000000000000000000000000000000000000000000000000000000000000000000000000000000000000000000000000000000000000000000000000000000000000000000000000000000000000000000000000000000000000000000000000000000000000000
310
0000000000000000000000000000000000000000000000000000000000000000000000000000000000000000000000000000000000000000
102
{BLKREFS
331
5954
102
}
 70
     4
280
     1
281
     0
  0
BLOCK_RECORD
  5
5DA9
330
1
100
AcDbSymbolTableRecord
100
AcDbBlockTableRecord
  2
*D15
340
0
 70
     0
280
     1
281
     0
  0
BLOCK_RECORD
  5
5DC1
330
1
100
AcDbSymbolTableRecord
100
AcDbBlockTableRecord
  2
*D16
340
0
 70
     0
280
     1
281
     0
  0
BLOCK_RECORD
  5
5E55
330
1
100
AcDbSymbolTableRecord
100
AcDbBlockTableRecord
  2
*D17
340
0
 70
     0
280
     1
281
     0
  0
BLOCK_RECORD
  5
5E9B
330
1
100
AcDbSymbolTableRecord
100
AcDbBlockTableRecord
  2
*D18
340
0
 70
     0
280
     1
281
     0
  0
BLOCK_RECORD
  5
5EB3
330
1
100
AcDbSymbolTableRecord
100
AcDbBlockTableRecord
  2
*D19
340
0
 70
     0
280
     1
281
     0
  0
BLOCK_RECORD
  5
5ECB
330
1
100
AcDbSymbolTableRecord
100
AcDbBlockTableRecord
  2
*D20
340
0
 70
     0
280
     1
281
     0
  0
BLOCK_RECORD
  5
6063
330
1
100
AcDbSymbolTableRecord
100
AcDbBlockTableRecord
  2
*D21
340
0
 70
     0
280
     1
281
     0
  0
BLOCK_RECORD
  5
60C7
330
1
100
AcDbSymbolTableRecord
100
AcDbBlockTableRecord
  2
*D22
340
0
 70
     0
280
     1
281
     0
  0
BLOCK_RECORD
  5
60E3
330
1
100
AcDbSymbolTableRecord
100
AcDbBlockTableRecord
  2
*D23
340
0
 70
     0
280
     1
281
     0
  0
BLOCK_RECORD
  5
60FB
330
1
100
AcDbSymbolTableRecord
100
AcDbBlockTableRecord
  2
*D24
340
0
 70
     0
280
     1
281
     0
  0
BLOCK_RECORD
  5
612B
330
1
100
AcDbSymbolTableRecord
100
AcDbBlockTableRecord
  2
*D25
340
0
 70
     0
280
     1
281
     0
  0
BLOCK_RECORD
  5
6143
330
1
100
AcDbSymbolTableRecord
100
AcDbBlockTableRecord
  2
*D26
340
0
 70
     0
280
     1
281
     0
  0
BLOCK_RECORD
  5
9262
102
{ACAD_XDICTIONARY
360
9587
102
}
330
1
100
AcDbSymbolTableRecord
100
AcDbBlockTableRecord
  2
ＧＣスペーサ SAMY200
340
0
310
2800000020000000200000000100080000000000000400000000000000000000000000000000000000000000000080000080000000808000800000008000800080800000C0C0C000C0DCC000F0CAA6000020400000206000002080000020A0000020C0000020E00000400000004020000040400000406000004080000040A0
310
000040C0000040E00000600000006020000060400000606000006080000060A0000060C0000060E00000800000008020000080400000806000008080000080A0000080C0000080E00000A0000000A0200000A0400000A0600000A0800000A0A00000A0C00000A0E00000C0000000C0200000C0400000C0600000C0800000C0
310
A00000C0C00000C0E00000E0000000E0200000E0400000E0600000E0800000E0A00000E0C00000E0E00040000000400020004000400040006000400080004000A0004000C0004000E00040200000402020004020400040206000402080004020A0004020C0004020E000404000004040200040404000404060004040800040
310
40A0004040C0004040E00040600000406020004060400040606000406080004060A0004060C0004060E00040800000408020004080400040806000408080004080A0004080C0004080E00040A0000040A0200040A0400040A0600040A0800040A0A00040A0C00040A0E00040C0000040C0200040C0400040C0600040C08000
310
40C0A00040C0C00040C0E00040E0000040E0200040E0400040E0600040E0800040E0A00040E0C00040E0E00080000000800020008000400080006000800080008000A0008000C0008000E00080200000802020008020400080206000802080008020A0008020C0008020E00080400000804020008040400080406000804080
310
008040A0008040C0008040E00080600000806020008060400080606000806080008060A0008060C0008060E00080800000808020008080400080806000808080008080A0008080C0008080E00080A0000080A0200080A0400080A0600080A0800080A0A00080A0C00080A0E00080C0000080C0200080C0400080C0600080C0
310
800080C0A00080C0C00080C0E00080E0000080E0200080E0400080E0600080E0800080E0A00080E0C00080E0E000C0000000C0002000C0004000C0006000C0008000C000A000C000C000C000E000C0200000C0202000C0204000C0206000C0208000C020A000C020C000C020E000C0400000C0402000C0404000C0406000C0
310
408000C040A000C040C000C040E000C0600000C0602000C0604000C0606000C0608000C060A000C060C000C060E000C0800000C0802000C0804000C0806000C0808000C080A000C080C000C080E000C0A00000C0A02000C0A04000C0A06000C0A08000C0A0A000C0A0C000C0A0E000C0C00000C0C02000C0C04000C0C06000
310
C0C08000C0C0A000F0FBFF00A4A0A000808080000000FF0000FF000000FFFF00FF000000FF00FF00FFFF0000FFFFFF00000000000000000000000000000000000000000000000000000000000000000000000000000000000000000000000000000000000000000000000000000000000000FFFFFF00000000000000000000
310
000000000000000000000000FFFFFF00000000FF00FF00000000000000000000000000000000000000000000FF00FF000000F9FFF9FF00000000000000000000000000000000000000000000FFF9FFF9000000FF00FF00000000000000000000000000000000000000000000FF00FF00000000FF00FFFFFFFFFFFFFFFFFFFF
310
FFFEFEFFFFFFFFFFFFFFFFFFFFFF00FF00000000FF00FF00000000000000000000FEFE00000000000000000000FF00FF00000000FF00FF00000000000000000000FE0000000000000000000000FF00FF00000000FF00FF00000000000000000000FE0000000000000000000000FF00FF00000000FF00FF0000000000000000
310
0000FEFE00000000000000000000FF00FF00000000FF00FF00000000000000000000FEFE00000000000000000000FF00FF00000000FF00FF00000000000000000000FEFE00000000000000000000FF00FF00000000FF00FF00000000000000000000FE0000000000000000000000FF00FF00000000FF00FF00000000000000
310
000000FEFE00000000000000000000FF00FF00000000FF00FF00000000000000000000FEFE00000000000000000000FF00FF00000000FF00FF00000000000000000000FEFE00000000000000000000FF00FF00000000FF000000000000000000000000FEFE000000000000000000000000FF00000000FF0000000000000000
310
00000000FE00000000000000000000000000FF00000000FF000000000000000000000000FEFE000000000000000000000000FF00000000FF000000000000000000000000FEFE000000000000000000000000FF00000000FF000000000000000000000000FEFE000000000000000000000000FF00000000FF00000000000000
310
0000000000FE00000000000000000000000000FF00000000FF00F9FFFFFFFFFFFFFFFFFFFFFEFFFFFFFFFFFFFFFFFFFFF9F900FF00000000FF00FFF9FF0000000000000000FEFE0000000000000000F9F9F900FF00000000FF00F9F9F9FFFFFFFFFFFFFFFFFEFEFFFFFFFFFFFFFFFFF9F9F900FF00000000FFFFFFF9000000
310
0000000000000000000000000000000000F9FFFFFF000000F9F9F9FF00000000000000000000000000000000000000000000FFF9F9F9000000FFFFFF00000000000000000000000000000000000000000000FFFFFF00000000FFFFFF00000000000000000000000000000000000000000000FFFFFF00000000000000000000
310
0000000000000000000000000000000000000000000000000000000000000000000000000000000000000000000000000000000000000000
102
{BLKREFS
331
92CB
102
}
 70
     4
280
     1
281
     0
  0
BLOCK_RECORD
  5
98EE
330
1
100
AcDbSymbolTableRecord
100
AcDbBlockTableRecord
  2
*D28
340
0
 70
     0
280
     1
281
     0
  0
BLOCK_RECORD
  5
9A87
330
1
100
AcDbSymbolTableRecord
100
AcDbBlockTableRecord
  2
*D29
340
0
 70
     0
280
     1
281
     0
  0
BLOCK_RECORD
  5
ABCA
330
1
100
AcDbSymbolTableRecord
100
AcDbBlockTableRecord
  2
*D30
340
0
 70
     0
280
     1
281
     0
  0
BLOCK_RECORD
  5
AD3A
330
1
100
AcDbSymbolTableRecord
100
AcDbBlockTableRecord
  2
*D31
340
0
 70
     0
280
     1
281
     0
  0
BLOCK_RECORD
  5
AD5E
330
1
100
AcDbSymbolTableRecord
100
AcDbBlockTableRecord
  2
*D32
340
0
 70
     0
280
     1
281
     0
  0
BLOCK_RECORD
  5
ADEB
330
1
100
AcDbSymbolTableRecord
100
AcDbBlockTableRecord
  2
*D33
340
0
 70
     0
280
     1
281
     0
  0
BLOCK_RECORD
  5
AE33
330
1
100
AcDbSymbolTableRecord
100
AcDbBlockTableRecord
  2
*D34
340
0
 70
     0
280
     1
281
     0
  0
BLOCK_RECORD
  5
AF58
330
1
100
AcDbSymbolTableRecord
100
AcDbBlockTableRecord
  2
*D35
340
0
 70
     0
280
     1
281
     0
  0
BLOCK_RECORD
  5
B020
330
1
100
AcDbSymbolTableRecord
100
AcDbBlockTableRecord
  2
ケース
340
0
310
2800000020000000200000000100080000000000000400000000000000000000000000000000000000000000000080000080000000808000800000008000800080800000C0C0C000C0DCC000F0CAA6000020400000206000002080000020A0000020C0000020E00000400000004020000040400000406000004080000040A0
310
000040C0000040E00000600000006020000060400000606000006080000060A0000060C0000060E00000800000008020000080400000806000008080000080A0000080C0000080E00000A0000000A0200000A0400000A0600000A0800000A0A00000A0C00000A0E00000C0000000C0200000C0400000C0600000C0800000C0
310
A00000C0C00000C0E00000E0000000E0200000E0400000E0600000E0800000E0A00000E0C00000E0E00040000000400020004000400040006000400080004000A0004000C0004000E00040200000402020004020400040206000402080004020A0004020C0004020E000404000004040200040404000404060004040800040
310
40A0004040C0004040E00040600000406020004060400040606000406080004060A0004060C0004060E00040800000408020004080400040806000408080004080A0004080C0004080E00040A0000040A0200040A0400040A0600040A0800040A0A00040A0C00040A0E00040C0000040C0200040C0400040C0600040C08000
310
40C0A00040C0C00040C0E00040E0000040E0200040E0400040E0600040E0800040E0A00040E0C00040E0E00080000000800020008000400080006000800080008000A0008000C0008000E00080200000802020008020400080206000802080008020A0008020C0008020E00080400000804020008040400080406000804080
310
008040A0008040C0008040E00080600000806020008060400080606000806080008060A0008060C0008060E00080800000808020008080400080806000808080008080A0008080C0008080E00080A0000080A0200080A0400080A0600080A0800080A0A00080A0C00080A0E00080C0000080C0200080C0400080C0600080C0
310
800080C0A00080C0C00080C0E00080E0000080E0200080E0400080E0600080E0800080E0A00080E0C00080E0E000C0000000C0002000C0004000C0006000C0008000C000A000C000C000C000E000C0200000C0202000C0204000C0206000C0208000C020A000C020C000C020E000C0400000C0402000C0404000C0406000C0
310
408000C040A000C040C000C040E000C0600000C0602000C0604000C0606000C0608000C060A000C060C000C060E000C0800000C0802000C0804000C0806000C0808000C080A000C080C000C080E000C0A00000C0A02000C0A04000C0A06000C0A08000C0A0A000C0A0C000C0A0E000C0C00000C0C02000C0C04000C0C06000
310
C0C08000C0C0A000F0FBFF00A4A0A000808080000000FF0000FF000000FFFF00FF000000FF00FF00FFFF0000FFFFFF0000000000000000000000000000000000000000000000000000000000000000000000000000000000000000000000000000000000000000000000000000000000000000000000000000000000000000
310
00000000000000000000000000000000000000000000000000000000000000000000000000000000000000000000000000000000000000000000000000000000000000000000000000000000000000000000000000000000000000000000000000000000000000000000000000000000000000000000000000000000000000
310
000000000000000000000000000000000000000000000000000000000000000000000000000000000000000000000000000000FC0000FC00000000000000FC0000FC0000000000000000000000000000000000FCFCFCFC00000000000000FCFCFCFC0000000000000000000000000000000000FC0000FC00000000000000FC
310
0000FC0000000000000000000000000000000000FC0000FC00000000000000FC0000FC0000000000FCFCFCFCFCFCFCFCFCFC0000FC0000FC00000000000000FC0000FC000000FCFC000000000000000000000000FC000000FCFCFCFCFCFCFCFC0000FC00FCFCFCFCFCFCFCFCFCFCFCFCFCFC0000FC00000000000000000000
310
000000FC000000FC00000000000000000000000000FC00000000000000000000000000FC000000FC00000000000000000000000000FC0000000000000000000000000000FCFCFCFCFCFCFCFCFCFCFCFCFCFCFC0000FC00000000000000000000000000000000000000000000000000000000000000FC000000000000000000
310
00000000000000000000000000000000000000000000FC00000000000000000000000000000000000000000000000000000000000000FC0000000000000000000000000000000000000000000000000000000000000000FCFC0000000000000000000000000000000000000000000000000000000000000000FC0000000000
310
000000000000000000000000000000000000000000000000000000FCFCFCFCFCFCFCFCFCFCFCFCFCFCFCFCFCFCFCFCFCFCFCFCFCFC0000000000000000000000000000000000000000000000000000000000000000000000000000000000000000000000000000000000000000000000000000000000000000000000000000
310
00000000000000000000000000000000000000000000000000000000000000000000000000000000000000000000000000000000000000000000000000000000000000000000000000000000000000000000000000000000000000000000000000000000000000000000000000000000000000000000000000000000000000
310
0000000000000000000000000000000000000000000000000000000000000000000000000000000000000000000000000000000000000000
102
{BLKREFS
331
B03B
102
}
 70
     4
280
     1
281
     1
  0
ENDTAB
  0
ENDSEC
  0
SECTION
  2
BLOCKS
  0
BLOCK
  5
20
330
1F
100
AcDbEntity
  8
0
100
AcDbBlockBegin
  2
*Model_Space
 70
     0
 10
0.0
 20
0.0
 30
0.0
  3
*Model_Space
  1

  0
ENDBLK
  5
21
330
1F
100
AcDbEntity
  8
0
100
AcDbBlockEnd
  0
BLOCK
  5
1C
330
1B
100
AcDbEntity
 67
     1
  8
0
100
AcDbBlockBegin
  2
*Paper_Space
 70
     0
 10
0.0
 20
0.0
 30
0.0
  3
*Paper_Space
  1

  0
ENDBLK
  5
1D
330
1B
100
AcDbEntity
 67
     1
  8
0
100
AcDbBlockEnd
  0
BLOCK
  5
24
330
23
100
AcDbEntity
 67
     1
  8
0
100
AcDbBlockBegin
  2
*Paper_Space0
 70
     0
 10
0.0
 20
0.0
 30
0.0
  3
*Paper_Space0
  1

  0
ENDBLK
  5
25
330
23
100
AcDbEntity
 67
     1
  8
0
100
AcDbBlockEnd
  0
BLOCK
  5
6D
330
69
100
AcDbEntity
  8
0
100
AcDbBlockBegin
  2
_Open30
 70
     0
 10
0.0
 20
0.0
 30
0.0
  3
_Open30
  1

  0
LINE
  5
6A
330
69
100
AcDbEntity
  8
0
  6
ByBlock
 62
     0
370
    -2
100
AcDbLine
 10
-1.0
 20
0.26794919
 30
0.0
 11
0.0
 21
0.0
 31
0.0
  0
LINE
  5
6B
330
69
100
AcDbEntity
  8
0
  6
ByBlock
 62
     0
370
    -2
100
AcDbLine
 10
0.0
 20
0.0
 30
0.0
 11
-1.0
 21
-0.26794919
 31
0.0
  0
LINE
  5
6C
330
69
100
AcDbEntity
  8
0
  6
ByBlock
 62
     0
370
    -2
100
AcDbLine
 10
0.0
 20
0.0
 30
0.0
 11
-1.0
 21
0.0
 31
0.0
  0
ENDBLK
  5
6E
330
69
100
AcDbEntity
  8
0
100
AcDbBlockEnd
  0
BLOCK
  5
76
330
74
100
AcDbEntity
  8
0
100
AcDbBlockBegin
  2
GENAXEH
 70
     0
 10
0.0
 20
0.0
 30
0.0
  3
GENAXEH
  1

  0
LINE
  5
75
330
74
100
AcDbEntity
  8
0
100
AcDbLine
 10
-1.0
 20
0.0
 30
0.0
 11
1.0
 21
0.0
 31
0.0
  0
ENDBLK
  5
77
330
74
100
AcDbEntity
  8
0
100
AcDbBlockEnd
  0
BLOCK
  5
3ACB
330
3AC8
100
AcDbEntity
  8
0
100
AcDbBlockBegin
  2
ロッカクアナツキプラグ-1　R1／8
 70
     0
 10
0.0
 20
0.0
 30
0.0
  3
ロッカクアナツキプラグ-1　R1／8
  1

  0
CIRCLE
  5
4EB8
330
3AC8
100
AcDbEntity
  8
AM_0 外形線1
100
AcDbCircle
 10
0.0
 20
0.0
 30
0.0
 40
4.816232
  0
LINE
  5
4EB9
330
3AC8
100
AcDbEntity
  8
AM_7 中心線
100
AcDbLine
 10
0.0
 20
6.71623199999999
 30
0.0
 11
0.0
 21
-6.71623199999999
 31
0.0
  0
CIRCLE
  5
4EBA
330
3AC8
100
AcDbEntity
  8
AM_4 細線
100
AcDbCircle
 10
0.0
 20
0.0
 30
0.0
 40
5.271232
  0
LINE
  5
4EBB
330
3AC8
100
AcDbEntity
  8
AM_0 外形線1
100
AcDbLine
 10
0.0
 20
2.5150000000001
 30
0.0
 11
-2.178053999999974
 21
1.257500000000163
 31
0.0
  0
LINE
  5
4EBC
330
3AC8
100
AcDbEntity
  8
AM_0 外形線1
100
AcDbLine
 10
2.1780540000002
 20
1.257500000000163
 30
0.0
 11
0.0
 21
2.5150000000001
 31
0.0
  0
LINE
  5
4EBD
330
3AC8
100
AcDbEntity
  8
AM_7 中心線
100
AcDbLine
 10
6.71623199999999
 20
0.0
 30
0.0
 11
-6.71623199999999
 21
0.0
 31
0.0
  0
LINE
  5
4EBE
330
3AC8
100
AcDbEntity
  8
AM_0 外形線1
100
AcDbLine
 10
2.1780540000002
 20
-1.257499999999936
 30
0.0
 11
2.1780540000002
 21
1.257500000000163
 31
0.0
  0
LINE
  5
4EBF
330
3AC8
100
AcDbEntity
  8
AM_0 外形線1
100
AcDbLine
 10
0.0
 20
-2.514999999999872
 30
0.0
 11
2.1780540000002
 21
-1.257499999999936
 31
0.0
  0
LINE
  5
4EC0
330
3AC8
100
AcDbEntity
  8
AM_0 外形線1
100
AcDbLine
 10
-2.178053999999974
 20
-1.257499999999936
 30
0.0
 11
0.0
 21
-2.514999999999872
 31
0.0
  0
LINE
  5
4EC1
330
3AC8
100
AcDbEntity
  8
AM_0 外形線1
100
AcDbLine
 10
-2.178053999999974
 20
1.257500000000163
 30
0.0
 11
-2.178053999999974
 21
-1.257499999999936
 31
0.0
  0
ENDBLK
  5
3AD6
330
3AC8
100
AcDbEntity
  8
0
100
AcDbBlockEnd
  0
BLOCK
  5
3C5B
330
3C5A
100
AcDbEntity
  8
0
100
AcDbBlockBegin
  2
GENDOT
 70
     0
 10
0.0
 20
0.0
 30
0.0
  3
GENDOT
  1

  0
LINE
  5
3C5C
330
3C5A
100
AcDbEntity
  8
0
100
AcDbLine
 10
0.0
 20
0.0
 30
0.0
 11
-1.0
 21
0.0
 31
0.0
  0
LWPOLYLINE
  5
3C5D
330
3C5A
100
AcDbEntity
  8
0
100
AcDbPolyline
 90
        2
 70
     1
 43
0.25
 10
-0.125
 20
0.0
 42
1.0
 10
0.125
 20
0.0
 42
1.0
  0
ENDBLK
  5
3C5E
330
3C5A
100
AcDbEntity
  8
0
100
AcDbBlockEnd
  0
BLOCK
  5
3CFB
330
3CFA
100
AcDbEntity
  8
0
100
AcDbBlockBegin
  2
ロッカクアナツキプラグ-2　R1／8
 70
     0
 10
0.0
 20
0.0
 30
0.0
  3
ロッカクアナツキプラグ-2　R1／8
  1

  0
LINE
  5
4EDD
330
3CFA
100
AcDbEntity
  8
AM_7 中心線
100
AcDbLine
 10
-6.716232000000218
 20
0.0
 30
0.0
 11
6.716231999999762
 21
0.0
 31
0.0
  0
LINE
  5
4EDE
330
3CFA
100
AcDbEntity
  8
AM_7 中心線
100
AcDbLine
 10
0.0
 20
-6.71623199999999
 30
0.0
 11
0.0
 21
6.71623199999999
 31
0.0
  0
LINE
  5
4EDF
330
3CFA
100
AcDbEntity
  8
AM_0 外形線1
100
AcDbLine
 10
0.0
 20
2.5150000000001
 30
0.0
 11
2.178053999999974
 21
1.257500000000163
 31
0.0
  0
LINE
  5
4EE0
330
3CFA
100
AcDbEntity
  8
AM_0 外形線1
100
AcDbLine
 10
-2.1780540000002
 20
1.257500000000163
 30
0.0
 11
0.0
 21
2.5150000000001
 31
0.0
  0
LINE
  5
4EE1
330
3CFA
100
AcDbEntity
  8
AM_0 外形線1
100
AcDbLine
 10
-2.1780540000002
 20
-1.257499999999936
 30
0.0
 11
-2.1780540000002
 21
1.257500000000163
 31
0.0
  0
LINE
  5
4EE2
330
3CFA
100
AcDbEntity
  8
AM_0 外形線1
100
AcDbLine
 10
0.0
 20
-2.514999999999872
 30
0.0
 11
-2.1780540000002
 21
-1.257499999999936
 31
0.0
  0
LINE
  5
4EE3
330
3CFA
100
AcDbEntity
  8
AM_0 外形線1
100
AcDbLine
 10
2.178053999999974
 20
-1.257499999999936
 30
0.0
 11
0.0
 21
-2.514999999999872
 31
0.0
  0
LINE
  5
4EE4
330
3CFA
100
AcDbEntity
  8
AM_0 外形線1
100
AcDbLine
 10
2.178053999999974
 20
1.257500000000163
 30
0.0
 11
2.178053999999974
 21
-1.257499999999936
 31
0.0
  0
CIRCLE
  5
4EE5
330
3CFA
100
AcDbEntity
  8
AM_0 外形線1
100
AcDbCircle
 10
0.0
 20
0.0
 30
0.0
 40
4.816232
  0
CIRCLE
  5
4EE6
330
3CFA
100
AcDbEntity
  8
AM_4 細線
100
AcDbCircle
 10
0.0
 20
0.0
 30
0.0
 40
5.271232
  0
ENDBLK
  5
3D06
330
3CFA
100
AcDbEntity
  8
0
100
AcDbBlockEnd
  0
BLOCK
  5
4FB8
330
4FB7
100
AcDbEntity
  8
0
100
AcDbBlockBegin
  2
ケースＡ-1 SAM200
 70
     0
 10
0.0
 20
0.0
 30
0.0
  3
ケースＡ-1 SAM200
  1

  0
LINE
  5
4FBA
330
4FB7
100
AcDbEntity
  8
AM_0 外形線1
100
AcDbLine
 10
18.0
 20
-74.49999999999993
 30
0.0
 11
58.0
 21
-74.49999999999993
 31
0.0
  0
LINE
  5
4FBB
330
4FB7
100
AcDbEntity
  8
AM_0 外形線1
100
AcDbLine
 10
0.0
 20
0.0
 30
0.0
 11
0.0
 21
-98.99999999999996
 31
0.0
  0
LINE
  5
4FBC
330
4FB7
100
AcDbEntity
  8
AM_0 外形線1
100
AcDbLine
 10
15.0
 20
-98.99999999999996
 30
0.0
 11
15.0
 21
0.0
 31
0.0
  0
LINE
  5
4FBD
330
4FB7
100
AcDbEntity
  8
AM_0 外形線1
100
AcDbLine
 10
1.0
 20
-99.99999999999994
 30
0.0
 11
14.0
 21
-99.99999999999994
 31
0.0
  0
LINE
  5
4FBE
330
4FB7
100
AcDbEntity
  8
AM_0 外形線1
100
AcDbLine
 10
0.0
 20
-98.99999999999996
 30
0.0
 11
1.0
 21
-99.99999999999994
 31
0.0
  0
LINE
  5
4FBF
330
4FB7
100
AcDbEntity
  8
AM_0 外形線1
100
AcDbLine
 10
14.0
 20
-99.99999999999994
 30
0.0
 11
15.0
 21
-98.99999999999996
 31
0.0
  0
ARC
  5
4FC0
330
4FB7
100
AcDbEntity
  8
AM_0 外形線1
100
AcDbCircle
 10
18.0
 20
-77.49999999999992
 30
0.0
 40
3.0
100
AcDbArc
 50
90.0
 51
180.0
  0
LINE
  5
4FC1
330
4FB7
100
AcDbEntity
  8
AM_0 外形線1
100
AcDbLine
 10
61.0
 20
-71.49999999999995
 30
0.0
 11
61.0
 21
0.0
 31
0.0
  0
ARC
  5
4FC2
330
4FB7
100
AcDbEntity
  8
AM_0 外形線1
100
AcDbCircle
 10
58.0
 20
-71.49999999999995
 30
0.0
 40
3.0
100
AcDbArc
 50
270.0
 51
0.0
  0
LINE
  5
4FC3
330
4FB7
100
AcDbEntity
  8
AM_7 中心線
100
AcDbLine
 10
-27.0
 20
89.0
 30
0.0
 11
35.0
 21
89.0
 31
0.0
  0
LINE
  5
4FC4
330
4FB7
100
AcDbEntity
  8
AM_7 中心線
100
AcDbLine
 10
16.5
 20
65.0
 30
0.0
 11
45.49999999999999
 21
65.0
 31
0.0
  0
LINE
  5
4FC5
330
4FB7
100
AcDbEntity
  8
AM_0 外形線1
100
AcDbLine
 10
18.0
 20
74.5
 30
0.0
 11
58.0
 21
74.5
 31
0.0
  0
LINE
  5
4FC6
330
4FB7
100
AcDbEntity
  8
AM_0 外形線1
100
AcDbLine
 10
18.5
 20
67.5
 30
0.0
 11
43.5
 21
67.5
 31
0.0
  0
LINE
  5
4FC7
330
4FB7
100
AcDbEntity
  8
AM_3 隠れ線
100
AcDbLine
 10
42.5
 20
63.0
 30
0.0
 11
21.5
 21
63.0
 31
0.0
  0
LINE
  5
4FC8
330
4FB7
100
AcDbEntity
  8
AM_0 外形線1
100
AcDbLine
 10
18.5
 20
64.0
 30
0.0
 11
18.5
 21
67.0
 31
0.0
  0
LINE
  5
4FC9
330
4FB7
100
AcDbEntity
  8
AM_0 外形線1
100
AcDbLine
 10
19.5
 20
63.0
 30
0.0
 11
18.5
 21
64.0
 31
0.0
  0
LINE
  5
4FCA
330
4FB7
100
AcDbEntity
  8
AM_0 外形線1
100
AcDbLine
 10
21.5
 20
63.0
 30
0.0
 11
19.5
 21
63.0
 31
0.0
  0
LINE
  5
4FCB
330
4FB7
100
AcDbEntity
  8
AM_0 外形線1
100
AcDbLine
 10
15.0
 20
77.5
 30
0.0
 11
15.0
 21
99.0
 31
0.0
  0
LINE
  5
4FCC
330
4FB7
100
AcDbEntity
  8
AM_0 外形線1
100
AcDbLine
 10
1.90000000000009
 20
76.40000000000009
 30
0.0
 11
0.0
 21
76.40000000000009
 31
0.0
  0
LINE
  5
4FCE
330
4FB7
100
AcDbEntity
  8
AM_0 外形線1
100
AcDbLine
 10
17.5
 20
68.0
 30
0.0
 11
-3.0
 21
68.0
 31
0.0
  0
LINE
  5
4FD0
330
4FB7
100
AcDbEntity
  8
AM_0 外形線1
100
AcDbLine
 10
-3.0
 20
72.0
 30
0.0
 11
-2.5
 21
72.5
 31
0.0
  0
LINE
  5
4FD1
330
4FB7
100
AcDbEntity
  8
AM_0 外形線1
100
AcDbLine
 10
-3.0
 20
68.0
 30
0.0
 11
-3.0
 21
72.0
 31
0.0
  0
ARC
  5
4FD2
330
4FB7
100
AcDbEntity
  8
AM_0 外形線1
100
AcDbCircle
 10
1.90000000000009
 20
75.90000000000009
 30
0.0
 40
0.5
100
AcDbArc
 50
0.0
 51
90.0
  0
LINE
  5
4FD3
330
4FB7
100
AcDbEntity
  8
AM_0 外形線1
100
AcDbLine
 10
2.400000000000089
 20
73.0
 30
0.0
 11
2.400000000000089
 21
75.90000000000009
 31
0.0
  0
ARC
  5
4FD4
330
4FB7
100
AcDbEntity
  8
AM_0 外形線1
100
AcDbCircle
 10
1.90000000000009
 20
73.0
 30
0.0
 40
0.5
100
AcDbArc
 50
270.0
 51
0.0
  0
ARC
  5
4FD5
330
4FB7
100
AcDbEntity
  8
AM_0 外形線1
100
AcDbCircle
 10
17.5
 20
67.0
 30
0.0
 40
1.0
100
AcDbArc
 50
0.0
 51
90.0
  0
ARC
  5
4FD6
330
4FB7
100
AcDbEntity
  8
AM_0 外形線1
100
AcDbCircle
 10
18.0
 20
77.5
 30
0.0
 40
3.0
100
AcDbArc
 50
180.0
 51
270.0
  0
LINE
  5
4FD8
330
4FB7
100
AcDbEntity
  8
AM_0 外形線1
100
AcDbLine
 10
1.0
 20
100.0
 30
0.0
 11
14.0
 21
100.0
 31
0.0
  0
LINE
  5
4FDA
330
4FB7
100
AcDbEntity
  8
AM_0 外形線1
100
AcDbLine
 10
0.0
 20
99.0
 30
0.0
 11
1.0
 21
100.0
 31
0.0
  0
LINE
  5
4FDB
330
4FB7
100
AcDbEntity
  8
AM_0 外形線1
100
AcDbLine
 10
14.0
 20
100.0
 30
0.0
 11
15.0
 21
99.0
 31
0.0
  0
LINE
  5
4FDC
330
4FB7
100
AcDbEntity
  8
AM_3 隠れ線
100
AcDbLine
 10
43.5
 20
66.31298600000002
 30
0.0
 11
43.5
 21
64.0
 31
0.0
  0
LINE
  5
4FDD
330
4FB7
100
AcDbEntity
  8
AM_0 外形線1
100
AcDbLine
 10
48.0
 20
61.25
 30
0.0
 11
48.0
 21
67.0
 31
0.0
  0
LINE
  5
4FDE
330
4FB7
100
AcDbEntity
  8
AM_0 外形線1
100
AcDbLine
 10
61.0
 20
71.5
 30
0.0
 11
61.0
 21
61.25
 31
0.0
  0
LINE
  5
4FE0
330
4FB7
100
AcDbEntity
  8
AM_3 隠れ線
100
AcDbLine
 10
43.5
 20
64.0
 30
0.0
 11
42.5
 21
63.0
 31
0.0
  0
LINE
  5
4FE1
330
4FB7
100
AcDbEntity
  8
AM_0 外形線1
100
AcDbLine
 10
57.79999999999995
 20
64.70000000000005
 30
0.0
 11
51.20000000000004
 21
64.70000000000005
 31
0.0
  0
LINE
  5
4FE2
330
4FB7
100
AcDbEntity
  8
AM_0 外形線1
100
AcDbLine
 10
50.70000000000003
 20
61.25
 30
0.0
 11
48.0
 21
61.25
 31
0.0
  0
LINE
  5
4FE3
330
4FB7
100
AcDbEntity
  8
AM_0 外形線1
100
AcDbLine
 10
50.70000000000003
 20
64.20000000000005
 30
0.0
 11
50.70000000000003
 21
61.25
 31
0.0
  0
ARC
  5
4FE4
330
4FB7
100
AcDbEntity
  8
AM_0 外形線1
100
AcDbCircle
 10
51.20000000000004
 20
64.20000000000005
 30
0.0
 40
0.5
100
AcDbArc
 50
90.0
 51
180.0
  0
LINE
  5
4FE5
330
4FB7
100
AcDbEntity
  8
AM_0 外形線1
100
AcDbLine
 10
48.0
 20
61.25
 30
0.0
 11
48.0
 21
60.0
 31
0.0
  0
LINE
  5
4FE6
330
4FB7
100
AcDbEntity
  8
AM_0 外形線1
100
AcDbLine
 10
50.70000000000003
 20
61.25
 30
0.0
 11
50.70000000000003
 21
60.0
 31
0.0
  0
ARC
  5
4FE7
330
4FB7
100
AcDbEntity
  8
AM_0 外形線1
100
AcDbCircle
 10
57.79999999999995
 20
64.20000000000005
 30
0.0
 40
0.5
100
AcDbArc
 50
0.0
 51
90.0
  0
LINE
  5
4FE8
330
4FB7
100
AcDbEntity
  8
AM_0 外形線1
100
AcDbLine
 10
58.29999999999995
 20
61.25
 30
0.0
 11
58.29999999999995
 21
64.20000000000005
 31
0.0
  0
LINE
  5
4FE9
330
4FB7
100
AcDbEntity
  8
AM_0 外形線1
100
AcDbLine
 10
61.0
 20
61.25
 30
0.0
 11
58.29999999999995
 21
61.25
 31
0.0
  0
LINE
  5
4FEA
330
4FB7
100
AcDbEntity
  8
AM_0 外形線1
100
AcDbLine
 10
58.29999999999995
 20
61.25
 30
0.0
 11
58.29999999999995
 21
60.0
 31
0.0
  0
LINE
  5
4FEB
330
4FB7
100
AcDbEntity
  8
AM_0 外形線1
100
AcDbLine
 10
61.0
 20
61.25
 30
0.0
 11
61.0
 21
60.0
 31
0.0
  0
LINE
  5
4FEC
330
4FB7
100
AcDbEntity
  8
AM_0 外形線1
100
AcDbLine
 10
43.5
 20
66.31298600000002
 30
0.0
 11
43.5
 21
67.0
 31
0.0
  0
ARC
  5
4FED
330
4FB7
100
AcDbEntity
  8
AM_0 外形線1
100
AcDbCircle
 10
44.5
 20
67.0
 30
0.0
 40
1.0
100
AcDbArc
 50
90.0
 51
180.0
  0
LINE
  5
4FEE
330
4FB7
100
AcDbEntity
  8
AM_0 外形線1
100
AcDbLine
 10
47.0
 20
68.0
 30
0.0
 11
44.5
 21
68.0
 31
0.0
  0
ARC
  5
4FEF
330
4FB7
100
AcDbEntity
  8
AM_0 外形線1
100
AcDbCircle
 10
47.0
 20
67.0
 30
0.0
 40
1.0
100
AcDbArc
 50
0.0
 51
90.0
  0
ARC
  5
4FF0
330
4FB7
100
AcDbEntity
  8
AM_0 外形線1
100
AcDbCircle
 10
58.0
 20
71.5
 30
0.0
 40
3.0
100
AcDbArc
 50
0.0
 51
90.0
  0
ELLIPSE
  5
4FF1
330
4FB7
100
AcDbEntity
  8
AM_0 外形線1
100
AcDbEllipse
 10
1.200000000000044
 20
74.45000000000004
 30
0.0
 11
0.0
 21
1.950000000000045
 31
0.0
210
0.0
220
0.0
230
1.0
 40
0.6153846153846247
 41
0.0
 42
6.283185307179585
  0
LINE
  5
4FF2
330
4FB7
100
AcDbEntity
  8
AM_0 外形線1
100
AcDbLine
 10
0.0
 20
94.50000000000001
 30
0.0
 11
0.0
 21
99.0
 31
0.0
  0
ELLIPSE
  5
4FF3
330
4FB7
100
AcDbEntity
  8
AM_0 外形線1
100
AcDbEllipse
 10
54.5
 20
62.35000000000002
 30
0.0
 11
-3.799999999999953
 21
0.0
 31
0.0
210
0.0
220
0.0
230
1.0
 40
0.6184210526315923
 41
0.0
 42
6.283185307179585
  0
INSERT
  5
4FF4
330
4FB7
100
AcDbEntity
  8
AM_0 外形線1
100
AcDbBlockReference
  2
ロッカクアナツキプラグ-1　R1／8
 10
7.5
 20
-23.03489500000001
 30
0.0
  0
LINE
  5
508F
330
4FB7
100
AcDbEntity
  8
AM_0 外形線1
100
AcDbLine
 10
-2.5
 20
72.5
 30
0.0
 11
1.90000000000009
 21
72.5
 31
0.0
  0
LINE
  5
5090
330
4FB7
100
AcDbEntity
  8
AM_0 外形線1
100
AcDbLine
 10
0.0
 20
76.40000000000009
 30
0.0
 11
0.0
 21
83.49999999999999
 31
0.0
  0
LINE
  5
5091
330
4FB7
100
AcDbEntity
  8
AM_0 外形線1
100
AcDbLine
 10
0.0
 20
94.50000000000001
 30
0.0
 11
15.0
 21
94.50000000000001
 31
0.0
  0
LINE
  5
5092
330
4FB7
100
AcDbEntity
  8
AM_0 外形線1
100
AcDbLine
 10
0.0
 20
83.49999999999999
 30
0.0
 11
15.0
 21
83.49999999999999
 31
0.0
  0
ENDBLK
  5
4FB9
330
4FB7
100
AcDbEntity
  8
0
100
AcDbBlockEnd
  0
BLOCK
  5
512D
330
512C
100
AcDbEntity
  8
0
100
AcDbBlockBegin
  2
ケースＡ-2 SAM200
 70
     0
 10
0.0
 20
0.0
 30
0.0
  3
ケースＡ-2 SAM200
  1

  0
LINE
  5
512F
330
512C
100
AcDbEntity
  8
AM_7 中心線
100
AcDbLine
 10
27.0
 20
89.0
 30
0.0
 11
-35.0
 21
89.0
 31
0.0
  0
LINE
  5
5130
330
512C
100
AcDbEntity
  8
AM_0 外形線1
100
AcDbLine
 10
-17.5
 20
68.0
 30
0.0
 11
3.0
 21
68.0
 31
0.0
  0
LINE
  5
5131
330
512C
100
AcDbEntity
  8
AM_0 外形線1
100
AcDbLine
 10
-15.0
 20
83.49999999999999
 30
0.0
 11
0.0
 21
83.49999999999999
 31
0.0
  0
LINE
  5
5132
330
512C
100
AcDbEntity
  8
AM_0 外形線1
100
AcDbLine
 10
-15.0
 20
94.50000000000001
 30
0.0
 11
0.0
 21
94.50000000000001
 31
0.0
  0
LINE
  5
5133
330
512C
100
AcDbEntity
  8
AM_0 外形線1
100
AcDbLine
 10
-1.0
 20
100.0
 30
0.0
 11
-14.0
 21
100.0
 31
0.0
  0
LINE
  5
5134
330
512C
100
AcDbEntity
  8
AM_0 外形線1
100
AcDbLine
 10
-1.0
 20
-99.99999999999994
 30
0.0
 11
-14.0
 21
-99.99999999999994
 31
0.0
  0
LINE
  5
5135
330
512C
100
AcDbEntity
  8
AM_0 外形線1
100
AcDbLine
 10
-61.0
 20
-71.49999999999995
 30
0.0
 11
-61.0
 21
0.0
 31
0.0
  0
LINE
  5
5136
330
512C
100
AcDbEntity
  8
AM_0 外形線1
100
AcDbLine
 10
-15.0
 20
-98.99999999999996
 30
0.0
 11
-15.0
 21
0.0
 31
0.0
  0
LINE
  5
5137
330
512C
100
AcDbEntity
  8
AM_0 外形線1
100
AcDbLine
 10
-18.0
 20
-74.49999999999993
 30
0.0
 11
-58.0
 21
-74.49999999999993
 31
0.0
  0
ARC
  5
5138
330
512C
100
AcDbEntity
  8
AM_0 外形線1
100
AcDbCircle
 10
-58.0
 20
-71.49999999999995
 30
0.0
 40
3.0
100
AcDbArc
 50
180.0
 51
270.0
  0
LINE
  5
5139
330
512C
100
AcDbEntity
  8
AM_0 外形線1
100
AcDbLine
 10
-14.0
 20
-99.99999999999994
 30
0.0
 11
-15.0
 21
-98.99999999999996
 31
0.0
  0
ARC
  5
513A
330
512C
100
AcDbEntity
  8
AM_0 外形線1
100
AcDbCircle
 10
-18.0
 20
-77.49999999999992
 30
0.0
 40
3.0
100
AcDbArc
 50
0.0
 51
90.0
  0
LINE
  5
513B
330
512C
100
AcDbEntity
  8
AM_3 隠れ線
100
AcDbLine
 10
-43.5
 20
66.31298600000002
 30
0.0
 11
-43.5
 21
64.0
 31
0.0
  0
LINE
  5
513C
330
512C
100
AcDbEntity
  8
AM_0 外形線1
100
AcDbLine
 10
-18.5
 20
64.0
 30
0.0
 11
-18.5
 21
67.0
 31
0.0
  0
LINE
  5
513D
330
512C
100
AcDbEntity
  8
AM_0 外形線1
100
AcDbLine
 10
-48.0
 20
61.25
 30
0.0
 11
-48.0
 21
67.0
 31
0.0
  0
LINE
  5
513E
330
512C
100
AcDbEntity
  8
AM_0 外形線1
100
AcDbLine
 10
-61.0
 20
71.5
 30
0.0
 11
-61.0
 21
61.25
 31
0.0
  0
LWPOLYLINE
  5
513F
330
512C
100
AcDbEntity
  8
AM_0 外形線1
100
AcDbPolyline
 90
       73
 70
     0
 43
0.0
 10
-50.70000000000028
 20
62.35000000000002
 10
-50.71446000000014
 20
62.55481600000006
 10
-50.75773000000026
 20
62.75807300000007
 10
-50.82948200000011
 20
62.95822500000007
 10
-50.9291680000001
 20
63.15374700000006
 10
-51.05603000000019
 20
63.34315300000003
 10
-51.20910300000014
 20
63.52500000000009
 10
-51.38722200000028
 20
63.69790500000011
 10
-51.58903099999998
 20
63.8605510000001
 10
-51.8129940000001
 20
64.01170100000013
 10
-52.05740700000024
 20
64.15020500000014
 10
-52.32040900000015
 20
64.27500699999995
 10
-52.60000000000013
 20
64.38516000000004
 10
-52.89405000000011
 20
64.47982300000011
 10
-53.20032300000002
 20
64.55827799999998
 10
-53.51648700000033
 20
64.61992600000008
 10
-53.84013700000014
 20
64.66429800000014
 10
-54.16880800000011
 20
64.691058
 10
-54.5
 20
64.70000000000005
 10
-54.83119200000011
 20
64.691058
 10
-55.15986300000031
 20
64.66429800000014
 10
-55.48351200000023
 20
64.61992600000008
 10
-55.7996760000001
 20
64.55827799999998
 10
-56.10594900000023
 20
64.47982300000011
 10
-56.4000000000001
 20
64.38516000000004
 10
-56.67959000000019
 20
64.27500699999995
 10
-56.94259300000021
 20
64.15020500000014
 10
-57.1870060000001
 20
64.01170100000013
 10
-57.41096900000002
 20
63.8605510000001
 10
-57.61277800000016
 20
63.69790500000011
 10
-57.7908960000002
 20
63.52500000000009
 10
-57.94396900000015
 20
63.34315300000003
 10
-58.07083200000032
 20
63.15374700000006
 10
-58.17051800000013
 20
62.95822500000007
 10
-58.24226900000008
 20
62.75807300000007
 10
-58.28554000000007
 20
62.55481600000006
 10
-58.30000000000018
 20
62.35000000000002
 10
-58.28554000000007
 20
62.14518400000009
 10
-58.24226900000008
 20
61.94192700000008
 10
-58.17051800000013
 20
61.74177499999996
 10
-58.07083200000032
 20
61.54625299999998
 10
-57.94396900000015
 20
61.35684700000002
 10
-57.7908960000002
 20
61.17499999999996
 10
-57.61277800000016
 20
61.00209500000005
 10
-57.41096900000002
 20
60.83944900000004
 10
-57.1870060000001
 20
60.68829900000003
 10
-56.94259300000021
 20
60.54979600000002
 10
-56.67959000000019
 20
60.4249930000001
 10
-56.4000000000001
 20
60.31484
 10
-56.10594900000023
 20
60.22017700000002
 10
-55.7996760000001
 20
60.14172200000007
 10
-55.48351200000023
 20
60.08007399999996
 10
-55.15986300000031
 20
60.03570200000011
 10
-54.83119200000011
 20
60.00894300000005
 10
-54.5
 20
60.0
 10
-54.16880800000011
 20
60.00894300000005
 10
-53.84013700000014
 20
60.03570200000011
 10
-53.51648700000033
 20
60.08007399999996
 10
-53.20032300000002
 20
60.14172200000007
 10
-52.89405000000011
 20
60.22017700000002
 10
-52.60000000000013
 20
60.31484
 10
-52.32040900000015
 20
60.4249930000001
 10
-52.05740700000024
 20
60.54979600000002
 10
-51.8129940000001
 20
60.68829900000003
 10
-51.58903099999998
 20
60.83944900000004
 10
-51.38722200000028
 20
61.00209500000005
 10
-51.20910300000014
 20
61.17499999999996
 10
-51.05603000000019
 20
61.35684700000002
 10
-50.9291680000001
 20
61.54625299999998
 10
-50.82948200000011
 20
61.74177499999996
 10
-50.75773000000026
 20
61.94192700000008
 10
-50.71446000000014
 20
62.14518400000009
 10
-50.70000000000028
 20
62.35000000000002
  0
LINE
  5
5140
330
512C
100
AcDbEntity
  8
AM_0 外形線1
100
AcDbLine
 10
-57.80000000000018
 20
64.70000000000005
 30
0.0
 11
-51.20000000000028
 21
64.70000000000005
 31
0.0
  0
ARC
  5
5142
330
512C
100
AcDbEntity
  8
AM_0 外形線1
100
AcDbCircle
 10
-57.80000000000018
 20
64.20000000000005
 30
0.0
 40
0.5
100
AcDbArc
 50
90.0
 51
180.0
  0
LINE
  5
5143
330
512C
100
AcDbEntity
  8
AM_0 外形線1
100
AcDbLine
 10
-58.30000000000018
 20
61.25
 30
0.0
 11
-58.30000000000018
 21
64.20000000000005
 31
0.0
  0
LINE
  5
5144
330
512C
100
AcDbEntity
  8
AM_0 外形線1
100
AcDbLine
 10
-61.0
 20
61.25
 30
0.0
 11
-58.30000000000018
 21
61.25
 31
0.0
  0
LINE
  5
5145
330
512C
100
AcDbEntity
  8
AM_0 外形線1
100
AcDbLine
 10
-58.30000000000018
 20
61.25
 30
0.0
 11
-58.30000000000018
 21
60.0
 31
0.0
  0
LINE
  5
5146
330
512C
100
AcDbEntity
  8
AM_0 外形線1
100
AcDbLine
 10
-61.0
 20
61.25
 30
0.0
 11
-61.0
 21
60.0
 31
0.0
  0
LINE
  5
5147
330
512C
100
AcDbEntity
  8
AM_3 隠れ線
100
AcDbLine
 10
-42.5
 20
63.0
 30
0.0
 11
-21.5
 21
63.0
 31
0.0
  0
LINE
  5
5148
330
512C
100
AcDbEntity
  8
AM_7 中心線
100
AcDbLine
 10
-16.5
 20
65.0
 30
0.0
 11
-45.49999999999999
 21
65.0
 31
0.0
  0
LINE
  5
5149
330
512C
100
AcDbEntity
  8
AM_0 外形線1
100
AcDbLine
 10
-50.70000000000028
 20
61.25
 30
0.0
 11
-48.0
 21
61.25
 31
0.0
  0
LINE
  5
514A
330
512C
100
AcDbEntity
  8
AM_0 外形線1
100
AcDbLine
 10
-50.70000000000028
 20
64.20000000000005
 30
0.0
 11
-50.70000000000028
 21
61.25
 31
0.0
  0
ARC
  5
514B
330
512C
100
AcDbEntity
  8
AM_0 外形線1
100
AcDbCircle
 10
-51.20000000000028
 20
64.20000000000005
 30
0.0
 40
0.5
100
AcDbArc
 50
0.0
 51
90.0
  0
LINE
  5
514C
330
512C
100
AcDbEntity
  8
AM_0 外形線1
100
AcDbLine
 10
-48.0
 20
61.25
 30
0.0
 11
-48.0
 21
60.0
 31
0.0
  0
LINE
  5
514D
330
512C
100
AcDbEntity
  8
AM_0 外形線1
100
AcDbLine
 10
-50.70000000000028
 20
61.25
 30
0.0
 11
-50.70000000000028
 21
60.0
 31
0.0
  0
LINE
  5
514E
330
512C
100
AcDbEntity
  8
AM_3 隠れ線
100
AcDbLine
 10
-43.5
 20
64.0
 30
0.0
 11
-42.5
 21
63.0
 31
0.0
  0
LINE
  5
5150
330
512C
100
AcDbEntity
  8
AM_0 外形線1
100
AcDbLine
 10
-19.5
 20
63.0
 30
0.0
 11
-18.5
 21
64.0
 31
0.0
  0
LINE
  5
5151
330
512C
100
AcDbEntity
  8
AM_0 外形線1
100
AcDbLine
 10
-21.5
 20
63.0
 30
0.0
 11
-19.5
 21
63.0
 31
0.0
  0
LINE
  5
5152
330
512C
100
AcDbEntity
  8
AM_0 外形線1
100
AcDbLine
 10
-18.0
 20
74.5
 30
0.0
 11
-58.0
 21
74.5
 31
0.0
  0
ARC
  5
5153
330
512C
100
AcDbEntity
  8
AM_0 外形線1
100
AcDbCircle
 10
-58.0
 20
71.5
 30
0.0
 40
3.0
100
AcDbArc
 50
90.0
 51
180.0
  0
LINE
  5
5154
330
512C
100
AcDbEntity
  8
AM_0 外形線1
100
AcDbLine
 10
-15.0
 20
77.5
 30
0.0
 11
-15.0
 21
99.0
 31
0.0
  0
LINE
  5
5155
330
512C
100
AcDbEntity
  8
AM_0 外形線1
100
AcDbLine
 10
-18.5
 20
67.5
 30
0.0
 11
-43.5
 21
67.5
 31
0.0
  0
ARC
  5
5156
330
512C
100
AcDbEntity
  8
AM_0 外形線1
100
AcDbCircle
 10
-44.5
 20
67.0
 30
0.0
 40
1.0
100
AcDbArc
 50
0.0
 51
90.0
  0
LINE
  5
5157
330
512C
100
AcDbEntity
  8
AM_0 外形線1
100
AcDbLine
 10
-47.0
 20
68.0
 30
0.0
 11
-44.5
 21
68.0
 31
0.0
  0
ARC
  5
5158
330
512C
100
AcDbEntity
  8
AM_0 外形線1
100
AcDbCircle
 10
-47.0
 20
67.0
 30
0.0
 40
1.0
100
AcDbArc
 50
90.0
 51
180.0
  0
LINE
  5
5159
330
512C
100
AcDbEntity
  8
AM_0 外形線1
100
AcDbLine
 10
-43.5
 20
66.31298600000002
 30
0.0
 11
-43.5
 21
67.0
 31
0.0
  0
ARC
  5
515A
330
512C
100
AcDbEntity
  8
AM_0 外形線1
100
AcDbCircle
 10
-17.5
 20
67.0
 30
0.0
 40
1.0
100
AcDbArc
 50
90.0
 51
180.0
  0
ARC
  5
515B
330
512C
100
AcDbEntity
  8
AM_0 外形線1
100
AcDbCircle
 10
-18.0
 20
77.5
 30
0.0
 40
3.0
100
AcDbArc
 50
270.0
 51
0.0
  0
LINE
  5
515C
330
512C
100
AcDbEntity
  8
AM_0 外形線1
100
AcDbLine
 10
-14.0
 20
100.0
 30
0.0
 11
-15.0
 21
99.0
 31
0.0
  0
LINE
  5
515D
330
512C
100
AcDbEntity
  8
AM_0 外形線1
100
AcDbLine
 10
0.0
 20
0.0
 30
0.0
 11
0.0
 21
-98.99999999999996
 31
0.0
  0
LINE
  5
515E
330
512C
100
AcDbEntity
  8
AM_0 外形線1
100
AcDbLine
 10
0.0
 20
-98.99999999999996
 30
0.0
 11
-1.0
 21
-99.99999999999994
 31
0.0
  0
LWPOLYLINE
  5
5160
330
512C
100
AcDbEntity
  8
AM_0 外形線1
100
AcDbPolyline
 90
       73
 70
     0
 43
0.0
 10
-1.200000000000271
 20
72.5
 10
-1.095413000000007
 20
72.50742000000014
 10
-0.9916220000000064
 20
72.52962500000013
 10
-0.8894170000003214
 20
72.56644499999993
 10
-0.7895760000001248
 20
72.61759899999993
 10
-0.6928580000001148
 20
72.68270000000007
 10
-0.6000000000001366
 20
72.76125100000013
 10
-0.5117079999999988
 20
72.85265400000003
 10
-0.4286550000001627
 20
72.95621300000014
 10
-0.3514720000002853
 20
73.071142
 10
-0.2807460000001356
 20
73.19656400000008
 10
-0.217017000000169
 20
73.33152600000016
 10
-0.160769000000073
 20
73.47499999999991
 10
-0.1124300000001313
 20
73.62589400000001
 10
-0.0723689999999806
 20
73.78306100000009
 10
-0.0408890000001065
 20
73.94530299999996
 10
-0.0182300000001305
 20
74.11138600000005
 10
-0.004566000000068
 20
74.28004600000007
 10
0.0
 20
74.45000000000004
 10
-0.004566000000068
 20
74.61995400000002
 10
-0.0182300000001305
 20
74.78861400000005
 10
-0.0408890000001065
 20
74.95469700000012
 10
-0.0723689999999806
 20
75.116939
 10
-0.1124300000001313
 20
75.27410600000006
 10
-0.160769000000073
 20
75.42499999999995
 10
-0.217017000000169
 20
75.56847399999992
 10
-0.2807460000001356
 20
75.70343600000002
 10
-0.3514720000002853
 20
75.82885800000008
 10
-0.4286550000001627
 20
75.94378699999992
 10
-0.5117079999999988
 20
76.04734700000017
 10
-0.6000000000001366
 20
76.13875000000007
 10
-0.6928580000001148
 20
76.21730000000003
 10
-0.7895760000001248
 20
76.28240100000017
 10
-0.8894170000003214
 20
76.33355500000014
 10
-0.9916220000000064
 20
76.37037499999997
 10
-1.095413000000007
 20
76.39258000000019
 10
-1.200000000000271
 20
76.40000000000009
 10
-1.304587000000082
 20
76.39258000000019
 10
-1.408378000000084
 20
76.37037499999997
 10
-1.510583000000224
 20
76.33355500000014
 10
-1.610424000000192
 20
76.28240100000017
 10
-1.707142000000203
 20
76.21730000000003
 10
-1.800000000000181
 20
76.13875000000007
 10
-1.888292000000091
 20
76.04734700000017
 10
-1.971345000000154
 20
75.94378699999992
 10
-2.048528000000259
 20
75.82885800000008
 10
-2.119253000000298
 20
75.70343600000002
 10
-2.182982000000265
 20
75.56847399999992
 10
-2.239230000000134
 20
75.42499999999995
 10
-2.287569000000075
 20
75.27410600000006
 10
-2.327631000000109
 20
75.116939
 10
-2.35911100000021
 20
74.95469700000012
 10
-2.381769000000076
 20
74.78861400000005
 10
-2.395433000000139
 20
74.61995400000002
 10
-2.400000000000089
 20
74.45000000000004
 10
-2.395433000000139
 20
74.28004600000007
 10
-2.381769000000076
 20
74.11138600000005
 10
-2.35911100000021
 20
73.94530299999996
 10
-2.327631000000109
 20
73.78306100000009
 10
-2.287569000000075
 20
73.62589400000001
 10
-2.239230000000134
 20
73.47499999999991
 10
-2.182982000000265
 20
73.33152600000016
 10
-2.119253000000298
 20
73.19656400000008
 10
-2.048528000000259
 20
73.071142
 10
-1.971345000000154
 20
72.95621300000014
 10
-1.888292000000091
 20
72.85265400000003
 10
-1.800000000000181
 20
72.76125100000013
 10
-1.707142000000203
 20
72.68270000000007
 10
-1.610424000000192
 20
72.61759899999993
 10
-1.510583000000224
 20
72.56644499999993
 10
-1.408378000000084
 20
72.52962500000013
 10
-1.304587000000082
 20
72.50742000000014
 10
-1.200000000000271
 20
72.5
  0
LINE
  5
5161
330
512C
100
AcDbEntity
  8
AM_0 外形線1
100
AcDbLine
 10
-1.90000000000009
 20
76.40000000000009
 30
0.0
 11
0.0
 21
76.40000000000009
 31
0.0
  0
ARC
  5
5162
330
512C
100
AcDbEntity
  8
AM_0 外形線1
100
AcDbCircle
 10
-1.90000000000009
 20
75.90000000000009
 30
0.0
 40
0.5
100
AcDbArc
 50
90.0
 51
180.0
  0
LINE
  5
5163
330
512C
100
AcDbEntity
  8
AM_0 外形線1
100
AcDbLine
 10
-2.400000000000089
 20
73.0
 30
0.0
 11
-2.400000000000089
 21
75.90000000000009
 31
0.0
  0
ARC
  5
5164
330
512C
100
AcDbEntity
  8
AM_0 外形線1
100
AcDbCircle
 10
-1.90000000000009
 20
73.0
 30
0.0
 40
0.5
100
AcDbArc
 50
180.0
 51
270.0
  0
LINE
  5
5165
330
512C
100
AcDbEntity
  8
AM_0 外形線1
100
AcDbLine
 10
-1.90000000000009
 20
72.5
 30
0.0
 11
2.5
 21
72.5
 31
0.0
  0
LINE
  5
5166
330
512C
100
AcDbEntity
  8
AM_0 外形線1
100
AcDbLine
 10
3.0
 20
72.0
 30
0.0
 11
2.5
 21
72.5
 31
0.0
  0
LINE
  5
5167
330
512C
100
AcDbEntity
  8
AM_0 外形線1
100
AcDbLine
 10
3.0
 20
68.0
 30
0.0
 11
3.0
 21
72.0
 31
0.0
  0
LINE
  5
5168
330
512C
100
AcDbEntity
  8
AM_0 外形線1
100
AcDbLine
 10
0.0
 20
94.50000000000001
 30
0.0
 11
0.0
 21
99.0
 31
0.0
  0
LINE
  5
5169
330
512C
100
AcDbEntity
  8
AM_0 外形線1
100
AcDbLine
 10
0.0
 20
99.0
 30
0.0
 11
-1.0
 21
100.0
 31
0.0
  0
INSERT
  5
516A
330
512C
100
AcDbEntity
  8
AM_0 外形線1
100
AcDbBlockReference
  2
ロッカクアナツキプラグ-2　R1／8
 10
-7.5
 20
-23.03489500000001
 30
0.0
  0
LINE
  5
520C
330
512C
100
AcDbEntity
  8
AM_0 外形線1
100
AcDbLine
 10
0.0
 20
76.39999999999997
 30
0.0
 11
0.0
 21
83.49999999999999
 31
0.0
  0
ENDBLK
  5
512E
330
512C
100
AcDbEntity
  8
0
100
AcDbBlockEnd
  0
BLOCK
  5
5639
330
5638
100
AcDbEntity
  8
0
100
AcDbBlockBegin
  2
センタ-1 SAM200
 70
     0
 10
0.0
 20
0.0
 30
0.0
  3
センタ-1 SAM200
  1

  0
ARC
  5
563D
330
5638
100
AcDbEntity
  8
AM_0 外形線1
100
AcDbCircle
 10
97.0
 20
56.4000000000001
 30
0.0
 40
3.0
100
AcDbArc
 50
0.0
 51
90.0
  0
ARC
  5
563E
330
5638
100
AcDbEntity
  8
AM_0 外形線1
100
AcDbCircle
 10
97.0
 20
-56.39999999999992
 30
0.0
 40
3.0
100
AcDbArc
 50
270.0
 51
0.0
  0
LINE
  5
5641
330
5638
100
AcDbEntity
  8
AM_0 外形線1
100
AcDbLine
 10
0.0
 20
58.5
 30
0.0
 11
0.0
 21
0.0
 31
0.0
  0
LINE
  5
5642
330
5638
100
AcDbEntity
  8
AM_0 外形線1
100
AcDbLine
 10
69.0
 20
-59.39999999999992
 30
0.0
 11
69.0
 21
0.0
 31
0.0
  0
LINE
  5
5643
330
5638
100
AcDbEntity
  8
AM_0 外形線1
100
AcDbLine
 10
67.0
 20
-59.99999999999993
 30
0.0
 11
67.0
 21
0.0
 31
0.0
  0
LINE
  5
5644
330
5638
100
AcDbEntity
  8
AM_0 外形線1
100
AcDbLine
 10
56.0
 20
-59.99999999999993
 30
0.0
 11
67.0
 21
-59.99999999999993
 31
0.0
  0
LINE
  5
5645
330
5638
100
AcDbEntity
  8
AM_0 外形線1
100
AcDbLine
 10
69.0
 20
-59.39999999999992
 30
0.0
 11
97.0
 21
-59.39999999999992
 31
0.0
  0
LINE
  5
5646
330
5638
100
AcDbEntity
  8
AM_0 外形線1
100
AcDbLine
 10
67.0
 20
-59.99999999999993
 30
0.0
 11
69.0
 21
-59.39999999999992
 31
0.0
  0
LINE
  5
5647
330
5638
100
AcDbEntity
  8
AM_0 外形線1
100
AcDbLine
 10
0.0
 20
31.22899300000006
 30
0.0
 11
100.0
 21
31.22899300000006
 31
0.0
  0
LINE
  5
564A
330
5638
100
AcDbEntity
  8
AM_0 外形線1
100
AcDbLine
 10
17.5
 20
66.78631700000005
 30
0.0
 11
16.5
 21
65.64391999999998
 31
0.0
  0
LINE
  5
564B
330
5638
100
AcDbEntity
  8
AM_0 外形線1
100
AcDbLine
 10
16.5
 20
65.64391999999998
 30
0.0
 11
16.5
 21
59.5
 31
0.0
  0
LINE
  5
564C
330
5638
100
AcDbEntity
  8
AM_0 外形線1
100
AcDbLine
 10
16.0
 20
59.0
 30
0.0
 11
0.5
 21
59.0
 31
0.0
  0
LINE
  5
564D
330
5638
100
AcDbEntity
  8
AM_0 外形線1
100
AcDbLine
 10
0.5
 20
59.0
 30
0.0
 11
0.0
 21
58.5
 31
0.0
  0
ARC
  5
564E
330
5638
100
AcDbEntity
  8
AM_0 外形線1
100
AcDbCircle
 10
16.0
 20
59.5
 30
0.0
 40
0.5
100
AcDbArc
 50
270.0
 51
0.0
  0
LINE
  5
564F
330
5638
100
AcDbEntity
  8
AM_7 中心線
100
AcDbLine
 10
26.5
 20
72.3900000000001
 30
0.0
 11
26.5
 21
57.25
 31
0.0
  0
LINE
  5
5650
330
5638
100
AcDbEntity
  8
AM_0 外形線1
100
AcDbLine
 10
40.0
 20
65.02395100000011
 30
0.0
 11
39.0
 21
66.2205570000001
 31
0.0
  0
LINE
  5
5651
330
5638
100
AcDbEntity
  8
AM_0 外形線1
100
AcDbLine
 10
67.0
 20
60.0
 30
0.0
 11
40.49999999999999
 21
60.0
 31
0.0
  0
LINE
  5
5652
330
5638
100
AcDbEntity
  8
AM_0 外形線1
100
AcDbLine
 10
40.0
 20
60.5
 30
0.0
 11
40.0
 21
65.02395100000011
 31
0.0
  0
ARC
  5
5653
330
5638
100
AcDbEntity
  8
AM_0 外形線1
100
AcDbCircle
 10
40.49999999999999
 20
60.5
 30
0.0
 40
0.5
100
AcDbArc
 50
180.0
 51
270.0
  0
LINE
  5
5654
330
5638
100
AcDbEntity
  8
AM_0 外形線1
100
AcDbLine
 10
97.0
 20
59.4000000000001
 30
0.0
 11
69.0
 21
59.4000000000001
 31
0.0
  0
LINE
  5
5655
330
5638
100
AcDbEntity
  8
AM_0 外形線1
100
AcDbLine
 10
69.0
 20
59.4000000000001
 30
0.0
 11
67.0
 21
60.0
 31
0.0
  0
ARC
  5
5656
330
5638
100
AcDbEntity
  8
AM_0 外形線1
100
AcDbCircle
 10
26.5
 20
0.0
 30
0.0
 40
67.39
100
AcDbArc
 50
79.31044599999053
 51
97.67483800000638
  0
LINE
  5
5657
330
5638
100
AcDbEntity
  8
AM_0 外形線1
100
AcDbLine
 10
100.0
 20
0.0
 30
0.0
 11
100.0
 21
56.4000000000001
 31
0.0
  0
LINE
  5
5658
330
5638
100
AcDbEntity
  8
AM_0 外形線1
100
AcDbLine
 10
100.0
 20
0.0
 30
0.0
 11
100.0
 21
-56.39999999999992
 31
0.0
  0
ARC
  5
ACDD
330
5638
100
AcDbEntity
  8
AM_0 外形線1
100
AcDbCircle
 10
26.5
 20
0.0
 30
0.0
 40
62.25
100
AcDbArc
 50
77.47488924335925
 51
99.24419525450858
  0
ARC
  5
ACDE
330
5638
100
AcDbEntity
  8
AM_7 中心線
100
AcDbCircle
 10
26.5
 20
0.0
 30
0.0
 40
65.0
100
AcDbArc
 50
76.20424355898487
 51
101.3025872535345
  0
ENDBLK
  5
563A
330
5638
100
AcDbEntity
  8
0
100
AcDbBlockEnd
  0
BLOCK
  5
56D6
330
56D5
100
AcDbEntity
  8
0
100
AcDbBlockBegin
  2
センタ-2 SAM200
 70
     0
 10
0.0
 20
0.0
 30
0.0
  3
センタ-2 SAM200
  1

  0
LINE
  5
56D9
330
56D5
100
AcDbEntity
  8
AM_0 外形線1
100
AcDbLine
 10
0.0
 20
31.22899300000006
 30
0.0
 11
-100.0
 21
31.22899300000006
 31
0.0
  0
LINE
  5
56DA
330
56D5
100
AcDbEntity
  8
AM_0 外形線1
100
AcDbLine
 10
-16.0
 20
59.0
 30
0.0
 11
-0.5
 21
59.0
 31
0.0
  0
LINE
  5
56DC
330
56D5
100
AcDbEntity
  8
AM_0 外形線1
100
AcDbLine
 10
-100.0
 20
0.0
 30
0.0
 11
-100.0
 21
56.4000000000001
 31
0.0
  0
LINE
  5
56DD
330
56D5
100
AcDbEntity
  8
AM_0 外形線1
100
AcDbLine
 10
-69.0
 20
-59.39999999999992
 30
0.0
 11
-97.0
 21
-59.39999999999992
 31
0.0
  0
LINE
  5
56DE
330
56D5
100
AcDbEntity
  8
AM_0 外形線1
100
AcDbLine
 10
-100.0
 20
0.0
 30
0.0
 11
-100.0
 21
-56.39999999999992
 31
0.0
  0
ARC
  5
56DF
330
56D5
100
AcDbEntity
  8
AM_0 外形線1
100
AcDbCircle
 10
-97.0
 20
-56.39999999999992
 30
0.0
 40
3.0
100
AcDbArc
 50
180.0
 51
270.0
  0
LINE
  5
56E0
330
56D5
100
AcDbEntity
  8
AM_0 外形線1
100
AcDbLine
 10
-69.0
 20
-59.39999999999992
 30
0.0
 11
-69.0
 21
0.0
 31
0.0
  0
LINE
  5
56E1
330
56D5
100
AcDbEntity
  8
AM_0 外形線1
100
AcDbLine
 10
-67.0
 20
-59.99999999999993
 30
0.0
 11
-67.0
 21
0.0
 31
0.0
  0
LINE
  5
56E2
330
56D5
100
AcDbEntity
  8
AM_0 外形線1
100
AcDbLine
 10
-56.0
 20
-59.99999999999993
 30
0.0
 11
-67.0
 21
-59.99999999999993
 31
0.0
  0
LINE
  5
56E3
330
56D5
100
AcDbEntity
  8
AM_0 外形線1
100
AcDbLine
 10
-67.0
 20
-59.99999999999993
 30
0.0
 11
-69.0
 21
-59.39999999999992
 31
0.0
  0
LINE
  5
56E4
330
56D5
100
AcDbEntity
  8
AM_0 外形線1
100
AcDbLine
 10
-97.0
 20
59.4000000000001
 30
0.0
 11
-69.0
 21
59.4000000000001
 31
0.0
  0
ARC
  5
56E6
330
56D5
100
AcDbEntity
  8
AM_0 外形線1
100
AcDbCircle
 10
-97.0
 20
56.4000000000001
 30
0.0
 40
3.0
100
AcDbArc
 50
90.0
 51
180.0
  0
LINE
  5
56E7
330
56D5
100
AcDbEntity
  8
AM_7 中心線
100
AcDbLine
 10
-26.5
 20
72.3900000000001
 30
0.0
 11
-26.5
 21
57.25
 31
0.0
  0
LINE
  5
56E8
330
56D5
100
AcDbEntity
  8
AM_0 外形線1
100
AcDbLine
 10
-16.5
 20
65.64391999999998
 30
0.0
 11
-16.5
 21
59.5
 31
0.0
  0
LINE
  5
56E9
330
56D5
100
AcDbEntity
  8
AM_0 外形線1
100
AcDbLine
 10
-40.0
 20
65.02395100000011
 30
0.0
 11
-39.0
 21
66.2205570000001
 31
0.0
  0
LINE
  5
56EA
330
56D5
100
AcDbEntity
  8
AM_0 外形線1
100
AcDbLine
 10
-67.0
 20
60.0
 30
0.0
 11
-40.49999999999999
 21
60.0
 31
0.0
  0
LINE
  5
56EB
330
56D5
100
AcDbEntity
  8
AM_0 外形線1
100
AcDbLine
 10
-69.0
 20
59.4000000000001
 30
0.0
 11
-67.0
 21
60.0
 31
0.0
  0
LINE
  5
56EE
330
56D5
100
AcDbEntity
  8
AM_0 外形線1
100
AcDbLine
 10
-40.0
 20
60.5
 30
0.0
 11
-40.0
 21
65.02395100000011
 31
0.0
  0
ARC
  5
56EF
330
56D5
100
AcDbEntity
  8
AM_0 外形線1
100
AcDbCircle
 10
-40.49999999999999
 20
60.5
 30
0.0
 40
0.5
100
AcDbArc
 50
270.0
 51
0.0
  0
ARC
  5
56F0
330
56D5
100
AcDbEntity
  8
AM_0 外形線1
100
AcDbCircle
 10
-16.0
 20
59.5
 30
0.0
 40
0.5
100
AcDbArc
 50
180.0
 51
270.0
  0
ARC
  5
56F1
330
56D5
100
AcDbEntity
  8
AM_0 外形線1
100
AcDbCircle
 10
-26.5
 20
0.0
 30
0.0
 40
67.39
100
AcDbArc
 50
82.32516199999363
 51
100.6895540000094
  0
LINE
  5
56F2
330
56D5
100
AcDbEntity
  8
AM_0 外形線1
100
AcDbLine
 10
-17.5
 20
66.78631700000005
 30
0.0
 11
-16.5
 21
65.64391999999998
 31
0.0
  0
LINE
  5
56F3
330
56D5
100
AcDbEntity
  8
AM_0 外形線1
100
AcDbLine
 10
0.0
 20
58.49999999999988
 30
0.0
 11
0.0
 21
0.0
 31
0.0
  0
LINE
  5
56F4
330
56D5
100
AcDbEntity
  8
AM_0 外形線1
100
AcDbLine
 10
-0.5
 20
59.0
 30
0.0
 11
0.0
 21
58.49999999999988
 31
0.0
  0
ARC
  5
AC2B
330
56D5
100
AcDbEntity
  8
AM_0 外形線1
100
AcDbCircle
 10
-26.5
 20
0.0
 30
0.0
 40
62.25
100
AcDbArc
 50
80.7558047454882
 51
102.5251107566407
  0
ARC
  5
AC2C
330
56D5
100
AcDbEntity
  8
AM_7 中心線
100
AcDbCircle
 10
-26.5
 20
0.0
 30
0.0
 40
65.0
100
AcDbArc
 50
78.69741274646543
 51
103.7957564410183
  0
ENDBLK
  5
56D7
330
56D5
100
AcDbEntity
  8
0
100
AcDbBlockEnd
  0
BLOCK
  5
57C7
330
57C6
100
AcDbEntity
  8
0
100
AcDbBlockBegin
  2
リーマボルト-1 SAM200 M10
 70
     0
 10
0.0
 20
0.0
 30
0.0
  3
リーマボルト-1 SAM200 M10
  1

  0
LINE
  5
582F
330
57C6
100
AcDbEntity
  8
AM_0 外形線1
100
AcDbLine
 10
32.5
 20
-4.907476999999971
 30
0.0
 11
39.74944500000015
 21
-4.907476999999971
 31
0.0
  0
LINE
  5
5830
330
57C6
100
AcDbEntity
  8
AM_0 外形線1
100
AcDbLine
 10
32.5
 20
4.907476999999971
 30
0.0
 11
39.74944500000015
 21
4.907476999999971
 31
0.0
  0
LINE
  5
5831
330
57C6
100
AcDbEntity
  8
AM_0 外形線1
100
AcDbLine
 10
39.74944500000015
 20
-9.799999999999952
 30
0.0
 11
32.5
 21
-9.799999999999952
 31
0.0
  0
LINE
  5
5832
330
57C6
100
AcDbEntity
  8
AM_0 外形線1
100
AcDbLine
 10
32.5
 20
9.799999999999952
 30
0.0
 11
39.74944500000015
 21
9.799999999999952
 31
0.0
  0
LINE
  5
5833
330
57C6
100
AcDbEntity
  8
AM_0 外形線1
100
AcDbLine
 10
-6.249443999999813
 20
-8.487048999999842
 30
0.0
 11
0.0
 21
-8.487048999999842
 31
0.0
  0
LINE
  5
5834
330
57C6
100
AcDbEntity
  8
AM_0 外形線1
100
AcDbLine
 10
0.0
 20
8.48704900000007
 30
0.0
 11
-6.249443999999813
 21
8.48704900000007
 31
0.0
  0
ARC
  5
5835
330
57C6
100
AcDbEntity
  8
AM_0 外形線1
100
AcDbCircle
 10
5.261477000000239
 20
4.243525000000089
 30
0.0
 40
12.268203
100
AcDbArc
 50
159.7634889999921
 51
200.2365110000079
  0
LINE
  5
5836
330
57C6
100
AcDbEntity
  8
AM_0 外形線1
100
AcDbLine
 10
-7.0
 20
4.649726000000099
 30
0.0
 11
-7.0
 21
-3.837321999999858
 31
0.0
  0
ARC
  5
5837
330
57C6
100
AcDbEntity
  8
AM_0 外形線1
100
AcDbCircle
 10
5.261477000000239
 20
-4.243523999999978
 30
0.0
 40
12.268203
100
AcDbArc
 50
159.7634889999921
 51
200.2365110000079
  0
LINE
  5
5838
330
57C6
100
AcDbEntity
  8
AM_0 外形線1
100
AcDbLine
 10
32.5
 20
-9.799999999999952
 30
0.0
 11
32.5
 21
9.799999999999952
 31
0.0
  0
LINE
  5
5839
330
57C6
100
AcDbEntity
  8
AM_0 外形線1
100
AcDbLine
 10
27.0
 20
5.5
 30
0.0
 11
27.0
 21
-5.5
 31
0.0
  0
LINE
  5
583A
330
57C6
100
AcDbEntity
  8
AM_0 外形線1
100
AcDbLine
 10
1.5
 20
-5.5
 30
0.0
 11
1.5
 21
5.5
 31
0.0
  0
LINE
  5
583B
330
57C6
100
AcDbEntity
  8
AM_0 外形線1
100
AcDbLine
 10
27.0
 20
5.5
 30
0.0
 11
28.0
 21
4.922649999999974
 31
0.0
  0
ARC
  5
583C
330
57C6
100
AcDbEntity
  8
AM_0 外形線1
100
AcDbCircle
 10
1.0
 20
5.5
 30
0.0
 40
0.5
100
AcDbArc
 50
270.0
 51
0.0
  0
ARC
  5
583D
330
57C6
100
AcDbEntity
  8
AM_0 外形線1
100
AcDbCircle
 10
0.5
 20
5.5
 30
0.0
 40
0.5
100
AcDbArc
 50
180.0
 51
270.0
  0
ARC
  5
583E
330
57C6
100
AcDbEntity
  8
AM_0 外形線1
100
AcDbCircle
 10
1.0
 20
-5.5
 30
0.0
 40
0.5
100
AcDbArc
 50
0.0
 51
90.0
  0
LINE
  5
583F
330
57C6
100
AcDbEntity
  8
AM_0 外形線1
100
AcDbLine
 10
0.5
 20
-5.0
 30
0.0
 11
1.0
 21
-5.0
 31
0.0
  0
ARC
  5
5840
330
57C6
100
AcDbEntity
  8
AM_0 外形線1
100
AcDbCircle
 10
0.5
 20
-5.5
 30
0.0
 40
0.5
100
AcDbArc
 50
90.0
 51
180.0
  0
LINE
  5
5841
330
57C6
100
AcDbEntity
  8
AM_0 外形線1
100
AcDbLine
 10
0.5
 20
5.0
 30
0.0
 11
1.0
 21
5.0
 31
0.0
  0
LINE
  5
5842
330
57C6
100
AcDbEntity
  8
AM_0 外形線1
100
AcDbLine
 10
30.0
 20
-9.200000000000043
 30
0.0
 11
32.5
 21
-9.200000000000043
 31
0.0
  0
LINE
  5
5843
330
57C6
100
AcDbEntity
  8
AM_0 外形線1
100
AcDbLine
 10
28.0
 20
-4.922649999999974
 30
0.0
 11
27.0
 21
-5.5
 31
0.0
  0
LINE
  5
5844
330
57C6
100
AcDbEntity
  8
AM_0 外形線1
100
AcDbLine
 10
32.5
 20
0.0
 30
0.0
 11
30.0
 21
-2.5
 31
0.0
  0
LINE
  5
5845
330
57C6
100
AcDbEntity
  8
AM_0 外形線1
100
AcDbLine
 10
32.5
 20
2.5
 30
0.0
 11
30.0
 21
0.0
 31
0.0
  0
LINE
  5
5846
330
57C6
100
AcDbEntity
  8
AM_0 外形線1
100
AcDbLine
 10
28.0
 20
-4.922649999999974
 30
0.0
 11
30.0
 21
-4.922649999999974
 31
0.0
  0
LINE
  5
5847
330
57C6
100
AcDbEntity
  8
AM_0 外形線1
100
AcDbLine
 10
28.0
 20
4.922649999999974
 30
0.0
 11
30.0
 21
4.922649999999974
 31
0.0
  0
LINE
  5
5848
330
57C6
100
AcDbEntity
  8
AM_0 外形線1
100
AcDbLine
 10
28.0
 20
4.922649999999974
 30
0.0
 11
28.0
 21
-4.922649999999974
 31
0.0
  0
LINE
  5
5849
330
57C6
100
AcDbEntity
  8
AM_0 外形線1
100
AcDbLine
 10
32.5
 20
9.200000000000043
 30
0.0
 11
30.0
 21
9.200000000000043
 31
0.0
  0
ARC
  5
584A
330
57C6
100
AcDbEntity
  8
AM_0 外形線1
100
AcDbCircle
 10
36.13821100000019
 20
7.353739000000132
 30
0.0
 40
4.361788999999999
100
AcDbArc
 50
325.8861589999972
 51
34.11384100000282
  0
LINE
  5
584B
330
57C6
100
AcDbEntity
  8
AM_0 外形線1
100
AcDbLine
 10
40.49999999999999
 20
8.5
 30
0.0
 11
40.49999999999999
 21
-8.5
 31
0.0
  0
ARC
  5
584C
330
57C6
100
AcDbEntity
  8
AM_0 外形線1
100
AcDbCircle
 10
36.13821100000019
 20
-7.353738999999903
 30
0.0
 40
4.361788999999999
100
AcDbArc
 50
325.8861589999972
 51
34.11384100000282
  0
LINE
  5
584D
330
57C6
100
AcDbEntity
  8
AM_0 外形線1
100
AcDbLine
 10
40.49999999999999
 20
-8.5
 30
0.0
 11
39.74944500000015
 21
-9.799999999999952
 31
0.0
  0
LINE
  5
584E
330
57C6
100
AcDbEntity
  8
AM_4 細線
100
AcDbLine
 10
40.49999999999999
 20
-4.25
 30
0.0
 11
44.75
 21
-4.25
 31
0.0
  0
LINE
  5
584F
330
57C6
100
AcDbEntity
  8
AM_4 細線
100
AcDbLine
 10
40.49999999999999
 20
4.25
 30
0.0
 11
44.75
 21
4.25
 31
0.0
  0
LINE
  5
5850
330
57C6
100
AcDbEntity
  8
AM_0 外形線1
100
AcDbLine
 10
44.0
 20
5.0
 30
0.0
 11
44.0
 21
-5.0
 31
0.0
  0
LINE
  5
5851
330
57C6
100
AcDbEntity
  8
AM_0 外形線1
100
AcDbLine
 10
44.0
 20
-5.0
 30
0.0
 11
40.49999999999999
 21
-5.0
 31
0.0
  0
LINE
  5
5852
330
57C6
100
AcDbEntity
  8
AM_0 外形線1
100
AcDbLine
 10
45.0
 20
-4.0
 30
0.0
 11
44.0
 21
-5.0
 31
0.0
  0
LINE
  5
5853
330
57C6
100
AcDbEntity
  8
AM_0 外形線1
100
AcDbLine
 10
45.0
 20
4.0
 30
0.0
 11
45.0
 21
-4.0
 31
0.0
  0
LINE
  5
5854
330
57C6
100
AcDbEntity
  8
AM_0 外形線1
100
AcDbLine
 10
44.0
 20
5.0
 30
0.0
 11
45.0
 21
4.0
 31
0.0
  0
LINE
  5
5855
330
57C6
100
AcDbEntity
  8
AM_0 外形線1
100
AcDbLine
 10
40.49999999999999
 20
5.0
 30
0.0
 11
44.0
 21
5.0
 31
0.0
  0
ARC
  5
5856
330
57C6
100
AcDbEntity
  8
AM_0 外形線1
100
AcDbCircle
 10
24.08104700000013
 20
0.0
 30
0.0
 40
16.418953
100
AcDbArc
 50
342.6089940000023
 51
17.3910059999977
  0
LINE
  5
5857
330
57C6
100
AcDbEntity
  8
AM_0 外形線1
100
AcDbLine
 10
39.74944500000015
 20
9.799999999999952
 30
0.0
 11
40.49999999999999
 21
8.5
 31
0.0
  0
LINE
  5
58B4
330
57C6
100
AcDbEntity
  8
AM_0 外形線1
100
AcDbLine
 10
0.0
 20
8.48704900000007
 30
0.0
 11
0.0
 21
-8.487048999999842
 31
0.0
  0
LINE
  5
58B5
330
57C6
100
AcDbEntity
  8
AM_0 外形線1
100
AcDbLine
 10
-6.249444288525409
 20
0.0000000000001137
 30
0.0
 11
0.0
 21
0.0
 31
0.0
  0
LINE
  5
58B6
330
57C6
100
AcDbEntity
  8
AM_0 外形線1
100
AcDbLine
 10
30.0
 20
9.200000000000043
 30
0.0
 11
30.0
 21
-9.200000000000043
 31
0.0
  0
LINE
  5
58B7
330
57C6
100
AcDbEntity
  8
AM_0 外形線1
100
AcDbLine
 10
1.5
 20
5.5
 30
0.0
 11
27.0
 21
5.5
 31
0.0
  0
LINE
  5
58B8
330
57C6
100
AcDbEntity
  8
AM_0 外形線1
100
AcDbLine
 10
1.5
 20
-5.5
 30
0.0
 11
27.0
 21
-5.5
 31
0.0
  0
ENDBLK
  5
57C8
330
57C6
100
AcDbEntity
  8
0
100
AcDbBlockEnd
  0
BLOCK
  5
5929
330
5928
100
AcDbEntity
  8
0
100
AcDbBlockBegin
  2
リーマボルト-2 SAM200 M10
 70
     0
 10
0.0
 20
0.0
 30
0.0
  3
リーマボルト-2 SAM200 M10
  1

  0
LINE
  5
592B
330
5928
100
AcDbEntity
  8
AM_0 外形線1
100
AcDbLine
 10
-27.99999999999989
 20
-4.922649999999974
 30
0.0
 11
-29.99999999999989
 21
-4.922649999999974
 31
0.0
  0
LINE
  5
592C
330
5928
100
AcDbEntity
  8
AM_0 外形線1
100
AcDbLine
 10
-27.99999999999989
 20
4.922649999999974
 30
0.0
 11
-29.99999999999989
 21
4.922649999999974
 31
0.0
  0
ARC
  5
592D
330
5928
100
AcDbEntity
  8
AM_0 外形線1
100
AcDbCircle
 10
-36.13821099999984
 20
7.353739000000132
 30
0.0
 40
4.361788999999999
100
AcDbArc
 50
145.8861589999971
 51
214.1138410000028
  0
LINE
  5
592E
330
5928
100
AcDbEntity
  8
AM_0 外形線1
100
AcDbLine
 10
-32.49999999999989
 20
-9.799999999999952
 30
0.0
 11
-32.49999999999989
 21
9.799999999999952
 31
0.0
  0
LINE
  5
592F
330
5928
100
AcDbEntity
  8
AM_0 外形線1
100
AcDbLine
 10
-40.49999999999989
 20
8.5
 30
0.0
 11
-40.49999999999989
 21
-8.5
 31
0.0
  0
ARC
  5
5930
330
5928
100
AcDbEntity
  8
AM_0 外形線1
100
AcDbCircle
 10
-36.13821099999984
 20
-7.353738999999903
 30
0.0
 40
4.361788999999999
100
AcDbArc
 50
145.8861589999971
 51
214.1138410000028
  0
LINE
  5
5931
330
5928
100
AcDbEntity
  8
AM_0 外形線1
100
AcDbLine
 10
-40.49999999999989
 20
-8.5
 30
0.0
 11
-39.74944399999993
 21
-9.799999999999952
 31
0.0
  0
LINE
  5
5932
330
5928
100
AcDbEntity
  8
AM_0 外形線1
100
AcDbLine
 10
-39.74944399999993
 20
-9.799999999999952
 30
0.0
 11
-32.49999999999989
 21
-9.799999999999952
 31
0.0
  0
LINE
  5
5933
330
5928
100
AcDbEntity
  8
AM_0 外形線1
100
AcDbLine
 10
-29.99999999999989
 20
-9.200000000000043
 30
0.0
 11
-32.49999999999989
 21
-9.200000000000043
 31
0.0
  0
LINE
  5
5934
330
5928
100
AcDbEntity
  8
AM_0 外形線1
100
AcDbLine
 10
-32.49999999999989
 20
-4.907476999999971
 30
0.0
 11
-39.74944399999993
 21
-4.907476999999971
 31
0.0
  0
LINE
  5
5935
330
5928
100
AcDbEntity
  8
AM_0 外形線1
100
AcDbLine
 10
-32.49999999999989
 20
4.907476999999971
 30
0.0
 11
-39.74944399999993
 21
4.907476999999971
 31
0.0
  0
LINE
  5
5936
330
5928
100
AcDbEntity
  8
AM_4 細線
100
AcDbLine
 10
-40.49999999999989
 20
-4.25
 30
0.0
 11
-44.74999999999988
 21
-4.25
 31
0.0
  0
LINE
  5
5937
330
5928
100
AcDbEntity
  8
AM_4 細線
100
AcDbLine
 10
-40.49999999999989
 20
4.25
 30
0.0
 11
-44.74999999999988
 21
4.25
 31
0.0
  0
LINE
  5
5938
330
5928
100
AcDbEntity
  8
AM_0 外形線1
100
AcDbLine
 10
-43.99999999999988
 20
5.0
 30
0.0
 11
-43.99999999999988
 21
-5.0
 31
0.0
  0
LINE
  5
5939
330
5928
100
AcDbEntity
  8
AM_0 外形線1
100
AcDbLine
 10
-43.99999999999988
 20
-5.0
 30
0.0
 11
-40.49999999999989
 21
-5.0
 31
0.0
  0
LINE
  5
593A
330
5928
100
AcDbEntity
  8
AM_0 外形線1
100
AcDbLine
 10
-44.99999999999988
 20
-4.0
 30
0.0
 11
-43.99999999999988
 21
-5.0
 31
0.0
  0
LINE
  5
593B
330
5928
100
AcDbEntity
  8
AM_0 外形線1
100
AcDbLine
 10
-44.99999999999988
 20
4.0
 30
0.0
 11
-44.99999999999988
 21
-4.0
 31
0.0
  0
LINE
  5
593C
330
5928
100
AcDbEntity
  8
AM_0 外形線1
100
AcDbLine
 10
-43.99999999999988
 20
5.0
 30
0.0
 11
-44.99999999999988
 21
4.0
 31
0.0
  0
LINE
  5
593D
330
5928
100
AcDbEntity
  8
AM_0 外形線1
100
AcDbLine
 10
-40.49999999999989
 20
5.0
 30
0.0
 11
-43.99999999999988
 21
5.0
 31
0.0
  0
ARC
  5
593E
330
5928
100
AcDbEntity
  8
AM_0 外形線1
100
AcDbCircle
 10
-24.08104600000013
 20
0.0
 30
0.0
 40
16.418953
100
AcDbArc
 50
162.6089940000013
 51
197.3910059999987
  0
LINE
  5
593F
330
5928
100
AcDbEntity
  8
AM_0 外形線1
100
AcDbLine
 10
-29.99999999999989
 20
0.0
 30
0.0
 11
-32.49999999999989
 21
-2.5
 31
0.0
  0
LINE
  5
5940
330
5928
100
AcDbEntity
  8
AM_0 外形線1
100
AcDbLine
 10
-32.49999999999989
 20
0.0
 30
0.0
 11
-29.99999999999989
 21
2.5
 31
0.0
  0
LINE
  5
5941
330
5928
100
AcDbEntity
  8
AM_0 外形線1
100
AcDbLine
 10
-32.49999999999989
 20
9.799999999999952
 30
0.0
 11
-39.74944399999993
 21
9.799999999999952
 31
0.0
  0
LINE
  5
5942
330
5928
100
AcDbEntity
  8
AM_0 外形線1
100
AcDbLine
 10
-39.74944399999993
 20
9.799999999999952
 30
0.0
 11
-40.49999999999989
 21
8.5
 31
0.0
  0
LINE
  5
5943
330
5928
100
AcDbEntity
  8
AM_0 外形線1
100
AcDbLine
 10
-32.49999999999989
 20
9.200000000000043
 30
0.0
 11
-29.99999999999989
 21
9.200000000000043
 31
0.0
  0
ARC
  5
5944
330
5928
100
AcDbEntity
  8
AM_0 外形線1
100
AcDbCircle
 10
-5.261476000000016
 20
4.243525000000089
 30
0.0
 40
12.268203
100
AcDbArc
 50
339.7634889999932
 51
20.2365110000068
  0
LINE
  5
5945
330
5928
100
AcDbEntity
  8
AM_0 外形線1
100
AcDbLine
 10
-26.99999999999989
 20
5.5
 30
0.0
 11
-26.99999999999989
 21
-5.5
 31
0.0
  0
LINE
  5
5946
330
5928
100
AcDbEntity
  8
AM_0 外形線1
100
AcDbLine
 10
-1.499999999999885
 20
-5.5
 30
0.0
 11
-1.499999999999885
 21
5.5
 31
0.0
  0
LINE
  5
5947
330
5928
100
AcDbEntity
  8
AM_0 外形線1
100
AcDbLine
 10
-26.99999999999989
 20
5.5
 30
0.0
 11
-27.99999999999989
 21
4.922649999999974
 31
0.0
  0
ARC
  5
5948
330
5928
100
AcDbEntity
  8
AM_0 外形線1
100
AcDbCircle
 10
-0.9999999999998864
 20
5.5
 30
0.0
 40
0.5
100
AcDbArc
 50
180.0
 51
270.0
  0
ARC
  5
5949
330
5928
100
AcDbEntity
  8
AM_0 外形線1
100
AcDbCircle
 10
-0.4999999999998864
 20
5.5
 30
0.0
 40
0.5
100
AcDbArc
 50
270.0
 51
0.0
  0
LINE
  5
594A
330
5928
100
AcDbEntity
  8
AM_0 外形線1
100
AcDbLine
 10
-27.99999999999989
 20
-4.922649999999974
 30
0.0
 11
-26.99999999999989
 21
-5.5
 31
0.0
  0
LINE
  5
594B
330
5928
100
AcDbEntity
  8
AM_0 外形線1
100
AcDbLine
 10
-27.99999999999989
 20
4.922649999999974
 30
0.0
 11
-27.99999999999989
 21
-4.922649999999974
 31
0.0
  0
LINE
  5
594C
330
5928
100
AcDbEntity
  8
AM_0 外形線1
100
AcDbLine
 10
6.249445000000036
 20
-8.487048999999842
 30
0.0
 11
0.0000000000001137
 21
-8.487048999999842
 31
0.0
  0
ARC
  5
594D
330
5928
100
AcDbEntity
  8
AM_0 外形線1
100
AcDbCircle
 10
-0.9999999999998864
 20
-5.5
 30
0.0
 40
0.5
100
AcDbArc
 50
90.0
 51
180.0
  0
LINE
  5
594E
330
5928
100
AcDbEntity
  8
AM_0 外形線1
100
AcDbLine
 10
-0.4999999999998864
 20
-5.0
 30
0.0
 11
-0.9999999999998864
 21
-5.0
 31
0.0
  0
ARC
  5
594F
330
5928
100
AcDbEntity
  8
AM_0 外形線1
100
AcDbCircle
 10
-0.4999999999998864
 20
-5.5
 30
0.0
 40
0.5
100
AcDbArc
 50
0.0
 51
90.0
  0
LINE
  5
5950
330
5928
100
AcDbEntity
  8
AM_0 外形線1
100
AcDbLine
 10
-0.4999999999998864
 20
5.0
 30
0.0
 11
-0.9999999999998864
 21
5.0
 31
0.0
  0
LINE
  5
5951
330
5928
100
AcDbEntity
  8
AM_0 外形線1
100
AcDbLine
 10
7.000000000000111
 20
4.649726000000099
 30
0.0
 11
7.000000000000111
 21
-3.837321999999858
 31
0.0
  0
ARC
  5
5952
330
5928
100
AcDbEntity
  8
AM_0 外形線1
100
AcDbCircle
 10
-5.261476000000016
 20
-4.243523999999978
 30
0.0
 40
12.268203
100
AcDbArc
 50
339.7634889999932
 51
20.2365110000068
  0
LINE
  5
5953
330
5928
100
AcDbEntity
  8
AM_0 外形線1
100
AcDbLine
 10
0.0000000000001137
 20
8.48704900000007
 30
0.0
 11
6.249445000000036
 21
8.48704900000007
 31
0.0
  0
LINE
  5
59B0
330
5928
100
AcDbEntity
  8
AM_0 外形線1
100
AcDbLine
 10
0.0000000000004547
 20
8.48704900000007
 30
0.0
 11
0.0000000000004547
 21
-8.487048999999842
 31
0.0
  0
LINE
  5
59B1
330
5928
100
AcDbEntity
  8
AM_0 外形線1
100
AcDbLine
 10
0.0000000000004547
 20
0.0
 30
0.0
 11
6.249444919873551
 21
0.0
 31
0.0
  0
LINE
  5
59B2
330
5928
100
AcDbEntity
  8
AM_0 外形線1
100
AcDbLine
 10
-26.99999999999989
 20
5.5
 30
0.0
 11
-1.499999999999885
 21
5.5
 31
0.0
  0
LINE
  5
59B3
330
5928
100
AcDbEntity
  8
AM_0 外形線1
100
AcDbLine
 10
-26.99999999999989
 20
-5.5
 30
0.0
 11
-1.499999999999885
 21
-5.5
 31
0.0
  0
LINE
  5
59B4
330
5928
100
AcDbEntity
  8
AM_0 外形線1
100
AcDbLine
 10
-29.99999999999989
 20
9.200000000000043
 30
0.0
 11
-29.99999999999989
 21
-9.200000000000043
 31
0.0
  0
ENDBLK
  5
592A
330
5928
100
AcDbEntity
  8
0
100
AcDbBlockEnd
  0
BLOCK
  5
5DAA
330
5DA9
100
AcDbEntity
  8
0
100
AcDbBlockBegin
  2
*D15
 70
     1
 10
0.0
 20
0.0
 30
0.0
  3
*D15
  1

  0
LINE
  5
ADE1
330
5DA9
100
AcDbEntity
  8
AM_5 寸法線
 62
     3
100
AcDbLine
 10
401.1217298630767
 20
558.7984671523989
 30
0.0
 11
401.1217298630767
 21
567.6403391523991
 31
0.0
  0
LINE
  5
ADE2
330
5DA9
100
AcDbEntity
  8
AM_5 寸法線
 62
     3
100
AcDbLine
 10
301.1217298630768
 20
558.7984671523989
 30
0.0
 11
301.1217298630768
 21
567.6403391523991
 31
0.0
  0
LINE
  5
ADE3
330
5DA9
100
AcDbEntity
  8
AM_5 寸法線
 62
     3
100
AcDbLine
 10
394.8717298630768
 20
566.0778391523991
 30
0.0
 11
307.3717298630768
 21
566.0778391523991
 31
0.0
  0
MTEXT
  5
ADE4
330
5DA9
100
AcDbEntity
  8
AM_5 寸法線
 62
     3
100
AcDbMText
 10
328.297050881432
 20
574.7404235216436
 30
0.0
 40
8.75
 41
0.0
 46
0.0
 71
     5
 72
     1
  1
100
  7
SEISA
 73
     1
 44
1.0
  0
INSERT
  5
ADE5
330
5DA9
100
AcDbEntity
  8
AM_5 寸法線
 62
     3
100
AcDbBlockReference
  2
_Open30
 10
401.1217298630767
 20
566.0778391523991
 30
0.0
 41
6.25
 42
6.25
 43
6.25
  0
INSERT
  5
ADE6
330
5DA9
100
AcDbEntity
  8
AM_5 寸法線
 62
     3
100
AcDbBlockReference
  2
_Open30
 10
301.1217298630768
 20
566.0778391523991
 30
0.0
 41
6.25
 42
6.25
 43
6.25
 50
180.0
  0
POINT
  5
ADE7
330
5DA9
100
AcDbEntity
  8
Defpoints
 62
     0
100
AcDbPoint
 10
401.1217298630767
 20
557.2359671523989
 30
0.0
  0
POINT
  5
ADE8
330
5DA9
100
AcDbEntity
  8
Defpoints
 62
     0
100
AcDbPoint
 10
301.1217298630768
 20
557.2359671523989
 30
0.0
  0
POINT
  5
ADE9
330
5DA9
100
AcDbEntity
  8
Defpoints
 62
     0
100
AcDbPoint
 10
301.1217298630768
 20
566.0778391523991
 30
0.0
  0
ENDBLK
  5
5DAB
330
5DA9
100
AcDbEntity
  8
0
100
AcDbBlockEnd
  0
BLOCK
  5
5DC2
330
5DC1
100
AcDbEntity
  8
0
100
AcDbBlockBegin
  2
*D16
 70
     1
 10
0.0
 20
0.0
 30
0.0
  3
*D16
  1

  0
LINE
  5
A686
330
5DC1
100
AcDbEntity
  8
AM_5 寸法線
 62
     3
100
AcDbLine
 10
721.1217298630764
 20
558.7984671523989
 30
0.0
 11
721.1217298630764
 21
567.6403391523991
 31
0.0
  0
LINE
  5
A687
330
5DC1
100
AcDbEntity
  8
AM_5 寸法線
 62
     3
100
AcDbLine
 10
621.1217298630764
 20
558.7984671523989
 30
0.0
 11
621.1217298630764
 21
567.6403391523991
 31
0.0
  0
LINE
  5
A688
330
5DC1
100
AcDbEntity
  8
AM_5 寸法線
 62
     3
100
AcDbLine
 10
714.8717298630764
 20
566.0778391523991
 30
0.0
 11
627.3717298630764
 21
566.0778391523991
 31
0.0
  0
INSERT
  5
A689
330
5DC1
100
AcDbEntity
  8
AM_5 寸法線
 62
     3
100
AcDbBlockReference
  2
_Open30
 10
721.1217298630764
 20
566.0778391523991
 30
0.0
 41
6.25
 42
6.25
 43
6.25
  0
INSERT
  5
A68A
330
5DC1
100
AcDbEntity
  8
AM_5 寸法線
 62
     3
100
AcDbBlockReference
  2
_Open30
 10
621.1217298630764
 20
566.0778391523991
 30
0.0
 41
6.25
 42
6.25
 43
6.25
 50
180.0
  0
MTEXT
  5
A68B
330
5DC1
100
AcDbEntity
  8
AM_5 寸法線
 62
     3
100
AcDbMText
 10
671.1217298630764
 20
574.2028391523992
 30
0.0
 40
8.75
 41
0.0
 46
0.0
 71
     5
 72
     1
  1
100
  7
SEISA
 73
     1
 44
1.0
  0
POINT
  5
A68C
330
5DC1
100
AcDbEntity
  8
Defpoints
 62
     0
100
AcDbPoint
 10
721.1217298630764
 20
557.2359671523989
 30
0.0
  0
POINT
  5
A68D
330
5DC1
100
AcDbEntity
  8
Defpoints
 62
     0
100
AcDbPoint
 10
621.1217298630764
 20
557.2359671523989
 30
0.0
  0
POINT
  5
A68E
330
5DC1
100
AcDbEntity
  8
Defpoints
 62
     0
100
AcDbPoint
 10
621.1217298630764
 20
566.0778391523991
 30
0.0
  0
ENDBLK
  5
5DC3
330
5DC1
100
AcDbEntity
  8
0
100
AcDbBlockEnd
  0
BLOCK
  5
5E56
330
5E55
100
AcDbEntity
  8
0
100
AcDbBlockBegin
  2
*D17
 70
     1
 10
0.0
 20
0.0
 30
0.0
  3
*D17
  1

  0
LINE
  5
A6AD
330
5E55
100
AcDbEntity
  8
AM_5 寸法線
 62
     3
100
AcDbLine
 10
332.5592298630768
 20
617.2359671523991
 30
0.0
 11
249.5592298630768
 21
617.2359671523992
 31
0.0
  0
LINE
  5
A6AE
330
5E55
100
AcDbEntity
  8
AM_5 寸法線
 62
     3
100
AcDbLine
 10
332.5592298630768
 20
497.2359671523991
 30
0.0
 11
249.5592298630768
 21
497.2359671523991
 31
0.0
  0
LINE
  5
A6AF
330
5E55
100
AcDbEntity
  8
AM_5 寸法線
 62
     3
100
AcDbLine
 10
251.1217298630768
 20
610.9859671523992
 30
0.0
 11
251.1217298630768
 21
503.4859671523991
 31
0.0
  0
INSERT
  5
A6B0
330
5E55
100
AcDbEntity
  8
AM_5 寸法線
 62
     3
100
AcDbBlockReference
  2
_Open30
 10
251.1217298630768
 20
617.2359671523992
 30
0.0
 41
6.25
 42
6.25
 43
6.25
 50
90.0
  0
INSERT
  5
A6B1
330
5E55
100
AcDbEntity
  8
AM_5 寸法線
 62
     3
100
AcDbBlockReference
  2
_Open30
 10
251.1217298630768
 20
497.2359671523991
 30
0.0
 41
6.25
 42
6.25
 43
6.25
 50
270.0
  0
MTEXT
  5
A6B2
330
5E55
100
AcDbEntity
  8
AM_5 寸法線
 62
     3
100
AcDbMText
 10
242.9967298630767
 20
557.2359671523992
 30
0.0
 40
8.75
 41
0.0
 46
0.0
 71
     5
 72
     1
  1
%%c120
  7
SEISA
 11
0.0000000000000001
 21
1.0
 31
0.0
 73
     1
 44
1.0
  0
POINT
  5
A6B3
330
5E55
100
AcDbEntity
  8
Defpoints
 62
     0
100
AcDbPoint
 10
334.1217298630768
 20
617.2359671523991
 30
0.0
  0
POINT
  5
A6B4
330
5E55
100
AcDbEntity
  8
Defpoints
 62
     0
100
AcDbPoint
 10
334.1217298630768
 20
497.2359671523991
 30
0.0
  0
POINT
  5
A6B5
330
5E55
100
AcDbEntity
  8
Defpoints
 62
     0
100
AcDbPoint
 10
251.1217298630768
 20
497.2359671523991
 30
0.0
  0
ENDBLK
  5
5E57
330
5E55
100
AcDbEntity
  8
0
100
AcDbBlockEnd
  0
BLOCK
  5
5E9C
330
5E9B
100
AcDbEntity
  8
0
100
AcDbBlockBegin
  2
*D18
 70
     1
 10
0.0
 20
0.0
 30
0.0
  3
*D18
  1

  0
LINE
  5
A6B6
330
5E9B
100
AcDbEntity
  8
AM_5 寸法線
 62
     3
100
AcDbLine
 10
689.6842298630764
 20
617.2359671523991
 30
0.0
 11
772.6842298630764
 21
617.235967152399
 31
0.0
  0
LINE
  5
A6B7
330
5E9B
100
AcDbEntity
  8
AM_5 寸法線
 62
     3
100
AcDbLine
 10
689.6842298630764
 20
497.2359671523991
 30
0.0
 11
772.6842298630764
 21
497.2359671523991
 31
0.0
  0
LINE
  5
A6B8
330
5E9B
100
AcDbEntity
  8
AM_5 寸法線
 62
     3
100
AcDbLine
 10
771.1217298630764
 20
610.985967152399
 30
0.0
 11
771.1217298630764
 21
503.4859671523991
 31
0.0
  0
INSERT
  5
A6B9
330
5E9B
100
AcDbEntity
  8
AM_5 寸法線
 62
     3
100
AcDbBlockReference
  2
_Open30
 10
771.1217298630764
 20
617.235967152399
 30
0.0
 41
6.25
 42
6.25
 43
6.25
 50
90.0
  0
INSERT
  5
A6BA
330
5E9B
100
AcDbEntity
  8
AM_5 寸法線
 62
     3
100
AcDbBlockReference
  2
_Open30
 10
771.1217298630764
 20
497.2359671523991
 30
0.0
 41
6.25
 42
6.25
 43
6.25
 50
270.0
  0
MTEXT
  5
A6BB
330
5E9B
100
AcDbEntity
  8
AM_5 寸法線
 62
     3
100
AcDbMText
 10
762.9967298630763
 20
557.2359671523993
 30
0.0
 40
8.75
 41
0.0
 46
0.0
 71
     5
 72
     1
  1
%%c120
  7
SEISA
 11
0.0000000000000001
 21
1.0
 31
0.0
 73
     1
 44
1.0
  0
POINT
  5
A6BC
330
5E9B
100
AcDbEntity
  8
Defpoints
 62
     0
100
AcDbPoint
 10
688.1217298630764
 20
617.2359671523991
 30
0.0
  0
POINT
  5
A6BD
330
5E9B
100
AcDbEntity
  8
Defpoints
 62
     0
100
AcDbPoint
 10
688.1217298630764
 20
497.2359671523991
 30
0.0
  0
POINT
  5
A6BE
330
5E9B
100
AcDbEntity
  8
Defpoints
 62
     0
100
AcDbPoint
 10
771.1217298630764
 20
497.2359671523991
 30
0.0
  0
ENDBLK
  5
5E9D
330
5E9B
100
AcDbEntity
  8
0
100
AcDbBlockEnd
  0
BLOCK
  5
5EB4
330
5EB3
100
AcDbEntity
  8
0
100
AcDbBlockBegin
  2
*D19
 70
     1
 10
0.0
 20
0.0
 30
0.0
  3
*D19
  1

  0
LINE
  5
A6BF
330
5EB3
100
AcDbEntity
  8
AM_5 寸法線
 62
     3
100
AcDbLine
 10
675.6842298630764
 20
631.7359671523989
 30
0.0
 11
797.6842298630764
 21
631.7359671523989
 31
0.0
  0
LINE
  5
A6C0
330
5EB3
100
AcDbEntity
  8
AM_5 寸法線
 62
     3
100
AcDbLine
 10
675.6842298630764
 20
482.7359671523991
 30
0.0
 11
797.6842298630764
 21
482.7359671523991
 31
0.0
  0
LINE
  5
A6C1
330
5EB3
100
AcDbEntity
  8
AM_5 寸法線
 62
     3
100
AcDbLine
 10
796.1217298630764
 20
625.4859671523989
 30
0.0
 11
796.1217298630764
 21
488.9859671523991
 31
0.0
  0
INSERT
  5
A6C2
330
5EB3
100
AcDbEntity
  8
AM_5 寸法線
 62
     3
100
AcDbBlockReference
  2
_Open30
 10
796.1217298630764
 20
631.7359671523989
 30
0.0
 41
6.25
 42
6.25
 43
6.25
 50
90.0
  0
INSERT
  5
A6C3
330
5EB3
100
AcDbEntity
  8
AM_5 寸法線
 62
     3
100
AcDbBlockReference
  2
_Open30
 10
796.1217298630764
 20
482.7359671523991
 30
0.0
 41
6.25
 42
6.25
 43
6.25
 50
270.0
  0
MTEXT
  5
A6C4
330
5EB3
100
AcDbEntity
  8
AM_5 寸法線
 62
     3
100
AcDbMText
 10
787.9967298630763
 20
557.2359671523993
 30
0.0
 40
8.75
 41
0.0
 46
0.0
 71
     5
 72
     1
  1
%%c149
  7
SEISA
 11
0.0000000000000001
 21
1.0
 31
0.0
 73
     1
 44
1.0
  0
POINT
  5
A6C5
330
5EB3
100
AcDbEntity
  8
Defpoints
 62
     0
100
AcDbPoint
 10
674.1217298630764
 20
631.7359671523989
 30
0.0
  0
POINT
  5
A6C6
330
5EB3
100
AcDbEntity
  8
Defpoints
 62
     0
100
AcDbPoint
 10
674.1217298630764
 20
482.7359671523991
 30
0.0
  0
POINT
  5
A6C7
330
5EB3
100
AcDbEntity
  8
Defpoints
 62
     0
100
AcDbPoint
 10
796.1217298630764
 20
482.7359671523991
 30
0.0
  0
ENDBLK
  5
5EB5
330
5EB3
100
AcDbEntity
  8
0
100
AcDbBlockEnd
  0
BLOCK
  5
5ECC
330
5ECB
100
AcDbEntity
  8
0
100
AcDbBlockBegin
  2
*D20
 70
     1
 10
0.0
 20
0.0
 30
0.0
  3
*D20
  1

  0
LINE
  5
A6C8
330
5ECB
100
AcDbEntity
  8
AM_5 寸法線
 62
     3
100
AcDbLine
 10
631.6842298630764
 20
657.2359671523989
 30
0.0
 11
822.6842298630764
 21
657.2359671523988
 31
0.0
  0
LINE
  5
A6C9
330
5ECB
100
AcDbEntity
  8
AM_5 寸法線
 62
     3
100
AcDbLine
 10
631.6842298630764
 20
457.2359671523991
 30
0.0
 11
822.6842298630764
 21
457.2359671523989
 31
0.0
  0
LINE
  5
A6CA
330
5ECB
100
AcDbEntity
  8
AM_5 寸法線
 62
     3
100
AcDbLine
 10
821.1217298630764
 20
650.9859671523988
 30
0.0
 11
821.1217298630764
 21
463.4859671523989
 31
0.0
  0
INSERT
  5
A6CB
330
5ECB
100
AcDbEntity
  8
AM_5 寸法線
 62
     3
100
AcDbBlockReference
  2
_Open30
 10
821.1217298630764
 20
657.2359671523988
 30
0.0
 41
6.25
 42
6.25
 43
6.25
 50
90.0
  0
INSERT
  5
A6CC
330
5ECB
100
AcDbEntity
  8
AM_5 寸法線
 62
     3
100
AcDbBlockReference
  2
_Open30
 10
821.1217298630764
 20
457.2359671523989
 30
0.0
 41
6.25
 42
6.25
 43
6.25
 50
270.0
  0
MTEXT
  5
A6CD
330
5ECB
100
AcDbEntity
  8
AM_5 寸法線
 62
     3
100
AcDbMText
 10
812.9967298630765
 20
557.2359671523992
 30
0.0
 40
8.75
 41
0.0
 46
0.0
 71
     5
 72
     1
  1
%%c200
  7
SEISA
 11
0.0000000000000001
 21
1.0
 31
0.0
 73
     1
 44
1.0
  0
POINT
  5
A6CE
330
5ECB
100
AcDbEntity
  8
Defpoints
 62
     0
100
AcDbPoint
 10
630.1217298630764
 20
657.2359671523989
 30
0.0
  0
POINT
  5
A6CF
330
5ECB
100
AcDbEntity
  8
Defpoints
 62
     0
100
AcDbPoint
 10
630.1217298630764
 20
457.2359671523991
 30
0.0
  0
POINT
  5
A6D0
330
5ECB
100
AcDbEntity
  8
Defpoints
 62
     0
100
AcDbPoint
 10
821.1217298630764
 20
457.2359671523989
 30
0.0
  0
ENDBLK
  5
5ECD
330
5ECB
100
AcDbEntity
  8
0
100
AcDbBlockEnd
  0
BLOCK
  5
6064
330
6063
100
AcDbEntity
  8
0
100
AcDbBlockBegin
  2
*D21
 70
     1
 10
0.0
 20
0.0
 30
0.0
  3
*D21
  1

  0
LINE
  5
A6E7
330
6063
100
AcDbEntity
  8
AM_5 寸法線
 62
     3
100
AcDbLine
 10
406.1217298630768
 20
456.1734671523991
 30
0.0
 11
406.1217298630768
 21
418.1734671523991
 31
0.0
  0
LINE
  5
A6E8
330
6063
100
AcDbEntity
  8
AM_5 寸法線
 62
     3
100
AcDbLine
 10
391.1217298630768
 20
456.6734671523991
 30
0.0
 11
391.1217298630768
 21
418.1734671523991
 31
0.0
  0
LINE
  5
A6E9
330
6063
100
AcDbEntity
  8
AM_5 寸法線
 62
     3
100
AcDbLine
 10
412.3717298630768
 20
419.7359671523991
 30
0.0
 11
418.6217298630768
 21
419.7359671523991
 31
0.0
  0
LINE
  5
A6EA
330
6063
100
AcDbEntity
  8
AM_5 寸法線
 62
     3
100
AcDbLine
 10
384.8717298630768
 20
419.7359671523991
 30
0.0
 11
359.4967298630768
 21
419.7359671523991
 31
0.0
  0
LINE
  5
A6EB
330
6063
100
AcDbEntity
  8
AM_5 寸法線
 62
     3
100
AcDbLine
 10
406.1217298630768
 20
419.7359671523991
 30
0.0
 11
391.1217298630768
 21
419.7359671523991
 31
0.0
  0
INSERT
  5
A6EC
330
6063
100
AcDbEntity
  8
AM_5 寸法線
 62
     3
100
AcDbBlockReference
  2
GENDOT
 10
406.1217298630768
 20
419.7359671523991
 30
0.0
 41
6.25
 42
6.25
 43
6.25
 50
180.0
  0
INSERT
  5
A6ED
330
6063
100
AcDbEntity
  8
AM_5 寸法線
 62
     3
100
AcDbBlockReference
  2
_Open30
 10
391.1217298630768
 20
419.7359671523991
 30
0.0
 41
6.25
 42
6.25
 43
6.25
  0
MTEXT
  5
A6EE
330
6063
100
AcDbEntity
  8
AM_5 寸法線
 62
     3
100
AcDbMText
 10
369.0592298630768
 20
427.8609671523991
 30
0.0
 40
8.75
 41
0.0
 46
0.0
 71
     5
 72
     1
  1
15
  7
SEISA
 73
     1
 44
1.0
  0
POINT
  5
A6EF
330
6063
100
AcDbEntity
  8
Defpoints
 62
     0
100
AcDbPoint
 10
406.1217298630768
 20
457.7359671523991
 30
0.0
  0
POINT
  5
A6F0
330
6063
100
AcDbEntity
  8
Defpoints
 62
     0
100
AcDbPoint
 10
391.1217298630768
 20
458.2359671523991
 30
0.0
  0
POINT
  5
A6F1
330
6063
100
AcDbEntity
  8
Defpoints
 62
     0
100
AcDbPoint
 10
391.1217298630768
 20
419.7359671523991
 30
0.0
  0
ENDBLK
  5
6065
330
6063
100
AcDbEntity
  8
0
100
AcDbBlockEnd
  0
BLOCK
  5
60C8
330
60C7
100
AcDbEntity
  8
0
100
AcDbBlockBegin
  2
*D22
 70
     1
 10
0.0
 20
0.0
 30
0.0
  3
*D22
  1

  0
LINE
  5
A6F2
330
60C7
100
AcDbEntity
  8
AM_5 寸法線
 62
     3
100
AcDbLine
 10
616.1217298630766
 20
456.1734671523991
 30
0.0
 11
616.1217298630766
 21
418.1734671523991
 31
0.0
  0
LINE
  5
A6F3
330
60C7
100
AcDbEntity
  8
AM_5 寸法線
 62
     3
100
AcDbLine
 10
631.1217298630764
 20
456.6734671523991
 30
0.0
 11
631.1217298630764
 21
418.1734671523991
 31
0.0
  0
LINE
  5
A6F4
330
60C7
100
AcDbEntity
  8
AM_5 寸法線
 62
     3
100
AcDbLine
 10
609.8717298630766
 20
419.7359671523991
 30
0.0
 11
603.6217298630766
 21
419.7359671523991
 31
0.0
  0
LINE
  5
A6F5
330
60C7
100
AcDbEntity
  8
AM_5 寸法線
 62
     3
100
AcDbLine
 10
637.3717298630764
 20
419.7359671523991
 30
0.0
 11
662.7467298630764
 21
419.7359671523991
 31
0.0
  0
LINE
  5
A6F6
330
60C7
100
AcDbEntity
  8
AM_5 寸法線
 62
     3
100
AcDbLine
 10
616.1217298630766
 20
419.7359671523991
 30
0.0
 11
631.1217298630764
 21
419.7359671523991
 31
0.0
  0
INSERT
  5
A6F7
330
60C7
100
AcDbEntity
  8
AM_5 寸法線
 62
     3
100
AcDbBlockReference
  2
GENDOT
 10
616.1217298630766
 20
419.7359671523991
 30
0.0
 41
6.25
 42
6.25
 43
6.25
  0
INSERT
  5
A6F8
330
60C7
100
AcDbEntity
  8
AM_5 寸法線
 62
     3
100
AcDbBlockReference
  2
_Open30
 10
631.1217298630764
 20
419.7359671523991
 30
0.0
 41
6.25
 42
6.25
 43
6.25
 50
180.0
  0
MTEXT
  5
A6F9
330
60C7
100
AcDbEntity
  8
AM_5 寸法線
 62
     3
100
AcDbMText
 10
653.1842298630764
 20
427.8609671523991
 30
0.0
 40
8.75
 41
0.0
 46
0.0
 71
     5
 72
     1
  1
15
  7
SEISA
 73
     1
 44
1.0
  0
POINT
  5
A6FA
330
60C7
100
AcDbEntity
  8
Defpoints
 62
     0
100
AcDbPoint
 10
616.1217298630766
 20
457.7359671523991
 30
0.0
  0
POINT
  5
A6FB
330
60C7
100
AcDbEntity
  8
Defpoints
 62
     0
100
AcDbPoint
 10
631.1217298630764
 20
458.2359671523991
 30
0.0
  0
POINT
  5
A6FC
330
60C7
100
AcDbEntity
  8
Defpoints
 62
     0
100
AcDbPoint
 10
631.1217298630764
 20
419.7359671523991
 30
0.0
  0
ENDBLK
  5
60C9
330
60C7
100
AcDbEntity
  8
0
100
AcDbBlockEnd
  0
BLOCK
  5
60E4
330
60E3
100
AcDbEntity
  8
0
100
AcDbBlockBegin
  2
*D23
 70
     1
 10
0.0
 20
0.0
 30
0.0
  3
*D23
  1

  0
LINE
  5
A6FD
330
60E3
100
AcDbEntity
  8
AM_5 寸法線
 62
     3
100
AcDbLine
 10
406.1217298630768
 20
456.1734671523991
 30
0.0
 11
406.1217298630768
 21
393.1734671523992
 31
0.0
  0
LINE
  5
A6FE
330
60E3
100
AcDbEntity
  8
AM_5 寸法線
 62
     3
100
AcDbLine
 10
345.1217298630768
 20
484.1734671523991
 30
0.0
 11
345.1217298630768
 21
393.1734671523992
 31
0.0
  0
LINE
  5
A6FF
330
60E3
100
AcDbEntity
  8
AM_5 寸法線
 62
     3
100
AcDbLine
 10
399.8717298630768
 20
394.7359671523992
 30
0.0
 11
351.3717298630768
 21
394.7359671523992
 31
0.0
  0
INSERT
  5
A700
330
60E3
100
AcDbEntity
  8
AM_5 寸法線
 62
     3
100
AcDbBlockReference
  2
_Open30
 10
406.1217298630768
 20
394.7359671523992
 30
0.0
 41
6.25
 42
6.25
 43
6.25
  0
INSERT
  5
A701
330
60E3
100
AcDbEntity
  8
AM_5 寸法線
 62
     3
100
AcDbBlockReference
  2
_Open30
 10
345.1217298630768
 20
394.7359671523992
 30
0.0
 41
6.25
 42
6.25
 43
6.25
 50
180.0
  0
MTEXT
  5
A702
330
60E3
100
AcDbEntity
  8
AM_5 寸法線
 62
     3
100
AcDbMText
 10
375.6217298630768
 20
402.8609671523991
 30
0.0
 40
8.75
 41
0.0
 46
0.0
 71
     5
 72
     1
  1
61
  7
SEISA
 73
     1
 44
1.0
  0
POINT
  5
A703
330
60E3
100
AcDbEntity
  8
Defpoints
 62
     0
100
AcDbPoint
 10
406.1217298630768
 20
457.7359671523991
 30
0.0
  0
POINT
  5
A704
330
60E3
100
AcDbEntity
  8
Defpoints
 62
     0
100
AcDbPoint
 10
345.1217298630768
 20
485.7359671523991
 30
0.0
  0
POINT
  5
A705
330
60E3
100
AcDbEntity
  8
Defpoints
 62
     0
100
AcDbPoint
 10
345.1217298630768
 20
394.7359671523992
 30
0.0
  0
ENDBLK
  5
60E5
330
60E3
100
AcDbEntity
  8
0
100
AcDbBlockEnd
  0
BLOCK
  5
60FC
330
60FB
100
AcDbEntity
  8
0
100
AcDbBlockBegin
  2
*D24
 70
     1
 10
0.0
 20
0.0
 30
0.0
  3
*D24
  1

  0
LINE
  5
A706
330
60FB
100
AcDbEntity
  8
AM_5 寸法線
 62
     3
100
AcDbLine
 10
345.1217298630768
 20
484.1734671523991
 30
0.0
 11
345.1217298630768
 21
393.1734671523992
 31
0.0
  0
LINE
  5
A707
330
60FB
100
AcDbEntity
  8
AM_5 寸法線
 62
     3
100
AcDbLine
 10
301.1217298630768
 20
499.2734671523991
 30
0.0
 11
301.1217298630768
 21
393.1734671523992
 31
0.0
  0
LINE
  5
A708
330
60FB
100
AcDbEntity
  8
AM_5 寸法線
 62
     3
100
AcDbLine
 10
338.8717298630768
 20
394.7359671523992
 30
0.0
 11
307.3717298630768
 21
394.7359671523992
 31
0.0
  0
INSERT
  5
A709
330
60FB
100
AcDbEntity
  8
AM_5 寸法線
 62
     3
100
AcDbBlockReference
  2
_Open30
 10
345.1217298630768
 20
394.7359671523992
 30
0.0
 41
6.25
 42
6.25
 43
6.25
  0
INSERT
  5
A70A
330
60FB
100
AcDbEntity
  8
AM_5 寸法線
 62
     3
100
AcDbBlockReference
  2
_Open30
 10
301.1217298630768
 20
394.7359671523992
 30
0.0
 41
6.25
 42
6.25
 43
6.25
 50
180.0
  0
MTEXT
  5
A70B
330
60FB
100
AcDbEntity
  8
AM_5 寸法線
 62
     3
100
AcDbMText
 10
323.1217298630769
 20
402.8609671523991
 30
0.0
 40
8.75
 41
0.0
 46
0.0
 71
     5
 72
     1
  1
44
  7
SEISA
 73
     1
 44
1.0
  0
POINT
  5
A70C
330
60FB
100
AcDbEntity
  8
Defpoints
 62
     0
100
AcDbPoint
 10
345.1217298630768
 20
485.7359671523991
 30
0.0
  0
POINT
  5
A70D
330
60FB
100
AcDbEntity
  8
Defpoints
 62
     0
100
AcDbPoint
 10
301.1217298630768
 20
500.8359671523991
 30
0.0
  0
POINT
  5
A70E
330
60FB
100
AcDbEntity
  8
Defpoints
 62
     0
100
AcDbPoint
 10
301.1217298630768
 20
394.7359671523992
 30
0.0
  0
ENDBLK
  5
60FD
330
60FB
100
AcDbEntity
  8
0
100
AcDbBlockEnd
  0
BLOCK
  5
612C
330
612B
100
AcDbEntity
  8
0
100
AcDbBlockBegin
  2
*D25
 70
     1
 10
0.0
 20
0.0
 30
0.0
  3
*D25
  1

  0
LINE
  5
A717
330
612B
100
AcDbEntity
  8
AM_5 寸法線
 62
     3
100
AcDbLine
 10
616.1217298630766
 20
456.1734671523991
 30
0.0
 11
616.1217298630766
 21
393.1734671523992
 31
0.0
  0
LINE
  5
A718
330
612B
100
AcDbEntity
  8
AM_5 寸法線
 62
     3
100
AcDbLine
 10
677.1217298630764
 20
484.1734671523991
 30
0.0
 11
677.1217298630764
 21
393.1734671523992
 31
0.0
  0
LINE
  5
A719
330
612B
100
AcDbEntity
  8
AM_5 寸法線
 62
     3
100
AcDbLine
 10
622.3717298630766
 20
394.7359671523992
 30
0.0
 11
670.8717298630764
 21
394.7359671523992
 31
0.0
  0
INSERT
  5
A71A
330
612B
100
AcDbEntity
  8
AM_5 寸法線
 62
     3
100
AcDbBlockReference
  2
_Open30
 10
616.1217298630766
 20
394.7359671523992
 30
0.0
 41
6.25
 42
6.25
 43
6.25
 50
180.0
  0
INSERT
  5
A71B
330
612B
100
AcDbEntity
  8
AM_5 寸法線
 62
     3
100
AcDbBlockReference
  2
_Open30
 10
677.1217298630764
 20
394.7359671523992
 30
0.0
 41
6.25
 42
6.25
 43
6.25
  0
MTEXT
  5
A71C
330
612B
100
AcDbEntity
  8
AM_5 寸法線
 62
     3
100
AcDbMText
 10
646.6217298630764
 20
402.8609671523991
 30
0.0
 40
8.75
 41
0.0
 46
0.0
 71
     5
 72
     1
  1
61
  7
SEISA
 73
     1
 44
1.0
  0
POINT
  5
A71D
330
612B
100
AcDbEntity
  8
Defpoints
 62
     0
100
AcDbPoint
 10
616.1217298630766
 20
457.7359671523991
 30
0.0
  0
POINT
  5
A71E
330
612B
100
AcDbEntity
  8
Defpoints
 62
     0
100
AcDbPoint
 10
677.1217298630764
 20
485.7359671523991
 30
0.0
  0
POINT
  5
A71F
330
612B
100
AcDbEntity
  8
Defpoints
 62
     0
100
AcDbPoint
 10
677.1217298630764
 20
394.7359671523992
 30
0.0
  0
ENDBLK
  5
612D
330
612B
100
AcDbEntity
  8
0
100
AcDbBlockEnd
  0
BLOCK
  5
6144
330
6143
100
AcDbEntity
  8
0
100
AcDbBlockBegin
  2
*D26
 70
     1
 10
0.0
 20
0.0
 30
0.0
  3
*D26
  1

  0
LINE
  5
A720
330
6143
100
AcDbEntity
  8
AM_5 寸法線
 62
     3
100
AcDbLine
 10
677.1217298630764
 20
484.1734671523991
 30
0.0
 11
677.1217298630764
 21
393.1734671523992
 31
0.0
  0
LINE
  5
A721
330
6143
100
AcDbEntity
  8
AM_5 寸法線
 62
     3
100
AcDbLine
 10
721.1217298630764
 20
499.2734671523991
 30
0.0
 11
721.1217298630764
 21
393.1734671523992
 31
0.0
  0
LINE
  5
A722
330
6143
100
AcDbEntity
  8
AM_5 寸法線
 62
     3
100
AcDbLine
 10
683.3717298630764
 20
394.7359671523992
 30
0.0
 11
714.8717298630764
 21
394.7359671523992
 31
0.0
  0
INSERT
  5
A723
330
6143
100
AcDbEntity
  8
AM_5 寸法線
 62
     3
100
AcDbBlockReference
  2
_Open30
 10
677.1217298630764
 20
394.7359671523992
 30
0.0
 41
6.25
 42
6.25
 43
6.25
 50
180.0
  0
INSERT
  5
A724
330
6143
100
AcDbEntity
  8
AM_5 寸法線
 62
     3
100
AcDbBlockReference
  2
_Open30
 10
721.1217298630764
 20
394.7359671523992
 30
0.0
 41
6.25
 42
6.25
 43
6.25
  0
MTEXT
  5
A725
330
6143
100
AcDbEntity
  8
AM_5 寸法線
 62
     3
100
AcDbMText
 10
699.1217298630764
 20
402.8609671523991
 30
0.0
 40
8.75
 41
0.0
 46
0.0
 71
     5
 72
     1
  1
44
  7
SEISA
 73
     1
 44
1.0
  0
POINT
  5
A726
330
6143
100
AcDbEntity
  8
Defpoints
 62
     0
100
AcDbPoint
 10
677.1217298630764
 20
485.7359671523991
 30
0.0
  0
POINT
  5
A727
330
6143
100
AcDbEntity
  8
Defpoints
 62
     0
100
AcDbPoint
 10
721.1217298630764
 20
500.8359671523991
 30
0.0
  0
POINT
  5
A728
330
6143
100
AcDbEntity
  8
Defpoints
 62
     0
100
AcDbPoint
 10
721.1217298630764
 20
394.7359671523992
 30
0.0
  0
ENDBLK
  5
6145
330
6143
100
AcDbEntity
  8
0
100
AcDbBlockEnd
  0
BLOCK
  5
9263
330
9262
100
AcDbEntity
  8
0
100
AcDbBlockBegin
  2
ＧＣスペーサ SAMY200
 70
     0
 10
0.0
 20
0.0
 30
0.0
  3
ＧＣスペーサ SAMY200
  1

  0
LINE
  5
9265
330
9262
100
AcDbEntity
  8
AM_0 外形線1
100
AcDbLine
 10
186.0
 20
57.20000000000028
 30
0.0
 11
104.0552110679248
 21
57.20000000000028
 31
0.0
  0
LINE
  5
9266
330
9262
100
AcDbEntity
  8
AM_0 外形線1
100
AcDbLine
 10
23.99999999999977
 20
57.20000000000005
 30
0.0
 11
98.97503921660366
 21
57.20000000000028
 31
0.0
  0
LINE
  5
9267
330
9262
100
AcDbEntity
  8
AM_0 外形線1
100
AcDbLine
 10
18.99999999999983
 20
69.90000000000009
 30
0.0
 11
103.0098596854937
 21
69.90000000000009
 31
0.0
  0
LINE
  5
9268
330
9262
100
AcDbEntity
  8
AM_0 外形線1
100
AcDbLine
 10
37.0
 20
-69.89999999999986
 30
0.0
 11
103.0098596854937
 21
-69.89999999999998
 31
0.0
  0
LINE
  5
9269
330
9262
100
AcDbEntity
  8
AM_0 外形線1
100
AcDbLine
 10
108.0098596854936
 20
-69.89999999999975
 30
0.0
 11
172.9999999999997
 21
-69.89999999999952
 31
0.0
  0
LINE
  5
926A
330
9262
100
AcDbEntity
  8
AM_0 外形線1
100
AcDbLine
 10
108.0098596854939
 20
69.90000000000009
 30
0.0
 11
190.9999999999994
 21
69.90000000000009
 31
0.0
  0
POLYLINE
  5
926B
330
9262
100
AcDbEntity
  8
AM_4 細線
100
AcDb2dPolyline
 66
     1
 10
0.0
 20
0.0
 30
0.0
 70
     2
  0
VERTEX
  5
B3CE
330
926B
100
AcDbEntity
  8
AM_4 細線
100
AcDbVertex
100
AcDb2dVertex
 10
108.0098596854939
 20
69.90000000000009
 30
0.0
 42
0.0563148958095543
  0
VERTEX
  5
B3CF
330
926B
100
AcDbEntity
  8
AM_4 細線
100
AcDbVertex
100
AcDb2dVertex
 10
104.5194255329208
 20
59.95470734298942
 30
0.0
 42
0.0788884822822569
 70
     1
  0
VERTEX
  5
B3D0
330
926B
100
AcDbEntity
  8
AM_4 細線
100
AcDbVertex
100
AcDb2dVertex
 10
104.0098596854938
 20
52.42500000000018
 30
0.0
 42
0.0775512430551702
  0
VERTEX
  5
B3D1
330
926B
100
AcDbEntity
  8
AM_4 細線
100
AcDbVertex
100
AcDb2dVertex
 10
106.4541597953566
 20
42.6350624919005
 30
0.0
 42
-0.1001996223436107
 70
     1
  0
VERTEX
  5
B3D2
330
926B
100
AcDbEntity
  8
AM_4 細線
100
AcDbVertex
100
AcDb2dVertex
 10
108.0098596854939
 20
34.94999999999982
 30
0.0
 42
-0.1129881184647547
  0
VERTEX
  5
B3D3
330
926B
100
AcDbEntity
  8
AM_4 細線
100
AcDbVertex
100
AcDb2dVertex
 10
106.0098596854939
 20
26.21250000000009
 30
0.0
 42
0.112988118464755
 70
     1
  0
VERTEX
  5
B3D4
330
926B
100
AcDbEntity
  8
AM_4 細線
100
AcDbVertex
100
AcDb2dVertex
 10
104.0098596854938
 20
17.47499999999991
 30
0.0
 42
0.1129881184647549
  0
VERTEX
  5
B3D5
330
926B
100
AcDbEntity
  8
AM_4 細線
100
AcDbVertex
100
AcDb2dVertex
 10
106.0098596854939
 20
8.737500000000181
 30
0.0
 42
-0.1129881184647553
 70
     1
  0
VERTEX
  5
B3D6
330
926B
100
AcDbEntity
  8
AM_4 細線
100
AcDbVertex
100
AcDb2dVertex
 10
108.0098596854939
 20
0.0
 30
0.0
 42
-0.1129881184647553
  0
VERTEX
  5
B3D7
330
926B
100
AcDbEntity
  8
AM_4 細線
100
AcDbVertex
100
AcDb2dVertex
 10
106.0098596854939
 20
-8.737499999999727
 30
0.0
 42
0.1129881184647549
 70
     1
  0
VERTEX
  5
B3D8
330
926B
100
AcDbEntity
  8
AM_4 細線
100
AcDbVertex
100
AcDb2dVertex
 10
104.0098596854938
 20
-17.47499999999991
 30
0.0
 42
0.112988118464755
  0
VERTEX
  5
B3D9
330
926B
100
AcDbEntity
  8
AM_4 細線
100
AcDbVertex
100
AcDb2dVertex
 10
106.0098596854939
 20
-26.21250000000009
 30
0.0
 42
-0.1129881184647547
 70
     1
  0
VERTEX
  5
B3DA
330
926B
100
AcDbEntity
  8
AM_4 細線
100
AcDbVertex
100
AcDb2dVertex
 10
108.0098596854939
 20
-34.94999999999982
 30
0.0
 42
-0.1001996223436071
  0
VERTEX
  5
B3DB
330
926B
100
AcDbEntity
  8
AM_4 細線
100
AcDbVertex
100
AcDb2dVertex
 10
106.4541597953566
 20
-42.6350624919005
 30
0.0
 42
0.0775512430551729
 70
     1
  0
VERTEX
  5
B3DC
330
926B
100
AcDbEntity
  8
AM_4 細線
100
AcDbVertex
100
AcDb2dVertex
 10
104.0098596854938
 20
-52.42499999999985
 30
0.0
 42
0.0788884822822466
  0
VERTEX
  5
B3DD
330
926B
100
AcDbEntity
  8
AM_4 細線
100
AcDbVertex
100
AcDb2dVertex
 10
104.5194255329207
 20
-59.95470734298908
 30
0.0
 42
0.0563148958095483
 70
     1
  0
VERTEX
  5
B3DE
330
926B
100
AcDbEntity
  8
AM_4 細線
100
AcDbVertex
100
AcDb2dVertex
 10
108.0098596854939
 20
-69.89999999999998
 30
0.0
  0
SEQEND
  5
B3DF
330
926B
100
AcDbEntity
  8
AM_4 細線
  0
POLYLINE
  5
927E
330
9262
100
AcDbEntity
  8
AM_4 細線
100
AcDb2dPolyline
 66
     1
 10
0.0
 20
0.0
 30
0.0
 70
     2
  0
VERTEX
  5
B3E1
330
927E
100
AcDbEntity
  8
AM_4 細線
100
AcDbVertex
100
AcDb2dVertex
 10
103.0098596854937
 20
69.90000000000009
 30
0.0
 42
0.0563148958095543
  0
VERTEX
  5
B3E2
330
927E
100
AcDbEntity
  8
AM_4 細線
100
AcDbVertex
100
AcDb2dVertex
 10
99.5194255329207
 20
59.95470734298942
 30
0.0
 42
0.0788884822822569
 70
     1
  0
VERTEX
  5
B3E3
330
927E
100
AcDbEntity
  8
AM_4 細線
100
AcDbVertex
100
AcDb2dVertex
 10
99.00985968549372
 20
52.42500000000018
 30
0.0
 42
0.0775512430551702
  0
VERTEX
  5
B3E4
330
927E
100
AcDbEntity
  8
AM_4 細線
100
AcDbVertex
100
AcDb2dVertex
 10
101.4541597953566
 20
42.6350624919005
 30
0.0
 42
-0.1001996223436107
 70
     1
  0
VERTEX
  5
B3E5
330
927E
100
AcDbEntity
  8
AM_4 細線
100
AcDbVertex
100
AcDb2dVertex
 10
103.0098596854937
 20
34.94999999999982
 30
0.0
 42
-0.1129881184647547
  0
VERTEX
  5
B3E6
330
927E
100
AcDbEntity
  8
AM_4 細線
100
AcDbVertex
100
AcDb2dVertex
 10
101.0098596854937
 20
26.21250000000009
 30
0.0
 42
0.112988118464755
 70
     1
  0
VERTEX
  5
B3E7
330
927E
100
AcDbEntity
  8
AM_4 細線
100
AcDbVertex
100
AcDb2dVertex
 10
99.00985968549372
 20
17.47499999999991
 30
0.0
 42
0.1129881184647549
  0
VERTEX
  5
B3E8
330
927E
100
AcDbEntity
  8
AM_4 細線
100
AcDbVertex
100
AcDb2dVertex
 10
101.0098596854937
 20
8.737500000000181
 30
0.0
 42
-0.1129881184647553
 70
     1
  0
VERTEX
  5
B3E9
330
927E
100
AcDbEntity
  8
AM_4 細線
100
AcDbVertex
100
AcDb2dVertex
 10
103.0098596854937
 20
0.0
 30
0.0
 42
-0.1129881184647553
  0
VERTEX
  5
B3EA
330
927E
100
AcDbEntity
  8
AM_4 細線
100
AcDbVertex
100
AcDb2dVertex
 10
101.0098596854937
 20
-8.737499999999727
 30
0.0
 42
0.1129881184647549
 70
     1
  0
VERTEX
  5
B3EB
330
927E
100
AcDbEntity
  8
AM_4 細線
100
AcDbVertex
100
AcDb2dVertex
 10
99.00985968549372
 20
-17.47499999999991
 30
0.0
 42
0.112988118464755
  0
VERTEX
  5
B3EC
330
927E
100
AcDbEntity
  8
AM_4 細線
100
AcDbVertex
100
AcDb2dVertex
 10
101.0098596854937
 20
-26.21250000000009
 30
0.0
 42
-0.1129881184647547
 70
     1
  0
VERTEX
  5
B3ED
330
927E
100
AcDbEntity
  8
AM_4 細線
100
AcDbVertex
100
AcDb2dVertex
 10
103.0098596854937
 20
-34.94999999999982
 30
0.0
 42
-0.1001996223436071
  0
VERTEX
  5
B3EE
330
927E
100
AcDbEntity
  8
AM_4 細線
100
AcDbVertex
100
AcDb2dVertex
 10
101.4541597953567
 20
-42.6350624919005
 30
0.0
 42
0.0775512430551729
 70
     1
  0
VERTEX
  5
B3EF
330
927E
100
AcDbEntity
  8
AM_4 細線
100
AcDbVertex
100
AcDb2dVertex
 10
99.00985968549372
 20
-52.42499999999985
 30
0.0
 42
0.0788884822822466
  0
VERTEX
  5
B3F0
330
927E
100
AcDbEntity
  8
AM_4 細線
100
AcDbVertex
100
AcDb2dVertex
 10
99.51942553292049
 20
-59.95470734298908
 30
0.0
 42
0.0563148958095483
 70
     1
  0
VERTEX
  5
B3F1
330
927E
100
AcDbEntity
  8
AM_4 細線
100
AcDbVertex
100
AcDb2dVertex
 10
103.0098596854937
 20
-69.89999999999998
 30
0.0
  0
SEQEND
  5
B3F2
330
927E
100
AcDbEntity
  8
AM_4 細線
  0
LINE
  5
9291
330
9262
100
AcDbEntity
  8
AM_0 外形線1
100
AcDbLine
 10
209.4999999999998
 20
-99.99999999999987
 30
0.0
 11
209.9999999999998
 21
-99.49999999999988
 31
0.0
1001
GENIUS_GENFIL_13
1070
     0
1040
0.5
1040
0.5
1040
0.5
1040
45.00000000000162
1000
~T
1001
GENIUS_GENOREF_13
1005
0
  0
LINE
  5
9292
330
9262
100
AcDbEntity
  8
AM_0 外形線1
100
AcDbLine
 10
209.4999999999998
 20
-99.99999999999987
 30
0.0
 11
195.9999999999998
 21
-99.99999999999987
 31
0.0
  0
LINE
  5
9293
330
9262
100
AcDbEntity
  8
AM_0 外形線1
100
AcDbLine
 10
194.9999999999997
 20
-98.99999999999987
 30
0.0
 11
195.9999999999998
 21
-99.99999999999987
 31
0.0
1001
GENIUS_GENFIL_13
1070
     0
1040
1.0
1040
1.0
1040
1.000000000000027
1040
44.99999999999754
1000
~T
1001
GENIUS_GENOREF_13
1005
0
  0
LINE
  5
9294
330
9262
100
AcDbEntity
  8
AM_7 中心線
100
AcDbLine
 10
229.9999999999998
 20
-88.99999999999989
 30
0.0
 11
189.9999999999996
 21
-88.99999999999989
 31
0.0
  0
LINE
  5
9295
330
9262
100
AcDbEntity
  8
AM_0 外形線1
100
AcDbLine
 10
194.9999999999997
 20
-98.99999999999987
 30
0.0
 11
194.9999999999999
 21
0.0
 31
0.0
  0
LINE
  5
9296
330
9262
100
AcDbEntity
  8
AM_0 外形線1
100
AcDbLine
 10
190.9999999999998
 20
-79.9999999999999
 30
0.0
 11
191.0000000000008
 21
0.0
 31
0.0
  0
LINE
  5
9297
330
9262
100
AcDbEntity
  8
AM_0 外形線1
100
AcDbLine
 10
194.9999999999997
 20
-79.9999999999999
 30
0.0
 11
190.9999999999998
 21
-79.9999999999999
 31
0.0
  0
LINE
  5
9298
330
9262
100
AcDbEntity
  8
AM_0 外形線1
100
AcDbLine
 10
205.9999999999999
 20
0.0000000000002274
 30
0.0
 11
205.9999999999998
 21
72.5
 31
0.0
  0
ARC
  5
9299
330
9262
100
AcDbEntity
  8
AM_0 外形線1
100
AcDbCircle
 10
172.9999999999997
 20
-79.89999999999975
 30
0.0
 40
10.0
100
AcDbArc
 50
55.93329555400913
 51
90.0
  0
LINE
  5
929A
330
9262
100
AcDbEntity
  8
AM_0 外形線1
100
AcDbLine
 10
190.9999999999998
 20
-79.9999999999999
 30
0.0
 11
178.6015769995364
 21
-71.61614008337529
 31
0.0
  0
LINE
  5
929B
330
9262
100
AcDbEntity
  8
AM_0 外形線1
100
AcDbLine
 10
209.9999999999998
 20
-99.49999999999988
 30
0.0
 11
209.9999999999998
 21
0.0
 31
0.0
  0
LINE
  5
929C
330
9262
100
AcDbEntity
  8
AM_0 外形線1
100
AcDbLine
 10
209.9999999999998
 20
73.0
 30
0.0
 11
209.9999999999998
 21
83.49999999999999
 31
0.0
  0
LINE
  5
929D
330
9262
100
AcDbEntity
  8
AM_0 外形線1
100
AcDbLine
 10
209.4999999999998
 20
100.0
 30
0.0
 11
209.9999999999998
 21
99.50000000000001
 31
0.0
1001
GENIUS_GENFIL_13
1070
     0
1040
0.5
1040
0.5
1040
0.5
1040
45.0
1000
~T
1001
GENIUS_GENOREF_13
1005
0
  0
LINE
  5
929E
330
9262
100
AcDbEntity
  8
AM_0 外形線1
100
AcDbLine
 10
209.4999999999999
 20
72.5
 30
0.0
 11
209.9999999999999
 21
73.0
 31
0.0
1001
GENIUS_GENFIL_13
1070
     0
1040
0.5
1040
0.5
1040
0.5
1040
45.0000000000065
1000
~T
1001
GENIUS_GENOREF_13
1005
0
  0
LINE
  5
929F
330
9262
100
AcDbEntity
  8
AM_0 外形線1
100
AcDbLine
 10
209.4999999999998
 20
100.0
 30
0.0
 11
195.9999999999998
 21
100.0
 31
0.0
  0
LINE
  5
92A0
330
9262
100
AcDbEntity
  8
AM_0 外形線1
100
AcDbLine
 10
194.9999999999997
 20
99.0
 30
0.0
 11
195.9999999999998
 21
100.0
 31
0.0
1001
GENIUS_GENFIL_13
1070
     0
1040
1.0
1040
1.0
1040
1.000000000000027
1040
44.99999999999754
1000
~T
1001
GENIUS_GENOREF_13
1005
0
  0
LINE
  5
92A2
330
9262
100
AcDbEntity
  8
AM_0 外形線1
100
AcDbLine
 10
194.9999999999997
 20
99.0
 30
0.0
 11
194.9999999999997
 21
80.0
 31
0.0
  0
LINE
  5
92A3
330
9262
100
AcDbEntity
  8
AM_0 外形線1
100
AcDbLine
 10
190.9999999999998
 20
80.0
 30
0.0
 11
191.0
 21
62.20000000000028
 31
0.0
  0
ARC
  5
92A4
330
9262
100
AcDbEntity
  8
AM_0 外形線1
100
AcDbCircle
 10
186.0
 20
62.20000000000028
 30
0.0
 40
5.0
100
AcDbArc
 50
270.0
 51
0.0
1001
GENIUS_GENOBJ-N-FIL_13
1002
{
1000
OWNER
1000
GEN
1002
}
1001
GENIUS_GENODEF_13
1002
{
1000
HIER
1070
     0
1002
}
1002
{
1000
MANEDIT
1070
     0
1002
}
1002
{
1000
NOSEL
1070
     0
1002
}
1002
{
1000
BEHIND
1070
     0
1002
}
1002
{
1000
OTHER
1070
     0
1002
}
1002
{
1000
REACTOR
1002
}
  0
LINE
  5
92A5
330
9262
100
AcDbEntity
  8
AM_0 外形線1
100
AcDbLine
 10
194.9999999999997
 20
80.0
 30
0.0
 11
190.9999999999998
 21
80.0
 31
0.0
  0
LINE
  5
92A6
330
9262
100
AcDbEntity
  8
AM_0 外形線1
100
AcDbLine
 10
209.4999999999999
 20
72.5
 30
0.0
 11
205.9999999999998
 21
72.5
 31
0.0
  0
LINE
  5
92A7
330
9262
100
AcDbEntity
  8
AM_0 外形線1
100
AcDbLine
 10
183.0000000000002
 20
57.20000000000028
 30
0.0
 11
175.6676515812919
 21
69.90000000000009
 31
0.0
  0
ARC
  5
92A8
330
9262
100
AcDbEntity
  8
AM_0 外形線1
100
AcDbCircle
 10
172.9999999999997
 20
79.90000000000009
 30
0.0
 40
10.0
100
AcDbArc
 50
270.0
 51
304.0667044459882
  0
LINE
  5
92A9
330
9262
100
AcDbEntity
  8
AM_0 外形線1
100
AcDbLine
 10
190.9999999999998
 20
80.0
 30
0.0
 11
178.6015769995365
 21
71.61614008337529
 31
0.0
  0
HATCH
  5
92AA
330
9262
100
AcDbEntity
  8
AM_8 ハッチング
100
AcDbHatch
 10
0.0
 20
0.0
 30
0.0
210
0.0
220
0.0
230
1.0
  2
_U
 70
     0
 71
     0
 91
        1
 92
        1
 93
        5
 72
     2
 10
186.0
 20
62.20000000000028
 40
5.0
 50
359.9999999999993
 51
450.0
 73
     0
 72
     1
 10
186.0
 20
57.20000000000028
 11
183.0
 21
57.20000000000028
 72
     1
 10
183.0000000000002
 20
57.20000000000028
 11
175.667651581292
 21
69.90000000000032
 72
     1
 10
175.6676515812919
 20
69.90000000000009
 11
191.0
 21
69.90000000000009
 72
     1
 10
191.0
 20
69.90000000000009
 11
191.0
 21
62.20000000000028
 97
        0
 75
     0
 76
     0
 52
45.0
 41
0.5
 77
     0
 78
     1
 53
315.0
 43
-108.8466101479703
 44
-149.7303017722034
 45
-0.3535533905932737
 46
-0.3535533905932738
 79
     0
 98
        1
 10
-108.8466101479703
 20
-149.7303017722034
1001
GENIUS_GENODEF_13
1002
{
1000
HIER
1070
     0
1002
}
1002
{
1000
MANEDIT
1070
     0
1002
}
1002
{
1000
NOSEL
1070
     0
1002
}
1002
{
1000
BEHIND
1070
     0
1002
}
1002
{
1000
OTHER
1070
     0
1002
}
1002
{
1000
REACTOR
1002
}
1001
GENIUS_GENOBJ-N-HTC_13
1002
{
1000
OWNER
1000
GEN
1002
}
1001
GENIUS_GENHATCH_13
1002
{
1000
DATA
1040
45.0
1042
-0.5
1000
_U
1070
     0
1011
188.280044755484
1021
69.0302609737555
1031
0.0
1002
}
1002
{
1000
UCS
1010
0.0
1020
0.0
1030
0.0
1010
1.0
1020
0.0
1030
0.0
1010
0.0
1020
1.0
1030
0.0
1002
}
  0
HATCH
  5
92AB
330
9262
100
AcDbEntity
  8
AM_8 ハッチング
100
AcDbHatch
 10
0.0
 20
0.0
 30
0.0
210
0.0
220
0.0
230
1.0
  2
_U
 70
     0
 71
     0
 91
        1
 92
        1
 93
        4
 72
     2
 10
172.9999999999997
 20
79.90000000000009
 40
10.0
 50
270.0
 51
304.0667044459979
 73
     1
 72
     1
 10
178.6015769995365
 20
71.61614008337529
 11
190.9999999999998
 21
80.0
 72
     1
 10
190.9999999999998
 20
80.0
 11
191.0
 21
69.89999999999986
 72
     1
 10
190.9999999999998
 20
69.90000000000009
 11
172.9999999999995
 21
69.90000000000009
 97
        0
 75
     0
 76
     0
 52
45.0
 41
0.5
 77
     0
 78
     1
 53
315.0
 43
-108.8466101479703
 44
-149.7303017722034
 45
-0.3535533905932737
 46
-0.3535533905932738
 79
     0
 98
        1
 10
-108.8466101479703
 20
-149.7303017722034
1001
GENIUS_GENOBJ-N-HTC_13
1002
{
1000
OWNER
1000
GEN
1002
}
1001
GENIUS_GENODEF_13
1002
{
1000
HIER
1070
     0
1002
}
1002
{
1000
MANEDIT
1070
     0
1002
}
1002
{
1000
NOSEL
1070
     0
1002
}
1002
{
1000
BEHIND
1070
     0
1002
}
1002
{
1000
OTHER
1070
     0
1002
}
1002
{
1000
REACTOR
1002
}
1001
GENIUS_GENHATCH_13
1002
{
1000
DATA
1040
45.0
1042
-0.5
1000
_U
1070
     0
1011
188.1023130284993
1021
72.9393143428988
1031
0.0
1002
}
1002
{
1000
UCS
1010
0.0
1020
0.0
1030
0.0
1010
1.0
1020
0.0
1030
0.0
1010
0.0
1020
1.0
1030
0.0
1002
}
  0
LINE
  5
92AC
330
9262
100
AcDbEntity
  8
AM_0 外形線1
100
AcDbLine
 10
194.9999999999997
 20
83.49999999999999
 30
0.0
 11
209.9999999999998
 21
83.49999999999999
 31
0.0
  0
LINE
  5
92AD
330
9262
100
AcDbEntity
  8
AM_0 外形線1
100
AcDbLine
 10
194.9999999999997
 20
94.50000000000001
 30
0.0
 11
209.9999999999998
 21
94.50000000000001
 31
0.0
  0
LINE
  5
92AE
330
9262
100
AcDbEntity
  8
AM_0 外形線1
100
AcDbLine
 10
0.5
 20
-99.99999999999987
 30
0.0
 11
0.0
 21
-99.49999999999988
 31
0.0
1001
GENIUS_GENFIL_13
1070
     0
1040
0.5
1040
0.5
1040
0.5
1040
45.00000000000162
1000
~T
1001
GENIUS_GENOREF_13
1005
0
  0
LINE
  5
92AF
330
9262
100
AcDbEntity
  8
AM_0 外形線1
100
AcDbLine
 10
0.5
 20
-99.99999999999987
 30
0.0
 11
14.0
 21
-99.99999999999987
 31
0.0
  0
LINE
  5
92B0
330
9262
100
AcDbEntity
  8
AM_0 外形線1
100
AcDbLine
 10
15.0
 20
-98.99999999999987
 30
0.0
 11
14.0
 21
-99.99999999999987
 31
0.0
1001
GENIUS_GENFIL_13
1070
     0
1040
1.0
1040
1.0
1040
1.000000000000027
1040
44.99999999999754
1000
~T
1001
GENIUS_GENOREF_13
1005
0
  0
LINE
  5
92B1
330
9262
100
AcDbEntity
  8
AM_7 中心線
100
AcDbLine
 10
-20.0
 20
-88.99999999999989
 30
0.0
 11
20.0
 21
-88.99999999999989
 31
0.0
  0
LINE
  5
92B2
330
9262
100
AcDbEntity
  8
AM_0 外形線1
100
AcDbLine
 10
15.0
 20
-98.99999999999987
 30
0.0
 11
15.0
 21
0.0
 31
0.0
  0
LINE
  5
92B3
330
9262
100
AcDbEntity
  8
AM_0 外形線1
100
AcDbLine
 10
19.0
 20
-79.9999999999999
 30
0.0
 11
18.99999999999898
 21
0.0
 31
0.0
  0
LINE
  5
92B4
330
9262
100
AcDbEntity
  8
AM_0 外形線1
100
AcDbLine
 10
15.0
 20
-79.9999999999999
 30
0.0
 11
19.0
 21
-79.9999999999999
 31
0.0
  0
LINE
  5
92B5
330
9262
100
AcDbEntity
  8
AM_0 外形線1
100
AcDbLine
 10
4.0
 20
0.0000000000002274
 30
0.0
 11
4.0
 21
72.5
 31
0.0
  0
ARC
  5
92B6
330
9262
100
AcDbEntity
  8
AM_0 外形線1
100
AcDbCircle
 10
37.0
 20
-79.89999999999975
 30
0.0
 40
10.0
100
AcDbArc
 50
90.0
 51
124.0667044459909
  0
LINE
  5
92B7
330
9262
100
AcDbEntity
  8
AM_0 外形線1
100
AcDbLine
 10
19.0
 20
-79.9999999999999
 30
0.0
 11
31.39842300046325
 21
-71.61614008337517
 31
0.0
  0
LINE
  5
92B8
330
9262
100
AcDbEntity
  8
AM_0 外形線1
100
AcDbLine
 10
0.0
 20
-99.49999999999988
 30
0.0
 11
0.0
 21
0.0
 31
0.0
  0
LINE
  5
92B9
330
9262
100
AcDbEntity
  8
AM_0 外形線1
100
AcDbLine
 10
0.0
 20
73.0
 30
0.0
 11
0.0
 21
83.49999999999999
 31
0.0
  0
LINE
  5
92BA
330
9262
100
AcDbEntity
  8
AM_0 外形線1
100
AcDbLine
 10
0.5
 20
100.0
 30
0.0
 11
0.0
 21
99.50000000000001
 31
0.0
1001
GENIUS_GENFIL_13
1070
     0
1040
0.5
1040
0.5
1040
0.5
1040
45.0
1000
~T
1001
GENIUS_GENOREF_13
1005
0
  0
LINE
  5
92BB
330
9262
100
AcDbEntity
  8
AM_0 外形線1
100
AcDbLine
 10
0.5
 20
72.5
 30
0.0
 11
0.0
 21
73.0
 31
0.0
1001
GENIUS_GENFIL_13
1070
     0
1040
0.5
1040
0.5
1040
0.5
1040
44.99999999999836
1000
~T
1001
GENIUS_GENOREF_13
1005
0
  0
LINE
  5
92BC
330
9262
100
AcDbEntity
  8
AM_0 外形線1
100
AcDbLine
 10
0.5
 20
100.0
 30
0.0
 11
14.0
 21
100.0
 31
0.0
  0
LINE
  5
92BD
330
9262
100
AcDbEntity
  8
AM_0 外形線1
100
AcDbLine
 10
15.0
 20
99.0
 30
0.0
 11
14.0
 21
100.0
 31
0.0
1001
GENIUS_GENFIL_13
1070
     0
1040
1.0
1040
1.0
1040
1.000000000000027
1040
45.0
1000
~T
1001
GENIUS_GENOREF_13
1005
0
  0
HATCH
  5
92BF
330
9262
100
AcDbEntity
  8
AM_8 ハッチング
100
AcDbHatch
 10
0.0
 20
0.0
 30
0.0
210
0.0
220
0.0
230
1.0
  2
_U
 70
     0
 71
     0
 91
        1
 92
        1
 93
        5
 72
     2
 10
23.99999999999977
 20
62.20000000000028
 40
5.0
 50
539.9999999999994
 51
630.0
 73
     1
 72
     1
 10
23.99999999999977
 20
57.20000000000028
 11
26.99999999999977
 21
57.20000000000028
 72
     1
 10
26.99999999999955
 20
57.20000000000028
 11
34.33234841870762
 21
69.90000000000032
 72
     1
 10
34.33234841870785
 20
69.90000000000009
 11
18.99999999999977
 21
69.90000000000009
 72
     1
 10
18.99999999999977
 20
69.90000000000009
 11
18.99999999999977
 21
62.20000000000028
 97
        0
 75
     0
 76
     0
 52
45.0
 41
0.5
 77
     0
 78
     1
 53
225.0
 43
318.8466101479701
 44
-149.7303017722034
 45
0.3535533905932737
 46
-0.3535533905932738
 79
     0
 98
        1
 10
318.8466101479701
 20
-149.7303017722034
1001
GENIUS_GENODEF_13
1002
{
1000
HIER
1070
     0
1002
}
1002
{
1000
MANEDIT
1070
     0
1002
}
1002
{
1000
NOSEL
1070
     0
1002
}
1002
{
1000
BEHIND
1070
     0
1002
}
1002
{
1000
OTHER
1070
     0
1002
}
1002
{
1000
REACTOR
1002
}
1001
GENIUS_GENOBJ-N-HTC_13
1002
{
1000
OWNER
1000
GEN
1002
}
1001
GENIUS_GENHATCH_13
1002
{
1000
DATA
1040
45.0
1042
0.5
1000
_U
1070
     0
1011
21.71995524451563
1021
69.0302609737555
1031
0.0
1002
}
1002
{
1000
UCS
1010
0.0
1020
0.0
1030
0.0
1010
1.0
1020
0.0
1030
0.0
1010
0.0
1020
1.0
1030
0.0
1002
}
  0
LINE
  5
92C0
330
9262
100
AcDbEntity
  8
AM_0 外形線1
100
AcDbLine
 10
15.0
 20
99.0
 30
0.0
 11
15.0
 21
80.0
 31
0.0
  0
LINE
  5
92C1
330
9262
100
AcDbEntity
  8
AM_0 外形線1
100
AcDbLine
 10
19.0
 20
80.0
 30
0.0
 11
18.99999999999977
 21
62.20000000000028
 31
0.0
  0
ARC
  5
92C2
330
9262
100
AcDbEntity
  8
AM_0 外形線1
100
AcDbCircle
 10
23.99999999999977
 20
62.20000000000028
 30
0.0
 40
5.0
100
AcDbArc
 50
180.0
 51
270.0
1001
GENIUS_GENOBJ-N-FIL_13
1002
{
1000
OWNER
1000
GEN
1002
}
1001
GENIUS_GENODEF_13
1002
{
1000
HIER
1070
     0
1002
}
1002
{
1000
MANEDIT
1070
     0
1002
}
1002
{
1000
NOSEL
1070
     0
1002
}
1002
{
1000
BEHIND
1070
     0
1002
}
1002
{
1000
OTHER
1070
     0
1002
}
1002
{
1000
REACTOR
1002
}
  0
LINE
  5
92C3
330
9262
100
AcDbEntity
  8
AM_0 外形線1
100
AcDbLine
 10
15.0
 20
80.0
 30
0.0
 11
19.0
 21
80.0
 31
0.0
  0
LINE
  5
92C4
330
9262
100
AcDbEntity
  8
AM_0 外形線1
100
AcDbLine
 10
0.5
 20
72.5
 30
0.0
 11
4.0
 21
72.5
 31
0.0
  0
LINE
  5
92C5
330
9262
100
AcDbEntity
  8
AM_0 外形線1
100
AcDbLine
 10
26.99999999999955
 20
57.20000000000028
 30
0.0
 11
34.33234841870785
 21
69.90000000000009
 31
0.0
  0
ARC
  5
92C6
330
9262
100
AcDbEntity
  8
AM_0 外形線1
100
AcDbCircle
 10
37.0
 20
79.90000000000009
 30
0.0
 40
10.0
100
AcDbArc
 50
235.9332955540091
 51
270.0
  0
LINE
  5
92C7
330
9262
100
AcDbEntity
  8
AM_0 外形線1
100
AcDbLine
 10
19.0
 20
80.0
 30
0.0
 11
31.39842300046325
 21
71.61614008337529
 31
0.0
  0
HATCH
  5
92C8
330
9262
100
AcDbEntity
  8
AM_8 ハッチング
100
AcDbHatch
 10
0.0
 20
0.0
 30
0.0
210
0.0
220
0.0
230
1.0
  2
_U
 70
     0
 71
     0
 91
        1
 92
        1
 93
        4
 72
     2
 10
37.0
 20
79.90000000000009
 40
10.0
 50
90.0
 51
124.0667044459978
 73
     0
 72
     1
 10
31.39842300046325
 20
71.61614008337529
 11
19.0
 21
80.0
 72
     1
 10
19.0
 20
80.0
 11
18.99999999999977
 21
69.89999999999986
 72
     1
 10
19.0
 20
69.90000000000009
 11
37.00000000000023
 21
69.90000000000009
 97
        0
 75
     0
 76
     0
 52
45.0
 41
0.5
 77
     0
 78
     1
 53
225.0
 43
318.8466101479701
 44
-149.7303017722034
 45
0.3535533905932737
 46
-0.3535533905932738
 79
     0
 98
        1
 10
318.8466101479701
 20
-149.7303017722034
1001
GENIUS_GENOBJ-N-HTC_13
1002
{
1000
OWNER
1000
GEN
1002
}
1001
GENIUS_GENODEF_13
1002
{
1000
HIER
1070
     0
1002
}
1002
{
1000
MANEDIT
1070
     0
1002
}
1002
{
1000
NOSEL
1070
     0
1002
}
1002
{
1000
BEHIND
1070
     0
1002
}
1002
{
1000
OTHER
1070
     0
1002
}
1002
{
1000
REACTOR
1002
}
1001
GENIUS_GENHATCH_13
1002
{
1000
DATA
1040
45.0
1042
0.5
1000
_U
1070
     0
1011
21.89768697150043
1021
72.9393143428988
1031
0.0
1002
}
1002
{
1000
UCS
1010
0.0
1020
0.0
1030
0.0
1010
1.0
1020
0.0
1030
0.0
1010
0.0
1020
1.0
1030
0.0
1002
}
  0
LINE
  5
92C9
330
9262
100
AcDbEntity
  8
AM_0 外形線1
100
AcDbLine
 10
15.0
 20
83.49999999999999
 30
0.0
 11
0.0
 21
83.49999999999999
 31
0.0
  0
LINE
  5
92CA
330
9262
100
AcDbEntity
  8
AM_0 外形線1
100
AcDbLine
 10
15.0
 20
94.50000000000001
 30
0.0
 11
0.0
 21
94.50000000000001
 31
0.0
  0
LINE
  5
98A7
330
9262
100
AcDbEntity
  8
AM_0 外形線1
100
AcDbLine
 10
0.0
 20
94.50000000000001
 30
0.0
 11
0.0
 21
99.50000000000001
 31
0.0
  0
LINE
  5
98A8
330
9262
100
AcDbEntity
  8
AM_0 外形線1
100
AcDbLine
 10
209.9999999999998
 20
94.50000000000001
 30
0.0
 11
209.9999999999998
 21
99.50000000000001
 31
0.0
  0
LINE
  5
B1FF
330
9262
100
AcDbEntity
  8
AM_0 外形線1
100
AcDbLine
 10
29.00000000000006
 20
0.0
 30
0.0
 11
29.00000000000006
 21
57.20000000000005
 31
0.0
  0
LINE
  5
B200
330
9262
100
AcDbEntity
  8
AM_0 外形線1
100
AcDbLine
 10
180.9999999999998
 20
0.0
 30
0.0
 11
180.9999999999998
 21
57.20000000000028
 31
0.0
  0
LINE
  5
B3C5
330
9262
100
AcDbEntity
  8
AM_0 外形線1
100
AcDbLine
 10
33.93632688880791
 20
-69.8999999999998
 30
0.0
 11
33.93632688880791
 21
0.0
 31
0.0
  0
LINE
  5
B3C6
330
9262
100
AcDbEntity
  8
AM_0 外形線1
100
AcDbLine
 10
176.0636731111914
 20
-69.8999999999997
 30
0.0
 11
176.0636731111913
 21
0.0
 31
0.0
  0
ENDBLK
  5
9264
330
9262
100
AcDbEntity
  8
0
100
AcDbBlockEnd
  0
BLOCK
  5
98EF
330
98EE
100
AcDbEntity
  8
0
100
AcDbBlockBegin
  2
*D28
 70
     1
 10
0.0
 20
0.0
 30
0.0
  3
*D28
  1

  0
LINE
  5
A75D
330
98EE
100
AcDbEntity
  8
AM_5 寸法線
 62
     3
100
AcDbLine
 10
616.1217298630766
 20
456.1734671523992
 30
0.0
 11
616.1217298630766
 21
418.1734671523988
 31
0.0
  0
LINE
  5
A75E
330
98EE
100
AcDbEntity
  8
AM_5 寸法線
 62
     3
100
AcDbLine
 10
601.1217298630764
 20
456.6734671523992
 30
0.0
 11
601.1217298630764
 21
418.1734671523988
 31
0.0
  0
LINE
  5
A75F
330
98EE
100
AcDbEntity
  8
AM_5 寸法線
 62
     3
100
AcDbLine
 10
622.3717298630766
 20
419.7359671523988
 30
0.0
 11
628.6217298630766
 21
419.7359671523988
 31
0.0
  0
LINE
  5
A760
330
98EE
100
AcDbEntity
  8
AM_5 寸法線
 62
     3
100
AcDbLine
 10
594.8717298630764
 20
419.7359671523988
 30
0.0
 11
569.4967298630764
 21
419.7359671523988
 31
0.0
  0
LINE
  5
A761
330
98EE
100
AcDbEntity
  8
AM_5 寸法線
 62
     3
100
AcDbLine
 10
616.1217298630766
 20
419.7359671523988
 30
0.0
 11
601.1217298630764
 21
419.7359671523988
 31
0.0
  0
INSERT
  5
A762
330
98EE
100
AcDbEntity
  8
AM_5 寸法線
 62
     3
100
AcDbBlockReference
  2
GENDOT
 10
616.1217298630766
 20
419.7359671523988
 30
0.0
 41
6.25
 42
6.25
 43
6.25
 50
180.0
  0
INSERT
  5
A763
330
98EE
100
AcDbEntity
  8
AM_5 寸法線
 62
     3
100
AcDbBlockReference
  2
_Open30
 10
601.1217298630764
 20
419.7359671523988
 30
0.0
 41
6.25
 42
6.25
 43
6.25
  0
MTEXT
  5
A764
330
98EE
100
AcDbEntity
  8
AM_5 寸法線
 62
     3
100
AcDbMText
 10
579.0592298630764
 20
427.8609671523987
 30
0.0
 40
8.75
 41
0.0
 46
0.0
 71
     5
 72
     1
  1
15
  7
SEISA
 73
     1
 44
1.0
  0
POINT
  5
A765
330
98EE
100
AcDbEntity
  8
Defpoints
 62
     0
100
AcDbPoint
 10
616.1217298630766
 20
457.7359671523992
 30
0.0
  0
POINT
  5
A766
330
98EE
100
AcDbEntity
  8
Defpoints
 62
     0
100
AcDbPoint
 10
601.1217298630764
 20
458.2359671523992
 30
0.0
  0
POINT
  5
A767
330
98EE
100
AcDbEntity
  8
Defpoints
 62
     0
100
AcDbPoint
 10
601.1217298630764
 20
419.7359671523988
 30
0.0
  0
ENDBLK
  5
98F0
330
98EE
100
AcDbEntity
  8
0
100
AcDbBlockEnd
  0
BLOCK
  5
9A88
330
9A87
100
AcDbEntity
  8
0
100
AcDbBlockBegin
  2
*D29
 70
     1
 10
0.0
 20
0.0
 30
0.0
  3
*D29
  1

  0
LINE
  5
A768
330
9A87
100
AcDbEntity
  8
AM_5 寸法線
 62
     3
100
AcDbLine
 10
406.1217298630768
 20
456.1734671523992
 30
0.0
 11
406.1217298630768
 21
418.1734671523988
 31
0.0
  0
LINE
  5
A769
330
9A87
100
AcDbEntity
  8
AM_5 寸法線
 62
     3
100
AcDbLine
 10
421.1217298630767
 20
456.6734671523992
 30
0.0
 11
421.1217298630767
 21
418.1734671523988
 31
0.0
  0
LINE
  5
A76A
330
9A87
100
AcDbEntity
  8
AM_5 寸法線
 62
     3
100
AcDbLine
 10
399.8717298630768
 20
419.7359671523988
 30
0.0
 11
393.6217298630768
 21
419.7359671523988
 31
0.0
  0
LINE
  5
A76B
330
9A87
100
AcDbEntity
  8
AM_5 寸法線
 62
     3
100
AcDbLine
 10
427.3717298630767
 20
419.7359671523988
 30
0.0
 11
452.7467298630766
 21
419.7359671523988
 31
0.0
  0
LINE
  5
A76C
330
9A87
100
AcDbEntity
  8
AM_5 寸法線
 62
     3
100
AcDbLine
 10
406.1217298630768
 20
419.7359671523988
 30
0.0
 11
421.1217298630767
 21
419.7359671523988
 31
0.0
  0
INSERT
  5
A76D
330
9A87
100
AcDbEntity
  8
AM_5 寸法線
 62
     3
100
AcDbBlockReference
  2
GENDOT
 10
406.1217298630768
 20
419.7359671523988
 30
0.0
 41
6.25
 42
6.25
 43
6.25
  0
INSERT
  5
A76E
330
9A87
100
AcDbEntity
  8
AM_5 寸法線
 62
     3
100
AcDbBlockReference
  2
_Open30
 10
421.1217298630767
 20
419.7359671523988
 30
0.0
 41
6.25
 42
6.25
 43
6.25
 50
180.0
  0
MTEXT
  5
A76F
330
9A87
100
AcDbEntity
  8
AM_5 寸法線
 62
     3
100
AcDbMText
 10
443.1842298630767
 20
427.8609671523989
 30
0.0
 40
8.75
 41
0.0
 46
0.0
 71
     5
 72
     1
  1
15
  7
SEISA
 73
     1
 44
1.0
  0
POINT
  5
A770
330
9A87
100
AcDbEntity
  8
Defpoints
 62
     0
100
AcDbPoint
 10
406.1217298630768
 20
457.7359671523992
 30
0.0
  0
POINT
  5
A771
330
9A87
100
AcDbEntity
  8
Defpoints
 62
     0
100
AcDbPoint
 10
421.1217298630767
 20
458.2359671523992
 30
0.0
  0
POINT
  5
A772
330
9A87
100
AcDbEntity
  8
Defpoints
 62
     0
100
AcDbPoint
 10
421.1217298630767
 20
419.7359671523988
 30
0.0
  0
ENDBLK
  5
9A89
330
9A87
100
AcDbEntity
  8
0
100
AcDbBlockEnd
  0
BLOCK
  5
ABCB
330
ABCA
100
AcDbEntity
  8
0
100
AcDbBlockBegin
  2
*D30
 70
     1
 10
0.0
 20
0.0
 30
0.0
  3
*D30
  1

  0
LINE
  5
ABF0
330
ABCA
100
AcDbEntity
  8
AM_5 寸法線
 62
     3
100
AcDbLine
 10
296.1217298630769
 20
630.2984671523991
 30
0.0
 11
296.1217298630769
 21
645.3556018015343
 31
0.0
  0
LINE
  5
ABF1
330
ABCA
100
AcDbEntity
  8
AM_5 寸法線
 62
     3
100
AcDbLine
 10
301.1217298630768
 20
615.1984671523991
 30
0.0
 11
301.1217298630768
 21
645.3556018015343
 31
0.0
  0
LINE
  5
ABF2
330
ABCA
100
AcDbEntity
  8
AM_5 寸法線
 62
     3
100
AcDbLine
 10
289.8717298630769
 20
643.7931018015343
 30
0.0
 11
283.6217298630769
 21
643.7931018015343
 31
0.0
  0
LINE
  5
ABF3
330
ABCA
100
AcDbEntity
  8
AM_5 寸法線
 62
     3
100
AcDbLine
 10
307.3717298630768
 20
643.7931018015343
 30
0.0
 11
326.3717298630768
 21
643.7931018015343
 31
0.0
  0
LINE
  5
ABF4
330
ABCA
100
AcDbEntity
  8
AM_5 寸法線
 62
     3
100
AcDbLine
 10
296.1217298630769
 20
643.7931018015343
 30
0.0
 11
301.1217298630768
 21
643.7931018015343
 31
0.0
  0
INSERT
  5
ABF5
330
ABCA
100
AcDbEntity
  8
AM_5 寸法線
 62
     3
100
AcDbBlockReference
  2
_Open30
 10
296.1217298630769
 20
643.7931018015343
 30
0.0
 41
6.25
 42
6.25
 43
6.25
  0
INSERT
  5
ABF6
330
ABCA
100
AcDbEntity
  8
AM_5 寸法線
 62
     3
100
AcDbBlockReference
  2
_Open30
 10
301.1217298630768
 20
643.7931018015343
 30
0.0
 41
6.25
 42
6.25
 43
6.25
 50
180.0
  0
MTEXT
  5
ABF7
330
ABCA
100
AcDbEntity
  8
AM_5 寸法線
 62
     3
100
AcDbMText
 10
319.9967298630769
 20
651.9181018015345
 30
0.0
 40
8.75
 41
0.0
 46
0.0
 71
     5
 72
     1
  1
5
  7
SEISA
 73
     1
 44
1.0
  0
POINT
  5
ABF8
330
ABCA
100
AcDbEntity
  8
Defpoints
 62
     0
100
AcDbPoint
 10
296.1217298630769
 20
628.7359671523991
 30
0.0
  0
POINT
  5
ABF9
330
ABCA
100
AcDbEntity
  8
Defpoints
 62
     0
100
AcDbPoint
 10
301.1217298630768
 20
613.6359671523991
 30
0.0
  0
POINT
  5
ABFA
330
ABCA
100
AcDbEntity
  8
Defpoints
 62
     0
100
AcDbPoint
 10
301.1217298630768
 20
643.7931018015343
 30
0.0
  0
ENDBLK
  5
ABCC
330
ABCA
100
AcDbEntity
  8
0
100
AcDbBlockEnd
  0
BLOCK
  5
AD3B
330
AD3A
100
AcDbEntity
  8
0
100
AcDbBlockBegin
  2
*D31
 70
     1
 10
0.0
 20
0.0
 30
0.0
  3
*D31
  1

  0
LINE
  5
B320
330
AD3A
100
AcDbEntity
  8
AM_5 寸法線
 62
     3
100
AcDbLine
 10
361.1217298630768
 20
616.1734671523991
 30
0.0
 11
361.1217298630768
 21
597.3826673042239
 31
0.0
  0
LINE
  5
B321
330
AD3A
100
AcDbEntity
  8
AM_5 寸法線
 62
     3
100
AcDbLine
 10
384.6217298630768
 20
615.1734671523991
 30
0.0
 11
384.6217298630768
 21
597.3826673042239
 31
0.0
  0
LINE
  5
B322
330
AD3A
100
AcDbEntity
  8
AM_5 寸法線
 62
     3
100
AcDbLine
 10
367.3717298630768
 20
598.9451673042239
 30
0.0
 11
378.3717298630768
 21
598.9451673042239
 31
0.0
  0
LINE
  5
B323
330
AD3A
100
AcDbEntity
  8
AM_5 寸法線
 62
     3
100
AcDbLine
 10
372.8717298630768
 20
598.9451673042239
 30
0.0
 11
375.8766280398567
 21
570.6834821782527
 31
0.0
  0
LINE
  5
B324
330
AD3A
100
AcDbEntity
  8
AM_5 寸法線
 62
     3
100
AcDbLine
 10
375.8766280398567
 20
570.6834821782527
 30
0.0
 11
344.3766280398567
 21
570.6834821782527
 31
0.0
  0
MTEXT
  5
B325
330
AD3A
100
AcDbEntity
  8
AM_5 寸法線
 62
     3
100
AcDbMText
 10
360.1266280398566
 20
578.8084821782526
 30
0.0
 40
8.75
 41
0.0
 46
0.0
 71
     5
 72
     1
  1
23.5
  7
SEISA
 73
     1
 44
1.0
  0
INSERT
  5
B326
330
AD3A
100
AcDbEntity
  8
AM_5 寸法線
 62
     3
100
AcDbBlockReference
  2
_Open30
 10
361.1217298630768
 20
598.9451673042239
 30
0.0
 41
6.25
 42
6.25
 43
6.25
 50
180.0
  0
INSERT
  5
B327
330
AD3A
100
AcDbEntity
  8
AM_5 寸法線
 62
     3
100
AcDbBlockReference
  2
_Open30
 10
384.6217298630768
 20
598.9451673042239
 30
0.0
 41
6.25
 42
6.25
 43
6.25
  0
POINT
  5
B328
330
AD3A
100
AcDbEntity
  8
Defpoints
 62
     0
100
AcDbPoint
 10
361.1217298630768
 20
617.7359671523991
 30
0.0
  0
POINT
  5
B329
330
AD3A
100
AcDbEntity
  8
Defpoints
 62
     0
100
AcDbPoint
 10
384.6217298630768
 20
616.7359671523991
 30
0.0
  0
POINT
  5
B32A
330
AD3A
100
AcDbEntity
  8
Defpoints
 62
     0
100
AcDbPoint
 10
384.6217298630768
 20
598.9451673042239
 30
0.0
  0
ENDBLK
  5
AD3C
330
AD3A
100
AcDbEntity
  8
0
100
AcDbBlockEnd
  0
BLOCK
  5
AD5F
330
AD5E
100
AcDbEntity
  8
0
100
AcDbBlockBegin
  2
*D32
 70
     1
 10
0.0
 20
0.0
 30
0.0
  3
*D32
  1

  0
LINE
  5
B32B
330
AD5E
100
AcDbEntity
  8
AM_5 寸法線
 62
     3
100
AcDbLine
 10
358.1217298630768
 20
615.6734671523991
 30
0.0
 11
358.1217298630768
 21
597.3826673042239
 31
0.0
  0
LINE
  5
B32C
330
AD5E
100
AcDbEntity
  8
AM_5 寸法線
 62
     3
100
AcDbLine
 10
361.1217298630768
 20
616.1734671523991
 30
0.0
 11
361.1217298630768
 21
597.3826673042239
 31
0.0
  0
LINE
  5
B32D
330
AD5E
100
AcDbEntity
  8
AM_5 寸法線
 62
     3
100
AcDbLine
 10
351.8717298630768
 20
598.9451673042239
 30
0.0
 11
345.6217298630768
 21
598.9451673042239
 31
0.0
  0
LINE
  5
B32E
330
AD5E
100
AcDbEntity
  8
AM_5 寸法線
 62
     3
100
AcDbLine
 10
367.3717298630768
 20
598.9451673042239
 30
0.0
 11
373.6217298630768
 21
598.9451673042239
 31
0.0
  0
MTEXT
  5
B32F
330
AD5E
100
AcDbEntity
  8
AM_5 寸法線
 62
     3
100
AcDbMText
 10
349.4949351190737
 20
607.0701673042239
 30
0.0
 40
8.75
 41
0.0
 46
0.0
 71
     5
 72
     1
  1
3
  7
SEISA
 73
     1
 44
1.0
  0
LINE
  5
B330
330
AD5E
100
AcDbEntity
  8
AM_5 寸法線
 62
     3
100
AcDbLine
 10
358.1217298630768
 20
598.9451673042239
 30
0.0
 11
361.1217298630768
 21
598.9451673042239
 31
0.0
  0
INSERT
  5
B331
330
AD5E
100
AcDbEntity
  8
AM_5 寸法線
 62
     3
100
AcDbBlockReference
  2
_Open30
 10
358.1217298630768
 20
598.9451673042239
 30
0.0
 41
6.25
 42
6.25
 43
6.25
  0
INSERT
  5
B332
330
AD5E
100
AcDbEntity
  8
AM_5 寸法線
 62
     3
100
AcDbBlockReference
  2
_Open30
 10
361.1217298630768
 20
598.9451673042239
 30
0.0
 41
6.25
 42
6.25
 43
6.25
 50
180.0
  0
POINT
  5
B333
330
AD5E
100
AcDbEntity
  8
Defpoints
 62
     0
100
AcDbPoint
 10
358.1217298630768
 20
617.2359671523991
 30
0.0
  0
POINT
  5
B334
330
AD5E
100
AcDbEntity
  8
Defpoints
 62
     0
100
AcDbPoint
 10
361.1217298630768
 20
617.7359671523991
 30
0.0
  0
POINT
  5
B335
330
AD5E
100
AcDbEntity
  8
Defpoints
 62
     0
100
AcDbPoint
 10
361.1217298630768
 20
598.9451673042239
 30
0.0
  0
ENDBLK
  5
AD60
330
AD5E
100
AcDbEntity
  8
0
100
AcDbBlockEnd
  0
BLOCK
  5
ADEC
330
ADEB
100
AcDbEntity
  8
0
100
AcDbBlockBegin
  2
*D33
 70
     1
 10
0.0
 20
0.0
 30
0.0
  3
*D33
  1

  0
LINE
  5
B2FF
330
ADEB
100
AcDbEntity
  8
AM_5 寸法線
 62
     3
100
AcDbLine
 10
384.6217298630768
 20
615.1734671523991
 30
0.0
 11
384.6217298630768
 21
597.3826673042239
 31
0.0
  0
LINE
  5
B300
330
ADEB
100
AcDbEntity
  8
AM_5 寸法線
 62
     3
100
AcDbLine
 10
401.1217298630767
 20
614.1734671523988
 30
0.0
 11
401.1217298630767
 21
597.3826673042239
 31
0.0
  0
LINE
  5
B301
330
ADEB
100
AcDbEntity
  8
AM_5 寸法線
 62
     3
100
AcDbLine
 10
378.3717298630768
 20
598.9451673042239
 30
0.0
 11
372.1217298630768
 21
598.9451673042239
 31
0.0
  0
LINE
  5
B302
330
ADEB
100
AcDbEntity
  8
AM_5 寸法線
 62
     3
100
AcDbLine
 10
407.3717298630767
 20
598.9451673042239
 30
0.0
 11
465.8077629591131
 21
598.9451673042239
 31
0.0
  0
LINE
  5
B303
330
ADEB
100
AcDbEntity
  8
AM_5 寸法線
 62
     3
100
AcDbLine
 10
384.6217298630768
 20
598.9451673042239
 30
0.0
 11
401.1217298630767
 21
598.9451673042239
 31
0.0
  0
INSERT
  5
B304
330
ADEB
100
AcDbEntity
  8
AM_5 寸法線
 62
     3
100
AcDbBlockReference
  2
_Open30
 10
384.6217298630768
 20
598.9451673042239
 30
0.0
 41
6.25
 42
6.25
 43
6.25
  0
INSERT
  5
B305
330
ADEB
100
AcDbEntity
  8
AM_5 寸法線
 62
     3
100
AcDbBlockReference
  2
_Open30
 10
401.1217298630767
 20
598.9451673042239
 30
0.0
 41
6.25
 42
6.25
 43
6.25
 50
180.0
  0
MTEXT
  5
B306
330
ADEB
100
AcDbEntity
  8
AM_5 寸法線
 62
     3
100
AcDbMText
 10
450.6202629591132
 20
607.0701673042239
 30
0.0
 40
8.75
 41
0.0
 46
0.0
 71
     5
 72
     1
  1
16.5
  7
SEISA
 73
     1
 44
1.0
  0
POINT
  5
B307
330
ADEB
100
AcDbEntity
  8
Defpoints
 62
     0
100
AcDbPoint
 10
384.6217298630768
 20
616.7359671523991
 30
0.0
  0
POINT
  5
B308
330
ADEB
100
AcDbEntity
  8
Defpoints
 62
     0
100
AcDbPoint
 10
401.1217298630767
 20
615.7359671523988
 30
0.0
  0
POINT
  5
B309
330
ADEB
100
AcDbEntity
  8
Defpoints
 62
     0
100
AcDbPoint
 10
401.1217298630767
 20
598.9451673042239
 30
0.0
  0
ENDBLK
  5
ADED
330
ADEB
100
AcDbEntity
  8
0
100
AcDbBlockEnd
  0
BLOCK
  5
AE34
330
AE33
100
AcDbEntity
  8
0
100
AcDbBlockBegin
  2
*D34
 70
     1
 10
0.0
 20
0.0
 30
0.0
  3
*D34
  1

  0
LINE
  5
B2E7
330
AE33
100
AcDbEntity
  8
AM_5 寸法線
 62
     3
100
AcDbLine
 10
406.1217298630768
 20
628.6734671523991
 30
0.0
 11
406.1217298630768
 21
573.9451673042236
 31
0.0
  0
LINE
  5
B2E8
330
AE33
100
AcDbEntity
  8
AM_5 寸法線
 62
     3
100
AcDbLine
 10
401.1217298630767
 20
614.1734671523988
 30
0.0
 11
401.1217298630767
 21
573.9451673042236
 31
0.0
  0
LINE
  5
B2E9
330
AE33
100
AcDbEntity
  8
AM_5 寸法線
 62
     3
100
AcDbLine
 10
412.3717298630768
 20
575.5076673042236
 30
0.0
 11
418.6217298630768
 21
575.5076673042236
 31
0.0
  0
LINE
  5
B2EA
330
AE33
100
AcDbEntity
  8
AM_5 寸法線
 62
     3
100
AcDbLine
 10
394.8717298630768
 20
575.5076673042236
 30
0.0
 11
388.6217298630768
 21
575.5076673042236
 31
0.0
  0
LINE
  5
B2EB
330
AE33
100
AcDbEntity
  8
AM_5 寸法線
 62
     3
100
AcDbLine
 10
433.3056679837111
 20
575.5076673042236
 30
0.0
 11
406.1217298630768
 21
575.5076673042236
 31
0.0
  0
MTEXT
  5
B2EC
330
AE33
100
AcDbEntity
  8
AM_5 寸法線
 62
     3
100
AcDbMText
 10
426.9306679837113
 20
583.6326673042236
 30
0.0
 40
8.75
 41
0.0
 46
0.0
 71
     5
 72
     1
  1
5
  7
SEISA
 73
     1
 44
1.0
  0
LINE
  5
B2ED
330
AE33
100
AcDbEntity
  8
AM_5 寸法線
 62
     3
100
AcDbLine
 10
406.1217298630768
 20
575.5076673042236
 30
0.0
 11
401.1217298630767
 21
575.5076673042236
 31
0.0
  0
LINE
  5
B2EE
330
AE33
100
AcDbEntity
  8
AM_5 寸法線
 62
     3
100
AcDbLine
 10
406.1217298630768
 20
575.5076673042236
 30
0.0
 11
401.1217298630767
 21
575.5076673042236
 31
0.0
  0
INSERT
  5
B2EF
330
AE33
100
AcDbEntity
  8
AM_5 寸法線
 62
     3
100
AcDbBlockReference
  2
_Open30
 10
406.1217298630768
 20
575.5076673042236
 30
0.0
 41
6.25
 42
6.25
 43
6.25
 50
180.0
  0
INSERT
  5
B2F0
330
AE33
100
AcDbEntity
  8
AM_5 寸法線
 62
     3
100
AcDbBlockReference
  2
_Open30
 10
401.1217298630767
 20
575.5076673042236
 30
0.0
 41
6.25
 42
6.25
 43
6.25
  0
POINT
  5
B2F1
330
AE33
100
AcDbEntity
  8
Defpoints
 62
     0
100
AcDbPoint
 10
406.1217298630768
 20
630.2359671523991
 30
0.0
  0
POINT
  5
B2F2
330
AE33
100
AcDbEntity
  8
Defpoints
 62
     0
100
AcDbPoint
 10
401.1217298630767
 20
615.7359671523988
 30
0.0
  0
POINT
  5
B2F3
330
AE33
100
AcDbEntity
  8
Defpoints
 62
     0
100
AcDbPoint
 10
401.1217298630767
 20
575.5076673042236
 30
0.0
  0
ENDBLK
  5
AE35
330
AE33
100
AcDbEntity
  8
0
100
AcDbBlockEnd
  0
BLOCK
  5
AF59
330
AF58
100
AcDbEntity
  8
0
100
AcDbBlockBegin
  2
*D35
 70
     1
 10
0.0
 20
0.0
 30
0.0
  3
*D35
  1

  0
LINE
  5
AFA0
330
AF58
100
AcDbEntity
  8
AM_5 寸法線
 62
     3
100
AcDbLine
 10
616.1217298630766
 20
628.6734671523991
 30
0.0
 11
616.1217298630766
 21
573.9451673042236
 31
0.0
  0
LINE
  5
AFA1
330
AF58
100
AcDbEntity
  8
AM_5 寸法線
 62
     3
100
AcDbLine
 10
621.1217298630764
 20
614.1734671523991
 30
0.0
 11
621.1217298630764
 21
573.9451673042236
 31
0.0
  0
LINE
  5
AFA2
330
AF58
100
AcDbEntity
  8
AM_5 寸法線
 62
     3
100
AcDbLine
 10
609.8717298630766
 20
575.5076673042236
 30
0.0
 11
603.6217298630766
 21
575.5076673042236
 31
0.0
  0
LINE
  5
AFA3
330
AF58
100
AcDbEntity
  8
AM_5 寸法線
 62
     3
100
AcDbLine
 10
627.3717298630764
 20
575.5076673042236
 30
0.0
 11
633.6217298630764
 21
575.5076673042236
 31
0.0
  0
MTEXT
  5
AFA4
330
AF58
100
AcDbEntity
  8
AM_5 寸法線
 62
     3
100
AcDbMText
 10
605.3590211791052
 20
583.089256832179
 30
0.0
 40
8.75
 41
0.0
 46
0.0
 71
     5
 72
     1
  1
5
  7
SEISA
 73
     1
 44
1.0
  0
LINE
  5
AFA5
330
AF58
100
AcDbEntity
  8
AM_5 寸法線
 62
     3
100
AcDbLine
 10
616.1217298630766
 20
575.5076673042236
 30
0.0
 11
621.1217298630764
 21
575.5076673042236
 31
0.0
  0
INSERT
  5
AFA6
330
AF58
100
AcDbEntity
  8
AM_5 寸法線
 62
     3
100
AcDbBlockReference
  2
_Open30
 10
616.1217298630766
 20
575.5076673042236
 30
0.0
 41
6.25
 42
6.25
 43
6.25
  0
INSERT
  5
AFA7
330
AF58
100
AcDbEntity
  8
AM_5 寸法線
 62
     3
100
AcDbBlockReference
  2
_Open30
 10
621.1217298630764
 20
575.5076673042236
 30
0.0
 41
6.25
 42
6.25
 43
6.25
 50
180.0
  0
POINT
  5
AFA8
330
AF58
100
AcDbEntity
  8
Defpoints
 62
     0
100
AcDbPoint
 10
616.1217298630766
 20
630.2359671523991
 30
0.0
  0
POINT
  5
AFA9
330
AF58
100
AcDbEntity
  8
Defpoints
 62
     0
100
AcDbPoint
 10
621.1217298630764
 20
615.7359671523991
 30
0.0
  0
POINT
  5
AFAA
330
AF58
100
AcDbEntity
  8
Defpoints
 62
     0
100
AcDbPoint
 10
621.1217298630764
 20
575.5076673042236
 30
0.0
  0
ENDBLK
  5
AF5A
330
AF58
100
AcDbEntity
  8
0
100
AcDbBlockEnd
  0
BLOCK
  5
B021
330
B020
100
AcDbEntity
  8
0
100
AcDbBlockBegin
  2
ケース
 70
     0
 10
0.0
 20
0.0
 30
0.0
  3
ケース
  1

  0
LINE
  5
B023
330
B020
100
AcDbEntity
  8
AM_11 想像線
 48
0.1
100
AcDbLine
 10
-9.781325359198943
 20
-8.187013999999976
 30
0.0
 11
-9.781325359198943
 21
-10.5
 31
0.0
  0
LINE
  5
B024
330
B020
100
AcDbEntity
  8
AM_11 想像線
 48
0.1
100
AcDbLine
 10
-14.28132535919894
 20
-13.25
 30
0.0
 11
-14.28132535919894
 21
-7.5
 31
0.0
  0
LINE
  5
B025
330
B020
100
AcDbEntity
  8
AM_11 想像線
 48
0.1
100
AcDbLine
 10
-27.28132535919895
 20
-3.0
 30
0.0
 11
-27.28132535919895
 21
-13.25
 31
0.0
  0
LINE
  5
B026
330
B020
100
AcDbEntity
  8
AM_11 想像線
 48
0.1
100
AcDbLine
 10
-24.08132535919913
 20
-9.799999999999952
 30
0.0
 11
-17.48132535919921
 21
-9.799999999999952
 31
0.0
  0
ARC
  5
B027
330
B020
100
AcDbEntity
  8
AM_11 想像線
 48
0.1
100
AcDbCircle
 10
-24.08132535919913
 20
-10.29999999999995
 30
0.0
 40
0.5
100
AcDbArc
 50
90.0
 51
180.0
  0
LINE
  5
B028
330
B020
100
AcDbEntity
  8
AM_11 想像線
 48
0.1
100
AcDbLine
 10
-24.58132535919913
 20
-13.25
 30
0.0
 11
-24.58132535919913
 21
-10.29999999999995
 31
0.0
  0
LINE
  5
B029
330
B020
100
AcDbEntity
  8
AM_11 想像線
 48
0.1
100
AcDbLine
 10
-27.28132535919895
 20
-13.25
 30
0.0
 11
-24.58132535919913
 21
-13.25
 31
0.0
  0
LINE
  5
B02A
330
B020
100
AcDbEntity
  8
AM_11 想像線
 48
0.1
100
AcDbLine
 10
-24.58132535919913
 20
-13.25
 30
0.0
 11
-24.58132535919913
 21
-14.5
 31
0.0
  0
LINE
  5
B02B
330
B020
100
AcDbEntity
  8
AM_11 想像線
 48
0.1
100
AcDbLine
 10
-27.28132535919895
 20
-13.25
 30
0.0
 11
-27.28132535919895
 21
-14.5
 31
0.0
  0
LINE
  5
B02C
330
B020
100
AcDbEntity
  8
AM_11 想像線
 48
0.1
100
AcDbLine
 10
-8.781325359198945
 20
-11.5
 30
0.0
 11
0.0
 21
-11.5
 31
0.0
  0
LINE
  5
B02D
330
B020
100
AcDbEntity
  8
AM_11 想像線
 48
0.1
100
AcDbLine
 10
0.0
 20
-9.5
 30
0.0
 11
-11.78132535919894
 21
-9.5
 31
0.0
  0
LINE
  5
B02E
330
B020
100
AcDbEntity
  8
AM_11 想像線
 48
0.1
100
AcDbLine
 10
-16.98132535919922
 20
-13.25
 30
0.0
 11
-14.28132535919894
 21
-13.25
 31
0.0
  0
LINE
  5
B02F
330
B020
100
AcDbEntity
  8
AM_11 想像線
 48
0.1
100
AcDbLine
 10
-16.98132535919922
 20
-10.29999999999995
 30
0.0
 11
-16.98132535919922
 21
-13.25
 31
0.0
  0
ARC
  5
B030
330
B020
100
AcDbEntity
  8
AM_11 想像線
 48
0.1
100
AcDbCircle
 10
-17.48132535919921
 20
-10.29999999999995
 30
0.0
 40
0.5
100
AcDbArc
 50
0.0
 51
90.0
  0
LINE
  5
B031
330
B020
100
AcDbEntity
  8
AM_11 想像線
 48
0.1
100
AcDbLine
 10
-14.28132535919894
 20
-13.25
 30
0.0
 11
-14.28132535919894
 21
-14.5
 31
0.0
  0
LINE
  5
B032
330
B020
100
AcDbEntity
  8
AM_11 想像線
 48
0.1
100
AcDbLine
 10
-16.98132535919922
 20
-13.25
 30
0.0
 11
-16.98132535919922
 21
-14.5
 31
0.0
  0
LINE
  5
B033
330
B020
100
AcDbEntity
  8
AM_11 想像線
 48
0.1
100
AcDbLine
 10
-9.781325359198943
 20
-10.5
 30
0.0
 11
-8.781325359198945
 21
-11.5
 31
0.0
  0
LINE
  5
B034
330
B020
100
AcDbEntity
  8
AM_11 想像線
 48
0.1
100
AcDbLine
 10
0.0
 20
0.0
 30
0.0
 11
-24.28132535919895
 21
0.0
 31
0.0
  0
ARC
  5
B035
102
{ACAD_REACTORS
330
ABD9
102
}
330
B020
100
AcDbEntity
  8
AM_11 想像線
 48
0.1
100
AcDbCircle
 10
-24.28132535919895
 20
-3.0
 30
0.0
 40
3.0
100
AcDbArc
 50
90.0
 51
180.0
  0
LINE
  5
B036
330
B020
100
AcDbEntity
  8
AM_11 想像線
 48
0.1
100
AcDbLine
 10
0.0
 20
-7.0
 30
0.0
 11
-9.781325359198943
 21
-7.0
 31
0.0
  0
ARC
  5
B037
330
B020
100
AcDbEntity
  8
AM_11 想像線
 48
0.1
100
AcDbCircle
 10
-10.78132535919894
 20
-7.5
 30
0.0
 40
1.0
100
AcDbArc
 50
0.0
 51
90.0
  0
LINE
  5
B038
330
B020
100
AcDbEntity
  8
AM_11 想像線
 48
0.1
100
AcDbLine
 10
-13.28132535919894
 20
-6.5
 30
0.0
 11
-10.78132535919894
 21
-6.5
 31
0.0
  0
ARC
  5
B039
330
B020
100
AcDbEntity
  8
AM_11 想像線
 48
0.1
100
AcDbCircle
 10
-13.28132535919894
 20
-7.5
 30
0.0
 40
1.0
100
AcDbArc
 50
90.0
 51
180.0
  0
LINE
  5
B03A
330
B020
100
AcDbEntity
  8
AM_11 想像線
 48
0.1
100
AcDbLine
 10
-9.781325359198943
 20
-8.187013999999976
 30
0.0
 11
-9.781325359198943
 21
-7.5
 31
0.0
  0
ENDBLK
  5
B022
330
B020
100
AcDbEntity
  8
0
100
AcDbBlockEnd
  0
ENDSEC
  0
SECTION
  2
ENTITIES
  0
LINE
  5
4584
330
1F
100
AcDbEntity
  8
AM_7 中心線
100
AcDbLine
 10
295.0865655273265
 20
557.2359671523989
 30
0.0
 11
727.5695807050327
 21
557.2359671523989
 31
0.0
  0
LINE
  5
462E
330
1F
100
AcDbEntity
  8
AM_0 外形線1
100
AcDbLine
 10
427.1217298630768
 20
637.2359671523988
 30
0.0
 11
427.1217298630768
 21
637.2359671523991
 31
0.0
  0
LINE
  5
4697
330
1F
100
AcDbEntity
  8
AM_0 外形線1
100
AcDbLine
 10
601.1217298630764
 20
637.2359671523991
 30
0.0
 11
597.1217298630764
 21
637.2359671523991
 31
0.0
  0
LINE
  5
4747
330
1F
100
AcDbEntity
  8
AM_0 外形線1
100
AcDbLine
 10
421.1217298630767
 20
652.2359671523989
 30
0.0
 11
421.1217298630764
 21
640.2359671523989
 31
0.0
  0
INSERT
  5
4FF5
102
{ACAD_REACTORS
330
5EC9
330
5EE1
330
60E1
330
6141
330
6159
102
}
330
1F
100
AcDbEntity
  8
AM_0 外形線1
100
AcDbBlockReference
  2
ケースＡ-1 SAM200
 10
616.1217298630766
 20
557.2359671523989
 30
0.0
  0
INSERT
  5
516B
102
{ACAD_REACTORS
330
607D
330
60F9
330
6111
330
AD6D
102
}
330
1F
100
AcDbEntity
  8
AM_0 外形線1
100
AcDbBlockReference
  2
ケースＡ-2 SAM200
 10
406.1217298630768
 20
557.2359671523989
 30
0.0
  0
INSERT
  5
5659
102
{ACAD_REACTORS
330
5DD7
330
5EB1
330
6159
330
AF67
102
}
330
1F
100
AcDbEntity
  8
AM_0 外形線1
100
AcDbBlockReference
  2
センタ-1 SAM200
 10
621.1217298630764
 20
557.2359671523989
 30
0.0
  0
INSERT
  5
56F6
102
{ACAD_REACTORS
330
5DBF
330
5E6B
330
6111
330
ABD9
330
AD48
330
ADFA
102
}
330
1F
100
AcDbEntity
  8
AM_0 外形線1
100
AcDbBlockReference
  2
センタ-2 SAM200
 10
401.1217298630767
 20
557.2359671523989
 30
0.0
  0
INSERT
  5
5858
330
1F
100
AcDbEntity
  8
AM_0 外形線1
100
AcDbBlockReference
  2
リーマボルト-1 SAM200 M10
 10
601.1217298630764
 20
646.2359671523991
 30
0.0
  0
INSERT
  5
5954
330
1F
100
AcDbEntity
  8
AM_0 外形線1
100
AcDbBlockReference
  2
リーマボルト-2 SAM200 M10
 10
421.1217298630765
 20
646.2359671523991
 30
0.0
  0
DIMENSION
  5
5DA8
102
{ACAD_XDICTIONARY
360
5DB5
102
}
102
{ACAD_REACTORS
330
5DBF
102
}
330
1F
100
AcDbEntity
  8
AM_5 寸法線
100
AcDbDimension
  2
*D15
 10
301.1217298630768
 20
566.0778391523991
 30
0.0
 11
328.297050881432
 21
574.7404235216436
 31
0.0
 70
   160
 71
     5
 42
100.0
 73
     0
 74
     0
 75
     0
  3
SEISA$0
100
AcDbAlignedDimension
 13
401.1217298630767
 23
557.2359671523989
 33
0.0
 14
301.1217298630768
 24
557.2359671523989
 34
0.0
100
AcDbRotatedDimension
1001
ACAD
1000
DSTYLE
1002
{
1070
   279
1070
     2
1002
}
  0
DIMENSION
  5
5DC0
102
{ACAD_XDICTIONARY
360
5DCD
102
}
102
{ACAD_REACTORS
330
5DD7
102
}
330
1F
100
AcDbEntity
  8
AM_5 寸法線
100
AcDbDimension
  2
*D16
 10
621.1217298630764
 20
566.0778391523991
 30
0.0
 11
671.1217298630764
 21
574.2028391523992
 31
0.0
 70
    32
 71
     5
 42
100.0
 73
     0
 74
     0
 75
     0
  3
SEISA$0
100
AcDbAlignedDimension
 13
721.1217298630764
 23
557.2359671523989
 33
0.0
 14
621.1217298630764
 24
557.2359671523989
 34
0.0
100
AcDbRotatedDimension
  0
DIMENSION
  5
5E54
102
{ACAD_XDICTIONARY
360
5E61
102
}
102
{ACAD_REACTORS
330
5E6B
102
}
330
1F
100
AcDbEntity
  8
AM_5 寸法線
100
AcDbDimension
  2
*D17
 10
251.1217298630768
 20
497.2359671523991
 30
0.0
 11
242.9967298630767
 21
557.2359671523992
 31
0.0
 70
    32
  1
%%c<>
 71
     5
 42
120.0
 73
     0
 74
     0
 75
     0
  3
SEISA$0
100
AcDbAlignedDimension
 13
334.1217298630768
 23
617.2359671523991
 33
0.0
 14
334.1217298630768
 24
497.2359671523991
 34
0.0
 50
90.0
100
AcDbRotatedDimension
1001
ACAD_DSTYLE_DIMINSPECT
1070
   396
1000
100%
1070
   395
1000

1070
   394
1070
    33
1070
   393
1070
     0
  0
DIMENSION
  5
5E9A
102
{ACAD_XDICTIONARY
360
5EA7
102
}
102
{ACAD_REACTORS
330
5EB1
102
}
330
1F
100
AcDbEntity
  8
AM_5 寸法線
100
AcDbDimension
  2
*D18
 10
771.1217298630764
 20
497.2359671523991
 30
0.0
 11
762.9967298630763
 21
557.2359671523993
 31
0.0
 70
    32
  1
%%c<>
 71
     5
 42
119.9999999999999
 73
     0
 74
     0
 75
     0
  3
SEISA$0
100
AcDbAlignedDimension
 13
688.1217298630764
 23
617.2359671523991
 33
0.0
 14
688.1217298630764
 24
497.2359671523991
 34
0.0
 50
90.0
100
AcDbRotatedDimension
1001
ACAD_DSTYLE_DIMINSPECT
1070
   396
1000
100%
1070
   395
1000

1070
   394
1070
    33
1070
   393
1070
     0
  0
DIMENSION
  5
5EB2
102
{ACAD_XDICTIONARY
360
5EBF
102
}
102
{ACAD_REACTORS
330
5EC9
102
}
330
1F
100
AcDbEntity
  8
AM_5 寸法線
100
AcDbDimension
  2
*D19
 10
796.1217298630764
 20
482.7359671523991
 30
0.0
 11
787.9967298630763
 21
557.2359671523993
 31
0.0
 70
    32
  1
%%c<>
 71
     5
 42
148.9999999999999
 73
     0
 74
     0
 75
     0
  3
SEISA$0
100
AcDbAlignedDimension
 13
674.1217298630764
 23
631.7359671523989
 33
0.0
 14
674.1217298630764
 24
482.7359671523991
 34
0.0
 50
90.0
100
AcDbRotatedDimension
1001
ACAD_DSTYLE_DIMINSPECT
1070
   396
1000
100%
1070
   395
1000

1070
   394
1070
    33
1070
   393
1070
     0
  0
DIMENSION
  5
5ECA
102
{ACAD_XDICTIONARY
360
5ED7
102
}
102
{ACAD_REACTORS
330
5EE1
102
}
330
1F
100
AcDbEntity
  8
AM_5 寸法線
100
AcDbDimension
  2
*D20
 10
821.1217298630764
 20
457.2359671523989
 30
0.0
 11
812.9967298630765
 21
557.2359671523992
 31
0.0
 70
    32
  1
%%c<>
 71
     5
 42
199.9999999999999
 73
     0
 74
     0
 75
     0
  3
SEISA$0
100
AcDbAlignedDimension
 13
630.1217298630764
 23
657.2359671523989
 33
0.0
 14
630.1217298630764
 24
457.2359671523991
 34
0.0
 50
90.0
100
AcDbRotatedDimension
1001
ACAD_DSTYLE_DIMINSPECT
1070
   396
1000
100%
1070
   395
1000

1070
   394
1070
    33
1070
   393
1070
     0
  0
DIMENSION
  5
6062
102
{ACAD_XDICTIONARY
360
6071
102
}
102
{ACAD_REACTORS
330
607D
102
}
330
1F
100
AcDbEntity
  8
AM_5 寸法線
100
AcDbDimension
  2
*D21
 10
391.1217298630768
 20
419.7359671523991
 30
0.0
 11
369.0592298630768
 21
427.8609671523991
 31
0.0
 70
    32
 71
     5
 42
15.0
 73
     0
 74
     0
 75
     0
  3
SEISA$0
100
AcDbAlignedDimension
 13
406.1217298630768
 23
457.7359671523991
 33
0.0
 14
391.1217298630768
 24
458.2359671523991
 34
0.0
100
AcDbRotatedDimension
1001
ACAD_DSTYLE_DIMINSPECT
1070
   396
1000
100%
1070
   395
1000

1070
   394
1070
    33
1070
   393
1070
     0
1001
ACAD
1000
DSTYLE
1002
{
1070
   173
1070
     1
1070
   342
1005
0
1070
   343
1005
3C5A
1070
   344
1005
69
1002
}
  0
DIMENSION
  5
60C6
102
{ACAD_XDICTIONARY
360
60D5
102
}
102
{ACAD_REACTORS
330
60E1
102
}
330
1F
100
AcDbEntity
  8
AM_5 寸法線
100
AcDbDimension
  2
*D22
 10
631.1217298630764
 20
419.7359671523991
 30
0.0
 11
653.1842298630764
 21
427.8609671523991
 31
0.0
 70
    32
 71
     5
 42
15.0
 73
     0
 74
     0
 75
     0
  3
SEISA$0
100
AcDbAlignedDimension
 13
616.1217298630766
 23
457.7359671523991
 33
0.0
 14
631.1217298630764
 24
458.2359671523991
 34
0.0
100
AcDbRotatedDimension
1001
ACAD_DSTYLE_DIMINSPECT
1070
   396
1000
100%
1070
   395
1000

1070
   394
1070
    33
1070
   393
1070
     0
1001
ACAD
1000
DSTYLE
1002
{
1070
   173
1070
     1
1070
   342
1005
0
1070
   343
1005
3C5A
1070
   344
1005
69
1002
}
  0
DIMENSION
  5
60E2
102
{ACAD_XDICTIONARY
360
60EF
102
}
102
{ACAD_REACTORS
330
60F9
102
}
330
1F
100
AcDbEntity
  8
AM_5 寸法線
100
AcDbDimension
  2
*D23
 10
345.1217298630768
 20
394.7359671523992
 30
0.0
 11
375.6217298630768
 21
402.8609671523991
 31
0.0
 70
    32
 71
     5
 42
61.0
 73
     0
 74
     0
 75
     0
  3
SEISA$0
100
AcDbAlignedDimension
 13
406.1217298630768
 23
457.7359671523991
 33
0.0
 14
345.1217298630768
 24
485.7359671523991
 34
0.0
100
AcDbRotatedDimension
  0
DIMENSION
  5
60FA
102
{ACAD_XDICTIONARY
360
6107
102
}
102
{ACAD_REACTORS
330
6111
102
}
330
1F
100
AcDbEntity
  8
AM_5 寸法線
100
AcDbDimension
  2
*D24
 10
301.1217298630768
 20
394.7359671523992
 30
0.0
 11
323.1217298630769
 21
402.8609671523991
 31
0.0
 70
    32
 71
     5
 42
44.0
 73
     0
 74
     0
 75
     0
  3
SEISA$0
100
AcDbAlignedDimension
 13
345.1217298630768
 23
485.7359671523991
 33
0.0
 14
301.1217298630768
 24
500.8359671523991
 34
0.0
100
AcDbRotatedDimension
  0
DIMENSION
  5
612A
102
{ACAD_XDICTIONARY
360
6137
102
}
102
{ACAD_REACTORS
330
6141
102
}
330
1F
100
AcDbEntity
  8
AM_5 寸法線
100
AcDbDimension
  2
*D25
 10
677.1217298630764
 20
394.7359671523992
 30
0.0
 11
646.6217298630764
 21
402.8609671523991
 31
0.0
 70
    32
 71
     5
 42
61.0
 73
     0
 74
     0
 75
     0
  3
SEISA$0
100
AcDbAlignedDimension
 13
616.1217298630766
 23
457.7359671523991
 33
0.0
 14
677.1217298630764
 24
485.7359671523991
 34
0.0
100
AcDbRotatedDimension
  0
DIMENSION
  5
6142
102
{ACAD_XDICTIONARY
360
614F
102
}
102
{ACAD_REACTORS
330
6159
102
}
330
1F
100
AcDbEntity
  8
AM_5 寸法線
100
AcDbDimension
  2
*D26
 10
721.1217298630764
 20
394.7359671523992
 30
0.0
 11
699.1217298630764
 21
402.8609671523991
 31
0.0
 70
    32
 71
     5
 42
44.0
 73
     0
 74
     0
 75
     0
  3
SEISA$0
100
AcDbAlignedDimension
 13
677.1217298630764
 23
485.7359671523991
 33
0.0
 14
721.1217298630764
 24
500.8359671523991
 34
0.0
100
AcDbRotatedDimension
  0
INSERT
  5
92CB
102
{ACAD_REACTORS
330
98FD
330
9A96
330
AF67
102
}
330
1F
100
AcDbEntity
  8
AM_5 寸法線
100
AcDbBlockReference
  2
ＧＣスペーサ SAMY200
 10
406.1217298630768
 20
557.2359671523989
 30
0.0
  0
DIMENSION
  5
98ED
102
{ACAD_XDICTIONARY
360
98FC
102
}
102
{ACAD_REACTORS
330
98FD
102
}
330
1F
100
AcDbEntity
  8
AM_5 寸法線
100
AcDbDimension
  2
*D28
 10
601.1217298630764
 20
419.7359671523988
 30
0.0
 11
579.0592298630764
 21
427.8609671523987
 31
0.0
 70
    32
 71
     5
 42
15.0
 73
     0
 74
     0
 75
     0
  3
SEISA$0
100
AcDbAlignedDimension
 13
616.1217298630766
 23
457.7359671523992
 33
0.0
 14
601.1217298630764
 24
458.2359671523992
 34
0.0
 50
0.0000000000000114
100
AcDbRotatedDimension
1001
ACAD_DSTYLE_DIMINSPECT
1070
   396
1000
100%
1070
   395
1000

1070
   394
1070
    33
1070
   393
1070
     0
1001
ACAD
1000
DSTYLE
1002
{
1070
   173
1070
     1
1070
   342
1005
0
1070
   343
1005
3C5A
1070
   344
1005
69
1002
}
  0
DIMENSION
  5
9A86
102
{ACAD_XDICTIONARY
360
9A95
102
}
102
{ACAD_REACTORS
330
9A96
102
}
330
1F
100
AcDbEntity
  8
AM_5 寸法線
100
AcDbDimension
  2
*D29
 10
421.1217298630767
 20
419.7359671523988
 30
0.0
 11
443.1842298630767
 21
427.8609671523989
 31
0.0
 70
    32
 71
     5
 42
15.0
 73
     0
 74
     0
 75
     0
  3
SEISA$0
100
AcDbAlignedDimension
 13
406.1217298630768
 23
457.7359671523992
 33
0.0
 14
421.1217298630767
 24
458.2359671523992
 34
0.0
 50
0.0000000000000114
100
AcDbRotatedDimension
1001
ACAD_DSTYLE_DIMINSPECT
1070
   396
1000
100%
1070
   395
1000

1070
   394
1070
    33
1070
   393
1070
     0
1001
ACAD
1000
DSTYLE
1002
{
1070
   173
1070
     1
1070
   342
1005
0
1070
   343
1005
3C5A
1070
   344
1005
69
1002
}
  0
MTEXT
  5
AB87
330
1F
100
AcDbEntity
  8
AM_6 文字
100
AcDbMText
 10
741.2956684781834
 20
440.1254918348918
 30
0.0
 40
8.75
 41
132.6495687691255
 46
27.66929097590912
 71
     1
 72
     5
  1
{\W0.6;TYPE:SAM200/SAMH200\PSHAFT DIA:MAX/MIN φ85/φ32}
  7
SEISA
 73
     1
 44
1.0
  0
DIMENSION
  5
ABC9
102
{ACAD_XDICTIONARY
360
ABD8
102
}
102
{ACAD_REACTORS
330
ABD9
102
}
330
1F
100
AcDbEntity
  8
AM_5 寸法線
100
AcDbDimension
  2
*D30
 10
301.1217298630768
 20
643.7931018015343
 30
0.0
 11
319.9967298630769
 21
651.9181018015345
 31
0.0
 70
    32
 71
     5
 42
4.999999999999886
 73
     0
 74
     0
 75
     0
  3
SEISA$0
100
AcDbAlignedDimension
 13
296.1217298630769
 23
628.7359671523991
 33
0.0
 14
301.1217298630768
 24
613.6359671523991
 34
0.0
100
AcDbRotatedDimension
1001
ACAD_DSTYLE_DIMINSPECT
1070
   396
1000
100%
1070
   395
1000

1070
   394
1070
    33
1070
   393
1070
     0
  0
DIMENSION
  5
AD39
102
{ACAD_XDICTIONARY
360
AD47
102
}
102
{ACAD_REACTORS
330
AD48
102
}
330
1F
100
AcDbEntity
  8
AM_5 寸法線
100
AcDbDimension
  2
*D31
 10
384.6217298630768
 20
598.9451673042239
 30
0.0
 11
372.1266280398566
 21
570.6834821782527
 31
0.0
 70
   160
 71
     5
 42
23.5
 73
     0
 74
     0
 75
     0
  3
SEISA$0
100
AcDbAlignedDimension
 13
361.1217298630768
 23
617.7359671523991
 33
0.0
 14
384.6217298630768
 24
616.7359671523991
 34
0.0
 50
0.0000000000001132
100
AcDbRotatedDimension
1001
ACAD_DSTYLE_DIMINSPECT
1070
   396
1000
100%
1070
   395
1000

1070
   394
1070
    33
1070
   393
1070
     0
1001
ACAD
1000
DSTYLE
1002
{
1070
   173
1070
     1
1070
   279
1070
     1
1070
   342
1005
0
1070
   343
1005
69
1070
   344
1005
69
1002
}
  0
DIMENSION
  5
AD5D
102
{ACAD_XDICTIONARY
360
AD6C
102
}
102
{ACAD_REACTORS
330
AD6D
102
}
330
1F
100
AcDbEntity
  8
AM_5 寸法線
100
AcDbDimension
  2
*D32
 10
361.1217298630768
 20
598.9451673042239
 30
0.0
 11
349.4949351190737
 21
598.9451673042239
 31
0.0
 70
   160
 71
     5
 42
3.0
 73
     0
 74
     0
 75
     0
  3
SEISA$0
100
AcDbAlignedDimension
 13
358.1217298630768
 23
617.2359671523991
 33
0.0
 14
361.1217298630768
 24
617.7359671523991
 34
0.0
100
AcDbRotatedDimension
1001
ACAD
1000
DSTYLE
1002
{
1070
   279
1070
     1
1002
}
  0
DIMENSION
  5
ADEA
102
{ACAD_XDICTIONARY
360
ADF9
102
}
102
{ACAD_REACTORS
330
ADFA
102
}
330
1F
100
AcDbEntity
  8
AM_5 寸法線
100
AcDbDimension
  2
*D33
 10
401.1217298630767
 20
598.9451673042239
 30
0.0
 11
450.6202629591132
 21
598.9451673042239
 31
0.0
 70
   160
 71
     5
 42
16.5
 73
     0
 74
     0
 75
     0
  3
SEISA$0
100
AcDbAlignedDimension
 13
384.6217298630768
 23
616.7359671523991
 33
0.0
 14
401.1217298630767
 24
615.7359671523988
 34
0.0
 50
0.0000000000001132
100
AcDbRotatedDimension
1001
ACAD_DSTYLE_DIMINSPECT
1070
   396
1000
100%
1070
   395
1000

1070
   394
1070
    33
1070
   393
1070
     0
  0
DIMENSION
  5
AE32
330
1F
100
AcDbEntity
  8
AM_5 寸法線
100
AcDbDimension
  2
*D34
 10
401.1217298630767
 20
575.5076673042236
 30
0.0
 11
426.9306679837113
 21
577.2427231490524
 31
0.0
 70
   160
 71
     5
 42
5.0
 73
     0
 74
     0
 75
     0
  3
SEISA$0
100
AcDbAlignedDimension
 13
406.1217298630768
 23
630.2359671523991
 33
0.0
 14
401.1217298630767
 24
615.7359671523988
 34
0.0
 50
0.0000000000001132
100
AcDbRotatedDimension
1001
ACAD_DSTYLE_DIMINSPECT
1070
   396
1000
100%
1070
   395
1000

1070
   394
1070
    33
1070
   393
1070
     0
1001
ACAD
1000
DSTYLE
1002
{
1070
   279
1070
     1
1002
}
  0
DIMENSION
  5
AF57
102
{ACAD_XDICTIONARY
360
AF66
102
}
102
{ACAD_REACTORS
330
AF67
102
}
330
1F
100
AcDbEntity
  8
AM_5 寸法線
100
AcDbDimension
  2
*D35
 10
621.1217298630764
 20
575.5076673042236
 30
0.0
 11
605.3590211791052
 21
583.089256832179
 31
0.0
 70
   160
 71
     5
 42
4.999999999999886
 73
     0
 74
     0
 75
     0
  3
SEISA$0
100
AcDbAlignedDimension
 13
616.1217298630766
 23
630.2359671523991
 33
0.0
 14
621.1217298630764
 24
615.7359671523991
 34
0.0
 50
0.0000000000001132
100
AcDbRotatedDimension
1001
ACAD_DSTYLE_DIMINSPECT
1070
   396
1000
100%
1070
   395
1000

1070
   394
1070
    33
1070
   393
1070
     0
1001
ACAD
1000
DSTYLE
1002
{
1070
   279
1070
     2
1002
}
  0
INSERT
  5
B03B
330
1F
100
AcDbEntity
  8
AM_11 想像線
100
AcDbBlockReference
  2
ケース
 10
323.4030552222758
 20
631.7359671523989
 30
0.0
  0
ENDSEC
  0
SECTION
  2
OBJECTS
  0
DICTIONARY
  5
C
330
0
100
AcDbDictionary
281
     1
  3
ACAD_COLOR
350
C5
  3
ACAD_GROUP
350
D
  3
ACAD_LAYOUT
350
1A
  3
ACAD_MATERIAL
350
C4
  3
ACAD_MLEADERSTYLE
350
2D5
  3
ACAD_MLINESTYLE
350
17
  3
ACAD_PLOTSETTINGS
350
19
  3
ACAD_PLOTSTYLENAME
350
E
  3
ACAD_SCALELIST
350
2B3
  3
ACAD_TABLESTYLE
350
121
  3
ACAD_VISUALSTYLE
350
27F
  3
ACDB_RECOMPOSE_DATA
350
2F7
  3
AcDbVariableDictionary
350
34
  3
AcmDictionary
350
49
  3
AMG
350
2B
  3
AMGSNAPSETTINGS
350
1DE
  0
DICTIONARY
  5
BF
330
2
100
AcDbDictionary
280
     1
281
     1
  3
ACAD_LAYERSTATES
360
2E21
  3
AMLAYER_GROUPCOLORS
360
C0
  0
DICTIONARY
  5
29F7
330
10
100
AcDbDictionary
280
     1
281
     1
  3
ADSK_XREC_LAYER_RECONCILED
360
29F8
  0
DICTIONARY
  5
29F9
330
81
100
AcDbDictionary
280
     1
281
     1
  3
ADSK_XREC_LAYER_RECONCILED
360
29FA
  0
DICTIONARY
  5
2E17
330
2E16
100
AcDbDictionary
280
     1
281
     1
  0
DICTIONARY
  5
8C5E
330
8C5D
100
AcDbDictionary
280
     1
281
     1
  0
DICTIONARY
  5
82
330
1F
100
AcDbDictionary
280
     1
281
     1
  3
ACAD_SORTENTS
360
A41
  0
DICTIONARY
  5
3AC9
330
3AC8
100
AcDbDictionary
280
     1
281
     1
  3
ACAD_SORTENTS
360
81B9
  0
DICTIONARY
  5
4EDB
330
3CFA
100
AcDbDictionary
280
     1
281
     1
  3
ACAD_SORTENTS
360
8251
  0
DICTIONARY
  5
5093
330
4FB7
100
AcDbDictionary
280
     1
281
     1
  3
ACAD_SORTENTS
360
8232
  0
DICTIONARY
  5
520D
330
512C
100
AcDbDictionary
280
     1
281
     1
  3
ACAD_SORTENTS
360
82CA
  0
DICTIONARY
  5
56A2
330
5638
100
AcDbDictionary
280
     1
281
     1
  3
ACAD_SORTENTS
360
AD38
  0
DICTIONARY
  5
574F
330
56D5
100
AcDbDictionary
280
     1
281
     1
  3
ACAD_SORTENTS
360
ACBA
  0
DICTIONARY
  5
58B9
330
57C6
100
AcDbDictionary
280
     1
281
     1
  3
ACAD_SORTENTS
360
8522
  0
DICTIONARY
  5
59B5
330
5928
100
AcDbDictionary
280
     1
281
     1
  3
ACAD_SORTENTS
360
85E4
  0
DICTIONARY
  5
9587
330
9262
100
AcDbDictionary
280
     1
281
     1
  3
ACAD_SORTENTS
360
B40F
  0
DICTIONARY
  5
5DB5
330
5DA8
100
AcDbDictionary
280
     1
281
     1
  3
ACAD_DIMASSOC
360
5DBF
  0
DICTIONARY
  5
5DCD
330
5DC0
100
AcDbDictionary
280
     1
281
     1
  3
ACAD_DIMASSOC
360
5DD7
  0
DICTIONARY
  5
5E61
330
5E54
100
AcDbDictionary
280
     1
281
     1
  3
ACAD_DIMASSOC
360
5E6B
  0
DICTIONARY
  5
5EA7
330
5E9A
100
AcDbDictionary
280
     1
281
     1
  3
ACAD_DIMASSOC
360
5EB1
  0
DICTIONARY
  5
5EBF
330
5EB2
100
AcDbDictionary
280
     1
281
     1
  3
ACAD_DIMASSOC
360
5EC9
  0
DICTIONARY
  5
5ED7
330
5ECA
100
AcDbDictionary
280
     1
281
     1
  3
ACAD_DIMASSOC
360
5EE1
  0
DICTIONARY
  5
6071
330
6062
100
AcDbDictionary
280
     1
281
     1
  3
ACAD_DIMASSOC
360
607D
  0
DICTIONARY
  5
60D5
330
60C6
100
AcDbDictionary
280
     1
281
     1
  3
ACAD_DIMASSOC
360
60E1
  0
DICTIONARY
  5
60EF
330
60E2
100
AcDbDictionary
280
     1
281
     1
  3
ACAD_DIMASSOC
360
60F9
  0
DICTIONARY
  5
6107
330
60FA
100
AcDbDictionary
280
     1
281
     1
  3
ACAD_DIMASSOC
360
6111
  0
DICTIONARY
  5
6137
330
612A
100
AcDbDictionary
280
     1
281
     1
  3
ACAD_DIMASSOC
360
6141
  0
DICTIONARY
  5
614F
330
6142
100
AcDbDictionary
280
     1
281
     1
  3
ACAD_DIMASSOC
360
6159
  0
DICTIONARY
  5
98FC
330
98ED
100
AcDbDictionary
280
     1
281
     1
  3
ACAD_DIMASSOC
360
98FD
  0
DICTIONARY
  5
9A95
330
9A86
100
AcDbDictionary
280
     1
281
     1
  3
ACAD_DIMASSOC
360
9A96
  0
DICTIONARY
  5
ABD8
330
ABC9
100
AcDbDictionary
280
     1
281
     1
  3
ACAD_DIMASSOC
360
ABD9
  0
DICTIONARY
  5
AD47
330
AD39
100
AcDbDictionary
280
     1
281
     1
  3
ACAD_DIMASSOC
360
AD48
  0
DICTIONARY
  5
AD6C
330
AD5D
100
AcDbDictionary
280
     1
281
     1
  3
ACAD_DIMASSOC
360
AD6D
  0
DICTIONARY
  5
ADF9
330
ADEA
100
AcDbDictionary
280
     1
281
     1
  3
ACAD_DIMASSOC
360
ADFA
  0
DICTIONARY
  5
AF66
330
AF57
100
AcDbDictionary
280
     1
281
     1
  3
ACAD_DIMASSOC
360
AF67
  0
DICTIONARY
  5
C5
102
{ACAD_REACTORS
330
C
102
}
330
C
100
AcDbDictionary
281
     1
  0
DICTIONARY
  5
D
102
{ACAD_REACTORS
330
C
102
}
330
C
100
AcDbDictionary
281
     1
  0
DICTIONARY
  5
1A
102
{ACAD_REACTORS
330
C
102
}
330
C
100
AcDbDictionary
281
     1
  3
Model
350
22
  3
レイアウト1
350
1E
  3
レイアウト2
350
26
  0
DICTIONARY
  5
C4
102
{ACAD_REACTORS
330
C
102
}
330
C
100
AcDbDictionary
281
     1
  3
ByBlock
350
27D
  3
ByLayer
350
27C
  3
Global
350
27E
  0
DICTIONARY
  5
2D5
102
{ACAD_REACTORS
330
C
102
}
330
C
100
AcDbDictionary
281
     1
  3
Standard
350
2D6
  0
DICTIONARY
  5
17
102
{ACAD_REACTORS
330
C
102
}
330
C
100
AcDbDictionary
281
     1
  3
Standard
350
18
  0
DICTIONARY
  5
19
102
{ACAD_REACTORS
330
C
102
}
330
C
100
AcDbDictionary
281
     1
  3
SEISA基本
350
1C7E
  0
ACDBDICTIONARYWDFLT
  5
E
102
{ACAD_REACTORS
330
C
102
}
330
C
100
AcDbDictionary
281
     1
  3
Normal
350
F
100
AcDbDictionaryWithDefault
340
F
  0
DICTIONARY
  5
2B3
102
{ACAD_REACTORS
330
C
102
}
330
C
100
AcDbDictionary
281
     1
  3
*A1
350
2A04
  3
*A2
350
3D36
  3
A0
350
2B4
  3
A1
350
2B5
  3
A2
350
2B6
  3
A3
350
2B7
  3
A4
350
2B8
  3
A5
350
2B9
  3
A6
350
2BA
  3
A7
350
2BB
  3
A8
350
2BC
  3
A9
350
2BD
  3
B0
350
2BE
  3
B1
350
2BF
  3
B2
350
2C0
  3
B3
350
2C1
  3
B4
350
2C2
  3
B5
350
2C3
  3
B6
350
2C4
  3
B7
350
2C5
  3
B8
350
2C6
  3
B9
350
2C7
  3
C0
350
2C8
  3
C1
350
2C9
  3
C2
350
2CA
  3
C3
350
2CB
  3
C4
350
2CC
  3
C5
350
2CD
  3
C6
350
2CE
  3
C7
350
2CF
  3
C8
350
2D0
  3
C9
350
2D1
  3
D0
350
2D2
  3
D1
350
2D3
  3
D2
350
2D4
  0
DICTIONARY
  5
121
102
{ACAD_REACTORS
330
C
102
}
330
C
100
AcDbDictionary
281
     1
  3
Standard
350
122
  0
DICTIONARY
  5
27F
102
{ACAD_REACTORS
330
C
102
}
330
C
100
AcDbDictionary
281
     1
  3
2dWireframe
350
285
  3
3D Hidden
350
287
  3
3dWireframe
350
286
  3
Basic
350
284
  3
Brighten
350
28B
  3
ColorChange
350
28F
  3
Conceptual
350
288
  3
Dim
350
28A
  3
Facepattern
350
28E
  3
Flat
350
280
  3
FlatWithEdges
350
281
  3
Gouraud
350
282
  3
GouraudWithEdges
350
283
  3
Linepattern
350
28D
  3
Realistic
350
289
  3
Thicken
350
28C
  0
XRECORD
  5
2F7
102
{ACAD_REACTORS
330
C
102
}
330
C
100
AcDbXrecord
280
     1
 90
        1
330
122
  0
DICTIONARY
  5
34
102
{ACAD_REACTORS
330
C
102
}
330
C
100
AcDbDictionary
281
     1
  3
CANNOSCALE
350
2FA
  3
CMLEADERSTYLE
350
2F8
  3
CTABLESTYLE
350
140
  3
DIMASSOC
350
AC
  3
INDEXCTL
350
35
  3
LAYEREVAL
350
8150
  3
LAYERNOTIFY
350
8151
  3
LIGHTINGUNITS
350
2FB
  3
MSLTSCALE
350
2F9
  0
DICTIONARY
  5
49
102
{ACAD_REACTORS
330
C
102
}
330
C
100
AcDbDictionary
281
     1
  3
AcmBOM
350
161B
  3
AcmStdDictionary
350
4A
  3
AMDTSECTSYM_ARROWCOLOR
350
12B
  0
DICTIONARY
  5
2B
102
{ACAD_REACTORS
330
C
102
}
330
C
100
AcDbDictionary
281
     1
  0
DICTIONARY
  5
1DE
102
{ACAD_REACTORS
330
C
102
}
330
C
100
AcDbDictionary
281
     1
  0
DICTIONARY
  5
2E21
102
{ACAD_REACTORS
330
BF
102
}
330
BF
100
AcDbDictionary
281
     1
  0
DICTIONARY
  5
C0
102
{ACAD_REACTORS
330
BF
102
}
330
BF
100
AcDbDictionary
280
     1
281
     1
  0
XRECORD
  5
29F8
102
{ACAD_REACTORS
330
29F7
102
}
330
29F7
100
AcDbXrecord
280
     1
290
     1
  0
XRECORD
  5
29FA
102
{ACAD_REACTORS
330
29F9
102
}
330
29F9
100
AcDbXrecord
280
     1
290
     1
  0
SORTENTSTABLE
  5
A41
102
{ACAD_REACTORS
330
82
102
}
330
82
100
AcDbSortentsTable
330
1F
331
5DC0
  5
5E09
331
5858
  5
5AB8
331
56F6
  5
5A3C
331
5ECA
  5
5F7A
331
5659
  5
5954
331
4FF5
  5
5515
331
612A
  5
6217
331
92CB
  5
92CB
331
4697
  5
46F2
331
60C6
  5
60FA
331
60E2
  5
6112
331
5954
  5
5AEA
331
9A86
  5
9A86
331
4584
  5
4584
331
5DA8
  5
5DD8
331
5E9A
  5
5ECA
331
6142
  5
6233
331
462E
  5
4650
331
516B
  5
5715
331
6062
  5
60AA
331
AB87
  5
AB87
331
5E54
  5
5EB2
331
5EB2
  5
5F48
331
4747
  5
4783
331
60FA
  5
612A
331
98ED
  5
98ED
  0
SORTENTSTABLE
  5
81B9
102
{ACAD_REACTORS
330
3AC9
102
}
330
3AC9
100
AcDbSortentsTable
330
3AC8
  0
SORTENTSTABLE
  5
8251
102
{ACAD_REACTORS
330
4EDB
102
}
330
4EDB
100
AcDbSortentsTable
330
3CFA
  0
SORTENTSTABLE
  5
8232
102
{ACAD_REACTORS
330
5093
102
}
330
5093
100
AcDbSortentsTable
330
4FB7
331
4FD3
  5
4FD5
331
4FF1
  5
508F
331
4FD8
  5
4FDC
331
4FDD
  5
4FE2
331
4FE2
  5
4FE6
331
4FE7
  5
4FEB
331
4FEC
  5
4FF0
331
4FD4
  5
4FD6
331
4FF2
  5
5090
331
508F
  5
4FCE
331
4FDE
  5
4FE3
331
4FE3
  5
4FE7
331
4FE8
  5
4FEC
331
4FED
  5
4FF1
331
4FD0
  5
4FD2
331
5090
  5
4FDD
331
4FD5
  5
4FD8
331
4FF3
  5
5091
331
4FDA
  5
4FDE
331
4FE4
  5
4FE8
331
4FCE
  5
4FD0
331
4FE9
  5
4FED
331
4FEE
  5
4FF2
331
5091
  5
4FDB
331
4FD1
  5
4FD3
331
4FD6
  5
4FDA
331
4FF4
  5
5092
331
4FDB
  5
4FE0
331
4FE0
  5
4FE4
331
4FE5
  5
4FE9
331
4FEA
  5
4FEE
331
4FEF
  5
4FF3
331
4FD2
  5
4FD4
331
5092
  5
4FD1
331
4FF0
  5
4FF4
331
4FDC
  5
4FE1
331
4FE1
  5
4FE5
331
4FE6
  5
4FEA
331
4FEB
  5
4FEF
  0
SORTENTSTABLE
  5
82CA
102
{ACAD_REACTORS
330
520D
102
}
330
520D
100
AcDbSortentsTable
330
512C
331
5167
  5
5168
331
516A
  5
520C
331
5165
  5
5166
331
5168
  5
5169
331
5163
  5
5164
331
5161
  5
5162
331
5169
  5
516A
331
5166
  5
5167
331
5164
  5
5165
331
520C
  5
5160
331
5162
  5
5163
331
5160
  5
5161
  0
SORTENTSTABLE
  5
AD38
102
{ACAD_REACTORS
330
56A2
102
}
330
56A2
100
AcDbSortentsTable
330
5638
331
5657
  5
ACDD
331
564A
  5
564C
331
5654
  5
5656
331
5647
  5
564B
331
5651
  5
5653
331
5644
  5
5646
331
563E
  5
5642
331
564E
  5
5650
331
5641
  5
5643
331
564B
  5
564D
331
5655
  5
5657
331
5652
  5
5654
331
ACDD
  5
563D
331
5645
  5
5647
331
564F
  5
5651
331
5642
  5
5644
331
564C
  5
564E
331
5656
  5
5658
331
5653
  5
5655
331
ACDE
  5
563E
331
5646
  5
564A
331
5650
  5
5652
331
5643
  5
5645
331
564D
  5
564F
331
563D
  5
5641
331
5658
  5
ACDE
  0
SORTENTSTABLE
  5
ACBA
102
{ACAD_REACTORS
330
574F
102
}
330
574F
100
AcDbSortentsTable
330
56D5
331
56E0
  5
56E2
331
56EA
  5
56EE
331
56DD
  5
56DF
331
AC2C
  5
56DA
331
56E7
  5
56E9
331
56DA
  5
56DD
331
56E4
  5
56E7
331
56F3
  5
AC2B
331
56F0
  5
56F2
331
56EE
  5
56F0
331
56E1
  5
56E3
331
56EB
  5
56EF
331
56DE
  5
56E0
331
56E8
  5
56EA
331
56F4
  5
AC2C
331
56EF
  5
56F1
331
56E2
  5
56E4
331
56F1
  5
56F3
331
56DF
  5
56E1
331
56E9
  5
56EB
331
56DC
  5
56DE
331
AC2B
  5
56D9
331
56E6
  5
56E8
331
56D9
  5
56DC
331
56E3
  5
56E6
331
56F2
  5
56F4
  0
SORTENTSTABLE
  5
8522
102
{ACAD_REACTORS
330
58B9
102
}
330
58B9
100
AcDbSortentsTable
330
57C6
  0
SORTENTSTABLE
  5
85E4
102
{ACAD_REACTORS
330
59B5
102
}
330
59B5
100
AcDbSortentsTable
330
5928
  0
SORTENTSTABLE
  5
B40F
102
{ACAD_REACTORS
330
9587
102
}
330
9587
100
AcDbSortentsTable
330
9262
331
92B2
  5
92B4
331
92C9
  5
B1FF
331
92B8
  5
92BA
331
92B5
  5
92B7
331
92BB
  5
92C0
331
98A8
  5
929E
331
92A0
  5
92A3
331
B1FF
  5
92BC
331
929D
  5
929F
331
92A3
  5
92A5
331
92C4
  5
92C8
331
92C7
  5
98A7
331
92A9
  5
92AB
331
92A6
  5
92A8
331
92AF
  5
92B1
331
92AC
  5
92AE
331
92C1
  5
92C5
331
92B4
  5
92B6
331
92B1
  5
92B3
331
92BA
  5
92BF
331
92B7
  5
92B9
331
92C8
  5
98A8
331
92BD
  5
92C2
331
92C0
  5
92C4
331
92C3
  5
92C7
331
92A5
  5
92A7
331
92A2
  5
92A4
331
92C6
  5
92CA
331
92AB
  5
92AD
331
92A8
  5
92AA
331
98A7
  5
92BD
331
92AE
  5
92B0
331
929F
  5
92A2
331
92B6
  5
92B8
331
92B3
  5
92B5
331
92BC
  5
92C1
331
929E
  5
92A0
331
92B9
  5
92BB
331
92CA
  5
B200
331
B200
  5
929D
331
92C2
  5
92C6
331
92C5
  5
92C9
331
92A7
  5
92A9
331
92A4
  5
92A6
331
92AD
  5
92AF
331
92AA
  5
92AC
331
92BF
  5
92C3
331
92B0
  5
92B2
  0
DIMASSOC
  5
5DBF
102
{ACAD_REACTORS
330
5DB5
102
}
330
5DB5
100
AcDbDimAssoc
330
5DA8
 90
        2
 70
     0
 71
     0
  1
AcDbOsnapPointRef
 72
    13
331
56F6
331
56DC
 73
     2
 91
        0
 40
0.0
 10
0.0
 20
0.0
 30
2.000000000000000E+50
 75
     0
  0
DIMASSOC
  5
5DD7
102
{ACAD_REACTORS
330
5DCD
102
}
330
5DCD
100
AcDbDimAssoc
330
5DC0
 90
        1
 70
     0
 71
     0
  1
AcDbOsnapPointRef
 72
    13
331
5659
331
5657
 73
     2
 91
        0
 40
0.0
 10
0.0
 20
0.0
 30
2.000000000000000E+50
 75
     0
  0
DIMASSOC
  5
5E6B
102
{ACAD_REACTORS
330
5E61
102
}
330
5E61
100
AcDbDimAssoc
330
5E54
 90
        3
 70
     0
 71
     0
  1
AcDbOsnapPointRef
 72
    13
331
56F6
331
56EA
 73
     2
 91
        0
 40
0.0
 10
0.0
 20
0.0
 30
2.000000000000000E+50
 75
     0
  1
AcDbOsnapPointRef
 72
    13
331
56F6
331
56E1
 73
     2
 91
        0
 40
0.0
 10
0.0
 20
0.0
 30
2.000000000000000E+50
 75
     0
  0
DIMASSOC
  5
5EB1
102
{ACAD_REACTORS
330
5EA7
102
}
330
5EA7
100
AcDbDimAssoc
330
5E9A
 90
        3
 70
     0
 71
     0
  1
AcDbOsnapPointRef
 72
    13
331
5659
331
5651
 73
     2
 91
        0
 40
0.0
 10
0.0
 20
0.0
 30
2.000000000000000E+50
 75
     0
  1
AcDbOsnapPointRef
 72
    13
331
5659
331
5643
 73
     2
 91
        0
 40
0.0
 10
0.0
 20
0.0
 30
2.000000000000000E+50
 75
     0
  0
DIMASSOC
  5
5EC9
102
{ACAD_REACTORS
330
5EBF
102
}
330
5EBF
100
AcDbDimAssoc
330
5EB2
 90
        3
 70
     0
 71
     0
  1
AcDbOsnapPointRef
 72
     1
331
4FF5
331
4FC5
 73
     2
 91
        0
 40
1.0
 10
0.0
 20
0.0
 30
2.000000000000000E+50
 75
     0
  1
AcDbOsnapPointRef
 72
     1
331
4FF5
331
4FBA
 73
     2
 91
        0
 40
1.0
 10
0.0
 20
0.0
 30
2.000000000000000E+50
 75
     0
  0
DIMASSOC
  5
5EE1
102
{ACAD_REACTORS
330
5ED7
102
}
330
5ED7
100
AcDbDimAssoc
330
5ECA
 90
        3
 70
     0
 71
     0
  1
AcDbOsnapPointRef
 72
     1
331
4FF5
331
4FD8
 73
     2
 91
        0
 40
1.0
 10
0.0
 20
0.0
 30
2.000000000000000E+50
 75
     0
  1
AcDbOsnapPointRef
 72
     1
331
4FF5
331
4FBD
 73
     2
 91
        0
 40
1.0
 10
0.0
 20
0.0
 30
2.000000000000000E+50
 75
     0
  0
DIMASSOC
  5
607D
102
{ACAD_REACTORS
330
6071
102
}
330
6071
100
AcDbDimAssoc
330
6062
 90
        2
 70
     0
 71
     0
  1
AcDbOsnapPointRef
 72
    13
331
516B
331
5136
 73
     2
 91
        0
 40
0.0
 10
0.0
 20
0.0
 30
2.000000000000000E+50
 75
     0
  0
DIMASSOC
  5
60E1
102
{ACAD_REACTORS
330
60D5
102
}
330
60D5
100
AcDbDimAssoc
330
60C6
 90
        2
 70
     0
 71
     0
  1
AcDbOsnapPointRef
 72
    13
331
4FF5
331
4FBC
 73
     2
 91
        0
 40
0.0
 10
0.0
 20
0.0
 30
2.000000000000000E+50
 75
     0
  0
DIMASSOC
  5
60F9
102
{ACAD_REACTORS
330
60EF
102
}
330
60EF
100
AcDbDimAssoc
330
60E2
 90
        2
 70
     0
 71
     0
  1
AcDbOsnapPointRef
 72
    13
331
516B
331
5135
 73
     2
 91
        0
 40
0.0
 10
0.0
 20
0.0
 30
2.000000000000000E+50
 75
     0
  0
DIMASSOC
  5
6111
102
{ACAD_REACTORS
330
6107
102
}
330
6107
100
AcDbDimAssoc
330
60FA
 90
        3
 70
     0
 71
     0
  1
AcDbOsnapPointRef
 72
    13
331
516B
331
5135
 73
     2
 91
        0
 40
0.0
 10
0.0
 20
0.0
 30
2.000000000000000E+50
 75
     0
  1
AcDbOsnapPointRef
 72
     1
331
56F6
331
56DE
 73
     2
 91
        0
 40
1.0
 10
0.0
 20
0.0
 30
2.000000000000000E+50
 75
     0
  0
DIMASSOC
  5
6141
102
{ACAD_REACTORS
330
6137
102
}
330
6137
100
AcDbDimAssoc
330
612A
 90
        2
 70
     0
 71
     0
  1
AcDbOsnapPointRef
 72
    13
331
4FF5
331
4FC1
 73
     2
 91
        0
 40
0.0
 10
0.0
 20
0.0
 30
2.000000000000000E+50
 75
     0
  0
DIMASSOC
  5
6159
102
{ACAD_REACTORS
330
614F
102
}
330
614F
100
AcDbDimAssoc
330
6142
 90
        3
 70
     0
 71
     0
  1
AcDbOsnapPointRef
 72
    13
331
4FF5
331
4FC1
 73
     2
 91
        0
 40
0.0
 10
0.0
 20
0.0
 30
2.000000000000000E+50
 75
     0
  1
AcDbOsnapPointRef
 72
     1
331
5659
331
563E
 73
     2
 91
        0
 40
6.283185307179585
 10
0.0
 20
0.0
 30
2.000000000000000E+50
 75
     0
  0
DIMASSOC
  5
98FD
102
{ACAD_REACTORS
330
98FC
102
}
330
98FC
100
AcDbDimAssoc
330
98ED
 90
        1
 70
     0
 71
     0
  1
AcDbOsnapPointRef
 72
     1
331
92CB
331
9291
 73
     0
 91
        0
 40
0.0
 10
0.0
 20
0.0
 30
2.000000000000000E+50
 75
     0
  0
DIMASSOC
  5
9A96
102
{ACAD_REACTORS
330
9A95
102
}
330
9A95
100
AcDbDimAssoc
330
9A86
 90
        1
 70
     0
 71
     0
  1
AcDbOsnapPointRef
 72
     1
331
92CB
331
92AE
 73
     0
 91
        0
 40
0.0
 10
0.0
 20
0.0
 30
2.000000000000000E+50
 75
     0
  0
DIMASSOC
  5
ABD9
102
{ACAD_REACTORS
330
ABD8
102
}
330
ABD8
100
AcDbDimAssoc
330
ABC9
 90
        2
 70
     0
 71
     0
  1
AcDbOsnapPointRef
 72
     1
331
56F6
331
56DC
 73
     0
 91
        0
 40
0.0
 10
0.0
 20
0.0
 30
2.000000000000000E+50
 75
     0
  0
DIMASSOC
  5
AD48
102
{ACAD_REACTORS
330
AD47
102
}
330
AD47
100
AcDbDimAssoc
330
AD39
 90
        2
 70
     0
 71
     0
  1
AcDbOsnapPointRef
 72
     1
331
56F6
331
56E8
 73
     0
 91
        0
 40
0.0
 10
0.0
 20
0.0
 30
2.000000000000000E+50
 75
     0
  0
DIMASSOC
  5
AD6D
102
{ACAD_REACTORS
330
AD6C
102
}
330
AD6C
100
AcDbDimAssoc
330
AD5D
 90
        1
 70
     0
 71
     0
  1
AcDbOsnapPointRef
 72
     1
331
516B
331
514C
 73
     2
 91
        0
 40
1.0
 10
0.0
 20
0.0
 30
2.000000000000000E+50
 75
     0
  0
DIMASSOC
  5
ADFA
102
{ACAD_REACTORS
330
ADF9
102
}
330
ADF9
100
AcDbDimAssoc
330
ADEA
 90
        3
 70
     0
 71
     0
  1
AcDbOsnapPointRef
 72
     1
331
56F6
331
56E8
 73
     0
 91
        0
 40
0.0
 10
0.0
 20
0.0
 30
2.000000000000000E+50
 75
     0
  1
AcDbOsnapPointRef
 72
    13
331
56F6
331
56F3
 73
     0
 91
        0
 40
0.0
 10
0.0
 20
0.0
 30
2.000000000000000E+50
 75
     0
  0
DIMASSOC
  5
AF67
102
{ACAD_REACTORS
330
AF66
102
}
330
AF66
100
AcDbDimAssoc
330
AF57
 90
        3
 70
     0
 71
     0
  1
AcDbOsnapPointRef
 72
     1
331
92CB
331
929E
 73
     0
 91
        0
 40
0.0
 10
0.0
 20
0.0
 30
2.000000000000000E+50
 75
     0
  1
AcDbOsnapPointRef
 72
    13
331
5659
331
5641
 73
     0
 91
        0
 40
0.0
 10
0.0
 20
0.0
 30
2.000000000000000E+50
 75
     0
  0
LAYOUT
  5
22
102
{ACAD_REACTORS
330
1A
102
}
330
1A
100
AcDbPlotSettings
  1

  2
KONICA MINOLTA 501 PCL
  4
A4
  6

 40
5.027082920074462
 41
5.027085781097412
 42
5.027069091796875
 43
5.027069091796875
 44
209.9733276367186
 45
296.9259948730469
 46
39.03646402378982
 47
0.0
 48
0.0
 49
0.0
140
0.0
141
0.0
142
1.0
143
2.168367620609266
 70
 11956
 72
     1
 73
     1
 74
     1
  7
SEISA.ctb
 75
     0
147
0.4611764123829796
 76
     0
 77
     2
 78
   300
148
-238.6116059842902
149
-393.0595810516986
100
AcDbLayout
  1
Model
 70
     1
 71
     0
 10
0.0
 20
0.0
 11
12.0
 21
9.0
 12
0.0
 22
0.0
 32
0.0
 14
0.0
 24
0.0
 34
0.0
 15
0.0
 25
0.0
 35
0.0
146
0.0
 13
0.0
 23
0.0
 33
0.0
 16
1.0
 26
0.0
 36
0.0
 17
0.0
 27
1.0
 37
0.0
 76
     0
330
1F
331
27A
1001
ACAD_PSEXT
1000
KONICA MINOLTA 501 PCL
1000
KONICA MINOLTA 501/421/361PCL
1000
IP_192.168.20.231_(1)
1000

1070
     0
  0
LAYOUT
  5
1E
102
{ACAD_REACTORS
330
1A
102
}
330
1A
100
AcDbPlotSettings
  1

  2
none_device
  4
Letter_(8.50_x_11.00_Inches)
  6

 40
6.349999904632567
 41
6.349999904632567
 42
6.350006103515625
 43
6.350006103515625
 44
215.8999938964844
 45
279.3999938964844
 46
0.0
 47
0.0
 48
0.0
 49
0.0
140
0.0
141
0.0
142
1.0
143
1.0
 70
 15024
 72
     1
 73
     1
 74
     5
  7
SEISA.ctb
 75
    16
147
1.0
 76
     0
 77
     2
 78
   300
148
0.0
149
0.0
100
AcDbLayout
  1
レイアウト1
 70
     1
 71
     1
 10
0.0
 20
0.0
 11
420.0
 21
297.0
 12
0.0
 22
0.0
 32
0.0
 14
1.000000000000000E+20
 24
1.000000000000000E+20
 34
1.000000000000000E+20
 15
-1.000000000000000E+20
 25
-1.000000000000000E+20
 35
-1.000000000000000E+20
146
0.0
 13
0.0
 23
0.0
 33
0.0
 16
1.0
 26
0.0
 36
0.0
 17
0.0
 27
1.0
 37
0.0
 76
     0
330
1B
  0
LAYOUT
  5
26
102
{ACAD_REACTORS
330
1A
102
}
330
1A
100
AcDbPlotSettings
  1

  2
none_device
  4
Letter_(8.50_x_11.00_Inches)
  6

 40
6.349999904632567
 41
6.349999904632567
 42
6.350006103515625
 43
6.350006103515625
 44
215.8999938964844
 45
279.3999938964844
 46
0.0
 47
0.0
 48
0.0
 49
0.0
140
0.0
141
0.0
142
1.0
143
1.0
 70
 15024
 72
     1
 73
     1
 74
     5
  7
SEISA.ctb
 75
    16
147
1.0
 76
     0
 77
     2
 78
   300
148
0.0
149
0.0
100
AcDbLayout
  1
レイアウト2
 70
     1
 71
     2
 10
0.0
 20
0.0
 11
12.0
 21
9.0
 12
0.0
 22
0.0
 32
0.0
 14
0.0
 24
0.0
 34
0.0
 15
0.0
 25
0.0
 35
0.0
146
0.0
 13
0.0
 23
0.0
 33
0.0
 16
1.0
 26
0.0
 36
0.0
 17
0.0
 27
1.0
 37
0.0
 76
     0
330
23
  0
MATERIAL
  5
27D
102
{ACAD_REACTORS
330
C4
102
}
330
C4
100
AcDbMaterial
  1
ByBlock
 73
     1
 78
     1
172
     1
176
     1
270
     1
274
     1
 94
       63
  0
MATERIAL
  5
27C
102
{ACAD_REACTORS
330
C4
102
}
330
C4
100
AcDbMaterial
  1
ByLayer
 73
     1
 78
     1
172
     1
176
     1
270
     1
274
     1
 94
       63
  0
MATERIAL
  5
27E
102
{ACAD_REACTORS
330
C4
102
}
330
C4
100
AcDbMaterial
  1
Global
 73
     1
 78
     1
172
     1
176
     1
270
     1
274
     1
 94
       63
  0
MLEADERSTYLE
  5
2D6
102
{ACAD_REACTORS
330
2D5
102
}
330
2D5
100
AcDbMLeaderStyle
170
     2
171
     1
172
     0
 90
        2
 40
0.0
 41
0.0
173
     1
 91
-1056964608
340
14
 92
       -2
290
     1
 42
2.0
291
     1
 43
0.36
  3
Standard
 44
4.0
300

342
11
174
     1
178
     6
175
     1
176
     0
 93
-1056964608
 45
4.0
292
     0
297
     0
 46
4.0
 94
-1056964608
 47
1.0
 49
1.0
140
1.0
293
     1
141
0.0
294
     1
177
     0
142
1.0
295
     0
296
     0
143
0.125
1001
ACAD_MLEADERVER
1070
     2
  0
MLINESTYLE
  5
18
102
{ACAD_REACTORS
330
17
102
}
330
17
100
AcDbMlineStyle
  2
STANDARD
 70
     0
  3

 62
   256
 51
90.0
 52
90.0
 71
     2
 49
0.5
 62
   256
  6
BYLAYER
 49
-0.5
 62
   256
  6
BYLAYER
  0
PLOTSETTINGS
  5
1C7E
102
{ACAD_REACTORS
330
19
102
}
330
19
100
AcDbPlotSettings
  1
SEISA基本
  2
none_device
  4
Letter_(8.50_x_11.00_Inches)
  6

 40
6.349999904632567
 41
6.349999904632567
 42
6.350006103515625
 43
6.350006103515625
 44
215.8999938964844
 45
279.3999938964844
 46
7.302498226506357
 47
0.0
 48
0.0
 49
0.0
140
0.0
141
0.0
142
1.0
143
1.574803221122935
 70
 11956
 72
     1
 73
     1
 74
     2
  7
SEISA.ctb
 75
     0
147
0.6349999711627054
 76
     0
 77
     2
 78
   300
148
0.0
149
0.0
1001
ACAD_PSEXT
1000
なし
1000
なし
1000
適切ではありません
1000
新しいプロッタ環境設定名を選択しない限り、レイアウトは印刷されません。
1070
     0
  0
ACDBPLACEHOLDER
  5
F
102
{ACAD_REACTORS
330
E
102
}
330
E
  0
SCALE
  5
2A04
102
{ACAD_REACTORS
330
2B3
102
}
330
2B3
100
AcDbScale
 70
     0
300
1:2.5
140
1.0
141
2.5
290
     0
  0
SCALE
  5
3D36
102
{ACAD_REACTORS
330
2B3
102
}
330
2B3
100
AcDbScale
 70
     0
300
1:1.5
140
1.0
141
1.5
290
     0
  0
SCALE
  5
2B4
102
{ACAD_REACTORS
330
2B3
102
}
330
2B3
100
AcDbScale
 70
     0
300
1:1
140
1.0
141
1.0
290
     1
  0
SCALE
  5
2B5
102
{ACAD_REACTORS
330
2B3
102
}
330
2B3
100
AcDbScale
 70
     0
300
1:2
140
1.0
141
2.0
290
     0
  0
SCALE
  5
2B6
102
{ACAD_REACTORS
330
2B3
102
}
330
2B3
100
AcDbScale
 70
     0
300
1:4
140
1.0
141
4.0
290
     0
  0
SCALE
  5
2B7
102
{ACAD_REACTORS
330
2B3
102
}
330
2B3
100
AcDbScale
 70
     0
300
1:5
140
1.0
141
5.0
290
     0
  0
SCALE
  5
2B8
102
{ACAD_REACTORS
330
2B3
102
}
330
2B3
100
AcDbScale
 70
     0
300
1:8
140
1.0
141
8.0
290
     0
  0
SCALE
  5
2B9
102
{ACAD_REACTORS
330
2B3
102
}
330
2B3
100
AcDbScale
 70
     0
300
1:10
140
1.0
141
10.0
290
     0
  0
SCALE
  5
2BA
102
{ACAD_REACTORS
330
2B3
102
}
330
2B3
100
AcDbScale
 70
     0
300
1:16
140
1.0
141
16.0
290
     0
  0
SCALE
  5
2BB
102
{ACAD_REACTORS
330
2B3
102
}
330
2B3
100
AcDbScale
 70
     0
300
1:20
140
1.0
141
20.0
290
     0
  0
SCALE
  5
2BC
102
{ACAD_REACTORS
330
2B3
102
}
330
2B3
100
AcDbScale
 70
     0
300
1:30
140
1.0
141
30.0
290
     0
  0
SCALE
  5
2BD
102
{ACAD_REACTORS
330
2B3
102
}
330
2B3
100
AcDbScale
 70
     0
300
1:40
140
1.0
141
40.0
290
     0
  0
SCALE
  5
2BE
102
{ACAD_REACTORS
330
2B3
102
}
330
2B3
100
AcDbScale
 70
     0
300
1:50
140
1.0
141
50.0
290
     0
  0
SCALE
  5
2BF
102
{ACAD_REACTORS
330
2B3
102
}
330
2B3
100
AcDbScale
 70
     0
300
1:100
140
1.0
141
100.0
290
     0
  0
SCALE
  5
2C0
102
{ACAD_REACTORS
330
2B3
102
}
330
2B3
100
AcDbScale
 70
     0
300
2:1
140
2.0
141
1.0
290
     0
  0
SCALE
  5
2C1
102
{ACAD_REACTORS
330
2B3
102
}
330
2B3
100
AcDbScale
 70
     0
300
4:1
140
4.0
141
1.0
290
     0
  0
SCALE
  5
2C2
102
{ACAD_REACTORS
330
2B3
102
}
330
2B3
100
AcDbScale
 70
     0
300
8:1
140
8.0
141
1.0
290
     0
  0
SCALE
  5
2C3
102
{ACAD_REACTORS
330
2B3
102
}
330
2B3
100
AcDbScale
 70
     0
300
10:1
140
10.0
141
1.0
290
     0
  0
SCALE
  5
2C4
102
{ACAD_REACTORS
330
2B3
102
}
330
2B3
100
AcDbScale
 70
     0
300
100:1
140
100.0
141
1.0
290
     0
  0
SCALE
  5
2C5
102
{ACAD_REACTORS
330
2B3
102
}
330
2B3
100
AcDbScale
 70
     0
300
1/128" = 1'-0"
140
0.0078125
141
12.0
290
     0
  0
SCALE
  5
2C6
102
{ACAD_REACTORS
330
2B3
102
}
330
2B3
100
AcDbScale
 70
     0
300
1/64" = 1'-0"
140
0.015625
141
12.0
290
     0
  0
SCALE
  5
2C7
102
{ACAD_REACTORS
330
2B3
102
}
330
2B3
100
AcDbScale
 70
     0
300
1/32" = 1'-0"
140
0.03125
141
12.0
290
     0
  0
SCALE
  5
2C8
102
{ACAD_REACTORS
330
2B3
102
}
330
2B3
100
AcDbScale
 70
     0
300
1/16" = 1'-0"
140
0.0625
141
12.0
290
     0
  0
SCALE
  5
2C9
102
{ACAD_REACTORS
330
2B3
102
}
330
2B3
100
AcDbScale
 70
     0
300
3/32" = 1'-0"
140
0.09375
141
12.0
290
     0
  0
SCALE
  5
2CA
102
{ACAD_REACTORS
330
2B3
102
}
330
2B3
100
AcDbScale
 70
     0
300
1/8" = 1'-0"
140
0.125
141
12.0
290
     0
  0
SCALE
  5
2CB
102
{ACAD_REACTORS
330
2B3
102
}
330
2B3
100
AcDbScale
 70
     0
300
3/16" = 1'-0"
140
0.1875
141
12.0
290
     0
  0
SCALE
  5
2CC
102
{ACAD_REACTORS
330
2B3
102
}
330
2B3
100
AcDbScale
 70
     0
300
1/4" = 1'-0"
140
0.25
141
12.0
290
     0
  0
SCALE
  5
2CD
102
{ACAD_REACTORS
330
2B3
102
}
330
2B3
100
AcDbScale
 70
     0
300
3/8" = 1'-0"
140
0.375
141
12.0
290
     0
  0
SCALE
  5
2CE
102
{ACAD_REACTORS
330
2B3
102
}
330
2B3
100
AcDbScale
 70
     0
300
1/2" = 1'-0"
140
0.5
141
12.0
290
     0
  0
SCALE
  5
2CF
102
{ACAD_REACTORS
330
2B3
102
}
330
2B3
100
AcDbScale
 70
     0
300
3/4" = 1'-0"
140
0.75
141
12.0
290
     0
  0
SCALE
  5
2D0
102
{ACAD_REACTORS
330
2B3
102
}
330
2B3
100
AcDbScale
 70
     0
300
1" = 1'-0"
140
1.0
141
12.0
290
     0
  0
SCALE
  5
2D1
102
{ACAD_REACTORS
330
2B3
102
}
330
2B3
100
AcDbScale
 70
     0
300
1-1/2" = 1'-0"
140
1.5
141
12.0
290
     0
  0
SCALE
  5
2D2
102
{ACAD_REACTORS
330
2B3
102
}
330
2B3
100
AcDbScale
 70
     0
300
3" = 1'-0"
140
3.0
141
12.0
290
     0
  0
SCALE
  5
2D3
102
{ACAD_REACTORS
330
2B3
102
}
330
2B3
100
AcDbScale
 70
     0
300
6" = 1'-0"
140
6.0
141
12.0
290
     0
  0
SCALE
  5
2D4
102
{ACAD_REACTORS
330
2B3
102
}
330
2B3
100
AcDbScale
 70
     0
300
1'-0" = 1'-0"
140
12.0
141
12.0
290
     0
  0
TABLESTYLE
  5
122
102
{ACAD_XDICTIONARY
360
2F5
102
}
102
{ACAD_REACTORS
330
121
102
}
330
121
100
AcDbTableStyle
  3
Standard
 70
     0
 71
     0
 40
1.5
 41
1.5
280
     0
281
     0
  7
STANDARD
140
4.5
170
     2
 62
     0
 63
     7
283
     0
 90
      512
 91
        0
  1

274
    -2
284
     1
 64
     0
275
    -2
285
     1
 65
     0
276
    -2
286
     1
 66
     0
277
    -2
287
     1
 67
     0
278
    -2
288
     1
 68
     0
279
    -2
289
     1
 69
     0
  7
STANDARD
140
6.0
170
     5
 62
     0
 63
     7
283
     0
 90
      512
 91
        0
  1

274
    -2
284
     1
 64
     0
275
    -2
285
     1
 65
     0
276
    -2
286
     1
 66
     0
277
    -2
287
     1
 67
     0
278
    -2
288
     1
 68
     0
279
    -2
289
     1
 69
     0
  7
STANDARD
140
4.5
170
     5
 62
     0
 63
     7
283
     0
 90
      512
 91
        0
  1

274
    -2
284
     1
 64
     0
275
    -2
285
     1
 65
     0
276
    -2
286
     1
 66
     0
277
    -2
287
     1
 67
     0
278
    -2
288
     1
 68
     0
279
    -2
289
     1
 69
     0
  0
VISUALSTYLE
  5
285
102
{ACAD_REACTORS
330
27F
102
}
330
27F
100
AcDbVisualStyle
  2
2dWireframe
 70
     4
 71
     0
 72
     2
 73
     0
 90
        0
 40
-0.6
 41
-30.0
 62
     5
 63
     7
421
 16777215
 74
     1
 91
        4
 64
     7
 65
   257
 75
     1
175
     1
 42
1.0
 92
        0
 66
   257
 43
1.0
 76
     1
 77
     6
 78
     2
 67
     7
 79
     5
170
     0
171
     0
290
     0
174
     0
 93
        1
 44
0.0
173
     0
291
     0
 45
0.0
  0
VISUALSTYLE
  5
287
102
{ACAD_REACTORS
330
27F
102
}
330
27F
100
AcDbVisualStyle
  2
3D Hidden
 70
     6
 71
     1
 72
     2
 73
     2
 90
        0
 40
-0.6
 41
-30.0
 62
     5
 63
     7
421
 16777215
 74
     2
 91
        2
 64
     7
 65
   257
 75
     2
175
     1
 42
40.0
 92
        0
 66
   257
 43
1.0
 76
     1
 77
     6
 78
     2
 67
     7
 79
     3
170
     0
171
     0
290
     0
174
     0
 93
        1
 44
0.0
173
     0
291
     0
 45
0.0
  0
VISUALSTYLE
  5
286
102
{ACAD_REACTORS
330
27F
102
}
330
27F
100
AcDbVisualStyle
  2
3dWireframe
 70
     5
 71
     0
 72
     2
 73
     0
 90
        0
 40
-0.6
 41
-30.0
 62
     5
 63
     7
421
 16777215
 74
     1
 91
        4
 64
     7
 65
   257
 75
     1
175
     1
 42
1.0
 92
        0
 66
   257
 43
1.0
 76
     1
 77
     6
 78
     2
 67
     7
 79
     5
170
     0
171
     0
290
     0
174
     0
 93
        1
 44
0.0
173
     0
291
     0
 45
0.0
  0
VISUALSTYLE
  5
284
102
{ACAD_REACTORS
330
27F
102
}
330
27F
100
AcDbVisualStyle
  2
Basic
 70
     7
 71
     1
 72
     0
 73
     1
 90
        0
 40
-0.6
 41
-30.0
 62
     5
 63
     7
421
 16777215
 74
     0
 91
        4
 64
     7
 65
   257
 75
     1
175
     1
 42
1.0
 92
        8
 66
     7
 43
1.0
 76
     1
 77
     6
 78
     2
 67
     7
 79
     5
170
     0
171
     0
290
     0
174
     0
 93
        1
 44
0.0
173
     0
291
     1
 45
0.0
  0
VISUALSTYLE
  5
28B
102
{ACAD_REACTORS
330
27F
102
}
330
27F
100
AcDbVisualStyle
  2
Brighten
 70
    12
 71
     2
 72
     2
 73
     0
 90
        0
 40
-0.6
 41
-30.0
 62
     5
 63
     7
421
 16777215
 74
     1
 91
        4
 64
     7
 65
   257
 75
     1
175
     1
 42
1.0
 92
        8
 66
     7
 43
1.0
 76
     1
 77
     6
 78
     2
 67
     7
 79
     5
170
     0
171
     0
290
     0
174
     0
 93
        1
 44
50.0
173
     0
291
     1
 45
0.0
  0
VISUALSTYLE
  5
28F
102
{ACAD_REACTORS
330
27F
102
}
330
27F
100
AcDbVisualStyle
  2
ColorChange
 70
    16
 71
     2
 72
     2
 73
     3
 90
        0
 40
-0.6
 41
-30.0
 62
     5
 63
     8
421
  8421504
 74
     1
 91
        4
 64
     7
 65
   257
 75
     1
175
     1
 42
1.0
 92
        8
 66
     8
424
  8421504
 43
1.0
 76
     1
 77
     6
 78
     2
 67
     7
 79
     5
170
     0
171
     0
290
     0
174
     0
 93
        1
 44
0.0
173
     0
291
     1
 45
0.0
  0
VISUALSTYLE
  5
288
102
{ACAD_REACTORS
330
27F
102
}
330
27F
100
AcDbVisualStyle
  2
Conceptual
 70
     9
 71
     3
 72
     2
 73
     0
 90
        0
 40
-0.6
 41
-30.0
 62
     5
 63
     7
421
 16777215
 74
     2
 91
        2
 64
     7
 65
   257
 75
     1
175
     1
 42
40.0
 92
        8
 66
     7
 43
1.0
 76
     1
 77
     6
 78
     2
 67
     7
 79
     3
170
     0
171
     0
290
     0
174
     0
 93
        1
 44
0.0
173
     0
291
     0
 45
0.0
  0
VISUALSTYLE
  5
28A
102
{ACAD_REACTORS
330
27F
102
}
330
27F
100
AcDbVisualStyle
  2
Dim
 70
    11
 71
     2
 72
     2
 73
     0
 90
        0
 40
-0.6
 41
-30.0
 62
     5
 63
     7
421
 16777215
 74
     1
 91
        4
 64
     7
 65
   257
 75
     1
175
     1
 42
1.0
 92
        8
 66
     7
 43
1.0
 76
     1
 77
     6
 78
     2
 67
     7
 79
     5
170
     0
171
     0
290
     0
174
     0
 93
        1
 44
-50.0
173
     0
291
     1
 45
0.0
  0
VISUALSTYLE
  5
28E
102
{ACAD_REACTORS
330
27F
102
}
330
27F
100
AcDbVisualStyle
  2
Facepattern
 70
    15
 71
     2
 72
     2
 73
     0
 90
        0
 40
-0.6
 41
-30.0
 62
     5
 63
     7
421
 16777215
 74
     1
 91
        4
 64
     7
 65
   257
 75
     1
175
     1
 42
1.0
 92
        8
 66
     7
 43
1.0
 76
     1
 77
     6
 78
     2
 67
     7
 79
     5
170
     0
171
     0
290
     0
174
     0
 93
        1
 44
0.0
173
     0
291
     1
 45
0.0
  0
VISUALSTYLE
  5
280
102
{ACAD_REACTORS
330
27F
102
}
330
27F
100
AcDbVisualStyle
  2
Flat
 70
     0
 71
     2
 72
     1
 73
     1
 90
        2
 40
-0.6
 41
30.0
 62
     5
 63
     7
421
 16777215
 74
     0
 91
        4
 64
     7
 65
   257
 75
     1
175
     1
 42
1.0
 92
        8
 66
     7
 43
1.0
 76
     1
 77
     6
 78
     2
 67
     7
 79
     5
170
     0
171
     0
290
     0
174
     0
 93
       13
 44
0.0
173
     0
291
     1
 45
0.0
  0
VISUALSTYLE
  5
281
102
{ACAD_REACTORS
330
27F
102
}
330
27F
100
AcDbVisualStyle
  2
FlatWithEdges
 70
     1
 71
     2
 72
     1
 73
     1
 90
        2
 40
-0.6
 41
30.0
 62
     5
 63
     7
421
 16777215
 74
     1
 91
        4
 64
     7
 65
   257
 75
     1
175
     1
 42
1.0
 92
        0
 66
   257
 43
1.0
 76
     1
 77
     6
 78
     2
 67
     7
 79
     5
170
     0
171
     0
290
     0
174
     0
 93
       13
 44
0.0
173
     0
291
     1
 45
0.0
  0
VISUALSTYLE
  5
282
102
{ACAD_REACTORS
330
27F
102
}
330
27F
100
AcDbVisualStyle
  2
Gouraud
 70
     2
 71
     2
 72
     2
 73
     1
 90
        2
 40
-0.6
 41
30.0
 62
     5
 63
     7
421
 16777215
 74
     0
 91
        4
 64
     7
 65
   257
 75
     1
175
     1
 42
1.0
 92
        0
 66
     7
 43
1.0
 76
     1
 77
     6
 78
     2
 67
     7
 79
     5
170
     0
171
     0
290
     0
174
     0
 93
       13
 44
0.0
173
     0
291
     1
 45
0.0
  0
VISUALSTYLE
  5
283
102
{ACAD_REACTORS
330
27F
102
}
330
27F
100
AcDbVisualStyle
  2
GouraudWithEdges
 70
     3
 71
     2
 72
     2
 73
     1
 90
        2
 40
-0.6
 41
30.0
 62
     5
 63
     7
421
 16777215
 74
     1
 91
        4
 64
     7
 65
   257
 75
     1
175
     1
 42
1.0
 92
        0
 66
   257
 43
1.0
 76
     1
 77
     6
 78
     2
 67
     7
 79
     5
170
     0
171
     0
290
     0
174
     0
 93
       13
 44
0.0
173
     0
291
     1
 45
0.0
  0
VISUALSTYLE
  5
28D
102
{ACAD_REACTORS
330
27F
102
}
330
27F
100
AcDbVisualStyle
  2
Linepattern
 70
    14
 71
     2
 72
     2
 73
     0
 90
        0
 40
-0.6
 41
-30.0
 62
     5
 63
     7
421
 16777215
 74
     1
 91
        4
 64
     7
 65
   257
 75
     7
175
     7
 42
1.0
 92
        8
 66
     7
 43
1.0
 76
     1
 77
     6
 78
     2
 67
     7
 79
     5
170
     0
171
     0
290
     0
174
     0
 93
        1
 44
0.0
173
     0
291
     1
 45
0.0
  0
VISUALSTYLE
  5
289
102
{ACAD_REACTORS
330
27F
102
}
330
27F
100
AcDbVisualStyle
  2
Realistic
 70
     8
 71
     2
 72
     2
 73
     0
 90
        0
 40
-0.6
 41
-30.0
 62
     5
 63
     7
421
 16777215
 74
     1
 91
        0
 64
     7
 65
   257
 75
     1
175
     1
 42
1.0
 92
        8
 66
     8
424
  7895160
 43
1.0
 76
     1
 77
     6
 78
     2
 67
     7
 79
     5
170
     0
171
     0
290
     0
174
     0
 93
       13
 44
0.0
173
     0
291
     0
 45
0.0
  0
VISUALSTYLE
  5
28C
102
{ACAD_REACTORS
330
27F
102
}
330
27F
100
AcDbVisualStyle
  2
Thicken
 70
    13
 71
     2
 72
     2
 73
     0
 90
        0
 40
-0.6
 41
-30.0
 62
     5
 63
     7
421
 16777215
 74
     1
 91
        4
 64
     7
 65
   257
 75
     1
175
     1
 42
1.0
 92
       12
 66
     7
 43
1.0
 76
     1
 77
     6
 78
     2
 67
     7
 79
     5
170
     0
171
     0
290
     0
174
     0
 93
        1
 44
0.0
173
     0
291
     1
 45
0.0
  0
DICTIONARYVAR
  5
2FA
102
{ACAD_REACTORS
330
34
102
}
330
34
100
DictionaryVariables
280
     0
  1
1:2.5
  0
DICTIONARYVAR
  5
2F8
102
{ACAD_REACTORS
330
34
102
}
330
34
100
DictionaryVariables
280
     0
  1
STANDARD
  0
DICTIONARYVAR
  5
140
102
{ACAD_REACTORS
330
34
102
}
330
34
100
DictionaryVariables
280
     0
  1
STANDARD
  0
DICTIONARYVAR
  5
AC
102
{ACAD_REACTORS
330
34
102
}
330
34
100
DictionaryVariables
280
     0
  1
1
  0
DICTIONARYVAR
  5
35
102
{ACAD_REACTORS
330
34
102
}
330
34
100
DictionaryVariables
280
     0
  1
1
  0
DICTIONARYVAR
  5
8150
102
{ACAD_REACTORS
330
34
102
}
330
34
100
DictionaryVariables
280
     0
  1
1
  0
DICTIONARYVAR
  5
8151
102
{ACAD_REACTORS
330
34
102
}
330
34
100
DictionaryVariables
280
     0
  1
15
  0
DICTIONARYVAR
  5
2FB
102
{ACAD_REACTORS
330
34
102
}
330
34
100
DictionaryVariables
280
     0
  1
0
  0
DICTIONARYVAR
  5
2F9
102
{ACAD_REACTORS
330
34
102
}
330
34
100
DictionaryVariables
280
     0
  1
0
  0
DICTIONARY
  5
161B
102
{ACAD_REACTORS
330
49
102
}
330
49
100
AcDbDictionary
281
     1
  0
DICTIONARY
  5
4A
102
{ACAD_REACTORS
330
49
102
}
330
49
100
AcDbDictionary
281
     1
  0
XRECORD
  5
12B
102
{ACAD_REACTORS
330
49
102
}
330
49
100
AcDbXrecord
280
     1
 90
-1023410169
  0
DICTIONARY
  5
2F5
330
122
100
AcDbDictionary
280
     1
281
     1
  3
ACAD_ROUNDTRIP_2008_TABLESTYLE_CELLSTYLEMAP
360
B4B1
  0
CELLSTYLEMAP
  5
B4B1
102
{ACAD_REACTORS
330
2F5
102
}
330
2F5
100
AcDbCellStyleMap
 90
        3
300
CELLSTYLE
  1
TABLEFORMAT_BEGIN
 90
        5
170
     1
 91
        0
 92
    32768
 62
   257
 93
        1
300
CONTENTFORMAT
  1
CONTENTFORMAT_BEGIN
 90
        0
 91
        0
 92
      512
 93
        0
300

 40
0.0
140
1.0
 94
        5
 62
     0
340
11
144
6.0
309
CONTENTFORMAT_END
171
     1
301
MARGIN
  1
CELLMARGIN_BEGIN
 40
1.5
 40
1.5
 40
1.5
 40
1.5
 40
0.18
 40
0.18
309
CELLMARGIN_END
 94
        6
 95
        1
302
GRIDFORMAT
  1
GRIDFORMAT_BEGIN
 90
        0
 91
        1
 62
     0
 92
       -2
340
0
 93
        0
 40
0.045
309
GRIDFORMAT_END
 95
        2
302
GRIDFORMAT
  1
GRIDFORMAT_BEGIN
 90
        0
 91
        1
 62
     0
 92
       -2
340
0
 93
        0
 40
0.045
309
GRIDFORMAT_END
 95
        4
302
GRIDFORMAT
  1
GRIDFORMAT_BEGIN
 90
        0
 91
        1
 62
     0
 92
       -2
340
0
 93
        0
 40
0.045
309
GRIDFORMAT_END
 95
        8
302
GRIDFORMAT
  1
GRIDFORMAT_BEGIN
 90
        0
 91
        1
 62
     0
 92
       -2
340
0
 93
        0
 40
0.045
309
GRIDFORMAT_END
 95
       16
302
GRIDFORMAT
  1
GRIDFORMAT_BEGIN
 90
        0
 91
        1
 62
     0
 92
       -2
340
0
 93
        0
 40
0.045
309
GRIDFORMAT_END
 95
       32
302
GRIDFORMAT
  1
GRIDFORMAT_BEGIN
 90
        0
 91
        1
 62
     0
 92
       -2
340
0
 93
        0
 40
0.045
309
GRIDFORMAT_END
309
TABLEFORMAT_END
  1
CELLSTYLE_BEGIN
 90
        1
 91
        1
300
_TITLE
309
CELLSTYLE_END
300
CELLSTYLE
  1
TABLEFORMAT_BEGIN
 90
        5
170
     1
 91
        0
 92
        0
 62
   257
 93
        1
300
CONTENTFORMAT
  1
CONTENTFORMAT_BEGIN
 90
        0
 91
        0
 92
      512
 93
        0
300

 40
0.0
140
1.0
 94
        5
 62
     0
340
11
144
4.5
309
CONTENTFORMAT_END
171
     1
301
MARGIN
  1
CELLMARGIN_BEGIN
 40
1.5
 40
1.5
 40
1.5
 40
1.5
 40
0.18
 40
0.18
309
CELLMARGIN_END
 94
        6
 95
        1
302
GRIDFORMAT
  1
GRIDFORMAT_BEGIN
 90
        0
 91
        1
 62
     0
 92
       -2
340
0
 93
        0
 40
0.045
309
GRIDFORMAT_END
 95
        2
302
GRIDFORMAT
  1
GRIDFORMAT_BEGIN
 90
        0
 91
        1
 62
     0
 92
       -2
340
0
 93
        0
 40
0.045
309
GRIDFORMAT_END
 95
        4
302
GRIDFORMAT
  1
GRIDFORMAT_BEGIN
 90
        0
 91
        1
 62
     0
 92
       -2
340
0
 93
        0
 40
0.045
309
GRIDFORMAT_END
 95
        8
302
GRIDFORMAT
  1
GRIDFORMAT_BEGIN
 90
        0
 91
        1
 62
     0
 92
       -2
340
0
 93
        0
 40
0.045
309
GRIDFORMAT_END
 95
       16
302
GRIDFORMAT
  1
GRIDFORMAT_BEGIN
 90
        0
 91
        1
 62
     0
 92
       -2
340
0
 93
        0
 40
0.045
309
GRIDFORMAT_END
 95
       32
302
GRIDFORMAT
  1
GRIDFORMAT_BEGIN
 90
        0
 91
        1
 62
     0
 92
       -2
340
0
 93
        0
 40
0.045
309
GRIDFORMAT_END
309
TABLEFORMAT_END
  1
CELLSTYLE_BEGIN
 90
        2
 91
        1
300
_HEADER
309
CELLSTYLE_END
300
CELLSTYLE
  1
TABLEFORMAT_BEGIN
 90
        5
170
     1
 91
        0
 92
        0
 62
   257
 93
        1
300
CONTENTFORMAT
  1
CONTENTFORMAT_BEGIN
 90
        0
 91
        0
 92
      512
 93
        0
300

 40
0.0
140
1.0
 94
        2
 62
     0
340
11
144
4.5
309
CONTENTFORMAT_END
171
     1
301
MARGIN
  1
CELLMARGIN_BEGIN
 40
1.5
 40
1.5
 40
1.5
 40
1.5
 40
0.18
 40
0.18
309
CELLMARGIN_END
 94
        6
 95
        1
302
GRIDFORMAT
  1
GRIDFORMAT_BEGIN
 90
        0
 91
        1
 62
     0
 92
       -2
340
0
 93
        0
 40
0.045
309
GRIDFORMAT_END
 95
        2
302
GRIDFORMAT
  1
GRIDFORMAT_BEGIN
 90
        0
 91
        1
 62
     0
 92
       -2
340
0
 93
        0
 40
0.045
309
GRIDFORMAT_END
 95
        4
302
GRIDFORMAT
  1
GRIDFORMAT_BEGIN
 90
        0
 91
        1
 62
     0
 92
       -2
340
0
 93
        0
 40
0.045
309
GRIDFORMAT_END
 95
        8
302
GRIDFORMAT
  1
GRIDFORMAT_BEGIN
 90
        0
 91
        1
 62
     0
 92
       -2
340
0
 93
        0
 40
0.045
309
GRIDFORMAT_END
 95
       16
302
GRIDFORMAT
  1
GRIDFORMAT_BEGIN
 90
        0
 91
        1
 62
     0
 92
       -2
340
0
 93
        0
 40
0.045
309
GRIDFORMAT_END
 95
       32
302
GRIDFORMAT
  1
GRIDFORMAT_BEGIN
 90
        0
 91
        1
 62
     0
 92
       -2
340
0
 93
        0
 40
0.045
309
GRIDFORMAT_END
309
TABLEFORMAT_END
  1
CELLSTYLE_BEGIN
 90
        3
 91
        2
300
_DATA
309
CELLSTYLE_END
  0
ENDSEC
  0
EOF
