  0
SECTION
  2
HEADER
  9
$ACADVER
  1
AC1021
  9
$ACADMAINTVER
 70
    26
  9
$DWGCODEPAGE
  3
ANSI_932
  9
$LASTSAVEDBY
  1
Htm_Terada
  9
$CUSTOMPROPERTYTAG
  1
AmdtFileType
  9
$CUSTOMPROPERTY
  1
84
  9
$INSBASE
 10
0.0
 20
0.0
 30
0.0
  9
$EXTMIN
 10
270.6698498825126
 20
393.8998150846959
 30
0.0
  9
$EXTMAX
 10
856.2303636354922
 20
638.074497522196
 30
0.0
  9
$LIMMIN
 10
0.0000004785846386
 20
0.0000009234551612
  9
$LIMMAX
 10
1050.000000478584
 20
742.5000009234552
  9
$ORTHOMODE
 70
     0
  9
$REGENMODE
 70
     1
  9
$FILLMODE
 70
     1
  9
$QTEXTMODE
 70
     0
  9
$MIRRTEXT
 70
     1
  9
$LTSCALE
 40
2.5
  9
$ATTMODE
 70
     1
  9
$TEXTSIZE
 40
25.0
  9
$TRACEWID
 40
1.0
  9
$TEXTSTYLE
  7
SEISA
  9
$CLAYER
  8
AM_0 外形線1
  9
$CELTYPE
  6
ByLayer
  9
$CECOLOR
 62
   256
  9
$CELTSCALE
 40
1.0
  9
$DISPSILH
 70
     0
  9
$DIMSCALE
 40
2.5
  9
$DIMASZ
 40
2.5
  9
$DIMEXO
 40
0.625
  9
$DIMDLI
 40
10.0
  9
$DIMRND
 40
0.0
  9
$DIMDLE
 40
0.0
  9
$DIMEXE
 40
0.625
  9
$DIMTP
 40
0.1
  9
$DIMTM
 40
0.1
  9
$DIMTXT
 40
3.5
  9
$DIMCEN
 40
0.0
  9
$DIMTSZ
 40
0.0
  9
$DIMTOL
 70
     0
  9
$DIMLIM
 70
     0
  9
$DIMTIH
 70
     0
  9
$DIMTOH
 70
     0
  9
$DIMSE1
 70
     0
  9
$DIMSE2
 70
     0
  9
$DIMTAD
 70
     3
  9
$DIMZIN
 70
     8
  9
$DIMBLK
  1
Open30
  9
$DIMASO
 70
     1
  9
$DIMSHO
 70
     1
  9
$DIMPOST
  1

  9
$DIMAPOST
  1
"
  9
$DIMALT
 70
     0
  9
$DIMALTD
 70
     2
  9
$DIMALTF
 40
0.0393701
  9
$DIMLFAC
 40
1.0
  9
$DIMTOFL
 70
     1
  9
$DIMTVP
 40
0.0
  9
$DIMTIX
 70
     0
  9
$DIMSOXD
 70
     0
  9
$DIMSAH
 70
     0
  9
$DIMBLK1
  1

  9
$DIMBLK2
  1

  9
$DIMSTYLE
  2
SEISA
  9
$DIMCLRD
 70
     3
  9
$DIMCLRE
 70
     3
  9
$DIMCLRT
 70
     3
  9
$DIMTFAC
 40
0.71
  9
$DIMGAP
 40
1.5
  9
$DIMJUST
 70
     0
  9
$DIMSD1
 70
     0
  9
$DIMSD2
 70
     0
  9
$DIMTOLJ
 70
     0
  9
$DIMTZIN
 70
     0
  9
$DIMALTZ
 70
     0
  9
$DIMALTTZ
 70
     8
  9
$DIMUPT
 70
     0
  9
$DIMDEC
 70
     2
  9
$DIMTDEC
 70
     2
  9
$DIMALTU
 70
     2
  9
$DIMALTTD
 70
     2
  9
$DIMTXSTY
  7
SEISA
  9
$DIMAUNIT
 70
     0
  9
$DIMADEC
 70
     0
  9
$DIMALTRND
 40
0.0
  9
$DIMAZIN
 70
     2
  9
$DIMDSEP
 70
    46
  9
$DIMATFIT
 70
     3
  9
$DIMFRAC
 70
     0
  9
$DIMLDRBLK
  1
Open30
  9
$DIMLUNIT
 70
     2
  9
$DIMLWD
 70
    -1
  9
$DIMLWE
 70
    -1
  9
$DIMTMOVE
 70
     0
  9
$DIMFXL
 40
1.0
  9
$DIMFXLON
 70
     0
  9
$DIMJOGANG
 40
0.7853981633974483
  9
$DIMTFILL
 70
     0
  9
$DIMTFILLCLR
 70
     0
  9
$DIMARCSYM
 70
     1
  9
$DIMLTYPE
  6

  9
$DIMLTEX1
  6

  9
$DIMLTEX2
  6

  9
$LUNITS
 70
     2
  9
$LUPREC
 70
     2
  9
$SKETCHINC
 40
1.0
  9
$FILLETRAD
 40
10.0
  9
$AUNITS
 70
     0
  9
$AUPREC
 70
     0
  9
$MENU
  1
.
  9
$ELEVATION
 40
0.0
  9
$PELEVATION
 40
0.0
  9
$THICKNESS
 40
0.0
  9
$LIMCHECK
 70
     0
  9
$CHAMFERA
 40
0.9999999999998864
  9
$CHAMFERB
 40
1.0
  9
$CHAMFERC
 40
0.9999999999998864
  9
$CHAMFERD
 40
0.7853981633974199
  9
$SKPOLY
 70
     0
  9
$TDCREATE
 40
2454961.765307940
  9
$TDUCREATE
 40
2454961.390307940
  9
$TDUPDATE
 40
2456479.581553275
  9
$TDUUPDATE
 40
2456479.206553275
  9
$TDINDWG
 40
0.3433198727
  9
$TDUSRTIMER
 40
0.3433193287
  9
$USRTIMER
 70
     1
  9
$ANGBASE
 50
0.0
  9
$ANGDIR
 70
     0
  9
$PDMODE
 70
     0
  9
$PDSIZE
 40
0.0
  9
$PLINEWID
 40
0.0
  9
$SPLFRAME
 70
     0
  9
$SPLINETYPE
 70
     6
  9
$SPLINESEGS
 70
     8
  9
$HANDSEED
  5
9D77
  9
$SURFTAB1
 70
     6
  9
$SURFTAB2
 70
     6
  9
$SURFTYPE
 70
     6
  9
$SURFU
 70
     6
  9
$SURFV
 70
     6
  9
$UCSBASE
  2

  9
$UCSNAME
  2

  9
$UCSORG
 10
0.0
 20
0.0
 30
0.0
  9
$UCSXDIR
 10
1.0
 20
0.0
 30
0.0
  9
$UCSYDIR
 10
0.0
 20
1.0
 30
0.0
  9
$UCSORTHOREF
  2

  9
$UCSORTHOVIEW
 70
     0
  9
$UCSORGTOP
 10
0.0
 20
0.0
 30
0.0
  9
$UCSORGBOTTOM
 10
0.0
 20
0.0
 30
0.0
  9
$UCSORGLEFT
 10
0.0
 20
0.0
 30
0.0
  9
$UCSORGRIGHT
 10
0.0
 20
0.0
 30
0.0
  9
$UCSORGFRONT
 10
0.0
 20
0.0
 30
0.0
  9
$UCSORGBACK
 10
0.0
 20
0.0
 30
0.0
  9
$PUCSBASE
  2

  9
$PUCSNAME
  2

  9
$PUCSORG
 10
0.0
 20
0.0
 30
0.0
  9
$PUCSXDIR
 10
1.0
 20
0.0
 30
0.0
  9
$PUCSYDIR
 10
0.0
 20
1.0
 30
0.0
  9
$PUCSORTHOREF
  2

  9
$PUCSORTHOVIEW
 70
     0
  9
$PUCSORGTOP
 10
0.0
 20
0.0
 30
0.0
  9
$PUCSORGBOTTOM
 10
0.0
 20
0.0
 30
0.0
  9
$PUCSORGLEFT
 10
0.0
 20
0.0
 30
0.0
  9
$PUCSORGRIGHT
 10
0.0
 20
0.0
 30
0.0
  9
$PUCSORGFRONT
 10
0.0
 20
0.0
 30
0.0
  9
$PUCSORGBACK
 10
0.0
 20
0.0
 30
0.0
  9
$USERI1
 70
     0
  9
$USERI2
 70
     0
  9
$USERI3
 70
     0
  9
$USERI4
 70
     0
  9
$USERI5
 70
     0
  9
$USERR1
 40
0.0
  9
$USERR2
 40
0.0
  9
$USERR3
 40
0.0
  9
$USERR4
 40
0.0
  9
$USERR5
 40
0.0
  9
$WORLDVIEW
 70
     1
  9
$SHADEDGE
 70
     3
  9
$SHADEDIF
 70
    70
  9
$TILEMODE
 70
     1
  9
$MAXACTVP
 70
    64
  9
$PINSBASE
 10
0.0
 20
0.0
 30
0.0
  9
$PLIMCHECK
 70
     0
  9
$PEXTMIN
 10
1.000000000000000E+20
 20
1.000000000000000E+20
 30
1.000000000000000E+20
  9
$PEXTMAX
 10
-1.000000000000000E+20
 20
-1.000000000000000E+20
 30
-1.000000000000000E+20
  9
$PLIMMIN
 10
0.0
 20
0.0
  9
$PLIMMAX
 10
420.0
 20
297.0
  9
$UNITMODE
 70
     0
  9
$VISRETAIN
 70
     1
  9
$PLINEGEN
 70
     0
  9
$PSLTSCALE
 70
     1
  9
$TREEDEPTH
 70
  3020
  9
$CMLSTYLE
  2
Standard
  9
$CMLJUST
 70
     0
  9
$CMLSCALE
 40
20.0
  9
$PROXYGRAPHICS
 70
     1
  9
$MEASUREMENT
 70
     1
  9
$CELWEIGHT
370
    -1
  9
$ENDCAPS
280
     0
  9
$JOINSTYLE
280
     0
  9
$LWDISPLAY
290
     0
  9
$INSUNITS
 70
     4
  9
$HYPERLINKBASE
  1

  9
$STYLESHEET
  1
SEISA.CTB
  9
$XEDIT
290
     1
  9
$CEPSNTYPE
380
     0
  9
$PSTYLEMODE
290
     1
  9
$FINGERPRINTGUID
  2
{1212D20E-DAFF-4A8B-8994-6D1982577466}
  9
$VERSIONGUID
  2
{290E7117-39A0-4894-8AFC-64664865F7B9}
  9
$EXTNAMES
290
     1
  9
$PSVPSCALE
 40
0.0
  9
$OLESTARTUP
290
     0
  9
$SORTENTS
280
   127
  9
$INDEXCTL
280
     0
  9
$HIDETEXT
280
     0
  9
$XCLIPFRAME
290
     0
  9
$HALOGAP
280
     0
  9
$OBSCOLOR
 70
   257
  9
$OBSLTYPE
280
     0
  9
$INTERSECTIONDISPLAY
280
     0
  9
$INTERSECTIONCOLOR
 70
   257
  9
$DIMASSOC
280
     2
  9
$PROJECTNAME
  1

  9
$CAMERADISPLAY
290
     0
  9
$LENSLENGTH
 40
50.0
  9
$CAMERAHEIGHT
 40
0.0
  9
$STEPSPERSEC
 40
2.0
  9
$STEPSIZE
 40
6.0
  9
$3DDWFPREC
 40
2.0
  9
$PSOLWIDTH
 40
0.25
  9
$PSOLHEIGHT
 40
4.0
  9
$LOFTANG1
 40
1.570796326794896
  9
$LOFTANG2
 40
1.570796326794896
  9
$LOFTMAG1
 40
0.0
  9
$LOFTMAG2
 40
0.0
  9
$LOFTPARAM
 70
     7
  9
$LOFTNORMALS
280
     1
  9
$LATITUDE
 40
37.795
  9
$LONGITUDE
 40
-122.394
  9
$NORTHDIRECTION
 40
0.0
  9
$TIMEZONE
 70
 -8000
  9
$LIGHTGLYPHDISPLAY
280
     1
  9
$TILEMODELIGHTSYNCH
280
     1
  9
$CMATERIAL
347
27C
  9
$SOLIDHIST
280
     1
  9
$SHOWHIST
280
     1
  9
$DWFFRAME
280
     2
  9
$DGNFRAME
280
     0
  9
$REALWORLDSCALE
290
     1
  9
$INTERFERECOLOR
 62
     1
  9
$INTERFEREOBJVS
345
289
  9
$INTERFEREVPVS
346
286
  9
$CSHADOW
280
     0
  9
$SHADOWPLANELOCATION
 40
0.0
  0
ENDSEC
  0
SECTION
  2
CLASSES
  0
CLASS
  1
ACDBDICTIONARYWDFLT
  2
AcDbDictionaryWithDefault
  3
ObjectDBX Classes
 90
        0
 91
        1
280
     0
281
     0
  0
CLASS
  1
AMGSETTINGSOBJ
  2
AmgSettingsObj
  3
"AcadM|Product Description: AutoCAD Mechanical|Company: Autodesk, Inc."
 90
     1024
 91
        2
280
     0
281
     0
  0
CLASS
  1
ACME_DOCUMENT
  2
AcMeDbDoc
  3
AcMeServices
 90
     1024
 91
        1
280
     0
281
     0
  0
CLASS
  1
ACMESCOPE
  2
AcMeScope
  3
AcMeServices
 90
     1024
 91
        1
280
     0
281
     0
  0
CLASS
  1
ACMECOMMANDHISTORY
  2
AcMeCommandHistory
  3
AcMeServices
 90
     1024
 91
        1
280
     0
281
     0
  0
CLASS
  1
DICTIONARYVAR
  2
AcDbDictionaryVar
  3
ObjectDBX Classes
 90
        0
 91
        9
280
     0
281
     0
  0
CLASS
  1
ACIMSYSVARMAN
  2
AcImSysVarManager
  3
AcMeServices
 90
     1024
 91
        5
280
     0
281
     0
  0
CLASS
  1
ACIMREALSYSVAR
  2
AcImRealSysVar
  3
AcMeServices
 90
     1024
 91
        1
280
     0
281
     0
  0
CLASS
  1
ACIMINTSYSVAR
  2
AcImIntSysVar
  3
AcMeServices
 90
     1024
 91
       27
280
     0
281
     0
  0
CLASS
  1
ACMEDRAWINGMAN
  2
AcMeDrawingMan
  3
AcMeServices
 90
     1024
 91
        1
280
     0
281
     0
  0
CLASS
  1
ACMEVIEW
  2
AcMeView
  3
AcMeServices
 90
     1024
 91
        1
280
     0
281
     0
  0
CLASS
  1
ACDBENTITYCACHE
  2
AcMeEntityCache
  3
AcMeServices
 90
     1024
 91
        1
280
     0
281
     0
  0
CLASS
  1
GSMANAGER
  2
AcMeGSManager
  3
AcMeServices
 90
     1024
 91
        1
280
     0
281
     0
  0
CLASS
  1
AMDTINTERNALREACTOR
  2
AmdtInternalReactor
  3
AcMeServices
 90
     1024
 91
        2
280
     0
281
     0
  0
CLASS
  1
ACMESTATEMGR
  2
AcMeStateMgr
  3
AcMeServices
 90
     1024
 91
        1
280
     0
281
     0
  0
CLASS
  1
ACGREFMASTER
  2
AcGrefMaster
  3
AcAttribServices
 90
     1024
 91
        1
280
     0
281
     0
  0
CLASS
  1
ACME_DATABASE
  2
AcMeDbDatabase
  3
AcMeServices
 90
     1024
 91
        1
280
     0
281
     0
  0
CLASS
  1
ACRFINSADJUSTERMGR
  2
AcRfInsAdjusterMgr
  3
AcMeServices
 90
     1024
 91
        1
280
     0
281
     0
  0
CLASS
  1
ACGREFACADMASTER
  2
AcGrefacadMaster
  3
AcGrefServices
 90
     1024
 91
        1
280
     0
281
     0
  0
CLASS
  1
AMIMASTER
  2
AmiMaster
  3
AmiServices
 90
     1024
 91
        1
280
     0
281
     0
  0
CLASS
  1
ACIMSTRSYSVAR
  2
AcImStrSysVar
  3
AcMeServices
 90
     1024
 91
        5
280
     0
281
     0
  0
CLASS
  1
ACMSTANDARDJIS
  2
AcmStandardJIS
  3
"Amdt_StdImp|Product Description: AutoCAD Mechanical|Company: Autodesk, Inc."
 90
     1024
 91
        0
280
     0
281
     0
  0
CLASS
  1
AMGOBJPROPCFG
  2
AmgObjPropCfg
  3
"AmgLay|Product Description: AutoCAD Mechanical|Company: Autodesk, Inc."
 90
     1025
 91
        1
280
     0
281
     0
  0
CLASS
  1
ACMSURFSTANDARDJIS
  2
AcmSurfTextStdJIS
  3
"Amdt_StdImp|Product Description: AutoCAD Mechanical|Company: Autodesk, Inc."
 90
     1024
 91
        0
280
     0
281
     0
  0
CLASS
  1
ACMFCFSTANDARDJIS
  2
AcmFCFStdJIS
  3
"Amdt_StdImp|Product Description: AutoCAD Mechanical|Company: Autodesk, Inc."
 90
     1024
 91
        0
280
     0
281
     0
  0
CLASS
  1
ACMWELDSTANDARDJIS
  2
AcmWeldingStdJIS
  3
"Amdt_StdImp|Product Description: AutoCAD Mechanical|Company: Autodesk, Inc."
 90
     1024
 91
        0
280
     0
281
     0
  0
CLASS
  1
ACMIDSTANDARDJIS
  2
AcmIdStdJIS
  3
"Amdt_StdImp|Product Description: AutoCAD Mechanical|Company: Autodesk, Inc."
 90
     1024
 91
        0
280
     0
281
     0
  0
CLASS
  1
ACMDATUMSTANDARDJIS
  2
AcmDatumStdJIS
  3
"Amdt_StdImp|Product Description: AutoCAD Mechanical|Company: Autodesk, Inc."
 90
     1024
 91
        0
280
     0
281
     0
  0
CLASS
  1
ACMBOMSTANDARDJIS
  2
AcmBOMStdJIS
  3
"Amdt_StdImp|Product Description: AutoCAD Mechanical|Company: Autodesk, Inc."
 90
     1024
 91
        0
280
     0
281
     0
  0
CLASS
  1
ACMDETAILSTANDARDJIS
  2
AmdtDetailSymStdJIS
  3
"Amdt_StdImp|Product Description: AutoCAD Mechanical|Company: Autodesk, Inc."
 90
     1024
 91
        0
280
     0
281
     0
  0
CLASS
  1
ACMSECTIONSTANDARDJIS
  2
AmdtSectionSymStdJIS
  3
"Amdt_StdImp|Product Description: AutoCAD Mechanical|Company: Autodesk, Inc."
 90
     1024
 91
        0
280
     0
281
     0
  0
CLASS
  1
ACMCENTERLINESTANDARDJIS
  2
AmdtCenterLineStdJIS
  3
"Amdt_StdImp|Product Description: AutoCAD Mechanical|Company: Autodesk, Inc."
 90
     1024
 91
        0
280
     0
281
     0
  0
CLASS
  1
ACMTHREADLINESTANDARDJIS
  2
AmdtThreadLineStdJIS
  3
"Amdt_StdImp|Product Description: AutoCAD Mechanical|Company: Autodesk, Inc."
 90
     1024
 91
        0
280
     0
281
     0
  0
CLASS
  1
ACAMGLAYSTD
  2
AcAmgLayStd
  3
"AmgLay|Product Description: AutoCAD Mechanical|Company: Autodesk, Inc."
 90
     1024
 91
        1
280
     0
281
     0
  0
CLASS
  1
ACAMGDIMSTD
  2
AcAmgDimStd
  3
"AmgDim|Product Description: AutoCAD Mechanical|Company: Autodesk, Inc."
 90
     1024
 91
        1
280
     0
281
     0
  0
CLASS
  1
ACAMGTITLESTD
  2
AcAmgTitleStd
  3
"AmgTitle|Product Description: AutoCAD Mechanical|Company: Autodesk, Inc."
 90
     4095
 91
        1
280
     0
281
     0
  0
CLASS
  1
ACMDATADICTIONARY
  2
AcmDataDictionary
  3
"AcmSymBB|Product Description: AutoCAD Mechanical|Company: Autodesk, Inc."
 90
     1024
 91
        1
280
     0
281
     0
  0
CLASS
  1
ACMDATAENTRYBLOCK
  2
AcmDataEntryBlock
  3
AcmSymBB|Product Description: AutoCAD Mechanical|Company: Autodesk, Inc.
 90
     1024
 91
        0
280
     0
281
     0
  0
CLASS
  1
LAYER_INDEX
  2
AcDbLayerIndex
  3
ObjectDBX Classes
 90
        0
 91
        0
280
     0
281
     0
  0
CLASS
  1
IDBUFFER
  2
AcDbIdBuffer
  3
ObjectDBX Classes
 90
        0
 91
        0
280
     0
281
     0
  0
CLASS
  1
ACMNOTESTANDARDJIS
  2
AmdtNoteStdJIS
  3
"Amdt_StdImp|Product Description: AutoCAD Mechanical|Company: Autodesk, Inc."
 90
     1024
 91
        0
280
     0
281
     0
  0
CLASS
  1
ACAMGHOLECHARTSTDJIS
  2
AcAmgHoleChartStdJIS
  3
AmgDim|Product Description: AutoCAD Mechanical|Company: Autodesk, Inc.
 90
     1024
 91
        0
280
     0
281
     0
  0
CLASS
  1
AM_DRAWING_MGR
  2
AcDmDwgMgr
  3
AcMechDwgViewMgmt
 90
     1024
 91
        1
280
     0
281
     0
  0
CLASS
  1
AM_DWG_DOCUMENT
  2
AcDmDwgDocument
  3
AcMechDwgViewMgmt
 90
     1024
 91
        1
280
     0
281
     0
  0
CLASS
  1
AM_DWG_SHEET
  2
AcDmSheet
  3
AcMechDwgViewMgmt
 90
     1024
 91
        2
280
     0
281
     0
  0
CLASS
  1
AM_VIEWDIMPARMAP
  2
AcDmViewDimParMap
  3
AcMechDwgViewMgmt
 90
     1024
 91
        2
280
     0
281
     0
  0
CLASS
  1
AM_DWGMGR_NAME
  2
AcDmDwgMgrName
  3
AcMechDwgViewMgmt
 90
     1024
 91
        1
280
     0
281
     0
  0
CLASS
  1
AMDTMENUSTATEMGR
  2
AmdtMenuStateMgr
  3
McadcomServices
 90
     1024
 91
        1
280
     0
281
     0
  0
CLASS
  1
AMDTMCOMMENUSTATE
  2
AmdtMcomMenuState
  3
McadcomServices
 90
     1024
 91
        1
280
     0
281
     0
  0
CLASS
  1
MAPIAMMOUDLE
  2
MApiAmModule
  3
MApiAmServices
 90
     1024
 91
        1
280
     0
281
     0
  0
CLASS
  1
AMDTADMENUSTATE
  2
AmdtAdMenuState
  3
DesignerServices
 90
     1024
 91
        1
280
     0
281
     0
  0
CLASS
  1
ADAPPL
  2
AcAdAppl
  3
DesignerServices
 90
     1024
 91
        1
280
     0
281
     0
  0
CLASS
  1
DEPMGR
  2
AcAdDepMgr
  3
DesignerServices
 90
     1024
 91
        1
280
     0
281
     0
  0
CLASS
  1
PARAMMGR
  2
AcAdParamMgr
  3
DesignerServices
 90
     1024
 91
        1
280
     0
281
     0
  0
CLASS
  1
PARAMSCOPE
  2
AcAdParamScope
  3
DesignerServices
 90
     1024
 91
        1
280
     0
281
     0
  0
CLASS
  1
NAMEDAPPL
  2
AcAdNamedAppl
  3
DesignerServices
 90
     1024
 91
        1
280
     0
281
     0
  0
CLASS
  1
AMDTDMMENUSTATE
  2
AmdtDmMenuState
  3
AcMechDwgViewMgmt
 90
     1024
 91
        1
280
     0
281
     0
  0
CLASS
  1
AMDTAMMENUSTATE
  2
AmdtAmMenuState
  3
DesignerAssemblies
 90
     1024
 91
        1
280
     0
281
     0
  0
CLASS
  1
ACAMPROJECT
  2
AcAmProject
  3
DesignerAssemblies
 90
     1024
 91
        1
280
     0
281
     0
  0
CLASS
  1
ACAMGRCOMPDEF
  2
AcAmGrCompDef
  3
DesignerAssemblies
 90
     1024
 91
        1
280
     0
281
     0
  0
CLASS
  1
ACCMCONTEXT
  2
AcCmContext
  3
DesignerAssemblies
 90
     1024
 91
        1
280
     0
281
     0
  0
CLASS
  1
ACAMCOMPDEF
  2
AcAmCompDef
  3
DesignerAssemblies
 90
     1024
 91
        1
280
     0
281
     0
  0
CLASS
  1
ACAMCOMPDEFMGR
  2
AcAmCompDefMgr
  3
DesignerAssemblies
 90
     1024
 91
        1
280
     0
281
     0
  0
CLASS
  1
AMCONTEXTMGR
  2
AcAmContextMgr
  3
DesignerAssemblies
 90
     1024
 91
        1
280
     0
281
     0
  0
CLASS
  1
ACAMCONTEXTMODELER
  2
AcAmContextModeler
  3
DesignerAssemblies
 90
     1024
 91
        1
280
     0
281
     0
  0
CLASS
  1
CATALOGSTATE
  2
AcAmCatalogState
  3
DesignerAssemblies
 90
     1024
 91
        1
280
     0
281
     0
  0
CLASS
  1
ACAMGRCOMPDEFSET
  2
AcAmGrCompDefSet
  3
DesignerAssemblies
 90
     1024
 91
        1
280
     0
281
     0
  0
CLASS
  1
AMDTBROWSERDBTAB
  2
AmdtBrowserDbTab
  3
McadcomServices
 90
     1024
 91
        1
280
     0
281
     0
  0
CLASS
  1
CBROWSERAPPOBJECT
  2
CBrowserAppObject
  3
McadcomServices
 90
     1024
 91
        3
280
     0
281
     0
  0
CLASS
  1
DM_PLACEHOLDER
  2
AcDmSelsetPlaceholder
  3
AcMechDwgViewMgmt
 90
     1024
 91
        1
280
     0
281
     0
  0
CLASS
  1
TABLESTYLE
  2
AcDbTableStyle
  3
ObjectDBX Classes
 90
     4095
 91
        1
280
     0
281
     0
  0
CLASS
  1
VAACXREFPANELOBJECT
  2
VaAcXREFPanelObject
  3
VAAC_ADDIN
 90
        0
 91
        0
280
     0
281
     0
  0
CLASS
  1
VAACIMAGEINVENTORY
  2
VaAcImageInventory
  3
VAAC_ADDIN
 90
        0
 91
        0
280
     0
281
     0
  0
CLASS
  1
AMDTNOTETEMPLATEDB
  2
AmdtNoteTemplateDB
  3
AcmSymBB|Product Description: AutoCAD Mechanical|Company: Autodesk, Inc.
 90
     1024
 91
        6
280
     0
281
     0
  0
CLASS
  1
ACAMGFILTERDAT
  2
AcAmgFilterDat
  3
"AcadM|Product Description: AutoCAD Mechanical|Company: Autodesk, Inc."
 90
     1024
 91
        0
280
     0
281
     0
  0
CLASS
  1
MATERIAL
  2
AcDbMaterial
  3
ObjectDBX Classes
 90
     1153
 91
        3
280
     0
281
     0
  0
CLASS
  1
VISUALSTYLE
  2
AcDbVisualStyle
  3
ObjectDBX Classes
 90
     4095
 91
       16
280
     0
281
     0
  0
CLASS
  1
ACRFATTGENMGR
  2
AcRfAttGeneralMgr
  3
AcAttribServices
 90
     1024
 91
        0
280
     0
281
     0
  0
CLASS
  1
ACRFOBJATTMGR
  2
AcRfObjAttGroupMgr
  3
AcAttribServices
 90
     1024
 91
        0
280
     0
281
     0
  0
CLASS
  1
ACRFMCADAPIATTHOLDER
  2
AcRfMCADAPIAttHolder
  3
AcAttribServices
 90
     1024
 91
        0
280
     0
281
     0
  0
CLASS
  1
AMDTSYSATTR
  2
AmdtSystemAttribute
  3
AcAttribServices
 90
     1024
 91
        0
280
     0
281
     0
  0
CLASS
  1
ACMTAPERSTANDARDJIS
  2
AcmTaperStdJIS
  3
"Amdt_StdImp|Product Description: AutoCAD Mechanical|Company: Autodesk, Inc."
 90
     1024
 91
        0
280
     0
281
     0
  0
CLASS
  1
CAMSSTRUCTBTNSTATE
  2
StructBtnState
  3
DesignerAssemblies
 90
     1024
 91
        0
280
     0
281
     0
  0
CLASS
  1
SCALE
  2
AcDbScale
  3
ObjectDBX Classes
 90
     1153
 91
       35
280
     0
281
     0
  0
CLASS
  1
MLEADERSTYLE
  2
AcDbMLeaderStyle
  3
ACDB_MLEADERSTYLE_CLASS
 90
     4095
 91
        1
280
     0
281
     0
  0
CLASS
  1
ACMANOOTATIONVIEWSTANDARDJIS
  2
AmdtAnViewStdJIS
  3
"Amdt_StdImp|Product Description: AutoCAD Mechanical|Company: Autodesk, Inc."
 90
     1024
 91
        0
280
     0
281
     0
  0
CLASS
  1
ACMSURFSTANDARDJIS2003
  2
AcmSurfTextStdJIS2003
  3
"Amdt_StdImp|Product Description: AutoCAD Mechanical|Company: Autodesk, Inc."
 90
     1024
 91
        0
280
     0
281
     0
  0
CLASS
  1
CELLSTYLEMAP
  2
AcDbCellStyleMap
  3
ObjectDBX Classes
 90
     1152
 91
        2
280
     0
281
     0
  0
CLASS
  1
ACMFCFSTANDARDJIS98
  2
AcmFCFStdJIS98
  3
"Amdt_StdImp|Product Description: AutoCAD Mechanical|Company: Autodesk, Inc."
 90
     1024
 91
        0
280
     0
281
     0
  0
CLASS
  1
SORTENTSTABLE
  2
AcDbSortentsTable
  3
ObjectDBX Classes
 90
        0
 91
       13
280
     0
281
     0
  0
CLASS
  1
DIMASSOC
  2
AcDbDimAssoc
  3
"AcDbDimAssoc|Product Desc:     AcDim ARX App For Dimension|Company:          Autodesk, Inc.|WEB Address:      www.autodesk.com"
 90
        0
 91
       20
280
     0
281
     0
  0
CLASS
  1
STDPART2D
  2
AmgStdPart
  3
AmgStdPart|Product Description: AutoCAD Mechanical|Company: Autodesk, Inc.
 90
     4095
 91
        0
280
     0
281
     1
  0
CLASS
  1
ACMDATAENTRYPART
  2
AcmDataEntryPart
  3
AcmSymBB|Product Description: AutoCAD Mechanical|Company: Autodesk, Inc.
 90
     1024
 91
        0
280
     0
281
     0
  0
CLASS
  1
ACMPARTREF
  2
AcmPartRef
  3
"AcmSymBB|Product Description: AutoCAD Mechanical|Company: Autodesk, Inc."
 90
     4095
 91
        0
280
     0
281
     1
  0
CLASS
  1
ACDBSTDPARTRES_LINE
  2
AcDbStdPartRes_Line
  3
AmgStdPart|Product Description: AutoCAD Mechanical|Company: Autodesk, Inc.
 90
     1024
 91
        0
280
     0
281
     0
  0
CLASS
  1
ACMBOM
  2
AcmBom
  3
"AcmSymBB|Product Description: AutoCAD Mechanical|Company: Autodesk, Inc."
 90
     1024
 91
        0
280
     0
281
     0
  0
CLASS
  1
AMDTFORMULAUPDATEDISPATCHER
  2
AmdtFormulaUpdateDispatcher
  3
AcMeServices
 90
     1024
 91
        0
280
     0
281
     0
  0
CLASS
  1
ACMBOMROW
  2
AcmBomRow
  3
"AcmSymBB|Product Description: AutoCAD Mechanical|Company: Autodesk, Inc."
 90
     1024
 91
        0
280
     0
281
     0
  0
CLASS
  1
ACMPARTLIST
  2
AcmPartList
  3
"AcmSymBB|Product Description: AutoCAD Mechanical|Company: Autodesk, Inc."
 90
     4095
 91
        0
280
     0
281
     1
  0
CLASS
  1
ACDBLINERES
  2
AcDbLineRes
  3
AcGrefServices
 90
     1024
 91
        0
280
     0
281
     0
  0
CLASS
  1
ACRFINSADJ
  2
AcRfInsAdjuster
  3
AcMeServices
 90
     1024
 91
        0
280
     0
281
     0
  0
CLASS
  1
ACMSTANDARDISO
  2
AcmStandardISO
  3
"Amdt_StdImp|Product Description: AutoCAD Mechanical|Company: Autodesk, Inc."
 90
     1024
 91
        1
280
     0
281
     0
  0
CLASS
  1
AMDTEDGESTANDARDISO13715
  2
AmdtEdgeStdISO13715
  3
"Amdt_StdImp|Product Description: AutoCAD Mechanical|Company: Autodesk, Inc."
 90
     1024
 91
        1
280
     0
281
     0
  0
CLASS
  1
ACMSURFSTANDARDISO2002
  2
AcmSurfTextStdISO2002
  3
"Amdt_StdImp|Product Description: AutoCAD Mechanical|Company: Autodesk, Inc."
 90
     1024
 91
        1
280
     0
281
     0
  0
CLASS
  1
ACMFCFSTANDARDISO
  2
AcmFCFStdISO
  3
"Amdt_StdImp|Product Description: AutoCAD Mechanical|Company: Autodesk, Inc."
 90
     1024
 91
        1
280
     0
281
     0
  0
CLASS
  1
ACMWELDSTANDARDISO
  2
AcmWeldingStdISO
  3
"Amdt_StdImp|Product Description: AutoCAD Mechanical|Company: Autodesk, Inc."
 90
     1024
 91
        1
280
     0
281
     0
  0
CLASS
  1
ACMIDSTANDARDISO
  2
AcmIdStdISO
  3
"Amdt_StdImp|Product Description: AutoCAD Mechanical|Company: Autodesk, Inc."
 90
     1024
 91
        1
280
     0
281
     0
  0
CLASS
  1
ACMDATUMSTANDARDISO
  2
AcmDatumStdISO
  3
"Amdt_StdImp|Product Description: AutoCAD Mechanical|Company: Autodesk, Inc."
 90
     1024
 91
        1
280
     0
281
     0
  0
CLASS
  1
ACMBOMSTANDARDISO
  2
AcmBOMStdISO
  3
"Amdt_StdImp|Product Description: AutoCAD Mechanical|Company: Autodesk, Inc."
 90
     1024
 91
        1
280
     0
281
     0
  0
CLASS
  1
ACMDETAILSTANDARDISO
  2
AmdtDetailSymStdISO
  3
"Amdt_StdImp|Product Description: AutoCAD Mechanical|Company: Autodesk, Inc."
 90
     1024
 91
        1
280
     0
281
     0
  0
CLASS
  1
ACMSECTIONSTANDARDISO2001
  2
AmdtSectionSymStdISO2001
  3
"Amdt_StdImp|Product Description: AutoCAD Mechanical|Company: Autodesk, Inc."
 90
     1024
 91
        1
280
     0
281
     0
  0
CLASS
  1
ACMCENTERLINESTANDARDISO
  2
AmdtCenterLineStdISO
  3
"Amdt_StdImp|Product Description: AutoCAD Mechanical|Company: Autodesk, Inc."
 90
     1024
 91
        1
280
     0
281
     0
  0
CLASS
  1
ACMTHREADLINESTANDARDISO
  2
AmdtThreadLineStdISO
  3
"Amdt_StdImp|Product Description: AutoCAD Mechanical|Company: Autodesk, Inc."
 90
     1024
 91
        1
280
     0
281
     0
  0
CLASS
  1
ACMNOTESTANDARDISO
  2
AmdtNoteStdISO
  3
"Amdt_StdImp|Product Description: AutoCAD Mechanical|Company: Autodesk, Inc."
 90
     1024
 91
        1
280
     0
281
     0
  0
CLASS
  1
ACMTAPERSTANDARDISO
  2
AcmTaperStdISO
  3
"Amdt_StdImp|Product Description: AutoCAD Mechanical|Company: Autodesk, Inc."
 90
     1024
 91
        1
280
     0
281
     0
  0
CLASS
  1
ACMANOOTATIONVIEWSTANDARDISO
  2
AmdtAnViewStdISO
  3
"Amdt_StdImp|Product Description: AutoCAD Mechanical|Company: Autodesk, Inc."
 90
     1024
 91
        1
280
     0
281
     0
  0
CLASS
  1
ACAMGHOLECHARTSTDISO
  2
AcAmgHoleChartStdISO
  3
AmgDim|Product Description: AutoCAD Mechanical|Company: Autodesk, Inc.
 90
     1024
 91
        1
280
     0
281
     0
  0
CLASS
  1
EXACXREFPANELOBJECT
  2
ExAcXREFPanelObject
  3
EXAC_ESW
 90
     1025
 91
        0
280
     0
281
     0
  0
CLASS
  1
NPOCOLLECTION
  2
AcDbImpNonPersistentObjectsCollection
  3
ObjectDBX Classes
 90
     1153
 91
        0
280
     0
281
     0
  0
CLASS
  1
ACDBSTDPARTRES_ARC
  2
AcDbStdPartRes_Arc
  3
AmgStdPart|Product Description: AutoCAD Mechanical|Company: Autodesk, Inc.
 90
     1024
 91
        0
280
     0
281
     0
  0
CLASS
  1
AMDTNOTE
  2
AmdtNote
  3
"AcmSymBB|Product Description: AutoCAD Mechanical|Company: Autodesk, Inc."
 90
     4095
 91
        0
280
     0
281
     1
  0
CLASS
  1
PLOTSETTINGS
  2
AcDbPlotSettings
  3
ObjectDBX Classes
 90
        0
 91
        1
280
     0
281
     0
  0
CLASS
  1
ACMSTANDARDANSI
  2
AcmStandardANSI
  3
"Amdt_StdImp|Product Description: AutoCAD Mechanical|Company: Autodesk, Inc."
 90
     1024
 91
        0
280
     0
281
     0
  0
CLASS
  1
ACMSURFSTANDARDANSI
  2
AcmSurfTextStdANSI
  3
"Amdt_StdImp|Product Description: AutoCAD Mechanical|Company: Autodesk, Inc."
 90
     1024
 91
        0
280
     0
281
     0
  0
CLASS
  1
ACMFCFSTANDARDANSI
  2
AcmFCFStdANSI
  3
"Amdt_StdImp|Product Description: AutoCAD Mechanical|Company: Autodesk, Inc."
 90
     1024
 91
        0
280
     0
281
     0
  0
CLASS
  1
ACMWELDSTANDARDANSI
  2
AcmWeldingStdANSI
  3
"Amdt_StdImp|Product Description: AutoCAD Mechanical|Company: Autodesk, Inc."
 90
     1024
 91
        0
280
     0
281
     0
  0
CLASS
  1
ACMIDSTANDARDANSI
  2
AcmIdStdANSI
  3
"Amdt_StdImp|Product Description: AutoCAD Mechanical|Company: Autodesk, Inc."
 90
     1024
 91
        0
280
     0
281
     0
  0
CLASS
  1
ACMDATUMSTANDARDANSI
  2
AcmDatumStdANSI
  3
"Amdt_StdImp|Product Description: AutoCAD Mechanical|Company: Autodesk, Inc."
 90
     1024
 91
        0
280
     0
281
     0
  0
CLASS
  1
ACMBOMSTANDARDANSI
  2
AcmBOMStdANSI
  3
"Amdt_StdImp|Product Description: AutoCAD Mechanical|Company: Autodesk, Inc."
 90
     1024
 91
        0
280
     0
281
     0
  0
CLASS
  1
ACMDETAILSTANDARDANSI
  2
AmdtDetailSymStdANSI
  3
"Amdt_StdImp|Product Description: AutoCAD Mechanical|Company: Autodesk, Inc."
 90
     1024
 91
        0
280
     0
281
     0
  0
CLASS
  1
ACMSECTIONSTANDARDANSI
  2
AmdtSectionSymStdANSI
  3
"Amdt_StdImp|Product Description: AutoCAD Mechanical|Company: Autodesk, Inc."
 90
     1024
 91
        0
280
     0
281
     0
  0
CLASS
  1
ACMCENTERLINESTANDARDANSI
  2
AmdtCenterLineStdANSI
  3
"Amdt_StdImp|Product Description: AutoCAD Mechanical|Company: Autodesk, Inc."
 90
     1024
 91
        0
280
     0
281
     0
  0
CLASS
  1
ACMTHREADLINESTANDARDANSI
  2
AmdtThreadLineStdANSI
  3
"Amdt_StdImp|Product Description: AutoCAD Mechanical|Company: Autodesk, Inc."
 90
     1024
 91
        0
280
     0
281
     0
  0
CLASS
  1
ACMNOTESTANDARDANSI
  2
AmdtNoteStdANSI
  3
"Amdt_StdImp|Product Description: AutoCAD Mechanical|Company: Autodesk, Inc."
 90
     1024
 91
        0
280
     0
281
     0
  0
CLASS
  1
ACMTAPERSTANDARDANSI
  2
AcmTaperStdANSI
  3
"Amdt_StdImp|Product Description: AutoCAD Mechanical|Company: Autodesk, Inc."
 90
     1024
 91
        0
280
     0
281
     0
  0
CLASS
  1
ACMANOOTATIONVIEWSTANDARDANSI
  2
AmdtAnViewStdANSI
  3
"Amdt_StdImp|Product Description: AutoCAD Mechanical|Company: Autodesk, Inc."
 90
     1024
 91
        0
280
     0
281
     0
  0
CLASS
  1
ACAMGHOLECHARTSTDANSI
  2
AcAmgHoleChartStdANSI
  3
AmgDim|Product Description: AutoCAD Mechanical|Company: Autodesk, Inc.
 90
     1024
 91
        0
280
     0
281
     0
  0
CLASS
  1
ACMSTANDARDBSI
  2
AcmStandardBSI
  3
"Amdt_StdImp|Product Description: AutoCAD Mechanical|Company: Autodesk, Inc."
 90
     1024
 91
        0
280
     0
281
     0
  0
CLASS
  1
ACMSURFSTANDARDBSI2002
  2
AcmSurfTextStdBSI2002
  3
"Amdt_StdImp|Product Description: AutoCAD Mechanical|Company: Autodesk, Inc."
 90
     1024
 91
        0
280
     0
281
     0
  0
CLASS
  1
ACMFCFSTANDARDBSI
  2
AcmFCFStdBSI
  3
"Amdt_StdImp|Product Description: AutoCAD Mechanical|Company: Autodesk, Inc."
 90
     1024
 91
        0
280
     0
281
     0
  0
CLASS
  1
ACMWELDSTANDARDBSI
  2
AcmWeldingStdBSI
  3
"Amdt_StdImp|Product Description: AutoCAD Mechanical|Company: Autodesk, Inc."
 90
     1024
 91
        0
280
     0
281
     0
  0
CLASS
  1
ACMIDSTANDARDBSI
  2
AcmIdStdBSI
  3
"Amdt_StdImp|Product Description: AutoCAD Mechanical|Company: Autodesk, Inc."
 90
     1024
 91
        0
280
     0
281
     0
  0
CLASS
  1
ACMDATUMSTANDARDBSI
  2
AcmDatumStdBSI
  3
"Amdt_StdImp|Product Description: AutoCAD Mechanical|Company: Autodesk, Inc."
 90
     1024
 91
        0
280
     0
281
     0
  0
CLASS
  1
ACMBOMSTANDARDBSI
  2
AcmBOMStdBSI
  3
"Amdt_StdImp|Product Description: AutoCAD Mechanical|Company: Autodesk, Inc."
 90
     1024
 91
        0
280
     0
281
     0
  0
CLASS
  1
ACMDETAILSTANDARDBSI
  2
AmdtDetailSymStdBSI
  3
"Amdt_StdImp|Product Description: AutoCAD Mechanical|Company: Autodesk, Inc."
 90
     1024
 91
        0
280
     0
281
     0
  0
CLASS
  1
ACMSECTIONSTANDARDBSI2001
  2
AmdtSectionSymStdBSI2001
  3
"Amdt_StdImp|Product Description: AutoCAD Mechanical|Company: Autodesk, Inc."
 90
     1024
 91
        0
280
     0
281
     0
  0
CLASS
  1
ACMCENTERLINESTANDARDBSI
  2
AmdtCenterLineStdBSI
  3
"Amdt_StdImp|Product Description: AutoCAD Mechanical|Company: Autodesk, Inc."
 90
     1024
 91
        0
280
     0
281
     0
  0
CLASS
  1
ACMTHREADLINESTANDARDBSI
  2
AmdtThreadLineStdBSI
  3
"Amdt_StdImp|Product Description: AutoCAD Mechanical|Company: Autodesk, Inc."
 90
     1024
 91
        0
280
     0
281
     0
  0
CLASS
  1
ACMNOTESTANDARDBSI
  2
AmdtNoteStdBSI
  3
"Amdt_StdImp|Product Description: AutoCAD Mechanical|Company: Autodesk, Inc."
 90
     1024
 91
        0
280
     0
281
     0
  0
CLASS
  1
ACMTAPERSTANDARDBSI
  2
AcmTaperStdBSI
  3
"Amdt_StdImp|Product Description: AutoCAD Mechanical|Company: Autodesk, Inc."
 90
     1024
 91
        0
280
     0
281
     0
  0
CLASS
  1
ACMANOOTATIONVIEWSTANDARDBSI
  2
AmdtAnViewStdBSI
  3
"Amdt_StdImp|Product Description: AutoCAD Mechanical|Company: Autodesk, Inc."
 90
     1024
 91
        0
280
     0
281
     0
  0
CLASS
  1
ACAMGHOLECHARTSTDBSI
  2
AcAmgHoleChartStdBSI
  3
AmgDim|Product Description: AutoCAD Mechanical|Company: Autodesk, Inc.
 90
     1024
 91
        0
280
     0
281
     0
  0
CLASS
  1
AMDTEDGESTANDARDJIS
  2
AmdtEdgeStdJIS
  3
"Amdt_StdImp|Product Description: AutoCAD Mechanical|Company: Autodesk, Inc."
 90
     1024
 91
        0
280
     0
281
     0
  0
CLASS
  1
ACMSURFSYM
  2
AcmSurfaceTexture
  3
"AcmSymBB|Product Description: AutoCAD Mechanical|Company: Autodesk, Inc."
 90
     4095
 91
        0
280
     0
281
     1
  0
CLASS
  1
ACDBDIMENSIONRES
  2
AcDbDimensionRes
  3
AcmSymBB|Product Description: AutoCAD Mechanical|Company: Autodesk, Inc.
 90
     1024
 91
        0
280
     0
281
     0
  0
CLASS
  1
ACDBCIRCARCRES
  2
AcDbCircArcRes
  3
AcGrefServices
 90
     1024
 91
        0
280
     0
281
     0
  0
CLASS
  1
ACMDIMBREAKPERSREACTOR
  2
AcmDimBreakPersReactor
  3
AmgDim|Product Description: AutoCAD Mechanical|Company: Autodesk, Inc.
 90
     4095
 91
        0
280
     0
281
     0
  0
CLASS
  1
ACDBOPPOLYLINERES
  2
AcDbOpPolylineRes
  3
AcGrefServices
 90
     1024
 91
        0
280
     0
281
     0
  0
CLASS
  1
AMDTACMWBLOCKBOMENTITY
  2
AmdtAcmWblockBomEntity
  3
"AcmSymBB|Product Description: AutoCAD Mechanical|Company: Autodesk, Inc."
 90
     4095
 91
        0
280
     0
281
     1
  0
CLASS
  1
ACDB_BLKREFOBJECTCONTEXTDATA_CLASS
  2
AcDbBlkRefObjectContextData
  3
ObjectDBX Classes
 90
     1153
 91
        0
280
     0
281
     0
  0
CLASS
  1
ACMPICKOBJ
  2
AcmPickEnt
  3
"AcmSymBB|Product Description: AutoCAD Mechanical|Company: Autodesk, Inc."
 90
     1024
 91
        0
280
     0
281
     1
  0
CLASS
  1
ACMBALLOON
  2
AcmBalloon
  3
"AcmSymBB|Product Description: AutoCAD Mechanical|Company: Autodesk, Inc."
 90
     4095
 91
        0
280
     0
281
     1
  0
CLASS
  1
BREAKDATA
  2
AcDbBreakData
  3
ObjectDBX Classes
 90
     1024
 91
        0
280
     0
281
     0
  0
CLASS
  1
ACMDATUMID
  2
AcmDatumId
  3
"AcmSymBB|Product Description: AutoCAD Mechanical|Company: Autodesk, Inc."
 90
     4095
 91
        0
280
     0
281
     1
  0
CLASS
  1
ACMWELDSYM
  2
AcmWelding
  3
"AcmSymBB|Product Description: AutoCAD Mechanical|Company: Autodesk, Inc."
 90
     4095
 91
        0
280
     0
281
     1
  0
ENDSEC
  0
SECTION
  2
TABLES
  0
TABLE
  2
VPORT
  5
8
330
0
100
AcDbSymbolTable
 70
     1
  0
VPORT
  5
27A
330
8
100
AcDbSymbolTableRecord
100
AcDbViewportTableRecord
  2
*Active
 70
     0
 10
0.0
 20
0.0
 11
1.0
 21
1.0
 12
566.5126441056147
 22
515.9862927987452
 13
0.0
 23
0.0
 14
6.25
 24
6.25
 15
25.0
 25
25.0
 16
0.0
 26
0.0
 36
1.0
 17
0.0
 27
0.0
 37
0.0
 40
378.480930572095
 41
1.571428571428571
 42
50.0
 43
0.0
 44
0.0
 50
0.0
 51
0.0
 71
    16
 72
 20000
 73
     1
 74
     3
 75
     0
 76
     0
 77
     0
 78
     0
281
     0
 65
     0
110
0.0
120
0.0
130
0.0
111
1.0
121
0.0
131
0.0
112
0.0
122
1.0
132
0.0
 79
     0
146
0.0
348
285
 60
     3
 61
     5
292
     1
282
     0
141
0.0
142
0.0
 63
   250
421
  3355443
  0
ENDTAB
  0
TABLE
  2
LTYPE
  5
5
330
0
100
AcDbSymbolTable
 70
    22
  0
LTYPE
  5
14
330
5
100
AcDbSymbolTableRecord
100
AcDbLinetypeTableRecord
  2
ByBlock
 70
     0
  3

 72
    65
 73
     0
 40
0.0
  0
LTYPE
  5
15
330
5
100
AcDbSymbolTableRecord
100
AcDbLinetypeTableRecord
  2
ByLayer
 70
     0
  3

 72
    65
 73
     0
 40
0.0
  0
LTYPE
  5
16
330
5
100
AcDbSymbolTableRecord
100
AcDbLinetypeTableRecord
  2
Continuous
 70
     0
  3
Solid line
 72
    65
 73
     0
 40
0.0
  0
LTYPE
  5
4D
330
5
100
AcDbSymbolTableRecord
100
AcDbLinetypeTableRecord
  2
AM_ISO02W050
 70
     0
  3
__ __ __ __ __ __ __ __ __ __ __ __ __ __ __
 72
    65
 73
     2
 40
7.5
 49
6.0
 74
     0
 49
-1.5
 74
     0
  0
LTYPE
  5
4E
330
5
100
AcDbSymbolTableRecord
100
AcDbLinetypeTableRecord
  2
AM_ISO08W050
 70
     0
  3
____ . ____ . ____ . ____ . ____ . ____ . ____
 72
    65
 73
     4
 40
18.0
 49
12.0
 74
     0
 49
-1.5
 74
     0
 49
3.0
 74
     0
 49
-1.5
 74
     0
  0
LTYPE
  5
4F
330
5
100
AcDbSymbolTableRecord
100
AcDbLinetypeTableRecord
  2
AM_ISO09W050
 70
     0
  3
_____ . . _____ . . _____ . . ____ .. ____
 72
    65
 73
     6
 40
22.5
 49
12.0
 74
     0
 49
-1.5
 74
     0
 49
3.0
 74
     0
 49
-1.5
 74
     0
 49
3.0
 74
     0
 49
-1.5
 74
     0
  0
LTYPE
  5
50
330
5
100
AcDbSymbolTableRecord
100
AcDbLinetypeTableRecord
  2
Amconstr
 70
     0
  3
_______________________
 72
    65
 73
     2
 40
9999.0
 49
9999.0
 74
     0
 49
0.0
 74
     0
  0
LTYPE
  5
51
330
5
100
AcDbSymbolTableRecord
100
AcDbLinetypeTableRecord
  2
AM_ISO08W050x2
 70
     0
  3
__ . __ . __ . __ . __ . __
 72
    65
 73
     4
 40
9.0
 49
6.0
 74
     0
 49
-0.75
 74
     0
 49
1.5
 74
     0
 49
-0.75
 74
     0
  0
LTYPE
  5
52
330
5
100
AcDbSymbolTableRecord
100
AcDbLinetypeTableRecord
  2
AM_ISO02W050x2
 70
     0
  3
 _ _ _ _ _ _ _ _ _ _ _ _
 72
    65
 73
     2
 40
3.75
 49
3.0
 74
     0
 49
-0.75
 74
     0
  0
LTYPE
  5
55
330
5
100
AcDbSymbolTableRecord
100
AcDbLinetypeTableRecord
  2
Amzigzag
 70
     0
  3
/\/-/\/-/\/-/\/-/\/-/\/
 72
    65
 73
     2
 40
11.0001
 49
0.0001
 74
     4
 75
   136
340
23D
 46
0.04
 50
0.0
 44
0.0
 45
0.0
 49
-11.0
 74
     0
  0
LTYPE
  5
65
330
5
100
AcDbSymbolTableRecord
100
AcDbLinetypeTableRecord
  2
CENTER
 70
     0
  3
__ . __
 72
    65
 73
     4
 40
7.0
 49
4.0
 74
     0
 49
-1.0
 74
     0
 49
1.0
 74
     0
 49
-1.0
 74
     0
  0
LTYPE
  5
E0
330
5
100
AcDbSymbolTableRecord
100
AcDbLinetypeTableRecord
  2
HIDDEN
 70
     0
  3
Hidden __ __ __ __ __ __ __ __ __ __ __ __ __ _
 72
    65
 73
     2
 40
9.524999999999996
 49
6.349999999999998
 74
     0
 49
-3.174999999999998
 74
     0
  0
LTYPE
  5
E1
330
5
100
AcDbSymbolTableRecord
100
AcDbLinetypeTableRecord
  2
PHANTOM2
 70
     0
  3
Phantom (.5x) ___ _ _ ___ _ _ ___ _ _ ___ _ _
 72
    65
 73
     6
 40
31.75
 49
15.875
 74
     0
 49
-3.174999999999998
 74
     0
 49
3.174999999999998
 74
     0
 49
-3.174999999999998
 74
     0
 49
3.174999999999998
 74
     0
 49
-3.174999999999998
 74
     0
  0
LTYPE
  5
5A2
330
5
100
AcDbSymbolTableRecord
100
AcDbLinetypeTableRecord
  2
ACJISWELD
 70
     0
  3
_ _ _ _ _
 72
    65
 73
     2
 40
2.0
 49
2.0
 74
     0
 49
-1.0
 74
     0
  0
LTYPE
  5
9D62
330
5
100
AcDbSymbolTableRecord
100
AcDbLinetypeTableRecord
  2
ACISOWELD
 70
     0
  3
_ _ _ _ _
 72
    65
 73
     2
 40
2.0
 49
2.0
 74
     0
 49
-1.0
 74
     0
  0
LTYPE
  5
9D63
330
5
100
AcDbSymbolTableRecord
100
AcDbLinetypeTableRecord
  2
ACISOTGB
 70
     0
  3
__ . . __ . .
 72
    65
 73
     6
 40
9.0
 49
4.0
 74
     0
 49
-1.0
 74
     0
 49
1.0
 74
     0
 49
-1.0
 74
     0
 49
1.0
 74
     0
 49
-1.0
 74
     0
  0
LTYPE
  5
9D64
330
5
100
AcDbSymbolTableRecord
100
AcDbLinetypeTableRecord
  2
ACISOTGL
 70
     0
  3
_ _ _ _ _
 72
    65
 73
     2
 40
3.0
 49
2.0
 74
     0
 49
-1.0
 74
     0
  0
ENDTAB
  0
TABLE
  2
LAYER
  5
2
102
{ACAD_XDICTIONARY
360
BF
102
}
330
0
100
AcDbSymbolTable
 70
    11
  0
LAYER
  5
10
102
{ACAD_XDICTIONARY
360
29F7
102
}
330
2
100
AcDbSymbolTableRecord
100
AcDbLayerTableRecord
  2
0
 70
     0
 62
     7
  6
Continuous
370
    -3
390
F
347
27E
  0
LAYER
  5
81
102
{ACAD_XDICTIONARY
360
29F9
102
}
330
2
100
AcDbSymbolTableRecord
100
AcDbLayerTableRecord
  2
AM_0 外形線1
 70
     0
 62
     7
  6
Continuous
370
    25
390
F
347
27E
  0
LAYER
  5
427
330
2
100
AcDbSymbolTableRecord
100
AcDbLayerTableRecord
  2
Defpoints
 70
     0
 62
     7
  6
Continuous
290
     0
370
    -3
390
F
347
27E
  0
LAYER
  5
2E19
102
{ACAD_XDICTIONARY
360
2E1A
102
}
330
2
100
AcDbSymbolTableRecord
100
AcDbLayerTableRecord
  2
AM_6 文字
 70
     0
 62
     2
  6
Continuous
370
    13
390
F
347
27E
1001
AcAecLayerStandard
1000

1000

  0
LAYER
  5
40F0
330
2
100
AcDbSymbolTableRecord
100
AcDbLayerTableRecord
  2
AM_5 寸法線
 70
     0
 62
     3
  6
Continuous
370
    13
390
F
347
27E
1001
AcAecLayerStandard
1000

1000

  0
LAYER
  5
40F1
330
2
100
AcDbSymbolTableRecord
100
AcDbLayerTableRecord
  2
AM_4 細線
 70
     0
 62
     4
  6
Continuous
370
    13
390
F
347
27E
1001
AcAecLayerStandard
1000

1000

  0
LAYER
  5
40F2
330
2
100
AcDbSymbolTableRecord
100
AcDbLayerTableRecord
  2
AM_7 中心線
 70
     0
 62
     1
  6
AM_ISO08W050
370
    13
390
F
347
27E
1001
AcAecLayerStandard
1000

1000

  0
LAYER
  5
40F3
330
2
100
AcDbSymbolTableRecord
100
AcDbLayerTableRecord
  2
AM_3 隠れ線
 70
     0
 62
     8
  6
ACJISWELD
370
    13
390
F
347
27E
1001
AcAecLayerStandard
1000

1000

  0
LAYER
  5
73B8
102
{ACAD_XDICTIONARY
360
73B9
102
}
330
2
100
AcDbSymbolTableRecord
100
AcDbLayerTableRecord
  2
AM_8 ハッチング
 70
     0
 62
     1
  6
Continuous
370
    13
390
F
347
27E
1001
AcAecLayerStandard
1000

1000

  0
LAYER
  5
96EB
330
2
100
AcDbSymbolTableRecord
100
AcDbLayerTableRecord
  2
AM_11 想像線
 70
     0
 62
     5
  6
AM_ISO09W050
370
    13
390
F
347
27E
1001
AcAecLayerStandard
1000

1000

  0
ENDTAB
  0
TABLE
  2
STYLE
  5
3
330
0
100
AcDbSymbolTable
 70
    11
  0
STYLE
  5
11
330
3
100
AcDbSymbolTableRecord
100
AcDbTextStyleTableRecord
  2
STANDARD
 70
     0
 40
0.0
 41
1.0
 50
0.0
 71
     0
 42
25.0
  3
ISOCP.SHX
  4
EXTFONT.SHX
  0
STYLE
  5
23D
330
3
100
AcDbSymbolTableRecord
100
AcDbTextStyleTableRecord
  2

 70
     1
 40
0.0
 41
1.0
 50
0.0
 71
     0
 42
2.5
  3
genltshp.shx
  4

  0
STYLE
  5
5D5
330
3
100
AcDbSymbolTableRecord
100
AcDbTextStyleTableRecord
  2
SEISA
 70
     0
 40
0.0
 41
0.9
 50
0.0
 71
     0
 42
25.0
  3
romans.shx
  4
extfont2.shx
  0
STYLE
  5
9D52
330
3
100
AcDbSymbolTableRecord
100
AcDbTextStyleTableRecord
  2
ACISOTS
 70
     0
 40
1.0
 41
1.0
 50
0.0
 71
     0
 42
25.0
  3
isocp.shx
  4
extfont.shx
  0
STYLE
  5
9D61
330
3
100
AcDbSymbolTableRecord
100
AcDbTextStyleTableRecord
  2
ACISOGDT
 70
     0
 40
0.0
 41
1.0
 50
0.0
 71
     0
 42
25.0
  3
amgdt.shx
  4

  0
ENDTAB
  0
TABLE
  2
VIEW
  5
6
330
0
100
AcDbSymbolTable
 70
     6
  0
VIEW
  5
91B
330
6
100
AcDbSymbolTableRecord
100
AcDbViewTableRecord
  2
AM_VIEW1
 70
     0
 40
371.25
 10
358.9054807741512
 20
556.8750009234552
 41
717.8109605911328
 11
0.0
 21
0.0
 31
1.0
 12
0.0
 22
0.0
 32
0.0
 42
50.0
 43
0.0
 44
0.0
 50
0.0
 71
    16
281
     0
 72
     0
 73
     0
  0
VIEW
  5
91C
330
6
100
AcDbSymbolTableRecord
100
AcDbViewTableRecord
  2
AM_VIEW2
 70
     0
 40
371.25
 10
691.0945201830181
 20
556.8750009234552
 41
717.8109605911328
 11
0.0
 21
0.0
 31
1.0
 12
0.0
 22
0.0
 32
0.0
 42
50.0
 43
0.0
 44
0.0
 50
0.0
 71
    16
281
     0
 72
     0
 73
     0
  0
VIEW
  5
91D
330
6
100
AcDbSymbolTableRecord
100
AcDbViewTableRecord
  2
AM_VIEW3
 70
     0
 40
371.25
 10
358.9054807741512
 20
185.6250009234551
 41
717.8109605911328
 11
0.0
 21
0.0
 31
1.0
 12
0.0
 22
0.0
 32
0.0
 42
50.0
 43
0.0
 44
0.0
 50
0.0
 71
    16
281
     0
 72
     0
 73
     0
  0
VIEW
  5
91E
330
6
100
AcDbSymbolTableRecord
100
AcDbViewTableRecord
  2
AM_VIEW4
 70
     0
 40
371.25
 10
691.0945201830181
 20
185.6250009234551
 41
717.8109605911328
 11
0.0
 21
0.0
 31
1.0
 12
0.0
 22
0.0
 32
0.0
 42
50.0
 43
0.0
 44
0.0
 50
0.0
 71
    16
281
     0
 72
     0
 73
     0
  0
VIEW
  5
91F
330
6
100
AcDbSymbolTableRecord
100
AcDbViewTableRecord
  2
AM_VIEW5
 70
     0
 40
371.2500000000002
 10
525.0000004785846
 20
371.2500009234552
 41
717.8109605911328
 11
0.0
 21
0.0
 31
1.0
 12
0.0
 22
0.0
 32
0.0
 42
50.0
 43
0.0
 44
0.0
 50
0.0
 71
    16
281
     0
 72
     0
 73
     0
  0
VIEW
  5
920
330
6
100
AcDbSymbolTableRecord
100
AcDbViewTableRecord
  2
AM_VIEW6
 70
     0
 40
742.4925749999998
 10
525.0000004785846
 20
371.2500009234551
 41
1435.607564963054
 11
0.0
 21
0.0
 31
1.0
 12
0.0
 22
0.0
 32
0.0
 42
50.0
 43
0.0
 44
0.0
 50
0.0
 71
    16
281
     0
 72
     0
 73
     0
  0
ENDTAB
  0
TABLE
  2
UCS
  5
7
330
0
100
AcDbSymbolTable
 70
     0
  0
ENDTAB
  0
TABLE
  2
APPID
  5
9
330
0
100
AcDbSymbolTable
 70
   392
  0
APPID
  5
12
330
9
100
AcDbSymbolTableRecord
100
AcDbRegAppTableRecord
  2
ACAD
 70
     0
  0
APPID
  5
30
330
9
100
AcDbSymbolTableRecord
100
AcDbRegAppTableRecord
  2
MCAD_NO_VIS
 70
     0
  0
APPID
  5
31
330
9
100
AcDbSymbolTableRecord
100
AcDbRegAppTableRecord
  2
ACAD_TEMP_GRAPHIC
 70
     0
  0
APPID
  5
44
330
9
100
AcDbSymbolTableRecord
100
AcDbRegAppTableRecord
  2
ACATTRIBSERVICES
 70
     0
  0
APPID
  5
F6
330
9
100
AcDbSymbolTableRecord
100
AcDbRegAppTableRecord
  2
AD_DRAW
 70
     0
  0
APPID
  5
114
330
9
100
AcDbSymbolTableRecord
100
AcDbRegAppTableRecord
  2
DESIGNERASSEMBLIES
 70
     0
  0
APPID
  5
118
330
9
100
AcDbSymbolTableRecord
100
AcDbRegAppTableRecord
  2
ACADM_DIM_EDIT
 70
     0
  0
APPID
  5
119
330
9
100
AcDbSymbolTableRecord
100
AcDbRegAppTableRecord
  2
AMDT_DM_ADJ
 70
     0
  0
APPID
  5
1AF
330
9
100
AcDbSymbolTableRecord
100
AcDbRegAppTableRecord
  2
ACAD_DSTYLE_DIMARC_LENGTH_SYMBOL
 70
     0
  0
APPID
  5
1B0
330
9
100
AcDbSymbolTableRecord
100
AcDbRegAppTableRecord
  2
ACAD_DSTYLE_DIMJOGGED_JOGANGLE_SYMBOL
 70
     0
  0
APPID
  5
2D7
330
9
100
AcDbSymbolTableRecord
100
AcDbRegAppTableRecord
  2
ACAD_MLEADERVER
 70
     0
  0
APPID
  5
355
330
9
100
AcDbSymbolTableRecord
100
AcDbRegAppTableRecord
  2
AcadAnnoPO
 70
     0
  0
APPID
  5
428
330
9
100
AcDbSymbolTableRecord
100
AcDbRegAppTableRecord
  2
ACAD_DSTYLE_DIMTEXT_FILL
 70
     0
  0
APPID
  5
429
330
9
100
AcDbSymbolTableRecord
100
AcDbRegAppTableRecord
  2
GENIUS_GENSCREG_15
 70
     0
  0
APPID
  5
42A
330
9
100
AcDbSymbolTableRecord
100
AcDbRegAppTableRecord
  2
GENIUS_GENOBJ-N-SDF_13
 70
     0
  0
APPID
  5
42B
330
9
100
AcDbSymbolTableRecord
100
AcDbRegAppTableRecord
  2
GENIUS_GENODEF_13
 70
     0
  0
APPID
  5
42C
330
9
100
AcDbSymbolTableRecord
100
AcDbRegAppTableRecord
  2
ACAD_EXEMPT_FROM_CAD_STANDARDS
 70
     0
  0
APPID
  5
42D
330
9
100
AcDbSymbolTableRecord
100
AcDbRegAppTableRecord
  2
AcAecLayerStandard
 70
     0
  0
APPID
  5
42E
330
9
100
AcDbSymbolTableRecord
100
AcDbRegAppTableRecord
  2
GENIUS_GENOBJ-N-CEN_13
 70
     0
  0
APPID
  5
42F
330
9
100
AcDbSymbolTableRecord
100
AcDbRegAppTableRecord
  2
GENIUS_GENCEN_19
 70
     0
  0
APPID
  5
430
330
9
100
AcDbSymbolTableRecord
100
AcDbRegAppTableRecord
  2
ACAD_DSTYLE_DIMINSPECT
 70
     0
  0
APPID
  5
431
330
9
100
AcDbSymbolTableRecord
100
AcDbRegAppTableRecord
  2
GENIUS_AMGTXT_16
 70
     0
  0
APPID
  5
432
330
9
100
AcDbSymbolTableRecord
100
AcDbRegAppTableRecord
  2
GENIUS_GENFIL_13
 70
     0
  0
APPID
  5
433
330
9
100
AcDbSymbolTableRecord
100
AcDbRegAppTableRecord
  2
GENIUS_GENOLIS_13
 70
     0
  0
APPID
  5
434
330
9
100
AcDbSymbolTableRecord
100
AcDbRegAppTableRecord
  2
GENIUS_GENOBJ-N-CHA_13
 70
     0
  0
APPID
  5
435
330
9
100
AcDbSymbolTableRecord
100
AcDbRegAppTableRecord
  2
GENIUS_GENOENT_13
 70
     0
  0
APPID
  5
436
330
9
100
AcDbSymbolTableRecord
100
AcDbRegAppTableRecord
  2
GENIUS_GENOREF_13
 70
     0
  0
APPID
  5
437
330
9
100
AcDbSymbolTableRecord
100
AcDbRegAppTableRecord
  2
GENIUS_GENOBJ-N-FIL_13
 70
     0
  0
APPID
  5
438
330
9
100
AcDbSymbolTableRecord
100
AcDbRegAppTableRecord
  2
GEVID1208829536
 70
     0
  0
APPID
  5
439
330
9
100
AcDbSymbolTableRecord
100
AcDbRegAppTableRecord
  2
GEVDC
 70
     0
  0
APPID
  5
43A
330
9
100
AcDbSymbolTableRecord
100
AcDbRegAppTableRecord
  2
GEVRADREF
 70
     0
  0
APPID
  5
43B
330
9
100
AcDbSymbolTableRecord
100
AcDbRegAppTableRecord
  2
GENIUS_GENBH_13
 70
     0
  0
APPID
  5
43C
330
9
100
AcDbSymbolTableRecord
100
AcDbRegAppTableRecord
  2
GENIUS_GENOBJ-NBEHI-BHF_13
 70
     0
  0
APPID
  5
43D
330
9
100
AcDbSymbolTableRecord
100
AcDbRegAppTableRecord
  2
GENIUS_GENOBJ-NBEHI-BHB_13
 70
     0
  0
APPID
  5
43E
330
9
100
AcDbSymbolTableRecord
100
AcDbRegAppTableRecord
  2
GEVID1208829537
 70
     0
  0
APPID
  5
43F
330
9
100
AcDbSymbolTableRecord
100
AcDbRegAppTableRecord
  2
ACAD_DSTYLE_DIMJAG
 70
     0
  0
APPID
  5
440
330
9
100
AcDbSymbolTableRecord
100
AcDbRegAppTableRecord
  2
ACAD_DSTYLE_DIMTALN
 70
     0
  0
APPID
  5
441
330
9
100
AcDbSymbolTableRecord
100
AcDbRegAppTableRecord
  2
AMG_2DHIDE
 70
     0
  0
APPID
  5
442
330
9
100
AcDbSymbolTableRecord
100
AcDbRegAppTableRecord
  2
AMG_2DSTRUCT_BTR
 70
     0
  0
APPID
  5
443
330
9
100
AcDbSymbolTableRecord
100
AcDbRegAppTableRecord
  2
GEVID1208845772
 70
     0
  0
APPID
  5
444
330
9
100
AcDbSymbolTableRecord
100
AcDbRegAppTableRecord
  2
GEVID1208845773
 70
     0
  0
APPID
  5
445
330
9
100
AcDbSymbolTableRecord
100
AcDbRegAppTableRecord
  2
ACADM_2DVIEW_IGN_NOTIFY
 70
     0
  0
APPID
  5
446
330
9
100
AcDbSymbolTableRecord
100
AcDbRegAppTableRecord
  2
GEVID1208845774
 70
     0
  0
APPID
  5
447
330
9
100
AcDbSymbolTableRecord
100
AcDbRegAppTableRecord
  2
GEVID1208845775
 70
     0
  0
APPID
  5
448
330
9
100
AcDbSymbolTableRecord
100
AcDbRegAppTableRecord
  2
GEVID1208845776
 70
     0
  0
APPID
  5
449
330
9
100
AcDbSymbolTableRecord
100
AcDbRegAppTableRecord
  2
GEVID1208845777
 70
     0
  0
APPID
  5
44A
330
9
100
AcDbSymbolTableRecord
100
AcDbRegAppTableRecord
  2
GEVCON
 70
     0
  0
APPID
  5
44B
330
9
100
AcDbSymbolTableRecord
100
AcDbRegAppTableRecord
  2
GENIUS_GENOBJ-F-SCPASSM_13
 70
     0
  0
APPID
  5
44C
330
9
100
AcDbSymbolTableRecord
100
AcDbRegAppTableRecord
  2
GEVID1208845778
 70
     0
  0
APPID
  5
44D
330
9
100
AcDbSymbolTableRecord
100
AcDbRegAppTableRecord
  2
GEVID1208845779
 70
     0
  0
APPID
  5
44E
330
9
100
AcDbSymbolTableRecord
100
AcDbRegAppTableRecord
  2
GEVID1208845780
 70
     0
  0
APPID
  5
44F
330
9
100
AcDbSymbolTableRecord
100
AcDbRegAppTableRecord
  2
GEVID1208845781
 70
     0
  0
APPID
  5
450
330
9
100
AcDbSymbolTableRecord
100
AcDbRegAppTableRecord
  2
GEVID1208845782
 70
     0
  0
APPID
  5
451
330
9
100
AcDbSymbolTableRecord
100
AcDbRegAppTableRecord
  2
GEVID1208845783
 70
     0
  0
APPID
  5
452
330
9
100
AcDbSymbolTableRecord
100
AcDbRegAppTableRecord
  2
GEVID1208845784
 70
     0
  0
APPID
  5
453
330
9
100
AcDbSymbolTableRecord
100
AcDbRegAppTableRecord
  2
GEVID1208845785
 70
     0
  0
APPID
  5
454
330
9
100
AcDbSymbolTableRecord
100
AcDbRegAppTableRecord
  2
GEVID1208845787
 70
     0
  0
APPID
  5
455
330
9
100
AcDbSymbolTableRecord
100
AcDbRegAppTableRecord
  2
GEVID1208845788
 70
     0
  0
APPID
  5
456
330
9
100
AcDbSymbolTableRecord
100
AcDbRegAppTableRecord
  2
GEVID1208845789
 70
     0
  0
APPID
  5
457
330
9
100
AcDbSymbolTableRecord
100
AcDbRegAppTableRecord
  2
GEVID1208845790
 70
     0
  0
APPID
  5
458
330
9
100
AcDbSymbolTableRecord
100
AcDbRegAppTableRecord
  2
GEVID1208845791
 70
     0
  0
APPID
  5
459
330
9
100
AcDbSymbolTableRecord
100
AcDbRegAppTableRecord
  2
GEVID1208845792
 70
     0
  0
APPID
  5
45A
330
9
100
AcDbSymbolTableRecord
100
AcDbRegAppTableRecord
  2
GEVID1208845793
 70
     0
  0
APPID
  5
45B
330
9
100
AcDbSymbolTableRecord
100
AcDbRegAppTableRecord
  2
GEVID1208845794
 70
     0
  0
APPID
  5
45C
330
9
100
AcDbSymbolTableRecord
100
AcDbRegAppTableRecord
  2
GEVID1208845795
 70
     0
  0
APPID
  5
45D
330
9
100
AcDbSymbolTableRecord
100
AcDbRegAppTableRecord
  2
GEVID1208845796
 70
     0
  0
APPID
  5
45E
330
9
100
AcDbSymbolTableRecord
100
AcDbRegAppTableRecord
  2
GEVID1208845797
 70
     0
  0
APPID
  5
45F
330
9
100
AcDbSymbolTableRecord
100
AcDbRegAppTableRecord
  2
GEVID1208845798
 70
     0
  0
APPID
  5
460
330
9
100
AcDbSymbolTableRecord
100
AcDbRegAppTableRecord
  2
GEVID1208845799
 70
     0
  0
APPID
  5
461
330
9
100
AcDbSymbolTableRecord
100
AcDbRegAppTableRecord
  2
GEVID1208845800
 70
     0
  0
APPID
  5
462
330
9
100
AcDbSymbolTableRecord
100
AcDbRegAppTableRecord
  2
GEVID1208845801
 70
     0
  0
APPID
  5
463
330
9
100
AcDbSymbolTableRecord
100
AcDbRegAppTableRecord
  2
GEVID1208845802
 70
     0
  0
APPID
  5
464
330
9
100
AcDbSymbolTableRecord
100
AcDbRegAppTableRecord
  2
GENIUS_GENOBJ-N-DIM_13
 70
     0
  0
APPID
  5
465
330
9
100
AcDbSymbolTableRecord
100
AcDbRegAppTableRecord
  2
GENIUS_GENDIM_13
 70
     0
  0
APPID
  5
466
330
9
100
AcDbSymbolTableRecord
100
AcDbRegAppTableRecord
  2
GENIUS_GENDIMSH_14
 70
     0
  0
APPID
  5
467
330
9
100
AcDbSymbolTableRecord
100
AcDbRegAppTableRecord
  2
GEVID1208845803
 70
     0
  0
APPID
  5
468
330
9
100
AcDbSymbolTableRecord
100
AcDbRegAppTableRecord
  2
GEVID1208845804
 70
     0
  0
APPID
  5
469
330
9
100
AcDbSymbolTableRecord
100
AcDbRegAppTableRecord
  2
GEVID1208845805
 70
     0
  0
APPID
  5
46A
330
9
100
AcDbSymbolTableRecord
100
AcDbRegAppTableRecord
  2
GEVID1208845806
 70
     0
  0
APPID
  5
46B
330
9
100
AcDbSymbolTableRecord
100
AcDbRegAppTableRecord
  2
GEVID1208845807
 70
     0
  0
APPID
  5
46C
330
9
100
AcDbSymbolTableRecord
100
AcDbRegAppTableRecord
  2
GEVID1208845808
 70
     0
  0
APPID
  5
46D
330
9
100
AcDbSymbolTableRecord
100
AcDbRegAppTableRecord
  2
GEVID1208845809
 70
     0
  0
APPID
  5
46E
330
9
100
AcDbSymbolTableRecord
100
AcDbRegAppTableRecord
  2
GEVID1208845810
 70
     0
  0
APPID
  5
46F
330
9
100
AcDbSymbolTableRecord
100
AcDbRegAppTableRecord
  2
GEVID1208845811
 70
     0
  0
APPID
  5
470
330
9
100
AcDbSymbolTableRecord
100
AcDbRegAppTableRecord
  2
GEVID1208845813
 70
     0
  0
APPID
  5
471
330
9
100
AcDbSymbolTableRecord
100
AcDbRegAppTableRecord
  2
GEVID1208845814
 70
     0
  0
APPID
  5
472
330
9
100
AcDbSymbolTableRecord
100
AcDbRegAppTableRecord
  2
GEVID1208845815
 70
     0
  0
APPID
  5
473
330
9
100
AcDbSymbolTableRecord
100
AcDbRegAppTableRecord
  2
GEVID1208845816
 70
     0
  0
APPID
  5
474
330
9
100
AcDbSymbolTableRecord
100
AcDbRegAppTableRecord
  2
GEVID1208845817
 70
     0
  0
APPID
  5
475
330
9
100
AcDbSymbolTableRecord
100
AcDbRegAppTableRecord
  2
GEVID1208845818
 70
     0
  0
APPID
  5
476
330
9
100
AcDbSymbolTableRecord
100
AcDbRegAppTableRecord
  2
GEVID1208845819
 70
     0
  0
APPID
  5
477
330
9
100
AcDbSymbolTableRecord
100
AcDbRegAppTableRecord
  2
GEVID1208845820
 70
     0
  0
APPID
  5
478
330
9
100
AcDbSymbolTableRecord
100
AcDbRegAppTableRecord
  2
GENIUS_GENOBJ-F-SHCL_13
 70
     0
  0
APPID
  5
479
330
9
100
AcDbSymbolTableRecord
100
AcDbRegAppTableRecord
  2
GENIUS_GEFMSH_13
 70
     0
  0
APPID
  5
47A
330
9
100
AcDbSymbolTableRecord
100
AcDbRegAppTableRecord
  2
GENIUS_GENOBJ-F-SHCA_13
 70
     0
  0
APPID
  5
47B
330
9
100
AcDbSymbolTableRecord
100
AcDbRegAppTableRecord
  2
GENIUS_GEFSH_13
 70
     0
  0
APPID
  5
47C
330
9
100
AcDbSymbolTableRecord
100
AcDbRegAppTableRecord
  2
GENIUS_GEFSHP_13
 70
     0
  0
APPID
  5
47D
330
9
100
AcDbSymbolTableRecord
100
AcDbRegAppTableRecord
  2
GENIUS_GEFSHP0_13
 70
     0
  0
APPID
  5
47E
330
9
100
AcDbSymbolTableRecord
100
AcDbRegAppTableRecord
  2
GENIUS_GEFSH0_13
 70
     0
  0
APPID
  5
47F
330
9
100
AcDbSymbolTableRecord
100
AcDbRegAppTableRecord
  2
GENIUS_GEFSHP1_13
 70
     0
  0
APPID
  5
480
330
9
100
AcDbSymbolTableRecord
100
AcDbRegAppTableRecord
  2
GENIUS_GEFSH1_13
 70
     0
  0
APPID
  5
481
330
9
100
AcDbSymbolTableRecord
100
AcDbRegAppTableRecord
  2
GEVID1208866337
 70
     0
  0
APPID
  5
482
330
9
100
AcDbSymbolTableRecord
100
AcDbRegAppTableRecord
  2
GEVID1208866338
 70
     0
  0
APPID
  5
483
330
9
100
AcDbSymbolTableRecord
100
AcDbRegAppTableRecord
  2
GEVID1208866339
 70
     0
  0
APPID
  5
484
330
9
100
AcDbSymbolTableRecord
100
AcDbRegAppTableRecord
  2
GEVID1208866340
 70
     0
  0
APPID
  5
485
330
9
100
AcDbSymbolTableRecord
100
AcDbRegAppTableRecord
  2
GEVID1208866341
 70
     0
  0
APPID
  5
486
330
9
100
AcDbSymbolTableRecord
100
AcDbRegAppTableRecord
  2
ACAD_PSEXT
 70
     0
  0
APPID
  5
487
330
9
100
AcDbSymbolTableRecord
100
AcDbRegAppTableRecord
  2
GEVID1208866342
 70
     0
  0
APPID
  5
488
330
9
100
AcDbSymbolTableRecord
100
AcDbRegAppTableRecord
  2
GEVID1208913836
 70
     0
  0
APPID
  5
489
330
9
100
AcDbSymbolTableRecord
100
AcDbRegAppTableRecord
  2
GEVID1208913837
 70
     0
  0
APPID
  5
48A
330
9
100
AcDbSymbolTableRecord
100
AcDbRegAppTableRecord
  2
GEVID1208913838
 70
     0
  0
APPID
  5
48B
330
9
100
AcDbSymbolTableRecord
100
AcDbRegAppTableRecord
  2
GEVID1208913839
 70
     0
  0
APPID
  5
48C
330
9
100
AcDbSymbolTableRecord
100
AcDbRegAppTableRecord
  2
GENIUS_GENDTOL_13
 70
     0
  0
APPID
  5
48D
330
9
100
AcDbSymbolTableRecord
100
AcDbRegAppTableRecord
  2
GEVID1208928889
 70
     0
  0
APPID
  5
48E
330
9
100
AcDbSymbolTableRecord
100
AcDbRegAppTableRecord
  2
GEVID1208928890
 70
     0
  0
APPID
  5
48F
330
9
100
AcDbSymbolTableRecord
100
AcDbRegAppTableRecord
  2
GEVID1208928891
 70
     0
  0
APPID
  5
490
330
9
100
AcDbSymbolTableRecord
100
AcDbRegAppTableRecord
  2
GEVID1208928892
 70
     0
  0
APPID
  5
491
330
9
100
AcDbSymbolTableRecord
100
AcDbRegAppTableRecord
  2
GEVID1208933827
 70
     0
  0
APPID
  5
492
330
9
100
AcDbSymbolTableRecord
100
AcDbRegAppTableRecord
  2
GEVID1208933829
 70
     0
  0
APPID
  5
493
330
9
100
AcDbSymbolTableRecord
100
AcDbRegAppTableRecord
  2
GEVID1208933830
 70
     0
  0
APPID
  5
494
330
9
100
AcDbSymbolTableRecord
100
AcDbRegAppTableRecord
  2
GEVID1208933831
 70
     0
  0
APPID
  5
495
330
9
100
AcDbSymbolTableRecord
100
AcDbRegAppTableRecord
  2
GEVID1208933832
 70
     0
  0
APPID
  5
496
330
9
100
AcDbSymbolTableRecord
100
AcDbRegAppTableRecord
  2
GEVID1208933833
 70
     0
  0
APPID
  5
497
330
9
100
AcDbSymbolTableRecord
100
AcDbRegAppTableRecord
  2
GEVID1208933834
 70
     0
  0
APPID
  5
498
330
9
100
AcDbSymbolTableRecord
100
AcDbRegAppTableRecord
  2
GEVID1208933835
 70
     0
  0
APPID
  5
499
330
9
100
AcDbSymbolTableRecord
100
AcDbRegAppTableRecord
  2
GEVID1208933836
 70
     0
  0
APPID
  5
49A
330
9
100
AcDbSymbolTableRecord
100
AcDbRegAppTableRecord
  2
GEVID1208933837
 70
     0
  0
APPID
  5
49B
330
9
100
AcDbSymbolTableRecord
100
AcDbRegAppTableRecord
  2
GEVID1208933838
 70
     0
  0
APPID
  5
49C
330
9
100
AcDbSymbolTableRecord
100
AcDbRegAppTableRecord
  2
GEVID1208933840
 70
     0
  0
APPID
  5
49D
330
9
100
AcDbSymbolTableRecord
100
AcDbRegAppTableRecord
  2
GEVID1208933842
 70
     0
  0
APPID
  5
49E
330
9
100
AcDbSymbolTableRecord
100
AcDbRegAppTableRecord
  2
GEVID1208933843
 70
     0
  0
APPID
  5
49F
330
9
100
AcDbSymbolTableRecord
100
AcDbRegAppTableRecord
  2
GEVID1208933844
 70
     0
  0
APPID
  5
4A0
330
9
100
AcDbSymbolTableRecord
100
AcDbRegAppTableRecord
  2
GEVID1208933845
 70
     0
  0
APPID
  5
4A1
330
9
100
AcDbSymbolTableRecord
100
AcDbRegAppTableRecord
  2
GEVID1208933846
 70
     0
  0
APPID
  5
4A2
330
9
100
AcDbSymbolTableRecord
100
AcDbRegAppTableRecord
  2
GEVID1208933847
 70
     0
  0
APPID
  5
4A3
330
9
100
AcDbSymbolTableRecord
100
AcDbRegAppTableRecord
  2
GEVID1208933848
 70
     0
  0
APPID
  5
4A4
330
9
100
AcDbSymbolTableRecord
100
AcDbRegAppTableRecord
  2
GEVID1208933849
 70
     0
  0
APPID
  5
4A5
330
9
100
AcDbSymbolTableRecord
100
AcDbRegAppTableRecord
  2
GEVID1208933850
 70
     0
  0
APPID
  5
4A6
330
9
100
AcDbSymbolTableRecord
100
AcDbRegAppTableRecord
  2
GEVID1208933851
 70
     0
  0
APPID
  5
4A7
330
9
100
AcDbSymbolTableRecord
100
AcDbRegAppTableRecord
  2
GEVID1208933852
 70
     0
  0
APPID
  5
4A8
330
9
100
AcDbSymbolTableRecord
100
AcDbRegAppTableRecord
  2
GEVID1208933853
 70
     0
  0
APPID
  5
4A9
330
9
100
AcDbSymbolTableRecord
100
AcDbRegAppTableRecord
  2
GEVID1208933854
 70
     0
  0
APPID
  5
4AA
330
9
100
AcDbSymbolTableRecord
100
AcDbRegAppTableRecord
  2
GEVID1208933855
 70
     0
  0
APPID
  5
4AB
330
9
100
AcDbSymbolTableRecord
100
AcDbRegAppTableRecord
  2
GEVID1208933856
 70
     0
  0
APPID
  5
4AC
330
9
100
AcDbSymbolTableRecord
100
AcDbRegAppTableRecord
  2
GEVID1208933857
 70
     0
  0
APPID
  5
4AD
330
9
100
AcDbSymbolTableRecord
100
AcDbRegAppTableRecord
  2
GEVID1208933858
 70
     0
  0
APPID
  5
4AE
330
9
100
AcDbSymbolTableRecord
100
AcDbRegAppTableRecord
  2
GEVID1208933859
 70
     0
  0
APPID
  5
4AF
330
9
100
AcDbSymbolTableRecord
100
AcDbRegAppTableRecord
  2
GEVID1208933860
 70
     0
  0
APPID
  5
4B0
330
9
100
AcDbSymbolTableRecord
100
AcDbRegAppTableRecord
  2
GEVID1208933861
 70
     0
  0
APPID
  5
4B1
330
9
100
AcDbSymbolTableRecord
100
AcDbRegAppTableRecord
  2
GEVID1208933862
 70
     0
  0
APPID
  5
4B2
330
9
100
AcDbSymbolTableRecord
100
AcDbRegAppTableRecord
  2
GEVID1208933863
 70
     0
  0
APPID
  5
4B3
330
9
100
AcDbSymbolTableRecord
100
AcDbRegAppTableRecord
  2
GEVID1208933864
 70
     0
  0
APPID
  5
4B4
330
9
100
AcDbSymbolTableRecord
100
AcDbRegAppTableRecord
  2
GEVID1208933865
 70
     0
  0
APPID
  5
4B5
330
9
100
AcDbSymbolTableRecord
100
AcDbRegAppTableRecord
  2
GEVID1208933866
 70
     0
  0
APPID
  5
4B6
330
9
100
AcDbSymbolTableRecord
100
AcDbRegAppTableRecord
  2
GEVID1208933867
 70
     0
  0
APPID
  5
4B7
330
9
100
AcDbSymbolTableRecord
100
AcDbRegAppTableRecord
  2
GEVID1208933868
 70
     0
  0
APPID
  5
4B8
330
9
100
AcDbSymbolTableRecord
100
AcDbRegAppTableRecord
  2
GEVID1208933869
 70
     0
  0
APPID
  5
4B9
330
9
100
AcDbSymbolTableRecord
100
AcDbRegAppTableRecord
  2
GEVID1208933870
 70
     0
  0
APPID
  5
4BA
330
9
100
AcDbSymbolTableRecord
100
AcDbRegAppTableRecord
  2
GEVID1208933871
 70
     0
  0
APPID
  5
4BB
330
9
100
AcDbSymbolTableRecord
100
AcDbRegAppTableRecord
  2
GEVID1208933872
 70
     0
  0
APPID
  5
4BC
330
9
100
AcDbSymbolTableRecord
100
AcDbRegAppTableRecord
  2
GEVID1208933873
 70
     0
  0
APPID
  5
4BD
330
9
100
AcDbSymbolTableRecord
100
AcDbRegAppTableRecord
  2
GEVID1208933874
 70
     0
  0
APPID
  5
4BE
330
9
100
AcDbSymbolTableRecord
100
AcDbRegAppTableRecord
  2
GEVID1208933875
 70
     0
  0
APPID
  5
4BF
330
9
100
AcDbSymbolTableRecord
100
AcDbRegAppTableRecord
  2
GEVID1208933876
 70
     0
  0
APPID
  5
4C0
330
9
100
AcDbSymbolTableRecord
100
AcDbRegAppTableRecord
  2
ACAD_DSTYLE_DIMRADIAL_EXTENSION
 70
     0
  0
APPID
  5
4C1
330
9
100
AcDbSymbolTableRecord
100
AcDbRegAppTableRecord
  2
GEVID1208999100
 70
     0
  0
APPID
  5
4C2
330
9
100
AcDbSymbolTableRecord
100
AcDbRegAppTableRecord
  2
GEVID1208999101
 70
     0
  0
APPID
  5
4C3
330
9
100
AcDbSymbolTableRecord
100
AcDbRegAppTableRecord
  2
GEVID1208999102
 70
     0
  0
APPID
  5
4C4
330
9
100
AcDbSymbolTableRecord
100
AcDbRegAppTableRecord
  2
GEVID1208999103
 70
     0
  0
APPID
  5
4C5
330
9
100
AcDbSymbolTableRecord
100
AcDbRegAppTableRecord
  2
GEVID1208999105
 70
     0
  0
APPID
  5
4C6
330
9
100
AcDbSymbolTableRecord
100
AcDbRegAppTableRecord
  2
GEVID1208999106
 70
     0
  0
APPID
  5
4C7
330
9
100
AcDbSymbolTableRecord
100
AcDbRegAppTableRecord
  2
GEVID1208999108
 70
     0
  0
APPID
  5
4C8
330
9
100
AcDbSymbolTableRecord
100
AcDbRegAppTableRecord
  2
GEVID1208999109
 70
     0
  0
APPID
  5
4C9
330
9
100
AcDbSymbolTableRecord
100
AcDbRegAppTableRecord
  2
GEVID1208999110
 70
     0
  0
APPID
  5
4CA
330
9
100
AcDbSymbolTableRecord
100
AcDbRegAppTableRecord
  2
GEVID1208999111
 70
     0
  0
APPID
  5
4CB
330
9
100
AcDbSymbolTableRecord
100
AcDbRegAppTableRecord
  2
GEVID1208999112
 70
     0
  0
APPID
  5
4CC
330
9
100
AcDbSymbolTableRecord
100
AcDbRegAppTableRecord
  2
GEVID1208999113
 70
     0
  0
APPID
  5
4CD
330
9
100
AcDbSymbolTableRecord
100
AcDbRegAppTableRecord
  2
GEVID1208999114
 70
     0
  0
APPID
  5
4CE
330
9
100
AcDbSymbolTableRecord
100
AcDbRegAppTableRecord
  2
GEVID1210218799
 70
     0
  0
APPID
  5
4CF
330
9
100
AcDbSymbolTableRecord
100
AcDbRegAppTableRecord
  2
GEVID1210218800
 70
     0
  0
APPID
  5
4D0
330
9
100
AcDbSymbolTableRecord
100
AcDbRegAppTableRecord
  2
GENIUS_GEFWELD_13
 70
     0
  0
APPID
  5
4D1
330
9
100
AcDbSymbolTableRecord
100
AcDbRegAppTableRecord
  2
GENIUS_GENOBJ-F-WELS_13
 70
     0
  0
APPID
  5
4D2
330
9
100
AcDbSymbolTableRecord
100
AcDbRegAppTableRecord
  2
AcadAnnotative
 70
     0
  0
APPID
  5
4D3
330
9
100
AcDbSymbolTableRecord
100
AcDbRegAppTableRecord
  2
GEVID1210145339
 70
     0
  0
APPID
  5
4D4
330
9
100
AcDbSymbolTableRecord
100
AcDbRegAppTableRecord
  2
ACAD_DSTYLE_DIMBREAK
 70
     0
  0
APPID
  5
4D5
330
9
100
AcDbSymbolTableRecord
100
AcDbRegAppTableRecord
  2
GEVID1210145340
 70
     0
  0
APPID
  5
4D6
330
9
100
AcDbSymbolTableRecord
100
AcDbRegAppTableRecord
  2
GEVID1210145341
 70
     0
  0
APPID
  5
4D7
330
9
100
AcDbSymbolTableRecord
100
AcDbRegAppTableRecord
  2
GEVID1210145342
 70
     0
  0
APPID
  5
4D8
330
9
100
AcDbSymbolTableRecord
100
AcDbRegAppTableRecord
  2
GEVID1210145343
 70
     0
  0
APPID
  5
4D9
330
9
100
AcDbSymbolTableRecord
100
AcDbRegAppTableRecord
  2
GEVID1210145344
 70
     0
  0
APPID
  5
4DA
330
9
100
AcDbSymbolTableRecord
100
AcDbRegAppTableRecord
  2
GEVID1210145345
 70
     0
  0
APPID
  5
4DB
330
9
100
AcDbSymbolTableRecord
100
AcDbRegAppTableRecord
  2
GEVID1210152816
 70
     0
  0
APPID
  5
4DC
330
9
100
AcDbSymbolTableRecord
100
AcDbRegAppTableRecord
  2
GEVID1210153850
 70
     0
  0
APPID
  5
4DD
330
9
100
AcDbSymbolTableRecord
100
AcDbRegAppTableRecord
  2
GEVID1210153851
 70
     0
  0
APPID
  5
4DE
330
9
100
AcDbSymbolTableRecord
100
AcDbRegAppTableRecord
  2
GEVID1210153852
 70
     0
  0
APPID
  5
4DF
330
9
100
AcDbSymbolTableRecord
100
AcDbRegAppTableRecord
  2
GEVID1210549898
 70
     0
  0
APPID
  5
4E0
330
9
100
AcDbSymbolTableRecord
100
AcDbRegAppTableRecord
  2
GEVID1210549899
 70
     0
  0
APPID
  5
4E1
330
9
100
AcDbSymbolTableRecord
100
AcDbRegAppTableRecord
  2
GEVID1210549900
 70
     0
  0
APPID
  5
4E2
330
9
100
AcDbSymbolTableRecord
100
AcDbRegAppTableRecord
  2
GEVID1210549901
 70
     0
  0
APPID
  5
4E3
330
9
100
AcDbSymbolTableRecord
100
AcDbRegAppTableRecord
  2
GEVID1210549902
 70
     0
  0
APPID
  5
4E4
330
9
100
AcDbSymbolTableRecord
100
AcDbRegAppTableRecord
  2
GEVID1210549903
 70
     0
  0
APPID
  5
4E5
330
9
100
AcDbSymbolTableRecord
100
AcDbRegAppTableRecord
  2
GEVID1210549904
 70
     0
  0
APPID
  5
4E6
330
9
100
AcDbSymbolTableRecord
100
AcDbRegAppTableRecord
  2
GEVID1210549905
 70
     0
  0
APPID
  5
4E7
330
9
100
AcDbSymbolTableRecord
100
AcDbRegAppTableRecord
  2
GEVID1210549906
 70
     0
  0
APPID
  5
4E8
330
9
100
AcDbSymbolTableRecord
100
AcDbRegAppTableRecord
  2
GEVID1210549907
 70
     0
  0
APPID
  5
4E9
330
9
100
AcDbSymbolTableRecord
100
AcDbRegAppTableRecord
  2
GEVID1210549908
 70
     0
  0
APPID
  5
4EA
330
9
100
AcDbSymbolTableRecord
100
AcDbRegAppTableRecord
  2
GEVID1210549909
 70
     0
  0
APPID
  5
4EB
330
9
100
AcDbSymbolTableRecord
100
AcDbRegAppTableRecord
  2
GEVID1210549910
 70
     0
  0
APPID
  5
4EC
330
9
100
AcDbSymbolTableRecord
100
AcDbRegAppTableRecord
  2
GEVID1210549911
 70
     0
  0
APPID
  5
4ED
330
9
100
AcDbSymbolTableRecord
100
AcDbRegAppTableRecord
  2
GEVID1210549912
 70
     0
  0
APPID
  5
4EE
330
9
100
AcDbSymbolTableRecord
100
AcDbRegAppTableRecord
  2
GEVID1210549913
 70
     0
  0
APPID
  5
4EF
330
9
100
AcDbSymbolTableRecord
100
AcDbRegAppTableRecord
  2
GEVID1210549914
 70
     0
  0
APPID
  5
4F0
330
9
100
AcDbSymbolTableRecord
100
AcDbRegAppTableRecord
  2
GEVID1210549915
 70
     0
  0
APPID
  5
4F1
330
9
100
AcDbSymbolTableRecord
100
AcDbRegAppTableRecord
  2
GEVID1210549916
 70
     0
  0
APPID
  5
4F2
330
9
100
AcDbSymbolTableRecord
100
AcDbRegAppTableRecord
  2
GEVID1210549917
 70
     0
  0
APPID
  5
4F3
330
9
100
AcDbSymbolTableRecord
100
AcDbRegAppTableRecord
  2
GENIUS_GENOBJ-N-CRS_13
 70
     0
  0
APPID
  5
4F4
330
9
100
AcDbSymbolTableRecord
100
AcDbRegAppTableRecord
  2
GEVID1210549918
 70
     0
  0
APPID
  5
4F5
330
9
100
AcDbSymbolTableRecord
100
AcDbRegAppTableRecord
  2
GENIUS_GENOBJ-N-CRC_13
 70
     0
  0
APPID
  5
4F6
330
9
100
AcDbSymbolTableRecord
100
AcDbRegAppTableRecord
  2
GENIUS_GENCRC_14
 70
     0
  0
APPID
  5
4F7
330
9
100
AcDbSymbolTableRecord
100
AcDbRegAppTableRecord
  2
GEVID1210549919
 70
     0
  0
APPID
  5
4F8
330
9
100
AcDbSymbolTableRecord
100
AcDbRegAppTableRecord
  2
GEVID1210549921
 70
     0
  0
APPID
  5
4F9
330
9
100
AcDbSymbolTableRecord
100
AcDbRegAppTableRecord
  2
GEVID1210549922
 70
     0
  0
APPID
  5
4FA
330
9
100
AcDbSymbolTableRecord
100
AcDbRegAppTableRecord
  2
GEVID1210635173
 70
     0
  0
APPID
  5
4FB
330
9
100
AcDbSymbolTableRecord
100
AcDbRegAppTableRecord
  2
GEVID1210635174
 70
     0
  0
APPID
  5
4FC
330
9
100
AcDbSymbolTableRecord
100
AcDbRegAppTableRecord
  2
GEVID1210635175
 70
     0
  0
APPID
  5
4FD
330
9
100
AcDbSymbolTableRecord
100
AcDbRegAppTableRecord
  2
GEVID1210635176
 70
     0
  0
APPID
  5
4FE
330
9
100
AcDbSymbolTableRecord
100
AcDbRegAppTableRecord
  2
GEVID1210635177
 70
     0
  0
APPID
  5
4FF
330
9
100
AcDbSymbolTableRecord
100
AcDbRegAppTableRecord
  2
GEVID1210635178
 70
     0
  0
APPID
  5
500
330
9
100
AcDbSymbolTableRecord
100
AcDbRegAppTableRecord
  2
GENIUS_GENIUS_GENBHEDTMP_13
 70
     0
  0
APPID
  5
501
330
9
100
AcDbSymbolTableRecord
100
AcDbRegAppTableRecord
  2
GEVID1210635179
 70
     0
  0
APPID
  5
502
330
9
100
AcDbSymbolTableRecord
100
AcDbRegAppTableRecord
  2
GEVID1210635180
 70
     0
  0
APPID
  5
503
330
9
100
AcDbSymbolTableRecord
100
AcDbRegAppTableRecord
  2
GEVID1210635181
 70
     0
  0
APPID
  5
504
330
9
100
AcDbSymbolTableRecord
100
AcDbRegAppTableRecord
  2
GEVID1210635182
 70
     0
  0
APPID
  5
505
330
9
100
AcDbSymbolTableRecord
100
AcDbRegAppTableRecord
  2
GEVID1210635184
 70
     0
  0
APPID
  5
506
330
9
100
AcDbSymbolTableRecord
100
AcDbRegAppTableRecord
  2
GEVID1210635185
 70
     0
  0
APPID
  5
507
330
9
100
AcDbSymbolTableRecord
100
AcDbRegAppTableRecord
  2
GEVID1210635186
 70
     0
  0
APPID
  5
508
330
9
100
AcDbSymbolTableRecord
100
AcDbRegAppTableRecord
  2
GEVID1210635187
 70
     0
  0
APPID
  5
509
330
9
100
AcDbSymbolTableRecord
100
AcDbRegAppTableRecord
  2
GEVID1210635188
 70
     0
  0
APPID
  5
50A
330
9
100
AcDbSymbolTableRecord
100
AcDbRegAppTableRecord
  2
GEVID1210635189
 70
     0
  0
APPID
  5
50B
330
9
100
AcDbSymbolTableRecord
100
AcDbRegAppTableRecord
  2
GEVID1210635190
 70
     0
  0
APPID
  5
50C
330
9
100
AcDbSymbolTableRecord
100
AcDbRegAppTableRecord
  2
GENIUS_GENREC_14
 70
     0
  0
APPID
  5
50D
330
9
100
AcDbSymbolTableRecord
100
AcDbRegAppTableRecord
  2
GENIUS_GENOBJ-N-REC_13
 70
     0
  0
APPID
  5
50E
330
9
100
AcDbSymbolTableRecord
100
AcDbRegAppTableRecord
  2
GEVID1210676655
 70
     0
  0
APPID
  5
50F
330
9
100
AcDbSymbolTableRecord
100
AcDbRegAppTableRecord
  2
GEVID1210676656
 70
     0
  0
APPID
  5
510
330
9
100
AcDbSymbolTableRecord
100
AcDbRegAppTableRecord
  2
GEVID1210676657
 70
     0
  0
APPID
  5
511
330
9
100
AcDbSymbolTableRecord
100
AcDbRegAppTableRecord
  2
GEVID1210676659
 70
     0
  0
APPID
  5
512
330
9
100
AcDbSymbolTableRecord
100
AcDbRegAppTableRecord
  2
GEVID1210676660
 70
     0
  0
APPID
  5
513
330
9
100
AcDbSymbolTableRecord
100
AcDbRegAppTableRecord
  2
GEVID1210676661
 70
     0
  0
APPID
  5
514
330
9
100
AcDbSymbolTableRecord
100
AcDbRegAppTableRecord
  2
GEVID1210676662
 70
     0
  0
APPID
  5
515
330
9
100
AcDbSymbolTableRecord
100
AcDbRegAppTableRecord
  2
GEVID1210721646
 70
     0
  0
APPID
  5
516
330
9
100
AcDbSymbolTableRecord
100
AcDbRegAppTableRecord
  2
GEVID1210721647
 70
     0
  0
APPID
  5
517
330
9
100
AcDbSymbolTableRecord
100
AcDbRegAppTableRecord
  2
GEVID1210721648
 70
     0
  0
APPID
  5
518
330
9
100
AcDbSymbolTableRecord
100
AcDbRegAppTableRecord
  2
GEVID1210721649
 70
     0
  0
APPID
  5
519
330
9
100
AcDbSymbolTableRecord
100
AcDbRegAppTableRecord
  2
GEVID1210721650
 70
     0
  0
APPID
  5
51A
330
9
100
AcDbSymbolTableRecord
100
AcDbRegAppTableRecord
  2
GEVID1210721651
 70
     0
  0
APPID
  5
51B
330
9
100
AcDbSymbolTableRecord
100
AcDbRegAppTableRecord
  2
GEVID1210721652
 70
     0
  0
APPID
  5
51C
330
9
100
AcDbSymbolTableRecord
100
AcDbRegAppTableRecord
  2
GEVID1210721653
 70
     0
  0
APPID
  5
51D
330
9
100
AcDbSymbolTableRecord
100
AcDbRegAppTableRecord
  2
PE_URL
 70
     0
  0
APPID
  5
51E
330
9
100
AcDbSymbolTableRecord
100
AcDbRegAppTableRecord
  2
GEVID1210825555
 70
     0
  0
APPID
  5
51F
330
9
100
AcDbSymbolTableRecord
100
AcDbRegAppTableRecord
  2
GEVID1210825556
 70
     0
  0
APPID
  5
520
330
9
100
AcDbSymbolTableRecord
100
AcDbRegAppTableRecord
  2
GEVID1210825557
 70
     0
  0
APPID
  5
521
330
9
100
AcDbSymbolTableRecord
100
AcDbRegAppTableRecord
  2
GEVID1210825558
 70
     0
  0
APPID
  5
522
330
9
100
AcDbSymbolTableRecord
100
AcDbRegAppTableRecord
  2
GEVID1210825559
 70
     0
  0
APPID
  5
523
330
9
100
AcDbSymbolTableRecord
100
AcDbRegAppTableRecord
  2
GEVID1210825560
 70
     0
  0
APPID
  5
524
330
9
100
AcDbSymbolTableRecord
100
AcDbRegAppTableRecord
  2
GEVID1210825561
 70
     0
  0
APPID
  5
525
330
9
100
AcDbSymbolTableRecord
100
AcDbRegAppTableRecord
  2
GEVID1210825562
 70
     0
  0
APPID
  5
526
330
9
100
AcDbSymbolTableRecord
100
AcDbRegAppTableRecord
  2
GEVID1210825563
 70
     0
  0
APPID
  5
527
330
9
100
AcDbSymbolTableRecord
100
AcDbRegAppTableRecord
  2
GEVID1210825564
 70
     0
  0
APPID
  5
528
330
9
100
AcDbSymbolTableRecord
100
AcDbRegAppTableRecord
  2
GEVID1210825565
 70
     0
  0
APPID
  5
529
330
9
100
AcDbSymbolTableRecord
100
AcDbRegAppTableRecord
  2
GEVID1210825566
 70
     0
  0
APPID
  5
52A
330
9
100
AcDbSymbolTableRecord
100
AcDbRegAppTableRecord
  2
GEVID1210825567
 70
     0
  0
APPID
  5
52B
330
9
100
AcDbSymbolTableRecord
100
AcDbRegAppTableRecord
  2
GENIUS_GENOBJ-N-ZOO_13
 70
     0
  0
APPID
  5
52C
330
9
100
AcDbSymbolTableRecord
100
AcDbRegAppTableRecord
  2
GENIUS_GENZOO_17
 70
     0
  0
APPID
  5
52D
330
9
100
AcDbSymbolTableRecord
100
AcDbRegAppTableRecord
  2
ACADANNOTATIVEDECOMPOSITION
 70
     0
  0
APPID
  5
52E
330
9
100
AcDbSymbolTableRecord
100
AcDbRegAppTableRecord
  2
GENIUS_GENOBJ-N-HTC_13
 70
     0
  0
APPID
  5
52F
330
9
100
AcDbSymbolTableRecord
100
AcDbRegAppTableRecord
  2
GENIUS_GENHATCH_13
 70
     0
  0
APPID
  5
530
330
9
100
AcDbSymbolTableRecord
100
AcDbRegAppTableRecord
  2
GEVID1210896020
 70
     0
  0
APPID
  5
531
330
9
100
AcDbSymbolTableRecord
100
AcDbRegAppTableRecord
  2
GEVID1210896021
 70
     0
  0
APPID
  5
532
330
9
100
AcDbSymbolTableRecord
100
AcDbRegAppTableRecord
  2
GEVID1209083540
 70
     0
  0
APPID
  5
533
330
9
100
AcDbSymbolTableRecord
100
AcDbRegAppTableRecord
  2
GEVMK
 70
     0
  0
APPID
  5
534
330
9
100
AcDbSymbolTableRecord
100
AcDbRegAppTableRecord
  2
GEVID1209083542
 70
     0
  0
APPID
  5
535
330
9
100
AcDbSymbolTableRecord
100
AcDbRegAppTableRecord
  2
GEVID1209083543
 70
     0
  0
APPID
  5
536
330
9
100
AcDbSymbolTableRecord
100
AcDbRegAppTableRecord
  2
GEVID1209083544
 70
     0
  0
APPID
  5
537
330
9
100
AcDbSymbolTableRecord
100
AcDbRegAppTableRecord
  2
GEVID1209083545
 70
     0
  0
APPID
  5
538
330
9
100
AcDbSymbolTableRecord
100
AcDbRegAppTableRecord
  2
GEVID1209083546
 70
     0
  0
APPID
  5
539
330
9
100
AcDbSymbolTableRecord
100
AcDbRegAppTableRecord
  2
GEVID1209083547
 70
     0
  0
APPID
  5
53A
330
9
100
AcDbSymbolTableRecord
100
AcDbRegAppTableRecord
  2
GEVID1209083548
 70
     0
  0
APPID
  5
53B
330
9
100
AcDbSymbolTableRecord
100
AcDbRegAppTableRecord
  2
GEVID1209083549
 70
     0
  0
APPID
  5
53C
330
9
100
AcDbSymbolTableRecord
100
AcDbRegAppTableRecord
  2
GEVID1209083550
 70
     0
  0
APPID
  5
53D
330
9
100
AcDbSymbolTableRecord
100
AcDbRegAppTableRecord
  2
GEVID1209083551
 70
     0
  0
APPID
  5
53E
330
9
100
AcDbSymbolTableRecord
100
AcDbRegAppTableRecord
  2
GEVID1209083552
 70
     0
  0
APPID
  5
53F
330
9
100
AcDbSymbolTableRecord
100
AcDbRegAppTableRecord
  2
GEVID1209083553
 70
     0
  0
APPID
  5
540
330
9
100
AcDbSymbolTableRecord
100
AcDbRegAppTableRecord
  2
GEVID1210896022
 70
     0
  0
APPID
  5
541
330
9
100
AcDbSymbolTableRecord
100
AcDbRegAppTableRecord
  2
GEVID1211508364
 70
     0
  0
APPID
  5
542
330
9
100
AcDbSymbolTableRecord
100
AcDbRegAppTableRecord
  2
GEVID1211414908
 70
     0
  0
APPID
  5
543
330
9
100
AcDbSymbolTableRecord
100
AcDbRegAppTableRecord
  2
GEVID1211414909
 70
     0
  0
APPID
  5
544
330
9
100
AcDbSymbolTableRecord
100
AcDbRegAppTableRecord
  2
GEVID1211508359
 70
     0
  0
APPID
  5
545
330
9
100
AcDbSymbolTableRecord
100
AcDbRegAppTableRecord
  2
GEVID1211508360
 70
     0
  0
APPID
  5
546
330
9
100
AcDbSymbolTableRecord
100
AcDbRegAppTableRecord
  2
GEVID1211508361
 70
     0
  0
APPID
  5
547
330
9
100
AcDbSymbolTableRecord
100
AcDbRegAppTableRecord
  2
GEVID1211508362
 70
     0
  0
APPID
  5
548
330
9
100
AcDbSymbolTableRecord
100
AcDbRegAppTableRecord
  2
GEVID1211508363
 70
     0
  0
APPID
  5
549
330
9
100
AcDbSymbolTableRecord
100
AcDbRegAppTableRecord
  2
GEVID1211878469
 70
     0
  0
APPID
  5
54A
330
9
100
AcDbSymbolTableRecord
100
AcDbRegAppTableRecord
  2
GEVID1212642819
 70
     0
  0
APPID
  5
54B
330
9
100
AcDbSymbolTableRecord
100
AcDbRegAppTableRecord
  2
GEVID1212642820
 70
     0
  0
APPID
  5
54C
330
9
100
AcDbSymbolTableRecord
100
AcDbRegAppTableRecord
  2
GEVID1212642821
 70
     0
  0
APPID
  5
54D
330
9
100
AcDbSymbolTableRecord
100
AcDbRegAppTableRecord
  2
GEVID1212642822
 70
     0
  0
APPID
  5
54E
330
9
100
AcDbSymbolTableRecord
100
AcDbRegAppTableRecord
  2
GEVID1212642823
 70
     0
  0
APPID
  5
54F
330
9
100
AcDbSymbolTableRecord
100
AcDbRegAppTableRecord
  2
GEVID1212642825
 70
     0
  0
APPID
  5
550
330
9
100
AcDbSymbolTableRecord
100
AcDbRegAppTableRecord
  2
GEVID1212642826
 70
     0
  0
APPID
  5
551
330
9
100
AcDbSymbolTableRecord
100
AcDbRegAppTableRecord
  2
GEVID1212642827
 70
     0
  0
APPID
  5
552
330
9
100
AcDbSymbolTableRecord
100
AcDbRegAppTableRecord
  2
GEVID1212642828
 70
     0
  0
APPID
  5
553
330
9
100
AcDbSymbolTableRecord
100
AcDbRegAppTableRecord
  2
GEVID1212642831
 70
     0
  0
APPID
  5
554
330
9
100
AcDbSymbolTableRecord
100
AcDbRegAppTableRecord
  2
GEVID1212642834
 70
     0
  0
APPID
  5
555
330
9
100
AcDbSymbolTableRecord
100
AcDbRegAppTableRecord
  2
GEVID1212642835
 70
     0
  0
APPID
  5
556
330
9
100
AcDbSymbolTableRecord
100
AcDbRegAppTableRecord
  2
GEVID1212642836
 70
     0
  0
APPID
  5
557
330
9
100
AcDbSymbolTableRecord
100
AcDbRegAppTableRecord
  2
GEVID1212642837
 70
     0
  0
APPID
  5
558
330
9
100
AcDbSymbolTableRecord
100
AcDbRegAppTableRecord
  2
GEVID1212642839
 70
     0
  0
APPID
  5
559
330
9
100
AcDbSymbolTableRecord
100
AcDbRegAppTableRecord
  2
GEVID1212642840
 70
     0
  0
APPID
  5
55A
330
9
100
AcDbSymbolTableRecord
100
AcDbRegAppTableRecord
  2
GEVID1212642841
 70
     0
  0
APPID
  5
55B
330
9
100
AcDbSymbolTableRecord
100
AcDbRegAppTableRecord
  2
GEVID1212655312
 70
     0
  0
APPID
  5
55C
330
9
100
AcDbSymbolTableRecord
100
AcDbRegAppTableRecord
  2
GEVID1212655313
 70
     0
  0
APPID
  5
55D
330
9
100
AcDbSymbolTableRecord
100
AcDbRegAppTableRecord
  2
GEVID1212656533
 70
     0
  0
APPID
  5
55E
330
9
100
AcDbSymbolTableRecord
100
AcDbRegAppTableRecord
  2
GEVID1212656534
 70
     0
  0
APPID
  5
55F
330
9
100
AcDbSymbolTableRecord
100
AcDbRegAppTableRecord
  2
GEVID1212656535
 70
     0
  0
APPID
  5
560
330
9
100
AcDbSymbolTableRecord
100
AcDbRegAppTableRecord
  2
GEVID1212656536
 70
     0
  0
APPID
  5
561
330
9
100
AcDbSymbolTableRecord
100
AcDbRegAppTableRecord
  2
GEVID1212656538
 70
     0
  0
APPID
  5
562
330
9
100
AcDbSymbolTableRecord
100
AcDbRegAppTableRecord
  2
GEVID1212656541
 70
     0
  0
APPID
  5
563
330
9
100
AcDbSymbolTableRecord
100
AcDbRegAppTableRecord
  2
GEVID1212656543
 70
     0
  0
APPID
  5
564
330
9
100
AcDbSymbolTableRecord
100
AcDbRegAppTableRecord
  2
GENIUS_GENOBJ-F-PFASSM_13
 70
     0
  0
APPID
  5
565
330
9
100
AcDbSymbolTableRecord
100
AcDbRegAppTableRecord
  2
GEVID1212656544
 70
     0
  0
APPID
  5
566
330
9
100
AcDbSymbolTableRecord
100
AcDbRegAppTableRecord
  2
GEVID1212656545
 70
     0
  0
APPID
  5
567
330
9
100
AcDbSymbolTableRecord
100
AcDbRegAppTableRecord
  2
GEVID1212656546
 70
     0
  0
APPID
  5
568
330
9
100
AcDbSymbolTableRecord
100
AcDbRegAppTableRecord
  2
GEVID1212656547
 70
     0
  0
APPID
  5
569
330
9
100
AcDbSymbolTableRecord
100
AcDbRegAppTableRecord
  2
GEVID1212656548
 70
     0
  0
APPID
  5
56A
330
9
100
AcDbSymbolTableRecord
100
AcDbRegAppTableRecord
  2
GEVID1212656549
 70
     0
  0
APPID
  5
56B
330
9
100
AcDbSymbolTableRecord
100
AcDbRegAppTableRecord
  2
GEVID1212656550
 70
     0
  0
APPID
  5
56C
330
9
100
AcDbSymbolTableRecord
100
AcDbRegAppTableRecord
  2
GEVID1212656552
 70
     0
  0
APPID
  5
56D
330
9
100
AcDbSymbolTableRecord
100
AcDbRegAppTableRecord
  2
GEVID1212656553
 70
     0
  0
APPID
  5
56E
330
9
100
AcDbSymbolTableRecord
100
AcDbRegAppTableRecord
  2
GEVID1212656554
 70
     0
  0
APPID
  5
56F
330
9
100
AcDbSymbolTableRecord
100
AcDbRegAppTableRecord
  2
GEVID1212656555
 70
     0
  0
APPID
  5
570
330
9
100
AcDbSymbolTableRecord
100
AcDbRegAppTableRecord
  2
GEVID1212656556
 70
     0
  0
APPID
  5
571
330
9
100
AcDbSymbolTableRecord
100
AcDbRegAppTableRecord
  2
GEVID1212656557
 70
     0
  0
APPID
  5
572
330
9
100
AcDbSymbolTableRecord
100
AcDbRegAppTableRecord
  2
GEVID1212656559
 70
     0
  0
APPID
  5
573
330
9
100
AcDbSymbolTableRecord
100
AcDbRegAppTableRecord
  2
GEVID1212656560
 70
     0
  0
APPID
  5
574
330
9
100
AcDbSymbolTableRecord
100
AcDbRegAppTableRecord
  2
GEVID1212656561
 70
     0
  0
APPID
  5
575
330
9
100
AcDbSymbolTableRecord
100
AcDbRegAppTableRecord
  2
GEVID1212656562
 70
     0
  0
APPID
  5
576
330
9
100
AcDbSymbolTableRecord
100
AcDbRegAppTableRecord
  2
GEVID1212656563
 70
     0
  0
APPID
  5
577
330
9
100
AcDbSymbolTableRecord
100
AcDbRegAppTableRecord
  2
GEVID1212711781
 70
     0
  0
APPID
  5
578
330
9
100
AcDbSymbolTableRecord
100
AcDbRegAppTableRecord
  2
GEVID1212711782
 70
     0
  0
APPID
  5
579
330
9
100
AcDbSymbolTableRecord
100
AcDbRegAppTableRecord
  2
GEVID1212711783
 70
     0
  0
APPID
  5
57A
330
9
100
AcDbSymbolTableRecord
100
AcDbRegAppTableRecord
  2
GEVID1212711784
 70
     0
  0
APPID
  5
57B
330
9
100
AcDbSymbolTableRecord
100
AcDbRegAppTableRecord
  2
GEVID1212711788
 70
     0
  0
APPID
  5
57C
330
9
100
AcDbSymbolTableRecord
100
AcDbRegAppTableRecord
  2
GEVID1212711789
 70
     0
  0
APPID
  5
57D
330
9
100
AcDbSymbolTableRecord
100
AcDbRegAppTableRecord
  2
GEVID1212711790
 70
     0
  0
APPID
  5
57E
330
9
100
AcDbSymbolTableRecord
100
AcDbRegAppTableRecord
  2
GEVID1212711791
 70
     0
  0
APPID
  5
57F
330
9
100
AcDbSymbolTableRecord
100
AcDbRegAppTableRecord
  2
GEVID1212711792
 70
     0
  0
APPID
  5
580
330
9
100
AcDbSymbolTableRecord
100
AcDbRegAppTableRecord
  2
GEVID1212711793
 70
     0
  0
APPID
  5
581
330
9
100
AcDbSymbolTableRecord
100
AcDbRegAppTableRecord
  2
GEVID1212711794
 70
     0
  0
APPID
  5
582
330
9
100
AcDbSymbolTableRecord
100
AcDbRegAppTableRecord
  2
GEVID1212711795
 70
     0
  0
APPID
  5
583
330
9
100
AcDbSymbolTableRecord
100
AcDbRegAppTableRecord
  2
GEVID1212711797
 70
     0
  0
APPID
  5
584
330
9
100
AcDbSymbolTableRecord
100
AcDbRegAppTableRecord
  2
GEVID1212711798
 70
     0
  0
APPID
  5
585
330
9
100
AcDbSymbolTableRecord
100
AcDbRegAppTableRecord
  2
GEVID1212711799
 70
     0
  0
APPID
  5
586
330
9
100
AcDbSymbolTableRecord
100
AcDbRegAppTableRecord
  2
GEVID1212711800
 70
     0
  0
APPID
  5
587
330
9
100
AcDbSymbolTableRecord
100
AcDbRegAppTableRecord
  2
GEVID1212711801
 70
     0
  0
APPID
  5
588
330
9
100
AcDbSymbolTableRecord
100
AcDbRegAppTableRecord
  2
GEVID1212711802
 70
     0
  0
APPID
  5
589
330
9
100
AcDbSymbolTableRecord
100
AcDbRegAppTableRecord
  2
GEVID1212711803
 70
     0
  0
APPID
  5
58A
330
9
100
AcDbSymbolTableRecord
100
AcDbRegAppTableRecord
  2
GEVID1212711804
 70
     0
  0
APPID
  5
58B
330
9
100
AcDbSymbolTableRecord
100
AcDbRegAppTableRecord
  2
GEVID1212711805
 70
     0
  0
APPID
  5
58C
330
9
100
AcDbSymbolTableRecord
100
AcDbRegAppTableRecord
  2
GEVID1212711806
 70
     0
  0
APPID
  5
58D
330
9
100
AcDbSymbolTableRecord
100
AcDbRegAppTableRecord
  2
GEVID1212711807
 70
     0
  0
APPID
  5
58E
330
9
100
AcDbSymbolTableRecord
100
AcDbRegAppTableRecord
  2
GEVID1212711808
 70
     0
  0
APPID
  5
58F
330
9
100
AcDbSymbolTableRecord
100
AcDbRegAppTableRecord
  2
GEVID1212711809
 70
     0
  0
APPID
  5
590
330
9
100
AcDbSymbolTableRecord
100
AcDbRegAppTableRecord
  2
GEVID1212711810
 70
     0
  0
APPID
  5
591
330
9
100
AcDbSymbolTableRecord
100
AcDbRegAppTableRecord
  2
GEVID1212711811
 70
     0
  0
APPID
  5
90A
330
9
100
AcDbSymbolTableRecord
100
AcDbRegAppTableRecord
  2
GENIUS_GENTRA_14
 70
     0
  0
APPID
  5
919
330
9
100
AcDbSymbolTableRecord
100
AcDbRegAppTableRecord
  2
GENIUS_GENOBJ-N-TIT_13
 70
     0
  0
APPID
  5
91A
330
9
100
AcDbSymbolTableRecord
100
AcDbRegAppTableRecord
  2
GENIUS_GENTITLE_13
 70
     0
  0
APPID
  5
949
330
9
100
AcDbSymbolTableRecord
100
AcDbRegAppTableRecord
  2
GENIUS_GENBLLY_14
 70
     0
  0
APPID
  5
DDD
330
9
100
AcDbSymbolTableRecord
100
AcDbRegAppTableRecord
  2
GEVID1213165152
 70
     0
  0
APPID
  5
12F9
330
9
100
AcDbSymbolTableRecord
100
AcDbRegAppTableRecord
  2
AcDbDynamicBlockTrueName
 70
     0
  0
APPID
  5
12FA
330
9
100
AcDbSymbolTableRecord
100
AcDbRegAppTableRecord
  2
ACDBBLOCKREPETAG
 70
     0
  0
APPID
  5
1C15
330
9
100
AcDbSymbolTableRecord
100
AcDbRegAppTableRecord
  2
GEVID1214872427
 70
     0
  0
APPID
  5
1C2A
330
9
100
AcDbSymbolTableRecord
100
AcDbRegAppTableRecord
  2
GEVID1214872428
 70
     0
  0
APPID
  5
1C2F
330
9
100
AcDbSymbolTableRecord
100
AcDbRegAppTableRecord
  2
GEVID1214872429
 70
     0
  0
APPID
  5
1C33
330
9
100
AcDbSymbolTableRecord
100
AcDbRegAppTableRecord
  2
GEVID1214872430
 70
     0
  0
APPID
  5
1C3F
330
9
100
AcDbSymbolTableRecord
100
AcDbRegAppTableRecord
  2
GEVID1214872432
 70
     0
  0
APPID
  5
1C4E
330
9
100
AcDbSymbolTableRecord
100
AcDbRegAppTableRecord
  2
GEVID1214872433
 70
     0
  0
APPID
  5
20DC
330
9
100
AcDbSymbolTableRecord
100
AcDbRegAppTableRecord
  2
AcDbDynamicBlockGUID
 70
     0
  0
APPID
  5
20FD
330
9
100
AcDbSymbolTableRecord
100
AcDbRegAppTableRecord
  2
GENIUS_GENOBJ-N-REV_13
 70
     0
  0
APPID
  5
20FE
330
9
100
AcDbSymbolTableRecord
100
AcDbRegAppTableRecord
  2
GENIUS_GENOBJ-N-RSSYM_13
 70
     0
  0
APPID
  5
20FF
330
9
100
AcDbSymbolTableRecord
100
AcDbRegAppTableRecord
  2
GENIUS_GENSYMENT_13
 70
     0
  0
APPID
  5
2100
330
9
100
AcDbSymbolTableRecord
100
AcDbRegAppTableRecord
  2
GENIUS_GENSCSYM_13
 70
     0
  0
ENDTAB
  0
TABLE
  2
DIMSTYLE
  5
A
330
0
100
AcDbSymbolTable
 70
    29
100
AcDbDimStyleTable
 71
     1
340
5AB
  0
DIMSTYLE
105
5AB
330
A
100
AcDbSymbolTableRecord
100
AcDbDimStyleTableRecord
  2
SEISA
 70
     0
  4
"
 40
2.5
 41
2.5
 42
0.625
 43
10.0
 44
0.625
 47
0.1
 48
0.1
 73
     0
 74
     0
 77
     3
 78
     8
 79
     2
 90
     1
140
3.5
141
0.0
143
0.0393701
146
0.71
147
1.5
172
     1
176
     3
177
     3
178
     3
271
     2
272
     2
283
     0
286
     8
340
5D5
341
69
342
69
371
    -1
372
    -1
1001
ACAD_DSTYLE_DIMJAG
1070
   388
1040
1.5
1001
ACAD_DSTYLE_DIMTALN
1070
   392
1070
     1
  0
DIMSTYLE
105
5E9
102
{ACAD_REACTORS
330
57DC
330
5836
330
5866
330
58A1
330
5A57
330
5A6F
330
5A87
330
5B0F
330
5B63
330
5B7F
330
5B97
330
5BB5
330
5BCD
330
812B
330
815D
330
9851
330
987B
330
98E4
330
9943
330
9996
102
}
330
A
100
AcDbSymbolTableRecord
100
AcDbDimStyleTableRecord
  2
SEISA$0
 70
     0
  4
"
 40
2.5
 41
2.5
 42
0.625
 43
10.0
 44
0.625
 47
0.1
 48
0.1
 73
     0
 74
     0
 77
     3
 78
     8
 79
     2
 90
     1
140
3.5
141
0.0
143
0.0393701
146
0.71
147
1.5
172
     1
176
     3
177
     3
178
     3
271
     2
272
     2
283
     0
286
     8
340
5D5
341
69
342
69
371
    -1
372
    -1
  0
DIMSTYLE
105
9D6D
330
A
100
AcDbSymbolTableRecord
100
AcDbDimStyleTableRecord
  2
AM_ISO
 70
     0
  4
"
 41
2.5
 42
1.0
 43
10.0
 44
1.0
 47
0.1
 48
0.1
 73
     0
 74
     0
 77
     1
 78
     8
 79
     2
 90
     1
140
3.5
141
0.0
143
0.0393701
146
0.71
147
1.5
172
     1
176
   256
177
   256
178
     2
271
     2
272
     3
274
     4
283
     0
284
     8
340
11
371
    -1
372
    -1
  0
DIMSTYLE
105
9D6E
330
A
100
AcDbSymbolTableRecord
100
AcDbDimStyleTableRecord
  2
AM_ISO$3
 70
     0
  4
"
 41
2.5
 42
1.0
 43
10.0
 44
1.0
 47
0.1
 48
0.1
 73
     0
 77
     1
 78
     8
 79
     2
 90
     1
140
3.5
141
0.0
143
0.0393701
146
0.71
147
1.5
176
   256
177
   256
178
     2
271
     2
272
     3
274
     4
283
     0
284
     8
288
     1
289
     0
340
11
371
    -1
372
    -1
  0
DIMSTYLE
105
9D6F
330
A
100
AcDbSymbolTableRecord
100
AcDbDimStyleTableRecord
  2
AM_ISO$4
 70
     0
  4
"
 41
2.5
 42
1.0
 43
10.0
 44
1.0
 47
0.1
 48
0.1
 73
     0
 77
     1
 78
     8
 79
     2
 90
     1
140
3.5
141
0.0
143
0.0393701
146
0.71
147
1.5
176
   256
177
   256
178
     2
271
     2
272
     3
274
     4
283
     0
284
     8
288
     1
289
     0
340
11
371
    -1
372
    -1
  0
DIMSTYLE
105
9D70
330
A
100
AcDbSymbolTableRecord
100
AcDbDimStyleTableRecord
  2
AM_ISO$6
 70
     0
  4
"
 41
2.5
 42
1.0
 43
10.0
 44
1.0
 47
0.1
 48
0.1
 73
     0
 74
     0
 78
     8
 79
     2
 90
     1
140
3.5
141
0.0
143
0.0393701
146
0.71
147
1.5
172
     1
176
   256
177
   256
178
     2
271
     2
272
     3
274
     4
283
     0
284
     8
340
11
371
    -1
372
    -1
  0
DIMSTYLE
105
9D71
330
A
100
AcDbSymbolTableRecord
100
AcDbDimStyleTableRecord
  2
AM_ISO$7
 70
     0
  4
"
 41
2.5
 42
1.0
 43
10.0
 44
1.0
 47
0.1
 48
0.1
 73
     0
 74
     0
 77
     1
 78
     8
 79
     2
 90
     1
140
5.0
141
0.0
143
0.0393701
146
0.71
147
1.5
172
     1
176
   256
177
   256
178
     2
271
     2
272
     3
274
     4
283
     0
284
     8
340
11
371
    -1
372
    -1
  0
DIMSTYLE
105
9D72
330
A
100
AcDbSymbolTableRecord
100
AcDbDimStyleTableRecord
  2
AM_ISO$SF
 70
     0
  4
"
 41
2.5
 42
1.0
 43
10.0
 44
1.0
 47
0.1
 48
0.1
 73
     0
 74
     0
 75
     1
 76
     1
 77
     1
 78
     8
 79
     2
 90
     1
140
3.5
141
0.0
143
0.0393701
146
0.71
147
1.5
172
     1
176
   256
177
   256
178
     2
271
     2
272
     3
274
     4
283
     0
284
     8
340
11
371
    -1
372
    -1
  0
DIMSTYLE
105
9D73
330
A
100
AcDbSymbolTableRecord
100
AcDbDimStyleTableRecord
  2
AM_ISO$SH
 70
     0
  4
"
 41
2.5
 42
1.0
 43
10.0
 44
1.0
 47
0.1
 48
0.1
 73
     0
 74
     0
 75
     1
 76
     1
 77
     1
 78
     8
 79
     2
 90
     1
140
3.5
141
0.0
143
0.0393701
144
2.0
146
0.71
147
1.5
172
     1
173
     1
176
   256
177
   256
178
     2
271
     2
272
     3
274
     4
283
     0
284
     8
340
11
343
74
371
    -1
372
    -1
  0
ENDTAB
  0
TABLE
  2
BLOCK_RECORD
  5
1
330
0
100
AcDbSymbolTable
 70
    38
  0
BLOCK_RECORD
  5
1F
102
{ACAD_XDICTIONARY
360
82
102
}
330
1
100
AcDbSymbolTableRecord
100
AcDbBlockTableRecord
  2
*Model_Space
340
22
 70
     0
280
     1
281
     0
  0
BLOCK_RECORD
  5
1B
330
1
100
AcDbSymbolTableRecord
100
AcDbBlockTableRecord
  2
*Paper_Space
340
1E
 70
     0
280
     1
281
     0
  0
BLOCK_RECORD
  5
23
330
1
100
AcDbSymbolTableRecord
100
AcDbBlockTableRecord
  2
*Paper_Space0
340
26
 70
     0
280
     1
281
     0
  0
BLOCK_RECORD
  5
69
330
1
100
AcDbSymbolTableRecord
100
AcDbBlockTableRecord
  2
_Open30
340
0
102
{BLKREFS
331
90BA
331
90BB
331
90C3
331
90C4
331
90D4
331
90D5
331
90F3
331
90F4
331
90FC
331
90FD
331
9105
331
9106
331
9111
331
911C
331
9124
331
9125
331
912D
331
912E
331
9136
331
9137
331
913F
331
9140
331
91A6
331
91B1
331
9875
331
9876
331
98C9
331
98CA
331
98DF
331
98E0
331
993D
331
993E
331
9991
331
9992
331
99C2
331
99C3
102
}
 70
     0
280
     1
281
     0
  0
BLOCK_RECORD
  5
74
330
1
100
AcDbSymbolTableRecord
100
AcDbBlockTableRecord
  2
GENAXEH
340
0
 70
     0
280
     1
281
     0
  0
BLOCK_RECORD
  5
3E87
102
{ACAD_XDICTIONARY
360
3E88
102
}
330
1
100
AcDbSymbolTableRecord
100
AcDbBlockTableRecord
  2
ロッカクアナツキプラグ-1　R1／8
340
0
310
2800000020000000200000000100080000000000000400000000000000000000000000000000000000000000000080000080000000808000800000008000800080800000C0C0C000C0DCC000F0CAA6000020400000206000002080000020A0000020C0000020E00000400000004020000040400000406000004080000040A0
310
000040C0000040E00000600000006020000060400000606000006080000060A0000060C0000060E00000800000008020000080400000806000008080000080A0000080C0000080E00000A0000000A0200000A0400000A0600000A0800000A0A00000A0C00000A0E00000C0000000C0200000C0400000C0600000C0800000C0
310
A00000C0C00000C0E00000E0000000E0200000E0400000E0600000E0800000E0A00000E0C00000E0E00040000000400020004000400040006000400080004000A0004000C0004000E00040200000402020004020400040206000402080004020A0004020C0004020E000404000004040200040404000404060004040800040
310
40A0004040C0004040E00040600000406020004060400040606000406080004060A0004060C0004060E00040800000408020004080400040806000408080004080A0004080C0004080E00040A0000040A0200040A0400040A0600040A0800040A0A00040A0C00040A0E00040C0000040C0200040C0400040C0600040C08000
310
40C0A00040C0C00040C0E00040E0000040E0200040E0400040E0600040E0800040E0A00040E0C00040E0E00080000000800020008000400080006000800080008000A0008000C0008000E00080200000802020008020400080206000802080008020A0008020C0008020E00080400000804020008040400080406000804080
310
008040A0008040C0008040E00080600000806020008060400080606000806080008060A0008060C0008060E00080800000808020008080400080806000808080008080A0008080C0008080E00080A0000080A0200080A0400080A0600080A0800080A0A00080A0C00080A0E00080C0000080C0200080C0400080C0600080C0
310
800080C0A00080C0C00080C0E00080E0000080E0200080E0400080E0600080E0800080E0A00080E0C00080E0E000C0000000C0002000C0004000C0006000C0008000C000A000C000C000C000E000C0200000C0202000C0204000C0206000C0208000C020A000C020C000C020E000C0400000C0402000C0404000C0406000C0
310
408000C040A000C040C000C040E000C0600000C0602000C0604000C0606000C0608000C060A000C060C000C060E000C0800000C0802000C0804000C0806000C0808000C080A000C080C000C080E000C0A00000C0A02000C0A04000C0A06000C0A08000C0A0A000C0A0C000C0A0E000C0C00000C0C02000C0C04000C0C06000
310
C0C08000C0C0A000F0FBFF00A4A0A000808080000000FF0000FF000000FFFF00FF000000FF00FF00FFFF0000FFFFFF000000000000000000000000000000000000000000000000000000000000000000000000000000000000000000000000F900000000000000000000000000000000000000000000000000000000000000
310
F900000000000000000000000000000000000000000000000000000000000000F9000000000000000000000000000000000000000000000000000000000000FEF900000000000000000000000000000000000000000000000000000000FEFEFFF9FEFEFEFEFE000000000000000000000000000000000000000000FEFEFFFF
310
00F90000FFFF00FE000000000000000000000000000000000000FEFEFFFF000000F900000000FFFFFE00000000000000000000000000000000FE00FF0000000000F9000000000000FFFEFE00000000000000000000000000FE00FF000000000000F900000000000000FFFE00000000000000000000000000FE00FF00000000
310
0000FF0000000000000000FFFE0000000000000000000000FE00FF0000000000FFFFF9FFFF000000000000FFFE0000000000000000000000FE00FF00000000FF0000F90000FFFF0000000000FFFE00000000000000000000FEFF00000000FF000000F900000000FF00000000FFFE00000000000000000000FEFF00000000FF
310
000000F900000000FF00000000FFFE00000000000000000000FE0000000000FF000000F900000000FF0000000000FFFE0000000000F9F9F9F9F9F9F9F9F9F9FFF9F9F9F9F9F9F9F9FFF9F9F9F9F9F9F9F9F9F9000000000000FEFF00000000FF000000F900000000FF0000000000FFFE000000000000000000FEFF00000000
310
FF000000F900000000FF00000000FFFE00000000000000000000FE00FF00000000FFFF00F90000FFFF0000000000FFFE00000000000000000000FE00FF000000000000FFF9FFFF000000000000FFFE000000000000000000000000FE00FF000000000000FF0000000000000000FFFE000000000000000000000000FE00FF00
310
0000000000F900000000000000FFFE0000000000000000000000000000FE00FF0000000000F9000000000000FF00FE000000000000000000000000000000FE00FF00000000F90000000000FFFEFE0000000000000000000000000000000000FEFEFFFF0000F9000000FFFFFE00000000000000000000000000000000000000
310
0000FEFEFEFFF9FFFEFEFEFE00000000000000000000000000000000000000000000000000FEF9FE000000000000000000000000000000000000000000000000000000000000F900000000000000000000000000000000000000000000000000000000000000F9000000000000000000000000000000000000000000000000
310
00000000000000F9000000000000000000000000000000000000000000000000000000000000000000000000000000000000000000000000
102
{BLKREFS
331
4CCA
102
}
 70
     4
280
     1
281
     0
  0
BLOCK_RECORD
  5
4019
330
1
100
AcDbSymbolTableRecord
100
AcDbBlockTableRecord
  2
GENDOT
340
0
102
{BLKREFS
331
9110
331
911B
331
91A5
331
91B0
102
}
 70
     0
280
     1
281
     0
  0
BLOCK_RECORD
  5
40B9
102
{ACAD_XDICTIONARY
360
6C79
102
}
330
1
100
AcDbSymbolTableRecord
100
AcDbBlockTableRecord
  2
ロッカクアナツキプラグ-2　R1／8
340
0
310
2800000020000000200000000100080000000000000400000000000000000000000000000000000000000000000080000080000000808000800000008000800080800000C0C0C000C0DCC000F0CAA6000020400000206000002080000020A0000020C0000020E00000400000004020000040400000406000004080000040A0
310
000040C0000040E00000600000006020000060400000606000006080000060A0000060C0000060E00000800000008020000080400000806000008080000080A0000080C0000080E00000A0000000A0200000A0400000A0600000A0800000A0A00000A0C00000A0E00000C0000000C0200000C0400000C0600000C0800000C0
310
A00000C0C00000C0E00000E0000000E0200000E0400000E0600000E0800000E0A00000E0C00000E0E00040000000400020004000400040006000400080004000A0004000C0004000E00040200000402020004020400040206000402080004020A0004020C0004020E000404000004040200040404000404060004040800040
310
40A0004040C0004040E00040600000406020004060400040606000406080004060A0004060C0004060E00040800000408020004080400040806000408080004080A0004080C0004080E00040A0000040A0200040A0400040A0600040A0800040A0A00040A0C00040A0E00040C0000040C0200040C0400040C0600040C08000
310
40C0A00040C0C00040C0E00040E0000040E0200040E0400040E0600040E0800040E0A00040E0C00040E0E00080000000800020008000400080006000800080008000A0008000C0008000E00080200000802020008020400080206000802080008020A0008020C0008020E00080400000804020008040400080406000804080
310
008040A0008040C0008040E00080600000806020008060400080606000806080008060A0008060C0008060E00080800000808020008080400080806000808080008080A0008080C0008080E00080A0000080A0200080A0400080A0600080A0800080A0A00080A0C00080A0E00080C0000080C0200080C0400080C0600080C0
310
800080C0A00080C0C00080C0E00080E0000080E0200080E0400080E0600080E0800080E0A00080E0C00080E0E000C0000000C0002000C0004000C0006000C0008000C000A000C000C000C000E000C0200000C0202000C0204000C0206000C0208000C020A000C020C000C020E000C0400000C0402000C0404000C0406000C0
310
408000C040A000C040C000C040E000C0600000C0602000C0604000C0606000C0608000C060A000C060C000C060E000C0800000C0802000C0804000C0806000C0808000C080A000C080C000C080E000C0A00000C0A02000C0A04000C0A06000C0A08000C0A0A000C0A0C000C0A0E000C0C00000C0C02000C0C04000C0C06000
310
C0C08000C0C0A000F0FBFF00A4A0A000808080000000FF0000FF000000FFFF00FF000000FF00FF00FFFF0000FFFFFF00000000000000000000000000000000000000000000000000000000000000000000000000000000000000000000000000F9000000000000000000000000000000000000000000000000000000000000
310
00F900000000000000000000000000000000000000000000000000000000000000F90000000000000000000000000000000000000000000000000000000000FEFEF9000000000000000000000000000000000000000000000000000000FEFEFFFFF9FEFEFEFE000000000000000000000000000000000000000000FEFEFFFF
310
0000F900FFFF00FE000000000000000000000000000000000000FEFEFFFF00000000F9000000FFFFFE00000000000000000000000000000000FE00FF000000000000F90000000000FFFEFE00000000000000000000000000FE00FF00000000000000F9000000000000FFFE00000000000000000000000000FE00FF00000000
310
000000FF00000000000000FFFE0000000000000000000000FE00FF000000000000FFFFF9FFFF0000000000FFFE0000000000000000000000FE00FF00000000FFFF0000F90000FF0000000000FFFE00000000000000000000FEFF00000000FF00000000F9000000FF00000000FFFE00000000000000000000FEFF00000000FF
310
00000000F9000000FF00000000FFFE00000000000000000000FE0000000000FF00000000F9000000FF0000000000FFFE0000000000F9F9F9F9F9F9F9F9F9F9FFF9F9F9F9F9F9F9F9FFF9F9F9F9F9F9F9F9F9F9000000000000FEFF00000000FF00000000F9000000FF0000000000FFFE000000000000000000FEFF00000000
310
FF00000000F9000000FF00000000FFFE00000000000000000000FE00FF00000000FFFF0000F900FFFF0000000000FFFE00000000000000000000FE00FF000000000000FFFFF9FF000000000000FFFE000000000000000000000000FE00FF00000000000000FF00000000000000FFFE000000000000000000000000FE00FF00
310
000000000000F9000000000000FFFE0000000000000000000000000000FE00FF000000000000F90000000000FF00FE000000000000000000000000000000FE00FF0000000000F900000000FFFEFE0000000000000000000000000000000000FEFEFFFF000000F90000FFFFFE00000000000000000000000000000000000000
310
0000FEFEFEFFFFF9FEFEFEFE00000000000000000000000000000000000000000000000000FEFEF900000000000000000000000000000000000000000000000000000000000000F900000000000000000000000000000000000000000000000000000000000000F90000000000000000000000000000000000000000000000
310
0000000000000000F90000000000000000000000000000000000000000000000000000000000000000000000000000000000000000000000
102
{BLKREFS
331
4DB7
102
}
 70
     4
280
     1
281
     0
  0
BLOCK_RECORD
  5
4C89
102
{ACAD_XDICTIONARY
360
4D75
102
}
330
1
100
AcDbSymbolTableRecord
100
AcDbBlockTableRecord
  2
ケースＡ-1 SAM180
340
0
310
2800000020000000200000000100080000000000000400000000000000000000000000000000000000000000000080000080000000808000800000008000800080800000C0C0C000C0DCC000F0CAA6000020400000206000002080000020A0000020C0000020E00000400000004020000040400000406000004080000040A0
310
000040C0000040E00000600000006020000060400000606000006080000060A0000060C0000060E00000800000008020000080400000806000008080000080A0000080C0000080E00000A0000000A0200000A0400000A0600000A0800000A0A00000A0C00000A0E00000C0000000C0200000C0400000C0600000C0800000C0
310
A00000C0C00000C0E00000E0000000E0200000E0400000E0600000E0800000E0A00000E0C00000E0E00040000000400020004000400040006000400080004000A0004000C0004000E00040200000402020004020400040206000402080004020A0004020C0004020E000404000004040200040404000404060004040800040
310
40A0004040C0004040E00040600000406020004060400040606000406080004060A0004060C0004060E00040800000408020004080400040806000408080004080A0004080C0004080E00040A0000040A0200040A0400040A0600040A0800040A0A00040A0C00040A0E00040C0000040C0200040C0400040C0600040C08000
310
40C0A00040C0C00040C0E00040E0000040E0200040E0400040E0600040E0800040E0A00040E0C00040E0E00080000000800020008000400080006000800080008000A0008000C0008000E00080200000802020008020400080206000802080008020A0008020C0008020E00080400000804020008040400080406000804080
310
008040A0008040C0008040E00080600000806020008060400080606000806080008060A0008060C0008060E00080800000808020008080400080806000808080008080A0008080C0008080E00080A0000080A0200080A0400080A0600080A0800080A0A00080A0C00080A0E00080C0000080C0200080C0400080C0600080C0
310
800080C0A00080C0C00080C0E00080E0000080E0200080E0400080E0600080E0800080E0A00080E0C00080E0E000C0000000C0002000C0004000C0006000C0008000C000A000C000C000C000E000C0200000C0202000C0204000C0206000C0208000C020A000C020C000C020E000C0400000C0402000C0404000C0406000C0
310
408000C040A000C040C000C040E000C0600000C0602000C0604000C0606000C0608000C060A000C060C000C060E000C0800000C0802000C0804000C0806000C0808000C080A000C080C000C080E000C0A00000C0A02000C0A04000C0A06000C0A08000C0A0A000C0A0C000C0A0E000C0C00000C0C02000C0C04000C0C06000
310
C0C08000C0C0A000F0FBFF00A4A0A000808080000000FF0000FF000000FFFF00FF000000FF00FF00FFFF0000FFFFFF00000000000000000000000000000000000000000000000000000000000000000000000000000000000000FFFFFFFFFFFF00000000000000000000000000000000000000000000000000000000FF0000
310
FF00000000000000000000000000000000000000000000000000000000FF0000FF00000000000000000000000000000000000000000000000000000000FF0000FF00000000000000000000000000000000000000000000000000000000FF0000FFFFFFFFFFFFFF00000000000000000000000000000000000000000000FF00
310
00FF0000000000FF00000000000000000000000000000000000000000000FF0000FF0000000000FF00000000000000000000000000000000000000000000FF0000FF0000000000FF00000000000000000000000000000000000000000000FF0000FF0000000000FF00000000000000000000000000000000000000000000FF
310
0000FF0000000000FF00000000000000000000000000000000000000000000FFFEF9FF0000000000FF00000000000000000000000000000000000000000000F9FFFFF90000000000FF00000000000000000000000000000000000000000000FFFEFFFF0000000000FF00000000000000000000000000000000000000000000
310
FF0000FF0000000000FF00000000000000000000000000000000000000000000FF0000FF0000000000FF00000000000000000000000000000000000000000000FF0000FF0000000000FF0000000000000000000000000000000000000000000000000000000000000000000000000000000000000000000000000000000000
310
00000000000000000000000000000000000000000000000000000000000000000000000000000000000000000000000000000000000000000000000000000000000000000000000000000000000000000000000000000000000000000000000000000000000000FAFAFA000000000000000000000000000000000000000000
310
00000000000000FAFAFAFAFAFAFA000000000000000000000000000000000000000000000000000000FA0000FA000000000000000000000000000000000000000000FF0000FFA4A4A4FFFFFF00000000000000000000000000000000000000000000FFFFFFFFFFFFFFFF00FF00000000000000000000000000000000000000
310
000000FFFF00FFFFFFFFFFFFFF00000000000000000000000000000000000000000000FF0000FF000000000000000000000000000000000000000000000000F9F9FFFFFFFFFFFFF9F9000000000000000000000000000000000000000000000000FFFFFFFFFFFF000000000000000000000000000000000000000000000000
310
00000000FFFFFFFF000000000000000000000000000000000000000000000000000000000000000000000000000000000000000000000000
102
{BLKREFS
331
4CCB
102
}
 70
     4
280
     1
281
     0
  0
BLOCK_RECORD
  5
4D77
102
{ACAD_XDICTIONARY
360
4E5A
102
}
330
1
100
AcDbSymbolTableRecord
100
AcDbBlockTableRecord
  2
ケースＡ-2 SAM180
340
0
310
2800000020000000200000000100080000000000000400000000000000000000000000000000000000000000000080000080000000808000800000008000800080800000C0C0C000C0DCC000F0CAA6000020400000206000002080000020A0000020C0000020E00000400000004020000040400000406000004080000040A0
310
000040C0000040E00000600000006020000060400000606000006080000060A0000060C0000060E00000800000008020000080400000806000008080000080A0000080C0000080E00000A0000000A0200000A0400000A0600000A0800000A0A00000A0C00000A0E00000C0000000C0200000C0400000C0600000C0800000C0
310
A00000C0C00000C0E00000E0000000E0200000E0400000E0600000E0800000E0A00000E0C00000E0E00040000000400020004000400040006000400080004000A0004000C0004000E00040200000402020004020400040206000402080004020A0004020C0004020E000404000004040200040404000404060004040800040
310
40A0004040C0004040E00040600000406020004060400040606000406080004060A0004060C0004060E00040800000408020004080400040806000408080004080A0004080C0004080E00040A0000040A0200040A0400040A0600040A0800040A0A00040A0C00040A0E00040C0000040C0200040C0400040C0600040C08000
310
40C0A00040C0C00040C0E00040E0000040E0200040E0400040E0600040E0800040E0A00040E0C00040E0E00080000000800020008000400080006000800080008000A0008000C0008000E00080200000802020008020400080206000802080008020A0008020C0008020E00080400000804020008040400080406000804080
310
008040A0008040C0008040E00080600000806020008060400080606000806080008060A0008060C0008060E00080800000808020008080400080806000808080008080A0008080C0008080E00080A0000080A0200080A0400080A0600080A0800080A0A00080A0C00080A0E00080C0000080C0200080C0400080C0600080C0
310
800080C0A00080C0C00080C0E00080E0000080E0200080E0400080E0600080E0800080E0A00080E0C00080E0E000C0000000C0002000C0004000C0006000C0008000C000A000C000C000C000E000C0200000C0202000C0204000C0206000C0208000C020A000C020C000C020E000C0400000C0402000C0404000C0406000C0
310
408000C040A000C040C000C040E000C0600000C0602000C0604000C0606000C0608000C060A000C060C000C060E000C0800000C0802000C0804000C0806000C0808000C080A000C080C000C080E000C0A00000C0A02000C0A04000C0A06000C0A08000C0A0A000C0A0C000C0A0E000C0C00000C0C02000C0C04000C0C06000
310
C0C08000C0C0A000F0FBFF00A4A0A000808080000000FF0000FF000000FFFF00FF000000FF00FF00FFFF0000FFFFFF00000000000000000000000000000000000000000000000000000000000000000000000000000000000000000000000000FFFFFFFFFFFF00000000000000000000000000000000000000000000000000
310
00FF0000FF00000000000000000000000000000000000000000000000000000000FF0000FF00000000000000000000000000000000000000000000000000000000FF0000FF00000000000000000000000000000000000000000000FFFFFFFFFFFFFF0000FF00000000000000000000000000000000000000000000FF000000
310
0000FF0000FF00000000000000000000000000000000000000000000FF0000000000FF0000FF00000000000000000000000000000000000000000000FF0000000000FF0000FF00000000000000000000000000000000000000000000FF0000000000FF0000FF00000000000000000000000000000000000000000000FF0000
310
000000FF0000FF00000000000000000000000000000000000000000000FF0000000000FFF900FF00000000000000000000000000000000000000000000FF0000000000F9FFFFF900000000000000000000000000000000000000000000FF0000000000FFFFFEFF00000000000000000000000000000000000000000000FF00
310
00000000FF0000FF00000000000000000000000000000000000000000000FF0000000000FF0000FF00000000000000000000000000000000000000000000FF0000000000FF0000FF00000000000000000000000000000000000000000000000000000000000000000000000000000000000000000000000000000000000000
310
000000000000000000000000000000000000000000000000000000000000000000000000000000000000000000000000000000000000000000000000000000000000000000000000000000000000000000000000000000000000000000000000FAFAFA0000000000000000000000000000000000000000000000000000FAFA
310
FAFAFAFAFA0000000000000000000000000000000000000000000000000000FAFA00FA0000000000000000000000000000000000000000000000000000000000FFFFFFA4A4A4FF0000FF00000000000000000000000000000000000000000000FF00FFFFFFFFFFFFFFFF000000000000000000000000000000000000000000
310
00FFFFFFFFFFFFFF00FFFF00000000000000000000000000000000000000000000000000000000FF0000FF0000000000000000000000000000000000000000000000000000F9F9FFFFFFFFFFFFF9F9000000000000000000000000000000000000000000000000FFFFFFFFFFFF000000000000000000000000000000000000
310
0000000000000000FFFFFFFF0000000000000000000000000000000000000000000000000000000000000000000000000000000000000000
102
{BLKREFS
331
4DB8
102
}
 70
     4
280
     1
281
     0
  0
BLOCK_RECORD
  5
4EAB
102
{ACAD_XDICTIONARY
360
6D3C
102
}
330
1
100
AcDbSymbolTableRecord
100
AcDbBlockTableRecord
  2
センタ-1 SAM180
340
0
310
2800000020000000200000000100080000000000000400000000000000000000000000000000000000000000000080000080000000808000800000008000800080800000C0C0C000C0DCC000F0CAA6000020400000206000002080000020A0000020C0000020E00000400000004020000040400000406000004080000040A0
310
000040C0000040E00000600000006020000060400000606000006080000060A0000060C0000060E00000800000008020000080400000806000008080000080A0000080C0000080E00000A0000000A0200000A0400000A0600000A0800000A0A00000A0C00000A0E00000C0000000C0200000C0400000C0600000C0800000C0
310
A00000C0C00000C0E00000E0000000E0200000E0400000E0600000E0800000E0A00000E0C00000E0E00040000000400020004000400040006000400080004000A0004000C0004000E00040200000402020004020400040206000402080004020A0004020C0004020E000404000004040200040404000404060004040800040
310
40A0004040C0004040E00040600000406020004060400040606000406080004060A0004060C0004060E00040800000408020004080400040806000408080004080A0004080C0004080E00040A0000040A0200040A0400040A0600040A0800040A0A00040A0C00040A0E00040C0000040C0200040C0400040C0600040C08000
310
40C0A00040C0C00040C0E00040E0000040E0200040E0400040E0600040E0800040E0A00040E0C00040E0E00080000000800020008000400080006000800080008000A0008000C0008000E00080200000802020008020400080206000802080008020A0008020C0008020E00080400000804020008040400080406000804080
310
008040A0008040C0008040E00080600000806020008060400080606000806080008060A0008060C0008060E00080800000808020008080400080806000808080008080A0008080C0008080E00080A0000080A0200080A0400080A0600080A0800080A0A00080A0C00080A0E00080C0000080C0200080C0400080C0600080C0
310
800080C0A00080C0C00080C0E00080E0000080E0200080E0400080E0600080E0800080E0A00080E0C00080E0E000C0000000C0002000C0004000C0006000C0008000C000A000C000C000C000E000C0200000C0202000C0204000C0206000C0208000C020A000C020C000C020E000C0400000C0402000C0404000C0406000C0
310
408000C040A000C040C000C040E000C0600000C0602000C0604000C0606000C0608000C060A000C060C000C060E000C0800000C0802000C0804000C0806000C0808000C080A000C080C000C080E000C0A00000C0A02000C0A04000C0A06000C0A08000C0A0A000C0A0C000C0A0E000C0C00000C0C02000C0C04000C0C06000
310
C0C08000C0C0A000F0FBFF00A4A0A000808080000000FF0000FF000000FFFF00FF000000FF00FF00FFFF0000FFFFFF0000000000000000000000000000000000000000000000000000000000000000000000000000000000000000000000000000FFFFFF000000000000000000000000000000000000000000000000000000
310
00000000FFFFFFFFFFFFFFFF000000000000000000000000000000000000000000000000FFFF0000000000FF000000000000000000000000000000000000000000000000FFFF0000000000FF000000000000000000000000000000000000000000000000FFFF0000000000FF00000000000000000000000000000000000000
310
0000000000FFFF0000000000FF000000000000000000000000000000000000000000000000FFFF0000000000FF000000000000000000000000000000000000000000000000FFFF0000000000FF000000000000000000000000000000000000000000000000FFFF0000000000FF000000000000000000000000000000000000
310
000000000000FFFF0000000000FF000000000000000000000000000000000000000000000000FFFF0000000000FF000000000000000000000000000000000000000000000000FFFF0000000000FF000000000000000000000000000000000000000000000000FFFF0000000000FF00000000000000000000FF000000000000
310
00000000000000FFFF0000000000FF00000000000000000000FF0000000000000000000000000000000000000000FF00000000000000000000FF0000000000000000000000000000000000000000FF00000000000000000000FF0000000000000000000000000000000000000000FF00000000000000000000FF0000000000
310
000000000000000000000000000000FF00000000000000000000FF0000000000000000000000000000000000000000FF00000000000000000000FFFFFFFFFFFFFFFFFFFFFFFFFFFFFFFFFFFFFFFFFFFF00000000000000000000FF0000000000000000000000000000000000000000FF00000000000000000000FFFFFFFFFF
310
FFFFFFFFFFFFFFFFFFFFFFFFFFFFFFFFFF00000000000000000000FF0000000000000000000000000000000000000000FF00000000000000000000FF0000000000000000000000000000000000000000FF00000000000000000000FF0000000000000000000000000000000000000000FF00000000000000000000FF000000
310
00F9000000000000000000FFFFFFFFFFFFFF00000000000000000000FFFFFFFFFFF9FFFFFFFFFFFFFFFFFF0000000000000000000000000000000000000000FFFFF9FFFFFFF9000000000000000000000000000000000000000000000000000000F90000000000000000000000000000000000000000000000000000000000
310
0000F90000000000000000000000000000000000000000000000000000000000000000000000000000000000000000000000000000000000
102
{BLKREFS
331
4ECA
102
}
 70
     4
280
     1
281
     0
  0
BLOCK_RECORD
  5
4EFC
102
{ACAD_XDICTIONARY
360
4F62
102
}
330
1
100
AcDbSymbolTableRecord
100
AcDbBlockTableRecord
  2
センタ-2 SAM180
340
0
310
2800000020000000200000000100080000000000000400000000000000000000000000000000000000000000000080000080000000808000800000008000800080800000C0C0C000C0DCC000F0CAA6000020400000206000002080000020A0000020C0000020E00000400000004020000040400000406000004080000040A0
310
000040C0000040E00000600000006020000060400000606000006080000060A0000060C0000060E00000800000008020000080400000806000008080000080A0000080C0000080E00000A0000000A0200000A0400000A0600000A0800000A0A00000A0C00000A0E00000C0000000C0200000C0400000C0600000C0800000C0
310
A00000C0C00000C0E00000E0000000E0200000E0400000E0600000E0800000E0A00000E0C00000E0E00040000000400020004000400040006000400080004000A0004000C0004000E00040200000402020004020400040206000402080004020A0004020C0004020E000404000004040200040404000404060004040800040
310
40A0004040C0004040E00040600000406020004060400040606000406080004060A0004060C0004060E00040800000408020004080400040806000408080004080A0004080C0004080E00040A0000040A0200040A0400040A0600040A0800040A0A00040A0C00040A0E00040C0000040C0200040C0400040C0600040C08000
310
40C0A00040C0C00040C0E00040E0000040E0200040E0400040E0600040E0800040E0A00040E0C00040E0E00080000000800020008000400080006000800080008000A0008000C0008000E00080200000802020008020400080206000802080008020A0008020C0008020E00080400000804020008040400080406000804080
310
008040A0008040C0008040E00080600000806020008060400080606000806080008060A0008060C0008060E00080800000808020008080400080806000808080008080A0008080C0008080E00080A0000080A0200080A0400080A0600080A0800080A0A00080A0C00080A0E00080C0000080C0200080C0400080C0600080C0
310
800080C0A00080C0C00080C0E00080E0000080E0200080E0400080E0600080E0800080E0A00080E0C00080E0E000C0000000C0002000C0004000C0006000C0008000C000A000C000C000C000E000C0200000C0202000C0204000C0206000C0208000C020A000C020C000C020E000C0400000C0402000C0404000C0406000C0
310
408000C040A000C040C000C040E000C0600000C0602000C0604000C0606000C0608000C060A000C060C000C060E000C0800000C0802000C0804000C0806000C0808000C080A000C080C000C080E000C0A00000C0A02000C0A04000C0A06000C0A08000C0A0A000C0A0C000C0A0E000C0C00000C0C02000C0C04000C0C06000
310
C0C08000C0C0A000F0FBFF00A4A0A000808080000000FF0000FF000000FFFF00FF000000FF00FF00FFFF0000FFFFFF000000000000000000000000000000000000000000000000000000000000000000000000000000000000000000FFFFFF00000000000000000000000000000000000000000000FFFFFFFFFFFFFFFF0000
310
00000000000000000000000000000000000000000000FF0000000000FFFF000000000000000000000000000000000000000000000000FF0000000000FFFF000000000000000000000000000000000000000000000000FF0000000000FFFF000000000000000000000000000000000000000000000000FF0000000000FFFF00
310
0000000000000000000000000000000000000000000000FF0000000000FFFF000000000000000000000000000000000000000000000000FF0000000000FFFF000000000000000000000000000000000000000000000000FF0000000000FFFF000000000000000000000000000000000000000000000000FF0000000000FFFF
310
000000000000000000000000000000000000000000000000FF0000000000FFFF000000000000000000000000000000000000000000000000FF0000000000FFFF000000000000000000000000000000000000000000000000FF0000000000FFFF000000000000000000000000000000000000000000000000FF0000000000FF
310
FF00000000000000000000000000FF00000000000000000000FF0000000000000000000000000000000000000000FF00000000000000000000FF0000000000000000000000000000000000000000FF00000000000000000000FF0000000000000000000000000000000000000000FF00000000000000000000FF0000000000
310
000000000000000000000000000000FF00000000000000000000FF0000000000000000000000000000000000000000FF00000000000000000000FF0000000000000000000000000000000000000000FF00000000000000000000FF0000000000000000000000000000000000000000FF00000000000000000000FFFFFFFFFF
310
FFFFFFFFFFFFFFFFFFFFFFFFFFFFFFFFFF00000000000000000000FFFFFFFFFFFFFFFFFFFFFFFFFFFFFFFFFFFFFFFFFFFF00000000000000000000FF0000000000000000000000000000000000000000FF00000000000000000000FF0000000000000000000000000000000000000000FF00000000000000000000FFFFFFFF
310
FFFFFF000000000000000000F900000000FF0000000000000000000000000000000000FFFFFFFFFFFFFFFFFFF9FFFFFFFFFF00000000000000000000000000000000000000000000F9FFFFFFF9FFFF0000000000000000000000000000000000000000000000000000000000F9000000000000000000000000000000000000
310
00000000000000000000000000F9000000000000000000000000000000000000000000000000000000000000000000000000000000000000
102
{BLKREFS
331
4F1B
102
}
 70
     4
280
     1
281
     0
  0
BLOCK_RECORD
  5
5346
102
{ACAD_XDICTIONARY
360
53D9
102
}
330
1
100
AcDbSymbolTableRecord
100
AcDbBlockTableRecord
  2
リーマボルト-1 SAM180 M8
340
0
310
2800000020000000200000000100080000000000000400000000000000000000000000000000000000000000000080000080000000808000800000008000800080800000C0C0C000C0DCC000F0CAA6000020400000206000002080000020A0000020C0000020E00000400000004020000040400000406000004080000040A0
310
000040C0000040E00000600000006020000060400000606000006080000060A0000060C0000060E00000800000008020000080400000806000008080000080A0000080C0000080E00000A0000000A0200000A0400000A0600000A0800000A0A00000A0C00000A0E00000C0000000C0200000C0400000C0600000C0800000C0
310
A00000C0C00000C0E00000E0000000E0200000E0400000E0600000E0800000E0A00000E0C00000E0E00040000000400020004000400040006000400080004000A0004000C0004000E00040200000402020004020400040206000402080004020A0004020C0004020E000404000004040200040404000404060004040800040
310
40A0004040C0004040E00040600000406020004060400040606000406080004060A0004060C0004060E00040800000408020004080400040806000408080004080A0004080C0004080E00040A0000040A0200040A0400040A0600040A0800040A0A00040A0C00040A0E00040C0000040C0200040C0400040C0600040C08000
310
40C0A00040C0C00040C0E00040E0000040E0200040E0400040E0600040E0800040E0A00040E0C00040E0E00080000000800020008000400080006000800080008000A0008000C0008000E00080200000802020008020400080206000802080008020A0008020C0008020E00080400000804020008040400080406000804080
310
008040A0008040C0008040E00080600000806020008060400080606000806080008060A0008060C0008060E00080800000808020008080400080806000808080008080A0008080C0008080E00080A0000080A0200080A0400080A0600080A0800080A0A00080A0C00080A0E00080C0000080C0200080C0400080C0600080C0
310
800080C0A00080C0C00080C0E00080E0000080E0200080E0400080E0600080E0800080E0A00080E0C00080E0E000C0000000C0002000C0004000C0006000C0008000C000A000C000C000C000E000C0200000C0202000C0204000C0206000C0208000C020A000C020C000C020E000C0400000C0402000C0404000C0406000C0
310
408000C040A000C040C000C040E000C0600000C0602000C0604000C0606000C0608000C060A000C060C000C060E000C0800000C0802000C0804000C0806000C0808000C080A000C080C000C080E000C0A00000C0A02000C0A04000C0A06000C0A08000C0A0A000C0A0C000C0A0E000C0C00000C0C02000C0C04000C0C06000
310
C0C08000C0C0A000F0FBFF00A4A0A000808080000000FF0000FF000000FFFF00FF000000FF00FF00FFFF0000FFFFFF0000000000000000000000000000000000000000000000000000000000000000000000000000000000000000000000000000000000000000000000000000000000000000000000000000000000000000
310
00000000000000000000000000000000000000000000000000000000000000000000000000000000000000000000000000000000000000000000000000000000000000000000000000000000000000000000000000000000000000000000000000000000000000000000000000000000000000000000000000000000000000
310
00000000000000000000000000000000000000000000000000000000000000000000000000000000000000000000000000000000000000000000000000000000000000000000000000000000000000000000000000000000000000000000000000000000000000000000000000000000000000000000000000000000000000
310
0000000000000000000000000000000000000000000000000000000000000000000000000000000000FFFFFFFFFFFF000000000000FFFFFFFF000000000000000000000000000000000000FF0000FFFF0000000000FF0000FFFF000000000000000000000000FFFFFFFF00FFFFFFFFFFFF000000FFFF000000FF0000000000
310
00000000000000FFFF000000FF0000FFFFFFFF0000FFFF000000FF000000000000000000000000FFFF00FF00FF0000FFFFFFFF0000FFFF000000FF000000000000000000000000FFFF0000FFFF0000FFFFFFFF0000FFFF000000FF000000000000000000000000FFFF000000FF0000FFFFFFFF0000FFFF0000FFFF00000000
310
0000000000000000FFFFFFFF00FFFFFFFFFFFF00000000FFFFFFFF000000000000000000000000000000000000FF0000FFFF00000000000000000000000000000000000000000000000000FFFFFFFFFFFF00000000000000000000000000000000000000000000000000000000000000000000000000000000000000000000
310
00000000000000000000000000000000000000000000000000000000000000000000000000000000000000000000000000000000000000000000000000000000000000000000000000000000000000000000000000000000000000000000000000000000000000000000000000000000000000000000000000000000000000
310
00000000000000000000000000000000000000000000000000000000000000000000000000000000000000000000000000000000000000000000000000000000000000000000000000000000000000000000000000000000000000000000000000000000000000000000000000000000000000000000000000000000000000
310
0000000000000000000000000000000000000000000000000000000000000000000000000000000000000000000000000000000000000000
102
{BLKREFS
331
5374
102
}
 70
     4
280
     1
281
     0
  0
BLOCK_RECORD
  5
53DB
102
{ACAD_XDICTIONARY
360
5474
102
}
330
1
100
AcDbSymbolTableRecord
100
AcDbBlockTableRecord
  2
リーマボルト-2 SAM180 M8
340
0
310
2800000020000000200000000100080000000000000400000000000000000000000000000000000000000000000080000080000000808000800000008000800080800000C0C0C000C0DCC000F0CAA6000020400000206000002080000020A0000020C0000020E00000400000004020000040400000406000004080000040A0
310
000040C0000040E00000600000006020000060400000606000006080000060A0000060C0000060E00000800000008020000080400000806000008080000080A0000080C0000080E00000A0000000A0200000A0400000A0600000A0800000A0A00000A0C00000A0E00000C0000000C0200000C0400000C0600000C0800000C0
310
A00000C0C00000C0E00000E0000000E0200000E0400000E0600000E0800000E0A00000E0C00000E0E00040000000400020004000400040006000400080004000A0004000C0004000E00040200000402020004020400040206000402080004020A0004020C0004020E000404000004040200040404000404060004040800040
310
40A0004040C0004040E00040600000406020004060400040606000406080004060A0004060C0004060E00040800000408020004080400040806000408080004080A0004080C0004080E00040A0000040A0200040A0400040A0600040A0800040A0A00040A0C00040A0E00040C0000040C0200040C0400040C0600040C08000
310
40C0A00040C0C00040C0E00040E0000040E0200040E0400040E0600040E0800040E0A00040E0C00040E0E00080000000800020008000400080006000800080008000A0008000C0008000E00080200000802020008020400080206000802080008020A0008020C0008020E00080400000804020008040400080406000804080
310
008040A0008040C0008040E00080600000806020008060400080606000806080008060A0008060C0008060E00080800000808020008080400080806000808080008080A0008080C0008080E00080A0000080A0200080A0400080A0600080A0800080A0A00080A0C00080A0E00080C0000080C0200080C0400080C0600080C0
310
800080C0A00080C0C00080C0E00080E0000080E0200080E0400080E0600080E0800080E0A00080E0C00080E0E000C0000000C0002000C0004000C0006000C0008000C000A000C000C000C000E000C0200000C0202000C0204000C0206000C0208000C020A000C020C000C020E000C0400000C0402000C0404000C0406000C0
310
408000C040A000C040C000C040E000C0600000C0602000C0604000C0606000C0608000C060A000C060C000C060E000C0800000C0802000C0804000C0806000C0808000C080A000C080C000C080E000C0A00000C0A02000C0A04000C0A06000C0A08000C0A0A000C0A0C000C0A0E000C0C00000C0C02000C0C04000C0C06000
310
C0C08000C0C0A000F0FBFF00A4A0A000808080000000FF0000FF000000FFFF00FF000000FF00FF00FFFF0000FFFFFF0000000000000000000000000000000000000000000000000000000000000000000000000000000000000000000000000000000000000000000000000000000000000000000000000000000000000000
310
00000000000000000000000000000000000000000000000000000000000000000000000000000000000000000000000000000000000000000000000000000000000000000000000000000000000000000000000000000000000000000000000000000000000000000000000000000000000000000000000000000000000000
310
00000000000000000000000000000000000000000000000000000000000000000000000000000000000000000000000000000000000000000000000000000000000000000000000000000000000000000000000000000000000000000000000000000000000000000000000000000000000000000000000000000000000000
310
0000000000000000000000000000000000000000000000FFFFFFFFFFFF00000000000000000000000000000000000000000000000000FFFF0000FF000000000000000000000000000000000000FFFFFFFF00000000FFFFFFFFFFFF00FFFFFFFF000000000000000000000000FFFF0000FF000000FFFFFFFF0000FF000000FF
310
FF000000000000000000000000FF000000FFFF0000FFFFFFFF0000FF000000FFFF000000000000000000000000FF000000FFFF0000FFFFFFFF0000FFFFFF00FFFF000000000000000000000000FF000000FFFF0000FFFFFFFF0000FF000000FFFF000000000000000000000000FF000000FFFF000000FFFFFFFFFFFF00FFFF
310
FFFF000000000000000000000000FFFF0000FFFF00000000FFFF0000FF000000000000000000000000000000000000FFFFFFFF000000000000FFFFFFFFFFFF00000000000000000000000000000000000000000000000000000000000000000000000000000000000000000000000000000000000000000000000000000000
310
00000000000000000000000000000000000000000000000000000000000000000000000000000000000000000000000000000000000000000000000000000000000000000000000000000000000000000000000000000000000000000000000000000000000000000000000000000000000000000000000000000000000000
310
00000000000000000000000000000000000000000000000000000000000000000000000000000000000000000000000000000000000000000000000000000000000000000000000000000000000000000000000000000000000000000000000000000000000000000000000000000000000000000000000000000000000000
310
0000000000000000000000000000000000000000000000000000000000000000000000000000000000000000000000000000000000000000
102
{BLKREFS
331
5409
102
}
 70
     4
280
     1
281
     0
  0
BLOCK_RECORD
  5
57DD
330
1
100
AcDbSymbolTableRecord
100
AcDbBlockTableRecord
  2
*D15
340
0
 70
     0
280
     1
281
     0
  0
BLOCK_RECORD
  5
5837
330
1
100
AcDbSymbolTableRecord
100
AcDbBlockTableRecord
  2
*D16
340
0
 70
     0
280
     1
281
     0
  0
BLOCK_RECORD
  5
5867
330
1
100
AcDbSymbolTableRecord
100
AcDbBlockTableRecord
  2
*D17
340
0
 70
     0
280
     1
281
     0
  0
BLOCK_RECORD
  5
58A2
330
1
100
AcDbSymbolTableRecord
100
AcDbBlockTableRecord
  2
*D18
340
0
 70
     0
280
     1
281
     0
  0
BLOCK_RECORD
  5
5A58
330
1
100
AcDbSymbolTableRecord
100
AcDbBlockTableRecord
  2
*D19
340
0
 70
     0
280
     1
281
     0
  0
BLOCK_RECORD
  5
5A70
330
1
100
AcDbSymbolTableRecord
100
AcDbBlockTableRecord
  2
*D20
340
0
 70
     0
280
     1
281
     0
  0
BLOCK_RECORD
  5
5A88
330
1
100
AcDbSymbolTableRecord
100
AcDbBlockTableRecord
  2
*D21
340
0
 70
     0
280
     1
281
     0
  0
BLOCK_RECORD
  5
5B10
330
1
100
AcDbSymbolTableRecord
100
AcDbBlockTableRecord
  2
*D22
340
0
 70
     0
280
     1
281
     0
  0
BLOCK_RECORD
  5
5B64
330
1
100
AcDbSymbolTableRecord
100
AcDbBlockTableRecord
  2
*D23
340
0
 70
     0
280
     1
281
     0
  0
BLOCK_RECORD
  5
5B80
330
1
100
AcDbSymbolTableRecord
100
AcDbBlockTableRecord
  2
*D24
340
0
 70
     0
280
     1
281
     0
  0
BLOCK_RECORD
  5
5B98
330
1
100
AcDbSymbolTableRecord
100
AcDbBlockTableRecord
  2
*D25
340
0
 70
     0
280
     1
281
     0
  0
BLOCK_RECORD
  5
5BB6
330
1
100
AcDbSymbolTableRecord
100
AcDbBlockTableRecord
  2
*D26
340
0
 70
     0
280
     1
281
     0
  0
BLOCK_RECORD
  5
5BCE
330
1
100
AcDbSymbolTableRecord
100
AcDbBlockTableRecord
  2
*D27
340
0
 70
     0
280
     1
281
     0
  0
BLOCK_RECORD
  5
78EA
102
{ACAD_XDICTIONARY
360
7BEB
102
}
330
1
100
AcDbSymbolTableRecord
100
AcDbBlockTableRecord
  2
ＧＣスペーサ SAMY180
340
0
310
2800000020000000200000000100080000000000000400000000000000000000000000000000000000000000000080000080000000808000800000008000800080800000C0C0C000C0DCC000F0CAA6000020400000206000002080000020A0000020C0000020E00000400000004020000040400000406000004080000040A0
310
000040C0000040E00000600000006020000060400000606000006080000060A0000060C0000060E00000800000008020000080400000806000008080000080A0000080C0000080E00000A0000000A0200000A0400000A0600000A0800000A0A00000A0C00000A0E00000C0000000C0200000C0400000C0600000C0800000C0
310
A00000C0C00000C0E00000E0000000E0200000E0400000E0600000E0800000E0A00000E0C00000E0E00040000000400020004000400040006000400080004000A0004000C0004000E00040200000402020004020400040206000402080004020A0004020C0004020E000404000004040200040404000404060004040800040
310
40A0004040C0004040E00040600000406020004060400040606000406080004060A0004060C0004060E00040800000408020004080400040806000408080004080A0004080C0004080E00040A0000040A0200040A0400040A0600040A0800040A0A00040A0C00040A0E00040C0000040C0200040C0400040C0600040C08000
310
40C0A00040C0C00040C0E00040E0000040E0200040E0400040E0600040E0800040E0A00040E0C00040E0E00080000000800020008000400080006000800080008000A0008000C0008000E00080200000802020008020400080206000802080008020A0008020C0008020E00080400000804020008040400080406000804080
310
008040A0008040C0008040E00080600000806020008060400080606000806080008060A0008060C0008060E00080800000808020008080400080806000808080008080A0008080C0008080E00080A0000080A0200080A0400080A0600080A0800080A0A00080A0C00080A0E00080C0000080C0200080C0400080C0600080C0
310
800080C0A00080C0C00080C0E00080E0000080E0200080E0400080E0600080E0800080E0A00080E0C00080E0E000C0000000C0002000C0004000C0006000C0008000C000A000C000C000C000E000C0200000C0202000C0204000C0206000C0208000C020A000C020C000C020E000C0400000C0402000C0404000C0406000C0
310
408000C040A000C040C000C040E000C0600000C0602000C0604000C0606000C0608000C060A000C060C000C060E000C0800000C0802000C0804000C0806000C0808000C080A000C080C000C080E000C0A00000C0A02000C0A04000C0A06000C0A08000C0A0A000C0A0C000C0A0E000C0C00000C0C02000C0C04000C0C06000
310
C0C08000C0C0A000F0FBFF00A4A0A000808080000000FF0000FF000000FFFF00FF000000FF00FF00FFFF0000FFFFFF0000000000000000000000000000000000000000000000000000000000000000000000000000000000000000000000000000000000000000000000000000000000000000000000000000000000000000
310
00000000000000000000000000000000000000FFFFFF00000000000000000000000000000000000000000000FFFFFF00000000F9F9F9F90000000000000000000000000000000000000000F9F9F9F900000000FF00FFFF0000000000000000000000000000000000000000FFFF00FF00000000FF00FFFFFFFFFFFFFFFFFFFF
310
FFFFFEFFFFFFFFFFFFFFFFFFFFFF00FF00000000FF00FFFF000000000000000000FEFE000000000000000000FFFFFFFF00000000FF00FFFF000000000000000000FEFE000000000000000000FFFFFFFF00000000FF00FFFF000000000000000000FEFE000000000000000000FFFFFFFF00000000FF00FFFF00000000000000
310
0000FEFE000000000000000000FFFFFFFF00000000FF00FFFF00000000000000000000FE000000000000000000FFFFFFFF00000000FF00FFFF000000000000000000FEFE000000000000000000FFFFFFFF00000000FF00FFFF000000000000000000FEFE000000000000000000FFFFFFFF00000000FF00FFFF000000000000
310
000000FEFE000000000000000000FFFFFFFF00000000FFFFFFFFFFF9F9F9F9F9F9F9F9F9FEF9F9F9F9F9F9F9F9FFFFFFFFFFF9000000FFFF0000FF000000000000000000FE0000000000000000FF0000FFFF00000000FFFF0000FF0000000000000000FEFE0000000000000000FF0000FFFF00000000FFFF0000FF00000000
310
00000000FEFE0000000000000000FF0000FFFF00000000FFFF0000FF0000000000000000FEFE0000000000000000FF0000FFFF00000000FFFF0000FF000000000000000000FE0000000000000000FF0000FFFF00000000FFFF0000FF0000000000000000FEFE0000000000000000FF0000FFFF00000000FFFF0000FF000000
310
0000000000FEFE0000000000000000FF0000FFFF00000000FFFF00F9FFFFFFFFFFFFFFFFFFFEFEFFFFFFFFFFFFFFFFFFF900FFFF00000000FFFF00FFF9FF00000000000000FEFE00000000000000F9FFFF00FFFF00000000FF0000F9F9FFFFFFFFFFFFFFFFFFFEFFFFFFFFFFFFFFFFF9F90000FF00000000FFFFFFFFFF0000
310
00000000000000000000000000000000FFFFFFFFFF000000F9FFFFFFF90000000000000000000000000000000000000000F9FFFFFF00000000FFFFFF00000000000000000000000000000000000000000000FFFFFF000000000000000000000000000000000000000000000000000000000000000000000000000000000000
310
0000000000000000000000000000000000000000000000000000000000000000000000000000000000000000000000000000000000000000
102
{BLKREFS
331
796C
102
}
 70
     4
280
     1
281
     0
  0
BLOCK_RECORD
  5
812C
330
1
100
AcDbSymbolTableRecord
100
AcDbBlockTableRecord
  2
*D29
340
0
 70
     0
280
     1
281
     0
  0
BLOCK_RECORD
  5
815E
330
1
100
AcDbSymbolTableRecord
100
AcDbBlockTableRecord
  2
*D30
340
0
 70
     0
280
     1
281
     0
  0
BLOCK_RECORD
  5
9852
330
1
100
AcDbSymbolTableRecord
100
AcDbBlockTableRecord
  2
*D31
340
0
 70
     0
280
     1
281
     0
  0
BLOCK_RECORD
  5
987C
330
1
100
AcDbSymbolTableRecord
100
AcDbBlockTableRecord
  2
*D32
340
0
 70
     0
280
     1
281
     0
  0
BLOCK_RECORD
  5
98E5
330
1
100
AcDbSymbolTableRecord
100
AcDbBlockTableRecord
  2
*D33
340
0
 70
     0
280
     1
281
     0
  0
BLOCK_RECORD
  5
9944
330
1
100
AcDbSymbolTableRecord
100
AcDbBlockTableRecord
  2
*D34
340
0
 70
     0
280
     1
281
     0
  0
BLOCK_RECORD
  5
9997
330
1
100
AcDbSymbolTableRecord
100
AcDbBlockTableRecord
  2
*D35
340
0
 70
     0
280
     1
281
     0
  0
BLOCK_RECORD
  5
9B95
330
1
100
AcDbSymbolTableRecord
100
AcDbBlockTableRecord
  2
ケース
340
0
310
2800000020000000200000000100080000000000000400000000000000000000000000000000000000000000000080000080000000808000800000008000800080800000C0C0C000C0DCC000F0CAA6000020400000206000002080000020A0000020C0000020E00000400000004020000040400000406000004080000040A0
310
000040C0000040E00000600000006020000060400000606000006080000060A0000060C0000060E00000800000008020000080400000806000008080000080A0000080C0000080E00000A0000000A0200000A0400000A0600000A0800000A0A00000A0C00000A0E00000C0000000C0200000C0400000C0600000C0800000C0
310
A00000C0C00000C0E00000E0000000E0200000E0400000E0600000E0800000E0A00000E0C00000E0E00040000000400020004000400040006000400080004000A0004000C0004000E00040200000402020004020400040206000402080004020A0004020C0004020E000404000004040200040404000404060004040800040
310
40A0004040C0004040E00040600000406020004060400040606000406080004060A0004060C0004060E00040800000408020004080400040806000408080004080A0004080C0004080E00040A0000040A0200040A0400040A0600040A0800040A0A00040A0C00040A0E00040C0000040C0200040C0400040C0600040C08000
310
40C0A00040C0C00040C0E00040E0000040E0200040E0400040E0600040E0800040E0A00040E0C00040E0E00080000000800020008000400080006000800080008000A0008000C0008000E00080200000802020008020400080206000802080008020A0008020C0008020E00080400000804020008040400080406000804080
310
008040A0008040C0008040E00080600000806020008060400080606000806080008060A0008060C0008060E00080800000808020008080400080806000808080008080A0008080C0008080E00080A0000080A0200080A0400080A0600080A0800080A0A00080A0C00080A0E00080C0000080C0200080C0400080C0600080C0
310
800080C0A00080C0C00080C0E00080E0000080E0200080E0400080E0600080E0800080E0A00080E0C00080E0E000C0000000C0002000C0004000C0006000C0008000C000A000C000C000C000E000C0200000C0202000C0204000C0206000C0208000C020A000C020C000C020E000C0400000C0402000C0404000C0406000C0
310
408000C040A000C040C000C040E000C0600000C0602000C0604000C0606000C0608000C060A000C060C000C060E000C0800000C0802000C0804000C0806000C0808000C080A000C080C000C080E000C0A00000C0A02000C0A04000C0A06000C0A08000C0A0A000C0A0C000C0A0E000C0C00000C0C02000C0C04000C0C06000
310
C0C08000C0C0A000F0FBFF00A4A0A000808080000000FF0000FF000000FFFF00FF000000FF00FF00FFFF0000FFFFFF0000000000000000000000000000000000000000000000000000000000000000000000000000000000000000000000000000000000000000000000000000000000000000000000000000000000000000
310
00000000000000000000000000000000000000000000000000000000000000000000000000000000000000000000000000000000000000000000000000000000000000000000000000000000000000000000000000000000000000000000000000000000000000000000000000000000000000000000000000000000000000
310
000000000000000000000000000000000000000000000000000000000000000000000000000000000000000000000000000000FC0000FC00000000000000FC0000FC0000000000000000000000000000000000FCFCFCFC00000000000000FCFCFCFC0000000000000000000000000000000000FC0000FC00000000000000FC
310
0000FC0000000000000000000000000000000000FC0000FC00000000000000FC0000FC0000000000000000000000000000000000FC0000FC00000000000000FC0000FC00000000FCFCFCFCFCFCFCFCFCFCFC0000FC000000FCFCFCFCFCFCFCFC0000FC000000FC00000000000000000000000000FC00000000000000000000
310
000000FC00FCFCFCFCFCFCFCFCFCFCFCFCFCFC0000FC00000000000000000000000000FC000000FC00000000000000000000000000FC0000000000000000000000000000FCFCFCFCFCFCFCFCFCFCFCFCFCFCFC0000FC00000000000000000000000000000000000000000000000000000000000000FC000000000000000000
310
00000000000000000000000000000000000000000000FC00000000000000000000000000000000000000000000000000000000000000FC0000000000000000000000000000000000000000000000000000000000000000FCFC0000000000000000000000000000000000000000000000000000000000000000FC0000000000
310
000000000000000000000000000000000000000000000000000000FCFCFCFCFCFCFCFCFCFCFCFCFCFCFCFCFCFCFCFCFCFCFCFCFCFC0000000000000000000000000000000000000000000000000000000000000000000000000000000000000000000000000000000000000000000000000000000000000000000000000000
310
00000000000000000000000000000000000000000000000000000000000000000000000000000000000000000000000000000000000000000000000000000000000000000000000000000000000000000000000000000000000000000000000000000000000000000000000000000000000000000000000000000000000000
310
0000000000000000000000000000000000000000000000000000000000000000000000000000000000000000000000000000000000000000
102
{BLKREFS
331
9BB0
102
}
 70
     4
280
     1
281
     1
  0
ENDTAB
  0
ENDSEC
  0
SECTION
  2
BLOCKS
  0
BLOCK
  5
20
330
1F
100
AcDbEntity
  8
0
100
AcDbBlockBegin
  2
*Model_Space
 70
     0
 10
0.0
 20
0.0
 30
0.0
  3
*Model_Space
  1

  0
ENDBLK
  5
21
330
1F
100
AcDbEntity
  8
0
100
AcDbBlockEnd
  0
BLOCK
  5
1C
330
1B
100
AcDbEntity
 67
     1
  8
0
100
AcDbBlockBegin
  2
*Paper_Space
 70
     0
 10
0.0
 20
0.0
 30
0.0
  3
*Paper_Space
  1

  0
ENDBLK
  5
1D
330
1B
100
AcDbEntity
 67
     1
  8
0
100
AcDbBlockEnd
  0
BLOCK
  5
24
330
23
100
AcDbEntity
 67
     1
  8
0
100
AcDbBlockBegin
  2
*Paper_Space0
 70
     0
 10
0.0
 20
0.0
 30
0.0
  3
*Paper_Space0
  1

  0
ENDBLK
  5
25
330
23
100
AcDbEntity
 67
     1
  8
0
100
AcDbBlockEnd
  0
BLOCK
  5
6D
330
69
100
AcDbEntity
  8
0
100
AcDbBlockBegin
  2
_Open30
 70
     0
 10
0.0
 20
0.0
 30
0.0
  3
_Open30
  1

  0
LINE
  5
6A
330
69
100
AcDbEntity
  8
0
  6
ByBlock
 62
     0
370
    -2
100
AcDbLine
 10
-1.0
 20
0.26794919
 30
0.0
 11
0.0
 21
0.0
 31
0.0
  0
LINE
  5
6B
330
69
100
AcDbEntity
  8
0
  6
ByBlock
 62
     0
370
    -2
100
AcDbLine
 10
0.0
 20
0.0
 30
0.0
 11
-1.0
 21
-0.26794919
 31
0.0
  0
LINE
  5
6C
330
69
100
AcDbEntity
  8
0
  6
ByBlock
 62
     0
370
    -2
100
AcDbLine
 10
0.0
 20
0.0
 30
0.0
 11
-1.0
 21
0.0
 31
0.0
  0
ENDBLK
  5
6E
330
69
100
AcDbEntity
  8
0
100
AcDbBlockEnd
  0
BLOCK
  5
76
330
74
100
AcDbEntity
  8
0
100
AcDbBlockBegin
  2
GENAXEH
 70
     0
 10
0.0
 20
0.0
 30
0.0
  3
GENAXEH
  1

  0
LINE
  5
75
330
74
100
AcDbEntity
  8
0
100
AcDbLine
 10
-1.0
 20
0.0
 30
0.0
 11
1.0
 21
0.0
 31
0.0
  0
ENDBLK
  5
77
330
74
100
AcDbEntity
  8
0
100
AcDbBlockEnd
  0
BLOCK
  5
3E8A
330
3E87
100
AcDbEntity
  8
0
100
AcDbBlockBegin
  2
ロッカクアナツキプラグ-1　R1／8
 70
     0
 10
0.0
 20
0.0
 30
0.0
  3
ロッカクアナツキプラグ-1　R1／8
  1

  0
CIRCLE
  5
4BDC
330
3E87
100
AcDbEntity
  8
AM_0 外形線1
100
AcDbCircle
 10
0.0
 20
0.0
 30
0.0
 40
4.816232
  0
CIRCLE
  5
4BDD
330
3E87
100
AcDbEntity
  8
AM_4 細線
100
AcDbCircle
 10
0.0
 20
0.0
 30
0.0
 40
5.271232
  0
LINE
  5
4BDE
330
3E87
100
AcDbEntity
  8
AM_7 中心線
100
AcDbLine
 10
6.71623199999999
 20
0.0
 30
0.0
 11
-6.71623199999999
 21
0.0
 31
0.0
  0
LINE
  5
4BDF
330
3E87
100
AcDbEntity
  8
AM_0 外形線1
100
AcDbLine
 10
0.0
 20
-2.5150000000001
 30
0.0
 11
2.178053999999974
 21
-1.257499999999936
 31
0.0
  0
LINE
  5
4BE0
330
3E87
100
AcDbEntity
  8
AM_0 外形線1
100
AcDbLine
 10
2.178053999999974
 20
1.257499999999936
 30
0.0
 11
0.0
 21
2.5150000000001
 31
0.0
  0
LINE
  5
4BE1
330
3E87
100
AcDbEntity
  8
AM_7 中心線
100
AcDbLine
 10
0.0
 20
6.71623199999999
 30
0.0
 11
0.0
 21
-6.71623199999999
 31
0.0
  0
LINE
  5
4BE2
330
3E87
100
AcDbEntity
  8
AM_0 外形線1
100
AcDbLine
 10
-2.178053999999974
 20
-1.257499999999936
 30
0.0
 11
0.0
 21
-2.5150000000001
 31
0.0
  0
LINE
  5
4BE3
330
3E87
100
AcDbEntity
  8
AM_0 外形線1
100
AcDbLine
 10
-2.178053999999974
 20
1.257499999999936
 30
0.0
 11
-2.178053999999974
 21
-1.257499999999936
 31
0.0
  0
LINE
  5
4BE4
330
3E87
100
AcDbEntity
  8
AM_0 外形線1
100
AcDbLine
 10
0.0
 20
2.5150000000001
 30
0.0
 11
-2.178053999999974
 21
1.257499999999936
 31
0.0
  0
LINE
  5
4BE5
330
3E87
100
AcDbEntity
  8
AM_0 外形線1
100
AcDbLine
 10
2.178053999999974
 20
-1.257499999999936
 30
0.0
 11
2.178053999999974
 21
1.257499999999936
 31
0.0
  0
ENDBLK
  5
3E95
330
3E87
100
AcDbEntity
  8
0
100
AcDbBlockEnd
  0
BLOCK
  5
401A
330
4019
100
AcDbEntity
  8
0
100
AcDbBlockBegin
  2
GENDOT
 70
     0
 10
0.0
 20
0.0
 30
0.0
  3
GENDOT
  1

  0
LINE
  5
401B
330
4019
100
AcDbEntity
  8
0
100
AcDbLine
 10
0.0
 20
0.0
 30
0.0
 11
-1.0
 21
0.0
 31
0.0
  0
LWPOLYLINE
  5
401C
330
4019
100
AcDbEntity
  8
0
100
AcDbPolyline
 90
        2
 70
     1
 43
0.25
 10
-0.125
 20
0.0
 42
1.0
 10
0.125
 20
0.0
 42
1.0
  0
ENDBLK
  5
401D
330
4019
100
AcDbEntity
  8
0
100
AcDbBlockEnd
  0
BLOCK
  5
40BA
330
40B9
100
AcDbEntity
  8
0
100
AcDbBlockBegin
  2
ロッカクアナツキプラグ-2　R1／8
 70
     0
 10
0.0
 20
0.0
 30
0.0
  3
ロッカクアナツキプラグ-2　R1／8
  1

  0
CIRCLE
  5
4BE7
330
40B9
100
AcDbEntity
  8
AM_0 外形線1
100
AcDbCircle
 10
0.0
 20
0.0
 30
0.0
 40
4.816232
  0
CIRCLE
  5
4BE8
330
40B9
100
AcDbEntity
  8
AM_4 細線
100
AcDbCircle
 10
0.0
 20
0.0
 30
0.0
 40
5.271232
  0
LINE
  5
4BE9
330
40B9
100
AcDbEntity
  8
AM_7 中心線
100
AcDbLine
 10
-6.71623199999999
 20
0.0
 30
0.0
 11
6.71623199999999
 21
0.0
 31
0.0
  0
LINE
  5
4BEA
330
40B9
100
AcDbEntity
  8
AM_0 外形線1
100
AcDbLine
 10
2.1780540000002
 20
-1.257499999999936
 30
0.0
 11
0.0
 21
-2.5150000000001
 31
0.0
  0
LINE
  5
4BEB
330
40B9
100
AcDbEntity
  8
AM_0 外形線1
100
AcDbLine
 10
0.0
 20
2.5150000000001
 30
0.0
 11
2.1780540000002
 21
1.257499999999936
 31
0.0
  0
LINE
  5
4BEC
330
40B9
100
AcDbEntity
  8
AM_7 中心線
100
AcDbLine
 10
0.0
 20
-6.71623199999999
 30
0.0
 11
0.0
 21
6.71623199999999
 31
0.0
  0
LINE
  5
4BED
330
40B9
100
AcDbEntity
  8
AM_0 外形線1
100
AcDbLine
 10
-2.178053999999974
 20
-1.257499999999936
 30
0.0
 11
-2.178053999999974
 21
1.257499999999936
 31
0.0
  0
LINE
  5
4BEE
330
40B9
100
AcDbEntity
  8
AM_0 外形線1
100
AcDbLine
 10
0.0
 20
-2.5150000000001
 30
0.0
 11
-2.178053999999974
 21
-1.257499999999936
 31
0.0
  0
LINE
  5
4BEF
330
40B9
100
AcDbEntity
  8
AM_0 外形線1
100
AcDbLine
 10
-2.178053999999974
 20
1.257499999999936
 30
0.0
 11
0.0
 21
2.5150000000001
 31
0.0
  0
LINE
  5
4BF0
330
40B9
100
AcDbEntity
  8
AM_0 外形線1
100
AcDbLine
 10
2.1780540000002
 20
1.257499999999936
 30
0.0
 11
2.1780540000002
 21
-1.257499999999936
 31
0.0
  0
ENDBLK
  5
40C5
330
40B9
100
AcDbEntity
  8
0
100
AcDbBlockEnd
  0
BLOCK
  5
4C8A
330
4C89
100
AcDbEntity
  8
0
100
AcDbBlockBegin
  2
ケースＡ-1 SAM180
 70
     0
 10
0.0
 20
0.0
 30
0.0
  3
ケースＡ-1 SAM180
  1

  0
LINE
  5
4C8C
330
4C89
100
AcDbEntity
  8
AM_0 外形線1
100
AcDbLine
 10
47.30496500000003
 20
-67.0
 30
0.0
 11
53.0
 21
-67.0
 31
0.0
  0
LINE
  5
4C8D
330
4C89
100
AcDbEntity
  8
AM_0 外形線1
100
AcDbLine
 10
15.0
 20
-89.50000000000001
 30
0.0
 11
15.0
 21
0.0
 31
0.0
  0
LINE
  5
4C8E
330
4C89
100
AcDbEntity
  8
AM_0 外形線1
100
AcDbLine
 10
0.0
 20
0.0
 30
0.0
 11
0.0
 21
-89.50000000000001
 31
0.0
  0
LINE
  5
4C90
330
4C89
100
AcDbEntity
  8
AM_0 外形線1
100
AcDbLine
 10
0.0
 20
-89.50000000000001
 30
0.0
 11
0.5
 21
-90.0
 31
0.0
  0
LINE
  5
4C91
330
4C89
100
AcDbEntity
  8
AM_0 外形線1
100
AcDbLine
 10
14.5
 20
-90.0
 30
0.0
 11
15.0
 21
-89.50000000000001
 31
0.0
  0
LINE
  5
4C92
330
4C89
100
AcDbEntity
  8
AM_0 外形線1
100
AcDbLine
 10
18.0
 20
-67.0
 30
0.0
 11
47.30496500000003
 21
-67.0
 31
0.0
  0
ARC
  5
4C93
330
4C89
100
AcDbEntity
  8
AM_0 外形線1
100
AcDbCircle
 10
18.0
 20
-70.0
 30
0.0
 40
3.0
100
AcDbArc
 50
90.0
 51
180.0
  0
LINE
  5
4C94
330
4C89
100
AcDbEntity
  8
AM_0 外形線1
100
AcDbLine
 10
56.0
 20
-64.0
 30
0.0
 11
56.0
 21
0.0
 31
0.0
  0
ARC
  5
4C95
330
4C89
100
AcDbEntity
  8
AM_0 外形線1
100
AcDbCircle
 10
53.0
 20
-64.0
 30
0.0
 40
3.0
100
AcDbArc
 50
270.0
 51
0.0
  0
LWPOLYLINE
  5
4C96
330
4C89
100
AcDbEntity
  8
AM_0 外形線1
100
AcDbPolyline
 90
       73
 70
     0
 43
0.0
 10
53.29999999999995
 20
54.85000000000013
 10
53.28554000000007
 20
55.05481600000006
 10
53.24226900000008
 20
55.25807299999996
 10
53.17051800000013
 20
55.45822500000007
 10
53.0708320000001
 20
55.65374700000006
 10
52.94397000000003
 20
55.84315300000003
 10
52.79089700000008
 20
56.02500000000009
 10
52.61277799999994
 20
56.19790499999999
 10
52.41096900000002
 20
56.360551
 10
52.18700599999988
 20
56.5117009999999
 10
51.94259299999998
 20
56.65020400000003
 10
51.67958999999996
 20
56.77500699999995
 10
51.4000000000001
 20
56.88516000000004
 10
51.10594900000001
 20
56.97982300000012
 10
50.79967699999997
 20
57.05827799999998
 10
50.48351200000002
 20
57.11992600000008
 10
50.15986300000008
 20
57.16429800000014
 10
49.83119200000011
 20
57.191057
 10
49.5
 20
57.20000000000005
 10
49.16880800000011
 20
57.191057
 10
48.8401369999999
 20
57.16429800000014
 10
48.51648799999998
 20
57.11992600000008
 10
48.20032300000002
 20
57.05827799999998
 10
47.89405099999998
 20
56.97982300000012
 10
47.60000000000013
 20
56.88516000000004
 10
47.32041000000004
 20
56.77500699999995
 10
47.05740700000001
 20
56.65020400000003
 10
46.8129940000001
 20
56.5117009999999
 10
46.58903099999998
 20
56.360551
 10
46.38722200000006
 20
56.19790499999999
 10
46.2091029999999
 20
56.02500000000009
 10
46.05602999999996
 20
55.84315300000003
 10
45.92916799999989
 20
55.65374700000006
 10
45.8294820000001
 20
55.45822500000007
 10
45.75773099999992
 20
55.25807299999996
 10
45.7144599999999
 20
55.05481600000006
 10
45.70000000000003
 20
54.85000000000013
 10
45.7144599999999
 20
54.64518399999997
 10
45.75773099999992
 20
54.44192700000008
 10
45.8294820000001
 20
54.24177499999996
 10
45.92916799999989
 20
54.04625299999998
 10
46.05602999999996
 20
53.85684700000002
 10
46.2091029999999
 20
53.67500000000018
 10
46.38722200000006
 20
53.50209500000005
 10
46.58903099999998
 20
53.33944900000004
 10
46.8129940000001
 20
53.1882989999999
 10
47.05740700000001
 20
53.04979600000002
 10
47.32041000000004
 20
52.9249930000001
 10
47.60000000000013
 20
52.81484
 10
47.89405099999998
 20
52.72017700000016
 10
48.20032300000002
 20
52.64172200000007
 10
48.51648799999998
 20
52.58007399999996
 10
48.8401369999999
 20
52.53570200000011
 10
49.16880800000011
 20
52.50894199999994
 10
49.5
 20
52.5
 10
49.83119200000011
 20
52.50894199999994
 10
50.15986300000008
 20
52.53570200000011
 10
50.48351200000002
 20
52.58007399999996
 10
50.79967699999997
 20
52.64172200000007
 10
51.10594900000001
 20
52.72017700000016
 10
51.4000000000001
 20
52.81484
 10
51.67958999999996
 20
52.9249930000001
 10
51.94259299999998
 20
53.04979600000002
 10
52.18700599999988
 20
53.1882989999999
 10
52.41096900000002
 20
53.33944900000004
 10
52.61277799999994
 20
53.50209500000005
 10
52.79089700000008
 20
53.67500000000018
 10
52.94397000000003
 20
53.85684700000002
 10
53.0708320000001
 20
54.04625299999998
 10
53.17051800000013
 20
54.24177499999996
 10
53.24226900000008
 20
54.44192700000008
 10
53.28554000000007
 20
54.64518399999997
 10
53.29999999999995
 20
54.85000000000013
  0
LINE
  5
4C97
330
4C89
100
AcDbEntity
  8
AM_0 外形線1
100
AcDbLine
 10
52.79999999999995
 20
57.20000000000005
 30
0.0
 11
46.20000000000003
 21
57.20000000000005
 31
0.0
  0
LINE
  5
4C98
330
4C89
100
AcDbEntity
  8
AM_0 外形線1
100
AcDbLine
 10
18.0
 20
67.0
 30
0.0
 11
53.0
 21
67.0
 31
0.0
  0
LINE
  5
4C99
330
4C89
100
AcDbEntity
  8
AM_0 外形線1
100
AcDbLine
 10
0.0
 20
68.90000000000009
 30
0.0
 11
0.0
 21
77.0
 31
0.0
  0
LINE
  5
4C9A
330
4C89
100
AcDbEntity
  8
AM_0 外形線1
100
AcDbLine
 10
15.0
 20
70.0
 30
0.0
 11
15.0
 21
89.50000000000001
 31
0.0
  0
LINE
  5
4C9B
330
4C89
100
AcDbEntity
  8
AM_0 外形線1
100
AcDbLine
 10
15.0
 20
60.5
 30
0.0
 11
-3.0
 21
60.5
 31
0.0
  0
LINE
  5
4C9E
330
4C89
100
AcDbEntity
  8
AM_0 外形線1
100
AcDbLine
 10
-3.0
 20
64.5
 30
0.0
 11
-2.5
 21
65.0
 31
0.0
  0
LINE
  5
4C9F
330
4C89
100
AcDbEntity
  8
AM_0 外形線1
100
AcDbLine
 10
-3.0
 20
60.5
 30
0.0
 11
-3.0
 21
64.5
 31
0.0
  0
LWPOLYLINE
  5
4CA0
330
4C89
100
AcDbEntity
  8
AM_0 外形線1
100
AcDbPolyline
 90
       73
 70
     0
 43
0.0
 10
1.200000000000044
 20
65.0
 10
1.304587000000082
 20
65.00741999999991
 10
1.408377999999856
 20
65.02962500000013
 10
1.510582999999995
 20
65.06644499999993
 10
1.610424000000192
 20
65.11759899999993
 10
1.707141999999976
 20
65.18270000000007
 10
1.799999999999954
 20
65.26125000000002
 10
1.888292000000091
 20
65.3526529999999
 10
1.971345000000154
 20
65.45621299999993
 10
2.048528000000032
 20
65.571142
 10
2.119253000000071
 20
65.69656400000008
 10
2.182982000000038
 20
65.83152599999994
 10
2.239229999999905
 20
65.97500000000014
 10
2.287568999999848
 20
66.12589400000001
 10
2.327630999999882
 20
66.28306100000009
 10
2.359110999999983
 20
66.44530299999996
 10
2.381768999999849
 20
66.61138600000004
 10
2.395434000000022
 20
66.78004600000007
 10
2.400000000000089
 20
66.95000000000003
 10
2.395434000000022
 20
67.11995400000001
 10
2.381768999999849
 20
67.28861400000005
 10
2.359110999999983
 20
67.45469700000011
 10
2.327630999999882
 20
67.616939
 10
2.287568999999848
 20
67.77410600000006
 10
2.239229999999905
 20
67.92500000000018
 10
2.182982000000038
 20
68.06847399999992
 10
2.119253000000071
 20
68.20343600000001
 10
2.048528000000032
 20
68.32885800000008
 10
1.971345000000154
 20
68.44378700000016
 10
1.888292000000091
 20
68.54734600000006
 10
1.799999999999954
 20
68.63874899999996
 10
1.707141999999976
 20
68.71730000000003
 10
1.610424000000192
 20
68.78240099999993
 10
1.510582999999995
 20
68.83355500000014
 10
1.408377999999856
 20
68.87037499999997
 10
1.304587000000082
 20
68.89258000000018
 10
1.200000000000044
 20
68.90000000000009
 10
1.095413000000007
 20
68.89258000000018
 10
0.9916220000000064
 20
68.87037499999997
 10
0.8894170000000942
 20
68.83355500000014
 10
0.7895759999998973
 20
68.78240099999993
 10
0.6928580000001148
 20
68.71730000000003
 10
0.6000000000001366
 20
68.63874899999996
 10
0.5117079999999988
 20
68.54734600000006
 10
0.4286549999999353
 20
68.44378700000016
 10
0.351472000000058
 20
68.32885800000008
 10
0.2807470000000194
 20
68.20343600000001
 10
0.2170180000000528
 20
68.06847399999992
 10
0.1607700000001841
 20
67.92500000000018
 10
0.112431000000015
 20
67.77410600000006
 10
0.0723689999999806
 20
67.616939
 10
0.0408890000001065
 20
67.45469700000011
 10
0.0182310000000143
 20
67.28861400000005
 10
0.004566000000068
 20
67.11995400000001
 10
0.0
 20
66.95000000000003
 10
0.004566000000068
 20
66.78004600000007
 10
0.0182310000000143
 20
66.61138600000004
 10
0.0408890000001065
 20
66.44530299999996
 10
0.0723689999999806
 20
66.28306100000009
 10
0.112431000000015
 20
66.12589400000001
 10
0.1607700000001841
 20
65.97500000000014
 10
0.2170180000000528
 20
65.83152599999994
 10
0.2807470000000194
 20
65.69656400000008
 10
0.351472000000058
 20
65.571142
 10
0.4286549999999353
 20
65.45621299999993
 10
0.5117079999999988
 20
65.3526529999999
 10
0.6000000000001366
 20
65.26125000000002
 10
0.6928580000001148
 20
65.18270000000007
 10
0.7895759999998973
 20
65.11759899999993
 10
0.8894170000000942
 20
65.06644499999993
 10
0.9916220000000064
 20
65.02962500000013
 10
1.095413000000007
 20
65.00741999999991
 10
1.200000000000044
 20
65.0
  0
LINE
  5
4CA1
330
4C89
100
AcDbEntity
  8
AM_0 外形線1
100
AcDbLine
 10
1.90000000000009
 20
68.90000000000009
 30
0.0
 11
0.0
 21
68.90000000000009
 31
0.0
  0
ARC
  5
4CA2
330
4C89
100
AcDbEntity
  8
AM_0 外形線1
100
AcDbCircle
 10
1.90000000000009
 20
68.40000000000009
 30
0.0
 40
0.5
100
AcDbArc
 50
0.0
 51
90.0
  0
LINE
  5
4CA3
330
4C89
100
AcDbEntity
  8
AM_0 外形線1
100
AcDbLine
 10
2.400000000000089
 20
65.5
 30
0.0
 11
2.400000000000089
 21
68.40000000000009
 31
0.0
  0
ARC
  5
4CA4
330
4C89
100
AcDbEntity
  8
AM_0 外形線1
100
AcDbCircle
 10
1.90000000000009
 20
65.5
 30
0.0
 40
0.5
100
AcDbArc
 50
270.0
 51
0.0
  0
LINE
  5
4CA6
330
4C89
100
AcDbEntity
  8
AM_3 隠れ線
100
AcDbLine
 10
38.0
 20
56.4000000000001
 30
0.0
 11
19.0
 21
56.4000000000001
 31
0.0
  0
LINE
  5
4CA7
330
4C89
100
AcDbEntity
  8
AM_7 中心線
100
AcDbLine
 10
14.0
 20
58.0
 30
0.0
 11
41.0
 21
58.0
 31
0.0
  0
LINE
  5
4CA8
330
4C89
100
AcDbEntity
  8
AM_0 外形線1
100
AcDbLine
 10
16.0
 20
60.0
 30
0.0
 11
39.0
 21
60.0
 31
0.0
  0
LINE
  5
4CA9
330
4C89
100
AcDbEntity
  8
AM_0 外形線1
100
AcDbLine
 10
16.0
 20
57.40000000000009
 30
0.0
 11
16.0
 21
59.5
 31
0.0
  0
LINE
  5
4CAA
330
4C89
100
AcDbEntity
  8
AM_0 外形線1
100
AcDbLine
 10
19.0
 20
56.4000000000001
 30
0.0
 11
17.0
 21
56.4000000000001
 31
0.0
  0
LINE
  5
4CAB
330
4C89
100
AcDbEntity
  8
AM_0 外形線1
100
AcDbLine
 10
17.0
 20
56.4000000000001
 30
0.0
 11
16.0
 21
57.40000000000009
 31
0.0
  0
ARC
  5
4CAD
330
4C89
100
AcDbEntity
  8
AM_0 外形線1
100
AcDbCircle
 10
18.0
 20
70.0
 30
0.0
 40
3.0
100
AcDbArc
 50
180.0
 51
270.0
  0
ARC
  5
4CAE
330
4C89
100
AcDbEntity
  8
AM_0 外形線1
100
AcDbCircle
 10
15.0
 20
59.5
 30
0.0
 40
1.0
100
AcDbArc
 50
0.0
 51
90.0
  0
LINE
  5
4CAF
330
4C89
100
AcDbEntity
  8
AM_3 隠れ線
100
AcDbLine
 10
39.0
 20
58.88132100000007
 30
0.0
 11
39.0
 21
57.40000000000009
 31
0.0
  0
LINE
  5
4CB0
330
4C89
100
AcDbEntity
  8
AM_0 外形線1
100
AcDbLine
 10
43.0
 20
53.75
 30
0.0
 11
43.0
 21
59.5
 31
0.0
  0
LINE
  5
4CB1
330
4C89
100
AcDbEntity
  8
AM_3 隠れ線
100
AcDbLine
 10
39.0
 20
57.40000000000009
 30
0.0
 11
38.0
 21
56.4000000000001
 31
0.0
  0
LINE
  5
4CB2
330
4C89
100
AcDbEntity
  8
AM_0 外形線1
100
AcDbLine
 10
45.70000000000003
 20
53.75
 30
0.0
 11
43.0
 21
53.75
 31
0.0
  0
LINE
  5
4CB3
330
4C89
100
AcDbEntity
  8
AM_0 外形線1
100
AcDbLine
 10
45.70000000000003
 20
56.70000000000005
 30
0.0
 11
45.70000000000003
 21
53.75
 31
0.0
  0
ARC
  5
4CB4
330
4C89
100
AcDbEntity
  8
AM_0 外形線1
100
AcDbCircle
 10
46.20000000000003
 20
56.70000000000005
 30
0.0
 40
0.5
100
AcDbArc
 50
90.0
 51
180.0
  0
LINE
  5
4CB5
330
4C89
100
AcDbEntity
  8
AM_0 外形線1
100
AcDbLine
 10
45.70000000000003
 20
53.75
 30
0.0
 11
45.70000000000003
 21
52.5
 31
0.0
  0
LINE
  5
4CB6
330
4C89
100
AcDbEntity
  8
AM_0 外形線1
100
AcDbLine
 10
43.0
 20
53.75
 30
0.0
 11
43.0
 21
52.5
 31
0.0
  0
ARC
  5
4CB7
330
4C89
100
AcDbEntity
  8
AM_0 外形線1
100
AcDbCircle
 10
40.0
 20
59.5
 30
0.0
 40
1.0
100
AcDbArc
 50
90.0
 51
180.0
  0
LINE
  5
4CB8
330
4C89
100
AcDbEntity
  8
AM_0 外形線1
100
AcDbLine
 10
39.0
 20
58.88132100000007
 30
0.0
 11
39.0
 21
59.5
 31
0.0
  0
LINE
  5
4CB9
330
4C89
100
AcDbEntity
  8
AM_0 外形線1
100
AcDbLine
 10
42.0
 20
60.5
 30
0.0
 11
40.0
 21
60.5
 31
0.0
  0
ARC
  5
4CBA
330
4C89
100
AcDbEntity
  8
AM_0 外形線1
100
AcDbCircle
 10
42.0
 20
59.5
 30
0.0
 40
1.0
100
AcDbArc
 50
0.0
 51
90.0
  0
LINE
  5
4CBB
330
4C89
100
AcDbEntity
  8
AM_7 中心線
100
AcDbLine
 10
-25.5
 20
81.5
 30
0.0
 11
32.0
 21
81.5
 31
0.0
  0
LINE
  5
4CBE
330
4C89
100
AcDbEntity
  8
AM_0 外形線1
100
AcDbLine
 10
0.5
 20
90.0
 30
0.0
 11
14.5
 21
90.0
 31
0.0
  0
LINE
  5
4CBF
330
4C89
100
AcDbEntity
  8
AM_0 外形線1
100
AcDbLine
 10
0.0
 20
86.0
 30
0.0
 11
0.0
 21
89.50000000000001
 31
0.0
  0
LINE
  5
4CC0
330
4C89
100
AcDbEntity
  8
AM_0 外形線1
100
AcDbLine
 10
0.0
 20
89.50000000000001
 30
0.0
 11
0.5
 21
90.0
 31
0.0
  0
LINE
  5
4CC1
330
4C89
100
AcDbEntity
  8
AM_0 外形線1
100
AcDbLine
 10
14.5
 20
90.0
 30
0.0
 11
15.0
 21
89.50000000000001
 31
0.0
  0
LINE
  5
4CC2
330
4C89
100
AcDbEntity
  8
AM_0 外形線1
100
AcDbLine
 10
56.0
 20
64.0
 30
0.0
 11
56.0
 21
53.75
 31
0.0
  0
ARC
  5
4CC3
330
4C89
100
AcDbEntity
  8
AM_0 外形線1
100
AcDbCircle
 10
52.79999999999995
 20
56.70000000000005
 30
0.0
 40
0.5
100
AcDbArc
 50
0.0
 51
90.0
  0
LINE
  5
4CC4
330
4C89
100
AcDbEntity
  8
AM_0 外形線1
100
AcDbLine
 10
53.29999999999995
 20
53.75
 30
0.0
 11
53.29999999999995
 21
56.70000000000005
 31
0.0
  0
LINE
  5
4CC5
330
4C89
100
AcDbEntity
  8
AM_0 外形線1
100
AcDbLine
 10
56.0
 20
53.75
 30
0.0
 11
53.29999999999995
 21
53.75
 31
0.0
  0
LINE
  5
4CC6
330
4C89
100
AcDbEntity
  8
AM_0 外形線1
100
AcDbLine
 10
56.0
 20
53.75
 30
0.0
 11
56.0
 21
52.5
 31
0.0
  0
LINE
  5
4CC7
330
4C89
100
AcDbEntity
  8
AM_0 外形線1
100
AcDbLine
 10
53.29999999999995
 20
53.75
 30
0.0
 11
53.29999999999995
 21
52.5
 31
0.0
  0
ARC
  5
4CC8
330
4C89
100
AcDbEntity
  8
AM_0 外形線1
100
AcDbCircle
 10
53.0
 20
64.0
 30
0.0
 40
3.0
100
AcDbArc
 50
0.0
 51
90.0
  0
LINE
  5
4CC9
330
4C89
100
AcDbEntity
  8
AM_0 外形線1
100
AcDbLine
 10
1.899999999999862
 20
65.0
 30
0.0
 11
-2.5
 21
65.0
 31
0.0
  0
INSERT
  5
4CCA
330
4C89
100
AcDbEntity
  8
AM_0 外形線1
100
AcDbBlockReference
  2
ロッカクアナツキプラグ-1　R1／8
 10
7.5
 20
-21.093752
 30
0.0
  0
LINE
  5
4D72
330
4C89
100
AcDbEntity
  8
AM_0 外形線1
100
AcDbLine
 10
0.5000000000001137
 20
-90.00000000000005
 30
0.0
 11
14.5
 21
-90.0
 31
0.0
  0
LINE
  5
4D73
330
4C89
100
AcDbEntity
  8
AM_0 外形線1
100
AcDbLine
 10
0.0
 20
86.0
 30
0.0
 11
15.0
 21
86.0
 31
0.0
  0
LINE
  5
4D74
330
4C89
100
AcDbEntity
  8
AM_0 外形線1
100
AcDbLine
 10
0.0
 20
77.0
 30
0.0
 11
15.0
 21
77.0
 31
0.0
  0
ENDBLK
  5
4C8B
330
4C89
100
AcDbEntity
  8
0
100
AcDbBlockEnd
  0
BLOCK
  5
4D78
330
4D77
100
AcDbEntity
  8
0
100
AcDbBlockBegin
  2
ケースＡ-2 SAM180
 70
     0
 10
0.0
 20
0.0
 30
0.0
  3
ケースＡ-2 SAM180
  1

  0
LINE
  5
4D7A
330
4D77
100
AcDbEntity
  8
AM_0 外形線1
100
AcDbLine
 10
-14.5
 20
-90.0
 30
0.0
 11
-0.500000000000057
 21
-90.00000000000005
 31
0.0
  0
LINE
  5
4D7B
330
4D77
100
AcDbEntity
  8
AM_7 中心線
100
AcDbLine
 10
25.5
 20
81.5
 30
0.0
 11
-32.0
 21
81.5
 31
0.0
  0
LINE
  5
4D7C
330
4D77
100
AcDbEntity
  8
AM_0 外形線1
100
AcDbLine
 10
-15.0
 20
60.5
 30
0.0
 11
3.0
 21
60.5
 31
0.0
  0
LINE
  5
4D7D
330
4D77
100
AcDbEntity
  8
AM_0 外形線1
100
AcDbLine
 10
-15.0
 20
77.0
 30
0.0
 11
0.0
 21
77.0
 31
0.0
  0
LINE
  5
4D7E
330
4D77
100
AcDbEntity
  8
AM_0 外形線1
100
AcDbLine
 10
-15.0
 20
86.0
 30
0.0
 11
0.0
 21
86.0
 31
0.0
  0
LINE
  5
4D7F
330
4D77
100
AcDbEntity
  8
AM_0 外形線1
100
AcDbLine
 10
-0.5
 20
90.0
 30
0.0
 11
-14.5
 21
90.0
 31
0.0
  0
LINE
  5
4D80
330
4D77
100
AcDbEntity
  8
AM_0 外形線1
100
AcDbLine
 10
-56.0
 20
-64.0
 30
0.0
 11
-56.0
 21
0.0
 31
0.0
  0
LINE
  5
4D81
330
4D77
100
AcDbEntity
  8
AM_0 外形線1
100
AcDbLine
 10
-15.0
 20
-89.50000000000001
 30
0.0
 11
-15.0
 21
0.0
 31
0.0
  0
LINE
  5
4D82
330
4D77
100
AcDbEntity
  8
AM_0 外形線1
100
AcDbLine
 10
-18.0
 20
-67.0
 30
0.0
 11
-53.0
 21
-67.0
 31
0.0
  0
ARC
  5
4D83
330
4D77
100
AcDbEntity
  8
AM_0 外形線1
100
AcDbCircle
 10
-53.0
 20
-64.0
 30
0.0
 40
3.0
100
AcDbArc
 50
180.0
 51
270.0
  0
LINE
  5
4D84
330
4D77
100
AcDbEntity
  8
AM_0 外形線1
100
AcDbLine
 10
-14.5
 20
-90.0
 30
0.0
 11
-15.0
 21
-89.50000000000001
 31
0.0
  0
ARC
  5
4D85
330
4D77
100
AcDbEntity
  8
AM_0 外形線1
100
AcDbCircle
 10
-18.0
 20
-70.0
 30
0.0
 40
3.0
100
AcDbArc
 50
0.0
 51
90.0
  0
LINE
  5
4D86
330
4D77
100
AcDbEntity
  8
AM_0 外形線1
100
AcDbLine
 10
-15.0
 20
70.0
 30
0.0
 11
-15.0
 21
89.50000000000001
 31
0.0
  0
LWPOLYLINE
  5
4D87
330
4D77
100
AcDbEntity
  8
AM_0 外形線1
100
AcDbPolyline
 90
       73
 70
     0
 43
0.0
 10
-45.70000000000003
 20
54.85000000000013
 10
-45.7144599999999
 20
55.05481600000006
 10
-45.75773099999992
 20
55.25807299999996
 10
-45.82948199999986
 20
55.45822500000007
 10
-45.92916799999989
 20
55.65374700000006
 10
-46.05602999999996
 20
55.84315300000003
 10
-46.2091029999999
 20
56.02500000000009
 10
-46.38722200000006
 20
56.19790499999999
 10
-46.58903099999998
 20
56.360551
 10
-46.8129940000001
 20
56.5117009999999
 10
-47.05740700000001
 20
56.65020400000003
 10
-47.32041000000004
 20
56.77500699999995
 10
-47.5999999999999
 20
56.88516000000004
 10
-47.89405099999998
 20
56.97982300000012
 10
-48.20032300000002
 20
57.05827799999998
 10
-48.51648799999998
 20
57.11992600000008
 10
-48.8401369999999
 20
57.16429800000014
 10
-49.16880800000011
 20
57.191057
 10
-49.5
 20
57.20000000000005
 10
-49.83119199999986
 20
57.191057
 10
-50.15986300000008
 20
57.16429800000014
 10
-50.48351200000002
 20
57.11992600000008
 10
-50.79967699999997
 20
57.05827799999998
 10
-51.10594900000001
 20
56.97982300000012
 10
-51.39999999999986
 20
56.88516000000004
 10
-51.67958999999996
 20
56.77500699999995
 10
-51.94259299999998
 20
56.65020400000003
 10
-52.18700599999988
 20
56.5117009999999
 10
-52.41096900000002
 20
56.360551
 10
-52.61277799999994
 20
56.19790499999999
 10
-52.79089700000008
 20
56.02500000000009
 10
-52.94397000000003
 20
55.84315300000003
 10
-53.0708320000001
 20
55.65374700000006
 10
-53.17051800000013
 20
55.45822500000007
 10
-53.24226900000008
 20
55.25807299999996
 10
-53.28554000000007
 20
55.05481600000006
 10
-53.29999999999995
 20
54.85000000000013
 10
-53.28554000000007
 20
54.64518399999997
 10
-53.24226900000008
 20
54.44192700000008
 10
-53.17051800000013
 20
54.24177499999996
 10
-53.0708320000001
 20
54.04625299999998
 10
-52.94397000000003
 20
53.85684700000002
 10
-52.79089700000008
 20
53.67500000000018
 10
-52.61277799999994
 20
53.50209500000005
 10
-52.41096900000002
 20
53.33944900000004
 10
-52.18700599999988
 20
53.1882989999999
 10
-51.94259299999998
 20
53.04979600000002
 10
-51.67958999999996
 20
52.9249930000001
 10
-51.39999999999986
 20
52.81484
 10
-51.10594900000001
 20
52.72017700000016
 10
-50.79967699999997
 20
52.64172200000007
 10
-50.48351200000002
 20
52.58007399999996
 10
-50.15986300000008
 20
52.53570200000011
 10
-49.83119199999986
 20
52.50894199999994
 10
-49.5
 20
52.5
 10
-49.16880800000011
 20
52.50894199999994
 10
-48.8401369999999
 20
52.53570200000011
 10
-48.51648799999998
 20
52.58007399999996
 10
-48.20032300000002
 20
52.64172200000007
 10
-47.89405099999998
 20
52.72017700000016
 10
-47.5999999999999
 20
52.81484
 10
-47.32041000000004
 20
52.9249930000001
 10
-47.05740700000001
 20
53.04979600000002
 10
-46.8129940000001
 20
53.1882989999999
 10
-46.58903099999998
 20
53.33944900000004
 10
-46.38722200000006
 20
53.50209500000005
 10
-46.2091029999999
 20
53.67500000000018
 10
-46.05602999999996
 20
53.85684700000002
 10
-45.92916799999989
 20
54.04625299999998
 10
-45.82948199999986
 20
54.24177499999996
 10
-45.75773099999992
 20
54.44192700000008
 10
-45.7144599999999
 20
54.64518399999997
 10
-45.70000000000003
 20
54.85000000000013
  0
LINE
  5
4D88
330
4D77
100
AcDbEntity
  8
AM_0 外形線1
100
AcDbLine
 10
-52.79999999999995
 20
57.20000000000005
 30
0.0
 11
-46.20000000000003
 21
57.20000000000005
 31
0.0
  0
LINE
  5
4D89
330
4D77
100
AcDbEntity
  8
AM_0 外形線1
100
AcDbLine
 10
-18.0
 20
67.0
 30
0.0
 11
-53.0
 21
67.0
 31
0.0
  0
LINE
  5
4D8A
330
4D77
100
AcDbEntity
  8
AM_0 外形線1
100
AcDbLine
 10
-56.0
 20
64.0
 30
0.0
 11
-56.0
 21
53.75
 31
0.0
  0
ARC
  5
4D8B
330
4D77
100
AcDbEntity
  8
AM_0 外形線1
100
AcDbCircle
 10
-52.79999999999995
 20
56.70000000000005
 30
0.0
 40
0.5
100
AcDbArc
 50
90.0
 51
180.0
  0
LINE
  5
4D8C
330
4D77
100
AcDbEntity
  8
AM_0 外形線1
100
AcDbLine
 10
-53.29999999999995
 20
53.75
 30
0.0
 11
-53.29999999999995
 21
56.70000000000005
 31
0.0
  0
LINE
  5
4D8D
330
4D77
100
AcDbEntity
  8
AM_0 外形線1
100
AcDbLine
 10
-56.0
 20
53.75
 30
0.0
 11
-53.29999999999995
 21
53.75
 31
0.0
  0
LINE
  5
4D8E
330
4D77
100
AcDbEntity
  8
AM_0 外形線1
100
AcDbLine
 10
-53.29999999999995
 20
53.75
 30
0.0
 11
-53.29999999999995
 21
52.5
 31
0.0
  0
LINE
  5
4D8F
330
4D77
100
AcDbEntity
  8
AM_0 外形線1
100
AcDbLine
 10
-56.0
 20
53.75
 30
0.0
 11
-56.0
 21
52.5
 31
0.0
  0
ARC
  5
4D90
330
4D77
100
AcDbEntity
  8
AM_0 外形線1
100
AcDbCircle
 10
-53.0
 20
64.0
 30
0.0
 40
3.0
100
AcDbArc
 50
90.0
 51
180.0
  0
LINE
  5
4D92
330
4D77
100
AcDbEntity
  8
AM_3 隠れ線
100
AcDbLine
 10
-38.0
 20
56.4000000000001
 30
0.0
 11
-19.0
 21
56.4000000000001
 31
0.0
  0
LINE
  5
4D93
330
4D77
100
AcDbEntity
  8
AM_7 中心線
100
AcDbLine
 10
-14.0
 20
58.0
 30
0.0
 11
-41.0
 21
58.0
 31
0.0
  0
LINE
  5
4D94
330
4D77
100
AcDbEntity
  8
AM_0 外形線1
100
AcDbLine
 10
-16.0
 20
60.0
 30
0.0
 11
-39.0
 21
60.0
 31
0.0
  0
LINE
  5
4D95
330
4D77
100
AcDbEntity
  8
AM_3 隠れ線
100
AcDbLine
 10
-39.0
 20
58.88132100000007
 30
0.0
 11
-39.0
 21
57.40000000000009
 31
0.0
  0
LINE
  5
4D96
330
4D77
100
AcDbEntity
  8
AM_0 外形線1
100
AcDbLine
 10
-43.0
 20
53.75
 30
0.0
 11
-43.0
 21
59.5
 31
0.0
  0
LINE
  5
4D97
330
4D77
100
AcDbEntity
  8
AM_3 隠れ線
100
AcDbLine
 10
-39.0
 20
57.40000000000009
 30
0.0
 11
-38.0
 21
56.4000000000001
 31
0.0
  0
LINE
  5
4D98
330
4D77
100
AcDbEntity
  8
AM_0 外形線1
100
AcDbLine
 10
-45.70000000000003
 20
53.75
 30
0.0
 11
-43.0
 21
53.75
 31
0.0
  0
LINE
  5
4D99
330
4D77
100
AcDbEntity
  8
AM_0 外形線1
100
AcDbLine
 10
-45.70000000000003
 20
56.70000000000005
 30
0.0
 11
-45.70000000000003
 21
53.75
 31
0.0
  0
ARC
  5
4D9A
330
4D77
100
AcDbEntity
  8
AM_0 外形線1
100
AcDbCircle
 10
-46.20000000000003
 20
56.70000000000005
 30
0.0
 40
0.5
100
AcDbArc
 50
0.0
 51
90.0
  0
LINE
  5
4D9B
330
4D77
100
AcDbEntity
  8
AM_0 外形線1
100
AcDbLine
 10
-43.0
 20
53.75
 30
0.0
 11
-43.0
 21
52.5
 31
0.0
  0
LINE
  5
4D9C
330
4D77
100
AcDbEntity
  8
AM_0 外形線1
100
AcDbLine
 10
-45.70000000000003
 20
53.75
 30
0.0
 11
-45.70000000000003
 21
52.5
 31
0.0
  0
LINE
  5
4D9D
330
4D77
100
AcDbEntity
  8
AM_0 外形線1
100
AcDbLine
 10
-39.0
 20
58.88132100000007
 30
0.0
 11
-39.0
 21
59.5
 31
0.0
  0
ARC
  5
4D9E
330
4D77
100
AcDbEntity
  8
AM_0 外形線1
100
AcDbCircle
 10
-40.0
 20
59.5
 30
0.0
 40
1.0
100
AcDbArc
 50
0.0
 51
90.0
  0
LINE
  5
4D9F
330
4D77
100
AcDbEntity
  8
AM_0 外形線1
100
AcDbLine
 10
-42.0
 20
60.5
 30
0.0
 11
-40.0
 21
60.5
 31
0.0
  0
ARC
  5
4DA0
330
4D77
100
AcDbEntity
  8
AM_0 外形線1
100
AcDbCircle
 10
-42.0
 20
59.5
 30
0.0
 40
1.0
100
AcDbArc
 50
90.0
 51
180.0
  0
LINE
  5
4DA1
330
4D77
100
AcDbEntity
  8
AM_0 外形線1
100
AcDbLine
 10
-16.0
 20
57.40000000000009
 30
0.0
 11
-16.0
 21
59.5
 31
0.0
  0
LINE
  5
4DA2
330
4D77
100
AcDbEntity
  8
AM_0 外形線1
100
AcDbLine
 10
-17.0
 20
56.4000000000001
 30
0.0
 11
-16.0
 21
57.40000000000009
 31
0.0
  0
LINE
  5
4DA3
330
4D77
100
AcDbEntity
  8
AM_0 外形線1
100
AcDbLine
 10
-19.0
 20
56.4000000000001
 30
0.0
 11
-17.0
 21
56.4000000000001
 31
0.0
  0
ARC
  5
4DA5
330
4D77
100
AcDbEntity
  8
AM_0 外形線1
100
AcDbCircle
 10
-18.0
 20
70.0
 30
0.0
 40
3.0
100
AcDbArc
 50
270.0
 51
0.0
  0
ARC
  5
4DA6
330
4D77
100
AcDbEntity
  8
AM_0 外形線1
100
AcDbCircle
 10
-15.0
 20
59.5
 30
0.0
 40
1.0
100
AcDbArc
 50
90.0
 51
180.0
  0
LINE
  5
4DA7
330
4D77
100
AcDbEntity
  8
AM_0 外形線1
100
AcDbLine
 10
-14.5
 20
90.0
 30
0.0
 11
-15.0
 21
89.50000000000001
 31
0.0
  0
LINE
  5
4DA8
330
4D77
100
AcDbEntity
  8
AM_0 外形線1
100
AcDbLine
 10
0.0
 20
0.0
 30
0.0
 11
0.0
 21
-89.50000000000001
 31
0.0
  0
LINE
  5
4DA9
330
4D77
100
AcDbEntity
  8
AM_0 外形線1
100
AcDbLine
 10
0.0
 20
-89.50000000000001
 30
0.0
 11
-0.5
 21
-90.0
 31
0.0
  0
LINE
  5
4DAA
330
4D77
100
AcDbEntity
  8
AM_0 外形線1
100
AcDbLine
 10
0.0
 20
68.90000000000009
 30
0.0
 11
0.0
 21
77.0
 31
0.0
  0
LINE
  5
4DAC
330
4D77
100
AcDbEntity
  8
AM_0 外形線1
100
AcDbLine
 10
-1.899999999999862
 20
65.0
 30
0.0
 11
2.5
 21
65.0
 31
0.0
  0
LWPOLYLINE
  5
4DAD
330
4D77
100
AcDbEntity
  8
AM_0 外形線1
100
AcDbPolyline
 90
       73
 70
     0
 43
0.0
 10
-1.200000000000044
 20
65.0
 10
-1.09541299999978
 20
65.00741999999991
 10
-0.9916220000000064
 20
65.02962500000013
 10
-0.8894170000000942
 20
65.06644499999993
 10
-0.7895759999998973
 20
65.11759899999993
 10
-0.6928580000001148
 20
65.18270000000007
 10
-0.5999999999999091
 20
65.26125000000002
 10
-0.5117079999999988
 20
65.3526529999999
 10
-0.4286549999999353
 20
65.45621299999993
 10
-0.351472000000058
 20
65.571142
 10
-0.2807470000000194
 20
65.69656400000008
 10
-0.2170180000000528
 20
65.83152599999994
 10
-0.1607699999999568
 20
65.97500000000014
 10
-0.112431000000015
 20
66.12589400000001
 10
-0.0723689999999806
 20
66.28306100000009
 10
-0.0408890000001065
 20
66.44530299999996
 10
-0.0182310000000143
 20
66.61138600000004
 10
-0.0045659999998406
 20
66.78004600000007
 10
0.0
 20
66.95000000000003
 10
-0.0045659999998406
 20
67.11995400000001
 10
-0.0182310000000143
 20
67.28861400000005
 10
-0.0408890000001065
 20
67.45469700000011
 10
-0.0723689999999806
 20
67.616939
 10
-0.112431000000015
 20
67.77410600000006
 10
-0.1607699999999568
 20
67.92500000000018
 10
-0.2170180000000528
 20
68.06847399999992
 10
-0.2807470000000194
 20
68.20343600000001
 10
-0.351472000000058
 20
68.32885800000008
 10
-0.4286549999999353
 20
68.44378700000016
 10
-0.5117079999999988
 20
68.54734600000006
 10
-0.5999999999999091
 20
68.63874899999996
 10
-0.6928580000001148
 20
68.71730000000003
 10
-0.7895759999998973
 20
68.78240099999993
 10
-0.8894170000000942
 20
68.83355500000014
 10
-0.9916220000000064
 20
68.87037499999997
 10
-1.09541299999978
 20
68.89258000000018
 10
-1.200000000000044
 20
68.90000000000009
 10
-1.304586999999854
 20
68.89258000000018
 10
-1.408377999999856
 20
68.87037499999997
 10
-1.510582999999995
 20
68.83355500000014
 10
-1.610423999999965
 20
68.78240099999993
 10
-1.707141999999976
 20
68.71730000000003
 10
-1.799999999999954
 20
68.63874899999996
 10
-1.888291999999864
 20
68.54734600000006
 10
-1.971344999999928
 20
68.44378700000016
 10
-2.048528000000032
 20
68.32885800000008
 10
-2.119253000000071
 20
68.20343600000001
 10
-2.182982000000038
 20
68.06847399999992
 10
-2.239229999999905
 20
67.92500000000018
 10
-2.287568999999848
 20
67.77410600000006
 10
-2.327630999999882
 20
67.616939
 10
-2.359110999999983
 20
67.45469700000011
 10
-2.381768999999849
 20
67.28861400000005
 10
-2.395433999999795
 20
67.11995400000001
 10
-2.399999999999863
 20
66.95000000000003
 10
-2.395433999999795
 20
66.78004600000007
 10
-2.381768999999849
 20
66.61138600000004
 10
-2.359110999999983
 20
66.44530299999996
 10
-2.327630999999882
 20
66.28306100000009
 10
-2.287568999999848
 20
66.12589400000001
 10
-2.239229999999905
 20
65.97500000000014
 10
-2.182982000000038
 20
65.83152599999994
 10
-2.119253000000071
 20
65.69656400000008
 10
-2.048528000000032
 20
65.571142
 10
-1.971344999999928
 20
65.45621299999993
 10
-1.888291999999864
 20
65.3526529999999
 10
-1.799999999999954
 20
65.26125000000002
 10
-1.707141999999976
 20
65.18270000000007
 10
-1.610423999999965
 20
65.11759899999993
 10
-1.510582999999995
 20
65.06644499999993
 10
-1.408377999999856
 20
65.02962500000013
 10
-1.304586999999854
 20
65.00741999999991
 10
-1.200000000000044
 20
65.0
  0
LINE
  5
4DAE
330
4D77
100
AcDbEntity
  8
AM_0 外形線1
100
AcDbLine
 10
-1.899999999999862
 20
68.90000000000009
 30
0.0
 11
0.0
 21
68.90000000000009
 31
0.0
  0
ARC
  5
4DAF
330
4D77
100
AcDbEntity
  8
AM_0 外形線1
100
AcDbCircle
 10
-1.899999999999862
 20
68.40000000000009
 30
0.0
 40
0.5
100
AcDbArc
 50
90.0
 51
180.0
  0
LINE
  5
4DB0
330
4D77
100
AcDbEntity
  8
AM_0 外形線1
100
AcDbLine
 10
-2.399999999999863
 20
65.5
 30
0.0
 11
-2.399999999999863
 21
68.40000000000009
 31
0.0
  0
ARC
  5
4DB1
330
4D77
100
AcDbEntity
  8
AM_0 外形線1
100
AcDbCircle
 10
-1.899999999999862
 20
65.5
 30
0.0
 40
0.5
100
AcDbArc
 50
180.0
 51
270.0
  0
LINE
  5
4DB2
330
4D77
100
AcDbEntity
  8
AM_0 外形線1
100
AcDbLine
 10
3.0
 20
64.5
 30
0.0
 11
2.5
 21
65.0
 31
0.0
  0
LINE
  5
4DB3
330
4D77
100
AcDbEntity
  8
AM_0 外形線1
100
AcDbLine
 10
3.0
 20
60.5
 30
0.0
 11
3.0
 21
64.5
 31
0.0
  0
LINE
  5
4DB5
330
4D77
100
AcDbEntity
  8
AM_0 外形線1
100
AcDbLine
 10
0.0
 20
86.0
 30
0.0
 11
0.0
 21
89.50000000000001
 31
0.0
  0
LINE
  5
4DB6
330
4D77
100
AcDbEntity
  8
AM_0 外形線1
100
AcDbLine
 10
0.0
 20
89.50000000000001
 30
0.0
 11
-0.5
 21
90.0
 31
0.0
  0
INSERT
  5
4DB7
330
4D77
100
AcDbEntity
  8
AM_0 外形線1
100
AcDbBlockReference
  2
ロッカクアナツキプラグ-2　R1／8
 10
-7.5
 20
-21.093752
 30
0.0
  0
ENDBLK
  5
4D79
330
4D77
100
AcDbEntity
  8
0
100
AcDbBlockEnd
  0
BLOCK
  5
4EAC
330
4EAB
100
AcDbEntity
  8
0
100
AcDbBlockBegin
  2
センタ-1 SAM180
 70
     0
 10
0.0
 20
0.0
 30
0.0
  3
センタ-1 SAM180
  1

  0
LINE
  5
4EAF
330
4EAB
100
AcDbEntity
  8
AM_0 外形線1
100
AcDbLine
 10
0.0
 20
52.0
 30
0.0
 11
0.0
 21
0.0
 31
0.0
  0
LINE
  5
4EB0
330
4EAB
100
AcDbEntity
  8
AM_0 外形線1
100
AcDbLine
 10
90.0
 20
-48.9000000000001
 30
0.0
 11
90.0
 21
48.9000000000001
 31
0.0
  0
LINE
  5
4EB1
330
4EAB
100
AcDbEntity
  8
AM_0 外形線1
100
AcDbLine
 10
62.0
 20
-51.9000000000001
 30
0.0
 11
62.0
 21
0.0
 31
0.0
  0
LINE
  5
4EB2
330
4EAB
100
AcDbEntity
  8
AM_0 外形線1
100
AcDbLine
 10
60.0
 20
-52.5
 30
0.0
 11
60.0
 21
0.0
 31
0.0
  0
LINE
  5
4EB3
330
4EAB
100
AcDbEntity
  8
AM_0 外形線1
100
AcDbLine
 10
62.0
 20
-51.9000000000001
 30
0.0
 11
87.0
 21
-51.9000000000001
 31
0.0
  0
LINE
  5
4EB4
330
4EAB
100
AcDbEntity
  8
AM_0 外形線1
100
AcDbLine
 10
51.0
 20
-52.5
 30
0.0
 11
60.0
 21
-52.5
 31
0.0
  0
LINE
  5
4EB5
330
4EAB
100
AcDbEntity
  8
AM_0 外形線1
100
AcDbLine
 10
60.0
 20
-52.5
 30
0.0
 11
62.0
 21
-51.9000000000001
 31
0.0
  0
ARC
  5
4EB6
330
4EAB
100
AcDbEntity
  8
AM_0 外形線1
100
AcDbCircle
 10
87.0
 20
-48.9000000000001
 30
0.0
 40
3.0
100
AcDbArc
 50
270.0
 51
0.0
  0
LINE
  5
4EB7
330
4EAB
100
AcDbEntity
  8
AM_0 外形線1
100
AcDbLine
 10
0.0
 20
26.31064400000014
 30
0.0
 11
90.0
 21
26.31064400000014
 31
0.0
  0
LINE
  5
4EB9
330
4EAB
100
AcDbEntity
  8
AM_0 外形線1
100
AcDbLine
 10
60.0
 20
52.5
 30
0.0
 11
35.5
 21
52.5
 31
0.0
  0
LINE
  5
4EBA
330
4EAB
100
AcDbEntity
  8
AM_0 外形線1
100
AcDbLine
 10
13.5
 20
52.5
 30
0.0
 11
0.5
 21
52.5
 31
0.0
  0
LINE
  5
4EBB
330
4EAB
100
AcDbEntity
  8
AM_0 外形線1
100
AcDbLine
 10
0.5
 20
52.5
 30
0.0
 11
0.0
 21
52.0
 31
0.0
  0
ARC
  5
4EBE
330
4EAB
100
AcDbEntity
  8
AM_0 外形線1
100
AcDbCircle
 10
23.0
 20
0.0
 30
0.0
 40
59.9
100
AcDbArc
 50
79.41818299999567
 51
97.6751240000005
  0
LINE
  5
4EBF
330
4EAB
100
AcDbEntity
  8
AM_7 中心線
100
AcDbLine
 10
23.0
 20
64.90000000000009
 30
0.0
 11
23.0
 21
50.80000000000018
 31
0.0
  0
LINE
  5
4EC0
330
4EAB
100
AcDbEntity
  8
AM_0 外形線1
100
AcDbLine
 10
15.0
 20
59.36337300000015
 30
0.0
 11
14.0
 21
58.2200130000001
 31
0.0
  0
ARC
  5
4EC1
330
4EAB
100
AcDbEntity
  8
AM_0 外形線1
100
AcDbCircle
 10
13.5
 20
53.0
 30
0.0
 40
0.5
100
AcDbArc
 50
270.0
 51
0.0
  0
LINE
  5
4EC2
330
4EAB
100
AcDbEntity
  8
AM_0 外形線1
100
AcDbLine
 10
14.0
 20
58.2200130000001
 30
0.0
 11
14.0
 21
53.0
 31
0.0
  0
LINE
  5
4EC3
330
4EAB
100
AcDbEntity
  8
AM_0 外形線1
100
AcDbLine
 10
35.0
 20
57.68568800000003
 30
0.0
 11
34.0
 21
58.88132100000007
 31
0.0
  0
LINE
  5
4EC4
330
4EAB
100
AcDbEntity
  8
AM_0 外形線1
100
AcDbLine
 10
35.0
 20
53.0
 30
0.0
 11
35.0
 21
57.68568800000003
 31
0.0
  0
ARC
  5
4EC5
330
4EAB
100
AcDbEntity
  8
AM_0 外形線1
100
AcDbCircle
 10
35.5
 20
53.0
 30
0.0
 40
0.5
100
AcDbArc
 50
180.0
 51
270.0
  0
LINE
  5
4EC6
330
4EAB
100
AcDbEntity
  8
AM_0 外形線1
100
AcDbLine
 10
87.0
 20
51.9000000000001
 30
0.0
 11
62.0
 21
51.9000000000001
 31
0.0
  0
LINE
  5
4EC7
330
4EAB
100
AcDbEntity
  8
AM_0 外形線1
100
AcDbLine
 10
62.0
 20
51.9000000000001
 30
0.0
 11
60.0
 21
52.5
 31
0.0
  0
ARC
  5
4EC9
330
4EAB
100
AcDbEntity
  8
AM_0 外形線1
100
AcDbCircle
 10
87.0
 20
48.9000000000001
 30
0.0
 40
3.0
100
AcDbArc
 50
0.0
 51
90.0
  0
ARC
  5
9B34
330
4EAB
100
AcDbEntity
  8
AM_0 外形線1
100
AcDbCircle
 10
23.0
 20
0.0
 30
0.0
 40
55.79999999999995
100
AcDbArc
 50
77.58131849417876
 51
99.28179908668267
  0
ARC
  5
9B35
330
4EAB
100
AcDbEntity
  8
AM_7 中心線
100
AcDbCircle
 10
23.0
 20
0.0
 30
0.0
 40
58.0
100
AcDbArc
 50
76.51077213743818
 51
101.3929571353275
  0
ENDBLK
  5
4EAD
330
4EAB
100
AcDbEntity
  8
0
100
AcDbBlockEnd
  0
BLOCK
  5
4EFD
330
4EFC
100
AcDbEntity
  8
0
100
AcDbBlockBegin
  2
センタ-2 SAM180
 70
     0
 10
0.0
 20
0.0
 30
0.0
  3
センタ-2 SAM180
  1

  0
LINE
  5
4F00
330
4EFC
100
AcDbEntity
  8
AM_0 外形線1
100
AcDbLine
 10
0.0
 20
31.22899293925309
 30
0.0
 11
-90.0
 21
31.22899293925309
 31
0.0
  0
LINE
  5
4F01
330
4EFC
100
AcDbEntity
  8
AM_0 外形線1
100
AcDbLine
 10
-13.5
 20
52.5
 30
0.0
 11
-0.5
 21
52.5
 31
0.0
  0
LINE
  5
4F03
330
4EFC
100
AcDbEntity
  8
AM_0 外形線1
100
AcDbLine
 10
-90.0
 20
-48.9000000000001
 30
0.0
 11
-90.0
 21
48.9000000000001
 31
0.0
  0
LINE
  5
4F04
330
4EFC
100
AcDbEntity
  8
AM_0 外形線1
100
AcDbLine
 10
-62.0
 20
-51.9000000000001
 30
0.0
 11
-87.0
 21
-51.9000000000001
 31
0.0
  0
ARC
  5
4F05
330
4EFC
100
AcDbEntity
  8
AM_0 外形線1
100
AcDbCircle
 10
-87.0
 20
-48.9000000000001
 30
0.0
 40
3.0
100
AcDbArc
 50
180.0
 51
270.0
  0
LINE
  5
4F06
330
4EFC
100
AcDbEntity
  8
AM_0 外形線1
100
AcDbLine
 10
-62.0
 20
-51.9000000000001
 30
0.0
 11
-62.0
 21
0.0
 31
0.0
  0
LINE
  5
4F07
330
4EFC
100
AcDbEntity
  8
AM_0 外形線1
100
AcDbLine
 10
-60.0
 20
-52.5
 30
0.0
 11
-60.0
 21
0.0
 31
0.0
  0
LINE
  5
4F08
330
4EFC
100
AcDbEntity
  8
AM_0 外形線1
100
AcDbLine
 10
-51.0
 20
-52.5
 30
0.0
 11
-60.0
 21
-52.5
 31
0.0
  0
LINE
  5
4F09
330
4EFC
100
AcDbEntity
  8
AM_0 外形線1
100
AcDbLine
 10
-60.0
 20
-52.5
 30
0.0
 11
-62.0
 21
-51.9000000000001
 31
0.0
  0
LINE
  5
4F0A
330
4EFC
100
AcDbEntity
  8
AM_0 外形線1
100
AcDbLine
 10
-87.0
 20
51.9000000000001
 30
0.0
 11
-62.0
 21
51.9000000000001
 31
0.0
  0
ARC
  5
4F0C
330
4EFC
100
AcDbEntity
  8
AM_0 外形線1
100
AcDbCircle
 10
-87.0
 20
48.9000000000001
 30
0.0
 40
3.0
100
AcDbArc
 50
90.0
 51
180.0
  0
LINE
  5
4F0D
330
4EFC
100
AcDbEntity
  8
AM_0 外形線1
100
AcDbLine
 10
-60.0
 20
52.5
 30
0.0
 11
-35.5
 21
52.5
 31
0.0
  0
LINE
  5
4F0E
330
4EFC
100
AcDbEntity
  8
AM_0 外形線1
100
AcDbLine
 10
-62.0
 20
51.9000000000001
 30
0.0
 11
-60.0
 21
52.5
 31
0.0
  0
ARC
  5
4F10
330
4EFC
100
AcDbEntity
  8
AM_0 外形線1
100
AcDbCircle
 10
-23.0
 20
0.0
 30
0.0
 40
59.9
100
AcDbArc
 50
82.32487599999949
 51
100.5818170000043
  0
LINE
  5
4F12
330
4EFC
100
AcDbEntity
  8
AM_7 中心線
100
AcDbLine
 10
-23.0
 20
64.90000000000009
 30
0.0
 11
-23.0
 21
50.80000000000018
 31
0.0
  0
LINE
  5
4F13
330
4EFC
100
AcDbEntity
  8
AM_0 外形線1
100
AcDbLine
 10
-35.0
 20
57.68568800000003
 30
0.0
 11
-34.0
 21
58.88132100000007
 31
0.0
  0
LINE
  5
4F14
330
4EFC
100
AcDbEntity
  8
AM_0 外形線1
100
AcDbLine
 10
-35.0
 20
53.0
 30
0.0
 11
-35.0
 21
57.68568800000003
 31
0.0
  0
ARC
  5
4F15
330
4EFC
100
AcDbEntity
  8
AM_0 外形線1
100
AcDbCircle
 10
-35.5
 20
53.0
 30
0.0
 40
0.5
100
AcDbArc
 50
270.0
 51
0.0
  0
LINE
  5
4F16
330
4EFC
100
AcDbEntity
  8
AM_0 外形線1
100
AcDbLine
 10
-15.0
 20
59.36337300000015
 30
0.0
 11
-14.0
 21
58.2200130000001
 31
0.0
  0
ARC
  5
4F17
330
4EFC
100
AcDbEntity
  8
AM_0 外形線1
100
AcDbCircle
 10
-13.5
 20
53.0
 30
0.0
 40
0.5
100
AcDbArc
 50
180.0
 51
270.0
  0
LINE
  5
4F18
330
4EFC
100
AcDbEntity
  8
AM_0 外形線1
100
AcDbLine
 10
-14.0
 20
58.2200130000001
 30
0.0
 11
-14.0
 21
53.0
 31
0.0
  0
LINE
  5
4F1A
330
4EFC
100
AcDbEntity
  8
AM_0 外形線1
100
AcDbLine
 10
-0.5
 20
52.5
 30
0.0
 11
0.0
 21
52.0
 31
0.0
  0
LINE
  5
4F61
330
4EFC
100
AcDbEntity
  8
AM_0 外形線1
100
AcDbLine
 10
0.0
 20
52.0
 30
0.0
 11
0.0
 21
0.0
 31
0.0
  0
ARC
  5
97C0
330
4EFC
100
AcDbEntity
  8
AM_0 外形線1
100
AcDbCircle
 10
-23.0
 20
0.0
 30
0.0
 40
55.79999999999995
100
AcDbArc
 50
80.71820091332162
 51
102.418681505818
  0
ARC
  5
97C1
330
4EFC
100
AcDbEntity
  8
AM_7 中心線
100
AcDbCircle
 10
-23.0
 20
0.0
 30
0.0
 40
58.0
100
AcDbArc
 50
78.60704286467562
 51
103.489227862565
  0
ENDBLK
  5
4EFE
330
4EFC
100
AcDbEntity
  8
0
100
AcDbBlockEnd
  0
BLOCK
  5
5347
330
5346
100
AcDbEntity
  8
0
100
AcDbBlockBegin
  2
リーマボルト-1 SAM180 M8
 70
     0
 10
0.0
 20
0.0
 30
0.0
  3
リーマボルト-1 SAM180 M8
  1

  0
ARC
  5
5349
330
5346
100
AcDbEntity
  8
AM_0 外形線1
100
AcDbCircle
 10
3.881941999999979
 20
3.247594999999818
 30
0.0
 40
9.384439999999999
100
AcDbArc
 50
159.7533799999986
 51
200.2466200000013
  0
LINE
  5
534A
330
5346
100
AcDbEntity
  8
AM_0 外形線1
100
AcDbLine
 10
-5.5
 20
3.464101999999911
 30
0.0
 11
-5.5
 21
-3.031089000000064
 31
0.0
  0
LINE
  5
534B
330
5346
100
AcDbEntity
  8
AM_0 外形線1
100
AcDbLine
 10
-4.922649999999974
 20
-6.495190999999977
 30
0.0
 11
0.0
 21
-6.495190999999977
 31
0.0
  0
ARC
  5
534C
330
5346
100
AcDbEntity
  8
AM_0 外形線1
100
AcDbCircle
 10
3.881941999999979
 20
-3.247594999999818
 30
0.0
 40
9.384439999999999
100
AcDbArc
 50
159.7533799999986
 51
200.2466200000013
  0
LINE
  5
534D
330
5346
100
AcDbEntity
  8
AM_0 外形線1
100
AcDbLine
 10
1.5
 20
-4.5
 30
0.0
 11
1.5
 21
4.5
 31
0.0
  0
ARC
  5
534E
330
5346
100
AcDbEntity
  8
AM_0 外形線1
100
AcDbCircle
 10
1.0
 20
-4.5
 30
0.0
 40
0.5
100
AcDbArc
 50
0.0
 51
90.0
  0
LINE
  5
534F
330
5346
100
AcDbEntity
  8
AM_0 外形線1
100
AcDbLine
 10
0.5
 20
-4.0
 30
0.0
 11
1.0
 21
-4.0
 31
0.0
  0
ARC
  5
5350
330
5346
100
AcDbEntity
  8
AM_0 外形線1
100
AcDbCircle
 10
0.5
 20
-4.5
 30
0.0
 40
0.5
100
AcDbArc
 50
90.0
 51
180.0
  0
ARC
  5
5351
330
5346
100
AcDbEntity
  8
AM_0 外形線1
100
AcDbCircle
 10
1.0
 20
4.5
 30
0.0
 40
0.5
100
AcDbArc
 50
270.0
 51
0.0
  0
LINE
  5
5352
330
5346
100
AcDbEntity
  8
AM_0 外形線1
100
AcDbLine
 10
0.5
 20
4.0
 30
0.0
 11
1.0
 21
4.0
 31
0.0
  0
ARC
  5
5353
330
5346
100
AcDbEntity
  8
AM_0 外形線1
100
AcDbCircle
 10
0.5
 20
4.5
 30
0.0
 40
0.5
100
AcDbArc
 50
180.0
 51
270.0
  0
LINE
  5
5354
330
5346
100
AcDbEntity
  8
AM_0 外形線1
100
AcDbLine
 10
0.0
 20
6.495190000000093
 30
0.0
 11
-4.922649999999974
 21
6.495190000000093
 31
0.0
  0
ARC
  5
5355
330
5346
100
AcDbEntity
  8
AM_0 外形線1
100
AcDbCircle
 10
35.17121199999997
 20
5.626388000000132
 30
0.0
 40
3.328787999999998
100
AcDbArc
 50
325.74681299999
 51
34.25318700001
  0
LINE
  5
5356
330
5346
100
AcDbEntity
  8
AM_0 外形線1
100
AcDbLine
 10
32.0
 20
-7.5
 30
0.0
 11
32.0
 21
7.5
 31
0.0
  0
LINE
  5
5357
330
5346
100
AcDbEntity
  8
AM_0 外形線1
100
AcDbLine
 10
38.5
 20
6.5
 30
0.0
 11
38.5
 21
-6.5
 31
0.0
  0
LINE
  5
5358
330
5346
100
AcDbEntity
  8
AM_0 外形線1
100
AcDbLine
 10
32.0
 20
-3.752777000000151
 30
0.0
 11
37.92264999999998
 21
-3.752777000000151
 31
0.0
  0
LINE
  5
5359
330
5346
100
AcDbEntity
  8
AM_0 外形線1
100
AcDbLine
 10
32.0
 20
3.752777000000151
 30
0.0
 11
37.92264999999998
 21
3.752777000000151
 31
0.0
  0
LINE
  5
535A
330
5346
100
AcDbEntity
  8
AM_0 外形線1
100
AcDbLine
 10
37.92264999999998
 20
-7.5
 30
0.0
 11
32.0
 21
-7.5
 31
0.0
  0
LINE
  5
535B
330
5346
100
AcDbEntity
  8
AM_0 外形線1
100
AcDbLine
 10
25.0
 20
-3.922649999999975
 30
0.0
 11
30.0
 21
-3.922649999999975
 31
0.0
  0
LINE
  5
535C
330
5346
100
AcDbEntity
  8
AM_0 外形線1
100
AcDbLine
 10
25.0
 20
3.922649999999975
 30
0.0
 11
30.0
 21
3.922649999999975
 31
0.0
  0
LINE
  5
535D
330
5346
100
AcDbEntity
  8
AM_0 外形線1
100
AcDbLine
 10
32.0
 20
0.6666669999999613
 30
0.0
 11
30.0
 21
-1.333333000000038
 31
0.0
  0
LINE
  5
535E
330
5346
100
AcDbEntity
  8
AM_0 外形線1
100
AcDbLine
 10
32.0
 20
1.333333000000038
 30
0.0
 11
30.0
 21
-0.6666669999999613
 31
0.0
  0
LINE
  5
535F
330
5346
100
AcDbEntity
  8
AM_0 外形線1
100
AcDbLine
 10
32.0
 20
-7.699999999999817
 30
0.0
 11
32.0
 21
-7.5
 31
0.0
  0
LINE
  5
5360
330
5346
100
AcDbEntity
  8
AM_0 外形線1
100
AcDbLine
 10
30.0
 20
-7.699999999999817
 30
0.0
 11
32.0
 21
-7.699999999999817
 31
0.0
  0
LINE
  5
5361
330
5346
100
AcDbEntity
  8
AM_0 外形線1
100
AcDbLine
 10
24.0
 20
4.5
 30
0.0
 11
24.0
 21
-4.5
 31
0.0
  0
LINE
  5
5362
330
5346
100
AcDbEntity
  8
AM_0 外形線1
100
AcDbLine
 10
25.0
 20
-3.922649999999975
 30
0.0
 11
24.0
 21
-4.5
 31
0.0
  0
LINE
  5
5363
330
5346
100
AcDbEntity
  8
AM_0 外形線1
100
AcDbLine
 10
25.0
 20
3.922649999999975
 30
0.0
 11
25.0
 21
-3.922649999999975
 31
0.0
  0
LINE
  5
5364
330
5346
100
AcDbEntity
  8
AM_0 外形線1
100
AcDbLine
 10
24.0
 20
4.5
 30
0.0
 11
25.0
 21
3.922649999999975
 31
0.0
  0
LINE
  5
5365
330
5346
100
AcDbEntity
  8
AM_4 細線
100
AcDbLine
 10
38.5
 20
-3.375
 30
0.0
 11
41.625
 21
-3.375
 31
0.0
  0
LINE
  5
5366
330
5346
100
AcDbEntity
  8
AM_4 細線
100
AcDbLine
 10
38.5
 20
3.375
 30
0.0
 11
41.625
 21
3.375
 31
0.0
  0
LINE
  5
5367
330
5346
100
AcDbEntity
  8
AM_0 外形線1
100
AcDbLine
 10
41.0
 20
4.0
 30
0.0
 11
41.0
 21
-4.0
 31
0.0
  0
LINE
  5
5368
330
5346
100
AcDbEntity
  8
AM_0 外形線1
100
AcDbLine
 10
41.0
 20
-4.0
 30
0.0
 11
38.5
 21
-4.0
 31
0.0
  0
LINE
  5
5369
330
5346
100
AcDbEntity
  8
AM_0 外形線1
100
AcDbLine
 10
42.0
 20
-3.0
 30
0.0
 11
41.0
 21
-4.0
 31
0.0
  0
LINE
  5
536A
330
5346
100
AcDbEntity
  8
AM_0 外形線1
100
AcDbLine
 10
42.0
 20
3.0
 30
0.0
 11
42.0
 21
-3.0
 31
0.0
  0
LINE
  5
536B
330
5346
100
AcDbEntity
  8
AM_0 外形線1
100
AcDbLine
 10
41.0
 20
4.0
 30
0.0
 11
42.0
 21
3.0
 31
0.0
  0
LINE
  5
536C
330
5346
100
AcDbEntity
  8
AM_0 外形線1
100
AcDbLine
 10
38.5
 20
4.0
 30
0.0
 11
41.0
 21
4.0
 31
0.0
  0
ARC
  5
536D
330
5346
100
AcDbEntity
  8
AM_0 外形線1
100
AcDbCircle
 10
35.17121199999997
 20
-5.626387999999906
 30
0.0
 40
3.328787999999998
100
AcDbArc
 50
325.74681299999
 51
34.25318700001
  0
ARC
  5
536E
330
5346
100
AcDbEntity
  8
AM_0 外形線1
100
AcDbCircle
 10
26.01480000000015
 20
0.0
 30
0.0
 40
12.4852
100
AcDbArc
 50
342.5076750000016
 51
17.49232499999834
  0
LINE
  5
536F
330
5346
100
AcDbEntity
  8
AM_0 外形線1
100
AcDbLine
 10
38.5
 20
-6.5
 30
0.0
 11
37.92264999999998
 21
-7.5
 31
0.0
  0
LINE
  5
5370
330
5346
100
AcDbEntity
  8
AM_0 外形線1
100
AcDbLine
 10
32.0
 20
7.5
 30
0.0
 11
37.92264999999998
 21
7.5
 31
0.0
  0
LINE
  5
5371
330
5346
100
AcDbEntity
  8
AM_0 外形線1
100
AcDbLine
 10
32.0
 20
7.700000000000045
 30
0.0
 11
30.0
 21
7.700000000000045
 31
0.0
  0
LINE
  5
5372
330
5346
100
AcDbEntity
  8
AM_0 外形線1
100
AcDbLine
 10
32.0
 20
7.5
 30
0.0
 11
32.0
 21
7.700000000000045
 31
0.0
  0
LINE
  5
5373
330
5346
100
AcDbEntity
  8
AM_0 外形線1
100
AcDbLine
 10
37.92264999999998
 20
7.5
 30
0.0
 11
38.5
 21
6.5
 31
0.0
  0
LINE
  5
53D4
330
5346
100
AcDbEntity
  8
AM_0 外形線1
100
AcDbLine
 10
0.0
 20
6.495190000000093
 30
0.0
 11
0.0
 21
-6.495190999999977
 31
0.0
  0
LINE
  5
53D5
330
5346
100
AcDbEntity
  8
AM_0 外形線1
100
AcDbLine
 10
-4.922649898368034
 20
-0.0000003591533186
 30
0.0
 11
0.0
 21
0.0
 31
0.0
  0
LINE
  5
53D6
330
5346
100
AcDbEntity
  8
AM_0 外形線1
100
AcDbLine
 10
1.5
 20
4.5
 30
0.0
 11
24.0
 21
4.5
 31
0.0
  0
LINE
  5
53D7
330
5346
100
AcDbEntity
  8
AM_0 外形線1
100
AcDbLine
 10
1.5
 20
-4.5
 30
0.0
 11
24.0
 21
-4.5
 31
0.0
  0
LINE
  5
53D8
330
5346
100
AcDbEntity
  8
AM_0 外形線1
100
AcDbLine
 10
30.0
 20
7.700000000000045
 30
0.0
 11
30.0
 21
-7.699999999999817
 31
0.0
  0
ENDBLK
  5
5348
330
5346
100
AcDbEntity
  8
0
100
AcDbBlockEnd
  0
BLOCK
  5
53DC
330
53DB
100
AcDbEntity
  8
0
100
AcDbBlockBegin
  2
リーマボルト-2 SAM180 M8
 70
     0
 10
0.0
 20
0.0
 30
0.0
  3
リーマボルト-2 SAM180 M8
  1

  0
ARC
  5
53DE
330
53DB
100
AcDbEntity
  8
AM_0 外形線1
100
AcDbCircle
 10
-35.17121199999997
 20
5.626388000000132
 30
0.0
 40
3.328787999999998
100
AcDbArc
 50
145.7468129999918
 51
214.2531870000082
  0
LINE
  5
53DF
330
53DB
100
AcDbEntity
  8
AM_0 外形線1
100
AcDbLine
 10
-32.0
 20
-7.5
 30
0.0
 11
-32.0
 21
7.5
 31
0.0
  0
LINE
  5
53E0
330
53DB
100
AcDbEntity
  8
AM_0 外形線1
100
AcDbLine
 10
-38.5
 20
6.5
 30
0.0
 11
-38.5
 21
-6.5
 31
0.0
  0
LINE
  5
53E1
330
53DB
100
AcDbEntity
  8
AM_0 外形線1
100
AcDbLine
 10
-30.0
 20
0.6666669999999613
 30
0.0
 11
-32.0
 21
-1.333333000000038
 31
0.0
  0
LINE
  5
53E2
330
53DB
100
AcDbEntity
  8
AM_0 外形線1
100
AcDbLine
 10
-32.0
 20
-0.6666669999999613
 30
0.0
 11
-30.0
 21
1.333333000000038
 31
0.0
  0
LINE
  5
53E3
330
53DB
100
AcDbEntity
  8
AM_0 外形線1
100
AcDbLine
 10
-30.0
 20
-7.699999999999817
 30
0.0
 11
-32.0
 21
-7.699999999999817
 31
0.0
  0
LINE
  5
53E4
330
53DB
100
AcDbEntity
  8
AM_4 細線
100
AcDbLine
 10
-38.5
 20
-3.375
 30
0.0
 11
-41.625
 21
-3.375
 31
0.0
  0
LINE
  5
53E5
330
53DB
100
AcDbEntity
  8
AM_4 細線
100
AcDbLine
 10
-38.5
 20
3.375
 30
0.0
 11
-41.625
 21
3.375
 31
0.0
  0
LINE
  5
53E6
330
53DB
100
AcDbEntity
  8
AM_0 外形線1
100
AcDbLine
 10
-41.0
 20
4.0
 30
0.0
 11
-41.0
 21
-4.0
 31
0.0
  0
LINE
  5
53E7
330
53DB
100
AcDbEntity
  8
AM_0 外形線1
100
AcDbLine
 10
-41.0
 20
-4.0
 30
0.0
 11
-38.5
 21
-4.0
 31
0.0
  0
LINE
  5
53E8
330
53DB
100
AcDbEntity
  8
AM_0 外形線1
100
AcDbLine
 10
-42.0
 20
-3.0
 30
0.0
 11
-41.0
 21
-4.0
 31
0.0
  0
LINE
  5
53E9
330
53DB
100
AcDbEntity
  8
AM_0 外形線1
100
AcDbLine
 10
-42.0
 20
3.0
 30
0.0
 11
-42.0
 21
-3.0
 31
0.0
  0
LINE
  5
53EA
330
53DB
100
AcDbEntity
  8
AM_0 外形線1
100
AcDbLine
 10
-41.0
 20
4.0
 30
0.0
 11
-42.0
 21
3.0
 31
0.0
  0
LINE
  5
53EB
330
53DB
100
AcDbEntity
  8
AM_0 外形線1
100
AcDbLine
 10
-38.5
 20
4.0
 30
0.0
 11
-41.0
 21
4.0
 31
0.0
  0
LINE
  5
53EC
330
53DB
100
AcDbEntity
  8
AM_0 外形線1
100
AcDbLine
 10
-32.0
 20
-3.752777000000151
 30
0.0
 11
-37.92264999999998
 21
-3.752777000000151
 31
0.0
  0
LINE
  5
53ED
330
53DB
100
AcDbEntity
  8
AM_0 外形線1
100
AcDbLine
 10
-32.0
 20
3.752777000000151
 30
0.0
 11
-37.92264999999998
 21
3.752777000000151
 31
0.0
  0
ARC
  5
53EE
330
53DB
100
AcDbEntity
  8
AM_0 外形線1
100
AcDbCircle
 10
-35.17121199999997
 20
-5.626387999999906
 30
0.0
 40
3.328787999999998
100
AcDbArc
 50
145.7468129999918
 51
214.2531870000082
  0
ARC
  5
53EF
330
53DB
100
AcDbEntity
  8
AM_0 外形線1
100
AcDbCircle
 10
-26.01479999999992
 20
0.0
 30
0.0
 40
12.4852
100
AcDbArc
 50
162.5076750000006
 51
197.4923249999993
  0
LINE
  5
53F0
330
53DB
100
AcDbEntity
  8
AM_0 外形線1
100
AcDbLine
 10
-37.92264999999998
 20
-7.5
 30
0.0
 11
-32.0
 21
-7.5
 31
0.0
  0
LINE
  5
53F1
330
53DB
100
AcDbEntity
  8
AM_0 外形線1
100
AcDbLine
 10
-38.5
 20
-6.5
 30
0.0
 11
-37.92264999999998
 21
-7.5
 31
0.0
  0
LINE
  5
53F2
330
53DB
100
AcDbEntity
  8
AM_0 外形線1
100
AcDbLine
 10
-32.0
 20
-7.699999999999817
 30
0.0
 11
-32.0
 21
-7.5
 31
0.0
  0
LINE
  5
53F3
330
53DB
100
AcDbEntity
  8
AM_0 外形線1
100
AcDbLine
 10
-25.0
 20
-3.922649999999975
 30
0.0
 11
-30.0
 21
-3.922649999999975
 31
0.0
  0
LINE
  5
53F4
330
53DB
100
AcDbEntity
  8
AM_0 外形線1
100
AcDbLine
 10
-25.0
 20
3.922649999999975
 30
0.0
 11
-30.0
 21
3.922649999999975
 31
0.0
  0
LINE
  5
53F5
330
53DB
100
AcDbEntity
  8
AM_0 外形線1
100
AcDbLine
 10
-24.0
 20
4.5
 30
0.0
 11
-24.0
 21
-4.5
 31
0.0
  0
LINE
  5
53F6
330
53DB
100
AcDbEntity
  8
AM_0 外形線1
100
AcDbLine
 10
-25.0
 20
-3.922649999999975
 30
0.0
 11
-24.0
 21
-4.5
 31
0.0
  0
LINE
  5
53F7
330
53DB
100
AcDbEntity
  8
AM_0 外形線1
100
AcDbLine
 10
-25.0
 20
3.922649999999975
 30
0.0
 11
-25.0
 21
-3.922649999999975
 31
0.0
  0
LINE
  5
53F8
330
53DB
100
AcDbEntity
  8
AM_0 外形線1
100
AcDbLine
 10
-24.0
 20
4.5
 30
0.0
 11
-25.0
 21
3.922649999999975
 31
0.0
  0
LINE
  5
53F9
330
53DB
100
AcDbEntity
  8
AM_0 外形線1
100
AcDbLine
 10
-32.0
 20
7.700000000000045
 30
0.0
 11
-30.0
 21
7.700000000000045
 31
0.0
  0
LINE
  5
53FA
330
53DB
100
AcDbEntity
  8
AM_0 外形線1
100
AcDbLine
 10
-37.92264999999998
 20
7.5
 30
0.0
 11
-38.5
 21
6.5
 31
0.0
  0
LINE
  5
53FB
330
53DB
100
AcDbEntity
  8
AM_0 外形線1
100
AcDbLine
 10
-32.0
 20
7.5
 30
0.0
 11
-37.92264999999998
 21
7.5
 31
0.0
  0
LINE
  5
53FC
330
53DB
100
AcDbEntity
  8
AM_0 外形線1
100
AcDbLine
 10
-32.0
 20
7.5
 30
0.0
 11
-32.0
 21
7.700000000000045
 31
0.0
  0
ARC
  5
53FD
330
53DB
100
AcDbEntity
  8
AM_0 外形線1
100
AcDbCircle
 10
-1.0
 20
-4.5
 30
0.0
 40
0.5
100
AcDbArc
 50
90.0
 51
180.0
  0
ARC
  5
53FE
330
53DB
100
AcDbEntity
  8
AM_0 外形線1
100
AcDbCircle
 10
-1.0
 20
4.5
 30
0.0
 40
0.5
100
AcDbArc
 50
180.0
 51
270.0
  0
LINE
  5
53FF
330
53DB
100
AcDbEntity
  8
AM_0 外形線1
100
AcDbLine
 10
-1.5
 20
-4.5
 30
0.0
 11
-1.5
 21
4.5
 31
0.0
  0
ARC
  5
5400
330
53DB
100
AcDbEntity
  8
AM_0 外形線1
100
AcDbCircle
 10
-3.881941999999979
 20
3.247594999999818
 30
0.0
 40
9.384439999999999
100
AcDbArc
 50
339.7533799999986
 51
20.24662000000134
  0
LINE
  5
5401
330
53DB
100
AcDbEntity
  8
AM_0 外形線1
100
AcDbLine
 10
5.5
 20
3.464101999999911
 30
0.0
 11
5.5
 21
-3.031089000000064
 31
0.0
  0
LINE
  5
5402
330
53DB
100
AcDbEntity
  8
AM_0 外形線1
100
AcDbLine
 10
4.922650000000203
 20
-6.495190999999977
 30
0.0
 11
0.0
 21
-6.495190999999977
 31
0.0
  0
ARC
  5
5403
330
53DB
100
AcDbEntity
  8
AM_0 外形線1
100
AcDbCircle
 10
-3.881941999999979
 20
-3.247594999999818
 30
0.0
 40
9.384439999999999
100
AcDbArc
 50
339.7533799999986
 51
20.24662000000134
  0
LINE
  5
5404
330
53DB
100
AcDbEntity
  8
AM_0 外形線1
100
AcDbLine
 10
-0.5
 20
-4.0
 30
0.0
 11
-1.0
 21
-4.0
 31
0.0
  0
ARC
  5
5405
330
53DB
100
AcDbEntity
  8
AM_0 外形線1
100
AcDbCircle
 10
-0.5
 20
-4.5
 30
0.0
 40
0.5
100
AcDbArc
 50
0.0
 51
90.0
  0
LINE
  5
5406
330
53DB
100
AcDbEntity
  8
AM_0 外形線1
100
AcDbLine
 10
-0.5
 20
4.0
 30
0.0
 11
-1.0
 21
4.0
 31
0.0
  0
ARC
  5
5407
330
53DB
100
AcDbEntity
  8
AM_0 外形線1
100
AcDbCircle
 10
-0.5
 20
4.5
 30
0.0
 40
0.5
100
AcDbArc
 50
270.0
 51
0.0
  0
LINE
  5
5408
330
53DB
100
AcDbEntity
  8
AM_0 外形線1
100
AcDbLine
 10
0.0
 20
6.495190000000093
 30
0.0
 11
4.922650000000203
 21
6.495190000000093
 31
0.0
  0
LINE
  5
5470
330
53DB
100
AcDbEntity
  8
AM_0 外形線1
100
AcDbLine
 10
-30.0
 20
7.700000000000045
 30
0.0
 11
-30.0
 21
-7.699999999999817
 31
0.0
  0
LINE
  5
5471
330
53DB
100
AcDbEntity
  8
AM_0 外形線1
100
AcDbLine
 10
-24.0
 20
4.5
 30
0.0
 11
-1.5
 21
4.499999999999886
 31
0.0
  0
LINE
  5
5472
330
53DB
100
AcDbEntity
  8
AM_0 外形線1
100
AcDbLine
 10
-24.0
 20
-4.5
 30
0.0
 11
-1.5
 21
-4.499999999999886
 31
0.0
  0
LINE
  5
5473
330
53DB
100
AcDbEntity
  8
AM_0 外形線1
100
AcDbLine
 10
0.0
 20
6.495190000000093
 30
0.0
 11
0.0
 21
-6.495190999999977
 31
0.0
  0
LINE
  5
6FB6
330
53DB
100
AcDbEntity
  8
AM_0 外形線1
100
AcDbLine
 10
4.922649898367978
 20
0.0000003591533186
 30
0.0
 11
0.0
 21
-0.0000004999999419
 31
0.0
  0
ENDBLK
  5
53DD
330
53DB
100
AcDbEntity
  8
0
100
AcDbBlockEnd
  0
BLOCK
  5
57DE
330
57DD
100
AcDbEntity
  8
0
100
AcDbBlockBegin
  2
*D15
 70
     1
 10
0.0
 20
0.0
 30
0.0
  3
*D15
  1

  0
LINE
  5
90B7
330
57DD
100
AcDbEntity
  8
AM_5 寸法線
 62
     3
100
AcDbLine
 10
361.6073498825126
 20
600.574497522196
 30
0.0
 11
281.6073498825126
 21
600.574497522196
 31
0.0
  0
LINE
  5
90B8
330
57DD
100
AcDbEntity
  8
AM_5 寸法線
 62
     3
100
AcDbLine
 10
361.6073498825126
 20
495.5744975221959
 30
0.0
 11
281.6073498825126
 21
495.5744975221959
 31
0.0
  0
LINE
  5
90B9
330
57DD
100
AcDbEntity
  8
AM_5 寸法線
 62
     3
100
AcDbLine
 10
283.1698498825126
 20
594.324497522196
 30
0.0
 11
283.1698498825126
 21
501.8244975221959
 31
0.0
  0
INSERT
  5
90BA
330
57DD
100
AcDbEntity
  8
AM_5 寸法線
 62
     3
100
AcDbBlockReference
  2
_Open30
 10
283.1698498825126
 20
600.574497522196
 30
0.0
 41
6.25
 42
6.25
 43
6.25
 50
90.0
  0
INSERT
  5
90BB
330
57DD
100
AcDbEntity
  8
AM_5 寸法線
 62
     3
100
AcDbBlockReference
  2
_Open30
 10
283.1698498825126
 20
495.5744975221959
 30
0.0
 41
6.25
 42
6.25
 43
6.25
 50
270.0
  0
MTEXT
  5
90BC
330
57DD
100
AcDbEntity
  8
AM_5 寸法線
 62
     3
100
AcDbMText
 10
275.0448498825126
 20
548.0744975221961
 30
0.0
 40
8.75
 41
0.0
 46
0.0
 71
     5
 72
     1
  1
%%c105
  7
SEISA
 11
0.0000000000000001
 21
1.0
 31
0.0
 73
     1
 44
1.0
  0
POINT
  5
90BD
330
57DD
100
AcDbEntity
  8
Defpoints
 62
     0
100
AcDbPoint
 10
363.1698498825126
 20
600.574497522196
 30
0.0
  0
POINT
  5
90BE
330
57DD
100
AcDbEntity
  8
Defpoints
 62
     0
100
AcDbPoint
 10
363.1698498825126
 20
495.5744975221959
 30
0.0
  0
POINT
  5
90BF
330
57DD
100
AcDbEntity
  8
Defpoints
 62
     0
100
AcDbPoint
 10
283.1698498825126
 20
495.5744975221959
 30
0.0
  0
ENDBLK
  5
57DF
330
57DD
100
AcDbEntity
  8
0
100
AcDbBlockEnd
  0
BLOCK
  5
5838
330
5837
100
AcDbEntity
  8
0
100
AcDbBlockBegin
  2
*D16
 70
     1
 10
0.0
 20
0.0
 30
0.0
  3
*D16
  1

  0
LINE
  5
90C0
330
5837
100
AcDbEntity
  8
AM_5 寸法線
 62
     3
100
AcDbLine
 10
423.1698498825124
 20
549.6369975221958
 30
0.0
 11
423.1698498825124
 21
559.2157085221961
 31
0.0
  0
LINE
  5
90C1
330
5837
100
AcDbEntity
  8
AM_5 寸法線
 62
     3
100
AcDbLine
 10
333.1698498825126
 20
549.6369975221958
 30
0.0
 11
333.1698498825126
 21
559.2157085221961
 31
0.0
  0
LINE
  5
90C2
330
5837
100
AcDbEntity
  8
AM_5 寸法線
 62
     3
100
AcDbLine
 10
416.9198498825124
 20
557.6532085221961
 30
0.0
 11
339.4198498825126
 21
557.6532085221961
 31
0.0
  0
INSERT
  5
90C3
330
5837
100
AcDbEntity
  8
AM_5 寸法線
 62
     3
100
AcDbBlockReference
  2
_Open30
 10
423.1698498825124
 20
557.6532085221961
 30
0.0
 41
6.25
 42
6.25
 43
6.25
  0
INSERT
  5
90C4
330
5837
100
AcDbEntity
  8
AM_5 寸法線
 62
     3
100
AcDbBlockReference
  2
_Open30
 10
333.1698498825126
 20
557.6532085221961
 30
0.0
 41
6.25
 42
6.25
 43
6.25
 50
180.0
  0
MTEXT
  5
90C5
330
5837
100
AcDbEntity
  8
AM_5 寸法線
 62
     3
100
AcDbMText
 10
378.1698498825126
 20
565.7782085221961
 30
0.0
 40
8.75
 41
0.0
 46
0.0
 71
     5
 72
     1
  1
90
  7
SEISA
 73
     1
 44
1.0
  0
POINT
  5
90C6
330
5837
100
AcDbEntity
  8
Defpoints
 62
     0
100
AcDbPoint
 10
423.1698498825124
 20
548.0744975221958
 30
0.0
  0
POINT
  5
90C7
330
5837
100
AcDbEntity
  8
Defpoints
 62
     0
100
AcDbPoint
 10
333.1698498825126
 20
548.0744975221958
 30
0.0
  0
POINT
  5
90C8
330
5837
100
AcDbEntity
  8
Defpoints
 62
     0
100
AcDbPoint
 10
333.1698498825126
 20
557.6532085221961
 30
0.0
  0
ENDBLK
  5
5839
330
5837
100
AcDbEntity
  8
0
100
AcDbBlockEnd
  0
BLOCK
  5
5868
330
5867
100
AcDbEntity
  8
0
100
AcDbBlockBegin
  2
*D17
 70
     1
 10
0.0
 20
0.0
 30
0.0
  3
*D17
  1

  0
LINE
  5
90D1
330
5867
100
AcDbEntity
  8
AM_5 寸法線
 62
     3
100
AcDbLine
 10
623.1698498825124
 20
549.6369975221958
 30
0.0
 11
623.1698498825124
 21
559.2157085221961
 31
0.0
  0
LINE
  5
90D2
330
5867
100
AcDbEntity
  8
AM_5 寸法線
 62
     3
100
AcDbLine
 10
713.1698498825126
 20
549.6369975221958
 30
0.0
 11
713.1698498825126
 21
559.2157085221961
 31
0.0
  0
LINE
  5
90D3
330
5867
100
AcDbEntity
  8
AM_5 寸法線
 62
     3
100
AcDbLine
 10
629.4198498825124
 20
557.6532085221961
 30
0.0
 11
706.9198498825126
 21
557.6532085221961
 31
0.0
  0
INSERT
  5
90D4
330
5867
100
AcDbEntity
  8
AM_5 寸法線
 62
     3
100
AcDbBlockReference
  2
_Open30
 10
623.1698498825124
 20
557.6532085221961
 30
0.0
 41
6.25
 42
6.25
 43
6.25
 50
180.0
  0
INSERT
  5
90D5
330
5867
100
AcDbEntity
  8
AM_5 寸法線
 62
     3
100
AcDbBlockReference
  2
_Open30
 10
713.1698498825126
 20
557.6532085221961
 30
0.0
 41
6.25
 42
6.25
 43
6.25
  0
MTEXT
  5
90D6
330
5867
100
AcDbEntity
  8
AM_5 寸法線
 62
     3
100
AcDbMText
 10
668.1698498825126
 20
565.7782085221961
 30
0.0
 40
8.75
 41
0.0
 46
0.0
 71
     5
 72
     1
  1
90
  7
SEISA
 73
     1
 44
1.0
  0
POINT
  5
90D7
330
5867
100
AcDbEntity
  8
Defpoints
 62
     0
100
AcDbPoint
 10
623.1698498825124
 20
548.0744975221958
 30
0.0
  0
POINT
  5
90D8
330
5867
100
AcDbEntity
  8
Defpoints
 62
     0
100
AcDbPoint
 10
713.1698498825126
 20
548.0744975221958
 30
0.0
  0
POINT
  5
90D9
330
5867
100
AcDbEntity
  8
Defpoints
 62
     0
100
AcDbPoint
 10
713.1698498825126
 20
557.6532085221961
 30
0.0
  0
ENDBLK
  5
5869
330
5867
100
AcDbEntity
  8
0
100
AcDbBlockEnd
  0
BLOCK
  5
58A3
330
58A2
100
AcDbEntity
  8
0
100
AcDbBlockBegin
  2
*D18
 70
     1
 10
0.0
 20
0.0
 30
0.0
  3
*D18
  1

  0
LINE
  5
98D9
330
58A2
100
AcDbEntity
  8
AM_5 寸法線
 62
     3
100
AcDbLine
 10
388.1698498825126
 20
599.5119975221959
 30
0.0
 11
388.1698498825126
 21
585.4526598354196
 31
0.0
  0
LINE
  5
98DA
330
58A2
100
AcDbEntity
  8
AM_5 寸法線
 62
     3
100
AcDbLine
 10
385.1698498825126
 20
599.011997522196
 30
0.0
 11
385.1698498825126
 21
585.4526598354196
 31
0.0
  0
LINE
  5
98DB
330
58A2
100
AcDbEntity
  8
AM_5 寸法線
 62
     3
100
AcDbLine
 10
394.4198498825126
 20
587.0151598354196
 30
0.0
 11
400.6698498825126
 21
587.0151598354196
 31
0.0
  0
LINE
  5
98DC
330
58A2
100
AcDbEntity
  8
AM_5 寸法線
 62
     3
100
AcDbLine
 10
378.9198498825126
 20
587.0151598354196
 30
0.0
 11
372.6698498825126
 21
587.0151598354196
 31
0.0
  0
MTEXT
  5
98DD
330
58A2
100
AcDbEntity
  8
AM_5 寸法線
 62
     3
100
AcDbMText
 10
376.2130468303853
 20
593.3687064695105
 30
0.0
 40
8.75
 41
0.0
 46
0.0
 71
     5
 72
     1
  1
3
  7
SEISA
 73
     1
 44
1.0
  0
LINE
  5
98DE
330
58A2
100
AcDbEntity
  8
AM_5 寸法線
 62
     3
100
AcDbLine
 10
388.1698498825126
 20
587.0151598354196
 30
0.0
 11
385.1698498825126
 21
587.0151598354196
 31
0.0
  0
INSERT
  5
98DF
330
58A2
100
AcDbEntity
  8
AM_5 寸法線
 62
     3
100
AcDbBlockReference
  2
_Open30
 10
388.1698498825126
 20
587.0151598354196
 30
0.0
 41
6.25
 42
6.25
 43
6.25
 50
180.0
  0
INSERT
  5
98E0
330
58A2
100
AcDbEntity
  8
AM_5 寸法線
 62
     3
100
AcDbBlockReference
  2
_Open30
 10
385.1698498825126
 20
587.0151598354196
 30
0.0
 41
6.25
 42
6.25
 43
6.25
  0
POINT
  5
98E1
330
58A2
100
AcDbEntity
  8
Defpoints
 62
     0
100
AcDbPoint
 10
388.1698498825126
 20
601.0744975221959
 30
0.0
  0
POINT
  5
98E2
330
58A2
100
AcDbEntity
  8
Defpoints
 62
     0
100
AcDbPoint
 10
385.1698498825126
 20
600.574497522196
 30
0.0
  0
POINT
  5
98E3
330
58A2
100
AcDbEntity
  8
Defpoints
 62
     0
100
AcDbPoint
 10
385.1698498825126
 20
587.0151598354196
 30
0.0
  0
ENDBLK
  5
58A4
330
58A2
100
AcDbEntity
  8
0
100
AcDbBlockEnd
  0
BLOCK
  5
5A59
330
5A58
100
AcDbEntity
  8
0
100
AcDbBlockBegin
  2
*D19
 70
     1
 10
0.0
 20
0.0
 30
0.0
  3
*D19
  1

  0
LINE
  5
90F0
330
5A58
100
AcDbEntity
  8
AM_5 寸法線
 62
     3
100
AcDbLine
 10
684.7323498825126
 20
600.574497522196
 30
0.0
 11
764.7323498825126
 21
600.574497522196
 31
0.0
  0
LINE
  5
90F1
330
5A58
100
AcDbEntity
  8
AM_5 寸法線
 62
     3
100
AcDbLine
 10
684.7323498825126
 20
495.5744975221959
 30
0.0
 11
764.7323498825126
 21
495.5744975221959
 31
0.0
  0
LINE
  5
90F2
330
5A58
100
AcDbEntity
  8
AM_5 寸法線
 62
     3
100
AcDbLine
 10
763.1698498825126
 20
594.324497522196
 30
0.0
 11
763.1698498825126
 21
501.8244975221959
 31
0.0
  0
INSERT
  5
90F3
330
5A58
100
AcDbEntity
  8
AM_5 寸法線
 62
     3
100
AcDbBlockReference
  2
_Open30
 10
763.1698498825126
 20
600.574497522196
 30
0.0
 41
6.25
 42
6.25
 43
6.25
 50
90.0
  0
INSERT
  5
90F4
330
5A58
100
AcDbEntity
  8
AM_5 寸法線
 62
     3
100
AcDbBlockReference
  2
_Open30
 10
763.1698498825126
 20
495.5744975221959
 30
0.0
 41
6.25
 42
6.25
 43
6.25
 50
270.0
  0
MTEXT
  5
90F5
330
5A58
100
AcDbEntity
  8
AM_5 寸法線
 62
     3
100
AcDbMText
 10
755.0448498825125
 20
548.0744975221961
 30
0.0
 40
8.75
 41
0.0
 46
0.0
 71
     5
 72
     1
  1
%%c105
  7
SEISA
 11
0.0000000000000001
 21
1.0
 31
0.0
 73
     1
 44
1.0
  0
POINT
  5
90F6
330
5A58
100
AcDbEntity
  8
Defpoints
 62
     0
100
AcDbPoint
 10
683.1698498825126
 20
600.574497522196
 30
0.0
  0
POINT
  5
90F7
330
5A58
100
AcDbEntity
  8
Defpoints
 62
     0
100
AcDbPoint
 10
683.1698498825126
 20
495.5744975221959
 30
0.0
  0
POINT
  5
90F8
330
5A58
100
AcDbEntity
  8
Defpoints
 62
     0
100
AcDbPoint
 10
763.1698498825126
 20
495.5744975221959
 30
0.0
  0
ENDBLK
  5
5A5A
330
5A58
100
AcDbEntity
  8
0
100
AcDbBlockEnd
  0
BLOCK
  5
5A71
330
5A70
100
AcDbEntity
  8
0
100
AcDbBlockBegin
  2
*D20
 70
     1
 10
0.0
 20
0.0
 30
0.0
  3
*D20
  1

  0
LINE
  5
90F9
330
5A70
100
AcDbEntity
  8
AM_5 寸法線
 62
     3
100
AcDbLine
 10
672.7323498825126
 20
615.074497522196
 30
0.0
 11
789.7323498825126
 21
615.0744975221957
 31
0.0
  0
LINE
  5
90FA
330
5A70
100
AcDbEntity
  8
AM_5 寸法線
 62
     3
100
AcDbLine
 10
672.7323498825126
 20
481.0744975221958
 30
0.0
 11
789.7323498825126
 21
481.0744975221958
 31
0.0
  0
LINE
  5
90FB
330
5A70
100
AcDbEntity
  8
AM_5 寸法線
 62
     3
100
AcDbLine
 10
788.1698498825126
 20
608.8244975221957
 30
0.0
 11
788.1698498825126
 21
487.3244975221958
 31
0.0
  0
INSERT
  5
90FC
330
5A70
100
AcDbEntity
  8
AM_5 寸法線
 62
     3
100
AcDbBlockReference
  2
_Open30
 10
788.1698498825126
 20
615.0744975221957
 30
0.0
 41
6.25
 42
6.25
 43
6.25
 50
90.0
  0
INSERT
  5
90FD
330
5A70
100
AcDbEntity
  8
AM_5 寸法線
 62
     3
100
AcDbBlockReference
  2
_Open30
 10
788.1698498825126
 20
481.0744975221958
 30
0.0
 41
6.25
 42
6.25
 43
6.25
 50
270.0
  0
MTEXT
  5
90FE
330
5A70
100
AcDbEntity
  8
AM_5 寸法線
 62
     3
100
AcDbMText
 10
780.0448498825125
 20
548.0744975221961
 30
0.0
 40
8.75
 41
0.0
 46
0.0
 71
     5
 72
     1
  1
%%c134
  7
SEISA
 11
0.0000000000000001
 21
1.0
 31
0.0
 73
     1
 44
1.0
  0
POINT
  5
90FF
330
5A70
100
AcDbEntity
  8
Defpoints
 62
     0
100
AcDbPoint
 10
671.1698498825126
 20
615.074497522196
 30
0.0
  0
POINT
  5
9100
330
5A70
100
AcDbEntity
  8
Defpoints
 62
     0
100
AcDbPoint
 10
671.1698498825126
 20
481.0744975221958
 30
0.0
  0
POINT
  5
9101
330
5A70
100
AcDbEntity
  8
Defpoints
 62
     0
100
AcDbPoint
 10
788.1698498825126
 20
481.0744975221958
 30
0.0
  0
ENDBLK
  5
5A72
330
5A70
100
AcDbEntity
  8
0
100
AcDbBlockEnd
  0
BLOCK
  5
5A89
330
5A88
100
AcDbEntity
  8
0
100
AcDbBlockBegin
  2
*D21
 70
     1
 10
0.0
 20
0.0
 30
0.0
  3
*D21
  1

  0
LINE
  5
9102
330
5A88
100
AcDbEntity
  8
AM_5 寸法線
 62
     3
100
AcDbLine
 10
634.2323498825126
 20
638.074497522196
 30
0.0
 11
814.7323498825128
 21
638.0744975221959
 31
0.0
  0
LINE
  5
9103
330
5A88
100
AcDbEntity
  8
AM_5 寸法線
 62
     3
100
AcDbLine
 10
634.2323498825126
 20
458.0744975221959
 30
0.0
 11
814.7323498825128
 21
458.0744975221959
 31
0.0
  0
LINE
  5
9104
330
5A88
100
AcDbEntity
  8
AM_5 寸法線
 62
     3
100
AcDbLine
 10
813.1698498825128
 20
631.8244975221959
 30
0.0
 11
813.1698498825128
 21
464.3244975221959
 31
0.0
  0
INSERT
  5
9105
330
5A88
100
AcDbEntity
  8
AM_5 寸法線
 62
     3
100
AcDbBlockReference
  2
_Open30
 10
813.1698498825128
 20
638.0744975221959
 30
0.0
 41
6.25
 42
6.25
 43
6.25
 50
90.0
  0
INSERT
  5
9106
330
5A88
100
AcDbEntity
  8
AM_5 寸法線
 62
     3
100
AcDbBlockReference
  2
_Open30
 10
813.1698498825128
 20
458.0744975221959
 30
0.0
 41
6.25
 42
6.25
 43
6.25
 50
270.0
  0
MTEXT
  5
9107
330
5A88
100
AcDbEntity
  8
AM_5 寸法線
 62
     3
100
AcDbMText
 10
805.0448498825124
 20
548.0744975221961
 30
0.0
 40
8.75
 41
0.0
 46
0.0
 71
     5
 72
     1
  1
%%c180
  7
SEISA
 11
0.0000000000000001
 21
1.0
 31
0.0
 73
     1
 44
1.0
  0
POINT
  5
9108
330
5A88
100
AcDbEntity
  8
Defpoints
 62
     0
100
AcDbPoint
 10
632.6698498825126
 20
638.074497522196
 30
0.0
  0
POINT
  5
9109
330
5A88
100
AcDbEntity
  8
Defpoints
 62
     0
100
AcDbPoint
 10
632.6698498825126
 20
458.0744975221959
 30
0.0
  0
POINT
  5
910A
330
5A88
100
AcDbEntity
  8
Defpoints
 62
     0
100
AcDbPoint
 10
813.1698498825128
 20
458.0744975221959
 30
0.0
  0
ENDBLK
  5
5A8A
330
5A88
100
AcDbEntity
  8
0
100
AcDbBlockEnd
  0
BLOCK
  5
5B11
330
5B10
100
AcDbEntity
  8
0
100
AcDbBlockBegin
  2
*D22
 70
     1
 10
0.0
 20
0.0
 30
0.0
  3
*D22
  1

  0
LINE
  5
910B
330
5B10
100
AcDbEntity
  8
AM_5 寸法線
 62
     3
100
AcDbLine
 10
428.1698498825126
 20
457.0119975221959
 30
0.0
 11
428.1698498825126
 21
419.0119975221959
 31
0.0
  0
LINE
  5
910C
330
5B10
100
AcDbEntity
  8
AM_5 寸法線
 62
     3
100
AcDbLine
 10
413.1698498825126
 20
457.0119975221959
 30
0.0
 11
413.1698498825126
 21
419.0119975221959
 31
0.0
  0
LINE
  5
910D
330
5B10
100
AcDbEntity
  8
AM_5 寸法線
 62
     3
100
AcDbLine
 10
434.4198498825126
 20
420.5744975221959
 30
0.0
 11
440.6698498825126
 21
420.5744975221959
 31
0.0
  0
LINE
  5
910E
330
5B10
100
AcDbEntity
  8
AM_5 寸法線
 62
     3
100
AcDbLine
 10
406.9198498825126
 20
420.5744975221959
 30
0.0
 11
381.5448498825126
 21
420.5744975221959
 31
0.0
  0
LINE
  5
910F
330
5B10
100
AcDbEntity
  8
AM_5 寸法線
 62
     3
100
AcDbLine
 10
428.1698498825126
 20
420.5744975221959
 30
0.0
 11
413.1698498825126
 21
420.5744975221959
 31
0.0
  0
INSERT
  5
9110
330
5B10
100
AcDbEntity
  8
AM_5 寸法線
 62
     3
100
AcDbBlockReference
  2
GENDOT
 10
428.1698498825126
 20
420.5744975221959
 30
0.0
 41
6.25
 42
6.25
 43
6.25
 50
180.0
  0
INSERT
  5
9111
330
5B10
100
AcDbEntity
  8
AM_5 寸法線
 62
     3
100
AcDbBlockReference
  2
_Open30
 10
413.1698498825126
 20
420.5744975221959
 30
0.0
 41
6.25
 42
6.25
 43
6.25
  0
MTEXT
  5
9112
330
5B10
100
AcDbEntity
  8
AM_5 寸法線
 62
     3
100
AcDbMText
 10
391.1073498825126
 20
428.6994975221959
 30
0.0
 40
8.75
 41
0.0
 46
0.0
 71
     5
 72
     1
  1
15
  7
SEISA
 73
     1
 44
1.0
  0
POINT
  5
9113
330
5B10
100
AcDbEntity
  8
Defpoints
 62
     0
100
AcDbPoint
 10
428.1698498825126
 20
458.5744975221959
 30
0.0
  0
POINT
  5
9114
330
5B10
100
AcDbEntity
  8
Defpoints
 62
     0
100
AcDbPoint
 10
413.1698498825126
 20
458.5744975221959
 30
0.0
  0
POINT
  5
9115
330
5B10
100
AcDbEntity
  8
Defpoints
 62
     0
100
AcDbPoint
 10
413.1698498825126
 20
420.5744975221959
 30
0.0
  0
ENDBLK
  5
5B12
330
5B10
100
AcDbEntity
  8
0
100
AcDbBlockEnd
  0
BLOCK
  5
5B65
330
5B64
100
AcDbEntity
  8
0
100
AcDbBlockBegin
  2
*D23
 70
     1
 10
0.0
 20
0.0
 30
0.0
  3
*D23
  1

  0
LINE
  5
9116
330
5B64
100
AcDbEntity
  8
AM_5 寸法線
 62
     3
100
AcDbLine
 10
618.1698498825126
 20
457.0119975221959
 30
0.0
 11
618.1698498825126
 21
419.0119975221959
 31
0.0
  0
LINE
  5
9117
330
5B64
100
AcDbEntity
  8
AM_5 寸法線
 62
     3
100
AcDbLine
 10
633.1698498825126
 20
457.0119975221959
 30
0.0
 11
633.1698498825126
 21
419.0119975221959
 31
0.0
  0
LINE
  5
9118
330
5B64
100
AcDbEntity
  8
AM_5 寸法線
 62
     3
100
AcDbLine
 10
611.9198498825126
 20
420.5744975221959
 30
0.0
 11
605.6698498825126
 21
420.5744975221959
 31
0.0
  0
LINE
  5
9119
330
5B64
100
AcDbEntity
  8
AM_5 寸法線
 62
     3
100
AcDbLine
 10
639.4198498825126
 20
420.5744975221959
 30
0.0
 11
664.7948498825126
 21
420.5744975221959
 31
0.0
  0
LINE
  5
911A
330
5B64
100
AcDbEntity
  8
AM_5 寸法線
 62
     3
100
AcDbLine
 10
618.1698498825126
 20
420.5744975221959
 30
0.0
 11
633.1698498825126
 21
420.5744975221959
 31
0.0
  0
INSERT
  5
911B
330
5B64
100
AcDbEntity
  8
AM_5 寸法線
 62
     3
100
AcDbBlockReference
  2
GENDOT
 10
618.1698498825126
 20
420.5744975221959
 30
0.0
 41
6.25
 42
6.25
 43
6.25
  0
INSERT
  5
911C
330
5B64
100
AcDbEntity
  8
AM_5 寸法線
 62
     3
100
AcDbBlockReference
  2
_Open30
 10
633.1698498825126
 20
420.5744975221959
 30
0.0
 41
6.25
 42
6.25
 43
6.25
 50
180.0
  0
MTEXT
  5
911D
330
5B64
100
AcDbEntity
  8
AM_5 寸法線
 62
     3
100
AcDbMText
 10
655.2323498825126
 20
428.6994975221959
 30
0.0
 40
8.75
 41
0.0
 46
0.0
 71
     5
 72
     1
  1
15
  7
SEISA
 73
     1
 44
1.0
  0
POINT
  5
911E
330
5B64
100
AcDbEntity
  8
Defpoints
 62
     0
100
AcDbPoint
 10
618.1698498825126
 20
458.5744975221959
 30
0.0
  0
POINT
  5
911F
330
5B64
100
AcDbEntity
  8
Defpoints
 62
     0
100
AcDbPoint
 10
633.1698498825126
 20
458.5744975221959
 30
0.0
  0
POINT
  5
9120
330
5B64
100
AcDbEntity
  8
Defpoints
 62
     0
100
AcDbPoint
 10
633.1698498825126
 20
420.5744975221959
 30
0.0
  0
ENDBLK
  5
5B66
330
5B64
100
AcDbEntity
  8
0
100
AcDbBlockEnd
  0
BLOCK
  5
5B81
330
5B80
100
AcDbEntity
  8
0
100
AcDbBlockBegin
  2
*D24
 70
     1
 10
0.0
 20
0.0
 30
0.0
  3
*D24
  1

  0
LINE
  5
9121
330
5B80
100
AcDbEntity
  8
AM_5 寸法線
 62
     3
100
AcDbLine
 10
333.1698498825126
 20
497.6119975221958
 30
0.0
 11
333.1698498825126
 21
394.0119975221959
 31
0.0
  0
LINE
  5
9122
330
5B80
100
AcDbEntity
  8
AM_5 寸法線
 62
     3
100
AcDbLine
 10
372.1698498825126
 20
482.5119975221959
 30
0.0
 11
372.1698498825126
 21
394.0119975221959
 31
0.0
  0
LINE
  5
9123
330
5B80
100
AcDbEntity
  8
AM_5 寸法線
 62
     3
100
AcDbLine
 10
339.4198498825126
 20
395.5744975221959
 30
0.0
 11
365.9198498825126
 21
395.5744975221959
 31
0.0
  0
INSERT
  5
9124
330
5B80
100
AcDbEntity
  8
AM_5 寸法線
 62
     3
100
AcDbBlockReference
  2
_Open30
 10
333.1698498825126
 20
395.5744975221959
 30
0.0
 41
6.25
 42
6.25
 43
6.25
 50
180.0
  0
INSERT
  5
9125
330
5B80
100
AcDbEntity
  8
AM_5 寸法線
 62
     3
100
AcDbBlockReference
  2
_Open30
 10
372.1698498825126
 20
395.5744975221959
 30
0.0
 41
6.25
 42
6.25
 43
6.25
  0
MTEXT
  5
9126
330
5B80
100
AcDbEntity
  8
AM_5 寸法線
 62
     3
100
AcDbMText
 10
352.6698498825126
 20
403.6994975221959
 30
0.0
 40
8.75
 41
0.0
 46
0.0
 71
     5
 72
     1
  1
39
  7
SEISA
 73
     1
 44
1.0
  0
POINT
  5
9127
330
5B80
100
AcDbEntity
  8
Defpoints
 62
     0
100
AcDbPoint
 10
333.1698498825126
 20
499.1744975221958
 30
0.0
  0
POINT
  5
9128
330
5B80
100
AcDbEntity
  8
Defpoints
 62
     0
100
AcDbPoint
 10
372.1698498825126
 20
484.0744975221959
 30
0.0
  0
POINT
  5
9129
330
5B80
100
AcDbEntity
  8
Defpoints
 62
     0
100
AcDbPoint
 10
372.1698498825126
 20
395.5744975221959
 30
0.0
  0
ENDBLK
  5
5B82
330
5B80
100
AcDbEntity
  8
0
100
AcDbBlockEnd
  0
BLOCK
  5
5B99
330
5B98
100
AcDbEntity
  8
0
100
AcDbBlockBegin
  2
*D25
 70
     1
 10
0.0
 20
0.0
 30
0.0
  3
*D25
  1

  0
LINE
  5
912A
330
5B98
100
AcDbEntity
  8
AM_5 寸法線
 62
     3
100
AcDbLine
 10
372.1698498825126
 20
482.5119975221959
 30
0.0
 11
372.1698498825126
 21
394.0119975221959
 31
0.0
  0
LINE
  5
912B
330
5B98
100
AcDbEntity
  8
AM_5 寸法線
 62
     3
100
AcDbLine
 10
428.1698498825126
 20
457.0119975221959
 30
0.0
 11
428.1698498825126
 21
394.0119975221959
 31
0.0
  0
LINE
  5
912C
330
5B98
100
AcDbEntity
  8
AM_5 寸法線
 62
     3
100
AcDbLine
 10
378.4198498825126
 20
395.5744975221959
 30
0.0
 11
421.9198498825126
 21
395.5744975221959
 31
0.0
  0
INSERT
  5
912D
330
5B98
100
AcDbEntity
  8
AM_5 寸法線
 62
     3
100
AcDbBlockReference
  2
_Open30
 10
372.1698498825126
 20
395.5744975221959
 30
0.0
 41
6.25
 42
6.25
 43
6.25
 50
180.0
  0
INSERT
  5
912E
330
5B98
100
AcDbEntity
  8
AM_5 寸法線
 62
     3
100
AcDbBlockReference
  2
_Open30
 10
428.1698498825126
 20
395.5744975221959
 30
0.0
 41
6.25
 42
6.25
 43
6.25
  0
MTEXT
  5
912F
330
5B98
100
AcDbEntity
  8
AM_5 寸法線
 62
     3
100
AcDbMText
 10
400.1698498825126
 20
403.6994975221959
 30
0.0
 40
8.75
 41
0.0
 46
0.0
 71
     5
 72
     1
  1
56
  7
SEISA
 73
     1
 44
1.0
  0
POINT
  5
9130
330
5B98
100
AcDbEntity
  8
Defpoints
 62
     0
100
AcDbPoint
 10
372.1698498825126
 20
484.0744975221959
 30
0.0
  0
POINT
  5
9131
330
5B98
100
AcDbEntity
  8
Defpoints
 62
     0
100
AcDbPoint
 10
428.1698498825126
 20
458.5744975221959
 30
0.0
  0
POINT
  5
9132
330
5B98
100
AcDbEntity
  8
Defpoints
 62
     0
100
AcDbPoint
 10
428.1698498825126
 20
395.5744975221959
 30
0.0
  0
ENDBLK
  5
5B9A
330
5B98
100
AcDbEntity
  8
0
100
AcDbBlockEnd
  0
BLOCK
  5
5BB7
330
5BB6
100
AcDbEntity
  8
0
100
AcDbBlockBegin
  2
*D26
 70
     1
 10
0.0
 20
0.0
 30
0.0
  3
*D26
  1

  0
LINE
  5
9133
330
5BB6
100
AcDbEntity
  8
AM_5 寸法線
 62
     3
100
AcDbLine
 10
618.1698498825126
 20
457.0119975221959
 30
0.0
 11
618.1698498825126
 21
394.0119975221959
 31
0.0
  0
LINE
  5
9134
330
5BB6
100
AcDbEntity
  8
AM_5 寸法線
 62
     3
100
AcDbLine
 10
674.1698498825126
 20
482.5119975221959
 30
0.0
 11
674.1698498825126
 21
394.0119975221959
 31
0.0
  0
LINE
  5
9135
330
5BB6
100
AcDbEntity
  8
AM_5 寸法線
 62
     3
100
AcDbLine
 10
624.4198498825126
 20
395.5744975221959
 30
0.0
 11
667.9198498825126
 21
395.5744975221959
 31
0.0
  0
INSERT
  5
9136
330
5BB6
100
AcDbEntity
  8
AM_5 寸法線
 62
     3
100
AcDbBlockReference
  2
_Open30
 10
618.1698498825126
 20
395.5744975221959
 30
0.0
 41
6.25
 42
6.25
 43
6.25
 50
180.0
  0
INSERT
  5
9137
330
5BB6
100
AcDbEntity
  8
AM_5 寸法線
 62
     3
100
AcDbBlockReference
  2
_Open30
 10
674.1698498825126
 20
395.5744975221959
 30
0.0
 41
6.25
 42
6.25
 43
6.25
  0
MTEXT
  5
9138
330
5BB6
100
AcDbEntity
  8
AM_5 寸法線
 62
     3
100
AcDbMText
 10
646.1698498825126
 20
403.6994975221959
 30
0.0
 40
8.75
 41
0.0
 46
0.0
 71
     5
 72
     1
  1
56
  7
SEISA
 73
     1
 44
1.0
  0
POINT
  5
9139
330
5BB6
100
AcDbEntity
  8
Defpoints
 62
     0
100
AcDbPoint
 10
618.1698498825126
 20
458.5744975221959
 30
0.0
  0
POINT
  5
913A
330
5BB6
100
AcDbEntity
  8
Defpoints
 62
     0
100
AcDbPoint
 10
674.1698498825126
 20
484.0744975221959
 30
0.0
  0
POINT
  5
913B
330
5BB6
100
AcDbEntity
  8
Defpoints
 62
     0
100
AcDbPoint
 10
674.1698498825126
 20
395.5744975221959
 30
0.0
  0
ENDBLK
  5
5BB8
330
5BB6
100
AcDbEntity
  8
0
100
AcDbBlockEnd
  0
BLOCK
  5
5BCF
330
5BCE
100
AcDbEntity
  8
0
100
AcDbBlockBegin
  2
*D27
 70
     1
 10
0.0
 20
0.0
 30
0.0
  3
*D27
  1

  0
LINE
  5
913C
330
5BCE
100
AcDbEntity
  8
AM_5 寸法線
 62
     3
100
AcDbLine
 10
674.1698498825126
 20
482.5119975221959
 30
0.0
 11
674.1698498825126
 21
394.0119975221959
 31
0.0
  0
LINE
  5
913D
330
5BCE
100
AcDbEntity
  8
AM_5 寸法線
 62
     3
100
AcDbLine
 10
713.1698498825126
 20
497.6119975221958
 30
0.0
 11
713.1698498825126
 21
394.0119975221959
 31
0.0
  0
LINE
  5
913E
330
5BCE
100
AcDbEntity
  8
AM_5 寸法線
 62
     3
100
AcDbLine
 10
680.4198498825126
 20
395.5744975221959
 30
0.0
 11
706.9198498825126
 21
395.5744975221959
 31
0.0
  0
INSERT
  5
913F
330
5BCE
100
AcDbEntity
  8
AM_5 寸法線
 62
     3
100
AcDbBlockReference
  2
_Open30
 10
674.1698498825126
 20
395.5744975221959
 30
0.0
 41
6.25
 42
6.25
 43
6.25
 50
180.0
  0
INSERT
  5
9140
330
5BCE
100
AcDbEntity
  8
AM_5 寸法線
 62
     3
100
AcDbBlockReference
  2
_Open30
 10
713.1698498825126
 20
395.5744975221959
 30
0.0
 41
6.25
 42
6.25
 43
6.25
  0
MTEXT
  5
9141
330
5BCE
100
AcDbEntity
  8
AM_5 寸法線
 62
     3
100
AcDbMText
 10
693.6698498825125
 20
403.6994975221959
 30
0.0
 40
8.75
 41
0.0
 46
0.0
 71
     5
 72
     1
  1
39
  7
SEISA
 73
     1
 44
1.0
  0
POINT
  5
9142
330
5BCE
100
AcDbEntity
  8
Defpoints
 62
     0
100
AcDbPoint
 10
674.1698498825126
 20
484.0744975221959
 30
0.0
  0
POINT
  5
9143
330
5BCE
100
AcDbEntity
  8
Defpoints
 62
     0
100
AcDbPoint
 10
713.1698498825126
 20
499.1744975221958
 30
0.0
  0
POINT
  5
9144
330
5BCE
100
AcDbEntity
  8
Defpoints
 62
     0
100
AcDbPoint
 10
713.1698498825126
 20
395.5744975221959
 30
0.0
  0
ENDBLK
  5
5BD0
330
5BCE
100
AcDbEntity
  8
0
100
AcDbBlockEnd
  0
BLOCK
  5
78EB
330
78EA
100
AcDbEntity
  8
0
100
AcDbBlockBegin
  2
ＧＣスペーサ SAMY180
 70
     0
 10
0.0
 20
0.0
 30
0.0
  3
ＧＣスペーサ SAMY180
  1

  0
LINE
  5
78ED
330
78EA
100
AcDbEntity
  8
AM_0 外形線1
100
AcDbLine
 10
153.0
 20
-69.89999999999945
 30
0.0
 11
100.534495926326
 21
-69.89999999999962
 31
0.0
  0
LINE
  5
78EE
330
78EA
100
AcDbEntity
  8
AM_0 外形線1
100
AcDbLine
 10
170.9999999999998
 20
69.90000000000009
 30
0.0
 11
100.534495926326
 21
69.90000000000009
 31
0.0
  0
LINE
  5
78EF
330
78EA
100
AcDbEntity
  8
AM_0 外形線1
100
AcDbLine
 10
0.0
 20
0.0
 30
0.0
 11
0.0
 21
-89.50000000000001
 31
0.0
  0
LINE
  5
78F0
330
78EA
100
AcDbEntity
  8
AM_0 外形線1
100
AcDbLine
 10
37.00000000000148
 20
-69.89999999999958
 30
0.0
 11
95.53449592632615
 21
-69.89999999999986
 31
0.0
  0
ARC
  5
78F1
330
78EA
100
AcDbEntity
  8
AM_0 外形線1
100
AcDbCircle
 10
37.00000000000142
 20
-79.89999999999962
 30
0.0
 40
10.0
100
AcDbArc
 50
90.0
 51
105.4499493520376
1001
GENIUS_GENODEF_13
1002
{
1000
HIER
1070
     0
1002
}
1002
{
1000
MANEDIT
1070
     0
1002
}
1002
{
1000
NOSEL
1070
     0
1002
}
1002
{
1000
BEHIND
1070
     0
1002
}
1002
{
1000
OTHER
1070
     0
1002
}
1002
{
1000
REACTOR
1002
}
1001
GENIUS_GENOBJ-N-FIL_13
1002
{
1000
OWNER
1000
GEN
1002
}
  0
LINE
  5
78F3
330
78EA
100
AcDbEntity
  8
AM_0 外形線1
100
AcDbLine
 10
24.0
 20
57.20000000000028
 30
0.0
 11
91.49967545743548
 21
57.20000000000005
 31
0.0
  0
LINE
  5
78F4
330
78EA
100
AcDbEntity
  8
AM_0 外形線1
100
AcDbLine
 10
96.57984730875703
 20
57.20000000000028
 30
0.0
 11
166.0
 21
57.20000000000028
 31
0.0
  0
LINE
  5
78F5
330
78EA
100
AcDbEntity
  8
AM_0 外形線1
100
AcDbLine
 10
0.0
 20
65.49999999999977
 30
0.0
 11
-0.0000000000000568
 21
76.99999999999976
 31
0.0
  0
LINE
  5
78F6
330
78EA
100
AcDbEntity
  8
AM_0 外形線1
100
AcDbLine
 10
19.00000000000182
 20
69.90000000000055
 30
0.0
 11
95.53449592632615
 21
69.90000000000009
 31
0.0
  0
LINE
  5
78F7
330
78EA
100
AcDbEntity
  8
AM_7 中心線
100
AcDbLine
 10
172.7777769999998
 20
-81.5
 30
0.0
 11
207.0120781530318
 21
-81.5
 31
0.0
  0
LINE
  5
78F8
330
78EA
100
AcDbEntity
  8
AM_0 外形線1
100
AcDbLine
 10
186.0
 20
65.00000000000046
 30
0.0
 11
186.0
 21
0.0
 31
0.0
  0
LINE
  5
78F9
330
78EA
100
AcDbEntity
  8
AM_0 外形線1
100
AcDbLine
 10
189.9999999999998
 20
65.5
 30
0.0
 11
189.9999999999998
 21
77.0
 31
0.0
  0
LINE
  5
78FA
330
78EA
100
AcDbEntity
  8
AM_0 外形線1
100
AcDbLine
 10
189.4999999999999
 20
65.0
 30
0.0
 11
189.9999999999998
 21
65.5
 31
0.0
1001
GENIUS_GENFIL_13
1070
     0
1040
0.5
1040
0.5
1040
0.5000000000000285
1040
45.0000000000065
1000
~T
1001
GENIUS_GENOREF_13
1005
796B
  0
LINE
  5
78FB
330
78EA
100
AcDbEntity
  8
AM_0 外形線1
100
AcDbLine
 10
189.5
 20
65.00000000000046
 30
0.0
 11
186.0
 21
65.00000000000046
 31
0.0
  0
POLYLINE
  5
78FC
330
78EA
100
AcDbEntity
  8
AM_4 細線
100
AcDb2dPolyline
 66
     1
 10
0.0
 20
0.0
 30
0.0
 70
     2
  0
VERTEX
  5
9C7C
330
78FC
100
AcDbEntity
  8
AM_4 細線
100
AcDbVertex
100
AcDb2dVertex
 10
100.534495926326
 20
69.90000000000009
 30
0.0
 42
0.0563148958095442
  0
VERTEX
  5
9C7D
330
78FC
100
AcDbEntity
  8
AM_4 細線
100
AcDbVertex
100
AcDb2dVertex
 10
97.04406177375268
 20
59.95470734298919
 30
0.0
 42
0.078888482282239
 70
     1
  0
VERTEX
  5
9C7E
330
78FC
100
AcDbEntity
  8
AM_4 細線
100
AcDbVertex
100
AcDb2dVertex
 10
96.53449592632604
 20
52.42500000000018
 30
0.0
 42
0.0775512430551722
  0
VERTEX
  5
9C7F
330
78FC
100
AcDbEntity
  8
AM_4 細線
100
AcDbVertex
100
AcDb2dVertex
 10
98.97879603618887
 20
42.6350624919005
 30
0.0
 42
-0.100199622343608
 70
     1
  0
VERTEX
  5
9C80
330
78FC
100
AcDbEntity
  8
AM_4 細線
100
AcDbVertex
100
AcDb2dVertex
 10
100.534495926326
 20
34.95000000000028
 30
0.0
 42
-0.1129881184647546
  0
VERTEX
  5
9C81
330
78FC
100
AcDbEntity
  8
AM_4 細線
100
AcDbVertex
100
AcDb2dVertex
 10
98.53449592632605
 20
26.21250000000009
 30
0.0
 42
0.1129881184647543
 70
     1
  0
VERTEX
  5
9C82
330
78FC
100
AcDbEntity
  8
AM_4 細線
100
AcDbVertex
100
AcDb2dVertex
 10
96.53449592632604
 20
17.47500000000013
 30
0.0
 42
0.112988118464755
  0
VERTEX
  5
9C83
330
78FC
100
AcDbEntity
  8
AM_4 細線
100
AcDbVertex
100
AcDb2dVertex
 10
98.53449592632605
 20
8.737500000000181
 30
0.0
 42
-0.1129881184647557
 70
     1
  0
VERTEX
  5
9C84
330
78FC
100
AcDbEntity
  8
AM_4 細線
100
AcDbVertex
100
AcDb2dVertex
 10
100.534495926326
 20
0.0
 30
0.0
 42
-0.1129881184647549
  0
VERTEX
  5
9C85
330
78FC
100
AcDbEntity
  8
AM_4 細線
100
AcDbVertex
100
AcDb2dVertex
 10
98.53449592632605
 20
-8.737499999999727
 30
0.0
 42
0.1129881184647549
 70
     1
  0
VERTEX
  5
9C86
330
78FC
100
AcDbEntity
  8
AM_4 細線
100
AcDbVertex
100
AcDb2dVertex
 10
96.53449592632604
 20
-17.47499999999968
 30
0.0
 42
0.1129881184647557
  0
VERTEX
  5
9C87
330
78FC
100
AcDbEntity
  8
AM_4 細線
100
AcDbVertex
100
AcDb2dVertex
 10
98.53449592632605
 20
-26.21249999999964
 30
0.0
 42
-0.112988118464755
 70
     1
  0
VERTEX
  5
9C88
330
78FC
100
AcDbEntity
  8
AM_4 細線
100
AcDbVertex
100
AcDb2dVertex
 10
100.534495926326
 20
-34.94999999999982
 30
0.0
 42
-0.1001996223436105
  0
VERTEX
  5
9C89
330
78FC
100
AcDbEntity
  8
AM_4 細線
100
AcDbVertex
100
AcDb2dVertex
 10
98.97879603618887
 20
-42.63506249190004
 30
0.0
 42
0.0775512430551702
 70
     1
  0
VERTEX
  5
9C8A
330
78FC
100
AcDbEntity
  8
AM_4 細線
100
AcDbVertex
100
AcDb2dVertex
 10
96.53449592632604
 20
-52.42499999999972
 30
0.0
 42
0.0788884822822542
  0
VERTEX
  5
9C8B
330
78FC
100
AcDbEntity
  8
AM_4 細線
100
AcDbVertex
100
AcDb2dVertex
 10
97.0440617737529
 20
-59.95470734298874
 30
0.0
 42
0.0563148958095538
 70
     1
  0
VERTEX
  5
9C8C
330
78FC
100
AcDbEntity
  8
AM_4 細線
100
AcDbVertex
100
AcDb2dVertex
 10
100.534495926326
 20
-69.89999999999962
 30
0.0
  0
SEQEND
  5
9C8D
330
78FC
100
AcDbEntity
  8
AM_4 細線
  0
POLYLINE
  5
790F
330
78EA
100
AcDbEntity
  8
AM_4 細線
100
AcDb2dPolyline
 66
     1
 10
0.0
 20
0.0
 30
0.0
 70
     2
  0
VERTEX
  5
9C8F
330
790F
100
AcDbEntity
  8
AM_4 細線
100
AcDbVertex
100
AcDb2dVertex
 10
95.53449592632615
 20
69.90000000000009
 30
0.0
 42
0.0563148958095442
  0
VERTEX
  5
9C90
330
790F
100
AcDbEntity
  8
AM_4 細線
100
AcDbVertex
100
AcDb2dVertex
 10
92.04406177375281
 20
59.95470734298919
 30
0.0
 42
0.078888482282239
 70
     1
  0
VERTEX
  5
9C91
330
790F
100
AcDbEntity
  8
AM_4 細線
100
AcDbVertex
100
AcDb2dVertex
 10
91.53449592632616
 20
52.42500000000018
 30
0.0
 42
0.0775512430551722
  0
VERTEX
  5
9C92
330
790F
100
AcDbEntity
  8
AM_4 細線
100
AcDbVertex
100
AcDb2dVertex
 10
93.97879603618902
 20
42.6350624919005
 30
0.0
 42
-0.100199622343608
 70
     1
  0
VERTEX
  5
9C93
330
790F
100
AcDbEntity
  8
AM_4 細線
100
AcDbVertex
100
AcDb2dVertex
 10
95.53449592632615
 20
34.95000000000028
 30
0.0
 42
-0.1129881184647546
  0
VERTEX
  5
9C94
330
790F
100
AcDbEntity
  8
AM_4 細線
100
AcDbVertex
100
AcDb2dVertex
 10
93.53449592632614
 20
26.21250000000009
 30
0.0
 42
0.1129881184647543
 70
     1
  0
VERTEX
  5
9C95
330
790F
100
AcDbEntity
  8
AM_4 細線
100
AcDbVertex
100
AcDb2dVertex
 10
91.53449592632616
 20
17.47500000000013
 30
0.0
 42
0.112988118464755
  0
VERTEX
  5
9C96
330
790F
100
AcDbEntity
  8
AM_4 細線
100
AcDbVertex
100
AcDb2dVertex
 10
93.53449592632614
 20
8.737500000000181
 30
0.0
 42
-0.1129881184647557
 70
     1
  0
VERTEX
  5
9C97
330
790F
100
AcDbEntity
  8
AM_4 細線
100
AcDbVertex
100
AcDb2dVertex
 10
95.53449592632615
 20
0.0
 30
0.0
 42
-0.1129881184647549
  0
VERTEX
  5
9C98
330
790F
100
AcDbEntity
  8
AM_4 細線
100
AcDbVertex
100
AcDb2dVertex
 10
93.53449592632614
 20
-8.737499999999727
 30
0.0
 42
0.1129881184647549
 70
     1
  0
VERTEX
  5
9C99
330
790F
100
AcDbEntity
  8
AM_4 細線
100
AcDbVertex
100
AcDb2dVertex
 10
91.53449592632616
 20
-17.47499999999968
 30
0.0
 42
0.1129881184647557
  0
VERTEX
  5
9C9A
330
790F
100
AcDbEntity
  8
AM_4 細線
100
AcDbVertex
100
AcDb2dVertex
 10
93.53449592632614
 20
-26.21249999999964
 30
0.0
 42
-0.112988118464755
 70
     1
  0
VERTEX
  5
9C9B
330
790F
100
AcDbEntity
  8
AM_4 細線
100
AcDbVertex
100
AcDb2dVertex
 10
95.53449592632615
 20
-34.94999999999982
 30
0.0
 42
-0.1001996223436105
  0
VERTEX
  5
9C9C
330
790F
100
AcDbEntity
  8
AM_4 細線
100
AcDbVertex
100
AcDb2dVertex
 10
93.97879603618887
 20
-42.63506249190004
 30
0.0
 42
0.0775512430551702
 70
     1
  0
VERTEX
  5
9C9D
330
790F
100
AcDbEntity
  8
AM_4 細線
100
AcDbVertex
100
AcDb2dVertex
 10
91.53449592632616
 20
-52.42499999999972
 30
0.0
 42
0.0788884822822542
  0
VERTEX
  5
9C9E
330
790F
100
AcDbEntity
  8
AM_4 細線
100
AcDbVertex
100
AcDb2dVertex
 10
92.04406177375302
 20
-59.95470734298874
 30
0.0
 42
0.0563148958095538
 70
     1
  0
VERTEX
  5
9C9F
330
790F
100
AcDbEntity
  8
AM_4 細線
100
AcDbVertex
100
AcDb2dVertex
 10
95.53449592632615
 20
-69.89999999999962
 30
0.0
  0
SEQEND
  5
9CA0
330
790F
100
AcDbEntity
  8
AM_4 細線
  0
LINE
  5
7923
330
78EA
100
AcDbEntity
  8
AM_0 外形線1
100
AcDbLine
 10
190.0
 20
0.0
 30
0.0
 11
190.0
 21
-89.50000000000001
 31
0.0
  0
LINE
  5
7925
330
78EA
100
AcDbEntity
  8
AM_0 外形線1
100
AcDbLine
 10
189.5
 20
-90.0
 30
0.0
 11
190.0
 21
-89.50000000000001
 31
0.0
1001
GENIUS_GENFIL_13
1070
     0
1040
0.5
1040
0.5
1040
0.5
1040
45.0000000000065
1000
~T
1001
GENIUS_GENOREF_13
1005
7969
  0
LINE
  5
7926
330
78EA
100
AcDbEntity
  8
AM_0 外形線1
100
AcDbLine
 10
175.0
 20
-89.0
 30
0.0
 11
175.0
 21
0.0
 31
0.0
  0
LINE
  5
7927
330
78EA
100
AcDbEntity
  8
AM_0 外形線1
100
AcDbLine
 10
189.5
 20
-90.0
 30
0.0
 11
176.0
 21
-90.0
 31
0.0
  0
LINE
  5
7928
330
78EA
100
AcDbEntity
  8
AM_0 外形線1
100
AcDbLine
 10
175.0
 20
-89.0
 30
0.0
 11
176.0
 21
-90.0
 31
0.0
1001
GENIUS_GENFIL_13
1070
     0
1040
1.0
1040
1.0
1040
1.0
1040
45.0
1002
{
1002
}
1001
GENIUS_GENOBJ-N-CHA_13
1002
{
1000
OWNER
1000
GEN
1002
}
1001
GENIUS_GENODEF_13
1002
{
1000
HIER
1070
     0
1002
}
1002
{
1000
MANEDIT
1070
     0
1002
}
1002
{
1000
NOSEL
1070
     0
1002
}
1002
{
1000
BEHIND
1070
     0
1002
}
1002
{
1000
OTHER
1070
     0
1002
}
1002
{
1000
REACTOR
1002
}
  0
LINE
  5
7929
330
78EA
100
AcDbEntity
  8
AM_7 中心線
100
AcDbLine
 10
172.7777769999998
 20
-81.5
 30
0.0
 11
207.0120781530318
 21
-81.5
 31
0.0
  0
LINE
  5
792A
330
78EA
100
AcDbEntity
  8
AM_0 外形線1
100
AcDbLine
 10
175.0
 20
-74.5
 30
0.0
 11
171.0
 21
-74.5
 31
0.0
  0
LINE
  5
792C
330
78EA
100
AcDbEntity
  8
AM_0 外形線1
100
AcDbLine
 10
160.9999999999999
 20
0.0
 30
0.0
 11
160.9999999999999
 21
57.20000000000028
 31
0.0
  0
ARC
  5
792D
330
78EA
100
AcDbEntity
  8
AM_0 外形線1
100
AcDbCircle
 10
153.0
 20
-79.89999999999986
 30
0.0
 40
10.0
100
AcDbArc
 50
74.55005064795921
 51
90.0
  0
LINE
  5
792E
330
78EA
100
AcDbEntity
  8
AM_0 外形線1
100
AcDbLine
 10
171.0
 20
-74.5
 30
0.0
 11
155.663964961892
 21
-70.2613646877885
 31
0.0
  0
HATCH
  5
7930
330
78EA
100
AcDbEntity
  8
AM_8 ハッチング
100
AcDbHatch
 10
0.0
 20
0.0
 30
0.0
210
0.0
220
0.0
230
1.0
  2
_U
 70
     0
 71
     0
 91
        1
 92
        7
 72
     1
 73
     1
 93
        6
 10
155.6676515812916
 20
69.89999999999986
 42
0.0
 10
170.9504660099261
 20
69.89999999999986
 42
0.0
 10
171.0
 20
69.85046600992586
 42
0.0
 10
171.0
 20
62.19999999999981
 42
-0.4142135623730951
 10
166.0
 20
57.19999999999981
 42
0.0
 10
163.0
 20
57.19999999999981
 42
0.0
 97
        0
 75
     0
 76
     0
 52
45.0
 41
0.5
 77
     0
 78
     1
 53
315.0
 43
442.0133072820921
 44
689.5882519004465
 45
-0.3535533905932737
 46
-0.3535533905932738
 79
     0
 47
0.1994767217810716
 98
        1
 10
163.3090631232966
 20
64.50177429676114
1001
ACAD
1010
0.0
1020
0.0
1030
0.0
  0
LINE
  5
7931
330
78EA
100
AcDbEntity
  8
AM_0 外形線1
100
AcDbLine
 10
189.5
 20
90.0
 30
0.0
 11
190.0
 21
89.50000000000001
 31
0.0
1001
GENIUS_GENFIL_13
1070
     0
1040
0.5
1040
0.5
1040
0.5
1040
44.99999999998697
1000
~T
1001
GENIUS_GENOREF_13
1005
7968
  0
LINE
  5
7932
330
78EA
100
AcDbEntity
  8
AM_0 外形線1
100
AcDbLine
 10
175.0
 20
89.0
 30
0.0
 11
175.0
 21
74.5
 31
0.0
  0
LINE
  5
7933
330
78EA
100
AcDbEntity
  8
AM_0 外形線1
100
AcDbLine
 10
189.5
 20
90.0
 30
0.0
 11
176.0
 21
90.0
 31
0.0
  0
LINE
  5
7934
330
78EA
100
AcDbEntity
  8
AM_0 外形線1
100
AcDbLine
 10
175.9999999999999
 20
90.0
 30
0.0
 11
174.9999999999999
 21
89.0
 31
0.0
1001
GENIUS_GENFIL_13
1070
     0
1040
1.0
1040
1.0
1040
1.0
1040
45.0
1000
~T
1001
GENIUS_GENOREF_13
1005
7967
  0
LINE
  5
7936
330
78EA
100
AcDbEntity
  8
AM_0 外形線1
100
AcDbLine
 10
175.0
 20
74.5
 30
0.0
 11
171.0
 21
74.5
 31
0.0
  0
LINE
  5
7937
330
78EA
100
AcDbEntity
  8
AM_0 外形線1
100
AcDbLine
 10
189.5
 20
65.0
 30
0.0
 11
186.0
 21
65.0
 31
0.0
  0
LINE
  5
7938
330
78EA
100
AcDbEntity
  8
AM_0 外形線1
100
AcDbLine
 10
171.0
 20
74.5
 30
0.0
 11
171.0
 21
62.19999999999981
 31
0.0
  0
ARC
  5
7939
330
78EA
100
AcDbEntity
  8
AM_0 外形線1
100
AcDbCircle
 10
166.0
 20
62.19999999999981
 30
0.0
 40
5.0
100
AcDbArc
 50
270.0
 51
0.0
1001
GENIUS_GENODEF_13
1002
{
1000
HIER
1070
     0
1002
}
1002
{
1000
MANEDIT
1070
     0
1002
}
1002
{
1000
NOSEL
1070
     0
1002
}
1002
{
1000
BEHIND
1070
     0
1002
}
1002
{
1000
OTHER
1070
     0
1002
}
1002
{
1000
REACTOR
1002
}
1001
GENIUS_GENOBJ-N-FIL_13
1002
{
1000
OWNER
1000
GEN
1002
}
  0
LINE
  5
793A
330
78EA
100
AcDbEntity
  8
AM_0 外形線1
100
AcDbLine
 10
163.0
 20
57.19999999999981
 30
0.0
 11
155.6676515812917
 21
69.89999999999986
 31
0.0
  0
HATCH
  5
793B
330
78EA
100
AcDbEntity
  8
AM_8 ハッチング
100
AcDbHatch
 10
0.0
 20
0.0
 30
0.0
210
0.0
220
0.0
230
1.0
  2
_U
 70
     0
 71
     0
 91
        1
 92
        1
 93
        4
 72
     1
 10
155.6639649618926
 20
70.2613646877885
 11
171.0
 21
74.5
 72
     1
 10
171.0
 20
74.5
 11
171.0
 21
69.89999999999986
 72
     1
 10
171.0
 20
69.89999999999986
 11
153.0
 21
69.89999999999986
 72
     2
 10
153.0
 20
79.89999999999986
 40
10.0
 50
270.0
 51
285.4499493520407
 73
     1
 97
        0
 75
     0
 76
     0
 52
45.0
 41
0.5
 77
     0
 78
     1
 53
315.0
 43
154.3063769976296
 44
89.37251613704232
 45
-0.3535533905932737
 46
-0.3535533905932738
 79
     0
 98
        1
 10
-692.6593030261848
 20
178.9727736901134
1001
GENIUS_GENODEF_13
1002
{
1000
HIER
1070
     0
1002
}
1002
{
1000
MANEDIT
1070
     0
1002
}
1002
{
1000
NOSEL
1070
     0
1002
}
1002
{
1000
BEHIND
1070
     0
1002
}
1002
{
1000
OTHER
1070
     0
1002
}
1002
{
1000
REACTOR
1002
}
1001
GENIUS_GENOBJ-N-HTC_13
1002
{
1000
OWNER
1000
GEN
1002
}
1001
GENIUS_GENHATCH_13
1002
{
1000
DATA
1040
45.0
1042
-0.5
1000
_U
1070
     0
1011
168.1846474738798
1021
71.50095544588906
1031
0.0
1002
}
1002
{
1000
UCS
1010
0.0
1020
0.0
1030
0.0
1010
1.0
1020
0.0
1030
0.0
1010
0.0
1020
1.0
1030
0.0
1002
}
  0
ARC
  5
793C
330
78EA
100
AcDbEntity
  8
AM_0 外形線1
100
AcDbCircle
 10
153.0
 20
79.89999999999986
 30
0.0
 40
10.0
100
AcDbArc
 50
270.0
 51
285.4499493520409
  0
LINE
  5
793D
330
78EA
100
AcDbEntity
  8
AM_0 外形線1
100
AcDbLine
 10
171.0
 20
74.5
 30
0.0
 11
155.663964961892
 21
70.26136468778827
 31
0.0
  0
LINE
  5
793E
330
78EA
100
AcDbEntity
  8
AM_0 外形線1
100
AcDbLine
 10
175.0
 20
77.0
 30
0.0
 11
190.0
 21
77.0
 31
0.0
  0
LINE
  5
793F
330
78EA
100
AcDbEntity
  8
AM_0 外形線1
100
AcDbLine
 10
175.0
 20
86.0
 30
0.0
 11
190.0
 21
86.0
 31
0.0
  0
LINE
  5
7942
330
78EA
100
AcDbEntity
  8
AM_7 中心線
100
AcDbLine
 10
17.22222300000021
 20
-81.5
 30
0.0
 11
-2.222221999999873
 21
-81.5
 31
0.0
  0
LINE
  5
7943
330
78EA
100
AcDbEntity
  8
AM_0 外形線1
100
AcDbLine
 10
4.0
 20
65.00000000000046
 30
0.0
 11
4.0
 21
0.0
 31
0.0
  0
LINE
  5
7944
330
78EA
100
AcDbEntity
  8
AM_0 外形線1
100
AcDbLine
 10
0.0
 20
65.5
 30
0.0
 11
0.0
 21
77.0
 31
0.0
  0
LINE
  5
7945
330
78EA
100
AcDbEntity
  8
AM_0 外形線1
100
AcDbLine
 10
0.4999999999999433
 20
65.0
 30
0.0
 11
-0.0000000000000568
 21
65.5
 31
0.0
1001
GENIUS_GENFIL_13
1070
     0
1040
0.5
1040
0.5
1040
0.4999999999999433
1040
45.0
1000
~T
1001
GENIUS_GENOREF_13
1005
7966
  0
LINE
  5
7946
330
78EA
100
AcDbEntity
  8
AM_0 外形線1
100
AcDbLine
 10
0.5
 20
65.00000000000046
 30
0.0
 11
4.0
 21
65.00000000000046
 31
0.0
  0
LINE
  5
7947
330
78EA
100
AcDbEntity
  8
AM_0 外形線1
100
AcDbLine
 10
0.0
 20
0.0
 30
0.0
 11
0.0
 21
-89.50000000000001
 31
0.0
  0
LINE
  5
7948
330
78EA
100
AcDbEntity
  8
AM_0 外形線1
100
AcDbLine
 10
0.5
 20
-90.0
 30
0.0
 11
0.0
 21
-89.50000000000001
 31
0.0
1001
GENIUS_GENFIL_13
1070
     0
1040
0.5
1040
0.5
1040
0.5
1040
45.0000000000065
1000
~T
1001
GENIUS_GENOREF_13
1005
7965
  0
LINE
  5
7949
330
78EA
100
AcDbEntity
  8
AM_0 外形線1
100
AcDbLine
 10
15.0
 20
-89.0
 30
0.0
 11
15.00000000000006
 21
0.0
 31
0.0
  0
LINE
  5
794A
330
78EA
100
AcDbEntity
  8
AM_0 外形線1
100
AcDbLine
 10
0.5
 20
-90.0
 30
0.0
 11
14.0
 21
-90.0
 31
0.0
  0
LINE
  5
794B
330
78EA
100
AcDbEntity
  8
AM_0 外形線1
100
AcDbLine
 10
15.0
 20
-89.0
 30
0.0
 11
14.0
 21
-90.0
 31
0.0
1001
GENIUS_GENFIL_13
1070
     0
1040
1.0
1040
1.0
1040
1.0
1040
45.0
1002
{
1002
}
1001
GENIUS_GENOBJ-N-CHA_13
1002
{
1000
OWNER
1000
GEN
1002
}
1001
GENIUS_GENODEF_13
1002
{
1000
HIER
1070
     0
1002
}
1002
{
1000
MANEDIT
1070
     0
1002
}
1002
{
1000
NOSEL
1070
     0
1002
}
1002
{
1000
BEHIND
1070
     0
1002
}
1002
{
1000
OTHER
1070
     0
1002
}
1002
{
1000
REACTOR
1002
}
  0
LINE
  5
794C
330
78EA
100
AcDbEntity
  8
AM_7 中心線
100
AcDbLine
 10
17.22222300000021
 20
-81.5
 30
0.0
 11
-17.81153475527071
 21
-81.5
 31
0.0
  0
LINE
  5
794D
330
78EA
100
AcDbEntity
  8
AM_0 外形線1
100
AcDbLine
 10
15.0
 20
-74.5
 30
0.0
 11
19.0
 21
-74.5
 31
0.0
  0
LINE
  5
794E
330
78EA
100
AcDbEntity
  8
AM_0 外形線1
100
AcDbLine
 10
19.0
 20
-74.5
 30
0.0
 11
19.0
 21
0.0
 31
0.0
  0
LINE
  5
794F
330
78EA
100
AcDbEntity
  8
AM_0 外形線1
100
AcDbLine
 10
29.00000000000006
 20
0.0
 30
0.0
 11
29.00000000000011
 21
57.20000000000028
 31
0.0
  0
LINE
  5
7950
330
78EA
100
AcDbEntity
  8
AM_0 外形線1
100
AcDbLine
 10
19.0
 20
-74.5
 30
0.0
 11
34.33603503810929
 21
-70.26136468778805
 31
0.0
  0
HATCH
  5
7952
330
78EA
100
AcDbEntity
  8
AM_8 ハッチング
100
AcDbHatch
 10
0.0
 20
0.0
 30
0.0
210
0.0
220
0.0
230
1.0
  2
_U
 70
     0
 71
     0
 91
        1
 92
        7
 72
     1
 73
     1
 93
        6
 10
34.33234841870842
 20
69.89999999999986
 42
0.0
 10
19.04953399007388
 20
69.89999999999986
 42
0.0
 10
19.0
 20
69.85046600992586
 42
0.0
 10
19.0
 20
62.19999999999981
 42
0.4142135623730951
 10
24.0
 20
57.19999999999981
 42
0.0
 10
27.0
 20
57.19999999999981
 42
0.0
 97
        0
 75
     0
 76
     0
 52
45.0
 41
0.5
 77
     0
 78
     1
 53
225.0
 43
-252.0133072820921
 44
689.5882519004465
 45
0.3535533905932737
 46
-0.3535533905932738
 79
     0
 47
0.1994767217810716
 98
        1
 10
26.6909368767034
 20
64.50177429676114
1001
ACAD
1010
0.0
1020
0.0
1030
0.0
  0
LINE
  5
7953
330
78EA
100
AcDbEntity
  8
AM_0 外形線1
100
AcDbLine
 10
0.5
 20
90.0
 30
0.0
 11
0.0
 21
89.50000000000001
 31
0.0
1001
GENIUS_GENFIL_13
1070
     0
1040
0.5
1040
0.5
1040
0.5
1040
45.00000000001302
1000
~T
1001
GENIUS_GENOREF_13
1005
7964
  0
LINE
  5
7954
330
78EA
100
AcDbEntity
  8
AM_0 外形線1
100
AcDbLine
 10
15.0
 20
89.0
 30
0.0
 11
15.0
 21
74.5
 31
0.0
  0
LINE
  5
7955
330
78EA
100
AcDbEntity
  8
AM_0 外形線1
100
AcDbLine
 10
0.5
 20
90.0
 30
0.0
 11
14.0
 21
90.0
 31
0.0
  0
LINE
  5
7956
330
78EA
100
AcDbEntity
  8
AM_0 外形線1
100
AcDbLine
 10
15.0
 20
89.0
 30
0.0
 11
14.0
 21
90.0
 31
0.0
1001
GENIUS_GENFIL_13
1070
     0
1040
1.0
1040
1.0
1040
1.0
1040
45.0
1000
~T
1001
GENIUS_GENOREF_13
1005
7963
  0
LINE
  5
7958
330
78EA
100
AcDbEntity
  8
AM_0 外形線1
100
AcDbLine
 10
15.0
 20
74.5
 30
0.0
 11
19.0
 21
74.5
 31
0.0
  0
LINE
  5
7959
330
78EA
100
AcDbEntity
  8
AM_0 外形線1
100
AcDbLine
 10
0.5
 20
65.0
 30
0.0
 11
4.0
 21
65.0
 31
0.0
  0
LINE
  5
795A
330
78EA
100
AcDbEntity
  8
AM_0 外形線1
100
AcDbLine
 10
19.0
 20
74.5
 30
0.0
 11
19.0
 21
62.19999999999981
 31
0.0
  0
ARC
  5
795B
330
78EA
100
AcDbEntity
  8
AM_0 外形線1
100
AcDbCircle
 10
24.0
 20
62.19999999999981
 30
0.0
 40
5.0
100
AcDbArc
 50
180.0
 51
270.0
1001
GENIUS_GENODEF_13
1002
{
1000
HIER
1070
     0
1002
}
1002
{
1000
MANEDIT
1070
     0
1002
}
1002
{
1000
NOSEL
1070
     0
1002
}
1002
{
1000
BEHIND
1070
     0
1002
}
1002
{
1000
OTHER
1070
     0
1002
}
1002
{
1000
REACTOR
1002
}
1001
GENIUS_GENOBJ-N-FIL_13
1002
{
1000
OWNER
1000
GEN
1002
}
  0
LINE
  5
795C
330
78EA
100
AcDbEntity
  8
AM_0 外形線1
100
AcDbLine
 10
27.0
 20
57.19999999999981
 30
0.0
 11
34.33234841870831
 21
69.89999999999986
 31
0.0
  0
HATCH
  5
795D
330
78EA
100
AcDbEntity
  8
AM_8 ハッチング
100
AcDbHatch
 10
0.0
 20
0.0
 30
0.0
210
0.0
220
0.0
230
1.0
  2
_U
 70
     0
 71
     0
 91
        1
 92
        1
 93
        4
 72
     1
 10
34.33603503810741
 20
70.2613646877885
 11
19.0
 21
74.5
 72
     1
 10
19.0
 20
74.5
 11
19.0
 21
69.89999999999986
 72
     1
 10
19.0
 20
69.89999999999986
 11
37.0
 21
69.89999999999986
 72
     2
 10
37.0
 20
79.89999999999986
 40
10.0
 50
90.0
 51
105.4499493520407
 73
     0
 97
        0
 75
     0
 76
     0
 52
45.0
 41
0.5
 77
     0
 78
     1
 53
225.0
 43
35.69362300237037
 44
89.37251613704232
 45
0.3535533905932737
 46
-0.3535533905932738
 79
     0
 98
        1
 10
882.6593030261847
 20
178.9727736901134
1001
GENIUS_GENODEF_13
1002
{
1000
HIER
1070
     0
1002
}
1002
{
1000
MANEDIT
1070
     0
1002
}
1002
{
1000
NOSEL
1070
     0
1002
}
1002
{
1000
BEHIND
1070
     0
1002
}
1002
{
1000
OTHER
1070
     0
1002
}
1002
{
1000
REACTOR
1002
}
1001
GENIUS_GENOBJ-N-HTC_13
1002
{
1000
OWNER
1000
GEN
1002
}
1001
GENIUS_GENHATCH_13
1002
{
1000
DATA
1040
45.0
1042
0.5
1000
_U
1070
     0
1011
21.81535252612015
1021
71.50095544588906
1031
0.0
1002
}
1002
{
1000
UCS
1010
0.0
1020
0.0
1030
0.0
1010
1.0
1020
0.0
1030
0.0
1010
0.0
1020
1.0
1030
0.0
1002
}
  0
ARC
  5
795E
330
78EA
100
AcDbEntity
  8
AM_0 外形線1
100
AcDbCircle
 10
37.0
 20
79.89999999999986
 30
0.0
 40
10.0
100
AcDbArc
 50
254.5500506479529
 51
270.0
  0
LINE
  5
795F
330
78EA
100
AcDbEntity
  8
AM_0 外形線1
100
AcDbLine
 10
15.0
 20
77.0
 30
0.0
 11
0.0
 21
77.0
 31
0.0
  0
LINE
  5
7960
330
78EA
100
AcDbEntity
  8
AM_0 外形線1
100
AcDbLine
 10
15.0
 20
86.0
 30
0.0
 11
0.0
 21
86.0
 31
0.0
  0
LINE
  5
7961
330
78EA
100
AcDbEntity
  8
AM_0 外形線1
100
AcDbLine
 10
19.0
 20
74.5
 30
0.0
 11
34.33603503810787
 21
70.26136468778827
 31
0.0
  0
LINE
  5
7962
330
78EA
100
AcDbEntity
  8
AM_0 外形線1
100
AcDbLine
 10
171.0
 20
-74.5
 30
0.0
 11
171.0
 21
0.0
 31
0.0
  0
POINT
  5
7963
330
78EA
100
AcDbEntity
  8
0
 60
     1
100
AcDbPoint
 10
1862.469589431803
 20
3800.657869950312
 30
0.0
1001
GENIUS_GENOBJ-N-CHA_13
1002
{
1000
OWNER
1000
GEN
1002
}
1001
GENIUS_GENOENT_13
1002
{
1000
MYREF
1005
7963
1002
}
1002
{
1000
GRP
1005
0
1002
}
1001
GENIUS_GENODEF_13
1002
{
1000
HIER
1070
     1
1002
}
1002
{
1000
MANEDIT
1070
     1
1002
}
1002
{
1000
NOSEL
1070
     0
1002
}
1002
{
1000
BEHIND
1070
     0
1002
}
1002
{
1000
OTHER
1070
     0
1002
}
1002
{
1000
REACTOR
1002
}
1001
GENIUS_GENOLIS_13
1002
{
1000
ENT
1005
7956
1002
}
  0
POINT
  5
7964
330
78EA
100
AcDbEntity
  8
0
 60
     1
100
AcDbPoint
 10
1862.469589431803
 20
3800.657869950312
 30
0.0
1001
GENIUS_GENOBJ-N-CHA_13
1002
{
1000
OWNER
1000
GEN
1002
}
1001
GENIUS_GENOENT_13
1002
{
1000
MYREF
1005
7964
1002
}
1002
{
1000
GRP
1005
0
1002
}
1001
GENIUS_GENODEF_13
1002
{
1000
HIER
1070
     1
1002
}
1002
{
1000
MANEDIT
1070
     1
1002
}
1002
{
1000
NOSEL
1070
     0
1002
}
1002
{
1000
BEHIND
1070
     0
1002
}
1002
{
1000
OTHER
1070
     0
1002
}
1002
{
1000
REACTOR
1002
}
1001
GENIUS_GENOLIS_13
1002
{
1000
ENT
1005
7953
1002
}
  0
POINT
  5
7965
330
78EA
100
AcDbEntity
  8
0
 60
     1
100
AcDbPoint
 10
1957.93717168607
 20
3578.149328051134
 30
0.0
 50
180.0
1001
GENIUS_GENODEF_13
1002
{
1000
HIER
1070
     1
1002
}
1002
{
1000
MANEDIT
1070
     0
1002
}
1002
{
1000
NOSEL
1070
     0
1002
}
1002
{
1000
BEHIND
1070
     0
1002
}
1002
{
1000
OTHER
1070
     0
1002
}
1002
{
1000
REACTOR
1002
}
1001
GENIUS_GENOLIS_13
1002
{
1000
ENT
1005
7948
1002
}
1001
GENIUS_GENOENT_13
1002
{
1000
MYREF
1005
7965
1002
}
1002
{
1000
GRP
1005
0
1002
}
1001
GENIUS_GENOBJ-N-CHA_13
1002
{
1000
OWNER
1000
GEN
1002
}
  0
POINT
  5
7966
330
78EA
100
AcDbEntity
  8
0
 60
     1
100
AcDbPoint
 10
1862.469589431803
 20
3800.657869950312
 30
0.0
1001
GENIUS_GENOBJ-N-CHA_13
1002
{
1000
OWNER
1000
GEN
1002
}
1001
GENIUS_GENOENT_13
1002
{
1000
MYREF
1005
7966
1002
}
1002
{
1000
GRP
1005
0
1002
}
1001
GENIUS_GENODEF_13
1002
{
1000
HIER
1070
     1
1002
}
1002
{
1000
MANEDIT
1070
     1
1002
}
1002
{
1000
NOSEL
1070
     0
1002
}
1002
{
1000
BEHIND
1070
     0
1002
}
1002
{
1000
OTHER
1070
     0
1002
}
1002
{
1000
REACTOR
1002
}
1001
GENIUS_GENOLIS_13
1002
{
1000
ENT
1005
7945
1002
}
  0
POINT
  5
7967
330
78EA
100
AcDbEntity
  8
0
 60
     1
100
AcDbPoint
 10
1862.469589431803
 20
3800.657869950312
 30
0.0
1001
GENIUS_GENOENT_13
1002
{
1000
MYREF
1005
7967
1002
}
1002
{
1000
GRP
1005
0
1002
}
1001
GENIUS_GENOBJ-N-CHA_13
1002
{
1000
OWNER
1000
GEN
1002
}
1001
GENIUS_GENODEF_13
1002
{
1000
HIER
1070
     1
1002
}
1002
{
1000
MANEDIT
1070
     1
1002
}
1002
{
1000
NOSEL
1070
     0
1002
}
1002
{
1000
BEHIND
1070
     0
1002
}
1002
{
1000
OTHER
1070
     0
1002
}
1002
{
1000
REACTOR
1002
}
1001
GENIUS_GENOLIS_13
1002
{
1000
ENT
1005
7934
1002
}
  0
POINT
  5
7968
330
78EA
100
AcDbEntity
  8
0
 60
     1
100
AcDbPoint
 10
1862.469589431803
 20
3800.657869950312
 30
0.0
1001
GENIUS_GENOENT_13
1002
{
1000
MYREF
1005
7968
1002
}
1002
{
1000
GRP
1005
0
1002
}
1001
GENIUS_GENOBJ-N-CHA_13
1002
{
1000
OWNER
1000
GEN
1002
}
1001
GENIUS_GENODEF_13
1002
{
1000
HIER
1070
     1
1002
}
1002
{
1000
MANEDIT
1070
     1
1002
}
1002
{
1000
NOSEL
1070
     0
1002
}
1002
{
1000
BEHIND
1070
     0
1002
}
1002
{
1000
OTHER
1070
     0
1002
}
1002
{
1000
REACTOR
1002
}
1001
GENIUS_GENOLIS_13
1002
{
1000
ENT
1005
7931
1002
}
  0
POINT
  5
7969
330
78EA
100
AcDbEntity
  8
0
 60
     1
100
AcDbPoint
 10
2805.963786250255
 20
3578.149328051134
 30
0.0
1001
GENIUS_GENODEF_13
1002
{
1000
HIER
1070
     1
1002
}
1002
{
1000
MANEDIT
1070
     0
1002
}
1002
{
1000
NOSEL
1070
     0
1002
}
1002
{
1000
BEHIND
1070
     0
1002
}
1002
{
1000
OTHER
1070
     0
1002
}
1002
{
1000
REACTOR
1002
}
1001
GENIUS_GENOLIS_13
1002
{
1000
ENT
1005
7925
1002
}
1001
GENIUS_GENOENT_13
1002
{
1000
MYREF
1005
7969
1002
}
1002
{
1000
GRP
1005
0
1002
}
1001
GENIUS_GENOBJ-N-CHA_13
1002
{
1000
OWNER
1000
GEN
1002
}
  0
POINT
  5
796B
330
78EA
100
AcDbEntity
  8
0
 60
     1
100
AcDbPoint
 10
1862.469589431803
 20
3800.657869950312
 30
0.0
1001
GENIUS_GENOENT_13
1002
{
1000
MYREF
1005
796B
1002
}
1002
{
1000
GRP
1005
0
1002
}
1001
GENIUS_GENOBJ-N-CHA_13
1002
{
1000
OWNER
1000
GEN
1002
}
1001
GENIUS_GENODEF_13
1002
{
1000
HIER
1070
     1
1002
}
1002
{
1000
MANEDIT
1070
     1
1002
}
1002
{
1000
NOSEL
1070
     0
1002
}
1002
{
1000
BEHIND
1070
     0
1002
}
1002
{
1000
OTHER
1070
     0
1002
}
1002
{
1000
REACTOR
1002
}
1001
GENIUS_GENOLIS_13
1002
{
1000
ENT
1005
78FA
1002
}
  0
LINE
  5
7CEA
330
78EA
100
AcDbEntity
  8
AM_0 外形線1
100
AcDbLine
 10
-0.0000000000000568
 20
86.0
 30
0.0
 11
0.0
 21
89.50000000000001
 31
0.0
  0
LINE
  5
7CEB
330
78EA
100
AcDbEntity
  8
AM_0 外形線1
100
AcDbLine
 10
0.0
 20
86.0
 30
0.0
 11
0.0
 21
89.50000000000045
 31
0.0
  0
LINE
  5
7CEC
330
78EA
100
AcDbEntity
  8
AM_0 外形線1
100
AcDbLine
 10
189.9999999999998
 20
86.0
 30
0.0
 11
190.0
 21
89.50000000000001
 31
0.0
  0
LINE
  5
9CE4
330
78EA
100
AcDbEntity
  8
AM_0 外形線1
100
AcDbLine
 10
154.3564918944404
 20
-69.89999999999952
 30
0.0
 11
154.3564918944404
 21
0.0
 31
0.0
  0
LINE
  5
9CE5
330
78EA
100
AcDbEntity
  8
AM_0 外形線1
100
AcDbLine
 10
35.64350810555879
 20
-69.8999999999997
 30
0.0
 11
35.64350810555885
 21
0.0
 31
0.0
  0
ENDBLK
  5
78EC
330
78EA
100
AcDbEntity
  8
0
100
AcDbBlockEnd
  0
BLOCK
  5
812D
330
812C
100
AcDbEntity
  8
0
100
AcDbBlockBegin
  2
*D29
 70
     1
 10
0.0
 20
0.0
 30
0.0
  3
*D29
  1

  0
LINE
  5
91A0
330
812C
100
AcDbEntity
  8
AM_5 寸法線
 62
     3
100
AcDbLine
 10
428.1698498825126
 20
457.0119975221959
 30
0.0
 11
428.1698498825126
 21
419.0119975221958
 31
0.0
  0
LINE
  5
91A1
330
812C
100
AcDbEntity
  8
AM_5 寸法線
 62
     3
100
AcDbLine
 10
443.1698498825126
 20
457.5119975221959
 30
0.0
 11
443.1698498825126
 21
419.0119975221958
 31
0.0
  0
LINE
  5
91A2
330
812C
100
AcDbEntity
  8
AM_5 寸法線
 62
     3
100
AcDbLine
 10
421.9198498825126
 20
420.5744975221958
 30
0.0
 11
415.6698498825126
 21
420.5744975221958
 31
0.0
  0
LINE
  5
91A3
330
812C
100
AcDbEntity
  8
AM_5 寸法線
 62
     3
100
AcDbLine
 10
449.4198498825126
 20
420.5744975221958
 30
0.0
 11
474.7948498825126
 21
420.5744975221958
 31
0.0
  0
LINE
  5
91A4
330
812C
100
AcDbEntity
  8
AM_5 寸法線
 62
     3
100
AcDbLine
 10
428.1698498825126
 20
420.5744975221958
 30
0.0
 11
443.1698498825126
 21
420.5744975221958
 31
0.0
  0
INSERT
  5
91A5
330
812C
100
AcDbEntity
  8
AM_5 寸法線
 62
     3
100
AcDbBlockReference
  2
GENDOT
 10
428.1698498825126
 20
420.5744975221958
 30
0.0
 41
6.25
 42
6.25
 43
6.25
  0
INSERT
  5
91A6
330
812C
100
AcDbEntity
  8
AM_5 寸法線
 62
     3
100
AcDbBlockReference
  2
_Open30
 10
443.1698498825126
 20
420.5744975221958
 30
0.0
 41
6.25
 42
6.25
 43
6.25
 50
180.0
  0
MTEXT
  5
91A7
330
812C
100
AcDbEntity
  8
AM_5 寸法線
 62
     3
100
AcDbMText
 10
465.2323498825126
 20
428.6994975221958
 30
0.0
 40
8.75
 41
0.0
 46
0.0
 71
     5
 72
     1
  1
15
  7
SEISA
 73
     1
 44
1.0
  0
POINT
  5
91A8
330
812C
100
AcDbEntity
  8
Defpoints
 62
     0
100
AcDbPoint
 10
428.1698498825126
 20
458.5744975221959
 30
0.0
  0
POINT
  5
91A9
330
812C
100
AcDbEntity
  8
Defpoints
 62
     0
100
AcDbPoint
 10
443.1698498825126
 20
459.0744975221959
 30
0.0
  0
POINT
  5
91AA
330
812C
100
AcDbEntity
  8
Defpoints
 62
     0
100
AcDbPoint
 10
443.1698498825126
 20
420.5744975221958
 30
0.0
  0
ENDBLK
  5
812E
330
812C
100
AcDbEntity
  8
0
100
AcDbBlockEnd
  0
BLOCK
  5
815F
330
815E
100
AcDbEntity
  8
0
100
AcDbBlockBegin
  2
*D30
 70
     1
 10
0.0
 20
0.0
 30
0.0
  3
*D30
  1

  0
LINE
  5
91AB
330
815E
100
AcDbEntity
  8
AM_5 寸法線
 62
     3
100
AcDbLine
 10
618.1698498825126
 20
457.0119975221959
 30
0.0
 11
618.1698498825126
 21
419.0119975221956
 31
0.0
  0
LINE
  5
91AC
330
815E
100
AcDbEntity
  8
AM_5 寸法線
 62
     3
100
AcDbLine
 10
603.1698498825126
 20
457.5119975221959
 30
0.0
 11
603.1698498825126
 21
419.0119975221956
 31
0.0
  0
LINE
  5
91AD
330
815E
100
AcDbEntity
  8
AM_5 寸法線
 62
     3
100
AcDbLine
 10
624.4198498825126
 20
420.5744975221956
 30
0.0
 11
630.6698498825126
 21
420.5744975221956
 31
0.0
  0
LINE
  5
91AE
330
815E
100
AcDbEntity
  8
AM_5 寸法線
 62
     3
100
AcDbLine
 10
596.9198498825126
 20
420.5744975221956
 30
0.0
 11
571.5448498825126
 21
420.5744975221956
 31
0.0
  0
LINE
  5
91AF
330
815E
100
AcDbEntity
  8
AM_5 寸法線
 62
     3
100
AcDbLine
 10
618.1698498825126
 20
420.5744975221956
 30
0.0
 11
603.1698498825126
 21
420.5744975221956
 31
0.0
  0
INSERT
  5
91B0
330
815E
100
AcDbEntity
  8
AM_5 寸法線
 62
     3
100
AcDbBlockReference
  2
GENDOT
 10
618.1698498825126
 20
420.5744975221956
 30
0.0
 41
6.25
 42
6.25
 43
6.25
 50
180.0
  0
INSERT
  5
91B1
330
815E
100
AcDbEntity
  8
AM_5 寸法線
 62
     3
100
AcDbBlockReference
  2
_Open30
 10
603.1698498825126
 20
420.5744975221956
 30
0.0
 41
6.25
 42
6.25
 43
6.25
  0
MTEXT
  5
91B2
330
815E
100
AcDbEntity
  8
AM_5 寸法線
 62
     3
100
AcDbMText
 10
581.1073498825126
 20
428.6994975221956
 30
0.0
 40
8.75
 41
0.0
 46
0.0
 71
     5
 72
     1
  1
15
  7
SEISA
 73
     1
 44
1.0
  0
POINT
  5
91B3
330
815E
100
AcDbEntity
  8
Defpoints
 62
     0
100
AcDbPoint
 10
618.1698498825126
 20
458.5744975221959
 30
0.0
  0
POINT
  5
91B4
330
815E
100
AcDbEntity
  8
Defpoints
 62
     0
100
AcDbPoint
 10
603.1698498825126
 20
459.0744975221959
 30
0.0
  0
POINT
  5
91B5
330
815E
100
AcDbEntity
  8
Defpoints
 62
     0
100
AcDbPoint
 10
603.1698498825126
 20
420.5744975221956
 30
0.0
  0
ENDBLK
  5
8160
330
815E
100
AcDbEntity
  8
0
100
AcDbBlockEnd
  0
BLOCK
  5
9853
330
9852
100
AcDbEntity
  8
0
100
AcDbBlockBegin
  2
*D31
 70
     1
 10
0.0
 20
0.0
 30
0.0
  3
*D31
  1

  0
LINE
  5
9872
330
9852
100
AcDbEntity
  8
AM_5 寸法線
 62
     3
100
AcDbLine
 10
388.1698498825126
 20
599.5119975221959
 30
0.0
 11
388.1698498825126
 21
585.4526598354201
 31
0.0
  0
LINE
  5
9873
330
9852
100
AcDbEntity
  8
AM_5 寸法線
 62
     3
100
AcDbLine
 10
409.1698498825126
 20
599.5119975221959
 30
0.0
 11
409.1698498825126
 21
585.4526598354201
 31
0.0
  0
LINE
  5
9874
330
9852
100
AcDbEntity
  8
AM_5 寸法線
 62
     3
100
AcDbLine
 10
394.4198498825126
 20
587.0151598354201
 30
0.0
 11
402.9198498825126
 21
587.0151598354201
 31
0.0
  0
INSERT
  5
9875
330
9852
100
AcDbEntity
  8
AM_5 寸法線
 62
     3
100
AcDbBlockReference
  2
_Open30
 10
388.1698498825126
 20
587.0151598354201
 30
0.0
 41
6.25
 42
6.25
 43
6.25
 50
180.0
  0
INSERT
  5
9876
330
9852
100
AcDbEntity
  8
AM_5 寸法線
 62
     3
100
AcDbBlockReference
  2
_Open30
 10
409.1698498825126
 20
587.0151598354201
 30
0.0
 41
6.25
 42
6.25
 43
6.25
  0
MTEXT
  5
9877
330
9852
100
AcDbEntity
  8
AM_5 寸法線
 62
     3
100
AcDbMText
 10
398.6698498825126
 20
595.1401598354201
 30
0.0
 40
8.75
 41
0.0
 46
0.0
 71
     5
 72
     1
  1
21
  7
SEISA
 73
     1
 44
1.0
  0
POINT
  5
9878
330
9852
100
AcDbEntity
  8
Defpoints
 62
     0
100
AcDbPoint
 10
388.1698498825126
 20
601.0744975221959
 30
0.0
  0
POINT
  5
9879
330
9852
100
AcDbEntity
  8
Defpoints
 62
     0
100
AcDbPoint
 10
409.1698498825126
 20
601.0744975221959
 30
0.0
  0
POINT
  5
987A
330
9852
100
AcDbEntity
  8
Defpoints
 62
     0
100
AcDbPoint
 10
409.1698498825126
 20
587.0151598354201
 30
0.0
  0
ENDBLK
  5
9854
330
9852
100
AcDbEntity
  8
0
100
AcDbBlockEnd
  0
BLOCK
  5
987D
330
987C
100
AcDbEntity
  8
0
100
AcDbBlockBegin
  2
*D32
 70
     1
 10
0.0
 20
0.0
 30
0.0
  3
*D32
  1

  0
LINE
  5
98C3
330
987C
100
AcDbEntity
  8
AM_5 寸法線
 62
     3
100
AcDbLine
 10
409.1698498825126
 20
599.5119975221959
 30
0.0
 11
409.1698498825126
 21
585.4526598354201
 31
0.0
  0
LINE
  5
98C4
102
{ACAD_REACTORS
330
98F4
102
}
330
987C
100
AcDbEntity
  8
AM_5 寸法線
 62
     3
100
AcDbLine
 10
423.1698498825124
 20
598.511997522196
 30
0.0
 11
423.1698498825124
 21
585.4526598354201
 31
0.0
  0
LINE
  5
98C5
330
987C
100
AcDbEntity
  8
AM_5 寸法線
 62
     3
100
AcDbLine
 10
402.9198498825126
 20
587.0151598354201
 30
0.0
 11
396.6698498825126
 21
587.0151598354201
 31
0.0
  0
LINE
  5
98C6
330
987C
100
AcDbEntity
  8
AM_5 寸法線
 62
     3
100
AcDbLine
 10
429.4198498825124
 20
587.0151598354201
 30
0.0
 11
435.6698498825124
 21
587.0151598354201
 31
0.0
  0
MTEXT
  5
98C7
330
987C
100
AcDbEntity
  8
AM_5 寸法線
 62
     3
100
AcDbMText
 10
415.4981868265406
 20
593.8689335490844
 30
0.0
 40
8.75
 41
0.0
 46
0.0
 71
     5
 72
     1
  1
14
  7
SEISA
 73
     1
 44
1.0
  0
LINE
  5
98C8
330
987C
100
AcDbEntity
  8
AM_5 寸法線
 62
     3
100
AcDbLine
 10
409.1698498825126
 20
587.0151598354201
 30
0.0
 11
423.1698498825124
 21
587.0151598354201
 31
0.0
  0
INSERT
  5
98C9
330
987C
100
AcDbEntity
  8
AM_5 寸法線
 62
     3
100
AcDbBlockReference
  2
_Open30
 10
409.1698498825126
 20
587.0151598354201
 30
0.0
 41
6.25
 42
6.25
 43
6.25
  0
INSERT
  5
98CA
330
987C
100
AcDbEntity
  8
AM_5 寸法線
 62
     3
100
AcDbBlockReference
  2
_Open30
 10
423.1698498825124
 20
587.0151598354201
 30
0.0
 41
6.25
 42
6.25
 43
6.25
 50
180.0
  0
POINT
  5
98CB
330
987C
100
AcDbEntity
  8
Defpoints
 62
     0
100
AcDbPoint
 10
409.1698498825126
 20
601.0744975221959
 30
0.0
  0
POINT
  5
98CC
330
987C
100
AcDbEntity
  8
Defpoints
 62
     0
100
AcDbPoint
 10
423.1698498825124
 20
600.074497522196
 30
0.0
  0
POINT
  5
98CD
330
987C
100
AcDbEntity
  8
Defpoints
 62
     0
100
AcDbPoint
 10
423.1698498825124
 20
587.0151598354201
 30
0.0
  0
ENDBLK
  5
987E
330
987C
100
AcDbEntity
  8
0
100
AcDbBlockEnd
  0
BLOCK
  5
98E6
330
98E5
100
AcDbEntity
  8
0
100
AcDbBlockBegin
  2
*D33
 70
     1
 10
0.0
 20
0.0
 30
0.0
  3
*D33
  1

  0
LINE
  5
9937
330
98E5
100
AcDbEntity
  8
AM_5 寸法線
 62
     3
100
AcDbLine
 10
428.1698498825124
 20
612.0119975221959
 30
0.0
 11
428.1698498825124
 21
565.6203033665895
 31
0.0
  0
LINE
  5
9938
330
98E5
100
AcDbEntity
  8
AM_5 寸法線
 62
     3
100
AcDbLine
 10
423.1698498825124
 20
596.949497522196
 30
0.0
 11
423.1698498825124
 21
565.6203033665895
 31
0.0
  0
LINE
  5
9939
330
98E5
100
AcDbEntity
  8
AM_5 寸法線
 62
     3
100
AcDbLine
 10
434.4198498825124
 20
567.1828033665895
 30
0.0
 11
440.6698498825124
 21
567.1828033665895
 31
0.0
  0
LINE
  5
993A
330
98E5
100
AcDbEntity
  8
AM_5 寸法線
 62
     3
100
AcDbLine
 10
416.9198498825124
 20
567.1828033665895
 30
0.0
 11
410.6698498825124
 21
567.1828033665895
 31
0.0
  0
MTEXT
  5
993B
330
98E5
100
AcDbEntity
  8
AM_5 寸法線
 62
     3
100
AcDbMText
 10
439.1134636387341
 20
574.5963984474199
 30
0.0
 40
8.75
 41
0.0
 46
0.0
 71
     5
 72
     1
  1
5
  7
SEISA
 73
     1
 44
1.0
  0
LINE
  5
993C
330
98E5
100
AcDbEntity
  8
AM_5 寸法線
 62
     3
100
AcDbLine
 10
428.1698498825124
 20
567.1828033665895
 30
0.0
 11
423.1698498825124
 21
567.1828033665895
 31
0.0
  0
INSERT
  5
993D
330
98E5
100
AcDbEntity
  8
AM_5 寸法線
 62
     3
100
AcDbBlockReference
  2
_Open30
 10
428.1698498825124
 20
567.1828033665895
 30
0.0
 41
6.25
 42
6.25
 43
6.25
 50
180.0
  0
INSERT
  5
993E
330
98E5
100
AcDbEntity
  8
AM_5 寸法線
 62
     3
100
AcDbBlockReference
  2
_Open30
 10
423.1698498825124
 20
567.1828033665895
 30
0.0
 41
6.25
 42
6.25
 43
6.25
  0
POINT
  5
993F
330
98E5
100
AcDbEntity
  8
Defpoints
 62
     0
100
AcDbPoint
 10
428.1698498825124
 20
613.5744975221959
 30
0.0
  0
POINT
  5
9940
330
98E5
100
AcDbEntity
  8
Defpoints
 62
     0
100
AcDbPoint
 10
423.1698498825124
 20
598.511997522196
 30
0.0
  0
POINT
  5
9941
330
98E5
100
AcDbEntity
  8
Defpoints
 62
     0
100
AcDbPoint
 10
423.1698498825124
 20
567.1828033665895
 30
0.0
  0
ENDBLK
  5
98E7
330
98E5
100
AcDbEntity
  8
0
100
AcDbBlockEnd
  0
BLOCK
  5
9945
330
9944
100
AcDbEntity
  8
0
100
AcDbBlockBegin
  2
*D34
 70
     1
 10
0.0
 20
0.0
 30
0.0
  3
*D34
  1

  0
LINE
  5
998B
330
9944
100
AcDbEntity
  8
AM_5 寸法線
 62
     3
100
AcDbLine
 10
618.1698498825125
 20
612.0119975221959
 30
0.0
 11
618.1698498825125
 21
565.6203033665895
 31
0.0
  0
LINE
  5
998C
330
9944
100
AcDbEntity
  8
AM_5 寸法線
 62
     3
100
AcDbLine
 10
623.1698498825124
 20
598.511997522196
 30
0.0
 11
623.1698498825124
 21
565.6203033665895
 31
0.0
  0
LINE
  5
998D
330
9944
100
AcDbEntity
  8
AM_5 寸法線
 62
     3
100
AcDbLine
 10
611.9198498825125
 20
567.1828033665895
 30
0.0
 11
605.6698498825125
 21
567.1828033665895
 31
0.0
  0
LINE
  5
998E
330
9944
100
AcDbEntity
  8
AM_5 寸法線
 62
     3
100
AcDbLine
 10
629.4198498825124
 20
567.1828033665895
 30
0.0
 11
635.6698498825124
 21
567.1828033665895
 31
0.0
  0
MTEXT
  5
998F
330
9944
100
AcDbEntity
  8
AM_5 寸法線
 62
     3
100
AcDbMText
 10
608.9930008781496
 20
573.2741748654103
 30
0.0
 40
8.75
 41
0.0
 46
0.0
 71
     5
 72
     1
  1
5
  7
SEISA
 73
     1
 44
1.0
  0
LINE
  5
9990
330
9944
100
AcDbEntity
  8
AM_5 寸法線
 62
     3
100
AcDbLine
 10
618.1698498825125
 20
567.1828033665895
 30
0.0
 11
623.1698498825124
 21
567.1828033665895
 31
0.0
  0
INSERT
  5
9991
330
9944
100
AcDbEntity
  8
AM_5 寸法線
 62
     3
100
AcDbBlockReference
  2
_Open30
 10
618.1698498825125
 20
567.1828033665895
 30
0.0
 41
6.25
 42
6.25
 43
6.25
  0
INSERT
  5
9992
330
9944
100
AcDbEntity
  8
AM_5 寸法線
 62
     3
100
AcDbBlockReference
  2
_Open30
 10
623.1698498825124
 20
567.1828033665895
 30
0.0
 41
6.25
 42
6.25
 43
6.25
 50
180.0
  0
POINT
  5
9993
330
9944
100
AcDbEntity
  8
Defpoints
 62
     0
100
AcDbPoint
 10
618.1698498825125
 20
613.5744975221959
 30
0.0
  0
POINT
  5
9994
330
9944
100
AcDbEntity
  8
Defpoints
 62
     0
100
AcDbPoint
 10
623.1698498825124
 20
600.074497522196
 30
0.0
  0
POINT
  5
9995
330
9944
100
AcDbEntity
  8
Defpoints
 62
     0
100
AcDbPoint
 10
623.1698498825124
 20
567.1828033665895
 30
0.0
  0
ENDBLK
  5
9946
330
9944
100
AcDbEntity
  8
0
100
AcDbBlockEnd
  0
BLOCK
  5
9998
330
9997
100
AcDbEntity
  8
0
100
AcDbBlockBegin
  2
*D35
 70
     1
 10
0.0
 20
0.0
 30
0.0
  3
*D35
  1

  0
LINE
  5
99BD
330
9997
100
AcDbEntity
  8
AM_5 寸法線
 62
     3
100
AcDbLine
 10
328.1698498825126
 20
613.636997522196
 30
0.0
 11
328.1698498825126
 21
625.378425831371
 31
0.0
  0
LINE
  5
99BE
330
9997
100
AcDbEntity
  8
AM_5 寸法線
 62
     3
100
AcDbLine
 10
333.1698498825126
 20
598.5369975221961
 30
0.0
 11
333.1698498825126
 21
625.378425831371
 31
0.0
  0
LINE
  5
99BF
330
9997
100
AcDbEntity
  8
AM_5 寸法線
 62
     3
100
AcDbLine
 10
321.9198498825126
 20
623.815925831371
 30
0.0
 11
315.6698498825126
 21
623.815925831371
 31
0.0
  0
LINE
  5
99C0
330
9997
100
AcDbEntity
  8
AM_5 寸法線
 62
     3
100
AcDbLine
 10
339.4198498825126
 20
623.815925831371
 30
0.0
 11
358.4198498825126
 21
623.815925831371
 31
0.0
  0
LINE
  5
99C1
330
9997
100
AcDbEntity
  8
AM_5 寸法線
 62
     3
100
AcDbLine
 10
328.1698498825126
 20
623.815925831371
 30
0.0
 11
333.1698498825126
 21
623.815925831371
 31
0.0
  0
INSERT
  5
99C2
330
9997
100
AcDbEntity
  8
AM_5 寸法線
 62
     3
100
AcDbBlockReference
  2
_Open30
 10
328.1698498825126
 20
623.815925831371
 30
0.0
 41
6.25
 42
6.25
 43
6.25
  0
INSERT
  5
99C3
330
9997
100
AcDbEntity
  8
AM_5 寸法線
 62
     3
100
AcDbBlockReference
  2
_Open30
 10
333.1698498825126
 20
623.815925831371
 30
0.0
 41
6.25
 42
6.25
 43
6.25
 50
180.0
  0
MTEXT
  5
99C4
330
9997
100
AcDbEntity
  8
AM_5 寸法線
 62
     3
100
AcDbMText
 10
352.0448498825126
 20
631.940925831371
 30
0.0
 40
8.75
 41
0.0
 46
0.0
 71
     5
 72
     1
  1
5
  7
SEISA
 73
     1
 44
1.0
  0
POINT
  5
99C5
330
9997
100
AcDbEntity
  8
Defpoints
 62
     0
100
AcDbPoint
 10
328.1698498825126
 20
612.074497522196
 30
0.0
  0
POINT
  5
99C6
330
9997
100
AcDbEntity
  8
Defpoints
 62
     0
100
AcDbPoint
 10
333.1698498825126
 20
596.9744975221961
 30
0.0
  0
POINT
  5
99C7
330
9997
100
AcDbEntity
  8
Defpoints
 62
     0
100
AcDbPoint
 10
333.1698498825126
 20
623.815925831371
 30
0.0
  0
ENDBLK
  5
9999
330
9997
100
AcDbEntity
  8
0
100
AcDbBlockEnd
  0
BLOCK
  5
9B96
330
9B95
100
AcDbEntity
  8
0
100
AcDbBlockBegin
  2
ケース
 70
     0
 10
0.0
 20
0.0
 30
0.0
  3
ケース
  1

  0
LINE
  5
9B98
330
9B95
100
AcDbEntity
  8
AM_11 想像線
 48
0.1
100
AcDbLine
 10
-24.00559790035845
 20
-9.799999999999952
 30
0.0
 11
-17.40559790035854
 21
-9.799999999999952
 31
0.0
  0
LINE
  5
9B99
330
9B95
100
AcDbEntity
  8
AM_11 想像線
 48
0.1
100
AcDbLine
 10
0.0
 20
0.0
 30
0.0
 11
-24.2055979003585
 21
0.0
 31
0.0
  0
LINE
  5
9B9A
330
9B95
100
AcDbEntity
  8
AM_11 想像線
 48
0.1
100
AcDbLine
 10
-27.2055979003585
 20
-3.0
 30
0.0
 11
-27.2055979003585
 21
-13.25
 31
0.0
  0
ARC
  5
9B9B
330
9B95
100
AcDbEntity
  8
AM_11 想像線
 48
0.1
100
AcDbCircle
 10
-24.00559790035845
 20
-10.29999999999995
 30
0.0
 40
0.5
100
AcDbArc
 50
90.0
 51
180.0
  0
LINE
  5
9B9C
330
9B95
100
AcDbEntity
  8
AM_11 想像線
 48
0.1
100
AcDbLine
 10
-24.50559790035845
 20
-13.25
 30
0.0
 11
-24.50559790035845
 21
-10.29999999999995
 31
0.0
  0
LINE
  5
9B9D
330
9B95
100
AcDbEntity
  8
AM_11 想像線
 48
0.1
100
AcDbLine
 10
-27.2055979003585
 20
-13.25
 30
0.0
 11
-24.50559790035845
 21
-13.25
 31
0.0
  0
LINE
  5
9B9E
330
9B95
100
AcDbEntity
  8
AM_11 想像線
 48
0.1
100
AcDbLine
 10
-24.50559790035845
 20
-13.25
 30
0.0
 11
-24.50559790035845
 21
-14.5
 31
0.0
  0
LINE
  5
9B9F
330
9B95
100
AcDbEntity
  8
AM_11 想像線
 48
0.1
100
AcDbLine
 10
-27.2055979003585
 20
-13.25
 30
0.0
 11
-27.2055979003585
 21
-14.5
 31
0.0
  0
ARC
  5
9BA0
102
{ACAD_REACTORS
330
99A6
102
}
330
9B95
100
AcDbEntity
  8
AM_11 想像線
 48
0.1
100
AcDbCircle
 10
-24.2055979003585
 20
-3.0
 30
0.0
 40
3.0
100
AcDbArc
 50
90.0
 51
180.0
  0
LINE
  5
9BA1
330
9B95
100
AcDbEntity
  8
AM_11 想像線
 48
0.1
100
AcDbLine
 10
-9.205597900358498
 20
-10.59999999999991
 30
0.0
 11
0.0
 21
-10.59999999999991
 31
0.0
  0
LINE
  5
9BA2
330
9B95
100
AcDbEntity
  8
AM_11 想像線
 48
0.1
100
AcDbLine
 10
0.0
 20
-9.0
 30
0.0
 11
-12.2055979003585
 21
-9.0
 31
0.0
  0
LINE
  5
9BA3
330
9B95
100
AcDbEntity
  8
AM_11 想像線
 48
0.1
100
AcDbLine
 10
0.0
 20
-7.0
 30
0.0
 11
-10.2055979003585
 21
-7.0
 31
0.0
  0
LINE
  5
9BA4
330
9B95
100
AcDbEntity
  8
AM_11 想像線
 48
0.1
100
AcDbLine
 10
-10.2055979003585
 20
-8.118678999999929
 30
0.0
 11
-10.2055979003585
 21
-9.599999999999909
 31
0.0
  0
LINE
  5
9BA5
330
9B95
100
AcDbEntity
  8
AM_11 想像線
 48
0.1
100
AcDbLine
 10
-14.2055979003585
 20
-13.25
 30
0.0
 11
-14.2055979003585
 21
-7.5
 31
0.0
  0
LINE
  5
9BA6
330
9B95
100
AcDbEntity
  8
AM_11 想像線
 48
0.1
100
AcDbLine
 10
-10.2055979003585
 20
-9.599999999999909
 30
0.0
 11
-9.205597900358498
 21
-10.59999999999991
 31
0.0
  0
LINE
  5
9BA7
330
9B95
100
AcDbEntity
  8
AM_11 想像線
 48
0.1
100
AcDbLine
 10
-16.90559790035854
 20
-13.25
 30
0.0
 11
-14.2055979003585
 21
-13.25
 31
0.0
  0
LINE
  5
9BA8
330
9B95
100
AcDbEntity
  8
AM_11 想像線
 48
0.1
100
AcDbLine
 10
-16.90559790035854
 20
-10.29999999999995
 30
0.0
 11
-16.90559790035854
 21
-13.25
 31
0.0
  0
ARC
  5
9BA9
330
9B95
100
AcDbEntity
  8
AM_11 想像線
 48
0.1
100
AcDbCircle
 10
-17.40559790035854
 20
-10.29999999999995
 30
0.0
 40
0.5
100
AcDbArc
 50
0.0
 51
90.0
  0
LINE
  5
9BAA
330
9B95
100
AcDbEntity
  8
AM_11 想像線
 48
0.1
100
AcDbLine
 10
-14.2055979003585
 20
-13.25
 30
0.0
 11
-14.2055979003585
 21
-14.5
 31
0.0
  0
LINE
  5
9BAB
330
9B95
100
AcDbEntity
  8
AM_11 想像線
 48
0.1
100
AcDbLine
 10
-16.90559790035854
 20
-13.25
 30
0.0
 11
-16.90559790035854
 21
-14.5
 31
0.0
  0
LINE
  5
9BAC
330
9B95
100
AcDbEntity
  8
AM_11 想像線
 48
0.1
100
AcDbLine
 10
-10.2055979003585
 20
-8.118678999999929
 30
0.0
 11
-10.2055979003585
 21
-7.5
 31
0.0
  0
ARC
  5
9BAD
330
9B95
100
AcDbEntity
  8
AM_11 想像線
 48
0.1
100
AcDbCircle
 10
-11.2055979003585
 20
-7.5
 30
0.0
 40
1.0
100
AcDbArc
 50
0.0
 51
90.0
  0
LINE
  5
9BAE
330
9B95
100
AcDbEntity
  8
AM_11 想像線
 48
0.1
100
AcDbLine
 10
-13.2055979003585
 20
-6.5
 30
0.0
 11
-11.2055979003585
 21
-6.5
 31
0.0
  0
ARC
  5
9BAF
330
9B95
100
AcDbEntity
  8
AM_11 想像線
 48
0.1
100
AcDbCircle
 10
-13.2055979003585
 20
-7.5
 30
0.0
 40
1.0
100
AcDbArc
 50
90.0
 51
180.0
  0
ENDBLK
  5
9B97
330
9B95
100
AcDbEntity
  8
0
100
AcDbBlockEnd
  0
ENDSEC
  0
SECTION
  2
ENTITIES
  0
LINE
  5
38B2
330
1F
100
AcDbEntity
  8
AM_7 中心線
100
AcDbLine
 10
328.1698498825126
 20
548.0744975221958
 30
0.0
 11
718.1698498825126
 21
548.0744975221958
 31
0.0
  0
LINE
  5
3A73
330
1F
100
AcDbEntity
  8
AM_0 外形線1
100
AcDbLine
 10
443.1698498825126
 20
634.5744975221959
 30
0.0
 11
443.1698498825126
 21
624.574497522196
 31
0.0
  0
INSERT
  5
4CCB
102
{ACAD_REACTORS
330
5A86
330
5A9E
330
5B7E
330
5BCC
330
5BE4
102
}
330
1F
100
AcDbEntity
  8
AM_0 外形線1
100
AcDbBlockReference
  2
ケースＡ-1 SAM180
 10
618.1698498825126
 20
548.0744975221958
 30
0.0
  0
LINE
  5
4D05
330
1F
100
AcDbEntity
  8
AM_0 外形線1
100
AcDbLine
 10
604.6698498825126
 20
625.074497522196
 30
0.0
 11
618.1698498825126
 21
625.074497522196
 31
0.0
  0
LINE
  5
4D06
330
1F
100
AcDbEntity
  8
AM_0 外形線1
100
AcDbLine
 10
604.6698498825126
 20
634.074497522196
 30
0.0
 11
618.1698498825126
 21
634.074497522196
 31
0.0
  0
INSERT
  5
4DB8
102
{ACAD_REACTORS
330
58BC
330
5B2A
330
5B96
330
5BAE
102
}
330
1F
100
AcDbEntity
  8
AM_0 外形線1
100
AcDbBlockReference
  2
ケースＡ-2 SAM180
 10
428.1698498825126
 20
548.0744975221958
 30
0.0
  0
INSERT
  5
4ECA
102
{ACAD_REACTORS
330
587D
330
5A6E
330
5BE4
330
9953
102
}
330
1F
100
AcDbEntity
  8
AM_0 外形線1
100
AcDbBlockReference
  2
センタ-1 SAM180
 10
623.1698498825124
 20
548.0744975221958
 30
0.0
  0
INSERT
  5
4F1B
102
{ACAD_REACTORS
330
57F3
330
584D
330
58BC
330
5B96
330
985F
330
988B
330
99A6
102
}
330
1F
100
AcDbEntity
  8
AM_0 外形線1
100
AcDbBlockReference
  2
センタ-2 SAM180
 10
423.1698498825124
 20
548.0744975221958
 30
0.0
  0
INSERT
  5
5374
330
1F
100
AcDbEntity
  8
AM_0 外形線1
100
AcDbBlockReference
  2
リーマボルト-1 SAM180 M8
 10
603.1698498825126
 20
629.574497522196
 30
0.0
  0
INSERT
  5
5409
330
1F
100
AcDbEntity
  8
AM_0 外形線1
100
AcDbBlockReference
  2
リーマボルト-2 SAM180 M8
 10
443.1698498825126
 20
629.574497522196
 30
0.0
  0
DIMENSION
  5
57DC
102
{ACAD_XDICTIONARY
360
57E9
102
}
102
{ACAD_REACTORS
330
57F3
102
}
330
1F
100
AcDbEntity
  8
AM_5 寸法線
100
AcDbDimension
  2
*D15
 10
283.1698498825126
 20
495.5744975221959
 30
0.0
 11
275.0448498825126
 21
548.0744975221961
 31
0.0
 70
    32
  1
%%c<>
 71
     5
 42
105.0
 73
     0
 74
     0
 75
     0
  3
SEISA$0
100
AcDbAlignedDimension
 13
363.1698498825126
 23
600.574497522196
 33
0.0
 14
363.1698498825126
 24
495.5744975221959
 34
0.0
 50
90.0
100
AcDbRotatedDimension
1001
ACAD_DSTYLE_DIMINSPECT
1070
   396
1000
100%
1070
   395
1000

1070
   394
1070
    33
1070
   393
1070
     0
  0
DIMENSION
  5
5836
102
{ACAD_XDICTIONARY
360
5843
102
}
102
{ACAD_REACTORS
330
584D
102
}
330
1F
100
AcDbEntity
  8
AM_5 寸法線
100
AcDbDimension
  2
*D16
 10
333.1698498825126
 20
557.6532085221961
 30
0.0
 11
378.1698498825126
 21
565.7782085221961
 31
0.0
 70
    32
 71
     5
 42
90.0
 73
     0
 74
     0
 75
     0
  3
SEISA$0
100
AcDbAlignedDimension
 13
423.1698498825124
 23
548.0744975221958
 33
0.0
 14
333.1698498825126
 24
548.0744975221958
 34
0.0
100
AcDbRotatedDimension
  0
DIMENSION
  5
5866
102
{ACAD_XDICTIONARY
360
5873
102
}
102
{ACAD_REACTORS
330
587D
102
}
330
1F
100
AcDbEntity
  8
AM_5 寸法線
100
AcDbDimension
  2
*D17
 10
713.1698498825126
 20
557.6532085221961
 30
0.0
 11
668.1698498825126
 21
565.7782085221961
 31
0.0
 70
    32
 71
     5
 42
90.0
 73
     0
 74
     0
 75
     0
  3
SEISA$0
100
AcDbAlignedDimension
 13
623.1698498825124
 23
548.0744975221958
 33
0.0
 14
713.1698498825126
 24
548.0744975221958
 34
0.0
100
AcDbRotatedDimension
  0
DIMENSION
  5
58A1
102
{ACAD_XDICTIONARY
360
58B0
102
}
102
{ACAD_REACTORS
330
58BC
330
985F
102
}
330
1F
100
AcDbEntity
  8
AM_5 寸法線
100
AcDbDimension
  2
*D18
 10
385.1698498825126
 20
587.0151598354196
 30
0.0
 11
376.2130468303853
 21
593.3687064695105
 31
0.0
 70
   160
 71
     5
 42
3.0
 73
     0
 74
     0
 75
     0
  3
SEISA$0
100
AcDbAlignedDimension
 13
388.1698498825126
 23
601.0744975221959
 33
0.0
 14
385.1698498825126
 24
600.574497522196
 34
0.0
100
AcDbRotatedDimension
1001
ACAD
1000
DSTYLE
1002
{
1070
   279
1070
     2
1002
}
  0
DIMENSION
  5
5A57
102
{ACAD_XDICTIONARY
360
5A64
102
}
102
{ACAD_REACTORS
330
5A6E
102
}
330
1F
100
AcDbEntity
  8
AM_5 寸法線
100
AcDbDimension
  2
*D19
 10
763.1698498825126
 20
495.5744975221959
 30
0.0
 11
755.0448498825125
 21
548.0744975221961
 31
0.0
 70
    32
  1
%%c<>
 71
     5
 42
104.9999999999999
 73
     0
 74
     0
 75
     0
  3
SEISA$0
100
AcDbAlignedDimension
 13
683.1698498825126
 23
600.574497522196
 33
0.0
 14
683.1698498825126
 24
495.5744975221959
 34
0.0
 50
90.0
100
AcDbRotatedDimension
1001
ACAD_DSTYLE_DIMINSPECT
1070
   396
1000
100%
1070
   395
1000

1070
   394
1070
    33
1070
   393
1070
     0
  0
DIMENSION
  5
5A6F
102
{ACAD_XDICTIONARY
360
5A7C
102
}
102
{ACAD_REACTORS
330
5A86
102
}
330
1F
100
AcDbEntity
  8
AM_5 寸法線
100
AcDbDimension
  2
*D20
 10
788.1698498825126
 20
481.0744975221958
 30
0.0
 11
780.0448498825125
 21
548.0744975221961
 31
0.0
 70
    32
  1
%%c<>
 71
     5
 42
133.9999999999999
 73
     0
 74
     0
 75
     0
  3
SEISA$0
100
AcDbAlignedDimension
 13
671.1698498825126
 23
615.074497522196
 33
0.0
 14
671.1698498825126
 24
481.0744975221958
 34
0.0
 50
90.0
100
AcDbRotatedDimension
1001
ACAD_DSTYLE_DIMINSPECT
1070
   396
1000
100%
1070
   395
1000

1070
   394
1070
    33
1070
   393
1070
     0
  0
DIMENSION
  5
5A87
102
{ACAD_XDICTIONARY
360
5A94
102
}
102
{ACAD_REACTORS
330
5A9E
102
}
330
1F
100
AcDbEntity
  8
AM_5 寸法線
100
AcDbDimension
  2
*D21
 10
813.1698498825128
 20
458.0744975221959
 30
0.0
 11
805.0448498825124
 21
548.0744975221961
 31
0.0
 70
    32
  1
%%c<>
 71
     5
 42
180.0
 73
     0
 74
     0
 75
     0
  3
SEISA$0
100
AcDbAlignedDimension
 13
632.6698498825126
 23
638.074497522196
 33
0.0
 14
632.6698498825126
 24
458.0744975221959
 34
0.0
 50
90.0
100
AcDbRotatedDimension
1001
ACAD_DSTYLE_DIMINSPECT
1070
   396
1000
100%
1070
   395
1000

1070
   394
1070
    33
1070
   393
1070
     0
  0
DIMENSION
  5
5B0F
102
{ACAD_XDICTIONARY
360
5B1E
102
}
102
{ACAD_REACTORS
330
5B2A
102
}
330
1F
100
AcDbEntity
  8
AM_5 寸法線
100
AcDbDimension
  2
*D22
 10
413.1698498825126
 20
420.5744975221959
 30
0.0
 11
391.1073498825126
 21
428.6994975221959
 31
0.0
 70
    32
 71
     5
 42
15.0
 73
     0
 74
     0
 75
     0
  3
SEISA$0
100
AcDbAlignedDimension
 13
428.1698498825126
 23
458.5744975221959
 33
0.0
 14
413.1698498825126
 24
458.5744975221959
 34
0.0
100
AcDbRotatedDimension
1001
ACAD_DSTYLE_DIMINSPECT
1070
   396
1000
100%
1070
   395
1000

1070
   394
1070
    33
1070
   393
1070
     0
1001
ACAD
1000
DSTYLE
1002
{
1070
   173
1070
     1
1070
   342
1005
0
1070
   343
1005
4019
1070
   344
1005
69
1002
}
  0
DIMENSION
  5
5B63
102
{ACAD_XDICTIONARY
360
5B72
102
}
102
{ACAD_REACTORS
330
5B7E
102
}
330
1F
100
AcDbEntity
  8
AM_5 寸法線
100
AcDbDimension
  2
*D23
 10
633.1698498825126
 20
420.5744975221959
 30
0.0
 11
655.2323498825126
 21
428.6994975221959
 31
0.0
 70
    32
 71
     5
 42
15.0
 73
     0
 74
     0
 75
     0
  3
SEISA$0
100
AcDbAlignedDimension
 13
618.1698498825126
 23
458.5744975221959
 33
0.0
 14
633.1698498825126
 24
458.5744975221959
 34
0.0
100
AcDbRotatedDimension
1001
ACAD_DSTYLE_DIMINSPECT
1070
   396
1000
100%
1070
   395
1000

1070
   394
1070
    33
1070
   393
1070
     0
1001
ACAD
1000
DSTYLE
1002
{
1070
   173
1070
     1
1070
   342
1005
0
1070
   343
1005
4019
1070
   344
1005
69
1002
}
  0
DIMENSION
  5
5B7F
102
{ACAD_XDICTIONARY
360
5B8C
102
}
102
{ACAD_REACTORS
330
5B96
102
}
330
1F
100
AcDbEntity
  8
AM_5 寸法線
100
AcDbDimension
  2
*D24
 10
372.1698498825126
 20
395.5744975221959
 30
0.0
 11
352.6698498825126
 21
403.6994975221959
 31
0.0
 70
    32
 71
     5
 42
39.0
 73
     0
 74
     0
 75
     0
  3
SEISA$0
100
AcDbAlignedDimension
 13
333.1698498825126
 23
499.1744975221958
 33
0.0
 14
372.1698498825126
 24
484.0744975221959
 34
0.0
100
AcDbRotatedDimension
  0
DIMENSION
  5
5B97
102
{ACAD_XDICTIONARY
360
5BA4
102
}
102
{ACAD_REACTORS
330
5BAE
102
}
330
1F
100
AcDbEntity
  8
AM_5 寸法線
100
AcDbDimension
  2
*D25
 10
428.1698498825126
 20
395.5744975221959
 30
0.0
 11
400.1698498825126
 21
403.6994975221959
 31
0.0
 70
    32
 71
     5
 42
56.0
 73
     0
 74
     0
 75
     0
  3
SEISA$0
100
AcDbAlignedDimension
 13
372.1698498825126
 23
484.0744975221959
 33
0.0
 14
428.1698498825126
 24
458.5744975221959
 34
0.0
100
AcDbRotatedDimension
  0
DIMENSION
  5
5BB5
102
{ACAD_XDICTIONARY
360
5BC2
102
}
102
{ACAD_REACTORS
330
5BCC
102
}
330
1F
100
AcDbEntity
  8
AM_5 寸法線
100
AcDbDimension
  2
*D26
 10
674.1698498825126
 20
395.5744975221959
 30
0.0
 11
646.1698498825126
 21
403.6994975221959
 31
0.0
 70
    32
 71
     5
 42
56.0
 73
     0
 74
     0
 75
     0
  3
SEISA$0
100
AcDbAlignedDimension
 13
618.1698498825126
 23
458.5744975221959
 33
0.0
 14
674.1698498825126
 24
484.0744975221959
 34
0.0
100
AcDbRotatedDimension
  0
DIMENSION
  5
5BCD
102
{ACAD_XDICTIONARY
360
5BDA
102
}
102
{ACAD_REACTORS
330
5BE4
102
}
330
1F
100
AcDbEntity
  8
AM_5 寸法線
100
AcDbDimension
  2
*D27
 10
713.1698498825126
 20
395.5744975221959
 30
0.0
 11
693.6698498825125
 21
403.6994975221959
 31
0.0
 70
    32
 71
     5
 42
39.0
 73
     0
 74
     0
 75
     0
  3
SEISA$0
100
AcDbAlignedDimension
 13
674.1698498825126
 23
484.0744975221959
 33
0.0
 14
713.1698498825126
 24
499.1744975221958
 34
0.0
100
AcDbRotatedDimension
  0
INSERT
  5
796C
102
{ACAD_REACTORS
330
813B
330
816D
330
98F4
330
9953
102
}
330
1F
100
AcDbEntity
  8
AM_0 外形線1
100
AcDbBlockReference
  2
ＧＣスペーサ SAMY180
 10
428.1698498825126
 20
548.0744975221958
 30
0.0
  0
DIMENSION
  5
812B
102
{ACAD_XDICTIONARY
360
813A
102
}
102
{ACAD_REACTORS
330
813B
102
}
330
1F
100
AcDbEntity
  8
AM_5 寸法線
100
AcDbDimension
  2
*D29
 10
443.1698498825126
 20
420.5744975221958
 30
0.0
 11
465.2323498825126
 21
428.6994975221958
 31
0.0
 70
    32
 71
     5
 42
15.0
 73
     0
 74
     0
 75
     0
  3
SEISA$0
100
AcDbAlignedDimension
 13
428.1698498825126
 23
458.5744975221959
 33
0.0
 14
443.1698498825126
 24
459.0744975221959
 34
0.0
 50
0.0000000000000114
100
AcDbRotatedDimension
1001
ACAD_DSTYLE_DIMINSPECT
1070
   396
1000
100%
1070
   395
1000

1070
   394
1070
    33
1070
   393
1070
     0
1001
ACAD
1000
DSTYLE
1002
{
1070
   173
1070
     1
1070
   342
1005
0
1070
   343
1005
4019
1070
   344
1005
69
1002
}
  0
DIMENSION
  5
815D
102
{ACAD_XDICTIONARY
360
816C
102
}
102
{ACAD_REACTORS
330
816D
102
}
330
1F
100
AcDbEntity
  8
AM_5 寸法線
100
AcDbDimension
  2
*D30
 10
603.1698498825126
 20
420.5744975221956
 30
0.0
 11
581.1073498825126
 21
428.6994975221956
 31
0.0
 70
    32
 71
     5
 42
15.0
 73
     0
 74
     0
 75
     0
  3
SEISA$0
100
AcDbAlignedDimension
 13
618.1698498825126
 23
458.5744975221959
 33
0.0
 14
603.1698498825126
 24
459.0744975221959
 34
0.0
 50
0.0000000000000114
100
AcDbRotatedDimension
1001
ACAD_DSTYLE_DIMINSPECT
1070
   396
1000
100%
1070
   395
1000

1070
   394
1070
    33
1070
   393
1070
     0
1001
ACAD
1000
DSTYLE
1002
{
1070
   173
1070
     1
1070
   342
1005
0
1070
   343
1005
4019
1070
   344
1005
69
1002
}
  0
MTEXT
  5
96F4
330
1F
100
AcDbEntity
  8
AM_6 文字
100
AcDbMText
 10
736.8803636354922
 20
442.3980969354476
 30
0.0
 40
8.75
 41
132.6495687691255
 46
27.66929097590912
 71
     1
 72
     5
  1
{\W0.6;TYPE:SAM180/SAMH180\PSHAFT DIA:MAX/MIN φ75/φ32}
  7
SEISA
 73
     1
 44
1.0
  0
DIMENSION
  5
9851
102
{ACAD_XDICTIONARY
360
985E
102
}
102
{ACAD_REACTORS
330
985F
102
}
330
1F
100
AcDbEntity
  8
AM_5 寸法線
100
AcDbDimension
  2
*D31
 10
409.1698498825126
 20
587.0151598354201
 30
0.0
 11
398.6698498825126
 21
595.1401598354201
 31
0.0
 70
    32
 71
     5
 42
21.0
 73
     0
 74
     0
 75
     0
  3
SEISA$0
100
AcDbAlignedDimension
 13
388.1698498825126
 23
601.0744975221959
 33
0.0
 14
409.1698498825126
 24
601.0744975221959
 34
0.0
 50
0.0000000000001132
100
AcDbRotatedDimension
1001
ACAD_DSTYLE_DIMINSPECT
1070
   396
1000
100%
1070
   395
1000

1070
   394
1070
    33
1070
   393
1070
     0
  0
DIMENSION
  5
987B
102
{ACAD_XDICTIONARY
360
988A
102
}
102
{ACAD_REACTORS
330
988B
330
98F4
102
}
330
1F
100
AcDbEntity
  8
AM_5 寸法線
100
AcDbDimension
  2
*D32
 10
423.1698498825124
 20
587.0151598354201
 30
0.0
 11
415.4981868265406
 21
593.8689335490844
 31
0.0
 70
   160
 71
     5
 42
14.0
 73
     0
 74
     0
 75
     0
  3
SEISA$0
100
AcDbAlignedDimension
 13
409.1698498825126
 23
601.0744975221959
 33
0.0
 14
423.1698498825124
 24
600.074497522196
 34
0.0
 50
0.0000000000001132
100
AcDbRotatedDimension
1001
ACAD_DSTYLE_DIMINSPECT
1070
   396
1000
100%
1070
   395
1000

1070
   394
1070
    33
1070
   393
1070
     0
1001
ACAD
1000
DSTYLE
1002
{
1070
   279
1070
     2
1002
}
  0
DIMENSION
  5
98E4
102
{ACAD_XDICTIONARY
360
98F3
102
}
102
{ACAD_REACTORS
330
98F4
102
}
330
1F
100
AcDbEntity
  8
AM_5 寸法線
100
AcDbDimension
  2
*D33
 10
423.1698498825124
 20
567.1828033665895
 30
0.0
 11
439.1134636387341
 21
566.4713984474197
 31
0.0
 70
   160
 71
     5
 42
4.999999999999943
 73
     0
 74
     0
 75
     0
  3
SEISA$0
100
AcDbAlignedDimension
 13
428.1698498825124
 23
613.5744975221959
 33
0.0
 14
423.1698498825124
 24
598.511997522196
 34
0.0
 50
0.0000000000001132
100
AcDbRotatedDimension
1001
ACAD_DSTYLE_DIMINSPECT
1070
   396
1000
100%
1070
   395
1000

1070
   394
1070
    33
1070
   393
1070
     0
1001
ACAD
1000
DSTYLE
1002
{
1070
   279
1070
     1
1002
}
  0
DIMENSION
  5
9943
102
{ACAD_XDICTIONARY
360
9952
102
}
102
{ACAD_REACTORS
330
9953
102
}
330
1F
100
AcDbEntity
  8
AM_5 寸法線
100
AcDbDimension
  2
*D34
 10
623.1698498825124
 20
567.1828033665895
 30
0.0
 11
608.9930008781496
 21
565.1491748654104
 31
0.0
 70
   160
 71
     5
 42
5.000000000000113
 73
     0
 74
     0
 75
     0
  3
SEISA$0
100
AcDbAlignedDimension
 13
618.1698498825125
 23
613.5744975221959
 33
0.0
 14
623.1698498825124
 24
600.074497522196
 34
0.0
 50
0.0000000000001132
100
AcDbRotatedDimension
1001
ACAD_DSTYLE_DIMINSPECT
1070
   396
1000
100%
1070
   395
1000

1070
   394
1070
    33
1070
   393
1070
     0
1001
ACAD
1000
DSTYLE
1002
{
1070
   279
1070
     1
1002
}
  0
DIMENSION
  5
9996
102
{ACAD_XDICTIONARY
360
99A5
102
}
102
{ACAD_REACTORS
330
99A6
102
}
330
1F
100
AcDbEntity
  8
AM_5 寸法線
100
AcDbDimension
  2
*D35
 10
333.1698498825126
 20
623.815925831371
 30
0.0
 11
352.0448498825126
 21
631.940925831371
 31
0.0
 70
    32
 71
     5
 42
5.0
 73
     0
 74
     0
 75
     0
  3
SEISA$0
100
AcDbAlignedDimension
 13
328.1698498825126
 23
612.074497522196
 33
0.0
 14
333.1698498825126
 24
596.9744975221961
 34
0.0
100
AcDbRotatedDimension
1001
ACAD_DSTYLE_DIMINSPECT
1070
   396
1000
100%
1070
   395
1000

1070
   394
1070
    33
1070
   393
1070
     0
  0
INSERT
  5
9BB0
330
1F
100
AcDbEntity
  8
AM_5 寸法線
100
AcDbBlockReference
  2
ケース
 10
355.3754477828711
 20
615.074497522196
 30
0.0
  0
ENDSEC
  0
SECTION
  2
OBJECTS
  0
DICTIONARY
  5
C
330
0
100
AcDbDictionary
281
     1
  3
ACAD_COLOR
350
C5
  3
ACAD_GROUP
350
D
  3
ACAD_LAYOUT
350
1A
  3
ACAD_MATERIAL
350
C4
  3
ACAD_MLEADERSTYLE
350
2D5
  3
ACAD_MLINESTYLE
350
17
  3
ACAD_PLOTSETTINGS
350
19
  3
ACAD_PLOTSTYLENAME
350
E
  3
ACAD_SCALELIST
350
2B3
  3
ACAD_TABLESTYLE
350
121
  3
ACAD_VISUALSTYLE
350
27F
  3
ACDB_RECOMPOSE_DATA
350
2F7
  3
AcDbVariableDictionary
350
34
  3
AcmDictionary
350
49
  3
AMG
350
2B
  3
AMGSNAPSETTINGS
350
1DE
  0
DICTIONARY
  5
BF
330
2
100
AcDbDictionary
280
     1
281
     1
  3
ACAD_LAYERSTATES
360
2E24
  3
AMLAYER_GROUPCOLORS
360
C0
  0
DICTIONARY
  5
29F7
330
10
100
AcDbDictionary
280
     1
281
     1
  3
ADSK_XREC_LAYER_RECONCILED
360
29F8
  0
DICTIONARY
  5
29F9
330
81
100
AcDbDictionary
280
     1
281
     1
  3
ADSK_XREC_LAYER_RECONCILED
360
29FA
  0
DICTIONARY
  5
2E1A
330
2E19
100
AcDbDictionary
280
     1
281
     1
  0
DICTIONARY
  5
73B9
330
73B8
100
AcDbDictionary
280
     1
281
     1
  0
DICTIONARY
  5
82
330
1F
100
AcDbDictionary
280
     1
281
     1
  3
ACAD_SORTENTS
360
A41
  0
DICTIONARY
  5
3E88
330
3E87
100
AcDbDictionary
280
     1
281
     1
  3
ACAD_SORTENTS
360
6BDF
  0
DICTIONARY
  5
6C79
330
40B9
100
AcDbDictionary
280
     1
281
     1
  3
ACAD_SORTENTS
360
6C7A
  0
DICTIONARY
  5
4D75
330
4C89
100
AcDbDictionary
280
     1
281
     1
  3
ACAD_SORTENTS
360
6C5A
  0
DICTIONARY
  5
4E5A
330
4D77
100
AcDbDictionary
280
     1
281
     1
  3
ACAD_SORTENTS
360
6CF3
  0
DICTIONARY
  5
6D3C
330
4EAB
100
AcDbDictionary
280
     1
281
     1
  3
ACAD_SORTENTS
360
9B4D
  0
DICTIONARY
  5
4F62
330
4EFC
100
AcDbDictionary
280
     1
281
     1
  3
ACAD_SORTENTS
360
9B18
  0
DICTIONARY
  5
53D9
330
5346
100
AcDbDictionary
280
     1
281
     1
  3
ACAD_SORTENTS
360
6F52
  0
DICTIONARY
  5
5474
330
53DB
100
AcDbDictionary
280
     1
281
     1
  3
ACAD_SORTENTS
360
6FB7
  0
DICTIONARY
  5
7BEB
330
78EA
100
AcDbDictionary
280
     1
281
     1
  3
ACAD_SORTENTS
360
9CE6
  0
DICTIONARY
  5
57E9
330
57DC
100
AcDbDictionary
280
     1
281
     1
  3
ACAD_DIMASSOC
360
57F3
  0
DICTIONARY
  5
5843
330
5836
100
AcDbDictionary
280
     1
281
     1
  3
ACAD_DIMASSOC
360
584D
  0
DICTIONARY
  5
5873
330
5866
100
AcDbDictionary
280
     1
281
     1
  3
ACAD_DIMASSOC
360
587D
  0
DICTIONARY
  5
58B0
330
58A1
100
AcDbDictionary
280
     1
281
     1
  3
ACAD_DIMASSOC
360
58BC
  0
DICTIONARY
  5
5A64
330
5A57
100
AcDbDictionary
280
     1
281
     1
  3
ACAD_DIMASSOC
360
5A6E
  0
DICTIONARY
  5
5A7C
330
5A6F
100
AcDbDictionary
280
     1
281
     1
  3
ACAD_DIMASSOC
360
5A86
  0
DICTIONARY
  5
5A94
330
5A87
100
AcDbDictionary
280
     1
281
     1
  3
ACAD_DIMASSOC
360
5A9E
  0
DICTIONARY
  5
5B1E
330
5B0F
100
AcDbDictionary
280
     1
281
     1
  3
ACAD_DIMASSOC
360
5B2A
  0
DICTIONARY
  5
5B72
330
5B63
100
AcDbDictionary
280
     1
281
     1
  3
ACAD_DIMASSOC
360
5B7E
  0
DICTIONARY
  5
5B8C
330
5B7F
100
AcDbDictionary
280
     1
281
     1
  3
ACAD_DIMASSOC
360
5B96
  0
DICTIONARY
  5
5BA4
330
5B97
100
AcDbDictionary
280
     1
281
     1
  3
ACAD_DIMASSOC
360
5BAE
  0
DICTIONARY
  5
5BC2
330
5BB5
100
AcDbDictionary
280
     1
281
     1
  3
ACAD_DIMASSOC
360
5BCC
  0
DICTIONARY
  5
5BDA
330
5BCD
100
AcDbDictionary
280
     1
281
     1
  3
ACAD_DIMASSOC
360
5BE4
  0
DICTIONARY
  5
813A
330
812B
100
AcDbDictionary
280
     1
281
     1
  3
ACAD_DIMASSOC
360
813B
  0
DICTIONARY
  5
816C
330
815D
100
AcDbDictionary
280
     1
281
     1
  3
ACAD_DIMASSOC
360
816D
  0
DICTIONARY
  5
985E
330
9851
100
AcDbDictionary
280
     1
281
     1
  3
ACAD_DIMASSOC
360
985F
  0
DICTIONARY
  5
988A
330
987B
100
AcDbDictionary
280
     1
281
     1
  3
ACAD_DIMASSOC
360
988B
  0
DICTIONARY
  5
98F3
330
98E4
100
AcDbDictionary
280
     1
281
     1
  3
ACAD_DIMASSOC
360
98F4
  0
DICTIONARY
  5
9952
330
9943
100
AcDbDictionary
280
     1
281
     1
  3
ACAD_DIMASSOC
360
9953
  0
DICTIONARY
  5
99A5
330
9996
100
AcDbDictionary
280
     1
281
     1
  3
ACAD_DIMASSOC
360
99A6
  0
DICTIONARY
  5
C5
102
{ACAD_REACTORS
330
C
102
}
330
C
100
AcDbDictionary
281
     1
  0
DICTIONARY
  5
D
102
{ACAD_REACTORS
330
C
102
}
330
C
100
AcDbDictionary
281
     1
  0
DICTIONARY
  5
1A
102
{ACAD_REACTORS
330
C
102
}
330
C
100
AcDbDictionary
281
     1
  3
Model
350
22
  3
レイアウト1
350
1E
  3
レイアウト2
350
26
  0
DICTIONARY
  5
C4
102
{ACAD_REACTORS
330
C
102
}
330
C
100
AcDbDictionary
281
     1
  3
ByBlock
350
27D
  3
ByLayer
350
27C
  3
Global
350
27E
  0
DICTIONARY
  5
2D5
102
{ACAD_REACTORS
330
C
102
}
330
C
100
AcDbDictionary
281
     1
  3
Standard
350
2D6
  0
DICTIONARY
  5
17
102
{ACAD_REACTORS
330
C
102
}
330
C
100
AcDbDictionary
281
     1
  3
Standard
350
18
  0
DICTIONARY
  5
19
102
{ACAD_REACTORS
330
C
102
}
330
C
100
AcDbDictionary
281
     1
  3
SEISA基本
350
1C7E
  0
ACDBDICTIONARYWDFLT
  5
E
102
{ACAD_REACTORS
330
C
102
}
330
C
100
AcDbDictionary
281
     1
  3
Normal
350
F
100
AcDbDictionaryWithDefault
340
F
  0
DICTIONARY
  5
2B3
102
{ACAD_REACTORS
330
C
102
}
330
C
100
AcDbDictionary
281
     1
  3
*A1
350
2A04
  3
*A2
350
40F5
  3
A0
350
2B4
  3
A1
350
2B5
  3
A2
350
2B6
  3
A3
350
2B7
  3
A4
350
2B8
  3
A5
350
2B9
  3
A6
350
2BA
  3
A7
350
2BB
  3
A8
350
2BC
  3
A9
350
2BD
  3
B0
350
2BE
  3
B1
350
2BF
  3
B2
350
2C0
  3
B3
350
2C1
  3
B4
350
2C2
  3
B5
350
2C3
  3
B6
350
2C4
  3
B7
350
2C5
  3
B8
350
2C6
  3
B9
350
2C7
  3
C0
350
2C8
  3
C1
350
2C9
  3
C2
350
2CA
  3
C3
350
2CB
  3
C4
350
2CC
  3
C5
350
2CD
  3
C6
350
2CE
  3
C7
350
2CF
  3
C8
350
2D0
  3
C9
350
2D1
  3
D0
350
2D2
  3
D1
350
2D3
  3
D2
350
2D4
  0
DICTIONARY
  5
121
102
{ACAD_REACTORS
330
C
102
}
330
C
100
AcDbDictionary
281
     1
  3
Standard
350
122
  0
DICTIONARY
  5
27F
102
{ACAD_REACTORS
330
C
102
}
330
C
100
AcDbDictionary
281
     1
  3
2dWireframe
350
285
  3
3D Hidden
350
287
  3
3dWireframe
350
286
  3
Basic
350
284
  3
Brighten
350
28B
  3
ColorChange
350
28F
  3
Conceptual
350
288
  3
Dim
350
28A
  3
Facepattern
350
28E
  3
Flat
350
280
  3
FlatWithEdges
350
281
  3
Gouraud
350
282
  3
GouraudWithEdges
350
283
  3
Linepattern
350
28D
  3
Realistic
350
289
  3
Thicken
350
28C
  0
XRECORD
  5
2F7
102
{ACAD_REACTORS
330
C
102
}
330
C
100
AcDbXrecord
280
     1
 90
        1
330
122
  0
DICTIONARY
  5
34
102
{ACAD_REACTORS
330
C
102
}
330
C
100
AcDbDictionary
281
     1
  3
CANNOSCALE
350
2FA
  3
CMLEADERSTYLE
350
2F8
  3
CTABLESTYLE
350
140
  3
DIMASSOC
350
AC
  3
INDEXCTL
350
35
  3
LAYEREVAL
350
54BC
  3
LAYERNOTIFY
350
54BD
  3
LIGHTINGUNITS
350
2FB
  3
MSLTSCALE
350
2F9
  0
DICTIONARY
  5
49
102
{ACAD_REACTORS
330
C
102
}
330
C
100
AcDbDictionary
281
     1
  3
AcmBOM
350
161B
  3
AcmStdDictionary
350
4A
  3
AMDTSECTSYM_ARROWCOLOR
350
12B
  0
DICTIONARY
  5
2B
102
{ACAD_REACTORS
330
C
102
}
330
C
100
AcDbDictionary
281
     1
  0
DICTIONARY
  5
1DE
102
{ACAD_REACTORS
330
C
102
}
330
C
100
AcDbDictionary
281
     1
  0
DICTIONARY
  5
2E24
102
{ACAD_REACTORS
330
BF
102
}
330
BF
100
AcDbDictionary
281
     1
  0
DICTIONARY
  5
C0
102
{ACAD_REACTORS
330
BF
102
}
330
BF
100
AcDbDictionary
280
     1
281
     1
  0
XRECORD
  5
29F8
102
{ACAD_REACTORS
330
29F7
102
}
330
29F7
100
AcDbXrecord
280
     1
290
     1
  0
XRECORD
  5
29FA
102
{ACAD_REACTORS
330
29F9
102
}
330
29F9
100
AcDbXrecord
280
     1
290
     1
  0
SORTENTSTABLE
  5
A41
102
{ACAD_REACTORS
330
82
102
}
330
82
100
AcDbSortentsTable
330
1F
331
5B97
  5
5B97
331
5A6F
  5
5A6F
331
4ECA
  5
5241
331
5409
  5
54F9
331
57DC
  5
57F6
331
5B7F
  5
5B7F
331
38B2
  5
38B2
331
5A57
  5
5A57
331
812B
  5
812B
331
58A1
  5
58A1
331
4D06
  5
4F1B
331
96F4
  5
96F4
331
5B0F
  5
5B0F
331
815D
  5
815D
331
4D05
  5
4ECA
331
5866
  5
5866
331
796C
  5
796C
331
5BCD
  5
5BCD
331
5374
  5
54F8
331
4F1B
  5
527C
331
5B63
  5
5B63
331
5A87
  5
5A87
331
4CCB
  5
4DB8
331
4DB8
  5
512F
331
5836
  5
5836
331
5BB5
  5
5BB5
331
3A73
  5
3AA2
  0
SORTENTSTABLE
  5
6BDF
102
{ACAD_REACTORS
330
3E88
102
}
330
3E88
100
AcDbSortentsTable
330
3E87
  0
SORTENTSTABLE
  5
6C7A
102
{ACAD_REACTORS
330
6C79
102
}
330
6C79
100
AcDbSortentsTable
330
40B9
  0
SORTENTSTABLE
  5
6C5A
102
{ACAD_REACTORS
330
4D75
102
}
330
4D75
100
AcDbSortentsTable
330
4C89
331
4CC8
  5
4D72
331
4CB3
  5
4CB4
331
4C96
  5
4C97
331
4CC3
  5
4CC6
331
4CBA
  5
4CBB
331
4CC9
  5
4D73
331
4CC4
  5
4CC7
331
4CA6
  5
4CA7
331
4C90
  5
4C91
331
4C97
  5
4C98
331
4CB4
  5
4CB5
331
4CBB
  5
4CBE
331
4C9E
  5
4C9F
331
4CAD
  5
4CAE
331
4CA0
  5
4CA1
331
4CCA
  5
4D74
331
4CC5
  5
4CC8
331
4CA7
  5
4CA8
331
4CAE
  5
4CAF
331
4CB5
  5
4CB6
331
4C9F
  5
4CA0
331
4C98
  5
4C99
331
4C91
  5
4C92
331
4CC6
  5
4CC9
331
4CA8
  5
4CA9
331
4CAF
  5
4CB0
331
4D72
  5
4C90
331
4C99
  5
4C9A
331
4C92
  5
4C93
331
4CA1
  5
4CA2
331
4CB6
  5
4CB7
331
4CC0
  5
4CC3
331
4CA2
  5
4CA3
331
4CC7
  5
4CCA
331
4CA9
  5
4CAA
331
4CB0
  5
4CB1
331
4CB7
  5
4CB8
331
4D73
  5
4CC0
331
4C9A
  5
4C9B
331
4C93
  5
4C94
331
4CBE
  5
4CC1
331
4CC1
  5
4CC4
331
4CAA
  5
4CAB
331
4CB1
  5
4CB2
331
4D74
  5
4CBF
331
4C9B
  5
4C9E
331
4C94
  5
4C95
331
4CA3
  5
4CA4
331
4CBF
  5
4CC2
331
4CB8
  5
4CB9
331
4CC2
  5
4CC5
331
4CA4
  5
4CA6
331
4C95
  5
4C96
331
4CB9
  5
4CBA
331
4CB2
  5
4CB3
331
4CAB
  5
4CAD
  0
SORTENTSTABLE
  5
6CF3
102
{ACAD_REACTORS
330
4E5A
102
}
330
4E5A
100
AcDbSortentsTable
330
4D77
  0
SORTENTSTABLE
  5
9B4D
102
{ACAD_REACTORS
330
6D3C
102
}
330
6D3C
100
AcDbSortentsTable
330
4EAB
331
4EB5
  5
4EB7
331
4EC6
  5
4EC9
331
4EBE
  5
4EC0
331
4EB6
  5
4EB9
331
4EC7
  5
9B34
331
4EBF
  5
4EC1
331
4EB7
  5
4EBA
331
9B34
  5
4EAF
331
4EC0
  5
4EC2
331
9B35
  5
4EB0
331
4EB0
  5
4EB2
331
4EC1
  5
4EC3
331
4EB9
  5
4EBB
331
4EB1
  5
4EB3
331
4EC2
  5
4EC4
331
4EAF
  5
4EB1
331
4EBA
  5
4EBE
331
4EB2
  5
4EB4
331
4EC3
  5
4EC5
331
4EBB
  5
4EBF
331
4EB3
  5
4EB5
331
4EC4
  5
4EC6
331
4EB4
  5
4EB6
331
4EC9
  5
9B35
331
4EC5
  5
4EC7
  0
SORTENTSTABLE
  5
9B18
102
{ACAD_REACTORS
330
4F62
102
}
330
4F62
100
AcDbSortentsTable
330
4EFC
331
4F15
  5
4F17
331
4F0D
  5
4F10
331
4F05
  5
4F07
331
4F16
  5
4F18
331
4F0E
  5
4F12
331
4F06
  5
4F08
331
4F17
  5
4F1A
331
4F18
  5
4F61
331
4F07
  5
4F09
331
97C0
  5
4F00
331
4F10
  5
4F13
331
4F08
  5
4F0A
331
4F61
  5
97C0
331
4F00
  5
4F03
331
97C1
  5
4F01
331
4F1A
  5
97C1
331
4F09
  5
4F0C
331
4F01
  5
4F04
331
4F12
  5
4F14
331
4F0A
  5
4F0D
331
4F13
  5
4F15
331
4F03
  5
4F05
331
4F14
  5
4F16
331
4F0C
  5
4F0E
331
4F04
  5
4F06
  0
SORTENTSTABLE
  5
6F52
102
{ACAD_REACTORS
330
53D9
102
}
330
53D9
100
AcDbSortentsTable
330
5346
  0
SORTENTSTABLE
  5
6FB7
102
{ACAD_REACTORS
330
5474
102
}
330
5474
100
AcDbSortentsTable
330
53DB
  0
SORTENTSTABLE
  5
9CE6
102
{ACAD_REACTORS
330
7BEB
102
}
330
7BEB
100
AcDbSortentsTable
330
78EA
331
7954
  5
7958
331
7959
  5
795C
331
795C
  5
795F
331
795F
  5
7962
331
7962
  5
7CEC
331
78F7
  5
78F8
331
78FA
  5
78FC
331
7CEB
  5
7947
331
7927
  5
7929
331
792A
  5
792D
331
792D
  5
7930
331
7930
  5
7932
331
7933
  5
7936
331
7936
  5
7938
331
7938
  5
793A
331
793B
  5
793D
331
793E
  5
7942
331
7944
  5
7946
331
7947
  5
794A
331
794A
  5
794D
331
794D
  5
7950
331
7950
  5
7954
331
7953
  5
7956
331
7958
  5
795B
331
7956
  5
795A
331
795B
  5
795E
331
795E
  5
7961
331
7961
  5
7CEB
331
78F6
  5
78F7
331
78F9
  5
78FA
331
78FC
  5
7923
331
7CEA
  5
78F6
331
7923
  5
7926
331
7926
  5
7928
331
7929
  5
792C
331
792C
  5
792E
331
7932
  5
7934
331
793A
  5
793C
331
793D
  5
793F
331
7943
  5
7945
331
7946
  5
7949
331
7949
  5
794C
331
794C
  5
794F
331
794F
  5
7953
331
7952
  5
7955
331
7955
  5
7959
331
795A
  5
795D
331
795D
  5
7960
331
7960
  5
7CEA
331
78F8
  5
78F9
331
78FB
  5
790F
331
7925
  5
7927
331
7CEC
  5
78FB
331
7928
  5
792A
331
792E
  5
7931
331
7931
  5
7933
331
7934
  5
7937
331
7937
  5
7939
331
7939
  5
793B
331
793C
  5
793E
331
793F
  5
7943
331
7942
  5
7944
331
7945
  5
7948
331
7948
  5
794B
331
794B
  5
794E
331
790F
  5
7925
331
794E
  5
7952
  0
DIMASSOC
  5
57F3
102
{ACAD_REACTORS
330
57E9
102
}
330
57E9
100
AcDbDimAssoc
330
57DC
 90
        3
 70
     0
 71
     0
  1
AcDbOsnapPointRef
 72
    13
331
4F1B
331
4F0D
 73
     2
 91
        0
 40
0.0
 10
0.0
 20
0.0
 30
2.000000000000000E+50
 75
     0
  1
AcDbOsnapPointRef
 72
    13
331
4F1B
331
4F07
 73
     2
 91
        0
 40
0.0
 10
0.0
 20
0.0
 30
2.000000000000000E+50
 75
     0
  0
DIMASSOC
  5
584D
102
{ACAD_REACTORS
330
5843
102
}
330
5843
100
AcDbDimAssoc
330
5836
 90
        2
 70
     0
 71
     0
  1
AcDbOsnapPointRef
 72
     2
331
4F1B
331
4F03
 73
     2
 91
        0
 40
0.5
 10
0.0
 20
0.0
 30
0.0
 75
     0
  0
DIMASSOC
  5
587D
102
{ACAD_REACTORS
330
5873
102
}
330
5873
100
AcDbDimAssoc
330
5866
 90
        2
 70
     0
 71
     0
  1
AcDbOsnapPointRef
 72
     2
331
4ECA
331
4EB0
 73
     2
 91
        0
 40
0.5
 10
0.0
 20
0.0
 30
0.0
 75
     0
  0
DIMASSOC
  5
58BC
102
{ACAD_REACTORS
330
58B0
102
}
330
58B0
100
AcDbDimAssoc
330
58A1
 90
        3
 70
     0
 71
     0
  1
AcDbOsnapPointRef
 72
    13
331
4F1B
331
4F14
 73
     2
 91
        0
 40
0.0
 10
0.0
 20
0.0
 30
2.000000000000000E+50
 75
     0
  1
AcDbOsnapPointRef
 72
     1
331
4DB8
331
4D9B
 73
     2
 91
        0
 40
1.0
 10
0.0
 20
0.0
 30
2.000000000000000E+50
 75
     0
  0
DIMASSOC
  5
5A6E
102
{ACAD_REACTORS
330
5A64
102
}
330
5A64
100
AcDbDimAssoc
330
5A57
 90
        3
 70
     0
 71
     0
  1
AcDbOsnapPointRef
 72
    13
331
4ECA
331
4EB9
 73
     2
 91
        0
 40
0.0
 10
0.0
 20
0.0
 30
2.000000000000000E+50
 75
     0
  1
AcDbOsnapPointRef
 72
    13
331
4ECA
331
4EB2
 73
     2
 91
        0
 40
0.0
 10
0.0
 20
0.0
 30
2.000000000000000E+50
 75
     0
  0
DIMASSOC
  5
5A86
102
{ACAD_REACTORS
330
5A7C
102
}
330
5A7C
100
AcDbDimAssoc
330
5A6F
 90
        3
 70
     0
 71
     0
  1
AcDbOsnapPointRef
 72
     1
331
4CCB
331
4C98
 73
     2
 91
        0
 40
1.0
 10
0.0
 20
0.0
 30
2.000000000000000E+50
 75
     0
  1
AcDbOsnapPointRef
 72
     1
331
4CCB
331
4C8C
 73
     2
 91
        0
 40
1.0
 10
0.0
 20
0.0
 30
2.000000000000000E+50
 75
     0
  0
DIMASSOC
  5
5A9E
102
{ACAD_REACTORS
330
5A94
102
}
330
5A94
100
AcDbDimAssoc
330
5A87
 90
        3
 70
     0
 71
     0
  1
AcDbOsnapPointRef
 72
     1
331
4CCB
331
4CBE
 73
     2
 91
        0
 40
1.0
 10
0.0
 20
0.0
 30
2.000000000000000E+50
 75
     0
  1
AcDbOsnapPointRef
 72
     1
331
4CCB
331
4D72
 73
     2
 91
        0
 40
1.0
 10
0.0
 20
0.0
 30
2.000000000000000E+50
 75
     0
  0
DIMASSOC
  5
5B2A
102
{ACAD_REACTORS
330
5B1E
102
}
330
5B1E
100
AcDbDimAssoc
330
5B0F
 90
        2
 70
     0
 71
     0
  1
AcDbOsnapPointRef
 72
    13
331
4DB8
331
4D81
 73
     2
 91
        0
 40
0.0
 10
0.0
 20
0.0
 30
2.000000000000000E+50
 75
     0
  0
DIMASSOC
  5
5B7E
102
{ACAD_REACTORS
330
5B72
102
}
330
5B72
100
AcDbDimAssoc
330
5B63
 90
        2
 70
     0
 71
     0
  1
AcDbOsnapPointRef
 72
    13
331
4CCB
331
4C8D
 73
     2
 91
        0
 40
0.0
 10
0.0
 20
0.0
 30
2.000000000000000E+50
 75
     0
  0
DIMASSOC
  5
5B96
102
{ACAD_REACTORS
330
5B8C
102
}
330
5B8C
100
AcDbDimAssoc
330
5B7F
 90
        3
 70
     0
 71
     0
  1
AcDbOsnapPointRef
 72
    13
331
4F1B
331
4F03
 73
     2
 91
        0
 40
0.0
 10
0.0
 20
0.0
 30
2.000000000000000E+50
 75
     0
  1
AcDbOsnapPointRef
 72
    13
331
4DB8
331
4D80
 73
     2
 91
        0
 40
0.0
 10
0.0
 20
0.0
 30
2.000000000000000E+50
 75
     0
  0
DIMASSOC
  5
5BAE
102
{ACAD_REACTORS
330
5BA4
102
}
330
5BA4
100
AcDbDimAssoc
330
5B97
 90
        1
 70
     0
 71
     0
  1
AcDbOsnapPointRef
 72
    13
331
4DB8
331
4D80
 73
     2
 91
        0
 40
0.0
 10
0.0
 20
0.0
 30
2.000000000000000E+50
 75
     0
  0
DIMASSOC
  5
5BCC
102
{ACAD_REACTORS
330
5BC2
102
}
330
5BC2
100
AcDbDimAssoc
330
5BB5
 90
        2
 70
     0
 71
     0
  1
AcDbOsnapPointRef
 72
    13
331
4CCB
331
4C94
 73
     2
 91
        0
 40
0.0
 10
0.0
 20
0.0
 30
2.000000000000000E+50
 75
     0
  0
DIMASSOC
  5
5BE4
102
{ACAD_REACTORS
330
5BDA
102
}
330
5BDA
100
AcDbDimAssoc
330
5BCD
 90
        3
 70
     0
 71
     0
  1
AcDbOsnapPointRef
 72
    13
331
4CCB
331
4C94
 73
     2
 91
        0
 40
0.0
 10
0.0
 20
0.0
 30
2.000000000000000E+50
 75
     0
  1
AcDbOsnapPointRef
 72
    13
331
4ECA
331
4EB0
 73
     2
 91
        0
 40
0.0
 10
0.0
 20
0.0
 30
2.000000000000000E+50
 75
     0
  0
DIMASSOC
  5
813B
102
{ACAD_REACTORS
330
813A
102
}
330
813A
100
AcDbDimAssoc
330
812B
 90
        3
 70
     0
 71
     0
  1
AcDbOsnapPointRef
 72
     1
331
796C
331
78EF
 73
     0
 91
        0
 40
0.0
 10
0.0
 20
0.0
 30
2.000000000000000E+50
 75
     0
  1
AcDbOsnapPointRef
 72
    13
331
796C
331
7949
 73
     0
 91
        0
 40
0.0
 10
0.0
 20
0.0
 30
2.000000000000000E+50
 75
     0
  0
DIMASSOC
  5
816D
102
{ACAD_REACTORS
330
816C
102
}
330
816C
100
AcDbDimAssoc
330
815D
 90
        3
 70
     0
 71
     0
  1
AcDbOsnapPointRef
 72
     1
331
796C
331
7923
 73
     0
 91
        0
 40
0.0
 10
0.0
 20
0.0
 30
2.000000000000000E+50
 75
     0
  1
AcDbOsnapPointRef
 72
    13
331
796C
331
7926
 73
     0
 91
        0
 40
0.0
 10
0.0
 20
0.0
 30
2.000000000000000E+50
 75
     0
  0
DIMASSOC
  5
985F
102
{ACAD_REACTORS
330
985E
102
}
330
985E
100
AcDbDimAssoc
330
9851
 90
        2
 70
     0
 71
     0
  1
AcDbOsnapPointRef
 72
    13
331
4F1B
331
4F17
 73
     0
 91
        0
 40
0.0
 10
0.0
 20
0.0
 30
2.000000000000000E+50
 75
     0
  0
DIMASSOC
  5
988B
102
{ACAD_REACTORS
330
988A
102
}
330
988A
100
AcDbDimAssoc
330
987B
 90
        3
 70
     0
 71
     0
  1
AcDbOsnapPointRef
 72
     1
331
4F1B
331
4F18
 73
     0
 91
        0
 40
0.0
 10
0.0
 20
0.0
 30
2.000000000000000E+50
 75
     0
  1
AcDbOsnapPointRef
 72
    13
331
4F1B
331
4F61
 73
     0
 91
        0
 40
0.0
 10
0.0
 20
0.0
 30
2.000000000000000E+50
 75
     0
  0
DIMASSOC
  5
98F4
102
{ACAD_REACTORS
330
98F3
102
}
330
98F3
100
AcDbDimAssoc
330
98E4
 90
        3
 70
     0
 71
     0
  1
AcDbOsnapPointRef
 72
     1
331
796C
331
7945
 73
     0
 91
        0
 40
0.0
 10
0.0
 20
0.0
 30
2.000000000000000E+50
 75
     0
  1
AcDbOsnapPointRef
 72
    13
331
987B
331
98C4
 73
     0
 91
        0
 40
0.0
 10
0.0
 20
0.0
 30
2.000000000000000E+50
 75
     0
  0
DIMASSOC
  5
9953
102
{ACAD_REACTORS
330
9952
102
}
330
9952
100
AcDbDimAssoc
330
9943
 90
        3
 70
     0
 71
     0
  1
AcDbOsnapPointRef
 72
    13
331
796C
331
78F9
 73
     0
 91
        0
 40
0.0
 10
0.0
 20
0.0
 30
2.000000000000000E+50
 75
     0
  1
AcDbOsnapPointRef
 72
    13
331
4ECA
331
4EAF
 73
     0
 91
        0
 40
0.0
 10
0.0
 20
0.0
 30
2.000000000000000E+50
 75
     0
  0
DIMASSOC
  5
99A6
102
{ACAD_REACTORS
330
99A5
102
}
330
99A5
100
AcDbDimAssoc
330
9996
 90
        2
 70
     0
 71
     0
  1
AcDbOsnapPointRef
 72
     1
331
4F1B
331
4F03
 73
     0
 91
        0
 40
0.0
 10
0.0
 20
0.0
 30
2.000000000000000E+50
 75
     0
  0
LAYOUT
  5
22
102
{ACAD_REACTORS
330
1A
102
}
330
1A
100
AcDbPlotSettings
  1

  2
KONICA MINOLTA 501 PCL
  4
A4
  6

 40
5.027082920074462
 41
5.027085781097412
 42
5.027069091796875
 43
5.027069091796875
 44
209.9733276367186
 45
296.9259948730469
 46
40.12856091372497
 47
0.0
 48
0.0
 49
0.0
140
0.0
141
0.0
142
1.0
143
2.041309376009659
 70
 11956
 72
     1
 73
     1
 74
     1
  7
SEISA.ctb
 75
     0
147
0.4898816474133847
 76
     0
 77
     2
 78
   300
148
-270.6550630528436
149
-393.8526566141454
100
AcDbLayout
  1
Model
 70
     1
 71
     0
 10
0.0
 20
0.0
 11
12.0
 21
9.0
 12
0.0
 22
0.0
 32
0.0
 14
0.0
 24
0.0
 34
0.0
 15
0.0
 25
0.0
 35
0.0
146
0.0
 13
0.0
 23
0.0
 33
0.0
 16
1.0
 26
0.0
 36
0.0
 17
0.0
 27
1.0
 37
0.0
 76
     0
330
1F
331
27A
1001
ACAD_PSEXT
1000
KONICA MINOLTA 501 PCL
1000
KONICA MINOLTA 501/421/361PCL
1000
IP_192.168.20.231_(1)
1000

1070
     0
  0
LAYOUT
  5
1E
102
{ACAD_REACTORS
330
1A
102
}
330
1A
100
AcDbPlotSettings
  1

  2
none_device
  4
Letter_(8.50_x_11.00_Inches)
  6

 40
6.349999904632567
 41
6.349999904632567
 42
6.350006103515625
 43
6.350006103515625
 44
215.8999938964844
 45
279.3999938964844
 46
0.0
 47
0.0
 48
0.0
 49
0.0
140
0.0
141
0.0
142
1.0
143
1.0
 70
 15024
 72
     1
 73
     1
 74
     5
  7
SEISA.ctb
 75
    16
147
1.0
 76
     0
 77
     2
 78
   300
148
0.0
149
0.0
100
AcDbLayout
  1
レイアウト1
 70
     1
 71
     1
 10
0.0
 20
0.0
 11
420.0
 21
297.0
 12
0.0
 22
0.0
 32
0.0
 14
1.000000000000000E+20
 24
1.000000000000000E+20
 34
1.000000000000000E+20
 15
-1.000000000000000E+20
 25
-1.000000000000000E+20
 35
-1.000000000000000E+20
146
0.0
 13
0.0
 23
0.0
 33
0.0
 16
1.0
 26
0.0
 36
0.0
 17
0.0
 27
1.0
 37
0.0
 76
     0
330
1B
  0
LAYOUT
  5
26
102
{ACAD_REACTORS
330
1A
102
}
330
1A
100
AcDbPlotSettings
  1

  2
none_device
  4
Letter_(8.50_x_11.00_Inches)
  6

 40
6.349999904632567
 41
6.349999904632567
 42
6.350006103515625
 43
6.350006103515625
 44
215.8999938964844
 45
279.3999938964844
 46
0.0
 47
0.0
 48
0.0
 49
0.0
140
0.0
141
0.0
142
1.0
143
1.0
 70
 15024
 72
     1
 73
     1
 74
     5
  7
SEISA.ctb
 75
    16
147
1.0
 76
     0
 77
     2
 78
   300
148
0.0
149
0.0
100
AcDbLayout
  1
レイアウト2
 70
     1
 71
     2
 10
0.0
 20
0.0
 11
12.0
 21
9.0
 12
0.0
 22
0.0
 32
0.0
 14
0.0
 24
0.0
 34
0.0
 15
0.0
 25
0.0
 35
0.0
146
0.0
 13
0.0
 23
0.0
 33
0.0
 16
1.0
 26
0.0
 36
0.0
 17
0.0
 27
1.0
 37
0.0
 76
     0
330
23
  0
MATERIAL
  5
27D
102
{ACAD_REACTORS
330
C4
102
}
330
C4
100
AcDbMaterial
  1
ByBlock
 73
     1
 78
     1
172
     1
176
     1
270
     1
274
     1
 94
       63
  0
MATERIAL
  5
27C
102
{ACAD_REACTORS
330
C4
102
}
330
C4
100
AcDbMaterial
  1
ByLayer
 73
     1
 78
     1
172
     1
176
     1
270
     1
274
     1
 94
       63
  0
MATERIAL
  5
27E
102
{ACAD_REACTORS
330
C4
102
}
330
C4
100
AcDbMaterial
  1
Global
 73
     1
 78
     1
172
     1
176
     1
270
     1
274
     1
 94
       63
  0
MLEADERSTYLE
  5
2D6
102
{ACAD_REACTORS
330
2D5
102
}
330
2D5
100
AcDbMLeaderStyle
170
     2
171
     1
172
     0
 90
        2
 40
0.0
 41
0.0
173
     1
 91
-1056964608
340
14
 92
       -2
290
     1
 42
2.0
291
     1
 43
0.36
  3
Standard
 44
4.0
300

342
11
174
     1
178
     6
175
     1
176
     0
 93
-1056964608
 45
4.0
292
     0
297
     0
 46
4.0
 94
-1056964608
 47
1.0
 49
1.0
140
1.0
293
     1
141
0.0
294
     1
177
     0
142
1.0
295
     0
296
     0
143
0.125
1001
ACAD_MLEADERVER
1070
     2
  0
MLINESTYLE
  5
18
102
{ACAD_REACTORS
330
17
102
}
330
17
100
AcDbMlineStyle
  2
STANDARD
 70
     0
  3

 62
   256
 51
90.0
 52
90.0
 71
     2
 49
0.5
 62
   256
  6
BYLAYER
 49
-0.5
 62
   256
  6
BYLAYER
  0
PLOTSETTINGS
  5
1C7E
102
{ACAD_REACTORS
330
19
102
}
330
19
100
AcDbPlotSettings
  1
SEISA基本
  2
none_device
  4
Letter_(8.50_x_11.00_Inches)
  6

 40
6.349999904632567
 41
6.349999904632567
 42
6.350006103515625
 43
6.350006103515625
 44
215.8999938964844
 45
279.3999938964844
 46
7.302498226506357
 47
0.0
 48
0.0
 49
0.0
140
0.0
141
0.0
142
1.0
143
1.574803221122935
 70
 11956
 72
     1
 73
     1
 74
     2
  7
SEISA.ctb
 75
     0
147
0.6349999711627054
 76
     0
 77
     2
 78
   300
148
0.0
149
0.0
1001
ACAD_PSEXT
1000
なし
1000
なし
1000
適切ではありません
1000
新しいプロッタ環境設定名を選択しない限り、レイアウトは印刷されません。
1070
     0
  0
ACDBPLACEHOLDER
  5
F
102
{ACAD_REACTORS
330
E
102
}
330
E
  0
SCALE
  5
2A04
102
{ACAD_REACTORS
330
2B3
102
}
330
2B3
100
AcDbScale
 70
     0
300
1:2.5
140
1.0
141
2.5
290
     0
  0
SCALE
  5
40F5
102
{ACAD_REACTORS
330
2B3
102
}
330
2B3
100
AcDbScale
 70
     0
300
1:1.5
140
1.0
141
1.5
290
     0
  0
SCALE
  5
2B4
102
{ACAD_REACTORS
330
2B3
102
}
330
2B3
100
AcDbScale
 70
     0
300
1:1
140
1.0
141
1.0
290
     1
  0
SCALE
  5
2B5
102
{ACAD_REACTORS
330
2B3
102
}
330
2B3
100
AcDbScale
 70
     0
300
1:2
140
1.0
141
2.0
290
     0
  0
SCALE
  5
2B6
102
{ACAD_REACTORS
330
2B3
102
}
330
2B3
100
AcDbScale
 70
     0
300
1:4
140
1.0
141
4.0
290
     0
  0
SCALE
  5
2B7
102
{ACAD_REACTORS
330
2B3
102
}
330
2B3
100
AcDbScale
 70
     0
300
1:5
140
1.0
141
5.0
290
     0
  0
SCALE
  5
2B8
102
{ACAD_REACTORS
330
2B3
102
}
330
2B3
100
AcDbScale
 70
     0
300
1:8
140
1.0
141
8.0
290
     0
  0
SCALE
  5
2B9
102
{ACAD_REACTORS
330
2B3
102
}
330
2B3
100
AcDbScale
 70
     0
300
1:10
140
1.0
141
10.0
290
     0
  0
SCALE
  5
2BA
102
{ACAD_REACTORS
330
2B3
102
}
330
2B3
100
AcDbScale
 70
     0
300
1:16
140
1.0
141
16.0
290
     0
  0
SCALE
  5
2BB
102
{ACAD_REACTORS
330
2B3
102
}
330
2B3
100
AcDbScale
 70
     0
300
1:20
140
1.0
141
20.0
290
     0
  0
SCALE
  5
2BC
102
{ACAD_REACTORS
330
2B3
102
}
330
2B3
100
AcDbScale
 70
     0
300
1:30
140
1.0
141
30.0
290
     0
  0
SCALE
  5
2BD
102
{ACAD_REACTORS
330
2B3
102
}
330
2B3
100
AcDbScale
 70
     0
300
1:40
140
1.0
141
40.0
290
     0
  0
SCALE
  5
2BE
102
{ACAD_REACTORS
330
2B3
102
}
330
2B3
100
AcDbScale
 70
     0
300
1:50
140
1.0
141
50.0
290
     0
  0
SCALE
  5
2BF
102
{ACAD_REACTORS
330
2B3
102
}
330
2B3
100
AcDbScale
 70
     0
300
1:100
140
1.0
141
100.0
290
     0
  0
SCALE
  5
2C0
102
{ACAD_REACTORS
330
2B3
102
}
330
2B3
100
AcDbScale
 70
     0
300
2:1
140
2.0
141
1.0
290
     0
  0
SCALE
  5
2C1
102
{ACAD_REACTORS
330
2B3
102
}
330
2B3
100
AcDbScale
 70
     0
300
4:1
140
4.0
141
1.0
290
     0
  0
SCALE
  5
2C2
102
{ACAD_REACTORS
330
2B3
102
}
330
2B3
100
AcDbScale
 70
     0
300
8:1
140
8.0
141
1.0
290
     0
  0
SCALE
  5
2C3
102
{ACAD_REACTORS
330
2B3
102
}
330
2B3
100
AcDbScale
 70
     0
300
10:1
140
10.0
141
1.0
290
     0
  0
SCALE
  5
2C4
102
{ACAD_REACTORS
330
2B3
102
}
330
2B3
100
AcDbScale
 70
     0
300
100:1
140
100.0
141
1.0
290
     0
  0
SCALE
  5
2C5
102
{ACAD_REACTORS
330
2B3
102
}
330
2B3
100
AcDbScale
 70
     0
300
1/128" = 1'-0"
140
0.0078125
141
12.0
290
     0
  0
SCALE
  5
2C6
102
{ACAD_REACTORS
330
2B3
102
}
330
2B3
100
AcDbScale
 70
     0
300
1/64" = 1'-0"
140
0.015625
141
12.0
290
     0
  0
SCALE
  5
2C7
102
{ACAD_REACTORS
330
2B3
102
}
330
2B3
100
AcDbScale
 70
     0
300
1/32" = 1'-0"
140
0.03125
141
12.0
290
     0
  0
SCALE
  5
2C8
102
{ACAD_REACTORS
330
2B3
102
}
330
2B3
100
AcDbScale
 70
     0
300
1/16" = 1'-0"
140
0.0625
141
12.0
290
     0
  0
SCALE
  5
2C9
102
{ACAD_REACTORS
330
2B3
102
}
330
2B3
100
AcDbScale
 70
     0
300
3/32" = 1'-0"
140
0.09375
141
12.0
290
     0
  0
SCALE
  5
2CA
102
{ACAD_REACTORS
330
2B3
102
}
330
2B3
100
AcDbScale
 70
     0
300
1/8" = 1'-0"
140
0.125
141
12.0
290
     0
  0
SCALE
  5
2CB
102
{ACAD_REACTORS
330
2B3
102
}
330
2B3
100
AcDbScale
 70
     0
300
3/16" = 1'-0"
140
0.1875
141
12.0
290
     0
  0
SCALE
  5
2CC
102
{ACAD_REACTORS
330
2B3
102
}
330
2B3
100
AcDbScale
 70
     0
300
1/4" = 1'-0"
140
0.25
141
12.0
290
     0
  0
SCALE
  5
2CD
102
{ACAD_REACTORS
330
2B3
102
}
330
2B3
100
AcDbScale
 70
     0
300
3/8" = 1'-0"
140
0.375
141
12.0
290
     0
  0
SCALE
  5
2CE
102
{ACAD_REACTORS
330
2B3
102
}
330
2B3
100
AcDbScale
 70
     0
300
1/2" = 1'-0"
140
0.5
141
12.0
290
     0
  0
SCALE
  5
2CF
102
{ACAD_REACTORS
330
2B3
102
}
330
2B3
100
AcDbScale
 70
     0
300
3/4" = 1'-0"
140
0.75
141
12.0
290
     0
  0
SCALE
  5
2D0
102
{ACAD_REACTORS
330
2B3
102
}
330
2B3
100
AcDbScale
 70
     0
300
1" = 1'-0"
140
1.0
141
12.0
290
     0
  0
SCALE
  5
2D1
102
{ACAD_REACTORS
330
2B3
102
}
330
2B3
100
AcDbScale
 70
     0
300
1-1/2" = 1'-0"
140
1.5
141
12.0
290
     0
  0
SCALE
  5
2D2
102
{ACAD_REACTORS
330
2B3
102
}
330
2B3
100
AcDbScale
 70
     0
300
3" = 1'-0"
140
3.0
141
12.0
290
     0
  0
SCALE
  5
2D3
102
{ACAD_REACTORS
330
2B3
102
}
330
2B3
100
AcDbScale
 70
     0
300
6" = 1'-0"
140
6.0
141
12.0
290
     0
  0
SCALE
  5
2D4
102
{ACAD_REACTORS
330
2B3
102
}
330
2B3
100
AcDbScale
 70
     0
300
1'-0" = 1'-0"
140
12.0
141
12.0
290
     0
  0
TABLESTYLE
  5
122
102
{ACAD_XDICTIONARY
360
2F5
102
}
102
{ACAD_REACTORS
330
121
102
}
330
121
100
AcDbTableStyle
  3
Standard
 70
     0
 71
     0
 40
1.5
 41
1.5
280
     0
281
     0
  7
STANDARD
140
4.5
170
     2
 62
     0
 63
     7
283
     0
 90
      512
 91
        0
  1

274
    -2
284
     1
 64
     0
275
    -2
285
     1
 65
     0
276
    -2
286
     1
 66
     0
277
    -2
287
     1
 67
     0
278
    -2
288
     1
 68
     0
279
    -2
289
     1
 69
     0
  7
STANDARD
140
6.0
170
     5
 62
     0
 63
     7
283
     0
 90
      512
 91
        0
  1

274
    -2
284
     1
 64
     0
275
    -2
285
     1
 65
     0
276
    -2
286
     1
 66
     0
277
    -2
287
     1
 67
     0
278
    -2
288
     1
 68
     0
279
    -2
289
     1
 69
     0
  7
STANDARD
140
4.5
170
     5
 62
     0
 63
     7
283
     0
 90
      512
 91
        0
  1

274
    -2
284
     1
 64
     0
275
    -2
285
     1
 65
     0
276
    -2
286
     1
 66
     0
277
    -2
287
     1
 67
     0
278
    -2
288
     1
 68
     0
279
    -2
289
     1
 69
     0
  0
VISUALSTYLE
  5
285
102
{ACAD_REACTORS
330
27F
102
}
330
27F
100
AcDbVisualStyle
  2
2dWireframe
 70
     4
 71
     0
 72
     2
 73
     0
 90
        0
 40
-0.6
 41
-30.0
 62
     5
 63
     7
421
 16777215
 74
     1
 91
        4
 64
     7
 65
   257
 75
     1
175
     1
 42
1.0
 92
        0
 66
   257
 43
1.0
 76
     1
 77
     6
 78
     2
 67
     7
 79
     5
170
     0
171
     0
290
     0
174
     0
 93
        1
 44
0.0
173
     0
291
     0
 45
0.0
  0
VISUALSTYLE
  5
287
102
{ACAD_REACTORS
330
27F
102
}
330
27F
100
AcDbVisualStyle
  2
3D Hidden
 70
     6
 71
     1
 72
     2
 73
     2
 90
        0
 40
-0.6
 41
-30.0
 62
     5
 63
     7
421
 16777215
 74
     2
 91
        2
 64
     7
 65
   257
 75
     2
175
     1
 42
40.0
 92
        0
 66
   257
 43
1.0
 76
     1
 77
     6
 78
     2
 67
     7
 79
     3
170
     0
171
     0
290
     0
174
     0
 93
        1
 44
0.0
173
     0
291
     0
 45
0.0
  0
VISUALSTYLE
  5
286
102
{ACAD_REACTORS
330
27F
102
}
330
27F
100
AcDbVisualStyle
  2
3dWireframe
 70
     5
 71
     0
 72
     2
 73
     0
 90
        0
 40
-0.6
 41
-30.0
 62
     5
 63
     7
421
 16777215
 74
     1
 91
        4
 64
     7
 65
   257
 75
     1
175
     1
 42
1.0
 92
        0
 66
   257
 43
1.0
 76
     1
 77
     6
 78
     2
 67
     7
 79
     5
170
     0
171
     0
290
     0
174
     0
 93
        1
 44
0.0
173
     0
291
     0
 45
0.0
  0
VISUALSTYLE
  5
284
102
{ACAD_REACTORS
330
27F
102
}
330
27F
100
AcDbVisualStyle
  2
Basic
 70
     7
 71
     1
 72
     0
 73
     1
 90
        0
 40
-0.6
 41
-30.0
 62
     5
 63
     7
421
 16777215
 74
     0
 91
        4
 64
     7
 65
   257
 75
     1
175
     1
 42
1.0
 92
        8
 66
     7
 43
1.0
 76
     1
 77
     6
 78
     2
 67
     7
 79
     5
170
     0
171
     0
290
     0
174
     0
 93
        1
 44
0.0
173
     0
291
     1
 45
0.0
  0
VISUALSTYLE
  5
28B
102
{ACAD_REACTORS
330
27F
102
}
330
27F
100
AcDbVisualStyle
  2
Brighten
 70
    12
 71
     2
 72
     2
 73
     0
 90
        0
 40
-0.6
 41
-30.0
 62
     5
 63
     7
421
 16777215
 74
     1
 91
        4
 64
     7
 65
   257
 75
     1
175
     1
 42
1.0
 92
        8
 66
     7
 43
1.0
 76
     1
 77
     6
 78
     2
 67
     7
 79
     5
170
     0
171
     0
290
     0
174
     0
 93
        1
 44
50.0
173
     0
291
     1
 45
0.0
  0
VISUALSTYLE
  5
28F
102
{ACAD_REACTORS
330
27F
102
}
330
27F
100
AcDbVisualStyle
  2
ColorChange
 70
    16
 71
     2
 72
     2
 73
     3
 90
        0
 40
-0.6
 41
-30.0
 62
     5
 63
     8
421
  8421504
 74
     1
 91
        4
 64
     7
 65
   257
 75
     1
175
     1
 42
1.0
 92
        8
 66
     8
424
  8421504
 43
1.0
 76
     1
 77
     6
 78
     2
 67
     7
 79
     5
170
     0
171
     0
290
     0
174
     0
 93
        1
 44
0.0
173
     0
291
     1
 45
0.0
  0
VISUALSTYLE
  5
288
102
{ACAD_REACTORS
330
27F
102
}
330
27F
100
AcDbVisualStyle
  2
Conceptual
 70
     9
 71
     3
 72
     2
 73
     0
 90
        0
 40
-0.6
 41
-30.0
 62
     5
 63
     7
421
 16777215
 74
     2
 91
        2
 64
     7
 65
   257
 75
     1
175
     1
 42
40.0
 92
        8
 66
     7
 43
1.0
 76
     1
 77
     6
 78
     2
 67
     7
 79
     3
170
     0
171
     0
290
     0
174
     0
 93
        1
 44
0.0
173
     0
291
     0
 45
0.0
  0
VISUALSTYLE
  5
28A
102
{ACAD_REACTORS
330
27F
102
}
330
27F
100
AcDbVisualStyle
  2
Dim
 70
    11
 71
     2
 72
     2
 73
     0
 90
        0
 40
-0.6
 41
-30.0
 62
     5
 63
     7
421
 16777215
 74
     1
 91
        4
 64
     7
 65
   257
 75
     1
175
     1
 42
1.0
 92
        8
 66
     7
 43
1.0
 76
     1
 77
     6
 78
     2
 67
     7
 79
     5
170
     0
171
     0
290
     0
174
     0
 93
        1
 44
-50.0
173
     0
291
     1
 45
0.0
  0
VISUALSTYLE
  5
28E
102
{ACAD_REACTORS
330
27F
102
}
330
27F
100
AcDbVisualStyle
  2
Facepattern
 70
    15
 71
     2
 72
     2
 73
     0
 90
        0
 40
-0.6
 41
-30.0
 62
     5
 63
     7
421
 16777215
 74
     1
 91
        4
 64
     7
 65
   257
 75
     1
175
     1
 42
1.0
 92
        8
 66
     7
 43
1.0
 76
     1
 77
     6
 78
     2
 67
     7
 79
     5
170
     0
171
     0
290
     0
174
     0
 93
        1
 44
0.0
173
     0
291
     1
 45
0.0
  0
VISUALSTYLE
  5
280
102
{ACAD_REACTORS
330
27F
102
}
330
27F
100
AcDbVisualStyle
  2
Flat
 70
     0
 71
     2
 72
     1
 73
     1
 90
        2
 40
-0.6
 41
30.0
 62
     5
 63
     7
421
 16777215
 74
     0
 91
        4
 64
     7
 65
   257
 75
     1
175
     1
 42
1.0
 92
        8
 66
     7
 43
1.0
 76
     1
 77
     6
 78
     2
 67
     7
 79
     5
170
     0
171
     0
290
     0
174
     0
 93
       13
 44
0.0
173
     0
291
     1
 45
0.0
  0
VISUALSTYLE
  5
281
102
{ACAD_REACTORS
330
27F
102
}
330
27F
100
AcDbVisualStyle
  2
FlatWithEdges
 70
     1
 71
     2
 72
     1
 73
     1
 90
        2
 40
-0.6
 41
30.0
 62
     5
 63
     7
421
 16777215
 74
     1
 91
        4
 64
     7
 65
   257
 75
     1
175
     1
 42
1.0
 92
        0
 66
   257
 43
1.0
 76
     1
 77
     6
 78
     2
 67
     7
 79
     5
170
     0
171
     0
290
     0
174
     0
 93
       13
 44
0.0
173
     0
291
     1
 45
0.0
  0
VISUALSTYLE
  5
282
102
{ACAD_REACTORS
330
27F
102
}
330
27F
100
AcDbVisualStyle
  2
Gouraud
 70
     2
 71
     2
 72
     2
 73
     1
 90
        2
 40
-0.6
 41
30.0
 62
     5
 63
     7
421
 16777215
 74
     0
 91
        4
 64
     7
 65
   257
 75
     1
175
     1
 42
1.0
 92
        0
 66
     7
 43
1.0
 76
     1
 77
     6
 78
     2
 67
     7
 79
     5
170
     0
171
     0
290
     0
174
     0
 93
       13
 44
0.0
173
     0
291
     1
 45
0.0
  0
VISUALSTYLE
  5
283
102
{ACAD_REACTORS
330
27F
102
}
330
27F
100
AcDbVisualStyle
  2
GouraudWithEdges
 70
     3
 71
     2
 72
     2
 73
     1
 90
        2
 40
-0.6
 41
30.0
 62
     5
 63
     7
421
 16777215
 74
     1
 91
        4
 64
     7
 65
   257
 75
     1
175
     1
 42
1.0
 92
        0
 66
   257
 43
1.0
 76
     1
 77
     6
 78
     2
 67
     7
 79
     5
170
     0
171
     0
290
     0
174
     0
 93
       13
 44
0.0
173
     0
291
     1
 45
0.0
  0
VISUALSTYLE
  5
28D
102
{ACAD_REACTORS
330
27F
102
}
330
27F
100
AcDbVisualStyle
  2
Linepattern
 70
    14
 71
     2
 72
     2
 73
     0
 90
        0
 40
-0.6
 41
-30.0
 62
     5
 63
     7
421
 16777215
 74
     1
 91
        4
 64
     7
 65
   257
 75
     7
175
     7
 42
1.0
 92
        8
 66
     7
 43
1.0
 76
     1
 77
     6
 78
     2
 67
     7
 79
     5
170
     0
171
     0
290
     0
174
     0
 93
        1
 44
0.0
173
     0
291
     1
 45
0.0
  0
VISUALSTYLE
  5
289
102
{ACAD_REACTORS
330
27F
102
}
330
27F
100
AcDbVisualStyle
  2
Realistic
 70
     8
 71
     2
 72
     2
 73
     0
 90
        0
 40
-0.6
 41
-30.0
 62
     5
 63
     7
421
 16777215
 74
     1
 91
        0
 64
     7
 65
   257
 75
     1
175
     1
 42
1.0
 92
        8
 66
     8
424
  7895160
 43
1.0
 76
     1
 77
     6
 78
     2
 67
     7
 79
     5
170
     0
171
     0
290
     0
174
     0
 93
       13
 44
0.0
173
     0
291
     0
 45
0.0
  0
VISUALSTYLE
  5
28C
102
{ACAD_REACTORS
330
27F
102
}
330
27F
100
AcDbVisualStyle
  2
Thicken
 70
    13
 71
     2
 72
     2
 73
     0
 90
        0
 40
-0.6
 41
-30.0
 62
     5
 63
     7
421
 16777215
 74
     1
 91
        4
 64
     7
 65
   257
 75
     1
175
     1
 42
1.0
 92
       12
 66
     7
 43
1.0
 76
     1
 77
     6
 78
     2
 67
     7
 79
     5
170
     0
171
     0
290
     0
174
     0
 93
        1
 44
0.0
173
     0
291
     1
 45
0.0
  0
DICTIONARYVAR
  5
2FA
102
{ACAD_REACTORS
330
34
102
}
330
34
100
DictionaryVariables
280
     0
  1
1:2.5
  0
DICTIONARYVAR
  5
2F8
102
{ACAD_REACTORS
330
34
102
}
330
34
100
DictionaryVariables
280
     0
  1
STANDARD
  0
DICTIONARYVAR
  5
140
102
{ACAD_REACTORS
330
34
102
}
330
34
100
DictionaryVariables
280
     0
  1
STANDARD
  0
DICTIONARYVAR
  5
AC
102
{ACAD_REACTORS
330
34
102
}
330
34
100
DictionaryVariables
280
     0
  1
1
  0
DICTIONARYVAR
  5
35
102
{ACAD_REACTORS
330
34
102
}
330
34
100
DictionaryVariables
280
     0
  1
1
  0
DICTIONARYVAR
  5
54BC
102
{ACAD_REACTORS
330
34
102
}
330
34
100
DictionaryVariables
280
     0
  1
1
  0
DICTIONARYVAR
  5
54BD
102
{ACAD_REACTORS
330
34
102
}
330
34
100
DictionaryVariables
280
     0
  1
15
  0
DICTIONARYVAR
  5
2FB
102
{ACAD_REACTORS
330
34
102
}
330
34
100
DictionaryVariables
280
     0
  1
0
  0
DICTIONARYVAR
  5
2F9
102
{ACAD_REACTORS
330
34
102
}
330
34
100
DictionaryVariables
280
     0
  1
0
  0
DICTIONARY
  5
161B
102
{ACAD_REACTORS
330
49
102
}
330
49
100
AcDbDictionary
281
     1
  0
DICTIONARY
  5
4A
102
{ACAD_REACTORS
330
49
102
}
330
49
100
AcDbDictionary
281
     1
  0
XRECORD
  5
12B
102
{ACAD_REACTORS
330
49
102
}
330
49
100
AcDbXrecord
280
     1
 90
-1023410169
  0
DICTIONARY
  5
2F5
330
122
100
AcDbDictionary
280
     1
281
     1
  3
ACAD_ROUNDTRIP_2008_TABLESTYLE_CELLSTYLEMAP
360
9D76
  0
CELLSTYLEMAP
  5
9D76
102
{ACAD_REACTORS
330
2F5
102
}
330
2F5
100
AcDbCellStyleMap
 90
        3
300
CELLSTYLE
  1
TABLEFORMAT_BEGIN
 90
        5
170
     1
 91
        0
 92
    32768
 62
   257
 93
        1
300
CONTENTFORMAT
  1
CONTENTFORMAT_BEGIN
 90
        0
 91
        0
 92
      512
 93
        0
300

 40
0.0
140
1.0
 94
        5
 62
     0
340
11
144
6.0
309
CONTENTFORMAT_END
171
     1
301
MARGIN
  1
CELLMARGIN_BEGIN
 40
1.5
 40
1.5
 40
1.5
 40
1.5
 40
0.18
 40
0.18
309
CELLMARGIN_END
 94
        6
 95
        1
302
GRIDFORMAT
  1
GRIDFORMAT_BEGIN
 90
        0
 91
        1
 62
     0
 92
       -2
340
0
 93
        0
 40
0.045
309
GRIDFORMAT_END
 95
        2
302
GRIDFORMAT
  1
GRIDFORMAT_BEGIN
 90
        0
 91
        1
 62
     0
 92
       -2
340
0
 93
        0
 40
0.045
309
GRIDFORMAT_END
 95
        4
302
GRIDFORMAT
  1
GRIDFORMAT_BEGIN
 90
        0
 91
        1
 62
     0
 92
       -2
340
0
 93
        0
 40
0.045
309
GRIDFORMAT_END
 95
        8
302
GRIDFORMAT
  1
GRIDFORMAT_BEGIN
 90
        0
 91
        1
 62
     0
 92
       -2
340
0
 93
        0
 40
0.045
309
GRIDFORMAT_END
 95
       16
302
GRIDFORMAT
  1
GRIDFORMAT_BEGIN
 90
        0
 91
        1
 62
     0
 92
       -2
340
0
 93
        0
 40
0.045
309
GRIDFORMAT_END
 95
       32
302
GRIDFORMAT
  1
GRIDFORMAT_BEGIN
 90
        0
 91
        1
 62
     0
 92
       -2
340
0
 93
        0
 40
0.045
309
GRIDFORMAT_END
309
TABLEFORMAT_END
  1
CELLSTYLE_BEGIN
 90
        1
 91
        1
300
_TITLE
309
CELLSTYLE_END
300
CELLSTYLE
  1
TABLEFORMAT_BEGIN
 90
        5
170
     1
 91
        0
 92
        0
 62
   257
 93
        1
300
CONTENTFORMAT
  1
CONTENTFORMAT_BEGIN
 90
        0
 91
        0
 92
      512
 93
        0
300

 40
0.0
140
1.0
 94
        5
 62
     0
340
11
144
4.5
309
CONTENTFORMAT_END
171
     1
301
MARGIN
  1
CELLMARGIN_BEGIN
 40
1.5
 40
1.5
 40
1.5
 40
1.5
 40
0.18
 40
0.18
309
CELLMARGIN_END
 94
        6
 95
        1
302
GRIDFORMAT
  1
GRIDFORMAT_BEGIN
 90
        0
 91
        1
 62
     0
 92
       -2
340
0
 93
        0
 40
0.045
309
GRIDFORMAT_END
 95
        2
302
GRIDFORMAT
  1
GRIDFORMAT_BEGIN
 90
        0
 91
        1
 62
     0
 92
       -2
340
0
 93
        0
 40
0.045
309
GRIDFORMAT_END
 95
        4
302
GRIDFORMAT
  1
GRIDFORMAT_BEGIN
 90
        0
 91
        1
 62
     0
 92
       -2
340
0
 93
        0
 40
0.045
309
GRIDFORMAT_END
 95
        8
302
GRIDFORMAT
  1
GRIDFORMAT_BEGIN
 90
        0
 91
        1
 62
     0
 92
       -2
340
0
 93
        0
 40
0.045
309
GRIDFORMAT_END
 95
       16
302
GRIDFORMAT
  1
GRIDFORMAT_BEGIN
 90
        0
 91
        1
 62
     0
 92
       -2
340
0
 93
        0
 40
0.045
309
GRIDFORMAT_END
 95
       32
302
GRIDFORMAT
  1
GRIDFORMAT_BEGIN
 90
        0
 91
        1
 62
     0
 92
       -2
340
0
 93
        0
 40
0.045
309
GRIDFORMAT_END
309
TABLEFORMAT_END
  1
CELLSTYLE_BEGIN
 90
        2
 91
        1
300
_HEADER
309
CELLSTYLE_END
300
CELLSTYLE
  1
TABLEFORMAT_BEGIN
 90
        5
170
     1
 91
        0
 92
        0
 62
   257
 93
        1
300
CONTENTFORMAT
  1
CONTENTFORMAT_BEGIN
 90
        0
 91
        0
 92
      512
 93
        0
300

 40
0.0
140
1.0
 94
        2
 62
     0
340
11
144
4.5
309
CONTENTFORMAT_END
171
     1
301
MARGIN
  1
CELLMARGIN_BEGIN
 40
1.5
 40
1.5
 40
1.5
 40
1.5
 40
0.18
 40
0.18
309
CELLMARGIN_END
 94
        6
 95
        1
302
GRIDFORMAT
  1
GRIDFORMAT_BEGIN
 90
        0
 91
        1
 62
     0
 92
       -2
340
0
 93
        0
 40
0.045
309
GRIDFORMAT_END
 95
        2
302
GRIDFORMAT
  1
GRIDFORMAT_BEGIN
 90
        0
 91
        1
 62
     0
 92
       -2
340
0
 93
        0
 40
0.045
309
GRIDFORMAT_END
 95
        4
302
GRIDFORMAT
  1
GRIDFORMAT_BEGIN
 90
        0
 91
        1
 62
     0
 92
       -2
340
0
 93
        0
 40
0.045
309
GRIDFORMAT_END
 95
        8
302
GRIDFORMAT
  1
GRIDFORMAT_BEGIN
 90
        0
 91
        1
 62
     0
 92
       -2
340
0
 93
        0
 40
0.045
309
GRIDFORMAT_END
 95
       16
302
GRIDFORMAT
  1
GRIDFORMAT_BEGIN
 90
        0
 91
        1
 62
     0
 92
       -2
340
0
 93
        0
 40
0.045
309
GRIDFORMAT_END
 95
       32
302
GRIDFORMAT
  1
GRIDFORMAT_BEGIN
 90
        0
 91
        1
 62
     0
 92
       -2
340
0
 93
        0
 40
0.045
309
GRIDFORMAT_END
309
TABLEFORMAT_END
  1
CELLSTYLE_BEGIN
 90
        3
 91
        2
300
_DATA
309
CELLSTYLE_END
  0
ENDSEC
  0
EOF
