  0
SECTION
  2
HEADER
  9
$ACADVER
  1
AC1021
  9
$ACADMAINTVER
 70
    26
  9
$DWGCODEPAGE
  3
ANSI_932
  9
$LASTSAVEDBY
  1
Htm_Terada
  9
$CUSTOMPROPERTYTAG
  1
AmdtFileType
  9
$CUSTOMPROPERTY
  1
84
  9
$INSBASE
 10
0.0
 20
0.0
 30
0.0
  9
$EXTMIN
 10
287.5158319340031
 20
409.9855161252689
 30
0.0
  9
$EXTMAX
 10
831.641325731565
 20
646.7866771987991
 30
0.0
  9
$LIMMIN
 10
0.0000004785846386
 20
0.0000009234551612
  9
$LIMMAX
 10
1050.000000478584
 20
742.5000009234552
  9
$ORTHOMODE
 70
     0
  9
$REGENMODE
 70
     1
  9
$FILLMODE
 70
     1
  9
$QTEXTMODE
 70
     0
  9
$MIRRTEXT
 70
     1
  9
$LTSCALE
 40
2.5
  9
$ATTMODE
 70
     1
  9
$TEXTSIZE
 40
25.0
  9
$TRACEWID
 40
1.0
  9
$TEXTSTYLE
  7
SEISA
  9
$CLAYER
  8
AM_0 外形線1
  9
$CELTYPE
  6
ByLayer
  9
$CECOLOR
 62
   256
  9
$CELTSCALE
 40
1.0
  9
$DISPSILH
 70
     0
  9
$DIMSCALE
 40
2.5
  9
$DIMASZ
 40
2.5
  9
$DIMEXO
 40
0.625
  9
$DIMDLI
 40
10.0
  9
$DIMRND
 40
0.0
  9
$DIMDLE
 40
0.0
  9
$DIMEXE
 40
0.625
  9
$DIMTP
 40
0.1
  9
$DIMTM
 40
0.1
  9
$DIMTXT
 40
3.5
  9
$DIMCEN
 40
0.0
  9
$DIMTSZ
 40
0.0
  9
$DIMTOL
 70
     0
  9
$DIMLIM
 70
     0
  9
$DIMTIH
 70
     0
  9
$DIMTOH
 70
     0
  9
$DIMSE1
 70
     0
  9
$DIMSE2
 70
     0
  9
$DIMTAD
 70
     3
  9
$DIMZIN
 70
     8
  9
$DIMBLK
  1
Open30
  9
$DIMASO
 70
     1
  9
$DIMSHO
 70
     1
  9
$DIMPOST
  1

  9
$DIMAPOST
  1
"
  9
$DIMALT
 70
     0
  9
$DIMALTD
 70
     2
  9
$DIMALTF
 40
0.0393701
  9
$DIMLFAC
 40
1.0
  9
$DIMTOFL
 70
     1
  9
$DIMTVP
 40
0.0
  9
$DIMTIX
 70
     0
  9
$DIMSOXD
 70
     0
  9
$DIMSAH
 70
     0
  9
$DIMBLK1
  1

  9
$DIMBLK2
  1

  9
$DIMSTYLE
  2
SEISA
  9
$DIMCLRD
 70
     3
  9
$DIMCLRE
 70
     3
  9
$DIMCLRT
 70
     3
  9
$DIMTFAC
 40
0.71
  9
$DIMGAP
 40
1.5
  9
$DIMJUST
 70
     0
  9
$DIMSD1
 70
     0
  9
$DIMSD2
 70
     0
  9
$DIMTOLJ
 70
     0
  9
$DIMTZIN
 70
     0
  9
$DIMALTZ
 70
     0
  9
$DIMALTTZ
 70
     8
  9
$DIMUPT
 70
     0
  9
$DIMDEC
 70
     2
  9
$DIMTDEC
 70
     2
  9
$DIMALTU
 70
     2
  9
$DIMALTTD
 70
     2
  9
$DIMTXSTY
  7
SEISA
  9
$DIMAUNIT
 70
     0
  9
$DIMADEC
 70
     0
  9
$DIMALTRND
 40
0.0
  9
$DIMAZIN
 70
     2
  9
$DIMDSEP
 70
    46
  9
$DIMATFIT
 70
     3
  9
$DIMFRAC
 70
     0
  9
$DIMLDRBLK
  1
Open30
  9
$DIMLUNIT
 70
     2
  9
$DIMLWD
 70
    -1
  9
$DIMLWE
 70
    -1
  9
$DIMTMOVE
 70
     0
  9
$DIMFXL
 40
1.0
  9
$DIMFXLON
 70
     0
  9
$DIMJOGANG
 40
0.7853981633974483
  9
$DIMTFILL
 70
     0
  9
$DIMTFILLCLR
 70
     0
  9
$DIMARCSYM
 70
     1
  9
$DIMLTYPE
  6

  9
$DIMLTEX1
  6

  9
$DIMLTEX2
  6

  9
$LUNITS
 70
     2
  9
$LUPREC
 70
     2
  9
$SKETCHINC
 40
1.0
  9
$FILLETRAD
 40
0.4
  9
$AUNITS
 70
     0
  9
$AUPREC
 70
     0
  9
$MENU
  1
.
  9
$ELEVATION
 40
0.0
  9
$PELEVATION
 40
0.0
  9
$THICKNESS
 40
0.0
  9
$LIMCHECK
 70
     0
  9
$CHAMFERA
 40
0.9999999999998864
  9
$CHAMFERB
 40
0.9999999999998292
  9
$CHAMFERC
 40
0.9999999999998864
  9
$CHAMFERD
 40
0.7853981633974483
  9
$SKPOLY
 70
     0
  9
$TDCREATE
 40
2454961.615987754
  9
$TDUCREATE
 40
2454961.240987755
  9
$TDUPDATE
 40
2456479.581117801
  9
$TDUUPDATE
 40
2456479.206117801
  9
$TDINDWG
 40
0.3310238657
  9
$TDUSRTIMER
 40
0.3310231481
  9
$USRTIMER
 70
     1
  9
$ANGBASE
 50
0.0
  9
$ANGDIR
 70
     0
  9
$PDMODE
 70
     0
  9
$PDSIZE
 40
0.0
  9
$PLINEWID
 40
0.0
  9
$SPLFRAME
 70
     0
  9
$SPLINETYPE
 70
     6
  9
$SPLINESEGS
 70
     8
  9
$HANDSEED
  5
F74A
  9
$SURFTAB1
 70
     6
  9
$SURFTAB2
 70
     6
  9
$SURFTYPE
 70
     6
  9
$SURFU
 70
     6
  9
$SURFV
 70
     6
  9
$UCSBASE
  2

  9
$UCSNAME
  2

  9
$UCSORG
 10
0.0
 20
0.0
 30
0.0
  9
$UCSXDIR
 10
1.0
 20
0.0
 30
0.0
  9
$UCSYDIR
 10
0.0
 20
1.0
 30
0.0
  9
$UCSORTHOREF
  2

  9
$UCSORTHOVIEW
 70
     0
  9
$UCSORGTOP
 10
0.0
 20
0.0
 30
0.0
  9
$UCSORGBOTTOM
 10
0.0
 20
0.0
 30
0.0
  9
$UCSORGLEFT
 10
0.0
 20
0.0
 30
0.0
  9
$UCSORGRIGHT
 10
0.0
 20
0.0
 30
0.0
  9
$UCSORGFRONT
 10
0.0
 20
0.0
 30
0.0
  9
$UCSORGBACK
 10
0.0
 20
0.0
 30
0.0
  9
$PUCSBASE
  2

  9
$PUCSNAME
  2

  9
$PUCSORG
 10
0.0
 20
0.0
 30
0.0
  9
$PUCSXDIR
 10
1.0
 20
0.0
 30
0.0
  9
$PUCSYDIR
 10
0.0
 20
1.0
 30
0.0
  9
$PUCSORTHOREF
  2

  9
$PUCSORTHOVIEW
 70
     0
  9
$PUCSORGTOP
 10
0.0
 20
0.0
 30
0.0
  9
$PUCSORGBOTTOM
 10
0.0
 20
0.0
 30
0.0
  9
$PUCSORGLEFT
 10
0.0
 20
0.0
 30
0.0
  9
$PUCSORGRIGHT
 10
0.0
 20
0.0
 30
0.0
  9
$PUCSORGFRONT
 10
0.0
 20
0.0
 30
0.0
  9
$PUCSORGBACK
 10
0.0
 20
0.0
 30
0.0
  9
$USERI1
 70
     0
  9
$USERI2
 70
     0
  9
$USERI3
 70
     0
  9
$USERI4
 70
     0
  9
$USERI5
 70
     0
  9
$USERR1
 40
0.0
  9
$USERR2
 40
0.0
  9
$USERR3
 40
0.0
  9
$USERR4
 40
0.0
  9
$USERR5
 40
0.0
  9
$WORLDVIEW
 70
     1
  9
$SHADEDGE
 70
     3
  9
$SHADEDIF
 70
    70
  9
$TILEMODE
 70
     1
  9
$MAXACTVP
 70
    64
  9
$PINSBASE
 10
0.0
 20
0.0
 30
0.0
  9
$PLIMCHECK
 70
     0
  9
$PEXTMIN
 10
1.000000000000000E+20
 20
1.000000000000000E+20
 30
1.000000000000000E+20
  9
$PEXTMAX
 10
-1.000000000000000E+20
 20
-1.000000000000000E+20
 30
-1.000000000000000E+20
  9
$PLIMMIN
 10
0.0
 20
0.0
  9
$PLIMMAX
 10
420.0
 20
297.0
  9
$UNITMODE
 70
     0
  9
$VISRETAIN
 70
     1
  9
$PLINEGEN
 70
     0
  9
$PSLTSCALE
 70
     1
  9
$TREEDEPTH
 70
  3020
  9
$CMLSTYLE
  2
Standard
  9
$CMLJUST
 70
     0
  9
$CMLSCALE
 40
20.0
  9
$PROXYGRAPHICS
 70
     1
  9
$MEASUREMENT
 70
     1
  9
$CELWEIGHT
370
    -1
  9
$ENDCAPS
280
     0
  9
$JOINSTYLE
280
     0
  9
$LWDISPLAY
290
     0
  9
$INSUNITS
 70
     4
  9
$HYPERLINKBASE
  1

  9
$STYLESHEET
  1
SEISA.CTB
  9
$XEDIT
290
     1
  9
$CEPSNTYPE
380
     0
  9
$PSTYLEMODE
290
     1
  9
$FINGERPRINTGUID
  2
{A849206F-30CA-424E-B366-1AA5AF96E5F1}
  9
$VERSIONGUID
  2
{3896C493-382C-431F-B45B-C9A6A81FD3BB}
  9
$EXTNAMES
290
     1
  9
$PSVPSCALE
 40
0.0
  9
$OLESTARTUP
290
     0
  9
$SORTENTS
280
   127
  9
$INDEXCTL
280
     0
  9
$HIDETEXT
280
     0
  9
$XCLIPFRAME
290
     0
  9
$HALOGAP
280
     0
  9
$OBSCOLOR
 70
   257
  9
$OBSLTYPE
280
     0
  9
$INTERSECTIONDISPLAY
280
     0
  9
$INTERSECTIONCOLOR
 70
   257
  9
$DIMASSOC
280
     2
  9
$PROJECTNAME
  1

  9
$CAMERADISPLAY
290
     0
  9
$LENSLENGTH
 40
50.0
  9
$CAMERAHEIGHT
 40
0.0
  9
$STEPSPERSEC
 40
2.0
  9
$STEPSIZE
 40
6.0
  9
$3DDWFPREC
 40
2.0
  9
$PSOLWIDTH
 40
0.25
  9
$PSOLHEIGHT
 40
4.0
  9
$LOFTANG1
 40
1.570796326794896
  9
$LOFTANG2
 40
1.570796326794896
  9
$LOFTMAG1
 40
0.0
  9
$LOFTMAG2
 40
0.0
  9
$LOFTPARAM
 70
     7
  9
$LOFTNORMALS
280
     1
  9
$LATITUDE
 40
37.795
  9
$LONGITUDE
 40
-122.394
  9
$NORTHDIRECTION
 40
0.0
  9
$TIMEZONE
 70
 -8000
  9
$LIGHTGLYPHDISPLAY
280
     1
  9
$TILEMODELIGHTSYNCH
280
     1
  9
$CMATERIAL
347
27C
  9
$SOLIDHIST
280
     1
  9
$SHOWHIST
280
     1
  9
$DWFFRAME
280
     2
  9
$DGNFRAME
280
     0
  9
$REALWORLDSCALE
290
     1
  9
$INTERFERECOLOR
 62
     1
  9
$INTERFEREOBJVS
345
289
  9
$INTERFEREVPVS
346
286
  9
$CSHADOW
280
     0
  9
$SHADOWPLANELOCATION
 40
0.0
  0
ENDSEC
  0
SECTION
  2
CLASSES
  0
CLASS
  1
ACDBDICTIONARYWDFLT
  2
AcDbDictionaryWithDefault
  3
ObjectDBX Classes
 90
        0
 91
        1
280
     0
281
     0
  0
CLASS
  1
AMGSETTINGSOBJ
  2
AmgSettingsObj
  3
"AcadM|Product Description: AutoCAD Mechanical|Company: Autodesk, Inc."
 90
     1024
 91
        2
280
     0
281
     0
  0
CLASS
  1
ACME_DOCUMENT
  2
AcMeDbDoc
  3
AcMeServices
 90
     1024
 91
        1
280
     0
281
     0
  0
CLASS
  1
ACMESCOPE
  2
AcMeScope
  3
AcMeServices
 90
     1024
 91
        1
280
     0
281
     0
  0
CLASS
  1
ACMECOMMANDHISTORY
  2
AcMeCommandHistory
  3
AcMeServices
 90
     1024
 91
        1
280
     0
281
     0
  0
CLASS
  1
DICTIONARYVAR
  2
AcDbDictionaryVar
  3
ObjectDBX Classes
 90
        0
 91
        9
280
     0
281
     0
  0
CLASS
  1
ACIMSYSVARMAN
  2
AcImSysVarManager
  3
AcMeServices
 90
     1024
 91
        5
280
     0
281
     0
  0
CLASS
  1
ACIMREALSYSVAR
  2
AcImRealSysVar
  3
AcMeServices
 90
     1024
 91
        1
280
     0
281
     0
  0
CLASS
  1
ACIMINTSYSVAR
  2
AcImIntSysVar
  3
AcMeServices
 90
     1024
 91
       27
280
     0
281
     0
  0
CLASS
  1
ACMEDRAWINGMAN
  2
AcMeDrawingMan
  3
AcMeServices
 90
     1024
 91
        1
280
     0
281
     0
  0
CLASS
  1
ACMEVIEW
  2
AcMeView
  3
AcMeServices
 90
     1024
 91
        1
280
     0
281
     0
  0
CLASS
  1
ACDBENTITYCACHE
  2
AcMeEntityCache
  3
AcMeServices
 90
     1024
 91
        1
280
     0
281
     0
  0
CLASS
  1
GSMANAGER
  2
AcMeGSManager
  3
AcMeServices
 90
     1024
 91
        1
280
     0
281
     0
  0
CLASS
  1
AMDTINTERNALREACTOR
  2
AmdtInternalReactor
  3
AcMeServices
 90
     1024
 91
        2
280
     0
281
     0
  0
CLASS
  1
ACMESTATEMGR
  2
AcMeStateMgr
  3
AcMeServices
 90
     1024
 91
        1
280
     0
281
     0
  0
CLASS
  1
ACGREFMASTER
  2
AcGrefMaster
  3
AcAttribServices
 90
     1024
 91
        1
280
     0
281
     0
  0
CLASS
  1
ACME_DATABASE
  2
AcMeDbDatabase
  3
AcMeServices
 90
     1024
 91
        1
280
     0
281
     0
  0
CLASS
  1
ACRFINSADJUSTERMGR
  2
AcRfInsAdjusterMgr
  3
AcMeServices
 90
     1024
 91
        1
280
     0
281
     0
  0
CLASS
  1
ACGREFACADMASTER
  2
AcGrefacadMaster
  3
AcGrefServices
 90
     1024
 91
        1
280
     0
281
     0
  0
CLASS
  1
AMIMASTER
  2
AmiMaster
  3
AmiServices
 90
     1024
 91
        1
280
     0
281
     0
  0
CLASS
  1
ACIMSTRSYSVAR
  2
AcImStrSysVar
  3
AcMeServices
 90
     1024
 91
        5
280
     0
281
     0
  0
CLASS
  1
ACMSTANDARDJIS
  2
AcmStandardJIS
  3
"Amdt_StdImp|Product Description: AutoCAD Mechanical|Company: Autodesk, Inc."
 90
     1024
 91
        0
280
     0
281
     0
  0
CLASS
  1
AMGOBJPROPCFG
  2
AmgObjPropCfg
  3
"AmgLay|Product Description: AutoCAD Mechanical|Company: Autodesk, Inc."
 90
     1025
 91
        1
280
     0
281
     0
  0
CLASS
  1
ACMSURFSTANDARDJIS
  2
AcmSurfTextStdJIS
  3
"Amdt_StdImp|Product Description: AutoCAD Mechanical|Company: Autodesk, Inc."
 90
     1024
 91
        0
280
     0
281
     0
  0
CLASS
  1
ACMFCFSTANDARDJIS
  2
AcmFCFStdJIS
  3
"Amdt_StdImp|Product Description: AutoCAD Mechanical|Company: Autodesk, Inc."
 90
     1024
 91
        0
280
     0
281
     0
  0
CLASS
  1
ACMWELDSTANDARDJIS
  2
AcmWeldingStdJIS
  3
"Amdt_StdImp|Product Description: AutoCAD Mechanical|Company: Autodesk, Inc."
 90
     1024
 91
        0
280
     0
281
     0
  0
CLASS
  1
ACMIDSTANDARDJIS
  2
AcmIdStdJIS
  3
"Amdt_StdImp|Product Description: AutoCAD Mechanical|Company: Autodesk, Inc."
 90
     1024
 91
        0
280
     0
281
     0
  0
CLASS
  1
ACMDATUMSTANDARDJIS
  2
AcmDatumStdJIS
  3
"Amdt_StdImp|Product Description: AutoCAD Mechanical|Company: Autodesk, Inc."
 90
     1024
 91
        0
280
     0
281
     0
  0
CLASS
  1
ACMBOMSTANDARDJIS
  2
AcmBOMStdJIS
  3
"Amdt_StdImp|Product Description: AutoCAD Mechanical|Company: Autodesk, Inc."
 90
     1024
 91
        0
280
     0
281
     0
  0
CLASS
  1
ACMDETAILSTANDARDJIS
  2
AmdtDetailSymStdJIS
  3
"Amdt_StdImp|Product Description: AutoCAD Mechanical|Company: Autodesk, Inc."
 90
     1024
 91
        0
280
     0
281
     0
  0
CLASS
  1
ACMSECTIONSTANDARDJIS
  2
AmdtSectionSymStdJIS
  3
"Amdt_StdImp|Product Description: AutoCAD Mechanical|Company: Autodesk, Inc."
 90
     1024
 91
        0
280
     0
281
     0
  0
CLASS
  1
ACMCENTERLINESTANDARDJIS
  2
AmdtCenterLineStdJIS
  3
"Amdt_StdImp|Product Description: AutoCAD Mechanical|Company: Autodesk, Inc."
 90
     1024
 91
        0
280
     0
281
     0
  0
CLASS
  1
ACMTHREADLINESTANDARDJIS
  2
AmdtThreadLineStdJIS
  3
"Amdt_StdImp|Product Description: AutoCAD Mechanical|Company: Autodesk, Inc."
 90
     1024
 91
        0
280
     0
281
     0
  0
CLASS
  1
ACAMGLAYSTD
  2
AcAmgLayStd
  3
"AmgLay|Product Description: AutoCAD Mechanical|Company: Autodesk, Inc."
 90
     1024
 91
        1
280
     0
281
     0
  0
CLASS
  1
ACAMGDIMSTD
  2
AcAmgDimStd
  3
"AmgDim|Product Description: AutoCAD Mechanical|Company: Autodesk, Inc."
 90
     1024
 91
        1
280
     0
281
     0
  0
CLASS
  1
ACAMGTITLESTD
  2
AcAmgTitleStd
  3
"AmgTitle|Product Description: AutoCAD Mechanical|Company: Autodesk, Inc."
 90
     4095
 91
        1
280
     0
281
     0
  0
CLASS
  1
ACMDATADICTIONARY
  2
AcmDataDictionary
  3
"AcmSymBB|Product Description: AutoCAD Mechanical|Company: Autodesk, Inc."
 90
     1024
 91
        1
280
     0
281
     0
  0
CLASS
  1
ACMDATAENTRYBLOCK
  2
AcmDataEntryBlock
  3
AcmSymBB|Product Description: AutoCAD Mechanical|Company: Autodesk, Inc.
 90
     1024
 91
        0
280
     0
281
     0
  0
CLASS
  1
LAYER_INDEX
  2
AcDbLayerIndex
  3
ObjectDBX Classes
 90
        0
 91
        0
280
     0
281
     0
  0
CLASS
  1
IDBUFFER
  2
AcDbIdBuffer
  3
ObjectDBX Classes
 90
        0
 91
        0
280
     0
281
     0
  0
CLASS
  1
ACMNOTESTANDARDJIS
  2
AmdtNoteStdJIS
  3
"Amdt_StdImp|Product Description: AutoCAD Mechanical|Company: Autodesk, Inc."
 90
     1024
 91
        0
280
     0
281
     0
  0
CLASS
  1
ACAMGHOLECHARTSTDJIS
  2
AcAmgHoleChartStdJIS
  3
AmgDim|Product Description: AutoCAD Mechanical|Company: Autodesk, Inc.
 90
     1024
 91
        0
280
     0
281
     0
  0
CLASS
  1
AM_DRAWING_MGR
  2
AcDmDwgMgr
  3
AcMechDwgViewMgmt
 90
     1024
 91
        1
280
     0
281
     0
  0
CLASS
  1
AM_DWG_DOCUMENT
  2
AcDmDwgDocument
  3
AcMechDwgViewMgmt
 90
     1024
 91
        1
280
     0
281
     0
  0
CLASS
  1
AM_DWG_SHEET
  2
AcDmSheet
  3
AcMechDwgViewMgmt
 90
     1024
 91
        2
280
     0
281
     0
  0
CLASS
  1
AM_VIEWDIMPARMAP
  2
AcDmViewDimParMap
  3
AcMechDwgViewMgmt
 90
     1024
 91
        2
280
     0
281
     0
  0
CLASS
  1
AM_DWGMGR_NAME
  2
AcDmDwgMgrName
  3
AcMechDwgViewMgmt
 90
     1024
 91
        1
280
     0
281
     0
  0
CLASS
  1
AMDTMENUSTATEMGR
  2
AmdtMenuStateMgr
  3
McadcomServices
 90
     1024
 91
        1
280
     0
281
     0
  0
CLASS
  1
AMDTMCOMMENUSTATE
  2
AmdtMcomMenuState
  3
McadcomServices
 90
     1024
 91
        1
280
     0
281
     0
  0
CLASS
  1
MAPIAMMOUDLE
  2
MApiAmModule
  3
MApiAmServices
 90
     1024
 91
        1
280
     0
281
     0
  0
CLASS
  1
AMDTADMENUSTATE
  2
AmdtAdMenuState
  3
DesignerServices
 90
     1024
 91
        1
280
     0
281
     0
  0
CLASS
  1
ADAPPL
  2
AcAdAppl
  3
DesignerServices
 90
     1024
 91
        1
280
     0
281
     0
  0
CLASS
  1
DEPMGR
  2
AcAdDepMgr
  3
DesignerServices
 90
     1024
 91
        1
280
     0
281
     0
  0
CLASS
  1
PARAMMGR
  2
AcAdParamMgr
  3
DesignerServices
 90
     1024
 91
        1
280
     0
281
     0
  0
CLASS
  1
PARAMSCOPE
  2
AcAdParamScope
  3
DesignerServices
 90
     1024
 91
        1
280
     0
281
     0
  0
CLASS
  1
NAMEDAPPL
  2
AcAdNamedAppl
  3
DesignerServices
 90
     1024
 91
        1
280
     0
281
     0
  0
CLASS
  1
AMDTDMMENUSTATE
  2
AmdtDmMenuState
  3
AcMechDwgViewMgmt
 90
     1024
 91
        1
280
     0
281
     0
  0
CLASS
  1
AMDTAMMENUSTATE
  2
AmdtAmMenuState
  3
DesignerAssemblies
 90
     1024
 91
        1
280
     0
281
     0
  0
CLASS
  1
ACAMPROJECT
  2
AcAmProject
  3
DesignerAssemblies
 90
     1024
 91
        1
280
     0
281
     0
  0
CLASS
  1
ACAMGRCOMPDEF
  2
AcAmGrCompDef
  3
DesignerAssemblies
 90
     1024
 91
        1
280
     0
281
     0
  0
CLASS
  1
ACCMCONTEXT
  2
AcCmContext
  3
DesignerAssemblies
 90
     1024
 91
        1
280
     0
281
     0
  0
CLASS
  1
ACAMCOMPDEF
  2
AcAmCompDef
  3
DesignerAssemblies
 90
     1024
 91
        1
280
     0
281
     0
  0
CLASS
  1
ACAMCOMPDEFMGR
  2
AcAmCompDefMgr
  3
DesignerAssemblies
 90
     1024
 91
        1
280
     0
281
     0
  0
CLASS
  1
AMCONTEXTMGR
  2
AcAmContextMgr
  3
DesignerAssemblies
 90
     1024
 91
        1
280
     0
281
     0
  0
CLASS
  1
ACAMCONTEXTMODELER
  2
AcAmContextModeler
  3
DesignerAssemblies
 90
     1024
 91
        1
280
     0
281
     0
  0
CLASS
  1
CATALOGSTATE
  2
AcAmCatalogState
  3
DesignerAssemblies
 90
     1024
 91
        1
280
     0
281
     0
  0
CLASS
  1
ACAMGRCOMPDEFSET
  2
AcAmGrCompDefSet
  3
DesignerAssemblies
 90
     1024
 91
        1
280
     0
281
     0
  0
CLASS
  1
AMDTBROWSERDBTAB
  2
AmdtBrowserDbTab
  3
McadcomServices
 90
     1024
 91
        1
280
     0
281
     0
  0
CLASS
  1
CBROWSERAPPOBJECT
  2
CBrowserAppObject
  3
McadcomServices
 90
     1024
 91
        3
280
     0
281
     0
  0
CLASS
  1
DM_PLACEHOLDER
  2
AcDmSelsetPlaceholder
  3
AcMechDwgViewMgmt
 90
     1024
 91
        1
280
     0
281
     0
  0
CLASS
  1
TABLESTYLE
  2
AcDbTableStyle
  3
ObjectDBX Classes
 90
     4095
 91
        1
280
     0
281
     0
  0
CLASS
  1
VAACXREFPANELOBJECT
  2
VaAcXREFPanelObject
  3
VAAC_ADDIN
 90
        0
 91
        0
280
     0
281
     0
  0
CLASS
  1
VAACIMAGEINVENTORY
  2
VaAcImageInventory
  3
VAAC_ADDIN
 90
        0
 91
        0
280
     0
281
     0
  0
CLASS
  1
AMDTNOTETEMPLATEDB
  2
AmdtNoteTemplateDB
  3
AcmSymBB|Product Description: AutoCAD Mechanical|Company: Autodesk, Inc.
 90
     1024
 91
        6
280
     0
281
     0
  0
CLASS
  1
ACAMGFILTERDAT
  2
AcAmgFilterDat
  3
"AcadM|Product Description: AutoCAD Mechanical|Company: Autodesk, Inc."
 90
     1024
 91
        0
280
     0
281
     0
  0
CLASS
  1
MATERIAL
  2
AcDbMaterial
  3
ObjectDBX Classes
 90
     1153
 91
        3
280
     0
281
     0
  0
CLASS
  1
VISUALSTYLE
  2
AcDbVisualStyle
  3
ObjectDBX Classes
 90
     4095
 91
       16
280
     0
281
     0
  0
CLASS
  1
ACRFATTGENMGR
  2
AcRfAttGeneralMgr
  3
AcAttribServices
 90
     1024
 91
        0
280
     0
281
     0
  0
CLASS
  1
ACRFOBJATTMGR
  2
AcRfObjAttGroupMgr
  3
AcAttribServices
 90
     1024
 91
        0
280
     0
281
     0
  0
CLASS
  1
ACRFMCADAPIATTHOLDER
  2
AcRfMCADAPIAttHolder
  3
AcAttribServices
 90
     1024
 91
        0
280
     0
281
     0
  0
CLASS
  1
AMDTSYSATTR
  2
AmdtSystemAttribute
  3
AcAttribServices
 90
     1024
 91
        0
280
     0
281
     0
  0
CLASS
  1
ACMTAPERSTANDARDJIS
  2
AcmTaperStdJIS
  3
"Amdt_StdImp|Product Description: AutoCAD Mechanical|Company: Autodesk, Inc."
 90
     1024
 91
        0
280
     0
281
     0
  0
CLASS
  1
CAMSSTRUCTBTNSTATE
  2
StructBtnState
  3
DesignerAssemblies
 90
     1024
 91
        0
280
     0
281
     0
  0
CLASS
  1
SCALE
  2
AcDbScale
  3
ObjectDBX Classes
 90
     1153
 91
       35
280
     0
281
     0
  0
CLASS
  1
MLEADERSTYLE
  2
AcDbMLeaderStyle
  3
ACDB_MLEADERSTYLE_CLASS
 90
     4095
 91
        1
280
     0
281
     0
  0
CLASS
  1
ACMANOOTATIONVIEWSTANDARDJIS
  2
AmdtAnViewStdJIS
  3
"Amdt_StdImp|Product Description: AutoCAD Mechanical|Company: Autodesk, Inc."
 90
     1024
 91
        0
280
     0
281
     0
  0
CLASS
  1
ACMSURFSTANDARDJIS2003
  2
AcmSurfTextStdJIS2003
  3
"Amdt_StdImp|Product Description: AutoCAD Mechanical|Company: Autodesk, Inc."
 90
     1024
 91
        0
280
     0
281
     0
  0
CLASS
  1
CELLSTYLEMAP
  2
AcDbCellStyleMap
  3
ObjectDBX Classes
 90
     1152
 91
        2
280
     0
281
     0
  0
CLASS
  1
ACMFCFSTANDARDJIS98
  2
AcmFCFStdJIS98
  3
"Amdt_StdImp|Product Description: AutoCAD Mechanical|Company: Autodesk, Inc."
 90
     1024
 91
        0
280
     0
281
     0
  0
CLASS
  1
SORTENTSTABLE
  2
AcDbSortentsTable
  3
ObjectDBX Classes
 90
        0
 91
       13
280
     0
281
     0
  0
CLASS
  1
DIMASSOC
  2
AcDbDimAssoc
  3
"AcDbDimAssoc|Product Desc:     AcDim ARX App For Dimension|Company:          Autodesk, Inc.|WEB Address:      www.autodesk.com"
 90
        0
 91
       17
280
     0
281
     0
  0
CLASS
  1
STDPART2D
  2
AmgStdPart
  3
AmgStdPart|Product Description: AutoCAD Mechanical|Company: Autodesk, Inc.
 90
     4095
 91
        0
280
     0
281
     1
  0
CLASS
  1
ACMDATAENTRYPART
  2
AcmDataEntryPart
  3
AcmSymBB|Product Description: AutoCAD Mechanical|Company: Autodesk, Inc.
 90
     1024
 91
        0
280
     0
281
     0
  0
CLASS
  1
ACMPARTREF
  2
AcmPartRef
  3
"AcmSymBB|Product Description: AutoCAD Mechanical|Company: Autodesk, Inc."
 90
     4095
 91
        0
280
     0
281
     1
  0
CLASS
  1
ACDBSTDPARTRES_LINE
  2
AcDbStdPartRes_Line
  3
AmgStdPart|Product Description: AutoCAD Mechanical|Company: Autodesk, Inc.
 90
     1024
 91
        0
280
     0
281
     0
  0
CLASS
  1
ACMBOM
  2
AcmBom
  3
"AcmSymBB|Product Description: AutoCAD Mechanical|Company: Autodesk, Inc."
 90
     1024
 91
        0
280
     0
281
     0
  0
CLASS
  1
AMDTFORMULAUPDATEDISPATCHER
  2
AmdtFormulaUpdateDispatcher
  3
AcMeServices
 90
     1024
 91
        0
280
     0
281
     0
  0
CLASS
  1
ACMBOMROW
  2
AcmBomRow
  3
"AcmSymBB|Product Description: AutoCAD Mechanical|Company: Autodesk, Inc."
 90
     1024
 91
        0
280
     0
281
     0
  0
CLASS
  1
ACMPARTLIST
  2
AcmPartList
  3
"AcmSymBB|Product Description: AutoCAD Mechanical|Company: Autodesk, Inc."
 90
     4095
 91
        0
280
     0
281
     1
  0
CLASS
  1
ACDBLINERES
  2
AcDbLineRes
  3
AcGrefServices
 90
     1024
 91
        0
280
     0
281
     0
  0
CLASS
  1
ACRFINSADJ
  2
AcRfInsAdjuster
  3
AcMeServices
 90
     1024
 91
        0
280
     0
281
     0
  0
CLASS
  1
ACMSTANDARDISO
  2
AcmStandardISO
  3
"Amdt_StdImp|Product Description: AutoCAD Mechanical|Company: Autodesk, Inc."
 90
     1024
 91
        1
280
     0
281
     0
  0
CLASS
  1
AMDTEDGESTANDARDISO13715
  2
AmdtEdgeStdISO13715
  3
"Amdt_StdImp|Product Description: AutoCAD Mechanical|Company: Autodesk, Inc."
 90
     1024
 91
        1
280
     0
281
     0
  0
CLASS
  1
ACMSURFSTANDARDISO2002
  2
AcmSurfTextStdISO2002
  3
"Amdt_StdImp|Product Description: AutoCAD Mechanical|Company: Autodesk, Inc."
 90
     1024
 91
        1
280
     0
281
     0
  0
CLASS
  1
ACMFCFSTANDARDISO
  2
AcmFCFStdISO
  3
"Amdt_StdImp|Product Description: AutoCAD Mechanical|Company: Autodesk, Inc."
 90
     1024
 91
        1
280
     0
281
     0
  0
CLASS
  1
ACMWELDSTANDARDISO
  2
AcmWeldingStdISO
  3
"Amdt_StdImp|Product Description: AutoCAD Mechanical|Company: Autodesk, Inc."
 90
     1024
 91
        1
280
     0
281
     0
  0
CLASS
  1
ACMIDSTANDARDISO
  2
AcmIdStdISO
  3
"Amdt_StdImp|Product Description: AutoCAD Mechanical|Company: Autodesk, Inc."
 90
     1024
 91
        1
280
     0
281
     0
  0
CLASS
  1
ACMDATUMSTANDARDISO
  2
AcmDatumStdISO
  3
"Amdt_StdImp|Product Description: AutoCAD Mechanical|Company: Autodesk, Inc."
 90
     1024
 91
        1
280
     0
281
     0
  0
CLASS
  1
ACMBOMSTANDARDISO
  2
AcmBOMStdISO
  3
"Amdt_StdImp|Product Description: AutoCAD Mechanical|Company: Autodesk, Inc."
 90
     1024
 91
        1
280
     0
281
     0
  0
CLASS
  1
ACMDETAILSTANDARDISO
  2
AmdtDetailSymStdISO
  3
"Amdt_StdImp|Product Description: AutoCAD Mechanical|Company: Autodesk, Inc."
 90
     1024
 91
        1
280
     0
281
     0
  0
CLASS
  1
ACMSECTIONSTANDARDISO2001
  2
AmdtSectionSymStdISO2001
  3
"Amdt_StdImp|Product Description: AutoCAD Mechanical|Company: Autodesk, Inc."
 90
     1024
 91
        1
280
     0
281
     0
  0
CLASS
  1
ACMCENTERLINESTANDARDISO
  2
AmdtCenterLineStdISO
  3
"Amdt_StdImp|Product Description: AutoCAD Mechanical|Company: Autodesk, Inc."
 90
     1024
 91
        1
280
     0
281
     0
  0
CLASS
  1
ACMTHREADLINESTANDARDISO
  2
AmdtThreadLineStdISO
  3
"Amdt_StdImp|Product Description: AutoCAD Mechanical|Company: Autodesk, Inc."
 90
     1024
 91
        1
280
     0
281
     0
  0
CLASS
  1
ACMNOTESTANDARDISO
  2
AmdtNoteStdISO
  3
"Amdt_StdImp|Product Description: AutoCAD Mechanical|Company: Autodesk, Inc."
 90
     1024
 91
        1
280
     0
281
     0
  0
CLASS
  1
ACMTAPERSTANDARDISO
  2
AcmTaperStdISO
  3
"Amdt_StdImp|Product Description: AutoCAD Mechanical|Company: Autodesk, Inc."
 90
     1024
 91
        1
280
     0
281
     0
  0
CLASS
  1
ACMANOOTATIONVIEWSTANDARDISO
  2
AmdtAnViewStdISO
  3
"Amdt_StdImp|Product Description: AutoCAD Mechanical|Company: Autodesk, Inc."
 90
     1024
 91
        1
280
     0
281
     0
  0
CLASS
  1
ACAMGHOLECHARTSTDISO
  2
AcAmgHoleChartStdISO
  3
AmgDim|Product Description: AutoCAD Mechanical|Company: Autodesk, Inc.
 90
     1024
 91
        1
280
     0
281
     0
  0
CLASS
  1
EXACXREFPANELOBJECT
  2
ExAcXREFPanelObject
  3
EXAC_ESW
 90
     1025
 91
        0
280
     0
281
     0
  0
CLASS
  1
NPOCOLLECTION
  2
AcDbImpNonPersistentObjectsCollection
  3
ObjectDBX Classes
 90
     1153
 91
        0
280
     0
281
     0
  0
CLASS
  1
ACDBSTDPARTRES_ARC
  2
AcDbStdPartRes_Arc
  3
AmgStdPart|Product Description: AutoCAD Mechanical|Company: Autodesk, Inc.
 90
     1024
 91
        0
280
     0
281
     0
  0
CLASS
  1
AMDTNOTE
  2
AmdtNote
  3
"AcmSymBB|Product Description: AutoCAD Mechanical|Company: Autodesk, Inc."
 90
     4095
 91
        0
280
     0
281
     1
  0
CLASS
  1
PLOTSETTINGS
  2
AcDbPlotSettings
  3
ObjectDBX Classes
 90
        0
 91
        1
280
     0
281
     0
  0
CLASS
  1
ACMSTANDARDANSI
  2
AcmStandardANSI
  3
"Amdt_StdImp|Product Description: AutoCAD Mechanical|Company: Autodesk, Inc."
 90
     1024
 91
        0
280
     0
281
     0
  0
CLASS
  1
ACMSURFSTANDARDANSI
  2
AcmSurfTextStdANSI
  3
"Amdt_StdImp|Product Description: AutoCAD Mechanical|Company: Autodesk, Inc."
 90
     1024
 91
        0
280
     0
281
     0
  0
CLASS
  1
ACMFCFSTANDARDANSI
  2
AcmFCFStdANSI
  3
"Amdt_StdImp|Product Description: AutoCAD Mechanical|Company: Autodesk, Inc."
 90
     1024
 91
        0
280
     0
281
     0
  0
CLASS
  1
ACMWELDSTANDARDANSI
  2
AcmWeldingStdANSI
  3
"Amdt_StdImp|Product Description: AutoCAD Mechanical|Company: Autodesk, Inc."
 90
     1024
 91
        0
280
     0
281
     0
  0
CLASS
  1
ACMIDSTANDARDANSI
  2
AcmIdStdANSI
  3
"Amdt_StdImp|Product Description: AutoCAD Mechanical|Company: Autodesk, Inc."
 90
     1024
 91
        0
280
     0
281
     0
  0
CLASS
  1
ACMDATUMSTANDARDANSI
  2
AcmDatumStdANSI
  3
"Amdt_StdImp|Product Description: AutoCAD Mechanical|Company: Autodesk, Inc."
 90
     1024
 91
        0
280
     0
281
     0
  0
CLASS
  1
ACMBOMSTANDARDANSI
  2
AcmBOMStdANSI
  3
"Amdt_StdImp|Product Description: AutoCAD Mechanical|Company: Autodesk, Inc."
 90
     1024
 91
        0
280
     0
281
     0
  0
CLASS
  1
ACMDETAILSTANDARDANSI
  2
AmdtDetailSymStdANSI
  3
"Amdt_StdImp|Product Description: AutoCAD Mechanical|Company: Autodesk, Inc."
 90
     1024
 91
        0
280
     0
281
     0
  0
CLASS
  1
ACMSECTIONSTANDARDANSI
  2
AmdtSectionSymStdANSI
  3
"Amdt_StdImp|Product Description: AutoCAD Mechanical|Company: Autodesk, Inc."
 90
     1024
 91
        0
280
     0
281
     0
  0
CLASS
  1
ACMCENTERLINESTANDARDANSI
  2
AmdtCenterLineStdANSI
  3
"Amdt_StdImp|Product Description: AutoCAD Mechanical|Company: Autodesk, Inc."
 90
     1024
 91
        0
280
     0
281
     0
  0
CLASS
  1
ACMTHREADLINESTANDARDANSI
  2
AmdtThreadLineStdANSI
  3
"Amdt_StdImp|Product Description: AutoCAD Mechanical|Company: Autodesk, Inc."
 90
     1024
 91
        0
280
     0
281
     0
  0
CLASS
  1
ACMNOTESTANDARDANSI
  2
AmdtNoteStdANSI
  3
"Amdt_StdImp|Product Description: AutoCAD Mechanical|Company: Autodesk, Inc."
 90
     1024
 91
        0
280
     0
281
     0
  0
CLASS
  1
ACMTAPERSTANDARDANSI
  2
AcmTaperStdANSI
  3
"Amdt_StdImp|Product Description: AutoCAD Mechanical|Company: Autodesk, Inc."
 90
     1024
 91
        0
280
     0
281
     0
  0
CLASS
  1
ACMANOOTATIONVIEWSTANDARDANSI
  2
AmdtAnViewStdANSI
  3
"Amdt_StdImp|Product Description: AutoCAD Mechanical|Company: Autodesk, Inc."
 90
     1024
 91
        0
280
     0
281
     0
  0
CLASS
  1
ACAMGHOLECHARTSTDANSI
  2
AcAmgHoleChartStdANSI
  3
AmgDim|Product Description: AutoCAD Mechanical|Company: Autodesk, Inc.
 90
     1024
 91
        0
280
     0
281
     0
  0
CLASS
  1
ACMSTANDARDBSI
  2
AcmStandardBSI
  3
"Amdt_StdImp|Product Description: AutoCAD Mechanical|Company: Autodesk, Inc."
 90
     1024
 91
        0
280
     0
281
     0
  0
CLASS
  1
ACMSURFSTANDARDBSI2002
  2
AcmSurfTextStdBSI2002
  3
"Amdt_StdImp|Product Description: AutoCAD Mechanical|Company: Autodesk, Inc."
 90
     1024
 91
        0
280
     0
281
     0
  0
CLASS
  1
ACMFCFSTANDARDBSI
  2
AcmFCFStdBSI
  3
"Amdt_StdImp|Product Description: AutoCAD Mechanical|Company: Autodesk, Inc."
 90
     1024
 91
        0
280
     0
281
     0
  0
CLASS
  1
ACMWELDSTANDARDBSI
  2
AcmWeldingStdBSI
  3
"Amdt_StdImp|Product Description: AutoCAD Mechanical|Company: Autodesk, Inc."
 90
     1024
 91
        0
280
     0
281
     0
  0
CLASS
  1
ACMIDSTANDARDBSI
  2
AcmIdStdBSI
  3
"Amdt_StdImp|Product Description: AutoCAD Mechanical|Company: Autodesk, Inc."
 90
     1024
 91
        0
280
     0
281
     0
  0
CLASS
  1
ACMDATUMSTANDARDBSI
  2
AcmDatumStdBSI
  3
"Amdt_StdImp|Product Description: AutoCAD Mechanical|Company: Autodesk, Inc."
 90
     1024
 91
        0
280
     0
281
     0
  0
CLASS
  1
ACMBOMSTANDARDBSI
  2
AcmBOMStdBSI
  3
"Amdt_StdImp|Product Description: AutoCAD Mechanical|Company: Autodesk, Inc."
 90
     1024
 91
        0
280
     0
281
     0
  0
CLASS
  1
ACMDETAILSTANDARDBSI
  2
AmdtDetailSymStdBSI
  3
"Amdt_StdImp|Product Description: AutoCAD Mechanical|Company: Autodesk, Inc."
 90
     1024
 91
        0
280
     0
281
     0
  0
CLASS
  1
ACMSECTIONSTANDARDBSI2001
  2
AmdtSectionSymStdBSI2001
  3
"Amdt_StdImp|Product Description: AutoCAD Mechanical|Company: Autodesk, Inc."
 90
     1024
 91
        0
280
     0
281
     0
  0
CLASS
  1
ACMCENTERLINESTANDARDBSI
  2
AmdtCenterLineStdBSI
  3
"Amdt_StdImp|Product Description: AutoCAD Mechanical|Company: Autodesk, Inc."
 90
     1024
 91
        0
280
     0
281
     0
  0
CLASS
  1
ACMTHREADLINESTANDARDBSI
  2
AmdtThreadLineStdBSI
  3
"Amdt_StdImp|Product Description: AutoCAD Mechanical|Company: Autodesk, Inc."
 90
     1024
 91
        0
280
     0
281
     0
  0
CLASS
  1
ACMNOTESTANDARDBSI
  2
AmdtNoteStdBSI
  3
"Amdt_StdImp|Product Description: AutoCAD Mechanical|Company: Autodesk, Inc."
 90
     1024
 91
        0
280
     0
281
     0
  0
CLASS
  1
ACMTAPERSTANDARDBSI
  2
AcmTaperStdBSI
  3
"Amdt_StdImp|Product Description: AutoCAD Mechanical|Company: Autodesk, Inc."
 90
     1024
 91
        0
280
     0
281
     0
  0
CLASS
  1
ACMANOOTATIONVIEWSTANDARDBSI
  2
AmdtAnViewStdBSI
  3
"Amdt_StdImp|Product Description: AutoCAD Mechanical|Company: Autodesk, Inc."
 90
     1024
 91
        0
280
     0
281
     0
  0
CLASS
  1
ACAMGHOLECHARTSTDBSI
  2
AcAmgHoleChartStdBSI
  3
AmgDim|Product Description: AutoCAD Mechanical|Company: Autodesk, Inc.
 90
     1024
 91
        0
280
     0
281
     0
  0
CLASS
  1
AMDTEDGESTANDARDJIS
  2
AmdtEdgeStdJIS
  3
"Amdt_StdImp|Product Description: AutoCAD Mechanical|Company: Autodesk, Inc."
 90
     1024
 91
        0
280
     0
281
     0
  0
CLASS
  1
ACMSURFSYM
  2
AcmSurfaceTexture
  3
"AcmSymBB|Product Description: AutoCAD Mechanical|Company: Autodesk, Inc."
 90
     4095
 91
        0
280
     0
281
     1
  0
CLASS
  1
ACDBDIMENSIONRES
  2
AcDbDimensionRes
  3
AcmSymBB|Product Description: AutoCAD Mechanical|Company: Autodesk, Inc.
 90
     1024
 91
        0
280
     0
281
     0
  0
CLASS
  1
ACDBCIRCARCRES
  2
AcDbCircArcRes
  3
AcGrefServices
 90
     1024
 91
        0
280
     0
281
     0
  0
CLASS
  1
AMDTACMWBLOCKBOMENTITY
  2
AmdtAcmWblockBomEntity
  3
"AcmSymBB|Product Description: AutoCAD Mechanical|Company: Autodesk, Inc."
 90
     4095
 91
        0
280
     0
281
     1
  0
CLASS
  1
ACDBOPPOLYLINERES
  2
AcDbOpPolylineRes
  3
AcGrefServices
 90
     1024
 91
        0
280
     0
281
     0
  0
CLASS
  1
ACDB_BLKREFOBJECTCONTEXTDATA_CLASS
  2
AcDbBlkRefObjectContextData
  3
ObjectDBX Classes
 90
     1153
 91
        0
280
     0
281
     0
  0
CLASS
  1
ACMDIMBREAKPERSREACTOR
  2
AcmDimBreakPersReactor
  3
AmgDim|Product Description: AutoCAD Mechanical|Company: Autodesk, Inc.
 90
     4095
 91
        0
280
     0
281
     0
  0
CLASS
  1
ACMPICKOBJ
  2
AcmPickEnt
  3
"AcmSymBB|Product Description: AutoCAD Mechanical|Company: Autodesk, Inc."
 90
     1024
 91
        0
280
     0
281
     1
  0
CLASS
  1
ACMBALLOON
  2
AcmBalloon
  3
"AcmSymBB|Product Description: AutoCAD Mechanical|Company: Autodesk, Inc."
 90
     4095
 91
        0
280
     0
281
     1
  0
CLASS
  1
BREAKDATA
  2
AcDbBreakData
  3
ObjectDBX Classes
 90
     1024
 91
        0
280
     0
281
     0
  0
CLASS
  1
ACMDATUMID
  2
AcmDatumId
  3
"AcmSymBB|Product Description: AutoCAD Mechanical|Company: Autodesk, Inc."
 90
     4095
 91
        0
280
     0
281
     1
  0
CLASS
  1
ACMFCFRAME
  2
AcmFCF
  3
"AcmSymBB|Product Description: AutoCAD Mechanical|Company: Autodesk, Inc."
 90
     4095
 91
        0
280
     0
281
     1
  0
CLASS
  1
ACMWELDSYM
  2
AcmWelding
  3
"AcmSymBB|Product Description: AutoCAD Mechanical|Company: Autodesk, Inc."
 90
     4095
 91
        0
280
     0
281
     1
  0
ENDSEC
  0
SECTION
  2
TABLES
  0
TABLE
  2
VPORT
  5
8
330
0
100
AcDbSymbolTable
 70
     1
  0
VPORT
  5
27A
330
8
100
AcDbSymbolTableRecord
100
AcDbViewportTableRecord
  2
*Active
 70
     0
 10
0.0
 20
0.0
 11
1.0
 21
1.0
 12
562.410921484722
 22
528.3639363983597
 13
0.0
 23
0.0
 14
6.25
 24
6.25
 15
25.0
 25
25.0
 16
0.0
 26
0.0
 36
1.0
 17
0.0
 27
0.0
 37
0.0
 40
351.712853757564
 41
1.571428571428571
 42
50.0
 43
0.0
 44
0.0
 50
0.0
 51
0.0
 71
    16
 72
 20000
 73
     1
 74
     3
 75
     0
 76
     0
 77
     0
 78
     0
281
     0
 65
     0
110
0.0
120
0.0
130
0.0
111
1.0
121
0.0
131
0.0
112
0.0
122
1.0
132
0.0
 79
     0
146
0.0
348
285
 60
     3
 61
     5
292
     1
282
     0
141
0.0
142
0.0
 63
   250
421
  3355443
  0
ENDTAB
  0
TABLE
  2
LTYPE
  5
5
330
0
100
AcDbSymbolTable
 70
    22
  0
LTYPE
  5
14
330
5
100
AcDbSymbolTableRecord
100
AcDbLinetypeTableRecord
  2
ByBlock
 70
     0
  3

 72
    65
 73
     0
 40
0.0
  0
LTYPE
  5
15
330
5
100
AcDbSymbolTableRecord
100
AcDbLinetypeTableRecord
  2
ByLayer
 70
     0
  3

 72
    65
 73
     0
 40
0.0
  0
LTYPE
  5
16
330
5
100
AcDbSymbolTableRecord
100
AcDbLinetypeTableRecord
  2
Continuous
 70
     0
  3
Solid line
 72
    65
 73
     0
 40
0.0
  0
LTYPE
  5
4D
330
5
100
AcDbSymbolTableRecord
100
AcDbLinetypeTableRecord
  2
AM_ISO02W050
 70
     0
  3
__ __ __ __ __ __ __ __ __ __ __ __ __ __ __
 72
    65
 73
     2
 40
7.5
 49
6.0
 74
     0
 49
-1.5
 74
     0
  0
LTYPE
  5
4E
330
5
100
AcDbSymbolTableRecord
100
AcDbLinetypeTableRecord
  2
AM_ISO08W050
 70
     0
  3
____ . ____ . ____ . ____ . ____ . ____ . ____
 72
    65
 73
     4
 40
18.0
 49
12.0
 74
     0
 49
-1.5
 74
     0
 49
3.0
 74
     0
 49
-1.5
 74
     0
  0
LTYPE
  5
4F
330
5
100
AcDbSymbolTableRecord
100
AcDbLinetypeTableRecord
  2
AM_ISO09W050
 70
     0
  3
_____ . . _____ . . _____ . . ____ .. ____
 72
    65
 73
     6
 40
22.5
 49
12.0
 74
     0
 49
-1.5
 74
     0
 49
3.0
 74
     0
 49
-1.5
 74
     0
 49
3.0
 74
     0
 49
-1.5
 74
     0
  0
LTYPE
  5
50
330
5
100
AcDbSymbolTableRecord
100
AcDbLinetypeTableRecord
  2
Amconstr
 70
     0
  3
_______________________
 72
    65
 73
     2
 40
9999.0
 49
9999.0
 74
     0
 49
0.0
 74
     0
  0
LTYPE
  5
51
330
5
100
AcDbSymbolTableRecord
100
AcDbLinetypeTableRecord
  2
AM_ISO08W050x2
 70
     0
  3
__ . __ . __ . __ . __ . __
 72
    65
 73
     4
 40
9.0
 49
6.0
 74
     0
 49
-0.75
 74
     0
 49
1.5
 74
     0
 49
-0.75
 74
     0
  0
LTYPE
  5
52
330
5
100
AcDbSymbolTableRecord
100
AcDbLinetypeTableRecord
  2
AM_ISO02W050x2
 70
     0
  3
 _ _ _ _ _ _ _ _ _ _ _ _
 72
    65
 73
     2
 40
3.75
 49
3.0
 74
     0
 49
-0.75
 74
     0
  0
LTYPE
  5
55
330
5
100
AcDbSymbolTableRecord
100
AcDbLinetypeTableRecord
  2
Amzigzag
 70
     0
  3
/\/-/\/-/\/-/\/-/\/-/\/
 72
    65
 73
     2
 40
11.0001
 49
0.0001
 74
     4
 75
   136
340
23D
 46
0.04
 50
0.0
 44
0.0
 45
0.0
 49
-11.0
 74
     0
  0
LTYPE
  5
65
330
5
100
AcDbSymbolTableRecord
100
AcDbLinetypeTableRecord
  2
CENTER
 70
     0
  3
__ . __
 72
    65
 73
     4
 40
7.0
 49
4.0
 74
     0
 49
-1.0
 74
     0
 49
1.0
 74
     0
 49
-1.0
 74
     0
  0
LTYPE
  5
E0
330
5
100
AcDbSymbolTableRecord
100
AcDbLinetypeTableRecord
  2
HIDDEN
 70
     0
  3
Hidden __ __ __ __ __ __ __ __ __ __ __ __ __ _
 72
    65
 73
     2
 40
9.524999999999996
 49
6.349999999999998
 74
     0
 49
-3.174999999999998
 74
     0
  0
LTYPE
  5
E1
330
5
100
AcDbSymbolTableRecord
100
AcDbLinetypeTableRecord
  2
PHANTOM2
 70
     0
  3
Phantom (.5x) ___ _ _ ___ _ _ ___ _ _ ___ _ _
 72
    65
 73
     6
 40
31.75
 49
15.875
 74
     0
 49
-3.174999999999998
 74
     0
 49
3.174999999999998
 74
     0
 49
-3.174999999999998
 74
     0
 49
3.174999999999998
 74
     0
 49
-3.174999999999998
 74
     0
  0
LTYPE
  5
5A2
330
5
100
AcDbSymbolTableRecord
100
AcDbLinetypeTableRecord
  2
ACJISWELD
 70
     0
  3
_ _ _ _ _
 72
    65
 73
     2
 40
2.0
 49
2.0
 74
     0
 49
-1.0
 74
     0
  0
LTYPE
  5
F735
330
5
100
AcDbSymbolTableRecord
100
AcDbLinetypeTableRecord
  2
ACISOWELD
 70
     0
  3
_ _ _ _ _
 72
    65
 73
     2
 40
2.0
 49
2.0
 74
     0
 49
-1.0
 74
     0
  0
LTYPE
  5
F736
330
5
100
AcDbSymbolTableRecord
100
AcDbLinetypeTableRecord
  2
ACISOTGB
 70
     0
  3
__ . . __ . .
 72
    65
 73
     6
 40
9.0
 49
4.0
 74
     0
 49
-1.0
 74
     0
 49
1.0
 74
     0
 49
-1.0
 74
     0
 49
1.0
 74
     0
 49
-1.0
 74
     0
  0
LTYPE
  5
F737
330
5
100
AcDbSymbolTableRecord
100
AcDbLinetypeTableRecord
  2
ACISOTGL
 70
     0
  3
_ _ _ _ _
 72
    65
 73
     2
 40
3.0
 49
2.0
 74
     0
 49
-1.0
 74
     0
  0
ENDTAB
  0
TABLE
  2
LAYER
  5
2
102
{ACAD_XDICTIONARY
360
BF
102
}
330
0
100
AcDbSymbolTable
 70
    11
  0
LAYER
  5
10
102
{ACAD_XDICTIONARY
360
29F7
102
}
330
2
100
AcDbSymbolTableRecord
100
AcDbLayerTableRecord
  2
0
 70
     0
 62
     7
  6
Continuous
370
    -3
390
F
347
27E
  0
LAYER
  5
81
102
{ACAD_XDICTIONARY
360
29F9
102
}
330
2
100
AcDbSymbolTableRecord
100
AcDbLayerTableRecord
  2
AM_0 外形線1
 70
     0
 62
     7
  6
Continuous
370
    25
390
F
347
27E
  0
LAYER
  5
427
330
2
100
AcDbSymbolTableRecord
100
AcDbLayerTableRecord
  2
Defpoints
 70
     0
 62
     7
  6
Continuous
290
     0
370
    -3
390
F
347
27E
  0
LAYER
  5
2E0F
102
{ACAD_XDICTIONARY
360
2E10
102
}
330
2
100
AcDbSymbolTableRecord
100
AcDbLayerTableRecord
  2
AM_6 文字
 70
     0
 62
     2
  6
Continuous
370
    13
390
F
347
27E
1001
AcAecLayerStandard
1000

1000

  0
LAYER
  5
44FA
330
2
100
AcDbSymbolTableRecord
100
AcDbLayerTableRecord
  2
AM_5 寸法線
 70
     0
 62
     3
  6
Continuous
370
    13
390
F
347
27E
1001
AcAecLayerStandard
1000

1000

  0
LAYER
  5
44FB
330
2
100
AcDbSymbolTableRecord
100
AcDbLayerTableRecord
  2
AM_4 細線
 70
     0
 62
     4
  6
Continuous
370
    13
390
F
347
27E
1001
AcAecLayerStandard
1000

1000

  0
LAYER
  5
44FC
330
2
100
AcDbSymbolTableRecord
100
AcDbLayerTableRecord
  2
AM_7 中心線
 70
     0
 62
     1
  6
AM_ISO08W050
370
    13
390
F
347
27E
1001
AcAecLayerStandard
1000

1000

  0
LAYER
  5
44FD
330
2
100
AcDbSymbolTableRecord
100
AcDbLayerTableRecord
  2
AM_3 隠れ線
 70
     0
 62
     8
  6
ACJISWELD
370
    13
390
F
347
27E
1001
AcAecLayerStandard
1000

1000

  0
LAYER
  5
B732
330
2
100
AcDbSymbolTableRecord
100
AcDbLayerTableRecord
  2
AM_8 ハッチング
 70
     0
 62
     1
  6
Continuous
370
    13
390
F
347
27E
1001
AcAecLayerStandard
1000

1000

  0
LAYER
  5
EF3E
330
2
100
AcDbSymbolTableRecord
100
AcDbLayerTableRecord
  2
AM_11 想像線
 70
     0
 62
     5
  6
AM_ISO09W050
370
    13
390
F
347
27E
1001
AcAecLayerStandard
1000

1000

  0
ENDTAB
  0
TABLE
  2
STYLE
  5
3
330
0
100
AcDbSymbolTable
 70
    11
  0
STYLE
  5
11
330
3
100
AcDbSymbolTableRecord
100
AcDbTextStyleTableRecord
  2
STANDARD
 70
     0
 40
0.0
 41
1.0
 50
0.0
 71
     0
 42
25.0
  3
ISOCP.SHX
  4
EXTFONT.SHX
  0
STYLE
  5
23D
330
3
100
AcDbSymbolTableRecord
100
AcDbTextStyleTableRecord
  2

 70
     1
 40
0.0
 41
1.0
 50
0.0
 71
     0
 42
2.5
  3
genltshp.shx
  4

  0
STYLE
  5
5D5
330
3
100
AcDbSymbolTableRecord
100
AcDbTextStyleTableRecord
  2
SEISA
 70
     0
 40
0.0
 41
0.9
 50
0.0
 71
     0
 42
25.0
  3
romans.shx
  4
extfont2.shx
  0
STYLE
  5
F725
330
3
100
AcDbSymbolTableRecord
100
AcDbTextStyleTableRecord
  2
ACISOTS
 70
     0
 40
1.0
 41
1.0
 50
0.0
 71
     0
 42
25.0
  3
isocp.shx
  4
extfont.shx
  0
STYLE
  5
F734
330
3
100
AcDbSymbolTableRecord
100
AcDbTextStyleTableRecord
  2
ACISOGDT
 70
     0
 40
0.0
 41
1.0
 50
0.0
 71
     0
 42
25.0
  3
amgdt.shx
  4

  0
ENDTAB
  0
TABLE
  2
VIEW
  5
6
330
0
100
AcDbSymbolTable
 70
     6
  0
VIEW
  5
91B
330
6
100
AcDbSymbolTableRecord
100
AcDbViewTableRecord
  2
AM_VIEW1
 70
     0
 40
371.25
 10
358.9054807741512
 20
556.8750009234552
 41
717.8109605911328
 11
0.0
 21
0.0
 31
1.0
 12
0.0
 22
0.0
 32
0.0
 42
50.0
 43
0.0
 44
0.0
 50
0.0
 71
    16
281
     0
 72
     0
 73
     0
  0
VIEW
  5
91C
330
6
100
AcDbSymbolTableRecord
100
AcDbViewTableRecord
  2
AM_VIEW2
 70
     0
 40
371.25
 10
691.0945201830181
 20
556.8750009234552
 41
717.8109605911328
 11
0.0
 21
0.0
 31
1.0
 12
0.0
 22
0.0
 32
0.0
 42
50.0
 43
0.0
 44
0.0
 50
0.0
 71
    16
281
     0
 72
     0
 73
     0
  0
VIEW
  5
91D
330
6
100
AcDbSymbolTableRecord
100
AcDbViewTableRecord
  2
AM_VIEW3
 70
     0
 40
371.25
 10
358.9054807741512
 20
185.6250009234551
 41
717.8109605911328
 11
0.0
 21
0.0
 31
1.0
 12
0.0
 22
0.0
 32
0.0
 42
50.0
 43
0.0
 44
0.0
 50
0.0
 71
    16
281
     0
 72
     0
 73
     0
  0
VIEW
  5
91E
330
6
100
AcDbSymbolTableRecord
100
AcDbViewTableRecord
  2
AM_VIEW4
 70
     0
 40
371.25
 10
691.0945201830181
 20
185.6250009234551
 41
717.8109605911328
 11
0.0
 21
0.0
 31
1.0
 12
0.0
 22
0.0
 32
0.0
 42
50.0
 43
0.0
 44
0.0
 50
0.0
 71
    16
281
     0
 72
     0
 73
     0
  0
VIEW
  5
91F
330
6
100
AcDbSymbolTableRecord
100
AcDbViewTableRecord
  2
AM_VIEW5
 70
     0
 40
371.2500000000002
 10
525.0000004785846
 20
371.2500009234552
 41
717.8109605911328
 11
0.0
 21
0.0
 31
1.0
 12
0.0
 22
0.0
 32
0.0
 42
50.0
 43
0.0
 44
0.0
 50
0.0
 71
    16
281
     0
 72
     0
 73
     0
  0
VIEW
  5
920
330
6
100
AcDbSymbolTableRecord
100
AcDbViewTableRecord
  2
AM_VIEW6
 70
     0
 40
742.4925749999998
 10
525.0000004785846
 20
371.2500009234551
 41
1435.607564963054
 11
0.0
 21
0.0
 31
1.0
 12
0.0
 22
0.0
 32
0.0
 42
50.0
 43
0.0
 44
0.0
 50
0.0
 71
    16
281
     0
 72
     0
 73
     0
  0
ENDTAB
  0
TABLE
  2
UCS
  5
7
330
0
100
AcDbSymbolTable
 70
     0
  0
ENDTAB
  0
TABLE
  2
APPID
  5
9
330
0
100
AcDbSymbolTable
 70
   393
  0
APPID
  5
12
330
9
100
AcDbSymbolTableRecord
100
AcDbRegAppTableRecord
  2
ACAD
 70
     0
  0
APPID
  5
30
330
9
100
AcDbSymbolTableRecord
100
AcDbRegAppTableRecord
  2
MCAD_NO_VIS
 70
     0
  0
APPID
  5
31
330
9
100
AcDbSymbolTableRecord
100
AcDbRegAppTableRecord
  2
ACAD_TEMP_GRAPHIC
 70
     0
  0
APPID
  5
44
330
9
100
AcDbSymbolTableRecord
100
AcDbRegAppTableRecord
  2
ACATTRIBSERVICES
 70
     0
  0
APPID
  5
F6
330
9
100
AcDbSymbolTableRecord
100
AcDbRegAppTableRecord
  2
AD_DRAW
 70
     0
  0
APPID
  5
114
330
9
100
AcDbSymbolTableRecord
100
AcDbRegAppTableRecord
  2
DESIGNERASSEMBLIES
 70
     0
  0
APPID
  5
118
330
9
100
AcDbSymbolTableRecord
100
AcDbRegAppTableRecord
  2
ACADM_DIM_EDIT
 70
     0
  0
APPID
  5
119
330
9
100
AcDbSymbolTableRecord
100
AcDbRegAppTableRecord
  2
AMDT_DM_ADJ
 70
     0
  0
APPID
  5
1AF
330
9
100
AcDbSymbolTableRecord
100
AcDbRegAppTableRecord
  2
ACAD_DSTYLE_DIMARC_LENGTH_SYMBOL
 70
     0
  0
APPID
  5
1B0
330
9
100
AcDbSymbolTableRecord
100
AcDbRegAppTableRecord
  2
ACAD_DSTYLE_DIMJOGGED_JOGANGLE_SYMBOL
 70
     0
  0
APPID
  5
2D7
330
9
100
AcDbSymbolTableRecord
100
AcDbRegAppTableRecord
  2
ACAD_MLEADERVER
 70
     0
  0
APPID
  5
355
330
9
100
AcDbSymbolTableRecord
100
AcDbRegAppTableRecord
  2
AcadAnnoPO
 70
     0
  0
APPID
  5
428
330
9
100
AcDbSymbolTableRecord
100
AcDbRegAppTableRecord
  2
ACAD_DSTYLE_DIMTEXT_FILL
 70
     0
  0
APPID
  5
429
330
9
100
AcDbSymbolTableRecord
100
AcDbRegAppTableRecord
  2
GENIUS_GENSCREG_15
 70
     0
  0
APPID
  5
42A
330
9
100
AcDbSymbolTableRecord
100
AcDbRegAppTableRecord
  2
GENIUS_GENOBJ-N-SDF_13
 70
     0
  0
APPID
  5
42B
330
9
100
AcDbSymbolTableRecord
100
AcDbRegAppTableRecord
  2
GENIUS_GENODEF_13
 70
     0
  0
APPID
  5
42C
330
9
100
AcDbSymbolTableRecord
100
AcDbRegAppTableRecord
  2
ACAD_EXEMPT_FROM_CAD_STANDARDS
 70
     0
  0
APPID
  5
42D
330
9
100
AcDbSymbolTableRecord
100
AcDbRegAppTableRecord
  2
AcAecLayerStandard
 70
     0
  0
APPID
  5
42E
330
9
100
AcDbSymbolTableRecord
100
AcDbRegAppTableRecord
  2
GENIUS_GENOBJ-N-CEN_13
 70
     0
  0
APPID
  5
42F
330
9
100
AcDbSymbolTableRecord
100
AcDbRegAppTableRecord
  2
GENIUS_GENCEN_19
 70
     0
  0
APPID
  5
430
330
9
100
AcDbSymbolTableRecord
100
AcDbRegAppTableRecord
  2
ACAD_DSTYLE_DIMINSPECT
 70
     0
  0
APPID
  5
431
330
9
100
AcDbSymbolTableRecord
100
AcDbRegAppTableRecord
  2
GENIUS_AMGTXT_16
 70
     0
  0
APPID
  5
432
330
9
100
AcDbSymbolTableRecord
100
AcDbRegAppTableRecord
  2
GENIUS_GENFIL_13
 70
     0
  0
APPID
  5
433
330
9
100
AcDbSymbolTableRecord
100
AcDbRegAppTableRecord
  2
GENIUS_GENOLIS_13
 70
     0
  0
APPID
  5
434
330
9
100
AcDbSymbolTableRecord
100
AcDbRegAppTableRecord
  2
GENIUS_GENOBJ-N-CHA_13
 70
     0
  0
APPID
  5
435
330
9
100
AcDbSymbolTableRecord
100
AcDbRegAppTableRecord
  2
GENIUS_GENOENT_13
 70
     0
  0
APPID
  5
436
330
9
100
AcDbSymbolTableRecord
100
AcDbRegAppTableRecord
  2
GENIUS_GENOREF_13
 70
     0
  0
APPID
  5
437
330
9
100
AcDbSymbolTableRecord
100
AcDbRegAppTableRecord
  2
GENIUS_GENOBJ-N-FIL_13
 70
     0
  0
APPID
  5
438
330
9
100
AcDbSymbolTableRecord
100
AcDbRegAppTableRecord
  2
GEVID1208829536
 70
     0
  0
APPID
  5
439
330
9
100
AcDbSymbolTableRecord
100
AcDbRegAppTableRecord
  2
GEVDC
 70
     0
  0
APPID
  5
43A
330
9
100
AcDbSymbolTableRecord
100
AcDbRegAppTableRecord
  2
GEVRADREF
 70
     0
  0
APPID
  5
43B
330
9
100
AcDbSymbolTableRecord
100
AcDbRegAppTableRecord
  2
GENIUS_GENBH_13
 70
     0
  0
APPID
  5
43C
330
9
100
AcDbSymbolTableRecord
100
AcDbRegAppTableRecord
  2
GENIUS_GENOBJ-NBEHI-BHF_13
 70
     0
  0
APPID
  5
43D
330
9
100
AcDbSymbolTableRecord
100
AcDbRegAppTableRecord
  2
GENIUS_GENOBJ-NBEHI-BHB_13
 70
     0
  0
APPID
  5
43E
330
9
100
AcDbSymbolTableRecord
100
AcDbRegAppTableRecord
  2
GEVID1208829537
 70
     0
  0
APPID
  5
43F
330
9
100
AcDbSymbolTableRecord
100
AcDbRegAppTableRecord
  2
ACAD_DSTYLE_DIMJAG
 70
     0
  0
APPID
  5
440
330
9
100
AcDbSymbolTableRecord
100
AcDbRegAppTableRecord
  2
ACAD_DSTYLE_DIMTALN
 70
     0
  0
APPID
  5
441
330
9
100
AcDbSymbolTableRecord
100
AcDbRegAppTableRecord
  2
AMG_2DHIDE
 70
     0
  0
APPID
  5
442
330
9
100
AcDbSymbolTableRecord
100
AcDbRegAppTableRecord
  2
AMG_2DSTRUCT_BTR
 70
     0
  0
APPID
  5
443
330
9
100
AcDbSymbolTableRecord
100
AcDbRegAppTableRecord
  2
GEVID1208845772
 70
     0
  0
APPID
  5
444
330
9
100
AcDbSymbolTableRecord
100
AcDbRegAppTableRecord
  2
GEVID1208845773
 70
     0
  0
APPID
  5
445
330
9
100
AcDbSymbolTableRecord
100
AcDbRegAppTableRecord
  2
ACADM_2DVIEW_IGN_NOTIFY
 70
     0
  0
APPID
  5
446
330
9
100
AcDbSymbolTableRecord
100
AcDbRegAppTableRecord
  2
GEVID1208845774
 70
     0
  0
APPID
  5
447
330
9
100
AcDbSymbolTableRecord
100
AcDbRegAppTableRecord
  2
GEVID1208845775
 70
     0
  0
APPID
  5
448
330
9
100
AcDbSymbolTableRecord
100
AcDbRegAppTableRecord
  2
GEVID1208845776
 70
     0
  0
APPID
  5
449
330
9
100
AcDbSymbolTableRecord
100
AcDbRegAppTableRecord
  2
GEVID1208845777
 70
     0
  0
APPID
  5
44A
330
9
100
AcDbSymbolTableRecord
100
AcDbRegAppTableRecord
  2
GEVCON
 70
     0
  0
APPID
  5
44B
330
9
100
AcDbSymbolTableRecord
100
AcDbRegAppTableRecord
  2
GENIUS_GENOBJ-F-SCPASSM_13
 70
     0
  0
APPID
  5
44C
330
9
100
AcDbSymbolTableRecord
100
AcDbRegAppTableRecord
  2
GEVID1208845778
 70
     0
  0
APPID
  5
44D
330
9
100
AcDbSymbolTableRecord
100
AcDbRegAppTableRecord
  2
GEVID1208845779
 70
     0
  0
APPID
  5
44E
330
9
100
AcDbSymbolTableRecord
100
AcDbRegAppTableRecord
  2
GEVID1208845780
 70
     0
  0
APPID
  5
44F
330
9
100
AcDbSymbolTableRecord
100
AcDbRegAppTableRecord
  2
GEVID1208845781
 70
     0
  0
APPID
  5
450
330
9
100
AcDbSymbolTableRecord
100
AcDbRegAppTableRecord
  2
GEVID1208845782
 70
     0
  0
APPID
  5
451
330
9
100
AcDbSymbolTableRecord
100
AcDbRegAppTableRecord
  2
GEVID1208845783
 70
     0
  0
APPID
  5
452
330
9
100
AcDbSymbolTableRecord
100
AcDbRegAppTableRecord
  2
GEVID1208845784
 70
     0
  0
APPID
  5
453
330
9
100
AcDbSymbolTableRecord
100
AcDbRegAppTableRecord
  2
GEVID1208845785
 70
     0
  0
APPID
  5
454
330
9
100
AcDbSymbolTableRecord
100
AcDbRegAppTableRecord
  2
GEVID1208845787
 70
     0
  0
APPID
  5
455
330
9
100
AcDbSymbolTableRecord
100
AcDbRegAppTableRecord
  2
GEVID1208845788
 70
     0
  0
APPID
  5
456
330
9
100
AcDbSymbolTableRecord
100
AcDbRegAppTableRecord
  2
GEVID1208845789
 70
     0
  0
APPID
  5
457
330
9
100
AcDbSymbolTableRecord
100
AcDbRegAppTableRecord
  2
GEVID1208845790
 70
     0
  0
APPID
  5
458
330
9
100
AcDbSymbolTableRecord
100
AcDbRegAppTableRecord
  2
GEVID1208845791
 70
     0
  0
APPID
  5
459
330
9
100
AcDbSymbolTableRecord
100
AcDbRegAppTableRecord
  2
GEVID1208845792
 70
     0
  0
APPID
  5
45A
330
9
100
AcDbSymbolTableRecord
100
AcDbRegAppTableRecord
  2
GEVID1208845793
 70
     0
  0
APPID
  5
45B
330
9
100
AcDbSymbolTableRecord
100
AcDbRegAppTableRecord
  2
GEVID1208845794
 70
     0
  0
APPID
  5
45C
330
9
100
AcDbSymbolTableRecord
100
AcDbRegAppTableRecord
  2
GEVID1208845795
 70
     0
  0
APPID
  5
45D
330
9
100
AcDbSymbolTableRecord
100
AcDbRegAppTableRecord
  2
GEVID1208845796
 70
     0
  0
APPID
  5
45E
330
9
100
AcDbSymbolTableRecord
100
AcDbRegAppTableRecord
  2
GEVID1208845797
 70
     0
  0
APPID
  5
45F
330
9
100
AcDbSymbolTableRecord
100
AcDbRegAppTableRecord
  2
GEVID1208845798
 70
     0
  0
APPID
  5
460
330
9
100
AcDbSymbolTableRecord
100
AcDbRegAppTableRecord
  2
GEVID1208845799
 70
     0
  0
APPID
  5
461
330
9
100
AcDbSymbolTableRecord
100
AcDbRegAppTableRecord
  2
GEVID1208845800
 70
     0
  0
APPID
  5
462
330
9
100
AcDbSymbolTableRecord
100
AcDbRegAppTableRecord
  2
GEVID1208845801
 70
     0
  0
APPID
  5
463
330
9
100
AcDbSymbolTableRecord
100
AcDbRegAppTableRecord
  2
GEVID1208845802
 70
     0
  0
APPID
  5
464
330
9
100
AcDbSymbolTableRecord
100
AcDbRegAppTableRecord
  2
GENIUS_GENOBJ-N-DIM_13
 70
     0
  0
APPID
  5
465
330
9
100
AcDbSymbolTableRecord
100
AcDbRegAppTableRecord
  2
GENIUS_GENDIM_13
 70
     0
  0
APPID
  5
466
330
9
100
AcDbSymbolTableRecord
100
AcDbRegAppTableRecord
  2
GENIUS_GENDIMSH_14
 70
     0
  0
APPID
  5
467
330
9
100
AcDbSymbolTableRecord
100
AcDbRegAppTableRecord
  2
GEVID1208845803
 70
     0
  0
APPID
  5
468
330
9
100
AcDbSymbolTableRecord
100
AcDbRegAppTableRecord
  2
GEVID1208845804
 70
     0
  0
APPID
  5
469
330
9
100
AcDbSymbolTableRecord
100
AcDbRegAppTableRecord
  2
GEVID1208845805
 70
     0
  0
APPID
  5
46A
330
9
100
AcDbSymbolTableRecord
100
AcDbRegAppTableRecord
  2
GEVID1208845806
 70
     0
  0
APPID
  5
46B
330
9
100
AcDbSymbolTableRecord
100
AcDbRegAppTableRecord
  2
GEVID1208845807
 70
     0
  0
APPID
  5
46C
330
9
100
AcDbSymbolTableRecord
100
AcDbRegAppTableRecord
  2
GEVID1208845808
 70
     0
  0
APPID
  5
46D
330
9
100
AcDbSymbolTableRecord
100
AcDbRegAppTableRecord
  2
GEVID1208845809
 70
     0
  0
APPID
  5
46E
330
9
100
AcDbSymbolTableRecord
100
AcDbRegAppTableRecord
  2
GEVID1208845810
 70
     0
  0
APPID
  5
46F
330
9
100
AcDbSymbolTableRecord
100
AcDbRegAppTableRecord
  2
GEVID1208845811
 70
     0
  0
APPID
  5
470
330
9
100
AcDbSymbolTableRecord
100
AcDbRegAppTableRecord
  2
GEVID1208845813
 70
     0
  0
APPID
  5
471
330
9
100
AcDbSymbolTableRecord
100
AcDbRegAppTableRecord
  2
GEVID1208845814
 70
     0
  0
APPID
  5
472
330
9
100
AcDbSymbolTableRecord
100
AcDbRegAppTableRecord
  2
GEVID1208845815
 70
     0
  0
APPID
  5
473
330
9
100
AcDbSymbolTableRecord
100
AcDbRegAppTableRecord
  2
GEVID1208845816
 70
     0
  0
APPID
  5
474
330
9
100
AcDbSymbolTableRecord
100
AcDbRegAppTableRecord
  2
GEVID1208845817
 70
     0
  0
APPID
  5
475
330
9
100
AcDbSymbolTableRecord
100
AcDbRegAppTableRecord
  2
GEVID1208845818
 70
     0
  0
APPID
  5
476
330
9
100
AcDbSymbolTableRecord
100
AcDbRegAppTableRecord
  2
GEVID1208845819
 70
     0
  0
APPID
  5
477
330
9
100
AcDbSymbolTableRecord
100
AcDbRegAppTableRecord
  2
GEVID1208845820
 70
     0
  0
APPID
  5
478
330
9
100
AcDbSymbolTableRecord
100
AcDbRegAppTableRecord
  2
GENIUS_GENOBJ-F-SHCL_13
 70
     0
  0
APPID
  5
479
330
9
100
AcDbSymbolTableRecord
100
AcDbRegAppTableRecord
  2
GENIUS_GEFMSH_13
 70
     0
  0
APPID
  5
47A
330
9
100
AcDbSymbolTableRecord
100
AcDbRegAppTableRecord
  2
GENIUS_GENOBJ-F-SHCA_13
 70
     0
  0
APPID
  5
47B
330
9
100
AcDbSymbolTableRecord
100
AcDbRegAppTableRecord
  2
GENIUS_GEFSH_13
 70
     0
  0
APPID
  5
47C
330
9
100
AcDbSymbolTableRecord
100
AcDbRegAppTableRecord
  2
GENIUS_GEFSHP_13
 70
     0
  0
APPID
  5
47D
330
9
100
AcDbSymbolTableRecord
100
AcDbRegAppTableRecord
  2
GENIUS_GEFSHP0_13
 70
     0
  0
APPID
  5
47E
330
9
100
AcDbSymbolTableRecord
100
AcDbRegAppTableRecord
  2
GENIUS_GEFSH0_13
 70
     0
  0
APPID
  5
47F
330
9
100
AcDbSymbolTableRecord
100
AcDbRegAppTableRecord
  2
GENIUS_GEFSHP1_13
 70
     0
  0
APPID
  5
480
330
9
100
AcDbSymbolTableRecord
100
AcDbRegAppTableRecord
  2
GENIUS_GEFSH1_13
 70
     0
  0
APPID
  5
481
330
9
100
AcDbSymbolTableRecord
100
AcDbRegAppTableRecord
  2
GEVID1208866337
 70
     0
  0
APPID
  5
482
330
9
100
AcDbSymbolTableRecord
100
AcDbRegAppTableRecord
  2
GEVID1208866338
 70
     0
  0
APPID
  5
483
330
9
100
AcDbSymbolTableRecord
100
AcDbRegAppTableRecord
  2
GEVID1208866339
 70
     0
  0
APPID
  5
484
330
9
100
AcDbSymbolTableRecord
100
AcDbRegAppTableRecord
  2
GEVID1208866340
 70
     0
  0
APPID
  5
485
330
9
100
AcDbSymbolTableRecord
100
AcDbRegAppTableRecord
  2
GEVID1208866341
 70
     0
  0
APPID
  5
486
330
9
100
AcDbSymbolTableRecord
100
AcDbRegAppTableRecord
  2
ACAD_PSEXT
 70
     0
  0
APPID
  5
487
330
9
100
AcDbSymbolTableRecord
100
AcDbRegAppTableRecord
  2
GEVID1208866342
 70
     0
  0
APPID
  5
488
330
9
100
AcDbSymbolTableRecord
100
AcDbRegAppTableRecord
  2
GEVID1208913836
 70
     0
  0
APPID
  5
489
330
9
100
AcDbSymbolTableRecord
100
AcDbRegAppTableRecord
  2
GEVID1208913837
 70
     0
  0
APPID
  5
48A
330
9
100
AcDbSymbolTableRecord
100
AcDbRegAppTableRecord
  2
GEVID1208913838
 70
     0
  0
APPID
  5
48B
330
9
100
AcDbSymbolTableRecord
100
AcDbRegAppTableRecord
  2
GEVID1208913839
 70
     0
  0
APPID
  5
48C
330
9
100
AcDbSymbolTableRecord
100
AcDbRegAppTableRecord
  2
GENIUS_GENDTOL_13
 70
     0
  0
APPID
  5
48D
330
9
100
AcDbSymbolTableRecord
100
AcDbRegAppTableRecord
  2
GEVID1208928889
 70
     0
  0
APPID
  5
48E
330
9
100
AcDbSymbolTableRecord
100
AcDbRegAppTableRecord
  2
GEVID1208928890
 70
     0
  0
APPID
  5
48F
330
9
100
AcDbSymbolTableRecord
100
AcDbRegAppTableRecord
  2
GEVID1208928891
 70
     0
  0
APPID
  5
490
330
9
100
AcDbSymbolTableRecord
100
AcDbRegAppTableRecord
  2
GEVID1208928892
 70
     0
  0
APPID
  5
491
330
9
100
AcDbSymbolTableRecord
100
AcDbRegAppTableRecord
  2
GEVID1208933827
 70
     0
  0
APPID
  5
492
330
9
100
AcDbSymbolTableRecord
100
AcDbRegAppTableRecord
  2
GEVID1208933829
 70
     0
  0
APPID
  5
493
330
9
100
AcDbSymbolTableRecord
100
AcDbRegAppTableRecord
  2
GEVID1208933830
 70
     0
  0
APPID
  5
494
330
9
100
AcDbSymbolTableRecord
100
AcDbRegAppTableRecord
  2
GEVID1208933831
 70
     0
  0
APPID
  5
495
330
9
100
AcDbSymbolTableRecord
100
AcDbRegAppTableRecord
  2
GEVID1208933832
 70
     0
  0
APPID
  5
496
330
9
100
AcDbSymbolTableRecord
100
AcDbRegAppTableRecord
  2
GEVID1208933833
 70
     0
  0
APPID
  5
497
330
9
100
AcDbSymbolTableRecord
100
AcDbRegAppTableRecord
  2
GEVID1208933834
 70
     0
  0
APPID
  5
498
330
9
100
AcDbSymbolTableRecord
100
AcDbRegAppTableRecord
  2
GEVID1208933835
 70
     0
  0
APPID
  5
499
330
9
100
AcDbSymbolTableRecord
100
AcDbRegAppTableRecord
  2
GEVID1208933836
 70
     0
  0
APPID
  5
49A
330
9
100
AcDbSymbolTableRecord
100
AcDbRegAppTableRecord
  2
GEVID1208933837
 70
     0
  0
APPID
  5
49B
330
9
100
AcDbSymbolTableRecord
100
AcDbRegAppTableRecord
  2
GEVID1208933838
 70
     0
  0
APPID
  5
49C
330
9
100
AcDbSymbolTableRecord
100
AcDbRegAppTableRecord
  2
GEVID1208933840
 70
     0
  0
APPID
  5
49D
330
9
100
AcDbSymbolTableRecord
100
AcDbRegAppTableRecord
  2
GEVID1208933842
 70
     0
  0
APPID
  5
49E
330
9
100
AcDbSymbolTableRecord
100
AcDbRegAppTableRecord
  2
GEVID1208933843
 70
     0
  0
APPID
  5
49F
330
9
100
AcDbSymbolTableRecord
100
AcDbRegAppTableRecord
  2
GEVID1208933844
 70
     0
  0
APPID
  5
4A0
330
9
100
AcDbSymbolTableRecord
100
AcDbRegAppTableRecord
  2
GEVID1208933845
 70
     0
  0
APPID
  5
4A1
330
9
100
AcDbSymbolTableRecord
100
AcDbRegAppTableRecord
  2
GEVID1208933846
 70
     0
  0
APPID
  5
4A2
330
9
100
AcDbSymbolTableRecord
100
AcDbRegAppTableRecord
  2
GEVID1208933847
 70
     0
  0
APPID
  5
4A3
330
9
100
AcDbSymbolTableRecord
100
AcDbRegAppTableRecord
  2
GEVID1208933848
 70
     0
  0
APPID
  5
4A4
330
9
100
AcDbSymbolTableRecord
100
AcDbRegAppTableRecord
  2
GEVID1208933849
 70
     0
  0
APPID
  5
4A5
330
9
100
AcDbSymbolTableRecord
100
AcDbRegAppTableRecord
  2
GEVID1208933850
 70
     0
  0
APPID
  5
4A6
330
9
100
AcDbSymbolTableRecord
100
AcDbRegAppTableRecord
  2
GEVID1208933851
 70
     0
  0
APPID
  5
4A7
330
9
100
AcDbSymbolTableRecord
100
AcDbRegAppTableRecord
  2
GEVID1208933852
 70
     0
  0
APPID
  5
4A8
330
9
100
AcDbSymbolTableRecord
100
AcDbRegAppTableRecord
  2
GEVID1208933853
 70
     0
  0
APPID
  5
4A9
330
9
100
AcDbSymbolTableRecord
100
AcDbRegAppTableRecord
  2
GEVID1208933854
 70
     0
  0
APPID
  5
4AA
330
9
100
AcDbSymbolTableRecord
100
AcDbRegAppTableRecord
  2
GEVID1208933855
 70
     0
  0
APPID
  5
4AB
330
9
100
AcDbSymbolTableRecord
100
AcDbRegAppTableRecord
  2
GEVID1208933856
 70
     0
  0
APPID
  5
4AC
330
9
100
AcDbSymbolTableRecord
100
AcDbRegAppTableRecord
  2
GEVID1208933857
 70
     0
  0
APPID
  5
4AD
330
9
100
AcDbSymbolTableRecord
100
AcDbRegAppTableRecord
  2
GEVID1208933858
 70
     0
  0
APPID
  5
4AE
330
9
100
AcDbSymbolTableRecord
100
AcDbRegAppTableRecord
  2
GEVID1208933859
 70
     0
  0
APPID
  5
4AF
330
9
100
AcDbSymbolTableRecord
100
AcDbRegAppTableRecord
  2
GEVID1208933860
 70
     0
  0
APPID
  5
4B0
330
9
100
AcDbSymbolTableRecord
100
AcDbRegAppTableRecord
  2
GEVID1208933861
 70
     0
  0
APPID
  5
4B1
330
9
100
AcDbSymbolTableRecord
100
AcDbRegAppTableRecord
  2
GEVID1208933862
 70
     0
  0
APPID
  5
4B2
330
9
100
AcDbSymbolTableRecord
100
AcDbRegAppTableRecord
  2
GEVID1208933863
 70
     0
  0
APPID
  5
4B3
330
9
100
AcDbSymbolTableRecord
100
AcDbRegAppTableRecord
  2
GEVID1208933864
 70
     0
  0
APPID
  5
4B4
330
9
100
AcDbSymbolTableRecord
100
AcDbRegAppTableRecord
  2
GEVID1208933865
 70
     0
  0
APPID
  5
4B5
330
9
100
AcDbSymbolTableRecord
100
AcDbRegAppTableRecord
  2
GEVID1208933866
 70
     0
  0
APPID
  5
4B6
330
9
100
AcDbSymbolTableRecord
100
AcDbRegAppTableRecord
  2
GEVID1208933867
 70
     0
  0
APPID
  5
4B7
330
9
100
AcDbSymbolTableRecord
100
AcDbRegAppTableRecord
  2
GEVID1208933868
 70
     0
  0
APPID
  5
4B8
330
9
100
AcDbSymbolTableRecord
100
AcDbRegAppTableRecord
  2
GEVID1208933869
 70
     0
  0
APPID
  5
4B9
330
9
100
AcDbSymbolTableRecord
100
AcDbRegAppTableRecord
  2
GEVID1208933870
 70
     0
  0
APPID
  5
4BA
330
9
100
AcDbSymbolTableRecord
100
AcDbRegAppTableRecord
  2
GEVID1208933871
 70
     0
  0
APPID
  5
4BB
330
9
100
AcDbSymbolTableRecord
100
AcDbRegAppTableRecord
  2
GEVID1208933872
 70
     0
  0
APPID
  5
4BC
330
9
100
AcDbSymbolTableRecord
100
AcDbRegAppTableRecord
  2
GEVID1208933873
 70
     0
  0
APPID
  5
4BD
330
9
100
AcDbSymbolTableRecord
100
AcDbRegAppTableRecord
  2
GEVID1208933874
 70
     0
  0
APPID
  5
4BE
330
9
100
AcDbSymbolTableRecord
100
AcDbRegAppTableRecord
  2
GEVID1208933875
 70
     0
  0
APPID
  5
4BF
330
9
100
AcDbSymbolTableRecord
100
AcDbRegAppTableRecord
  2
GEVID1208933876
 70
     0
  0
APPID
  5
4C0
330
9
100
AcDbSymbolTableRecord
100
AcDbRegAppTableRecord
  2
ACAD_DSTYLE_DIMRADIAL_EXTENSION
 70
     0
  0
APPID
  5
4C1
330
9
100
AcDbSymbolTableRecord
100
AcDbRegAppTableRecord
  2
GEVID1208999100
 70
     0
  0
APPID
  5
4C2
330
9
100
AcDbSymbolTableRecord
100
AcDbRegAppTableRecord
  2
GEVID1208999101
 70
     0
  0
APPID
  5
4C3
330
9
100
AcDbSymbolTableRecord
100
AcDbRegAppTableRecord
  2
GEVID1208999102
 70
     0
  0
APPID
  5
4C4
330
9
100
AcDbSymbolTableRecord
100
AcDbRegAppTableRecord
  2
GEVID1208999103
 70
     0
  0
APPID
  5
4C5
330
9
100
AcDbSymbolTableRecord
100
AcDbRegAppTableRecord
  2
GEVID1208999105
 70
     0
  0
APPID
  5
4C6
330
9
100
AcDbSymbolTableRecord
100
AcDbRegAppTableRecord
  2
GEVID1208999106
 70
     0
  0
APPID
  5
4C7
330
9
100
AcDbSymbolTableRecord
100
AcDbRegAppTableRecord
  2
GEVID1208999108
 70
     0
  0
APPID
  5
4C8
330
9
100
AcDbSymbolTableRecord
100
AcDbRegAppTableRecord
  2
GEVID1208999109
 70
     0
  0
APPID
  5
4C9
330
9
100
AcDbSymbolTableRecord
100
AcDbRegAppTableRecord
  2
GEVID1208999110
 70
     0
  0
APPID
  5
4CA
330
9
100
AcDbSymbolTableRecord
100
AcDbRegAppTableRecord
  2
GEVID1208999111
 70
     0
  0
APPID
  5
4CB
330
9
100
AcDbSymbolTableRecord
100
AcDbRegAppTableRecord
  2
GEVID1208999112
 70
     0
  0
APPID
  5
4CC
330
9
100
AcDbSymbolTableRecord
100
AcDbRegAppTableRecord
  2
GEVID1208999113
 70
     0
  0
APPID
  5
4CD
330
9
100
AcDbSymbolTableRecord
100
AcDbRegAppTableRecord
  2
GEVID1208999114
 70
     0
  0
APPID
  5
4CE
330
9
100
AcDbSymbolTableRecord
100
AcDbRegAppTableRecord
  2
GEVID1210218799
 70
     0
  0
APPID
  5
4CF
330
9
100
AcDbSymbolTableRecord
100
AcDbRegAppTableRecord
  2
GEVID1210218800
 70
     0
  0
APPID
  5
4D0
330
9
100
AcDbSymbolTableRecord
100
AcDbRegAppTableRecord
  2
GENIUS_GEFWELD_13
 70
     0
  0
APPID
  5
4D1
330
9
100
AcDbSymbolTableRecord
100
AcDbRegAppTableRecord
  2
GENIUS_GENOBJ-F-WELS_13
 70
     0
  0
APPID
  5
4D2
330
9
100
AcDbSymbolTableRecord
100
AcDbRegAppTableRecord
  2
AcadAnnotative
 70
     0
  0
APPID
  5
4D3
330
9
100
AcDbSymbolTableRecord
100
AcDbRegAppTableRecord
  2
GEVID1210145339
 70
     0
  0
APPID
  5
4D4
330
9
100
AcDbSymbolTableRecord
100
AcDbRegAppTableRecord
  2
ACAD_DSTYLE_DIMBREAK
 70
     0
  0
APPID
  5
4D5
330
9
100
AcDbSymbolTableRecord
100
AcDbRegAppTableRecord
  2
GEVID1210145340
 70
     0
  0
APPID
  5
4D6
330
9
100
AcDbSymbolTableRecord
100
AcDbRegAppTableRecord
  2
GEVID1210145341
 70
     0
  0
APPID
  5
4D7
330
9
100
AcDbSymbolTableRecord
100
AcDbRegAppTableRecord
  2
GEVID1210145342
 70
     0
  0
APPID
  5
4D8
330
9
100
AcDbSymbolTableRecord
100
AcDbRegAppTableRecord
  2
GEVID1210145343
 70
     0
  0
APPID
  5
4D9
330
9
100
AcDbSymbolTableRecord
100
AcDbRegAppTableRecord
  2
GEVID1210145344
 70
     0
  0
APPID
  5
4DA
330
9
100
AcDbSymbolTableRecord
100
AcDbRegAppTableRecord
  2
GEVID1210145345
 70
     0
  0
APPID
  5
4DB
330
9
100
AcDbSymbolTableRecord
100
AcDbRegAppTableRecord
  2
GEVID1210152816
 70
     0
  0
APPID
  5
4DC
330
9
100
AcDbSymbolTableRecord
100
AcDbRegAppTableRecord
  2
GEVID1210153850
 70
     0
  0
APPID
  5
4DD
330
9
100
AcDbSymbolTableRecord
100
AcDbRegAppTableRecord
  2
GEVID1210153851
 70
     0
  0
APPID
  5
4DE
330
9
100
AcDbSymbolTableRecord
100
AcDbRegAppTableRecord
  2
GEVID1210153852
 70
     0
  0
APPID
  5
4DF
330
9
100
AcDbSymbolTableRecord
100
AcDbRegAppTableRecord
  2
GEVID1210549898
 70
     0
  0
APPID
  5
4E0
330
9
100
AcDbSymbolTableRecord
100
AcDbRegAppTableRecord
  2
GEVID1210549899
 70
     0
  0
APPID
  5
4E1
330
9
100
AcDbSymbolTableRecord
100
AcDbRegAppTableRecord
  2
GEVID1210549900
 70
     0
  0
APPID
  5
4E2
330
9
100
AcDbSymbolTableRecord
100
AcDbRegAppTableRecord
  2
GEVID1210549901
 70
     0
  0
APPID
  5
4E3
330
9
100
AcDbSymbolTableRecord
100
AcDbRegAppTableRecord
  2
GEVID1210549902
 70
     0
  0
APPID
  5
4E4
330
9
100
AcDbSymbolTableRecord
100
AcDbRegAppTableRecord
  2
GEVID1210549903
 70
     0
  0
APPID
  5
4E5
330
9
100
AcDbSymbolTableRecord
100
AcDbRegAppTableRecord
  2
GEVID1210549904
 70
     0
  0
APPID
  5
4E6
330
9
100
AcDbSymbolTableRecord
100
AcDbRegAppTableRecord
  2
GEVID1210549905
 70
     0
  0
APPID
  5
4E7
330
9
100
AcDbSymbolTableRecord
100
AcDbRegAppTableRecord
  2
GEVID1210549906
 70
     0
  0
APPID
  5
4E8
330
9
100
AcDbSymbolTableRecord
100
AcDbRegAppTableRecord
  2
GEVID1210549907
 70
     0
  0
APPID
  5
4E9
330
9
100
AcDbSymbolTableRecord
100
AcDbRegAppTableRecord
  2
GEVID1210549908
 70
     0
  0
APPID
  5
4EA
330
9
100
AcDbSymbolTableRecord
100
AcDbRegAppTableRecord
  2
GEVID1210549909
 70
     0
  0
APPID
  5
4EB
330
9
100
AcDbSymbolTableRecord
100
AcDbRegAppTableRecord
  2
GEVID1210549910
 70
     0
  0
APPID
  5
4EC
330
9
100
AcDbSymbolTableRecord
100
AcDbRegAppTableRecord
  2
GEVID1210549911
 70
     0
  0
APPID
  5
4ED
330
9
100
AcDbSymbolTableRecord
100
AcDbRegAppTableRecord
  2
GEVID1210549912
 70
     0
  0
APPID
  5
4EE
330
9
100
AcDbSymbolTableRecord
100
AcDbRegAppTableRecord
  2
GEVID1210549913
 70
     0
  0
APPID
  5
4EF
330
9
100
AcDbSymbolTableRecord
100
AcDbRegAppTableRecord
  2
GEVID1210549914
 70
     0
  0
APPID
  5
4F0
330
9
100
AcDbSymbolTableRecord
100
AcDbRegAppTableRecord
  2
GEVID1210549915
 70
     0
  0
APPID
  5
4F1
330
9
100
AcDbSymbolTableRecord
100
AcDbRegAppTableRecord
  2
GEVID1210549916
 70
     0
  0
APPID
  5
4F2
330
9
100
AcDbSymbolTableRecord
100
AcDbRegAppTableRecord
  2
GEVID1210549917
 70
     0
  0
APPID
  5
4F3
330
9
100
AcDbSymbolTableRecord
100
AcDbRegAppTableRecord
  2
GENIUS_GENOBJ-N-CRS_13
 70
     0
  0
APPID
  5
4F4
330
9
100
AcDbSymbolTableRecord
100
AcDbRegAppTableRecord
  2
GEVID1210549918
 70
     0
  0
APPID
  5
4F5
330
9
100
AcDbSymbolTableRecord
100
AcDbRegAppTableRecord
  2
GENIUS_GENOBJ-N-CRC_13
 70
     0
  0
APPID
  5
4F6
330
9
100
AcDbSymbolTableRecord
100
AcDbRegAppTableRecord
  2
GENIUS_GENCRC_14
 70
     0
  0
APPID
  5
4F7
330
9
100
AcDbSymbolTableRecord
100
AcDbRegAppTableRecord
  2
GEVID1210549919
 70
     0
  0
APPID
  5
4F8
330
9
100
AcDbSymbolTableRecord
100
AcDbRegAppTableRecord
  2
GEVID1210549921
 70
     0
  0
APPID
  5
4F9
330
9
100
AcDbSymbolTableRecord
100
AcDbRegAppTableRecord
  2
GEVID1210549922
 70
     0
  0
APPID
  5
4FA
330
9
100
AcDbSymbolTableRecord
100
AcDbRegAppTableRecord
  2
GEVID1210635173
 70
     0
  0
APPID
  5
4FB
330
9
100
AcDbSymbolTableRecord
100
AcDbRegAppTableRecord
  2
GEVID1210635174
 70
     0
  0
APPID
  5
4FC
330
9
100
AcDbSymbolTableRecord
100
AcDbRegAppTableRecord
  2
GEVID1210635175
 70
     0
  0
APPID
  5
4FD
330
9
100
AcDbSymbolTableRecord
100
AcDbRegAppTableRecord
  2
GEVID1210635176
 70
     0
  0
APPID
  5
4FE
330
9
100
AcDbSymbolTableRecord
100
AcDbRegAppTableRecord
  2
GEVID1210635177
 70
     0
  0
APPID
  5
4FF
330
9
100
AcDbSymbolTableRecord
100
AcDbRegAppTableRecord
  2
GEVID1210635178
 70
     0
  0
APPID
  5
500
330
9
100
AcDbSymbolTableRecord
100
AcDbRegAppTableRecord
  2
GENIUS_GENIUS_GENBHEDTMP_13
 70
     0
  0
APPID
  5
501
330
9
100
AcDbSymbolTableRecord
100
AcDbRegAppTableRecord
  2
GEVID1210635179
 70
     0
  0
APPID
  5
502
330
9
100
AcDbSymbolTableRecord
100
AcDbRegAppTableRecord
  2
GEVID1210635180
 70
     0
  0
APPID
  5
503
330
9
100
AcDbSymbolTableRecord
100
AcDbRegAppTableRecord
  2
GEVID1210635181
 70
     0
  0
APPID
  5
504
330
9
100
AcDbSymbolTableRecord
100
AcDbRegAppTableRecord
  2
GEVID1210635182
 70
     0
  0
APPID
  5
505
330
9
100
AcDbSymbolTableRecord
100
AcDbRegAppTableRecord
  2
GEVID1210635184
 70
     0
  0
APPID
  5
506
330
9
100
AcDbSymbolTableRecord
100
AcDbRegAppTableRecord
  2
GEVID1210635185
 70
     0
  0
APPID
  5
507
330
9
100
AcDbSymbolTableRecord
100
AcDbRegAppTableRecord
  2
GEVID1210635186
 70
     0
  0
APPID
  5
508
330
9
100
AcDbSymbolTableRecord
100
AcDbRegAppTableRecord
  2
GEVID1210635187
 70
     0
  0
APPID
  5
509
330
9
100
AcDbSymbolTableRecord
100
AcDbRegAppTableRecord
  2
GEVID1210635188
 70
     0
  0
APPID
  5
50A
330
9
100
AcDbSymbolTableRecord
100
AcDbRegAppTableRecord
  2
GEVID1210635189
 70
     0
  0
APPID
  5
50B
330
9
100
AcDbSymbolTableRecord
100
AcDbRegAppTableRecord
  2
GEVID1210635190
 70
     0
  0
APPID
  5
50C
330
9
100
AcDbSymbolTableRecord
100
AcDbRegAppTableRecord
  2
GENIUS_GENREC_14
 70
     0
  0
APPID
  5
50D
330
9
100
AcDbSymbolTableRecord
100
AcDbRegAppTableRecord
  2
GENIUS_GENOBJ-N-REC_13
 70
     0
  0
APPID
  5
50E
330
9
100
AcDbSymbolTableRecord
100
AcDbRegAppTableRecord
  2
GEVID1210676655
 70
     0
  0
APPID
  5
50F
330
9
100
AcDbSymbolTableRecord
100
AcDbRegAppTableRecord
  2
GEVID1210676656
 70
     0
  0
APPID
  5
510
330
9
100
AcDbSymbolTableRecord
100
AcDbRegAppTableRecord
  2
GEVID1210676657
 70
     0
  0
APPID
  5
511
330
9
100
AcDbSymbolTableRecord
100
AcDbRegAppTableRecord
  2
GEVID1210676659
 70
     0
  0
APPID
  5
512
330
9
100
AcDbSymbolTableRecord
100
AcDbRegAppTableRecord
  2
GEVID1210676660
 70
     0
  0
APPID
  5
513
330
9
100
AcDbSymbolTableRecord
100
AcDbRegAppTableRecord
  2
GEVID1210676661
 70
     0
  0
APPID
  5
514
330
9
100
AcDbSymbolTableRecord
100
AcDbRegAppTableRecord
  2
GEVID1210676662
 70
     0
  0
APPID
  5
515
330
9
100
AcDbSymbolTableRecord
100
AcDbRegAppTableRecord
  2
GEVID1210721646
 70
     0
  0
APPID
  5
516
330
9
100
AcDbSymbolTableRecord
100
AcDbRegAppTableRecord
  2
GEVID1210721647
 70
     0
  0
APPID
  5
517
330
9
100
AcDbSymbolTableRecord
100
AcDbRegAppTableRecord
  2
GEVID1210721648
 70
     0
  0
APPID
  5
518
330
9
100
AcDbSymbolTableRecord
100
AcDbRegAppTableRecord
  2
GEVID1210721649
 70
     0
  0
APPID
  5
519
330
9
100
AcDbSymbolTableRecord
100
AcDbRegAppTableRecord
  2
GEVID1210721650
 70
     0
  0
APPID
  5
51A
330
9
100
AcDbSymbolTableRecord
100
AcDbRegAppTableRecord
  2
GEVID1210721651
 70
     0
  0
APPID
  5
51B
330
9
100
AcDbSymbolTableRecord
100
AcDbRegAppTableRecord
  2
GEVID1210721652
 70
     0
  0
APPID
  5
51C
330
9
100
AcDbSymbolTableRecord
100
AcDbRegAppTableRecord
  2
GEVID1210721653
 70
     0
  0
APPID
  5
51D
330
9
100
AcDbSymbolTableRecord
100
AcDbRegAppTableRecord
  2
PE_URL
 70
     0
  0
APPID
  5
51E
330
9
100
AcDbSymbolTableRecord
100
AcDbRegAppTableRecord
  2
GEVID1210825555
 70
     0
  0
APPID
  5
51F
330
9
100
AcDbSymbolTableRecord
100
AcDbRegAppTableRecord
  2
GEVID1210825556
 70
     0
  0
APPID
  5
520
330
9
100
AcDbSymbolTableRecord
100
AcDbRegAppTableRecord
  2
GEVID1210825557
 70
     0
  0
APPID
  5
521
330
9
100
AcDbSymbolTableRecord
100
AcDbRegAppTableRecord
  2
GEVID1210825558
 70
     0
  0
APPID
  5
522
330
9
100
AcDbSymbolTableRecord
100
AcDbRegAppTableRecord
  2
GEVID1210825559
 70
     0
  0
APPID
  5
523
330
9
100
AcDbSymbolTableRecord
100
AcDbRegAppTableRecord
  2
GEVID1210825560
 70
     0
  0
APPID
  5
524
330
9
100
AcDbSymbolTableRecord
100
AcDbRegAppTableRecord
  2
GEVID1210825561
 70
     0
  0
APPID
  5
525
330
9
100
AcDbSymbolTableRecord
100
AcDbRegAppTableRecord
  2
GEVID1210825562
 70
     0
  0
APPID
  5
526
330
9
100
AcDbSymbolTableRecord
100
AcDbRegAppTableRecord
  2
GEVID1210825563
 70
     0
  0
APPID
  5
527
330
9
100
AcDbSymbolTableRecord
100
AcDbRegAppTableRecord
  2
GEVID1210825564
 70
     0
  0
APPID
  5
528
330
9
100
AcDbSymbolTableRecord
100
AcDbRegAppTableRecord
  2
GEVID1210825565
 70
     0
  0
APPID
  5
529
330
9
100
AcDbSymbolTableRecord
100
AcDbRegAppTableRecord
  2
GEVID1210825566
 70
     0
  0
APPID
  5
52A
330
9
100
AcDbSymbolTableRecord
100
AcDbRegAppTableRecord
  2
GEVID1210825567
 70
     0
  0
APPID
  5
52B
330
9
100
AcDbSymbolTableRecord
100
AcDbRegAppTableRecord
  2
GENIUS_GENOBJ-N-ZOO_13
 70
     0
  0
APPID
  5
52C
330
9
100
AcDbSymbolTableRecord
100
AcDbRegAppTableRecord
  2
GENIUS_GENZOO_17
 70
     0
  0
APPID
  5
52D
330
9
100
AcDbSymbolTableRecord
100
AcDbRegAppTableRecord
  2
ACADANNOTATIVEDECOMPOSITION
 70
     0
  0
APPID
  5
52E
330
9
100
AcDbSymbolTableRecord
100
AcDbRegAppTableRecord
  2
GENIUS_GENOBJ-N-HTC_13
 70
     0
  0
APPID
  5
52F
330
9
100
AcDbSymbolTableRecord
100
AcDbRegAppTableRecord
  2
GENIUS_GENHATCH_13
 70
     0
  0
APPID
  5
530
330
9
100
AcDbSymbolTableRecord
100
AcDbRegAppTableRecord
  2
GEVID1210896020
 70
     0
  0
APPID
  5
531
330
9
100
AcDbSymbolTableRecord
100
AcDbRegAppTableRecord
  2
GEVID1210896021
 70
     0
  0
APPID
  5
532
330
9
100
AcDbSymbolTableRecord
100
AcDbRegAppTableRecord
  2
GEVID1209083540
 70
     0
  0
APPID
  5
533
330
9
100
AcDbSymbolTableRecord
100
AcDbRegAppTableRecord
  2
GEVMK
 70
     0
  0
APPID
  5
534
330
9
100
AcDbSymbolTableRecord
100
AcDbRegAppTableRecord
  2
GEVID1209083542
 70
     0
  0
APPID
  5
535
330
9
100
AcDbSymbolTableRecord
100
AcDbRegAppTableRecord
  2
GEVID1209083543
 70
     0
  0
APPID
  5
536
330
9
100
AcDbSymbolTableRecord
100
AcDbRegAppTableRecord
  2
GEVID1209083544
 70
     0
  0
APPID
  5
537
330
9
100
AcDbSymbolTableRecord
100
AcDbRegAppTableRecord
  2
GEVID1209083545
 70
     0
  0
APPID
  5
538
330
9
100
AcDbSymbolTableRecord
100
AcDbRegAppTableRecord
  2
GEVID1209083546
 70
     0
  0
APPID
  5
539
330
9
100
AcDbSymbolTableRecord
100
AcDbRegAppTableRecord
  2
GEVID1209083547
 70
     0
  0
APPID
  5
53A
330
9
100
AcDbSymbolTableRecord
100
AcDbRegAppTableRecord
  2
GEVID1209083548
 70
     0
  0
APPID
  5
53B
330
9
100
AcDbSymbolTableRecord
100
AcDbRegAppTableRecord
  2
GEVID1209083549
 70
     0
  0
APPID
  5
53C
330
9
100
AcDbSymbolTableRecord
100
AcDbRegAppTableRecord
  2
GEVID1209083550
 70
     0
  0
APPID
  5
53D
330
9
100
AcDbSymbolTableRecord
100
AcDbRegAppTableRecord
  2
GEVID1209083551
 70
     0
  0
APPID
  5
53E
330
9
100
AcDbSymbolTableRecord
100
AcDbRegAppTableRecord
  2
GEVID1209083552
 70
     0
  0
APPID
  5
53F
330
9
100
AcDbSymbolTableRecord
100
AcDbRegAppTableRecord
  2
GEVID1209083553
 70
     0
  0
APPID
  5
540
330
9
100
AcDbSymbolTableRecord
100
AcDbRegAppTableRecord
  2
GEVID1210896022
 70
     0
  0
APPID
  5
541
330
9
100
AcDbSymbolTableRecord
100
AcDbRegAppTableRecord
  2
GEVID1211508364
 70
     0
  0
APPID
  5
542
330
9
100
AcDbSymbolTableRecord
100
AcDbRegAppTableRecord
  2
GEVID1211414908
 70
     0
  0
APPID
  5
543
330
9
100
AcDbSymbolTableRecord
100
AcDbRegAppTableRecord
  2
GEVID1211414909
 70
     0
  0
APPID
  5
544
330
9
100
AcDbSymbolTableRecord
100
AcDbRegAppTableRecord
  2
GEVID1211508359
 70
     0
  0
APPID
  5
545
330
9
100
AcDbSymbolTableRecord
100
AcDbRegAppTableRecord
  2
GEVID1211508360
 70
     0
  0
APPID
  5
546
330
9
100
AcDbSymbolTableRecord
100
AcDbRegAppTableRecord
  2
GEVID1211508361
 70
     0
  0
APPID
  5
547
330
9
100
AcDbSymbolTableRecord
100
AcDbRegAppTableRecord
  2
GEVID1211508362
 70
     0
  0
APPID
  5
548
330
9
100
AcDbSymbolTableRecord
100
AcDbRegAppTableRecord
  2
GEVID1211508363
 70
     0
  0
APPID
  5
549
330
9
100
AcDbSymbolTableRecord
100
AcDbRegAppTableRecord
  2
GEVID1211878469
 70
     0
  0
APPID
  5
54A
330
9
100
AcDbSymbolTableRecord
100
AcDbRegAppTableRecord
  2
GEVID1212642819
 70
     0
  0
APPID
  5
54B
330
9
100
AcDbSymbolTableRecord
100
AcDbRegAppTableRecord
  2
GEVID1212642820
 70
     0
  0
APPID
  5
54C
330
9
100
AcDbSymbolTableRecord
100
AcDbRegAppTableRecord
  2
GEVID1212642821
 70
     0
  0
APPID
  5
54D
330
9
100
AcDbSymbolTableRecord
100
AcDbRegAppTableRecord
  2
GEVID1212642822
 70
     0
  0
APPID
  5
54E
330
9
100
AcDbSymbolTableRecord
100
AcDbRegAppTableRecord
  2
GEVID1212642823
 70
     0
  0
APPID
  5
54F
330
9
100
AcDbSymbolTableRecord
100
AcDbRegAppTableRecord
  2
GEVID1212642825
 70
     0
  0
APPID
  5
550
330
9
100
AcDbSymbolTableRecord
100
AcDbRegAppTableRecord
  2
GEVID1212642826
 70
     0
  0
APPID
  5
551
330
9
100
AcDbSymbolTableRecord
100
AcDbRegAppTableRecord
  2
GEVID1212642827
 70
     0
  0
APPID
  5
552
330
9
100
AcDbSymbolTableRecord
100
AcDbRegAppTableRecord
  2
GEVID1212642828
 70
     0
  0
APPID
  5
553
330
9
100
AcDbSymbolTableRecord
100
AcDbRegAppTableRecord
  2
GEVID1212642831
 70
     0
  0
APPID
  5
554
330
9
100
AcDbSymbolTableRecord
100
AcDbRegAppTableRecord
  2
GEVID1212642834
 70
     0
  0
APPID
  5
555
330
9
100
AcDbSymbolTableRecord
100
AcDbRegAppTableRecord
  2
GEVID1212642835
 70
     0
  0
APPID
  5
556
330
9
100
AcDbSymbolTableRecord
100
AcDbRegAppTableRecord
  2
GEVID1212642836
 70
     0
  0
APPID
  5
557
330
9
100
AcDbSymbolTableRecord
100
AcDbRegAppTableRecord
  2
GEVID1212642837
 70
     0
  0
APPID
  5
558
330
9
100
AcDbSymbolTableRecord
100
AcDbRegAppTableRecord
  2
GEVID1212642839
 70
     0
  0
APPID
  5
559
330
9
100
AcDbSymbolTableRecord
100
AcDbRegAppTableRecord
  2
GEVID1212642840
 70
     0
  0
APPID
  5
55A
330
9
100
AcDbSymbolTableRecord
100
AcDbRegAppTableRecord
  2
GEVID1212642841
 70
     0
  0
APPID
  5
55B
330
9
100
AcDbSymbolTableRecord
100
AcDbRegAppTableRecord
  2
GEVID1212655312
 70
     0
  0
APPID
  5
55C
330
9
100
AcDbSymbolTableRecord
100
AcDbRegAppTableRecord
  2
GEVID1212655313
 70
     0
  0
APPID
  5
55D
330
9
100
AcDbSymbolTableRecord
100
AcDbRegAppTableRecord
  2
GEVID1212656533
 70
     0
  0
APPID
  5
55E
330
9
100
AcDbSymbolTableRecord
100
AcDbRegAppTableRecord
  2
GEVID1212656534
 70
     0
  0
APPID
  5
55F
330
9
100
AcDbSymbolTableRecord
100
AcDbRegAppTableRecord
  2
GEVID1212656535
 70
     0
  0
APPID
  5
560
330
9
100
AcDbSymbolTableRecord
100
AcDbRegAppTableRecord
  2
GEVID1212656536
 70
     0
  0
APPID
  5
561
330
9
100
AcDbSymbolTableRecord
100
AcDbRegAppTableRecord
  2
GEVID1212656538
 70
     0
  0
APPID
  5
562
330
9
100
AcDbSymbolTableRecord
100
AcDbRegAppTableRecord
  2
GEVID1212656541
 70
     0
  0
APPID
  5
563
330
9
100
AcDbSymbolTableRecord
100
AcDbRegAppTableRecord
  2
GEVID1212656543
 70
     0
  0
APPID
  5
564
330
9
100
AcDbSymbolTableRecord
100
AcDbRegAppTableRecord
  2
GENIUS_GENOBJ-F-PFASSM_13
 70
     0
  0
APPID
  5
565
330
9
100
AcDbSymbolTableRecord
100
AcDbRegAppTableRecord
  2
GEVID1212656544
 70
     0
  0
APPID
  5
566
330
9
100
AcDbSymbolTableRecord
100
AcDbRegAppTableRecord
  2
GEVID1212656545
 70
     0
  0
APPID
  5
567
330
9
100
AcDbSymbolTableRecord
100
AcDbRegAppTableRecord
  2
GEVID1212656546
 70
     0
  0
APPID
  5
568
330
9
100
AcDbSymbolTableRecord
100
AcDbRegAppTableRecord
  2
GEVID1212656547
 70
     0
  0
APPID
  5
569
330
9
100
AcDbSymbolTableRecord
100
AcDbRegAppTableRecord
  2
GEVID1212656548
 70
     0
  0
APPID
  5
56A
330
9
100
AcDbSymbolTableRecord
100
AcDbRegAppTableRecord
  2
GEVID1212656549
 70
     0
  0
APPID
  5
56B
330
9
100
AcDbSymbolTableRecord
100
AcDbRegAppTableRecord
  2
GEVID1212656550
 70
     0
  0
APPID
  5
56C
330
9
100
AcDbSymbolTableRecord
100
AcDbRegAppTableRecord
  2
GEVID1212656552
 70
     0
  0
APPID
  5
56D
330
9
100
AcDbSymbolTableRecord
100
AcDbRegAppTableRecord
  2
GEVID1212656553
 70
     0
  0
APPID
  5
56E
330
9
100
AcDbSymbolTableRecord
100
AcDbRegAppTableRecord
  2
GEVID1212656554
 70
     0
  0
APPID
  5
56F
330
9
100
AcDbSymbolTableRecord
100
AcDbRegAppTableRecord
  2
GEVID1212656555
 70
     0
  0
APPID
  5
570
330
9
100
AcDbSymbolTableRecord
100
AcDbRegAppTableRecord
  2
GEVID1212656556
 70
     0
  0
APPID
  5
571
330
9
100
AcDbSymbolTableRecord
100
AcDbRegAppTableRecord
  2
GEVID1212656557
 70
     0
  0
APPID
  5
572
330
9
100
AcDbSymbolTableRecord
100
AcDbRegAppTableRecord
  2
GEVID1212656559
 70
     0
  0
APPID
  5
573
330
9
100
AcDbSymbolTableRecord
100
AcDbRegAppTableRecord
  2
GEVID1212656560
 70
     0
  0
APPID
  5
574
330
9
100
AcDbSymbolTableRecord
100
AcDbRegAppTableRecord
  2
GEVID1212656561
 70
     0
  0
APPID
  5
575
330
9
100
AcDbSymbolTableRecord
100
AcDbRegAppTableRecord
  2
GEVID1212656562
 70
     0
  0
APPID
  5
576
330
9
100
AcDbSymbolTableRecord
100
AcDbRegAppTableRecord
  2
GEVID1212656563
 70
     0
  0
APPID
  5
577
330
9
100
AcDbSymbolTableRecord
100
AcDbRegAppTableRecord
  2
GEVID1212711781
 70
     0
  0
APPID
  5
578
330
9
100
AcDbSymbolTableRecord
100
AcDbRegAppTableRecord
  2
GEVID1212711782
 70
     0
  0
APPID
  5
579
330
9
100
AcDbSymbolTableRecord
100
AcDbRegAppTableRecord
  2
GEVID1212711783
 70
     0
  0
APPID
  5
57A
330
9
100
AcDbSymbolTableRecord
100
AcDbRegAppTableRecord
  2
GEVID1212711784
 70
     0
  0
APPID
  5
57B
330
9
100
AcDbSymbolTableRecord
100
AcDbRegAppTableRecord
  2
GEVID1212711788
 70
     0
  0
APPID
  5
57C
330
9
100
AcDbSymbolTableRecord
100
AcDbRegAppTableRecord
  2
GEVID1212711789
 70
     0
  0
APPID
  5
57D
330
9
100
AcDbSymbolTableRecord
100
AcDbRegAppTableRecord
  2
GEVID1212711790
 70
     0
  0
APPID
  5
57E
330
9
100
AcDbSymbolTableRecord
100
AcDbRegAppTableRecord
  2
GEVID1212711791
 70
     0
  0
APPID
  5
57F
330
9
100
AcDbSymbolTableRecord
100
AcDbRegAppTableRecord
  2
GEVID1212711792
 70
     0
  0
APPID
  5
580
330
9
100
AcDbSymbolTableRecord
100
AcDbRegAppTableRecord
  2
GEVID1212711793
 70
     0
  0
APPID
  5
581
330
9
100
AcDbSymbolTableRecord
100
AcDbRegAppTableRecord
  2
GEVID1212711794
 70
     0
  0
APPID
  5
582
330
9
100
AcDbSymbolTableRecord
100
AcDbRegAppTableRecord
  2
GEVID1212711795
 70
     0
  0
APPID
  5
583
330
9
100
AcDbSymbolTableRecord
100
AcDbRegAppTableRecord
  2
GEVID1212711797
 70
     0
  0
APPID
  5
584
330
9
100
AcDbSymbolTableRecord
100
AcDbRegAppTableRecord
  2
GEVID1212711798
 70
     0
  0
APPID
  5
585
330
9
100
AcDbSymbolTableRecord
100
AcDbRegAppTableRecord
  2
GEVID1212711799
 70
     0
  0
APPID
  5
586
330
9
100
AcDbSymbolTableRecord
100
AcDbRegAppTableRecord
  2
GEVID1212711800
 70
     0
  0
APPID
  5
587
330
9
100
AcDbSymbolTableRecord
100
AcDbRegAppTableRecord
  2
GEVID1212711801
 70
     0
  0
APPID
  5
588
330
9
100
AcDbSymbolTableRecord
100
AcDbRegAppTableRecord
  2
GEVID1212711802
 70
     0
  0
APPID
  5
589
330
9
100
AcDbSymbolTableRecord
100
AcDbRegAppTableRecord
  2
GEVID1212711803
 70
     0
  0
APPID
  5
58A
330
9
100
AcDbSymbolTableRecord
100
AcDbRegAppTableRecord
  2
GEVID1212711804
 70
     0
  0
APPID
  5
58B
330
9
100
AcDbSymbolTableRecord
100
AcDbRegAppTableRecord
  2
GEVID1212711805
 70
     0
  0
APPID
  5
58C
330
9
100
AcDbSymbolTableRecord
100
AcDbRegAppTableRecord
  2
GEVID1212711806
 70
     0
  0
APPID
  5
58D
330
9
100
AcDbSymbolTableRecord
100
AcDbRegAppTableRecord
  2
GEVID1212711807
 70
     0
  0
APPID
  5
58E
330
9
100
AcDbSymbolTableRecord
100
AcDbRegAppTableRecord
  2
GEVID1212711808
 70
     0
  0
APPID
  5
58F
330
9
100
AcDbSymbolTableRecord
100
AcDbRegAppTableRecord
  2
GEVID1212711809
 70
     0
  0
APPID
  5
590
330
9
100
AcDbSymbolTableRecord
100
AcDbRegAppTableRecord
  2
GEVID1212711810
 70
     0
  0
APPID
  5
591
330
9
100
AcDbSymbolTableRecord
100
AcDbRegAppTableRecord
  2
GEVID1212711811
 70
     0
  0
APPID
  5
90A
330
9
100
AcDbSymbolTableRecord
100
AcDbRegAppTableRecord
  2
GENIUS_GENTRA_14
 70
     0
  0
APPID
  5
919
330
9
100
AcDbSymbolTableRecord
100
AcDbRegAppTableRecord
  2
GENIUS_GENOBJ-N-TIT_13
 70
     0
  0
APPID
  5
91A
330
9
100
AcDbSymbolTableRecord
100
AcDbRegAppTableRecord
  2
GENIUS_GENTITLE_13
 70
     0
  0
APPID
  5
949
330
9
100
AcDbSymbolTableRecord
100
AcDbRegAppTableRecord
  2
GENIUS_GENBLLY_14
 70
     0
  0
APPID
  5
DDD
330
9
100
AcDbSymbolTableRecord
100
AcDbRegAppTableRecord
  2
GEVID1213165152
 70
     0
  0
APPID
  5
12F9
330
9
100
AcDbSymbolTableRecord
100
AcDbRegAppTableRecord
  2
AcDbDynamicBlockTrueName
 70
     0
  0
APPID
  5
12FA
330
9
100
AcDbSymbolTableRecord
100
AcDbRegAppTableRecord
  2
ACDBBLOCKREPETAG
 70
     0
  0
APPID
  5
1C15
330
9
100
AcDbSymbolTableRecord
100
AcDbRegAppTableRecord
  2
GEVID1214872427
 70
     0
  0
APPID
  5
1C2A
330
9
100
AcDbSymbolTableRecord
100
AcDbRegAppTableRecord
  2
GEVID1214872428
 70
     0
  0
APPID
  5
1C2F
330
9
100
AcDbSymbolTableRecord
100
AcDbRegAppTableRecord
  2
GEVID1214872429
 70
     0
  0
APPID
  5
1C33
330
9
100
AcDbSymbolTableRecord
100
AcDbRegAppTableRecord
  2
GEVID1214872430
 70
     0
  0
APPID
  5
1C3F
330
9
100
AcDbSymbolTableRecord
100
AcDbRegAppTableRecord
  2
GEVID1214872432
 70
     0
  0
APPID
  5
1C4E
330
9
100
AcDbSymbolTableRecord
100
AcDbRegAppTableRecord
  2
GEVID1214872433
 70
     0
  0
APPID
  5
20DC
330
9
100
AcDbSymbolTableRecord
100
AcDbRegAppTableRecord
  2
AcDbDynamicBlockGUID
 70
     0
  0
APPID
  5
20FD
330
9
100
AcDbSymbolTableRecord
100
AcDbRegAppTableRecord
  2
GENIUS_GENOBJ-N-REV_13
 70
     0
  0
APPID
  5
20FE
330
9
100
AcDbSymbolTableRecord
100
AcDbRegAppTableRecord
  2
GENIUS_GENOBJ-N-RSSYM_13
 70
     0
  0
APPID
  5
20FF
330
9
100
AcDbSymbolTableRecord
100
AcDbRegAppTableRecord
  2
GENIUS_GENSYMENT_13
 70
     0
  0
APPID
  5
2100
330
9
100
AcDbSymbolTableRecord
100
AcDbRegAppTableRecord
  2
GENIUS_GENSCSYM_13
 70
     0
  0
APPID
  5
9448
330
9
100
AcDbSymbolTableRecord
100
AcDbRegAppTableRecord
  2
ACLAYERTOOLS
 70
     0
  0
ENDTAB
  0
TABLE
  2
DIMSTYLE
  5
A
330
0
100
AcDbSymbolTable
 70
    29
100
AcDbDimStyleTable
 71
     1
340
5AB
  0
DIMSTYLE
105
5AB
330
A
100
AcDbSymbolTableRecord
100
AcDbDimStyleTableRecord
  2
SEISA
 70
     0
  4
"
 40
2.5
 41
2.5
 42
0.625
 43
10.0
 44
0.625
 47
0.1
 48
0.1
 73
     0
 74
     0
 77
     3
 78
     8
 79
     2
 90
     1
140
3.5
141
0.0
143
0.0393701
146
0.71
147
1.5
172
     1
176
     3
177
     3
178
     3
271
     2
272
     2
283
     0
286
     8
340
5D5
341
69
342
69
371
    -1
372
    -1
1001
ACAD_DSTYLE_DIMJAG
1070
   388
1040
1.5
1001
ACAD_DSTYLE_DIMTALN
1070
   392
1070
     1
  0
DIMSTYLE
105
5E9
102
{ACAD_REACTORS
330
7245
330
7287
330
72C5
330
72F9
330
734C
330
7364
330
75B1
330
7605
330
7621
330
7639
330
7669
330
7681
330
EC07
330
EC5A
330
F004
330
F05D
330
F0E7
330
F10E
330
F1A8
330
F31C
102
}
330
A
100
AcDbSymbolTableRecord
100
AcDbDimStyleTableRecord
  2
SEISA$0
 70
     0
  4
"
 40
2.5
 41
2.5
 42
0.625
 43
10.0
 44
0.625
 47
0.1
 48
0.1
 73
     0
 74
     0
 77
     3
 78
     8
 79
     2
 90
     1
140
3.5
141
0.0
143
0.0393701
146
0.71
147
1.5
172
     1
176
     3
177
     3
178
     3
271
     2
272
     2
283
     0
286
     8
340
5D5
341
69
342
69
371
    -1
372
    -1
  0
DIMSTYLE
105
F740
330
A
100
AcDbSymbolTableRecord
100
AcDbDimStyleTableRecord
  2
AM_ISO
 70
     0
  4
"
 41
2.5
 42
1.0
 43
10.0
 44
1.0
 47
0.1
 48
0.1
 73
     0
 74
     0
 77
     1
 78
     8
 79
     2
 90
     1
140
3.5
141
0.0
143
0.0393701
146
0.71
147
1.5
172
     1
176
   256
177
   256
178
     2
271
     2
272
     3
274
     4
283
     0
284
     8
340
11
371
    -1
372
    -1
  0
DIMSTYLE
105
F741
330
A
100
AcDbSymbolTableRecord
100
AcDbDimStyleTableRecord
  2
AM_ISO$3
 70
     0
  4
"
 41
2.5
 42
1.0
 43
10.0
 44
1.0
 47
0.1
 48
0.1
 73
     0
 77
     1
 78
     8
 79
     2
 90
     1
140
3.5
141
0.0
143
0.0393701
146
0.71
147
1.5
176
   256
177
   256
178
     2
271
     2
272
     3
274
     4
283
     0
284
     8
288
     1
289
     0
340
11
371
    -1
372
    -1
  0
DIMSTYLE
105
F742
330
A
100
AcDbSymbolTableRecord
100
AcDbDimStyleTableRecord
  2
AM_ISO$4
 70
     0
  4
"
 41
2.5
 42
1.0
 43
10.0
 44
1.0
 47
0.1
 48
0.1
 73
     0
 77
     1
 78
     8
 79
     2
 90
     1
140
3.5
141
0.0
143
0.0393701
146
0.71
147
1.5
176
   256
177
   256
178
     2
271
     2
272
     3
274
     4
283
     0
284
     8
288
     1
289
     0
340
11
371
    -1
372
    -1
  0
DIMSTYLE
105
F743
330
A
100
AcDbSymbolTableRecord
100
AcDbDimStyleTableRecord
  2
AM_ISO$6
 70
     0
  4
"
 41
2.5
 42
1.0
 43
10.0
 44
1.0
 47
0.1
 48
0.1
 73
     0
 74
     0
 78
     8
 79
     2
 90
     1
140
3.5
141
0.0
143
0.0393701
146
0.71
147
1.5
172
     1
176
   256
177
   256
178
     2
271
     2
272
     3
274
     4
283
     0
284
     8
340
11
371
    -1
372
    -1
  0
DIMSTYLE
105
F744
330
A
100
AcDbSymbolTableRecord
100
AcDbDimStyleTableRecord
  2
AM_ISO$7
 70
     0
  4
"
 41
2.5
 42
1.0
 43
10.0
 44
1.0
 47
0.1
 48
0.1
 73
     0
 74
     0
 77
     1
 78
     8
 79
     2
 90
     1
140
5.0
141
0.0
143
0.0393701
146
0.71
147
1.5
172
     1
176
   256
177
   256
178
     2
271
     2
272
     3
274
     4
283
     0
284
     8
340
11
371
    -1
372
    -1
  0
DIMSTYLE
105
F745
330
A
100
AcDbSymbolTableRecord
100
AcDbDimStyleTableRecord
  2
AM_ISO$SF
 70
     0
  4
"
 41
2.5
 42
1.0
 43
10.0
 44
1.0
 47
0.1
 48
0.1
 73
     0
 74
     0
 75
     1
 76
     1
 77
     1
 78
     8
 79
     2
 90
     1
140
3.5
141
0.0
143
0.0393701
146
0.71
147
1.5
172
     1
176
   256
177
   256
178
     2
271
     2
272
     3
274
     4
283
     0
284
     8
340
11
371
    -1
372
    -1
  0
DIMSTYLE
105
F746
330
A
100
AcDbSymbolTableRecord
100
AcDbDimStyleTableRecord
  2
AM_ISO$SH
 70
     0
  4
"
 41
2.5
 42
1.0
 43
10.0
 44
1.0
 47
0.1
 48
0.1
 73
     0
 74
     0
 75
     1
 76
     1
 77
     1
 78
     8
 79
     2
 90
     1
140
3.5
141
0.0
143
0.0393701
144
2.0
146
0.71
147
1.5
172
     1
173
     1
176
   256
177
   256
178
     2
271
     2
272
     3
274
     4
283
     0
284
     8
340
11
343
74
371
    -1
372
    -1
  0
ENDTAB
  0
TABLE
  2
BLOCK_RECORD
  5
1
330
0
100
AcDbSymbolTable
 70
    39
  0
BLOCK_RECORD
  5
1F
102
{ACAD_XDICTIONARY
360
82
102
}
330
1
100
AcDbSymbolTableRecord
100
AcDbBlockTableRecord
  2
*Model_Space
340
22
 70
     0
280
     1
281
     0
  0
BLOCK_RECORD
  5
1B
330
1
100
AcDbSymbolTableRecord
100
AcDbBlockTableRecord
  2
*Paper_Space
340
1E
 70
     0
280
     1
281
     0
  0
BLOCK_RECORD
  5
23
330
1
100
AcDbSymbolTableRecord
100
AcDbBlockTableRecord
  2
*Paper_Space0
340
26
 70
     0
280
     1
281
     0
  0
BLOCK_RECORD
  5
69
330
1
100
AcDbSymbolTableRecord
100
AcDbBlockTableRecord
  2
_Open30
340
0
102
{BLKREFS
331
E04E
331
E04F
331
E057
331
E058
331
E060
331
E061
331
E069
331
E06A
331
E072
331
E073
331
E07B
331
E07C
331
E0BB
331
E0C6
331
E0CE
331
E0CF
331
E0D7
331
E0D8
331
E0E8
331
E0E9
331
E0F1
331
E0F2
331
EC87
331
EC9D
331
F030
331
F031
331
F130
331
F173
331
F30B
331
F30C
331
F36D
331
F36E
102
}
 70
     0
280
     1
281
     0
  0
BLOCK_RECORD
  5
74
330
1
100
AcDbSymbolTableRecord
100
AcDbBlockTableRecord
  2
GENAXEH
340
0
 70
     0
280
     1
281
     0
  0
BLOCK_RECORD
  5
55AB
102
{ACAD_XDICTIONARY
360
55AC
102
}
330
1
100
AcDbSymbolTableRecord
100
AcDbBlockTableRecord
  2
ロッカクアナツキプラグ-1　R1／8
340
0
310
2800000020000000200000000100080000000000000400000000000000000000000000000000000000000000000080000080000000808000800000008000800080800000C0C0C000C0DCC000F0CAA6000020400000206000002080000020A0000020C0000020E00000400000004020000040400000406000004080000040A0
310
000040C0000040E00000600000006020000060400000606000006080000060A0000060C0000060E00000800000008020000080400000806000008080000080A0000080C0000080E00000A0000000A0200000A0400000A0600000A0800000A0A00000A0C00000A0E00000C0000000C0200000C0400000C0600000C0800000C0
310
A00000C0C00000C0E00000E0000000E0200000E0400000E0600000E0800000E0A00000E0C00000E0E00040000000400020004000400040006000400080004000A0004000C0004000E00040200000402020004020400040206000402080004020A0004020C0004020E000404000004040200040404000404060004040800040
310
40A0004040C0004040E00040600000406020004060400040606000406080004060A0004060C0004060E00040800000408020004080400040806000408080004080A0004080C0004080E00040A0000040A0200040A0400040A0600040A0800040A0A00040A0C00040A0E00040C0000040C0200040C0400040C0600040C08000
310
40C0A00040C0C00040C0E00040E0000040E0200040E0400040E0600040E0800040E0A00040E0C00040E0E00080000000800020008000400080006000800080008000A0008000C0008000E00080200000802020008020400080206000802080008020A0008020C0008020E00080400000804020008040400080406000804080
310
008040A0008040C0008040E00080600000806020008060400080606000806080008060A0008060C0008060E00080800000808020008080400080806000808080008080A0008080C0008080E00080A0000080A0200080A0400080A0600080A0800080A0A00080A0C00080A0E00080C0000080C0200080C0400080C0600080C0
310
800080C0A00080C0C00080C0E00080E0000080E0200080E0400080E0600080E0800080E0A00080E0C00080E0E000C0000000C0002000C0004000C0006000C0008000C000A000C000C000C000E000C0200000C0202000C0204000C0206000C0208000C020A000C020C000C020E000C0400000C0402000C0404000C0406000C0
310
408000C040A000C040C000C040E000C0600000C0602000C0604000C0606000C0608000C060A000C060C000C060E000C0800000C0802000C0804000C0806000C0808000C080A000C080C000C080E000C0A00000C0A02000C0A04000C0A06000C0A08000C0A0A000C0A0C000C0A0E000C0C00000C0C02000C0C04000C0C06000
310
C0C08000C0C0A000F0FBFF00A4A0A000808080000000FF0000FF000000FFFF00FF000000FF00FF00FFFF0000FFFFFF00000000000000000000000000000000000000000000000000000000000000000000000000000000000000000000000000F9000000000000000000000000000000000000000000000000000000000000
310
00F900000000000000000000000000000000000000000000000000000000000000F90000000000000000000000000000000000000000000000000000000000FEFEF9000000000000000000000000000000000000000000000000000000FEFEFFFFF9FEFEFEFE000000000000000000000000000000000000000000FEFEFFFF
310
0000F900FFFF00FE000000000000000000000000000000000000FEFEFFFF00000000F9000000FFFFFE00000000000000000000000000000000FE00FF000000000000F90000000000FFFEFE00000000000000000000000000FE00FF00000000000000F9000000000000FFFE00000000000000000000000000FE00FF00000000
310
000000FF00000000000000FFFE0000000000000000000000FE00FF000000000000FFFFF9FF000000000000FFFE0000000000000000000000FE00FF00000000FFFF0000F900FFFF0000000000FFFE00000000000000000000FEFF00000000FF00000000F9000000FF00000000FFFE00000000000000000000FEFF00000000FF
310
00000000F9000000FF00000000FFFE00000000000000000000FE0000000000FF00000000F9000000FF0000000000FFFE0000000000F9F9F9F9F9F9F9F9F9F9F9F9F9F9F9F9F9F9F9F9F9F9F9F9F9F9F9F9F9F9000000000000FEFF00000000FF00000000F9000000FF0000000000FFFE000000000000000000FEFF00000000
310
FF00000000F9000000FF00000000FFFE00000000000000000000FE00FF00000000FFFF0000F90000FF0000000000FFFE00000000000000000000FE00FF000000000000FFFFF9FFFF0000000000FFFE000000000000000000000000FE00FF00000000000000FF00000000000000FFFE000000000000000000000000FE00FF00
310
000000000000F9000000000000FFFE0000000000000000000000000000FE00FF000000000000F90000000000FF00FE000000000000000000000000000000FE00FF0000000000F900000000FFFEFE0000000000000000000000000000000000FEFEFFFF000000F90000FFFFFE00000000000000000000000000000000000000
310
0000FEFEFEFFFFF9FEFEFEFE00000000000000000000000000000000000000000000000000FEFEF900000000000000000000000000000000000000000000000000000000000000F900000000000000000000000000000000000000000000000000000000000000F90000000000000000000000000000000000000000000000
310
0000000000000000F90000000000000000000000000000000000000000000000000000000000000000000000000000000000000000000000
102
{BLKREFS
331
62A6
102
}
 70
     4
280
     1
281
     0
  0
BLOCK_RECORD
  5
573D
330
1
100
AcDbSymbolTableRecord
100
AcDbBlockTableRecord
  2
GENDOT
340
0
102
{BLKREFS
331
E0BA
331
E0C5
331
EC86
331
EC9C
331
F131
331
F172
102
}
 70
     0
280
     1
281
     0
  0
BLOCK_RECORD
  5
57DD
102
{ACAD_XDICTIONARY
360
6445
102
}
330
1
100
AcDbSymbolTableRecord
100
AcDbBlockTableRecord
  2
ロッカクアナツキプラグ-2　R1／8
340
0
310
2800000020000000200000000100080000000000000400000000000000000000000000000000000000000000000080000080000000808000800000008000800080800000C0C0C000C0DCC000F0CAA6000020400000206000002080000020A0000020C0000020E00000400000004020000040400000406000004080000040A0
310
000040C0000040E00000600000006020000060400000606000006080000060A0000060C0000060E00000800000008020000080400000806000008080000080A0000080C0000080E00000A0000000A0200000A0400000A0600000A0800000A0A00000A0C00000A0E00000C0000000C0200000C0400000C0600000C0800000C0
310
A00000C0C00000C0E00000E0000000E0200000E0400000E0600000E0800000E0A00000E0C00000E0E00040000000400020004000400040006000400080004000A0004000C0004000E00040200000402020004020400040206000402080004020A0004020C0004020E000404000004040200040404000404060004040800040
310
40A0004040C0004040E00040600000406020004060400040606000406080004060A0004060C0004060E00040800000408020004080400040806000408080004080A0004080C0004080E00040A0000040A0200040A0400040A0600040A0800040A0A00040A0C00040A0E00040C0000040C0200040C0400040C0600040C08000
310
40C0A00040C0C00040C0E00040E0000040E0200040E0400040E0600040E0800040E0A00040E0C00040E0E00080000000800020008000400080006000800080008000A0008000C0008000E00080200000802020008020400080206000802080008020A0008020C0008020E00080400000804020008040400080406000804080
310
008040A0008040C0008040E00080600000806020008060400080606000806080008060A0008060C0008060E00080800000808020008080400080806000808080008080A0008080C0008080E00080A0000080A0200080A0400080A0600080A0800080A0A00080A0C00080A0E00080C0000080C0200080C0400080C0600080C0
310
800080C0A00080C0C00080C0E00080E0000080E0200080E0400080E0600080E0800080E0A00080E0C00080E0E000C0000000C0002000C0004000C0006000C0008000C000A000C000C000C000E000C0200000C0202000C0204000C0206000C0208000C020A000C020C000C020E000C0400000C0402000C0404000C0406000C0
310
408000C040A000C040C000C040E000C0600000C0602000C0604000C0606000C0608000C060A000C060C000C060E000C0800000C0802000C0804000C0806000C0808000C080A000C080C000C080E000C0A00000C0A02000C0A04000C0A06000C0A08000C0A0A000C0A0C000C0A0E000C0C00000C0C02000C0C04000C0C06000
310
C0C08000C0C0A000F0FBFF00A4A0A000808080000000FF0000FF000000FFFF00FF000000FF00FF00FFFF0000FFFFFF00000000000000000000000000000000000000000000000000000000000000000000000000000000000000000000000000F9000000000000000000000000000000000000000000000000000000000000
310
00F900000000000000000000000000000000000000000000000000000000000000F90000000000000000000000000000000000000000000000000000000000FEFEF9000000000000000000000000000000000000000000000000000000FEFEFFFFF9FEFEFEFE000000000000000000000000000000000000000000FEFEFFFF
310
0000F900FFFF00FE000000000000000000000000000000000000FEFEFFFF00000000F9000000FFFFFE00000000000000000000000000000000FE00FF000000000000F90000000000FFFEFE00000000000000000000000000FE00FF00000000000000F9000000000000FFFE00000000000000000000000000FE00FF00000000
310
000000FF00000000000000FFFE0000000000000000000000FE00FF000000000000FFFFF9FFFF0000000000FFFE0000000000000000000000FE00FF00000000FFFF0000F90000FF0000000000FFFE00000000000000000000FEFF00000000FF00000000F9000000FF00000000FFFE00000000000000000000FEFF00000000FF
310
00000000F9000000FF00000000FFFE00000000000000000000FE0000000000FF00000000F9000000FF0000000000FFFE0000000000F9F9F9F9F9F9F9F9F9F9F9F9F9F9F9F9F9F9F9F9F9F9F9F9F9F9F9F9F9F9000000000000FEFF00000000FF00000000F9000000FF0000000000FFFE000000000000000000FEFF00000000
310
FF00000000F9000000FF00000000FFFE00000000000000000000FE00FF00000000FFFF0000F900FFFF0000000000FFFE00000000000000000000FE00FF000000000000FFFFF9FF000000000000FFFE000000000000000000000000FE00FF00000000000000FF00000000000000FFFE000000000000000000000000FE00FF00
310
000000000000F9000000000000FFFE0000000000000000000000000000FE00FF000000000000F90000000000FF00FE000000000000000000000000000000FE00FF0000000000F900000000FFFEFE0000000000000000000000000000000000FEFEFFFF000000F90000FFFFFE00000000000000000000000000000000000000
310
0000FEFEFEFFFFF9FEFEFEFE00000000000000000000000000000000000000000000000000FEFEF900000000000000000000000000000000000000000000000000000000000000F900000000000000000000000000000000000000000000000000000000000000F90000000000000000000000000000000000000000000000
310
0000000000000000F90000000000000000000000000000000000000000000000000000000000000000000000000000000000000000000000
102
{BLKREFS
331
6421
102
}
 70
     4
280
     1
281
     0
  0
BLOCK_RECORD
  5
6270
102
{ACAD_XDICTIONARY
360
6321
102
}
330
1
100
AcDbSymbolTableRecord
100
AcDbBlockTableRecord
  2
ケースＡ-1 SAM160
340
0
310
2800000020000000200000000100080000000000000400000000000000000000000000000000000000000000000080000080000000808000800000008000800080800000C0C0C000C0DCC000F0CAA6000020400000206000002080000020A0000020C0000020E00000400000004020000040400000406000004080000040A0
310
000040C0000040E00000600000006020000060400000606000006080000060A0000060C0000060E00000800000008020000080400000806000008080000080A0000080C0000080E00000A0000000A0200000A0400000A0600000A0800000A0A00000A0C00000A0E00000C0000000C0200000C0400000C0600000C0800000C0
310
A00000C0C00000C0E00000E0000000E0200000E0400000E0600000E0800000E0A00000E0C00000E0E00040000000400020004000400040006000400080004000A0004000C0004000E00040200000402020004020400040206000402080004020A0004020C0004020E000404000004040200040404000404060004040800040
310
40A0004040C0004040E00040600000406020004060400040606000406080004060A0004060C0004060E00040800000408020004080400040806000408080004080A0004080C0004080E00040A0000040A0200040A0400040A0600040A0800040A0A00040A0C00040A0E00040C0000040C0200040C0400040C0600040C08000
310
40C0A00040C0C00040C0E00040E0000040E0200040E0400040E0600040E0800040E0A00040E0C00040E0E00080000000800020008000400080006000800080008000A0008000C0008000E00080200000802020008020400080206000802080008020A0008020C0008020E00080400000804020008040400080406000804080
310
008040A0008040C0008040E00080600000806020008060400080606000806080008060A0008060C0008060E00080800000808020008080400080806000808080008080A0008080C0008080E00080A0000080A0200080A0400080A0600080A0800080A0A00080A0C00080A0E00080C0000080C0200080C0400080C0600080C0
310
800080C0A00080C0C00080C0E00080E0000080E0200080E0400080E0600080E0800080E0A00080E0C00080E0E000C0000000C0002000C0004000C0006000C0008000C000A000C000C000C000E000C0200000C0202000C0204000C0206000C0208000C020A000C020C000C020E000C0400000C0402000C0404000C0406000C0
310
408000C040A000C040C000C040E000C0600000C0602000C0604000C0606000C0608000C060A000C060C000C060E000C0800000C0802000C0804000C0806000C0808000C080A000C080C000C080E000C0A00000C0A02000C0A04000C0A06000C0A08000C0A0A000C0A0C000C0A0E000C0C00000C0C02000C0C04000C0C06000
310
C0C08000C0C0A000F0FBFF00A4A0A000808080000000FF0000FF000000FFFF00FF000000FF00FF00FFFF0000FFFFFF00000000000000000000000000000000000000000000000000000000000000000000000000000000000000000000FFFFFFFF00000000000000000000000000000000000000000000000000000000FF00
310
00FF00000000000000000000000000000000000000000000000000000000FFF900FF00000000000000000000000000000000000000000000000000000000FFFFFFFF00000000000000000000000000000000000000000000000000000000F9FFFFF9FFFFFFFFFFFF00000000000000000000000000000000000000000000FF
310
F900FF0000000000FF00000000000000000000000000000000000000000000FF0000FF0000000000FF00000000000000000000000000000000000000000000FF0000FF0000000000FF00000000000000000000000000000000000000000000FF0000FF0000000000FF00000000000000000000000000000000000000000000
310
FF0000FF0000000000FF00000000000000000000000000000000000000000000FF0000FF0000000000FF00000000000000000000000000000000000000000000FF0000FF0000000000FF00000000000000000000000000000000000000000000FF0000FF0000000000FF000000000000000000000000000000000000000000
310
00FF0000FF0000000000FF00000000000000000000000000000000000000000000FF0000FF0000000000FF00000000000000000000000000000000000000000000FF0000FF0000000000FF00000000000000000000000000000000000000000000000000000000000000000000000000000000000000000000000000000000
310
00000000000000000000000000000000000000000000000000000000000000000000000000000000000000000000000000000000000000000000000000000000000000000000000000000000000000000000000000000000000000000000000000000000000000000000000000000000000000000000000000000000000000
310
00000000000000000000000000000000000000000000000000000000000000000000000000000000000000000000000000000000000000000000000000000000000000000000FFFFA4A4FFFFFF00000000000000000000000000000000000000000000FFFFFFFFF9F9F9FFFFFF000000000000000000000000000000000000
310
000000FFFFFF00FFFFFFFFFFFFFF0000000000000000000000000000000000000000FFFFFFFFFFFF000000000000000000000000000000000000000000000000F9F9F9F9F9F9F9FFF9F9F90000000000000000000000000000000000000000000000FFFFFFFFFFFF0000000000000000000000000000000000000000000000
310
0000000000FFFFFFFF0000000000000000000000000000000000000000000000000000000000000000000000000000000000000000000000
102
{BLKREFS
331
62A7
102
}
 70
     4
280
     1
281
     0
  0
BLOCK_RECORD
  5
63EA
102
{ACAD_XDICTIONARY
360
64B7
102
}
330
1
100
AcDbSymbolTableRecord
100
AcDbBlockTableRecord
  2
ケースＡ-2 SAM160
340
0
310
2800000020000000200000000100080000000000000400000000000000000000000000000000000000000000000080000080000000808000800000008000800080800000C0C0C000C0DCC000F0CAA6000020400000206000002080000020A0000020C0000020E00000400000004020000040400000406000004080000040A0
310
000040C0000040E00000600000006020000060400000606000006080000060A0000060C0000060E00000800000008020000080400000806000008080000080A0000080C0000080E00000A0000000A0200000A0400000A0600000A0800000A0A00000A0C00000A0E00000C0000000C0200000C0400000C0600000C0800000C0
310
A00000C0C00000C0E00000E0000000E0200000E0400000E0600000E0800000E0A00000E0C00000E0E00040000000400020004000400040006000400080004000A0004000C0004000E00040200000402020004020400040206000402080004020A0004020C0004020E000404000004040200040404000404060004040800040
310
40A0004040C0004040E00040600000406020004060400040606000406080004060A0004060C0004060E00040800000408020004080400040806000408080004080A0004080C0004080E00040A0000040A0200040A0400040A0600040A0800040A0A00040A0C00040A0E00040C0000040C0200040C0400040C0600040C08000
310
40C0A00040C0C00040C0E00040E0000040E0200040E0400040E0600040E0800040E0A00040E0C00040E0E00080000000800020008000400080006000800080008000A0008000C0008000E00080200000802020008020400080206000802080008020A0008020C0008020E00080400000804020008040400080406000804080
310
008040A0008040C0008040E00080600000806020008060400080606000806080008060A0008060C0008060E00080800000808020008080400080806000808080008080A0008080C0008080E00080A0000080A0200080A0400080A0600080A0800080A0A00080A0C00080A0E00080C0000080C0200080C0400080C0600080C0
310
800080C0A00080C0C00080C0E00080E0000080E0200080E0400080E0600080E0800080E0A00080E0C00080E0E000C0000000C0002000C0004000C0006000C0008000C000A000C000C000C000E000C0200000C0202000C0204000C0206000C0208000C020A000C020C000C020E000C0400000C0402000C0404000C0406000C0
310
408000C040A000C040C000C040E000C0600000C0602000C0604000C0606000C0608000C060A000C060C000C060E000C0800000C0802000C0804000C0806000C0808000C080A000C080C000C080E000C0A00000C0A02000C0A04000C0A06000C0A08000C0A0A000C0A0C000C0A0E000C0C00000C0C02000C0C04000C0C06000
310
C0C08000C0C0A000F0FBFF00A4A0A000808080000000FF0000FF000000FFFF00FF000000FF00FF00FFFF0000FFFFFF000000000000000000000000000000000000000000000000000000000000000000000000000000000000000000000000FFFFFFFF00000000000000000000000000000000000000000000000000000000
310
FF0000FF000000000000000000000000000000000000000000000000000000F9F9F9F9F9F9F9F900000000000000000000000000000000000000000000000000FFFFFFFF00000000000000000000000000000000000000000000FFFFFFFFFFFFF9FFFFF900000000000000000000000000000000000000000000FF00000000
310
00FF00F9FF00000000000000000000000000000000000000000000FF0000000000FF0000FF00000000000000000000000000000000000000000000FF0000000000FF0000FF00000000000000000000000000000000000000000000FF0000000000FF0000FF00000000000000000000000000000000000000000000FF000000
310
0000FF0000FF00000000000000000000000000000000000000000000FF0000000000FF0000FF00000000000000000000000000000000000000000000FF0000000000FF0000FF00000000000000000000000000000000000000000000FF0000000000FF0000FF00000000000000000000000000000000000000000000FF0000
310
000000FF0000FF00000000000000000000000000000000000000000000FF0000000000FF0000FF00000000000000000000000000000000000000000000FF0000000000FF0000FF0000000000000000000000000000000000000000000000000000000000000000000000000000000000000000000000000000000000000000
310
00000000000000000000000000000000000000000000000000000000000000000000000000000000000000000000000000000000000000000000000000000000000000000000000000000000000000000000000000000000000000000000000000000000000000000000000000000000000000000000000000000000000000
310
000000000000000000000000000000000000000000000000000000000000000000000000000000000000000000000000000000000000000000000000000000FFFFFFA4A4A4FF00000000000000000000000000000000000000000000000000FFFFA4F9F9F9FFFFFFFF00000000000000000000000000000000000000000000
310
FFFFFFFFFFFFFF00FFFFFF000000000000000000000000000000000000000000000000000000FFFFFFFFFFFF0000000000000000000000000000000000000000000000F9F9F9FFF9F9F9F9F9F9F9000000000000000000000000000000000000000000000000FFFFFFFFFFFF00000000000000000000000000000000000000
310
00000000000000FFFFFFFF000000000000000000000000000000000000000000000000000000000000000000000000000000000000000000
102
{BLKREFS
331
6422
102
}
 70
     4
280
     1
281
     0
  0
BLOCK_RECORD
  5
6526
102
{ACAD_XDICTIONARY
360
82DB
102
}
330
1
100
AcDbSymbolTableRecord
100
AcDbBlockTableRecord
  2
センタ-1 SAM160
340
0
310
2800000020000000200000000100080000000000000400000000000000000000000000000000000000000000000080000080000000808000800000008000800080800000C0C0C000C0DCC000F0CAA6000020400000206000002080000020A0000020C0000020E00000400000004020000040400000406000004080000040A0
310
000040C0000040E00000600000006020000060400000606000006080000060A0000060C0000060E00000800000008020000080400000806000008080000080A0000080C0000080E00000A0000000A0200000A0400000A0600000A0800000A0A00000A0C00000A0E00000C0000000C0200000C0400000C0600000C0800000C0
310
A00000C0C00000C0E00000E0000000E0200000E0400000E0600000E0800000E0A00000E0C00000E0E00040000000400020004000400040006000400080004000A0004000C0004000E00040200000402020004020400040206000402080004020A0004020C0004020E000404000004040200040404000404060004040800040
310
40A0004040C0004040E00040600000406020004060400040606000406080004060A0004060C0004060E00040800000408020004080400040806000408080004080A0004080C0004080E00040A0000040A0200040A0400040A0600040A0800040A0A00040A0C00040A0E00040C0000040C0200040C0400040C0600040C08000
310
40C0A00040C0C00040C0E00040E0000040E0200040E0400040E0600040E0800040E0A00040E0C00040E0E00080000000800020008000400080006000800080008000A0008000C0008000E00080200000802020008020400080206000802080008020A0008020C0008020E00080400000804020008040400080406000804080
310
008040A0008040C0008040E00080600000806020008060400080606000806080008060A0008060C0008060E00080800000808020008080400080806000808080008080A0008080C0008080E00080A0000080A0200080A0400080A0600080A0800080A0A00080A0C00080A0E00080C0000080C0200080C0400080C0600080C0
310
800080C0A00080C0C00080C0E00080E0000080E0200080E0400080E0600080E0800080E0A00080E0C00080E0E000C0000000C0002000C0004000C0006000C0008000C000A000C000C000C000E000C0200000C0202000C0204000C0206000C0208000C020A000C020C000C020E000C0400000C0402000C0404000C0406000C0
310
408000C040A000C040C000C040E000C0600000C0602000C0604000C0606000C0608000C060A000C060C000C060E000C0800000C0802000C0804000C0806000C0808000C080A000C080C000C080E000C0A00000C0A02000C0A04000C0A06000C0A08000C0A0A000C0A0C000C0A0E000C0C00000C0C02000C0C04000C0C06000
310
C0C08000C0C0A000F0FBFF00A4A0A000808080000000FF0000FF000000FFFF00FF000000FF00FF00FFFF0000FFFFFF0000000000000000000000000000000000000000000000000000000000000000000000000000000000000000000000000000FFFFFF000000000000000000000000000000000000000000000000000000
310
00000000FFFFFFFFFFFFFFFF000000000000000000000000000000000000000000000000FFFF0000000000FF000000000000000000000000000000000000000000000000FFFF0000000000FF000000000000000000000000000000000000000000000000FFFF0000000000FF00000000000000000000000000000000000000
310
0000000000FFFF0000000000FF000000000000000000000000000000000000000000000000FFFF0000000000FF000000000000000000000000000000000000000000000000FFFF0000000000FF000000000000000000000000000000000000000000000000FFFF0000000000FF000000000000000000000000000000000000
310
000000000000FFFF0000000000FF000000000000000000000000000000000000000000000000FFFF0000000000FF000000000000000000000000000000000000000000000000FFFF0000000000FF000000000000000000000000000000000000000000000000FFFF0000000000FF00000000000000000000FF000000000000
310
00000000000000FFFF0000000000FF00000000000000000000FF0000000000000000000000000000000000000000FF00000000000000000000FF0000000000000000000000000000000000000000FF00000000000000000000FF0000000000000000000000000000000000000000FF00000000000000000000FF0000000000
310
000000000000000000000000000000FF00000000000000000000FFFFFFFFFFFFFFFFFFFFFFFFFFFFFFFFFFFFFFFFFFFF00000000000000000000FFFFFFFFFFFFFFFFFFFFFFFFFFFFFFFFFFFFFFFFFFFF00000000000000000000FF0000000000000000000000000000000000000000FF00000000000000000000FF00000000
310
00000000000000000000000000000000FF00000000000000000000FF0000000000000000000000000000000000000000FF00000000000000000000FF0000000000000000000000000000000000000000FF00000000000000000000FF0000000000000000000000000000000000000000FF00000000000000000000FFFFFFFF
310
0000F90000000000000000FFFFFFFFFFFFFF0000000000000000000000000000FFFFFFFFFFFFFFFFFFFFFF0000000000000000000000000000000000000000F9FFFFFFFFFFF900000000000000000000000000000000000000000000000000000000F900000000000000000000000000000000000000000000000000000000
310
000000F900000000000000000000000000000000000000000000000000000000000000000000000000000000000000000000000000000000
102
{BLKREFS
331
6546
102
}
 70
     4
280
     1
281
     0
  0
BLOCK_RECORD
  5
6582
102
{ACAD_XDICTIONARY
360
8321
102
}
330
1
100
AcDbSymbolTableRecord
100
AcDbBlockTableRecord
  2
センタ-2 SAM160
340
0
310
2800000020000000200000000100080000000000000400000000000000000000000000000000000000000000000080000080000000808000800000008000800080800000C0C0C000C0DCC000F0CAA6000020400000206000002080000020A0000020C0000020E00000400000004020000040400000406000004080000040A0
310
000040C0000040E00000600000006020000060400000606000006080000060A0000060C0000060E00000800000008020000080400000806000008080000080A0000080C0000080E00000A0000000A0200000A0400000A0600000A0800000A0A00000A0C00000A0E00000C0000000C0200000C0400000C0600000C0800000C0
310
A00000C0C00000C0E00000E0000000E0200000E0400000E0600000E0800000E0A00000E0C00000E0E00040000000400020004000400040006000400080004000A0004000C0004000E00040200000402020004020400040206000402080004020A0004020C0004020E000404000004040200040404000404060004040800040
310
40A0004040C0004040E00040600000406020004060400040606000406080004060A0004060C0004060E00040800000408020004080400040806000408080004080A0004080C0004080E00040A0000040A0200040A0400040A0600040A0800040A0A00040A0C00040A0E00040C0000040C0200040C0400040C0600040C08000
310
40C0A00040C0C00040C0E00040E0000040E0200040E0400040E0600040E0800040E0A00040E0C00040E0E00080000000800020008000400080006000800080008000A0008000C0008000E00080200000802020008020400080206000802080008020A0008020C0008020E00080400000804020008040400080406000804080
310
008040A0008040C0008040E00080600000806020008060400080606000806080008060A0008060C0008060E00080800000808020008080400080806000808080008080A0008080C0008080E00080A0000080A0200080A0400080A0600080A0800080A0A00080A0C00080A0E00080C0000080C0200080C0400080C0600080C0
310
800080C0A00080C0C00080C0E00080E0000080E0200080E0400080E0600080E0800080E0A00080E0C00080E0E000C0000000C0002000C0004000C0006000C0008000C000A000C000C000C000E000C0200000C0202000C0204000C0206000C0208000C020A000C020C000C020E000C0400000C0402000C0404000C0406000C0
310
408000C040A000C040C000C040E000C0600000C0602000C0604000C0606000C0608000C060A000C060C000C060E000C0800000C0802000C0804000C0806000C0808000C080A000C080C000C080E000C0A00000C0A02000C0A04000C0A06000C0A08000C0A0A000C0A0C000C0A0E000C0C00000C0C02000C0C04000C0C06000
310
C0C08000C0C0A000F0FBFF00A4A0A000808080000000FF0000FF000000FFFF00FF000000FF00FF00FFFF0000FFFFFF000000000000000000000000000000000000000000000000000000000000000000000000000000000000000000FFFFFF00000000000000000000000000000000000000000000FFFFFFFFFFFFFFFF0000
310
00000000000000000000000000000000000000000000FF0000000000FFFF000000000000000000000000000000000000000000000000FF0000000000FFFF000000000000000000000000000000000000000000000000FF0000000000FFFF000000000000000000000000000000000000000000000000FF0000000000FFFF00
310
0000000000000000000000000000000000000000000000FF0000000000FFFF000000000000000000000000000000000000000000000000FF0000000000FFFF000000000000000000000000000000000000000000000000FF0000000000FFFF000000000000000000000000000000000000000000000000FF0000000000FFFF
310
000000000000000000000000000000000000000000000000FF0000000000FFFF000000000000000000000000000000000000000000000000FF0000000000FFFF000000000000000000000000000000000000000000000000FF0000000000FFFF000000000000000000000000000000000000000000000000FF0000000000FF
310
FF00000000000000000000000000FF00000000000000000000FF0000000000000000000000000000000000000000FF00000000000000000000FF0000000000000000000000000000000000000000FF00000000000000000000FF0000000000000000000000000000000000000000FF00000000000000000000FF0000000000
310
000000000000000000000000000000FF00000000000000000000FFFFFFFFFFFFFFFFFFFFFFFFFFFFFFFFFFFFFFFFFFFF00000000000000000000FFFFFFFFFFFFFFFFFFFFFFFFFFFFFFFFFFFFFFFFFFFF00000000000000000000FF0000000000000000000000000000000000000000FF00000000000000000000FF00000000
310
00000000000000000000000000000000FF00000000000000000000FF0000000000000000000000000000000000000000FF00000000000000000000FF0000000000000000000000000000000000000000FF00000000000000000000FF0000000000000000000000000000000000000000FF00000000000000000000FFFFFFFF
310
FFFFFF0000000000000000F90000FFFFFFFF0000000000000000000000000000000000FFFFFFFFFFFFFFFFFFFFFF0000000000000000000000000000000000000000000000000000F9FFFFFFFFFFF900000000000000000000000000000000000000000000000000000000F900000000000000000000000000000000000000
310
000000000000000000000000F900000000000000000000000000000000000000000000000000000000000000000000000000000000000000
102
{BLKREFS
331
65A1
102
}
 70
     4
280
     1
281
     0
  0
BLOCK_RECORD
  5
68CD
102
{ACAD_XDICTIONARY
360
6960
102
}
330
1
100
AcDbSymbolTableRecord
100
AcDbBlockTableRecord
  2
リーマボルト-1 SAM160 M8
340
0
310
2800000020000000200000000100080000000000000400000000000000000000000000000000000000000000000080000080000000808000800000008000800080800000C0C0C000C0DCC000F0CAA6000020400000206000002080000020A0000020C0000020E00000400000004020000040400000406000004080000040A0
310
000040C0000040E00000600000006020000060400000606000006080000060A0000060C0000060E00000800000008020000080400000806000008080000080A0000080C0000080E00000A0000000A0200000A0400000A0600000A0800000A0A00000A0C00000A0E00000C0000000C0200000C0400000C0600000C0800000C0
310
A00000C0C00000C0E00000E0000000E0200000E0400000E0600000E0800000E0A00000E0C00000E0E00040000000400020004000400040006000400080004000A0004000C0004000E00040200000402020004020400040206000402080004020A0004020C0004020E000404000004040200040404000404060004040800040
310
40A0004040C0004040E00040600000406020004060400040606000406080004060A0004060C0004060E00040800000408020004080400040806000408080004080A0004080C0004080E00040A0000040A0200040A0400040A0600040A0800040A0A00040A0C00040A0E00040C0000040C0200040C0400040C0600040C08000
310
40C0A00040C0C00040C0E00040E0000040E0200040E0400040E0600040E0800040E0A00040E0C00040E0E00080000000800020008000400080006000800080008000A0008000C0008000E00080200000802020008020400080206000802080008020A0008020C0008020E00080400000804020008040400080406000804080
310
008040A0008040C0008040E00080600000806020008060400080606000806080008060A0008060C0008060E00080800000808020008080400080806000808080008080A0008080C0008080E00080A0000080A0200080A0400080A0600080A0800080A0A00080A0C00080A0E00080C0000080C0200080C0400080C0600080C0
310
800080C0A00080C0C00080C0E00080E0000080E0200080E0400080E0600080E0800080E0A00080E0C00080E0E000C0000000C0002000C0004000C0006000C0008000C000A000C000C000C000E000C0200000C0202000C0204000C0206000C0208000C020A000C020C000C020E000C0400000C0402000C0404000C0406000C0
310
408000C040A000C040C000C040E000C0600000C0602000C0604000C0606000C0608000C060A000C060C000C060E000C0800000C0802000C0804000C0806000C0808000C080A000C080C000C080E000C0A00000C0A02000C0A04000C0A06000C0A08000C0A0A000C0A0C000C0A0E000C0C00000C0C02000C0C04000C0C06000
310
C0C08000C0C0A000F0FBFF00A4A0A000808080000000FF0000FF000000FFFF00FF000000FF00FF00FFFF0000FFFFFF0000000000000000000000000000000000000000000000000000000000000000000000000000000000000000000000000000000000000000000000000000000000000000000000000000000000000000
310
00000000000000000000000000000000000000000000000000000000000000000000000000000000000000000000000000000000000000000000000000000000000000000000000000000000000000000000000000000000000000000000000000000000000000000000000000000000000000000000000000000000000000
310
00000000000000000000000000000000000000000000000000000000000000000000000000000000000000000000000000000000000000000000000000000000000000000000000000000000000000000000000000000000000000000000000000000000000000000000000000000000000000000000000000000000000000
310
0000000000000000000000000000000000000000000000000000000000000000000000000000000000FFFFFFFFFFFF000000000000FFFFFFFF000000000000000000000000000000000000FF0000FFFF0000000000FF0000FFFF000000000000000000000000FFFFFFFF00FFFFFFFFFEFE000000FFFF000000FF0000000000
310
00000000000000FFFF000000FF0000FFFFFFFF0000FFFF000000FF000000000000000000000000FFFF00FF00FF0000FFFFFFFF0000FFFF000000FF000000000000000000000000FFFF0000FFFF0000FFFFFFFF0000FFFF000000FF000000000000000000000000FFFF000000FF0000FFFFFFFF0000FFFF0000FFFF00000000
310
0000000000000000FFFFFFFF00FFFFFFFFFEFE00000000FFFFFFFF000000000000000000000000000000000000FF0000FFFF00000000000000000000000000000000000000000000000000FFFFFFFFFFFF00000000000000000000000000000000000000000000000000000000000000000000000000000000000000000000
310
00000000000000000000000000000000000000000000000000000000000000000000000000000000000000000000000000000000000000000000000000000000000000000000000000000000000000000000000000000000000000000000000000000000000000000000000000000000000000000000000000000000000000
310
00000000000000000000000000000000000000000000000000000000000000000000000000000000000000000000000000000000000000000000000000000000000000000000000000000000000000000000000000000000000000000000000000000000000000000000000000000000000000000000000000000000000000
310
0000000000000000000000000000000000000000000000000000000000000000000000000000000000000000000000000000000000000000
102
{BLKREFS
331
68FB
102
}
 70
     4
280
     1
281
     0
  0
BLOCK_RECORD
  5
696C
102
{ACAD_XDICTIONARY
360
6A04
102
}
330
1
100
AcDbSymbolTableRecord
100
AcDbBlockTableRecord
  2
リーマボルト-2 SAM160 M8
340
0
310
2800000020000000200000000100080000000000000400000000000000000000000000000000000000000000000080000080000000808000800000008000800080800000C0C0C000C0DCC000F0CAA6000020400000206000002080000020A0000020C0000020E00000400000004020000040400000406000004080000040A0
310
000040C0000040E00000600000006020000060400000606000006080000060A0000060C0000060E00000800000008020000080400000806000008080000080A0000080C0000080E00000A0000000A0200000A0400000A0600000A0800000A0A00000A0C00000A0E00000C0000000C0200000C0400000C0600000C0800000C0
310
A00000C0C00000C0E00000E0000000E0200000E0400000E0600000E0800000E0A00000E0C00000E0E00040000000400020004000400040006000400080004000A0004000C0004000E00040200000402020004020400040206000402080004020A0004020C0004020E000404000004040200040404000404060004040800040
310
40A0004040C0004040E00040600000406020004060400040606000406080004060A0004060C0004060E00040800000408020004080400040806000408080004080A0004080C0004080E00040A0000040A0200040A0400040A0600040A0800040A0A00040A0C00040A0E00040C0000040C0200040C0400040C0600040C08000
310
40C0A00040C0C00040C0E00040E0000040E0200040E0400040E0600040E0800040E0A00040E0C00040E0E00080000000800020008000400080006000800080008000A0008000C0008000E00080200000802020008020400080206000802080008020A0008020C0008020E00080400000804020008040400080406000804080
310
008040A0008040C0008040E00080600000806020008060400080606000806080008060A0008060C0008060E00080800000808020008080400080806000808080008080A0008080C0008080E00080A0000080A0200080A0400080A0600080A0800080A0A00080A0C00080A0E00080C0000080C0200080C0400080C0600080C0
310
800080C0A00080C0C00080C0E00080E0000080E0200080E0400080E0600080E0800080E0A00080E0C00080E0E000C0000000C0002000C0004000C0006000C0008000C000A000C000C000C000E000C0200000C0202000C0204000C0206000C0208000C020A000C020C000C020E000C0400000C0402000C0404000C0406000C0
310
408000C040A000C040C000C040E000C0600000C0602000C0604000C0606000C0608000C060A000C060C000C060E000C0800000C0802000C0804000C0806000C0808000C080A000C080C000C080E000C0A00000C0A02000C0A04000C0A06000C0A08000C0A0A000C0A0C000C0A0E000C0C00000C0C02000C0C04000C0C06000
310
C0C08000C0C0A000F0FBFF00A4A0A000808080000000FF0000FF000000FFFF00FF000000FF00FF00FFFF0000FFFFFF0000000000000000000000000000000000000000000000000000000000000000000000000000000000000000000000000000000000000000000000000000000000000000000000000000000000000000
310
0000000000000000000000000000000000000000000000000000000000000000000000000000000000000000000000000000000000000000000000000000000000000000000000000000000000000000000000000000FFFFFF0000000000000000000000000000000000FFFFFF000000000000F9F9F9FFF9F9F90000000000
310
00000000000000000000F9F9F9FFF9F9F9000000000000FF00FF0000000000000000000000000000000000FF00FF000000000000000000FF00FFFFFFFFFFFFFFFFFFFFFFFFFFFFFFFFFFFFFF00FF000000000000000000FF00FF0000000000000000000000000000000000FF00FF000000000000000000FF00FF0000000000
310
000000000000000000000000FF00FF000000000000000000FF00FF0000000000000000000000000000000000FF00FF000000000000000000FF00FF0000000000000000000000000000000000FF00FF000000000000000000FF00FF0000000000000000000000000000000000FF00FF000000000000000000FF00FF00000000
310
00000000000000000000000000FF00FF000000000000000000FF00FF0000000000000000000000000000000000FF00FF000000000000000000FFFFFF0000000000000000000000000000000000FFFFFF000000000000000000FFFF00000000000000000000000000000000000000FF00000000000000000000FFFF00000000
310
000000000000000000000000000000FF00000000000000000000FFFF00000000000000000000000000000000000000FF00000000000000000000FFFF00000000000000000000000000000000000000FF00000000000000000000FFFFFFFFFFFFFFFFFFFFFFFFFFFFFFFFFFFFFFFEFFFF00000000000000000000F9F9F9F900
310
0000000000000000000000000000F9F9FFF9000000000000000000FFFF0000FFFFFFFFFFFFFFFFFFFFFFFFFFFFFF0000FFFF0000000000FEFEFFFFFFFFFFFF000000000000000000000000000000FFFFFFFF0000000000FEFEFFFFFFFFFFFF00000000000000000000000000000000FFFFFF000000000000FFFF00FFFFFFFF
310
00000000000000000000000000000000FFFFFF000000000000000000000000000000000000000000000000000000000000000000000000000000000000000000000000000000000000000000000000000000000000000000000000000000000000000000000000000000000000000000000000000000000000000000000000
310
0000000000000000000000000000000000000000000000000000000000000000000000000000000000000000000000000000000000000000
102
{BLKREFS
331
699C
102
}
 70
     4
280
     1
281
     0
  0
BLOCK_RECORD
  5
7246
330
1
100
AcDbSymbolTableRecord
100
AcDbBlockTableRecord
  2
*D15
340
0
 70
     0
280
     1
281
     0
  0
BLOCK_RECORD
  5
7288
330
1
100
AcDbSymbolTableRecord
100
AcDbBlockTableRecord
  2
*D16
340
0
 70
     0
280
     1
281
     0
  0
BLOCK_RECORD
  5
72C6
330
1
100
AcDbSymbolTableRecord
100
AcDbBlockTableRecord
  2
*D17
340
0
 70
     0
280
     1
281
     0
  0
BLOCK_RECORD
  5
72FA
330
1
100
AcDbSymbolTableRecord
100
AcDbBlockTableRecord
  2
*D18
340
0
 70
     0
280
     1
281
     0
  0
BLOCK_RECORD
  5
734D
330
1
100
AcDbSymbolTableRecord
100
AcDbBlockTableRecord
  2
*D19
340
0
 70
     0
280
     1
281
     0
  0
BLOCK_RECORD
  5
7365
330
1
100
AcDbSymbolTableRecord
100
AcDbBlockTableRecord
  2
*D20
340
0
 70
     0
280
     1
281
     0
  0
BLOCK_RECORD
  5
75B2
330
1
100
AcDbSymbolTableRecord
100
AcDbBlockTableRecord
  2
*D21
340
0
 70
     0
280
     1
281
     0
  0
BLOCK_RECORD
  5
7606
330
1
100
AcDbSymbolTableRecord
100
AcDbBlockTableRecord
  2
*D22
340
0
 70
     0
280
     1
281
     0
  0
BLOCK_RECORD
  5
7622
330
1
100
AcDbSymbolTableRecord
100
AcDbBlockTableRecord
  2
*D23
340
0
 70
     0
280
     1
281
     0
  0
BLOCK_RECORD
  5
763A
330
1
100
AcDbSymbolTableRecord
100
AcDbBlockTableRecord
  2
*D24
340
0
 70
     0
280
     1
281
     0
  0
BLOCK_RECORD
  5
766A
330
1
100
AcDbSymbolTableRecord
100
AcDbBlockTableRecord
  2
*D25
340
0
 70
     0
280
     1
281
     0
  0
BLOCK_RECORD
  5
7682
330
1
100
AcDbSymbolTableRecord
100
AcDbBlockTableRecord
  2
*D26
340
0
 70
     0
280
     1
281
     0
  0
BLOCK_RECORD
  5
E68B
102
{ACAD_XDICTIONARY
360
E7D8
102
}
330
1
100
AcDbSymbolTableRecord
100
AcDbBlockTableRecord
  2
ＧＣスペーサ SAMY160
340
0
310
2800000020000000200000000100080000000000000400000000000000000000000000000000000000000000000080000080000000808000800000008000800080800000C0C0C000C0DCC000F0CAA6000020400000206000002080000020A0000020C0000020E00000400000004020000040400000406000004080000040A0
310
000040C0000040E00000600000006020000060400000606000006080000060A0000060C0000060E00000800000008020000080400000806000008080000080A0000080C0000080E00000A0000000A0200000A0400000A0600000A0800000A0A00000A0C00000A0E00000C0000000C0200000C0400000C0600000C0800000C0
310
A00000C0C00000C0E00000E0000000E0200000E0400000E0600000E0800000E0A00000E0C00000E0E00040000000400020004000400040006000400080004000A0004000C0004000E00040200000402020004020400040206000402080004020A0004020C0004020E000404000004040200040404000404060004040800040
310
40A0004040C0004040E00040600000406020004060400040606000406080004060A0004060C0004060E00040800000408020004080400040806000408080004080A0004080C0004080E00040A0000040A0200040A0400040A0600040A0800040A0A00040A0C00040A0E00040C0000040C0200040C0400040C0600040C08000
310
40C0A00040C0C00040C0E00040E0000040E0200040E0400040E0600040E0800040E0A00040E0C00040E0E00080000000800020008000400080006000800080008000A0008000C0008000E00080200000802020008020400080206000802080008020A0008020C0008020E00080400000804020008040400080406000804080
310
008040A0008040C0008040E00080600000806020008060400080606000806080008060A0008060C0008060E00080800000808020008080400080806000808080008080A0008080C0008080E00080A0000080A0200080A0400080A0600080A0800080A0A00080A0C00080A0E00080C0000080C0200080C0400080C0600080C0
310
800080C0A00080C0C00080C0E00080E0000080E0200080E0400080E0600080E0800080E0A00080E0C00080E0E000C0000000C0002000C0004000C0006000C0008000C000A000C000C000C000E000C0200000C0202000C0204000C0206000C0208000C020A000C020C000C020E000C0400000C0402000C0404000C0406000C0
310
408000C040A000C040C000C040E000C0600000C0602000C0604000C0606000C0608000C060A000C060C000C060E000C0800000C0802000C0804000C0806000C0808000C080A000C080C000C080E000C0A00000C0A02000C0A04000C0A06000C0A08000C0A0A000C0A0C000C0A0E000C0C00000C0C02000C0C04000C0C06000
310
C0C08000C0C0A000F0FBFF00A4A0A000808080000000FF0000FF000000FFFF00FF000000FF00FF00FFFF0000FFFFFF0000000000000000000000000000000000000000000000000000000000000000000000000000000000000000000000000000000000000000000000000000000000000000000000000000000000000000
310
00000000000000000000000000000000000000000000000000000000000000000000000000000000000000000000000000000000000000000000000000000000000000000000000000000000000000000000000000000000000000000000000000000000000000000000000000000000000000000000000000000000000000
310
00000000000000000000000000000000000000000000000000000000000000000000000000000000000000000000000000000000FFFFFF0000000000000000000000000000000000000000000000FFFF00000000FFF9FF00000000000000000000000000000000000000000000F9FFFF00000000FF00FFFFFFFFFFFFFFFFFF
310
FFFEFFFFFFFFFFFFFFFFFFFFFFFFFFFFFF00000000FF00FF000000000000000000FE000000000000000000000000FFFFFF00000000FF00FF000000000000000000FE000000000000000000000000FFFFFF00000000FF00FF000000000000000000FE000000000000000000000000FFFFFF00000000FF00FF00000000000000
310
0000FE000000000000000000000000FFFFFF00000000FFFFFFFF0000000000000000FE000000000000000000000000FFFFFF000000F9FFFFFFFFF9F9F9F9F9F9F9F9FEF9F9F9F9F9F9F9F9F9F9F9FFFFFFFFF9000000FFFF00FF0000000000000000FE0000000000000000000000FF0000FF00000000FFFF00FF0000000000
310
000000FE0000000000000000000000FF0000FF00000000FFFF00FF0000000000000000FE0000000000000000000000FF0000FF00000000FFFFFFFFFFFFFFFFFFFFFFFFFEFFFFFFFFFFFFFFFFFFFFFFFFFF00FF00000000FFFFFFFFFFFFFFFFFFFFFFFFFEFFFFFFFFFFFFFFFFFFFFFFFFF9FFFF00000000FFFFFF0000000000
310
000000000000000000000000000000000000FFFF00000000FFFFFF0000000000000000000000000000000000000000000000FFFF000000000000000000000000000000000000000000000000000000000000000000000000000000000000000000000000000000000000000000000000000000000000000000000000000000
310
00000000000000000000000000000000000000000000000000000000000000000000000000000000000000000000000000000000000000000000000000000000000000000000000000000000000000000000000000000000000000000000000000000000000000000000000000000000000000000000000000000000000000
310
0000000000000000000000000000000000000000000000000000000000000000000000000000000000000000000000000000000000000000
102
{BLKREFS
331
E6FA
102
}
 70
     4
280
     1
281
     0
  0
BLOCK_RECORD
  5
EC08
330
1
100
AcDbSymbolTableRecord
100
AcDbBlockTableRecord
  2
*D28
340
0
 70
     0
280
     1
281
     0
  0
BLOCK_RECORD
  5
EC5B
330
1
100
AcDbSymbolTableRecord
100
AcDbBlockTableRecord
  2
*D29
340
0
 70
     0
280
     1
281
     0
  0
BLOCK_RECORD
  5
F005
330
1
100
AcDbSymbolTableRecord
100
AcDbBlockTableRecord
  2
*D30
340
0
 70
     0
280
     1
281
     0
  0
BLOCK_RECORD
  5
F05E
330
1
100
AcDbSymbolTableRecord
100
AcDbBlockTableRecord
  2
*D31
340
0
 70
     0
280
     1
281
     0
  0
BLOCK_RECORD
  5
F0E8
330
1
100
AcDbSymbolTableRecord
100
AcDbBlockTableRecord
  2
*D32
340
0
 70
     0
280
     1
281
     0
  0
BLOCK_RECORD
  5
F10F
330
1
100
AcDbSymbolTableRecord
100
AcDbBlockTableRecord
  2
*D33
340
0
 70
     0
280
     1
281
     0
  0
BLOCK_RECORD
  5
F177
330
1
100
AcDbSymbolTableRecord
100
AcDbBlockTableRecord
  2
_DotSmall
340
0
102
{BLKREFS
331
F1A3
331
F1A4
102
}
 70
     0
280
     1
281
     0
  0
BLOCK_RECORD
  5
F1A9
330
1
100
AcDbSymbolTableRecord
100
AcDbBlockTableRecord
  2
*D35
340
0
 70
     0
280
     1
281
     0
  0
BLOCK_RECORD
  5
F31D
330
1
100
AcDbSymbolTableRecord
100
AcDbBlockTableRecord
  2
*D36
340
0
 70
     0
280
     1
281
     0
  0
BLOCK_RECORD
  5
F5A4
330
1
100
AcDbSymbolTableRecord
100
AcDbBlockTableRecord
  2
ケース
340
0
310
2800000020000000200000000100080000000000000400000000000000000000000000000000000000000000000080000080000000808000800000008000800080800000C0C0C000C0DCC000F0CAA6000020400000206000002080000020A0000020C0000020E00000400000004020000040400000406000004080000040A0
310
000040C0000040E00000600000006020000060400000606000006080000060A0000060C0000060E00000800000008020000080400000806000008080000080A0000080C0000080E00000A0000000A0200000A0400000A0600000A0800000A0A00000A0C00000A0E00000C0000000C0200000C0400000C0600000C0800000C0
310
A00000C0C00000C0E00000E0000000E0200000E0400000E0600000E0800000E0A00000E0C00000E0E00040000000400020004000400040006000400080004000A0004000C0004000E00040200000402020004020400040206000402080004020A0004020C0004020E000404000004040200040404000404060004040800040
310
40A0004040C0004040E00040600000406020004060400040606000406080004060A0004060C0004060E00040800000408020004080400040806000408080004080A0004080C0004080E00040A0000040A0200040A0400040A0600040A0800040A0A00040A0C00040A0E00040C0000040C0200040C0400040C0600040C08000
310
40C0A00040C0C00040C0E00040E0000040E0200040E0400040E0600040E0800040E0A00040E0C00040E0E00080000000800020008000400080006000800080008000A0008000C0008000E00080200000802020008020400080206000802080008020A0008020C0008020E00080400000804020008040400080406000804080
310
008040A0008040C0008040E00080600000806020008060400080606000806080008060A0008060C0008060E00080800000808020008080400080806000808080008080A0008080C0008080E00080A0000080A0200080A0400080A0600080A0800080A0A00080A0C00080A0E00080C0000080C0200080C0400080C0600080C0
310
800080C0A00080C0C00080C0E00080E0000080E0200080E0400080E0600080E0800080E0A00080E0C00080E0E000C0000000C0002000C0004000C0006000C0008000C000A000C000C000C000E000C0200000C0202000C0204000C0206000C0208000C020A000C020C000C020E000C0400000C0402000C0404000C0406000C0
310
408000C040A000C040C000C040E000C0600000C0602000C0604000C0606000C0608000C060A000C060C000C060E000C0800000C0802000C0804000C0806000C0808000C080A000C080C000C080E000C0A00000C0A02000C0A04000C0A06000C0A08000C0A0A000C0A0C000C0A0E000C0C00000C0C02000C0C04000C0C06000
310
C0C08000C0C0A000F0FBFF00A4A0A000808080000000FF0000FF000000FFFF00FF000000FF00FF00FFFF0000FFFFFF0000000000000000000000000000000000000000000000000000000000000000000000000000000000000000000000000000000000000000000000000000000000000000000000000000000000000000
310
00000000000000000000000000000000000000000000000000000000000000000000000000000000000000000000000000000000000000000000000000000000000000000000000000000000000000000000000000000000000000000000000000000000000000000000000000000000000000000000000000000000000000
310
000000000000000000000000000000000000000000000000000000000000000000000000000000000000000000000000000000FC0000FC0000000000000000FC00FC0000000000000000000000000000000000FCFCFCFC0000000000000000FCFCFC0000000000000000000000000000000000FC0000FC0000000000000000
310
FC00FC0000000000000000000000000000000000FC0000FC0000000000000000FC00FC0000000000000000000000000000000000FC0000FC0000000000000000FC00FC0000000000FCFCFCFCFCFCFCFCFCFC0000FC0000FC0000000000000000FC00FC0000FCFCFCFCFCFCFCFCFCFCFCFCFC0000FC0000FCFCFCFCFCFCFCFC
310
FCFC00FC00000000FC000000000000000000000000FC00000000000000000000000000FC00000000FC000000000000000000000000FC0000000000000000000000000000FCFCFCFCFCFCFCFCFCFCFCFCFCFCFC0000FC00000000000000000000000000000000000000000000000000000000000000FC000000000000000000
310
00000000000000000000000000000000000000000000FC0000000000000000000000000000000000000000000000000000000000000000FC0000000000000000000000000000000000000000000000000000000000000000FC0000000000000000000000000000000000000000000000000000000000000000FC0000000000
310
000000000000000000000000000000000000000000000000000000FCFCFCFCFCFCFCFCFCFCFCFCFCFCFCFCFCFCFCFCFCFCFCFCFCFC0000000000000000000000000000000000000000000000000000000000000000000000000000000000000000000000000000000000000000000000000000000000000000000000000000
310
00000000000000000000000000000000000000000000000000000000000000000000000000000000000000000000000000000000000000000000000000000000000000000000000000000000000000000000000000000000000000000000000000000000000000000000000000000000000000000000000000000000000000
310
0000000000000000000000000000000000000000000000000000000000000000000000000000000000000000000000000000000000000000
102
{BLKREFS
331
F5B9
102
}
 70
     4
280
     1
281
     1
  0
ENDTAB
  0
ENDSEC
  0
SECTION
  2
BLOCKS
  0
BLOCK
  5
20
330
1F
100
AcDbEntity
  8
0
100
AcDbBlockBegin
  2
*Model_Space
 70
     0
 10
0.0
 20
0.0
 30
0.0
  3
*Model_Space
  1

  0
ENDBLK
  5
21
330
1F
100
AcDbEntity
  8
0
100
AcDbBlockEnd
  0
BLOCK
  5
1C
330
1B
100
AcDbEntity
 67
     1
  8
0
100
AcDbBlockBegin
  2
*Paper_Space
 70
     0
 10
0.0
 20
0.0
 30
0.0
  3
*Paper_Space
  1

  0
ENDBLK
  5
1D
330
1B
100
AcDbEntity
 67
     1
  8
0
100
AcDbBlockEnd
  0
BLOCK
  5
24
330
23
100
AcDbEntity
 67
     1
  8
0
100
AcDbBlockBegin
  2
*Paper_Space0
 70
     0
 10
0.0
 20
0.0
 30
0.0
  3
*Paper_Space0
  1

  0
ENDBLK
  5
25
330
23
100
AcDbEntity
 67
     1
  8
0
100
AcDbBlockEnd
  0
BLOCK
  5
6D
330
69
100
AcDbEntity
  8
0
100
AcDbBlockBegin
  2
_Open30
 70
     0
 10
0.0
 20
0.0
 30
0.0
  3
_Open30
  1

  0
LINE
  5
6A
330
69
100
AcDbEntity
  8
0
  6
ByBlock
 62
     0
370
    -2
100
AcDbLine
 10
-1.0
 20
0.26794919
 30
0.0
 11
0.0
 21
0.0
 31
0.0
  0
LINE
  5
6B
330
69
100
AcDbEntity
  8
0
  6
ByBlock
 62
     0
370
    -2
100
AcDbLine
 10
0.0
 20
0.0
 30
0.0
 11
-1.0
 21
-0.26794919
 31
0.0
  0
LINE
  5
6C
330
69
100
AcDbEntity
  8
0
  6
ByBlock
 62
     0
370
    -2
100
AcDbLine
 10
0.0
 20
0.0
 30
0.0
 11
-1.0
 21
0.0
 31
0.0
  0
ENDBLK
  5
6E
330
69
100
AcDbEntity
  8
0
100
AcDbBlockEnd
  0
BLOCK
  5
76
330
74
100
AcDbEntity
  8
0
100
AcDbBlockBegin
  2
GENAXEH
 70
     0
 10
0.0
 20
0.0
 30
0.0
  3
GENAXEH
  1

  0
LINE
  5
75
330
74
100
AcDbEntity
  8
0
100
AcDbLine
 10
-1.0
 20
0.0
 30
0.0
 11
1.0
 21
0.0
 31
0.0
  0
ENDBLK
  5
77
330
74
100
AcDbEntity
  8
0
100
AcDbBlockEnd
  0
BLOCK
  5
55AE
330
55AB
100
AcDbEntity
  8
0
100
AcDbBlockBegin
  2
ロッカクアナツキプラグ-1　R1／8
 70
     0
 10
0.0
 20
0.0
 30
0.0
  3
ロッカクアナツキプラグ-1　R1／8
  1

  0
CIRCLE
  5
60C8
330
55AB
100
AcDbEntity
  8
AM_0 外形線1
100
AcDbCircle
 10
0.0000000000001137
 20
0.0
 30
0.0
 40
4.816232
  0
LINE
  5
60C9
330
55AB
100
AcDbEntity
  8
AM_0 外形線1
100
AcDbLine
 10
-2.178052999999863
 20
1.257499999999992
 30
0.0
 11
-2.178052999999863
 21
-1.257499999999992
 31
0.0
  0
LINE
  5
60CA
330
55AB
100
AcDbEntity
  8
AM_0 外形線1
100
AcDbLine
 10
2.178053999999974
 20
-1.257499999999992
 30
0.0
 11
2.178053999999974
 21
1.257499999999992
 31
0.0
  0
CIRCLE
  5
60CB
330
55AB
100
AcDbEntity
  8
AM_4 細線
100
AcDbCircle
 10
0.0000000000001137
 20
0.0
 30
0.0
 40
5.271232
  0
LINE
  5
60CC
330
55AB
100
AcDbEntity
  8
AM_7 中心線
100
AcDbLine
 10
0.0000000000001137
 20
6.71623199999999
 30
0.0
 11
0.0000000000001137
 21
-6.716232000000047
 31
0.0
  0
LINE
  5
60CD
330
55AB
100
AcDbEntity
  8
AM_0 外形線1
100
AcDbLine
 10
-2.178052999999863
 20
-1.257499999999992
 30
0.0
 11
0.0000000000001137
 21
-2.514999999999985
 31
0.0
  0
LINE
  5
60CE
330
55AB
100
AcDbEntity
  8
AM_7 中心線
100
AcDbLine
 10
6.71623199999999
 20
0.0
 30
0.0
 11
-6.71623199999999
 21
0.0
 31
0.0
  0
LINE
  5
60CF
330
55AB
100
AcDbEntity
  8
AM_0 外形線1
100
AcDbLine
 10
0.0000000000001137
 20
-2.514999999999985
 30
0.0
 11
2.178053999999974
 21
-1.257499999999992
 31
0.0
  0
LINE
  5
60D0
330
55AB
100
AcDbEntity
  8
AM_0 外形線1
100
AcDbLine
 10
0.0000000000001137
 20
2.514999999999985
 30
0.0
 11
-2.178052999999863
 21
1.257499999999992
 31
0.0
  0
LINE
  5
60D1
330
55AB
100
AcDbEntity
  8
AM_0 外形線1
100
AcDbLine
 10
2.178053999999974
 20
1.257499999999992
 30
0.0
 11
0.0000000000001137
 21
2.514999999999985
 31
0.0
  0
ENDBLK
  5
55B9
330
55AB
100
AcDbEntity
  8
0
100
AcDbBlockEnd
  0
BLOCK
  5
573E
330
573D
100
AcDbEntity
  8
0
100
AcDbBlockBegin
  2
GENDOT
 70
     0
 10
0.0
 20
0.0
 30
0.0
  3
GENDOT
  1

  0
LINE
  5
573F
330
573D
100
AcDbEntity
  8
0
100
AcDbLine
 10
0.0
 20
0.0
 30
0.0
 11
-1.0
 21
0.0
 31
0.0
  0
LWPOLYLINE
  5
5740
330
573D
100
AcDbEntity
  8
0
100
AcDbPolyline
 90
        2
 70
     1
 43
0.25
 10
-0.125
 20
0.0
 42
1.0
 10
0.125
 20
0.0
 42
1.0
  0
ENDBLK
  5
5741
330
573D
100
AcDbEntity
  8
0
100
AcDbBlockEnd
  0
BLOCK
  5
57DE
330
57DD
100
AcDbEntity
  8
0
100
AcDbBlockBegin
  2
ロッカクアナツキプラグ-2　R1／8
 70
     0
 10
0.0
 20
0.0
 30
0.0
  3
ロッカクアナツキプラグ-2　R1／8
  1

  0
CIRCLE
  5
60D3
330
57DD
100
AcDbEntity
  8
AM_0 外形線1
100
AcDbCircle
 10
0.0
 20
0.0
 30
0.0
 40
4.816232
  0
LINE
  5
60D4
330
57DD
100
AcDbEntity
  8
AM_0 外形線1
100
AcDbLine
 10
2.17805399999986
 20
1.257499999999992
 30
0.0
 11
2.17805399999986
 21
-1.257499999999992
 31
0.0
  0
LINE
  5
60D5
330
57DD
100
AcDbEntity
  8
AM_0 外形線1
100
AcDbLine
 10
-2.178053000000089
 20
-1.257499999999992
 30
0.0
 11
-2.178053000000089
 21
1.257499999999992
 31
0.0
  0
CIRCLE
  5
60D6
330
57DD
100
AcDbEntity
  8
AM_4 細線
100
AcDbCircle
 10
0.0
 20
0.0
 30
0.0
 40
5.271232
  0
LINE
  5
60D7
330
57DD
100
AcDbEntity
  8
AM_7 中心線
100
AcDbLine
 10
0.0
 20
-6.716232000000047
 30
0.0
 11
0.0
 21
6.71623199999999
 31
0.0
  0
LINE
  5
60D8
330
57DD
100
AcDbEntity
  8
AM_0 外形線1
100
AcDbLine
 10
0.0
 20
-2.514999999999985
 30
0.0
 11
-2.178053000000089
 21
-1.257499999999992
 31
0.0
  0
LINE
  5
60D9
330
57DD
100
AcDbEntity
  8
AM_7 中心線
100
AcDbLine
 10
-6.71623199999999
 20
0.0
 30
0.0
 11
6.716231999999878
 21
0.0
 31
0.0
  0
LINE
  5
60DA
330
57DD
100
AcDbEntity
  8
AM_0 外形線1
100
AcDbLine
 10
2.17805399999986
 20
-1.257499999999992
 30
0.0
 11
0.0
 21
-2.514999999999985
 31
0.0
  0
LINE
  5
60DB
330
57DD
100
AcDbEntity
  8
AM_0 外形線1
100
AcDbLine
 10
-2.178053000000089
 20
1.257499999999992
 30
0.0
 11
0.0
 21
2.514999999999985
 31
0.0
  0
LINE
  5
60DC
330
57DD
100
AcDbEntity
  8
AM_0 外形線1
100
AcDbLine
 10
0.0
 20
2.514999999999985
 30
0.0
 11
2.17805399999986
 21
1.257499999999992
 31
0.0
  0
ENDBLK
  5
57E9
330
57DD
100
AcDbEntity
  8
0
100
AcDbBlockEnd
  0
BLOCK
  5
6271
330
6270
100
AcDbEntity
  8
0
100
AcDbBlockBegin
  2
ケースＡ-1 SAM160
 70
     0
 10
0.0
 20
0.0
 30
0.0
  3
ケースＡ-1 SAM160
  1

  0
LINE
  5
6273
330
6270
100
AcDbEntity
  8
AM_7 中心線
100
AcDbLine
 10
-25.5
 20
71.5
 30
0.0
 11
31.99999999999989
 21
71.5
 31
0.0
  0
LINE
  5
6274
330
6270
100
AcDbEntity
  8
AM_0 外形線1
100
AcDbLine
 10
15.0
 20
-79.5
 30
0.0
 11
15.0
 21
0.0
 31
0.0
  0
LINE
  5
6275
330
6270
100
AcDbEntity
  8
AM_0 外形線1
100
AcDbLine
 10
0.0
 20
0.0
 30
0.0
 11
0.0
 21
-79.5
 31
0.0
  0
LINE
  5
6276
330
6270
100
AcDbEntity
  8
AM_0 外形線1
100
AcDbLine
 10
51.99999999999988
 20
-57.0
 30
0.0
 11
51.99999999999988
 21
0.0
 31
0.0
  0
ARC
  5
6277
330
6270
100
AcDbEntity
  8
AM_0 外形線1
100
AcDbCircle
 10
18.0
 20
-63.0
 30
0.0
 40
3.0
100
AcDbArc
 50
90.0
 51
180.0
  0
LINE
  5
6278
330
6270
100
AcDbEntity
  8
AM_0 外形線1
100
AcDbLine
 10
0.5
 20
-80.0
 30
0.0
 11
14.5
 21
-80.0
 31
0.0
  0
LINE
  5
6279
330
6270
100
AcDbEntity
  8
AM_0 外形線1
100
AcDbLine
 10
0.0
 20
-79.5
 30
0.0
 11
0.5
 21
-80.0
 31
0.0
  0
LINE
  5
627A
330
6270
100
AcDbEntity
  8
AM_0 外形線1
100
AcDbLine
 10
14.5
 20
-80.0
 30
0.0
 11
15.0
 21
-79.5
 31
0.0
  0
LINE
  5
627B
330
6270
100
AcDbEntity
  8
AM_0 外形線1
100
AcDbLine
 10
18.0
 20
-60.0
 30
0.0
 11
48.99999999999988
 21
-60.0
 31
0.0
  0
ARC
  5
627C
330
6270
100
AcDbEntity
  8
AM_0 外形線1
100
AcDbCircle
 10
48.99999999999988
 20
-57.0
 30
0.0
 40
3.0
100
AcDbArc
 50
270.0
 51
0.0
  0
LINE
  5
627D
330
6270
100
AcDbEntity
  8
AM_0 外形線1
100
AcDbLine
 10
15.0
 20
63.0
 30
0.0
 11
15.0
 21
79.5
 31
0.0
  0
ARC
  5
627E
330
6270
100
AcDbEntity
  8
AM_0 外形線1
100
AcDbCircle
 10
18.0
 20
63.0
 30
0.0
 40
3.0
100
AcDbArc
 50
180.0
 51
270.0
  0
LINE
  5
627F
330
6270
100
AcDbEntity
  8
AM_0 外形線1
100
AcDbLine
 10
17.0
 20
50.40000000000009
 30
0.0
 11
16.0
 21
51.4000000000001
 31
0.0
  0
LINE
  5
6280
330
6270
100
AcDbEntity
  8
AM_0 外形線1
100
AcDbLine
 10
16.0
 20
54.0
 30
0.0
 11
35.99999999999989
 21
54.0
 31
0.0
  0
LINE
  5
6281
330
6270
100
AcDbEntity
  8
AM_7 中心線
100
AcDbLine
 10
14.0
 20
52.0
 30
0.0
 11
37.9999999999999
 21
52.0
 31
0.0
  0
LINE
  5
6284
330
6270
100
AcDbEntity
  8
AM_0 外形線1
100
AcDbLine
 10
-3.0
 20
54.5
 30
0.0
 11
-3.0
 21
57.0
 31
0.0
  0
LINE
  5
6285
330
6270
100
AcDbEntity
  8
AM_0 外形線1
100
AcDbLine
 10
15.0
 20
54.5
 30
0.0
 11
-3.0
 21
54.5
 31
0.0
  0
LINE
  5
6286
330
6270
100
AcDbEntity
  8
AM_0 外形線1
100
AcDbLine
 10
16.0
 20
51.4000000000001
 30
0.0
 11
16.0
 21
53.5
 31
0.0
  0
ARC
  5
6287
330
6270
100
AcDbEntity
  8
AM_0 外形線1
100
AcDbCircle
 10
15.0
 20
53.5
 30
0.0
 40
1.0
100
AcDbArc
 50
0.0
 51
90.0
  0
LINE
  5
6288
330
6270
100
AcDbEntity
  8
AM_0 外形線1
100
AcDbLine
 10
0.0
 20
61.39999999999997
 30
0.0
 11
0.0
 21
67.0
 31
0.0
  0
LINE
  5
6289
330
6270
100
AcDbEntity
  8
AM_0 外形線1
100
AcDbLine
 10
-3.0
 20
57.0
 30
0.0
 11
-2.5
 21
57.5
 31
0.0
  0
ARC
  5
628A
330
6270
100
AcDbEntity
  8
AM_0 外形線1
100
AcDbCircle
 10
1.899999999999976
 20
58.0
 30
0.0
 40
0.5
100
AcDbArc
 50
270.0
 51
0.0
  0
LINE
  5
628B
330
6270
100
AcDbEntity
  8
AM_0 外形線1
100
AcDbLine
 10
2.399999999999977
 20
58.0
 30
0.0
 11
2.399999999999977
 21
60.9000000000001
 31
0.0
  0
ARC
  5
628C
330
6270
100
AcDbEntity
  8
AM_0 外形線1
100
AcDbCircle
 10
1.899999999999976
 20
60.9000000000001
 30
0.0
 40
0.5
100
AcDbArc
 50
0.0
 51
90.0
  0
LINE
  5
628D
330
6270
100
AcDbEntity
  8
AM_0 外形線1
100
AcDbLine
 10
1.899999999999976
 20
61.4000000000001
 30
0.0
 11
0.0
 21
61.4000000000001
 31
0.0
  0
LWPOLYLINE
  5
628E
330
6270
100
AcDbEntity
  8
AM_0 外形線1
100
AcDbPolyline
 90
       73
 70
     0
 43
0.0
 10
1.19999999999993
 20
57.5
 10
1.304586999999969
 20
57.50742100000002
 10
1.408377999999969
 20
57.52962500000001
 10
1.510582999999883
 20
57.56644500000003
 10
1.610424999999963
 20
57.61760000000004
 10
1.707141999999976
 20
57.68270000000007
 10
1.800000000000068
 20
57.76125100000001
 10
1.888291999999977
 20
57.85265400000003
 10
1.971345999999925
 20
57.95621400000005
 10
2.048528999999915
 20
58.071142
 10
2.11925399999984
 20
58.19656399999995
 10
2.182982999999921
 20
58.33152599999993
 10
2.239230999999904
 20
58.47500000000001
 10
2.287569999999845
 20
58.62589500000002
 10
2.32763199999988
 20
58.7830610000001
 10
2.359110999999869
 20
58.94530299999996
 10
2.381769999999845
 20
59.11138600000004
 10
2.395433999999909
 20
59.28004699999998
 10
2.399999999999977
 20
59.45000000000003
 10
2.395433999999909
 20
59.61995400000001
 10
2.381769999999845
 20
59.78861400000004
 10
2.359110999999869
 20
59.95469700000001
 10
2.32763199999988
 20
60.116939
 10
2.287569999999845
 20
60.27410600000006
 10
2.239230999999904
 20
60.42499999999995
 10
2.182982999999921
 20
60.56847400000004
 10
2.11925399999984
 20
60.70343600000001
 10
2.048528999999915
 20
60.82885800000007
 10
1.971345999999925
 20
60.94378700000003
 10
1.888291999999977
 20
61.04734699999993
 10
1.800000000000068
 20
61.13875000000007
 10
1.707141999999976
 20
61.21730000000003
 10
1.610424999999963
 20
61.28240099999993
 10
1.510582999999883
 20
61.33355600000005
 10
1.408377999999969
 20
61.37037499999998
 10
1.304586999999969
 20
61.39257999999995
 10
1.19999999999993
 20
61.4000000000001
 10
1.095414000000005
 20
61.39257999999995
 10
0.9916230000000039
 20
61.37037499999998
 10
0.8894179999999778
 20
61.33355600000005
 10
0.7895760000000111
 20
61.28240099999993
 10
0.6928589999999986
 20
61.21730000000003
 10
0.6000000000000229
 20
61.13875000000007
 10
0.5117089999999962
 20
61.04734699999993
 10
0.428655000000049
 20
60.94378700000003
 10
0.3514719999999443
 20
60.82885800000007
 10
0.2807469999999057
 20
60.70343600000001
 10
0.2170179999999391
 20
60.56847400000004
 10
0.1607699999998431
 20
60.42499999999995
 10
0.1124309999999014
 20
60.27410600000006
 10
0.0723689999998669
 20
60.116939
 10
0.0408889999999929
 20
59.95469700000001
 10
0.0182309999999006
 20
59.78861400000004
 10
0.0045669999999518
 20
59.61995400000001
 10
0.0
 20
59.45000000000003
 10
0.0045669999999518
 20
59.28004699999998
 10
0.0182309999999006
 20
59.11138600000004
 10
0.0408889999999929
 20
58.94530299999996
 10
0.0723689999998669
 20
58.7830610000001
 10
0.1124309999999014
 20
58.62589500000002
 10
0.1607699999998431
 20
58.47500000000001
 10
0.2170179999999391
 20
58.33152599999993
 10
0.2807469999999057
 20
58.19656399999995
 10
0.3514719999999443
 20
58.071142
 10
0.428655000000049
 20
57.95621400000005
 10
0.5117089999999962
 20
57.85265400000003
 10
0.6000000000000229
 20
57.76125100000001
 10
0.6928589999999986
 20
57.68270000000007
 10
0.7895760000000111
 20
57.61760000000004
 10
0.8894179999999778
 20
57.56644500000003
 10
0.9916230000000039
 20
57.52962500000001
 10
1.095414000000005
 20
57.50742100000002
 10
1.19999999999993
 20
57.5
  0
LINE
  5
628F
330
6270
100
AcDbEntity
  8
AM_0 外形線1
100
AcDbLine
 10
18.0
 20
60.0
 30
0.0
 11
48.99999999999988
 21
60.0
 31
0.0
  0
LINE
  5
6290
330
6270
100
AcDbEntity
  8
AM_0 外形線1
100
AcDbLine
 10
38.9999999999999
 20
54.5
 30
0.0
 11
36.99999999999989
 21
54.5
 31
0.0
  0
LINE
  5
6291
330
6270
100
AcDbEntity
  8
AM_3 隠れ線
100
AcDbLine
 10
19.0
 20
50.40000000000009
 30
0.0
 11
34.99999999999989
 21
50.40000000000009
 31
0.0
  0
LINE
  5
6292
330
6270
100
AcDbEntity
  8
AM_0 外形線1
100
AcDbLine
 10
19.0
 20
50.40000000000009
 30
0.0
 11
17.0
 21
50.40000000000009
 31
0.0
  0
ARC
  5
6293
330
6270
100
AcDbEntity
  8
AM_0 外形線1
100
AcDbCircle
 10
36.99999999999989
 20
53.5
 30
0.0
 40
1.0
100
AcDbArc
 50
90.0
 51
180.0
  0
LINE
  5
6294
330
6270
100
AcDbEntity
  8
AM_0 外形線1
100
AcDbLine
 10
35.99999999999989
 20
53.06127600000002
 30
0.0
 11
35.99999999999989
 21
53.5
 31
0.0
  0
LINE
  5
6295
330
6270
100
AcDbEntity
  8
AM_3 隠れ線
100
AcDbLine
 10
35.99999999999989
 20
51.4000000000001
 30
0.0
 11
34.99999999999989
 21
50.40000000000009
 31
0.0
  0
LINE
  5
6296
330
6270
100
AcDbEntity
  8
AM_3 隠れ線
100
AcDbLine
 10
35.99999999999989
 20
53.06127600000002
 30
0.0
 11
35.99999999999989
 21
51.4000000000001
 31
0.0
  0
LINE
  5
6297
330
6270
100
AcDbEntity
  8
AM_0 外形線1
100
AcDbLine
 10
51.99999999999988
 20
57.0
 30
0.0
 11
51.99999999999988
 21
47.5
 31
0.0
  0
LINE
  5
6298
330
6270
100
AcDbEntity
  8
AM_0 外形線1
100
AcDbLine
 10
49.79999999999995
 20
52.20000000000005
 30
0.0
 11
42.19999999999993
 21
52.20000000000005
 31
0.0
  0
LWPOLYLINE
  5
6299
330
6270
100
AcDbEntity
  8
AM_0 外形線1
100
AcDbPolyline
 90
       73
 70
     0
 43
0.0
 10
45.99999999999988
 20
47.5
 10
46.33119199999998
 20
47.50894300000005
 10
46.65986399999996
 20
47.53570200000011
 10
46.98351299999989
 20
47.58007500000006
 10
47.29967699999985
 20
47.64172300000007
 10
47.60595000000001
 20
47.72017700000016
 10
47.89999999999998
 20
47.8148410000001
 10
48.17959099999995
 20
47.92499299999997
 10
48.44259299999986
 20
48.04979600000002
 10
48.687006
 20
48.18829900000003
 10
48.9109689999999
 20
48.33944900000004
 10
49.11277799999993
 20
48.50209599999993
 10
49.29089699999997
 20
48.67499999999996
 10
49.44396999999992
 20
48.85684700000002
 10
49.57083199999999
 20
49.04625299999998
 10
49.67051899999989
 20
49.24177499999996
 10
49.74226999999996
 20
49.44192700000008
 10
49.78553999999997
 20
49.64518399999997
 10
49.79999999999995
 20
49.85000000000002
 10
49.78553999999997
 20
50.05481600000006
 10
49.74226999999996
 20
50.25807300000007
 10
49.67051899999989
 20
50.45822500000007
 10
49.57083199999999
 20
50.65374800000006
 10
49.44396999999992
 20
50.84315300000003
 10
49.29089699999997
 20
51.02500000000009
 10
49.11277799999993
 20
51.19790499999999
 10
48.9109689999999
 20
51.360551
 10
48.687006
 20
51.51170100000001
 10
48.44259299999986
 20
51.65020500000003
 10
48.17959099999995
 20
51.77500800000006
 10
47.89999999999998
 20
51.88516000000004
 10
47.60595000000001
 20
51.979824
 10
47.29967699999985
 20
52.05827799999998
 10
46.98351299999989
 20
52.11992600000008
 10
46.65986399999996
 20
52.16429800000014
 10
46.33119199999998
 20
52.19105800000011
 10
45.99999999999988
 20
52.20000000000005
 10
45.66880899999989
 20
52.19105800000011
 10
45.34013700000001
 20
52.16429800000014
 10
45.01648799999986
 20
52.11992600000008
 10
44.70032400000001
 20
52.05827799999998
 10
44.39405099999999
 20
51.979824
 10
44.10000000000001
 20
51.88516000000004
 10
43.82040999999992
 20
51.77500800000006
 10
43.55740800000001
 20
51.65020500000003
 10
43.31299499999988
 20
51.51170100000001
 10
43.08903199999997
 20
51.360551
 10
42.88722299999995
 20
51.19790499999999
 10
42.7091039999999
 20
51.02500000000009
 10
42.55603099999996
 20
50.84315300000003
 10
42.42916899999989
 20
50.65374800000006
 10
42.32948199999998
 20
50.45822500000007
 10
42.25773099999992
 20
50.25807300000007
 10
42.2144609999999
 20
50.05481600000006
 10
42.19999999999993
 20
49.85000000000002
 10
42.2144609999999
 20
49.64518399999997
 10
42.25773099999992
 20
49.44192700000008
 10
42.32948199999998
 20
49.24177499999996
 10
42.42916899999989
 20
49.04625299999998
 10
42.55603099999996
 20
48.85684700000002
 10
42.7091039999999
 20
48.67499999999996
 10
42.88722299999995
 20
48.50209599999993
 10
43.08903199999997
 20
48.33944900000004
 10
43.31299499999988
 20
48.18829900000003
 10
43.55740800000001
 20
48.04979600000002
 10
43.82040999999992
 20
47.92499299999997
 10
44.10000000000001
 20
47.8148410000001
 10
44.39405099999999
 20
47.72017700000016
 10
44.70032400000001
 20
47.64172300000007
 10
45.01648799999986
 20
47.58007500000006
 10
45.34013700000001
 20
47.53570200000011
 10
45.66880899999989
 20
47.50894300000005
 10
45.99999999999988
 20
47.5
  0
LINE
  5
629A
330
6270
100
AcDbEntity
  8
AM_0 外形線1
100
AcDbLine
 10
42.19999999999993
 20
52.20000000000005
 30
0.0
 11
42.19999999999993
 21
47.5
 31
0.0
  0
LINE
  5
629B
330
6270
100
AcDbEntity
  8
AM_0 外形線1
100
AcDbLine
 10
42.19999999999993
 20
48.5
 30
0.0
 11
39.99999999999989
 21
48.5
 31
0.0
  0
LINE
  5
629C
330
6270
100
AcDbEntity
  8
AM_0 外形線1
100
AcDbLine
 10
39.99999999999989
 20
47.5
 30
0.0
 11
39.99999999999989
 21
53.5
 31
0.0
  0
ARC
  5
629D
330
6270
100
AcDbEntity
  8
AM_0 外形線1
100
AcDbCircle
 10
38.9999999999999
 20
53.5
 30
0.0
 40
1.0
100
AcDbArc
 50
0.0
 51
90.0
  0
LINE
  5
629E
330
6270
100
AcDbEntity
  8
AM_0 外形線1
100
AcDbLine
 10
51.99999999999988
 20
48.5
 30
0.0
 11
49.79999999999995
 21
48.5
 31
0.0
  0
LINE
  5
629F
330
6270
100
AcDbEntity
  8
AM_0 外形線1
100
AcDbLine
 10
49.79999999999995
 20
47.5
 30
0.0
 11
49.79999999999995
 21
52.20000000000005
 31
0.0
  0
ARC
  5
62A0
330
6270
100
AcDbEntity
  8
AM_0 外形線1
100
AcDbCircle
 10
48.99999999999988
 20
57.0
 30
0.0
 40
3.0
100
AcDbArc
 50
0.0
 51
90.0
  0
LINE
  5
62A2
330
6270
100
AcDbEntity
  8
AM_0 外形線1
100
AcDbLine
 10
0.5
 20
80.0
 30
0.0
 11
14.5
 21
80.0
 31
0.0
  0
LINE
  5
62A3
330
6270
100
AcDbEntity
  8
AM_0 外形線1
100
AcDbLine
 10
0.0
 20
79.5
 30
0.0
 11
0.5
 21
80.0
 31
0.0
  0
LINE
  5
62A4
330
6270
100
AcDbEntity
  8
AM_0 外形線1
100
AcDbLine
 10
0.0
 20
76.0
 30
0.0
 11
0.0
 21
79.5
 31
0.0
  0
LINE
  5
62A5
330
6270
100
AcDbEntity
  8
AM_0 外形線1
100
AcDbLine
 10
14.5
 20
80.0
 30
0.0
 11
15.0
 21
79.5
 31
0.0
  0
INSERT
  5
62A6
330
6270
100
AcDbEntity
  8
AM_0 外形線1
100
AcDbBlockReference
  2
ロッカクアナツキプラグ-1　R1／8
 10
7.499999999999886
 20
-61.92081599999993
 30
0.0
  0
LINE
  5
631E
330
6270
100
AcDbEntity
  8
AM_0 外形線1
100
AcDbLine
 10
-2.5
 20
57.5
 30
0.0
 11
1.899999999999976
 21
57.5
 31
0.0
  0
LINE
  5
631F
330
6270
100
AcDbEntity
  8
AM_0 外形線1
100
AcDbLine
 10
0.0
 20
67.0
 30
0.0
 11
15.0
 21
67.0
 31
0.0
  0
LINE
  5
6320
330
6270
100
AcDbEntity
  8
AM_0 外形線1
100
AcDbLine
 10
0.0
 20
76.0
 30
0.0
 11
15.0
 21
76.0
 31
0.0
  0
ENDBLK
  5
6272
330
6270
100
AcDbEntity
  8
0
100
AcDbBlockEnd
  0
BLOCK
  5
63EB
330
63EA
100
AcDbEntity
  8
0
100
AcDbBlockBegin
  2
ケースＡ-2 SAM160
 70
     0
 10
0.0
 20
0.0
 30
0.0
  3
ケースＡ-2 SAM160
  1

  0
LINE
  5
63ED
330
63EA
100
AcDbEntity
  8
AM_0 外形線1
100
AcDbLine
 10
-18.0
 20
-60.0
 30
0.0
 11
-49.0
 21
-60.0
 31
0.0
  0
LINE
  5
63EE
330
63EA
100
AcDbEntity
  8
AM_7 中心線
100
AcDbLine
 10
25.5
 20
71.5
 30
0.0
 11
-32.0
 21
71.5
 31
0.0
  0
LINE
  5
63EF
330
63EA
100
AcDbEntity
  8
AM_0 外形線1
100
AcDbLine
 10
-18.0
 20
60.0
 30
0.0
 11
-49.0
 21
60.0
 31
0.0
  0
LINE
  5
63F0
330
63EA
100
AcDbEntity
  8
AM_0 外形線1
100
AcDbLine
 10
-16.0
 20
54.0
 30
0.0
 11
-36.0
 21
54.0
 31
0.0
  0
LINE
  5
63F1
330
63EA
100
AcDbEntity
  8
AM_0 外形線1
100
AcDbLine
 10
-19.0
 20
50.40000000000009
 30
0.0
 11
-17.0
 21
50.40000000000009
 31
0.0
  0
LINE
  5
63F2
330
63EA
100
AcDbEntity
  8
AM_7 中心線
100
AcDbLine
 10
-14.0
 20
52.0
 30
0.0
 11
-38.0
 21
52.0
 31
0.0
  0
LINE
  5
63F3
330
63EA
100
AcDbEntity
  8
AM_0 外形線1
100
AcDbLine
 10
-52.0
 20
-57.0
 30
0.0
 11
-52.0
 21
0.0
 31
0.0
  0
ARC
  5
63F4
330
63EA
100
AcDbEntity
  8
AM_0 外形線1
100
AcDbCircle
 10
-49.0
 20
-57.0
 30
0.0
 40
3.0
100
AcDbArc
 50
180.0
 51
270.0
  0
LINE
  5
63F5
330
63EA
100
AcDbEntity
  8
AM_0 外形線1
100
AcDbLine
 10
-39.0
 20
54.5
 30
0.0
 11
-37.0
 21
54.5
 31
0.0
  0
LINE
  5
63F6
330
63EA
100
AcDbEntity
  8
AM_0 外形線1
100
AcDbLine
 10
-52.0
 20
57.0
 30
0.0
 11
-52.0
 21
47.5
 31
0.0
  0
LINE
  5
63F7
330
63EA
100
AcDbEntity
  8
AM_0 外形線1
100
AcDbLine
 10
-49.80000000000007
 20
52.20000000000005
 30
0.0
 11
-42.20000000000005
 21
52.20000000000005
 31
0.0
  0
LWPOLYLINE
  5
63F8
330
63EA
100
AcDbEntity
  8
AM_0 外形線1
100
AcDbPolyline
 90
       73
 70
     0
 43
0.0
 10
-42.20000000000005
 20
49.85000000000002
 10
-42.21446000000002
 20
50.05481600000006
 10
-42.25773000000002
 20
50.25807300000007
 10
-42.3294810000001
 20
50.45822500000007
 10
-42.42916800000012
 20
50.65374800000006
 10
-42.55603000000006
 20
50.84315300000003
 10
-42.70910300000003
 20
51.02500000000009
 10
-42.88722200000006
 20
51.19790499999999
 10
-43.08903100000009
 20
51.360551
 10
-43.312994
 20
51.51170100000001
 10
-43.55740700000001
 20
51.65020500000003
 10
-43.82040900000004
 20
51.77500800000006
 10
-44.10000000000001
 20
51.88516000000004
 10
-44.39404999999999
 20
51.979824
 10
-44.70032300000002
 20
52.05827799999998
 10
-45.01648699999998
 20
52.11992600000008
 10
-45.34013600000003
 20
52.16429800000014
 10
-45.66880800000001
 20
52.19105800000011
 10
-46.0
 20
52.20000000000005
 10
-46.33119099999999
 20
52.19105800000011
 10
-46.65986300000009
 20
52.16429800000014
 10
-46.98351200000002
 20
52.11992600000008
 10
-47.29967600000009
 20
52.05827799999998
 10
-47.605949
 20
51.979824
 10
-47.89999999999998
 20
51.88516000000004
 10
-48.17959000000008
 20
51.77500800000006
 10
-48.4425920000001
 20
51.65020500000003
 10
-48.6870050000001
 20
51.51170100000001
 10
-48.91096800000003
 20
51.360551
 10
-49.11277700000005
 20
51.19790499999999
 10
-49.29089600000009
 20
51.02500000000009
 10
-49.44396900000004
 20
50.84315300000003
 10
-49.5708310000001
 20
50.65374800000006
 10
-49.67051800000014
 20
50.45822500000007
 10
-49.74226900000008
 20
50.25807300000007
 10
-49.78553900000008
 20
50.05481600000006
 10
-49.80000000000007
 20
49.85000000000002
 10
-49.78553900000008
 20
49.64518399999997
 10
-49.74226900000008
 20
49.44192700000008
 10
-49.67051800000014
 20
49.24177499999996
 10
-49.5708310000001
 20
49.04625299999998
 10
-49.44396900000004
 20
48.85684700000002
 10
-49.29089600000009
 20
48.67499999999996
 10
-49.11277700000005
 20
48.50209599999993
 10
-48.91096800000003
 20
48.33944900000004
 10
-48.6870050000001
 20
48.18829900000003
 10
-48.4425920000001
 20
48.04979600000002
 10
-48.17959000000008
 20
47.92499299999997
 10
-47.89999999999998
 20
47.8148410000001
 10
-47.605949
 20
47.72017700000016
 10
-47.29967600000009
 20
47.64172300000007
 10
-46.98351200000002
 20
47.58007500000006
 10
-46.65986300000009
 20
47.53570200000011
 10
-46.33119099999999
 20
47.50894300000005
 10
-46.0
 20
47.5
 10
-45.66880800000001
 20
47.50894300000005
 10
-45.34013600000003
 20
47.53570200000011
 10
-45.01648699999998
 20
47.58007500000006
 10
-44.70032300000002
 20
47.64172300000007
 10
-44.39404999999999
 20
47.72017700000016
 10
-44.10000000000001
 20
47.8148410000001
 10
-43.82040900000004
 20
47.92499299999997
 10
-43.55740700000001
 20
48.04979600000002
 10
-43.312994
 20
48.18829900000003
 10
-43.08903100000009
 20
48.33944900000004
 10
-42.88722200000006
 20
48.50209599999993
 10
-42.70910300000003
 20
48.67499999999996
 10
-42.55603000000006
 20
48.85684700000002
 10
-42.42916800000012
 20
49.04625299999998
 10
-42.3294810000001
 20
49.24177499999996
 10
-42.25773000000002
 20
49.44192700000008
 10
-42.21446000000002
 20
49.64518399999997
 10
-42.20000000000005
 20
49.85000000000002
  0
LINE
  5
63F9
330
63EA
100
AcDbEntity
  8
AM_0 外形線1
100
AcDbLine
 10
-52.0
 20
48.5
 30
0.0
 11
-49.80000000000007
 21
48.5
 31
0.0
  0
LINE
  5
63FA
330
63EA
100
AcDbEntity
  8
AM_0 外形線1
100
AcDbLine
 10
-49.80000000000007
 20
47.5
 30
0.0
 11
-49.80000000000007
 21
52.20000000000005
 31
0.0
  0
LINE
  5
63FB
330
63EA
100
AcDbEntity
  8
AM_0 外形線1
100
AcDbLine
 10
-42.20000000000005
 20
52.20000000000005
 30
0.0
 11
-42.20000000000005
 21
47.5
 31
0.0
  0
LINE
  5
63FC
330
63EA
100
AcDbEntity
  8
AM_0 外形線1
100
AcDbLine
 10
-42.20000000000005
 20
48.5
 30
0.0
 11
-40.0
 21
48.5
 31
0.0
  0
LINE
  5
63FD
330
63EA
100
AcDbEntity
  8
AM_0 外形線1
100
AcDbLine
 10
-40.0
 20
47.5
 30
0.0
 11
-40.0
 21
53.5
 31
0.0
  0
ARC
  5
63FE
330
63EA
100
AcDbEntity
  8
AM_0 外形線1
100
AcDbCircle
 10
-39.0
 20
53.5
 30
0.0
 40
1.0
100
AcDbArc
 50
90.0
 51
180.0
  0
ARC
  5
63FF
330
63EA
100
AcDbEntity
  8
AM_0 外形線1
100
AcDbCircle
 10
-49.0
 20
57.0
 30
0.0
 40
3.0
100
AcDbArc
 50
90.0
 51
180.0
  0
LINE
  5
6400
330
63EA
100
AcDbEntity
  8
AM_3 隠れ線
100
AcDbLine
 10
-19.0
 20
50.40000000000009
 30
0.0
 11
-35.0
 21
50.40000000000009
 31
0.0
  0
ARC
  5
6401
330
63EA
100
AcDbEntity
  8
AM_0 外形線1
100
AcDbCircle
 10
-37.0
 20
53.5
 30
0.0
 40
1.0
100
AcDbArc
 50
0.0
 51
90.0
  0
LINE
  5
6402
330
63EA
100
AcDbEntity
  8
AM_0 外形線1
100
AcDbLine
 10
-36.0
 20
53.06127600000002
 30
0.0
 11
-36.0
 21
53.5
 31
0.0
  0
LINE
  5
6403
330
63EA
100
AcDbEntity
  8
AM_3 隠れ線
100
AcDbLine
 10
-36.0
 20
51.4000000000001
 30
0.0
 11
-35.0
 21
50.40000000000009
 31
0.0
  0
LINE
  5
6404
330
63EA
100
AcDbEntity
  8
AM_3 隠れ線
100
AcDbLine
 10
-36.0
 20
53.06127600000002
 30
0.0
 11
-36.0
 21
51.4000000000001
 31
0.0
  0
LINE
  5
6405
330
63EA
100
AcDbEntity
  8
AM_0 外形線1
100
AcDbLine
 10
-15.0
 20
-79.5
 30
0.0
 11
-15.0
 21
0.0
 31
0.0
  0
LINE
  5
6406
330
63EA
100
AcDbEntity
  8
AM_0 外形線1
100
AcDbLine
 10
0.0
 20
0.0
 30
0.0
 11
0.0
 21
-79.5
 31
0.0
  0
LINE
  5
6407
330
63EA
100
AcDbEntity
  8
AM_0 外形線1
100
AcDbLine
 10
-0.5
 20
-80.0
 30
0.0
 11
-14.5
 21
-80.0
 31
0.0
  0
LINE
  5
6408
330
63EA
100
AcDbEntity
  8
AM_0 外形線1
100
AcDbLine
 10
-14.5
 20
-80.0
 30
0.0
 11
-15.0
 21
-79.5
 31
0.0
  0
LINE
  5
6409
330
63EA
100
AcDbEntity
  8
AM_0 外形線1
100
AcDbLine
 10
0.0
 20
-79.5
 30
0.0
 11
-0.5
 21
-80.0
 31
0.0
  0
ARC
  5
640B
330
63EA
100
AcDbEntity
  8
AM_0 外形線1
100
AcDbCircle
 10
-18.0
 20
-63.0
 30
0.0
 40
3.0
100
AcDbArc
 50
0.0
 51
90.0
  0
LINE
  5
640C
330
63EA
100
AcDbEntity
  8
AM_0 外形線1
100
AcDbLine
 10
-15.0
 20
63.0
 30
0.0
 11
-15.0
 21
79.5
 31
0.0
  0
LINE
  5
640D
330
63EA
100
AcDbEntity
  8
AM_0 外形線1
100
AcDbLine
 10
-1.899999999999976
 20
57.5
 30
0.0
 11
2.5
 21
57.5
 31
0.0
  0
LINE
  5
640E
330
63EA
100
AcDbEntity
  8
AM_0 外形線1
100
AcDbLine
 10
-15.0
 20
67.0
 30
0.0
 11
0.0
 21
67.0
 31
0.0
  0
LINE
  5
640F
330
63EA
100
AcDbEntity
  8
AM_0 外形線1
100
AcDbLine
 10
-15.0
 20
54.5
 30
0.0
 11
3.0
 21
54.5
 31
0.0
  0
LINE
  5
6410
330
63EA
100
AcDbEntity
  8
AM_0 外形線1
100
AcDbLine
 10
-17.0
 20
50.40000000000009
 30
0.0
 11
-16.0
 21
51.4000000000001
 31
0.0
  0
LINE
  5
6411
330
63EA
100
AcDbEntity
  8
AM_0 外形線1
100
AcDbLine
 10
-16.0
 20
51.4000000000001
 30
0.0
 11
-16.0
 21
53.5
 31
0.0
  0
ARC
  5
6412
330
63EA
100
AcDbEntity
  8
AM_0 外形線1
100
AcDbCircle
 10
-15.0
 20
53.5
 30
0.0
 40
1.0
100
AcDbArc
 50
90.0
 51
180.0
  0
ARC
  5
6413
330
63EA
100
AcDbEntity
  8
AM_0 外形線1
100
AcDbCircle
 10
-18.0
 20
63.0
 30
0.0
 40
3.0
100
AcDbArc
 50
270.0
 51
0.0
  0
LINE
  5
6414
330
63EA
100
AcDbEntity
  8
AM_0 外形線1
100
AcDbLine
 10
0.0
 20
61.4000000000001
 30
0.0
 11
0.0
 21
67.0
 31
0.0
  0
ARC
  5
6415
330
63EA
100
AcDbEntity
  8
AM_0 外形線1
100
AcDbCircle
 10
-1.899999999999976
 20
58.0
 30
0.0
 40
0.5
100
AcDbArc
 50
180.0
 51
270.0
  0
LINE
  5
6416
330
63EA
100
AcDbEntity
  8
AM_0 外形線1
100
AcDbLine
 10
-2.399999999999977
 20
58.0
 30
0.0
 11
-2.399999999999977
 21
60.9000000000001
 31
0.0
  0
ARC
  5
6417
330
63EA
100
AcDbEntity
  8
AM_0 外形線1
100
AcDbCircle
 10
-1.899999999999976
 20
60.9000000000001
 30
0.0
 40
0.5
100
AcDbArc
 50
90.0
 51
180.0
  0
LINE
  5
6418
330
63EA
100
AcDbEntity
  8
AM_0 外形線1
100
AcDbLine
 10
-1.899999999999976
 20
61.4000000000001
 30
0.0
 11
0.0
 21
61.4000000000001
 31
0.0
  0
LWPOLYLINE
  5
6419
330
63EA
100
AcDbEntity
  8
AM_0 外形線1
100
AcDbPolyline
 90
       73
 70
     0
 43
0.0
 10
-1.200000000000044
 20
57.5
 10
-1.09541300000012
 20
57.50742100000002
 10
-0.9916220000001203
 20
57.52962500000001
 10
-0.8894170000000942
 20
57.56644500000003
 10
-0.7895750000000135
 20
57.61760000000004
 10
-0.6928580000000011
 20
57.68270000000007
 10
-0.6000000000000229
 20
57.76125100000001
 10
-0.5117079999999988
 20
57.85265400000003
 10
-0.4286540000000514
 20
57.95621400000005
 10
-0.3514710000000605
 20
58.071142
 10
-0.2807460000001356
 20
58.19656399999995
 10
-0.2170170000000553
 20
58.33152599999993
 10
-0.160769000000073
 20
58.47500000000001
 10
-0.1124300000001313
 20
58.62589500000002
 10
-0.0723680000000968
 20
58.7830610000001
 10
-0.0408890000001065
 20
58.94530299999996
 10
-0.0182300000001305
 20
59.11138600000004
 10
-0.004566000000068
 20
59.28004699999998
 10
0.0
 20
59.45000000000003
 10
-0.004566000000068
 20
59.61995400000001
 10
-0.0182300000001305
 20
59.78861400000004
 10
-0.0408890000001065
 20
59.95469700000001
 10
-0.0723680000000968
 20
60.116939
 10
-0.1124300000001313
 20
60.27410600000006
 10
-0.160769000000073
 20
60.42499999999995
 10
-0.2170170000000553
 20
60.56847400000004
 10
-0.2807460000001356
 20
60.70343600000001
 10
-0.3514710000000605
 20
60.82885800000007
 10
-0.4286540000000514
 20
60.94378700000003
 10
-0.5117079999999988
 20
61.04734699999993
 10
-0.6000000000000229
 20
61.13875000000007
 10
-0.6928580000000011
 20
61.21730000000003
 10
-0.7895750000000135
 20
61.28240099999993
 10
-0.8894170000000942
 20
61.33355600000005
 10
-0.9916220000001203
 20
61.37037499999998
 10
-1.09541300000012
 20
61.39257999999995
 10
-1.200000000000044
 20
61.4000000000001
 10
-1.304586000000084
 20
61.39257999999995
 10
-1.408377000000085
 20
61.37037499999998
 10
-1.510581999999999
 20
61.33355600000005
 10
-1.61042400000008
 20
61.28240099999993
 10
-1.707140999999977
 20
61.21730000000003
 10
-1.800000000000068
 20
61.13875000000007
 10
-1.88829099999998
 20
61.04734699999993
 10
-1.971345000000042
 20
60.94378700000003
 10
-2.048528000000032
 20
60.82885800000007
 10
-2.119253000000071
 20
60.70343600000001
 10
-2.182982000000038
 20
60.56847400000004
 10
-2.239230000000134
 20
60.42499999999995
 10
-2.287569000000075
 20
60.27410600000006
 10
-2.327631000000109
 20
60.116939
 10
-2.359111000000098
 20
59.95469700000001
 10
-2.381769000000076
 20
59.78861400000004
 10
-2.395433000000025
 20
59.61995400000001
 10
-2.399999999999977
 20
59.45000000000003
 10
-2.395433000000025
 20
59.28004699999998
 10
-2.381769000000076
 20
59.11138600000004
 10
-2.359111000000098
 20
58.94530299999996
 10
-2.327631000000109
 20
58.7830610000001
 10
-2.287569000000075
 20
58.62589500000002
 10
-2.239230000000134
 20
58.47500000000001
 10
-2.182982000000038
 20
58.33152599999993
 10
-2.119253000000071
 20
58.19656399999995
 10
-2.048528000000032
 20
58.071142
 10
-1.971345000000042
 20
57.95621400000005
 10
-1.88829099999998
 20
57.85265400000003
 10
-1.800000000000068
 20
57.76125100000001
 10
-1.707140999999977
 20
57.68270000000007
 10
-1.61042400000008
 20
57.61760000000004
 10
-1.510581999999999
 20
57.56644500000003
 10
-1.408377000000085
 20
57.52962500000001
 10
-1.304586000000084
 20
57.50742100000002
 10
-1.200000000000044
 20
57.5
  0
LINE
  5
641A
330
63EA
100
AcDbEntity
  8
AM_0 外形線1
100
AcDbLine
 10
3.0
 20
54.5
 30
0.0
 11
3.0
 21
57.0
 31
0.0
  0
LINE
  5
641B
330
63EA
100
AcDbEntity
  8
AM_0 外形線1
100
AcDbLine
 10
3.0
 20
57.0
 30
0.0
 11
2.5
 21
57.5
 31
0.0
  0
LINE
  5
641C
330
63EA
100
AcDbEntity
  8
AM_0 外形線1
100
AcDbLine
 10
-15.0
 20
76.0
 30
0.0
 11
0.0
 21
76.0
 31
0.0
  0
LINE
  5
641D
330
63EA
100
AcDbEntity
  8
AM_0 外形線1
100
AcDbLine
 10
-0.5
 20
80.0
 30
0.0
 11
-14.5
 21
80.0
 31
0.0
  0
LINE
  5
641E
330
63EA
100
AcDbEntity
  8
AM_0 外形線1
100
AcDbLine
 10
-14.5
 20
80.0
 30
0.0
 11
-15.0
 21
79.5
 31
0.0
  0
LINE
  5
641F
330
63EA
100
AcDbEntity
  8
AM_0 外形線1
100
AcDbLine
 10
0.0
 20
79.5
 30
0.0
 11
-0.5
 21
80.0
 31
0.0
  0
LINE
  5
6420
330
63EA
100
AcDbEntity
  8
AM_0 外形線1
100
AcDbLine
 10
0.0
 20
76.0
 30
0.0
 11
0.0
 21
79.5
 31
0.0
  0
INSERT
  5
6421
330
63EA
100
AcDbEntity
  8
AM_0 外形線1
100
AcDbBlockReference
  2
ロッカクアナツキプラグ-2　R1／8
 10
-7.5
 20
-61.92081599999993
 30
0.0
  0
ENDBLK
  5
63EC
330
63EA
100
AcDbEntity
  8
0
100
AcDbBlockEnd
  0
BLOCK
  5
6527
330
6526
100
AcDbEntity
  8
0
100
AcDbBlockBegin
  2
センタ-1 SAM160
 70
     0
 10
0.0
 20
0.0
 30
0.0
  3
センタ-1 SAM160
  1

  0
LINE
  5
6529
330
6526
100
AcDbEntity
  8
AM_0 外形線1
100
AcDbLine
 10
79.9999999999999
 20
-43.89999999999997
 30
0.0
 11
79.9999999999999
 21
43.9000000000001
 31
0.0
  0
LINE
  5
652B
330
6526
100
AcDbEntity
  8
AM_0 外形線1
100
AcDbLine
 10
0.0
 20
46.5
 30
0.0
 11
0.0
 21
0.0
 31
0.0
  0
LINE
  5
652C
330
6526
100
AcDbEntity
  8
AM_0 外形線1
100
AcDbLine
 10
46.99999999999988
 20
-47.5
 30
0.0
 11
53.99999999999988
 21
-47.5
 31
0.0
  0
ARC
  5
652D
330
6526
100
AcDbEntity
  8
AM_0 外形線1
100
AcDbCircle
 10
76.99999999999987
 20
-43.89999999999997
 30
0.0
 40
3.0
100
AcDbArc
 50
270.0
 51
0.0
  0
LINE
  5
652E
330
6526
100
AcDbEntity
  8
AM_0 外形線1
100
AcDbLine
 10
53.99999999999988
 20
-47.5
 30
0.0
 11
53.99999999999988
 21
0.0
 31
0.0
  0
LINE
  5
652F
330
6526
100
AcDbEntity
  8
AM_0 外形線1
100
AcDbLine
 10
55.99999999999988
 20
-46.89999999999996
 30
0.0
 11
55.99999999999988
 21
0.0
 31
0.0
  0
LINE
  5
6530
330
6526
100
AcDbEntity
  8
AM_0 外形線1
100
AcDbLine
 10
55.99999999999988
 20
-46.89999999999996
 30
0.0
 11
76.99999999999987
 21
-46.89999999999996
 31
0.0
  0
LINE
  5
6531
330
6526
100
AcDbEntity
  8
AM_0 外形線1
100
AcDbLine
 10
53.99999999999988
 20
-47.5
 30
0.0
 11
55.99999999999988
 21
-46.89999999999996
 31
0.0
  0
LINE
  5
6532
330
6526
100
AcDbEntity
  8
AM_0 外形線1
100
AcDbLine
 10
53.99999999999988
 20
47.5
 30
0.0
 11
32.49999999999989
 21
47.5
 31
0.0
  0
LINE
  5
6533
330
6526
100
AcDbEntity
  8
AM_0 外形線1
100
AcDbLine
 10
13.5
 20
47.0
 30
0.0
 11
0.5
 21
47.0
 31
0.0
  0
LINE
  5
6534
330
6526
100
AcDbEntity
  8
AM_0 外形線1
100
AcDbLine
 10
0.5
 20
47.0
 30
0.0
 11
0.0
 21
46.5
 31
0.0
  0
ARC
  5
6535
330
6526
100
AcDbEntity
  8
AM_0 外形線1
100
AcDbCircle
 10
32.49999999999989
 20
48.0
 30
0.0
 40
0.5
100
AcDbArc
 50
180.0
 51
270.0
  0
LINE
  5
6537
330
6526
100
AcDbEntity
  8
AM_7 中心線
100
AcDbLine
 10
21.5
 20
58.90499999999997
 30
0.0
 11
21.5
 21
44.79999999999995
 31
0.0
  0
ARC
  5
6538
330
6526
100
AcDbEntity
  8
AM_0 外形線1
100
AcDbCircle
 10
21.5
 20
0.0
 30
0.0
 40
53.905
100
AcDbArc
 50
79.84940799999944
 51
96.92572200000185
  0
LINE
  5
653A
330
6526
100
AcDbEntity
  8
AM_0 外形線1
100
AcDbLine
 10
14.0
 20
52.38069900000005
 30
0.0
 11
14.0
 21
47.5
 31
0.0
  0
ARC
  5
653B
330
6526
100
AcDbEntity
  8
AM_0 外形線1
100
AcDbCircle
 10
13.5
 20
47.5
 30
0.0
 40
0.5
100
AcDbArc
 50
270.0
 51
0.0
  0
LINE
  5
653C
330
6526
100
AcDbEntity
  8
AM_0 外形線1
100
AcDbLine
 10
15.0
 20
53.51167199999999
 30
0.0
 11
14.0
 21
52.38069900000005
 31
0.0
  0
LINE
  5
653D
330
6526
100
AcDbEntity
  8
AM_0 外形線1
100
AcDbLine
 10
31.99999999999989
 20
48.0
 30
0.0
 11
31.99999999999989
 21
51.872479
 31
0.0
  0
LINE
  5
653E
330
6526
100
AcDbEntity
  8
AM_0 外形線1
100
AcDbLine
 10
31.99999999999989
 20
51.872479
 30
0.0
 11
30.99999999999989
 21
53.06127600000002
 31
0.0
  0
LINE
  5
653F
330
6526
100
AcDbEntity
  8
AM_0 外形線1
100
AcDbLine
 10
76.99999999999987
 20
46.9000000000001
 30
0.0
 11
55.99999999999988
 21
46.9000000000001
 31
0.0
  0
LINE
  5
6540
330
6526
100
AcDbEntity
  8
AM_0 外形線1
100
AcDbLine
 10
55.99999999999988
 20
46.9000000000001
 30
0.0
 11
53.99999999999988
 21
47.5
 31
0.0
  0
ARC
  5
6541
330
6526
100
AcDbEntity
  8
AM_0 外形線1
100
AcDbCircle
 10
76.99999999999987
 20
43.9000000000001
 30
0.0
 40
3.0
100
AcDbArc
 50
0.0
 51
90.0
  0
LINE
  5
6542
330
6526
100
AcDbEntity
  8
AM_0 外形線1
100
AcDbLine
 10
79.9999999999999
 20
20.23142400000006
 30
0.0
 11
0.0
 21
20.23142400000006
 31
0.0
  0
ARC
  5
EF8F
330
6526
100
AcDbEntity
  8
AM_7 中心線
100
AcDbCircle
 10
21.5
 20
0.0
 30
0.0
 40
52.0
100
AcDbArc
 50
76.75950914223348
 51
100.779079099799
  0
ARC
  5
EF90
330
6526
100
AcDbEntity
  8
AM_0 外形線1
100
AcDbCircle
 10
21.5
 20
0.0
 30
0.0
 40
49.79999999999995
100
AcDbArc
 50
77.82821934507772
 51
98.66183868199854
  0
ENDBLK
  5
6528
330
6526
100
AcDbEntity
  8
0
100
AcDbBlockEnd
  0
BLOCK
  5
6583
330
6582
100
AcDbEntity
  8
0
100
AcDbBlockBegin
  2
センタ-2 SAM160
 70
     0
 10
0.0
 20
0.0
 30
0.0
  3
センタ-2 SAM160
  1

  0
LINE
  5
6585
330
6582
100
AcDbEntity
  8
AM_0 外形線1
100
AcDbLine
 10
-13.5
 20
47.0
 30
0.0
 11
-0.5
 21
47.0
 31
0.0
  0
LINE
  5
6587
330
6582
100
AcDbEntity
  8
AM_0 外形線1
100
AcDbLine
 10
-80.0
 20
-43.89999999999997
 30
0.0
 11
-80.0
 21
43.9000000000001
 31
0.0
  0
LINE
  5
6588
330
6582
100
AcDbEntity
  8
AM_0 外形線1
100
AcDbLine
 10
-54.0
 20
-47.5
 30
0.0
 11
-54.0
 21
0.0
 31
0.0
  0
LINE
  5
6589
330
6582
100
AcDbEntity
  8
AM_0 外形線1
100
AcDbLine
 10
-56.0
 20
-46.89999999999996
 30
0.0
 11
-56.0
 21
0.0
 31
0.0
  0
ARC
  5
658A
330
6582
100
AcDbEntity
  8
AM_0 外形線1
100
AcDbCircle
 10
-77.0
 20
-43.89999999999997
 30
0.0
 40
3.0
100
AcDbArc
 50
180.0
 51
270.0
  0
LINE
  5
658B
330
6582
100
AcDbEntity
  8
AM_0 外形線1
100
AcDbLine
 10
-54.0
 20
-47.5
 30
0.0
 11
-56.0
 21
-46.89999999999996
 31
0.0
  0
LINE
  5
658C
330
6582
100
AcDbEntity
  8
AM_0 外形線1
100
AcDbLine
 10
-56.0
 20
-46.89999999999996
 30
0.0
 11
-77.0
 21
-46.89999999999996
 31
0.0
  0
LINE
  5
658D
330
6582
100
AcDbEntity
  8
AM_0 外形線1
100
AcDbLine
 10
-47.0
 20
-47.5
 30
0.0
 11
-54.0
 21
-47.5
 31
0.0
  0
LINE
  5
658E
330
6582
100
AcDbEntity
  8
AM_0 外形線1
100
AcDbLine
 10
-56.0
 20
46.9000000000001
 30
0.0
 11
-54.0
 21
47.5
 31
0.0
  0
LINE
  5
658F
330
6582
100
AcDbEntity
  8
AM_0 外形線1
100
AcDbLine
 10
-77.0
 20
46.9000000000001
 30
0.0
 11
-56.0
 21
46.9000000000001
 31
0.0
  0
ARC
  5
6590
330
6582
100
AcDbEntity
  8
AM_0 外形線1
100
AcDbCircle
 10
-77.0
 20
43.9000000000001
 30
0.0
 40
3.0
100
AcDbArc
 50
90.0
 51
180.0
  0
LINE
  5
6591
330
6582
100
AcDbEntity
  8
AM_0 外形線1
100
AcDbLine
 10
-54.0
 20
47.5
 30
0.0
 11
-32.5
 21
47.5
 31
0.0
  0
LINE
  5
6592
330
6582
100
AcDbEntity
  8
AM_7 中心線
100
AcDbLine
 10
-21.5
 20
58.90499999999997
 30
0.0
 11
-21.5
 21
44.79999999999995
 31
0.0
  0
ARC
  5
6594
330
6582
100
AcDbEntity
  8
AM_0 外形線1
100
AcDbCircle
 10
-21.5
 20
0.0
 30
0.0
 40
53.905
100
AcDbArc
 50
83.07427799999819
 51
100.1505920000005
  0
ARC
  5
6595
330
6582
100
AcDbEntity
  8
AM_0 外形線1
100
AcDbCircle
 10
-32.5
 20
48.0
 30
0.0
 40
0.5
100
AcDbArc
 50
270.0
 51
0.0
  0
LINE
  5
6596
330
6582
100
AcDbEntity
  8
AM_0 外形線1
100
AcDbLine
 10
-32.0
 20
48.0
 30
0.0
 11
-32.0
 21
51.872479
 31
0.0
  0
LINE
  5
6597
330
6582
100
AcDbEntity
  8
AM_0 外形線1
100
AcDbLine
 10
-32.0
 20
51.872479
 30
0.0
 11
-31.0
 21
53.06127600000002
 31
0.0
  0
LINE
  5
6598
330
6582
100
AcDbEntity
  8
AM_0 外形線1
100
AcDbLine
 10
-15.0
 20
53.51167199999999
 30
0.0
 11
-14.0
 21
52.38069900000005
 31
0.0
  0
LINE
  5
6599
330
6582
100
AcDbEntity
  8
AM_0 外形線1
100
AcDbLine
 10
-14.0
 20
52.38069900000005
 30
0.0
 11
-14.0
 21
47.5
 31
0.0
  0
ARC
  5
659A
330
6582
100
AcDbEntity
  8
AM_0 外形線1
100
AcDbCircle
 10
-13.5
 20
47.5
 30
0.0
 40
0.5
100
AcDbArc
 50
180.0
 51
270.0
  0
LINE
  5
659B
330
6582
100
AcDbEntity
  8
AM_0 外形線1
100
AcDbLine
 10
0.0
 20
46.49999999999988
 30
0.0
 11
0.0
 21
0.0
 31
0.0
  0
LINE
  5
659C
330
6582
100
AcDbEntity
  8
AM_0 外形線1
100
AcDbLine
 10
-0.5
 20
47.0
 30
0.0
 11
0.0
 21
46.49999999999988
 31
0.0
  0
LINE
  5
659E
330
6582
100
AcDbEntity
  8
AM_0 外形線1
100
AcDbLine
 10
-80.0
 20
20.2314240000012
 30
0.0
 11
-0.0000000000001137
 21
20.23142400000029
 31
0.0
  0
ARC
  5
EFCB
330
6582
100
AcDbEntity
  8
AM_7 中心線
100
AcDbCircle
 10
-21.5
 20
0.0
 30
0.0
 40
52.0
100
AcDbArc
 50
80.19010130258367
 51
104.222125462282
  0
ARC
  5
EFCC
330
6582
100
AcDbEntity
  8
AM_0 外形線1
100
AcDbCircle
 10
-21.5
 20
0.0
 30
0.0
 40
49.79999999999995
100
AcDbArc
 50
81.33816131799823
 51
102.1717806549222
  0
ENDBLK
  5
6584
330
6582
100
AcDbEntity
  8
0
100
AcDbBlockEnd
  0
BLOCK
  5
68CE
330
68CD
100
AcDbEntity
  8
0
100
AcDbBlockBegin
  2
リーマボルト-1 SAM160 M8
 70
     0
 10
0.0
 20
0.0
 30
0.0
  3
リーマボルト-1 SAM160 M8
  1

  0
LINE
  5
68D0
330
68CD
100
AcDbEntity
  8
AM_0 外形線1
100
AcDbLine
 10
25.0
 20
3.922649999999975
 30
0.0
 11
25.0
 21
-3.922649999999975
 31
0.0
  0
LINE
  5
68D1
330
68CD
100
AcDbEntity
  8
AM_0 外形線1
100
AcDbLine
 10
1.5
 20
-4.5
 30
0.0
 11
1.5
 21
4.5
 31
0.0
  0
LINE
  5
68D2
330
68CD
100
AcDbEntity
  8
AM_0 外形線1
100
AcDbLine
 10
24.0
 20
4.5
 30
0.0
 11
24.0
 21
-4.5
 31
0.0
  0
LINE
  5
68D3
330
68CD
100
AcDbEntity
  8
AM_0 外形線1
100
AcDbLine
 10
38.5
 20
6.5
 30
0.0
 11
38.5
 21
-6.5
 31
0.0
  0
LINE
  5
68D4
330
68CD
100
AcDbEntity
  8
AM_0 外形線1
100
AcDbLine
 10
32.0
 20
-7.5
 30
0.0
 11
32.0
 21
7.5
 31
0.0
  0
ARC
  5
68D5
330
68CD
100
AcDbEntity
  8
AM_0 外形線1
100
AcDbCircle
 10
26.01480099999993
 20
0.0
 30
0.0
 40
12.4852
100
AcDbArc
 50
342.5076750000016
 51
17.49232499999834
  0
LINE
  5
68D6
330
68CD
100
AcDbEntity
  8
AM_0 外形線1
100
AcDbLine
 10
42.0
 20
3.0
 30
0.0
 11
42.0
 21
-3.0
 31
0.0
  0
LINE
  5
68D7
330
68CD
100
AcDbEntity
  8
AM_0 外形線1
100
AcDbLine
 10
41.0
 20
4.0
 30
0.0
 11
41.0
 21
-4.0
 31
0.0
  0
ARC
  5
68D8
330
68CD
100
AcDbEntity
  8
AM_0 外形線1
100
AcDbCircle
 10
3.881941999999979
 20
-3.247595000000046
 30
0.0
 40
9.384439999999999
100
AcDbArc
 50
159.7533799999986
 51
200.2466200000013
  0
LINE
  5
68D9
330
68CD
100
AcDbEntity
  8
AM_0 外形線1
100
AcDbLine
 10
-5.5
 20
3.464102000000024
 30
0.0
 11
-5.5
 21
-3.031088999999951
 31
0.0
  0
LINE
  5
68DA
330
68CD
100
AcDbEntity
  8
AM_0 外形線1
100
AcDbLine
 10
30.0
 20
-7.700000000000045
 30
0.0
 11
32.0
 21
-7.700000000000045
 31
0.0
  0
LINE
  5
68DB
330
68CD
100
AcDbEntity
  8
AM_0 外形線1
100
AcDbLine
 10
0.5
 20
-4.0
 30
0.0
 11
1.0
 21
-4.0
 31
0.0
  0
ARC
  5
68DC
330
68CD
100
AcDbEntity
  8
AM_0 外形線1
100
AcDbCircle
 10
0.5
 20
-4.5
 30
0.0
 40
0.5
100
AcDbArc
 50
90.0
 51
180.0
  0
LINE
  5
68DD
330
68CD
100
AcDbEntity
  8
AM_0 外形線1
100
AcDbLine
 10
-4.922648999999978
 20
-6.495189999999865
 30
0.0
 11
0.0
 21
-6.495189999999865
 31
0.0
  0
ARC
  5
68DE
330
68CD
100
AcDbEntity
  8
AM_0 外形線1
100
AcDbCircle
 10
1.0
 20
-4.5
 30
0.0
 40
0.5
100
AcDbArc
 50
0.0
 51
90.0
  0
LINE
  5
68DF
330
68CD
100
AcDbEntity
  8
AM_0 外形線1
100
AcDbLine
 10
25.0
 20
-3.922649999999975
 30
0.0
 11
24.0
 21
-4.5
 31
0.0
  0
LINE
  5
68E0
330
68CD
100
AcDbEntity
  8
AM_0 外形線1
100
AcDbLine
 10
25.0
 20
-3.922649999999975
 30
0.0
 11
30.0
 21
-3.922649999999975
 31
0.0
  0
LINE
  5
68E1
330
68CD
100
AcDbEntity
  8
AM_0 外形線1
100
AcDbLine
 10
42.0
 20
-3.0
 30
0.0
 11
41.0
 21
-4.0
 31
0.0
  0
LINE
  5
68E2
330
68CD
100
AcDbEntity
  8
AM_0 外形線1
100
AcDbLine
 10
38.5
 20
-6.5
 30
0.0
 11
37.92264999999998
 21
-7.5
 31
0.0
  0
ARC
  5
68E3
330
68CD
100
AcDbEntity
  8
AM_0 外形線1
100
AcDbCircle
 10
35.17121199999986
 20
-5.626387999999906
 30
0.0
 40
3.328787999999998
100
AcDbArc
 50
325.74681299999
 51
34.25318700001
  0
LINE
  5
68E4
330
68CD
100
AcDbEntity
  8
AM_0 外形線1
100
AcDbLine
 10
32.0
 20
-3.752776999999923
 30
0.0
 11
37.92264999999998
 21
-3.752776999999923
 31
0.0
  0
LINE
  5
68E5
330
68CD
100
AcDbEntity
  8
AM_0 外形線1
100
AcDbLine
 10
41.0
 20
-4.0
 30
0.0
 11
38.5
 21
-4.0
 31
0.0
  0
LINE
  5
68E6
330
68CD
100
AcDbEntity
  8
AM_4 細線
100
AcDbLine
 10
38.5
 20
-3.375
 30
0.0
 11
41.625
 21
-3.375
 31
0.0
  0
LINE
  5
68E7
330
68CD
100
AcDbEntity
  8
AM_0 外形線1
100
AcDbLine
 10
32.0
 20
-7.700000000000045
 30
0.0
 11
32.0
 21
-7.5
 31
0.0
  0
LINE
  5
68E8
330
68CD
100
AcDbEntity
  8
AM_0 外形線1
100
AcDbLine
 10
37.92264999999998
 20
-7.5
 30
0.0
 11
32.0
 21
-7.5
 31
0.0
  0
LINE
  5
68E9
330
68CD
100
AcDbEntity
  8
AM_0 外形線1
100
AcDbLine
 10
32.0
 20
7.700000000000045
 30
0.0
 11
30.0
 21
7.700000000000045
 31
0.0
  0
LINE
  5
68EA
330
68CD
100
AcDbEntity
  8
AM_0 外形線1
100
AcDbLine
 10
32.0
 20
1.333333999999922
 30
0.0
 11
30.0
 21
-0.6666660000000775
 31
0.0
  0
LINE
  5
68EB
330
68CD
100
AcDbEntity
  8
AM_0 外形線1
100
AcDbLine
 10
32.0
 20
0.6666669999999613
 30
0.0
 11
30.0
 21
-1.333333000000038
 31
0.0
  0
LINE
  5
68EC
330
68CD
100
AcDbEntity
  8
AM_0 外形線1
100
AcDbLine
 10
0.5
 20
4.0
 30
0.0
 11
1.0
 21
4.0
 31
0.0
  0
ARC
  5
68ED
330
68CD
100
AcDbEntity
  8
AM_0 外形線1
100
AcDbCircle
 10
0.5
 20
4.5
 30
0.0
 40
0.5
100
AcDbArc
 50
180.0
 51
270.0
  0
LINE
  5
68EE
330
68CD
100
AcDbEntity
  8
AM_0 外形線1
100
AcDbLine
 10
0.0
 20
6.495191000000088
 30
0.0
 11
-4.922648999999978
 21
6.495191000000088
 31
0.0
  0
ARC
  5
68EF
330
68CD
100
AcDbEntity
  8
AM_0 外形線1
100
AcDbCircle
 10
3.881941999999979
 20
3.247595000000046
 30
0.0
 40
9.384439999999999
100
AcDbArc
 50
159.7533799999986
 51
200.2466200000013
  0
ARC
  5
68F0
330
68CD
100
AcDbEntity
  8
AM_0 外形線1
100
AcDbCircle
 10
1.0
 20
4.5
 30
0.0
 40
0.5
100
AcDbArc
 50
270.0
 51
0.0
  0
LINE
  5
68F1
330
68CD
100
AcDbEntity
  8
AM_0 外形線1
100
AcDbLine
 10
24.0
 20
4.5
 30
0.0
 11
25.0
 21
3.922649999999975
 31
0.0
  0
LINE
  5
68F2
330
68CD
100
AcDbEntity
  8
AM_0 外形線1
100
AcDbLine
 10
25.0
 20
3.922649999999975
 30
0.0
 11
30.0
 21
3.922649999999975
 31
0.0
  0
LINE
  5
68F3
330
68CD
100
AcDbEntity
  8
AM_0 外形線1
100
AcDbLine
 10
41.0
 20
4.0
 30
0.0
 11
42.0
 21
3.0
 31
0.0
  0
LINE
  5
68F4
330
68CD
100
AcDbEntity
  8
AM_0 外形線1
100
AcDbLine
 10
32.0
 20
7.5
 30
0.0
 11
32.0
 21
7.700000000000045
 31
0.0
  0
LINE
  5
68F5
330
68CD
100
AcDbEntity
  8
AM_0 外形線1
100
AcDbLine
 10
32.0
 20
7.5
 30
0.0
 11
37.92264999999998
 21
7.5
 31
0.0
  0
LINE
  5
68F6
330
68CD
100
AcDbEntity
  8
AM_0 外形線1
100
AcDbLine
 10
37.92264999999998
 20
7.5
 30
0.0
 11
38.5
 21
6.5
 31
0.0
  0
ARC
  5
68F7
330
68CD
100
AcDbEntity
  8
AM_0 外形線1
100
AcDbCircle
 10
35.17121199999986
 20
5.626389000000016
 30
0.0
 40
3.328787999999998
100
AcDbArc
 50
325.74681299999
 51
34.25318700001
  0
LINE
  5
68F8
330
68CD
100
AcDbEntity
  8
AM_0 外形線1
100
AcDbLine
 10
32.0
 20
3.752777000000036
 30
0.0
 11
37.92264999999998
 21
3.752777000000036
 31
0.0
  0
LINE
  5
68F9
330
68CD
100
AcDbEntity
  8
AM_0 外形線1
100
AcDbLine
 10
38.5
 20
4.0
 30
0.0
 11
41.0
 21
4.0
 31
0.0
  0
LINE
  5
68FA
330
68CD
100
AcDbEntity
  8
AM_4 細線
100
AcDbLine
 10
38.5
 20
3.375
 30
0.0
 11
41.625
 21
3.375
 31
0.0
  0
LINE
  5
695B
330
68CD
100
AcDbEntity
  8
AM_0 外形線1
100
AcDbLine
 10
0.0
 20
0.0
 30
0.0
 11
-4.922649898368034
 21
-0.0000003591530913
 31
0.0
  0
LINE
  5
695C
330
68CD
100
AcDbEntity
  8
AM_0 外形線1
100
AcDbLine
 10
0.0
 20
6.495191000000088
 30
0.0
 11
0.0
 21
-6.495189999999865
 31
0.0
  0
LINE
  5
695D
330
68CD
100
AcDbEntity
  8
AM_0 外形線1
100
AcDbLine
 10
1.5
 20
4.5
 30
0.0
 11
24.0
 21
4.5
 31
0.0
  0
LINE
  5
695E
330
68CD
100
AcDbEntity
  8
AM_0 外形線1
100
AcDbLine
 10
1.5
 20
-4.5
 30
0.0
 11
24.0
 21
-4.5
 31
0.0
  0
LINE
  5
695F
330
68CD
100
AcDbEntity
  8
AM_0 外形線1
100
AcDbLine
 10
30.0
 20
7.700000000000045
 30
0.0
 11
29.99999999999989
 21
-7.700000000000045
 31
0.0
  0
ENDBLK
  5
68CF
330
68CD
100
AcDbEntity
  8
0
100
AcDbBlockEnd
  0
BLOCK
  5
696D
330
696C
100
AcDbEntity
  8
0
100
AcDbBlockBegin
  2
リーマボルト-2 SAM160 M8
 70
     0
 10
0.0
 20
0.0
 30
0.0
  3
リーマボルト-2 SAM160 M8
  1

  0
LINE
  5
696F
330
696C
100
AcDbEntity
  8
AM_0 外形線1
100
AcDbLine
 10
-32.0
 20
7.5
 30
0.0
 11
-37.92264899999998
 21
7.5
 31
0.0
  0
LINE
  5
6970
330
696C
100
AcDbEntity
  8
AM_0 外形線1
100
AcDbLine
 10
-37.92264899999998
 20
-7.5
 30
0.0
 11
-32.0
 21
-7.5
 31
0.0
  0
LINE
  5
6971
330
696C
100
AcDbEntity
  8
AM_0 外形線1
100
AcDbLine
 10
-32.0
 20
3.752777000000036
 30
0.0
 11
-37.92264899999998
 21
3.752777000000036
 31
0.0
  0
LINE
  5
6972
330
696C
100
AcDbEntity
  8
AM_0 外形線1
100
AcDbLine
 10
-32.0
 20
-3.752776999999923
 30
0.0
 11
-37.92264899999998
 21
-3.752776999999923
 31
0.0
  0
LINE
  5
6973
330
696C
100
AcDbEntity
  8
AM_0 外形線1
100
AcDbLine
 10
-38.5
 20
6.5
 30
0.0
 11
-38.5
 21
-6.5
 31
0.0
  0
ARC
  5
6974
330
696C
100
AcDbEntity
  8
AM_0 外形線1
100
AcDbCircle
 10
-26.01480000000004
 20
0.0
 30
0.0
 40
12.4852
100
AcDbArc
 50
162.5076750000006
 51
197.4923249999993
  0
LINE
  5
6975
330
696C
100
AcDbEntity
  8
AM_0 外形線1
100
AcDbLine
 10
-42.0
 20
3.0
 30
0.0
 11
-42.0
 21
-3.0
 31
0.0
  0
LINE
  5
6976
330
696C
100
AcDbEntity
  8
AM_0 外形線1
100
AcDbLine
 10
-41.0
 20
4.0
 30
0.0
 11
-41.0
 21
-4.0
 31
0.0
  0
LINE
  5
6977
330
696C
100
AcDbEntity
  8
AM_0 外形線1
100
AcDbLine
 10
-38.5
 20
-6.5
 30
0.0
 11
-37.92264899999998
 21
-7.5
 31
0.0
  0
ARC
  5
6978
330
696C
100
AcDbEntity
  8
AM_0 外形線1
100
AcDbCircle
 10
-35.17121100000009
 20
-5.626387999999906
 30
0.0
 40
3.328787999999998
100
AcDbArc
 50
145.7468129999918
 51
214.2531870000082
  0
LINE
  5
6979
330
696C
100
AcDbEntity
  8
AM_0 外形線1
100
AcDbLine
 10
-42.0
 20
-3.0
 30
0.0
 11
-41.0
 21
-4.0
 31
0.0
  0
LINE
  5
697A
330
696C
100
AcDbEntity
  8
AM_0 外形線1
100
AcDbLine
 10
-41.0
 20
-4.0
 30
0.0
 11
-38.5
 21
-4.0
 31
0.0
  0
LINE
  5
697B
330
696C
100
AcDbEntity
  8
AM_4 細線
100
AcDbLine
 10
-38.5
 20
-3.375
 30
0.0
 11
-41.625
 21
-3.375
 31
0.0
  0
LINE
  5
697C
330
696C
100
AcDbEntity
  8
AM_0 外形線1
100
AcDbLine
 10
-37.92264899999998
 20
7.5
 30
0.0
 11
-38.5
 21
6.5
 31
0.0
  0
ARC
  5
697D
330
696C
100
AcDbEntity
  8
AM_0 外形線1
100
AcDbCircle
 10
-35.17121100000009
 20
5.626389000000016
 30
0.0
 40
3.328787999999998
100
AcDbArc
 50
145.7468129999918
 51
214.2531870000082
  0
LINE
  5
697E
330
696C
100
AcDbEntity
  8
AM_0 外形線1
100
AcDbLine
 10
-38.5
 20
4.0
 30
0.0
 11
-41.0
 21
4.0
 31
0.0
  0
LINE
  5
697F
330
696C
100
AcDbEntity
  8
AM_0 外形線1
100
AcDbLine
 10
-41.0
 20
4.0
 30
0.0
 11
-42.0
 21
3.0
 31
0.0
  0
LINE
  5
6980
330
696C
100
AcDbEntity
  8
AM_4 細線
100
AcDbLine
 10
-38.5
 20
3.375
 30
0.0
 11
-41.625
 21
3.375
 31
0.0
  0
LINE
  5
6981
330
696C
100
AcDbEntity
  8
AM_0 外形線1
100
AcDbLine
 10
-25.0
 20
3.922649999999975
 30
0.0
 11
-25.0
 21
-3.922649999999975
 31
0.0
  0
LINE
  5
6982
330
696C
100
AcDbEntity
  8
AM_0 外形線1
100
AcDbLine
 10
-1.5
 20
-4.5
 30
0.0
 11
-1.5
 21
4.5
 31
0.0
  0
LINE
  5
6983
330
696C
100
AcDbEntity
  8
AM_0 外形線1
100
AcDbLine
 10
-24.0
 20
4.5
 30
0.0
 11
-24.0
 21
-4.5
 31
0.0
  0
LINE
  5
6984
330
696C
100
AcDbEntity
  8
AM_0 外形線1
100
AcDbLine
 10
-32.0
 20
-7.5
 30
0.0
 11
-32.0
 21
7.5
 31
0.0
  0
ARC
  5
6985
330
696C
100
AcDbEntity
  8
AM_0 外形線1
100
AcDbCircle
 10
-3.881940999999982
 20
-3.247595000000046
 30
0.0
 40
9.384439999999999
100
AcDbArc
 50
339.7533799999986
 51
20.24662000000134
  0
LINE
  5
6986
330
696C
100
AcDbEntity
  8
AM_0 外形線1
100
AcDbLine
 10
0.0
 20
-6.495189999999865
 30
0.0
 11
0.0
 21
3.464102000000024
 31
0.0
  0
LINE
  5
6987
330
696C
100
AcDbEntity
  8
AM_0 外形線1
100
AcDbLine
 10
5.5
 20
3.464102000000024
 30
0.0
 11
5.5
 21
-3.031088999999951
 31
0.0
  0
LINE
  5
6988
330
696C
100
AcDbEntity
  8
AM_0 外形線1
100
AcDbLine
 10
-25.0
 20
-3.922649999999975
 30
0.0
 11
-24.0
 21
-4.5
 31
0.0
  0
LINE
  5
6989
330
696C
100
AcDbEntity
  8
AM_0 外形線1
100
AcDbLine
 10
-30.0
 20
-7.700000000000045
 30
0.0
 11
-32.0
 21
-7.700000000000045
 31
0.0
  0
LINE
  5
698A
330
696C
100
AcDbEntity
  8
AM_0 外形線1
100
AcDbLine
 10
-32.0
 20
-7.700000000000045
 30
0.0
 11
-32.0
 21
-7.5
 31
0.0
  0
LINE
  5
698B
330
696C
100
AcDbEntity
  8
AM_0 外形線1
100
AcDbLine
 10
-25.0
 20
-3.922649999999975
 30
0.0
 11
-30.0
 21
-3.922649999999975
 31
0.0
  0
ARC
  5
698C
330
696C
100
AcDbEntity
  8
AM_0 外形線1
100
AcDbCircle
 10
-0.5
 20
-4.5
 30
0.0
 40
0.5
100
AcDbArc
 50
0.0
 51
90.0
  0
LINE
  5
698D
330
696C
100
AcDbEntity
  8
AM_0 外形線1
100
AcDbLine
 10
-0.5
 20
-4.0
 30
0.0
 11
-1.0
 21
-4.0
 31
0.0
  0
ARC
  5
698E
330
696C
100
AcDbEntity
  8
AM_0 外形線1
100
AcDbCircle
 10
-1.0
 20
-4.5
 30
0.0
 40
0.5
100
AcDbArc
 50
90.0
 51
180.0
  0
LINE
  5
698F
330
696C
100
AcDbEntity
  8
AM_0 外形線1
100
AcDbLine
 10
4.922649999999974
 20
-6.495189999999865
 30
0.0
 11
0.0
 21
-6.495189999999865
 31
0.0
  0
LINE
  5
6990
330
696C
100
AcDbEntity
  8
AM_0 外形線1
100
AcDbLine
 10
-24.0
 20
4.5
 30
0.0
 11
-25.0
 21
3.922649999999975
 31
0.0
  0
LINE
  5
6991
330
696C
100
AcDbEntity
  8
AM_0 外形線1
100
AcDbLine
 10
-32.0
 20
7.5
 30
0.0
 11
-32.0
 21
7.700000000000045
 31
0.0
  0
LINE
  5
6992
330
696C
100
AcDbEntity
  8
AM_0 外形線1
100
AcDbLine
 10
-32.0
 20
7.700000000000045
 30
0.0
 11
-30.0
 21
7.700000000000045
 31
0.0
  0
LINE
  5
6993
330
696C
100
AcDbEntity
  8
AM_0 外形線1
100
AcDbLine
 10
-25.0
 20
3.922649999999975
 30
0.0
 11
-30.0
 21
3.922649999999975
 31
0.0
  0
LINE
  5
6994
330
696C
100
AcDbEntity
  8
AM_0 外形線1
100
AcDbLine
 10
-32.0
 20
-1.333333000000038
 30
0.0
 11
-30.0
 21
0.6666669999999613
 31
0.0
  0
LINE
  5
6995
330
696C
100
AcDbEntity
  8
AM_0 外形線1
100
AcDbLine
 10
-32.0
 20
-0.6666660000000775
 30
0.0
 11
-30.0
 21
1.333333999999922
 31
0.0
  0
ARC
  5
6996
330
696C
100
AcDbEntity
  8
AM_0 外形線1
100
AcDbCircle
 10
-0.5
 20
4.5
 30
0.0
 40
0.5
100
AcDbArc
 50
270.0
 51
0.0
  0
LINE
  5
6997
330
696C
100
AcDbEntity
  8
AM_0 外形線1
100
AcDbLine
 10
-0.5
 20
4.0
 30
0.0
 11
-1.0
 21
4.0
 31
0.0
  0
ARC
  5
6998
330
696C
100
AcDbEntity
  8
AM_0 外形線1
100
AcDbCircle
 10
-1.0
 20
4.5
 30
0.0
 40
0.5
100
AcDbArc
 50
180.0
 51
270.0
  0
LINE
  5
6999
330
696C
100
AcDbEntity
  8
AM_0 外形線1
100
AcDbLine
 10
0.0
 20
6.495191000000088
 30
0.0
 11
4.922649999999974
 21
6.495191000000088
 31
0.0
  0
ARC
  5
699A
330
696C
100
AcDbEntity
  8
AM_0 外形線1
100
AcDbCircle
 10
-3.881940999999982
 20
3.247595000000046
 30
0.0
 40
9.384439999999999
100
AcDbArc
 50
339.7533799999986
 51
20.24662000000134
  0
LINE
  5
69FF
330
696C
100
AcDbEntity
  8
AM_0 外形線1
100
AcDbLine
 10
-1.5
 20
4.5
 30
0.0
 11
-24.0
 21
4.5
 31
0.0
  0
LINE
  5
6A00
330
696C
100
AcDbEntity
  8
AM_0 外形線1
100
AcDbLine
 10
-1.5
 20
-4.5
 30
0.0
 11
-24.0
 21
-4.5
 31
0.0
  0
LINE
  5
6A01
330
696C
100
AcDbEntity
  8
AM_0 外形線1
100
AcDbLine
 10
-30.0
 20
7.700000000000045
 30
0.0
 11
-30.0
 21
-7.700000000000045
 31
0.0
  0
LINE
  5
6A02
330
696C
100
AcDbEntity
  8
AM_0 外形線1
100
AcDbLine
 10
0.0
 20
6.495191000000088
 30
0.0
 11
0.0
 21
-6.495189999999865
 31
0.0
  0
LINE
  5
6A03
330
696C
100
AcDbEntity
  8
AM_0 外形線1
100
AcDbLine
 10
0.0
 20
0.0000005000001693
 30
0.0
 11
4.922650898367976
 21
-0.0000003591530913
 31
0.0
  0
ENDBLK
  5
696E
330
696C
100
AcDbEntity
  8
0
100
AcDbBlockEnd
  0
BLOCK
  5
7247
330
7246
100
AcDbEntity
  8
0
100
AcDbBlockBegin
  2
*D15
 70
     1
 10
0.0
 20
0.0
 30
0.0
  3
*D15
  1

  0
LINE
  5
E04B
330
7246
100
AcDbEntity
  8
AM_5 寸法線
 62
     3
100
AcDbLine
 10
379.4533319340031
 20
601.660198562769
 30
0.0
 11
298.4533319340031
 21
601.660198562769
 31
0.0
  0
LINE
  5
E04C
330
7246
100
AcDbEntity
  8
AM_5 寸法線
 62
     3
100
AcDbLine
 10
379.4533319340031
 20
506.660198562769
 30
0.0
 11
298.4533319340031
 21
506.660198562769
 31
0.0
  0
LINE
  5
E04D
330
7246
100
AcDbEntity
  8
AM_5 寸法線
 62
     3
100
AcDbLine
 10
300.0158319340031
 20
595.410198562769
 30
0.0
 11
300.0158319340031
 21
512.9101985627689
 31
0.0
  0
INSERT
  5
E04E
330
7246
100
AcDbEntity
  8
AM_5 寸法線
 62
     3
100
AcDbBlockReference
  2
_Open30
 10
300.0158319340031
 20
601.660198562769
 30
0.0
 41
6.25
 42
6.25
 43
6.25
 50
90.0
  0
INSERT
  5
E04F
330
7246
100
AcDbEntity
  8
AM_5 寸法線
 62
     3
100
AcDbBlockReference
  2
_Open30
 10
300.0158319340031
 20
506.660198562769
 30
0.0
 41
6.25
 42
6.25
 43
6.25
 50
270.0
  0
MTEXT
  5
E050
330
7246
100
AcDbEntity
  8
AM_5 寸法線
 62
     3
100
AcDbMText
 10
291.8908319340031
 20
554.1601985627688
 30
0.0
 40
8.75
 41
0.0
 46
0.0
 71
     5
 72
     1
  1
%%c95
  7
SEISA
 11
0.0000000000000001
 21
1.0
 31
0.0
 73
     1
 44
1.0
  0
POINT
  5
E051
330
7246
100
AcDbEntity
  8
Defpoints
 62
     0
100
AcDbPoint
 10
381.0158319340031
 20
601.660198562769
 30
0.0
  0
POINT
  5
E052
330
7246
100
AcDbEntity
  8
Defpoints
 62
     0
100
AcDbPoint
 10
381.0158319340031
 20
506.660198562769
 30
0.0
  0
POINT
  5
E053
330
7246
100
AcDbEntity
  8
Defpoints
 62
     0
100
AcDbPoint
 10
300.0158319340031
 20
506.660198562769
 30
0.0
  0
ENDBLK
  5
7248
330
7246
100
AcDbEntity
  8
0
100
AcDbBlockEnd
  0
BLOCK
  5
7289
330
7288
100
AcDbEntity
  8
0
100
AcDbBlockBegin
  2
*D16
 70
     1
 10
0.0
 20
0.0
 30
0.0
  3
*D16
  1

  0
LINE
  5
E054
330
7288
100
AcDbEntity
  8
AM_5 寸法線
 62
     3
100
AcDbLine
 10
670.578331934003
 20
601.660198562769
 30
0.0
 11
751.578331934003
 21
601.660198562769
 31
0.0
  0
LINE
  5
E055
330
7288
100
AcDbEntity
  8
AM_5 寸法線
 62
     3
100
AcDbLine
 10
670.578331934003
 20
506.660198562769
 30
0.0
 11
751.578331934003
 21
506.660198562769
 31
0.0
  0
LINE
  5
E056
330
7288
100
AcDbEntity
  8
AM_5 寸法線
 62
     3
100
AcDbLine
 10
750.015831934003
 20
595.410198562769
 30
0.0
 11
750.015831934003
 21
512.910198562769
 31
0.0
  0
INSERT
  5
E057
330
7288
100
AcDbEntity
  8
AM_5 寸法線
 62
     3
100
AcDbBlockReference
  2
_Open30
 10
750.015831934003
 20
601.660198562769
 30
0.0
 41
6.25
 42
6.25
 43
6.25
 50
90.0
  0
INSERT
  5
E058
330
7288
100
AcDbEntity
  8
AM_5 寸法線
 62
     3
100
AcDbBlockReference
  2
_Open30
 10
750.015831934003
 20
506.660198562769
 30
0.0
 41
6.25
 42
6.25
 43
6.25
 50
270.0
  0
MTEXT
  5
E059
330
7288
100
AcDbEntity
  8
AM_5 寸法線
 62
     3
100
AcDbMText
 10
741.8908319340028
 20
554.1601985627692
 30
0.0
 40
8.75
 41
0.0
 46
0.0
 71
     5
 72
     1
  1
%%c95
  7
SEISA
 11
0.0000000000000001
 21
1.0
 31
0.0
 73
     1
 44
1.0
  0
POINT
  5
E05A
330
7288
100
AcDbEntity
  8
Defpoints
 62
     0
100
AcDbPoint
 10
669.015831934003
 20
601.660198562769
 30
0.0
  0
POINT
  5
E05B
330
7288
100
AcDbEntity
  8
Defpoints
 62
     0
100
AcDbPoint
 10
669.015831934003
 20
506.660198562769
 30
0.0
  0
POINT
  5
E05C
330
7288
100
AcDbEntity
  8
Defpoints
 62
     0
100
AcDbPoint
 10
750.015831934003
 20
506.660198562769
 30
0.0
  0
ENDBLK
  5
728A
330
7288
100
AcDbEntity
  8
0
100
AcDbBlockEnd
  0
BLOCK
  5
72C7
330
72C6
100
AcDbEntity
  8
0
100
AcDbBlockBegin
  2
*D17
 70
     1
 10
0.0
 20
0.0
 30
0.0
  3
*D17
  1

  0
LINE
  5
E05D
330
72C6
100
AcDbEntity
  8
AM_5 寸法線
 62
     3
100
AcDbLine
 10
660.578331934003
 20
614.160198562769
 30
0.0
 11
776.578331934003
 21
614.1601985627687
 31
0.0
  0
LINE
  5
E05E
330
72C6
100
AcDbEntity
  8
AM_5 寸法線
 62
     3
100
AcDbLine
 10
660.578331934003
 20
494.160198562769
 30
0.0
 11
776.578331934003
 21
494.160198562769
 31
0.0
  0
LINE
  5
E05F
330
72C6
100
AcDbEntity
  8
AM_5 寸法線
 62
     3
100
AcDbLine
 10
775.015831934003
 20
607.9101985627687
 30
0.0
 11
775.015831934003
 21
500.410198562769
 31
0.0
  0
INSERT
  5
E060
330
72C6
100
AcDbEntity
  8
AM_5 寸法線
 62
     3
100
AcDbBlockReference
  2
_Open30
 10
775.015831934003
 20
614.1601985627687
 30
0.0
 41
6.25
 42
6.25
 43
6.25
 50
90.0
  0
INSERT
  5
E061
330
72C6
100
AcDbEntity
  8
AM_5 寸法線
 62
     3
100
AcDbBlockReference
  2
_Open30
 10
775.015831934003
 20
494.160198562769
 30
0.0
 41
6.25
 42
6.25
 43
6.25
 50
270.0
  0
MTEXT
  5
E062
330
72C6
100
AcDbEntity
  8
AM_5 寸法線
 62
     3
100
AcDbMText
 10
766.8908319340028
 20
554.1601985627691
 30
0.0
 40
8.75
 41
0.0
 46
0.0
 71
     5
 72
     1
  1
%%c120
  7
SEISA
 11
0.0000000000000001
 21
1.0
 31
0.0
 73
     1
 44
1.0
  0
POINT
  5
E063
330
72C6
100
AcDbEntity
  8
Defpoints
 62
     0
100
AcDbPoint
 10
659.015831934003
 20
614.160198562769
 30
0.0
  0
POINT
  5
E064
330
72C6
100
AcDbEntity
  8
Defpoints
 62
     0
100
AcDbPoint
 10
659.015831934003
 20
494.160198562769
 30
0.0
  0
POINT
  5
E065
330
72C6
100
AcDbEntity
  8
Defpoints
 62
     0
100
AcDbPoint
 10
775.015831934003
 20
494.160198562769
 30
0.0
  0
ENDBLK
  5
72C8
330
72C6
100
AcDbEntity
  8
0
100
AcDbBlockEnd
  0
BLOCK
  5
72FB
330
72FA
100
AcDbEntity
  8
0
100
AcDbBlockBegin
  2
*D18
 70
     1
 10
0.0
 20
0.0
 30
0.0
  3
*D18
  1

  0
LINE
  5
E066
330
72FA
100
AcDbEntity
  8
AM_5 寸法線
 62
     3
100
AcDbLine
 10
626.0783319340031
 20
634.160198562769
 30
0.0
 11
801.578331934003
 21
634.1601985627687
 31
0.0
  0
LINE
  5
E067
330
72FA
100
AcDbEntity
  8
AM_5 寸法線
 62
     3
100
AcDbLine
 10
626.0783319340031
 20
474.1601985627688
 30
0.0
 11
801.578331934003
 21
474.1601985627688
 31
0.0
  0
LINE
  5
E068
330
72FA
100
AcDbEntity
  8
AM_5 寸法線
 62
     3
100
AcDbLine
 10
800.015831934003
 20
627.9101985627687
 30
0.0
 11
800.015831934003
 21
480.4101985627688
 31
0.0
  0
INSERT
  5
E069
330
72FA
100
AcDbEntity
  8
AM_5 寸法線
 62
     3
100
AcDbBlockReference
  2
_Open30
 10
800.015831934003
 20
634.1601985627687
 30
0.0
 41
6.25
 42
6.25
 43
6.25
 50
90.0
  0
INSERT
  5
E06A
330
72FA
100
AcDbEntity
  8
AM_5 寸法線
 62
     3
100
AcDbBlockReference
  2
_Open30
 10
800.015831934003
 20
474.1601985627688
 30
0.0
 41
6.25
 42
6.25
 43
6.25
 50
270.0
  0
MTEXT
  5
E06B
330
72FA
100
AcDbEntity
  8
AM_5 寸法線
 62
     3
100
AcDbMText
 10
791.8908319340028
 20
554.1601985627691
 30
0.0
 40
8.75
 41
0.0
 46
0.0
 71
     5
 72
     1
  1
%%c160
  7
SEISA
 11
0.0000000000000001
 21
1.0
 31
0.0
 73
     1
 44
1.0
  0
POINT
  5
E06C
330
72FA
100
AcDbEntity
  8
Defpoints
 62
     0
100
AcDbPoint
 10
624.5158319340031
 20
634.160198562769
 30
0.0
  0
POINT
  5
E06D
330
72FA
100
AcDbEntity
  8
Defpoints
 62
     0
100
AcDbPoint
 10
624.5158319340031
 20
474.1601985627688
 30
0.0
  0
POINT
  5
E06E
330
72FA
100
AcDbEntity
  8
Defpoints
 62
     0
100
AcDbPoint
 10
800.015831934003
 20
474.1601985627688
 30
0.0
  0
ENDBLK
  5
72FC
330
72FA
100
AcDbEntity
  8
0
100
AcDbBlockEnd
  0
BLOCK
  5
734E
330
734D
100
AcDbEntity
  8
0
100
AcDbBlockBegin
  2
*D19
 70
     1
 10
0.0
 20
0.0
 30
0.0
  3
*D19
  1

  0
LINE
  5
E06F
330
734D
100
AcDbEntity
  8
AM_5 寸法線
 62
     3
100
AcDbLine
 10
435.0158319340031
 20
555.7226985627688
 30
0.0
 11
435.0158319340031
 21
560.9651139566848
 31
0.0
  0
LINE
  5
E070
330
734D
100
AcDbEntity
  8
AM_5 寸法線
 62
     3
100
AcDbLine
 10
355.0158319340031
 20
555.7226985627688
 30
0.0
 11
355.0158319340031
 21
560.9651139566848
 31
0.0
  0
LINE
  5
E071
330
734D
100
AcDbEntity
  8
AM_5 寸法線
 62
     3
100
AcDbLine
 10
428.7658319340031
 20
559.4026139566848
 30
0.0
 11
361.2658319340031
 21
559.4026139566848
 31
0.0
  0
INSERT
  5
E072
330
734D
100
AcDbEntity
  8
AM_5 寸法線
 62
     3
100
AcDbBlockReference
  2
_Open30
 10
435.0158319340031
 20
559.4026139566848
 30
0.0
 41
6.25
 42
6.25
 43
6.25
  0
INSERT
  5
E073
330
734D
100
AcDbEntity
  8
AM_5 寸法線
 62
     3
100
AcDbBlockReference
  2
_Open30
 10
355.0158319340031
 20
559.4026139566848
 30
0.0
 41
6.25
 42
6.25
 43
6.25
 50
180.0
  0
MTEXT
  5
E074
330
734D
100
AcDbEntity
  8
AM_5 寸法線
 62
     3
100
AcDbMText
 10
395.0158319340031
 20
567.5276139566848
 30
0.0
 40
8.75
 41
0.0
 46
0.0
 71
     5
 72
     1
  1
80
  7
SEISA
 73
     1
 44
1.0
  0
POINT
  5
E075
330
734D
100
AcDbEntity
  8
Defpoints
 62
     0
100
AcDbPoint
 10
435.0158319340031
 20
554.1601985627688
 30
0.0
  0
POINT
  5
E076
330
734D
100
AcDbEntity
  8
Defpoints
 62
     0
100
AcDbPoint
 10
355.0158319340031
 20
554.1601985627688
 30
0.0
  0
POINT
  5
E077
330
734D
100
AcDbEntity
  8
Defpoints
 62
     0
100
AcDbPoint
 10
355.0158319340031
 20
559.4026139566848
 30
0.0
  0
ENDBLK
  5
734F
330
734D
100
AcDbEntity
  8
0
100
AcDbBlockEnd
  0
BLOCK
  5
7366
330
7365
100
AcDbEntity
  8
0
100
AcDbBlockBegin
  2
*D20
 70
     1
 10
0.0
 20
0.0
 30
0.0
  3
*D20
  1

  0
LINE
  5
E078
330
7365
100
AcDbEntity
  8
AM_5 寸法線
 62
     3
100
AcDbLine
 10
695.015831934003
 20
555.7226985627688
 30
0.0
 11
695.015831934003
 21
560.9651139566848
 31
0.0
  0
LINE
  5
E079
330
7365
100
AcDbEntity
  8
AM_5 寸法線
 62
     3
100
AcDbLine
 10
615.0158319340031
 20
555.7226985627687
 30
0.0
 11
615.0158319340031
 21
560.9651139566848
 31
0.0
  0
LINE
  5
E07A
330
7365
100
AcDbEntity
  8
AM_5 寸法線
 62
     3
100
AcDbLine
 10
688.765831934003
 20
559.4026139566848
 30
0.0
 11
621.2658319340031
 21
559.4026139566848
 31
0.0
  0
INSERT
  5
E07B
330
7365
100
AcDbEntity
  8
AM_5 寸法線
 62
     3
100
AcDbBlockReference
  2
_Open30
 10
695.015831934003
 20
559.4026139566848
 30
0.0
 41
6.25
 42
6.25
 43
6.25
  0
INSERT
  5
E07C
330
7365
100
AcDbEntity
  8
AM_5 寸法線
 62
     3
100
AcDbBlockReference
  2
_Open30
 10
615.0158319340031
 20
559.4026139566848
 30
0.0
 41
6.25
 42
6.25
 43
6.25
 50
180.0
  0
MTEXT
  5
E07D
330
7365
100
AcDbEntity
  8
AM_5 寸法線
 62
     3
100
AcDbMText
 10
655.015831934003
 20
567.5276139566848
 30
0.0
 40
8.75
 41
0.0
 46
0.0
 71
     5
 72
     1
  1
80
  7
SEISA
 73
     1
 44
1.0
  0
POINT
  5
E07E
330
7365
100
AcDbEntity
  8
Defpoints
 62
     0
100
AcDbPoint
 10
695.015831934003
 20
554.1601985627688
 30
0.0
  0
POINT
  5
E07F
330
7365
100
AcDbEntity
  8
Defpoints
 62
     0
100
AcDbPoint
 10
615.0158319340031
 20
554.1601985627687
 30
0.0
  0
POINT
  5
E080
330
7365
100
AcDbEntity
  8
Defpoints
 62
     0
100
AcDbPoint
 10
615.0158319340031
 20
559.4026139566848
 30
0.0
  0
ENDBLK
  5
7367
330
7365
100
AcDbEntity
  8
0
100
AcDbBlockEnd
  0
BLOCK
  5
75B3
330
75B2
100
AcDbEntity
  8
0
100
AcDbBlockBegin
  2
*D21
 70
     1
 10
0.0
 20
0.0
 30
0.0
  3
*D21
  1

  0
LINE
  5
E0B5
330
75B2
100
AcDbEntity
  8
AM_5 寸法線
 62
     3
100
AcDbLine
 10
440.0158319340031
 20
473.0976985627688
 30
0.0
 11
440.0158319340031
 21
435.0976985627688
 31
0.0
  0
LINE
  5
E0B6
330
75B2
100
AcDbEntity
  8
AM_5 寸法線
 62
     3
100
AcDbLine
 10
425.0158319340031
 20
473.3370190239835
 30
0.0
 11
425.0158319340031
 21
435.0976985627688
 31
0.0
  0
LINE
  5
E0B7
330
75B2
100
AcDbEntity
  8
AM_5 寸法線
 62
     3
100
AcDbLine
 10
446.2658319340031
 20
436.6601985627688
 30
0.0
 11
452.5158319340031
 21
436.6601985627688
 31
0.0
  0
LINE
  5
E0B8
330
75B2
100
AcDbEntity
  8
AM_5 寸法線
 62
     3
100
AcDbLine
 10
418.7658319340031
 20
436.6601985627688
 30
0.0
 11
393.3908319340032
 21
436.6601985627688
 31
0.0
  0
LINE
  5
E0B9
330
75B2
100
AcDbEntity
  8
AM_5 寸法線
 62
     3
100
AcDbLine
 10
440.0158319340031
 20
436.6601985627688
 30
0.0
 11
425.0158319340031
 21
436.6601985627688
 31
0.0
  0
INSERT
  5
E0BA
330
75B2
100
AcDbEntity
  8
AM_5 寸法線
 62
     3
100
AcDbBlockReference
  2
GENDOT
 10
440.0158319340031
 20
436.6601985627688
 30
0.0
 41
6.25
 42
6.25
 43
6.25
 50
180.0
  0
INSERT
  5
E0BB
330
75B2
100
AcDbEntity
  8
AM_5 寸法線
 62
     3
100
AcDbBlockReference
  2
_Open30
 10
425.0158319340031
 20
436.6601985627688
 30
0.0
 41
6.25
 42
6.25
 43
6.25
  0
MTEXT
  5
E0BC
330
75B2
100
AcDbEntity
  8
AM_5 寸法線
 62
     3
100
AcDbMText
 10
402.9533319340031
 20
444.7851985627688
 30
0.0
 40
8.75
 41
0.0
 46
0.0
 71
     5
 72
     1
  1
15
  7
SEISA
 73
     1
 44
1.0
  0
POINT
  5
E0BD
330
75B2
100
AcDbEntity
  8
Defpoints
 62
     0
100
AcDbPoint
 10
440.0158319340031
 20
474.6601985627688
 30
0.0
  0
POINT
  5
E0BE
330
75B2
100
AcDbEntity
  8
Defpoints
 62
     0
100
AcDbPoint
 10
425.0158319340031
 20
474.8995190239835
 30
0.0
  0
POINT
  5
E0BF
330
75B2
100
AcDbEntity
  8
Defpoints
 62
     0
100
AcDbPoint
 10
425.0158319340031
 20
436.6601985627688
 30
0.0
  0
ENDBLK
  5
75B4
330
75B2
100
AcDbEntity
  8
0
100
AcDbBlockEnd
  0
BLOCK
  5
7607
330
7606
100
AcDbEntity
  8
0
100
AcDbBlockBegin
  2
*D22
 70
     1
 10
0.0
 20
0.0
 30
0.0
  3
*D22
  1

  0
LINE
  5
E0C0
330
7606
100
AcDbEntity
  8
AM_5 寸法線
 62
     3
100
AcDbLine
 10
610.0158319340031
 20
473.0976985627688
 30
0.0
 11
610.0158319340031
 21
435.0976985627688
 31
0.0
  0
LINE
  5
E0C1
330
7606
100
AcDbEntity
  8
AM_5 寸法線
 62
     3
100
AcDbLine
 10
625.0158319340031
 20
473.0976985627688
 30
0.0
 11
625.0158319340031
 21
435.0976985627688
 31
0.0
  0
LINE
  5
E0C2
330
7606
100
AcDbEntity
  8
AM_5 寸法線
 62
     3
100
AcDbLine
 10
603.7658319340031
 20
436.6601985627688
 30
0.0
 11
597.5158319340031
 21
436.6601985627688
 31
0.0
  0
LINE
  5
E0C3
330
7606
100
AcDbEntity
  8
AM_5 寸法線
 62
     3
100
AcDbLine
 10
631.2658319340031
 20
436.6601985627688
 30
0.0
 11
656.6408319340031
 21
436.6601985627688
 31
0.0
  0
LINE
  5
E0C4
330
7606
100
AcDbEntity
  8
AM_5 寸法線
 62
     3
100
AcDbLine
 10
610.0158319340031
 20
436.6601985627688
 30
0.0
 11
625.0158319340031
 21
436.6601985627688
 31
0.0
  0
INSERT
  5
E0C5
330
7606
100
AcDbEntity
  8
AM_5 寸法線
 62
     3
100
AcDbBlockReference
  2
GENDOT
 10
610.0158319340031
 20
436.6601985627688
 30
0.0
 41
6.25
 42
6.25
 43
6.25
  0
INSERT
  5
E0C6
330
7606
100
AcDbEntity
  8
AM_5 寸法線
 62
     3
100
AcDbBlockReference
  2
_Open30
 10
625.0158319340031
 20
436.6601985627688
 30
0.0
 41
6.25
 42
6.25
 43
6.25
 50
180.0
  0
MTEXT
  5
E0C7
330
7606
100
AcDbEntity
  8
AM_5 寸法線
 62
     3
100
AcDbMText
 10
647.0783319340031
 20
444.7851985627688
 30
0.0
 40
8.75
 41
0.0
 46
0.0
 71
     5
 72
     1
  1
15
  7
SEISA
 73
     1
 44
1.0
  0
POINT
  5
E0C8
330
7606
100
AcDbEntity
  8
Defpoints
 62
     0
100
AcDbPoint
 10
610.0158319340031
 20
474.6601985627688
 30
0.0
  0
POINT
  5
E0C9
330
7606
100
AcDbEntity
  8
Defpoints
 62
     0
100
AcDbPoint
 10
625.0158319340031
 20
474.6601985627688
 30
0.0
  0
POINT
  5
E0CA
330
7606
100
AcDbEntity
  8
Defpoints
 62
     0
100
AcDbPoint
 10
625.0158319340031
 20
436.6601985627688
 30
0.0
  0
ENDBLK
  5
7608
330
7606
100
AcDbEntity
  8
0
100
AcDbBlockEnd
  0
BLOCK
  5
7623
330
7622
100
AcDbEntity
  8
0
100
AcDbBlockBegin
  2
*D23
 70
     1
 10
0.0
 20
0.0
 30
0.0
  3
*D23
  1

  0
LINE
  5
E0CB
330
7622
100
AcDbEntity
  8
AM_5 寸法線
 62
     3
100
AcDbLine
 10
388.0158319340031
 20
495.597698562769
 30
0.0
 11
388.0158319340031
 21
410.0976985627688
 31
0.0
  0
LINE
  5
E0CC
330
7622
100
AcDbEntity
  8
AM_5 寸法線
 62
     3
100
AcDbLine
 10
355.0158319340031
 20
508.697698562769
 30
0.0
 11
355.0158319340031
 21
410.0976985627688
 31
0.0
  0
LINE
  5
E0CD
330
7622
100
AcDbEntity
  8
AM_5 寸法線
 62
     3
100
AcDbLine
 10
381.7658319340031
 20
411.6601985627688
 30
0.0
 11
361.2658319340031
 21
411.6601985627688
 31
0.0
  0
INSERT
  5
E0CE
330
7622
100
AcDbEntity
  8
AM_5 寸法線
 62
     3
100
AcDbBlockReference
  2
_Open30
 10
388.0158319340031
 20
411.6601985627688
 30
0.0
 41
6.25
 42
6.25
 43
6.25
  0
INSERT
  5
E0CF
330
7622
100
AcDbEntity
  8
AM_5 寸法線
 62
     3
100
AcDbBlockReference
  2
_Open30
 10
355.0158319340031
 20
411.6601985627688
 30
0.0
 41
6.25
 42
6.25
 43
6.25
 50
180.0
  0
MTEXT
  5
E0D0
330
7622
100
AcDbEntity
  8
AM_5 寸法線
 62
     3
100
AcDbMText
 10
371.5158319340031
 20
419.7851985627688
 30
0.0
 40
8.75
 41
0.0
 46
0.0
 71
     5
 72
     1
  1
33
  7
SEISA
 73
     1
 44
1.0
  0
POINT
  5
E0D1
330
7622
100
AcDbEntity
  8
Defpoints
 62
     0
100
AcDbPoint
 10
388.0158319340031
 20
497.160198562769
 30
0.0
  0
POINT
  5
E0D2
330
7622
100
AcDbEntity
  8
Defpoints
 62
     0
100
AcDbPoint
 10
355.0158319340031
 20
510.260198562769
 30
0.0
  0
POINT
  5
E0D3
330
7622
100
AcDbEntity
  8
Defpoints
 62
     0
100
AcDbPoint
 10
355.0158319340031
 20
411.6601985627688
 30
0.0
  0
ENDBLK
  5
7624
330
7622
100
AcDbEntity
  8
0
100
AcDbBlockEnd
  0
BLOCK
  5
763B
330
763A
100
AcDbEntity
  8
0
100
AcDbBlockBegin
  2
*D24
 70
     1
 10
0.0
 20
0.0
 30
0.0
  3
*D24
  1

  0
LINE
  5
E0D4
330
763A
100
AcDbEntity
  8
AM_5 寸法線
 62
     3
100
AcDbLine
 10
388.0158319340031
 20
495.597698562769
 30
0.0
 11
388.0158319340031
 21
410.0976985627688
 31
0.0
  0
LINE
  5
E0D5
330
763A
100
AcDbEntity
  8
AM_5 寸法線
 62
     3
100
AcDbLine
 10
440.0158319340031
 20
473.0976985627688
 30
0.0
 11
440.0158319340031
 21
410.0976985627688
 31
0.0
  0
LINE
  5
E0D6
330
763A
100
AcDbEntity
  8
AM_5 寸法線
 62
     3
100
AcDbLine
 10
394.2658319340031
 20
411.6601985627688
 30
0.0
 11
433.7658319340031
 21
411.6601985627688
 31
0.0
  0
INSERT
  5
E0D7
330
763A
100
AcDbEntity
  8
AM_5 寸法線
 62
     3
100
AcDbBlockReference
  2
_Open30
 10
388.0158319340031
 20
411.6601985627688
 30
0.0
 41
6.25
 42
6.25
 43
6.25
 50
180.0
  0
INSERT
  5
E0D8
330
763A
100
AcDbEntity
  8
AM_5 寸法線
 62
     3
100
AcDbBlockReference
  2
_Open30
 10
440.0158319340031
 20
411.6601985627688
 30
0.0
 41
6.25
 42
6.25
 43
6.25
  0
MTEXT
  5
E0D9
330
763A
100
AcDbEntity
  8
AM_5 寸法線
 62
     3
100
AcDbMText
 10
414.0158319340031
 20
419.7851985627688
 30
0.0
 40
8.75
 41
0.0
 46
0.0
 71
     5
 72
     1
  1
52
  7
SEISA
 73
     1
 44
1.0
  0
POINT
  5
E0DA
330
763A
100
AcDbEntity
  8
Defpoints
 62
     0
100
AcDbPoint
 10
388.0158319340031
 20
497.160198562769
 30
0.0
  0
POINT
  5
E0DB
330
763A
100
AcDbEntity
  8
Defpoints
 62
     0
100
AcDbPoint
 10
440.0158319340031
 20
474.6601985627688
 30
0.0
  0
POINT
  5
E0DC
330
763A
100
AcDbEntity
  8
Defpoints
 62
     0
100
AcDbPoint
 10
440.0158319340031
 20
411.6601985627688
 30
0.0
  0
ENDBLK
  5
763C
330
763A
100
AcDbEntity
  8
0
100
AcDbBlockEnd
  0
BLOCK
  5
766B
330
766A
100
AcDbEntity
  8
0
100
AcDbBlockBegin
  2
*D25
 70
     1
 10
0.0
 20
0.0
 30
0.0
  3
*D25
  1

  0
LINE
  5
E0E5
330
766A
100
AcDbEntity
  8
AM_5 寸法線
 62
     3
100
AcDbLine
 10
610.0158319340031
 20
473.0976985627688
 30
0.0
 11
610.0158319340031
 21
410.0976985627688
 31
0.0
  0
LINE
  5
E0E6
330
766A
100
AcDbEntity
  8
AM_5 寸法線
 62
     3
100
AcDbLine
 10
662.0158319340028
 20
495.597698562769
 30
0.0
 11
662.0158319340028
 21
410.0976985627688
 31
0.0
  0
LINE
  5
E0E7
330
766A
100
AcDbEntity
  8
AM_5 寸法線
 62
     3
100
AcDbLine
 10
616.2658319340031
 20
411.6601985627688
 30
0.0
 11
655.7658319340028
 21
411.6601985627688
 31
0.0
  0
INSERT
  5
E0E8
330
766A
100
AcDbEntity
  8
AM_5 寸法線
 62
     3
100
AcDbBlockReference
  2
_Open30
 10
610.0158319340031
 20
411.6601985627688
 30
0.0
 41
6.25
 42
6.25
 43
6.25
 50
180.0
  0
INSERT
  5
E0E9
330
766A
100
AcDbEntity
  8
AM_5 寸法線
 62
     3
100
AcDbBlockReference
  2
_Open30
 10
662.0158319340028
 20
411.6601985627688
 30
0.0
 41
6.25
 42
6.25
 43
6.25
  0
MTEXT
  5
E0EA
330
766A
100
AcDbEntity
  8
AM_5 寸法線
 62
     3
100
AcDbMText
 10
636.015831934003
 20
419.7851985627688
 30
0.0
 40
8.75
 41
0.0
 46
0.0
 71
     5
 72
     1
  1
52
  7
SEISA
 73
     1
 44
1.0
  0
POINT
  5
E0EB
330
766A
100
AcDbEntity
  8
Defpoints
 62
     0
100
AcDbPoint
 10
610.0158319340031
 20
474.6601985627688
 30
0.0
  0
POINT
  5
E0EC
330
766A
100
AcDbEntity
  8
Defpoints
 62
     0
100
AcDbPoint
 10
662.0158319340028
 20
497.160198562769
 30
0.0
  0
POINT
  5
E0ED
330
766A
100
AcDbEntity
  8
Defpoints
 62
     0
100
AcDbPoint
 10
662.0158319340028
 20
411.6601985627688
 30
0.0
  0
ENDBLK
  5
766C
330
766A
100
AcDbEntity
  8
0
100
AcDbBlockEnd
  0
BLOCK
  5
7683
330
7682
100
AcDbEntity
  8
0
100
AcDbBlockBegin
  2
*D26
 70
     1
 10
0.0
 20
0.0
 30
0.0
  3
*D26
  1

  0
LINE
  5
E0EE
330
7682
100
AcDbEntity
  8
AM_5 寸法線
 62
     3
100
AcDbLine
 10
662.0158319340028
 20
495.597698562769
 30
0.0
 11
662.0158319340028
 21
410.0976985627688
 31
0.0
  0
LINE
  5
E0EF
330
7682
100
AcDbEntity
  8
AM_5 寸法線
 62
     3
100
AcDbLine
 10
695.015831934003
 20
508.697698562769
 30
0.0
 11
695.015831934003
 21
410.0976985627688
 31
0.0
  0
LINE
  5
E0F0
330
7682
100
AcDbEntity
  8
AM_5 寸法線
 62
     3
100
AcDbLine
 10
668.2658319340028
 20
411.6601985627688
 30
0.0
 11
688.765831934003
 21
411.6601985627688
 31
0.0
  0
INSERT
  5
E0F1
330
7682
100
AcDbEntity
  8
AM_5 寸法線
 62
     3
100
AcDbBlockReference
  2
_Open30
 10
662.0158319340028
 20
411.6601985627688
 30
0.0
 41
6.25
 42
6.25
 43
6.25
 50
180.0
  0
INSERT
  5
E0F2
330
7682
100
AcDbEntity
  8
AM_5 寸法線
 62
     3
100
AcDbBlockReference
  2
_Open30
 10
695.015831934003
 20
411.6601985627688
 30
0.0
 41
6.25
 42
6.25
 43
6.25
  0
MTEXT
  5
E0F3
330
7682
100
AcDbEntity
  8
AM_5 寸法線
 62
     3
100
AcDbMText
 10
678.5158319340028
 20
419.7851985627688
 30
0.0
 40
8.75
 41
0.0
 46
0.0
 71
     5
 72
     1
  1
33
  7
SEISA
 73
     1
 44
1.0
  0
POINT
  5
E0F4
330
7682
100
AcDbEntity
  8
Defpoints
 62
     0
100
AcDbPoint
 10
662.0158319340028
 20
497.160198562769
 30
0.0
  0
POINT
  5
E0F5
330
7682
100
AcDbEntity
  8
Defpoints
 62
     0
100
AcDbPoint
 10
695.015831934003
 20
510.260198562769
 30
0.0
  0
POINT
  5
E0F6
330
7682
100
AcDbEntity
  8
Defpoints
 62
     0
100
AcDbPoint
 10
695.015831934003
 20
411.6601985627688
 30
0.0
  0
ENDBLK
  5
7684
330
7682
100
AcDbEntity
  8
0
100
AcDbBlockEnd
  0
BLOCK
  5
E68C
330
E68B
100
AcDbEntity
  8
0
100
AcDbBlockBegin
  2
ＧＣスペーサ SAMY160
 70
     0
 10
0.0
 20
0.0
 30
0.0
  3
ＧＣスペーサ SAMY160
  1

  0
LINE
  5
E68E
330
E68B
100
AcDbEntity
  8
AM_0 外形線1
100
AcDbLine
 10
222.2786813078505
 20
46.04999999999972
 30
0.0
 11
160.1420132353498
 21
46.04999999999995
 31
0.0
  0
LINE
  5
E68F
330
E68B
100
AcDbEntity
  8
AM_0 外形線1
100
AcDbLine
 10
210.2786813078505
 20
-57.1500000000001
 30
0.0
 11
163.1787835604065
 21
-57.1500000000001
 31
0.0
  0
LINE
  5
E690
330
E68B
100
AcDbEntity
  8
AM_0 外形線1
100
AcDbLine
 10
227.2786813078505
 20
57.1500000000001
 30
0.0
 11
163.1787830177317
 21
57.1500000000001
 31
0.0
  0
LINE
  5
E691
330
E68B
100
AcDbEntity
  8
AM_0 外形線1
100
AcDbLine
 10
112.2786813078496
 20
-57.1500000000001
 30
0.0
 11
159.1787835604065
 21
-57.1500000000001
 31
0.0
  0
LINE
  5
E693
330
E68B
100
AcDbEntity
  8
AM_0 外形線1
100
AcDbLine
 10
100.2786813078501
 20
46.04999999999995
 30
0.0
 11
156.0373592728157
 21
46.04999999999995
 31
0.0
  0
LINE
  5
E695
330
E68B
100
AcDbEntity
  8
AM_0 外形線1
100
AcDbLine
 10
95.27868130785014
 20
57.15000000000021
 30
0.0
 11
159.1787835604065
 21
57.15000000000021
 31
0.0
  0
LINE
  5
E696
330
E68B
100
AcDbEntity
  8
AM_0 外形線1
100
AcDbLine
 10
246.2786813078505
 20
0.0
 30
0.0
 11
246.2786813078505
 21
-79.5
 31
0.0
  0
LINE
  5
E697
330
E68B
100
AcDbEntity
  8
AM_7 中心線
100
AcDbLine
 10
224.4963573078505
 20
-71.5
 30
0.0
 11
266.2786813078504
 21
-71.5
 31
0.0
  0
LINE
  5
E698
330
E68B
100
AcDbEntity
  8
AM_0 外形線1
100
AcDbLine
 10
246.2786813078505
 20
58.0
 30
0.0
 11
246.2786813078505
 21
67.0
 31
0.0
  0
POLYLINE
  5
E699
330
E68B
100
AcDbEntity
  8
AM_4 細線
100
AcDb2dPolyline
 66
     1
 10
0.0
 20
0.0
 30
0.0
 70
     2
  0
VERTEX
  5
F655
330
E699
100
AcDbEntity
  8
AM_4 細線
100
AcDbVertex
100
AcDb2dVertex
 10
163.1787835604065
 20
57.1500000000001
 30
0.0
 42
0.051787988016138
  0
VERTEX
  5
F656
330
E699
100
AcDbEntity
  8
AM_4 細線
100
AcDbVertex
100
AcDb2dVertex
 10
160.5350304299074
 20
48.90950092562797
 30
0.0
 42
0.0741967507031143
 70
     1
  0
VERTEX
  5
F657
330
E699
100
AcDbEntity
  8
AM_4 細線
100
AcDbVertex
100
AcDb2dVertex
 10
160.1787835604065
 20
42.86250000000018
 30
0.0
 42
0.0685601676029069
  0
VERTEX
  5
F658
330
E699
100
AcDbEntity
  8
AM_4 細線
100
AcDbVertex
100
AcDb2dVertex
 10
162.0437881258473
 20
34.75804472820482
 30
0.0
 42
-0.091022461141132
 70
     1
  0
VERTEX
  5
F659
330
E699
100
AcDbEntity
  8
AM_4 細線
100
AcDbVertex
100
AcDb2dVertex
 10
163.1787835604065
 20
28.57500000000005
 30
0.0
 42
-0.1038545133909016
  0
VERTEX
  5
F65A
330
E699
100
AcDbEntity
  8
AM_4 細線
100
AcDbVertex
100
AcDb2dVertex
 10
161.6787835604065
 20
21.43125000000009
 30
0.0
 42
0.1038545133909016
 70
     1
  0
VERTEX
  5
F65B
330
E699
100
AcDbEntity
  8
AM_4 細線
100
AcDbVertex
100
AcDb2dVertex
 10
160.1787835604065
 20
14.28749999999991
 30
0.0
 42
0.1038545133909016
  0
VERTEX
  5
F65C
330
E699
100
AcDbEntity
  8
AM_4 細線
100
AcDbVertex
100
AcDb2dVertex
 10
161.6787835604065
 20
7.143749999999953
 30
0.0
 42
-0.1038545133909016
 70
     1
  0
VERTEX
  5
F65D
330
E699
100
AcDbEntity
  8
AM_4 細線
100
AcDbVertex
100
AcDb2dVertex
 10
163.1787835604065
 20
0.0
 30
0.0
 42
-0.1038545133909016
  0
VERTEX
  5
F65E
330
E699
100
AcDbEntity
  8
AM_4 細線
100
AcDbVertex
100
AcDb2dVertex
 10
161.6787835604065
 20
-7.143749999999953
 30
0.0
 42
0.1038545133909016
 70
     1
  0
VERTEX
  5
F65F
330
E699
100
AcDbEntity
  8
AM_4 細線
100
AcDbVertex
100
AcDb2dVertex
 10
160.1787835604065
 20
-14.28749999999991
 30
0.0
 42
0.1038545133909016
  0
VERTEX
  5
F660
330
E699
100
AcDbEntity
  8
AM_4 細線
100
AcDbVertex
100
AcDb2dVertex
 10
161.6787835604065
 20
-21.43125000000009
 30
0.0
 42
-0.1038545133909016
 70
     1
  0
VERTEX
  5
F661
330
E699
100
AcDbEntity
  8
AM_4 細線
100
AcDbVertex
100
AcDb2dVertex
 10
163.1787835604065
 20
-28.57500000000005
 30
0.0
 42
-0.0910224611411328
  0
VERTEX
  5
F662
330
E699
100
AcDbEntity
  8
AM_4 細線
100
AcDbVertex
100
AcDb2dVertex
 10
162.0437881258473
 20
-34.75804472820482
 30
0.0
 42
0.0685601676029062
 70
     1
  0
VERTEX
  5
F663
330
E699
100
AcDbEntity
  8
AM_4 細線
100
AcDbVertex
100
AcDb2dVertex
 10
160.1787835604065
 20
-42.86250000000018
 30
0.0
 42
0.0741967507031138
  0
VERTEX
  5
F664
330
E699
100
AcDbEntity
  8
AM_4 細線
100
AcDbVertex
100
AcDb2dVertex
 10
160.5350304299074
 20
-48.90950092562821
 30
0.0
 42
0.0517879880161347
 70
     1
  0
VERTEX
  5
F665
330
E699
100
AcDbEntity
  8
AM_4 細線
100
AcDbVertex
100
AcDb2dVertex
 10
163.1787835604065
 20
-57.1500000000001
 30
0.0
  0
SEQEND
  5
F666
330
E699
100
AcDbEntity
  8
AM_4 細線
  0
POLYLINE
  5
E6AC
330
E68B
100
AcDbEntity
  8
AM_4 細線
100
AcDb2dPolyline
 66
     1
 10
0.0
 20
0.0
 30
0.0
 70
     2
  0
VERTEX
  5
F668
330
E6AC
100
AcDbEntity
  8
AM_4 細線
100
AcDbVertex
100
AcDb2dVertex
 10
159.1787835604065
 20
57.1500000000001
 30
0.0
 42
0.051787988016138
  0
VERTEX
  5
F669
330
E6AC
100
AcDbEntity
  8
AM_4 細線
100
AcDbVertex
100
AcDb2dVertex
 10
156.5350304299074
 20
48.90950092562797
 30
0.0
 42
0.0741967507031143
 70
     1
  0
VERTEX
  5
F66A
330
E6AC
100
AcDbEntity
  8
AM_4 細線
100
AcDbVertex
100
AcDb2dVertex
 10
156.1787835604065
 20
42.86250000000018
 30
0.0
 42
0.0685601676029069
  0
VERTEX
  5
F66B
330
E6AC
100
AcDbEntity
  8
AM_4 細線
100
AcDbVertex
100
AcDb2dVertex
 10
158.0437881258473
 20
34.75804472820482
 30
0.0
 42
-0.091022461141132
 70
     1
  0
VERTEX
  5
F66C
330
E6AC
100
AcDbEntity
  8
AM_4 細線
100
AcDbVertex
100
AcDb2dVertex
 10
159.1787835604065
 20
28.57500000000005
 30
0.0
 42
-0.1038545133909016
  0
VERTEX
  5
F66D
330
E6AC
100
AcDbEntity
  8
AM_4 細線
100
AcDbVertex
100
AcDb2dVertex
 10
157.6787835604065
 20
21.43125000000009
 30
0.0
 42
0.1038545133909016
 70
     1
  0
VERTEX
  5
F66E
330
E6AC
100
AcDbEntity
  8
AM_4 細線
100
AcDbVertex
100
AcDb2dVertex
 10
156.1787835604065
 20
14.28749999999991
 30
0.0
 42
0.1038545133909016
  0
VERTEX
  5
F66F
330
E6AC
100
AcDbEntity
  8
AM_4 細線
100
AcDbVertex
100
AcDb2dVertex
 10
157.6787835604065
 20
7.143749999999953
 30
0.0
 42
-0.1038545133909016
 70
     1
  0
VERTEX
  5
F670
330
E6AC
100
AcDbEntity
  8
AM_4 細線
100
AcDbVertex
100
AcDb2dVertex
 10
159.1787835604065
 20
0.0
 30
0.0
 42
-0.1038545133909016
  0
VERTEX
  5
F671
330
E6AC
100
AcDbEntity
  8
AM_4 細線
100
AcDbVertex
100
AcDb2dVertex
 10
157.6787835604065
 20
-7.143749999999953
 30
0.0
 42
0.1038545133909016
 70
     1
  0
VERTEX
  5
F672
330
E6AC
100
AcDbEntity
  8
AM_4 細線
100
AcDbVertex
100
AcDb2dVertex
 10
156.1787835604065
 20
-14.28749999999991
 30
0.0
 42
0.1038545133909016
  0
VERTEX
  5
F673
330
E6AC
100
AcDbEntity
  8
AM_4 細線
100
AcDbVertex
100
AcDb2dVertex
 10
157.6787835604065
 20
-21.43125000000009
 30
0.0
 42
-0.1038545133909016
 70
     1
  0
VERTEX
  5
F674
330
E6AC
100
AcDbEntity
  8
AM_4 細線
100
AcDbVertex
100
AcDb2dVertex
 10
159.1787835604065
 20
-28.57500000000005
 30
0.0
 42
-0.0910224611411328
  0
VERTEX
  5
F675
330
E6AC
100
AcDbEntity
  8
AM_4 細線
100
AcDbVertex
100
AcDb2dVertex
 10
158.0437881258473
 20
-34.75804472820482
 30
0.0
 42
0.0685601676029062
 70
     1
  0
VERTEX
  5
F676
330
E6AC
100
AcDbEntity
  8
AM_4 細線
100
AcDbVertex
100
AcDb2dVertex
 10
156.1787835604065
 20
-42.86250000000018
 30
0.0
 42
0.0741967507031138
  0
VERTEX
  5
F677
330
E6AC
100
AcDbEntity
  8
AM_4 細線
100
AcDbVertex
100
AcDb2dVertex
 10
156.5350304299074
 20
-48.90950092562821
 30
0.0
 42
0.0517879880161347
 70
     1
  0
VERTEX
  5
F678
330
E6AC
100
AcDbEntity
  8
AM_4 細線
100
AcDbVertex
100
AcDb2dVertex
 10
159.1787835604065
 20
-57.1500000000001
 30
0.0
  0
SEQEND
  5
F679
330
E6AC
100
AcDbEntity
  8
AM_4 細線
  0
LINE
  5
E6BF
330
E68B
100
AcDbEntity
  8
AM_0 外形線1
100
AcDbLine
 10
246.2786813078505
 20
-58.0
 30
0.0
 11
246.2786813078505
 21
-79.5
 31
0.0
  0
LINE
  5
E6C0
330
E68B
100
AcDbEntity
  8
AM_0 外形線1
100
AcDbLine
 10
245.7786813078505
 20
-80.0
 30
0.0
 11
246.2786813078505
 21
-79.5
 31
0.0
1001
GENIUS_GENFIL_13
1070
     0
1040
0.5
1040
0.5
1040
0.5
1040
44.99999999999674
1000
~T
1001
GENIUS_GENOREF_13
1005
0
  0
LINE
  5
E6C1
330
E68B
100
AcDbEntity
  8
AM_0 外形線1
100
AcDbLine
 10
245.7786813078505
 20
-80.0
 30
0.0
 11
232.2786813078505
 21
-80.0
 31
0.0
  0
LINE
  5
E6C2
330
E68B
100
AcDbEntity
  8
AM_0 外形線1
100
AcDbLine
 10
227.2786813078505
 20
-64.5
 30
0.0
 11
227.2786813078505
 21
0.0
 31
0.0
  0
LINE
  5
E6C3
330
E68B
100
AcDbEntity
  8
AM_0 外形線1
100
AcDbLine
 10
231.2786813078505
 20
-79.0
 30
0.0
 11
231.2786813078505
 21
0.0000000000002274
 31
0.0
  0
LINE
  5
E6C4
330
E68B
100
AcDbEntity
  8
AM_0 外形線1
100
AcDbLine
 10
232.2786813078505
 20
-80.0
 30
0.0
 11
231.2786813078505
 21
-79.0
 31
0.0
  0
LINE
  5
E6C5
330
E68B
100
AcDbEntity
  8
AM_0 外形線1
100
AcDbLine
 10
231.2786813078505
 20
-64.5
 30
0.0
 11
227.2786813078505
 21
-64.5
 31
0.0
  0
LINE
  5
E6C6
330
E68B
100
AcDbEntity
  8
AM_0 外形線1
100
AcDbLine
 10
227.2786813078505
 20
-64.5
 30
0.0
 11
214.768132974424
 21
-58.21440691764109
 31
0.0
  0
HATCH
  5
E6C7
330
E68B
100
AcDbEntity
  8
AM_8 ハッチング
100
AcDbHatch
 10
0.0
 20
0.0
 30
0.0
210
0.0
220
0.0
230
1.0
  2
_U
 70
     0
 71
     0
 91
        1
 92
        7
 72
     1
 73
     1
 93
        5
 10
227.2786813078505
 20
57.1500000000001
 42
0.0
 10
227.2786813078505
 20
51.05000000000018
 42
-0.4142135623730951
 10
222.2786813078505
 20
46.05000000000018
 42
0.0
 10
219.2786813078505
 20
46.05000000000018
 42
0.0
 10
212.8700933198453
 20
57.1500000000001
 42
0.0
 97
        0
 75
     0
 76
     0
 52
45.0
 41
0.5
 77
     0
 78
     1
 53
315.0
 43
-922.6459191820618
 44
237.8072506981484
 45
-0.3535533905932737
 46
-0.3535533905932738
 79
     0
 47
0.065616777774133
 98
        1
 10
220.4483847110582
 20
53.01755870814577
1001
ACAD
1010
0.0
1020
0.0
1030
0.0
  0
LINE
  5
E6C8
330
E68B
100
AcDbEntity
  8
AM_0 外形線1
100
AcDbLine
 10
242.2786813078505
 20
57.5
 30
0.0
 11
242.2786813078505
 21
0.0
 31
0.0
  0
LINE
  5
E6CA
330
E68B
100
AcDbEntity
  8
AM_0 外形線1
100
AcDbLine
 10
245.7786813078505
 20
57.5
 30
0.0
 11
246.2786813078505
 21
58.0
 31
0.0
1001
GENIUS_GENFIL_13
1070
     0
1040
0.5
1040
0.5
1040
0.5
1040
44.99999999999674
1000
~T
1001
GENIUS_GENOREF_13
1005
0
  0
LINE
  5
E6CB
330
E68B
100
AcDbEntity
  8
AM_0 外形線1
100
AcDbLine
 10
245.7786813078505
 20
80.0
 30
0.0
 11
246.2786813078505
 21
79.5
 31
0.0
1001
GENIUS_GENFIL_13
1070
     0
1040
0.5
1040
0.5
1040
0.5
1040
45.0000000000065
1000
~T
1001
GENIUS_GENOREF_13
1005
0
  0
LINE
  5
E6CC
330
E68B
100
AcDbEntity
  8
AM_0 外形線1
100
AcDbLine
 10
245.7786813078505
 20
80.0
 30
0.0
 11
232.2786813078507
 21
80.0
 31
0.0
  0
LINE
  5
E6CD
330
E68B
100
AcDbEntity
  8
AM_0 外形線1
100
AcDbLine
 10
231.2786813078507
 20
79.0
 30
0.0
 11
232.2786813078507
 21
80.0
 31
0.0
1001
GENIUS_GENFIL_13
1070
     0
1040
1.0
1040
1.0
1040
1.000000000000113
1040
45.0000000000065
1000
~T
1001
GENIUS_GENOREF_13
1005
0
  0
LINE
  5
E6CE
330
E68B
100
AcDbEntity
  8
AM_0 外形線1
100
AcDbLine
 10
227.2786813078505
 20
64.5
 30
0.0
 11
227.2786813078505
 21
51.05000000000018
 31
0.0
  0
ARC
  5
E6CF
330
E68B
100
AcDbEntity
  8
AM_0 外形線1
100
AcDbCircle
 10
222.2786813078505
 20
51.05000000000018
 30
0.0
 40
5.0
100
AcDbArc
 50
270.0
 51
0.0
1001
GENIUS_GENODEF_13
1002
{
1000
HIER
1070
     0
1002
}
1002
{
1000
MANEDIT
1070
     0
1002
}
1002
{
1000
NOSEL
1070
     0
1002
}
1002
{
1000
BEHIND
1070
     0
1002
}
1002
{
1000
OTHER
1070
     0
1002
}
1002
{
1000
REACTOR
1002
}
1001
GENIUS_GENOBJ-N-FIL_13
1002
{
1000
OWNER
1000
GEN
1002
}
  0
LINE
  5
E6D0
330
E68B
100
AcDbEntity
  8
AM_0 外形線1
100
AcDbLine
 10
231.2786813078507
 20
79.0
 30
0.0
 11
231.2786813078505
 21
64.5
 31
0.0
  0
LINE
  5
E6D1
330
E68B
100
AcDbEntity
  8
AM_0 外形線1
100
AcDbLine
 10
231.2786813078505
 20
64.5
 30
0.0
 11
227.2786813078505
 21
64.5
 31
0.0
  0
LINE
  5
E6D2
330
E68B
100
AcDbEntity
  8
AM_0 外形線1
100
AcDbLine
 10
245.7786813078505
 20
57.5
 30
0.0
 11
242.2786813078505
 21
57.5
 31
0.0
  0
LINE
  5
E6D3
330
E68B
100
AcDbEntity
  8
AM_0 外形線1
100
AcDbLine
 10
219.2786813078505
 20
46.05000000000018
 30
0.0
 11
212.8700933198453
 21
57.1500000000001
 31
0.0
  0
LINE
  5
E6D4
330
E68B
100
AcDbEntity
  8
AM_0 外形線1
100
AcDbLine
 10
227.2786813078505
 20
64.5
 30
0.0
 11
214.7681329744236
 21
58.21440691764109
 31
0.0
  0
HATCH
  5
E6D5
330
E68B
100
AcDbEntity
  8
AM_8 ハッチング
100
AcDbHatch
 10
0.0
 20
0.0
 30
0.0
210
0.0
220
0.0
230
1.0
  2
_U
 70
     0
 71
     0
 91
        1
 92
        1
 93
        4
 72
     1
 10
214.7681329744236
 20
58.21440691764109
 11
227.2786813078503
 21
64.5
 72
     1
 10
227.2786813078505
 20
64.5
 11
227.2786813078503
 21
57.1500000000001
 72
     1
 10
227.27868130785
 20
57.1500000000001
 11
210.2786813078503
 21
57.1500000000001
 72
     2
 10
210.2786813078505
 20
67.15000000000009
 40
10.0
 50
270.0
 51
296.6760270577909
 73
     1
 97
        0
 75
     0
 76
     0
 52
45.0
 41
0.5
 77
     0
 78
     1
 53
315.0
 43
-631.7179813137077
 44
390.9097873101821
 45
-0.3535533905932737
 46
-0.3535533905932738
 79
     0
 98
        1
 10
-631.7179813137077
 20
390.9097873101821
1001
GENIUS_GENODEF_13
1002
{
1000
HIER
1070
     0
1002
}
1002
{
1000
MANEDIT
1070
     0
1002
}
1002
{
1000
NOSEL
1070
     0
1002
}
1002
{
1000
BEHIND
1070
     0
1002
}
1002
{
1000
OTHER
1070
     0
1002
}
1002
{
1000
REACTOR
1002
}
1001
GENIUS_GENOBJ-N-HTC_13
1002
{
1000
OWNER
1000
GEN
1002
}
1001
GENIUS_GENHATCH_13
1002
{
1000
DATA
1040
45.0
1042
-0.5
1000
_U
1070
     0
1011
222.727109834615
1021
59.30657673381893
1031
0.0
1002
}
1002
{
1000
UCS
1010
0.0
1020
0.0
1030
0.0
1010
1.0
1020
0.0
1030
0.0
1010
0.0
1020
1.0
1030
0.0
1002
}
  0
LINE
  5
E6D6
330
E68B
100
AcDbEntity
  8
AM_0 外形線1
100
AcDbLine
 10
217.2786813078505
 20
46.05000000000018
 30
0.0
 11
217.27868130785
 21
0.0
 31
0.0
  0
LINE
  5
E6D7
330
E68B
100
AcDbEntity
  8
AM_0 外形線1
100
AcDbLine
 10
231.2786813078505
 20
67.0
 30
0.0
 11
246.2786813078505
 21
67.0
 31
0.0
  0
LINE
  5
E6D8
330
E68B
100
AcDbEntity
  8
AM_0 外形線1
100
AcDbLine
 10
231.2786813078505
 20
76.0
 30
0.0
 11
246.2786813078505
 21
76.0
 31
0.0
  0
LINE
  5
E6D9
330
E68B
100
AcDbEntity
  8
AM_0 外形線1
100
AcDbLine
 10
76.27868130785019
 20
0.0
 30
0.0
 11
76.27868130785043
 21
-79.50000000000045
 31
0.0
  0
LINE
  5
E6DA
330
E68B
100
AcDbEntity
  8
AM_7 中心線
100
AcDbLine
 10
98.06100530785045
 20
-71.50000000000034
 30
0.0
 11
56.27868130785038
 21
-71.50000000000045
 31
0.0
  0
LINE
  5
E6DB
330
E68B
100
AcDbEntity
  8
AM_0 外形線1
100
AcDbLine
 10
76.27868130785016
 20
57.99999999999954
 30
0.0
 11
76.27868130785009
 21
67.0
 31
0.0
  0
LINE
  5
E6DC
330
E68B
100
AcDbEntity
  8
AM_0 外形線1
100
AcDbLine
 10
76.27868130785043
 20
-58.00000000000046
 30
0.0
 11
76.27868130785043
 21
-79.50000000000045
 31
0.0
  0
LINE
  5
E6DD
330
E68B
100
AcDbEntity
  8
AM_0 外形線1
100
AcDbLine
 10
76.77868130785043
 20
-80.00000000000046
 30
0.0
 11
76.27868130785043
 21
-79.50000000000045
 31
0.0
1001
GENIUS_GENFIL_13
1070
     0
1040
0.5
1040
0.5
1040
0.5
1040
44.99999999999674
1000
~T
1001
GENIUS_GENOREF_13
1005
0
  0
LINE
  5
E6DE
330
E68B
100
AcDbEntity
  8
AM_0 外形線1
100
AcDbLine
 10
76.77868130785043
 20
-80.00000000000046
 30
0.0
 11
90.27868130785043
 21
-80.00000000000046
 31
0.0
  0
LINE
  5
E6DF
330
E68B
100
AcDbEntity
  8
AM_0 外形線1
100
AcDbLine
 10
95.27868130785043
 20
-64.50000000000034
 30
0.0
 11
95.27868130785035
 21
0.0
 31
0.0
  0
LINE
  5
E6E0
330
E68B
100
AcDbEntity
  8
AM_0 外形線1
100
AcDbLine
 10
91.27868130785044
 20
-79.00000000000045
 30
0.0
 11
91.27868130785044
 21
0.0000000000002274
 31
0.0
  0
LINE
  5
E6E1
330
E68B
100
AcDbEntity
  8
AM_0 外形線1
100
AcDbLine
 10
90.27868130785043
 20
-80.00000000000046
 30
0.0
 11
91.27868130785044
 21
-79.00000000000045
 31
0.0
  0
LINE
  5
E6E2
330
E68B
100
AcDbEntity
  8
AM_0 外形線1
100
AcDbLine
 10
91.27868130785044
 20
-64.50000000000045
 30
0.0
 11
95.27868130785043
 21
-64.50000000000034
 31
0.0
  0
LINE
  5
E6E3
330
E68B
100
AcDbEntity
  8
AM_0 外形線1
100
AcDbLine
 10
95.27868130785043
 20
-64.50000000000034
 30
0.0
 11
107.7892296412767
 21
-58.21440691764188
 31
0.0
  0
HATCH
  5
E6E4
330
E68B
100
AcDbEntity
  8
AM_8 ハッチング
100
AcDbHatch
 10
0.0
 20
0.0
 30
0.0
210
0.0
220
0.0
230
1.0
  2
_U
 70
     0
 71
     0
 91
        1
 92
        7
 72
     1
 73
     1
 93
        5
 10
95.27868130785007
 20
57.14999999999964
 42
0.0
 10
95.27868130785007
 20
51.04999999999972
 42
0.4142135623730951
 10
100.2786813078501
 20
46.04999999999972
 42
0.0
 10
103.2786813078501
 20
46.04999999999972
 42
0.0
 10
109.6872692958552
 20
57.14999999999964
 42
0.0
 97
        0
 75
     0
 76
     0
 52
45.0
 41
0.5
 77
     0
 78
     1
 53
225.0000000000001
 43
1245.203281797762
 44
237.8072506981512
 45
0.3535533905932747
 46
-0.3535533905932728
 79
     0
 47
0.065616777774133
 98
        1
 10
102.1089779046424
 20
53.01755870814531
1001
ACAD
1010
0.0
1020
0.0
1030
0.0
  0
LINE
  5
E6E5
330
E68B
100
AcDbEntity
  8
AM_0 外形線1
100
AcDbLine
 10
80.27868130785009
 20
57.49999999999954
 30
0.0
 11
80.27868130785032
 21
-0.0000000000004547
 31
0.0
  0
LINE
  5
E6E7
330
E68B
100
AcDbEntity
  8
AM_0 外形線1
100
AcDbLine
 10
76.77868130785009
 20
57.49999999999954
 30
0.0
 11
76.27868130785009
 21
57.99999999999954
 31
0.0
1001
GENIUS_GENFIL_13
1070
     0
1040
0.5
1040
0.5
1040
0.5
1040
45.00000000000976
1000
~T
1001
GENIUS_GENOREF_13
1005
0
  0
LINE
  5
E6E8
330
E68B
100
AcDbEntity
  8
AM_0 外形線1
100
AcDbLine
 10
76.27868130785002
 20
79.49999999999954
 30
0.0
 11
76.77868130785005
 21
79.99999999999954
 31
0.0
1001
GENIUS_GENFIL_13
1070
     0
1040
0.5
1040
0.5
1040
0.5
1040
45.0000000000065
1000
~T
1001
GENIUS_GENOREF_13
1005
0
  0
LINE
  5
E6E9
330
E68B
100
AcDbEntity
  8
AM_0 外形線1
100
AcDbLine
 10
76.77868130785005
 20
79.99999999999954
 30
0.0
 11
90.27868130785007
 21
79.99999999999954
 31
0.0
  0
LINE
  5
E6EA
330
E68B
100
AcDbEntity
  8
AM_0 外形線1
100
AcDbLine
 10
95.27868130785007
 20
64.49999999999954
 30
0.0
 11
95.27868130785007
 21
51.04999999999972
 31
0.0
  0
ARC
  5
E6EB
330
E68B
100
AcDbEntity
  8
AM_0 外形線1
100
AcDbCircle
 10
100.2786813078501
 20
51.04999999999972
 30
0.0
 40
5.0
100
AcDbArc
 50
180.0
 51
270.0
1001
GENIUS_GENODEF_13
1002
{
1000
HIER
1070
     0
1002
}
1002
{
1000
MANEDIT
1070
     0
1002
}
1002
{
1000
NOSEL
1070
     0
1002
}
1002
{
1000
BEHIND
1070
     0
1002
}
1002
{
1000
OTHER
1070
     0
1002
}
1002
{
1000
REACTOR
1002
}
1001
GENIUS_GENOBJ-N-FIL_13
1002
{
1000
OWNER
1000
GEN
1002
}
  0
LINE
  5
E6EC
330
E68B
100
AcDbEntity
  8
AM_0 外形線1
100
AcDbLine
 10
91.27868130785008
 20
78.99999999999955
 30
0.0
 11
91.27868130785008
 21
64.49999999999954
 31
0.0
  0
LINE
  5
E6ED
330
E68B
100
AcDbEntity
  8
AM_0 外形線1
100
AcDbLine
 10
91.27868130785008
 20
78.99999999999955
 30
0.0
 11
90.27868130785007
 21
79.99999999999954
 31
0.0
1001
GENIUS_GENFIL_13
1070
     0
1040
1.0
1040
1.0
1040
1.000000000000113
1040
45.0
1000
~T
1001
GENIUS_GENOREF_13
1005
0
  0
LINE
  5
E6EE
330
E68B
100
AcDbEntity
  8
AM_0 外形線1
100
AcDbLine
 10
91.27868130785008
 20
64.49999999999954
 30
0.0
 11
95.27868130785007
 21
64.49999999999954
 31
0.0
  0
LINE
  5
E6EF
330
E68B
100
AcDbEntity
  8
AM_0 外形線1
100
AcDbLine
 10
76.77868130785009
 20
57.49999999999954
 30
0.0
 11
80.27868130785009
 21
57.49999999999954
 31
0.0
  0
LINE
  5
E6F0
330
E68B
100
AcDbEntity
  8
AM_0 外形線1
100
AcDbLine
 10
103.2786813078501
 20
46.04999999999972
 30
0.0
 11
109.6872692958552
 21
57.14999999999964
 31
0.0
  0
LINE
  5
E6F1
330
E68B
100
AcDbEntity
  8
AM_0 外形線1
100
AcDbLine
 10
95.27868130785007
 20
64.49999999999954
 30
0.0
 11
107.7892296412769
 21
58.21440691764086
 31
0.0
  0
HATCH
  5
E6F2
330
E68B
100
AcDbEntity
  8
AM_8 ハッチング
100
AcDbHatch
 10
0.0
 20
0.0
 30
0.0
210
0.0
220
0.0
230
1.0
  2
_U
 70
     0
 71
     0
 91
        1
 92
        1
 93
        4
 72
     1
 10
107.7892296412769
 20
58.21440691764063
 11
95.2786813078503
 21
64.49999999999954
 72
     1
 10
95.27868130785007
 20
64.49999999999954
 11
95.2786813078503
 21
57.14999999999964
 72
     1
 10
95.27868130785057
 20
57.14999999999964
 11
112.2786813078503
 21
57.14999999999964
 72
     2
 10
112.2786813078501
 20
67.14999999999964
 40
10.0
 50
449.9999999999998
 51
476.6760270577908
 73
     0
 97
        0
 75
     0
 76
     0
 52
45.0
 41
0.5
 77
     0
 78
     1
 53
225.0000000000001
 43
954.2753439294076
 44
390.9097873101838
 45
0.3535533905932747
 46
-0.3535533905932728
 79
     0
 98
        1
 10
954.2753439294076
 20
390.9097873101838
1001
GENIUS_GENODEF_13
1002
{
1000
HIER
1070
     0
1002
}
1002
{
1000
MANEDIT
1070
     0
1002
}
1002
{
1000
NOSEL
1070
     0
1002
}
1002
{
1000
BEHIND
1070
     0
1002
}
1002
{
1000
OTHER
1070
     0
1002
}
1002
{
1000
REACTOR
1002
}
1001
GENIUS_GENOBJ-N-HTC_13
1002
{
1000
OWNER
1000
GEN
1002
}
1001
GENIUS_GENHATCH_13
1002
{
1000
DATA
1040
45.0
1042
0.5
1000
_U
1070
     0
1011
99.83025278108565
1021
59.30657673381848
1031
0.0
1002
}
1002
{
1000
UCS
1010
0.0
1020
0.0
1030
0.0
1010
1.0
1020
0.0
1030
0.0
1010
0.0
1020
1.0
1030
0.0
1002
}
  0
LINE
  5
E6F3
330
E68B
100
AcDbEntity
  8
AM_0 外形線1
100
AcDbLine
 10
105.2786813078501
 20
46.04999999999972
 30
0.0
 11
105.2786813078504
 21
25.24159984279197
 31
0.0
  0
LINE
  5
E6F4
330
E68B
100
AcDbEntity
  8
AM_0 外形線1
100
AcDbLine
 10
91.27868130785008
 20
66.99999999999954
 30
0.0
 11
76.27868130785009
 21
66.99999999999954
 31
0.0
  0
LINE
  5
E6F5
330
E68B
100
AcDbEntity
  8
AM_0 外形線1
100
AcDbLine
 10
91.27868130785008
 20
75.99999999999955
 30
0.0
 11
76.27868130785009
 21
75.99999999999955
 31
0.0
  0
ARC
  5
E6F6
330
E68B
100
AcDbEntity
  8
AM_0 外形線1
100
AcDbCircle
 10
210.2786813078505
 20
-67.15000000000009
 30
0.0
 40
10.0
100
AcDbArc
 50
63.32397294221316
 51
90.0
  0
ARC
  5
E6F7
330
E68B
100
AcDbEntity
  8
AM_0 外形線1
100
AcDbCircle
 10
210.2786813078505
 20
67.15000000000009
 30
0.0
 40
10.0
100
AcDbArc
 50
270.0
 51
296.6760270577868
  0
ARC
  5
E6F8
330
E68B
100
AcDbEntity
  8
AM_0 外形線1
100
AcDbCircle
 10
112.2786813078496
 20
67.15000000000009
 30
0.0
 40
10.0
100
AcDbArc
 50
243.3239729422132
 51
270.0
  0
ARC
  5
E6F9
330
E68B
100
AcDbEntity
  8
AM_0 外形線1
100
AcDbCircle
 10
112.2786813078496
 20
-67.15000000000009
 30
0.0
 40
10.0
100
AcDbArc
 50
90.0
 51
116.6760270577868
  0
LINE
  5
EBCE
330
E68B
100
AcDbEntity
  8
AM_0 外形線1
100
AcDbLine
 10
246.2786813078505
 20
76.0
 30
0.0
 11
246.2786813078505
 21
79.5
 31
0.0
  0
LINE
  5
EBCF
330
E68B
100
AcDbEntity
  8
AM_0 外形線1
100
AcDbLine
 10
76.27868130785002
 20
75.99999999999965
 30
0.0
 11
76.27868130785002
 21
79.49999999999954
 31
0.0
  0
LINE
  5
F2D4
330
E68B
100
AcDbEntity
  8
AM_0 外形線1
100
AcDbLine
 10
105.2786813078504
 20
25.24159984279197
 30
0.0
 11
105.2786813078508
 21
-0.0000000000004547
 31
0.0
  0
LINE
  5
F6B6
330
E68B
100
AcDbEntity
  8
AM_0 外形線1
100
AcDbLine
 10
212.6495875937256
 20
-57.15000000000014
 30
0.0
 11
212.6495875937256
 21
0.0
 31
0.0
  0
LINE
  5
F6B7
330
E68B
100
AcDbEntity
  8
AM_0 外形線1
100
AcDbLine
 10
109.9077750219767
 20
-57.1500000000001
 30
0.0
 11
109.9077750219767
 21
0.0000000000001137
 31
0.0
  0
ENDBLK
  5
E68D
330
E68B
100
AcDbEntity
  8
0
100
AcDbBlockEnd
  0
BLOCK
  5
EC09
330
EC08
100
AcDbEntity
  8
0
100
AcDbBlockBegin
  2
*D28
 70
     1
 10
0.0
 20
0.0
 30
0.0
  3
*D28
  1

  0
LINE
  5
EC81
330
EC08
100
AcDbEntity
  8
AM_5 寸法線
 62
     3
100
AcDbLine
 10
440.0158319340032
 20
473.0976985627683
 30
0.0
 11
440.0158319340032
 21
435.0976985627688
 31
0.0
  0
LINE
  5
EC82
330
EC08
100
AcDbEntity
  8
AM_5 寸法線
 62
     3
100
AcDbLine
 10
455.0158319340032
 20
473.5976985627685
 30
0.0
 11
455.0158319340032
 21
435.0976985627688
 31
0.0
  0
LINE
  5
EC83
330
EC08
100
AcDbEntity
  8
AM_5 寸法線
 62
     3
100
AcDbLine
 10
433.7658319340032
 20
436.6601985627688
 30
0.0
 11
427.5158319340032
 21
436.6601985627688
 31
0.0
  0
LINE
  5
EC84
330
EC08
100
AcDbEntity
  8
AM_5 寸法線
 62
     3
100
AcDbLine
 10
461.2658319340032
 20
436.6601985627688
 30
0.0
 11
486.6408319340031
 21
436.6601985627688
 31
0.0
  0
LINE
  5
EC85
330
EC08
100
AcDbEntity
  8
AM_5 寸法線
 62
     3
100
AcDbLine
 10
440.0158319340032
 20
436.6601985627688
 30
0.0
 11
455.0158319340032
 21
436.6601985627688
 31
0.0
  0
INSERT
  5
EC86
330
EC08
100
AcDbEntity
  8
AM_5 寸法線
 62
     3
100
AcDbBlockReference
  2
GENDOT
 10
440.0158319340032
 20
436.6601985627688
 30
0.0
 41
6.25
 42
6.25
 43
6.25
  0
INSERT
  5
EC87
330
EC08
100
AcDbEntity
  8
AM_5 寸法線
 62
     3
100
AcDbBlockReference
  2
_Open30
 10
455.0158319340032
 20
436.6601985627688
 30
0.0
 41
6.25
 42
6.25
 43
6.25
 50
180.0
  0
MTEXT
  5
EC88
330
EC08
100
AcDbEntity
  8
AM_5 寸法線
 62
     3
100
AcDbMText
 10
477.0783319340032
 20
444.7851985627687
 30
0.0
 40
8.75
 41
0.0
 46
0.0
 71
     5
 72
     1
  1
15
  7
SEISA
 73
     1
 44
1.0
  0
POINT
  5
EC89
330
EC08
100
AcDbEntity
  8
Defpoints
 62
     0
100
AcDbPoint
 10
440.0158319340032
 20
474.6601985627683
 30
0.0
  0
POINT
  5
EC8A
330
EC08
100
AcDbEntity
  8
Defpoints
 62
     0
100
AcDbPoint
 10
455.0158319340032
 20
475.1601985627685
 30
0.0
  0
POINT
  5
EC8B
330
EC08
100
AcDbEntity
  8
Defpoints
 62
     0
100
AcDbPoint
 10
455.0158319340032
 20
436.6601985627688
 30
0.0
  0
ENDBLK
  5
EC0A
330
EC08
100
AcDbEntity
  8
0
100
AcDbBlockEnd
  0
BLOCK
  5
EC5C
330
EC5B
100
AcDbEntity
  8
0
100
AcDbBlockBegin
  2
*D29
 70
     1
 10
0.0
 20
0.0
 30
0.0
  3
*D29
  1

  0
LINE
  5
EC97
330
EC5B
100
AcDbEntity
  8
AM_5 寸法線
 62
     3
100
AcDbLine
 10
610.0158319340032
 20
473.0976985627688
 30
0.0
 11
610.0158319340032
 21
435.0976985627686
 31
0.0
  0
LINE
  5
EC98
330
EC5B
100
AcDbEntity
  8
AM_5 寸法線
 62
     3
100
AcDbLine
 10
595.0158319340032
 20
473.5976985627688
 30
0.0
 11
595.0158319340032
 21
435.0976985627686
 31
0.0
  0
LINE
  5
EC99
330
EC5B
100
AcDbEntity
  8
AM_5 寸法線
 62
     3
100
AcDbLine
 10
616.2658319340032
 20
436.6601985627686
 30
0.0
 11
622.5158319340032
 21
436.6601985627686
 31
0.0
  0
LINE
  5
EC9A
330
EC5B
100
AcDbEntity
  8
AM_5 寸法線
 62
     3
100
AcDbLine
 10
588.7658319340032
 20
436.6601985627686
 30
0.0
 11
563.3908319340032
 21
436.6601985627686
 31
0.0
  0
LINE
  5
EC9B
330
EC5B
100
AcDbEntity
  8
AM_5 寸法線
 62
     3
100
AcDbLine
 10
610.0158319340032
 20
436.6601985627686
 30
0.0
 11
595.0158319340032
 21
436.6601985627686
 31
0.0
  0
INSERT
  5
EC9C
330
EC5B
100
AcDbEntity
  8
AM_5 寸法線
 62
     3
100
AcDbBlockReference
  2
GENDOT
 10
610.0158319340032
 20
436.6601985627686
 30
0.0
 41
6.25
 42
6.25
 43
6.25
 50
180.0
  0
INSERT
  5
EC9D
330
EC5B
100
AcDbEntity
  8
AM_5 寸法線
 62
     3
100
AcDbBlockReference
  2
_Open30
 10
595.0158319340032
 20
436.6601985627686
 30
0.0
 41
6.25
 42
6.25
 43
6.25
  0
MTEXT
  5
EC9E
330
EC5B
100
AcDbEntity
  8
AM_5 寸法線
 62
     3
100
AcDbMText
 10
572.9533319340032
 20
444.7851985627686
 30
0.0
 40
8.75
 41
0.0
 46
0.0
 71
     5
 72
     1
  1
15
  7
SEISA
 73
     1
 44
1.0
  0
POINT
  5
EC9F
330
EC5B
100
AcDbEntity
  8
Defpoints
 62
     0
100
AcDbPoint
 10
610.0158319340032
 20
474.6601985627688
 30
0.0
  0
POINT
  5
ECA0
330
EC5B
100
AcDbEntity
  8
Defpoints
 62
     0
100
AcDbPoint
 10
595.0158319340032
 20
475.1601985627688
 30
0.0
  0
POINT
  5
ECA1
330
EC5B
100
AcDbEntity
  8
Defpoints
 62
     0
100
AcDbPoint
 10
595.0158319340032
 20
436.6601985627686
 30
0.0
  0
ENDBLK
  5
EC5D
330
EC5B
100
AcDbEntity
  8
0
100
AcDbBlockEnd
  0
BLOCK
  5
F006
330
F005
100
AcDbEntity
  8
0
100
AcDbBlockBegin
  2
*D30
 70
     1
 10
0.0
 20
0.0
 30
0.0
  3
*D30
  1

  0
LINE
  5
F02B
330
F005
100
AcDbEntity
  8
AM_5 寸法線
 62
     3
100
AcDbLine
 10
348.0158319340032
 20
612.7226985627689
 30
0.0
 11
348.0158319340032
 21
635.8491771987991
 31
0.0
  0
LINE
  5
F02C
330
F005
100
AcDbEntity
  8
AM_5 寸法線
 62
     3
100
AcDbLine
 10
355.0158319340031
 20
599.6226985627689
 30
0.0
 11
355.0158319340031
 21
635.8491771987991
 31
0.0
  0
LINE
  5
F02D
330
F005
100
AcDbEntity
  8
AM_5 寸法線
 62
     3
100
AcDbLine
 10
341.7658319340032
 20
634.2866771987991
 30
0.0
 11
335.5158319340032
 21
634.2866771987991
 31
0.0
  0
LINE
  5
F02E
330
F005
100
AcDbEntity
  8
AM_5 寸法線
 62
     3
100
AcDbLine
 10
361.2658319340031
 20
634.2866771987991
 30
0.0
 11
380.2658319340031
 21
634.2866771987991
 31
0.0
  0
LINE
  5
F02F
330
F005
100
AcDbEntity
  8
AM_5 寸法線
 62
     3
100
AcDbLine
 10
348.0158319340032
 20
634.2866771987991
 30
0.0
 11
355.0158319340031
 21
634.2866771987991
 31
0.0
  0
INSERT
  5
F030
330
F005
100
AcDbEntity
  8
AM_5 寸法線
 62
     3
100
AcDbBlockReference
  2
_Open30
 10
348.0158319340032
 20
634.2866771987991
 30
0.0
 41
6.25
 42
6.25
 43
6.25
  0
INSERT
  5
F031
330
F005
100
AcDbEntity
  8
AM_5 寸法線
 62
     3
100
AcDbBlockReference
  2
_Open30
 10
355.0158319340031
 20
634.2866771987991
 30
0.0
 41
6.25
 42
6.25
 43
6.25
 50
180.0
  0
MTEXT
  5
F032
330
F005
100
AcDbEntity
  8
AM_5 寸法線
 62
     3
100
AcDbMText
 10
373.8908319340031
 20
642.4116771987991
 30
0.0
 40
8.75
 41
0.0
 46
0.0
 71
     5
 72
     1
  1
7
  7
SEISA
 73
     1
 44
1.0
  0
POINT
  5
F033
330
F005
100
AcDbEntity
  8
Defpoints
 62
     0
100
AcDbPoint
 10
348.0158319340032
 20
611.1601985627689
 30
0.0
  0
POINT
  5
F034
330
F005
100
AcDbEntity
  8
Defpoints
 62
     0
100
AcDbPoint
 10
355.0158319340031
 20
598.0601985627689
 30
0.0
  0
POINT
  5
F035
330
F005
100
AcDbEntity
  8
Defpoints
 62
     0
100
AcDbPoint
 10
355.0158319340031
 20
634.2866771987991
 30
0.0
  0
ENDBLK
  5
F007
330
F005
100
AcDbEntity
  8
0
100
AcDbBlockEnd
  0
BLOCK
  5
F05F
330
F05E
100
AcDbEntity
  8
0
100
AcDbBlockBegin
  2
*D31
 70
     1
 10
0.0
 20
0.0
 30
0.0
  3
*D31
  1

  0
LINE
  5
F12A
330
F05E
100
AcDbEntity
  8
AM_5 寸法線
 62
     3
100
AcDbLine
 10
400.0158319340031
 20
600.097698562769
 30
0.0
 11
400.0158319340031
 21
580.9158722865454
 31
0.0
  0
LINE
  5
F12B
330
F05E
100
AcDbEntity
  8
AM_5 寸法線
 62
     3
100
AcDbLine
 10
403.015831934003
 20
600.597698562769
 30
0.0
 11
403.015831934003
 21
580.9158722865454
 31
0.0
  0
LINE
  5
F12C
330
F05E
100
AcDbEntity
  8
AM_5 寸法線
 62
     3
100
AcDbLine
 10
393.7658319340031
 20
582.4783722865454
 30
0.0
 11
387.5158319340031
 21
582.4783722865454
 31
0.0
  0
LINE
  5
F12D
330
F05E
100
AcDbEntity
  8
AM_5 寸法線
 62
     3
100
AcDbLine
 10
409.265831934003
 20
582.4783722865454
 30
0.0
 11
415.515831934003
 21
582.4783722865454
 31
0.0
  0
MTEXT
  5
F12E
330
F05E
100
AcDbEntity
  8
AM_5 寸法線
 62
     3
100
AcDbMText
 10
393.2152837210292
 20
589.3332283145577
 30
0.0
 40
8.75
 41
0.0
 46
0.0
 71
     5
 72
     1
  1
3
  7
SEISA
 73
     1
 44
1.0
  0
LINE
  5
F12F
330
F05E
100
AcDbEntity
  8
AM_5 寸法線
 62
     3
100
AcDbLine
 10
400.0158319340031
 20
582.4783722865454
 30
0.0
 11
403.015831934003
 21
582.4783722865454
 31
0.0
  0
INSERT
  5
F130
330
F05E
100
AcDbEntity
  8
AM_5 寸法線
 62
     3
100
AcDbBlockReference
  2
_Open30
 10
400.0158319340031
 20
582.4783722865454
 30
0.0
 41
6.25
 42
6.25
 43
6.25
  0
INSERT
  5
F131
330
F05E
100
AcDbEntity
  8
AM_5 寸法線
 62
     3
100
AcDbBlockReference
  2
GENDOT
 10
403.015831934003
 20
582.4783722865454
 30
0.0
 41
6.25
 42
6.25
 43
6.25
 50
180.0
  0
POINT
  5
F132
330
F05E
100
AcDbEntity
  8
Defpoints
 62
     0
100
AcDbPoint
 10
400.0158319340031
 20
601.660198562769
 30
0.0
  0
POINT
  5
F133
330
F05E
100
AcDbEntity
  8
Defpoints
 62
     0
100
AcDbPoint
 10
403.015831934003
 20
602.160198562769
 30
0.0
  0
POINT
  5
F134
330
F05E
100
AcDbEntity
  8
Defpoints
 62
     0
100
AcDbPoint
 10
403.015831934003
 20
582.4783722865454
 30
0.0
  0
ENDBLK
  5
F060
330
F05E
100
AcDbEntity
  8
0
100
AcDbBlockEnd
  0
BLOCK
  5
F0E9
330
F0E8
100
AcDbEntity
  8
0
100
AcDbBlockBegin
  2
*D32
 70
     1
 10
0.0
 20
0.0
 30
0.0
  3
*D32
  1

  0
LINE
  5
F16C
330
F0E8
100
AcDbEntity
  8
AM_5 寸法線
 62
     3
100
AcDbLine
 10
421.0158319340031
 20
600.097698562769
 30
0.0
 11
421.0158319340031
 21
580.9158722865451
 31
0.0
  0
LINE
  5
F16D
330
F0E8
100
AcDbEntity
  8
AM_5 寸法線
 62
     3
100
AcDbLine
 10
435.0158319340031
 20
599.0976985627687
 30
0.0
 11
435.0158319340031
 21
580.9158722865451
 31
0.0
  0
LINE
  5
F16E
330
F0E8
100
AcDbEntity
  8
AM_5 寸法線
 62
     3
100
AcDbLine
 10
414.7658319340031
 20
582.4783722865451
 30
0.0
 11
408.5158319340031
 21
582.4783722865451
 31
0.0
  0
LINE
  5
F16F
330
F0E8
100
AcDbEntity
  8
AM_5 寸法線
 62
     3
100
AcDbLine
 10
441.2658319340031
 20
582.4783722865451
 30
0.0
 11
447.5158319340031
 21
582.4783722865451
 31
0.0
  0
MTEXT
  5
F170
330
F0E8
100
AcDbEntity
  8
AM_5 寸法線
 62
     3
100
AcDbMText
 10
427.7157130280261
 20
590.6448952657216
 30
0.0
 40
8.75
 41
0.0
 46
0.0
 71
     5
 72
     1
  1
14
  7
SEISA
 73
     1
 44
1.0
  0
LINE
  5
F171
330
F0E8
100
AcDbEntity
  8
AM_5 寸法線
 62
     3
100
AcDbLine
 10
421.0158319340031
 20
582.4783722865451
 30
0.0
 11
435.0158319340031
 21
582.4783722865451
 31
0.0
  0
INSERT
  5
F172
330
F0E8
100
AcDbEntity
  8
AM_5 寸法線
 62
     3
100
AcDbBlockReference
  2
GENDOT
 10
421.0158319340031
 20
582.4783722865451
 30
0.0
 41
6.25
 42
6.25
 43
6.25
  0
INSERT
  5
F173
330
F0E8
100
AcDbEntity
  8
AM_5 寸法線
 62
     3
100
AcDbBlockReference
  2
_Open30
 10
435.0158319340031
 20
582.4783722865451
 30
0.0
 41
6.25
 42
6.25
 43
6.25
 50
180.0
  0
POINT
  5
F174
330
F0E8
100
AcDbEntity
  8
Defpoints
 62
     0
100
AcDbPoint
 10
421.0158319340031
 20
601.660198562769
 30
0.0
  0
POINT
  5
F175
330
F0E8
100
AcDbEntity
  8
Defpoints
 62
     0
100
AcDbPoint
 10
435.0158319340031
 20
600.6601985627687
 30
0.0
  0
POINT
  5
F176
330
F0E8
100
AcDbEntity
  8
Defpoints
 62
     0
100
AcDbPoint
 10
435.0158319340031
 20
582.4783722865451
 30
0.0
  0
ENDBLK
  5
F0EA
330
F0E8
100
AcDbEntity
  8
0
100
AcDbBlockEnd
  0
BLOCK
  5
F110
330
F10F
100
AcDbEntity
  8
0
100
AcDbBlockBegin
  2
*D33
 70
     1
 10
0.0
 20
0.0
 30
0.0
  3
*D33
  1

  0
LINE
  5
F19F
330
F10F
100
AcDbEntity
  8
AM_5 寸法線
 62
     3
100
AcDbLine
 10
403.015831934003
 20
600.5976985627691
 30
0.0
 11
403.015831934003
 21
580.9158722865451
 31
0.0
  0
LINE
  5
F1A0
330
F10F
100
AcDbEntity
  8
AM_5 寸法線
 62
     3
100
AcDbLine
 10
421.0158319340031
 20
600.097698562769
 30
0.0
 11
421.0158319340031
 21
580.9158722865451
 31
0.0
  0
LINE
  5
F1A1
330
F10F
100
AcDbEntity
  8
AM_5 寸法線
 62
     3
100
AcDbLine
 10
403.015831934003
 20
582.4783722865451
 30
0.0
 11
421.0158319340031
 21
582.4783722865451
 31
0.0
  0
MTEXT
  5
F1A2
330
F10F
100
AcDbEntity
  8
AM_5 寸法線
 62
     3
100
AcDbMText
 10
412.2300052784662
 20
589.9779351691647
 30
0.0
 40
8.75
 41
0.0
 46
0.0
 71
     5
 72
     1
  1
18
  7
SEISA
 73
     1
 44
1.0
  0
INSERT
  5
F1A3
330
F10F
100
AcDbEntity
  8
AM_5 寸法線
 62
     3
100
AcDbBlockReference
  2
_DotSmall
 10
403.015831934003
 20
582.4783722865451
 30
0.0
 41
6.25
 42
6.25
 43
6.25
 50
180.0
  0
INSERT
  5
F1A4
330
F10F
100
AcDbEntity
  8
AM_5 寸法線
 62
     3
100
AcDbBlockReference
  2
_DotSmall
 10
421.0158319340031
 20
582.4783722865451
 30
0.0
 41
6.25
 42
6.25
 43
6.25
  0
POINT
  5
F1A5
330
F10F
100
AcDbEntity
  8
Defpoints
 62
     0
100
AcDbPoint
 10
403.015831934003
 20
602.1601985627691
 30
0.0
  0
POINT
  5
F1A6
330
F10F
100
AcDbEntity
  8
Defpoints
 62
     0
100
AcDbPoint
 10
421.0158319340031
 20
601.660198562769
 30
0.0
  0
POINT
  5
F1A7
330
F10F
100
AcDbEntity
  8
Defpoints
 62
     0
100
AcDbPoint
 10
421.0158319340031
 20
582.4783722865451
 30
0.0
  0
ENDBLK
  5
F111
330
F10F
100
AcDbEntity
  8
0
100
AcDbBlockEnd
  0
BLOCK
  5
F179
330
F177
100
AcDbEntity
  8
0
100
AcDbBlockBegin
  2
_DotSmall
 70
     0
 10
0.0
 20
0.0
 30
0.0
  3
_DotSmall
  1

  0
LWPOLYLINE
  5
F178
330
F177
100
AcDbEntity
  8
0
  6
ByBlock
 62
     0
100
AcDbPolyline
 90
        2
 70
     1
 43
0.5
 10
-0.0625
 20
0.0
 42
1.0
 10
0.0625
 20
0.0
 42
1.0
  0
ENDBLK
  5
F17A
330
F177
100
AcDbEntity
  8
0
100
AcDbBlockEnd
  0
BLOCK
  5
F1AA
330
F1A9
100
AcDbEntity
  8
0
100
AcDbBlockBegin
  2
*D35
 70
     1
 10
0.0
 20
0.0
 30
0.0
  3
*D35
  1

  0
LINE
  5
F305
330
F1A9
100
AcDbEntity
  8
AM_5 寸法線
 62
     3
100
AcDbLine
 10
440.0158319340028
 20
610.5976985627685
 30
0.0
 11
440.0158319340028
 21
566.0021882440478
 31
0.0
  0
LINE
  5
F306
330
F1A9
100
AcDbEntity
  8
AM_5 寸法線
 62
     3
100
AcDbLine
 10
435.0158319340031
 20
572.8291225627692
 30
0.0
 11
435.0158319340031
 21
566.0021882440478
 31
0.0
  0
LINE
  5
F307
330
F1A9
100
AcDbEntity
  8
AM_5 寸法線
 62
     3
100
AcDbLine
 10
446.2658319340028
 20
567.5646882440478
 30
0.0
 11
452.5158319340028
 21
567.5646882440478
 31
0.0
  0
LINE
  5
F308
330
F1A9
100
AcDbEntity
  8
AM_5 寸法線
 62
     3
100
AcDbLine
 10
428.7658319340031
 20
567.5646882440478
 30
0.0
 11
422.5158319340031
 21
567.5646882440478
 31
0.0
  0
MTEXT
  5
F309
330
F1A9
100
AcDbEntity
  8
AM_5 寸法線
 62
     3
100
AcDbMText
 10
449.8869943218344
 20
574.9441831061679
 30
0.0
 40
8.75
 41
0.0
 46
0.0
 71
     5
 72
     1
  1
5
  7
SEISA
 73
     1
 44
1.0
  0
LINE
  5
F30A
330
F1A9
100
AcDbEntity
  8
AM_5 寸法線
 62
     3
100
AcDbLine
 10
440.0158319340028
 20
567.5646882440478
 30
0.0
 11
435.0158319340031
 21
567.5646882440478
 31
0.0
  0
INSERT
  5
F30B
330
F1A9
100
AcDbEntity
  8
AM_5 寸法線
 62
     3
100
AcDbBlockReference
  2
_Open30
 10
440.0158319340028
 20
567.5646882440478
 30
0.0
 41
6.25
 42
6.25
 43
6.25
 50
180.0
  0
INSERT
  5
F30C
330
F1A9
100
AcDbEntity
  8
AM_5 寸法線
 62
     3
100
AcDbBlockReference
  2
_Open30
 10
435.0158319340031
 20
567.5646882440478
 30
0.0
 41
6.25
 42
6.25
 43
6.25
  0
POINT
  5
F30D
330
F1A9
100
AcDbEntity
  8
Defpoints
 62
     0
100
AcDbPoint
 10
440.0158319340028
 20
612.1601985627685
 30
0.0
  0
POINT
  5
F30E
330
F1A9
100
AcDbEntity
  8
Defpoints
 62
     0
100
AcDbPoint
 10
435.0158319340031
 20
574.3916225627692
 30
0.0
  0
POINT
  5
F30F
330
F1A9
100
AcDbEntity
  8
Defpoints
 62
     0
100
AcDbPoint
 10
435.0158319340031
 20
567.5646882440478
 30
0.0
  0
ENDBLK
  5
F1AB
330
F1A9
100
AcDbEntity
  8
0
100
AcDbBlockEnd
  0
BLOCK
  5
F31E
330
F31D
100
AcDbEntity
  8
0
100
AcDbBlockBegin
  2
*D36
 70
     1
 10
0.0
 20
0.0
 30
0.0
  3
*D36
  1

  0
LINE
  5
F365
330
F31D
100
AcDbEntity
  8
AM_5 寸法線
 62
     3
100
AcDbLine
 10
610.0158319340032
 20
610.5976985627688
 30
0.0
 11
610.0158319340032
 21
566.0021882440478
 31
0.0
  0
LINE
  5
F366
330
F31D
100
AcDbEntity
  8
AM_5 寸法線
 62
     3
100
AcDbLine
 10
615.0158319340031
 20
599.0976985627688
 30
0.0
 11
615.0158319340031
 21
566.0021882440478
 31
0.0
  0
LINE
  5
F367
330
F31D
100
AcDbEntity
  8
AM_5 寸法線
 62
     3
100
AcDbLine
 10
603.7658319340032
 20
567.5646882440478
 30
0.0
 11
597.5158319340032
 21
567.5646882440478
 31
0.0
  0
LINE
  5
F368
330
F31D
100
AcDbEntity
  8
AM_5 寸法線
 62
     3
100
AcDbLine
 10
621.2658319340031
 20
567.5646882440478
 30
0.0
 11
627.5158319340031
 21
567.5646882440478
 31
0.0
  0
LINE
  5
F369
330
F31D
100
AcDbEntity
  8
AM_5 寸法線
 62
     3
100
AcDbLine
 10
583.4379839116202
 20
567.5646882440478
 30
0.0
 11
610.0158319340032
 21
567.5646882440478
 31
0.0
  0
MTEXT
  5
F36A
330
F31D
100
AcDbEntity
  8
AM_5 寸法線
 62
     3
100
AcDbMText
 10
589.8129839116202
 20
575.6896882440478
 30
0.0
 40
8.75
 41
0.0
 46
0.0
 71
     5
 72
     1
  1
5
  7
SEISA
 73
     1
 44
1.0
  0
LINE
  5
F36B
330
F31D
100
AcDbEntity
  8
AM_5 寸法線
 62
     3
100
AcDbLine
 10
610.0158319340032
 20
567.5646882440478
 30
0.0
 11
615.0158319340031
 21
567.5646882440478
 31
0.0
  0
LINE
  5
F36C
330
F31D
100
AcDbEntity
  8
AM_5 寸法線
 62
     3
100
AcDbLine
 10
610.0158319340032
 20
567.5646882440478
 30
0.0
 11
615.0158319340031
 21
567.5646882440478
 31
0.0
  0
INSERT
  5
F36D
330
F31D
100
AcDbEntity
  8
AM_5 寸法線
 62
     3
100
AcDbBlockReference
  2
_Open30
 10
610.0158319340032
 20
567.5646882440478
 30
0.0
 41
6.25
 42
6.25
 43
6.25
  0
INSERT
  5
F36E
330
F31D
100
AcDbEntity
  8
AM_5 寸法線
 62
     3
100
AcDbBlockReference
  2
_Open30
 10
615.0158319340031
 20
567.5646882440478
 30
0.0
 41
6.25
 42
6.25
 43
6.25
 50
180.0
  0
POINT
  5
F36F
330
F31D
100
AcDbEntity
  8
Defpoints
 62
     0
100
AcDbPoint
 10
610.0158319340032
 20
612.1601985627688
 30
0.0
  0
POINT
  5
F370
330
F31D
100
AcDbEntity
  8
Defpoints
 62
     0
100
AcDbPoint
 10
615.0158319340031
 20
600.6601985627688
 30
0.0
  0
POINT
  5
F371
330
F31D
100
AcDbEntity
  8
Defpoints
 62
     0
100
AcDbPoint
 10
615.0158319340031
 20
567.5646882440478
 30
0.0
  0
ENDBLK
  5
F31F
330
F31D
100
AcDbEntity
  8
0
100
AcDbBlockEnd
  0
BLOCK
  5
F5A5
330
F5A4
100
AcDbEntity
  8
0
100
AcDbBlockBegin
  2
ケース
 70
     0
 10
0.0
 20
0.0
 30
0.0
  3
ケース
  1

  0
LINE
  5
F5A7
330
F5A4
100
AcDbEntity
  8
AM_11 想像線
 48
0.1
100
AcDbLine
 10
0.0
 20
0.0
 30
0.0
 11
-21.41657761049783
 21
0.0
 31
0.0
  0
LINE
  5
F5A8
330
F5A4
100
AcDbEntity
  8
AM_11 想像線
 48
0.1
100
AcDbLine
 10
0.0
 20
-6.0
 30
0.0
 11
-8.416577610497823
 21
-6.0
 31
0.0
  0
LINE
  5
F5A9
330
F5A4
100
AcDbEntity
  8
AM_11 想像線
 48
0.1
100
AcDbLine
 10
0.0
 20
-8.0
 30
0.0
 11
-10.41657761049782
 21
-8.0
 31
0.0
  0
LINE
  5
F5AA
330
F5A4
100
AcDbEntity
  8
AM_11 想像線
 48
0.1
100
AcDbLine
 10
-11.41657761049782
 20
-5.5
 30
0.0
 11
-9.416577610497823
 21
-5.5
 31
0.0
  0
LINE
  5
F5AB
330
F5A4
100
AcDbEntity
  8
AM_11 想像線
 48
0.1
100
AcDbLine
 10
-24.41657761049782
 20
-3.0
 30
0.0
 11
-24.41657761049782
 21
-12.5
 31
0.0
  0
LINE
  5
F5AC
330
F5A4
100
AcDbEntity
  8
AM_11 想像線
 48
0.1
100
AcDbLine
 10
-22.21657761049789
 20
-7.799999999999953
 30
0.0
 11
-14.61657761049787
 21
-7.799999999999953
 31
0.0
  0
LINE
  5
F5AD
330
F5A4
100
AcDbEntity
  8
AM_11 想像線
 48
0.1
100
AcDbLine
 10
-24.41657761049782
 20
-11.5
 30
0.0
 11
-22.21657761049789
 21
-11.5
 31
0.0
  0
LINE
  5
F5AE
330
F5A4
100
AcDbEntity
  8
AM_11 想像線
 48
0.1
100
AcDbLine
 10
-22.21657761049789
 20
-12.5
 30
0.0
 11
-22.21657761049789
 21
-7.799999999999953
 31
0.0
  0
LINE
  5
F5AF
330
F5A4
100
AcDbEntity
  8
AM_11 想像線
 48
0.1
100
AcDbLine
 10
-14.61657761049787
 20
-7.799999999999953
 30
0.0
 11
-14.61657761049787
 21
-12.5
 31
0.0
  0
LINE
  5
F5B0
330
F5A4
100
AcDbEntity
  8
AM_11 想像線
 48
0.1
100
AcDbLine
 10
-14.61657761049787
 20
-11.5
 30
0.0
 11
-12.41657761049782
 21
-11.5
 31
0.0
  0
LINE
  5
F5B1
330
F5A4
100
AcDbEntity
  8
AM_11 想像線
 48
0.1
100
AcDbLine
 10
-12.41657761049782
 20
-12.5
 30
0.0
 11
-12.41657761049782
 21
-6.5
 31
0.0
  0
ARC
  5
F5B2
330
F5A4
100
AcDbEntity
  8
AM_11 想像線
 48
0.1
100
AcDbCircle
 10
-11.41657761049782
 20
-6.5
 30
0.0
 40
1.0
100
AcDbArc
 50
90.0
 51
180.0
  0
ARC
  5
F5B3
102
{ACAD_REACTORS
330
F014
102
}
330
F5A4
100
AcDbEntity
  8
AM_11 想像線
 48
0.1
100
AcDbCircle
 10
-21.41657761049783
 20
-3.0
 30
0.0
 40
3.0
100
AcDbArc
 50
90.0
 51
180.0
  0
LINE
  5
F5B4
330
F5A4
100
AcDbEntity
  8
AM_11 想像線
 48
0.1
100
AcDbLine
 10
0.0
 20
-9.599999999999909
 30
0.0
 11
-7.416577610497824
 21
-9.599999999999909
 31
0.0
  0
ARC
  5
F5B5
330
F5A4
100
AcDbEntity
  8
AM_11 想像線
 48
0.1
100
AcDbCircle
 10
-9.416577610497823
 20
-6.5
 30
0.0
 40
1.0
100
AcDbArc
 50
0.0
 51
90.0
  0
LINE
  5
F5B6
330
F5A4
100
AcDbEntity
  8
AM_11 想像線
 48
0.1
100
AcDbLine
 10
-8.416577610497823
 20
-6.938723999999978
 30
0.0
 11
-8.416577610497823
 21
-6.5
 31
0.0
  0
LINE
  5
F5B7
330
F5A4
100
AcDbEntity
  8
AM_11 想像線
 48
0.1
100
AcDbLine
 10
-8.416577610497823
 20
-8.599999999999909
 30
0.0
 11
-7.416577610497824
 21
-9.599999999999909
 31
0.0
  0
LINE
  5
F5B8
330
F5A4
100
AcDbEntity
  8
AM_11 想像線
 48
0.1
100
AcDbLine
 10
-8.416577610497823
 20
-6.938723999999978
 30
0.0
 11
-8.416577610497823
 21
-8.599999999999909
 31
0.0
  0
ENDBLK
  5
F5A6
330
F5A4
100
AcDbEntity
  8
0
100
AcDbBlockEnd
  0
ENDSEC
  0
SECTION
  2
ENTITIES
  0
LINE
  5
4C77
330
1F
100
AcDbEntity
  8
AM_7 中心線
100
AcDbLine
 10
350.0158319340031
 20
554.1601985627688
 30
0.0
 11
700.015831934003
 21
554.1601985627688
 31
0.0
  0
LINE
  5
4D73
330
1F
100
AcDbEntity
  8
AM_0 外形線1
100
AcDbLine
 10
595.0158319340031
 20
619.1650085627691
 30
0.0
 11
595.0158319340031
 21
629.124300562769
 31
0.0
  0
INSERT
  5
62A7
102
{ACAD_REACTORS
330
72DC
330
7310
330
7620
330
7680
330
7698
102
}
330
1F
100
AcDbEntity
  8
AM_0 外形線1
100
AcDbBlockReference
  2
ケースＡ-1 SAM160
 10
610.0158319340031
 20
554.1601985627688
 30
0.0
  0
LINE
  5
62C3
330
1F
100
AcDbEntity
  8
AM_0 外形線1
100
AcDbLine
 10
596.5158319340031
 20
621.1601985627688
 30
0.0
 11
610.0158319340031
 21
621.1601985627688
 31
0.0
  0
INSERT
  5
6422
102
{ACAD_REACTORS
330
75CC
330
7638
330
7650
330
F06D
102
}
330
1F
100
AcDbEntity
  8
AM_0 外形線1
100
AcDbBlockReference
  2
ケースＡ-2 SAM160
 10
440.0158319340031
 20
554.1601985627688
 30
0.0
  0
LINE
  5
6481
330
1F
100
AcDbEntity
  8
AM_0 外形線1
100
AcDbLine
 10
440.0158319340031
 20
621.1601985627688
 30
0.0
 11
453.5158319340031
 21
621.1601985627688
 31
0.0
  0
INSERT
  5
6546
102
{ACAD_REACTORS
330
729E
330
737B
330
7698
330
F32C
102
}
330
1F
100
AcDbEntity
  8
AM_0 外形線1
100
AcDbBlockReference
  2
センタ-1 SAM160
 10
615.0158319340031
 20
554.1601985627688
 30
0.0
  0
INSERT
  5
65A1
102
{ACAD_REACTORS
330
725C
330
7363
330
7638
330
F014
330
F0F7
102
}
330
1F
100
AcDbEntity
  8
AM_0 外形線1
100
AcDbBlockReference
  2
センタ-2 SAM160
 10
435.0158319340031
 20
554.1601985627688
 30
0.0
  0
INSERT
  5
68FB
330
1F
100
AcDbEntity
  8
AM_0 外形線1
100
AcDbBlockReference
  2
リーマボルト-1 SAM160 M8
 10
595.0158319340031
 20
625.6601985627688
 30
0.0
  0
INSERT
  5
699C
330
1F
100
AcDbEntity
  8
AM_0 外形線1
100
AcDbBlockReference
  2
リーマボルト-2 SAM160 M8
 10
455.0158319340031
 20
625.6601985627688
 30
0.0
  0
DIMENSION
  5
7245
102
{ACAD_XDICTIONARY
360
7252
102
}
102
{ACAD_REACTORS
330
725C
102
}
330
1F
100
AcDbEntity
  8
AM_5 寸法線
100
AcDbDimension
  2
*D15
 10
300.0158319340031
 20
506.660198562769
 30
0.0
 11
291.8908319340031
 21
554.1601985627688
 31
0.0
 70
    32
  1
%%c<>
 71
     5
 42
95.00000000000005
 73
     0
 74
     0
 75
     0
  3
SEISA$0
100
AcDbAlignedDimension
 13
381.0158319340031
 23
601.660198562769
 33
0.0
 14
381.0158319340031
 24
506.660198562769
 34
0.0
 50
90.0
100
AcDbRotatedDimension
1001
ACAD_DSTYLE_DIMINSPECT
1070
   396
1000
100%
1070
   395
1000

1070
   394
1070
    33
1070
   393
1070
     0
  0
DIMENSION
  5
7287
102
{ACAD_XDICTIONARY
360
7294
102
}
102
{ACAD_REACTORS
330
729E
102
}
330
1F
100
AcDbEntity
  8
AM_5 寸法線
100
AcDbDimension
  2
*D16
 10
750.015831934003
 20
506.660198562769
 30
0.0
 11
741.8908319340028
 21
554.1601985627692
 31
0.0
 70
    32
  1
%%c<>
 71
     5
 42
94.99999999999994
 73
     0
 74
     0
 75
     0
  3
SEISA$0
100
AcDbAlignedDimension
 13
669.015831934003
 23
601.660198562769
 33
0.0
 14
669.015831934003
 24
506.660198562769
 34
0.0
 50
90.0
100
AcDbRotatedDimension
1001
ACAD_DSTYLE_DIMINSPECT
1070
   396
1000
100%
1070
   395
1000

1070
   394
1070
    33
1070
   393
1070
     0
  0
DIMENSION
  5
72C5
102
{ACAD_XDICTIONARY
360
72D2
102
}
102
{ACAD_REACTORS
330
72DC
102
}
330
1F
100
AcDbEntity
  8
AM_5 寸法線
100
AcDbDimension
  2
*D17
 10
775.015831934003
 20
494.160198562769
 30
0.0
 11
766.8908319340028
 21
554.1601985627691
 31
0.0
 70
    32
  1
%%c<>
 71
     5
 42
119.9999999999999
 73
     0
 74
     0
 75
     0
  3
SEISA$0
100
AcDbAlignedDimension
 13
659.015831934003
 23
614.160198562769
 33
0.0
 14
659.015831934003
 24
494.160198562769
 34
0.0
 50
90.0
100
AcDbRotatedDimension
1001
ACAD_DSTYLE_DIMINSPECT
1070
   396
1000
100%
1070
   395
1000

1070
   394
1070
    33
1070
   393
1070
     0
  0
DIMENSION
  5
72F9
102
{ACAD_XDICTIONARY
360
7306
102
}
102
{ACAD_REACTORS
330
7310
102
}
330
1F
100
AcDbEntity
  8
AM_5 寸法線
100
AcDbDimension
  2
*D18
 10
800.015831934003
 20
474.1601985627688
 30
0.0
 11
791.8908319340028
 21
554.1601985627691
 31
0.0
 70
    32
  1
%%c<>
 71
     5
 42
160.0
 73
     0
 74
     0
 75
     0
  3
SEISA$0
100
AcDbAlignedDimension
 13
624.5158319340031
 23
634.160198562769
 33
0.0
 14
624.5158319340031
 24
474.1601985627688
 34
0.0
 50
90.0
100
AcDbRotatedDimension
1001
ACAD_DSTYLE_DIMINSPECT
1070
   396
1000
100%
1070
   395
1000

1070
   394
1070
    33
1070
   393
1070
     0
  0
DIMENSION
  5
734C
102
{ACAD_XDICTIONARY
360
7359
102
}
102
{ACAD_REACTORS
330
7363
102
}
330
1F
100
AcDbEntity
  8
AM_5 寸法線
100
AcDbDimension
  2
*D19
 10
355.0158319340031
 20
559.4026139566848
 30
0.0
 11
395.0158319340031
 21
567.5276139566848
 31
0.0
 70
    32
 71
     5
 42
80.0
 73
     0
 74
     0
 75
     0
  3
SEISA$0
100
AcDbAlignedDimension
 13
435.0158319340031
 23
554.1601985627688
 33
0.0
 14
355.0158319340031
 24
554.1601985627688
 34
0.0
100
AcDbRotatedDimension
  0
DIMENSION
  5
7364
102
{ACAD_XDICTIONARY
360
7371
102
}
102
{ACAD_REACTORS
330
737B
102
}
330
1F
100
AcDbEntity
  8
AM_5 寸法線
100
AcDbDimension
  2
*D20
 10
615.0158319340031
 20
559.4026139566848
 30
0.0
 11
655.015831934003
 21
567.5276139566848
 31
0.0
 70
    32
 71
     5
 42
79.9999999999999
 73
     0
 74
     0
 75
     0
  3
SEISA$0
100
AcDbAlignedDimension
 13
695.015831934003
 23
554.1601985627688
 33
0.0
 14
615.0158319340031
 24
554.1601985627687
 34
0.0
100
AcDbRotatedDimension
  0
DIMENSION
  5
75B1
102
{ACAD_XDICTIONARY
360
75C0
102
}
102
{ACAD_REACTORS
330
75CC
102
}
330
1F
100
AcDbEntity
  8
AM_5 寸法線
100
AcDbDimension
  2
*D21
 10
425.0158319340031
 20
436.6601985627688
 30
0.0
 11
402.9533319340031
 21
444.7851985627688
 31
0.0
 70
    32
 71
     5
 42
15.0
 73
     0
 74
     0
 75
     0
  3
SEISA$0
100
AcDbAlignedDimension
 13
440.0158319340031
 23
474.6601985627688
 33
0.0
 14
425.0158319340031
 24
474.8995190239835
 34
0.0
100
AcDbRotatedDimension
1001
ACAD_DSTYLE_DIMINSPECT
1070
   396
1000
100%
1070
   395
1000

1070
   394
1070
    33
1070
   393
1070
     0
1001
ACAD
1000
DSTYLE
1002
{
1070
   173
1070
     1
1070
   342
1005
0
1070
   343
1005
573D
1070
   344
1005
69
1002
}
  0
DIMENSION
  5
7605
102
{ACAD_XDICTIONARY
360
7614
102
}
102
{ACAD_REACTORS
330
7620
102
}
330
1F
100
AcDbEntity
  8
AM_5 寸法線
100
AcDbDimension
  2
*D22
 10
625.0158319340031
 20
436.6601985627688
 30
0.0
 11
647.0783319340031
 21
436.6601985627688
 31
0.0
 70
   160
 71
     5
 42
15.0
 73
     0
 74
     0
 75
     0
  3
SEISA$0
100
AcDbAlignedDimension
 13
610.0158319340031
 23
474.6601985627688
 33
0.0
 14
625.0158319340031
 24
474.6601985627688
 34
0.0
100
AcDbRotatedDimension
1001
ACAD_DSTYLE_DIMINSPECT
1070
   396
1000
100%
1070
   395
1000

1070
   394
1070
    33
1070
   393
1070
     0
1001
ACAD
1000
DSTYLE
1002
{
1070
   173
1070
     1
1070
   342
1005
0
1070
   343
1005
573D
1070
   344
1005
69
1002
}
  0
DIMENSION
  5
7621
102
{ACAD_XDICTIONARY
360
762E
102
}
102
{ACAD_REACTORS
330
7638
102
}
330
1F
100
AcDbEntity
  8
AM_5 寸法線
100
AcDbDimension
  2
*D23
 10
355.0158319340031
 20
411.6601985627688
 30
0.0
 11
371.5158319340031
 21
419.7851985627688
 31
0.0
 70
    32
 71
     5
 42
33.0
 73
     0
 74
     0
 75
     0
  3
SEISA$0
100
AcDbAlignedDimension
 13
388.0158319340031
 23
497.160198562769
 33
0.0
 14
355.0158319340031
 24
510.260198562769
 34
0.0
100
AcDbRotatedDimension
  0
DIMENSION
  5
7639
102
{ACAD_XDICTIONARY
360
7646
102
}
102
{ACAD_REACTORS
330
7650
102
}
330
1F
100
AcDbEntity
  8
AM_5 寸法線
100
AcDbDimension
  2
*D24
 10
440.0158319340031
 20
411.6601985627688
 30
0.0
 11
414.0158319340031
 21
419.7851985627688
 31
0.0
 70
    32
 71
     5
 42
52.0
 73
     0
 74
     0
 75
     0
  3
SEISA$0
100
AcDbAlignedDimension
 13
388.0158319340031
 23
497.160198562769
 33
0.0
 14
440.0158319340031
 24
474.6601985627688
 34
0.0
100
AcDbRotatedDimension
  0
DIMENSION
  5
7669
102
{ACAD_XDICTIONARY
360
7676
102
}
102
{ACAD_REACTORS
330
7680
102
}
330
1F
100
AcDbEntity
  8
AM_5 寸法線
100
AcDbDimension
  2
*D25
 10
662.0158319340028
 20
411.6601985627688
 30
0.0
 11
636.015831934003
 21
419.7851985627688
 31
0.0
 70
    32
 71
     5
 42
51.99999999999988
 73
     0
 74
     0
 75
     0
  3
SEISA$0
100
AcDbAlignedDimension
 13
610.0158319340031
 23
474.6601985627688
 33
0.0
 14
662.0158319340028
 24
497.160198562769
 34
0.0
100
AcDbRotatedDimension
  0
DIMENSION
  5
7681
102
{ACAD_XDICTIONARY
360
768E
102
}
102
{ACAD_REACTORS
330
7698
102
}
330
1F
100
AcDbEntity
  8
AM_5 寸法線
100
AcDbDimension
  2
*D26
 10
695.015831934003
 20
411.6601985627688
 30
0.0
 11
678.5158319340028
 21
419.7851985627688
 31
0.0
 70
    32
 71
     5
 42
33.0
 73
     0
 74
     0
 75
     0
  3
SEISA$0
100
AcDbAlignedDimension
 13
662.0158319340028
 23
497.160198562769
 33
0.0
 14
695.015831934003
 24
510.260198562769
 34
0.0
100
AcDbRotatedDimension
  0
LINE
  5
D20A
330
1F
100
AcDbEntity
  8
AM_0 外形線1
100
AcDbLine
 10
440.0158319340032
 20
496.1601985627685
 30
0.0
 11
440.0158319340032
 21
474.6601985627684
 31
0.0
  0
LINE
  5
D23C
330
1F
100
AcDbEntity
  8
AM_0 外形線1
100
AcDbLine
 10
440.0158319340028
 20
630.1601985627686
 30
0.0
 11
440.0158319340028
 21
633.6601985627685
 31
0.0
  0
LINE
  5
D23D
330
1F
100
AcDbEntity
  8
AM_0 外形線1
100
AcDbLine
 10
610.0158319340032
 20
630.160198562769
 30
0.0
 11
610.0158319340032
 21
633.6601985627688
 31
0.0
  0
INSERT
  5
E6FA
102
{ACAD_REACTORS
330
EC6A
330
F32C
102
}
330
1F
100
AcDbEntity
  8
AM_0 外形線1
100
AcDbBlockReference
  2
ＧＣスペーサ SAMY160
 10
363.7371506261528
 20
554.1601985627688
 30
0.0
  0
DIMENSION
  5
EC07
330
1F
100
AcDbEntity
  8
AM_5 寸法線
100
AcDbDimension
  2
*D28
 10
455.0158319340032
 20
436.6601985627688
 30
0.0
 11
477.0783319340032
 21
444.7851985627687
 31
0.0
 70
    32
 71
     5
 42
14.99999999999983
 73
     0
 74
     0
 75
     0
  3
SEISA$0
100
AcDbAlignedDimension
 13
440.0158319340032
 23
474.6601985627683
 33
0.0
 14
455.0158319340032
 24
475.1601985627685
 34
0.0
 50
0.0000000000000114
100
AcDbRotatedDimension
1001
ACAD_DSTYLE_DIMINSPECT
1070
   396
1000
100%
1070
   395
1000

1070
   394
1070
    33
1070
   393
1070
     0
1001
ACAD
1000
DSTYLE
1002
{
1070
   173
1070
     1
1070
   342
1005
0
1070
   343
1005
573D
1070
   344
1005
69
1002
}
  0
DIMENSION
  5
EC5A
102
{ACAD_XDICTIONARY
360
EC69
102
}
102
{ACAD_REACTORS
330
EC6A
102
}
330
1F
100
AcDbEntity
  8
AM_5 寸法線
100
AcDbDimension
  2
*D29
 10
595.0158319340032
 20
436.6601985627686
 30
0.0
 11
572.9533319340032
 21
444.7851985627686
 31
0.0
 70
    32
 71
     5
 42
15.0
 73
     0
 74
     0
 75
     0
  3
SEISA$0
100
AcDbAlignedDimension
 13
610.0158319340032
 23
474.6601985627688
 33
0.0
 14
595.0158319340032
 24
475.1601985627688
 34
0.0
 50
0.0000000000000114
100
AcDbRotatedDimension
1001
ACAD_DSTYLE_DIMINSPECT
1070
   396
1000
100%
1070
   395
1000

1070
   394
1070
    33
1070
   393
1070
     0
1001
ACAD
1000
DSTYLE
1002
{
1070
   173
1070
     1
1070
   342
1005
0
1070
   343
1005
573D
1070
   344
1005
69
1002
}
  0
MTEXT
  5
EF47
330
1F
100
AcDbEntity
  8
AM_6 文字
100
AcDbMText
 10
712.2913257315651
 20
459.7402235454264
 30
0.0
 40
8.75
 41
144.8967813692727
 46
27.66929097590912
 71
     1
 72
     5
  1
{\W0.6;TYPE:SAM160/SAMH160\PSHAFT DIA:MAX/MIN φ65/φ22}
  7
SEISA
 73
     1
 44
1.0
  0
DIMENSION
  5
F004
102
{ACAD_XDICTIONARY
360
F013
102
}
102
{ACAD_REACTORS
330
F014
102
}
330
1F
100
AcDbEntity
  8
AM_5 寸法線
100
AcDbDimension
  2
*D30
 10
355.0158319340031
 20
634.2866771987991
 30
0.0
 11
373.8908319340031
 21
642.4116771987991
 31
0.0
 70
    32
 71
     5
 42
6.999999999999886
 73
     0
 74
     0
 75
     0
  3
SEISA$0
100
AcDbAlignedDimension
 13
348.0158319340032
 23
611.1601985627689
 33
0.0
 14
355.0158319340031
 24
598.0601985627689
 34
0.0
100
AcDbRotatedDimension
1001
ACAD_DSTYLE_DIMINSPECT
1070
   396
1000
100%
1070
   395
1000

1070
   394
1070
    33
1070
   393
1070
     0
  0
DIMENSION
  5
F05D
102
{ACAD_XDICTIONARY
360
F06C
102
}
102
{ACAD_REACTORS
330
F06D
102
}
330
1F
100
AcDbEntity
  8
AM_5 寸法線
100
AcDbDimension
  2
*D31
 10
403.015831934003
 20
582.4783722865454
 30
0.0
 11
393.2152837210292
 21
589.3332283145577
 31
0.0
 70
   160
 71
     5
 42
3.0
 73
     0
 74
     0
 75
     0
  3
SEISA$0
100
AcDbAlignedDimension
 13
400.0158319340031
 23
601.660198562769
 33
0.0
 14
403.015831934003
 24
602.160198562769
 34
0.0
100
AcDbRotatedDimension
1001
ACAD
1000
DSTYLE
1002
{
1070
   173
1070
     1
1070
   279
1070
     2
1070
   343
1005
69
1070
   344
1005
573D
1002
}
  0
DIMENSION
  5
F0E7
102
{ACAD_XDICTIONARY
360
F0F6
102
}
102
{ACAD_REACTORS
330
F0F7
102
}
330
1F
100
AcDbEntity
  8
AM_5 寸法線
100
AcDbDimension
  2
*D32
 10
435.0158319340031
 20
582.4783722865451
 30
0.0
 11
427.7157130280261
 21
590.6448952657216
 31
0.0
 70
   160
 71
     5
 42
14.0
 73
     0
 74
     0
 75
     0
  3
SEISA$0
100
AcDbAlignedDimension
 13
421.0158319340031
 23
601.660198562769
 33
0.0
 14
435.0158319340031
 24
600.6601985627687
 34
0.0
 50
0.0000000000001132
100
AcDbRotatedDimension
1001
ACAD_DSTYLE_DIMINSPECT
1070
   396
1000
100%
1070
   395
1000

1070
   394
1070
    33
1070
   393
1070
     0
1001
ACAD
1000
DSTYLE
1002
{
1070
   173
1070
     1
1070
   279
1070
     2
1070
   343
1005
573D
1070
   344
1005
69
1002
}
  0
DIMENSION
  5
F10E
330
1F
100
AcDbEntity
  8
AM_5 寸法線
100
AcDbDimension
  2
*D33
 10
421.0158319340031
 20
582.4783722865451
 30
0.0
 11
412.2300052784662
 21
589.9779351691647
 31
0.0
 70
   160
 71
     5
 42
18.0
 73
     0
 74
     0
 75
     0
  3
SEISA$0
100
AcDbAlignedDimension
 13
403.015831934003
 23
602.1601985627691
 33
0.0
 14
421.0158319340031
 24
601.660198562769
 34
0.0
100
AcDbRotatedDimension
1001
ACAD
1000
DSTYLE
1002
{
1070
   342
1005
0
1070
   173
1070
     1
1070
   279
1070
     2
1070
   343
1005
F177
1070
   344
1005
F177
1002
}
  0
DIMENSION
  5
F1A8
330
1F
100
AcDbEntity
  8
AM_5 寸法線
100
AcDbDimension
  2
*D35
 10
435.0158319340031
 20
567.5646882440478
 30
0.0
 11
449.8869943218344
 21
574.9441831061679
 31
0.0
 70
   160
 71
     5
 42
4.999999999999771
 73
     0
 74
     0
 75
     0
  3
SEISA$0
100
AcDbAlignedDimension
 13
440.0158319340028
 23
612.1601985627685
 33
0.0
 14
435.0158319340031
 24
574.3916225627692
 34
0.0
 50
0.0000000000001132
100
AcDbRotatedDimension
1001
ACAD_DSTYLE_DIMINSPECT
1070
   396
1000
100%
1070
   395
1000

1070
   394
1070
    33
1070
   393
1070
     0
1001
ACAD
1000
DSTYLE
1002
{
1070
   279
1070
     2
1002
}
  0
DIMENSION
  5
F31C
102
{ACAD_XDICTIONARY
360
F32B
102
}
102
{ACAD_REACTORS
330
F32C
102
}
330
1F
100
AcDbEntity
  8
AM_5 寸法線
100
AcDbDimension
  2
*D36
 10
615.0158319340031
 20
567.5646882440478
 30
0.0
 11
589.8129839116202
 21
565.2866321556907
 31
0.0
 70
   160
 71
     5
 42
4.999999999999886
 73
     0
 74
     0
 75
     0
  3
SEISA$0
100
AcDbAlignedDimension
 13
610.0158319340032
 23
612.1601985627688
 33
0.0
 14
615.0158319340031
 24
600.6601985627688
 34
0.0
 50
0.0000000000001132
100
AcDbRotatedDimension
1001
ACAD_DSTYLE_DIMINSPECT
1070
   396
1000
100%
1070
   395
1000

1070
   394
1070
    33
1070
   393
1070
     0
1001
ACAD
1000
DSTYLE
1002
{
1070
   279
1070
     1
1002
}
  0
INSERT
  5
F5B9
330
1F
100
AcDbEntity
  8
AM_0 外形線1
100
AcDbBlockReference
  2
ケース
 10
372.4324095445011
 20
614.160198562769
 30
0.0
  0
ENDSEC
  0
SECTION
  2
OBJECTS
  0
DICTIONARY
  5
C
330
0
100
AcDbDictionary
281
     1
  3
ACAD_COLOR
350
C5
  3
ACAD_GROUP
350
D
  3
ACAD_LAYOUT
350
1A
  3
ACAD_MATERIAL
350
C4
  3
ACAD_MLEADERSTYLE
350
2D5
  3
ACAD_MLINESTYLE
350
17
  3
ACAD_PLOTSETTINGS
350
19
  3
ACAD_PLOTSTYLENAME
350
E
  3
ACAD_SCALELIST
350
2B3
  3
ACAD_TABLESTYLE
350
121
  3
ACAD_VISUALSTYLE
350
27F
  3
ACDB_RECOMPOSE_DATA
350
2F7
  3
AcDbVariableDictionary
350
34
  3
AcmDictionary
350
49
  3
AMG
350
2B
  3
AMGSNAPSETTINGS
350
1DE
  0
DICTIONARY
  5
BF
330
2
100
AcDbDictionary
280
     1
281
     1
  3
ACAD_LAYERSTATES
360
2E1A
  3
AMLAYER_GROUPCOLORS
360
C0
  0
DICTIONARY
  5
29F7
330
10
100
AcDbDictionary
280
     1
281
     1
  3
ADSK_XREC_LAYER_RECONCILED
360
29F8
  0
DICTIONARY
  5
29F9
330
81
100
AcDbDictionary
280
     1
281
     1
  3
ADSK_XREC_LAYER_RECONCILED
360
29FA
  0
DICTIONARY
  5
2E10
330
2E0F
100
AcDbDictionary
280
     1
281
     1
  0
DICTIONARY
  5
82
330
1F
100
AcDbDictionary
280
     1
281
     1
  3
ACAD_SORTENTS
360
A41
  0
DICTIONARY
  5
55AC
330
55AB
100
AcDbDictionary
280
     1
281
     1
  3
ACAD_SORTENTS
360
8199
  0
DICTIONARY
  5
6445
330
57DD
100
AcDbDictionary
280
     1
281
     1
  3
ACAD_SORTENTS
360
81B2
  0
DICTIONARY
  5
6321
330
6270
100
AcDbDictionary
280
     1
281
     1
  3
ACAD_SORTENTS
360
821F
  0
DICTIONARY
  5
64B7
330
63EA
100
AcDbDictionary
280
     1
281
     1
  3
ACAD_SORTENTS
360
E2A7
  0
DICTIONARY
  5
82DB
330
6526
100
AcDbDictionary
280
     1
281
     1
  3
ACAD_SORTENTS
360
F3DC
  0
DICTIONARY
  5
8321
330
6582
100
AcDbDictionary
280
     1
281
     1
  3
ACAD_SORTENTS
360
F413
  0
DICTIONARY
  5
6960
330
68CD
100
AcDbDictionary
280
     1
281
     1
  3
ACAD_SORTENTS
360
850C
  0
DICTIONARY
  5
6A04
330
696C
100
AcDbDictionary
280
     1
281
     1
  3
ACAD_SORTENTS
360
857B
  0
DICTIONARY
  5
E7D8
330
E68B
100
AcDbDictionary
280
     1
281
     1
  3
ACAD_SORTENTS
360
F6B8
  0
DICTIONARY
  5
7252
330
7245
100
AcDbDictionary
280
     1
281
     1
  3
ACAD_DIMASSOC
360
725C
  0
DICTIONARY
  5
7294
330
7287
100
AcDbDictionary
280
     1
281
     1
  3
ACAD_DIMASSOC
360
729E
  0
DICTIONARY
  5
72D2
330
72C5
100
AcDbDictionary
280
     1
281
     1
  3
ACAD_DIMASSOC
360
72DC
  0
DICTIONARY
  5
7306
330
72F9
100
AcDbDictionary
280
     1
281
     1
  3
ACAD_DIMASSOC
360
7310
  0
DICTIONARY
  5
7359
330
734C
100
AcDbDictionary
280
     1
281
     1
  3
ACAD_DIMASSOC
360
7363
  0
DICTIONARY
  5
7371
330
7364
100
AcDbDictionary
280
     1
281
     1
  3
ACAD_DIMASSOC
360
737B
  0
DICTIONARY
  5
75C0
330
75B1
100
AcDbDictionary
280
     1
281
     1
  3
ACAD_DIMASSOC
360
75CC
  0
DICTIONARY
  5
7614
330
7605
100
AcDbDictionary
280
     1
281
     1
  3
ACAD_DIMASSOC
360
7620
  0
DICTIONARY
  5
762E
330
7621
100
AcDbDictionary
280
     1
281
     1
  3
ACAD_DIMASSOC
360
7638
  0
DICTIONARY
  5
7646
330
7639
100
AcDbDictionary
280
     1
281
     1
  3
ACAD_DIMASSOC
360
7650
  0
DICTIONARY
  5
7676
330
7669
100
AcDbDictionary
280
     1
281
     1
  3
ACAD_DIMASSOC
360
7680
  0
DICTIONARY
  5
768E
330
7681
100
AcDbDictionary
280
     1
281
     1
  3
ACAD_DIMASSOC
360
7698
  0
DICTIONARY
  5
EC69
330
EC5A
100
AcDbDictionary
280
     1
281
     1
  3
ACAD_DIMASSOC
360
EC6A
  0
DICTIONARY
  5
F013
330
F004
100
AcDbDictionary
280
     1
281
     1
  3
ACAD_DIMASSOC
360
F014
  0
DICTIONARY
  5
F06C
330
F05D
100
AcDbDictionary
280
     1
281
     1
  3
ACAD_DIMASSOC
360
F06D
  0
DICTIONARY
  5
F0F6
330
F0E7
100
AcDbDictionary
280
     1
281
     1
  3
ACAD_DIMASSOC
360
F0F7
  0
DICTIONARY
  5
F32B
330
F31C
100
AcDbDictionary
280
     1
281
     1
  3
ACAD_DIMASSOC
360
F32C
  0
DICTIONARY
  5
C5
102
{ACAD_REACTORS
330
C
102
}
330
C
100
AcDbDictionary
281
     1
  0
DICTIONARY
  5
D
102
{ACAD_REACTORS
330
C
102
}
330
C
100
AcDbDictionary
281
     1
  0
DICTIONARY
  5
1A
102
{ACAD_REACTORS
330
C
102
}
330
C
100
AcDbDictionary
281
     1
  3
Model
350
22
  3
レイアウト1
350
1E
  3
レイアウト2
350
26
  0
DICTIONARY
  5
C4
102
{ACAD_REACTORS
330
C
102
}
330
C
100
AcDbDictionary
281
     1
  3
ByBlock
350
27D
  3
ByLayer
350
27C
  3
Global
350
27E
  0
DICTIONARY
  5
2D5
102
{ACAD_REACTORS
330
C
102
}
330
C
100
AcDbDictionary
281
     1
  3
Standard
350
2D6
  0
DICTIONARY
  5
17
102
{ACAD_REACTORS
330
C
102
}
330
C
100
AcDbDictionary
281
     1
  3
Standard
350
18
  0
DICTIONARY
  5
19
102
{ACAD_REACTORS
330
C
102
}
330
C
100
AcDbDictionary
281
     1
  3
SEISA基本
350
1C7E
  0
ACDBDICTIONARYWDFLT
  5
E
102
{ACAD_REACTORS
330
C
102
}
330
C
100
AcDbDictionary
281
     1
  3
Normal
350
F
100
AcDbDictionaryWithDefault
340
F
  0
DICTIONARY
  5
2B3
102
{ACAD_REACTORS
330
C
102
}
330
C
100
AcDbDictionary
281
     1
  3
*A1
350
2A04
  3
*A2
350
5814
  3
A0
350
2B4
  3
A1
350
2B5
  3
A2
350
2B6
  3
A3
350
2B7
  3
A4
350
2B8
  3
A5
350
2B9
  3
A6
350
2BA
  3
A7
350
2BB
  3
A8
350
2BC
  3
A9
350
2BD
  3
B0
350
2BE
  3
B1
350
2BF
  3
B2
350
2C0
  3
B3
350
2C1
  3
B4
350
2C2
  3
B5
350
2C3
  3
B6
350
2C4
  3
B7
350
2C5
  3
B8
350
2C6
  3
B9
350
2C7
  3
C0
350
2C8
  3
C1
350
2C9
  3
C2
350
2CA
  3
C3
350
2CB
  3
C4
350
2CC
  3
C5
350
2CD
  3
C6
350
2CE
  3
C7
350
2CF
  3
C8
350
2D0
  3
C9
350
2D1
  3
D0
350
2D2
  3
D1
350
2D3
  3
D2
350
2D4
  0
DICTIONARY
  5
121
102
{ACAD_REACTORS
330
C
102
}
330
C
100
AcDbDictionary
281
     1
  3
Standard
350
122
  0
DICTIONARY
  5
27F
102
{ACAD_REACTORS
330
C
102
}
330
C
100
AcDbDictionary
281
     1
  3
2dWireframe
350
285
  3
3D Hidden
350
287
  3
3dWireframe
350
286
  3
Basic
350
284
  3
Brighten
350
28B
  3
ColorChange
350
28F
  3
Conceptual
350
288
  3
Dim
350
28A
  3
Facepattern
350
28E
  3
Flat
350
280
  3
FlatWithEdges
350
281
  3
Gouraud
350
282
  3
GouraudWithEdges
350
283
  3
Linepattern
350
28D
  3
Realistic
350
289
  3
Thicken
350
28C
  0
XRECORD
  5
2F7
102
{ACAD_REACTORS
330
C
102
}
330
C
100
AcDbXrecord
280
     1
 90
        1
330
122
  0
DICTIONARY
  5
34
102
{ACAD_REACTORS
330
C
102
}
330
C
100
AcDbDictionary
281
     1
  3
CANNOSCALE
350
2FA
  3
CMLEADERSTYLE
350
2F8
  3
CTABLESTYLE
350
140
  3
DIMASSOC
350
AC
  3
INDEXCTL
350
35
  3
LAYEREVAL
350
861A
  3
LAYERNOTIFY
350
861B
  3
LIGHTINGUNITS
350
2FB
  3
MSLTSCALE
350
2F9
  0
DICTIONARY
  5
49
102
{ACAD_REACTORS
330
C
102
}
330
C
100
AcDbDictionary
281
     1
  3
AcmBOM
350
161B
  3
AcmStdDictionary
350
4A
  3
AMDTSECTSYM_ARROWCOLOR
350
12B
  0
DICTIONARY
  5
2B
102
{ACAD_REACTORS
330
C
102
}
330
C
100
AcDbDictionary
281
     1
  0
DICTIONARY
  5
1DE
102
{ACAD_REACTORS
330
C
102
}
330
C
100
AcDbDictionary
281
     1
  0
DICTIONARY
  5
2E1A
102
{ACAD_REACTORS
330
BF
102
}
330
BF
100
AcDbDictionary
281
     1
  0
DICTIONARY
  5
C0
102
{ACAD_REACTORS
330
BF
102
}
330
BF
100
AcDbDictionary
280
     1
281
     1
  0
XRECORD
  5
29F8
102
{ACAD_REACTORS
330
29F7
102
}
330
29F7
100
AcDbXrecord
280
     1
290
     1
  0
XRECORD
  5
29FA
102
{ACAD_REACTORS
330
29F9
102
}
330
29F9
100
AcDbXrecord
280
     1
290
     1
  0
SORTENTSTABLE
  5
A41
102
{ACAD_REACTORS
330
82
102
}
330
82
100
AcDbSortentsTable
330
1F
331
7639
  5
7639
331
6422
  5
68FB
331
7681
  5
7681
331
7669
  5
7669
331
D20A
  5
D20D
331
68FB
  5
6AB1
331
E6FA
  5
E6FA
331
EF47
  5
EF47
331
EC5A
  5
EC5A
331
7245
  5
7245
331
6546
  5
69CA
331
75B1
  5
75B1
331
D23C
  5
D20C
331
699C
  5
6B08
331
EC07
  5
EC07
331
7287
  5
7287
331
65A1
  5
6A46
331
6481
  5
699C
331
72C5
  5
72C5
331
7605
  5
7605
331
734C
  5
734C
331
72F9
  5
72F9
331
62A7
  5
6546
331
62C3
  5
65A1
331
7364
  5
7364
331
4C77
  5
4C77
331
4D73
  5
4D73
331
7621
  5
7621
331
D23D
  5
D1C3
  0
SORTENTSTABLE
  5
8199
102
{ACAD_REACTORS
330
55AC
102
}
330
55AC
100
AcDbSortentsTable
330
55AB
  0
SORTENTSTABLE
  5
81B2
102
{ACAD_REACTORS
330
6445
102
}
330
6445
100
AcDbSortentsTable
330
57DD
  0
SORTENTSTABLE
  5
821F
102
{ACAD_REACTORS
330
6321
102
}
330
6321
100
AcDbSortentsTable
330
6270
331
6297
  5
6299
331
6291
  5
6293
331
6287
  5
6289
331
628B
  5
628D
331
62A2
  5
62A5
331
629E
  5
62A0
331
6298
  5
629A
331
6292
  5
6294
331
628C
  5
628E
331
6320
  5
62A4
331
62A3
  5
62A6
331
629F
  5
62A2
331
6299
  5
629B
331
6293
  5
6295
331
628D
  5
628F
331
62A4
  5
631E
331
631E
  5
6284
331
629A
  5
629C
331
6294
  5
6296
331
628E
  5
6290
331
6288
  5
628A
331
6284
  5
6286
331
62A5
  5
631F
331
631F
  5
6285
331
629B
  5
629D
331
6295
  5
6297
331
628F
  5
6291
331
62A6
  5
6320
331
6285
  5
6287
331
6289
  5
628B
331
62A0
  5
62A3
331
629C
  5
629E
331
6296
  5
6298
331
6290
  5
6292
331
6286
  5
6288
331
628A
  5
628C
331
629D
  5
629F
  0
SORTENTSTABLE
  5
E2A7
102
{ACAD_REACTORS
330
64B7
102
}
330
64B7
100
AcDbSortentsTable
330
63EA
  0
SORTENTSTABLE
  5
F3DC
102
{ACAD_REACTORS
330
82DB
102
}
330
82DB
100
AcDbSortentsTable
330
6526
331
6532
  5
6534
331
653E
  5
6540
331
EF8F
  5
652B
331
6533
  5
6535
331
652B
  5
652D
331
653F
  5
6541
331
6534
  5
6537
331
EF90
  5
6529
331
652C
  5
652E
331
6538
  5
653B
331
6535
  5
6538
331
652D
  5
652F
331
6540
  5
6542
331
652E
  5
6530
331
6541
  5
EF8F
331
653A
  5
653C
331
6537
  5
653A
331
652F
  5
6531
331
6542
  5
EF90
331
653B
  5
653D
331
6530
  5
6532
331
653C
  5
653E
331
6531
  5
6533
331
6529
  5
652C
331
653D
  5
653F
  0
SORTENTSTABLE
  5
F413
102
{ACAD_REACTORS
330
8321
102
}
330
8321
100
AcDbSortentsTable
330
6582
331
6599
  5
659B
331
6591
  5
6594
331
6589
  5
658B
331
659A
  5
659C
331
6592
  5
6595
331
658A
  5
658C
331
EFCB
  5
6587
331
659B
  5
659E
331
EFCC
  5
6585
331
658B
  5
658D
331
659C
  5
EFCB
331
6594
  5
6596
331
658C
  5
658E
331
6585
  5
6588
331
6595
  5
6597
331
658D
  5
658F
331
659E
  5
EFCC
331
6596
  5
6598
331
658E
  5
6590
331
6587
  5
6589
331
6597
  5
6599
331
658F
  5
6591
331
6598
  5
659A
331
6590
  5
6592
331
6588
  5
658A
  0
SORTENTSTABLE
  5
850C
102
{ACAD_REACTORS
330
6960
102
}
330
6960
100
AcDbSortentsTable
330
68CD
  0
SORTENTSTABLE
  5
857B
102
{ACAD_REACTORS
330
6A04
102
}
330
6A04
100
AcDbSortentsTable
330
696C
  0
SORTENTSTABLE
  5
F6B8
102
{ACAD_REACTORS
330
E7D8
102
}
330
E7D8
100
AcDbSortentsTable
330
E68B
331
E6EF
  5
E6F1
331
E6C0
  5
E6C1
331
EBCF
  5
E6DD
331
E6E0
  5
E6E2
331
E6D0
  5
E6D1
331
E6F0
  5
E6F2
331
E6C1
  5
E6C2
331
E6D1
  5
E6D2
331
E6E1
  5
E6E3
331
E6F1
  5
E6F3
331
E6C2
  5
E6C3
331
E6E2
  5
E6E4
331
E6D2
  5
E6D3
331
E6F2
  5
E6F4
331
E6C3
  5
E6C4
331
E6D3
  5
E6D4
331
E6E3
  5
E6E5
331
E6F3
  5
E6F5
331
E6C4
  5
E6C5
331
E6E4
  5
E6E7
331
E6D4
  5
E6D5
331
F2D4
  5
E6F6
331
E6F4
  5
E6F7
331
E6C5
  5
E6C6
331
E6D5
  5
E6D6
331
E6E5
  5
E6E8
331
E6F5
  5
E6F8
331
E6C6
  5
E6C7
331
E6D6
  5
E6D7
331
E6F6
  5
E6F9
331
E6C7
  5
E6C8
331
E699
  5
E6AC
331
E6D7
  5
E6D8
331
E6E7
  5
E6E9
331
E6F7
  5
EBCE
331
E6C8
  5
E6CA
331
E6D8
  5
E6D9
331
E6E8
  5
E6EA
331
E6D9
  5
E6DA
331
E6E9
  5
E6EB
331
E6CA
  5
E6CB
331
E6DA
  5
E6DB
331
E6EA
  5
E6EC
331
E6AC
  5
E6BF
331
E6DB
  5
E6DC
331
E6CB
  5
E6CC
331
E6EB
  5
E6ED
331
E6CC
  5
E6CD
331
E6DC
  5
E6DE
331
E6F8
  5
EBCF
331
E6EC
  5
E6EE
331
E6CD
  5
E6CE
331
E6DD
  5
E6DF
331
E6F9
  5
F2D4
331
E6ED
  5
E6EF
331
E6DE
  5
E6E0
331
E6CE
  5
E6CF
331
E6EE
  5
E6F0
331
E6BF
  5
E6C0
331
EBCE
  5
E699
331
E6CF
  5
E6D0
331
E6DF
  5
E6E1
  0
DIMASSOC
  5
725C
102
{ACAD_REACTORS
330
7252
102
}
330
7252
100
AcDbDimAssoc
330
7245
 90
        3
 70
     0
 71
     0
  1
AcDbOsnapPointRef
 72
     1
331
65A1
331
658E
 73
     2
 91
        0
 40
1.0
 10
0.0
 20
0.0
 30
2.000000000000000E+50
 75
     0
  1
AcDbOsnapPointRef
 72
    13
331
65A1
331
6588
 73
     2
 91
        0
 40
0.0
 10
0.0
 20
0.0
 30
2.000000000000000E+50
 75
     0
  0
DIMASSOC
  5
729E
102
{ACAD_REACTORS
330
7294
102
}
330
7294
100
AcDbDimAssoc
330
7287
 90
        3
 70
     0
 71
     0
  1
AcDbOsnapPointRef
 72
    13
331
6546
331
6532
 73
     2
 91
        0
 40
0.0
 10
0.0
 20
0.0
 30
2.000000000000000E+50
 75
     0
  1
AcDbOsnapPointRef
 72
     1
331
6546
331
652C
 73
     2
 91
        0
 40
1.0
 10
0.0
 20
0.0
 30
2.000000000000000E+50
 75
     0
  0
DIMASSOC
  5
72DC
102
{ACAD_REACTORS
330
72D2
102
}
330
72D2
100
AcDbDimAssoc
330
72C5
 90
        3
 70
     0
 71
     0
  1
AcDbOsnapPointRef
 72
     1
331
62A7
331
628F
 73
     2
 91
        0
 40
1.0
 10
0.0
 20
0.0
 30
2.000000000000000E+50
 75
     0
  1
AcDbOsnapPointRef
 72
     1
331
62A7
331
627B
 73
     2
 91
        0
 40
1.0
 10
0.0
 20
0.0
 30
2.000000000000000E+50
 75
     0
  0
DIMASSOC
  5
7310
102
{ACAD_REACTORS
330
7306
102
}
330
7306
100
AcDbDimAssoc
330
72F9
 90
        3
 70
     0
 71
     0
  1
AcDbOsnapPointRef
 72
     1
331
62A7
331
62A2
 73
     2
 91
        0
 40
1.0
 10
0.0
 20
0.0
 30
2.000000000000000E+50
 75
     0
  1
AcDbOsnapPointRef
 72
     1
331
62A7
331
6278
 73
     2
 91
        0
 40
1.0
 10
0.0
 20
0.0
 30
2.000000000000000E+50
 75
     0
  0
DIMASSOC
  5
7363
102
{ACAD_REACTORS
330
7359
102
}
330
7359
100
AcDbDimAssoc
330
734C
 90
        2
 70
     0
 71
     0
  1
AcDbOsnapPointRef
 72
     2
331
65A1
331
6587
 73
     2
 91
        0
 40
0.4999999999999993
 10
0.0
 20
0.0
 30
0.0
 75
     0
  0
DIMASSOC
  5
737B
102
{ACAD_REACTORS
330
7371
102
}
330
7371
100
AcDbDimAssoc
330
7364
 90
        3
 70
     0
 71
     0
  1
AcDbOsnapPointRef
 72
     2
331
6546
331
6529
 73
     2
 91
        0
 40
0.4999999999999993
 10
0.0
 20
0.0
 30
0.0
 75
     0
  1
AcDbOsnapPointRef
 72
     8
331
6546
331
652B
 73
     2
 91
        0
 40
1.0
 10
0.0
 20
0.0
 30
0.0
 75
     1
  1
AcDbOsnapPointRef
 72
     2
331
6546
331
6529
 73
     2
 91
        0
 40
0.4999999999999993
 10
0.0
 20
0.0
 30
0.0
 75
     0
  0
DIMASSOC
  5
75CC
102
{ACAD_REACTORS
330
75C0
102
}
330
75C0
100
AcDbDimAssoc
330
75B1
 90
        2
 70
     0
 71
     0
  1
AcDbOsnapPointRef
 72
    10
331
6422
331
6405
 73
     2
 91
        0
 40
0.0030103202668491
 10
0.0
 20
0.0
 30
0.0
 75
     0
  0
DIMASSOC
  5
7620
102
{ACAD_REACTORS
330
7614
102
}
330
7614
100
AcDbDimAssoc
330
7605
 90
        2
 70
     0
 71
     0
  1
AcDbOsnapPointRef
 72
    13
331
62A7
331
6274
 73
     2
 91
        0
 40
0.0
 10
0.0
 20
0.0
 30
2.000000000000000E+50
 75
     0
  0
DIMASSOC
  5
7638
102
{ACAD_REACTORS
330
762E
102
}
330
762E
100
AcDbDimAssoc
330
7621
 90
        3
 70
     0
 71
     0
  1
AcDbOsnapPointRef
 72
    13
331
6422
331
63F3
 73
     2
 91
        0
 40
0.0
 10
0.0
 20
0.0
 30
2.000000000000000E+50
 75
     0
  1
AcDbOsnapPointRef
 72
    13
331
65A1
331
6587
 73
     2
 91
        0
 40
0.0
 10
0.0
 20
0.0
 30
2.000000000000000E+50
 75
     0
  0
DIMASSOC
  5
7650
102
{ACAD_REACTORS
330
7646
102
}
330
7646
100
AcDbDimAssoc
330
7639
 90
        1
 70
     0
 71
     0
  1
AcDbOsnapPointRef
 72
    13
331
6422
331
63F3
 73
     2
 91
        0
 40
0.0
 10
0.0
 20
0.0
 30
2.000000000000000E+50
 75
     0
  0
DIMASSOC
  5
7680
102
{ACAD_REACTORS
330
7676
102
}
330
7676
100
AcDbDimAssoc
330
7669
 90
        2
 70
     0
 71
     0
  1
AcDbOsnapPointRef
 72
    13
331
62A7
331
6276
 73
     2
 91
        0
 40
0.0
 10
0.0
 20
0.0
 30
2.000000000000000E+50
 75
     0
  0
DIMASSOC
  5
7698
102
{ACAD_REACTORS
330
768E
102
}
330
768E
100
AcDbDimAssoc
330
7681
 90
        3
 70
     0
 71
     0
  1
AcDbOsnapPointRef
 72
    13
331
62A7
331
6276
 73
     2
 91
        0
 40
0.0
 10
0.0
 20
0.0
 30
2.000000000000000E+50
 75
     0
  1
AcDbOsnapPointRef
 72
    13
331
6546
331
6529
 73
     2
 91
        0
 40
0.0
 10
0.0
 20
0.0
 30
2.000000000000000E+50
 75
     0
  0
DIMASSOC
  5
EC6A
102
{ACAD_REACTORS
330
EC69
102
}
330
EC69
100
AcDbDimAssoc
330
EC5A
 90
        1
 70
     0
 71
     0
  1
AcDbOsnapPointRef
 72
     1
331
E6FA
331
E696
 73
     0
 91
        0
 40
0.0
 10
0.0
 20
0.0
 30
2.000000000000000E+50
 75
     0
  0
DIMASSOC
  5
F014
102
{ACAD_REACTORS
330
F013
102
}
330
F013
100
AcDbDimAssoc
330
F004
 90
        2
 70
     0
 71
     0
  1
AcDbOsnapPointRef
 72
     1
331
65A1
331
6587
 73
     0
 91
        0
 40
0.0
 10
0.0
 20
0.0
 30
2.000000000000000E+50
 75
     0
  0
DIMASSOC
  5
F06D
102
{ACAD_REACTORS
330
F06C
102
}
330
F06C
100
AcDbDimAssoc
330
F05D
 90
        1
 70
     0
 71
     0
  1
AcDbOsnapPointRef
 72
    13
331
6422
331
63FD
 73
     2
 91
        0
 40
0.0
 10
0.0
 20
0.0
 30
2.000000000000000E+50
 75
     0
  0
DIMASSOC
  5
F0F7
102
{ACAD_REACTORS
330
F0F6
102
}
330
F0F6
100
AcDbDimAssoc
330
F0E7
 90
        2
 70
     0
 71
     0
  1
AcDbOsnapPointRef
 72
    13
331
65A1
331
659B
 73
     0
 91
        0
 40
0.0
 10
0.0
 20
0.0
 30
2.000000000000000E+50
 75
     0
  0
DIMASSOC
  5
F32C
102
{ACAD_REACTORS
330
F32B
102
}
330
F32B
100
AcDbDimAssoc
330
F31C
 90
        3
 70
     0
 71
     0
  1
AcDbOsnapPointRef
 72
    13
331
E6FA
331
E698
 73
     0
 91
        0
 40
0.0
 10
0.0
 20
0.0
 30
2.000000000000000E+50
 75
     0
  1
AcDbOsnapPointRef
 72
    13
331
6546
331
652B
 73
     0
 91
        0
 40
0.0
 10
0.0
 20
0.0
 30
2.000000000000000E+50
 75
     0
  0
LAYOUT
  5
22
102
{ACAD_REACTORS
330
1A
102
}
330
1A
100
AcDbPlotSettings
  1

  2
KONICA MINOLTA 501 PCL
  4
A4
  6

 40
5.027082920074462
 41
5.027085781097412
 42
5.027069091796875
 43
5.027069091796875
 44
209.9733276367186
 45
296.9259948730469
 46
35.51011702267842
 47
0.0
 48
0.0
 49
0.0
140
0.0
141
0.0
142
1.0
143
1.837457686871822
 70
 11956
 72
     1
 73
     1
 74
     1
  7
SEISA.ctb
 75
     0
147
0.5442302193649144
 76
     0
 77
     2
 78
   300
148
-287.477878013834
149
-409.9407608809213
100
AcDbLayout
  1
Model
 70
     1
 71
     0
 10
0.0
 20
0.0
 11
12.0
 21
9.0
 12
0.0
 22
0.0
 32
0.0
 14
0.0
 24
0.0
 34
0.0
 15
0.0
 25
0.0
 35
0.0
146
0.0
 13
0.0
 23
0.0
 33
0.0
 16
1.0
 26
0.0
 36
0.0
 17
0.0
 27
1.0
 37
0.0
 76
     0
330
1F
331
27A
1001
ACAD_PSEXT
1000
KONICA MINOLTA 501 PCL
1000
KONICA MINOLTA 501/421/361PCL
1000
IP_192.168.20.231_(1)
1000

1070
     0
  0
LAYOUT
  5
1E
102
{ACAD_REACTORS
330
1A
102
}
330
1A
100
AcDbPlotSettings
  1

  2
none_device
  4
Letter_(8.50_x_11.00_Inches)
  6

 40
6.349999904632567
 41
6.349999904632567
 42
6.350006103515625
 43
6.350006103515625
 44
215.8999938964844
 45
279.3999938964844
 46
0.0
 47
0.0
 48
0.0
 49
0.0
140
0.0
141
0.0
142
1.0
143
1.0
 70
 15024
 72
     1
 73
     1
 74
     5
  7
SEISA.ctb
 75
    16
147
1.0
 76
     0
 77
     2
 78
   300
148
0.0
149
0.0
100
AcDbLayout
  1
レイアウト1
 70
     1
 71
     1
 10
0.0
 20
0.0
 11
420.0
 21
297.0
 12
0.0
 22
0.0
 32
0.0
 14
1.000000000000000E+20
 24
1.000000000000000E+20
 34
1.000000000000000E+20
 15
-1.000000000000000E+20
 25
-1.000000000000000E+20
 35
-1.000000000000000E+20
146
0.0
 13
0.0
 23
0.0
 33
0.0
 16
1.0
 26
0.0
 36
0.0
 17
0.0
 27
1.0
 37
0.0
 76
     0
330
1B
  0
LAYOUT
  5
26
102
{ACAD_REACTORS
330
1A
102
}
330
1A
100
AcDbPlotSettings
  1

  2
none_device
  4
Letter_(8.50_x_11.00_Inches)
  6

 40
6.349999904632567
 41
6.349999904632567
 42
6.350006103515625
 43
6.350006103515625
 44
215.8999938964844
 45
279.3999938964844
 46
0.0
 47
0.0
 48
0.0
 49
0.0
140
0.0
141
0.0
142
1.0
143
1.0
 70
 15024
 72
     1
 73
     1
 74
     5
  7
SEISA.ctb
 75
    16
147
1.0
 76
     0
 77
     2
 78
   300
148
0.0
149
0.0
100
AcDbLayout
  1
レイアウト2
 70
     1
 71
     2
 10
0.0
 20
0.0
 11
12.0
 21
9.0
 12
0.0
 22
0.0
 32
0.0
 14
0.0
 24
0.0
 34
0.0
 15
0.0
 25
0.0
 35
0.0
146
0.0
 13
0.0
 23
0.0
 33
0.0
 16
1.0
 26
0.0
 36
0.0
 17
0.0
 27
1.0
 37
0.0
 76
     0
330
23
  0
MATERIAL
  5
27D
102
{ACAD_REACTORS
330
C4
102
}
330
C4
100
AcDbMaterial
  1
ByBlock
 73
     1
 78
     1
172
     1
176
     1
270
     1
274
     1
 94
       63
  0
MATERIAL
  5
27C
102
{ACAD_REACTORS
330
C4
102
}
330
C4
100
AcDbMaterial
  1
ByLayer
 73
     1
 78
     1
172
     1
176
     1
270
     1
274
     1
 94
       63
  0
MATERIAL
  5
27E
102
{ACAD_REACTORS
330
C4
102
}
330
C4
100
AcDbMaterial
  1
Global
 73
     1
 78
     1
172
     1
176
     1
270
     1
274
     1
 94
       63
  0
MLEADERSTYLE
  5
2D6
102
{ACAD_REACTORS
330
2D5
102
}
330
2D5
100
AcDbMLeaderStyle
170
     2
171
     1
172
     0
 90
        2
 40
0.0
 41
0.0
173
     1
 91
-1056964608
340
14
 92
       -2
290
     1
 42
2.0
291
     1
 43
0.36
  3
Standard
 44
4.0
300

342
11
174
     1
178
     6
175
     1
176
     0
 93
-1056964608
 45
4.0
292
     0
297
     0
 46
4.0
 94
-1056964608
 47
1.0
 49
1.0
140
1.0
293
     1
141
0.0
294
     1
177
     0
142
1.0
295
     0
296
     0
143
0.125
1001
ACAD_MLEADERVER
1070
     2
  0
MLINESTYLE
  5
18
102
{ACAD_REACTORS
330
17
102
}
330
17
100
AcDbMlineStyle
  2
STANDARD
 70
     0
  3

 62
   256
 51
90.0
 52
90.0
 71
     2
 49
0.5
 62
   256
  6
BYLAYER
 49
-0.5
 62
   256
  6
BYLAYER
  0
PLOTSETTINGS
  5
1C7E
102
{ACAD_REACTORS
330
19
102
}
330
19
100
AcDbPlotSettings
  1
SEISA基本
  2
none_device
  4
Letter_(8.50_x_11.00_Inches)
  6

 40
6.349999904632567
 41
6.349999904632567
 42
6.350006103515625
 43
6.350006103515625
 44
215.8999938964844
 45
279.3999938964844
 46
7.302498226506357
 47
0.0
 48
0.0
 49
0.0
140
0.0
141
0.0
142
1.0
143
1.574803221122935
 70
 11956
 72
     1
 73
     1
 74
     2
  7
SEISA.ctb
 75
     0
147
0.6349999711627054
 76
     0
 77
     2
 78
   300
148
0.0
149
0.0
1001
ACAD_PSEXT
1000
なし
1000
なし
1000
適切ではありません
1000
新しいプロッタ環境設定名を選択しない限り、レイアウトは印刷されません。
1070
     0
  0
ACDBPLACEHOLDER
  5
F
102
{ACAD_REACTORS
330
E
102
}
330
E
  0
SCALE
  5
2A04
102
{ACAD_REACTORS
330
2B3
102
}
330
2B3
100
AcDbScale
 70
     0
300
1:2.5
140
1.0
141
2.5
290
     0
  0
SCALE
  5
5814
102
{ACAD_REACTORS
330
2B3
102
}
330
2B3
100
AcDbScale
 70
     0
300
1:1.5
140
1.0
141
1.5
290
     0
  0
SCALE
  5
2B4
102
{ACAD_REACTORS
330
2B3
102
}
330
2B3
100
AcDbScale
 70
     0
300
1:1
140
1.0
141
1.0
290
     1
  0
SCALE
  5
2B5
102
{ACAD_REACTORS
330
2B3
102
}
330
2B3
100
AcDbScale
 70
     0
300
1:2
140
1.0
141
2.0
290
     0
  0
SCALE
  5
2B6
102
{ACAD_REACTORS
330
2B3
102
}
330
2B3
100
AcDbScale
 70
     0
300
1:4
140
1.0
141
4.0
290
     0
  0
SCALE
  5
2B7
102
{ACAD_REACTORS
330
2B3
102
}
330
2B3
100
AcDbScale
 70
     0
300
1:5
140
1.0
141
5.0
290
     0
  0
SCALE
  5
2B8
102
{ACAD_REACTORS
330
2B3
102
}
330
2B3
100
AcDbScale
 70
     0
300
1:8
140
1.0
141
8.0
290
     0
  0
SCALE
  5
2B9
102
{ACAD_REACTORS
330
2B3
102
}
330
2B3
100
AcDbScale
 70
     0
300
1:10
140
1.0
141
10.0
290
     0
  0
SCALE
  5
2BA
102
{ACAD_REACTORS
330
2B3
102
}
330
2B3
100
AcDbScale
 70
     0
300
1:16
140
1.0
141
16.0
290
     0
  0
SCALE
  5
2BB
102
{ACAD_REACTORS
330
2B3
102
}
330
2B3
100
AcDbScale
 70
     0
300
1:20
140
1.0
141
20.0
290
     0
  0
SCALE
  5
2BC
102
{ACAD_REACTORS
330
2B3
102
}
330
2B3
100
AcDbScale
 70
     0
300
1:30
140
1.0
141
30.0
290
     0
  0
SCALE
  5
2BD
102
{ACAD_REACTORS
330
2B3
102
}
330
2B3
100
AcDbScale
 70
     0
300
1:40
140
1.0
141
40.0
290
     0
  0
SCALE
  5
2BE
102
{ACAD_REACTORS
330
2B3
102
}
330
2B3
100
AcDbScale
 70
     0
300
1:50
140
1.0
141
50.0
290
     0
  0
SCALE
  5
2BF
102
{ACAD_REACTORS
330
2B3
102
}
330
2B3
100
AcDbScale
 70
     0
300
1:100
140
1.0
141
100.0
290
     0
  0
SCALE
  5
2C0
102
{ACAD_REACTORS
330
2B3
102
}
330
2B3
100
AcDbScale
 70
     0
300
2:1
140
2.0
141
1.0
290
     0
  0
SCALE
  5
2C1
102
{ACAD_REACTORS
330
2B3
102
}
330
2B3
100
AcDbScale
 70
     0
300
4:1
140
4.0
141
1.0
290
     0
  0
SCALE
  5
2C2
102
{ACAD_REACTORS
330
2B3
102
}
330
2B3
100
AcDbScale
 70
     0
300
8:1
140
8.0
141
1.0
290
     0
  0
SCALE
  5
2C3
102
{ACAD_REACTORS
330
2B3
102
}
330
2B3
100
AcDbScale
 70
     0
300
10:1
140
10.0
141
1.0
290
     0
  0
SCALE
  5
2C4
102
{ACAD_REACTORS
330
2B3
102
}
330
2B3
100
AcDbScale
 70
     0
300
100:1
140
100.0
141
1.0
290
     0
  0
SCALE
  5
2C5
102
{ACAD_REACTORS
330
2B3
102
}
330
2B3
100
AcDbScale
 70
     0
300
1/128" = 1'-0"
140
0.0078125
141
12.0
290
     0
  0
SCALE
  5
2C6
102
{ACAD_REACTORS
330
2B3
102
}
330
2B3
100
AcDbScale
 70
     0
300
1/64" = 1'-0"
140
0.015625
141
12.0
290
     0
  0
SCALE
  5
2C7
102
{ACAD_REACTORS
330
2B3
102
}
330
2B3
100
AcDbScale
 70
     0
300
1/32" = 1'-0"
140
0.03125
141
12.0
290
     0
  0
SCALE
  5
2C8
102
{ACAD_REACTORS
330
2B3
102
}
330
2B3
100
AcDbScale
 70
     0
300
1/16" = 1'-0"
140
0.0625
141
12.0
290
     0
  0
SCALE
  5
2C9
102
{ACAD_REACTORS
330
2B3
102
}
330
2B3
100
AcDbScale
 70
     0
300
3/32" = 1'-0"
140
0.09375
141
12.0
290
     0
  0
SCALE
  5
2CA
102
{ACAD_REACTORS
330
2B3
102
}
330
2B3
100
AcDbScale
 70
     0
300
1/8" = 1'-0"
140
0.125
141
12.0
290
     0
  0
SCALE
  5
2CB
102
{ACAD_REACTORS
330
2B3
102
}
330
2B3
100
AcDbScale
 70
     0
300
3/16" = 1'-0"
140
0.1875
141
12.0
290
     0
  0
SCALE
  5
2CC
102
{ACAD_REACTORS
330
2B3
102
}
330
2B3
100
AcDbScale
 70
     0
300
1/4" = 1'-0"
140
0.25
141
12.0
290
     0
  0
SCALE
  5
2CD
102
{ACAD_REACTORS
330
2B3
102
}
330
2B3
100
AcDbScale
 70
     0
300
3/8" = 1'-0"
140
0.375
141
12.0
290
     0
  0
SCALE
  5
2CE
102
{ACAD_REACTORS
330
2B3
102
}
330
2B3
100
AcDbScale
 70
     0
300
1/2" = 1'-0"
140
0.5
141
12.0
290
     0
  0
SCALE
  5
2CF
102
{ACAD_REACTORS
330
2B3
102
}
330
2B3
100
AcDbScale
 70
     0
300
3/4" = 1'-0"
140
0.75
141
12.0
290
     0
  0
SCALE
  5
2D0
102
{ACAD_REACTORS
330
2B3
102
}
330
2B3
100
AcDbScale
 70
     0
300
1" = 1'-0"
140
1.0
141
12.0
290
     0
  0
SCALE
  5
2D1
102
{ACAD_REACTORS
330
2B3
102
}
330
2B3
100
AcDbScale
 70
     0
300
1-1/2" = 1'-0"
140
1.5
141
12.0
290
     0
  0
SCALE
  5
2D2
102
{ACAD_REACTORS
330
2B3
102
}
330
2B3
100
AcDbScale
 70
     0
300
3" = 1'-0"
140
3.0
141
12.0
290
     0
  0
SCALE
  5
2D3
102
{ACAD_REACTORS
330
2B3
102
}
330
2B3
100
AcDbScale
 70
     0
300
6" = 1'-0"
140
6.0
141
12.0
290
     0
  0
SCALE
  5
2D4
102
{ACAD_REACTORS
330
2B3
102
}
330
2B3
100
AcDbScale
 70
     0
300
1'-0" = 1'-0"
140
12.0
141
12.0
290
     0
  0
TABLESTYLE
  5
122
102
{ACAD_XDICTIONARY
360
2F5
102
}
102
{ACAD_REACTORS
330
121
102
}
330
121
100
AcDbTableStyle
  3
Standard
 70
     0
 71
     0
 40
1.5
 41
1.5
280
     0
281
     0
  7
STANDARD
140
4.5
170
     2
 62
     0
 63
     7
283
     0
 90
      512
 91
        0
  1

274
    -2
284
     1
 64
     0
275
    -2
285
     1
 65
     0
276
    -2
286
     1
 66
     0
277
    -2
287
     1
 67
     0
278
    -2
288
     1
 68
     0
279
    -2
289
     1
 69
     0
  7
STANDARD
140
6.0
170
     5
 62
     0
 63
     7
283
     0
 90
      512
 91
        0
  1

274
    -2
284
     1
 64
     0
275
    -2
285
     1
 65
     0
276
    -2
286
     1
 66
     0
277
    -2
287
     1
 67
     0
278
    -2
288
     1
 68
     0
279
    -2
289
     1
 69
     0
  7
STANDARD
140
4.5
170
     5
 62
     0
 63
     7
283
     0
 90
      512
 91
        0
  1

274
    -2
284
     1
 64
     0
275
    -2
285
     1
 65
     0
276
    -2
286
     1
 66
     0
277
    -2
287
     1
 67
     0
278
    -2
288
     1
 68
     0
279
    -2
289
     1
 69
     0
  0
VISUALSTYLE
  5
285
102
{ACAD_REACTORS
330
27F
102
}
330
27F
100
AcDbVisualStyle
  2
2dWireframe
 70
     4
 71
     0
 72
     2
 73
     0
 90
        0
 40
-0.6
 41
-30.0
 62
     5
 63
     7
421
 16777215
 74
     1
 91
        4
 64
     7
 65
   257
 75
     1
175
     1
 42
1.0
 92
        0
 66
   257
 43
1.0
 76
     1
 77
     6
 78
     2
 67
     7
 79
     5
170
     0
171
     0
290
     0
174
     0
 93
        1
 44
0.0
173
     0
291
     0
 45
0.0
  0
VISUALSTYLE
  5
287
102
{ACAD_REACTORS
330
27F
102
}
330
27F
100
AcDbVisualStyle
  2
3D Hidden
 70
     6
 71
     1
 72
     2
 73
     2
 90
        0
 40
-0.6
 41
-30.0
 62
     5
 63
     7
421
 16777215
 74
     2
 91
        2
 64
     7
 65
   257
 75
     2
175
     1
 42
40.0
 92
        0
 66
   257
 43
1.0
 76
     1
 77
     6
 78
     2
 67
     7
 79
     3
170
     0
171
     0
290
     0
174
     0
 93
        1
 44
0.0
173
     0
291
     0
 45
0.0
  0
VISUALSTYLE
  5
286
102
{ACAD_REACTORS
330
27F
102
}
330
27F
100
AcDbVisualStyle
  2
3dWireframe
 70
     5
 71
     0
 72
     2
 73
     0
 90
        0
 40
-0.6
 41
-30.0
 62
     5
 63
     7
421
 16777215
 74
     1
 91
        4
 64
     7
 65
   257
 75
     1
175
     1
 42
1.0
 92
        0
 66
   257
 43
1.0
 76
     1
 77
     6
 78
     2
 67
     7
 79
     5
170
     0
171
     0
290
     0
174
     0
 93
        1
 44
0.0
173
     0
291
     0
 45
0.0
  0
VISUALSTYLE
  5
284
102
{ACAD_REACTORS
330
27F
102
}
330
27F
100
AcDbVisualStyle
  2
Basic
 70
     7
 71
     1
 72
     0
 73
     1
 90
        0
 40
-0.6
 41
-30.0
 62
     5
 63
     7
421
 16777215
 74
     0
 91
        4
 64
     7
 65
   257
 75
     1
175
     1
 42
1.0
 92
        8
 66
     7
 43
1.0
 76
     1
 77
     6
 78
     2
 67
     7
 79
     5
170
     0
171
     0
290
     0
174
     0
 93
        1
 44
0.0
173
     0
291
     1
 45
0.0
  0
VISUALSTYLE
  5
28B
102
{ACAD_REACTORS
330
27F
102
}
330
27F
100
AcDbVisualStyle
  2
Brighten
 70
    12
 71
     2
 72
     2
 73
     0
 90
        0
 40
-0.6
 41
-30.0
 62
     5
 63
     7
421
 16777215
 74
     1
 91
        4
 64
     7
 65
   257
 75
     1
175
     1
 42
1.0
 92
        8
 66
     7
 43
1.0
 76
     1
 77
     6
 78
     2
 67
     7
 79
     5
170
     0
171
     0
290
     0
174
     0
 93
        1
 44
50.0
173
     0
291
     1
 45
0.0
  0
VISUALSTYLE
  5
28F
102
{ACAD_REACTORS
330
27F
102
}
330
27F
100
AcDbVisualStyle
  2
ColorChange
 70
    16
 71
     2
 72
     2
 73
     3
 90
        0
 40
-0.6
 41
-30.0
 62
     5
 63
     8
421
  8421504
 74
     1
 91
        4
 64
     7
 65
   257
 75
     1
175
     1
 42
1.0
 92
        8
 66
     8
424
  8421504
 43
1.0
 76
     1
 77
     6
 78
     2
 67
     7
 79
     5
170
     0
171
     0
290
     0
174
     0
 93
        1
 44
0.0
173
     0
291
     1
 45
0.0
  0
VISUALSTYLE
  5
288
102
{ACAD_REACTORS
330
27F
102
}
330
27F
100
AcDbVisualStyle
  2
Conceptual
 70
     9
 71
     3
 72
     2
 73
     0
 90
        0
 40
-0.6
 41
-30.0
 62
     5
 63
     7
421
 16777215
 74
     2
 91
        2
 64
     7
 65
   257
 75
     1
175
     1
 42
40.0
 92
        8
 66
     7
 43
1.0
 76
     1
 77
     6
 78
     2
 67
     7
 79
     3
170
     0
171
     0
290
     0
174
     0
 93
        1
 44
0.0
173
     0
291
     0
 45
0.0
  0
VISUALSTYLE
  5
28A
102
{ACAD_REACTORS
330
27F
102
}
330
27F
100
AcDbVisualStyle
  2
Dim
 70
    11
 71
     2
 72
     2
 73
     0
 90
        0
 40
-0.6
 41
-30.0
 62
     5
 63
     7
421
 16777215
 74
     1
 91
        4
 64
     7
 65
   257
 75
     1
175
     1
 42
1.0
 92
        8
 66
     7
 43
1.0
 76
     1
 77
     6
 78
     2
 67
     7
 79
     5
170
     0
171
     0
290
     0
174
     0
 93
        1
 44
-50.0
173
     0
291
     1
 45
0.0
  0
VISUALSTYLE
  5
28E
102
{ACAD_REACTORS
330
27F
102
}
330
27F
100
AcDbVisualStyle
  2
Facepattern
 70
    15
 71
     2
 72
     2
 73
     0
 90
        0
 40
-0.6
 41
-30.0
 62
     5
 63
     7
421
 16777215
 74
     1
 91
        4
 64
     7
 65
   257
 75
     1
175
     1
 42
1.0
 92
        8
 66
     7
 43
1.0
 76
     1
 77
     6
 78
     2
 67
     7
 79
     5
170
     0
171
     0
290
     0
174
     0
 93
        1
 44
0.0
173
     0
291
     1
 45
0.0
  0
VISUALSTYLE
  5
280
102
{ACAD_REACTORS
330
27F
102
}
330
27F
100
AcDbVisualStyle
  2
Flat
 70
     0
 71
     2
 72
     1
 73
     1
 90
        2
 40
-0.6
 41
30.0
 62
     5
 63
     7
421
 16777215
 74
     0
 91
        4
 64
     7
 65
   257
 75
     1
175
     1
 42
1.0
 92
        8
 66
     7
 43
1.0
 76
     1
 77
     6
 78
     2
 67
     7
 79
     5
170
     0
171
     0
290
     0
174
     0
 93
       13
 44
0.0
173
     0
291
     1
 45
0.0
  0
VISUALSTYLE
  5
281
102
{ACAD_REACTORS
330
27F
102
}
330
27F
100
AcDbVisualStyle
  2
FlatWithEdges
 70
     1
 71
     2
 72
     1
 73
     1
 90
        2
 40
-0.6
 41
30.0
 62
     5
 63
     7
421
 16777215
 74
     1
 91
        4
 64
     7
 65
   257
 75
     1
175
     1
 42
1.0
 92
        0
 66
   257
 43
1.0
 76
     1
 77
     6
 78
     2
 67
     7
 79
     5
170
     0
171
     0
290
     0
174
     0
 93
       13
 44
0.0
173
     0
291
     1
 45
0.0
  0
VISUALSTYLE
  5
282
102
{ACAD_REACTORS
330
27F
102
}
330
27F
100
AcDbVisualStyle
  2
Gouraud
 70
     2
 71
     2
 72
     2
 73
     1
 90
        2
 40
-0.6
 41
30.0
 62
     5
 63
     7
421
 16777215
 74
     0
 91
        4
 64
     7
 65
   257
 75
     1
175
     1
 42
1.0
 92
        0
 66
     7
 43
1.0
 76
     1
 77
     6
 78
     2
 67
     7
 79
     5
170
     0
171
     0
290
     0
174
     0
 93
       13
 44
0.0
173
     0
291
     1
 45
0.0
  0
VISUALSTYLE
  5
283
102
{ACAD_REACTORS
330
27F
102
}
330
27F
100
AcDbVisualStyle
  2
GouraudWithEdges
 70
     3
 71
     2
 72
     2
 73
     1
 90
        2
 40
-0.6
 41
30.0
 62
     5
 63
     7
421
 16777215
 74
     1
 91
        4
 64
     7
 65
   257
 75
     1
175
     1
 42
1.0
 92
        0
 66
   257
 43
1.0
 76
     1
 77
     6
 78
     2
 67
     7
 79
     5
170
     0
171
     0
290
     0
174
     0
 93
       13
 44
0.0
173
     0
291
     1
 45
0.0
  0
VISUALSTYLE
  5
28D
102
{ACAD_REACTORS
330
27F
102
}
330
27F
100
AcDbVisualStyle
  2
Linepattern
 70
    14
 71
     2
 72
     2
 73
     0
 90
        0
 40
-0.6
 41
-30.0
 62
     5
 63
     7
421
 16777215
 74
     1
 91
        4
 64
     7
 65
   257
 75
     7
175
     7
 42
1.0
 92
        8
 66
     7
 43
1.0
 76
     1
 77
     6
 78
     2
 67
     7
 79
     5
170
     0
171
     0
290
     0
174
     0
 93
        1
 44
0.0
173
     0
291
     1
 45
0.0
  0
VISUALSTYLE
  5
289
102
{ACAD_REACTORS
330
27F
102
}
330
27F
100
AcDbVisualStyle
  2
Realistic
 70
     8
 71
     2
 72
     2
 73
     0
 90
        0
 40
-0.6
 41
-30.0
 62
     5
 63
     7
421
 16777215
 74
     1
 91
        0
 64
     7
 65
   257
 75
     1
175
     1
 42
1.0
 92
        8
 66
     8
424
  7895160
 43
1.0
 76
     1
 77
     6
 78
     2
 67
     7
 79
     5
170
     0
171
     0
290
     0
174
     0
 93
       13
 44
0.0
173
     0
291
     0
 45
0.0
  0
VISUALSTYLE
  5
28C
102
{ACAD_REACTORS
330
27F
102
}
330
27F
100
AcDbVisualStyle
  2
Thicken
 70
    13
 71
     2
 72
     2
 73
     0
 90
        0
 40
-0.6
 41
-30.0
 62
     5
 63
     7
421
 16777215
 74
     1
 91
        4
 64
     7
 65
   257
 75
     1
175
     1
 42
1.0
 92
       12
 66
     7
 43
1.0
 76
     1
 77
     6
 78
     2
 67
     7
 79
     5
170
     0
171
     0
290
     0
174
     0
 93
        1
 44
0.0
173
     0
291
     1
 45
0.0
  0
DICTIONARYVAR
  5
2FA
102
{ACAD_REACTORS
330
34
102
}
330
34
100
DictionaryVariables
280
     0
  1
1:2.5
  0
DICTIONARYVAR
  5
2F8
102
{ACAD_REACTORS
330
34
102
}
330
34
100
DictionaryVariables
280
     0
  1
STANDARD
  0
DICTIONARYVAR
  5
140
102
{ACAD_REACTORS
330
34
102
}
330
34
100
DictionaryVariables
280
     0
  1
STANDARD
  0
DICTIONARYVAR
  5
AC
102
{ACAD_REACTORS
330
34
102
}
330
34
100
DictionaryVariables
280
     0
  1
1
  0
DICTIONARYVAR
  5
35
102
{ACAD_REACTORS
330
34
102
}
330
34
100
DictionaryVariables
280
     0
  1
1
  0
DICTIONARYVAR
  5
861A
102
{ACAD_REACTORS
330
34
102
}
330
34
100
DictionaryVariables
280
     0
  1
1
  0
DICTIONARYVAR
  5
861B
102
{ACAD_REACTORS
330
34
102
}
330
34
100
DictionaryVariables
280
     0
  1
15
  0
DICTIONARYVAR
  5
2FB
102
{ACAD_REACTORS
330
34
102
}
330
34
100
DictionaryVariables
280
     0
  1
0
  0
DICTIONARYVAR
  5
2F9
102
{ACAD_REACTORS
330
34
102
}
330
34
100
DictionaryVariables
280
     0
  1
0
  0
DICTIONARY
  5
161B
102
{ACAD_REACTORS
330
49
102
}
330
49
100
AcDbDictionary
281
     1
  0
DICTIONARY
  5
4A
102
{ACAD_REACTORS
330
49
102
}
330
49
100
AcDbDictionary
281
     1
  0
XRECORD
  5
12B
102
{ACAD_REACTORS
330
49
102
}
330
49
100
AcDbXrecord
280
     1
 90
-1023410169
  0
DICTIONARY
  5
2F5
330
122
100
AcDbDictionary
280
     1
281
     1
  3
ACAD_ROUNDTRIP_2008_TABLESTYLE_CELLSTYLEMAP
360
F749
  0
CELLSTYLEMAP
  5
F749
102
{ACAD_REACTORS
330
2F5
102
}
330
2F5
100
AcDbCellStyleMap
 90
        3
300
CELLSTYLE
  1
TABLEFORMAT_BEGIN
 90
        5
170
     1
 91
        0
 92
    32768
 62
   257
 93
        1
300
CONTENTFORMAT
  1
CONTENTFORMAT_BEGIN
 90
        0
 91
        0
 92
      512
 93
        0
300

 40
0.0
140
1.0
 94
        5
 62
     0
340
11
144
6.0
309
CONTENTFORMAT_END
171
     1
301
MARGIN
  1
CELLMARGIN_BEGIN
 40
1.5
 40
1.5
 40
1.5
 40
1.5
 40
0.18
 40
0.18
309
CELLMARGIN_END
 94
        6
 95
        1
302
GRIDFORMAT
  1
GRIDFORMAT_BEGIN
 90
        0
 91
        1
 62
     0
 92
       -2
340
0
 93
        0
 40
0.045
309
GRIDFORMAT_END
 95
        2
302
GRIDFORMAT
  1
GRIDFORMAT_BEGIN
 90
        0
 91
        1
 62
     0
 92
       -2
340
0
 93
        0
 40
0.045
309
GRIDFORMAT_END
 95
        4
302
GRIDFORMAT
  1
GRIDFORMAT_BEGIN
 90
        0
 91
        1
 62
     0
 92
       -2
340
0
 93
        0
 40
0.045
309
GRIDFORMAT_END
 95
        8
302
GRIDFORMAT
  1
GRIDFORMAT_BEGIN
 90
        0
 91
        1
 62
     0
 92
       -2
340
0
 93
        0
 40
0.045
309
GRIDFORMAT_END
 95
       16
302
GRIDFORMAT
  1
GRIDFORMAT_BEGIN
 90
        0
 91
        1
 62
     0
 92
       -2
340
0
 93
        0
 40
0.045
309
GRIDFORMAT_END
 95
       32
302
GRIDFORMAT
  1
GRIDFORMAT_BEGIN
 90
        0
 91
        1
 62
     0
 92
       -2
340
0
 93
        0
 40
0.045
309
GRIDFORMAT_END
309
TABLEFORMAT_END
  1
CELLSTYLE_BEGIN
 90
        1
 91
        1
300
_TITLE
309
CELLSTYLE_END
300
CELLSTYLE
  1
TABLEFORMAT_BEGIN
 90
        5
170
     1
 91
        0
 92
        0
 62
   257
 93
        1
300
CONTENTFORMAT
  1
CONTENTFORMAT_BEGIN
 90
        0
 91
        0
 92
      512
 93
        0
300

 40
0.0
140
1.0
 94
        5
 62
     0
340
11
144
4.5
309
CONTENTFORMAT_END
171
     1
301
MARGIN
  1
CELLMARGIN_BEGIN
 40
1.5
 40
1.5
 40
1.5
 40
1.5
 40
0.18
 40
0.18
309
CELLMARGIN_END
 94
        6
 95
        1
302
GRIDFORMAT
  1
GRIDFORMAT_BEGIN
 90
        0
 91
        1
 62
     0
 92
       -2
340
0
 93
        0
 40
0.045
309
GRIDFORMAT_END
 95
        2
302
GRIDFORMAT
  1
GRIDFORMAT_BEGIN
 90
        0
 91
        1
 62
     0
 92
       -2
340
0
 93
        0
 40
0.045
309
GRIDFORMAT_END
 95
        4
302
GRIDFORMAT
  1
GRIDFORMAT_BEGIN
 90
        0
 91
        1
 62
     0
 92
       -2
340
0
 93
        0
 40
0.045
309
GRIDFORMAT_END
 95
        8
302
GRIDFORMAT
  1
GRIDFORMAT_BEGIN
 90
        0
 91
        1
 62
     0
 92
       -2
340
0
 93
        0
 40
0.045
309
GRIDFORMAT_END
 95
       16
302
GRIDFORMAT
  1
GRIDFORMAT_BEGIN
 90
        0
 91
        1
 62
     0
 92
       -2
340
0
 93
        0
 40
0.045
309
GRIDFORMAT_END
 95
       32
302
GRIDFORMAT
  1
GRIDFORMAT_BEGIN
 90
        0
 91
        1
 62
     0
 92
       -2
340
0
 93
        0
 40
0.045
309
GRIDFORMAT_END
309
TABLEFORMAT_END
  1
CELLSTYLE_BEGIN
 90
        2
 91
        1
300
_HEADER
309
CELLSTYLE_END
300
CELLSTYLE
  1
TABLEFORMAT_BEGIN
 90
        5
170
     1
 91
        0
 92
        0
 62
   257
 93
        1
300
CONTENTFORMAT
  1
CONTENTFORMAT_BEGIN
 90
        0
 91
        0
 92
      512
 93
        0
300

 40
0.0
140
1.0
 94
        2
 62
     0
340
11
144
4.5
309
CONTENTFORMAT_END
171
     1
301
MARGIN
  1
CELLMARGIN_BEGIN
 40
1.5
 40
1.5
 40
1.5
 40
1.5
 40
0.18
 40
0.18
309
CELLMARGIN_END
 94
        6
 95
        1
302
GRIDFORMAT
  1
GRIDFORMAT_BEGIN
 90
        0
 91
        1
 62
     0
 92
       -2
340
0
 93
        0
 40
0.045
309
GRIDFORMAT_END
 95
        2
302
GRIDFORMAT
  1
GRIDFORMAT_BEGIN
 90
        0
 91
        1
 62
     0
 92
       -2
340
0
 93
        0
 40
0.045
309
GRIDFORMAT_END
 95
        4
302
GRIDFORMAT
  1
GRIDFORMAT_BEGIN
 90
        0
 91
        1
 62
     0
 92
       -2
340
0
 93
        0
 40
0.045
309
GRIDFORMAT_END
 95
        8
302
GRIDFORMAT
  1
GRIDFORMAT_BEGIN
 90
        0
 91
        1
 62
     0
 92
       -2
340
0
 93
        0
 40
0.045
309
GRIDFORMAT_END
 95
       16
302
GRIDFORMAT
  1
GRIDFORMAT_BEGIN
 90
        0
 91
        1
 62
     0
 92
       -2
340
0
 93
        0
 40
0.045
309
GRIDFORMAT_END
 95
       32
302
GRIDFORMAT
  1
GRIDFORMAT_BEGIN
 90
        0
 91
        1
 62
     0
 92
       -2
340
0
 93
        0
 40
0.045
309
GRIDFORMAT_END
309
TABLEFORMAT_END
  1
CELLSTYLE_BEGIN
 90
        3
 91
        2
300
_DATA
309
CELLSTYLE_END
  0
ENDSEC
  0
EOF
