  0
SECTION
  2
HEADER
  9
$ACADVER
  1
AC1021
  9
$ACADMAINTVER
 70
    26
  9
$DWGCODEPAGE
  3
ANSI_932
  9
$LASTSAVEDBY
  1
Htm_Terada
  9
$CUSTOMPROPERTYTAG
  1
AmdtFileType
  9
$CUSTOMPROPERTY
  1
84
  9
$INSBASE
 10
0.0
 20
0.0
 30
0.0
  9
$EXTMIN
 10
214.9372623074193
 20
315.9214046119743
 30
0.0
  9
$EXTMAX
 10
687.3885797517223
 20
527.2611515619742
 30
0.0
  9
$LIMMIN
 10
0.0000003828677109
 20
0.000000738764129
  9
$LIMMAX
 10
840.0000003828676
 20
594.0000007387642
  9
$ORTHOMODE
 70
     0
  9
$REGENMODE
 70
     1
  9
$FILLMODE
 70
     1
  9
$QTEXTMODE
 70
     0
  9
$MIRRTEXT
 70
     1
  9
$LTSCALE
 40
2.0
  9
$ATTMODE
 70
     1
  9
$TEXTSIZE
 40
25.0
  9
$TRACEWID
 40
1.0
  9
$TEXTSTYLE
  7
SEISA
  9
$CLAYER
  8
AM_0 外形線1
  9
$CELTYPE
  6
ByLayer
  9
$CECOLOR
 62
   256
  9
$CELTSCALE
 40
1.0
  9
$DISPSILH
 70
     0
  9
$DIMSCALE
 40
2.0
  9
$DIMASZ
 40
2.5
  9
$DIMEXO
 40
0.625
  9
$DIMDLI
 40
10.0
  9
$DIMRND
 40
0.0
  9
$DIMDLE
 40
0.0
  9
$DIMEXE
 40
0.625
  9
$DIMTP
 40
0.1
  9
$DIMTM
 40
0.1
  9
$DIMTXT
 40
3.5
  9
$DIMCEN
 40
0.0
  9
$DIMTSZ
 40
0.0
  9
$DIMTOL
 70
     0
  9
$DIMLIM
 70
     0
  9
$DIMTIH
 70
     0
  9
$DIMTOH
 70
     0
  9
$DIMSE1
 70
     0
  9
$DIMSE2
 70
     0
  9
$DIMTAD
 70
     3
  9
$DIMZIN
 70
     8
  9
$DIMBLK
  1
Open30
  9
$DIMASO
 70
     1
  9
$DIMSHO
 70
     1
  9
$DIMPOST
  1

  9
$DIMAPOST
  1
"
  9
$DIMALT
 70
     0
  9
$DIMALTD
 70
     2
  9
$DIMALTF
 40
0.0393701
  9
$DIMLFAC
 40
1.0
  9
$DIMTOFL
 70
     1
  9
$DIMTVP
 40
0.0
  9
$DIMTIX
 70
     0
  9
$DIMSOXD
 70
     0
  9
$DIMSAH
 70
     0
  9
$DIMBLK1
  1

  9
$DIMBLK2
  1

  9
$DIMSTYLE
  2
SEISA
  9
$DIMCLRD
 70
     3
  9
$DIMCLRE
 70
     3
  9
$DIMCLRT
 70
     3
  9
$DIMTFAC
 40
0.71
  9
$DIMGAP
 40
1.5
  9
$DIMJUST
 70
     0
  9
$DIMSD1
 70
     0
  9
$DIMSD2
 70
     0
  9
$DIMTOLJ
 70
     0
  9
$DIMTZIN
 70
     0
  9
$DIMALTZ
 70
     0
  9
$DIMALTTZ
 70
     8
  9
$DIMUPT
 70
     0
  9
$DIMDEC
 70
     2
  9
$DIMTDEC
 70
     2
  9
$DIMALTU
 70
     2
  9
$DIMALTTD
 70
     2
  9
$DIMTXSTY
  7
SEISA
  9
$DIMAUNIT
 70
     0
  9
$DIMADEC
 70
     0
  9
$DIMALTRND
 40
0.0
  9
$DIMAZIN
 70
     2
  9
$DIMDSEP
 70
    46
  9
$DIMATFIT
 70
     3
  9
$DIMFRAC
 70
     0
  9
$DIMLDRBLK
  1
Open30
  9
$DIMLUNIT
 70
     2
  9
$DIMLWD
 70
    -1
  9
$DIMLWE
 70
    -1
  9
$DIMTMOVE
 70
     0
  9
$DIMFXL
 40
1.0
  9
$DIMFXLON
 70
     0
  9
$DIMJOGANG
 40
0.7853981633974483
  9
$DIMTFILL
 70
     0
  9
$DIMTFILLCLR
 70
     0
  9
$DIMARCSYM
 70
     1
  9
$DIMLTYPE
  6

  9
$DIMLTEX1
  6

  9
$DIMLTEX2
  6

  9
$LUNITS
 70
     2
  9
$LUPREC
 70
     2
  9
$SKETCHINC
 40
1.0
  9
$FILLETRAD
 40
0.4
  9
$AUNITS
 70
     0
  9
$AUPREC
 70
     0
  9
$MENU
  1
.
  9
$ELEVATION
 40
0.0
  9
$PELEVATION
 40
0.0
  9
$THICKNESS
 40
0.0
  9
$LIMCHECK
 70
     0
  9
$CHAMFERA
 40
1.0
  9
$CHAMFERB
 40
0.9999999999999431
  9
$CHAMFERC
 40
1.0
  9
$CHAMFERD
 40
0.7853981633974199
  9
$SKPOLY
 70
     0
  9
$TDCREATE
 40
2454960.744863114
  9
$TDUCREATE
 40
2454960.369863113
  9
$TDUPDATE
 40
2456479.580664780
  9
$TDUUPDATE
 40
2456479.205664780
  9
$TDINDWG
 40
0.3308927662
  9
$TDUSRTIMER
 40
0.3308920370
  9
$USRTIMER
 70
     1
  9
$ANGBASE
 50
0.0
  9
$ANGDIR
 70
     0
  9
$PDMODE
 70
     0
  9
$PDSIZE
 40
0.0
  9
$PLINEWID
 40
0.0
  9
$SPLFRAME
 70
     0
  9
$SPLINETYPE
 70
     6
  9
$SPLINESEGS
 70
     8
  9
$HANDSEED
  5
A41D
  9
$SURFTAB1
 70
     6
  9
$SURFTAB2
 70
     6
  9
$SURFTYPE
 70
     6
  9
$SURFU
 70
     6
  9
$SURFV
 70
     6
  9
$UCSBASE
  2

  9
$UCSNAME
  2

  9
$UCSORG
 10
0.0
 20
0.0
 30
0.0
  9
$UCSXDIR
 10
1.0
 20
0.0
 30
0.0
  9
$UCSYDIR
 10
0.0
 20
1.0
 30
0.0
  9
$UCSORTHOREF
  2

  9
$UCSORTHOVIEW
 70
     0
  9
$UCSORGTOP
 10
0.0
 20
0.0
 30
0.0
  9
$UCSORGBOTTOM
 10
0.0
 20
0.0
 30
0.0
  9
$UCSORGLEFT
 10
0.0
 20
0.0
 30
0.0
  9
$UCSORGRIGHT
 10
0.0
 20
0.0
 30
0.0
  9
$UCSORGFRONT
 10
0.0
 20
0.0
 30
0.0
  9
$UCSORGBACK
 10
0.0
 20
0.0
 30
0.0
  9
$PUCSBASE
  2

  9
$PUCSNAME
  2

  9
$PUCSORG
 10
0.0
 20
0.0
 30
0.0
  9
$PUCSXDIR
 10
1.0
 20
0.0
 30
0.0
  9
$PUCSYDIR
 10
0.0
 20
1.0
 30
0.0
  9
$PUCSORTHOREF
  2

  9
$PUCSORTHOVIEW
 70
     0
  9
$PUCSORGTOP
 10
0.0
 20
0.0
 30
0.0
  9
$PUCSORGBOTTOM
 10
0.0
 20
0.0
 30
0.0
  9
$PUCSORGLEFT
 10
0.0
 20
0.0
 30
0.0
  9
$PUCSORGRIGHT
 10
0.0
 20
0.0
 30
0.0
  9
$PUCSORGFRONT
 10
0.0
 20
0.0
 30
0.0
  9
$PUCSORGBACK
 10
0.0
 20
0.0
 30
0.0
  9
$USERI1
 70
     0
  9
$USERI2
 70
     0
  9
$USERI3
 70
     0
  9
$USERI4
 70
     0
  9
$USERI5
 70
     0
  9
$USERR1
 40
0.0
  9
$USERR2
 40
0.0
  9
$USERR3
 40
0.0
  9
$USERR4
 40
0.0
  9
$USERR5
 40
0.0
  9
$WORLDVIEW
 70
     1
  9
$SHADEDGE
 70
     3
  9
$SHADEDIF
 70
    70
  9
$TILEMODE
 70
     1
  9
$MAXACTVP
 70
    64
  9
$PINSBASE
 10
0.0
 20
0.0
 30
0.0
  9
$PLIMCHECK
 70
     0
  9
$PEXTMIN
 10
1.000000000000000E+20
 20
1.000000000000000E+20
 30
1.000000000000000E+20
  9
$PEXTMAX
 10
-1.000000000000000E+20
 20
-1.000000000000000E+20
 30
-1.000000000000000E+20
  9
$PLIMMIN
 10
0.0
 20
0.0
  9
$PLIMMAX
 10
420.0
 20
297.0
  9
$UNITMODE
 70
     0
  9
$VISRETAIN
 70
     1
  9
$PLINEGEN
 70
     0
  9
$PSLTSCALE
 70
     1
  9
$TREEDEPTH
 70
  3020
  9
$CMLSTYLE
  2
Standard
  9
$CMLJUST
 70
     0
  9
$CMLSCALE
 40
20.0
  9
$PROXYGRAPHICS
 70
     1
  9
$MEASUREMENT
 70
     1
  9
$CELWEIGHT
370
    -1
  9
$ENDCAPS
280
     0
  9
$JOINSTYLE
280
     0
  9
$LWDISPLAY
290
     0
  9
$INSUNITS
 70
     4
  9
$HYPERLINKBASE
  1

  9
$STYLESHEET
  1
SEISA.CTB
  9
$XEDIT
290
     1
  9
$CEPSNTYPE
380
     0
  9
$PSTYLEMODE
290
     1
  9
$FINGERPRINTGUID
  2
{BB46BD7C-C52C-4F41-8EEB-EC191E49E32A}
  9
$VERSIONGUID
  2
{2F650F70-1946-4F33-9004-15B969E6F0FC}
  9
$EXTNAMES
290
     1
  9
$PSVPSCALE
 40
0.0
  9
$OLESTARTUP
290
     0
  9
$SORTENTS
280
   127
  9
$INDEXCTL
280
     0
  9
$HIDETEXT
280
     0
  9
$XCLIPFRAME
290
     0
  9
$HALOGAP
280
     0
  9
$OBSCOLOR
 70
   257
  9
$OBSLTYPE
280
     0
  9
$INTERSECTIONDISPLAY
280
     0
  9
$INTERSECTIONCOLOR
 70
   257
  9
$DIMASSOC
280
     2
  9
$PROJECTNAME
  1

  9
$CAMERADISPLAY
290
     0
  9
$LENSLENGTH
 40
50.0
  9
$CAMERAHEIGHT
 40
0.0
  9
$STEPSPERSEC
 40
2.0
  9
$STEPSIZE
 40
6.0
  9
$3DDWFPREC
 40
2.0
  9
$PSOLWIDTH
 40
0.25
  9
$PSOLHEIGHT
 40
4.0
  9
$LOFTANG1
 40
1.570796326794896
  9
$LOFTANG2
 40
1.570796326794896
  9
$LOFTMAG1
 40
0.0
  9
$LOFTMAG2
 40
0.0
  9
$LOFTPARAM
 70
     7
  9
$LOFTNORMALS
280
     1
  9
$LATITUDE
 40
37.795
  9
$LONGITUDE
 40
-122.394
  9
$NORTHDIRECTION
 40
0.0
  9
$TIMEZONE
 70
 -8000
  9
$LIGHTGLYPHDISPLAY
280
     1
  9
$TILEMODELIGHTSYNCH
280
     1
  9
$CMATERIAL
347
27C
  9
$SOLIDHIST
280
     1
  9
$SHOWHIST
280
     1
  9
$DWFFRAME
280
     2
  9
$DGNFRAME
280
     0
  9
$REALWORLDSCALE
290
     1
  9
$INTERFERECOLOR
 62
     1
  9
$INTERFEREOBJVS
345
289
  9
$INTERFEREVPVS
346
286
  9
$CSHADOW
280
     0
  9
$SHADOWPLANELOCATION
 40
0.0
  0
ENDSEC
  0
SECTION
  2
CLASSES
  0
CLASS
  1
ACDBDICTIONARYWDFLT
  2
AcDbDictionaryWithDefault
  3
ObjectDBX Classes
 90
        0
 91
        1
280
     0
281
     0
  0
CLASS
  1
AMGSETTINGSOBJ
  2
AmgSettingsObj
  3
"AcadM|Product Description: AutoCAD Mechanical|Company: Autodesk, Inc."
 90
     1024
 91
        2
280
     0
281
     0
  0
CLASS
  1
ACME_DOCUMENT
  2
AcMeDbDoc
  3
AcMeServices
 90
     1024
 91
        1
280
     0
281
     0
  0
CLASS
  1
ACMESCOPE
  2
AcMeScope
  3
AcMeServices
 90
     1024
 91
        1
280
     0
281
     0
  0
CLASS
  1
ACMECOMMANDHISTORY
  2
AcMeCommandHistory
  3
AcMeServices
 90
     1024
 91
        1
280
     0
281
     0
  0
CLASS
  1
DICTIONARYVAR
  2
AcDbDictionaryVar
  3
ObjectDBX Classes
 90
        0
 91
        9
280
     0
281
     0
  0
CLASS
  1
ACIMSYSVARMAN
  2
AcImSysVarManager
  3
AcMeServices
 90
     1024
 91
        5
280
     0
281
     0
  0
CLASS
  1
ACIMREALSYSVAR
  2
AcImRealSysVar
  3
AcMeServices
 90
     1024
 91
        1
280
     0
281
     0
  0
CLASS
  1
ACIMINTSYSVAR
  2
AcImIntSysVar
  3
AcMeServices
 90
     1024
 91
       27
280
     0
281
     0
  0
CLASS
  1
ACMEDRAWINGMAN
  2
AcMeDrawingMan
  3
AcMeServices
 90
     1024
 91
        1
280
     0
281
     0
  0
CLASS
  1
ACMEVIEW
  2
AcMeView
  3
AcMeServices
 90
     1024
 91
        1
280
     0
281
     0
  0
CLASS
  1
ACDBENTITYCACHE
  2
AcMeEntityCache
  3
AcMeServices
 90
     1024
 91
        1
280
     0
281
     0
  0
CLASS
  1
GSMANAGER
  2
AcMeGSManager
  3
AcMeServices
 90
     1024
 91
        1
280
     0
281
     0
  0
CLASS
  1
AMDTINTERNALREACTOR
  2
AmdtInternalReactor
  3
AcMeServices
 90
     1024
 91
        2
280
     0
281
     0
  0
CLASS
  1
ACMESTATEMGR
  2
AcMeStateMgr
  3
AcMeServices
 90
     1024
 91
        1
280
     0
281
     0
  0
CLASS
  1
ACGREFMASTER
  2
AcGrefMaster
  3
AcAttribServices
 90
     1024
 91
        1
280
     0
281
     0
  0
CLASS
  1
ACME_DATABASE
  2
AcMeDbDatabase
  3
AcMeServices
 90
     1024
 91
        1
280
     0
281
     0
  0
CLASS
  1
ACRFINSADJUSTERMGR
  2
AcRfInsAdjusterMgr
  3
AcMeServices
 90
     1024
 91
        1
280
     0
281
     0
  0
CLASS
  1
ACGREFACADMASTER
  2
AcGrefacadMaster
  3
AcGrefServices
 90
     1024
 91
        1
280
     0
281
     0
  0
CLASS
  1
AMIMASTER
  2
AmiMaster
  3
AmiServices
 90
     1024
 91
        1
280
     0
281
     0
  0
CLASS
  1
ACIMSTRSYSVAR
  2
AcImStrSysVar
  3
AcMeServices
 90
     1024
 91
        5
280
     0
281
     0
  0
CLASS
  1
ACMSTANDARDJIS
  2
AcmStandardJIS
  3
"Amdt_StdImp|Product Description: AutoCAD Mechanical|Company: Autodesk, Inc."
 90
     1024
 91
        0
280
     0
281
     0
  0
CLASS
  1
AMGOBJPROPCFG
  2
AmgObjPropCfg
  3
"AmgLay|Product Description: AutoCAD Mechanical|Company: Autodesk, Inc."
 90
     1025
 91
        1
280
     0
281
     0
  0
CLASS
  1
ACMSURFSTANDARDJIS
  2
AcmSurfTextStdJIS
  3
"Amdt_StdImp|Product Description: AutoCAD Mechanical|Company: Autodesk, Inc."
 90
     1024
 91
        0
280
     0
281
     0
  0
CLASS
  1
ACMFCFSTANDARDJIS
  2
AcmFCFStdJIS
  3
"Amdt_StdImp|Product Description: AutoCAD Mechanical|Company: Autodesk, Inc."
 90
     1024
 91
        0
280
     0
281
     0
  0
CLASS
  1
ACMWELDSTANDARDJIS
  2
AcmWeldingStdJIS
  3
"Amdt_StdImp|Product Description: AutoCAD Mechanical|Company: Autodesk, Inc."
 90
     1024
 91
        0
280
     0
281
     0
  0
CLASS
  1
ACMIDSTANDARDJIS
  2
AcmIdStdJIS
  3
"Amdt_StdImp|Product Description: AutoCAD Mechanical|Company: Autodesk, Inc."
 90
     1024
 91
        0
280
     0
281
     0
  0
CLASS
  1
ACMDATUMSTANDARDJIS
  2
AcmDatumStdJIS
  3
"Amdt_StdImp|Product Description: AutoCAD Mechanical|Company: Autodesk, Inc."
 90
     1024
 91
        0
280
     0
281
     0
  0
CLASS
  1
ACMBOMSTANDARDJIS
  2
AcmBOMStdJIS
  3
"Amdt_StdImp|Product Description: AutoCAD Mechanical|Company: Autodesk, Inc."
 90
     1024
 91
        0
280
     0
281
     0
  0
CLASS
  1
ACMDETAILSTANDARDJIS
  2
AmdtDetailSymStdJIS
  3
"Amdt_StdImp|Product Description: AutoCAD Mechanical|Company: Autodesk, Inc."
 90
     1024
 91
        0
280
     0
281
     0
  0
CLASS
  1
ACMSECTIONSTANDARDJIS
  2
AmdtSectionSymStdJIS
  3
"Amdt_StdImp|Product Description: AutoCAD Mechanical|Company: Autodesk, Inc."
 90
     1024
 91
        0
280
     0
281
     0
  0
CLASS
  1
ACMCENTERLINESTANDARDJIS
  2
AmdtCenterLineStdJIS
  3
"Amdt_StdImp|Product Description: AutoCAD Mechanical|Company: Autodesk, Inc."
 90
     1024
 91
        0
280
     0
281
     0
  0
CLASS
  1
ACMTHREADLINESTANDARDJIS
  2
AmdtThreadLineStdJIS
  3
"Amdt_StdImp|Product Description: AutoCAD Mechanical|Company: Autodesk, Inc."
 90
     1024
 91
        0
280
     0
281
     0
  0
CLASS
  1
ACAMGLAYSTD
  2
AcAmgLayStd
  3
"AmgLay|Product Description: AutoCAD Mechanical|Company: Autodesk, Inc."
 90
     1024
 91
        1
280
     0
281
     0
  0
CLASS
  1
ACAMGDIMSTD
  2
AcAmgDimStd
  3
"AmgDim|Product Description: AutoCAD Mechanical|Company: Autodesk, Inc."
 90
     1024
 91
        1
280
     0
281
     0
  0
CLASS
  1
ACAMGTITLESTD
  2
AcAmgTitleStd
  3
"AmgTitle|Product Description: AutoCAD Mechanical|Company: Autodesk, Inc."
 90
     4095
 91
        1
280
     0
281
     0
  0
CLASS
  1
ACMDATADICTIONARY
  2
AcmDataDictionary
  3
"AcmSymBB|Product Description: AutoCAD Mechanical|Company: Autodesk, Inc."
 90
     1024
 91
        1
280
     0
281
     0
  0
CLASS
  1
ACMDATAENTRYBLOCK
  2
AcmDataEntryBlock
  3
AcmSymBB|Product Description: AutoCAD Mechanical|Company: Autodesk, Inc.
 90
     1024
 91
        0
280
     0
281
     0
  0
CLASS
  1
LAYER_INDEX
  2
AcDbLayerIndex
  3
ObjectDBX Classes
 90
        0
 91
        0
280
     0
281
     0
  0
CLASS
  1
IDBUFFER
  2
AcDbIdBuffer
  3
ObjectDBX Classes
 90
        0
 91
        0
280
     0
281
     0
  0
CLASS
  1
ACMNOTESTANDARDJIS
  2
AmdtNoteStdJIS
  3
"Amdt_StdImp|Product Description: AutoCAD Mechanical|Company: Autodesk, Inc."
 90
     1024
 91
        0
280
     0
281
     0
  0
CLASS
  1
ACAMGHOLECHARTSTDJIS
  2
AcAmgHoleChartStdJIS
  3
AmgDim|Product Description: AutoCAD Mechanical|Company: Autodesk, Inc.
 90
     1024
 91
        0
280
     0
281
     0
  0
CLASS
  1
AM_DRAWING_MGR
  2
AcDmDwgMgr
  3
AcMechDwgViewMgmt
 90
     1024
 91
        1
280
     0
281
     0
  0
CLASS
  1
AM_DWG_DOCUMENT
  2
AcDmDwgDocument
  3
AcMechDwgViewMgmt
 90
     1024
 91
        1
280
     0
281
     0
  0
CLASS
  1
AM_DWG_SHEET
  2
AcDmSheet
  3
AcMechDwgViewMgmt
 90
     1024
 91
        2
280
     0
281
     0
  0
CLASS
  1
AM_VIEWDIMPARMAP
  2
AcDmViewDimParMap
  3
AcMechDwgViewMgmt
 90
     1024
 91
        2
280
     0
281
     0
  0
CLASS
  1
AM_DWGMGR_NAME
  2
AcDmDwgMgrName
  3
AcMechDwgViewMgmt
 90
     1024
 91
        1
280
     0
281
     0
  0
CLASS
  1
AMDTMENUSTATEMGR
  2
AmdtMenuStateMgr
  3
McadcomServices
 90
     1024
 91
        1
280
     0
281
     0
  0
CLASS
  1
AMDTMCOMMENUSTATE
  2
AmdtMcomMenuState
  3
McadcomServices
 90
     1024
 91
        1
280
     0
281
     0
  0
CLASS
  1
MAPIAMMOUDLE
  2
MApiAmModule
  3
MApiAmServices
 90
     1024
 91
        1
280
     0
281
     0
  0
CLASS
  1
AMDTADMENUSTATE
  2
AmdtAdMenuState
  3
DesignerServices
 90
     1024
 91
        1
280
     0
281
     0
  0
CLASS
  1
ADAPPL
  2
AcAdAppl
  3
DesignerServices
 90
     1024
 91
        1
280
     0
281
     0
  0
CLASS
  1
DEPMGR
  2
AcAdDepMgr
  3
DesignerServices
 90
     1024
 91
        1
280
     0
281
     0
  0
CLASS
  1
PARAMMGR
  2
AcAdParamMgr
  3
DesignerServices
 90
     1024
 91
        1
280
     0
281
     0
  0
CLASS
  1
PARAMSCOPE
  2
AcAdParamScope
  3
DesignerServices
 90
     1024
 91
        1
280
     0
281
     0
  0
CLASS
  1
NAMEDAPPL
  2
AcAdNamedAppl
  3
DesignerServices
 90
     1024
 91
        1
280
     0
281
     0
  0
CLASS
  1
AMDTDMMENUSTATE
  2
AmdtDmMenuState
  3
AcMechDwgViewMgmt
 90
     1024
 91
        1
280
     0
281
     0
  0
CLASS
  1
AMDTAMMENUSTATE
  2
AmdtAmMenuState
  3
DesignerAssemblies
 90
     1024
 91
        1
280
     0
281
     0
  0
CLASS
  1
ACAMPROJECT
  2
AcAmProject
  3
DesignerAssemblies
 90
     1024
 91
        1
280
     0
281
     0
  0
CLASS
  1
ACAMGRCOMPDEF
  2
AcAmGrCompDef
  3
DesignerAssemblies
 90
     1024
 91
        1
280
     0
281
     0
  0
CLASS
  1
ACCMCONTEXT
  2
AcCmContext
  3
DesignerAssemblies
 90
     1024
 91
        1
280
     0
281
     0
  0
CLASS
  1
ACAMCOMPDEF
  2
AcAmCompDef
  3
DesignerAssemblies
 90
     1024
 91
        1
280
     0
281
     0
  0
CLASS
  1
ACAMCOMPDEFMGR
  2
AcAmCompDefMgr
  3
DesignerAssemblies
 90
     1024
 91
        1
280
     0
281
     0
  0
CLASS
  1
AMCONTEXTMGR
  2
AcAmContextMgr
  3
DesignerAssemblies
 90
     1024
 91
        1
280
     0
281
     0
  0
CLASS
  1
ACAMCONTEXTMODELER
  2
AcAmContextModeler
  3
DesignerAssemblies
 90
     1024
 91
        1
280
     0
281
     0
  0
CLASS
  1
CATALOGSTATE
  2
AcAmCatalogState
  3
DesignerAssemblies
 90
     1024
 91
        1
280
     0
281
     0
  0
CLASS
  1
ACAMGRCOMPDEFSET
  2
AcAmGrCompDefSet
  3
DesignerAssemblies
 90
     1024
 91
        1
280
     0
281
     0
  0
CLASS
  1
AMDTBROWSERDBTAB
  2
AmdtBrowserDbTab
  3
McadcomServices
 90
     1024
 91
        1
280
     0
281
     0
  0
CLASS
  1
CBROWSERAPPOBJECT
  2
CBrowserAppObject
  3
McadcomServices
 90
     1024
 91
        3
280
     0
281
     0
  0
CLASS
  1
DM_PLACEHOLDER
  2
AcDmSelsetPlaceholder
  3
AcMechDwgViewMgmt
 90
     1024
 91
        1
280
     0
281
     0
  0
CLASS
  1
TABLESTYLE
  2
AcDbTableStyle
  3
ObjectDBX Classes
 90
     4095
 91
        1
280
     0
281
     0
  0
CLASS
  1
VAACXREFPANELOBJECT
  2
VaAcXREFPanelObject
  3
VAAC_ADDIN
 90
        0
 91
        0
280
     0
281
     0
  0
CLASS
  1
VAACIMAGEINVENTORY
  2
VaAcImageInventory
  3
VAAC_ADDIN
 90
        0
 91
        0
280
     0
281
     0
  0
CLASS
  1
AMDTNOTETEMPLATEDB
  2
AmdtNoteTemplateDB
  3
AcmSymBB|Product Description: AutoCAD Mechanical|Company: Autodesk, Inc.
 90
     1024
 91
        6
280
     0
281
     0
  0
CLASS
  1
ACAMGFILTERDAT
  2
AcAmgFilterDat
  3
"AcadM|Product Description: AutoCAD Mechanical|Company: Autodesk, Inc."
 90
     1024
 91
        0
280
     0
281
     0
  0
CLASS
  1
MATERIAL
  2
AcDbMaterial
  3
ObjectDBX Classes
 90
     1153
 91
        3
280
     0
281
     0
  0
CLASS
  1
VISUALSTYLE
  2
AcDbVisualStyle
  3
ObjectDBX Classes
 90
     4095
 91
       16
280
     0
281
     0
  0
CLASS
  1
ACRFATTGENMGR
  2
AcRfAttGeneralMgr
  3
AcAttribServices
 90
     1024
 91
        0
280
     0
281
     0
  0
CLASS
  1
ACRFOBJATTMGR
  2
AcRfObjAttGroupMgr
  3
AcAttribServices
 90
     1024
 91
        0
280
     0
281
     0
  0
CLASS
  1
ACRFMCADAPIATTHOLDER
  2
AcRfMCADAPIAttHolder
  3
AcAttribServices
 90
     1024
 91
        0
280
     0
281
     0
  0
CLASS
  1
AMDTSYSATTR
  2
AmdtSystemAttribute
  3
AcAttribServices
 90
     1024
 91
        0
280
     0
281
     0
  0
CLASS
  1
ACMTAPERSTANDARDJIS
  2
AcmTaperStdJIS
  3
"Amdt_StdImp|Product Description: AutoCAD Mechanical|Company: Autodesk, Inc."
 90
     1024
 91
        0
280
     0
281
     0
  0
CLASS
  1
CAMSSTRUCTBTNSTATE
  2
StructBtnState
  3
DesignerAssemblies
 90
     1024
 91
        0
280
     0
281
     0
  0
CLASS
  1
SCALE
  2
AcDbScale
  3
ObjectDBX Classes
 90
     1153
 91
       34
280
     0
281
     0
  0
CLASS
  1
MLEADERSTYLE
  2
AcDbMLeaderStyle
  3
ACDB_MLEADERSTYLE_CLASS
 90
     4095
 91
        1
280
     0
281
     0
  0
CLASS
  1
ACMANOOTATIONVIEWSTANDARDJIS
  2
AmdtAnViewStdJIS
  3
"Amdt_StdImp|Product Description: AutoCAD Mechanical|Company: Autodesk, Inc."
 90
     1024
 91
        0
280
     0
281
     0
  0
CLASS
  1
ACMSURFSTANDARDJIS2003
  2
AcmSurfTextStdJIS2003
  3
"Amdt_StdImp|Product Description: AutoCAD Mechanical|Company: Autodesk, Inc."
 90
     1024
 91
        0
280
     0
281
     0
  0
CLASS
  1
CELLSTYLEMAP
  2
AcDbCellStyleMap
  3
ObjectDBX Classes
 90
     1152
 91
        2
280
     0
281
     0
  0
CLASS
  1
ACMFCFSTANDARDJIS98
  2
AcmFCFStdJIS98
  3
"Amdt_StdImp|Product Description: AutoCAD Mechanical|Company: Autodesk, Inc."
 90
     1024
 91
        0
280
     0
281
     0
  0
CLASS
  1
SORTENTSTABLE
  2
AcDbSortentsTable
  3
ObjectDBX Classes
 90
        0
 91
       13
280
     0
281
     0
  0
CLASS
  1
DIMASSOC
  2
AcDbDimAssoc
  3
"AcDbDimAssoc|Product Desc:     AcDim ARX App For Dimension|Company:          Autodesk, Inc.|WEB Address:      www.autodesk.com"
 90
        0
 91
       19
280
     0
281
     0
  0
CLASS
  1
STDPART2D
  2
AmgStdPart
  3
AmgStdPart|Product Description: AutoCAD Mechanical|Company: Autodesk, Inc.
 90
     4095
 91
        0
280
     0
281
     1
  0
CLASS
  1
ACMDATAENTRYPART
  2
AcmDataEntryPart
  3
AcmSymBB|Product Description: AutoCAD Mechanical|Company: Autodesk, Inc.
 90
     1024
 91
        0
280
     0
281
     0
  0
CLASS
  1
ACMPARTREF
  2
AcmPartRef
  3
"AcmSymBB|Product Description: AutoCAD Mechanical|Company: Autodesk, Inc."
 90
     4095
 91
        0
280
     0
281
     1
  0
CLASS
  1
ACDBSTDPARTRES_LINE
  2
AcDbStdPartRes_Line
  3
AmgStdPart|Product Description: AutoCAD Mechanical|Company: Autodesk, Inc.
 90
     1024
 91
        0
280
     0
281
     0
  0
CLASS
  1
ACMBOM
  2
AcmBom
  3
"AcmSymBB|Product Description: AutoCAD Mechanical|Company: Autodesk, Inc."
 90
     1024
 91
        0
280
     0
281
     0
  0
CLASS
  1
AMDTFORMULAUPDATEDISPATCHER
  2
AmdtFormulaUpdateDispatcher
  3
AcMeServices
 90
     1024
 91
        0
280
     0
281
     0
  0
CLASS
  1
ACMBOMROW
  2
AcmBomRow
  3
"AcmSymBB|Product Description: AutoCAD Mechanical|Company: Autodesk, Inc."
 90
     1024
 91
        0
280
     0
281
     0
  0
CLASS
  1
ACMPARTLIST
  2
AcmPartList
  3
"AcmSymBB|Product Description: AutoCAD Mechanical|Company: Autodesk, Inc."
 90
     4095
 91
        0
280
     0
281
     1
  0
CLASS
  1
ACDBLINERES
  2
AcDbLineRes
  3
AcGrefServices
 90
     1024
 91
        0
280
     0
281
     0
  0
CLASS
  1
ACRFINSADJ
  2
AcRfInsAdjuster
  3
AcMeServices
 90
     1024
 91
        0
280
     0
281
     0
  0
CLASS
  1
ACMSTANDARDISO
  2
AcmStandardISO
  3
"Amdt_StdImp|Product Description: AutoCAD Mechanical|Company: Autodesk, Inc."
 90
     1024
 91
        1
280
     0
281
     0
  0
CLASS
  1
AMDTEDGESTANDARDISO13715
  2
AmdtEdgeStdISO13715
  3
"Amdt_StdImp|Product Description: AutoCAD Mechanical|Company: Autodesk, Inc."
 90
     1024
 91
        1
280
     0
281
     0
  0
CLASS
  1
ACMSURFSTANDARDISO2002
  2
AcmSurfTextStdISO2002
  3
"Amdt_StdImp|Product Description: AutoCAD Mechanical|Company: Autodesk, Inc."
 90
     1024
 91
        1
280
     0
281
     0
  0
CLASS
  1
ACMFCFSTANDARDISO
  2
AcmFCFStdISO
  3
"Amdt_StdImp|Product Description: AutoCAD Mechanical|Company: Autodesk, Inc."
 90
     1024
 91
        1
280
     0
281
     0
  0
CLASS
  1
ACMWELDSTANDARDISO
  2
AcmWeldingStdISO
  3
"Amdt_StdImp|Product Description: AutoCAD Mechanical|Company: Autodesk, Inc."
 90
     1024
 91
        1
280
     0
281
     0
  0
CLASS
  1
ACMIDSTANDARDISO
  2
AcmIdStdISO
  3
"Amdt_StdImp|Product Description: AutoCAD Mechanical|Company: Autodesk, Inc."
 90
     1024
 91
        1
280
     0
281
     0
  0
CLASS
  1
ACMDATUMSTANDARDISO
  2
AcmDatumStdISO
  3
"Amdt_StdImp|Product Description: AutoCAD Mechanical|Company: Autodesk, Inc."
 90
     1024
 91
        1
280
     0
281
     0
  0
CLASS
  1
ACMBOMSTANDARDISO
  2
AcmBOMStdISO
  3
"Amdt_StdImp|Product Description: AutoCAD Mechanical|Company: Autodesk, Inc."
 90
     1024
 91
        1
280
     0
281
     0
  0
CLASS
  1
ACMDETAILSTANDARDISO
  2
AmdtDetailSymStdISO
  3
"Amdt_StdImp|Product Description: AutoCAD Mechanical|Company: Autodesk, Inc."
 90
     1024
 91
        1
280
     0
281
     0
  0
CLASS
  1
ACMSECTIONSTANDARDISO2001
  2
AmdtSectionSymStdISO2001
  3
"Amdt_StdImp|Product Description: AutoCAD Mechanical|Company: Autodesk, Inc."
 90
     1024
 91
        1
280
     0
281
     0
  0
CLASS
  1
ACMCENTERLINESTANDARDISO
  2
AmdtCenterLineStdISO
  3
"Amdt_StdImp|Product Description: AutoCAD Mechanical|Company: Autodesk, Inc."
 90
     1024
 91
        1
280
     0
281
     0
  0
CLASS
  1
ACMTHREADLINESTANDARDISO
  2
AmdtThreadLineStdISO
  3
"Amdt_StdImp|Product Description: AutoCAD Mechanical|Company: Autodesk, Inc."
 90
     1024
 91
        1
280
     0
281
     0
  0
CLASS
  1
ACMNOTESTANDARDISO
  2
AmdtNoteStdISO
  3
"Amdt_StdImp|Product Description: AutoCAD Mechanical|Company: Autodesk, Inc."
 90
     1024
 91
        1
280
     0
281
     0
  0
CLASS
  1
ACMTAPERSTANDARDISO
  2
AcmTaperStdISO
  3
"Amdt_StdImp|Product Description: AutoCAD Mechanical|Company: Autodesk, Inc."
 90
     1024
 91
        1
280
     0
281
     0
  0
CLASS
  1
ACMANOOTATIONVIEWSTANDARDISO
  2
AmdtAnViewStdISO
  3
"Amdt_StdImp|Product Description: AutoCAD Mechanical|Company: Autodesk, Inc."
 90
     1024
 91
        1
280
     0
281
     0
  0
CLASS
  1
ACAMGHOLECHARTSTDISO
  2
AcAmgHoleChartStdISO
  3
AmgDim|Product Description: AutoCAD Mechanical|Company: Autodesk, Inc.
 90
     1024
 91
        1
280
     0
281
     0
  0
CLASS
  1
EXACXREFPANELOBJECT
  2
ExAcXREFPanelObject
  3
EXAC_ESW
 90
     1025
 91
        0
280
     0
281
     0
  0
CLASS
  1
NPOCOLLECTION
  2
AcDbImpNonPersistentObjectsCollection
  3
ObjectDBX Classes
 90
     1153
 91
        0
280
     0
281
     0
  0
CLASS
  1
ACDBSTDPARTRES_ARC
  2
AcDbStdPartRes_Arc
  3
AmgStdPart|Product Description: AutoCAD Mechanical|Company: Autodesk, Inc.
 90
     1024
 91
        0
280
     0
281
     0
  0
CLASS
  1
AMDTNOTE
  2
AmdtNote
  3
"AcmSymBB|Product Description: AutoCAD Mechanical|Company: Autodesk, Inc."
 90
     4095
 91
        0
280
     0
281
     1
  0
CLASS
  1
PLOTSETTINGS
  2
AcDbPlotSettings
  3
ObjectDBX Classes
 90
        0
 91
        1
280
     0
281
     0
  0
CLASS
  1
ACMSTANDARDANSI
  2
AcmStandardANSI
  3
"Amdt_StdImp|Product Description: AutoCAD Mechanical|Company: Autodesk, Inc."
 90
     1024
 91
        0
280
     0
281
     0
  0
CLASS
  1
ACMSURFSTANDARDANSI
  2
AcmSurfTextStdANSI
  3
"Amdt_StdImp|Product Description: AutoCAD Mechanical|Company: Autodesk, Inc."
 90
     1024
 91
        0
280
     0
281
     0
  0
CLASS
  1
ACMFCFSTANDARDANSI
  2
AcmFCFStdANSI
  3
"Amdt_StdImp|Product Description: AutoCAD Mechanical|Company: Autodesk, Inc."
 90
     1024
 91
        0
280
     0
281
     0
  0
CLASS
  1
ACMWELDSTANDARDANSI
  2
AcmWeldingStdANSI
  3
"Amdt_StdImp|Product Description: AutoCAD Mechanical|Company: Autodesk, Inc."
 90
     1024
 91
        0
280
     0
281
     0
  0
CLASS
  1
ACMIDSTANDARDANSI
  2
AcmIdStdANSI
  3
"Amdt_StdImp|Product Description: AutoCAD Mechanical|Company: Autodesk, Inc."
 90
     1024
 91
        0
280
     0
281
     0
  0
CLASS
  1
ACMDATUMSTANDARDANSI
  2
AcmDatumStdANSI
  3
"Amdt_StdImp|Product Description: AutoCAD Mechanical|Company: Autodesk, Inc."
 90
     1024
 91
        0
280
     0
281
     0
  0
CLASS
  1
ACMBOMSTANDARDANSI
  2
AcmBOMStdANSI
  3
"Amdt_StdImp|Product Description: AutoCAD Mechanical|Company: Autodesk, Inc."
 90
     1024
 91
        0
280
     0
281
     0
  0
CLASS
  1
ACMDETAILSTANDARDANSI
  2
AmdtDetailSymStdANSI
  3
"Amdt_StdImp|Product Description: AutoCAD Mechanical|Company: Autodesk, Inc."
 90
     1024
 91
        0
280
     0
281
     0
  0
CLASS
  1
ACMSECTIONSTANDARDANSI
  2
AmdtSectionSymStdANSI
  3
"Amdt_StdImp|Product Description: AutoCAD Mechanical|Company: Autodesk, Inc."
 90
     1024
 91
        0
280
     0
281
     0
  0
CLASS
  1
ACMCENTERLINESTANDARDANSI
  2
AmdtCenterLineStdANSI
  3
"Amdt_StdImp|Product Description: AutoCAD Mechanical|Company: Autodesk, Inc."
 90
     1024
 91
        0
280
     0
281
     0
  0
CLASS
  1
ACMTHREADLINESTANDARDANSI
  2
AmdtThreadLineStdANSI
  3
"Amdt_StdImp|Product Description: AutoCAD Mechanical|Company: Autodesk, Inc."
 90
     1024
 91
        0
280
     0
281
     0
  0
CLASS
  1
ACMNOTESTANDARDANSI
  2
AmdtNoteStdANSI
  3
"Amdt_StdImp|Product Description: AutoCAD Mechanical|Company: Autodesk, Inc."
 90
     1024
 91
        0
280
     0
281
     0
  0
CLASS
  1
ACMTAPERSTANDARDANSI
  2
AcmTaperStdANSI
  3
"Amdt_StdImp|Product Description: AutoCAD Mechanical|Company: Autodesk, Inc."
 90
     1024
 91
        0
280
     0
281
     0
  0
CLASS
  1
ACMANOOTATIONVIEWSTANDARDANSI
  2
AmdtAnViewStdANSI
  3
"Amdt_StdImp|Product Description: AutoCAD Mechanical|Company: Autodesk, Inc."
 90
     1024
 91
        0
280
     0
281
     0
  0
CLASS
  1
ACAMGHOLECHARTSTDANSI
  2
AcAmgHoleChartStdANSI
  3
AmgDim|Product Description: AutoCAD Mechanical|Company: Autodesk, Inc.
 90
     1024
 91
        0
280
     0
281
     0
  0
CLASS
  1
ACMSTANDARDBSI
  2
AcmStandardBSI
  3
"Amdt_StdImp|Product Description: AutoCAD Mechanical|Company: Autodesk, Inc."
 90
     1024
 91
        0
280
     0
281
     0
  0
CLASS
  1
ACMSURFSTANDARDBSI2002
  2
AcmSurfTextStdBSI2002
  3
"Amdt_StdImp|Product Description: AutoCAD Mechanical|Company: Autodesk, Inc."
 90
     1024
 91
        0
280
     0
281
     0
  0
CLASS
  1
ACMFCFSTANDARDBSI
  2
AcmFCFStdBSI
  3
"Amdt_StdImp|Product Description: AutoCAD Mechanical|Company: Autodesk, Inc."
 90
     1024
 91
        0
280
     0
281
     0
  0
CLASS
  1
ACMWELDSTANDARDBSI
  2
AcmWeldingStdBSI
  3
"Amdt_StdImp|Product Description: AutoCAD Mechanical|Company: Autodesk, Inc."
 90
     1024
 91
        0
280
     0
281
     0
  0
CLASS
  1
ACMIDSTANDARDBSI
  2
AcmIdStdBSI
  3
"Amdt_StdImp|Product Description: AutoCAD Mechanical|Company: Autodesk, Inc."
 90
     1024
 91
        0
280
     0
281
     0
  0
CLASS
  1
ACMDATUMSTANDARDBSI
  2
AcmDatumStdBSI
  3
"Amdt_StdImp|Product Description: AutoCAD Mechanical|Company: Autodesk, Inc."
 90
     1024
 91
        0
280
     0
281
     0
  0
CLASS
  1
ACMBOMSTANDARDBSI
  2
AcmBOMStdBSI
  3
"Amdt_StdImp|Product Description: AutoCAD Mechanical|Company: Autodesk, Inc."
 90
     1024
 91
        0
280
     0
281
     0
  0
CLASS
  1
ACMDETAILSTANDARDBSI
  2
AmdtDetailSymStdBSI
  3
"Amdt_StdImp|Product Description: AutoCAD Mechanical|Company: Autodesk, Inc."
 90
     1024
 91
        0
280
     0
281
     0
  0
CLASS
  1
ACMSECTIONSTANDARDBSI2001
  2
AmdtSectionSymStdBSI2001
  3
"Amdt_StdImp|Product Description: AutoCAD Mechanical|Company: Autodesk, Inc."
 90
     1024
 91
        0
280
     0
281
     0
  0
CLASS
  1
ACMCENTERLINESTANDARDBSI
  2
AmdtCenterLineStdBSI
  3
"Amdt_StdImp|Product Description: AutoCAD Mechanical|Company: Autodesk, Inc."
 90
     1024
 91
        0
280
     0
281
     0
  0
CLASS
  1
ACMTHREADLINESTANDARDBSI
  2
AmdtThreadLineStdBSI
  3
"Amdt_StdImp|Product Description: AutoCAD Mechanical|Company: Autodesk, Inc."
 90
     1024
 91
        0
280
     0
281
     0
  0
CLASS
  1
ACMNOTESTANDARDBSI
  2
AmdtNoteStdBSI
  3
"Amdt_StdImp|Product Description: AutoCAD Mechanical|Company: Autodesk, Inc."
 90
     1024
 91
        0
280
     0
281
     0
  0
CLASS
  1
ACMTAPERSTANDARDBSI
  2
AcmTaperStdBSI
  3
"Amdt_StdImp|Product Description: AutoCAD Mechanical|Company: Autodesk, Inc."
 90
     1024
 91
        0
280
     0
281
     0
  0
CLASS
  1
ACMANOOTATIONVIEWSTANDARDBSI
  2
AmdtAnViewStdBSI
  3
"Amdt_StdImp|Product Description: AutoCAD Mechanical|Company: Autodesk, Inc."
 90
     1024
 91
        0
280
     0
281
     0
  0
CLASS
  1
ACAMGHOLECHARTSTDBSI
  2
AcAmgHoleChartStdBSI
  3
AmgDim|Product Description: AutoCAD Mechanical|Company: Autodesk, Inc.
 90
     1024
 91
        0
280
     0
281
     0
  0
CLASS
  1
AMDTEDGESTANDARDJIS
  2
AmdtEdgeStdJIS
  3
"Amdt_StdImp|Product Description: AutoCAD Mechanical|Company: Autodesk, Inc."
 90
     1024
 91
        0
280
     0
281
     0
  0
CLASS
  1
ACMSURFSYM
  2
AcmSurfaceTexture
  3
"AcmSymBB|Product Description: AutoCAD Mechanical|Company: Autodesk, Inc."
 90
     4095
 91
        0
280
     0
281
     1
  0
CLASS
  1
ACDBDIMENSIONRES
  2
AcDbDimensionRes
  3
AcmSymBB|Product Description: AutoCAD Mechanical|Company: Autodesk, Inc.
 90
     1024
 91
        0
280
     0
281
     0
  0
CLASS
  1
ACDBCIRCARCRES
  2
AcDbCircArcRes
  3
AcGrefServices
 90
     1024
 91
        0
280
     0
281
     0
  0
CLASS
  1
ACMDIMBREAKPERSREACTOR
  2
AcmDimBreakPersReactor
  3
AmgDim|Product Description: AutoCAD Mechanical|Company: Autodesk, Inc.
 90
     4095
 91
        0
280
     0
281
     0
  0
CLASS
  1
ACDBOPPOLYLINERES
  2
AcDbOpPolylineRes
  3
AcGrefServices
 90
     1024
 91
        0
280
     0
281
     0
  0
CLASS
  1
AMDTACMWBLOCKBOMENTITY
  2
AmdtAcmWblockBomEntity
  3
"AcmSymBB|Product Description: AutoCAD Mechanical|Company: Autodesk, Inc."
 90
     4095
 91
        0
280
     0
281
     1
  0
CLASS
  1
ACDB_BLKREFOBJECTCONTEXTDATA_CLASS
  2
AcDbBlkRefObjectContextData
  3
ObjectDBX Classes
 90
     1153
 91
        0
280
     0
281
     0
  0
CLASS
  1
ACMPICKOBJ
  2
AcmPickEnt
  3
"AcmSymBB|Product Description: AutoCAD Mechanical|Company: Autodesk, Inc."
 90
     1024
 91
        0
280
     0
281
     1
  0
CLASS
  1
ACDBELLIPSERES
  2
AcDbEllipseRes
  3
AcGrefServices
 90
     1024
 91
        0
280
     0
281
     0
  0
CLASS
  1
ACMBALLOON
  2
AcmBalloon
  3
"AcmSymBB|Product Description: AutoCAD Mechanical|Company: Autodesk, Inc."
 90
     4095
 91
        0
280
     0
281
     1
  0
CLASS
  1
ACMDATUMID
  2
AcmDatumId
  3
"AcmSymBB|Product Description: AutoCAD Mechanical|Company: Autodesk, Inc."
 90
     4095
 91
        0
280
     0
281
     1
  0
CLASS
  1
ACMFCFRAME
  2
AcmFCF
  3
"AcmSymBB|Product Description: AutoCAD Mechanical|Company: Autodesk, Inc."
 90
     4095
 91
        0
280
     0
281
     1
  0
CLASS
  1
ACMWELDSYM
  2
AcmWelding
  3
"AcmSymBB|Product Description: AutoCAD Mechanical|Company: Autodesk, Inc."
 90
     4095
 91
        0
280
     0
281
     1
  0
ENDSEC
  0
SECTION
  2
TABLES
  0
TABLE
  2
VPORT
  5
8
330
0
100
AcDbSymbolTable
 70
     1
  0
VPORT
  5
27A
330
8
100
AcDbSymbolTableRecord
100
AcDbViewportTableRecord
  2
*Active
 70
     0
 10
0.0
 20
0.0
 11
1.0
 21
1.0
 12
453.6477812978472
 22
421.5808433312624
 13
0.0
 23
0.0
 14
5.0
 24
5.0
 15
20.0
 25
20.0
 16
0.0
 26
0.0
 36
1.0
 17
0.0
 27
0.0
 37
0.0
 40
305.3942436287638
 41
1.571428571428571
 42
50.0
 43
0.0
 44
0.0
 50
0.0
 51
0.0
 71
    16
 72
 20000
 73
     1
 74
     3
 75
     0
 76
     0
 77
     0
 78
     0
281
     0
 65
     0
110
0.0
120
0.0
130
0.0
111
1.0
121
0.0
131
0.0
112
0.0
122
1.0
132
0.0
 79
     0
146
0.0
348
285
 60
     3
 61
     5
292
     1
282
     0
141
0.0
142
0.0
 63
   250
421
  3355443
  0
ENDTAB
  0
TABLE
  2
LTYPE
  5
5
330
0
100
AcDbSymbolTable
 70
    22
  0
LTYPE
  5
14
330
5
100
AcDbSymbolTableRecord
100
AcDbLinetypeTableRecord
  2
ByBlock
 70
     0
  3

 72
    65
 73
     0
 40
0.0
  0
LTYPE
  5
15
330
5
100
AcDbSymbolTableRecord
100
AcDbLinetypeTableRecord
  2
ByLayer
 70
     0
  3

 72
    65
 73
     0
 40
0.0
  0
LTYPE
  5
16
330
5
100
AcDbSymbolTableRecord
100
AcDbLinetypeTableRecord
  2
Continuous
 70
     0
  3
Solid line
 72
    65
 73
     0
 40
0.0
  0
LTYPE
  5
4D
330
5
100
AcDbSymbolTableRecord
100
AcDbLinetypeTableRecord
  2
AM_ISO02W050
 70
     0
  3
__ __ __ __ __ __ __ __ __ __ __ __ __ __ __
 72
    65
 73
     2
 40
7.5
 49
6.0
 74
     0
 49
-1.5
 74
     0
  0
LTYPE
  5
4E
330
5
100
AcDbSymbolTableRecord
100
AcDbLinetypeTableRecord
  2
AM_ISO08W050
 70
     0
  3
____ . ____ . ____ . ____ . ____ . ____ . ____
 72
    65
 73
     4
 40
18.0
 49
12.0
 74
     0
 49
-1.5
 74
     0
 49
3.0
 74
     0
 49
-1.5
 74
     0
  0
LTYPE
  5
4F
330
5
100
AcDbSymbolTableRecord
100
AcDbLinetypeTableRecord
  2
AM_ISO09W050
 70
     0
  3
_____ . . _____ . . _____ . . ____ .. ____
 72
    65
 73
     6
 40
22.5
 49
12.0
 74
     0
 49
-1.5
 74
     0
 49
3.0
 74
     0
 49
-1.5
 74
     0
 49
3.0
 74
     0
 49
-1.5
 74
     0
  0
LTYPE
  5
50
330
5
100
AcDbSymbolTableRecord
100
AcDbLinetypeTableRecord
  2
Amconstr
 70
     0
  3
_______________________
 72
    65
 73
     2
 40
9999.0
 49
9999.0
 74
     0
 49
0.0
 74
     0
  0
LTYPE
  5
51
330
5
100
AcDbSymbolTableRecord
100
AcDbLinetypeTableRecord
  2
AM_ISO08W050x2
 70
     0
  3
__ . __ . __ . __ . __ . __
 72
    65
 73
     4
 40
9.0
 49
6.0
 74
     0
 49
-0.75
 74
     0
 49
1.5
 74
     0
 49
-0.75
 74
     0
  0
LTYPE
  5
52
330
5
100
AcDbSymbolTableRecord
100
AcDbLinetypeTableRecord
  2
AM_ISO02W050x2
 70
     0
  3
 _ _ _ _ _ _ _ _ _ _ _ _
 72
    65
 73
     2
 40
3.75
 49
3.0
 74
     0
 49
-0.75
 74
     0
  0
LTYPE
  5
55
330
5
100
AcDbSymbolTableRecord
100
AcDbLinetypeTableRecord
  2
Amzigzag
 70
     0
  3
/\/-/\/-/\/-/\/-/\/-/\/
 72
    65
 73
     2
 40
11.0001
 49
0.0001
 74
     4
 75
   136
340
23D
 46
0.04
 50
0.0
 44
0.0
 45
0.0
 49
-11.0
 74
     0
  0
LTYPE
  5
65
330
5
100
AcDbSymbolTableRecord
100
AcDbLinetypeTableRecord
  2
CENTER
 70
     0
  3
__ . __
 72
    65
 73
     4
 40
7.0
 49
4.0
 74
     0
 49
-1.0
 74
     0
 49
1.0
 74
     0
 49
-1.0
 74
     0
  0
LTYPE
  5
E0
330
5
100
AcDbSymbolTableRecord
100
AcDbLinetypeTableRecord
  2
HIDDEN
 70
     0
  3
Hidden __ __ __ __ __ __ __ __ __ __ __ __ __ _
 72
    65
 73
     2
 40
9.524999999999996
 49
6.349999999999998
 74
     0
 49
-3.174999999999998
 74
     0
  0
LTYPE
  5
E1
330
5
100
AcDbSymbolTableRecord
100
AcDbLinetypeTableRecord
  2
PHANTOM2
 70
     0
  3
Phantom (.5x) ___ _ _ ___ _ _ ___ _ _ ___ _ _
 72
    65
 73
     6
 40
31.75
 49
15.875
 74
     0
 49
-3.174999999999998
 74
     0
 49
3.174999999999998
 74
     0
 49
-3.174999999999998
 74
     0
 49
3.174999999999998
 74
     0
 49
-3.174999999999998
 74
     0
  0
LTYPE
  5
5A2
330
5
100
AcDbSymbolTableRecord
100
AcDbLinetypeTableRecord
  2
ACJISWELD
 70
     0
  3
_ _ _ _ _
 72
    65
 73
     2
 40
2.0
 49
2.0
 74
     0
 49
-1.0
 74
     0
  0
LTYPE
  5
A408
330
5
100
AcDbSymbolTableRecord
100
AcDbLinetypeTableRecord
  2
ACISOWELD
 70
     0
  3
_ _ _ _ _
 72
    65
 73
     2
 40
2.0
 49
2.0
 74
     0
 49
-1.0
 74
     0
  0
LTYPE
  5
A409
330
5
100
AcDbSymbolTableRecord
100
AcDbLinetypeTableRecord
  2
ACISOTGB
 70
     0
  3
__ . . __ . .
 72
    65
 73
     6
 40
9.0
 49
4.0
 74
     0
 49
-1.0
 74
     0
 49
1.0
 74
     0
 49
-1.0
 74
     0
 49
1.0
 74
     0
 49
-1.0
 74
     0
  0
LTYPE
  5
A40A
330
5
100
AcDbSymbolTableRecord
100
AcDbLinetypeTableRecord
  2
ACISOTGL
 70
     0
  3
_ _ _ _ _
 72
    65
 73
     2
 40
3.0
 49
2.0
 74
     0
 49
-1.0
 74
     0
  0
ENDTAB
  0
TABLE
  2
LAYER
  5
2
102
{ACAD_XDICTIONARY
360
BF
102
}
330
0
100
AcDbSymbolTable
 70
    11
  0
LAYER
  5
10
102
{ACAD_XDICTIONARY
360
29F7
102
}
330
2
100
AcDbSymbolTableRecord
100
AcDbLayerTableRecord
  2
0
 70
     0
 62
     7
  6
Continuous
370
    -3
390
F
347
27E
  0
LAYER
  5
81
102
{ACAD_XDICTIONARY
360
29F9
102
}
330
2
100
AcDbSymbolTableRecord
100
AcDbLayerTableRecord
  2
AM_0 外形線1
 70
     0
 62
     7
  6
Continuous
370
    25
390
F
347
27E
  0
LAYER
  5
427
330
2
100
AcDbSymbolTableRecord
100
AcDbLayerTableRecord
  2
Defpoints
 70
     0
 62
     7
  6
Continuous
290
     0
370
    -3
390
F
347
27E
  0
LAYER
  5
2E0B
102
{ACAD_XDICTIONARY
360
2E0C
102
}
330
2
100
AcDbSymbolTableRecord
100
AcDbLayerTableRecord
  2
AM_6 文字
 70
     0
 62
     2
  6
Continuous
370
    13
390
F
347
27E
1001
AcAecLayerStandard
1000

1000

  0
LAYER
  5
3BCF
330
2
100
AcDbSymbolTableRecord
100
AcDbLayerTableRecord
  2
AM_5 寸法線
 70
     0
 62
     3
  6
Continuous
370
    13
390
F
347
27E
1001
AcAecLayerStandard
1000

1000

  0
LAYER
  5
3BD0
330
2
100
AcDbSymbolTableRecord
100
AcDbLayerTableRecord
  2
AM_4 細線
 70
     0
 62
     4
  6
Continuous
370
    13
390
F
347
27E
1001
AcAecLayerStandard
1000

1000

  0
LAYER
  5
3BD1
330
2
100
AcDbSymbolTableRecord
100
AcDbLayerTableRecord
  2
AM_7 中心線
 70
     0
 62
     1
  6
AM_ISO08W050
370
    13
390
F
347
27E
1001
AcAecLayerStandard
1000

1000

  0
LAYER
  5
3BD2
330
2
100
AcDbSymbolTableRecord
100
AcDbLayerTableRecord
  2
AM_3 隠れ線
 70
     0
 62
     8
  6
ACJISWELD
370
    13
390
F
347
27E
1001
AcAecLayerStandard
1000

1000

  0
LAYER
  5
760C
330
2
100
AcDbSymbolTableRecord
100
AcDbLayerTableRecord
  2
AM_8 ハッチング
 70
     0
 62
     1
  6
Continuous
370
    13
390
F
347
27E
1001
AcAecLayerStandard
1000

1000

  0
LAYER
  5
9BD1
330
2
100
AcDbSymbolTableRecord
100
AcDbLayerTableRecord
  2
AM_11 想像線
 70
     0
 62
     5
  6
AM_ISO09W050
370
    13
390
F
347
27E
1001
AcAecLayerStandard
1000

1000

  0
ENDTAB
  0
TABLE
  2
STYLE
  5
3
330
0
100
AcDbSymbolTable
 70
    11
  0
STYLE
  5
11
330
3
100
AcDbSymbolTableRecord
100
AcDbTextStyleTableRecord
  2
STANDARD
 70
     0
 40
0.0
 41
1.0
 50
0.0
 71
     0
 42
25.0
  3
ISOCP.SHX
  4
EXTFONT.SHX
  0
STYLE
  5
23D
330
3
100
AcDbSymbolTableRecord
100
AcDbTextStyleTableRecord
  2

 70
     1
 40
0.0
 41
1.0
 50
0.0
 71
     0
 42
2.5
  3
genltshp.shx
  4

  0
STYLE
  5
5D5
330
3
100
AcDbSymbolTableRecord
100
AcDbTextStyleTableRecord
  2
SEISA
 70
     0
 40
0.0
 41
0.9
 50
0.0
 71
     0
 42
25.0
  3
romans.shx
  4
extfont2.shx
  0
STYLE
  5
A3F8
330
3
100
AcDbSymbolTableRecord
100
AcDbTextStyleTableRecord
  2
ACISOTS
 70
     0
 40
1.0
 41
1.0
 50
0.0
 71
     0
 42
25.0
  3
isocp.shx
  4
extfont.shx
  0
STYLE
  5
A407
330
3
100
AcDbSymbolTableRecord
100
AcDbTextStyleTableRecord
  2
ACISOGDT
 70
     0
 40
0.0
 41
1.0
 50
0.0
 71
     0
 42
25.0
  3
amgdt.shx
  4

  0
ENDTAB
  0
TABLE
  2
VIEW
  5
6
330
0
100
AcDbSymbolTable
 70
     6
  0
VIEW
  5
91B
330
6
100
AcDbSymbolTableRecord
100
AcDbViewTableRecord
  2
AM_VIEW1
 70
     0
 40
297.0
 10
287.1243846193209
 20
445.5000007387641
 41
574.2487684729065
 11
0.0
 21
0.0
 31
1.0
 12
0.0
 22
0.0
 32
0.0
 42
50.0
 43
0.0
 44
0.0
 50
0.0
 71
    16
281
     0
 72
     0
 73
     0
  0
VIEW
  5
91C
330
6
100
AcDbSymbolTableRecord
100
AcDbViewTableRecord
  2
AM_VIEW2
 70
     0
 40
297.0
 10
552.8756161464143
 20
445.5000007387641
 41
574.2487684729065
 11
0.0
 21
0.0
 31
1.0
 12
0.0
 22
0.0
 32
0.0
 42
50.0
 43
0.0
 44
0.0
 50
0.0
 71
    16
281
     0
 72
     0
 73
     0
  0
VIEW
  5
91D
330
6
100
AcDbSymbolTableRecord
100
AcDbViewTableRecord
  2
AM_VIEW3
 70
     0
 40
297.0
 10
287.1243846193209
 20
148.5000007387641
 41
574.2487684729065
 11
0.0
 21
0.0
 31
1.0
 12
0.0
 22
0.0
 32
0.0
 42
50.0
 43
0.0
 44
0.0
 50
0.0
 71
    16
281
     0
 72
     0
 73
     0
  0
VIEW
  5
91E
330
6
100
AcDbSymbolTableRecord
100
AcDbViewTableRecord
  2
AM_VIEW4
 70
     0
 40
297.0
 10
552.8756161464143
 20
148.5000007387641
 41
574.2487684729065
 11
0.0
 21
0.0
 31
1.0
 12
0.0
 22
0.0
 32
0.0
 42
50.0
 43
0.0
 44
0.0
 50
0.0
 71
    16
281
     0
 72
     0
 73
     0
  0
VIEW
  5
91F
330
6
100
AcDbSymbolTableRecord
100
AcDbViewTableRecord
  2
AM_VIEW5
 70
     0
 40
297.0000000000001
 10
420.0000003828676
 20
297.0000007387642
 41
574.2487684729065
 11
0.0
 21
0.0
 31
1.0
 12
0.0
 22
0.0
 32
0.0
 42
50.0
 43
0.0
 44
0.0
 50
0.0
 71
    16
281
     0
 72
     0
 73
     0
  0
VIEW
  5
920
330
6
100
AcDbSymbolTableRecord
100
AcDbViewTableRecord
  2
AM_VIEW6
 70
     0
 40
593.9940599999999
 10
420.0000003828676
 20
297.0000007387642
 41
1148.486051970443
 11
0.0
 21
0.0
 31
1.0
 12
0.0
 22
0.0
 32
0.0
 42
50.0
 43
0.0
 44
0.0
 50
0.0
 71
    16
281
     0
 72
     0
 73
     0
  0
ENDTAB
  0
TABLE
  2
UCS
  5
7
330
0
100
AcDbSymbolTable
 70
     0
  0
ENDTAB
  0
TABLE
  2
APPID
  5
9
330
0
100
AcDbSymbolTable
 70
   392
  0
APPID
  5
12
330
9
100
AcDbSymbolTableRecord
100
AcDbRegAppTableRecord
  2
ACAD
 70
     0
  0
APPID
  5
30
330
9
100
AcDbSymbolTableRecord
100
AcDbRegAppTableRecord
  2
MCAD_NO_VIS
 70
     0
  0
APPID
  5
31
330
9
100
AcDbSymbolTableRecord
100
AcDbRegAppTableRecord
  2
ACAD_TEMP_GRAPHIC
 70
     0
  0
APPID
  5
44
330
9
100
AcDbSymbolTableRecord
100
AcDbRegAppTableRecord
  2
ACATTRIBSERVICES
 70
     0
  0
APPID
  5
F6
330
9
100
AcDbSymbolTableRecord
100
AcDbRegAppTableRecord
  2
AD_DRAW
 70
     0
  0
APPID
  5
114
330
9
100
AcDbSymbolTableRecord
100
AcDbRegAppTableRecord
  2
DESIGNERASSEMBLIES
 70
     0
  0
APPID
  5
118
330
9
100
AcDbSymbolTableRecord
100
AcDbRegAppTableRecord
  2
ACADM_DIM_EDIT
 70
     0
  0
APPID
  5
119
330
9
100
AcDbSymbolTableRecord
100
AcDbRegAppTableRecord
  2
AMDT_DM_ADJ
 70
     0
  0
APPID
  5
1AF
330
9
100
AcDbSymbolTableRecord
100
AcDbRegAppTableRecord
  2
ACAD_DSTYLE_DIMARC_LENGTH_SYMBOL
 70
     0
  0
APPID
  5
1B0
330
9
100
AcDbSymbolTableRecord
100
AcDbRegAppTableRecord
  2
ACAD_DSTYLE_DIMJOGGED_JOGANGLE_SYMBOL
 70
     0
  0
APPID
  5
2D7
330
9
100
AcDbSymbolTableRecord
100
AcDbRegAppTableRecord
  2
ACAD_MLEADERVER
 70
     0
  0
APPID
  5
355
330
9
100
AcDbSymbolTableRecord
100
AcDbRegAppTableRecord
  2
AcadAnnoPO
 70
     0
  0
APPID
  5
428
330
9
100
AcDbSymbolTableRecord
100
AcDbRegAppTableRecord
  2
ACAD_DSTYLE_DIMTEXT_FILL
 70
     0
  0
APPID
  5
429
330
9
100
AcDbSymbolTableRecord
100
AcDbRegAppTableRecord
  2
GENIUS_GENSCREG_15
 70
     0
  0
APPID
  5
42A
330
9
100
AcDbSymbolTableRecord
100
AcDbRegAppTableRecord
  2
GENIUS_GENOBJ-N-SDF_13
 70
     0
  0
APPID
  5
42B
330
9
100
AcDbSymbolTableRecord
100
AcDbRegAppTableRecord
  2
GENIUS_GENODEF_13
 70
     0
  0
APPID
  5
42C
330
9
100
AcDbSymbolTableRecord
100
AcDbRegAppTableRecord
  2
ACAD_EXEMPT_FROM_CAD_STANDARDS
 70
     0
  0
APPID
  5
42D
330
9
100
AcDbSymbolTableRecord
100
AcDbRegAppTableRecord
  2
AcAecLayerStandard
 70
     0
  0
APPID
  5
42E
330
9
100
AcDbSymbolTableRecord
100
AcDbRegAppTableRecord
  2
GENIUS_GENOBJ-N-CEN_13
 70
     0
  0
APPID
  5
42F
330
9
100
AcDbSymbolTableRecord
100
AcDbRegAppTableRecord
  2
GENIUS_GENCEN_19
 70
     0
  0
APPID
  5
430
330
9
100
AcDbSymbolTableRecord
100
AcDbRegAppTableRecord
  2
ACAD_DSTYLE_DIMINSPECT
 70
     0
  0
APPID
  5
431
330
9
100
AcDbSymbolTableRecord
100
AcDbRegAppTableRecord
  2
GENIUS_AMGTXT_16
 70
     0
  0
APPID
  5
432
330
9
100
AcDbSymbolTableRecord
100
AcDbRegAppTableRecord
  2
GENIUS_GENFIL_13
 70
     0
  0
APPID
  5
433
330
9
100
AcDbSymbolTableRecord
100
AcDbRegAppTableRecord
  2
GENIUS_GENOLIS_13
 70
     0
  0
APPID
  5
434
330
9
100
AcDbSymbolTableRecord
100
AcDbRegAppTableRecord
  2
GENIUS_GENOBJ-N-CHA_13
 70
     0
  0
APPID
  5
435
330
9
100
AcDbSymbolTableRecord
100
AcDbRegAppTableRecord
  2
GENIUS_GENOENT_13
 70
     0
  0
APPID
  5
436
330
9
100
AcDbSymbolTableRecord
100
AcDbRegAppTableRecord
  2
GENIUS_GENOREF_13
 70
     0
  0
APPID
  5
437
330
9
100
AcDbSymbolTableRecord
100
AcDbRegAppTableRecord
  2
GENIUS_GENOBJ-N-FIL_13
 70
     0
  0
APPID
  5
438
330
9
100
AcDbSymbolTableRecord
100
AcDbRegAppTableRecord
  2
GEVID1208829536
 70
     0
  0
APPID
  5
439
330
9
100
AcDbSymbolTableRecord
100
AcDbRegAppTableRecord
  2
GEVDC
 70
     0
  0
APPID
  5
43A
330
9
100
AcDbSymbolTableRecord
100
AcDbRegAppTableRecord
  2
GEVRADREF
 70
     0
  0
APPID
  5
43B
330
9
100
AcDbSymbolTableRecord
100
AcDbRegAppTableRecord
  2
GENIUS_GENBH_13
 70
     0
  0
APPID
  5
43C
330
9
100
AcDbSymbolTableRecord
100
AcDbRegAppTableRecord
  2
GENIUS_GENOBJ-NBEHI-BHF_13
 70
     0
  0
APPID
  5
43D
330
9
100
AcDbSymbolTableRecord
100
AcDbRegAppTableRecord
  2
GENIUS_GENOBJ-NBEHI-BHB_13
 70
     0
  0
APPID
  5
43E
330
9
100
AcDbSymbolTableRecord
100
AcDbRegAppTableRecord
  2
GEVID1208829537
 70
     0
  0
APPID
  5
43F
330
9
100
AcDbSymbolTableRecord
100
AcDbRegAppTableRecord
  2
ACAD_DSTYLE_DIMJAG
 70
     0
  0
APPID
  5
440
330
9
100
AcDbSymbolTableRecord
100
AcDbRegAppTableRecord
  2
ACAD_DSTYLE_DIMTALN
 70
     0
  0
APPID
  5
441
330
9
100
AcDbSymbolTableRecord
100
AcDbRegAppTableRecord
  2
AMG_2DHIDE
 70
     0
  0
APPID
  5
442
330
9
100
AcDbSymbolTableRecord
100
AcDbRegAppTableRecord
  2
AMG_2DSTRUCT_BTR
 70
     0
  0
APPID
  5
443
330
9
100
AcDbSymbolTableRecord
100
AcDbRegAppTableRecord
  2
GEVID1208845772
 70
     0
  0
APPID
  5
444
330
9
100
AcDbSymbolTableRecord
100
AcDbRegAppTableRecord
  2
GEVID1208845773
 70
     0
  0
APPID
  5
445
330
9
100
AcDbSymbolTableRecord
100
AcDbRegAppTableRecord
  2
ACADM_2DVIEW_IGN_NOTIFY
 70
     0
  0
APPID
  5
446
330
9
100
AcDbSymbolTableRecord
100
AcDbRegAppTableRecord
  2
GEVID1208845774
 70
     0
  0
APPID
  5
447
330
9
100
AcDbSymbolTableRecord
100
AcDbRegAppTableRecord
  2
GEVID1208845775
 70
     0
  0
APPID
  5
448
330
9
100
AcDbSymbolTableRecord
100
AcDbRegAppTableRecord
  2
GEVID1208845776
 70
     0
  0
APPID
  5
449
330
9
100
AcDbSymbolTableRecord
100
AcDbRegAppTableRecord
  2
GEVID1208845777
 70
     0
  0
APPID
  5
44A
330
9
100
AcDbSymbolTableRecord
100
AcDbRegAppTableRecord
  2
GEVCON
 70
     0
  0
APPID
  5
44B
330
9
100
AcDbSymbolTableRecord
100
AcDbRegAppTableRecord
  2
GENIUS_GENOBJ-F-SCPASSM_13
 70
     0
  0
APPID
  5
44C
330
9
100
AcDbSymbolTableRecord
100
AcDbRegAppTableRecord
  2
GEVID1208845778
 70
     0
  0
APPID
  5
44D
330
9
100
AcDbSymbolTableRecord
100
AcDbRegAppTableRecord
  2
GEVID1208845779
 70
     0
  0
APPID
  5
44E
330
9
100
AcDbSymbolTableRecord
100
AcDbRegAppTableRecord
  2
GEVID1208845780
 70
     0
  0
APPID
  5
44F
330
9
100
AcDbSymbolTableRecord
100
AcDbRegAppTableRecord
  2
GEVID1208845781
 70
     0
  0
APPID
  5
450
330
9
100
AcDbSymbolTableRecord
100
AcDbRegAppTableRecord
  2
GEVID1208845782
 70
     0
  0
APPID
  5
451
330
9
100
AcDbSymbolTableRecord
100
AcDbRegAppTableRecord
  2
GEVID1208845783
 70
     0
  0
APPID
  5
452
330
9
100
AcDbSymbolTableRecord
100
AcDbRegAppTableRecord
  2
GEVID1208845784
 70
     0
  0
APPID
  5
453
330
9
100
AcDbSymbolTableRecord
100
AcDbRegAppTableRecord
  2
GEVID1208845785
 70
     0
  0
APPID
  5
454
330
9
100
AcDbSymbolTableRecord
100
AcDbRegAppTableRecord
  2
GEVID1208845787
 70
     0
  0
APPID
  5
455
330
9
100
AcDbSymbolTableRecord
100
AcDbRegAppTableRecord
  2
GEVID1208845788
 70
     0
  0
APPID
  5
456
330
9
100
AcDbSymbolTableRecord
100
AcDbRegAppTableRecord
  2
GEVID1208845789
 70
     0
  0
APPID
  5
457
330
9
100
AcDbSymbolTableRecord
100
AcDbRegAppTableRecord
  2
GEVID1208845790
 70
     0
  0
APPID
  5
458
330
9
100
AcDbSymbolTableRecord
100
AcDbRegAppTableRecord
  2
GEVID1208845791
 70
     0
  0
APPID
  5
459
330
9
100
AcDbSymbolTableRecord
100
AcDbRegAppTableRecord
  2
GEVID1208845792
 70
     0
  0
APPID
  5
45A
330
9
100
AcDbSymbolTableRecord
100
AcDbRegAppTableRecord
  2
GEVID1208845793
 70
     0
  0
APPID
  5
45B
330
9
100
AcDbSymbolTableRecord
100
AcDbRegAppTableRecord
  2
GEVID1208845794
 70
     0
  0
APPID
  5
45C
330
9
100
AcDbSymbolTableRecord
100
AcDbRegAppTableRecord
  2
GEVID1208845795
 70
     0
  0
APPID
  5
45D
330
9
100
AcDbSymbolTableRecord
100
AcDbRegAppTableRecord
  2
GEVID1208845796
 70
     0
  0
APPID
  5
45E
330
9
100
AcDbSymbolTableRecord
100
AcDbRegAppTableRecord
  2
GEVID1208845797
 70
     0
  0
APPID
  5
45F
330
9
100
AcDbSymbolTableRecord
100
AcDbRegAppTableRecord
  2
GEVID1208845798
 70
     0
  0
APPID
  5
460
330
9
100
AcDbSymbolTableRecord
100
AcDbRegAppTableRecord
  2
GEVID1208845799
 70
     0
  0
APPID
  5
461
330
9
100
AcDbSymbolTableRecord
100
AcDbRegAppTableRecord
  2
GEVID1208845800
 70
     0
  0
APPID
  5
462
330
9
100
AcDbSymbolTableRecord
100
AcDbRegAppTableRecord
  2
GEVID1208845801
 70
     0
  0
APPID
  5
463
330
9
100
AcDbSymbolTableRecord
100
AcDbRegAppTableRecord
  2
GEVID1208845802
 70
     0
  0
APPID
  5
464
330
9
100
AcDbSymbolTableRecord
100
AcDbRegAppTableRecord
  2
GENIUS_GENOBJ-N-DIM_13
 70
     0
  0
APPID
  5
465
330
9
100
AcDbSymbolTableRecord
100
AcDbRegAppTableRecord
  2
GENIUS_GENDIM_13
 70
     0
  0
APPID
  5
466
330
9
100
AcDbSymbolTableRecord
100
AcDbRegAppTableRecord
  2
GENIUS_GENDIMSH_14
 70
     0
  0
APPID
  5
467
330
9
100
AcDbSymbolTableRecord
100
AcDbRegAppTableRecord
  2
GEVID1208845803
 70
     0
  0
APPID
  5
468
330
9
100
AcDbSymbolTableRecord
100
AcDbRegAppTableRecord
  2
GEVID1208845804
 70
     0
  0
APPID
  5
469
330
9
100
AcDbSymbolTableRecord
100
AcDbRegAppTableRecord
  2
GEVID1208845805
 70
     0
  0
APPID
  5
46A
330
9
100
AcDbSymbolTableRecord
100
AcDbRegAppTableRecord
  2
GEVID1208845806
 70
     0
  0
APPID
  5
46B
330
9
100
AcDbSymbolTableRecord
100
AcDbRegAppTableRecord
  2
GEVID1208845807
 70
     0
  0
APPID
  5
46C
330
9
100
AcDbSymbolTableRecord
100
AcDbRegAppTableRecord
  2
GEVID1208845808
 70
     0
  0
APPID
  5
46D
330
9
100
AcDbSymbolTableRecord
100
AcDbRegAppTableRecord
  2
GEVID1208845809
 70
     0
  0
APPID
  5
46E
330
9
100
AcDbSymbolTableRecord
100
AcDbRegAppTableRecord
  2
GEVID1208845810
 70
     0
  0
APPID
  5
46F
330
9
100
AcDbSymbolTableRecord
100
AcDbRegAppTableRecord
  2
GEVID1208845811
 70
     0
  0
APPID
  5
470
330
9
100
AcDbSymbolTableRecord
100
AcDbRegAppTableRecord
  2
GEVID1208845813
 70
     0
  0
APPID
  5
471
330
9
100
AcDbSymbolTableRecord
100
AcDbRegAppTableRecord
  2
GEVID1208845814
 70
     0
  0
APPID
  5
472
330
9
100
AcDbSymbolTableRecord
100
AcDbRegAppTableRecord
  2
GEVID1208845815
 70
     0
  0
APPID
  5
473
330
9
100
AcDbSymbolTableRecord
100
AcDbRegAppTableRecord
  2
GEVID1208845816
 70
     0
  0
APPID
  5
474
330
9
100
AcDbSymbolTableRecord
100
AcDbRegAppTableRecord
  2
GEVID1208845817
 70
     0
  0
APPID
  5
475
330
9
100
AcDbSymbolTableRecord
100
AcDbRegAppTableRecord
  2
GEVID1208845818
 70
     0
  0
APPID
  5
476
330
9
100
AcDbSymbolTableRecord
100
AcDbRegAppTableRecord
  2
GEVID1208845819
 70
     0
  0
APPID
  5
477
330
9
100
AcDbSymbolTableRecord
100
AcDbRegAppTableRecord
  2
GEVID1208845820
 70
     0
  0
APPID
  5
478
330
9
100
AcDbSymbolTableRecord
100
AcDbRegAppTableRecord
  2
GENIUS_GENOBJ-F-SHCL_13
 70
     0
  0
APPID
  5
479
330
9
100
AcDbSymbolTableRecord
100
AcDbRegAppTableRecord
  2
GENIUS_GEFMSH_13
 70
     0
  0
APPID
  5
47A
330
9
100
AcDbSymbolTableRecord
100
AcDbRegAppTableRecord
  2
GENIUS_GENOBJ-F-SHCA_13
 70
     0
  0
APPID
  5
47B
330
9
100
AcDbSymbolTableRecord
100
AcDbRegAppTableRecord
  2
GENIUS_GEFSH_13
 70
     0
  0
APPID
  5
47C
330
9
100
AcDbSymbolTableRecord
100
AcDbRegAppTableRecord
  2
GENIUS_GEFSHP_13
 70
     0
  0
APPID
  5
47D
330
9
100
AcDbSymbolTableRecord
100
AcDbRegAppTableRecord
  2
GENIUS_GEFSHP0_13
 70
     0
  0
APPID
  5
47E
330
9
100
AcDbSymbolTableRecord
100
AcDbRegAppTableRecord
  2
GENIUS_GEFSH0_13
 70
     0
  0
APPID
  5
47F
330
9
100
AcDbSymbolTableRecord
100
AcDbRegAppTableRecord
  2
GENIUS_GEFSHP1_13
 70
     0
  0
APPID
  5
480
330
9
100
AcDbSymbolTableRecord
100
AcDbRegAppTableRecord
  2
GENIUS_GEFSH1_13
 70
     0
  0
APPID
  5
481
330
9
100
AcDbSymbolTableRecord
100
AcDbRegAppTableRecord
  2
GEVID1208866337
 70
     0
  0
APPID
  5
482
330
9
100
AcDbSymbolTableRecord
100
AcDbRegAppTableRecord
  2
GEVID1208866338
 70
     0
  0
APPID
  5
483
330
9
100
AcDbSymbolTableRecord
100
AcDbRegAppTableRecord
  2
GEVID1208866339
 70
     0
  0
APPID
  5
484
330
9
100
AcDbSymbolTableRecord
100
AcDbRegAppTableRecord
  2
GEVID1208866340
 70
     0
  0
APPID
  5
485
330
9
100
AcDbSymbolTableRecord
100
AcDbRegAppTableRecord
  2
GEVID1208866341
 70
     0
  0
APPID
  5
486
330
9
100
AcDbSymbolTableRecord
100
AcDbRegAppTableRecord
  2
ACAD_PSEXT
 70
     0
  0
APPID
  5
487
330
9
100
AcDbSymbolTableRecord
100
AcDbRegAppTableRecord
  2
GEVID1208866342
 70
     0
  0
APPID
  5
488
330
9
100
AcDbSymbolTableRecord
100
AcDbRegAppTableRecord
  2
GEVID1208913836
 70
     0
  0
APPID
  5
489
330
9
100
AcDbSymbolTableRecord
100
AcDbRegAppTableRecord
  2
GEVID1208913837
 70
     0
  0
APPID
  5
48A
330
9
100
AcDbSymbolTableRecord
100
AcDbRegAppTableRecord
  2
GEVID1208913838
 70
     0
  0
APPID
  5
48B
330
9
100
AcDbSymbolTableRecord
100
AcDbRegAppTableRecord
  2
GEVID1208913839
 70
     0
  0
APPID
  5
48C
330
9
100
AcDbSymbolTableRecord
100
AcDbRegAppTableRecord
  2
GENIUS_GENDTOL_13
 70
     0
  0
APPID
  5
48D
330
9
100
AcDbSymbolTableRecord
100
AcDbRegAppTableRecord
  2
GEVID1208928889
 70
     0
  0
APPID
  5
48E
330
9
100
AcDbSymbolTableRecord
100
AcDbRegAppTableRecord
  2
GEVID1208928890
 70
     0
  0
APPID
  5
48F
330
9
100
AcDbSymbolTableRecord
100
AcDbRegAppTableRecord
  2
GEVID1208928891
 70
     0
  0
APPID
  5
490
330
9
100
AcDbSymbolTableRecord
100
AcDbRegAppTableRecord
  2
GEVID1208928892
 70
     0
  0
APPID
  5
491
330
9
100
AcDbSymbolTableRecord
100
AcDbRegAppTableRecord
  2
GEVID1208933827
 70
     0
  0
APPID
  5
492
330
9
100
AcDbSymbolTableRecord
100
AcDbRegAppTableRecord
  2
GEVID1208933829
 70
     0
  0
APPID
  5
493
330
9
100
AcDbSymbolTableRecord
100
AcDbRegAppTableRecord
  2
GEVID1208933830
 70
     0
  0
APPID
  5
494
330
9
100
AcDbSymbolTableRecord
100
AcDbRegAppTableRecord
  2
GEVID1208933831
 70
     0
  0
APPID
  5
495
330
9
100
AcDbSymbolTableRecord
100
AcDbRegAppTableRecord
  2
GEVID1208933832
 70
     0
  0
APPID
  5
496
330
9
100
AcDbSymbolTableRecord
100
AcDbRegAppTableRecord
  2
GEVID1208933833
 70
     0
  0
APPID
  5
497
330
9
100
AcDbSymbolTableRecord
100
AcDbRegAppTableRecord
  2
GEVID1208933834
 70
     0
  0
APPID
  5
498
330
9
100
AcDbSymbolTableRecord
100
AcDbRegAppTableRecord
  2
GEVID1208933835
 70
     0
  0
APPID
  5
499
330
9
100
AcDbSymbolTableRecord
100
AcDbRegAppTableRecord
  2
GEVID1208933836
 70
     0
  0
APPID
  5
49A
330
9
100
AcDbSymbolTableRecord
100
AcDbRegAppTableRecord
  2
GEVID1208933837
 70
     0
  0
APPID
  5
49B
330
9
100
AcDbSymbolTableRecord
100
AcDbRegAppTableRecord
  2
GEVID1208933838
 70
     0
  0
APPID
  5
49C
330
9
100
AcDbSymbolTableRecord
100
AcDbRegAppTableRecord
  2
GEVID1208933840
 70
     0
  0
APPID
  5
49D
330
9
100
AcDbSymbolTableRecord
100
AcDbRegAppTableRecord
  2
GEVID1208933842
 70
     0
  0
APPID
  5
49E
330
9
100
AcDbSymbolTableRecord
100
AcDbRegAppTableRecord
  2
GEVID1208933843
 70
     0
  0
APPID
  5
49F
330
9
100
AcDbSymbolTableRecord
100
AcDbRegAppTableRecord
  2
GEVID1208933844
 70
     0
  0
APPID
  5
4A0
330
9
100
AcDbSymbolTableRecord
100
AcDbRegAppTableRecord
  2
GEVID1208933845
 70
     0
  0
APPID
  5
4A1
330
9
100
AcDbSymbolTableRecord
100
AcDbRegAppTableRecord
  2
GEVID1208933846
 70
     0
  0
APPID
  5
4A2
330
9
100
AcDbSymbolTableRecord
100
AcDbRegAppTableRecord
  2
GEVID1208933847
 70
     0
  0
APPID
  5
4A3
330
9
100
AcDbSymbolTableRecord
100
AcDbRegAppTableRecord
  2
GEVID1208933848
 70
     0
  0
APPID
  5
4A4
330
9
100
AcDbSymbolTableRecord
100
AcDbRegAppTableRecord
  2
GEVID1208933849
 70
     0
  0
APPID
  5
4A5
330
9
100
AcDbSymbolTableRecord
100
AcDbRegAppTableRecord
  2
GEVID1208933850
 70
     0
  0
APPID
  5
4A6
330
9
100
AcDbSymbolTableRecord
100
AcDbRegAppTableRecord
  2
GEVID1208933851
 70
     0
  0
APPID
  5
4A7
330
9
100
AcDbSymbolTableRecord
100
AcDbRegAppTableRecord
  2
GEVID1208933852
 70
     0
  0
APPID
  5
4A8
330
9
100
AcDbSymbolTableRecord
100
AcDbRegAppTableRecord
  2
GEVID1208933853
 70
     0
  0
APPID
  5
4A9
330
9
100
AcDbSymbolTableRecord
100
AcDbRegAppTableRecord
  2
GEVID1208933854
 70
     0
  0
APPID
  5
4AA
330
9
100
AcDbSymbolTableRecord
100
AcDbRegAppTableRecord
  2
GEVID1208933855
 70
     0
  0
APPID
  5
4AB
330
9
100
AcDbSymbolTableRecord
100
AcDbRegAppTableRecord
  2
GEVID1208933856
 70
     0
  0
APPID
  5
4AC
330
9
100
AcDbSymbolTableRecord
100
AcDbRegAppTableRecord
  2
GEVID1208933857
 70
     0
  0
APPID
  5
4AD
330
9
100
AcDbSymbolTableRecord
100
AcDbRegAppTableRecord
  2
GEVID1208933858
 70
     0
  0
APPID
  5
4AE
330
9
100
AcDbSymbolTableRecord
100
AcDbRegAppTableRecord
  2
GEVID1208933859
 70
     0
  0
APPID
  5
4AF
330
9
100
AcDbSymbolTableRecord
100
AcDbRegAppTableRecord
  2
GEVID1208933860
 70
     0
  0
APPID
  5
4B0
330
9
100
AcDbSymbolTableRecord
100
AcDbRegAppTableRecord
  2
GEVID1208933861
 70
     0
  0
APPID
  5
4B1
330
9
100
AcDbSymbolTableRecord
100
AcDbRegAppTableRecord
  2
GEVID1208933862
 70
     0
  0
APPID
  5
4B2
330
9
100
AcDbSymbolTableRecord
100
AcDbRegAppTableRecord
  2
GEVID1208933863
 70
     0
  0
APPID
  5
4B3
330
9
100
AcDbSymbolTableRecord
100
AcDbRegAppTableRecord
  2
GEVID1208933864
 70
     0
  0
APPID
  5
4B4
330
9
100
AcDbSymbolTableRecord
100
AcDbRegAppTableRecord
  2
GEVID1208933865
 70
     0
  0
APPID
  5
4B5
330
9
100
AcDbSymbolTableRecord
100
AcDbRegAppTableRecord
  2
GEVID1208933866
 70
     0
  0
APPID
  5
4B6
330
9
100
AcDbSymbolTableRecord
100
AcDbRegAppTableRecord
  2
GEVID1208933867
 70
     0
  0
APPID
  5
4B7
330
9
100
AcDbSymbolTableRecord
100
AcDbRegAppTableRecord
  2
GEVID1208933868
 70
     0
  0
APPID
  5
4B8
330
9
100
AcDbSymbolTableRecord
100
AcDbRegAppTableRecord
  2
GEVID1208933869
 70
     0
  0
APPID
  5
4B9
330
9
100
AcDbSymbolTableRecord
100
AcDbRegAppTableRecord
  2
GEVID1208933870
 70
     0
  0
APPID
  5
4BA
330
9
100
AcDbSymbolTableRecord
100
AcDbRegAppTableRecord
  2
GEVID1208933871
 70
     0
  0
APPID
  5
4BB
330
9
100
AcDbSymbolTableRecord
100
AcDbRegAppTableRecord
  2
GEVID1208933872
 70
     0
  0
APPID
  5
4BC
330
9
100
AcDbSymbolTableRecord
100
AcDbRegAppTableRecord
  2
GEVID1208933873
 70
     0
  0
APPID
  5
4BD
330
9
100
AcDbSymbolTableRecord
100
AcDbRegAppTableRecord
  2
GEVID1208933874
 70
     0
  0
APPID
  5
4BE
330
9
100
AcDbSymbolTableRecord
100
AcDbRegAppTableRecord
  2
GEVID1208933875
 70
     0
  0
APPID
  5
4BF
330
9
100
AcDbSymbolTableRecord
100
AcDbRegAppTableRecord
  2
GEVID1208933876
 70
     0
  0
APPID
  5
4C0
330
9
100
AcDbSymbolTableRecord
100
AcDbRegAppTableRecord
  2
ACAD_DSTYLE_DIMRADIAL_EXTENSION
 70
     0
  0
APPID
  5
4C1
330
9
100
AcDbSymbolTableRecord
100
AcDbRegAppTableRecord
  2
GEVID1208999100
 70
     0
  0
APPID
  5
4C2
330
9
100
AcDbSymbolTableRecord
100
AcDbRegAppTableRecord
  2
GEVID1208999101
 70
     0
  0
APPID
  5
4C3
330
9
100
AcDbSymbolTableRecord
100
AcDbRegAppTableRecord
  2
GEVID1208999102
 70
     0
  0
APPID
  5
4C4
330
9
100
AcDbSymbolTableRecord
100
AcDbRegAppTableRecord
  2
GEVID1208999103
 70
     0
  0
APPID
  5
4C5
330
9
100
AcDbSymbolTableRecord
100
AcDbRegAppTableRecord
  2
GEVID1208999105
 70
     0
  0
APPID
  5
4C6
330
9
100
AcDbSymbolTableRecord
100
AcDbRegAppTableRecord
  2
GEVID1208999106
 70
     0
  0
APPID
  5
4C7
330
9
100
AcDbSymbolTableRecord
100
AcDbRegAppTableRecord
  2
GEVID1208999108
 70
     0
  0
APPID
  5
4C8
330
9
100
AcDbSymbolTableRecord
100
AcDbRegAppTableRecord
  2
GEVID1208999109
 70
     0
  0
APPID
  5
4C9
330
9
100
AcDbSymbolTableRecord
100
AcDbRegAppTableRecord
  2
GEVID1208999110
 70
     0
  0
APPID
  5
4CA
330
9
100
AcDbSymbolTableRecord
100
AcDbRegAppTableRecord
  2
GEVID1208999111
 70
     0
  0
APPID
  5
4CB
330
9
100
AcDbSymbolTableRecord
100
AcDbRegAppTableRecord
  2
GEVID1208999112
 70
     0
  0
APPID
  5
4CC
330
9
100
AcDbSymbolTableRecord
100
AcDbRegAppTableRecord
  2
GEVID1208999113
 70
     0
  0
APPID
  5
4CD
330
9
100
AcDbSymbolTableRecord
100
AcDbRegAppTableRecord
  2
GEVID1208999114
 70
     0
  0
APPID
  5
4CE
330
9
100
AcDbSymbolTableRecord
100
AcDbRegAppTableRecord
  2
GEVID1210218799
 70
     0
  0
APPID
  5
4CF
330
9
100
AcDbSymbolTableRecord
100
AcDbRegAppTableRecord
  2
GEVID1210218800
 70
     0
  0
APPID
  5
4D0
330
9
100
AcDbSymbolTableRecord
100
AcDbRegAppTableRecord
  2
GENIUS_GEFWELD_13
 70
     0
  0
APPID
  5
4D1
330
9
100
AcDbSymbolTableRecord
100
AcDbRegAppTableRecord
  2
GENIUS_GENOBJ-F-WELS_13
 70
     0
  0
APPID
  5
4D2
330
9
100
AcDbSymbolTableRecord
100
AcDbRegAppTableRecord
  2
AcadAnnotative
 70
     0
  0
APPID
  5
4D3
330
9
100
AcDbSymbolTableRecord
100
AcDbRegAppTableRecord
  2
GEVID1210145339
 70
     0
  0
APPID
  5
4D4
330
9
100
AcDbSymbolTableRecord
100
AcDbRegAppTableRecord
  2
ACAD_DSTYLE_DIMBREAK
 70
     0
  0
APPID
  5
4D5
330
9
100
AcDbSymbolTableRecord
100
AcDbRegAppTableRecord
  2
GEVID1210145340
 70
     0
  0
APPID
  5
4D6
330
9
100
AcDbSymbolTableRecord
100
AcDbRegAppTableRecord
  2
GEVID1210145341
 70
     0
  0
APPID
  5
4D7
330
9
100
AcDbSymbolTableRecord
100
AcDbRegAppTableRecord
  2
GEVID1210145342
 70
     0
  0
APPID
  5
4D8
330
9
100
AcDbSymbolTableRecord
100
AcDbRegAppTableRecord
  2
GEVID1210145343
 70
     0
  0
APPID
  5
4D9
330
9
100
AcDbSymbolTableRecord
100
AcDbRegAppTableRecord
  2
GEVID1210145344
 70
     0
  0
APPID
  5
4DA
330
9
100
AcDbSymbolTableRecord
100
AcDbRegAppTableRecord
  2
GEVID1210145345
 70
     0
  0
APPID
  5
4DB
330
9
100
AcDbSymbolTableRecord
100
AcDbRegAppTableRecord
  2
GEVID1210152816
 70
     0
  0
APPID
  5
4DC
330
9
100
AcDbSymbolTableRecord
100
AcDbRegAppTableRecord
  2
GEVID1210153850
 70
     0
  0
APPID
  5
4DD
330
9
100
AcDbSymbolTableRecord
100
AcDbRegAppTableRecord
  2
GEVID1210153851
 70
     0
  0
APPID
  5
4DE
330
9
100
AcDbSymbolTableRecord
100
AcDbRegAppTableRecord
  2
GEVID1210153852
 70
     0
  0
APPID
  5
4DF
330
9
100
AcDbSymbolTableRecord
100
AcDbRegAppTableRecord
  2
GEVID1210549898
 70
     0
  0
APPID
  5
4E0
330
9
100
AcDbSymbolTableRecord
100
AcDbRegAppTableRecord
  2
GEVID1210549899
 70
     0
  0
APPID
  5
4E1
330
9
100
AcDbSymbolTableRecord
100
AcDbRegAppTableRecord
  2
GEVID1210549900
 70
     0
  0
APPID
  5
4E2
330
9
100
AcDbSymbolTableRecord
100
AcDbRegAppTableRecord
  2
GEVID1210549901
 70
     0
  0
APPID
  5
4E3
330
9
100
AcDbSymbolTableRecord
100
AcDbRegAppTableRecord
  2
GEVID1210549902
 70
     0
  0
APPID
  5
4E4
330
9
100
AcDbSymbolTableRecord
100
AcDbRegAppTableRecord
  2
GEVID1210549903
 70
     0
  0
APPID
  5
4E5
330
9
100
AcDbSymbolTableRecord
100
AcDbRegAppTableRecord
  2
GEVID1210549904
 70
     0
  0
APPID
  5
4E6
330
9
100
AcDbSymbolTableRecord
100
AcDbRegAppTableRecord
  2
GEVID1210549905
 70
     0
  0
APPID
  5
4E7
330
9
100
AcDbSymbolTableRecord
100
AcDbRegAppTableRecord
  2
GEVID1210549906
 70
     0
  0
APPID
  5
4E8
330
9
100
AcDbSymbolTableRecord
100
AcDbRegAppTableRecord
  2
GEVID1210549907
 70
     0
  0
APPID
  5
4E9
330
9
100
AcDbSymbolTableRecord
100
AcDbRegAppTableRecord
  2
GEVID1210549908
 70
     0
  0
APPID
  5
4EA
330
9
100
AcDbSymbolTableRecord
100
AcDbRegAppTableRecord
  2
GEVID1210549909
 70
     0
  0
APPID
  5
4EB
330
9
100
AcDbSymbolTableRecord
100
AcDbRegAppTableRecord
  2
GEVID1210549910
 70
     0
  0
APPID
  5
4EC
330
9
100
AcDbSymbolTableRecord
100
AcDbRegAppTableRecord
  2
GEVID1210549911
 70
     0
  0
APPID
  5
4ED
330
9
100
AcDbSymbolTableRecord
100
AcDbRegAppTableRecord
  2
GEVID1210549912
 70
     0
  0
APPID
  5
4EE
330
9
100
AcDbSymbolTableRecord
100
AcDbRegAppTableRecord
  2
GEVID1210549913
 70
     0
  0
APPID
  5
4EF
330
9
100
AcDbSymbolTableRecord
100
AcDbRegAppTableRecord
  2
GEVID1210549914
 70
     0
  0
APPID
  5
4F0
330
9
100
AcDbSymbolTableRecord
100
AcDbRegAppTableRecord
  2
GEVID1210549915
 70
     0
  0
APPID
  5
4F1
330
9
100
AcDbSymbolTableRecord
100
AcDbRegAppTableRecord
  2
GEVID1210549916
 70
     0
  0
APPID
  5
4F2
330
9
100
AcDbSymbolTableRecord
100
AcDbRegAppTableRecord
  2
GEVID1210549917
 70
     0
  0
APPID
  5
4F3
330
9
100
AcDbSymbolTableRecord
100
AcDbRegAppTableRecord
  2
GENIUS_GENOBJ-N-CRS_13
 70
     0
  0
APPID
  5
4F4
330
9
100
AcDbSymbolTableRecord
100
AcDbRegAppTableRecord
  2
GEVID1210549918
 70
     0
  0
APPID
  5
4F5
330
9
100
AcDbSymbolTableRecord
100
AcDbRegAppTableRecord
  2
GENIUS_GENOBJ-N-CRC_13
 70
     0
  0
APPID
  5
4F6
330
9
100
AcDbSymbolTableRecord
100
AcDbRegAppTableRecord
  2
GENIUS_GENCRC_14
 70
     0
  0
APPID
  5
4F7
330
9
100
AcDbSymbolTableRecord
100
AcDbRegAppTableRecord
  2
GEVID1210549919
 70
     0
  0
APPID
  5
4F8
330
9
100
AcDbSymbolTableRecord
100
AcDbRegAppTableRecord
  2
GEVID1210549921
 70
     0
  0
APPID
  5
4F9
330
9
100
AcDbSymbolTableRecord
100
AcDbRegAppTableRecord
  2
GEVID1210549922
 70
     0
  0
APPID
  5
4FA
330
9
100
AcDbSymbolTableRecord
100
AcDbRegAppTableRecord
  2
GEVID1210635173
 70
     0
  0
APPID
  5
4FB
330
9
100
AcDbSymbolTableRecord
100
AcDbRegAppTableRecord
  2
GEVID1210635174
 70
     0
  0
APPID
  5
4FC
330
9
100
AcDbSymbolTableRecord
100
AcDbRegAppTableRecord
  2
GEVID1210635175
 70
     0
  0
APPID
  5
4FD
330
9
100
AcDbSymbolTableRecord
100
AcDbRegAppTableRecord
  2
GEVID1210635176
 70
     0
  0
APPID
  5
4FE
330
9
100
AcDbSymbolTableRecord
100
AcDbRegAppTableRecord
  2
GEVID1210635177
 70
     0
  0
APPID
  5
4FF
330
9
100
AcDbSymbolTableRecord
100
AcDbRegAppTableRecord
  2
GEVID1210635178
 70
     0
  0
APPID
  5
500
330
9
100
AcDbSymbolTableRecord
100
AcDbRegAppTableRecord
  2
GENIUS_GENIUS_GENBHEDTMP_13
 70
     0
  0
APPID
  5
501
330
9
100
AcDbSymbolTableRecord
100
AcDbRegAppTableRecord
  2
GEVID1210635179
 70
     0
  0
APPID
  5
502
330
9
100
AcDbSymbolTableRecord
100
AcDbRegAppTableRecord
  2
GEVID1210635180
 70
     0
  0
APPID
  5
503
330
9
100
AcDbSymbolTableRecord
100
AcDbRegAppTableRecord
  2
GEVID1210635181
 70
     0
  0
APPID
  5
504
330
9
100
AcDbSymbolTableRecord
100
AcDbRegAppTableRecord
  2
GEVID1210635182
 70
     0
  0
APPID
  5
505
330
9
100
AcDbSymbolTableRecord
100
AcDbRegAppTableRecord
  2
GEVID1210635184
 70
     0
  0
APPID
  5
506
330
9
100
AcDbSymbolTableRecord
100
AcDbRegAppTableRecord
  2
GEVID1210635185
 70
     0
  0
APPID
  5
507
330
9
100
AcDbSymbolTableRecord
100
AcDbRegAppTableRecord
  2
GEVID1210635186
 70
     0
  0
APPID
  5
508
330
9
100
AcDbSymbolTableRecord
100
AcDbRegAppTableRecord
  2
GEVID1210635187
 70
     0
  0
APPID
  5
509
330
9
100
AcDbSymbolTableRecord
100
AcDbRegAppTableRecord
  2
GEVID1210635188
 70
     0
  0
APPID
  5
50A
330
9
100
AcDbSymbolTableRecord
100
AcDbRegAppTableRecord
  2
GEVID1210635189
 70
     0
  0
APPID
  5
50B
330
9
100
AcDbSymbolTableRecord
100
AcDbRegAppTableRecord
  2
GEVID1210635190
 70
     0
  0
APPID
  5
50C
330
9
100
AcDbSymbolTableRecord
100
AcDbRegAppTableRecord
  2
GENIUS_GENREC_14
 70
     0
  0
APPID
  5
50D
330
9
100
AcDbSymbolTableRecord
100
AcDbRegAppTableRecord
  2
GENIUS_GENOBJ-N-REC_13
 70
     0
  0
APPID
  5
50E
330
9
100
AcDbSymbolTableRecord
100
AcDbRegAppTableRecord
  2
GEVID1210676655
 70
     0
  0
APPID
  5
50F
330
9
100
AcDbSymbolTableRecord
100
AcDbRegAppTableRecord
  2
GEVID1210676656
 70
     0
  0
APPID
  5
510
330
9
100
AcDbSymbolTableRecord
100
AcDbRegAppTableRecord
  2
GEVID1210676657
 70
     0
  0
APPID
  5
511
330
9
100
AcDbSymbolTableRecord
100
AcDbRegAppTableRecord
  2
GEVID1210676659
 70
     0
  0
APPID
  5
512
330
9
100
AcDbSymbolTableRecord
100
AcDbRegAppTableRecord
  2
GEVID1210676660
 70
     0
  0
APPID
  5
513
330
9
100
AcDbSymbolTableRecord
100
AcDbRegAppTableRecord
  2
GEVID1210676661
 70
     0
  0
APPID
  5
514
330
9
100
AcDbSymbolTableRecord
100
AcDbRegAppTableRecord
  2
GEVID1210676662
 70
     0
  0
APPID
  5
515
330
9
100
AcDbSymbolTableRecord
100
AcDbRegAppTableRecord
  2
GEVID1210721646
 70
     0
  0
APPID
  5
516
330
9
100
AcDbSymbolTableRecord
100
AcDbRegAppTableRecord
  2
GEVID1210721647
 70
     0
  0
APPID
  5
517
330
9
100
AcDbSymbolTableRecord
100
AcDbRegAppTableRecord
  2
GEVID1210721648
 70
     0
  0
APPID
  5
518
330
9
100
AcDbSymbolTableRecord
100
AcDbRegAppTableRecord
  2
GEVID1210721649
 70
     0
  0
APPID
  5
519
330
9
100
AcDbSymbolTableRecord
100
AcDbRegAppTableRecord
  2
GEVID1210721650
 70
     0
  0
APPID
  5
51A
330
9
100
AcDbSymbolTableRecord
100
AcDbRegAppTableRecord
  2
GEVID1210721651
 70
     0
  0
APPID
  5
51B
330
9
100
AcDbSymbolTableRecord
100
AcDbRegAppTableRecord
  2
GEVID1210721652
 70
     0
  0
APPID
  5
51C
330
9
100
AcDbSymbolTableRecord
100
AcDbRegAppTableRecord
  2
GEVID1210721653
 70
     0
  0
APPID
  5
51D
330
9
100
AcDbSymbolTableRecord
100
AcDbRegAppTableRecord
  2
PE_URL
 70
     0
  0
APPID
  5
51E
330
9
100
AcDbSymbolTableRecord
100
AcDbRegAppTableRecord
  2
GEVID1210825555
 70
     0
  0
APPID
  5
51F
330
9
100
AcDbSymbolTableRecord
100
AcDbRegAppTableRecord
  2
GEVID1210825556
 70
     0
  0
APPID
  5
520
330
9
100
AcDbSymbolTableRecord
100
AcDbRegAppTableRecord
  2
GEVID1210825557
 70
     0
  0
APPID
  5
521
330
9
100
AcDbSymbolTableRecord
100
AcDbRegAppTableRecord
  2
GEVID1210825558
 70
     0
  0
APPID
  5
522
330
9
100
AcDbSymbolTableRecord
100
AcDbRegAppTableRecord
  2
GEVID1210825559
 70
     0
  0
APPID
  5
523
330
9
100
AcDbSymbolTableRecord
100
AcDbRegAppTableRecord
  2
GEVID1210825560
 70
     0
  0
APPID
  5
524
330
9
100
AcDbSymbolTableRecord
100
AcDbRegAppTableRecord
  2
GEVID1210825561
 70
     0
  0
APPID
  5
525
330
9
100
AcDbSymbolTableRecord
100
AcDbRegAppTableRecord
  2
GEVID1210825562
 70
     0
  0
APPID
  5
526
330
9
100
AcDbSymbolTableRecord
100
AcDbRegAppTableRecord
  2
GEVID1210825563
 70
     0
  0
APPID
  5
527
330
9
100
AcDbSymbolTableRecord
100
AcDbRegAppTableRecord
  2
GEVID1210825564
 70
     0
  0
APPID
  5
528
330
9
100
AcDbSymbolTableRecord
100
AcDbRegAppTableRecord
  2
GEVID1210825565
 70
     0
  0
APPID
  5
529
330
9
100
AcDbSymbolTableRecord
100
AcDbRegAppTableRecord
  2
GEVID1210825566
 70
     0
  0
APPID
  5
52A
330
9
100
AcDbSymbolTableRecord
100
AcDbRegAppTableRecord
  2
GEVID1210825567
 70
     0
  0
APPID
  5
52B
330
9
100
AcDbSymbolTableRecord
100
AcDbRegAppTableRecord
  2
GENIUS_GENOBJ-N-ZOO_13
 70
     0
  0
APPID
  5
52C
330
9
100
AcDbSymbolTableRecord
100
AcDbRegAppTableRecord
  2
GENIUS_GENZOO_17
 70
     0
  0
APPID
  5
52D
330
9
100
AcDbSymbolTableRecord
100
AcDbRegAppTableRecord
  2
ACADANNOTATIVEDECOMPOSITION
 70
     0
  0
APPID
  5
52E
330
9
100
AcDbSymbolTableRecord
100
AcDbRegAppTableRecord
  2
GENIUS_GENOBJ-N-HTC_13
 70
     0
  0
APPID
  5
52F
330
9
100
AcDbSymbolTableRecord
100
AcDbRegAppTableRecord
  2
GENIUS_GENHATCH_13
 70
     0
  0
APPID
  5
530
330
9
100
AcDbSymbolTableRecord
100
AcDbRegAppTableRecord
  2
GEVID1210896020
 70
     0
  0
APPID
  5
531
330
9
100
AcDbSymbolTableRecord
100
AcDbRegAppTableRecord
  2
GEVID1210896021
 70
     0
  0
APPID
  5
532
330
9
100
AcDbSymbolTableRecord
100
AcDbRegAppTableRecord
  2
GEVID1209083540
 70
     0
  0
APPID
  5
533
330
9
100
AcDbSymbolTableRecord
100
AcDbRegAppTableRecord
  2
GEVMK
 70
     0
  0
APPID
  5
534
330
9
100
AcDbSymbolTableRecord
100
AcDbRegAppTableRecord
  2
GEVID1209083542
 70
     0
  0
APPID
  5
535
330
9
100
AcDbSymbolTableRecord
100
AcDbRegAppTableRecord
  2
GEVID1209083543
 70
     0
  0
APPID
  5
536
330
9
100
AcDbSymbolTableRecord
100
AcDbRegAppTableRecord
  2
GEVID1209083544
 70
     0
  0
APPID
  5
537
330
9
100
AcDbSymbolTableRecord
100
AcDbRegAppTableRecord
  2
GEVID1209083545
 70
     0
  0
APPID
  5
538
330
9
100
AcDbSymbolTableRecord
100
AcDbRegAppTableRecord
  2
GEVID1209083546
 70
     0
  0
APPID
  5
539
330
9
100
AcDbSymbolTableRecord
100
AcDbRegAppTableRecord
  2
GEVID1209083547
 70
     0
  0
APPID
  5
53A
330
9
100
AcDbSymbolTableRecord
100
AcDbRegAppTableRecord
  2
GEVID1209083548
 70
     0
  0
APPID
  5
53B
330
9
100
AcDbSymbolTableRecord
100
AcDbRegAppTableRecord
  2
GEVID1209083549
 70
     0
  0
APPID
  5
53C
330
9
100
AcDbSymbolTableRecord
100
AcDbRegAppTableRecord
  2
GEVID1209083550
 70
     0
  0
APPID
  5
53D
330
9
100
AcDbSymbolTableRecord
100
AcDbRegAppTableRecord
  2
GEVID1209083551
 70
     0
  0
APPID
  5
53E
330
9
100
AcDbSymbolTableRecord
100
AcDbRegAppTableRecord
  2
GEVID1209083552
 70
     0
  0
APPID
  5
53F
330
9
100
AcDbSymbolTableRecord
100
AcDbRegAppTableRecord
  2
GEVID1209083553
 70
     0
  0
APPID
  5
540
330
9
100
AcDbSymbolTableRecord
100
AcDbRegAppTableRecord
  2
GEVID1210896022
 70
     0
  0
APPID
  5
541
330
9
100
AcDbSymbolTableRecord
100
AcDbRegAppTableRecord
  2
GEVID1211508364
 70
     0
  0
APPID
  5
542
330
9
100
AcDbSymbolTableRecord
100
AcDbRegAppTableRecord
  2
GEVID1211414908
 70
     0
  0
APPID
  5
543
330
9
100
AcDbSymbolTableRecord
100
AcDbRegAppTableRecord
  2
GEVID1211414909
 70
     0
  0
APPID
  5
544
330
9
100
AcDbSymbolTableRecord
100
AcDbRegAppTableRecord
  2
GEVID1211508359
 70
     0
  0
APPID
  5
545
330
9
100
AcDbSymbolTableRecord
100
AcDbRegAppTableRecord
  2
GEVID1211508360
 70
     0
  0
APPID
  5
546
330
9
100
AcDbSymbolTableRecord
100
AcDbRegAppTableRecord
  2
GEVID1211508361
 70
     0
  0
APPID
  5
547
330
9
100
AcDbSymbolTableRecord
100
AcDbRegAppTableRecord
  2
GEVID1211508362
 70
     0
  0
APPID
  5
548
330
9
100
AcDbSymbolTableRecord
100
AcDbRegAppTableRecord
  2
GEVID1211508363
 70
     0
  0
APPID
  5
549
330
9
100
AcDbSymbolTableRecord
100
AcDbRegAppTableRecord
  2
GEVID1211878469
 70
     0
  0
APPID
  5
54A
330
9
100
AcDbSymbolTableRecord
100
AcDbRegAppTableRecord
  2
GEVID1212642819
 70
     0
  0
APPID
  5
54B
330
9
100
AcDbSymbolTableRecord
100
AcDbRegAppTableRecord
  2
GEVID1212642820
 70
     0
  0
APPID
  5
54C
330
9
100
AcDbSymbolTableRecord
100
AcDbRegAppTableRecord
  2
GEVID1212642821
 70
     0
  0
APPID
  5
54D
330
9
100
AcDbSymbolTableRecord
100
AcDbRegAppTableRecord
  2
GEVID1212642822
 70
     0
  0
APPID
  5
54E
330
9
100
AcDbSymbolTableRecord
100
AcDbRegAppTableRecord
  2
GEVID1212642823
 70
     0
  0
APPID
  5
54F
330
9
100
AcDbSymbolTableRecord
100
AcDbRegAppTableRecord
  2
GEVID1212642825
 70
     0
  0
APPID
  5
550
330
9
100
AcDbSymbolTableRecord
100
AcDbRegAppTableRecord
  2
GEVID1212642826
 70
     0
  0
APPID
  5
551
330
9
100
AcDbSymbolTableRecord
100
AcDbRegAppTableRecord
  2
GEVID1212642827
 70
     0
  0
APPID
  5
552
330
9
100
AcDbSymbolTableRecord
100
AcDbRegAppTableRecord
  2
GEVID1212642828
 70
     0
  0
APPID
  5
553
330
9
100
AcDbSymbolTableRecord
100
AcDbRegAppTableRecord
  2
GEVID1212642831
 70
     0
  0
APPID
  5
554
330
9
100
AcDbSymbolTableRecord
100
AcDbRegAppTableRecord
  2
GEVID1212642834
 70
     0
  0
APPID
  5
555
330
9
100
AcDbSymbolTableRecord
100
AcDbRegAppTableRecord
  2
GEVID1212642835
 70
     0
  0
APPID
  5
556
330
9
100
AcDbSymbolTableRecord
100
AcDbRegAppTableRecord
  2
GEVID1212642836
 70
     0
  0
APPID
  5
557
330
9
100
AcDbSymbolTableRecord
100
AcDbRegAppTableRecord
  2
GEVID1212642837
 70
     0
  0
APPID
  5
558
330
9
100
AcDbSymbolTableRecord
100
AcDbRegAppTableRecord
  2
GEVID1212642839
 70
     0
  0
APPID
  5
559
330
9
100
AcDbSymbolTableRecord
100
AcDbRegAppTableRecord
  2
GEVID1212642840
 70
     0
  0
APPID
  5
55A
330
9
100
AcDbSymbolTableRecord
100
AcDbRegAppTableRecord
  2
GEVID1212642841
 70
     0
  0
APPID
  5
55B
330
9
100
AcDbSymbolTableRecord
100
AcDbRegAppTableRecord
  2
GEVID1212655312
 70
     0
  0
APPID
  5
55C
330
9
100
AcDbSymbolTableRecord
100
AcDbRegAppTableRecord
  2
GEVID1212655313
 70
     0
  0
APPID
  5
55D
330
9
100
AcDbSymbolTableRecord
100
AcDbRegAppTableRecord
  2
GEVID1212656533
 70
     0
  0
APPID
  5
55E
330
9
100
AcDbSymbolTableRecord
100
AcDbRegAppTableRecord
  2
GEVID1212656534
 70
     0
  0
APPID
  5
55F
330
9
100
AcDbSymbolTableRecord
100
AcDbRegAppTableRecord
  2
GEVID1212656535
 70
     0
  0
APPID
  5
560
330
9
100
AcDbSymbolTableRecord
100
AcDbRegAppTableRecord
  2
GEVID1212656536
 70
     0
  0
APPID
  5
561
330
9
100
AcDbSymbolTableRecord
100
AcDbRegAppTableRecord
  2
GEVID1212656538
 70
     0
  0
APPID
  5
562
330
9
100
AcDbSymbolTableRecord
100
AcDbRegAppTableRecord
  2
GEVID1212656541
 70
     0
  0
APPID
  5
563
330
9
100
AcDbSymbolTableRecord
100
AcDbRegAppTableRecord
  2
GEVID1212656543
 70
     0
  0
APPID
  5
564
330
9
100
AcDbSymbolTableRecord
100
AcDbRegAppTableRecord
  2
GENIUS_GENOBJ-F-PFASSM_13
 70
     0
  0
APPID
  5
565
330
9
100
AcDbSymbolTableRecord
100
AcDbRegAppTableRecord
  2
GEVID1212656544
 70
     0
  0
APPID
  5
566
330
9
100
AcDbSymbolTableRecord
100
AcDbRegAppTableRecord
  2
GEVID1212656545
 70
     0
  0
APPID
  5
567
330
9
100
AcDbSymbolTableRecord
100
AcDbRegAppTableRecord
  2
GEVID1212656546
 70
     0
  0
APPID
  5
568
330
9
100
AcDbSymbolTableRecord
100
AcDbRegAppTableRecord
  2
GEVID1212656547
 70
     0
  0
APPID
  5
569
330
9
100
AcDbSymbolTableRecord
100
AcDbRegAppTableRecord
  2
GEVID1212656548
 70
     0
  0
APPID
  5
56A
330
9
100
AcDbSymbolTableRecord
100
AcDbRegAppTableRecord
  2
GEVID1212656549
 70
     0
  0
APPID
  5
56B
330
9
100
AcDbSymbolTableRecord
100
AcDbRegAppTableRecord
  2
GEVID1212656550
 70
     0
  0
APPID
  5
56C
330
9
100
AcDbSymbolTableRecord
100
AcDbRegAppTableRecord
  2
GEVID1212656552
 70
     0
  0
APPID
  5
56D
330
9
100
AcDbSymbolTableRecord
100
AcDbRegAppTableRecord
  2
GEVID1212656553
 70
     0
  0
APPID
  5
56E
330
9
100
AcDbSymbolTableRecord
100
AcDbRegAppTableRecord
  2
GEVID1212656554
 70
     0
  0
APPID
  5
56F
330
9
100
AcDbSymbolTableRecord
100
AcDbRegAppTableRecord
  2
GEVID1212656555
 70
     0
  0
APPID
  5
570
330
9
100
AcDbSymbolTableRecord
100
AcDbRegAppTableRecord
  2
GEVID1212656556
 70
     0
  0
APPID
  5
571
330
9
100
AcDbSymbolTableRecord
100
AcDbRegAppTableRecord
  2
GEVID1212656557
 70
     0
  0
APPID
  5
572
330
9
100
AcDbSymbolTableRecord
100
AcDbRegAppTableRecord
  2
GEVID1212656559
 70
     0
  0
APPID
  5
573
330
9
100
AcDbSymbolTableRecord
100
AcDbRegAppTableRecord
  2
GEVID1212656560
 70
     0
  0
APPID
  5
574
330
9
100
AcDbSymbolTableRecord
100
AcDbRegAppTableRecord
  2
GEVID1212656561
 70
     0
  0
APPID
  5
575
330
9
100
AcDbSymbolTableRecord
100
AcDbRegAppTableRecord
  2
GEVID1212656562
 70
     0
  0
APPID
  5
576
330
9
100
AcDbSymbolTableRecord
100
AcDbRegAppTableRecord
  2
GEVID1212656563
 70
     0
  0
APPID
  5
577
330
9
100
AcDbSymbolTableRecord
100
AcDbRegAppTableRecord
  2
GEVID1212711781
 70
     0
  0
APPID
  5
578
330
9
100
AcDbSymbolTableRecord
100
AcDbRegAppTableRecord
  2
GEVID1212711782
 70
     0
  0
APPID
  5
579
330
9
100
AcDbSymbolTableRecord
100
AcDbRegAppTableRecord
  2
GEVID1212711783
 70
     0
  0
APPID
  5
57A
330
9
100
AcDbSymbolTableRecord
100
AcDbRegAppTableRecord
  2
GEVID1212711784
 70
     0
  0
APPID
  5
57B
330
9
100
AcDbSymbolTableRecord
100
AcDbRegAppTableRecord
  2
GEVID1212711788
 70
     0
  0
APPID
  5
57C
330
9
100
AcDbSymbolTableRecord
100
AcDbRegAppTableRecord
  2
GEVID1212711789
 70
     0
  0
APPID
  5
57D
330
9
100
AcDbSymbolTableRecord
100
AcDbRegAppTableRecord
  2
GEVID1212711790
 70
     0
  0
APPID
  5
57E
330
9
100
AcDbSymbolTableRecord
100
AcDbRegAppTableRecord
  2
GEVID1212711791
 70
     0
  0
APPID
  5
57F
330
9
100
AcDbSymbolTableRecord
100
AcDbRegAppTableRecord
  2
GEVID1212711792
 70
     0
  0
APPID
  5
580
330
9
100
AcDbSymbolTableRecord
100
AcDbRegAppTableRecord
  2
GEVID1212711793
 70
     0
  0
APPID
  5
581
330
9
100
AcDbSymbolTableRecord
100
AcDbRegAppTableRecord
  2
GEVID1212711794
 70
     0
  0
APPID
  5
582
330
9
100
AcDbSymbolTableRecord
100
AcDbRegAppTableRecord
  2
GEVID1212711795
 70
     0
  0
APPID
  5
583
330
9
100
AcDbSymbolTableRecord
100
AcDbRegAppTableRecord
  2
GEVID1212711797
 70
     0
  0
APPID
  5
584
330
9
100
AcDbSymbolTableRecord
100
AcDbRegAppTableRecord
  2
GEVID1212711798
 70
     0
  0
APPID
  5
585
330
9
100
AcDbSymbolTableRecord
100
AcDbRegAppTableRecord
  2
GEVID1212711799
 70
     0
  0
APPID
  5
586
330
9
100
AcDbSymbolTableRecord
100
AcDbRegAppTableRecord
  2
GEVID1212711800
 70
     0
  0
APPID
  5
587
330
9
100
AcDbSymbolTableRecord
100
AcDbRegAppTableRecord
  2
GEVID1212711801
 70
     0
  0
APPID
  5
588
330
9
100
AcDbSymbolTableRecord
100
AcDbRegAppTableRecord
  2
GEVID1212711802
 70
     0
  0
APPID
  5
589
330
9
100
AcDbSymbolTableRecord
100
AcDbRegAppTableRecord
  2
GEVID1212711803
 70
     0
  0
APPID
  5
58A
330
9
100
AcDbSymbolTableRecord
100
AcDbRegAppTableRecord
  2
GEVID1212711804
 70
     0
  0
APPID
  5
58B
330
9
100
AcDbSymbolTableRecord
100
AcDbRegAppTableRecord
  2
GEVID1212711805
 70
     0
  0
APPID
  5
58C
330
9
100
AcDbSymbolTableRecord
100
AcDbRegAppTableRecord
  2
GEVID1212711806
 70
     0
  0
APPID
  5
58D
330
9
100
AcDbSymbolTableRecord
100
AcDbRegAppTableRecord
  2
GEVID1212711807
 70
     0
  0
APPID
  5
58E
330
9
100
AcDbSymbolTableRecord
100
AcDbRegAppTableRecord
  2
GEVID1212711808
 70
     0
  0
APPID
  5
58F
330
9
100
AcDbSymbolTableRecord
100
AcDbRegAppTableRecord
  2
GEVID1212711809
 70
     0
  0
APPID
  5
590
330
9
100
AcDbSymbolTableRecord
100
AcDbRegAppTableRecord
  2
GEVID1212711810
 70
     0
  0
APPID
  5
591
330
9
100
AcDbSymbolTableRecord
100
AcDbRegAppTableRecord
  2
GEVID1212711811
 70
     0
  0
APPID
  5
90A
330
9
100
AcDbSymbolTableRecord
100
AcDbRegAppTableRecord
  2
GENIUS_GENTRA_14
 70
     0
  0
APPID
  5
919
330
9
100
AcDbSymbolTableRecord
100
AcDbRegAppTableRecord
  2
GENIUS_GENOBJ-N-TIT_13
 70
     0
  0
APPID
  5
91A
330
9
100
AcDbSymbolTableRecord
100
AcDbRegAppTableRecord
  2
GENIUS_GENTITLE_13
 70
     0
  0
APPID
  5
949
330
9
100
AcDbSymbolTableRecord
100
AcDbRegAppTableRecord
  2
GENIUS_GENBLLY_14
 70
     0
  0
APPID
  5
DDD
330
9
100
AcDbSymbolTableRecord
100
AcDbRegAppTableRecord
  2
GEVID1213165152
 70
     0
  0
APPID
  5
12F9
330
9
100
AcDbSymbolTableRecord
100
AcDbRegAppTableRecord
  2
AcDbDynamicBlockTrueName
 70
     0
  0
APPID
  5
12FA
330
9
100
AcDbSymbolTableRecord
100
AcDbRegAppTableRecord
  2
ACDBBLOCKREPETAG
 70
     0
  0
APPID
  5
1C15
330
9
100
AcDbSymbolTableRecord
100
AcDbRegAppTableRecord
  2
GEVID1214872427
 70
     0
  0
APPID
  5
1C2A
330
9
100
AcDbSymbolTableRecord
100
AcDbRegAppTableRecord
  2
GEVID1214872428
 70
     0
  0
APPID
  5
1C2F
330
9
100
AcDbSymbolTableRecord
100
AcDbRegAppTableRecord
  2
GEVID1214872429
 70
     0
  0
APPID
  5
1C33
330
9
100
AcDbSymbolTableRecord
100
AcDbRegAppTableRecord
  2
GEVID1214872430
 70
     0
  0
APPID
  5
1C3F
330
9
100
AcDbSymbolTableRecord
100
AcDbRegAppTableRecord
  2
GEVID1214872432
 70
     0
  0
APPID
  5
1C4E
330
9
100
AcDbSymbolTableRecord
100
AcDbRegAppTableRecord
  2
GEVID1214872433
 70
     0
  0
APPID
  5
20DC
330
9
100
AcDbSymbolTableRecord
100
AcDbRegAppTableRecord
  2
AcDbDynamicBlockGUID
 70
     0
  0
APPID
  5
20FD
330
9
100
AcDbSymbolTableRecord
100
AcDbRegAppTableRecord
  2
GENIUS_GENOBJ-N-REV_13
 70
     0
  0
APPID
  5
20FE
330
9
100
AcDbSymbolTableRecord
100
AcDbRegAppTableRecord
  2
GENIUS_GENOBJ-N-RSSYM_13
 70
     0
  0
APPID
  5
20FF
330
9
100
AcDbSymbolTableRecord
100
AcDbRegAppTableRecord
  2
GENIUS_GENSYMENT_13
 70
     0
  0
APPID
  5
2100
330
9
100
AcDbSymbolTableRecord
100
AcDbRegAppTableRecord
  2
GENIUS_GENSCSYM_13
 70
     0
  0
ENDTAB
  0
TABLE
  2
DIMSTYLE
  5
A
330
0
100
AcDbSymbolTable
 70
    29
100
AcDbDimStyleTable
 71
     1
340
5AB
  0
DIMSTYLE
105
5AB
330
A
100
AcDbSymbolTableRecord
100
AcDbDimStyleTableRecord
  2
SEISA
 70
     0
  4
"
 40
2.0
 41
2.5
 42
0.625
 43
10.0
 44
0.625
 47
0.1
 48
0.1
 73
     0
 74
     0
 77
     3
 78
     8
 79
     2
 90
     1
140
3.5
141
0.0
143
0.0393701
146
0.71
147
1.5
172
     1
176
     3
177
     3
178
     3
271
     2
272
     2
283
     0
286
     8
340
5D5
341
69
342
69
371
    -1
372
    -1
1001
ACAD_DSTYLE_DIMJAG
1070
   388
1040
1.5
1001
ACAD_DSTYLE_DIMTALN
1070
   392
1070
     1
  0
DIMSTYLE
105
5E9
102
{ACAD_REACTORS
330
5C46
330
5C5E
330
5C76
330
5CD8
330
5F33
330
5F87
330
5F9F
330
5FD7
330
5FEF
330
6476
330
64DA
330
92D9
330
930B
330
9C6E
330
9C95
330
9D95
330
9DE7
330
9E0E
330
9F15
330
A0CE
102
}
330
A
100
AcDbSymbolTableRecord
100
AcDbDimStyleTableRecord
  2
SEISA$0
 70
     0
  4
"
 40
2.0
 41
2.5
 42
0.625
 43
10.0
 44
0.625
 47
0.1
 48
0.1
 73
     0
 74
     0
 77
     3
 78
     8
 79
     2
 90
     1
140
3.5
141
0.0
143
0.0393701
146
0.71
147
1.5
172
     1
176
     3
177
     3
178
     3
271
     2
272
     2
283
     0
286
     8
340
5D5
341
69
342
69
371
    -1
372
    -1
  0
DIMSTYLE
105
A413
330
A
100
AcDbSymbolTableRecord
100
AcDbDimStyleTableRecord
  2
AM_ISO
 70
     0
  4
"
 41
2.5
 42
1.0
 43
10.0
 44
1.0
 47
0.1
 48
0.1
 73
     0
 74
     0
 77
     1
 78
     8
 79
     2
 90
     1
140
3.5
141
0.0
143
0.0393701
146
0.71
147
1.5
172
     1
176
   256
177
   256
178
     2
271
     2
272
     3
274
     4
283
     0
284
     8
340
11
371
    -1
372
    -1
  0
DIMSTYLE
105
A414
330
A
100
AcDbSymbolTableRecord
100
AcDbDimStyleTableRecord
  2
AM_ISO$3
 70
     0
  4
"
 41
2.5
 42
1.0
 43
10.0
 44
1.0
 47
0.1
 48
0.1
 73
     0
 77
     1
 78
     8
 79
     2
 90
     1
140
3.5
141
0.0
143
0.0393701
146
0.71
147
1.5
176
   256
177
   256
178
     2
271
     2
272
     3
274
     4
283
     0
284
     8
288
     1
289
     0
340
11
371
    -1
372
    -1
  0
DIMSTYLE
105
A415
330
A
100
AcDbSymbolTableRecord
100
AcDbDimStyleTableRecord
  2
AM_ISO$4
 70
     0
  4
"
 41
2.5
 42
1.0
 43
10.0
 44
1.0
 47
0.1
 48
0.1
 73
     0
 77
     1
 78
     8
 79
     2
 90
     1
140
3.5
141
0.0
143
0.0393701
146
0.71
147
1.5
176
   256
177
   256
178
     2
271
     2
272
     3
274
     4
283
     0
284
     8
288
     1
289
     0
340
11
371
    -1
372
    -1
  0
DIMSTYLE
105
A416
330
A
100
AcDbSymbolTableRecord
100
AcDbDimStyleTableRecord
  2
AM_ISO$6
 70
     0
  4
"
 41
2.5
 42
1.0
 43
10.0
 44
1.0
 47
0.1
 48
0.1
 73
     0
 74
     0
 78
     8
 79
     2
 90
     1
140
3.5
141
0.0
143
0.0393701
146
0.71
147
1.5
172
     1
176
   256
177
   256
178
     2
271
     2
272
     3
274
     4
283
     0
284
     8
340
11
371
    -1
372
    -1
  0
DIMSTYLE
105
A417
330
A
100
AcDbSymbolTableRecord
100
AcDbDimStyleTableRecord
  2
AM_ISO$7
 70
     0
  4
"
 41
2.5
 42
1.0
 43
10.0
 44
1.0
 47
0.1
 48
0.1
 73
     0
 74
     0
 77
     1
 78
     8
 79
     2
 90
     1
140
5.0
141
0.0
143
0.0393701
146
0.71
147
1.5
172
     1
176
   256
177
   256
178
     2
271
     2
272
     3
274
     4
283
     0
284
     8
340
11
371
    -1
372
    -1
  0
DIMSTYLE
105
A418
330
A
100
AcDbSymbolTableRecord
100
AcDbDimStyleTableRecord
  2
AM_ISO$SF
 70
     0
  4
"
 41
2.5
 42
1.0
 43
10.0
 44
1.0
 47
0.1
 48
0.1
 73
     0
 74
     0
 75
     1
 76
     1
 77
     1
 78
     8
 79
     2
 90
     1
140
3.5
141
0.0
143
0.0393701
146
0.71
147
1.5
172
     1
176
   256
177
   256
178
     2
271
     2
272
     3
274
     4
283
     0
284
     8
340
11
371
    -1
372
    -1
  0
DIMSTYLE
105
A419
330
A
100
AcDbSymbolTableRecord
100
AcDbDimStyleTableRecord
  2
AM_ISO$SH
 70
     0
  4
"
 41
2.5
 42
1.0
 43
10.0
 44
1.0
 47
0.1
 48
0.1
 73
     0
 74
     0
 75
     1
 76
     1
 77
     1
 78
     8
 79
     2
 90
     1
140
3.5
141
0.0
143
0.0393701
144
2.0
146
0.71
147
1.5
172
     1
173
     1
176
   256
177
   256
178
     2
271
     2
272
     3
274
     4
283
     0
284
     8
340
11
343
74
371
    -1
372
    -1
  0
ENDTAB
  0
TABLE
  2
BLOCK_RECORD
  5
1
330
0
100
AcDbSymbolTable
 70
    39
  0
BLOCK_RECORD
  5
1F
102
{ACAD_XDICTIONARY
360
82
102
}
330
1
100
AcDbSymbolTableRecord
100
AcDbBlockTableRecord
  2
*Model_Space
340
22
 70
     0
280
     1
281
     0
  0
BLOCK_RECORD
  5
1B
330
1
100
AcDbSymbolTableRecord
100
AcDbBlockTableRecord
  2
*Paper_Space
340
1E
 70
     0
280
     1
281
     0
  0
BLOCK_RECORD
  5
23
330
1
100
AcDbSymbolTableRecord
100
AcDbBlockTableRecord
  2
*Paper_Space0
340
26
 70
     0
280
     1
281
     0
  0
BLOCK_RECORD
  5
69
330
1
100
AcDbSymbolTableRecord
100
AcDbBlockTableRecord
  2
_Open30
340
0
102
{BLKREFS
331
967A
331
967B
331
9683
331
9684
331
968C
331
968D
331
9698
331
96A3
331
96AB
331
96AC
331
96B4
331
96B5
331
96C5
331
96C6
331
96CE
331
96CF
331
9732
331
9733
331
977E
331
9789
331
9D40
331
9D41
331
9DC1
331
9DC2
331
9E30
331
9EB8
331
9EEF
331
9EF0
331
9F6E
331
9F6F
331
A0FB
331
A0FC
102
}
 70
     0
280
     1
281
     0
  0
BLOCK_RECORD
  5
74
330
1
100
AcDbSymbolTableRecord
100
AcDbBlockTableRecord
  2
GENAXEH
340
0
 70
     0
280
     1
281
     0
  0
BLOCK_RECORD
  5
3966
102
{ACAD_XDICTIONARY
360
3967
102
}
330
1
100
AcDbSymbolTableRecord
100
AcDbBlockTableRecord
  2
ロッカクアナツキプラグ-1　R1／8
340
0
310
2800000020000000200000000100080000000000000400000000000000000000000000000000000000000000000080000080000000808000800000008000800080800000C0C0C000C0DCC000F0CAA6000020400000206000002080000020A0000020C0000020E00000400000004020000040400000406000004080000040A0
310
000040C0000040E00000600000006020000060400000606000006080000060A0000060C0000060E00000800000008020000080400000806000008080000080A0000080C0000080E00000A0000000A0200000A0400000A0600000A0800000A0A00000A0C00000A0E00000C0000000C0200000C0400000C0600000C0800000C0
310
A00000C0C00000C0E00000E0000000E0200000E0400000E0600000E0800000E0A00000E0C00000E0E00040000000400020004000400040006000400080004000A0004000C0004000E00040200000402020004020400040206000402080004020A0004020C0004020E000404000004040200040404000404060004040800040
310
40A0004040C0004040E00040600000406020004060400040606000406080004060A0004060C0004060E00040800000408020004080400040806000408080004080A0004080C0004080E00040A0000040A0200040A0400040A0600040A0800040A0A00040A0C00040A0E00040C0000040C0200040C0400040C0600040C08000
310
40C0A00040C0C00040C0E00040E0000040E0200040E0400040E0600040E0800040E0A00040E0C00040E0E00080000000800020008000400080006000800080008000A0008000C0008000E00080200000802020008020400080206000802080008020A0008020C0008020E00080400000804020008040400080406000804080
310
008040A0008040C0008040E00080600000806020008060400080606000806080008060A0008060C0008060E00080800000808020008080400080806000808080008080A0008080C0008080E00080A0000080A0200080A0400080A0600080A0800080A0A00080A0C00080A0E00080C0000080C0200080C0400080C0600080C0
310
800080C0A00080C0C00080C0E00080E0000080E0200080E0400080E0600080E0800080E0A00080E0C00080E0E000C0000000C0002000C0004000C0006000C0008000C000A000C000C000C000E000C0200000C0202000C0204000C0206000C0208000C020A000C020C000C020E000C0400000C0402000C0404000C0406000C0
310
408000C040A000C040C000C040E000C0600000C0602000C0604000C0606000C0608000C060A000C060C000C060E000C0800000C0802000C0804000C0806000C0808000C080A000C080C000C080E000C0A00000C0A02000C0A04000C0A06000C0A08000C0A0A000C0A0C000C0A0E000C0C00000C0C02000C0C04000C0C06000
310
C0C08000C0C0A000F0FBFF00A4A0A000808080000000FF0000FF000000FFFF00FF000000FF00FF00FFFF0000FFFFFF00000000000000000000000000000000000000000000000000000000000000000000000000000000000000000000000000F9000000000000000000000000000000000000000000000000000000000000
310
00F900000000000000000000000000000000000000000000000000000000000000F90000000000000000000000000000000000000000000000000000000000FEFEF9000000000000000000000000000000000000000000000000000000FEFEFFFFF9FEFEFEFE000000000000000000000000000000000000000000FEFEFFFF
310
0000F900FFFF00FE000000000000000000000000000000000000FEFEFFFF00000000F9000000FFFFFE00000000000000000000000000000000FE00FF000000000000F90000000000FFFEFE00000000000000000000000000FE00FF00000000000000F9000000000000FFFE00000000000000000000000000FE00FF00000000
310
000000FF00000000000000FFFE0000000000000000000000FE00FF000000000000FFFFF9FF000000000000FFFE0000000000000000000000FE00FF00000000FFFF0000F900FFFF0000000000FFFE00000000000000000000FEFF00000000FF00000000F9000000FF00000000FFFE00000000000000000000FEFF00000000FF
310
00000000F9000000FF00000000FFFE00000000000000000000FE0000000000FF00000000F9000000FF0000000000FFFE0000000000F9F9F9F9FEF9F9F9F9F9FFF9F9F9F9F9F9F9F9FFF9F9F9F9F9FFFEF9F9F9000000000000FEFF00000000FF00000000F9000000FF0000000000FFFE000000000000000000FEFF00000000
310
FF00000000F9000000FF00000000FFFE00000000000000000000FE00FF00000000FFFF0000F90000FF0000000000FFFE00000000000000000000FE00FF000000000000FFFFF9FFFF0000000000FFFE000000000000000000000000FE00FF00000000000000FF00000000000000FFFE000000000000000000000000FE00FF00
310
000000000000F9000000000000FFFE0000000000000000000000000000FE00FF000000000000F90000000000FF00FE000000000000000000000000000000FE00FF0000000000F900000000FFFEFE0000000000000000000000000000000000FEFEFFFF000000F90000FFFFFE00000000000000000000000000000000000000
310
0000FEFEFEFFFFF9FEFEFEFE00000000000000000000000000000000000000000000000000FEFEF900000000000000000000000000000000000000000000000000000000000000F900000000000000000000000000000000000000000000000000000000000000F90000000000000000000000000000000000000000000000
310
0000000000000000F90000000000000000000000000000000000000000000000000000000000000000000000000000000000000000000000
102
{BLKREFS
331
4EF1
102
}
 70
     4
280
     1
281
     0
  0
BLOCK_RECORD
  5
3AF8
330
1
100
AcDbSymbolTableRecord
100
AcDbBlockTableRecord
  2
GENDOT
340
0
102
{BLKREFS
331
9697
331
96A2
331
977D
331
9788
331
9E31
331
9ED5
331
9ED6
102
}
 70
     0
280
     1
281
     0
  0
BLOCK_RECORD
  5
3B98
102
{ACAD_XDICTIONARY
360
4E1C
102
}
330
1
100
AcDbSymbolTableRecord
100
AcDbBlockTableRecord
  2
ロッカクアナツキプラグ-2　R1／8
340
0
310
2800000020000000200000000100080000000000000400000000000000000000000000000000000000000000000080000080000000808000800000008000800080800000C0C0C000C0DCC000F0CAA6000020400000206000002080000020A0000020C0000020E00000400000004020000040400000406000004080000040A0
310
000040C0000040E00000600000006020000060400000606000006080000060A0000060C0000060E00000800000008020000080400000806000008080000080A0000080C0000080E00000A0000000A0200000A0400000A0600000A0800000A0A00000A0C00000A0E00000C0000000C0200000C0400000C0600000C0800000C0
310
A00000C0C00000C0E00000E0000000E0200000E0400000E0600000E0800000E0A00000E0C00000E0E00040000000400020004000400040006000400080004000A0004000C0004000E00040200000402020004020400040206000402080004020A0004020C0004020E000404000004040200040404000404060004040800040
310
40A0004040C0004040E00040600000406020004060400040606000406080004060A0004060C0004060E00040800000408020004080400040806000408080004080A0004080C0004080E00040A0000040A0200040A0400040A0600040A0800040A0A00040A0C00040A0E00040C0000040C0200040C0400040C0600040C08000
310
40C0A00040C0C00040C0E00040E0000040E0200040E0400040E0600040E0800040E0A00040E0C00040E0E00080000000800020008000400080006000800080008000A0008000C0008000E00080200000802020008020400080206000802080008020A0008020C0008020E00080400000804020008040400080406000804080
310
008040A0008040C0008040E00080600000806020008060400080606000806080008060A0008060C0008060E00080800000808020008080400080806000808080008080A0008080C0008080E00080A0000080A0200080A0400080A0600080A0800080A0A00080A0C00080A0E00080C0000080C0200080C0400080C0600080C0
310
800080C0A00080C0C00080C0E00080E0000080E0200080E0400080E0600080E0800080E0A00080E0C00080E0E000C0000000C0002000C0004000C0006000C0008000C000A000C000C000C000E000C0200000C0202000C0204000C0206000C0208000C020A000C020C000C020E000C0400000C0402000C0404000C0406000C0
310
408000C040A000C040C000C040E000C0600000C0602000C0604000C0606000C0608000C060A000C060C000C060E000C0800000C0802000C0804000C0806000C0808000C080A000C080C000C080E000C0A00000C0A02000C0A04000C0A06000C0A08000C0A0A000C0A0C000C0A0E000C0C00000C0C02000C0C04000C0C06000
310
C0C08000C0C0A000F0FBFF00A4A0A000808080000000FF0000FF000000FFFF00FF000000FF00FF00FFFF0000FFFFFF000000000000000000000000000000000000000000000000000000000000000000000000000000000000000000000000F900000000000000000000000000000000000000000000000000000000000000
310
F900000000000000000000000000000000000000000000000000000000000000F9000000000000000000000000000000000000000000000000000000000000FEF900000000000000000000000000000000000000000000000000000000FEFEFFF9FEFEFEFEFE000000000000000000000000000000000000000000FEFEFFFF
310
00F90000FFFF00FE000000000000000000000000000000000000FEFEFFFF000000F900000000FFFFFE00000000000000000000000000000000FE00FF0000000000F9000000000000FFFEFE00000000000000000000000000FE00FF000000000000F900000000000000FFFE00000000000000000000000000FE00FF00000000
310
0000FF0000000000000000FFFE0000000000000000000000FE00FF000000000000FFF9FFFF000000000000FFFE0000000000000000000000FE00FF00000000FFFF00F90000FFFF0000000000FFFE00000000000000000000FEFF00000000FF000000F900000000FF00000000FFFE00000000000000000000FEFF0000000000
310
000000F9000000000000000000FFFE00000000000000000000FE000000000000000000F900000000000000000000FFFE0000000000F9F9F9F9FEF9F9F9F9F9F9F9F9F9F9F9F9F9F9F9F9F9F9F9F9FFFEF9F9F9000000000000FEFF0000000000000000F900000000000000000000FFFE000000000000000000FEFF00000000
310
FF000000F900000000FF00000000FFFE00000000000000000000FE00FF00000000FF0000F90000FFFF0000000000FFFE00000000000000000000FE00FF0000000000FFFFF9FFFF000000000000FFFE000000000000000000000000FE00FF000000000000FF0000000000000000FFFE000000000000000000000000FE00FF00
310
0000000000F900000000000000FFFE0000000000000000000000000000FE00FF0000000000F9000000000000FF00FE000000000000000000000000000000FE00FF00000000F90000000000FFFEFE0000000000000000000000000000000000FEFEFFFF0000F9000000FFFFFE00000000000000000000000000000000000000
310
0000FEFEFEFFF9FFFEFEFEFE00000000000000000000000000000000000000000000000000FEF9FE000000000000000000000000000000000000000000000000000000000000F900000000000000000000000000000000000000000000000000000000000000F9000000000000000000000000000000000000000000000000
310
00000000000000F9000000000000000000000000000000000000000000000000000000000000000000000000000000000000000000000000
102
{BLKREFS
331
5047
102
}
 70
     4
280
     1
281
     0
  0
BLOCK_RECORD
  5
4EB5
102
{ACAD_XDICTIONARY
360
4F92
102
}
330
1
100
AcDbSymbolTableRecord
100
AcDbBlockTableRecord
  2
ケースＡ-1 SAM140
340
0
310
2800000020000000200000000100080000000000000400000000000000000000000000000000000000000000000080000080000000808000800000008000800080800000C0C0C000C0DCC000F0CAA6000020400000206000002080000020A0000020C0000020E00000400000004020000040400000406000004080000040A0
310
000040C0000040E00000600000006020000060400000606000006080000060A0000060C0000060E00000800000008020000080400000806000008080000080A0000080C0000080E00000A0000000A0200000A0400000A0600000A0800000A0A00000A0C00000A0E00000C0000000C0200000C0400000C0600000C0800000C0
310
A00000C0C00000C0E00000E0000000E0200000E0400000E0600000E0800000E0A00000E0C00000E0E00040000000400020004000400040006000400080004000A0004000C0004000E00040200000402020004020400040206000402080004020A0004020C0004020E000404000004040200040404000404060004040800040
310
40A0004040C0004040E00040600000406020004060400040606000406080004060A0004060C0004060E00040800000408020004080400040806000408080004080A0004080C0004080E00040A0000040A0200040A0400040A0600040A0800040A0A00040A0C00040A0E00040C0000040C0200040C0400040C0600040C08000
310
40C0A00040C0C00040C0E00040E0000040E0200040E0400040E0600040E0800040E0A00040E0C00040E0E00080000000800020008000400080006000800080008000A0008000C0008000E00080200000802020008020400080206000802080008020A0008020C0008020E00080400000804020008040400080406000804080
310
008040A0008040C0008040E00080600000806020008060400080606000806080008060A0008060C0008060E00080800000808020008080400080806000808080008080A0008080C0008080E00080A0000080A0200080A0400080A0600080A0800080A0A00080A0C00080A0E00080C0000080C0200080C0400080C0600080C0
310
800080C0A00080C0C00080C0E00080E0000080E0200080E0400080E0600080E0800080E0A00080E0C00080E0E000C0000000C0002000C0004000C0006000C0008000C000A000C000C000C000E000C0200000C0202000C0204000C0206000C0208000C020A000C020C000C020E000C0400000C0402000C0404000C0406000C0
310
408000C040A000C040C000C040E000C0600000C0602000C0604000C0606000C0608000C060A000C060C000C060E000C0800000C0802000C0804000C0806000C0808000C080A000C080C000C080E000C0A00000C0A02000C0A04000C0A06000C0A08000C0A0A000C0A0C000C0A0E000C0C00000C0C02000C0C04000C0C06000
310
C0C08000C0C0A000F0FBFF00A4A0A000808080000000FF0000FF000000FFFF00FF000000FF00FF00FFFF0000FFFFFF0000000000000000000000000000000000000000000000000000000000000000000000000000000000000000FFFFFFFF00000000000000000000000000000000000000000000000000000000FF0000FF
310
00000000000000000000000000000000000000000000000000000000FF0000FF00000000000000000000000000000000000000000000000000000000FF0000FF00000000000000000000000000000000000000000000000000000000FF0000FFFFFFFFFFFFFFFF000000000000000000000000000000000000000000FF0000
310
FF000000000000FF000000000000000000000000000000000000000000FF0000FF000000000000FF000000000000000000000000000000000000000000FF0000FF000000000000FF000000000000000000000000000000000000000000FF00F9FF000000000000FF000000000000000000000000000000000000000000FFFF
310
FFFE000000000000FF000000000000000000000000000000000000000000FFFFFFFE000000000000FF000000000000000000000000000000000000000000FF00F9FF000000000000FF000000000000000000000000000000000000000000FF0000FF000000000000FF000000000000000000000000000000000000000000FF
310
0000FF000000000000FF000000000000000000000000000000000000000000FF0000FF000000000000FF000000000000000000000000000000000000000000FF0000FF000000000000FF0000000000000000000000000000000000000000000000000000000000000000000000000000000000000000000000000000000000
310
0000000000000000000000000000000000000000000000000000000000000000000000000000000000000000000000000000000000000000000000000000000000000000000000000000000000000000000000000000000000000000000000000000000000FAFAFAFAFAFAFAFAFA0000000000000000000000000000000000
310
0000000000000000FA0000FAFAFA0000000000000000000000000000000000000000000000000000FA0000FAFAFA0000000000000000000000000000000000000000000000FFA4A4FFFFFFFF000000000000000000000000000000000000000000FFFFFFFFFFFFFFFF0000FF00000000000000000000000000000000000000
310
0000FFFF0000FFFFFFFFFFFFFF000000000000000000000000000000000000000000FFFF00FF000000000000000000000000000000000000000000000000F9F9FFFFFFFFFFFFF9F9F900000000000000000000000000000000000000000000FFFFFFFFFFFFFF00000000000000000000000000000000000000000000000000
310
000000FFFFFFFF00000000000000000000000000000000000000000000000000000000000000000000000000000000000000000000000000
102
{BLKREFS
331
4EF2
102
}
 70
     4
280
     1
281
     0
  0
BLOCK_RECORD
  5
500B
102
{ACAD_XDICTIONARY
360
50DC
102
}
330
1
100
AcDbSymbolTableRecord
100
AcDbBlockTableRecord
  2
ケースＡ-2 SAM140
340
0
310
2800000020000000200000000100080000000000000400000000000000000000000000000000000000000000000080000080000000808000800000008000800080800000C0C0C000C0DCC000F0CAA6000020400000206000002080000020A0000020C0000020E00000400000004020000040400000406000004080000040A0
310
000040C0000040E00000600000006020000060400000606000006080000060A0000060C0000060E00000800000008020000080400000806000008080000080A0000080C0000080E00000A0000000A0200000A0400000A0600000A0800000A0A00000A0C00000A0E00000C0000000C0200000C0400000C0600000C0800000C0
310
A00000C0C00000C0E00000E0000000E0200000E0400000E0600000E0800000E0A00000E0C00000E0E00040000000400020004000400040006000400080004000A0004000C0004000E00040200000402020004020400040206000402080004020A0004020C0004020E000404000004040200040404000404060004040800040
310
40A0004040C0004040E00040600000406020004060400040606000406080004060A0004060C0004060E00040800000408020004080400040806000408080004080A0004080C0004080E00040A0000040A0200040A0400040A0600040A0800040A0A00040A0C00040A0E00040C0000040C0200040C0400040C0600040C08000
310
40C0A00040C0C00040C0E00040E0000040E0200040E0400040E0600040E0800040E0A00040E0C00040E0E00080000000800020008000400080006000800080008000A0008000C0008000E00080200000802020008020400080206000802080008020A0008020C0008020E00080400000804020008040400080406000804080
310
008040A0008040C0008040E00080600000806020008060400080606000806080008060A0008060C0008060E00080800000808020008080400080806000808080008080A0008080C0008080E00080A0000080A0200080A0400080A0600080A0800080A0A00080A0C00080A0E00080C0000080C0200080C0400080C0600080C0
310
800080C0A00080C0C00080C0E00080E0000080E0200080E0400080E0600080E0800080E0A00080E0C00080E0E000C0000000C0002000C0004000C0006000C0008000C000A000C000C000C000E000C0200000C0202000C0204000C0206000C0208000C020A000C020C000C020E000C0400000C0402000C0404000C0406000C0
310
408000C040A000C040C000C040E000C0600000C0602000C0604000C0606000C0608000C060A000C060C000C060E000C0800000C0802000C0804000C0806000C0808000C080A000C080C000C080E000C0A00000C0A02000C0A04000C0A06000C0A08000C0A0A000C0A0C000C0A0E000C0C00000C0C02000C0C04000C0C06000
310
C0C08000C0C0A000F0FBFF00A4A0A000808080000000FF0000FF000000FFFF00FF000000FF00FF00FFFF0000FFFFFF0000000000000000000000000000000000000000000000000000000000000000000000000000000000000000000000000000FFFFFFFF0000000000000000000000000000000000000000000000000000
310
0000FF0000FF000000000000000000000000000000000000000000000000000000F9F9F9F9F900000000000000000000000000000000000000000000000000000000FF0000FF000000000000000000000000000000000000000000FFFFFFFFFFFFFFFF0000FF000000000000000000000000000000000000000000FF000000
310
000000FF0000FF000000000000000000000000000000000000000000FF000000000000FF0000FF000000000000000000000000000000000000000000FF000000000000FF0000FF000000000000000000000000000000000000000000FF000000000000FFF900FF000000000000000000000000000000000000000000FF0000
310
00000000FEFFFFFF000000000000000000000000000000000000000000FF000000000000FEFFFFFF000000000000000000000000000000000000000000FF000000000000FFF900FF000000000000000000000000000000000000000000FF000000000000FF0000FF000000000000000000000000000000000000000000FF00
310
0000000000FF0000FF000000000000000000000000000000000000000000FF000000000000FF0000FF000000000000000000000000000000000000000000FF000000000000FF0000FF000000000000000000000000000000000000000000000000000000000000000000000000000000000000000000000000000000000000
310
0000000000000000000000000000000000000000000000000000000000000000000000000000000000000000000000000000000000000000000000000000000000000000000000000000000000000000000000000000000000000000FAFAFAFAFAFAFAFAFA000000000000000000000000000000000000000000000000FAFA
310
FA0000FA0000000000000000000000000000000000000000000000000000FAFAFA0000FA00000000000000000000000000000000000000000000000000000000FFFFFFFFA4F9FF00000000000000000000000000000000000000000000000000FF0000FFFFF9FFFFFFFFFF0000000000000000000000000000000000000000
310
00FFFFFFFFFFF9FF0000FFFF00000000000000000000000000000000000000000000000000000000FF00FFFF00000000000000000000000000000000000000000000000000F9F9F9F9F9F9F9F9F9F9F9000000000000000000000000000000000000000000000000FFFFFFFFFFFFFF00000000000000000000000000000000
310
000000000000000000FFFFFFFF00000000000000000000000000000000000000000000000000000000000000000000000000000000000000
102
{BLKREFS
331
5460
102
}
 70
     4
280
     1
281
     0
  0
BLOCK_RECORD
  5
512F
102
{ACAD_XDICTIONARY
360
517B
102
}
330
1
100
AcDbSymbolTableRecord
100
AcDbBlockTableRecord
  2
センタ-1 SAM140
340
0
310
2800000020000000200000000100080000000000000400000000000000000000000000000000000000000000000080000080000000808000800000008000800080800000C0C0C000C0DCC000F0CAA6000020400000206000002080000020A0000020C0000020E00000400000004020000040400000406000004080000040A0
310
000040C0000040E00000600000006020000060400000606000006080000060A0000060C0000060E00000800000008020000080400000806000008080000080A0000080C0000080E00000A0000000A0200000A0400000A0600000A0800000A0A00000A0C00000A0E00000C0000000C0200000C0400000C0600000C0800000C0
310
A00000C0C00000C0E00000E0000000E0200000E0400000E0600000E0800000E0A00000E0C00000E0E00040000000400020004000400040006000400080004000A0004000C0004000E00040200000402020004020400040206000402080004020A0004020C0004020E000404000004040200040404000404060004040800040
310
40A0004040C0004040E00040600000406020004060400040606000406080004060A0004060C0004060E00040800000408020004080400040806000408080004080A0004080C0004080E00040A0000040A0200040A0400040A0600040A0800040A0A00040A0C00040A0E00040C0000040C0200040C0400040C0600040C08000
310
40C0A00040C0C00040C0E00040E0000040E0200040E0400040E0600040E0800040E0A00040E0C00040E0E00080000000800020008000400080006000800080008000A0008000C0008000E00080200000802020008020400080206000802080008020A0008020C0008020E00080400000804020008040400080406000804080
310
008040A0008040C0008040E00080600000806020008060400080606000806080008060A0008060C0008060E00080800000808020008080400080806000808080008080A0008080C0008080E00080A0000080A0200080A0400080A0600080A0800080A0A00080A0C00080A0E00080C0000080C0200080C0400080C0600080C0
310
800080C0A00080C0C00080C0E00080E0000080E0200080E0400080E0600080E0800080E0A00080E0C00080E0E000C0000000C0002000C0004000C0006000C0008000C000A000C000C000C000E000C0200000C0202000C0204000C0206000C0208000C020A000C020C000C020E000C0400000C0402000C0404000C0406000C0
310
408000C040A000C040C000C040E000C0600000C0602000C0604000C0606000C0608000C060A000C060C000C060E000C0800000C0802000C0804000C0806000C0808000C080A000C080C000C080E000C0A00000C0A02000C0A04000C0A06000C0A08000C0A0A000C0A0C000C0A0E000C0C00000C0C02000C0C04000C0C06000
310
C0C08000C0C0A000F0FBFF00A4A0A000808080000000FF0000FF000000FFFF00FF000000FF00FF00FFFF0000FFFFFF000000000000000000000000000000000000000000000000000000000000000000000000000000000000000000000000000000FFFFFFFFFFFFFFFFFF0000000000000000000000000000000000000000
310
000000000000000000000000FF00000000000000000000000000000000000000000000000000000000000000FF00000000000000000000000000000000000000000000000000000000000000FF00000000000000000000000000000000000000000000000000000000000000FF000000000000000000000000000000000000
310
00000000000000000000000000FF00000000000000000000000000000000000000000000000000000000000000FF00000000000000000000000000000000000000000000000000000000000000FF00000000000000000000000000000000000000000000000000000000000000FF0000000000000000000000000000000000
310
0000000000000000000000000000FF00000000000000000000000000000000000000000000000000000000000000FF00000000000000000000000000000000000000000000000000000000000000FF00000000000000000000000000000000000000000000000000000000000000FF0000000000000000FF00000000000000
310
0000000000000000000000000000FFFF0000000000000000FF000000000000000000000000000000000000000000FFFF0000000000000000FF000000000000000000000000000000000000000000FFFF0000000000000000FF000000000000000000000000000000000000000000FFFF0000000000000000FF000000000000
310
000000000000000000000000000000FFFF0000000000000000FFFFFFFFFFFFFFFFFFFFFFFFFFFFFFFFFFFFFFFFFFFFFFFF0000000000000000FFFFFFFFFFFFFFFFFFFFFFFFFFFFFFFFFFFFFFFFFFFFFFFF0000000000000000FF00000000000000000000000000000000000000000000FF0000000000000000FF0000000000
310
0000000000000000000000000000000000FF0000000000000000FF00000000000000000000000000000000000000000000FF0000000000000000FF00000000000000000000000000000000000000000000FF0000000000000000FF00000000000000000000000000000000000000000000FF0000000000000000FFFFFFFFFF
310
FF000000FFFFFFFFFFFFFFFFFFFFFFFFFFFFFF00000000000000000000000000FF00F9FFFF0000000000000000000000000000000000000000000000000000F9FFFFF9F9FFF90000000000000000000000000000000000000000000000000000FFFFF9FFFF0000000000000000000000000000000000000000000000000000
310
000000F900000000000000000000000000000000000000000000000000000000000000000000000000000000000000000000000000000000
102
{BLKREFS
331
5148
102
}
 70
     4
280
     1
281
     0
  0
BLOCK_RECORD
  5
51AE
102
{ACAD_XDICTIONARY
360
51FC
102
}
330
1
100
AcDbSymbolTableRecord
100
AcDbBlockTableRecord
  2
センタ-2 SAM140
340
0
310
2800000020000000200000000100080000000000000400000000000000000000000000000000000000000000000080000080000000808000800000008000800080800000C0C0C000C0DCC000F0CAA6000020400000206000002080000020A0000020C0000020E00000400000004020000040400000406000004080000040A0
310
000040C0000040E00000600000006020000060400000606000006080000060A0000060C0000060E00000800000008020000080400000806000008080000080A0000080C0000080E00000A0000000A0200000A0400000A0600000A0800000A0A00000A0C00000A0E00000C0000000C0200000C0400000C0600000C0800000C0
310
A00000C0C00000C0E00000E0000000E0200000E0400000E0600000E0800000E0A00000E0C00000E0E00040000000400020004000400040006000400080004000A0004000C0004000E00040200000402020004020400040206000402080004020A0004020C0004020E000404000004040200040404000404060004040800040
310
40A0004040C0004040E00040600000406020004060400040606000406080004060A0004060C0004060E00040800000408020004080400040806000408080004080A0004080C0004080E00040A0000040A0200040A0400040A0600040A0800040A0A00040A0C00040A0E00040C0000040C0200040C0400040C0600040C08000
310
40C0A00040C0C00040C0E00040E0000040E0200040E0400040E0600040E0800040E0A00040E0C00040E0E00080000000800020008000400080006000800080008000A0008000C0008000E00080200000802020008020400080206000802080008020A0008020C0008020E00080400000804020008040400080406000804080
310
008040A0008040C0008040E00080600000806020008060400080606000806080008060A0008060C0008060E00080800000808020008080400080806000808080008080A0008080C0008080E00080A0000080A0200080A0400080A0600080A0800080A0A00080A0C00080A0E00080C0000080C0200080C0400080C0600080C0
310
800080C0A00080C0C00080C0E00080E0000080E0200080E0400080E0600080E0800080E0A00080E0C00080E0E000C0000000C0002000C0004000C0006000C0008000C000A000C000C000C000E000C0200000C0202000C0204000C0206000C0208000C020A000C020C000C020E000C0400000C0402000C0404000C0406000C0
310
408000C040A000C040C000C040E000C0600000C0602000C0604000C0606000C0608000C060A000C060C000C060E000C0800000C0802000C0804000C0806000C0808000C080A000C080C000C080E000C0A00000C0A02000C0A04000C0A06000C0A08000C0A0A000C0A0C000C0A0E000C0C00000C0C02000C0C04000C0C06000
310
C0C08000C0C0A000F0FBFF00A4A0A000808080000000FF0000FF000000FFFF00FF000000FF00FF00FFFF0000FFFFFF000000000000000000000000000000000000000000000000000000000000000000000000000000000000000000000000000000FFFFFFFF00000000000000000000000000000000000000000000000000
310
000000FF0000FF00000000000000000000000000000000000000000000000000000000FF0000FF00000000000000000000000000000000000000000000000000000000FF0000FF000000000000000000000000000000000000000000FFFFFFFFFFFFFFFF0000FF000000000000000000000000000000000000000000FF0000
310
00000000FF0000FF00000000000000000000000000000000FFFFFFFFFFFF000000000000FF0000FF00000000000000000000000000000000FF00000000FF000000000000FF0000FF00000000000000000000000000000000FF00000000FF000000000000FFF900FF00000000000000000000000000000000FF00000000FF00
310
0000000000FFFFFFFF00000000000000000000000000000000FF00000000FF000000000000FEFFFFF900000000000000000000000000000000FF00000000FF000000000000FFF900FF00000000000000000000000000000000FF00000000FF000000000000FF0000FF00000000000000000000000000000000FF00000000FF
310
000000000000FF0000FF00000000000000000000000000000000FF00000000FF000000000000FF0000FF00000000000000000000000000000000FF00000000FF000000000000FF00FFFF00000000000000000000000000000000FF00000000000000000000000000FF0000000000000000000000000000000000FF00000000
310
000000000000000000FF0000000000000000000000000000000000FFFFFFFFFFFFFFFFFFFFFFFFFFFFFF0000000000000000000000000000000000FFFFFFFFFFFFFFFFFFFFFFFFFFFFFF0000000000000000000000000000000000FF00000000000000000000000000FF0000000000000000000000000000000000FF000000
310
00000000000000000000FF0000000000000000000000000000000000FF00000000000000000000000000FF0000000000000000000000000000000000FFFFFFFFFFFFFFFFFFA4F9FFFFFFFF00000000000000000000000000000000000000000000FF0000FFFFF9FFFFFFFFFF00000000000000000000000000000000000000
310
0000FFFFFFFFFFF9FF0000FFFF00000000000000000000000000000000000000000000000000000000FF00FFFF0000000000000000000000000000000000000000000000000000F9F9F9F9F9F9F9F9F9F9000000000000000000000000000000000000000000000000FFFFFFFF000000000000000000000000000000000000
310
00000000000000000000FFFFFFFF000000000000000000000000000000000000000000000000000000000000000000000000000000000000
102
{BLKREFS
331
51C6
102
}
 70
     4
280
     1
281
     0
  0
BLOCK_RECORD
  5
5567
102
{ACAD_XDICTIONARY
360
55EE
102
}
330
1
100
AcDbSymbolTableRecord
100
AcDbBlockTableRecord
  2
リーマボルト-1 SAM140 M6
340
0
310
2800000020000000200000000100080000000000000400000000000000000000000000000000000000000000000080000080000000808000800000008000800080800000C0C0C000C0DCC000F0CAA6000020400000206000002080000020A0000020C0000020E00000400000004020000040400000406000004080000040A0
310
000040C0000040E00000600000006020000060400000606000006080000060A0000060C0000060E00000800000008020000080400000806000008080000080A0000080C0000080E00000A0000000A0200000A0400000A0600000A0800000A0A00000A0C00000A0E00000C0000000C0200000C0400000C0600000C0800000C0
310
A00000C0C00000C0E00000E0000000E0200000E0400000E0600000E0800000E0A00000E0C00000E0E00040000000400020004000400040006000400080004000A0004000C0004000E00040200000402020004020400040206000402080004020A0004020C0004020E000404000004040200040404000404060004040800040
310
40A0004040C0004040E00040600000406020004060400040606000406080004060A0004060C0004060E00040800000408020004080400040806000408080004080A0004080C0004080E00040A0000040A0200040A0400040A0600040A0800040A0A00040A0C00040A0E00040C0000040C0200040C0400040C0600040C08000
310
40C0A00040C0C00040C0E00040E0000040E0200040E0400040E0600040E0800040E0A00040E0C00040E0E00080000000800020008000400080006000800080008000A0008000C0008000E00080200000802020008020400080206000802080008020A0008020C0008020E00080400000804020008040400080406000804080
310
008040A0008040C0008040E00080600000806020008060400080606000806080008060A0008060C0008060E00080800000808020008080400080806000808080008080A0008080C0008080E00080A0000080A0200080A0400080A0600080A0800080A0A00080A0C00080A0E00080C0000080C0200080C0400080C0600080C0
310
800080C0A00080C0C00080C0E00080E0000080E0200080E0400080E0600080E0800080E0A00080E0C00080E0E000C0000000C0002000C0004000C0006000C0008000C000A000C000C000C000E000C0200000C0202000C0204000C0206000C0208000C020A000C020C000C020E000C0400000C0402000C0404000C0406000C0
310
408000C040A000C040C000C040E000C0600000C0602000C0604000C0606000C0608000C060A000C060C000C060E000C0800000C0802000C0804000C0806000C0808000C080A000C080C000C080E000C0A00000C0A02000C0A04000C0A06000C0A08000C0A0A000C0A0C000C0A0E000C0C00000C0C02000C0C04000C0C06000
310
C0C08000C0C0A000F0FBFF00A4A0A000808080000000FF0000FF000000FFFF00FF000000FF00FF00FFFF0000FFFFFF0000000000000000000000000000000000000000000000000000000000000000000000000000000000000000000000000000000000000000000000000000000000000000000000000000000000000000
310
00000000000000000000000000000000000000000000000000000000000000000000000000000000000000000000000000000000000000000000000000000000000000000000000000000000000000000000000000000000000000000000000000000000000000000000000000000000000000000000000000000000000000
310
00000000000000000000000000000000000000000000000000000000000000000000000000000000000000000000000000000000000000000000000000000000000000000000000000000000000000000000000000000000000000000000000000000000000000000000000000000000000000000000000000000000000000
310
0000000000000000000000000000000000000000000000000000000000000000000000000000000000000000000000000000000000FFFFFF00000000000000000000000000000000000000FFFFFFFFFF0000000000FF00FFFF000000000000000000000000000000FF000000FF0000FF00000000FFFF00FFFF000000000000
310
000000000000000000FFFFFFFFFFFFFFFFFFFF0000FFFF0000FF000000000000000000000000000000FFFF00FFFF0000FFFFFF0000FFFF0000FF000000000000000000000000000000FFFF0000FF0000FFFFFF0000FFFF00FFFF000000000000000000000000000000FFFFFFFFFFFFFFFFFFFF000000FF00FFFF0000000000
310
00000000000000000000FF000000FF0000FF0000000000FFFFFF00000000000000000000000000000000000000FFFFFFFFFF0000000000000000000000000000000000000000000000000000000000000000000000000000000000000000000000000000000000000000000000000000000000000000000000000000000000
310
00000000000000000000000000000000000000000000000000000000000000000000000000000000000000000000000000000000000000000000000000000000000000000000000000000000000000000000000000000000000000000000000000000000000000000000000000000000000000000000000000000000000000
310
00000000000000000000000000000000000000000000000000000000000000000000000000000000000000000000000000000000000000000000000000000000000000000000000000000000000000000000000000000000000000000000000000000000000000000000000000000000000000000000000000000000000000
310
0000000000000000000000000000000000000000000000000000000000000000000000000000000000000000000000000000000000000000
102
{BLKREFS
331
5591
102
}
 70
     4
280
     1
281
     0
  0
BLOCK_RECORD
  5
55F8
102
{ACAD_XDICTIONARY
360
567D
102
}
330
1
100
AcDbSymbolTableRecord
100
AcDbBlockTableRecord
  2
リーマボルト-2 SAM140 M6
340
0
310
2800000020000000200000000100080000000000000400000000000000000000000000000000000000000000000080000080000000808000800000008000800080800000C0C0C000C0DCC000F0CAA6000020400000206000002080000020A0000020C0000020E00000400000004020000040400000406000004080000040A0
310
000040C0000040E00000600000006020000060400000606000006080000060A0000060C0000060E00000800000008020000080400000806000008080000080A0000080C0000080E00000A0000000A0200000A0400000A0600000A0800000A0A00000A0C00000A0E00000C0000000C0200000C0400000C0600000C0800000C0
310
A00000C0C00000C0E00000E0000000E0200000E0400000E0600000E0800000E0A00000E0C00000E0E00040000000400020004000400040006000400080004000A0004000C0004000E00040200000402020004020400040206000402080004020A0004020C0004020E000404000004040200040404000404060004040800040
310
40A0004040C0004040E00040600000406020004060400040606000406080004060A0004060C0004060E00040800000408020004080400040806000408080004080A0004080C0004080E00040A0000040A0200040A0400040A0600040A0800040A0A00040A0C00040A0E00040C0000040C0200040C0400040C0600040C08000
310
40C0A00040C0C00040C0E00040E0000040E0200040E0400040E0600040E0800040E0A00040E0C00040E0E00080000000800020008000400080006000800080008000A0008000C0008000E00080200000802020008020400080206000802080008020A0008020C0008020E00080400000804020008040400080406000804080
310
008040A0008040C0008040E00080600000806020008060400080606000806080008060A0008060C0008060E00080800000808020008080400080806000808080008080A0008080C0008080E00080A0000080A0200080A0400080A0600080A0800080A0A00080A0C00080A0E00080C0000080C0200080C0400080C0600080C0
310
800080C0A00080C0C00080C0E00080E0000080E0200080E0400080E0600080E0800080E0A00080E0C00080E0E000C0000000C0002000C0004000C0006000C0008000C000A000C000C000C000E000C0200000C0202000C0204000C0206000C0208000C020A000C020C000C020E000C0400000C0402000C0404000C0406000C0
310
408000C040A000C040C000C040E000C0600000C0602000C0604000C0606000C0608000C060A000C060C000C060E000C0800000C0802000C0804000C0806000C0808000C080A000C080C000C080E000C0A00000C0A02000C0A04000C0A06000C0A08000C0A0A000C0A0C000C0A0E000C0C00000C0C02000C0C04000C0C06000
310
C0C08000C0C0A000F0FBFF00A4A0A000808080000000FF0000FF000000FFFF00FF000000FF00FF00FFFF0000FFFFFF0000000000000000000000000000000000000000000000000000000000000000000000000000000000000000000000000000000000000000000000000000000000000000000000000000000000000000
310
00000000000000000000000000000000000000000000000000000000000000000000000000000000000000000000000000000000000000000000000000000000000000000000000000000000000000000000000000000000000000000000000000000000000000000000000000000000000000000000000000000000000000
310
00000000000000000000000000000000000000000000000000000000000000000000000000000000000000000000000000000000000000000000000000000000000000000000000000000000000000000000000000000000000000000000000000000000000000000000000000000000000000000000000000000000000000
310
000000000000000000000000000000000000000000000000000000000000000000000000000000000000000000000000000000000000FFFFFFFFFF00000000000000000000000000000000000000FFFFFF0000000000FF0000FF000000FF000000000000000000000000000000FFFF00FF000000FFFFFFFFFFFFFFFFFFFF00
310
0000000000000000000000000000FFFF00FFFF0000FFFFFF0000FF0000FFFF000000000000000000000000000000FF0000FFFF0000FFFFFF0000FFFF00FFFF000000000000000000000000000000FF0000FFFF0000FFFFFFFFFFFFFFFFFFFF000000000000000000000000000000FFFF00FFFF00000000FF0000FF000000FF
310
000000000000000000000000000000FFFF00FF0000000000FFFFFFFFFF00000000000000000000000000000000000000FFFFFF00000000000000000000000000000000000000000000000000000000000000000000000000000000000000000000000000000000000000000000000000000000000000000000000000000000
310
00000000000000000000000000000000000000000000000000000000000000000000000000000000000000000000000000000000000000000000000000000000000000000000000000000000000000000000000000000000000000000000000000000000000000000000000000000000000000000000000000000000000000
310
00000000000000000000000000000000000000000000000000000000000000000000000000000000000000000000000000000000000000000000000000000000000000000000000000000000000000000000000000000000000000000000000000000000000000000000000000000000000000000000000000000000000000
310
0000000000000000000000000000000000000000000000000000000000000000000000000000000000000000000000000000000000000000
102
{BLKREFS
331
5622
102
}
 70
     4
280
     1
281
     0
  0
BLOCK_RECORD
  5
5C47
330
1
100
AcDbSymbolTableRecord
100
AcDbBlockTableRecord
  2
*D15
340
0
 70
     0
280
     1
281
     0
  0
BLOCK_RECORD
  5
5C5F
330
1
100
AcDbSymbolTableRecord
100
AcDbBlockTableRecord
  2
*D16
340
0
 70
     0
280
     1
281
     0
  0
BLOCK_RECORD
  5
5C77
330
1
100
AcDbSymbolTableRecord
100
AcDbBlockTableRecord
  2
*D17
340
0
 70
     0
280
     1
281
     0
  0
BLOCK_RECORD
  5
5CD9
330
1
100
AcDbSymbolTableRecord
100
AcDbBlockTableRecord
  2
*D18
340
0
 70
     0
280
     1
281
     0
  0
BLOCK_RECORD
  5
5F34
330
1
100
AcDbSymbolTableRecord
100
AcDbBlockTableRecord
  2
*D19
340
0
 70
     0
280
     1
281
     0
  0
BLOCK_RECORD
  5
5F88
330
1
100
AcDbSymbolTableRecord
100
AcDbBlockTableRecord
  2
*D20
340
0
 70
     0
280
     1
281
     0
  0
BLOCK_RECORD
  5
5FA0
330
1
100
AcDbSymbolTableRecord
100
AcDbBlockTableRecord
  2
*D21
340
0
 70
     0
280
     1
281
     0
  0
BLOCK_RECORD
  5
5FD8
330
1
100
AcDbSymbolTableRecord
100
AcDbBlockTableRecord
  2
*D22
340
0
 70
     0
280
     1
281
     0
  0
BLOCK_RECORD
  5
5FF0
330
1
100
AcDbSymbolTableRecord
100
AcDbBlockTableRecord
  2
*D23
340
0
 70
     0
280
     1
281
     0
  0
BLOCK_RECORD
  5
6477
330
1
100
AcDbSymbolTableRecord
100
AcDbBlockTableRecord
  2
*D24
340
0
 70
     0
280
     1
281
     0
  0
BLOCK_RECORD
  5
64DB
330
1
100
AcDbSymbolTableRecord
100
AcDbBlockTableRecord
  2
*D25
340
0
 70
     0
280
     1
281
     0
  0
BLOCK_RECORD
  5
7BD1
102
{ACAD_XDICTIONARY
360
7D43
102
}
330
1
100
AcDbSymbolTableRecord
100
AcDbBlockTableRecord
  2
ＧＣスペーサ SAMY140
340
0
310
2800000020000000200000000100080000000000000400000000000000000000000000000000000000000000000080000080000000808000800000008000800080800000C0C0C000C0DCC000F0CAA6000020400000206000002080000020A0000020C0000020E00000400000004020000040400000406000004080000040A0
310
000040C0000040E00000600000006020000060400000606000006080000060A0000060C0000060E00000800000008020000080400000806000008080000080A0000080C0000080E00000A0000000A0200000A0400000A0600000A0800000A0A00000A0C00000A0E00000C0000000C0200000C0400000C0600000C0800000C0
310
A00000C0C00000C0E00000E0000000E0200000E0400000E0600000E0800000E0A00000E0C00000E0E00040000000400020004000400040006000400080004000A0004000C0004000E00040200000402020004020400040206000402080004020A0004020C0004020E000404000004040200040404000404060004040800040
310
40A0004040C0004040E00040600000406020004060400040606000406080004060A0004060C0004060E00040800000408020004080400040806000408080004080A0004080C0004080E00040A0000040A0200040A0400040A0600040A0800040A0A00040A0C00040A0E00040C0000040C0200040C0400040C0600040C08000
310
40C0A00040C0C00040C0E00040E0000040E0200040E0400040E0600040E0800040E0A00040E0C00040E0E00080000000800020008000400080006000800080008000A0008000C0008000E00080200000802020008020400080206000802080008020A0008020C0008020E00080400000804020008040400080406000804080
310
008040A0008040C0008040E00080600000806020008060400080606000806080008060A0008060C0008060E00080800000808020008080400080806000808080008080A0008080C0008080E00080A0000080A0200080A0400080A0600080A0800080A0A00080A0C00080A0E00080C0000080C0200080C0400080C0600080C0
310
800080C0A00080C0C00080C0E00080E0000080E0200080E0400080E0600080E0800080E0A00080E0C00080E0E000C0000000C0002000C0004000C0006000C0008000C000A000C000C000C000E000C0200000C0202000C0204000C0206000C0208000C020A000C020C000C020E000C0400000C0402000C0404000C0406000C0
310
408000C040A000C040C000C040E000C0600000C0602000C0604000C0606000C0608000C060A000C060C000C060E000C0800000C0802000C0804000C0806000C0808000C080A000C080C000C080E000C0A00000C0A02000C0A04000C0A06000C0A08000C0A0A000C0A0C000C0A0E000C0C00000C0C02000C0C04000C0C06000
310
C0C08000C0C0A000F0FBFF00A4A0A000808080000000FF0000FF000000FFFF00FF000000FF00FF00FFFF0000FFFFFF0000000000000000000000000000000000000000000000000000000000000000000000000000000000000000000000000000000000000000000000000000000000000000000000000000000000000000
310
00000000000000000000000000000000000000FFFFFFFF0000000000000000000000000000000000000000FFFFFFFF00000000FFF9F9FF0000000000000000000000000000000000000000FFF9F9F900000000FF0000FFFF00000000000000000000000000000000000000FF0000FF00000000FF0000FFFFFFFFFFFFFFFFFF
310
FFFFFFFFFFFFFFFFFFFFFFFFFF0000FF00000000FF0000FFFF000000000000000000FE000000000000000000FF0000FF00000000FF0000FFFF0000000000000000FEFE000000000000000000FF0000FF00000000FF0000FFFF0000000000000000FEFE000000000000000000FF0000FF00000000FF0000FFFF000000000000
310
000000FE000000000000000000FF0000FF00000000FF0000FFFF000000000000000000FE000000000000000000FF0000FF00000000FF0000FFFF0000000000000000FEFE000000000000000000FF0000FF00000000FF0000FFFF0000000000000000FEFE000000000000000000FF0000FF00000000FF0000FFFF0000000000
310
000000FEFE000000000000000000FF0000FF00000000FF0000FFFF000000000000000000FE000000000000000000FF0000FF000000F9FFFFF9FFFFFFF9F9F9F9F9F9F9F9FEF9F9F9F9F9F9F9FFF9FFF9FFFFF9000000FFFF000000FF00000000000000FEFE00000000000000FF000000FFFF00000000FFFF000000FF000000
310
00000000FEFE00000000000000FF000000FFFF00000000FFFF000000FF00000000000000FEFE00000000000000FF000000FFFF00000000FFFF000000FF0000000000000000FE00000000000000FF000000FFFF00000000FFFF000000FF0000000000000000FE00000000000000FF000000FFFF00000000FFFF000000FF0000
310
0000000000FEFE00000000000000FF000000FFFF00000000FFFF0000FFFFFFFFFFFFFFFFFFFEFEFFFFFFFFFFFFFFFFFF0000FFFF00000000FFFF0000FFF9FF00000000000000FE00000000000000FFF9FF00FFFF00000000FFFF0000FFFFFFFFFFFFFFFFFFFFFEFFFFFFFFFFFFFFFFF9FF00FFFF00000000FFFFFFFFFF0000
310
00000000000000000000000000000000FFFFFFFFFF00000000FFF9F9FF0000000000000000000000000000000000000000FFF9F9FF00000000FFFFFFFF0000000000000000000000000000000000000000FFFFFFFF000000000000000000000000000000000000000000000000000000000000000000000000000000000000
310
0000000000000000000000000000000000000000000000000000000000000000000000000000000000000000000000000000000000000000
102
{BLKREFS
331
7C4E
102
}
 70
     4
280
     1
281
     0
  0
BLOCK_RECORD
  5
92DA
330
1
100
AcDbSymbolTableRecord
100
AcDbBlockTableRecord
  2
*D27
340
0
 70
     0
280
     1
281
     0
  0
BLOCK_RECORD
  5
930C
330
1
100
AcDbSymbolTableRecord
100
AcDbBlockTableRecord
  2
*D28
340
0
 70
     0
280
     1
281
     0
  0
BLOCK_RECORD
  5
9C6F
330
1
100
AcDbSymbolTableRecord
100
AcDbBlockTableRecord
  2
*D29
340
0
 70
     0
280
     1
281
     0
  0
BLOCK_RECORD
  5
9C96
330
1
100
AcDbSymbolTableRecord
100
AcDbBlockTableRecord
  2
*D30
340
0
 70
     0
280
     1
281
     0
  0
BLOCK_RECORD
  5
9D45
330
1
100
AcDbSymbolTableRecord
100
AcDbBlockTableRecord
  2
_DotSmall
340
0
102
{BLKREFS
331
9EB7
102
}
 70
     0
280
     1
281
     0
  0
BLOCK_RECORD
  5
9D96
330
1
100
AcDbSymbolTableRecord
100
AcDbBlockTableRecord
  2
*D32
340
0
 70
     0
280
     1
281
     0
  0
BLOCK_RECORD
  5
9DE8
330
1
100
AcDbSymbolTableRecord
100
AcDbBlockTableRecord
  2
*D33
340
0
 70
     0
280
     1
281
     0
  0
BLOCK_RECORD
  5
9E0F
330
1
100
AcDbSymbolTableRecord
100
AcDbBlockTableRecord
  2
*D34
340
0
 70
     0
280
     1
281
     0
  0
BLOCK_RECORD
  5
9F16
330
1
100
AcDbSymbolTableRecord
100
AcDbBlockTableRecord
  2
*D35
340
0
 70
     0
280
     1
281
     0
  0
BLOCK_RECORD
  5
A0CF
330
1
100
AcDbSymbolTableRecord
100
AcDbBlockTableRecord
  2
*D36
340
0
 70
     0
280
     1
281
     0
  0
BLOCK_RECORD
  5
A148
330
1
100
AcDbSymbolTableRecord
100
AcDbBlockTableRecord
  2
ケース
340
0
310
2800000020000000200000000100080000000000000400000000000000000000000000000000000000000000000080000080000000808000800000008000800080800000C0C0C000C0DCC000F0CAA6000020400000206000002080000020A0000020C0000020E00000400000004020000040400000406000004080000040A0
310
000040C0000040E00000600000006020000060400000606000006080000060A0000060C0000060E00000800000008020000080400000806000008080000080A0000080C0000080E00000A0000000A0200000A0400000A0600000A0800000A0A00000A0C00000A0E00000C0000000C0200000C0400000C0600000C0800000C0
310
A00000C0C00000C0E00000E0000000E0200000E0400000E0600000E0800000E0A00000E0C00000E0E00040000000400020004000400040006000400080004000A0004000C0004000E00040200000402020004020400040206000402080004020A0004020C0004020E000404000004040200040404000404060004040800040
310
40A0004040C0004040E00040600000406020004060400040606000406080004060A0004060C0004060E00040800000408020004080400040806000408080004080A0004080C0004080E00040A0000040A0200040A0400040A0600040A0800040A0A00040A0C00040A0E00040C0000040C0200040C0400040C0600040C08000
310
40C0A00040C0C00040C0E00040E0000040E0200040E0400040E0600040E0800040E0A00040E0C00040E0E00080000000800020008000400080006000800080008000A0008000C0008000E00080200000802020008020400080206000802080008020A0008020C0008020E00080400000804020008040400080406000804080
310
008040A0008040C0008040E00080600000806020008060400080606000806080008060A0008060C0008060E00080800000808020008080400080806000808080008080A0008080C0008080E00080A0000080A0200080A0400080A0600080A0800080A0A00080A0C00080A0E00080C0000080C0200080C0400080C0600080C0
310
800080C0A00080C0C00080C0E00080E0000080E0200080E0400080E0600080E0800080E0A00080E0C00080E0E000C0000000C0002000C0004000C0006000C0008000C000A000C000C000C000E000C0200000C0202000C0204000C0206000C0208000C020A000C020C000C020E000C0400000C0402000C0404000C0406000C0
310
408000C040A000C040C000C040E000C0600000C0602000C0604000C0606000C0608000C060A000C060C000C060E000C0800000C0802000C0804000C0806000C0808000C080A000C080C000C080E000C0A00000C0A02000C0A04000C0A06000C0A08000C0A0A000C0A0C000C0A0E000C0C00000C0C02000C0C04000C0C06000
310
C0C08000C0C0A000F0FBFF00A4A0A000808080000000FF0000FF000000FFFF00FF000000FF00FF00FFFF0000FFFFFF0000000000000000000000000000000000000000000000000000000000000000000000000000000000000000000000000000000000000000000000000000000000000000000000000000000000000000
310
00000000000000000000000000000000000000000000000000000000000000000000000000000000000000000000000000000000000000000000000000000000000000000000000000000000000000000000000000000000000000000000000000000000000000000000000000000000000000000000000000000000000000
310
00000000000000000000000000000000000000FC0000FC000000000000000000FC00FC00000000000000000000000000000000FCFCFCFC000000000000000000FCFCFC00000000000000000000000000000000FC0000FC000000000000000000FC00FC00000000000000000000000000000000FC0000FC0000000000000000
310
00FC00FC00000000000000000000000000000000FC0000FC000000000000000000FC00FC00000000000000000000000000000000FC0000FC000000000000000000FC00FC00000000000000000000000000000000FC0000FCFCFCFCFCFCFCFCFCFCFC00FC00000000FCFCFCFCFCFCFCFCFCFC0000FC00000000000000000000
310
00000000FC00000000FC0000000000000000000000FC0000000000000000000000000000FC0000FCFCFCFCFCFCFCFCFCFCFCFC0000FC0000000000000000000000000000FC00000000FC0000000000000000000000FC000000000000000000000000000000FC000000FCFCFCFCFCFCFCFCFCFC0000FC000000000000000000
310
00000000000000FCFCFC000000000000000000000000FC00000000000000000000000000000000000000000000000000000000000000FC0000000000000000000000000000000000000000000000000000000000000000FC0000000000000000000000000000000000000000000000000000000000000000FC000000000000
310
0000000000000000000000000000000000000000000000000000FC0000000000000000000000000000000000000000000000000000000000000000FCFCFCFCFCFCFCFCFCFCFCFCFCFCFCFCFCFCFCFCFCFCFCFCFCFC000000000000000000000000000000000000000000000000000000000000000000000000000000000000
310
00000000000000000000000000000000000000000000000000000000000000000000000000000000000000000000000000000000000000000000000000000000000000000000000000000000000000000000000000000000000000000000000000000000000000000000000000000000000000000000000000000000000000
310
0000000000000000000000000000000000000000000000000000000000000000000000000000000000000000000000000000000000000000
102
{BLKREFS
331
A161
102
}
 70
     4
280
     1
281
     1
  0
ENDTAB
  0
ENDSEC
  0
SECTION
  2
BLOCKS
  0
BLOCK
  5
20
330
1F
100
AcDbEntity
  8
0
100
AcDbBlockBegin
  2
*Model_Space
 70
     0
 10
0.0
 20
0.0
 30
0.0
  3
*Model_Space
  1

  0
ENDBLK
  5
21
330
1F
100
AcDbEntity
  8
0
100
AcDbBlockEnd
  0
BLOCK
  5
1C
330
1B
100
AcDbEntity
 67
     1
  8
0
100
AcDbBlockBegin
  2
*Paper_Space
 70
     0
 10
0.0
 20
0.0
 30
0.0
  3
*Paper_Space
  1

  0
ENDBLK
  5
1D
330
1B
100
AcDbEntity
 67
     1
  8
0
100
AcDbBlockEnd
  0
BLOCK
  5
24
330
23
100
AcDbEntity
 67
     1
  8
0
100
AcDbBlockBegin
  2
*Paper_Space0
 70
     0
 10
0.0
 20
0.0
 30
0.0
  3
*Paper_Space0
  1

  0
ENDBLK
  5
25
330
23
100
AcDbEntity
 67
     1
  8
0
100
AcDbBlockEnd
  0
BLOCK
  5
6D
330
69
100
AcDbEntity
  8
0
100
AcDbBlockBegin
  2
_Open30
 70
     0
 10
0.0
 20
0.0
 30
0.0
  3
_Open30
  1

  0
LINE
  5
6A
330
69
100
AcDbEntity
  8
0
  6
ByBlock
 62
     0
370
    -2
100
AcDbLine
 10
-1.0
 20
0.26794919
 30
0.0
 11
0.0
 21
0.0
 31
0.0
  0
LINE
  5
6B
330
69
100
AcDbEntity
  8
0
  6
ByBlock
 62
     0
370
    -2
100
AcDbLine
 10
0.0
 20
0.0
 30
0.0
 11
-1.0
 21
-0.26794919
 31
0.0
  0
LINE
  5
6C
330
69
100
AcDbEntity
  8
0
  6
ByBlock
 62
     0
370
    -2
100
AcDbLine
 10
0.0
 20
0.0
 30
0.0
 11
-1.0
 21
0.0
 31
0.0
  0
ENDBLK
  5
6E
330
69
100
AcDbEntity
  8
0
100
AcDbBlockEnd
  0
BLOCK
  5
76
330
74
100
AcDbEntity
  8
0
100
AcDbBlockBegin
  2
GENAXEH
 70
     0
 10
0.0
 20
0.0
 30
0.0
  3
GENAXEH
  1

  0
LINE
  5
75
330
74
100
AcDbEntity
  8
0
100
AcDbLine
 10
-1.0
 20
0.0
 30
0.0
 11
1.0
 21
0.0
 31
0.0
  0
ENDBLK
  5
77
330
74
100
AcDbEntity
  8
0
100
AcDbBlockEnd
  0
BLOCK
  5
3969
330
3966
100
AcDbEntity
  8
0
100
AcDbBlockBegin
  2
ロッカクアナツキプラグ-1　R1／8
 70
     0
 10
0.0
 20
0.0
 30
0.0
  3
ロッカクアナツキプラグ-1　R1／8
  1

  0
LINE
  5
4DF2
330
3966
100
AcDbEntity
  8
AM_7 中心線
100
AcDbLine
 10
6.71623199999999
 20
0.0
 30
0.0
 11
-6.71623199999999
 21
0.0
 31
0.0
  0
CIRCLE
  5
4DF3
330
3966
100
AcDbEntity
  8
AM_0 外形線1
100
AcDbCircle
 10
0.0
 20
0.0
 30
0.0
 40
4.816232
  0
CIRCLE
  5
4DF4
330
3966
100
AcDbEntity
  8
AM_4 細線
100
AcDbCircle
 10
0.0
 20
0.0
 30
0.0
 40
5.271232
  0
LINE
  5
4DF5
330
3966
100
AcDbEntity
  8
AM_7 中心線
100
AcDbLine
 10
0.0
 20
6.71623199999999
 30
0.0
 11
0.0
 21
-6.71623199999999
 31
0.0
  0
LINE
  5
4DF6
330
3966
100
AcDbEntity
  8
AM_0 外形線1
100
AcDbLine
 10
-2.178053999999974
 20
1.25750000000005
 30
0.0
 11
-2.178053999999974
 21
-1.257499999999992
 31
0.0
  0
LINE
  5
4DF7
330
3966
100
AcDbEntity
  8
AM_0 外形線1
100
AcDbLine
 10
2.178053999999974
 20
-1.257499999999992
 30
0.0
 11
2.178053999999974
 21
1.25750000000005
 31
0.0
  0
LINE
  5
4DF8
330
3966
100
AcDbEntity
  8
AM_0 外形線1
100
AcDbLine
 10
-2.178053999999974
 20
-1.257499999999992
 30
0.0
 11
0.0
 21
-2.514999999999985
 31
0.0
  0
LINE
  5
4DF9
330
3966
100
AcDbEntity
  8
AM_0 外形線1
100
AcDbLine
 10
0.0
 20
-2.514999999999985
 30
0.0
 11
2.178053999999974
 21
-1.257499999999992
 31
0.0
  0
LINE
  5
4DFA
330
3966
100
AcDbEntity
  8
AM_0 外形線1
100
AcDbLine
 10
2.178053999999974
 20
1.25750000000005
 30
0.0
 11
0.0
 21
2.515000000000042
 31
0.0
  0
LINE
  5
4DFB
330
3966
100
AcDbEntity
  8
AM_0 外形線1
100
AcDbLine
 10
0.0
 20
2.515000000000042
 30
0.0
 11
-2.178053999999974
 21
1.25750000000005
 31
0.0
  0
ENDBLK
  5
3974
330
3966
100
AcDbEntity
  8
0
100
AcDbBlockEnd
  0
BLOCK
  5
3AF9
330
3AF8
100
AcDbEntity
  8
0
100
AcDbBlockBegin
  2
GENDOT
 70
     0
 10
0.0
 20
0.0
 30
0.0
  3
GENDOT
  1

  0
LINE
  5
3AFA
330
3AF8
100
AcDbEntity
  8
0
100
AcDbLine
 10
0.0
 20
0.0
 30
0.0
 11
-1.0
 21
0.0
 31
0.0
  0
LWPOLYLINE
  5
3AFB
330
3AF8
100
AcDbEntity
  8
0
100
AcDbPolyline
 90
        2
 70
     1
 43
0.25
 10
-0.125
 20
0.0
 42
1.0
 10
0.125
 20
0.0
 42
1.0
  0
ENDBLK
  5
3AFC
330
3AF8
100
AcDbEntity
  8
0
100
AcDbBlockEnd
  0
BLOCK
  5
3B99
330
3B98
100
AcDbEntity
  8
0
100
AcDbBlockBegin
  2
ロッカクアナツキプラグ-2　R1／8
 70
     0
 10
0.0
 20
0.0
 30
0.0
  3
ロッカクアナツキプラグ-2　R1／8
  1

  0
LINE
  5
4DFD
330
3B98
100
AcDbEntity
  8
AM_7 中心線
100
AcDbLine
 10
-6.71623199999999
 20
0.0
 30
0.0
 11
6.71623199999999
 21
0.0
 31
0.0
  0
LINE
  5
4DFE
330
3B98
100
AcDbEntity
  8
AM_0 外形線1
100
AcDbLine
 10
-2.1780540000002
 20
1.25750000000005
 30
0.0
 11
-0.0000000000002274
 21
2.515000000000042
 31
0.0
  0
LINE
  5
4DFF
330
3B98
100
AcDbEntity
  8
AM_0 外形線1
100
AcDbLine
 10
-0.0000000000002274
 20
-2.514999999999985
 30
0.0
 11
-2.1780540000002
 21
-1.257499999999992
 31
0.0
  0
CIRCLE
  5
4E00
330
3B98
100
AcDbEntity
  8
AM_0 外形線1
100
AcDbCircle
 10
-0.0000000000002274
 20
0.0
 30
0.0
 40
4.816232
  0
CIRCLE
  5
4E01
330
3B98
100
AcDbEntity
  8
AM_4 細線
100
AcDbCircle
 10
-0.0000000000002274
 20
0.0
 30
0.0
 40
5.271232
  0
LINE
  5
4E02
330
3B98
100
AcDbEntity
  8
AM_7 中心線
100
AcDbLine
 10
-0.0000000000002274
 20
-6.71623199999999
 30
0.0
 11
-0.0000000000002274
 21
6.71623199999999
 31
0.0
  0
LINE
  5
4E03
330
3B98
100
AcDbEntity
  8
AM_0 外形線1
100
AcDbLine
 10
2.178053999999974
 20
-1.257499999999992
 30
0.0
 11
-0.0000000000002274
 21
-2.514999999999985
 31
0.0
  0
LINE
  5
4E04
330
3B98
100
AcDbEntity
  8
AM_0 外形線1
100
AcDbLine
 10
-0.0000000000002274
 20
2.515000000000042
 30
0.0
 11
2.178053999999974
 21
1.25750000000005
 31
0.0
  0
LINE
  5
4E12
330
3B98
100
AcDbEntity
  8
AM_0 外形線1
100
AcDbLine
 10
-2.1780540000002
 20
-1.257499999999992
 30
0.0
 11
-2.1780540000002
 21
1.25750000000005
 31
0.0
  0
LINE
  5
4E13
330
3B98
100
AcDbEntity
  8
AM_0 外形線1
100
AcDbLine
 10
2.178053999999974
 20
1.25750000000005
 30
0.0
 11
2.178053999999974
 21
-1.257499999999992
 31
0.0
  0
ENDBLK
  5
3BA4
330
3B98
100
AcDbEntity
  8
0
100
AcDbBlockEnd
  0
BLOCK
  5
4EB6
330
4EB5
100
AcDbEntity
  8
0
100
AcDbBlockBegin
  2
ケースＡ-1 SAM140
 70
     0
 10
0.0
 20
0.0
 30
0.0
  3
ケースＡ-1 SAM140
  1

  0
LINE
  5
4EB8
330
4EB5
100
AcDbEntity
  8
AM_0 外形線1
100
AcDbLine
 10
18.0
 20
-53.5
 30
0.0
 11
42.84406199999988
 21
-53.5
 31
0.0
  0
LINE
  5
4EB9
330
4EB5
100
AcDbEntity
  8
AM_0 外形線1
100
AcDbLine
 10
15.0
 20
-69.80000000000001
 30
0.0
 11
15.0
 21
0.0
 31
0.0
  0
LINE
  5
4EBA
330
4EB5
100
AcDbEntity
  8
AM_0 外形線1
100
AcDbLine
 10
0.0
 20
0.0
 30
0.0
 11
0.0
 21
-69.80000000000001
 31
0.0
  0
LINE
  5
4EBB
330
4EB5
100
AcDbEntity
  8
AM_0 外形線1
100
AcDbLine
 10
0.2000000000000455
 20
-70.0
 30
0.0
 11
14.79999999999995
 21
-70.0
 31
0.0
  0
LINE
  5
4EBC
330
4EB5
100
AcDbEntity
  8
AM_0 外形線1
100
AcDbLine
 10
0.0
 20
-69.80000000000001
 30
0.0
 11
0.2000000000000455
 21
-70.0
 31
0.0
  0
LINE
  5
4EBD
330
4EB5
100
AcDbEntity
  8
AM_0 外形線1
100
AcDbLine
 10
14.79999999999995
 20
-70.0
 30
0.0
 11
15.0
 21
-69.80000000000001
 31
0.0
  0
ARC
  5
4EBE
330
4EB5
100
AcDbEntity
  8
AM_0 外形線1
100
AcDbCircle
 10
18.0
 20
-56.5
 30
0.0
 40
3.0
100
AcDbArc
 50
90.0
 51
180.0
  0
LINE
  5
4EBF
330
4EB5
100
AcDbEntity
  8
AM_0 外形線1
100
AcDbLine
 10
47.0
 20
-48.30628100000001
 30
0.0
 11
47.0
 21
0.0
 31
0.0
  0
ARC
  5
4EC0
330
4EB5
100
AcDbEntity
  8
AM_0 外形線1
100
AcDbCircle
 10
44.0
 20
-50.5
 30
0.0
 40
3.0
100
AcDbArc
 50
270.0
 51
0.0
  0
LINE
  5
4EC1
330
4EB5
100
AcDbEntity
  8
AM_0 外形線1
100
AcDbLine
 10
42.84406199999988
 20
-53.5
 30
0.0
 11
44.0
 21
-53.5
 31
0.0
  0
LINE
  5
4EC2
330
4EB5
100
AcDbEntity
  8
AM_0 外形線1
100
AcDbLine
 10
47.0
 20
-50.5
 30
0.0
 11
47.0
 21
-48.30628100000001
 31
0.0
  0
LINE
  5
4EC3
330
4EB5
100
AcDbEntity
  8
AM_3 隠れ線
100
AcDbLine
 10
18.0
 20
44.39999999999996
 30
0.0
 11
30.5
 21
44.39999999999996
 31
0.0
  0
LINE
  5
4EC5
330
4EB5
100
AcDbEntity
  8
AM_7 中心線
100
AcDbLine
 10
14.0
 20
46.0
 30
0.0
 11
33.0
 21
46.0
 31
0.0
  0
LINE
  5
4EC6
330
4EB5
100
AcDbEntity
  8
AM_7 中心線
100
AcDbLine
 10
-21.0
 20
63.5
 30
0.0
 11
26.0
 21
63.5
 31
0.0
  0
LINE
  5
4EC7
330
4EB5
100
AcDbEntity
  8
AM_0 外形線1
100
AcDbLine
 10
18.0
 20
53.5
 30
0.0
 11
44.0
 21
53.5
 31
0.0
  0
LINE
  5
4EC8
330
4EB5
100
AcDbEntity
  8
AM_0 外形線1
100
AcDbLine
 10
16.0
 20
48.0
 30
0.0
 11
31.0
 21
48.0
 31
0.0
  0
LINE
  5
4EC9
330
4EB5
100
AcDbEntity
  8
AM_0 外形線1
100
AcDbLine
 10
-2.0
 20
48.5
 30
0.0
 11
-2.0
 21
52.30000000000001
 31
0.0
  0
LINE
  5
4ECA
330
4EB5
100
AcDbEntity
  8
AM_0 外形線1
100
AcDbLine
 10
15.0
 20
48.5
 30
0.0
 11
-2.0
 21
48.5
 31
0.0
  0
ARC
  5
4ECB
330
4EB5
100
AcDbEntity
  8
AM_0 外形線1
100
AcDbCircle
 10
15.0
 20
47.5
 30
0.0
 40
1.0
100
AcDbArc
 50
0.0
 51
90.0
  0
LINE
  5
4ECC
330
4EB5
100
AcDbEntity
  8
AM_0 外形線1
100
AcDbLine
 10
16.5
 20
44.39999999999996
 30
0.0
 11
16.0
 21
44.89999999999997
 31
0.0
  0
LINE
  5
4ECD
330
4EB5
100
AcDbEntity
  8
AM_0 外形線1
100
AcDbLine
 10
18.0
 20
44.39999999999996
 30
0.0
 11
16.5
 21
44.39999999999996
 31
0.0
  0
LINE
  5
4ECE
330
4EB5
100
AcDbEntity
  8
AM_0 外形線1
100
AcDbLine
 10
16.0
 20
44.89999999999997
 30
0.0
 11
16.0
 21
47.5
 31
0.0
  0
LINE
  5
4ECF
330
4EB5
100
AcDbEntity
  8
AM_0 外形線1
100
AcDbLine
 10
0.2000000000000455
 20
70.0
 30
0.0
 11
14.79999999999995
 21
70.0
 31
0.0
  0
LINE
  5
4ED2
330
4EB5
100
AcDbEntity
  8
AM_0 外形線1
100
AcDbLine
 10
-2.0
 20
52.30000000000001
 30
0.0
 11
-1.799999999999954
 21
52.5
 31
0.0
  0
ARC
  5
4ED4
330
4EB5
100
AcDbEntity
  8
AM_0 外形線1
100
AcDbCircle
 10
1.899999999999862
 20
53.0
 30
0.0
 40
0.5
100
AcDbArc
 50
270.0
 51
0.0
  0
LINE
  5
4ED5
330
4EB5
100
AcDbEntity
  8
AM_0 外形線1
100
AcDbLine
 10
2.399999999999863
 20
53.0
 30
0.0
 11
2.399999999999863
 21
55.89999999999998
 31
0.0
  0
ARC
  5
4ED6
330
4EB5
100
AcDbEntity
  8
AM_0 外形線1
100
AcDbCircle
 10
1.899999999999862
 20
55.89999999999998
 30
0.0
 40
0.5
100
AcDbArc
 50
0.0
 51
90.0
  0
LINE
  5
4ED7
330
4EB5
100
AcDbEntity
  8
AM_0 外形線1
100
AcDbLine
 10
1.899999999999862
 20
56.39999999999997
 30
0.0
 11
0.0
 21
56.39999999999997
 31
0.0
  0
LINE
  5
4ED8
330
4EB5
100
AcDbEntity
  8
AM_0 外形線1
100
AcDbLine
 10
0.0
 20
56.39999999999997
 30
0.0
 11
0.0
 21
60.0
 31
0.0
  0
LINE
  5
4ED9
330
4EB5
100
AcDbEntity
  8
AM_0 外形線1
100
AcDbLine
 10
0.0
 20
69.80000000000001
 30
0.0
 11
0.2000000000000455
 21
70.0
 31
0.0
  0
LINE
  5
4EDA
330
4EB5
100
AcDbEntity
  8
AM_0 外形線1
100
AcDbLine
 10
0.0
 20
67.0
 30
0.0
 11
0.0
 21
69.80000000000001
 31
0.0
  0
LINE
  5
4EDB
330
4EB5
100
AcDbEntity
  8
AM_0 外形線1
100
AcDbLine
 10
15.0
 20
56.5
 30
0.0
 11
15.0
 21
69.80000000000001
 31
0.0
  0
ARC
  5
4EDC
330
4EB5
100
AcDbEntity
  8
AM_0 外形線1
100
AcDbCircle
 10
18.0
 20
56.5
 30
0.0
 40
3.0
100
AcDbArc
 50
180.0
 51
270.0
  0
LINE
  5
4EDD
330
4EB5
100
AcDbEntity
  8
AM_0 外形線1
100
AcDbLine
 10
14.79999999999995
 20
70.0
 30
0.0
 11
15.0
 21
69.80000000000001
 31
0.0
  0
LINE
  5
4EDE
330
4EB5
100
AcDbEntity
  8
AM_0 外形線1
100
AcDbLine
 10
47.0
 20
50.5
 30
0.0
 11
47.0
 21
41.0
 31
0.0
  0
LINE
  5
4EDF
330
4EB5
100
AcDbEntity
  8
AM_0 外形線1
100
AcDbLine
 10
47.0
 20
41.0
 30
0.0
 11
44.79999999999995
 21
41.0
 31
0.0
  0
LINE
  5
4EE0
330
4EB5
100
AcDbEntity
  8
AM_0 外形線1
100
AcDbLine
 10
37.20000000000005
 20
41.0
 30
0.0
 11
35.0
 21
41.0
 31
0.0
  0
LINE
  5
4EE1
330
4EB5
100
AcDbEntity
  8
AM_3 隠れ線
100
AcDbLine
 10
31.0
 20
44.89999999999997
 30
0.0
 11
30.5
 21
44.39999999999996
 31
0.0
  0
LINE
  5
4EE2
330
4EB5
100
AcDbEntity
  8
AM_3 隠れ線
100
AcDbLine
 10
31.0
 20
47.39586600000001
 30
0.0
 11
31.0
 21
44.89999999999997
 31
0.0
  0
ARC
  5
4EE3
330
4EB5
100
AcDbEntity
  8
AM_0 外形線1
100
AcDbCircle
 10
34.0
 20
47.5
 30
0.0
 40
1.0
100
AcDbArc
 50
0.0
 51
90.0
  0
LINE
  5
4EE4
330
4EB5
100
AcDbEntity
  8
AM_0 外形線1
100
AcDbLine
 10
34.0
 20
48.5
 30
0.0
 11
32.0
 21
48.5
 31
0.0
  0
ARC
  5
4EE5
330
4EB5
100
AcDbEntity
  8
AM_0 外形線1
100
AcDbCircle
 10
32.0
 20
47.5
 30
0.0
 40
1.0
100
AcDbArc
 50
90.0
 51
180.0
  0
LINE
  5
4EE6
330
4EB5
100
AcDbEntity
  8
AM_0 外形線1
100
AcDbLine
 10
35.0
 20
41.0
 30
0.0
 11
35.0
 21
40.0
 31
0.0
  0
LINE
  5
4EE7
330
4EB5
100
AcDbEntity
  8
AM_0 外形線1
100
AcDbLine
 10
35.0
 20
41.0
 30
0.0
 11
35.0
 21
47.5
 31
0.0
  0
LINE
  5
4EE8
330
4EB5
100
AcDbEntity
  8
AM_0 外形線1
100
AcDbLine
 10
44.79999999999995
 20
41.0
 30
0.0
 11
44.79999999999995
 21
44.69999999999997
 31
0.0
  0
LINE
  5
4EE9
330
4EB5
100
AcDbEntity
  8
AM_0 外形線1
100
AcDbLine
 10
44.79999999999995
 20
41.0
 30
0.0
 11
44.79999999999995
 21
40.0
 31
0.0
  0
LINE
  5
4EEA
330
4EB5
100
AcDbEntity
  8
AM_0 外形線1
100
AcDbLine
 10
37.20000000000005
 20
44.69999999999997
 30
0.0
 11
37.20000000000005
 21
41.0
 31
0.0
  0
LINE
  5
4EEB
330
4EB5
100
AcDbEntity
  8
AM_0 外形線1
100
AcDbLine
 10
37.20000000000005
 20
41.0
 30
0.0
 11
37.20000000000005
 21
40.0
 31
0.0
  0
LINE
  5
4EEC
330
4EB5
100
AcDbEntity
  8
AM_0 外形線1
100
AcDbLine
 10
44.79999999999995
 20
44.69999999999997
 30
0.0
 11
37.20000000000005
 21
44.69999999999997
 31
0.0
  0
LINE
  5
4EED
330
4EB5
100
AcDbEntity
  8
AM_0 外形線1
100
AcDbLine
 10
47.0
 20
41.0
 30
0.0
 11
47.0
 21
40.0
 31
0.0
  0
ARC
  5
4EEE
330
4EB5
100
AcDbEntity
  8
AM_0 外形線1
100
AcDbCircle
 10
44.0
 20
50.5
 30
0.0
 40
3.0
100
AcDbArc
 50
0.0
 51
90.0
  0
ELLIPSE
  5
4EEF
330
4EB5
100
AcDbEntity
  8
AM_0 外形線1
100
AcDbEllipse
 10
1.19999999999993
 20
54.44999999999999
 30
0.0
 11
0.0
 21
1.94999999999993
 31
0.0
210
0.0
220
0.0
230
1.0
 40
0.615384615384602
 41
0.0
 42
6.283185307179585
  0
ELLIPSE
  5
4EF0
330
4EB5
100
AcDbEntity
  8
AM_0 外形線1
100
AcDbEllipse
 10
41.0
 20
42.35000000000002
 30
0.0
 11
-3.799999999999953
 21
0.0
 31
0.0
210
0.0
220
0.0
230
1.0
 40
0.6184210526315776
 41
0.0
 42
6.283185307179585
  0
INSERT
  5
4EF1
330
4EB5
100
AcDbEntity
  8
AM_0 外形線1
100
AcDbBlockReference
  2
ロッカクアナツキプラグ-1　R1／8
 10
7.5
 20
-24.21009900000001
 30
0.0
  0
LINE
  5
4F8F
330
4EB5
100
AcDbEntity
  8
AM_0 外形線1
100
AcDbLine
 10
0.0
 20
60.0
 30
0.0
 11
15.0
 21
60.0
 31
0.0
  0
LINE
  5
4F90
330
4EB5
100
AcDbEntity
  8
AM_0 外形線1
100
AcDbLine
 10
0.0
 20
67.0
 30
0.0
 11
15.0
 21
67.0
 31
0.0
  0
LINE
  5
4F91
330
4EB5
100
AcDbEntity
  8
AM_0 外形線1
100
AcDbLine
 10
-1.799999999999954
 20
52.5
 30
0.0
 11
1.899999999999862
 21
52.5
 31
0.0
  0
LINE
  5
6E88
330
4EB5
100
AcDbEntity
  8
AM_0 外形線1
100
AcDbLine
 10
31.0
 20
47.39586600000001
 30
0.0
 11
31.0
 21
47.5
 31
0.0
  0
ENDBLK
  5
4EB7
330
4EB5
100
AcDbEntity
  8
0
100
AcDbBlockEnd
  0
BLOCK
  5
500C
330
500B
100
AcDbEntity
  8
0
100
AcDbBlockBegin
  2
ケースＡ-2 SAM140
 70
     0
 10
0.0
 20
0.0
 30
0.0
  3
ケースＡ-2 SAM140
  1

  0
LINE
  5
500E
330
500B
100
AcDbEntity
  8
AM_0 外形線1
100
AcDbLine
 10
0.0
 20
0.0
 30
0.0
 11
0.0
 21
-69.80000000000001
 31
0.0
  0
LINE
  5
500F
330
500B
100
AcDbEntity
  8
AM_0 外形線1
100
AcDbLine
 10
-15.00000000000023
 20
-69.80000000000001
 30
0.0
 11
-15.00000000000023
 21
0.0
 31
0.0
  0
LINE
  5
5010
330
500B
100
AcDbEntity
  8
AM_0 外形線1
100
AcDbLine
 10
-47.00000000000023
 20
-50.5
 30
0.0
 11
-47.00000000000023
 21
0.0
 31
0.0
  0
LINE
  5
5011
330
500B
100
AcDbEntity
  8
AM_0 外形線1
100
AcDbLine
 10
-18.00000000000023
 20
-53.5
 30
0.0
 11
-44.00000000000022
 21
-53.5
 31
0.0
  0
ARC
  5
5012
330
500B
100
AcDbEntity
  8
AM_0 外形線1
100
AcDbCircle
 10
-44.00000000000022
 20
-50.5
 30
0.0
 40
3.0
100
AcDbArc
 50
180.0
 51
270.0
  0
LINE
  5
5013
330
500B
100
AcDbEntity
  8
AM_0 外形線1
100
AcDbLine
 10
-0.2000000000000455
 20
-70.0
 30
0.0
 11
-14.79999999999995
 21
-70.0
 31
0.0
  0
LINE
  5
5014
330
500B
100
AcDbEntity
  8
AM_0 外形線1
100
AcDbLine
 10
-14.79999999999995
 20
-70.0
 30
0.0
 11
-15.00000000000023
 21
-69.80000000000001
 31
0.0
  0
LINE
  5
5015
330
500B
100
AcDbEntity
  8
AM_0 外形線1
100
AcDbLine
 10
0.0
 20
-69.80000000000001
 30
0.0
 11
-0.2000000000000455
 21
-70.0
 31
0.0
  0
ARC
  5
5017
330
500B
100
AcDbEntity
  8
AM_0 外形線1
100
AcDbCircle
 10
-18.00000000000023
 20
-56.5
 30
0.0
 40
3.0
100
AcDbArc
 50
0.0
 51
90.0
  0
LINE
  5
5018
330
500B
100
AcDbEntity
  8
AM_0 外形線1
100
AcDbLine
 10
-15.00000000000023
 20
67.0
 30
0.0
 11
0.0
 21
67.0
 31
0.0
  0
LINE
  5
5019
330
500B
100
AcDbEntity
  8
AM_0 外形線1
100
AcDbLine
 10
-15.00000000000023
 20
60.0
 30
0.0
 11
0.0
 21
60.00000000000007
 31
0.0
  0
LINE
  5
501A
330
500B
100
AcDbEntity
  8
AM_3 隠れ線
100
AcDbLine
 10
-18.00000000000023
 20
44.39999999999996
 30
0.0
 11
-30.50000000000023
 21
44.39999999999996
 31
0.0
  0
LINE
  5
501D
330
500B
100
AcDbEntity
  8
AM_0 外形線1
100
AcDbLine
 10
-16.00000000000022
 20
48.0
 30
0.0
 11
-31.00000000000023
 21
48.0
 31
0.0
  0
LINE
  5
501E
330
500B
100
AcDbEntity
  8
AM_0 外形線1
100
AcDbLine
 10
-18.00000000000023
 20
53.5
 30
0.0
 11
-44.00000000000022
 21
53.5
 31
0.0
  0
LINE
  5
501F
330
500B
100
AcDbEntity
  8
AM_0 外形線1
100
AcDbLine
 10
-47.00000000000023
 20
50.5
 30
0.0
 11
-47.00000000000023
 21
41.0
 31
0.0
  0
LINE
  5
5020
330
500B
100
AcDbEntity
  8
AM_0 外形線1
100
AcDbLine
 10
-44.79999999999995
 20
44.69999999999997
 30
0.0
 11
-37.20000000000005
 21
44.69999999999997
 31
0.0
  0
LWPOLYLINE
  5
5021
330
500B
100
AcDbEntity
  8
AM_0 外形線1
100
AcDbPolyline
 90
       73
 70
     0
 43
0.0
 10
-37.20000000000005
 20
42.34999999999995
 10
-37.21445999999993
 20
42.55481600000002
 10
-37.25773000000004
 20
42.75807299999995
 10
-37.32948199999987
 20
42.95822499999997
 10
-37.42916799999989
 20
43.15374700000001
 10
-37.55602999999997
 20
43.34315300000002
 10
-37.70910299999992
 20
43.52499999999998
 10
-37.88722200000008
 20
43.69790399999998
 10
-38.08903099999998
 20
43.86055099999999
 10
-38.31299400000012
 20
44.011701
 10
-38.55740700000001
 20
44.15020399999997
 10
-38.82040900000016
 20
44.27500700000002
 10
-39.10000000000014
 20
44.38515899999997
 10
-39.39405000000011
 20
44.47982300000001
 10
-39.70032300000003
 20
44.55827699999996
 10
-40.0164870000001
 20
44.61992499999996
 10
-40.34013699999991
 20
44.66429799999997
 10
-40.66880800000013
 20
44.691057
 10
-41.00000000000021
 20
44.69999999999997
 10
-41.33119099999999
 20
44.691057
 10
-41.65986300000009
 20
44.66429799999997
 10
-41.98351200000002
 20
44.61992499999996
 10
-42.29967600000009
 20
44.55827699999996
 10
-42.605949
 20
44.47982300000001
 10
-42.90000000000008
 20
44.38515899999997
 10
-43.17958999999996
 20
44.27500700000002
 10
-43.44259299999999
 20
44.15020399999997
 10
-43.687005
 20
44.011701
 10
-43.91096900000001
 20
43.86055099999999
 10
-44.11277700000005
 20
43.69790399999998
 10
-44.2908960000002
 20
43.52499999999998
 10
-44.44396900000015
 20
43.34315300000002
 10
-44.5708320000001
 20
43.15374700000001
 10
-44.67051800000013
 20
42.95822499999997
 10
-44.74226900000006
 20
42.75807299999995
 10
-44.78554000000007
 20
42.55481600000002
 10
-44.79999999999995
 20
42.34999999999995
 10
-44.78554000000007
 20
42.14518399999996
 10
-44.74226900000006
 20
41.94192699999996
 10
-44.67051800000013
 20
41.74177499999996
 10
-44.5708320000001
 20
41.54625199999997
 10
-44.44396900000015
 20
41.35684700000001
 10
-44.2908960000002
 20
41.17500000000001
 10
-44.11277700000005
 20
41.002095
 10
-43.91096900000001
 20
40.839449
 10
-43.687005
 20
40.68829900000003
 10
-43.44259299999999
 20
40.549795
 10
-43.17958999999996
 20
40.42499199999997
 10
-42.90000000000008
 20
40.31484
 10
-42.605949
 20
40.22017600000004
 10
-42.29967600000009
 20
40.141722
 10
-41.98351200000002
 20
40.08007400000002
 10
-41.65986300000009
 20
40.03570200000001
 10
-41.33119099999999
 20
40.00894199999999
 10
-41.00000000000021
 20
40.0
 10
-40.66880800000013
 20
40.00894199999999
 10
-40.34013699999991
 20
40.03570200000001
 10
-40.0164870000001
 20
40.08007400000002
 10
-39.70032300000003
 20
40.141722
 10
-39.39405000000011
 20
40.22017600000004
 10
-39.10000000000014
 20
40.31484
 10
-38.82040900000016
 20
40.42499199999997
 10
-38.55740700000001
 20
40.549795
 10
-38.31299400000012
 20
40.68829900000003
 10
-38.08903099999998
 20
40.839449
 10
-37.88722200000008
 20
41.002095
 10
-37.70910299999992
 20
41.17500000000001
 10
-37.55602999999997
 20
41.35684700000001
 10
-37.42916799999989
 20
41.54625199999997
 10
-37.32948199999987
 20
41.74177499999996
 10
-37.25773000000004
 20
41.94192699999996
 10
-37.21445999999993
 20
42.14518399999996
 10
-37.20000000000005
 20
42.34999999999995
  0
LINE
  5
5022
330
500B
100
AcDbEntity
  8
AM_0 外形線1
100
AcDbLine
 10
-47.00000000000023
 20
41.0
 30
0.0
 11
-44.79999999999995
 21
41.0
 31
0.0
  0
LINE
  5
5023
330
500B
100
AcDbEntity
  8
AM_0 外形線1
100
AcDbLine
 10
-44.79999999999995
 20
41.0
 30
0.0
 11
-44.79999999999995
 21
44.69999999999997
 31
0.0
  0
LINE
  5
5024
330
500B
100
AcDbEntity
  8
AM_0 外形線1
100
AcDbLine
 10
-47.00000000000023
 20
41.0
 30
0.0
 11
-47.00000000000023
 21
40.0
 31
0.0
  0
LINE
  5
5025
330
500B
100
AcDbEntity
  8
AM_0 外形線1
100
AcDbLine
 10
-44.79999999999995
 20
41.0
 30
0.0
 11
-44.79999999999995
 21
40.0
 31
0.0
  0
LINE
  5
5026
330
500B
100
AcDbEntity
  8
AM_3 隠れ線
100
AcDbLine
 10
-31.00000000000023
 20
44.89999999999997
 30
0.0
 11
-30.50000000000023
 21
44.39999999999996
 31
0.0
  0
LINE
  5
5027
330
500B
100
AcDbEntity
  8
AM_3 隠れ線
100
AcDbLine
 10
-31.00000000000023
 20
47.39586600000001
 30
0.0
 11
-31.00000000000023
 21
44.89999999999997
 31
0.0
  0
ARC
  5
5028
330
500B
100
AcDbEntity
  8
AM_0 外形線1
100
AcDbCircle
 10
-34.00000000000023
 20
47.5
 30
0.0
 40
1.0
100
AcDbArc
 50
90.0
 51
180.0
  0
LINE
  5
5029
330
500B
100
AcDbEntity
  8
AM_0 外形線1
100
AcDbLine
 10
-34.00000000000023
 20
48.5
 30
0.0
 11
-32.00000000000023
 21
48.5
 31
0.0
  0
ARC
  5
502A
330
500B
100
AcDbEntity
  8
AM_0 外形線1
100
AcDbCircle
 10
-32.00000000000023
 20
47.5
 30
0.0
 40
1.0
100
AcDbArc
 50
0.0
 51
90.0
  0
LINE
  5
502B
330
500B
100
AcDbEntity
  8
AM_0 外形線1
100
AcDbLine
 10
-35.00000000000023
 20
41.0
 30
0.0
 11
-35.00000000000023
 21
40.0
 31
0.0
  0
LINE
  5
502C
330
500B
100
AcDbEntity
  8
AM_0 外形線1
100
AcDbLine
 10
-35.00000000000023
 20
41.0
 30
0.0
 11
-35.00000000000023
 21
47.5
 31
0.0
  0
LINE
  5
502D
330
500B
100
AcDbEntity
  8
AM_0 外形線1
100
AcDbLine
 10
-37.20000000000005
 20
44.69999999999997
 30
0.0
 11
-37.20000000000005
 21
41.0
 31
0.0
  0
LINE
  5
502E
330
500B
100
AcDbEntity
  8
AM_0 外形線1
100
AcDbLine
 10
-37.20000000000005
 20
41.0
 30
0.0
 11
-37.20000000000005
 21
40.0
 31
0.0
  0
LINE
  5
502F
330
500B
100
AcDbEntity
  8
AM_0 外形線1
100
AcDbLine
 10
-37.20000000000005
 20
41.0
 30
0.0
 11
-35.00000000000023
 21
41.0
 31
0.0
  0
ARC
  5
5030
330
500B
100
AcDbEntity
  8
AM_0 外形線1
100
AcDbCircle
 10
-44.00000000000022
 20
50.5
 30
0.0
 40
3.0
100
AcDbArc
 50
90.0
 51
180.0
  0
LINE
  5
5032
330
500B
100
AcDbEntity
  8
AM_0 外形線1
100
AcDbLine
 10
2.0
 20
48.5
 30
0.0
 11
2.0
 21
52.30000000000001
 31
0.0
  0
LINE
  5
5033
330
500B
100
AcDbEntity
  8
AM_0 外形線1
100
AcDbLine
 10
-15.00000000000023
 20
48.5
 30
0.0
 11
2.0
 21
48.5
 31
0.0
  0
ARC
  5
5034
330
500B
100
AcDbEntity
  8
AM_0 外形線1
100
AcDbCircle
 10
-15.00000000000023
 20
47.5
 30
0.0
 40
1.0
100
AcDbArc
 50
90.0
 51
180.0
  0
LINE
  5
5035
330
500B
100
AcDbEntity
  8
AM_0 外形線1
100
AcDbLine
 10
-16.50000000000023
 20
44.39999999999996
 30
0.0
 11
-16.00000000000022
 21
44.89999999999997
 31
0.0
  0
LINE
  5
5036
330
500B
100
AcDbEntity
  8
AM_0 外形線1
100
AcDbLine
 10
-18.00000000000023
 20
44.39999999999996
 30
0.0
 11
-16.50000000000023
 21
44.39999999999996
 31
0.0
  0
LINE
  5
5037
330
500B
100
AcDbEntity
  8
AM_0 外形線1
100
AcDbLine
 10
-16.00000000000022
 20
44.89999999999997
 30
0.0
 11
-16.00000000000022
 21
47.5
 31
0.0
  0
LINE
  5
5038
330
500B
100
AcDbEntity
  8
AM_0 外形線1
100
AcDbLine
 10
-0.2000000000000455
 20
70.0
 30
0.0
 11
-14.79999999999995
 21
70.0
 31
0.0
  0
LINE
  5
5039
330
500B
100
AcDbEntity
  8
AM_0 外形線1
100
AcDbLine
 10
-15.00000000000023
 20
56.5
 30
0.0
 11
-15.00000000000023
 21
69.80000000000001
 31
0.0
  0
ARC
  5
503A
330
500B
100
AcDbEntity
  8
AM_0 外形線1
100
AcDbCircle
 10
-18.00000000000023
 20
56.5
 30
0.0
 40
3.0
100
AcDbArc
 50
270.0
 51
0.0
  0
LINE
  5
503B
330
500B
100
AcDbEntity
  8
AM_0 外形線1
100
AcDbLine
 10
-14.79999999999995
 20
70.0
 30
0.0
 11
-15.00000000000023
 21
69.80000000000001
 31
0.0
  0
LINE
  5
503C
330
500B
100
AcDbEntity
  8
AM_0 外形線1
100
AcDbLine
 10
-1.90000000000009
 20
52.5
 30
0.0
 11
1.799999999999954
 21
52.5
 31
0.0
  0
ARC
  5
503D
330
500B
100
AcDbEntity
  8
AM_0 外形線1
100
AcDbCircle
 10
-1.90000000000009
 20
53.0
 30
0.0
 40
0.5
100
AcDbArc
 50
180.0
 51
270.0
  0
LINE
  5
503E
330
500B
100
AcDbEntity
  8
AM_0 外形線1
100
AcDbLine
 10
-2.400000000000089
 20
53.0
 30
0.0
 11
-2.400000000000089
 21
55.89999999999998
 31
0.0
  0
ARC
  5
503F
330
500B
100
AcDbEntity
  8
AM_0 外形線1
100
AcDbCircle
 10
-1.90000000000009
 20
55.89999999999998
 30
0.0
 40
0.5
100
AcDbArc
 50
90.0
 51
180.0
  0
LINE
  5
5040
330
500B
100
AcDbEntity
  8
AM_0 外形線1
100
AcDbLine
 10
-1.90000000000009
 20
56.39999999999997
 30
0.0
 11
0.0
 21
56.39999999999997
 31
0.0
  0
LWPOLYLINE
  5
5041
330
500B
100
AcDbEntity
  8
AM_0 外形線1
100
AcDbPolyline
 90
       73
 70
     0
 43
0.0
 10
-1.200000000000044
 20
52.5
 10
-1.095413000000007
 20
52.50742000000002
 10
-0.9916220000000064
 20
52.52962500000001
 10
-0.8894170000000942
 20
52.56644399999998
 10
-0.7895750000000135
 20
52.61759899999998
 10
-0.6928580000001148
 20
52.68270000000001
 10
-0.6000000000001366
 20
52.76124999999996
 10
-0.5117079999999988
 20
52.85265300000003
 10
-0.4286549999999353
 20
52.95621299999999
 10
-0.351472000000058
 20
53.071142
 10
-0.2807460000001356
 20
53.19656400000003
 10
-0.217017000000169
 20
53.331526
 10
-0.160769000000073
 20
53.47499999999996
 10
-0.1124300000001313
 20
53.62589399999996
 10
-0.0723689999999806
 20
53.78305999999998
 10
-0.0408890000001065
 20
53.94530300000003
 10
-0.0182300000001305
 20
54.11138599999998
 10
-0.004566000000068
 20
54.28004599999997
 10
0.0
 20
54.44999999999999
 10
-0.004566000000068
 20
54.61995300000001
 10
-0.0182300000001305
 20
54.78861399999999
 10
-0.0408890000001065
 20
54.95469700000001
 10
-0.0723689999999806
 20
55.116939
 10
-0.1124300000001313
 20
55.27410500000002
 10
-0.160769000000073
 20
55.42500000000001
 10
-0.217017000000169
 20
55.56847400000004
 10
-0.2807460000001356
 20
55.70343599999995
 10
-0.351472000000058
 20
55.82885799999997
 10
-0.4286549999999353
 20
55.94378599999998
 10
-0.5117079999999988
 20
56.047346
 10
-0.6000000000001366
 20
56.13874900000002
 10
-0.6928580000001148
 20
56.21729999999995
 10
-0.7895750000000135
 20
56.28239999999999
 10
-0.8894170000000942
 20
56.33355499999999
 10
-0.9916220000000064
 20
56.37037499999998
 10
-1.095413000000007
 20
56.39257900000001
 10
-1.200000000000044
 20
56.39999999999997
 10
-1.304587000000082
 20
56.39257900000001
 10
-1.408376999999973
 20
56.37037499999998
 10
-1.510582999999995
 20
56.33355499999999
 10
-1.610423999999965
 20
56.28239999999999
 10
-1.707141999999976
 20
56.21729999999995
 10
-1.799999999999954
 20
56.13874900000002
 10
-1.88829099999998
 20
56.047346
 10
-1.971344999999928
 20
55.94378599999998
 10
-2.048528000000032
 20
55.82885799999997
 10
-2.119253000000071
 20
55.70343599999995
 10
-2.182982000000038
 20
55.56847400000004
 10
-2.239230000000134
 20
55.42500000000001
 10
-2.287569000000075
 20
55.27410500000002
 10
-2.327631000000109
 20
55.116939
 10
-2.359110999999983
 20
54.95469700000001
 10
-2.381769000000076
 20
54.78861399999999
 10
-2.395433000000139
 20
54.61995300000001
 10
-2.400000000000089
 20
54.44999999999999
 10
-2.395433000000139
 20
54.28004599999997
 10
-2.381769000000076
 20
54.11138599999998
 10
-2.359110999999983
 20
53.94530300000003
 10
-2.327631000000109
 20
53.78305999999998
 10
-2.287569000000075
 20
53.62589399999996
 10
-2.239230000000134
 20
53.47499999999996
 10
-2.182982000000038
 20
53.331526
 10
-2.119253000000071
 20
53.19656400000003
 10
-2.048528000000032
 20
53.071142
 10
-1.971344999999928
 20
52.95621299999999
 10
-1.88829099999998
 20
52.85265300000003
 10
-1.799999999999954
 20
52.76124999999996
 10
-1.707141999999976
 20
52.68270000000001
 10
-1.610423999999965
 20
52.61759899999998
 10
-1.510582999999995
 20
52.56644399999998
 10
-1.408376999999973
 20
52.52962500000001
 10
-1.304587000000082
 20
52.50742000000002
 10
-1.200000000000044
 20
52.5
  0
LINE
  5
5042
330
500B
100
AcDbEntity
  8
AM_0 外形線1
100
AcDbLine
 10
0.0
 20
56.39999999999997
 30
0.0
 11
0.0
 21
60.0
 31
0.0
  0
LINE
  5
5043
330
500B
100
AcDbEntity
  8
AM_0 外形線1
100
AcDbLine
 10
2.0
 20
52.30000000000001
 30
0.0
 11
1.799999999999954
 21
52.5
 31
0.0
  0
LINE
  5
5044
330
500B
100
AcDbEntity
  8
AM_0 外形線1
100
AcDbLine
 10
0.0
 20
69.80000000000001
 30
0.0
 11
-0.2000000000000455
 21
70.0
 31
0.0
  0
LINE
  5
5045
330
500B
100
AcDbEntity
  8
AM_0 外形線1
100
AcDbLine
 10
0.0
 20
67.0
 30
0.0
 11
0.0
 21
69.80000000000001
 31
0.0
  0
LINE
  5
5046
330
500B
100
AcDbEntity
  8
AM_7 中心線
100
AcDbLine
 10
21.00000000000012
 20
63.5
 30
0.0
 11
-25.99999999999989
 21
63.5
 31
0.0
  0
INSERT
  5
5047
330
500B
100
AcDbEntity
  8
AM_0 外形線1
100
AcDbBlockReference
  2
ロッカクアナツキプラグ-2　R1／8
 10
-7.5
 20
-24.21009900000001
 30
0.0
  0
LINE
  5
50DB
330
500B
100
AcDbEntity
  8
AM_0 外形線1
100
AcDbLine
 10
-31.00000000000023
 20
47.39586600000001
 30
0.0
 11
-31.00000000000023
 21
47.5
 31
0.0
  0
LINE
  5
5272
330
500B
100
AcDbEntity
  8
AM_7 中心線
100
AcDbLine
 10
-14.00000000000023
 20
46.0
 30
0.0
 11
-33.00000000000023
 21
46.0
 31
0.0
  0
ENDBLK
  5
500D
330
500B
100
AcDbEntity
  8
0
100
AcDbBlockEnd
  0
BLOCK
  5
5130
330
512F
100
AcDbEntity
  8
0
100
AcDbBlockBegin
  2
センタ-1 SAM140
 70
     0
 10
0.0
 20
0.0
 30
0.0
  3
センタ-1 SAM140
  1

  0
LINE
  5
5132
330
512F
100
AcDbEntity
  8
AM_0 外形線1
100
AcDbLine
 10
71.0
 20
-37.0
 30
0.0
 11
71.0
 21
37.0
 31
0.0
  0
LINE
  5
5134
330
512F
100
AcDbEntity
  8
AM_0 外形線1
100
AcDbLine
 10
0.0
 20
16.77051
 30
0.0
 11
71.0
 21
16.77051
 31
0.0
  0
ARC
  5
5135
330
512F
100
AcDbEntity
  8
AM_0 外形線1
100
AcDbCircle
 10
68.0
 20
-37.0
 30
0.0
 40
3.0
100
AcDbArc
 50
270.0
 51
0.0
  0
LINE
  5
5136
330
512F
100
AcDbEntity
  8
AM_0 外形線1
100
AcDbLine
 10
43.0
 20
-40.0
 30
0.0
 11
68.0
 21
-40.0
 31
0.0
  0
ARC
  5
513A
330
512F
100
AcDbEntity
  8
AM_0 外形線1
100
AcDbCircle
 10
20.0
 20
0.0
 30
0.0
 40
47.90999999999999
100
AcDbArc
 50
80.38773800000301
 51
96.59200800000142
  0
LINE
  5
513D
330
512F
100
AcDbEntity
  8
AM_7 中心線
100
AcDbLine
 10
20.0
 20
50.0
 30
0.0
 11
20.0
 21
41.80000000000001
 31
0.0
  0
LINE
  5
513E
330
512F
100
AcDbEntity
  8
AM_0 外形線1
100
AcDbLine
 10
13.5
 20
40.0
 30
0.0
 11
0.5
 21
40.0
 31
0.0
  0
LINE
  5
513F
330
512F
100
AcDbEntity
  8
AM_0 外形線1
100
AcDbLine
 10
0.5
 20
40.0
 30
0.0
 11
0.0
 21
39.5
 31
0.0
  0
LINE
  5
5140
330
512F
100
AcDbEntity
  8
AM_0 外形線1
100
AcDbLine
 10
14.5
 20
47.59325699999998
 30
0.0
 11
14.0
 21
47.03281099999998
 31
0.0
  0
ARC
  5
5141
330
512F
100
AcDbEntity
  8
AM_0 外形線1
100
AcDbCircle
 10
13.5
 20
40.49999999999999
 30
0.0
 40
0.5
100
AcDbArc
 50
270.0
 51
0.0
  0
LINE
  5
5142
330
512F
100
AcDbEntity
  8
AM_0 外形線1
100
AcDbLine
 10
14.0
 20
47.03281099999998
 30
0.0
 11
14.0
 21
40.49999999999999
 31
0.0
  0
LINE
  5
5143
330
512F
100
AcDbEntity
  8
AM_0 外形線1
100
AcDbLine
 10
68.0
 20
40.0
 30
0.0
 11
29.0
 21
40.0
 31
0.0
  0
LINE
  5
5144
330
512F
100
AcDbEntity
  8
AM_0 外形線1
100
AcDbLine
 10
28.5
 20
46.64995300000003
 30
0.0
 11
28.0
 21
47.23735899999996
 31
0.0
  0
ARC
  5
5145
330
512F
100
AcDbEntity
  8
AM_0 外形線1
100
AcDbCircle
 10
29.0
 20
40.49999999999999
 30
0.0
 40
0.5
100
AcDbArc
 50
180.0
 51
270.0
  0
LINE
  5
5146
330
512F
100
AcDbEntity
  8
AM_0 外形線1
100
AcDbLine
 10
28.5
 20
40.49999999999999
 30
0.0
 11
28.5
 21
46.64995300000003
 31
0.0
  0
ARC
  5
5147
330
512F
100
AcDbEntity
  8
AM_0 外形線1
100
AcDbCircle
 10
68.0
 20
37.0
 30
0.0
 40
3.0
100
AcDbArc
 50
0.0
 51
90.0
  0
LINE
  5
517A
330
512F
100
AcDbEntity
  8
AM_0 外形線1
100
AcDbLine
 10
0.0
 20
39.5
 30
0.0
 11
0.0
 21
0.0
 31
0.0
  0
ARC
  5
9C14
330
512F
100
AcDbEntity
  8
AM_7 中心線
100
AcDbCircle
 10
20.0
 20
0.0
 30
0.0
 40
45.99999999999993
100
AcDbArc
 50
78.16338190007029
 51
98.76016834655205
  0
ARC
  5
9C15
330
512F
100
AcDbEntity
  8
AM_0 外形線1
100
AcDbCircle
 10
20.0
 20
0.0
 30
0.0
 40
43.80000000000001
100
AcDbArc
 50
78.80995399634874
 51
97.87349379825544
  0
ENDBLK
  5
5131
330
512F
100
AcDbEntity
  8
0
100
AcDbBlockEnd
  0
BLOCK
  5
51AF
330
51AE
100
AcDbEntity
  8
0
100
AcDbBlockBegin
  2
センタ-2 SAM140
 70
     0
 10
0.0
 20
0.0
 30
0.0
  3
センタ-2 SAM140
  1

  0
LINE
  5
51B1
330
51AE
100
AcDbEntity
  8
AM_0 外形線1
100
AcDbLine
 10
-71.0
 20
-37.0
 30
0.0
 11
-71.0
 21
37.0
 31
0.0
  0
LINE
  5
51B2
330
51AE
100
AcDbEntity
  8
AM_0 外形線1
100
AcDbLine
 10
0.0
 20
39.5
 30
0.0
 11
0.0
 21
0.0
 31
0.0
  0
LINE
  5
51B3
330
51AE
100
AcDbEntity
  8
AM_0 外形線1
100
AcDbLine
 10
0.0
 20
19.07878399999998
 30
0.0
 11
-71.0
 21
19.07878399999998
 31
0.0
  0
LINE
  5
51B4
330
51AE
100
AcDbEntity
  8
AM_0 外形線1
100
AcDbLine
 10
-43.0
 20
-40.0
 30
0.0
 11
-68.0
 21
-40.0
 31
0.0
  0
ARC
  5
51B5
330
51AE
100
AcDbEntity
  8
AM_0 外形線1
100
AcDbCircle
 10
-68.0
 20
-37.0
 30
0.0
 40
3.0
100
AcDbArc
 50
180.0
 51
270.0
  0
LINE
  5
51B9
330
51AE
100
AcDbEntity
  8
AM_0 外形線1
100
AcDbLine
 10
-68.0
 20
40.0
 30
0.0
 11
-29.0
 21
40.0
 31
0.0
  0
ARC
  5
51BA
330
51AE
100
AcDbEntity
  8
AM_0 外形線1
100
AcDbCircle
 10
-68.0
 20
37.0
 30
0.0
 40
3.0
100
AcDbArc
 50
90.0
 51
180.0
  0
ARC
  5
51BC
330
51AE
100
AcDbEntity
  8
AM_0 外形線1
100
AcDbCircle
 10
-20.0
 20
0.0
 30
0.0
 40
47.90999999999999
100
AcDbArc
 50
83.40799199999855
 51
99.612261999997
  0
LINE
  5
51BD
330
51AE
100
AcDbEntity
  8
AM_0 外形線1
100
AcDbLine
 10
-28.5
 20
46.64995300000003
 30
0.0
 11
-28.0
 21
47.23735899999996
 31
0.0
  0
ARC
  5
51BE
330
51AE
100
AcDbEntity
  8
AM_0 外形線1
100
AcDbCircle
 10
-29.0
 20
40.49999999999999
 30
0.0
 40
0.5
100
AcDbArc
 50
270.0
 51
0.0
  0
LINE
  5
51BF
330
51AE
100
AcDbEntity
  8
AM_0 外形線1
100
AcDbLine
 10
-28.5
 20
40.49999999999999
 30
0.0
 11
-28.5
 21
46.64995300000003
 31
0.0
  0
LINE
  5
51C0
330
51AE
100
AcDbEntity
  8
AM_0 外形線1
100
AcDbLine
 10
-13.5
 20
40.0
 30
0.0
 11
-0.5
 21
40.0
 31
0.0
  0
LINE
  5
51C1
330
51AE
100
AcDbEntity
  8
AM_0 外形線1
100
AcDbLine
 10
-14.5
 20
47.59325699999998
 30
0.0
 11
-14.0
 21
47.03281099999998
 31
0.0
  0
ARC
  5
51C2
330
51AE
100
AcDbEntity
  8
AM_0 外形線1
100
AcDbCircle
 10
-13.5
 20
40.49999999999999
 30
0.0
 40
0.5
100
AcDbArc
 50
180.0
 51
270.0
  0
LINE
  5
51C3
330
51AE
100
AcDbEntity
  8
AM_0 外形線1
100
AcDbLine
 10
-14.0
 20
47.03281099999998
 30
0.0
 11
-14.0
 21
40.49999999999999
 31
0.0
  0
LINE
  5
51C4
330
51AE
100
AcDbEntity
  8
AM_0 外形線1
100
AcDbLine
 10
-0.5
 20
40.0
 30
0.0
 11
0.0
 21
39.5
 31
0.0
  0
LINE
  5
528D
330
51AE
100
AcDbEntity
  8
AM_7 中心線
100
AcDbLine
 10
-20.0
 20
50.0
 30
0.0
 11
-20.0
 21
41.80000000000001
 31
0.0
  0
ARC
  5
9C44
330
51AE
100
AcDbEntity
  8
AM_7 中心線
100
AcDbCircle
 10
-20.0
 20
-0.0000000000001705
 30
0.0
 40
45.99999999999993
100
AcDbArc
 50
80.49494368795947
 51
102.6683380572245
  0
ARC
  5
9C45
330
51AE
100
AcDbEntity
  8
AM_0 外形線1
100
AcDbCircle
 10
-20.0
 20
-0.0000000000001705
 30
0.0
 40
43.80000000000001
100
AcDbArc
 50
82.12650620174455
 51
101.1900460036512
  0
ENDBLK
  5
51B0
330
51AE
100
AcDbEntity
  8
0
100
AcDbBlockEnd
  0
BLOCK
  5
5568
330
5567
100
AcDbEntity
  8
0
100
AcDbBlockBegin
  2
リーマボルト-1 SAM140 M6
 70
     0
 10
0.0
 20
0.0
 30
0.0
  3
リーマボルト-1 SAM140 M6
  1

  0
LINE
  5
556A
330
5567
100
AcDbEntity
  8
AM_0 外形線1
100
AcDbLine
 10
0.0
 20
4.979646000000001
 30
0.0
 11
-3.566986999999925
 21
4.979646000000001
 31
0.0
  0
LINE
  5
556B
330
5567
100
AcDbEntity
  8
AM_0 外形線1
100
AcDbLine
 10
-3.566986999999925
 20
-4.979646000000001
 30
0.0
 11
0.0
 21
-4.979646000000001
 31
0.0
  0
LINE
  5
556C
330
5567
100
AcDbEntity
  8
AM_0 外形線1
100
AcDbLine
 10
-4.0
 20
2.880134999999995
 30
0.0
 11
-4.0
 21
-2.880135999999993
 31
0.0
  0
ARC
  5
556D
330
5567
100
AcDbEntity
  8
AM_0 外形線1
100
AcDbCircle
 10
3.198836000000028
 20
2.489823
 30
0.0
 40
7.20941
100
AcDbArc
 50
159.7963850000041
 51
200.2036149999959
  0
ARC
  5
556E
330
5567
100
AcDbEntity
  8
AM_0 外形線1
100
AcDbCircle
 10
3.198836000000028
 20
-2.489823
 30
0.0
 40
7.20941
100
AcDbArc
 50
159.7963850000041
 51
200.2036149999959
  0
LINE
  5
556F
330
5567
100
AcDbEntity
  8
AM_0 外形線1
100
AcDbLine
 10
1.00074100000006
 20
-3.5
 30
0.0
 11
1.0
 21
3.5
 31
0.0
  0
ARC
  5
5570
330
5567
100
AcDbEntity
  8
AM_0 外形線1
100
AcDbCircle
 10
0.5
 20
-3.5
 30
0.0
 40
0.5
100
AcDbArc
 50
0.0
 51
180.0
  0
ARC
  5
5571
330
5567
100
AcDbEntity
  8
AM_0 外形線1
100
AcDbCircle
 10
0.5
 20
3.5
 30
0.0
 40
0.5
100
AcDbArc
 50
180.0
 51
0.0
  0
ARC
  5
5572
330
5567
100
AcDbEntity
  8
AM_0 外形線1
100
AcDbCircle
 10
26.66098899999997
 20
0.0
 30
0.0
 40
9.839010999999999
100
AcDbArc
 50
342.9384689999998
 51
17.06153100000025
  0
LINE
  5
5573
330
5567
100
AcDbEntity
  8
AM_0 外形線1
100
AcDbLine
 10
39.0
 20
2.0
 30
0.0
 11
39.0
 21
-2.0
 31
0.0
  0
LINE
  5
5574
330
5567
100
AcDbEntity
  8
AM_0 外形線1
100
AcDbLine
 10
38.0
 20
3.0
 30
0.0
 11
38.0
 21
-3.0
 31
0.0
  0
LINE
  5
5575
330
5567
100
AcDbEntity
  8
AM_0 外形線1
100
AcDbLine
 10
27.0
 20
2.922649000000035
 30
0.0
 11
27.0
 21
-2.922650000000031
 31
0.0
  0
LINE
  5
5576
330
5567
100
AcDbEntity
  8
AM_0 外形線1
100
AcDbLine
 10
31.5
 20
1.0
 30
0.0
 11
30.0
 21
-0.5
 31
0.0
  0
LINE
  5
5577
330
5567
100
AcDbEntity
  8
AM_0 外形線1
100
AcDbLine
 10
31.5
 20
0.5
 30
0.0
 11
30.0
 21
-1.0
 31
0.0
  0
LINE
  5
5578
330
5567
100
AcDbEntity
  8
AM_0 外形線1
100
AcDbLine
 10
36.5
 20
5.0
 30
0.0
 11
36.5
 21
-5.0
 31
0.0
  0
LINE
  5
5579
330
5567
100
AcDbEntity
  8
AM_0 外形線1
100
AcDbLine
 10
31.5
 20
-5.75
 30
0.0
 11
31.5
 21
5.75
 31
0.0
  0
LINE
  5
557A
330
5567
100
AcDbEntity
  8
AM_0 外形線1
100
AcDbLine
 10
26.0
 20
3.5
 30
0.0
 11
26.0
 21
-3.5
 31
0.0
  0
LINE
  5
557B
330
5567
100
AcDbEntity
  8
AM_0 外形線1
100
AcDbLine
 10
26.86602599999992
 20
-3.0
 30
0.0
 11
30.0
 21
-3.0
 31
0.0
  0
LINE
  5
557C
330
5567
100
AcDbEntity
  8
AM_0 外形線1
100
AcDbLine
 10
27.0
 20
-2.922650000000031
 30
0.0
 11
26.0
 21
-3.5
 31
0.0
  0
LINE
  5
557D
330
5567
100
AcDbEntity
  8
AM_4 細線
100
AcDbLine
 10
36.5
 20
-2.5
 30
0.0
 11
38.5
 21
-2.5
 31
0.0
  0
LINE
  5
557E
330
5567
100
AcDbEntity
  8
AM_0 外形線1
100
AcDbLine
 10
36.5
 20
-5.0
 30
0.0
 11
36.06698800000004
 21
-5.75
 31
0.0
  0
ARC
  5
557F
330
5567
100
AcDbEntity
  8
AM_0 外形線1
100
AcDbCircle
 10
33.91687999999999
 20
-4.318375999999999
 30
0.0
 40
2.583120999999998
100
AcDbArc
 50
326.3428030000008
 51
33.65719699999906
  0
LINE
  5
5580
330
5567
100
AcDbEntity
  8
AM_0 外形線1
100
AcDbLine
 10
39.0
 20
-2.0
 30
0.0
 11
38.0
 21
-3.0
 31
0.0
  0
LINE
  5
5581
330
5567
100
AcDbEntity
  8
AM_0 外形線1
100
AcDbLine
 10
38.0
 20
-3.0
 30
0.0
 11
36.5
 21
-3.0
 31
0.0
  0
LINE
  5
5582
330
5567
100
AcDbEntity
  8
AM_0 外形線1
100
AcDbLine
 10
30.0
 20
-6.100000000000022
 30
0.0
 11
31.5
 21
-6.100000000000022
 31
0.0
  0
LINE
  5
5583
330
5567
100
AcDbEntity
  8
AM_0 外形線1
100
AcDbLine
 10
31.5
 20
-6.100000000000022
 30
0.0
 11
31.5
 21
-5.75
 31
0.0
  0
LINE
  5
5584
330
5567
100
AcDbEntity
  8
AM_0 外形線1
100
AcDbLine
 10
36.06698800000004
 20
-5.75
 30
0.0
 11
31.5
 21
-5.75
 31
0.0
  0
LINE
  5
5585
330
5567
100
AcDbEntity
  8
AM_0 外形線1
100
AcDbLine
 10
31.5
 20
-2.886752000000001
 30
0.0
 11
36.06698800000004
 21
-2.886752000000001
 31
0.0
  0
LINE
  5
5586
330
5567
100
AcDbEntity
  8
AM_0 外形線1
100
AcDbLine
 10
26.86602599999992
 20
3.0
 30
0.0
 11
30.0
 21
3.0
 31
0.0
  0
LINE
  5
5587
330
5567
100
AcDbEntity
  8
AM_0 外形線1
100
AcDbLine
 10
26.0
 20
3.5
 30
0.0
 11
27.0
 21
2.922649000000035
 31
0.0
  0
LINE
  5
5588
330
5567
100
AcDbEntity
  8
AM_4 細線
100
AcDbLine
 10
36.5
 20
2.5
 30
0.0
 11
38.5
 21
2.5
 31
0.0
  0
LINE
  5
5589
330
5567
100
AcDbEntity
  8
AM_0 外形線1
100
AcDbLine
 10
36.06698800000004
 20
5.75
 30
0.0
 11
36.5
 21
5.0
 31
0.0
  0
LINE
  5
558A
330
5567
100
AcDbEntity
  8
AM_0 外形線1
100
AcDbLine
 10
31.5
 20
5.75
 30
0.0
 11
31.5
 21
6.099999999999965
 31
0.0
  0
LINE
  5
558B
330
5567
100
AcDbEntity
  8
AM_0 外形線1
100
AcDbLine
 10
31.5
 20
6.099999999999965
 30
0.0
 11
30.0
 21
6.099999999999965
 31
0.0
  0
LINE
  5
558C
330
5567
100
AcDbEntity
  8
AM_0 外形線1
100
AcDbLine
 10
31.5
 20
5.75
 30
0.0
 11
36.06698800000004
 21
5.75
 31
0.0
  0
LINE
  5
558D
330
5567
100
AcDbEntity
  8
AM_0 外形線1
100
AcDbLine
 10
36.5
 20
3.0
 30
0.0
 11
38.0
 21
3.0
 31
0.0
  0
LINE
  5
558E
330
5567
100
AcDbEntity
  8
AM_0 外形線1
100
AcDbLine
 10
38.0
 20
3.0
 30
0.0
 11
39.0
 21
2.0
 31
0.0
  0
LINE
  5
558F
330
5567
100
AcDbEntity
  8
AM_0 外形線1
100
AcDbLine
 10
31.5
 20
2.886751000000002
 30
0.0
 11
36.06698800000004
 21
2.886751000000002
 31
0.0
  0
ARC
  5
5590
330
5567
100
AcDbEntity
  8
AM_0 外形線1
100
AcDbCircle
 10
33.91687999999999
 20
4.318375000000003
 30
0.0
 40
2.583120999999998
100
AcDbArc
 50
326.3428030000008
 51
33.65719699999906
  0
LINE
  5
55E9
330
5567
100
AcDbEntity
  8
AM_0 外形線1
100
AcDbLine
 10
0.0
 20
4.979646000000001
 30
0.0
 11
0.0
 21
-4.979646000000001
 31
0.0
  0
LINE
  5
55EA
330
5567
100
AcDbEntity
  8
AM_0 外形線1
100
AcDbLine
 10
0.0
 20
0.0
 30
0.0
 11
-3.566987904641904
 21
0.0000001743390499
 31
0.0
  0
LINE
  5
55EB
330
5567
100
AcDbEntity
  8
AM_0 外形線1
100
AcDbLine
 10
1.0
 20
3.5
 30
0.0
 11
26.0
 21
3.5
 31
0.0
  0
LINE
  5
55EC
330
5567
100
AcDbEntity
  8
AM_0 外形線1
100
AcDbLine
 10
1.0
 20
-3.5
 30
0.0
 11
26.0
 21
-3.5
 31
0.0
  0
LINE
  5
55ED
330
5567
100
AcDbEntity
  8
AM_0 外形線1
100
AcDbLine
 10
30.0
 20
6.099999999999965
 30
0.0
 11
29.99999999999995
 21
-6.100000000000022
 31
0.0
  0
ENDBLK
  5
5569
330
5567
100
AcDbEntity
  8
0
100
AcDbBlockEnd
  0
BLOCK
  5
55F9
330
55F8
100
AcDbEntity
  8
0
100
AcDbBlockBegin
  2
リーマボルト-2 SAM140 M6
 70
     0
 10
0.0
 20
0.0
 30
0.0
  3
リーマボルト-2 SAM140 M6
  1

  0
LINE
  5
55FB
330
55F8
100
AcDbEntity
  8
AM_0 外形線1
100
AcDbLine
 10
-26.00000000000023
 20
3.5
 30
0.0
 11
-26.00000000000023
 21
-3.5
 31
0.0
  0
LINE
  5
55FC
330
55F8
100
AcDbEntity
  8
AM_0 外形線1
100
AcDbLine
 10
-27.00000000000023
 20
2.922649000000035
 30
0.0
 11
-27.00000000000023
 21
-2.922650000000031
 31
0.0
  0
LINE
  5
55FD
330
55F8
100
AcDbEntity
  8
AM_0 外形線1
100
AcDbLine
 10
-31.50000000000023
 20
-0.5
 30
0.0
 11
-30.00000000000023
 21
1.0
 31
0.0
  0
LINE
  5
55FE
330
55F8
100
AcDbEntity
  8
AM_0 外形線1
100
AcDbLine
 10
-30.00000000000023
 20
0.5
 30
0.0
 11
-31.50000000000023
 21
-1.0
 31
0.0
  0
LINE
  5
55FF
330
55F8
100
AcDbEntity
  8
AM_0 外形線1
100
AcDbLine
 10
-31.50000000000023
 20
-5.75
 30
0.0
 11
-31.50000000000023
 21
5.75
 31
0.0
  0
ARC
  5
5600
330
55F8
100
AcDbEntity
  8
AM_0 外形線1
100
AcDbCircle
 10
-26.6609890000002
 20
0.0
 30
0.0
 40
9.839010999999999
100
AcDbArc
 50
162.9384689999997
 51
197.0615310000002
  0
LINE
  5
5601
330
55F8
100
AcDbEntity
  8
AM_0 外形線1
100
AcDbLine
 10
-39.00000000000023
 20
2.0
 30
0.0
 11
-39.00000000000023
 21
-2.0
 31
0.0
  0
LINE
  5
5602
330
55F8
100
AcDbEntity
  8
AM_0 外形線1
100
AcDbLine
 10
-38.00000000000023
 20
3.0
 30
0.0
 11
-38.00000000000023
 21
-3.0
 31
0.0
  0
LINE
  5
5603
330
55F8
100
AcDbEntity
  8
AM_0 外形線1
100
AcDbLine
 10
-36.50000000000023
 20
5.0
 30
0.0
 11
-36.50000000000023
 21
-5.0
 31
0.0
  0
LINE
  5
5604
330
55F8
100
AcDbEntity
  8
AM_0 外形線1
100
AcDbLine
 10
-36.06698699999993
 20
-5.75
 30
0.0
 11
-31.50000000000023
 21
-5.75
 31
0.0
  0
LINE
  5
5605
330
55F8
100
AcDbEntity
  8
AM_0 外形線1
100
AcDbLine
 10
-31.50000000000023
 20
-2.886752000000001
 30
0.0
 11
-36.06698699999993
 21
-2.886752000000001
 31
0.0
  0
LINE
  5
5606
330
55F8
100
AcDbEntity
  8
AM_4 細線
100
AcDbLine
 10
-36.50000000000023
 20
-2.5
 30
0.0
 11
-38.50000000000023
 21
-2.5
 31
0.0
  0
LINE
  5
5607
330
55F8
100
AcDbEntity
  8
AM_0 外形線1
100
AcDbLine
 10
-36.50000000000023
 20
-5.0
 30
0.0
 11
-36.06698699999993
 21
-5.75
 31
0.0
  0
ARC
  5
5608
330
55F8
100
AcDbEntity
  8
AM_0 外形線1
100
AcDbCircle
 10
-33.91687900000011
 20
-4.318375999999999
 30
0.0
 40
2.583120999999998
100
AcDbArc
 50
146.3428030000009
 51
213.657196999999
  0
LINE
  5
5609
330
55F8
100
AcDbEntity
  8
AM_0 外形線1
100
AcDbLine
 10
-39.00000000000023
 20
-2.0
 30
0.0
 11
-38.00000000000023
 21
-3.0
 31
0.0
  0
LINE
  5
560A
330
55F8
100
AcDbEntity
  8
AM_0 外形線1
100
AcDbLine
 10
-38.00000000000023
 20
-3.0
 30
0.0
 11
-36.50000000000023
 21
-3.0
 31
0.0
  0
LINE
  5
560B
330
55F8
100
AcDbEntity
  8
AM_0 外形線1
100
AcDbLine
 10
-30.00000000000023
 20
-6.100000000000022
 30
0.0
 11
-31.50000000000023
 21
-6.100000000000022
 31
0.0
  0
LINE
  5
560C
330
55F8
100
AcDbEntity
  8
AM_0 外形線1
100
AcDbLine
 10
-31.50000000000023
 20
-6.100000000000022
 30
0.0
 11
-31.50000000000023
 21
-5.75
 31
0.0
  0
LINE
  5
560D
330
55F8
100
AcDbEntity
  8
AM_0 外形線1
100
AcDbLine
 10
-26.86602500000004
 20
-3.0
 30
0.0
 11
-30.00000000000023
 21
-3.0
 31
0.0
  0
LINE
  5
560E
330
55F8
100
AcDbEntity
  8
AM_0 外形線1
100
AcDbLine
 10
-27.00000000000023
 20
-2.922650000000031
 30
0.0
 11
-26.00000000000023
 21
-3.5
 31
0.0
  0
LINE
  5
560F
330
55F8
100
AcDbEntity
  8
AM_0 外形線1
100
AcDbLine
 10
-31.50000000000023
 20
5.75
 30
0.0
 11
-36.06698699999993
 21
5.75
 31
0.0
  0
LINE
  5
5610
330
55F8
100
AcDbEntity
  8
AM_0 外形線1
100
AcDbLine
 10
-31.50000000000023
 20
2.886751000000002
 30
0.0
 11
-36.06698699999993
 21
2.886751000000002
 31
0.0
  0
LINE
  5
5611
330
55F8
100
AcDbEntity
  8
AM_4 細線
100
AcDbLine
 10
-36.50000000000023
 20
2.5
 30
0.0
 11
-38.50000000000023
 21
2.5
 31
0.0
  0
LINE
  5
5612
330
55F8
100
AcDbEntity
  8
AM_0 外形線1
100
AcDbLine
 10
-36.06698699999993
 20
5.75
 30
0.0
 11
-36.50000000000023
 21
5.0
 31
0.0
  0
LINE
  5
5613
330
55F8
100
AcDbEntity
  8
AM_0 外形線1
100
AcDbLine
 10
-36.50000000000023
 20
3.0
 30
0.0
 11
-38.00000000000023
 21
3.0
 31
0.0
  0
LINE
  5
5614
330
55F8
100
AcDbEntity
  8
AM_0 外形線1
100
AcDbLine
 10
-38.00000000000023
 20
3.0
 30
0.0
 11
-39.00000000000023
 21
2.0
 31
0.0
  0
ARC
  5
5615
330
55F8
100
AcDbEntity
  8
AM_0 外形線1
100
AcDbCircle
 10
-33.91687900000011
 20
4.318375000000003
 30
0.0
 40
2.583120999999998
100
AcDbArc
 50
146.3428030000009
 51
213.657196999999
  0
LINE
  5
5616
330
55F8
100
AcDbEntity
  8
AM_0 外形線1
100
AcDbLine
 10
-31.50000000000023
 20
5.75
 30
0.0
 11
-31.50000000000023
 21
6.099999999999965
 31
0.0
  0
LINE
  5
5617
330
55F8
100
AcDbEntity
  8
AM_0 外形線1
100
AcDbLine
 10
-31.50000000000023
 20
6.099999999999965
 30
0.0
 11
-30.00000000000023
 21
6.099999999999965
 31
0.0
  0
LINE
  5
5618
330
55F8
100
AcDbEntity
  8
AM_0 外形線1
100
AcDbLine
 10
-26.86602500000004
 20
3.0
 30
0.0
 11
-30.00000000000023
 21
3.0
 31
0.0
  0
LINE
  5
5619
330
55F8
100
AcDbEntity
  8
AM_0 外形線1
100
AcDbLine
 10
-26.00000000000023
 20
3.5
 30
0.0
 11
-27.00000000000023
 21
2.922649000000035
 31
0.0
  0
LINE
  5
561A
330
55F8
100
AcDbEntity
  8
AM_0 外形線1
100
AcDbLine
 10
-1.0
 20
-3.5
 30
0.0
 11
-1.0
 21
3.5
 31
0.0
  0
LINE
  5
561B
330
55F8
100
AcDbEntity
  8
AM_0 外形線1
100
AcDbLine
 10
4.0
 20
2.880134999999995
 30
0.0
 11
4.0
 21
-2.880135999999993
 31
0.0
  0
ARC
  5
561C
330
55F8
100
AcDbEntity
  8
AM_0 外形線1
100
AcDbCircle
 10
-3.198836000000028
 20
2.489823
 30
0.0
 40
7.20941
100
AcDbArc
 50
339.7963850000041
 51
20.20361499999586
  0
ARC
  5
561D
330
55F8
100
AcDbEntity
  8
AM_0 外形線1
100
AcDbCircle
 10
-0.5
 20
-3.5
 30
0.0
 40
0.5
100
AcDbArc
 50
0.0
 51
180.0
  0
ARC
  5
561E
330
55F8
100
AcDbEntity
  8
AM_0 外形線1
100
AcDbCircle
 10
-3.198836000000028
 20
-2.489823
 30
0.0
 40
7.20941
100
AcDbArc
 50
339.7963850000041
 51
20.20361499999586
  0
LINE
  5
561F
330
55F8
100
AcDbEntity
  8
AM_0 外形線1
100
AcDbLine
 10
3.566987999999809
 20
-4.979646000000001
 30
0.0
 11
0.0
 21
-4.979646000000001
 31
0.0
  0
LINE
  5
5620
330
55F8
100
AcDbEntity
  8
AM_0 外形線1
100
AcDbLine
 10
0.0
 20
4.979646000000001
 30
0.0
 11
3.566987999999809
 21
4.979646000000001
 31
0.0
  0
ARC
  5
5621
330
55F8
100
AcDbEntity
  8
AM_0 外形線1
100
AcDbCircle
 10
-0.5
 20
3.5
 30
0.0
 40
0.5
100
AcDbArc
 50
180.0
 51
0.0
  0
LINE
  5
5679
330
55F8
100
AcDbEntity
  8
AM_0 外形線1
100
AcDbLine
 10
-30.00000000000023
 20
6.099999999999965
 30
0.0
 11
-30.00000000000023
 21
-6.100000000000022
 31
0.0
  0
LINE
  5
567A
330
55F8
100
AcDbEntity
  8
AM_0 外形線1
100
AcDbLine
 10
-26.00000000000023
 20
3.5
 30
0.0
 11
-1.0
 21
3.5
 31
0.0
  0
LINE
  5
567B
330
55F8
100
AcDbEntity
  8
AM_0 外形線1
100
AcDbLine
 10
-26.00000000000023
 20
-3.5
 30
0.0
 11
-1.0
 21
-3.5
 31
0.0
  0
LINE
  5
567C
330
55F8
100
AcDbEntity
  8
AM_0 外形線1
100
AcDbLine
 10
0.0
 20
4.979646000000001
 30
0.0
 11
0.0
 21
-4.979646000000001
 31
0.0
  0
ENDBLK
  5
55FA
330
55F8
100
AcDbEntity
  8
0
100
AcDbBlockEnd
  0
BLOCK
  5
5C48
330
5C47
100
AcDbEntity
  8
0
100
AcDbBlockBegin
  2
*D15
 70
     1
 10
0.0
 20
0.0
 30
0.0
  3
*D15
  1

  0
LINE
  5
9677
330
5C47
100
AcDbEntity
  8
AM_5 寸法線
 62
     3
100
AcDbLine
 10
565.3908453629067
 20
477.2611505619742
 30
0.0
 11
608.3908453629066
 21
477.2611505619742
 31
0.0
  0
LINE
  5
9678
330
5C47
100
AcDbEntity
  8
AM_5 寸法線
 62
     3
100
AcDbLine
 10
565.3908453629067
 20
397.2611505619743
 30
0.0
 11
608.3908453629066
 21
397.2611505619743
 31
0.0
  0
LINE
  5
9679
330
5C47
100
AcDbEntity
  8
AM_5 寸法線
 62
     3
100
AcDbLine
 10
607.1408453629067
 20
472.2611505619743
 30
0.0
 11
607.1408453629067
 21
402.2611505619742
 31
0.0
  0
INSERT
  5
967A
330
5C47
100
AcDbEntity
  8
AM_5 寸法線
 62
     3
100
AcDbBlockReference
  2
_Open30
 10
607.1408453629067
 20
477.2611505619742
 30
0.0
 41
5.0
 42
5.0
 43
5.0
 50
90.0
  0
INSERT
  5
967B
330
5C47
100
AcDbEntity
  8
AM_5 寸法線
 62
     3
100
AcDbBlockReference
  2
_Open30
 10
607.1408453629067
 20
397.2611505619743
 30
0.0
 41
5.0
 42
5.0
 43
5.0
 50
270.0
  0
MTEXT
  5
967C
330
5C47
100
AcDbEntity
  8
AM_5 寸法線
 62
     3
100
AcDbMText
 10
600.6408453629067
 20
437.2611505619743
 30
0.0
 40
7.0
 41
0.0
 46
0.0
 71
     5
 72
     1
  1
%%c80
  7
SEISA
 11
0.0000000000000001
 21
1.0
 31
0.0
 73
     1
 44
1.0
  0
POINT
  5
967D
330
5C47
100
AcDbEntity
  8
Defpoints
 62
     0
100
AcDbPoint
 10
564.1408453629066
 20
477.2611505619742
 30
0.0
  0
POINT
  5
967E
330
5C47
100
AcDbEntity
  8
Defpoints
 62
     0
100
AcDbPoint
 10
564.1408453629066
 20
397.2611505619743
 30
0.0
  0
POINT
  5
967F
330
5C47
100
AcDbEntity
  8
Defpoints
 62
     0
100
AcDbPoint
 10
607.1408453629067
 20
397.2611505619743
 30
0.0
  0
ENDBLK
  5
5C49
330
5C47
100
AcDbEntity
  8
0
100
AcDbBlockEnd
  0
BLOCK
  5
5C60
330
5C5F
100
AcDbEntity
  8
0
100
AcDbBlockBegin
  2
*D16
 70
     1
 10
0.0
 20
0.0
 30
0.0
  3
*D16
  1

  0
LINE
  5
9680
330
5C5F
100
AcDbEntity
  8
AM_5 寸法線
 62
     3
100
AcDbLine
 10
537.3908453629068
 20
490.7611505619743
 30
0.0
 11
628.3908453629067
 21
490.7611505619743
 31
0.0
  0
LINE
  5
9681
330
5C5F
100
AcDbEntity
  8
AM_5 寸法線
 62
     3
100
AcDbLine
 10
536.2349073629067
 20
383.7611505619743
 30
0.0
 11
628.3908453629067
 21
383.7611505619743
 31
0.0
  0
LINE
  5
9682
330
5C5F
100
AcDbEntity
  8
AM_5 寸法線
 62
     3
100
AcDbLine
 10
627.1408453629066
 20
485.7611505619741
 30
0.0
 11
627.1408453629066
 21
388.7611505619743
 31
0.0
  0
INSERT
  5
9683
330
5C5F
100
AcDbEntity
  8
AM_5 寸法線
 62
     3
100
AcDbBlockReference
  2
_Open30
 10
627.1408453629066
 20
490.7611505619743
 30
0.0
 41
5.0
 42
5.0
 43
5.0
 50
90.0
  0
INSERT
  5
9684
330
5C5F
100
AcDbEntity
  8
AM_5 寸法線
 62
     3
100
AcDbBlockReference
  2
_Open30
 10
627.1408453629066
 20
383.7611505619743
 30
0.0
 41
5.0
 42
5.0
 43
5.0
 50
270.0
  0
MTEXT
  5
9685
330
5C5F
100
AcDbEntity
  8
AM_5 寸法線
 62
     3
100
AcDbMText
 10
620.6408453629067
 20
437.2611505619743
 30
0.0
 40
7.0
 41
0.0
 46
0.0
 71
     5
 72
     1
  1
%%c107
  7
SEISA
 11
0.0000000000000001
 21
1.0
 31
0.0
 73
     1
 44
1.0
  0
POINT
  5
9686
330
5C5F
100
AcDbEntity
  8
Defpoints
 62
     0
100
AcDbPoint
 10
536.1408453629068
 20
490.7611505619743
 30
0.0
  0
POINT
  5
9687
330
5C5F
100
AcDbEntity
  8
Defpoints
 62
     0
100
AcDbPoint
 10
534.9849073629067
 20
383.7611505619743
 30
0.0
  0
POINT
  5
9688
330
5C5F
100
AcDbEntity
  8
Defpoints
 62
     0
100
AcDbPoint
 10
627.1408453629066
 20
383.7611505619743
 30
0.0
  0
ENDBLK
  5
5C61
330
5C5F
100
AcDbEntity
  8
0
100
AcDbBlockEnd
  0
BLOCK
  5
5C78
330
5C77
100
AcDbEntity
  8
0
100
AcDbBlockBegin
  2
*D17
 70
     1
 10
0.0
 20
0.0
 30
0.0
  3
*D17
  1

  0
LINE
  5
9689
330
5C77
100
AcDbEntity
  8
AM_5 寸法線
 62
     3
100
AcDbLine
 10
508.1908453629067
 20
507.2611505619743
 30
0.0
 11
648.3908453629067
 21
507.2611505619741
 31
0.0
  0
LINE
  5
968A
330
5C77
100
AcDbEntity
  8
AM_5 寸法線
 62
     3
100
AcDbLine
 10
508.1908453629067
 20
367.2611505619745
 30
0.0
 11
648.3908453629067
 21
367.2611505619743
 31
0.0
  0
LINE
  5
968B
330
5C77
100
AcDbEntity
  8
AM_5 寸法線
 62
     3
100
AcDbLine
 10
647.1408453629067
 20
502.2611505619742
 30
0.0
 11
647.1408453629067
 21
372.2611505619743
 31
0.0
  0
INSERT
  5
968C
330
5C77
100
AcDbEntity
  8
AM_5 寸法線
 62
     3
100
AcDbBlockReference
  2
_Open30
 10
647.1408453629067
 20
507.2611505619741
 30
0.0
 41
5.0
 42
5.0
 43
5.0
 50
90.0
  0
INSERT
  5
968D
330
5C77
100
AcDbEntity
  8
AM_5 寸法線
 62
     3
100
AcDbBlockReference
  2
_Open30
 10
647.1408453629067
 20
367.2611505619743
 30
0.0
 41
5.0
 42
5.0
 43
5.0
 50
270.0
  0
MTEXT
  5
968E
330
5C77
100
AcDbEntity
  8
AM_5 寸法線
 62
     3
100
AcDbMText
 10
640.6408453629064
 20
437.2611505619743
 30
0.0
 40
7.0
 41
0.0
 46
0.0
 71
     5
 72
     1
  1
%%c140
  7
SEISA
 11
0.0000000000000001
 21
1.0
 31
0.0
 73
     1
 44
1.0
  0
POINT
  5
968F
330
5C77
100
AcDbEntity
  8
Defpoints
 62
     0
100
AcDbPoint
 10
506.9408453629066
 20
507.2611505619743
 30
0.0
  0
POINT
  5
9690
330
5C77
100
AcDbEntity
  8
Defpoints
 62
     0
100
AcDbPoint
 10
506.9408453629066
 20
367.2611505619745
 30
0.0
  0
POINT
  5
9691
330
5C77
100
AcDbEntity
  8
Defpoints
 62
     0
100
AcDbPoint
 10
647.1408453629067
 20
367.2611505619743
 30
0.0
  0
ENDBLK
  5
5C79
330
5C77
100
AcDbEntity
  8
0
100
AcDbBlockEnd
  0
BLOCK
  5
5CDA
330
5CD9
100
AcDbEntity
  8
0
100
AcDbBlockBegin
  2
*D18
 70
     1
 10
0.0
 20
0.0
 30
0.0
  3
*D18
  1

  0
LINE
  5
9692
330
5CD9
100
AcDbEntity
  8
AM_5 寸法線
 62
     3
100
AcDbLine
 10
327.1408453629066
 20
366.2111505619743
 30
0.0
 11
327.1408453629066
 21
336.0111505619743
 31
0.0
  0
LINE
  5
9693
330
5CD9
100
AcDbEntity
  8
AM_5 寸法線
 62
     3
100
AcDbLine
 10
342.1408453629068
 20
366.2111505619743
 30
0.0
 11
342.1408453629068
 21
336.0111505619743
 31
0.0
  0
LINE
  5
9694
330
5CD9
100
AcDbEntity
  8
AM_5 寸法線
 62
     3
100
AcDbLine
 10
347.1408453629068
 20
337.2611505619743
 30
0.0
 11
352.1408453629068
 21
337.2611505619743
 31
0.0
  0
LINE
  5
9695
330
5CD9
100
AcDbEntity
  8
AM_5 寸法線
 62
     3
100
AcDbLine
 10
322.1408453629066
 20
337.2611505619743
 30
0.0
 11
301.8408453629066
 21
337.2611505619743
 31
0.0
  0
LINE
  5
9696
330
5CD9
100
AcDbEntity
  8
AM_5 寸法線
 62
     3
100
AcDbLine
 10
342.1408453629068
 20
337.2611505619743
 30
0.0
 11
327.1408453629066
 21
337.2611505619743
 31
0.0
  0
INSERT
  5
9697
330
5CD9
100
AcDbEntity
  8
AM_5 寸法線
 62
     3
100
AcDbBlockReference
  2
GENDOT
 10
342.1408453629068
 20
337.2611505619743
 30
0.0
 41
5.0
 42
5.0
 43
5.0
 50
180.0
  0
INSERT
  5
9698
330
5CD9
100
AcDbEntity
  8
AM_5 寸法線
 62
     3
100
AcDbBlockReference
  2
_Open30
 10
327.1408453629066
 20
337.2611505619743
 30
0.0
 41
5.0
 42
5.0
 43
5.0
  0
MTEXT
  5
9699
330
5CD9
100
AcDbEntity
  8
AM_5 寸法線
 62
     3
100
AcDbMText
 10
309.4908453629066
 20
343.7611505619743
 30
0.0
 40
7.0
 41
0.0
 46
0.0
 71
     5
 72
     1
  1
15
  7
SEISA
 73
     1
 44
1.0
  0
POINT
  5
969A
330
5CD9
100
AcDbEntity
  8
Defpoints
 62
     0
100
AcDbPoint
 10
327.1408453629066
 20
367.4611505619743
 30
0.0
  0
POINT
  5
969B
330
5CD9
100
AcDbEntity
  8
Defpoints
 62
     0
100
AcDbPoint
 10
342.1408453629068
 20
367.4611505619743
 30
0.0
  0
POINT
  5
969C
330
5CD9
100
AcDbEntity
  8
Defpoints
 62
     0
100
AcDbPoint
 10
342.1408453629068
 20
337.2611505619743
 30
0.0
  0
ENDBLK
  5
5CDB
330
5CD9
100
AcDbEntity
  8
0
100
AcDbBlockEnd
  0
BLOCK
  5
5F35
330
5F34
100
AcDbEntity
  8
0
100
AcDbBlockBegin
  2
*D19
 70
     1
 10
0.0
 20
0.0
 30
0.0
  3
*D19
  1

  0
LINE
  5
969D
330
5F34
100
AcDbEntity
  8
AM_5 寸法線
 62
     3
100
AcDbLine
 10
492.1408453629068
 20
366.2111505619743
 30
0.0
 11
492.1408453629068
 21
336.0111505619743
 31
0.0
  0
LINE
  5
969E
330
5F34
100
AcDbEntity
  8
AM_5 寸法線
 62
     3
100
AcDbLine
 10
507.1408453629068
 20
366.2111505619743
 30
0.0
 11
507.1408453629068
 21
336.0111505619743
 31
0.0
  0
LINE
  5
969F
330
5F34
100
AcDbEntity
  8
AM_5 寸法線
 62
     3
100
AcDbLine
 10
487.1408453629068
 20
337.2611505619743
 30
0.0
 11
482.1408453629068
 21
337.2611505619743
 31
0.0
  0
LINE
  5
96A0
330
5F34
100
AcDbEntity
  8
AM_5 寸法線
 62
     3
100
AcDbLine
 10
512.1408453629068
 20
337.2611505619743
 30
0.0
 11
532.4408453629067
 21
337.2611505619743
 31
0.0
  0
LINE
  5
96A1
330
5F34
100
AcDbEntity
  8
AM_5 寸法線
 62
     3
100
AcDbLine
 10
492.1408453629068
 20
337.2611505619743
 30
0.0
 11
507.1408453629068
 21
337.2611505619743
 31
0.0
  0
INSERT
  5
96A2
330
5F34
100
AcDbEntity
  8
AM_5 寸法線
 62
     3
100
AcDbBlockReference
  2
GENDOT
 10
492.1408453629068
 20
337.2611505619743
 30
0.0
 41
5.0
 42
5.0
 43
5.0
  0
INSERT
  5
96A3
330
5F34
100
AcDbEntity
  8
AM_5 寸法線
 62
     3
100
AcDbBlockReference
  2
_Open30
 10
507.1408453629068
 20
337.2611505619743
 30
0.0
 41
5.0
 42
5.0
 43
5.0
 50
180.0
  0
MTEXT
  5
96A4
330
5F34
100
AcDbEntity
  8
AM_5 寸法線
 62
     3
100
AcDbMText
 10
524.7908453629068
 20
343.7611505619743
 30
0.0
 40
7.0
 41
0.0
 46
0.0
 71
     5
 72
     1
  1
15
  7
SEISA
 73
     1
 44
1.0
  0
POINT
  5
96A5
330
5F34
100
AcDbEntity
  8
Defpoints
 62
     0
100
AcDbPoint
 10
492.1408453629068
 20
367.4611505619743
 30
0.0
  0
POINT
  5
96A6
330
5F34
100
AcDbEntity
  8
Defpoints
 62
     0
100
AcDbPoint
 10
507.1408453629068
 20
367.4611505619743
 30
0.0
  0
POINT
  5
96A7
330
5F34
100
AcDbEntity
  8
Defpoints
 62
     0
100
AcDbPoint
 10
507.1408453629068
 20
337.2611505619743
 30
0.0
  0
ENDBLK
  5
5F36
330
5F34
100
AcDbEntity
  8
0
100
AcDbBlockEnd
  0
BLOCK
  5
5F89
330
5F88
100
AcDbEntity
  8
0
100
AcDbBlockBegin
  2
*D20
 70
     1
 10
0.0
 20
0.0
 30
0.0
  3
*D20
  1

  0
LINE
  5
96A8
330
5F88
100
AcDbEntity
  8
AM_5 寸法線
 62
     3
100
AcDbLine
 10
567.1408453629067
 20
399.0111505619743
 30
0.0
 11
567.1408453629067
 21
316.0111505619743
 31
0.0
  0
LINE
  5
96A9
330
5F88
100
AcDbEntity
  8
AM_5 寸法線
 62
     3
100
AcDbLine
 10
539.1408453629066
 20
385.5111505619743
 30
0.0
 11
539.1408453629066
 21
316.0111505619743
 31
0.0
  0
LINE
  5
96AA
330
5F88
100
AcDbEntity
  8
AM_5 寸法線
 62
     3
100
AcDbLine
 10
562.1408453629068
 20
317.2611505619743
 30
0.0
 11
544.1408453629068
 21
317.2611505619743
 31
0.0
  0
INSERT
  5
96AB
330
5F88
100
AcDbEntity
  8
AM_5 寸法線
 62
     3
100
AcDbBlockReference
  2
_Open30
 10
567.1408453629067
 20
317.2611505619743
 30
0.0
 41
5.0
 42
5.0
 43
5.0
  0
INSERT
  5
96AC
330
5F88
100
AcDbEntity
  8
AM_5 寸法線
 62
     3
100
AcDbBlockReference
  2
_Open30
 10
539.1408453629066
 20
317.2611505619743
 30
0.0
 41
5.0
 42
5.0
 43
5.0
 50
180.0
  0
MTEXT
  5
96AD
330
5F88
100
AcDbEntity
  8
AM_5 寸法線
 62
     3
100
AcDbMText
 10
553.1408453629068
 20
323.7611505619743
 30
0.0
 40
7.0
 41
0.0
 46
0.0
 71
     5
 72
     1
  1
28
  7
SEISA
 73
     1
 44
1.0
  0
POINT
  5
96AE
330
5F88
100
AcDbEntity
  8
Defpoints
 62
     0
100
AcDbPoint
 10
567.1408453629067
 20
400.2611505619743
 30
0.0
  0
POINT
  5
96AF
330
5F88
100
AcDbEntity
  8
Defpoints
 62
     0
100
AcDbPoint
 10
539.1408453629066
 20
386.7611505619743
 30
0.0
  0
POINT
  5
96B0
330
5F88
100
AcDbEntity
  8
Defpoints
 62
     0
100
AcDbPoint
 10
539.1408453629066
 20
317.2611505619743
 30
0.0
  0
ENDBLK
  5
5F8A
330
5F88
100
AcDbEntity
  8
0
100
AcDbBlockEnd
  0
BLOCK
  5
5FA1
330
5FA0
100
AcDbEntity
  8
0
100
AcDbBlockBegin
  2
*D21
 70
     1
 10
0.0
 20
0.0
 30
0.0
  3
*D21
  1

  0
LINE
  5
96B1
330
5FA0
100
AcDbEntity
  8
AM_5 寸法線
 62
     3
100
AcDbLine
 10
539.1408453629066
 20
385.5111505619743
 30
0.0
 11
539.1408453629066
 21
316.0111505619743
 31
0.0
  0
LINE
  5
96B2
330
5FA0
100
AcDbEntity
  8
AM_5 寸法線
 62
     3
100
AcDbLine
 10
492.1408453629068
 20
366.2111505619743
 30
0.0
 11
492.1408453629068
 21
316.0111505619743
 31
0.0
  0
LINE
  5
96B3
330
5FA0
100
AcDbEntity
  8
AM_5 寸法線
 62
     3
100
AcDbLine
 10
534.1408453629068
 20
317.2611505619743
 30
0.0
 11
497.1408453629067
 21
317.2611505619743
 31
0.0
  0
INSERT
  5
96B4
330
5FA0
100
AcDbEntity
  8
AM_5 寸法線
 62
     3
100
AcDbBlockReference
  2
_Open30
 10
539.1408453629066
 20
317.2611505619743
 30
0.0
 41
5.0
 42
5.0
 43
5.0
  0
INSERT
  5
96B5
330
5FA0
100
AcDbEntity
  8
AM_5 寸法線
 62
     3
100
AcDbBlockReference
  2
_Open30
 10
492.1408453629068
 20
317.2611505619743
 30
0.0
 41
5.0
 42
5.0
 43
5.0
 50
180.0
  0
MTEXT
  5
96B6
330
5FA0
100
AcDbEntity
  8
AM_5 寸法線
 62
     3
100
AcDbMText
 10
515.6408453629068
 20
323.7611505619743
 30
0.0
 40
7.0
 41
0.0
 46
0.0
 71
     5
 72
     1
  1
47
  7
SEISA
 73
     1
 44
1.0
  0
POINT
  5
96B7
330
5FA0
100
AcDbEntity
  8
Defpoints
 62
     0
100
AcDbPoint
 10
539.1408453629066
 20
386.7611505619743
 30
0.0
  0
POINT
  5
96B8
330
5FA0
100
AcDbEntity
  8
Defpoints
 62
     0
100
AcDbPoint
 10
492.1408453629068
 20
367.4611505619743
 30
0.0
  0
POINT
  5
96B9
330
5FA0
100
AcDbEntity
  8
Defpoints
 62
     0
100
AcDbPoint
 10
492.1408453629068
 20
317.2611505619743
 30
0.0
  0
ENDBLK
  5
5FA2
330
5FA0
100
AcDbEntity
  8
0
100
AcDbBlockEnd
  0
BLOCK
  5
5FD9
330
5FD8
100
AcDbEntity
  8
0
100
AcDbBlockBegin
  2
*D22
 70
     1
 10
0.0
 20
0.0
 30
0.0
  3
*D22
  1

  0
LINE
  5
96C2
330
5FD8
100
AcDbEntity
  8
AM_5 寸法線
 62
     3
100
AcDbLine
 10
342.1408453629068
 20
366.2111505619743
 30
0.0
 11
342.1408453629068
 21
316.0111505619743
 31
0.0
  0
LINE
  5
96C3
330
5FD8
100
AcDbEntity
  8
AM_5 寸法線
 62
     3
100
AcDbLine
 10
295.1408453629066
 20
385.5111505619743
 30
0.0
 11
295.1408453629066
 21
316.0111505619743
 31
0.0
  0
LINE
  5
96C4
330
5FD8
100
AcDbEntity
  8
AM_5 寸法線
 62
     3
100
AcDbLine
 10
337.1408453629068
 20
317.2611505619743
 30
0.0
 11
300.1408453629066
 21
317.2611505619743
 31
0.0
  0
INSERT
  5
96C5
330
5FD8
100
AcDbEntity
  8
AM_5 寸法線
 62
     3
100
AcDbBlockReference
  2
_Open30
 10
342.1408453629068
 20
317.2611505619743
 30
0.0
 41
5.0
 42
5.0
 43
5.0
  0
INSERT
  5
96C6
330
5FD8
100
AcDbEntity
  8
AM_5 寸法線
 62
     3
100
AcDbBlockReference
  2
_Open30
 10
295.1408453629066
 20
317.2611505619743
 30
0.0
 41
5.0
 42
5.0
 43
5.0
 50
180.0
  0
MTEXT
  5
96C7
330
5FD8
100
AcDbEntity
  8
AM_5 寸法線
 62
     3
100
AcDbMText
 10
318.6408453629067
 20
323.7611505619743
 30
0.0
 40
7.0
 41
0.0
 46
0.0
 71
     5
 72
     1
  1
47
  7
SEISA
 73
     1
 44
1.0
  0
POINT
  5
96C8
330
5FD8
100
AcDbEntity
  8
Defpoints
 62
     0
100
AcDbPoint
 10
342.1408453629068
 20
367.4611505619743
 30
0.0
  0
POINT
  5
96C9
330
5FD8
100
AcDbEntity
  8
Defpoints
 62
     0
100
AcDbPoint
 10
295.1408453629066
 20
386.7611505619743
 30
0.0
  0
POINT
  5
96CA
330
5FD8
100
AcDbEntity
  8
Defpoints
 62
     0
100
AcDbPoint
 10
295.1408453629066
 20
317.2611505619743
 30
0.0
  0
ENDBLK
  5
5FDA
330
5FD8
100
AcDbEntity
  8
0
100
AcDbBlockEnd
  0
BLOCK
  5
5FF1
330
5FF0
100
AcDbEntity
  8
0
100
AcDbBlockBegin
  2
*D23
 70
     1
 10
0.0
 20
0.0
 30
0.0
  3
*D23
  1

  0
LINE
  5
96CB
330
5FF0
100
AcDbEntity
  8
AM_5 寸法線
 62
     3
100
AcDbLine
 10
295.1408453629066
 20
385.5111505619743
 30
0.0
 11
295.1408453629066
 21
316.0111505619743
 31
0.0
  0
LINE
  5
96CC
330
5FF0
100
AcDbEntity
  8
AM_5 寸法線
 62
     3
100
AcDbLine
 10
267.1408453629066
 20
399.0111505619743
 30
0.0
 11
267.1408453629066
 21
316.0111505619743
 31
0.0
  0
LINE
  5
96CD
330
5FF0
100
AcDbEntity
  8
AM_5 寸法線
 62
     3
100
AcDbLine
 10
290.1408453629066
 20
317.2611505619743
 30
0.0
 11
272.1408453629066
 21
317.2611505619743
 31
0.0
  0
INSERT
  5
96CE
330
5FF0
100
AcDbEntity
  8
AM_5 寸法線
 62
     3
100
AcDbBlockReference
  2
_Open30
 10
295.1408453629066
 20
317.2611505619743
 30
0.0
 41
5.0
 42
5.0
 43
5.0
  0
INSERT
  5
96CF
330
5FF0
100
AcDbEntity
  8
AM_5 寸法線
 62
     3
100
AcDbBlockReference
  2
_Open30
 10
267.1408453629066
 20
317.2611505619743
 30
0.0
 41
5.0
 42
5.0
 43
5.0
 50
180.0
  0
MTEXT
  5
96D0
330
5FF0
100
AcDbEntity
  8
AM_5 寸法線
 62
     3
100
AcDbMText
 10
281.1408453629066
 20
323.7611505619743
 30
0.0
 40
7.0
 41
0.0
 46
0.0
 71
     5
 72
     1
  1
28
  7
SEISA
 73
     1
 44
1.0
  0
POINT
  5
96D1
330
5FF0
100
AcDbEntity
  8
Defpoints
 62
     0
100
AcDbPoint
 10
295.1408453629066
 20
386.7611505619743
 30
0.0
  0
POINT
  5
96D2
330
5FF0
100
AcDbEntity
  8
Defpoints
 62
     0
100
AcDbPoint
 10
267.1408453629066
 20
400.2611505619743
 30
0.0
  0
POINT
  5
96D3
330
5FF0
100
AcDbEntity
  8
Defpoints
 62
     0
100
AcDbPoint
 10
267.1408453629066
 20
317.2611505619743
 30
0.0
  0
ENDBLK
  5
5FF2
330
5FF0
100
AcDbEntity
  8
0
100
AcDbBlockEnd
  0
BLOCK
  5
6478
330
6477
100
AcDbEntity
  8
0
100
AcDbBlockBegin
  2
*D24
 70
     1
 10
0.0
 20
0.0
 30
0.0
  3
*D24
  1

  0
LINE
  5
9D3C
330
6477
100
AcDbEntity
  8
AM_5 寸法線
 62
     3
100
AcDbLine
 10
338.1408413629066
 20
438.5111505619743
 30
0.0
 11
338.1408413629066
 21
441.6330736835302
 31
0.0
  0
LINE
  5
9D3D
330
6477
100
AcDbEntity
  8
AM_5 寸法線
 62
     3
100
AcDbLine
 10
267.1408453629066
 20
438.5111505619743
 30
0.0
 11
267.1408453629066
 21
441.6330736835302
 31
0.0
  0
LINE
  5
9D3E
330
6477
100
AcDbEntity
  8
AM_5 寸法線
 62
     3
100
AcDbLine
 10
333.1408413629066
 20
440.3830736835302
 30
0.0
 11
272.1408453629066
 21
440.3830736835302
 31
0.0
  0
MTEXT
  5
9D3F
330
6477
100
AcDbEntity
  8
AM_5 寸法線
 62
     3
100
AcDbMText
 10
288.0628915356773
 20
445.9096976928058
 30
0.0
 40
7.0
 41
0.0
 46
0.0
 71
     5
 72
     1
  1
71
  7
SEISA
 73
     1
 44
1.0
  0
INSERT
  5
9D40
330
6477
100
AcDbEntity
  8
AM_5 寸法線
 62
     3
100
AcDbBlockReference
  2
_Open30
 10
338.1408413629066
 20
440.3830736835302
 30
0.0
 41
5.0
 42
5.0
 43
5.0
  0
INSERT
  5
9D41
330
6477
100
AcDbEntity
  8
AM_5 寸法線
 62
     3
100
AcDbBlockReference
  2
_Open30
 10
267.1408453629066
 20
440.3830736835302
 30
0.0
 41
5.0
 42
5.0
 43
5.0
 50
180.0
  0
POINT
  5
9D42
330
6477
100
AcDbEntity
  8
Defpoints
 62
     0
100
AcDbPoint
 10
338.1408413629066
 20
437.2611505619743
 30
0.0
  0
POINT
  5
9D43
330
6477
100
AcDbEntity
  8
Defpoints
 62
     0
100
AcDbPoint
 10
267.1408453629066
 20
437.2611505619743
 30
0.0
  0
POINT
  5
9D44
330
6477
100
AcDbEntity
  8
Defpoints
 62
     0
100
AcDbPoint
 10
267.1408453629066
 20
440.3830736835302
 30
0.0
  0
ENDBLK
  5
6479
330
6477
100
AcDbEntity
  8
0
100
AcDbBlockEnd
  0
BLOCK
  5
64DC
330
64DB
100
AcDbEntity
  8
0
100
AcDbBlockBegin
  2
*D25
 70
     1
 10
0.0
 20
0.0
 30
0.0
  3
*D25
  1

  0
LINE
  5
972F
330
64DB
100
AcDbEntity
  8
AM_5 寸法線
 62
     3
100
AcDbLine
 10
567.1408453629067
 20
438.5111505619743
 30
0.0
 11
567.1408453629067
 21
441.6330736835302
 31
0.0
  0
LINE
  5
9730
330
64DB
100
AcDbEntity
  8
AM_5 寸法線
 62
     3
100
AcDbLine
 10
496.1408453629068
 20
438.5111505619743
 30
0.0
 11
496.1408453629068
 21
441.6330736835302
 31
0.0
  0
LINE
  5
9731
330
64DB
100
AcDbEntity
  8
AM_5 寸法線
 62
     3
100
AcDbLine
 10
562.1408453629068
 20
440.3830736835302
 30
0.0
 11
501.1408453629067
 21
440.3830736835302
 31
0.0
  0
INSERT
  5
9732
330
64DB
100
AcDbEntity
  8
AM_5 寸法線
 62
     3
100
AcDbBlockReference
  2
_Open30
 10
567.1408453629067
 20
440.3830736835302
 30
0.0
 41
5.0
 42
5.0
 43
5.0
  0
INSERT
  5
9733
330
64DB
100
AcDbEntity
  8
AM_5 寸法線
 62
     3
100
AcDbBlockReference
  2
_Open30
 10
496.1408453629068
 20
440.3830736835302
 30
0.0
 41
5.0
 42
5.0
 43
5.0
 50
180.0
  0
MTEXT
  5
9734
330
64DB
100
AcDbEntity
  8
AM_5 寸法線
 62
     3
100
AcDbMText
 10
531.6408453629068
 20
446.8830736835301
 30
0.0
 40
7.0
 41
0.0
 46
0.0
 71
     5
 72
     1
  1
71
  7
SEISA
 73
     1
 44
1.0
  0
POINT
  5
9735
330
64DB
100
AcDbEntity
  8
Defpoints
 62
     0
100
AcDbPoint
 10
567.1408453629067
 20
437.2611505619743
 30
0.0
  0
POINT
  5
9736
330
64DB
100
AcDbEntity
  8
Defpoints
 62
     0
100
AcDbPoint
 10
496.1408453629068
 20
437.2611505619743
 30
0.0
  0
POINT
  5
9737
330
64DB
100
AcDbEntity
  8
Defpoints
 62
     0
100
AcDbPoint
 10
496.1408453629068
 20
440.3830736835302
 30
0.0
  0
ENDBLK
  5
64DD
330
64DB
100
AcDbEntity
  8
0
100
AcDbBlockEnd
  0
BLOCK
  5
7BD2
330
7BD1
100
AcDbEntity
  8
0
100
AcDbBlockBegin
  2
ＧＣスペーサ SAMY140
 70
     0
 10
0.0
 20
0.0
 30
0.0
  3
ＧＣスペーサ SAMY140
  1

  0
LINE
  5
7BD4
330
7BD1
100
AcDbEntity
  8
AM_0 外形線1
100
AcDbLine
 10
131.9999999999998
 20
50.79999999999972
 30
0.0
 11
78.52497383072403
 21
50.79999999999995
 31
0.0
  0
LINE
  5
7BD5
330
7BD1
100
AcDbEntity
  8
AM_0 外形線1
100
AcDbLine
 10
126.9999999999999
 20
43.80000000000006
 30
0.0
 11
76.38577728215278
 21
43.79999999999995
 31
0.0
  0
LINE
  5
7BD6
330
7BD1
100
AcDbEntity
  8
AM_0 外形線1
100
AcDbLine
 10
32.00000000000006
 20
-50.7999999999999
 30
0.0
 11
75.5249738307237
 21
-50.79999999999995
 31
0.0
  0
LINE
  5
7BD8
330
7BD1
100
AcDbEntity
  8
AM_0 外形線1
100
AcDbLine
 10
18.00000000000006
 20
50.79999999999972
 30
0.0
 11
75.52497383072403
 21
50.79999999999995
 31
0.0
  0
LINE
  5
7BD9
330
7BD1
100
AcDbEntity
  8
AM_0 外形線1
100
AcDbLine
 10
23.00000000000006
 20
43.79999999999972
 30
0.0
 11
73.3857772821528
 21
43.79999999999983
 31
0.0
  0
LINE
  5
7BDA
330
7BD1
100
AcDbEntity
  8
AM_0 外形線1
100
AcDbLine
 10
149.9999999999999
 20
0.0
 30
0.0
 11
150.0
 21
-69.5
 31
0.0
  0
LINE
  5
7BDB
330
7BD1
100
AcDbEntity
  8
AM_7 中心線
100
AcDbLine
 10
130.0
 20
-63.5
 30
0.0
 11
170.0
 21
-63.5
 31
0.0
  0
LINE
  5
7BDC
330
7BD1
100
AcDbEntity
  8
AM_0 外形線1
100
AcDbLine
 10
135.0
 20
60.0
 30
0.0
 11
150.0
 21
60.0
 31
0.0
  0
POLYLINE
  5
7BDE
330
7BD1
100
AcDbEntity
  8
AM_4 細線
100
AcDb2dPolyline
 66
     1
 10
0.0
 20
0.0
 30
0.0
 70
     2
  0
VERTEX
  5
A365
330
7BDE
100
AcDbEntity
  8
AM_4 細線
100
AcDbVertex
100
AcDb2dVertex
 10
75.52497383072334
 20
50.79999999999995
 30
0.0
 42
0.0486295959226375
  0
VERTEX
  5
A366
330
7BDE
100
AcDbEntity
  8
AM_4 細線
100
AcDbVertex
100
AcDb2dVertex
 10
73.30639067346601
 20
43.40717000341601
 30
0.0
 42
0.0708125553939419
 70
     1
  0
VERTEX
  5
A367
330
7BDE
100
AcDbEntity
  8
AM_4 細線
100
AcDbVertex
100
AcDb2dVertex
 10
73.02497383072341
 20
38.0999999999999
 30
0.0
 42
0.0624568633610249
  0
VERTEX
  5
A368
330
7BDE
100
AcDbEntity
  8
AM_4 細線
100
AcDbVertex
100
AcDb2dVertex
 10
74.59911885653538
 20
30.82754578503432
 30
0.0
 42
-0.084680616565012
 70
     1
  0
VERTEX
  5
A369
330
7BDE
100
AcDbEntity
  8
AM_4 細線
100
AcDbVertex
100
AcDb2dVertex
 10
75.52497383072341
 20
25.39999999999987
 30
0.0
 42
-0.0974897392462318
  0
VERTEX
  5
A36A
330
7BDE
100
AcDbEntity
  8
AM_4 細線
100
AcDbVertex
100
AcDb2dVertex
 10
74.27497383072341
 20
19.04999999999995
 30
0.0
 42
0.0974897392462279
 70
     1
  0
VERTEX
  5
A36B
330
7BDE
100
AcDbEntity
  8
AM_4 細線
100
AcDbVertex
100
AcDb2dVertex
 10
73.02497383072346
 20
12.70000000000004
 30
0.0
 42
0.0974897392462334
  0
VERTEX
  5
A36C
330
7BDE
100
AcDbEntity
  8
AM_4 細線
100
AcDbVertex
100
AcDb2dVertex
 10
74.27497383072354
 20
6.349999999999909
 30
0.0
 42
-0.0974897392462295
 70
     1
  0
VERTEX
  5
A36D
330
7BDE
100
AcDbEntity
  8
AM_4 細線
100
AcDbVertex
100
AcDb2dVertex
 10
75.52497383072354
 20
0.0
 30
0.0
 42
-0.0974897392462325
  0
VERTEX
  5
A36E
330
7BDE
100
AcDbEntity
  8
AM_4 細線
100
AcDbVertex
100
AcDb2dVertex
 10
74.27497383072354
 20
-6.349999999999909
 30
0.0
 42
0.0974897392462276
 70
     1
  0
VERTEX
  5
A36F
330
7BDE
100
AcDbEntity
  8
AM_4 細線
100
AcDbVertex
100
AcDb2dVertex
 10
73.02497383072358
 20
-12.70000000000004
 30
0.0
 42
0.0974897392462293
  0
VERTEX
  5
A370
330
7BDE
100
AcDbEntity
  8
AM_4 細線
100
AcDbVertex
100
AcDb2dVertex
 10
74.27497383072358
 20
-19.04999999999995
 30
0.0
 42
-0.0974897392462287
 70
     1
  0
VERTEX
  5
A371
330
7BDE
100
AcDbEntity
  8
AM_4 細線
100
AcDbVertex
100
AcDb2dVertex
 10
75.52497383072358
 20
-25.39999999999998
 30
0.0
 42
-0.0846806165650148
  0
VERTEX
  5
A372
330
7BDE
100
AcDbEntity
  8
AM_4 細線
100
AcDbVertex
100
AcDb2dVertex
 10
74.59911885653555
 20
-30.82754578503443
 30
0.0
 42
0.0624568633610239
 70
     1
  0
VERTEX
  5
A373
330
7BDE
100
AcDbEntity
  8
AM_4 細線
100
AcDbVertex
100
AcDb2dVertex
 10
73.02497383072362
 20
-38.10000000000002
 30
0.0
 42
0.0708125553939456
  0
VERTEX
  5
A374
330
7BDE
100
AcDbEntity
  8
AM_4 細線
100
AcDbVertex
100
AcDb2dVertex
 10
73.3063906734663
 20
-43.4071700034159
 30
0.0
 42
0.0486295959226425
 70
     1
  0
VERTEX
  5
A375
330
7BDE
100
AcDbEntity
  8
AM_4 細線
100
AcDbVertex
100
AcDb2dVertex
 10
75.5249738307237
 20
-50.79999999999995
 30
0.0
  0
SEQEND
  5
A376
330
7BDE
100
AcDbEntity
  8
AM_4 細線
  0
POLYLINE
  5
7BF1
330
7BD1
100
AcDbEntity
  8
AM_4 細線
100
AcDb2dPolyline
 66
     1
 10
0.0
 20
0.0
 30
0.0
 70
     2
  0
VERTEX
  5
A378
330
7BF1
100
AcDbEntity
  8
AM_4 細線
100
AcDbVertex
100
AcDb2dVertex
 10
78.52497383072337
 20
50.79999999999995
 30
0.0
 42
0.0486295959226375
  0
VERTEX
  5
A379
330
7BF1
100
AcDbEntity
  8
AM_4 細線
100
AcDbVertex
100
AcDb2dVertex
 10
76.30639067346601
 20
43.40717000341601
 30
0.0
 42
0.0708125553939419
 70
     1
  0
VERTEX
  5
A37A
330
7BF1
100
AcDbEntity
  8
AM_4 細線
100
AcDbVertex
100
AcDb2dVertex
 10
76.02497383072341
 20
38.0999999999999
 30
0.0
 42
0.0624568633610249
  0
VERTEX
  5
A37B
330
7BF1
100
AcDbEntity
  8
AM_4 細線
100
AcDbVertex
100
AcDb2dVertex
 10
77.59911885653536
 20
30.82754578503432
 30
0.0
 42
-0.084680616565012
 70
     1
  0
VERTEX
  5
A37C
330
7BF1
100
AcDbEntity
  8
AM_4 細線
100
AcDbVertex
100
AcDb2dVertex
 10
78.52497383072341
 20
25.39999999999987
 30
0.0
 42
-0.0974897392462318
  0
VERTEX
  5
A37D
330
7BF1
100
AcDbEntity
  8
AM_4 細線
100
AcDbVertex
100
AcDb2dVertex
 10
77.27497383072341
 20
19.04999999999995
 30
0.0
 42
0.0974897392462279
 70
     1
  0
VERTEX
  5
A37E
330
7BF1
100
AcDbEntity
  8
AM_4 細線
100
AcDbVertex
100
AcDb2dVertex
 10
76.02497383072345
 20
12.70000000000004
 30
0.0
 42
0.0974897392462334
  0
VERTEX
  5
A37F
330
7BF1
100
AcDbEntity
  8
AM_4 細線
100
AcDbVertex
100
AcDb2dVertex
 10
77.27497383072353
 20
6.349999999999909
 30
0.0
 42
-0.0974897392462295
 70
     1
  0
VERTEX
  5
A380
330
7BF1
100
AcDbEntity
  8
AM_4 細線
100
AcDbVertex
100
AcDb2dVertex
 10
78.52497383072353
 20
0.0
 30
0.0
 42
-0.0974897392462325
  0
VERTEX
  5
A381
330
7BF1
100
AcDbEntity
  8
AM_4 細線
100
AcDbVertex
100
AcDb2dVertex
 10
77.27497383072353
 20
-6.349999999999909
 30
0.0
 42
0.0974897392462276
 70
     1
  0
VERTEX
  5
A382
330
7BF1
100
AcDbEntity
  8
AM_4 細線
100
AcDbVertex
100
AcDb2dVertex
 10
76.02497383072358
 20
-12.70000000000004
 30
0.0
 42
0.0974897392462293
  0
VERTEX
  5
A383
330
7BF1
100
AcDbEntity
  8
AM_4 細線
100
AcDbVertex
100
AcDb2dVertex
 10
77.27497383072358
 20
-19.04999999999995
 30
0.0
 42
-0.0974897392462287
 70
     1
  0
VERTEX
  5
A384
330
7BF1
100
AcDbEntity
  8
AM_4 細線
100
AcDbVertex
100
AcDb2dVertex
 10
78.52497383072358
 20
-25.39999999999998
 30
0.0
 42
-0.0846806165650148
  0
VERTEX
  5
A385
330
7BF1
100
AcDbEntity
  8
AM_4 細線
100
AcDbVertex
100
AcDb2dVertex
 10
77.59911885653555
 20
-30.82754578503443
 30
0.0
 42
0.0624568633610239
 70
     1
  0
VERTEX
  5
A386
330
7BF1
100
AcDbEntity
  8
AM_4 細線
100
AcDbVertex
100
AcDb2dVertex
 10
76.02497383072364
 20
-38.10000000000002
 30
0.0
 42
0.0708125553939456
  0
VERTEX
  5
A387
330
7BF1
100
AcDbEntity
  8
AM_4 細線
100
AcDbVertex
100
AcDb2dVertex
 10
76.3063906734663
 20
-43.4071700034159
 30
0.0
 42
0.0486295959226425
 70
     1
  0
VERTEX
  5
A388
330
7BF1
100
AcDbEntity
  8
AM_4 細線
100
AcDbVertex
100
AcDb2dVertex
 10
78.52497383072368
 20
-50.79999999999995
 30
0.0
  0
SEQEND
  5
A389
330
7BF1
100
AcDbEntity
  8
AM_4 細線
  0
LINE
  5
7C04
330
7BD1
100
AcDbEntity
  8
AM_0 外形線1
100
AcDbLine
 10
135.0
 20
67.0
 30
0.0
 11
150.0
 21
67.0
 31
0.0
  0
LINE
  5
7C05
330
7BD1
100
AcDbEntity
  8
AM_0 外形線1
100
AcDbLine
 10
117.9999999999999
 20
-50.79999999999954
 30
0.0
 11
78.52497383072358
 21
-50.79999999999972
 31
0.0
  0
LINE
  5
7C06
330
7BD1
100
AcDbEntity
  8
AM_0 外形線1
100
AcDbLine
 10
149.5
 20
-70.0
 30
0.0
 11
150.0
 21
-69.5
 31
0.0
1001
GENIUS_GENFIL_13
1070
     0
1040
0.5
1040
0.5
1040
0.5
1040
44.9999999999951
1000
~T
1001
GENIUS_GENOREF_13
1005
7C4D
  0
LINE
  5
7C07
330
7BD1
100
AcDbEntity
  8
AM_0 外形線1
100
AcDbLine
 10
149.5
 20
-70.0
 30
0.0
 11
136.0
 21
-70.0
 31
0.0
  0
LINE
  5
7C08
330
7BD1
100
AcDbEntity
  8
AM_0 外形線1
100
AcDbLine
 10
135.0
 20
-69.0
 30
0.0
 11
136.0
 21
-70.0
 31
0.0
1001
GENIUS_GENFIL_13
1070
     0
1040
1.0
1040
1.0
1040
1.0
1040
45.0
1000
~T
1001
GENIUS_GENOREF_13
1005
7C4C
  0
LINE
  5
7C09
330
7BD1
100
AcDbEntity
  8
AM_0 外形線1
100
AcDbLine
 10
132.0
 20
-58.0
 30
0.0
 11
131.9999999999994
 21
0.0
 31
0.0
  0
LINE
  5
7C0A
330
7BD1
100
AcDbEntity
  8
AM_0 外形線1
100
AcDbLine
 10
135.0
 20
-69.0
 30
0.0
 11
135.0000000000001
 21
0.0
 31
0.0
  0
LINE
  5
7C0B
330
7BD1
100
AcDbEntity
  8
AM_0 外形線1
100
AcDbLine
 10
135.0
 20
-58.0
 30
0.0
 11
132.0
 21
-58.0
 31
0.0
  0
ARC
  5
7C0C
330
7BD1
100
AcDbEntity
  8
AM_0 外形線1
100
AcDbCircle
 10
117.9999999999999
 20
-60.79999999999972
 30
0.0
 40
10.0
100
AcDbArc
 50
56.84964207143188
 51
90.0
  0
LINE
  5
7C0D
330
7BD1
100
AcDbEntity
  8
AM_0 外形線1
100
AcDbLine
 10
132.0
 20
-58.0
 30
0.0
 11
123.4683803073784
 21
-52.42761582260585
 31
0.0
  0
HATCH
  5
7C0E
330
7BD1
100
AcDbEntity
  8
AM_8 ハッチング
100
AcDbHatch
 10
0.0
 20
0.0
 30
0.0
210
0.0
220
0.0
230
1.0
  2
_USER
 70
     0
 71
     0
 91
        1
 92
        7
 72
     1
 73
     1
 93
        5
 10
126.9999999999999
 20
43.80000000000006
 42
0.0
 10
124.0
 20
43.80000000000006
 42
0.0
 10
119.9585481156731
 20
50.79999999999972
 42
0.0
 10
131.9999999999999
 20
50.79999999999972
 42
0.0
 10
131.9999999999999
 20
48.79999999999995
 42
-0.4142135623730935
 97
        0
 75
     0
 76
     0
 52
45.0
 41
0.5
 77
     0
 78
     1
 53
315.0
 43
-259.2679378320982
 44
275.4881897250896
 45
-0.3535533905932737
 46
-0.3535533905932738
 79
     0
 47
0.0494927563301349
 98
        1
 10
127.8196394611649
 20
48.08541490989057
1001
ACAD
1010
0.0
1020
0.0
1030
0.0
  0
HATCH
  5
7C10
330
7BD1
100
AcDbEntity
  8
AM_8 ハッチング
100
AcDbHatch
 10
0.0
 20
0.0
 30
0.0
210
0.0
220
0.0
230
1.0
  2
_USER
 70
     0
 71
     0
 91
        1
 92
        7
 72
     1
 73
     1
 93
        4
 10
123.4683803073783
 20
52.42761582260585
 42
-0.1456630158939594
 10
117.9999999999999
 20
50.79999999999972
 42
0.0
 10
131.9999999999999
 20
50.79999999999984
 42
0.0
 10
132.0
 20
57.9999999999999
 42
0.0
 97
        0
 75
     0
 76
     0
 52
45.0
 41
0.5
 77
     0
 78
     1
 53
315.0
 43
-259.2679378320982
 44
275.4881897250896
 45
-0.3535533905932737
 46
-0.3535533905932738
 79
     0
 47
0.0494927563301349
 98
        1
 10
129.2556798293889
 20
53.67809589495175
1001
ACAD
1010
0.0
1020
0.0
1030
0.0
  0
LINE
  5
7C11
330
7BD1
100
AcDbEntity
  8
AM_0 外形線1
100
AcDbLine
 10
122.0
 20
43.79999999999995
 30
0.0
 11
122.0000000000003
 21
0.0
 31
0.0
  0
LINE
  5
7C12
330
7BD1
100
AcDbEntity
  8
AM_0 外形線1
100
AcDbLine
 10
147.0
 20
52.5
 30
0.0
 11
147.0
 21
0.0
 31
0.0
  0
LINE
  5
7C13
330
7BD1
100
AcDbEntity
  8
AM_0 外形線1
100
AcDbLine
 10
149.4999999999999
 20
70.0
 30
0.0
 11
149.9999999999999
 21
69.5
 31
0.0
1001
GENIUS_GENFIL_13
1070
     0
1040
0.5
1040
0.5
1040
0.5
1040
45.00000000000325
1000
~T
1001
GENIUS_GENOREF_13
1005
7C4B
  0
LINE
  5
7C14
330
7BD1
100
AcDbEntity
  8
AM_0 外形線1
100
AcDbLine
 10
147.0
 20
52.5
 30
0.0
 11
147.0
 21
0.0
 31
0.0
  0
LINE
  5
7C15
330
7BD1
100
AcDbEntity
  8
AM_0 外形線1
100
AcDbLine
 10
149.4999999999999
 20
70.0
 30
0.0
 11
136.0
 21
70.0
 31
0.0
  0
LINE
  5
7C16
330
7BD1
100
AcDbEntity
  8
AM_0 外形線1
100
AcDbLine
 10
135.0
 20
69.0
 30
0.0
 11
136.0
 21
70.0
 31
0.0
1001
GENIUS_GENFIL_13
1070
     0
1040
1.0
1040
1.0
1040
1.0
1040
45.0
1000
~T
1001
GENIUS_GENOREF_13
1005
7C4A
  0
LINE
  5
7C17
330
7BD1
100
AcDbEntity
  8
AM_0 外形線1
100
AcDbLine
 10
132.0
 20
58.0
 30
0.0
 11
131.9999999999999
 21
48.79999999999995
 31
0.0
  0
ARC
  5
7C18
330
7BD1
100
AcDbEntity
  8
AM_0 外形線1
100
AcDbCircle
 10
126.9999999999999
 20
48.79999999999995
 30
0.0
 40
5.0
100
AcDbArc
 50
270.0
 51
0.0
1001
GENIUS_GENOBJ-N-FIL_13
1002
{
1000
OWNER
1000
GEN
1002
}
1001
GENIUS_GENODEF_13
1002
{
1000
HIER
1070
     0
1002
}
1002
{
1000
MANEDIT
1070
     0
1002
}
1002
{
1000
NOSEL
1070
     0
1002
}
1002
{
1000
BEHIND
1070
     0
1002
}
1002
{
1000
OTHER
1070
     0
1002
}
1002
{
1000
REACTOR
1002
}
  0
LINE
  5
7C19
330
7BD1
100
AcDbEntity
  8
AM_0 外形線1
100
AcDbLine
 10
135.0
 20
69.0
 30
0.0
 11
135.0
 21
58.0
 31
0.0
  0
LINE
  5
7C1A
330
7BD1
100
AcDbEntity
  8
AM_0 外形線1
100
AcDbLine
 10
135.0
 20
58.0
 30
0.0
 11
132.0
 21
58.0
 31
0.0
  0
LINE
  5
7C1B
330
7BD1
100
AcDbEntity
  8
AM_0 外形線1
100
AcDbLine
 10
149.5
 20
52.5
 30
0.0
 11
147.0
 21
52.5
 31
0.0
  0
LINE
  5
7C1C
330
7BD1
100
AcDbEntity
  8
AM_0 外形線1
100
AcDbLine
 10
149.4999999999999
 20
52.5
 30
0.0
 11
147.0
 21
52.5
 31
0.0
  0
LINE
  5
7C1D
330
7BD1
100
AcDbEntity
  8
AM_0 外形線1
100
AcDbLine
 10
124.0
 20
43.79999999999995
 30
0.0
 11
119.9585481156731
 21
50.79999999999972
 31
0.0
  0
ARC
  5
7C1E
330
7BD1
100
AcDbEntity
  8
AM_0 外形線1
100
AcDbCircle
 10
117.9999999999999
 20
60.79999999999972
 30
0.0
 40
10.0
100
AcDbArc
 50
270.0
 51
303.1503579285681
  0
LINE
  5
7C1F
330
7BD1
100
AcDbEntity
  8
AM_0 外形線1
100
AcDbLine
 10
132.0
 20
58.0
 30
0.0
 11
123.4683803073783
 21
52.42761582260585
 31
0.0
  0
LINE
  5
7C20
330
7BD1
100
AcDbEntity
  8
AM_0 外形線1
100
AcDbLine
 10
149.9999999999999
 20
53.00000000000006
 30
0.0
 11
150.0
 21
60.0
 31
0.0
  0
LINE
  5
7C21
330
7BD1
100
AcDbEntity
  8
AM_0 外形線1
100
AcDbLine
 10
149.4999999999999
 20
52.5
 30
0.0
 11
149.9999999999999
 21
53.0
 31
0.0
1001
GENIUS_GENFIL_13
1070
     0
1040
0.5
1040
0.5
1040
0.5
1040
45.00000000000325
1000
~T
1001
GENIUS_GENOREF_13
1005
7C49
  0
LINE
  5
7C22
330
7BD1
100
AcDbEntity
  8
AM_7 中心線
100
AcDbLine
 10
19.99999999999994
 20
-63.5
 30
0.0
 11
-20.00000000000023
 21
-63.5
 31
0.0
  0
LINE
  5
7C23
330
7BD1
100
AcDbEntity
  8
AM_0 外形線1
100
AcDbLine
 10
14.99999999999994
 20
60.0
 30
0.0
 11
-0.0000000000000568
 21
60.0
 31
0.0
  0
LINE
  5
7C25
330
7BD1
100
AcDbEntity
  8
AM_0 外形線1
100
AcDbLine
 10
14.99999999999994
 20
67.0
 30
0.0
 11
-0.0000000000000568
 21
67.0
 31
0.0
  0
LINE
  5
7C26
330
7BD1
100
AcDbEntity
  8
AM_0 外形線1
100
AcDbLine
 10
0.0000000000001137
 20
0.0
 30
0.0
 11
0.0
 21
-69.5
 31
0.0
  0
LINE
  5
7C27
330
7BD1
100
AcDbEntity
  8
AM_0 外形線1
100
AcDbLine
 10
0.5
 20
-70.0
 30
0.0
 11
0.0
 21
-69.5
 31
0.0
1001
GENIUS_GENFIL_13
1070
     0
1040
0.5
1040
0.5
1040
0.5
1040
44.9999999999951
1000
~T
1001
GENIUS_GENOREF_13
1005
7C48
  0
LINE
  5
7C28
330
7BD1
100
AcDbEntity
  8
AM_0 外形線1
100
AcDbLine
 10
0.5
 20
-70.0
 30
0.0
 11
13.99999999999994
 21
-70.0
 31
0.0
  0
LINE
  5
7C29
330
7BD1
100
AcDbEntity
  8
AM_0 外形線1
100
AcDbLine
 10
17.99999999999994
 20
-58.0
 30
0.0
 11
18.00000000000068
 21
0.0
 31
0.0
  0
LINE
  5
7C2A
330
7BD1
100
AcDbEntity
  8
AM_0 外形線1
100
AcDbLine
 10
14.99999999999994
 20
-69.0
 30
0.0
 11
15.0
 21
0.0
 31
0.0
  0
LINE
  5
7C2B
330
7BD1
100
AcDbEntity
  8
AM_0 外形線1
100
AcDbLine
 10
13.99999999999994
 20
-70.0
 30
0.0
 11
14.99999999999994
 21
-69.0
 31
0.0
1001
GENIUS_GENFIL_13
1070
     0
1040
1.0
1040
1.0
1040
1.0
1040
45.0
1000
~T
1001
GENIUS_GENOREF_13
1005
7C47
  0
LINE
  5
7C2C
330
7BD1
100
AcDbEntity
  8
AM_0 外形線1
100
AcDbLine
 10
14.99999999999994
 20
-58.0
 30
0.0
 11
17.99999999999994
 21
-58.0
 31
0.0
  0
ARC
  5
7C2D
330
7BD1
100
AcDbEntity
  8
AM_0 外形線1
100
AcDbCircle
 10
32.00000000000006
 20
-60.79999999999972
 30
0.0
 40
10.0
100
AcDbArc
 50
90.0
 51
123.150357928568
  0
LINE
  5
7C2E
330
7BD1
100
AcDbEntity
  8
AM_0 外形線1
100
AcDbLine
 10
17.99999999999994
 20
-58.0
 30
0.0
 11
26.53161969262163
 21
-52.42761582260589
 31
0.0
  0
HATCH
  5
7C2F
330
7BD1
100
AcDbEntity
  8
AM_8 ハッチング
100
AcDbHatch
 10
0.0
 20
0.0
 30
0.0
210
0.0
220
0.0
230
1.0
  2
_USER
 70
     0
 71
     0
 91
        1
 92
        7
 72
     1
 73
     1
 93
        5
 10
23.00000000000006
 20
43.80000000000006
 42
0.0
 10
26.0
 20
43.80000000000006
 42
0.0
 10
30.04145188432687
 20
50.79999999999972
 42
0.0
 10
18.00000000000006
 20
50.79999999999972
 42
0.0
 10
18.00000000000006
 20
48.79999999999995
 42
0.4142135623730935
 97
        0
 75
     0
 76
     0
 52
45.0
 41
0.5
 77
     0
 78
     1
 53
225.0
 43
409.2679378320981
 44
275.4881897250896
 45
0.3535533905932737
 46
-0.3535533905932738
 79
     0
 47
0.0494927563301349
 98
        1
 10
22.18036053883503
 20
48.08541490989057
1001
ACAD
1010
0.0
1020
0.0
1030
0.0
  0
HATCH
  5
7C31
330
7BD1
100
AcDbEntity
  8
AM_8 ハッチング
100
AcDbHatch
 10
0.0
 20
0.0
 30
0.0
210
0.0
220
0.0
230
1.0
  2
_USER
 70
     0
 71
     1
 91
        1
 92
        7
 72
     1
 73
     1
 93
        4
 10
17.99999999999994
 20
58.0
 42
0.0
 10
18.00000000000006
 20
50.79999999999972
 42
0.0
 10
32.00000000000006
 20
50.79999999999972
 42
-0.1456630158939581
 10
26.53161969262163
 20
52.42761582260585
 42
0.0
 97
        4
330
7C32
330
7C41
330
7C42
330
7C38
 75
     0
 76
     0
 52
45.0
 41
0.5
 77
     0
 78
     1
 53
225.0
 43
409.2679378320981
 44
275.4881897250896
 45
0.3535533905932737
 46
-0.3535533905932738
 79
     0
 47
0.0494927563301349
 98
        1
 10
20.74432017061105
 20
53.67809589495175
1001
ACAD
1010
0.0
1020
0.0
1030
0.0
  0
LINE
  5
7C32
102
{ACAD_REACTORS
330
7C31
102
}
330
7BD1
100
AcDbEntity
  8
AM_0 外形線1
100
AcDbLine
 10
17.99999999999994
 20
50.79999999999972
 30
0.0
 11
34.6804402381087
 21
50.79999999999972
 31
0.0
  0
LINE
  5
7C33
330
7BD1
100
AcDbEntity
  8
AM_0 外形線1
100
AcDbLine
 10
27.99999999999994
 20
43.79999999999995
 30
0.0
 11
27.99999999999966
 21
0.0
 31
0.0
  0
LINE
  5
7C34
330
7BD1
100
AcDbEntity
  8
AM_0 外形線1
100
AcDbLine
 10
2.999999999999943
 20
52.5
 30
0.0
 11
2.999999999999943
 21
0.0
 31
0.0
  0
LINE
  5
7C35
330
7BD1
100
AcDbEntity
  8
AM_0 外形線1
100
AcDbLine
 10
0.5
 20
70.0
 30
0.0
 11
0.0
 21
69.5
 31
0.0
1001
GENIUS_GENFIL_13
1070
     0
1040
0.5
1040
0.5
1040
0.5
1040
44.99999999999836
1000
~T
1001
GENIUS_GENOREF_13
1005
7C46
  0
LINE
  5
7C36
330
7BD1
100
AcDbEntity
  8
AM_0 外形線1
100
AcDbLine
 10
2.999999999999943
 20
52.5
 30
0.0
 11
2.999999999999943
 21
0.0
 31
0.0
  0
LINE
  5
7C37
330
7BD1
100
AcDbEntity
  8
AM_0 外形線1
100
AcDbLine
 10
0.5
 20
70.0
 30
0.0
 11
13.99999999999994
 21
70.0
 31
0.0
  0
LINE
  5
7C38
102
{ACAD_REACTORS
330
7C31
102
}
330
7BD1
100
AcDbEntity
  8
AM_0 外形線1
100
AcDbLine
 10
17.99999999999994
 20
58.0
 30
0.0
 11
18.00000000000006
 21
48.79999999999995
 31
0.0
  0
ARC
  5
7C39
330
7BD1
100
AcDbEntity
  8
AM_0 外形線1
100
AcDbCircle
 10
23.00000000000006
 20
48.79999999999995
 30
0.0
 40
5.0
100
AcDbArc
 50
180.0
 51
270.0
1001
GENIUS_GENOBJ-N-FIL_13
1002
{
1000
OWNER
1000
GEN
1002
}
1001
GENIUS_GENODEF_13
1002
{
1000
HIER
1070
     0
1002
}
1002
{
1000
MANEDIT
1070
     0
1002
}
1002
{
1000
NOSEL
1070
     0
1002
}
1002
{
1000
BEHIND
1070
     0
1002
}
1002
{
1000
OTHER
1070
     0
1002
}
1002
{
1000
REACTOR
1002
}
  0
LINE
  5
7C3A
330
7BD1
100
AcDbEntity
  8
AM_0 外形線1
100
AcDbLine
 10
14.99999999999994
 20
69.0
 30
0.0
 11
14.99999999999994
 21
58.0
 31
0.0
  0
LINE
  5
7C3B
330
7BD1
100
AcDbEntity
  8
AM_0 外形線1
100
AcDbLine
 10
13.99999999999994
 20
70.0
 30
0.0
 11
14.99999999999994
 21
69.0
 31
0.0
1001
GENIUS_GENFIL_13
1070
     0
1040
1.0
1040
1.0
1040
1.0
1040
45.00000000000162
1000
~T
1001
GENIUS_GENOREF_13
1005
7C45
  0
LINE
  5
7C3C
330
7BD1
100
AcDbEntity
  8
AM_0 外形線1
100
AcDbLine
 10
14.99999999999994
 20
58.0
 30
0.0
 11
17.99999999999994
 21
58.0
 31
0.0
  0
LINE
  5
7C3D
330
7BD1
100
AcDbEntity
  8
AM_0 外形線1
100
AcDbLine
 10
0.4999999999999433
 20
52.5
 30
0.0
 11
2.999999999999943
 21
52.5
 31
0.0
  0
LINE
  5
7C3E
330
7BD1
100
AcDbEntity
  8
AM_0 外形線1
100
AcDbLine
 10
0.500000000000057
 20
52.5
 30
0.0
 11
2.999999999999943
 21
52.5
 31
0.0
  0
LINE
  5
7C3F
330
7BD1
100
AcDbEntity
  8
AM_0 外形線1
100
AcDbLine
 10
0.0000000000000568
 20
53.0
 30
0.0
 11
0.500000000000057
 21
52.5
 31
0.0
1001
GENIUS_GENFIL_13
1070
     0
1040
0.5
1040
0.5
1040
0.5
1040
45.0
1000
~T
1001
GENIUS_GENOREF_13
1005
7C44
  0
LINE
  5
7C40
330
7BD1
100
AcDbEntity
  8
AM_0 外形線1
100
AcDbLine
 10
25.99999999999994
 20
43.79999999999995
 30
0.0
 11
30.04145188432693
 21
50.79999999999972
 31
0.0
  0
ARC
  5
7C41
102
{ACAD_REACTORS
330
7C31
102
}
330
7BD1
100
AcDbEntity
  8
AM_0 外形線1
100
AcDbCircle
 10
32.00000000000006
 20
60.79999999999972
 30
0.0
 40
10.0
100
AcDbArc
 50
236.8496420714319
 51
270.0
  0
LINE
  5
7C42
102
{ACAD_REACTORS
330
7C31
102
}
330
7BD1
100
AcDbEntity
  8
AM_0 外形線1
100
AcDbLine
 10
17.99999999999994
 20
58.0
 30
0.0
 11
26.53161969262163
 21
52.42761582260585
 31
0.0
  0
LINE
  5
7C43
330
7BD1
100
AcDbEntity
  8
AM_0 外形線1
100
AcDbLine
 10
0.0
 20
53.00000000000011
 30
0.0
 11
0.0
 21
60.00000000000017
 31
0.0
  0
POINT
  5
7C44
330
7BD1
100
AcDbEntity
  8
0
 60
     1
100
AcDbPoint
 10
2328.637400082324
 20
3890.958705408456
 30
0.0
1001
GENIUS_GENOBJ-N-CHA_13
1002
{
1000
OWNER
1000
GEN
1002
}
1001
GENIUS_GENOENT_13
1002
{
1000
MYREF
1005
7C44
1002
}
1002
{
1000
GRP
1005
0
1002
}
1001
GENIUS_GENODEF_13
1002
{
1000
HIER
1070
     1
1002
}
1002
{
1000
MANEDIT
1070
     1
1002
}
1002
{
1000
NOSEL
1070
     0
1002
}
1002
{
1000
BEHIND
1070
     0
1002
}
1002
{
1000
OTHER
1070
     0
1002
}
1002
{
1000
REACTOR
1002
}
1001
GENIUS_GENOLIS_13
1002
{
1000
ENT
1005
7C3F
1002
}
  0
POINT
  5
7C45
330
7BD1
100
AcDbEntity
  8
0
 60
     1
100
AcDbPoint
 10
2328.637400082324
 20
3890.958705408456
 30
0.0
1001
GENIUS_GENOBJ-N-CHA_13
1002
{
1000
OWNER
1000
GEN
1002
}
1001
GENIUS_GENOENT_13
1002
{
1000
MYREF
1005
7C45
1002
}
1002
{
1000
GRP
1005
0
1002
}
1001
GENIUS_GENODEF_13
1002
{
1000
HIER
1070
     1
1002
}
1002
{
1000
MANEDIT
1070
     1
1002
}
1002
{
1000
NOSEL
1070
     0
1002
}
1002
{
1000
BEHIND
1070
     0
1002
}
1002
{
1000
OTHER
1070
     0
1002
}
1002
{
1000
REACTOR
1002
}
1001
GENIUS_GENOLIS_13
1002
{
1000
ENT
1005
7C3B
1002
}
  0
POINT
  5
7C46
330
7BD1
100
AcDbEntity
  8
0
 60
     1
100
AcDbPoint
 10
2328.637400082324
 20
3890.958705408456
 30
0.0
1001
GENIUS_GENOBJ-N-CHA_13
1002
{
1000
OWNER
1000
GEN
1002
}
1001
GENIUS_GENOENT_13
1002
{
1000
MYREF
1005
7C46
1002
}
1002
{
1000
GRP
1005
0
1002
}
1001
GENIUS_GENODEF_13
1002
{
1000
HIER
1070
     1
1002
}
1002
{
1000
MANEDIT
1070
     1
1002
}
1002
{
1000
NOSEL
1070
     0
1002
}
1002
{
1000
BEHIND
1070
     0
1002
}
1002
{
1000
OTHER
1070
     0
1002
}
1002
{
1000
REACTOR
1002
}
1001
GENIUS_GENOLIS_13
1002
{
1000
ENT
1005
7C35
1002
}
  0
POINT
  5
7C47
330
7BD1
100
AcDbEntity
  8
0
 60
     1
100
AcDbPoint
 10
2328.637400082324
 20
3890.958705408456
 30
0.0
1001
GENIUS_GENODEF_13
1002
{
1000
HIER
1070
     1
1002
}
1002
{
1000
MANEDIT
1070
     0
1002
}
1002
{
1000
NOSEL
1070
     0
1002
}
1002
{
1000
BEHIND
1070
     0
1002
}
1002
{
1000
OTHER
1070
     0
1002
}
1002
{
1000
REACTOR
1002
}
1001
GENIUS_GENOBJ-N-CHA_13
1002
{
1000
OWNER
1000
GEN
1002
}
1001
GENIUS_GENOENT_13
1002
{
1000
MYREF
1005
7C47
1002
}
1002
{
1000
GRP
1005
0
1002
}
1001
GENIUS_GENOLIS_13
1002
{
1000
ENT
1005
7C2B
1002
}
  0
POINT
  5
7C48
330
7BD1
100
AcDbEntity
  8
0
 60
     1
100
AcDbPoint
 10
2961.17327574652
 20
3890.958705408456
 30
0.0
 50
180.0
1001
GENIUS_GENODEF_13
1002
{
1000
HIER
1070
     1
1002
}
1002
{
1000
MANEDIT
1070
     0
1002
}
1002
{
1000
NOSEL
1070
     0
1002
}
1002
{
1000
BEHIND
1070
     0
1002
}
1002
{
1000
OTHER
1070
     0
1002
}
1002
{
1000
REACTOR
1002
}
1001
GENIUS_GENOBJ-N-CHA_13
1002
{
1000
OWNER
1000
GEN
1002
}
1001
GENIUS_GENOENT_13
1002
{
1000
MYREF
1005
7C48
1002
}
1002
{
1000
GRP
1005
0
1002
}
1001
GENIUS_GENOLIS_13
1002
{
1000
ENT
1005
7C27
1002
}
  0
POINT
  5
7C49
330
7BD1
100
AcDbEntity
  8
0
 60
     1
100
AcDbPoint
 10
2328.637400082324
 20
3890.958705408456
 30
0.0
1001
GENIUS_GENOBJ-N-CHA_13
1002
{
1000
OWNER
1000
GEN
1002
}
1001
GENIUS_GENOENT_13
1002
{
1000
MYREF
1005
7C49
1002
}
1002
{
1000
GRP
1005
0
1002
}
1001
GENIUS_GENODEF_13
1002
{
1000
HIER
1070
     1
1002
}
1002
{
1000
MANEDIT
1070
     1
1002
}
1002
{
1000
NOSEL
1070
     0
1002
}
1002
{
1000
BEHIND
1070
     0
1002
}
1002
{
1000
OTHER
1070
     0
1002
}
1002
{
1000
REACTOR
1002
}
1001
GENIUS_GENOLIS_13
1002
{
1000
ENT
1005
7C21
1002
}
  0
POINT
  5
7C4A
330
7BD1
100
AcDbEntity
  8
0
 60
     1
100
AcDbPoint
 10
2328.637400082324
 20
3890.958705408456
 30
0.0
1001
GENIUS_GENOBJ-N-CHA_13
1002
{
1000
OWNER
1000
GEN
1002
}
1001
GENIUS_GENOENT_13
1002
{
1000
MYREF
1005
7C4A
1002
}
1002
{
1000
GRP
1005
0
1002
}
1001
GENIUS_GENODEF_13
1002
{
1000
HIER
1070
     1
1002
}
1002
{
1000
MANEDIT
1070
     1
1002
}
1002
{
1000
NOSEL
1070
     0
1002
}
1002
{
1000
BEHIND
1070
     0
1002
}
1002
{
1000
OTHER
1070
     0
1002
}
1002
{
1000
REACTOR
1002
}
1001
GENIUS_GENOLIS_13
1002
{
1000
ENT
1005
7C16
1002
}
  0
POINT
  5
7C4B
330
7BD1
100
AcDbEntity
  8
0
 60
     1
100
AcDbPoint
 10
2328.637400082324
 20
3890.958705408456
 30
0.0
1001
GENIUS_GENOBJ-N-CHA_13
1002
{
1000
OWNER
1000
GEN
1002
}
1001
GENIUS_GENOENT_13
1002
{
1000
MYREF
1005
7C4B
1002
}
1002
{
1000
GRP
1005
0
1002
}
1001
GENIUS_GENODEF_13
1002
{
1000
HIER
1070
     1
1002
}
1002
{
1000
MANEDIT
1070
     1
1002
}
1002
{
1000
NOSEL
1070
     0
1002
}
1002
{
1000
BEHIND
1070
     0
1002
}
1002
{
1000
OTHER
1070
     0
1002
}
1002
{
1000
REACTOR
1002
}
1001
GENIUS_GENOLIS_13
1002
{
1000
ENT
1005
7C13
1002
}
  0
POINT
  5
7C4C
330
7BD1
100
AcDbEntity
  8
0
 60
     1
100
AcDbPoint
 10
2328.637400082324
 20
3890.958705408456
 30
0.0
1001
GENIUS_GENOENT_13
1002
{
1000
MYREF
1005
7C4C
1002
}
1002
{
1000
GRP
1005
0
1002
}
1001
GENIUS_GENOLIS_13
1002
{
1000
ENT
1005
7C08
1002
}
1001
GENIUS_GENODEF_13
1002
{
1000
HIER
1070
     1
1002
}
1002
{
1000
MANEDIT
1070
     0
1002
}
1002
{
1000
NOSEL
1070
     0
1002
}
1002
{
1000
BEHIND
1070
     0
1002
}
1002
{
1000
OTHER
1070
     0
1002
}
1002
{
1000
REACTOR
1002
}
1001
GENIUS_GENOBJ-N-CHA_13
1002
{
1000
OWNER
1000
GEN
1002
}
  0
POINT
  5
7C4D
330
7BD1
100
AcDbEntity
  8
0
 60
     1
100
AcDbPoint
 10
2328.637400082324
 20
3890.958705408456
 30
0.0
1001
GENIUS_GENODEF_13
1002
{
1000
HIER
1070
     1
1002
}
1002
{
1000
MANEDIT
1070
     0
1002
}
1002
{
1000
NOSEL
1070
     0
1002
}
1002
{
1000
BEHIND
1070
     0
1002
}
1002
{
1000
OTHER
1070
     0
1002
}
1002
{
1000
REACTOR
1002
}
1001
GENIUS_GENOBJ-N-CHA_13
1002
{
1000
OWNER
1000
GEN
1002
}
1001
GENIUS_GENOENT_13
1002
{
1000
MYREF
1005
7C4D
1002
}
1002
{
1000
GRP
1005
0
1002
}
1001
GENIUS_GENOLIS_13
1002
{
1000
ENT
1005
7C06
1002
}
  0
LINE
  5
7EFD
330
7BD1
100
AcDbEntity
  8
AM_0 外形線1
100
AcDbLine
 10
0.0
 20
67.0
 30
0.0
 11
0.0
 21
69.5
 31
0.0
  0
LINE
  5
7EFE
330
7BD1
100
AcDbEntity
  8
AM_0 外形線1
100
AcDbLine
 10
150.0
 20
67.00000000000007
 30
0.0
 11
149.9999999999999
 21
69.5
 31
0.0
  0
LINE
  5
A294
330
7BD1
100
AcDbEntity
  8
AM_0 外形線1
100
AcDbLine
 10
120.9764129982142
 20
-50.7999999999996
 30
0.0
 11
120.9764129982142
 21
-0.0000000000001137
 31
0.0
  0
LINE
  5
A35B
330
7BD1
100
AcDbEntity
  8
AM_0 外形線1
100
AcDbLine
 10
29.02358700178553
 20
-50.79999999999984
 30
0.0
 11
29.02358700178553
 21
-0.0000000000000568
 31
0.0
  0
ENDBLK
  5
7BD3
330
7BD1
100
AcDbEntity
  8
0
100
AcDbBlockEnd
  0
BLOCK
  5
92DB
330
92DA
100
AcDbEntity
  8
0
100
AcDbBlockBegin
  2
*D27
 70
     1
 10
0.0
 20
0.0
 30
0.0
  3
*D27
  1

  0
LINE
  5
9778
330
92DA
100
AcDbEntity
  8
AM_5 寸法線
 62
     3
100
AcDbLine
 10
342.1408453629068
 20
366.2111505619743
 30
0.0
 11
342.1408453629068
 21
336.0111505619741
 31
0.0
  0
LINE
  5
9779
330
92DA
100
AcDbEntity
  8
AM_5 寸法線
 62
     3
100
AcDbLine
 10
357.1408453629068
 20
367.0111505619743
 30
0.0
 11
357.1408453629068
 21
336.0111505619741
 31
0.0
  0
LINE
  5
977A
330
92DA
100
AcDbEntity
  8
AM_5 寸法線
 62
     3
100
AcDbLine
 10
337.1408453629068
 20
337.2611505619742
 30
0.0
 11
332.1408453629068
 21
337.2611505619742
 31
0.0
  0
LINE
  5
977B
330
92DA
100
AcDbEntity
  8
AM_5 寸法線
 62
     3
100
AcDbLine
 10
362.1408453629068
 20
337.2611505619742
 30
0.0
 11
382.4408453629068
 21
337.2611505619742
 31
0.0
  0
LINE
  5
977C
330
92DA
100
AcDbEntity
  8
AM_5 寸法線
 62
     3
100
AcDbLine
 10
342.1408453629068
 20
337.2611505619742
 30
0.0
 11
357.1408453629068
 21
337.2611505619742
 31
0.0
  0
INSERT
  5
977D
330
92DA
100
AcDbEntity
  8
AM_5 寸法線
 62
     3
100
AcDbBlockReference
  2
GENDOT
 10
342.1408453629068
 20
337.2611505619742
 30
0.0
 41
5.0
 42
5.0
 43
5.0
  0
INSERT
  5
977E
330
92DA
100
AcDbEntity
  8
AM_5 寸法線
 62
     3
100
AcDbBlockReference
  2
_Open30
 10
357.1408453629068
 20
337.2611505619742
 30
0.0
 41
5.0
 42
5.0
 43
5.0
 50
180.0
  0
MTEXT
  5
977F
330
92DA
100
AcDbEntity
  8
AM_5 寸法線
 62
     3
100
AcDbMText
 10
374.7908453629067
 20
343.7611505619742
 30
0.0
 40
7.0
 41
0.0
 46
0.0
 71
     5
 72
     1
  1
15
  7
SEISA
 73
     1
 44
1.0
  0
POINT
  5
9780
330
92DA
100
AcDbEntity
  8
Defpoints
 62
     0
100
AcDbPoint
 10
342.1408453629068
 20
367.4611505619743
 30
0.0
  0
POINT
  5
9781
330
92DA
100
AcDbEntity
  8
Defpoints
 62
     0
100
AcDbPoint
 10
357.1408453629068
 20
368.2611505619743
 30
0.0
  0
POINT
  5
9782
330
92DA
100
AcDbEntity
  8
Defpoints
 62
     0
100
AcDbPoint
 10
357.1408453629068
 20
337.2611505619742
 30
0.0
  0
ENDBLK
  5
92DC
330
92DA
100
AcDbEntity
  8
0
100
AcDbBlockEnd
  0
BLOCK
  5
930D
330
930C
100
AcDbEntity
  8
0
100
AcDbBlockBegin
  2
*D28
 70
     1
 10
0.0
 20
0.0
 30
0.0
  3
*D28
  1

  0
LINE
  5
9783
330
930C
100
AcDbEntity
  8
AM_5 寸法線
 62
     3
100
AcDbLine
 10
492.1408453629068
 20
366.2111505619743
 30
0.0
 11
492.1408453629068
 21
336.0111505619741
 31
0.0
  0
LINE
  5
9784
330
930C
100
AcDbEntity
  8
AM_5 寸法線
 62
     3
100
AcDbLine
 10
477.1408453629068
 20
367.0111505619743
 30
0.0
 11
477.1408453629068
 21
336.0111505619741
 31
0.0
  0
LINE
  5
9785
330
930C
100
AcDbEntity
  8
AM_5 寸法線
 62
     3
100
AcDbLine
 10
497.1408453629067
 20
337.261150561974
 30
0.0
 11
502.1408453629068
 21
337.261150561974
 31
0.0
  0
LINE
  5
9786
330
930C
100
AcDbEntity
  8
AM_5 寸法線
 62
     3
100
AcDbLine
 10
472.1408453629067
 20
337.261150561974
 30
0.0
 11
451.8408453629068
 21
337.261150561974
 31
0.0
  0
LINE
  5
9787
330
930C
100
AcDbEntity
  8
AM_5 寸法線
 62
     3
100
AcDbLine
 10
492.1408453629068
 20
337.261150561974
 30
0.0
 11
477.1408453629068
 21
337.261150561974
 31
0.0
  0
INSERT
  5
9788
330
930C
100
AcDbEntity
  8
AM_5 寸法線
 62
     3
100
AcDbBlockReference
  2
GENDOT
 10
492.1408453629068
 20
337.261150561974
 30
0.0
 41
5.0
 42
5.0
 43
5.0
 50
180.0
  0
INSERT
  5
9789
330
930C
100
AcDbEntity
  8
AM_5 寸法線
 62
     3
100
AcDbBlockReference
  2
_Open30
 10
477.1408453629068
 20
337.261150561974
 30
0.0
 41
5.0
 42
5.0
 43
5.0
  0
MTEXT
  5
978A
330
930C
100
AcDbEntity
  8
AM_5 寸法線
 62
     3
100
AcDbMText
 10
459.4908453629067
 20
343.761150561974
 30
0.0
 40
7.0
 41
0.0
 46
0.0
 71
     5
 72
     1
  1
15
  7
SEISA
 73
     1
 44
1.0
  0
POINT
  5
978B
330
930C
100
AcDbEntity
  8
Defpoints
 62
     0
100
AcDbPoint
 10
492.1408453629068
 20
367.4611505619743
 30
0.0
  0
POINT
  5
978C
330
930C
100
AcDbEntity
  8
Defpoints
 62
     0
100
AcDbPoint
 10
477.1408453629068
 20
368.2611505619743
 30
0.0
  0
POINT
  5
978D
330
930C
100
AcDbEntity
  8
Defpoints
 62
     0
100
AcDbPoint
 10
477.1408453629068
 20
337.261150561974
 30
0.0
  0
ENDBLK
  5
930E
330
930C
100
AcDbEntity
  8
0
100
AcDbBlockEnd
  0
BLOCK
  5
9C70
330
9C6F
100
AcDbEntity
  8
0
100
AcDbBlockBegin
  2
*D29
 70
     1
 10
0.0
 20
0.0
 30
0.0
  3
*D29
  1

  0
LINE
  5
9ECC
330
9C6F
100
AcDbEntity
  8
AM_5 寸法線
 62
     3
100
AcDbLine
 10
309.6408453629066
 20
476.5111505619743
 30
0.0
 11
309.6408453629066
 21
463.0669334181406
 31
0.0
  0
LINE
  5
9ECD
330
9C6F
100
AcDbEntity
  8
AM_5 寸法線
 62
     3
100
AcDbLine
 10
324.1408453629066
 20
476.5111505619743
 30
0.0
 11
324.1408453629066
 21
463.0669334181406
 31
0.0
  0
LINE
  5
9ECE
330
9C6F
100
AcDbEntity
  8
AM_5 寸法線
 62
     3
100
AcDbLine
 10
304.6408453629066
 20
464.3169334181406
 30
0.0
 11
299.6408453629066
 21
464.3169334181406
 31
0.0
  0
LINE
  5
9ECF
330
9C6F
100
AcDbEntity
  8
AM_5 寸法線
 62
     3
100
AcDbLine
 10
329.1408453629066
 20
464.3169334181406
 30
0.0
 11
334.1408453629066
 21
464.3169334181406
 31
0.0
  0
LINE
  5
9ED0
330
9C6F
100
AcDbEntity
  8
AM_5 寸法線
 62
     3
100
AcDbLine
 10
316.8908453629066
 20
464.3169334181406
 30
0.0
 11
314.9223493235439
 21
442.795581579553
 31
0.0
  0
LINE
  5
9ED1
330
9C6F
100
AcDbEntity
  8
AM_5 寸法線
 62
     3
100
AcDbLine
 10
314.9223493235439
 20
442.795581579553
 30
0.0
 11
339.222349323544
 21
442.795581579553
 31
0.0
  0
MTEXT
  5
9ED2
330
9C6F
100
AcDbEntity
  8
AM_5 寸法線
 62
     3
100
AcDbMText
 10
327.0723493235439
 20
449.295581579553
 30
0.0
 40
7.0
 41
0.0
 46
0.0
 71
     5
 72
     1
  1
14.5
  7
SEISA
 73
     1
 44
1.0
  0
LINE
  5
9ED3
330
9C6F
100
AcDbEntity
  8
AM_5 寸法線
 62
     3
100
AcDbLine
 10
309.6408453629066
 20
464.3169334181406
 30
0.0
 11
324.1408453629066
 21
464.3169334181406
 31
0.0
  0
LINE
  5
9ED4
330
9C6F
100
AcDbEntity
  8
AM_5 寸法線
 62
     3
100
AcDbLine
 10
309.6408453629066
 20
464.3169334181406
 30
0.0
 11
324.1408453629066
 21
464.3169334181406
 31
0.0
  0
INSERT
  5
9ED5
330
9C6F
100
AcDbEntity
  8
AM_5 寸法線
 62
     3
100
AcDbBlockReference
  2
GENDOT
 10
309.6408453629066
 20
464.3169334181406
 30
0.0
 41
5.0
 42
5.0
 43
5.0
  0
INSERT
  5
9ED6
330
9C6F
100
AcDbEntity
  8
AM_5 寸法線
 62
     3
100
AcDbBlockReference
  2
GENDOT
 10
324.1408453629066
 20
464.3169334181406
 30
0.0
 41
5.0
 42
5.0
 43
5.0
 50
180.0
  0
POINT
  5
9ED7
330
9C6F
100
AcDbEntity
  8
Defpoints
 62
     0
100
AcDbPoint
 10
309.6408453629066
 20
477.7611505619743
 30
0.0
  0
POINT
  5
9ED8
330
9C6F
100
AcDbEntity
  8
Defpoints
 62
     0
100
AcDbPoint
 10
324.1408453629066
 20
477.7611505619743
 30
0.0
  0
POINT
  5
9ED9
330
9C6F
100
AcDbEntity
  8
Defpoints
 62
     0
100
AcDbPoint
 10
324.1408453629066
 20
464.3169334181406
 30
0.0
  0
ENDBLK
  5
9C71
330
9C6F
100
AcDbEntity
  8
0
100
AcDbBlockEnd
  0
BLOCK
  5
9C97
330
9C96
100
AcDbEntity
  8
0
100
AcDbBlockBegin
  2
*D30
 70
     1
 10
0.0
 20
0.0
 30
0.0
  3
*D30
  1

  0
LINE
  5
9E2A
330
9C96
100
AcDbEntity
  8
AM_5 寸法線
 62
     3
100
AcDbLine
 10
307.1408453629066
 20
476.0111505619743
 30
0.0
 11
307.1408453629066
 21
463.0669334181406
 31
0.0
  0
LINE
  5
9E2B
330
9C96
100
AcDbEntity
  8
AM_5 寸法線
 62
     3
100
AcDbLine
 10
309.6408453629066
 20
476.5111505619743
 30
0.0
 11
309.6408453629066
 21
463.0669334181406
 31
0.0
  0
LINE
  5
9E2C
330
9C96
100
AcDbEntity
  8
AM_5 寸法線
 62
     3
100
AcDbLine
 10
302.1408453629066
 20
464.3169334181406
 30
0.0
 11
297.1408453629066
 21
464.3169334181406
 31
0.0
  0
LINE
  5
9E2D
330
9C96
100
AcDbEntity
  8
AM_5 寸法線
 62
     3
100
AcDbLine
 10
314.6408453629066
 20
464.3169334181406
 30
0.0
 11
319.6408453629066
 21
464.3169334181406
 31
0.0
  0
MTEXT
  5
9E2E
330
9C96
100
AcDbEntity
  8
AM_5 寸法線
 62
     3
100
AcDbMText
 10
296.2123602543612
 20
469.6460644176704
 30
0.0
 40
7.0
 41
0.0
 46
0.0
 71
     5
 72
     1
  1
2.5
  7
SEISA
 73
     1
 44
1.0
  0
LINE
  5
9E2F
330
9C96
100
AcDbEntity
  8
AM_5 寸法線
 62
     3
100
AcDbLine
 10
307.1408453629066
 20
464.3169334181406
 30
0.0
 11
309.6408453629066
 21
464.3169334181406
 31
0.0
  0
INSERT
  5
9E30
330
9C96
100
AcDbEntity
  8
AM_5 寸法線
 62
     3
100
AcDbBlockReference
  2
_Open30
 10
307.1408453629066
 20
464.3169334181406
 30
0.0
 41
5.0
 42
5.0
 43
5.0
  0
INSERT
  5
9E31
330
9C96
100
AcDbEntity
  8
AM_5 寸法線
 62
     3
100
AcDbBlockReference
  2
GENDOT
 10
309.6408453629066
 20
464.3169334181406
 30
0.0
 41
5.0
 42
5.0
 43
5.0
 50
180.0
  0
POINT
  5
9E32
330
9C96
100
AcDbEntity
  8
Defpoints
 62
     0
100
AcDbPoint
 10
307.1408453629066
 20
477.2611505619742
 30
0.0
  0
POINT
  5
9E33
330
9C96
100
AcDbEntity
  8
Defpoints
 62
     0
100
AcDbPoint
 10
309.6408453629066
 20
477.7611505619743
 30
0.0
  0
POINT
  5
9E34
330
9C96
100
AcDbEntity
  8
Defpoints
 62
     0
100
AcDbPoint
 10
309.6408453629066
 20
464.3169334181406
 30
0.0
  0
ENDBLK
  5
9C98
330
9C96
100
AcDbEntity
  8
0
100
AcDbBlockEnd
  0
BLOCK
  5
9D47
330
9D45
100
AcDbEntity
  8
0
100
AcDbBlockBegin
  2
_DotSmall
 70
     0
 10
0.0
 20
0.0
 30
0.0
  3
_DotSmall
  1

  0
LWPOLYLINE
  5
9D46
330
9D45
100
AcDbEntity
  8
0
  6
ByBlock
 62
     0
100
AcDbPolyline
 90
        2
 70
     1
 43
0.5
 10
-0.0625
 20
0.0
 42
1.0
 10
0.0625
 20
0.0
 42
1.0
  0
ENDBLK
  5
9D48
330
9D45
100
AcDbEntity
  8
0
100
AcDbBlockEnd
  0
BLOCK
  5
9D97
330
9D96
100
AcDbEntity
  8
0
100
AcDbBlockBegin
  2
*D32
 70
     1
 10
0.0
 20
0.0
 30
0.0
  3
*D32
  1

  0
LINE
  5
9DBC
330
9D96
100
AcDbEntity
  8
AM_5 寸法線
 62
     3
100
AcDbLine
 10
260.1408453629068
 20
489.0111505619743
 30
0.0
 11
260.1408453629068
 21
518.5111515619743
 31
0.0
  0
LINE
  5
9DBD
330
9D96
100
AcDbEntity
  8
AM_5 寸法線
 62
     3
100
AcDbLine
 10
267.1408453629066
 20
475.5111505619743
 30
0.0
 11
267.1408453629066
 21
518.5111515619743
 31
0.0
  0
LINE
  5
9DBE
330
9D96
100
AcDbEntity
  8
AM_5 寸法線
 62
     3
100
AcDbLine
 10
255.1408453629068
 20
517.2611515619743
 30
0.0
 11
250.1408453629068
 21
517.2611515619743
 31
0.0
  0
LINE
  5
9DBF
330
9D96
100
AcDbEntity
  8
AM_5 寸法線
 62
     3
100
AcDbLine
 10
272.1408453629066
 20
517.2611515619743
 30
0.0
 11
287.3408453629066
 21
517.2611515619743
 31
0.0
  0
LINE
  5
9DC0
330
9D96
100
AcDbEntity
  8
AM_5 寸法線
 62
     3
100
AcDbLine
 10
260.1408453629068
 20
517.2611515619743
 30
0.0
 11
267.1408453629066
 21
517.2611515619743
 31
0.0
  0
INSERT
  5
9DC1
330
9D96
100
AcDbEntity
  8
AM_5 寸法線
 62
     3
100
AcDbBlockReference
  2
_Open30
 10
260.1408453629068
 20
517.2611515619743
 30
0.0
 41
5.0
 42
5.0
 43
5.0
  0
INSERT
  5
9DC2
330
9D96
100
AcDbEntity
  8
AM_5 寸法線
 62
     3
100
AcDbBlockReference
  2
_Open30
 10
267.1408453629066
 20
517.2611515619743
 30
0.0
 41
5.0
 42
5.0
 43
5.0
 50
180.0
  0
MTEXT
  5
9DC3
330
9D96
100
AcDbEntity
  8
AM_5 寸法線
 62
     3
100
AcDbMText
 10
282.2408453629066
 20
523.7611515619743
 30
0.0
 40
7.0
 41
0.0
 46
0.0
 71
     5
 72
     1
  1
7
  7
SEISA
 73
     1
 44
1.0
  0
POINT
  5
9DC4
330
9D96
100
AcDbEntity
  8
Defpoints
 62
     0
100
AcDbPoint
 10
260.1408453629068
 20
487.7611505619744
 30
0.0
  0
POINT
  5
9DC5
330
9D96
100
AcDbEntity
  8
Defpoints
 62
     0
100
AcDbPoint
 10
267.1408453629066
 20
474.2611505619743
 30
0.0
  0
POINT
  5
9DC6
330
9D96
100
AcDbEntity
  8
Defpoints
 62
     0
100
AcDbPoint
 10
267.1408453629066
 20
517.2611515619743
 30
0.0
  0
ENDBLK
  5
9D98
330
9D96
100
AcDbEntity
  8
0
100
AcDbBlockEnd
  0
BLOCK
  5
9DE9
330
9DE8
100
AcDbEntity
  8
0
100
AcDbBlockBegin
  2
*D33
 70
     1
 10
0.0
 20
0.0
 30
0.0
  3
*D33
  1

  0
LINE
  5
9EE7
330
9DE8
100
AcDbEntity
  8
AM_5 寸法線
 62
     3
100
AcDbLine
 10
342.1408453629068
 20
489.0111505619744
 30
0.0
 11
342.1408453629068
 21
457.8935506341031
 31
0.0
  0
LINE
  5
9EE8
330
9DE8
100
AcDbEntity
  8
AM_5 寸法線
 62
     3
100
AcDbLine
 10
338.1408453629066
 20
475.5111505619743
 30
0.0
 11
338.1408453629066
 21
457.8935506341031
 31
0.0
  0
LINE
  5
9EE9
330
9DE8
100
AcDbEntity
  8
AM_5 寸法線
 62
     3
100
AcDbLine
 10
347.1408453629068
 20
459.1435506341031
 30
0.0
 11
352.1408453629068
 21
459.1435506341031
 31
0.0
  0
LINE
  5
9EEA
330
9DE8
100
AcDbEntity
  8
AM_5 寸法線
 62
     3
100
AcDbLine
 10
333.1408453629066
 20
459.1435506341031
 30
0.0
 11
328.1408453629066
 21
459.1435506341031
 31
0.0
  0
LINE
  5
9EEB
330
9DE8
100
AcDbEntity
  8
AM_5 寸法線
 62
     3
100
AcDbLine
 10
365.0196342700234
 20
459.1435506341031
 30
0.0
 11
342.1408453629068
 21
459.1435506341031
 31
0.0
  0
MTEXT
  5
9EEC
330
9DE8
100
AcDbEntity
  8
AM_5 寸法線
 62
     3
100
AcDbMText
 10
359.7696342700233
 20
465.6435506341032
 30
0.0
 40
7.0
 41
0.0
 46
0.0
 71
     5
 72
     1
  1
4
  7
SEISA
 73
     1
 44
1.0
  0
LINE
  5
9EED
330
9DE8
100
AcDbEntity
  8
AM_5 寸法線
 62
     3
100
AcDbLine
 10
342.1408453629068
 20
459.1435506341031
 30
0.0
 11
338.1408453629066
 21
459.1435506341031
 31
0.0
  0
LINE
  5
9EEE
330
9DE8
100
AcDbEntity
  8
AM_5 寸法線
 62
     3
100
AcDbLine
 10
342.1408453629068
 20
459.1435506341031
 30
0.0
 11
338.1408453629066
 21
459.1435506341031
 31
0.0
  0
INSERT
  5
9EEF
330
9DE8
100
AcDbEntity
  8
AM_5 寸法線
 62
     3
100
AcDbBlockReference
  2
_Open30
 10
342.1408453629068
 20
459.1435506341031
 30
0.0
 41
5.0
 42
5.0
 43
5.0
 50
180.0
  0
INSERT
  5
9EF0
330
9DE8
100
AcDbEntity
  8
AM_5 寸法線
 62
     3
100
AcDbBlockReference
  2
_Open30
 10
338.1408453629066
 20
459.1435506341031
 30
0.0
 41
5.0
 42
5.0
 43
5.0
  0
POINT
  5
9EF1
330
9DE8
100
AcDbEntity
  8
Defpoints
 62
     0
100
AcDbPoint
 10
342.1408453629068
 20
490.2611505619744
 30
0.0
  0
POINT
  5
9EF2
330
9DE8
100
AcDbEntity
  8
Defpoints
 62
     0
100
AcDbPoint
 10
338.1408453629066
 20
476.7611505619743
 30
0.0
  0
POINT
  5
9EF3
330
9DE8
100
AcDbEntity
  8
Defpoints
 62
     0
100
AcDbPoint
 10
338.1408453629066
 20
459.1435506341031
 30
0.0
  0
ENDBLK
  5
9DEA
330
9DE8
100
AcDbEntity
  8
0
100
AcDbBlockEnd
  0
BLOCK
  5
9E10
330
9E0F
100
AcDbEntity
  8
0
100
AcDbBlockBegin
  2
*D34
 70
     1
 10
0.0
 20
0.0
 30
0.0
  3
*D34
  1

  0
LINE
  5
9EB3
330
9E0F
100
AcDbEntity
  8
AM_5 寸法線
 62
     3
100
AcDbLine
 10
324.1408453629066
 20
476.5111505619743
 30
0.0
 11
324.1408453629066
 21
463.0669334181408
 31
0.0
  0
LINE
  5
9EB4
330
9E0F
100
AcDbEntity
  8
AM_5 寸法線
 62
     3
100
AcDbLine
 10
338.1408453629066
 20
475.5111505619743
 30
0.0
 11
338.1408453629066
 21
463.0669334181408
 31
0.0
  0
LINE
  5
9EB5
330
9E0F
100
AcDbEntity
  8
AM_5 寸法線
 62
     3
100
AcDbLine
 10
324.1408453629066
 20
464.3169334181408
 30
0.0
 11
333.1408453629066
 21
464.3169334181408
 31
0.0
  0
MTEXT
  5
9EB6
330
9E0F
100
AcDbEntity
  8
AM_5 寸法線
 62
     3
100
AcDbMText
 10
330.3068753861835
 20
469.8123947149132
 30
0.0
 40
7.0
 41
0.0
 46
0.0
 71
     5
 72
     1
  1
14
  7
SEISA
 73
     1
 44
1.0
  0
INSERT
  5
9EB7
330
9E0F
100
AcDbEntity
  8
AM_5 寸法線
 62
     3
100
AcDbBlockReference
  2
_DotSmall
 10
324.1408453629066
 20
464.3169334181408
 30
0.0
 41
5.0
 42
5.0
 43
5.0
 50
180.0
  0
INSERT
  5
9EB8
330
9E0F
100
AcDbEntity
  8
AM_5 寸法線
 62
     3
100
AcDbBlockReference
  2
_Open30
 10
338.1408453629066
 20
464.3169334181408
 30
0.0
 41
5.0
 42
5.0
 43
5.0
 50
180.0
  0
LINE
  5
9EB9
330
9E0F
100
AcDbEntity
  8
AM_5 寸法線
 62
     3
100
AcDbLine
 10
343.1408453629066
 20
464.3169334181408
 30
0.0
 11
348.1408453629066
 21
464.3169334181408
 31
0.0
  0
LINE
  5
9EBA
330
9E0F
100
AcDbEntity
  8
AM_5 寸法線
 62
     3
100
AcDbLine
 10
338.1408453629066
 20
464.3169334181408
 30
0.0
 11
333.1408453629066
 21
464.3169334181408
 31
0.0
  0
POINT
  5
9EBB
330
9E0F
100
AcDbEntity
  8
Defpoints
 62
     0
100
AcDbPoint
 10
324.1408453629066
 20
477.7611505619743
 30
0.0
  0
POINT
  5
9EBC
330
9E0F
100
AcDbEntity
  8
Defpoints
 62
     0
100
AcDbPoint
 10
338.1408453629066
 20
476.7611505619743
 30
0.0
  0
POINT
  5
9EBD
330
9E0F
100
AcDbEntity
  8
Defpoints
 62
     0
100
AcDbPoint
 10
338.1408453629066
 20
464.3169334181408
 30
0.0
  0
ENDBLK
  5
9E11
330
9E0F
100
AcDbEntity
  8
0
100
AcDbBlockEnd
  0
BLOCK
  5
9F17
330
9F16
100
AcDbEntity
  8
0
100
AcDbBlockBegin
  2
*D35
 70
     1
 10
0.0
 20
0.0
 30
0.0
  3
*D35
  1

  0
LINE
  5
9F68
330
9F16
100
AcDbEntity
  8
AM_5 寸法線
 62
     3
100
AcDbLine
 10
492.1408453629068
 20
489.0111505619743
 30
0.0
 11
492.1408453629068
 21
457.8935506341031
 31
0.0
  0
LINE
  5
9F69
330
9F16
100
AcDbEntity
  8
AM_5 寸法線
 62
     3
100
AcDbLine
 10
496.1408453629068
 20
475.5111505619743
 30
0.0
 11
496.1408453629068
 21
457.8935506341031
 31
0.0
  0
LINE
  5
9F6A
330
9F16
100
AcDbEntity
  8
AM_5 寸法線
 62
     3
100
AcDbLine
 10
487.1408453629067
 20
459.1435506341031
 30
0.0
 11
482.1408453629067
 21
459.1435506341031
 31
0.0
  0
LINE
  5
9F6B
330
9F16
100
AcDbEntity
  8
AM_5 寸法線
 62
     3
100
AcDbLine
 10
501.1408453629067
 20
459.1435506341031
 30
0.0
 11
506.1408453629068
 21
459.1435506341031
 31
0.0
  0
MTEXT
  5
9F6C
330
9F16
100
AcDbEntity
  8
AM_5 寸法線
 62
     3
100
AcDbMText
 10
483.244649040578
 20
463.8224862690332
 30
0.0
 40
7.0
 41
0.0
 46
0.0
 71
     5
 72
     1
  1
4
  7
SEISA
 73
     1
 44
1.0
  0
LINE
  5
9F6D
330
9F16
100
AcDbEntity
  8
AM_5 寸法線
 62
     3
100
AcDbLine
 10
492.1408453629068
 20
459.1435506341031
 30
0.0
 11
496.1408453629068
 21
459.1435506341031
 31
0.0
  0
INSERT
  5
9F6E
330
9F16
100
AcDbEntity
  8
AM_5 寸法線
 62
     3
100
AcDbBlockReference
  2
_Open30
 10
492.1408453629068
 20
459.1435506341031
 30
0.0
 41
5.0
 42
5.0
 43
5.0
  0
INSERT
  5
9F6F
330
9F16
100
AcDbEntity
  8
AM_5 寸法線
 62
     3
100
AcDbBlockReference
  2
_Open30
 10
496.1408453629068
 20
459.1435506341031
 30
0.0
 41
5.0
 42
5.0
 43
5.0
 50
180.0
  0
POINT
  5
9F70
330
9F16
100
AcDbEntity
  8
Defpoints
 62
     0
100
AcDbPoint
 10
492.1408453629068
 20
490.2611505619743
 30
0.0
  0
POINT
  5
9F71
330
9F16
100
AcDbEntity
  8
Defpoints
 62
     0
100
AcDbPoint
 10
496.1408453629068
 20
476.7611505619743
 30
0.0
  0
POINT
  5
9F72
330
9F16
100
AcDbEntity
  8
Defpoints
 62
     0
100
AcDbPoint
 10
496.1408453629068
 20
459.1435506341031
 30
0.0
  0
ENDBLK
  5
9F18
330
9F16
100
AcDbEntity
  8
0
100
AcDbBlockEnd
  0
BLOCK
  5
A0D0
330
A0CF
100
AcDbEntity
  8
0
100
AcDbBlockBegin
  2
*D36
 70
     1
 10
0.0
 20
0.0
 30
0.0
  3
*D36
  1

  0
LINE
  5
A0F8
330
A0CF
100
AcDbEntity
  8
AM_5 寸法線
 62
     3
100
AcDbLine
 10
268.8908453629066
 20
477.2611505619742
 30
0.0
 11
223.6872623074194
 21
477.2611505619742
 31
0.0
  0
LINE
  5
A0F9
330
A0CF
100
AcDbEntity
  8
AM_5 寸法線
 62
     3
100
AcDbLine
 10
268.8908453629066
 20
397.2611505619743
 30
0.0
 11
223.6872623074193
 21
397.2611505619743
 31
0.0
  0
LINE
  5
A0FA
330
A0CF
100
AcDbEntity
  8
AM_5 寸法線
 62
     3
100
AcDbLine
 10
224.9372623074194
 20
472.2611505619743
 30
0.0
 11
224.9372623074194
 21
402.2611505619742
 31
0.0
  0
INSERT
  5
A0FB
330
A0CF
100
AcDbEntity
  8
AM_5 寸法線
 62
     3
100
AcDbBlockReference
  2
_Open30
 10
224.9372623074194
 20
477.2611505619742
 30
0.0
 41
5.0
 42
5.0
 43
5.0
 50
90.0
  0
INSERT
  5
A0FC
330
A0CF
100
AcDbEntity
  8
AM_5 寸法線
 62
     3
100
AcDbBlockReference
  2
_Open30
 10
224.9372623074194
 20
397.2611505619743
 30
0.0
 41
5.0
 42
5.0
 43
5.0
 50
270.0
  0
MTEXT
  5
A0FD
330
A0CF
100
AcDbEntity
  8
AM_5 寸法線
 62
     3
100
AcDbMText
 10
218.4372623074193
 20
437.2611505619743
 30
0.0
 40
7.0
 41
0.0
 46
0.0
 71
     5
 72
     1
  1
%%c80
  7
SEISA
 11
0.0000000000000001
 21
1.0
 31
0.0
 73
     1
 44
1.0
  0
POINT
  5
A0FE
330
A0CF
100
AcDbEntity
  8
Defpoints
 62
     0
100
AcDbPoint
 10
270.1408453629066
 20
477.2611505619742
 30
0.0
  0
POINT
  5
A0FF
330
A0CF
100
AcDbEntity
  8
Defpoints
 62
     0
100
AcDbPoint
 10
270.1408453629066
 20
397.2611505619743
 30
0.0
  0
POINT
  5
A100
330
A0CF
100
AcDbEntity
  8
Defpoints
 62
     0
100
AcDbPoint
 10
224.9372623074194
 20
397.2611505619743
 30
0.0
  0
ENDBLK
  5
A0D1
330
A0CF
100
AcDbEntity
  8
0
100
AcDbBlockEnd
  0
BLOCK
  5
A149
330
A148
100
AcDbEntity
  8
0
100
AcDbBlockBegin
  2
ケース
 70
     0
 10
0.0
 20
0.0
 30
0.0
  3
ケース
  1

  0
LINE
  5
A14B
330
A148
100
AcDbEntity
  8
AM_11 想像線
 48
0.1
100
AcDbLine
 10
0.0
 20
-7.5
 30
0.0
 11
-8.604527624078855
 21
-7.5
 31
0.0
  0
LINE
  5
A14C
330
A148
100
AcDbEntity
  8
AM_11 想像線
 48
0.1
100
AcDbLine
 10
-6.604527624078855
 20
-6.104133999999986
 30
0.0
 11
-6.604527624078855
 21
-6.0
 31
0.0
  0
LINE
  5
A14D
330
A148
100
AcDbEntity
  8
AM_11 想像線
 48
0.1
100
AcDbLine
 10
0.0
 20
-9.100000000000024
 30
0.0
 11
-6.104527624078855
 21
-9.100000000000024
 31
0.0
  0
LINE
  5
A14E
330
A148
100
AcDbEntity
  8
AM_11 想像線
 48
0.1
100
AcDbLine
 10
0.0
 20
-5.5
 30
0.0
 11
-6.604527624078855
 21
-5.5
 31
0.0
  0
LINE
  5
A14F
330
A148
100
AcDbEntity
  8
AM_11 想像線
 48
0.1
100
AcDbLine
 10
0.0
 20
0.0
 30
0.0
 11
-19.60452762407885
 21
0.0
 31
0.0
  0
LINE
  5
A150
330
A148
100
AcDbEntity
  8
AM_11 想像線
 48
0.1
100
AcDbLine
 10
-22.60452762407886
 20
-3.0
 30
0.0
 11
-22.60452762407886
 21
-12.5
 31
0.0
  0
LINE
  5
A151
330
A148
100
AcDbEntity
  8
AM_11 想像線
 48
0.1
100
AcDbLine
 10
-20.40452762407858
 20
-8.800000000000011
 30
0.0
 11
-12.80452762407867
 21
-8.800000000000011
 31
0.0
  0
LINE
  5
A152
330
A148
100
AcDbEntity
  8
AM_11 想像線
 48
0.1
100
AcDbLine
 10
-22.60452762407886
 20
-12.5
 30
0.0
 11
-20.40452762407858
 21
-12.5
 31
0.0
  0
LINE
  5
A153
330
A148
100
AcDbEntity
  8
AM_11 想像線
 48
0.1
100
AcDbLine
 10
-20.40452762407858
 20
-12.5
 30
0.0
 11
-20.40452762407858
 21
-8.800000000000011
 31
0.0
  0
LINE
  5
A154
330
A148
100
AcDbEntity
  8
AM_11 想像線
 48
0.1
100
AcDbLine
 10
-22.60452762407886
 20
-12.5
 30
0.0
 11
-22.60452762407886
 21
-13.5
 31
0.0
  0
LINE
  5
A155
330
A148
100
AcDbEntity
  8
AM_11 想像線
 48
0.1
100
AcDbLine
 10
-20.40452762407858
 20
-12.5
 30
0.0
 11
-20.40452762407858
 21
-13.5
 31
0.0
  0
LINE
  5
A156
330
A148
100
AcDbEntity
  8
AM_11 想像線
 48
0.1
100
AcDbLine
 10
-6.604527624078855
 20
-8.600000000000022
 30
0.0
 11
-6.104527624078855
 21
-9.100000000000024
 31
0.0
  0
LINE
  5
A157
330
A148
100
AcDbEntity
  8
AM_11 想像線
 48
0.1
100
AcDbLine
 10
-6.604527624078855
 20
-6.104133999999986
 30
0.0
 11
-6.604527624078855
 21
-8.600000000000022
 31
0.0
  0
ARC
  5
A158
330
A148
100
AcDbEntity
  8
AM_11 想像線
 48
0.1
100
AcDbCircle
 10
-9.604527624078855
 20
-6.0
 30
0.0
 40
1.0
100
AcDbArc
 50
90.0
 51
180.0
  0
LINE
  5
A159
330
A148
100
AcDbEntity
  8
AM_11 想像線
 48
0.1
100
AcDbLine
 10
-9.604527624078855
 20
-5.0
 30
0.0
 11
-7.604527624078855
 21
-5.0
 31
0.0
  0
ARC
  5
A15A
330
A148
100
AcDbEntity
  8
AM_11 想像線
 48
0.1
100
AcDbCircle
 10
-7.604527624078855
 20
-6.0
 30
0.0
 40
1.0
100
AcDbArc
 50
0.0
 51
90.0
  0
LINE
  5
A15B
330
A148
100
AcDbEntity
  8
AM_11 想像線
 48
0.1
100
AcDbLine
 10
-10.60452762407885
 20
-12.5
 30
0.0
 11
-10.60452762407885
 21
-13.5
 31
0.0
  0
LINE
  5
A15C
330
A148
100
AcDbEntity
  8
AM_11 想像線
 48
0.1
100
AcDbLine
 10
-10.60452762407885
 20
-12.5
 30
0.0
 11
-10.60452762407885
 21
-6.0
 31
0.0
  0
LINE
  5
A15D
330
A148
100
AcDbEntity
  8
AM_11 想像線
 48
0.1
100
AcDbLine
 10
-12.80452762407867
 20
-8.800000000000011
 30
0.0
 11
-12.80452762407867
 21
-12.5
 31
0.0
  0
LINE
  5
A15E
330
A148
100
AcDbEntity
  8
AM_11 想像線
 48
0.1
100
AcDbLine
 10
-12.80452762407867
 20
-12.5
 30
0.0
 11
-12.80452762407867
 21
-13.5
 31
0.0
  0
LINE
  5
A15F
330
A148
100
AcDbEntity
  8
AM_11 想像線
 48
0.1
100
AcDbLine
 10
-12.80452762407867
 20
-12.5
 30
0.0
 11
-10.60452762407885
 21
-12.5
 31
0.0
  0
ARC
  5
A160
102
{ACAD_REACTORS
330
9DA5
102
}
330
A148
100
AcDbEntity
  8
AM_11 想像線
 48
0.1
100
AcDbCircle
 10
-19.60452762407885
 20
-3.0
 30
0.0
 40
3.0
100
AcDbArc
 50
90.0
 51
180.0
  0
ENDBLK
  5
A14A
330
A148
100
AcDbEntity
  8
0
100
AcDbBlockEnd
  0
ENDSEC
  0
SECTION
  2
ENTITIES
  0
LINE
  5
445A
330
1F
100
AcDbEntity
  8
AM_7 中心線
100
AcDbLine
 10
260.6532058629069
 20
437.2611505619743
 30
0.0
 11
572.6532058629069
 21
437.2611505619743
 31
0.0
  0
LINE
  5
4564
330
1F
100
AcDbEntity
  8
AM_0 外形線1
100
AcDbLine
 10
357.1408453629068
 20
495.7815045619743
 30
0.0
 11
357.1408453629068
 21
503.6412855619743
 31
0.0
  0
INSERT
  5
4EF2
102
{ACAD_REACTORS
330
5C75
330
5C8D
330
5F4E
330
5F9E
330
5FB6
330
931B
102
}
330
1F
100
AcDbEntity
  8
AM_0 外形線1
100
AcDbBlockReference
  2
ケースＡ-1 SAM140
 10
492.1408453629068
 20
437.2611505619743
 30
0.0
  0
LINE
  5
4F0D
330
1F
100
AcDbEntity
  8
AM_0 外形線1
100
AcDbLine
 10
478.1415863629068
 20
497.2611505619743
 30
0.0
 11
492.1408453629068
 21
497.2611505619743
 31
0.0
  0
LINE
  5
50A1
330
1F
100
AcDbEntity
  8
AM_0 外形線1
100
AcDbLine
 10
342.1408453629068
 20
497.2611505619744
 30
0.0
 11
356.1408453629068
 21
497.2611505619743
 31
0.0
  0
INSERT
  5
5148
102
{ACAD_REACTORS
330
5C5D
330
5F9E
330
64F1
330
9F25
102
}
330
1F
100
AcDbEntity
  8
AM_0 外形線1
100
AcDbBlockReference
  2
センタ-1 SAM140
 10
496.1408453629068
 20
437.2611505619743
 30
0.0
  0
INSERT
  5
51C6
102
{ACAD_REACTORS
330
6006
330
648D
330
9C7E
330
9DA5
330
A0DC
102
}
330
1F
100
AcDbEntity
  8
AM_0 外形線1
100
AcDbBlockReference
  2
センタ-2 SAM140
 10
338.1408453629066
 20
437.2611505619743
 30
0.0
  0
INSERT
  5
5460
102
{ACAD_REACTORS
330
5CF3
330
5FEE
330
6006
330
92E9
330
9CA5
102
}
330
1F
100
AcDbEntity
  8
AM_0 外形線1
100
AcDbBlockReference
  2
ケースＡ-2 SAM140
 10
342.1408453629068
 20
437.2611505619743
 30
0.0
  0
INSERT
  5
5591
330
1F
100
AcDbEntity
  8
AM_0 外形線1
100
AcDbBlockReference
  2
リーマボルト-1 SAM140 M6
 10
477.1408453629068
 20
500.7611505619743
 30
0.0
  0
INSERT
  5
5622
330
1F
100
AcDbEntity
  8
AM_0 外形線1
100
AcDbBlockReference
  2
リーマボルト-2 SAM140 M6
 10
357.1408453629068
 20
500.7611505619743
 30
0.0
  0
DIMENSION
  5
5C46
102
{ACAD_XDICTIONARY
360
5C53
102
}
102
{ACAD_REACTORS
330
5C5D
102
}
330
1F
100
AcDbEntity
  8
AM_5 寸法線
100
AcDbDimension
  2
*D15
 10
607.1408453629067
 20
397.2611505619743
 30
0.0
 11
600.6408453629067
 21
437.2611505619743
 31
0.0
 70
    32
  1
%%c<>
 71
     5
 42
80.0
 73
     0
 74
     0
 75
     0
  3
SEISA$0
100
AcDbAlignedDimension
 13
564.1408453629066
 23
477.2611505619742
 33
0.0
 14
564.1408453629066
 24
397.2611505619743
 34
0.0
 50
90.0
100
AcDbRotatedDimension
1001
ACAD_DSTYLE_DIMINSPECT
1070
   396
1000
100%
1070
   395
1000

1070
   394
1070
    33
1070
   393
1070
     0
  0
DIMENSION
  5
5C5E
102
{ACAD_XDICTIONARY
360
5C6B
102
}
102
{ACAD_REACTORS
330
5C75
102
}
330
1F
100
AcDbEntity
  8
AM_5 寸法線
100
AcDbDimension
  2
*D16
 10
627.1408453629066
 20
383.7611505619743
 30
0.0
 11
620.6408453629067
 21
437.2611505619743
 31
0.0
 70
    32
  1
%%c<>
 71
     5
 42
107.0
 73
     0
 74
     0
 75
     0
  3
SEISA$0
100
AcDbAlignedDimension
 13
536.1408453629068
 23
490.7611505619743
 33
0.0
 14
534.9849073629067
 24
383.7611505619743
 34
0.0
 50
90.0
100
AcDbRotatedDimension
1001
ACAD_DSTYLE_DIMINSPECT
1070
   396
1000
100%
1070
   395
1000

1070
   394
1070
    33
1070
   393
1070
     0
  0
DIMENSION
  5
5C76
102
{ACAD_XDICTIONARY
360
5C83
102
}
102
{ACAD_REACTORS
330
5C8D
102
}
330
1F
100
AcDbEntity
  8
AM_5 寸法線
100
AcDbDimension
  2
*D17
 10
647.1408453629067
 20
367.2611505619743
 30
0.0
 11
640.6408453629064
 21
437.2611505619743
 31
0.0
 70
    32
  1
%%c<>
 71
     5
 42
139.9999999999999
 73
     0
 74
     0
 75
     0
  3
SEISA$0
100
AcDbAlignedDimension
 13
506.9408453629066
 23
507.2611505619743
 33
0.0
 14
506.9408453629066
 24
367.2611505619745
 34
0.0
 50
90.0
100
AcDbRotatedDimension
1001
ACAD_DSTYLE_DIMINSPECT
1070
   396
1000
100%
1070
   395
1000

1070
   394
1070
    33
1070
   393
1070
     0
  0
DIMENSION
  5
5CD8
102
{ACAD_XDICTIONARY
360
5CE7
102
}
102
{ACAD_REACTORS
330
5CF3
102
}
330
1F
100
AcDbEntity
  8
AM_5 寸法線
100
AcDbDimension
  2
*D18
 10
342.1408453629068
 20
337.2611505619743
 30
0.0
 11
309.4908453629066
 21
337.2611505619743
 31
0.0
 70
   160
 71
     5
 42
15.00000000000023
 73
     0
 74
     0
 75
     0
  3
SEISA$0
100
AcDbAlignedDimension
 13
327.1408453629066
 23
367.4611505619743
 33
0.0
 14
342.1408453629068
 24
367.4611505619743
 34
0.0
100
AcDbRotatedDimension
1001
ACAD_DSTYLE_DIMINSPECT
1070
   396
1000
100%
1070
   395
1000

1070
   394
1070
    33
1070
   393
1070
     0
1001
ACAD
1000
DSTYLE
1002
{
1070
   173
1070
     1
1070
   342
1005
0
1070
   343
1005
69
1070
   344
1005
3AF8
1002
}
  0
DIMENSION
  5
5F33
102
{ACAD_XDICTIONARY
360
5F42
102
}
102
{ACAD_REACTORS
330
5F4E
102
}
330
1F
100
AcDbEntity
  8
AM_5 寸法線
100
AcDbDimension
  2
*D19
 10
507.1408453629068
 20
337.2611505619743
 30
0.0
 11
524.7908453629068
 21
337.2611505619743
 31
0.0
 70
   160
 71
     5
 42
15.0
 73
     0
 74
     0
 75
     0
  3
SEISA$0
100
AcDbAlignedDimension
 13
492.1408453629068
 23
367.4611505619743
 33
0.0
 14
507.1408453629068
 24
367.4611505619743
 34
0.0
100
AcDbRotatedDimension
1001
ACAD_DSTYLE_DIMINSPECT
1070
   396
1000
100%
1070
   395
1000

1070
   394
1070
    33
1070
   393
1070
     0
1001
ACAD
1000
DSTYLE
1002
{
1070
   173
1070
     1
1070
   342
1005
0
1070
   343
1005
3AF8
1070
   344
1005
69
1002
}
  0
DIMENSION
  5
5F87
102
{ACAD_XDICTIONARY
360
5F94
102
}
102
{ACAD_REACTORS
330
5F9E
102
}
330
1F
100
AcDbEntity
  8
AM_5 寸法線
100
AcDbDimension
  2
*D20
 10
539.1408453629066
 20
317.2611505619743
 30
0.0
 11
553.1408453629068
 21
323.7611505619743
 31
0.0
 70
    32
 71
     5
 42
28.0
 73
     0
 74
     0
 75
     0
  3
SEISA$0
100
AcDbAlignedDimension
 13
567.1408453629067
 23
400.2611505619743
 33
0.0
 14
539.1408453629066
 24
386.7611505619743
 34
0.0
100
AcDbRotatedDimension
  0
DIMENSION
  5
5F9F
102
{ACAD_XDICTIONARY
360
5FAC
102
}
102
{ACAD_REACTORS
330
5FB6
102
}
330
1F
100
AcDbEntity
  8
AM_5 寸法線
100
AcDbDimension
  2
*D21
 10
492.1408453629068
 20
317.2611505619743
 30
0.0
 11
515.6408453629068
 21
323.7611505619743
 31
0.0
 70
    32
 71
     5
 42
47.0
 73
     0
 74
     0
 75
     0
  3
SEISA$0
100
AcDbAlignedDimension
 13
539.1408453629066
 23
386.7611505619743
 33
0.0
 14
492.1408453629068
 24
367.4611505619743
 34
0.0
100
AcDbRotatedDimension
  0
DIMENSION
  5
5FD7
102
{ACAD_XDICTIONARY
360
5FE4
102
}
102
{ACAD_REACTORS
330
5FEE
102
}
330
1F
100
AcDbEntity
  8
AM_5 寸法線
100
AcDbDimension
  2
*D22
 10
295.1408453629066
 20
317.2611505619743
 30
0.0
 11
318.6408453629067
 21
323.7611505619743
 31
0.0
 70
    32
 71
     5
 42
47.00000000000023
 73
     0
 74
     0
 75
     0
  3
SEISA$0
100
AcDbAlignedDimension
 13
342.1408453629068
 23
367.4611505619743
 33
0.0
 14
295.1408453629066
 24
386.7611505619743
 34
0.0
100
AcDbRotatedDimension
  0
DIMENSION
  5
5FEF
102
{ACAD_XDICTIONARY
360
5FFC
102
}
102
{ACAD_REACTORS
330
6006
102
}
330
1F
100
AcDbEntity
  8
AM_5 寸法線
100
AcDbDimension
  2
*D23
 10
267.1408453629066
 20
317.2611505619743
 30
0.0
 11
281.1408453629066
 21
323.7611505619743
 31
0.0
 70
    32
 71
     5
 42
28.0
 73
     0
 74
     0
 75
     0
  3
SEISA$0
100
AcDbAlignedDimension
 13
295.1408453629066
 23
386.7611505619743
 33
0.0
 14
267.1408453629066
 24
400.2611505619743
 34
0.0
100
AcDbRotatedDimension
  0
DIMENSION
  5
6476
102
{ACAD_XDICTIONARY
360
6483
102
}
102
{ACAD_REACTORS
330
648D
102
}
330
1F
100
AcDbEntity
  8
AM_5 寸法線
100
AcDbDimension
  2
*D24
 10
267.1408453629066
 20
440.3830736835302
 30
0.0
 11
288.0628915356773
 21
439.4096976928057
 31
0.0
 70
   160
 71
     5
 42
70.99999600000002
 73
     0
 74
     0
 75
     0
  3
SEISA$0
100
AcDbAlignedDimension
 13
338.1408413629066
 23
437.2611505619743
 33
0.0
 14
267.1408453629066
 24
437.2611505619743
 34
0.0
100
AcDbRotatedDimension
1001
ACAD
1000
DSTYLE
1002
{
1070
   279
1070
     1
1002
}
  0
DIMENSION
  5
64DA
102
{ACAD_XDICTIONARY
360
64E7
102
}
102
{ACAD_REACTORS
330
64F1
102
}
330
1F
100
AcDbEntity
  8
AM_5 寸法線
100
AcDbDimension
  2
*D25
 10
496.1408453629068
 20
440.3830736835302
 30
0.0
 11
531.6408453629068
 21
446.8830736835301
 31
0.0
 70
    32
 71
     5
 42
71.0
 73
     0
 74
     0
 75
     0
  3
SEISA$0
100
AcDbAlignedDimension
 13
567.1408453629067
 23
437.2611505619743
 33
0.0
 14
496.1408453629068
 24
437.2611505619743
 34
0.0
100
AcDbRotatedDimension
  0
INSERT
  5
7C4E
102
{ACAD_REACTORS
330
92E9
330
9DF7
330
9F25
102
}
330
1F
100
AcDbEntity
  8
AM_0 外形線1
100
AcDbBlockReference
  2
ＧＣスペーサ SAMY140
 10
342.1408453629068
 20
437.2611505619743
 30
0.0
  0
DIMENSION
  5
92D9
102
{ACAD_XDICTIONARY
360
92E8
102
}
102
{ACAD_REACTORS
330
92E9
102
}
330
1F
100
AcDbEntity
  8
AM_5 寸法線
100
AcDbDimension
  2
*D27
 10
357.1408453629068
 20
337.2611505619742
 30
0.0
 11
374.7908453629067
 21
343.7611505619742
 31
0.0
 70
    32
 71
     5
 42
14.99999999999994
 73
     0
 74
     0
 75
     0
  3
SEISA$0
100
AcDbAlignedDimension
 13
342.1408453629068
 23
367.4611505619743
 33
0.0
 14
357.1408453629068
 24
368.2611505619743
 34
0.0
100
AcDbRotatedDimension
1001
ACAD_DSTYLE_DIMINSPECT
1070
   396
1000
100%
1070
   395
1000

1070
   394
1070
    33
1070
   393
1070
     0
1001
ACAD
1000
DSTYLE
1002
{
1070
   173
1070
     1
1070
   342
1005
0
1070
   343
1005
3AF8
1070
   344
1005
69
1002
}
  0
DIMENSION
  5
930B
102
{ACAD_XDICTIONARY
360
931A
102
}
102
{ACAD_REACTORS
330
931B
102
}
330
1F
100
AcDbEntity
  8
AM_5 寸法線
100
AcDbDimension
  2
*D28
 10
477.1408453629068
 20
337.261150561974
 30
0.0
 11
459.4908453629067
 21
343.761150561974
 31
0.0
 70
    32
 71
     5
 42
14.99999999999994
 73
     0
 74
     0
 75
     0
  3
SEISA$0
100
AcDbAlignedDimension
 13
492.1408453629068
 23
367.4611505619743
 33
0.0
 14
477.1408453629068
 24
368.2611505619743
 34
0.0
100
AcDbRotatedDimension
1001
ACAD_DSTYLE_DIMINSPECT
1070
   396
1000
100%
1070
   395
1000

1070
   394
1070
    33
1070
   393
1070
     0
1001
ACAD
1000
DSTYLE
1002
{
1070
   173
1070
     1
1070
   342
1005
0
1070
   343
1005
3AF8
1070
   344
1005
69
1002
}
  0
MTEXT
  5
9B94
330
1F
100
AcDbEntity
  8
AM_6 文字
100
AcDbMText
 10
585.0885797517222
 20
354.4900564128568
 30
0.0
 40
7.5
 41
108.5360962537228
 46
27.66929097590912
 71
     1
 72
     5
  1
{\W0.6;TYPE:SAM140/SAMH140\PSHAFT DIA:MAX/MIN φ56/φ22}
  7
SEISA
 73
     1
 44
1.0
  0
DIMENSION
  5
9C6E
102
{ACAD_XDICTIONARY
360
9C7D
102
}
102
{ACAD_REACTORS
330
9C7E
102
}
330
1F
100
AcDbEntity
  8
AM_5 寸法線
100
AcDbDimension
  2
*D29
 10
324.1408453629066
 20
464.3169334181406
 30
0.0
 11
317.9223493235439
 21
442.795581579553
 31
0.0
 70
   160
 71
     5
 42
14.5
 73
     0
 74
     0
 75
     0
  3
SEISA$0
100
AcDbAlignedDimension
 13
309.6408453629066
 23
477.7611505619743
 33
0.0
 14
324.1408453629066
 24
477.7611505619743
 34
0.0
 50
0.0000000000001132
100
AcDbRotatedDimension
1001
ACAD_DSTYLE_DIMINSPECT
1070
   396
1000
100%
1070
   395
1000

1070
   394
1070
    33
1070
   393
1070
     0
1001
ACAD
1000
DSTYLE
1002
{
1070
   279
1070
     1
1070
   342
1005
3AF8
1002
}
  0
DIMENSION
  5
9C95
102
{ACAD_XDICTIONARY
360
9CA4
102
}
102
{ACAD_REACTORS
330
9CA5
102
}
330
1F
100
AcDbEntity
  8
AM_5 寸法線
100
AcDbDimension
  2
*D30
 10
309.6408453629066
 20
464.3169334181406
 30
0.0
 11
296.2123602543612
 21
463.1460644176705
 31
0.0
 70
   160
 71
     5
 42
2.5
 73
     0
 74
     0
 75
     0
  3
SEISA$0
100
AcDbAlignedDimension
 13
307.1408453629066
 23
477.2611505619742
 33
0.0
 14
309.6408453629066
 24
477.7611505619743
 34
0.0
100
AcDbRotatedDimension
1001
ACAD
1000
DSTYLE
1002
{
1070
   173
1070
     1
1070
   279
1070
     1
1070
   343
1005
69
1070
   344
1005
3AF8
1002
}
  0
DIMENSION
  5
9D95
102
{ACAD_XDICTIONARY
360
9DA4
102
}
102
{ACAD_REACTORS
330
9DA5
102
}
330
1F
100
AcDbEntity
  8
AM_5 寸法線
100
AcDbDimension
  2
*D32
 10
267.1408453629066
 20
517.2611515619743
 30
0.0
 11
282.2408453629066
 21
523.7611515619743
 31
0.0
 70
    32
 71
     5
 42
6.999999999999772
 73
     0
 74
     0
 75
     0
  3
SEISA$0
100
AcDbAlignedDimension
 13
260.1408453629068
 23
487.7611505619744
 33
0.0
 14
267.1408453629066
 24
474.2611505619743
 34
0.0
100
AcDbRotatedDimension
1001
ACAD_DSTYLE_DIMINSPECT
1070
   396
1000
100%
1070
   395
1000

1070
   394
1070
    33
1070
   393
1070
     0
  0
DIMENSION
  5
9DE7
102
{ACAD_XDICTIONARY
360
9DF6
102
}
102
{ACAD_REACTORS
330
9DF7
102
}
330
1F
100
AcDbEntity
  8
AM_5 寸法線
100
AcDbDimension
  2
*D33
 10
338.1408453629066
 20
459.1435506341031
 30
0.0
 11
359.7696342700233
 21
456.2780421447566
 31
0.0
 70
   160
 71
     5
 42
4.000000000000227
 73
     0
 74
     0
 75
     0
  3
SEISA$0
100
AcDbAlignedDimension
 13
342.1408453629068
 23
490.2611505619744
 33
0.0
 14
338.1408453629066
 24
476.7611505619743
 34
0.0
 50
0.0000000000001132
100
AcDbRotatedDimension
1001
ACAD_DSTYLE_DIMINSPECT
1070
   396
1000
100%
1070
   395
1000

1070
   394
1070
    33
1070
   393
1070
     0
1001
ACAD
1000
DSTYLE
1002
{
1070
   342
1005
0
1070
   173
1070
     1
1070
   279
1070
     1
1070
   343
1005
69
1070
   344
1005
69
1002
}
  0
DIMENSION
  5
9E0E
330
1F
100
AcDbEntity
  8
AM_5 寸法線
100
AcDbDimension
  2
*D34
 10
338.1408453629066
 20
464.3169334181408
 30
0.0
 11
330.3068753861835
 21
463.3123947149131
 31
0.0
 70
   160
 71
     5
 42
14.0
 73
     0
 74
     0
 75
     1
  3
SEISA$0
100
AcDbAlignedDimension
 13
324.1408453629066
 23
477.7611505619743
 33
0.0
 14
338.1408453629066
 24
476.7611505619743
 34
0.0
100
AcDbRotatedDimension
1001
ACAD
1000
DSTYLE
1002
{
1070
   173
1070
     1
1070
   279
1070
     1
1070
   342
1005
0
1070
   343
1005
9D45
1070
   344
1005
69
1002
}
  0
DIMENSION
  5
9F15
102
{ACAD_XDICTIONARY
360
9F24
102
}
102
{ACAD_REACTORS
330
9F25
102
}
330
1F
100
AcDbEntity
  8
AM_5 寸法線
100
AcDbDimension
  2
*D35
 10
496.1408453629068
 20
459.1435506341031
 30
0.0
 11
483.244649040578
 21
463.8224862690332
 31
0.0
 70
   160
 71
     5
 42
4.000000000000055
 73
     0
 74
     0
 75
     0
  3
SEISA$0
100
AcDbAlignedDimension
 13
492.1408453629068
 23
490.2611505619743
 33
0.0
 14
496.1408453629068
 24
476.7611505619743
 34
0.0
 50
0.0000000000001132
100
AcDbRotatedDimension
1001
ACAD_DSTYLE_DIMINSPECT
1070
   396
1000
100%
1070
   395
1000

1070
   394
1070
    33
1070
   393
1070
     0
1001
ACAD
1000
DSTYLE
1002
{
1070
   279
1070
     2
1002
}
  0
DIMENSION
  5
A0CE
102
{ACAD_XDICTIONARY
360
A0DB
102
}
102
{ACAD_REACTORS
330
A0DC
102
}
330
1F
100
AcDbEntity
  8
AM_5 寸法線
100
AcDbDimension
  2
*D36
 10
224.9372623074194
 20
397.2611505619743
 30
0.0
 11
218.4372623074193
 21
437.2611505619743
 31
0.0
 70
    32
  1
%%c<>
 71
     5
 42
80.0
 73
     0
 74
     0
 75
     0
  3
SEISA$0
100
AcDbAlignedDimension
 13
270.1408453629066
 23
477.2611505619742
 33
0.0
 14
270.1408453629066
 24
397.2611505619743
 34
0.0
 50
90.00000000000005
100
AcDbRotatedDimension
1001
ACAD_DSTYLE_DIMINSPECT
1070
   396
1000
100%
1070
   395
1000

1070
   394
1070
    33
1070
   393
1070
     0
  0
INSERT
  5
A161
330
1F
100
AcDbEntity
  8
AM_11 想像線
100
AcDbBlockReference
  2
ケース
 10
282.7453729869857
 20
490.7611505619743
 30
0.0
  0
ENDSEC
  0
SECTION
  2
OBJECTS
  0
DICTIONARY
  5
C
330
0
100
AcDbDictionary
281
     1
  3
ACAD_COLOR
350
C5
  3
ACAD_GROUP
350
D
  3
ACAD_LAYOUT
350
1A
  3
ACAD_MATERIAL
350
C4
  3
ACAD_MLEADERSTYLE
350
2D5
  3
ACAD_MLINESTYLE
350
17
  3
ACAD_PLOTSETTINGS
350
19
  3
ACAD_PLOTSTYLENAME
350
E
  3
ACAD_SCALELIST
350
2B3
  3
ACAD_TABLESTYLE
350
121
  3
ACAD_VISUALSTYLE
350
27F
  3
ACDB_RECOMPOSE_DATA
350
2F7
  3
AcDbVariableDictionary
350
34
  3
AcmDictionary
350
49
  3
AMG
350
2B
  3
AMGSNAPSETTINGS
350
1DE
  0
DICTIONARY
  5
BF
330
2
100
AcDbDictionary
280
     1
281
     1
  3
ACAD_LAYERSTATES
360
2E16
  3
AMLAYER_GROUPCOLORS
360
C0
  0
DICTIONARY
  5
29F7
330
10
100
AcDbDictionary
280
     1
281
     1
  3
ADSK_XREC_LAYER_RECONCILED
360
29F8
  0
DICTIONARY
  5
29F9
330
81
100
AcDbDictionary
280
     1
281
     1
  3
ADSK_XREC_LAYER_RECONCILED
360
29FA
  0
DICTIONARY
  5
2E0C
330
2E0B
100
AcDbDictionary
280
     1
281
     1
  0
DICTIONARY
  5
82
330
1F
100
AcDbDictionary
280
     1
281
     1
  3
ACAD_SORTENTS
360
A41
  0
DICTIONARY
  5
3967
330
3966
100
AcDbDictionary
280
     1
281
     1
  3
ACAD_SORTENTS
360
6E49
  0
DICTIONARY
  5
4E1C
330
3B98
100
AcDbDictionary
280
     1
281
     1
  3
ACAD_SORTENTS
360
4E1D
  0
DICTIONARY
  5
4F92
330
4EB5
100
AcDbDictionary
280
     1
281
     1
  3
ACAD_SORTENTS
360
6EC2
  0
DICTIONARY
  5
50DC
330
500B
100
AcDbDictionary
280
     1
281
     1
  3
ACAD_SORTENTS
360
6F3D
  0
DICTIONARY
  5
517B
330
512F
100
AcDbDictionary
280
     1
281
     1
  3
ACAD_SORTENTS
360
A048
  0
DICTIONARY
  5
51FC
330
51AE
100
AcDbDictionary
280
     1
281
     1
  3
ACAD_SORTENTS
360
A01B
  0
DICTIONARY
  5
55EE
330
5567
100
AcDbDictionary
280
     1
281
     1
  3
ACAD_SORTENTS
360
716C
  0
DICTIONARY
  5
567D
330
55F8
100
AcDbDictionary
280
     1
281
     1
  3
ACAD_SORTENTS
360
71CD
  0
DICTIONARY
  5
7D43
330
7BD1
100
AcDbDictionary
280
     1
281
     1
  3
ACAD_SORTENTS
360
A38C
  0
DICTIONARY
  5
5C53
330
5C46
100
AcDbDictionary
280
     1
281
     1
  3
ACAD_DIMASSOC
360
5C5D
  0
DICTIONARY
  5
5C6B
330
5C5E
100
AcDbDictionary
280
     1
281
     1
  3
ACAD_DIMASSOC
360
5C75
  0
DICTIONARY
  5
5C83
330
5C76
100
AcDbDictionary
280
     1
281
     1
  3
ACAD_DIMASSOC
360
5C8D
  0
DICTIONARY
  5
5CE7
330
5CD8
100
AcDbDictionary
280
     1
281
     1
  3
ACAD_DIMASSOC
360
5CF3
  0
DICTIONARY
  5
5F42
330
5F33
100
AcDbDictionary
280
     1
281
     1
  3
ACAD_DIMASSOC
360
5F4E
  0
DICTIONARY
  5
5F94
330
5F87
100
AcDbDictionary
280
     1
281
     1
  3
ACAD_DIMASSOC
360
5F9E
  0
DICTIONARY
  5
5FAC
330
5F9F
100
AcDbDictionary
280
     1
281
     1
  3
ACAD_DIMASSOC
360
5FB6
  0
DICTIONARY
  5
5FE4
330
5FD7
100
AcDbDictionary
280
     1
281
     1
  3
ACAD_DIMASSOC
360
5FEE
  0
DICTIONARY
  5
5FFC
330
5FEF
100
AcDbDictionary
280
     1
281
     1
  3
ACAD_DIMASSOC
360
6006
  0
DICTIONARY
  5
6483
330
6476
100
AcDbDictionary
280
     1
281
     1
  3
ACAD_DIMASSOC
360
648D
  0
DICTIONARY
  5
64E7
330
64DA
100
AcDbDictionary
280
     1
281
     1
  3
ACAD_DIMASSOC
360
64F1
  0
DICTIONARY
  5
92E8
330
92D9
100
AcDbDictionary
280
     1
281
     1
  3
ACAD_DIMASSOC
360
92E9
  0
DICTIONARY
  5
931A
330
930B
100
AcDbDictionary
280
     1
281
     1
  3
ACAD_DIMASSOC
360
931B
  0
DICTIONARY
  5
9C7D
330
9C6E
100
AcDbDictionary
280
     1
281
     1
  3
ACAD_DIMASSOC
360
9C7E
  0
DICTIONARY
  5
9CA4
330
9C95
100
AcDbDictionary
280
     1
281
     1
  3
ACAD_DIMASSOC
360
9CA5
  0
DICTIONARY
  5
9DA4
330
9D95
100
AcDbDictionary
280
     1
281
     1
  3
ACAD_DIMASSOC
360
9DA5
  0
DICTIONARY
  5
9DF6
330
9DE7
100
AcDbDictionary
280
     1
281
     1
  3
ACAD_DIMASSOC
360
9DF7
  0
DICTIONARY
  5
9F24
330
9F15
100
AcDbDictionary
280
     1
281
     1
  3
ACAD_DIMASSOC
360
9F25
  0
DICTIONARY
  5
A0DB
330
A0CE
100
AcDbDictionary
280
     1
281
     1
  3
ACAD_DIMASSOC
360
A0DC
  0
DICTIONARY
  5
C5
102
{ACAD_REACTORS
330
C
102
}
330
C
100
AcDbDictionary
281
     1
  0
DICTIONARY
  5
D
102
{ACAD_REACTORS
330
C
102
}
330
C
100
AcDbDictionary
281
     1
  0
DICTIONARY
  5
1A
102
{ACAD_REACTORS
330
C
102
}
330
C
100
AcDbDictionary
281
     1
  3
Model
350
22
  3
レイアウト1
350
1E
  3
レイアウト2
350
26
  0
DICTIONARY
  5
C4
102
{ACAD_REACTORS
330
C
102
}
330
C
100
AcDbDictionary
281
     1
  3
ByBlock
350
27D
  3
ByLayer
350
27C
  3
Global
350
27E
  0
DICTIONARY
  5
2D5
102
{ACAD_REACTORS
330
C
102
}
330
C
100
AcDbDictionary
281
     1
  3
Standard
350
2D6
  0
DICTIONARY
  5
17
102
{ACAD_REACTORS
330
C
102
}
330
C
100
AcDbDictionary
281
     1
  3
Standard
350
18
  0
DICTIONARY
  5
19
102
{ACAD_REACTORS
330
C
102
}
330
C
100
AcDbDictionary
281
     1
  3
SEISA基本
350
1C7E
  0
ACDBDICTIONARYWDFLT
  5
E
102
{ACAD_REACTORS
330
C
102
}
330
C
100
AcDbDictionary
281
     1
  3
Normal
350
F
100
AcDbDictionaryWithDefault
340
F
  0
DICTIONARY
  5
2B3
102
{ACAD_REACTORS
330
C
102
}
330
C
100
AcDbDictionary
281
     1
  3
*A1
350
3BD4
  3
A0
350
2B4
  3
A1
350
2B5
  3
A2
350
2B6
  3
A3
350
2B7
  3
A4
350
2B8
  3
A5
350
2B9
  3
A6
350
2BA
  3
A7
350
2BB
  3
A8
350
2BC
  3
A9
350
2BD
  3
B0
350
2BE
  3
B1
350
2BF
  3
B2
350
2C0
  3
B3
350
2C1
  3
B4
350
2C2
  3
B5
350
2C3
  3
B6
350
2C4
  3
B7
350
2C5
  3
B8
350
2C6
  3
B9
350
2C7
  3
C0
350
2C8
  3
C1
350
2C9
  3
C2
350
2CA
  3
C3
350
2CB
  3
C4
350
2CC
  3
C5
350
2CD
  3
C6
350
2CE
  3
C7
350
2CF
  3
C8
350
2D0
  3
C9
350
2D1
  3
D0
350
2D2
  3
D1
350
2D3
  3
D2
350
2D4
  0
DICTIONARY
  5
121
102
{ACAD_REACTORS
330
C
102
}
330
C
100
AcDbDictionary
281
     1
  3
Standard
350
122
  0
DICTIONARY
  5
27F
102
{ACAD_REACTORS
330
C
102
}
330
C
100
AcDbDictionary
281
     1
  3
2dWireframe
350
285
  3
3D Hidden
350
287
  3
3dWireframe
350
286
  3
Basic
350
284
  3
Brighten
350
28B
  3
ColorChange
350
28F
  3
Conceptual
350
288
  3
Dim
350
28A
  3
Facepattern
350
28E
  3
Flat
350
280
  3
FlatWithEdges
350
281
  3
Gouraud
350
282
  3
GouraudWithEdges
350
283
  3
Linepattern
350
28D
  3
Realistic
350
289
  3
Thicken
350
28C
  0
XRECORD
  5
2F7
102
{ACAD_REACTORS
330
C
102
}
330
C
100
AcDbXrecord
280
     1
 90
        1
330
122
  0
DICTIONARY
  5
34
102
{ACAD_REACTORS
330
C
102
}
330
C
100
AcDbDictionary
281
     1
  3
CANNOSCALE
350
2FA
  3
CMLEADERSTYLE
350
2F8
  3
CTABLESTYLE
350
140
  3
DIMASSOC
350
AC
  3
INDEXCTL
350
35
  3
LAYEREVAL
350
6CB6
  3
LAYERNOTIFY
350
6CB7
  3
LIGHTINGUNITS
350
2FB
  3
MSLTSCALE
350
2F9
  0
DICTIONARY
  5
49
102
{ACAD_REACTORS
330
C
102
}
330
C
100
AcDbDictionary
281
     1
  3
AcmBOM
350
161B
  3
AcmStdDictionary
350
4A
  3
AMDTSECTSYM_ARROWCOLOR
350
12B
  0
DICTIONARY
  5
2B
102
{ACAD_REACTORS
330
C
102
}
330
C
100
AcDbDictionary
281
     1
  0
DICTIONARY
  5
1DE
102
{ACAD_REACTORS
330
C
102
}
330
C
100
AcDbDictionary
281
     1
  0
DICTIONARY
  5
2E16
102
{ACAD_REACTORS
330
BF
102
}
330
BF
100
AcDbDictionary
281
     1
  0
DICTIONARY
  5
C0
102
{ACAD_REACTORS
330
BF
102
}
330
BF
100
AcDbDictionary
280
     1
281
     1
  0
XRECORD
  5
29F8
102
{ACAD_REACTORS
330
29F7
102
}
330
29F7
100
AcDbXrecord
280
     1
290
     1
  0
XRECORD
  5
29FA
102
{ACAD_REACTORS
330
29F9
102
}
330
29F9
100
AcDbXrecord
280
     1
290
     1
  0
SORTENTSTABLE
  5
A41
102
{ACAD_REACTORS
330
82
102
}
330
82
100
AcDbSortentsTable
330
1F
331
445A
  5
445A
331
92D9
  5
92D9
331
5148
  5
5591
331
4EF2
  5
51C6
331
5CD8
  5
5D26
331
64DA
  5
65C6
331
930B
  5
930B
331
50A1
  5
5460
331
4564
  5
45D9
331
5FD7
  5
6007
331
9B94
  5
9B94
331
5F9F
  5
5FD7
331
5F87
  5
5FBF
331
7C4E
  5
7C4E
331
5591
  5
58CE
331
5460
  5
579A
331
51C6
  5
5622
331
4F0D
  5
5403
331
6476
  5
64DA
331
5622
  5
58D3
331
5C76
  5
5CD7
331
5C5E
  5
5CD6
331
5FEF
  5
617C
331
5C46
  5
5C76
331
5F33
  5
5F9F
  0
SORTENTSTABLE
  5
6E49
102
{ACAD_REACTORS
330
3967
102
}
330
3967
100
AcDbSortentsTable
330
3966
  0
SORTENTSTABLE
  5
4E1D
102
{ACAD_REACTORS
330
4E1C
102
}
330
4E1C
100
AcDbSortentsTable
330
3B98
331
4E04
  5
4E13
331
4E02
  5
4E04
331
4E00
  5
4E02
331
4E13
  5
4DFE
331
4DFE
  5
4E00
331
4E03
  5
4E12
331
4E01
  5
4E03
331
4E12
  5
4DFD
331
4DFF
  5
4E01
331
4DFD
  5
4DFF
  0
SORTENTSTABLE
  5
6EC2
102
{ACAD_REACTORS
330
4F92
102
}
330
4F92
100
AcDbSortentsTable
330
4EB5
331
4EC8
  5
4EC9
331
4ECC
  5
4ECD
331
6E88
  5
4EB8
331
4ED4
  5
4ED8
331
4EB8
  5
4EB9
331
4EE3
  5
4EE7
331
4ED8
  5
4EDC
331
4EBC
  5
4EBD
331
4EE7
  5
4EEB
331
4EDC
  5
4EE0
331
4EC3
  5
4EC5
331
4EEB
  5
4EEF
331
4EC7
  5
4EC8
331
4EEF
  5
4F90
331
4ECB
  5
4ECC
331
4F8F
  5
4ED5
331
4ECF
  5
4ED2
331
4EF1
  5
6E88
331
4EE2
  5
4EE6
331
4ED7
  5
4EDB
331
4EBB
  5
4EBC
331
4EE6
  5
4EEA
331
4EDB
  5
4EDF
331
4EC2
  5
4EC3
331
4EBF
  5
4EC0
331
4EEA
  5
4EEE
331
4EDF
  5
4EE3
331
4EC6
  5
4EC7
331
4EEE
  5
4F8F
331
4ECA
  5
4ECB
331
4ECE
  5
4ECF
331
4EF0
  5
4F91
331
4ED2
  5
4ED6
331
4F91
  5
4ED7
331
4EE1
  5
4EE5
331
4ED6
  5
4EDA
331
4EBA
  5
4EBB
331
4EE5
  5
4EE9
331
4EDA
  5
4EDE
331
4EC1
  5
4EC2
331
4EBE
  5
4EBF
331
4EE9
  5
4EED
331
4EDE
  5
4EE2
331
4EC5
  5
4EC6
331
4EED
  5
4EF1
331
4EC9
  5
4ECA
331
4ECD
  5
4ECE
331
4ED5
  5
4ED9
331
4F90
  5
4ED4
331
4EE0
  5
4EE4
331
4EE4
  5
4EE8
331
4EB9
  5
4EBA
331
4ED9
  5
4EDD
331
4EC0
  5
4EC1
331
4EE8
  5
4EEC
331
4EBD
  5
4EBE
331
4EDD
  5
4EE1
331
4EEC
  5
4EF0
  0
SORTENTSTABLE
  5
6F3D
102
{ACAD_REACTORS
330
50DC
102
}
330
50DC
100
AcDbSortentsTable
330
500B
331
5033
  5
5035
331
503A
  5
503C
331
5042
  5
5044
331
5015
  5
5018
331
502A
  5
502C
331
5023
  5
5025
331
503B
  5
503D
331
5272
  5
500E
331
501D
  5
501F
331
502B
  5
502D
331
5024
  5
5026
331
5043
  5
5045
331
5034
  5
5036
331
5035
  5
5037
331
503C
  5
503E
331
501E
  5
5020
331
5025
  5
5027
331
5044
  5
5046
331
5017
  5
5019
331
502C
  5
502E
331
500E
  5
5010
331
5010
  5
5012
331
5036
  5
5038
331
5018
  5
501A
331
5011
  5
5013
331
503D
  5
503F
331
501F
  5
5021
331
502D
  5
502F
331
500F
  5
5011
331
5026
  5
5028
331
5045
  5
5047
331
5030
  5
5033
331
5037
  5
5039
331
503E
  5
5040
331
5020
  5
5022
331
5027
  5
5029
331
5046
  5
50DB
331
5019
  5
501D
331
50DB
  5
500F
331
502E
  5
5030
331
5012
  5
5014
331
5038
  5
503A
331
501A
  5
501E
331
5013
  5
5015
331
5040
  5
5042
331
503F
  5
5041
331
5021
  5
5023
331
502F
  5
5032
331
5028
  5
502A
331
5047
  5
5272
331
5014
  5
5017
331
5039
  5
503B
331
5029
  5
502B
331
5022
  5
5024
331
5041
  5
5043
331
5032
  5
5034
  0
SORTENTSTABLE
  5
A048
102
{ACAD_REACTORS
330
517B
102
}
330
517B
100
AcDbSortentsTable
330
512F
331
5144
  5
5147
331
5143
  5
5146
331
5142
  5
5145
331
5141
  5
5144
331
517A
  5
5136
331
5140
  5
5143
331
513F
  5
5142
331
513E
  5
5141
331
513D
  5
5140
331
513A
  5
513F
331
9C15
  5
5132
331
9C14
  5
5134
331
5136
  5
513E
331
5135
  5
513D
331
5134
  5
513A
331
5147
  5
9C15
331
5146
  5
9C14
331
5132
  5
5135
331
5145
  5
517A
  0
SORTENTSTABLE
  5
A01B
102
{ACAD_REACTORS
330
51FC
102
}
330
51FC
100
AcDbSortentsTable
330
51AE
331
51B5
  5
51BC
331
51B4
  5
51BA
331
51B3
  5
51B9
331
51B2
  5
51B5
331
528D
  5
51B3
331
51B1
  5
51B4
331
51C4
  5
9C45
331
51C3
  5
9C44
331
51C2
  5
528D
331
51C1
  5
51C4
331
51C0
  5
51C3
331
51BF
  5
51C2
331
51BE
  5
51C1
331
51BD
  5
51C0
331
51BC
  5
51BF
331
51BA
  5
51BE
331
9C45
  5
51B1
331
51B9
  5
51BD
331
9C44
  5
51B2
  0
SORTENTSTABLE
  5
716C
102
{ACAD_REACTORS
330
55EE
102
}
330
55EE
100
AcDbSortentsTable
330
5567
  0
SORTENTSTABLE
  5
71CD
102
{ACAD_REACTORS
330
567D
102
}
330
567D
100
AcDbSortentsTable
330
55F8
  0
SORTENTSTABLE
  5
A38C
102
{ACAD_REACTORS
330
7D43
102
}
330
7D43
100
AcDbSortentsTable
330
7BD1
331
7C23
  5
7C26
331
7C39
  5
7C3B
331
7C4C
  5
7C4D
331
7C0E
  5
7C10
331
7C2E
  5
7C31
331
7C42
  5
7C44
331
7C19
  5
7C1A
331
7BD4
  5
7BD5
331
7C04
  5
7C05
331
7BD8
  5
7BD9
331
7C3A
  5
7C3C
331
7C4D
  5
7EFD
331
7C2F
  5
7C32
331
7EFD
  5
A294
331
7C43
  5
7EFE
331
7C1A
  5
7C1B
331
7BD5
  5
7BD6
331
7C05
  5
7C06
331
7C3B
  5
7C3D
331
7BD9
  5
7BDA
331
7C25
  5
7C27
331
7C10
  5
7C11
331
7EFE
  5
7C22
331
7C44
  5
7C45
331
7C1B
  5
7C1C
331
7BD6
  5
7BD8
331
7C06
  5
7C07
331
7C26
  5
7C28
331
7BDA
  5
7BDB
331
7C3C
  5
7C3E
331
7C11
  5
7C12
331
7C31
  5
7C33
331
7C45
  5
7C46
331
7C1C
  5
7C1D
331
7C07
  5
7C08
331
7C27
  5
7C29
331
7BDB
  5
7BDC
331
7C3D
  5
7C3F
331
7C12
  5
7C13
331
7C32
  5
7C34
331
7C46
  5
7C47
331
7C1D
  5
7C1E
331
A35B
  5
7BD4
331
7C08
  5
7C09
331
7C28
  5
7C2A
331
7BDC
  5
7BDE
331
7C3E
  5
7C40
331
7C13
  5
7C14
331
7C33
  5
7C35
331
7C47
  5
7C48
331
7C1E
  5
7C1F
331
7BF1
  5
7C04
331
7C09
  5
7C0A
331
7C29
  5
7C2B
331
7C3F
  5
7C41
331
7C14
  5
7C15
331
7C34
  5
7C36
331
7C1F
  5
7C20
331
7C48
  5
7C49
331
7C0A
  5
7C0B
331
7C2A
  5
7C2C
331
7BDE
  5
7BF1
331
7C15
  5
7C16
331
7C35
  5
7C37
331
7C20
  5
7C21
331
7C49
  5
7C4A
331
7C0B
  5
7C0C
331
7C2B
  5
7C2D
331
7C16
  5
7C17
331
A294
  5
A35B
331
7C36
  5
7C38
331
7C21
  5
7C23
331
7C4A
  5
7C4B
331
7C0C
  5
7C0D
331
7C2C
  5
7C2E
331
7C40
  5
7C42
331
7C17
  5
7C18
331
7C37
  5
7C39
331
7C22
  5
7C25
331
7C38
  5
7C3A
331
7C4B
  5
7C4C
331
7C0D
  5
7C0E
331
7C2D
  5
7C2F
331
7C41
  5
7C43
331
7C18
  5
7C19
  0
DIMASSOC
  5
5C5D
102
{ACAD_REACTORS
330
5C53
102
}
330
5C53
100
AcDbDimAssoc
330
5C46
 90
        3
 70
     0
 71
     0
  1
AcDbOsnapPointRef
 72
    13
331
5148
331
5143
 73
     2
 91
        0
 40
0.0
 10
0.0
 20
0.0
 30
2.000000000000000E+50
 75
     0
  1
AcDbOsnapPointRef
 72
    13
331
5148
331
5135
 73
     2
 91
        0
 40
4.712388980384688
 10
0.0
 20
0.0
 30
2.000000000000000E+50
 75
     0
  0
DIMASSOC
  5
5C75
102
{ACAD_REACTORS
330
5C6B
102
}
330
5C6B
100
AcDbDimAssoc
330
5C5E
 90
        3
 70
     0
 71
     0
  1
AcDbOsnapPointRef
 72
     1
331
4EF2
331
4EC7
 73
     2
 91
        0
 40
1.0
 10
0.0
 20
0.0
 30
2.000000000000000E+50
 75
     0
  1
AcDbOsnapPointRef
 72
     1
331
4EF2
331
4EB8
 73
     2
 91
        0
 40
1.0
 10
0.0
 20
0.0
 30
2.000000000000000E+50
 75
     0
  0
DIMASSOC
  5
5C8D
102
{ACAD_REACTORS
330
5C83
102
}
330
5C83
100
AcDbDimAssoc
330
5C76
 90
        3
 70
     0
 71
     0
  1
AcDbOsnapPointRef
 72
     1
331
4EF2
331
4ECF
 73
     2
 91
        0
 40
1.0
 10
0.0
 20
0.0
 30
2.000000000000000E+50
 75
     0
  1
AcDbOsnapPointRef
 72
     8
331
4EF2
331
4EBB
 73
     2
 91
        0
 40
1.0
 10
0.0
 20
0.0
 30
0.0
 75
     1
  1
AcDbOsnapPointRef
 72
     1
331
4EF2
331
4ECF
 73
     2
 91
        0
 40
1.0
 10
0.0
 20
0.0
 30
2.000000000000000E+50
 75
     0
  0
DIMASSOC
  5
5CF3
102
{ACAD_REACTORS
330
5CE7
102
}
330
5CE7
100
AcDbDimAssoc
330
5CD8
 90
        3
 70
     0
 71
     0
  1
AcDbOsnapPointRef
 72
    13
331
5460
331
500F
 73
     2
 91
        0
 40
0.0
 10
0.0
 20
0.0
 30
2.000000000000000E+50
 75
     0
  1
AcDbOsnapPointRef
 72
     1
331
5460
331
500E
 73
     2
 91
        0
 40
1.0
 10
0.0
 20
0.0
 30
2.000000000000000E+50
 75
     0
  0
DIMASSOC
  5
5F4E
102
{ACAD_REACTORS
330
5F42
102
}
330
5F42
100
AcDbDimAssoc
330
5F33
 90
        2
 70
     0
 71
     0
  1
AcDbOsnapPointRef
 72
    13
331
4EF2
331
4EB9
 73
     2
 91
        0
 40
0.0
 10
0.0
 20
0.0
 30
2.000000000000000E+50
 75
     0
  0
DIMASSOC
  5
5F9E
102
{ACAD_REACTORS
330
5F94
102
}
330
5F94
100
AcDbDimAssoc
330
5F87
 90
        3
 70
     0
 71
     0
  1
AcDbOsnapPointRef
 72
    13
331
5148
331
5132
 73
     2
 91
        0
 40
0.0
 10
0.0
 20
0.0
 30
2.000000000000000E+50
 75
     0
  1
AcDbOsnapPointRef
 72
     1
331
4EF2
331
4EC0
 73
     2
 91
        0
 40
6.283185307179585
 10
0.0
 20
0.0
 30
2.000000000000000E+50
 75
     0
  0
DIMASSOC
  5
5FB6
102
{ACAD_REACTORS
330
5FAC
102
}
330
5FAC
100
AcDbDimAssoc
330
5F9F
 90
        1
 70
     0
 71
     0
  1
AcDbOsnapPointRef
 72
     1
331
4EF2
331
4EC0
 73
     2
 91
        0
 40
6.283185307179585
 10
0.0
 20
0.0
 30
2.000000000000000E+50
 75
     0
  0
DIMASSOC
  5
5FEE
102
{ACAD_REACTORS
330
5FE4
102
}
330
5FE4
100
AcDbDimAssoc
330
5FD7
 90
        3
 70
     0
 71
     0
  1
AcDbOsnapPointRef
 72
     1
331
5460
331
500E
 73
     2
 91
        0
 40
1.0
 10
0.0
 20
0.0
 30
2.000000000000000E+50
 75
     0
  1
AcDbOsnapPointRef
 72
    13
331
5460
331
5010
 73
     2
 91
        0
 40
0.0
 10
0.0
 20
0.0
 30
2.000000000000000E+50
 75
     0
  0
DIMASSOC
  5
6006
102
{ACAD_REACTORS
330
5FFC
102
}
330
5FFC
100
AcDbDimAssoc
330
5FEF
 90
        3
 70
     0
 71
     0
  1
AcDbOsnapPointRef
 72
    13
331
5460
331
5010
 73
     2
 91
        0
 40
0.0
 10
0.0
 20
0.0
 30
2.000000000000000E+50
 75
     0
  1
AcDbOsnapPointRef
 72
    13
331
51C6
331
51B1
 73
     2
 91
        0
 40
0.0
 10
0.0
 20
0.0
 30
2.000000000000000E+50
 75
     0
  0
DIMASSOC
  5
648D
102
{ACAD_REACTORS
330
6483
102
}
330
6483
100
AcDbDimAssoc
330
6476
 90
        2
 70
     0
 71
     0
  1
AcDbOsnapPointRef
 72
     2
331
51C6
331
51B1
 73
     2
 91
        0
 40
0.5
 10
0.0
 20
0.0
 30
0.0
 75
     0
  0
DIMASSOC
  5
64F1
102
{ACAD_REACTORS
330
64E7
102
}
330
64E7
100
AcDbDimAssoc
330
64DA
 90
        1
 70
     0
 71
     0
  1
AcDbOsnapPointRef
 72
     2
331
5148
331
5132
 73
     2
 91
        0
 40
0.5
 10
0.0
 20
0.0
 30
0.0
 75
     0
  0
DIMASSOC
  5
92E9
102
{ACAD_REACTORS
330
92E8
102
}
330
92E8
100
AcDbDimAssoc
330
92D9
 90
        3
 70
     0
 71
     0
  1
AcDbOsnapPointRef
 72
     1
331
5460
331
500E
 73
     0
 91
        0
 40
0.0
 10
0.0
 20
0.0
 30
2.000000000000000E+50
 75
     0
  1
AcDbOsnapPointRef
 72
    13
331
7C4E
331
7C2A
 73
     0
 91
        0
 40
0.0
 10
0.0
 20
0.0
 30
2.000000000000000E+50
 75
     0
  0
DIMASSOC
  5
931B
102
{ACAD_REACTORS
330
931A
102
}
330
931A
100
AcDbDimAssoc
330
930B
 90
        1
 70
     0
 71
     0
  1
AcDbOsnapPointRef
 72
     1
331
4EF2
331
4EBA
 73
     0
 91
        0
 40
0.0
 10
0.0
 20
0.0
 30
2.000000000000000E+50
 75
     0
  0
DIMASSOC
  5
9C7E
102
{ACAD_REACTORS
330
9C7D
102
}
330
9C7D
100
AcDbDimAssoc
330
9C6E
 90
        2
 70
     0
 71
     0
  1
AcDbOsnapPointRef
 72
    13
331
51C6
331
51C2
 73
     0
 91
        0
 40
0.0
 10
0.0
 20
0.0
 30
2.000000000000000E+50
 75
     0
  0
DIMASSOC
  5
9CA5
102
{ACAD_REACTORS
330
9CA4
102
}
330
9CA4
100
AcDbDimAssoc
330
9C95
 90
        1
 70
     0
 71
     0
  1
AcDbOsnapPointRef
 72
     1
331
5460
331
502B
 73
     2
 91
        0
 40
1.0
 10
0.0
 20
0.0
 30
2.000000000000000E+50
 75
     0
  0
DIMASSOC
  5
9DA5
102
{ACAD_REACTORS
330
9DA4
102
}
330
9DA4
100
AcDbDimAssoc
330
9D95
 90
        2
 70
     0
 71
     0
  1
AcDbOsnapPointRef
 72
     1
331
51C6
331
51B1
 73
     0
 91
        0
 40
0.0
 10
0.0
 20
0.0
 30
2.000000000000000E+50
 75
     0
  0
DIMASSOC
  5
9DF7
102
{ACAD_REACTORS
330
9DF6
102
}
330
9DF6
100
AcDbDimAssoc
330
9DE7
 90
        1
 70
     0
 71
     0
  1
AcDbOsnapPointRef
 72
    13
331
7C4E
331
7C43
 73
     0
 91
        0
 40
0.0
 10
0.0
 20
0.0
 30
2.000000000000000E+50
 75
     0
  0
DIMASSOC
  5
9F25
102
{ACAD_REACTORS
330
9F24
102
}
330
9F24
100
AcDbDimAssoc
330
9F15
 90
        3
 70
     0
 71
     0
  1
AcDbOsnapPointRef
 72
    13
331
7C4E
331
7C20
 73
     0
 91
        0
 40
0.0
 10
0.0
 20
0.0
 30
2.000000000000000E+50
 75
     0
  1
AcDbOsnapPointRef
 72
    13
331
5148
331
517A
 73
     0
 91
        0
 40
0.0
 10
0.0
 20
0.0
 30
2.000000000000000E+50
 75
     0
  0
DIMASSOC
  5
A0DC
102
{ACAD_REACTORS
330
A0DB
102
}
330
A0DB
100
AcDbDimAssoc
330
A0CE
 90
        3
 70
     0
 71
     0
  1
AcDbOsnapPointRef
 72
    13
331
51C6
331
51B9
 73
     0
 91
        0
 40
0.0
 10
0.0
 20
0.0
 30
2.000000000000000E+50
 75
     0
  1
AcDbOsnapPointRef
 72
     1
331
51C6
331
51B4
 73
     0
 91
        0
 40
0.0
 10
0.0
 20
0.0
 30
2.000000000000000E+50
 75
     0
  0
LAYOUT
  5
22
102
{ACAD_REACTORS
330
1A
102
}
330
1A
100
AcDbPlotSettings
  1

  2
KONICA MINOLTA 501 PCL
  4
A4
  6

 40
5.027082920074462
 41
5.027085781097412
 42
5.027069091796875
 43
5.027069091796875
 44
209.9733276367186
 45
296.9259948730469
 46
30.63542949663653
 47
0.0
 48
0.0
 49
0.0
140
0.0
141
0.0
142
1.0
143
1.524475532675136
 70
 11956
 72
     1
 73
     1
 74
     1
  7
SEISA.ctb
 75
     0
147
0.6559632992240998
 76
     0
 77
     2
 78
   300
148
-250.1055934501189
149
-315.8978601555473
100
AcDbLayout
  1
Model
 70
     1
 71
     0
 10
0.0
 20
0.0
 11
12.0
 21
9.0
 12
0.0
 22
0.0
 32
0.0
 14
0.0
 24
0.0
 34
0.0
 15
0.0
 25
0.0
 35
0.0
146
0.0
 13
0.0
 23
0.0
 33
0.0
 16
1.0
 26
0.0
 36
0.0
 17
0.0
 27
1.0
 37
0.0
 76
     0
330
1F
331
27A
1001
ACAD_PSEXT
1000
KONICA MINOLTA 501 PCL
1000
KONICA MINOLTA 501/421/361PCL
1000
IP_192.168.20.231_(1)
1000

1070
     0
  0
LAYOUT
  5
1E
102
{ACAD_REACTORS
330
1A
102
}
330
1A
100
AcDbPlotSettings
  1

  2
none_device
  4
Letter_(8.50_x_11.00_Inches)
  6

 40
6.349999904632567
 41
6.349999904632567
 42
6.350006103515625
 43
6.350006103515625
 44
215.8999938964844
 45
279.3999938964844
 46
0.0
 47
0.0
 48
0.0
 49
0.0
140
0.0
141
0.0
142
1.0
143
1.0
 70
 15024
 72
     1
 73
     1
 74
     5
  7
SEISA.ctb
 75
    16
147
1.0
 76
     0
 77
     2
 78
   300
148
0.0
149
0.0
100
AcDbLayout
  1
レイアウト1
 70
     1
 71
     1
 10
0.0
 20
0.0
 11
420.0
 21
297.0
 12
0.0
 22
0.0
 32
0.0
 14
1.000000000000000E+20
 24
1.000000000000000E+20
 34
1.000000000000000E+20
 15
-1.000000000000000E+20
 25
-1.000000000000000E+20
 35
-1.000000000000000E+20
146
0.0
 13
0.0
 23
0.0
 33
0.0
 16
1.0
 26
0.0
 36
0.0
 17
0.0
 27
1.0
 37
0.0
 76
     0
330
1B
  0
LAYOUT
  5
26
102
{ACAD_REACTORS
330
1A
102
}
330
1A
100
AcDbPlotSettings
  1

  2
none_device
  4
Letter_(8.50_x_11.00_Inches)
  6

 40
6.349999904632567
 41
6.349999904632567
 42
6.350006103515625
 43
6.350006103515625
 44
215.8999938964844
 45
279.3999938964844
 46
0.0
 47
0.0
 48
0.0
 49
0.0
140
0.0
141
0.0
142
1.0
143
1.0
 70
 15024
 72
     1
 73
     1
 74
     5
  7
SEISA.ctb
 75
    16
147
1.0
 76
     0
 77
     2
 78
   300
148
0.0
149
0.0
100
AcDbLayout
  1
レイアウト2
 70
     1
 71
     2
 10
0.0
 20
0.0
 11
12.0
 21
9.0
 12
0.0
 22
0.0
 32
0.0
 14
0.0
 24
0.0
 34
0.0
 15
0.0
 25
0.0
 35
0.0
146
0.0
 13
0.0
 23
0.0
 33
0.0
 16
1.0
 26
0.0
 36
0.0
 17
0.0
 27
1.0
 37
0.0
 76
     0
330
23
  0
MATERIAL
  5
27D
102
{ACAD_REACTORS
330
C4
102
}
330
C4
100
AcDbMaterial
  1
ByBlock
 73
     1
 78
     1
172
     1
176
     1
270
     1
274
     1
 94
       63
  0
MATERIAL
  5
27C
102
{ACAD_REACTORS
330
C4
102
}
330
C4
100
AcDbMaterial
  1
ByLayer
 73
     1
 78
     1
172
     1
176
     1
270
     1
274
     1
 94
       63
  0
MATERIAL
  5
27E
102
{ACAD_REACTORS
330
C4
102
}
330
C4
100
AcDbMaterial
  1
Global
 73
     1
 78
     1
172
     1
176
     1
270
     1
274
     1
 94
       63
  0
MLEADERSTYLE
  5
2D6
102
{ACAD_REACTORS
330
2D5
102
}
330
2D5
100
AcDbMLeaderStyle
170
     2
171
     1
172
     0
 90
        2
 40
0.0
 41
0.0
173
     1
 91
-1056964608
340
14
 92
       -2
290
     1
 42
2.0
291
     1
 43
0.36
  3
Standard
 44
4.0
300

342
11
174
     1
178
     6
175
     1
176
     0
 93
-1056964608
 45
4.0
292
     0
297
     0
 46
4.0
 94
-1056964608
 47
1.0
 49
1.0
140
1.0
293
     1
141
0.0
294
     1
177
     0
142
1.0
295
     0
296
     0
143
0.125
1001
ACAD_MLEADERVER
1070
     2
  0
MLINESTYLE
  5
18
102
{ACAD_REACTORS
330
17
102
}
330
17
100
AcDbMlineStyle
  2
STANDARD
 70
     0
  3

 62
   256
 51
90.0
 52
90.0
 71
     2
 49
0.5
 62
   256
  6
BYLAYER
 49
-0.5
 62
   256
  6
BYLAYER
  0
PLOTSETTINGS
  5
1C7E
102
{ACAD_REACTORS
330
19
102
}
330
19
100
AcDbPlotSettings
  1
SEISA基本
  2
none_device
  4
Letter_(8.50_x_11.00_Inches)
  6

 40
6.349999904632567
 41
6.349999904632567
 42
6.350006103515625
 43
6.350006103515625
 44
215.8999938964844
 45
279.3999938964844
 46
7.302498226506357
 47
0.0
 48
0.0
 49
0.0
140
0.0
141
0.0
142
1.0
143
1.574803221122935
 70
 11956
 72
     1
 73
     1
 74
     2
  7
SEISA.ctb
 75
     0
147
0.6349999711627054
 76
     0
 77
     2
 78
   300
148
0.0
149
0.0
1001
ACAD_PSEXT
1000
なし
1000
なし
1000
適切ではありません
1000
新しいプロッタ環境設定名を選択しない限り、レイアウトは印刷されません。
1070
     0
  0
ACDBPLACEHOLDER
  5
F
102
{ACAD_REACTORS
330
E
102
}
330
E
  0
SCALE
  5
3BD4
102
{ACAD_REACTORS
330
2B3
102
}
330
2B3
100
AcDbScale
 70
     0
300
1:1.5
140
1.0
141
1.5
290
     0
  0
SCALE
  5
2B4
102
{ACAD_REACTORS
330
2B3
102
}
330
2B3
100
AcDbScale
 70
     0
300
1:1
140
1.0
141
1.0
290
     1
  0
SCALE
  5
2B5
102
{ACAD_REACTORS
330
2B3
102
}
330
2B3
100
AcDbScale
 70
     0
300
1:2
140
1.0
141
2.0
290
     0
  0
SCALE
  5
2B6
102
{ACAD_REACTORS
330
2B3
102
}
330
2B3
100
AcDbScale
 70
     0
300
1:4
140
1.0
141
4.0
290
     0
  0
SCALE
  5
2B7
102
{ACAD_REACTORS
330
2B3
102
}
330
2B3
100
AcDbScale
 70
     0
300
1:5
140
1.0
141
5.0
290
     0
  0
SCALE
  5
2B8
102
{ACAD_REACTORS
330
2B3
102
}
330
2B3
100
AcDbScale
 70
     0
300
1:8
140
1.0
141
8.0
290
     0
  0
SCALE
  5
2B9
102
{ACAD_REACTORS
330
2B3
102
}
330
2B3
100
AcDbScale
 70
     0
300
1:10
140
1.0
141
10.0
290
     0
  0
SCALE
  5
2BA
102
{ACAD_REACTORS
330
2B3
102
}
330
2B3
100
AcDbScale
 70
     0
300
1:16
140
1.0
141
16.0
290
     0
  0
SCALE
  5
2BB
102
{ACAD_REACTORS
330
2B3
102
}
330
2B3
100
AcDbScale
 70
     0
300
1:20
140
1.0
141
20.0
290
     0
  0
SCALE
  5
2BC
102
{ACAD_REACTORS
330
2B3
102
}
330
2B3
100
AcDbScale
 70
     0
300
1:30
140
1.0
141
30.0
290
     0
  0
SCALE
  5
2BD
102
{ACAD_REACTORS
330
2B3
102
}
330
2B3
100
AcDbScale
 70
     0
300
1:40
140
1.0
141
40.0
290
     0
  0
SCALE
  5
2BE
102
{ACAD_REACTORS
330
2B3
102
}
330
2B3
100
AcDbScale
 70
     0
300
1:50
140
1.0
141
50.0
290
     0
  0
SCALE
  5
2BF
102
{ACAD_REACTORS
330
2B3
102
}
330
2B3
100
AcDbScale
 70
     0
300
1:100
140
1.0
141
100.0
290
     0
  0
SCALE
  5
2C0
102
{ACAD_REACTORS
330
2B3
102
}
330
2B3
100
AcDbScale
 70
     0
300
2:1
140
2.0
141
1.0
290
     0
  0
SCALE
  5
2C1
102
{ACAD_REACTORS
330
2B3
102
}
330
2B3
100
AcDbScale
 70
     0
300
4:1
140
4.0
141
1.0
290
     0
  0
SCALE
  5
2C2
102
{ACAD_REACTORS
330
2B3
102
}
330
2B3
100
AcDbScale
 70
     0
300
8:1
140
8.0
141
1.0
290
     0
  0
SCALE
  5
2C3
102
{ACAD_REACTORS
330
2B3
102
}
330
2B3
100
AcDbScale
 70
     0
300
10:1
140
10.0
141
1.0
290
     0
  0
SCALE
  5
2C4
102
{ACAD_REACTORS
330
2B3
102
}
330
2B3
100
AcDbScale
 70
     0
300
100:1
140
100.0
141
1.0
290
     0
  0
SCALE
  5
2C5
102
{ACAD_REACTORS
330
2B3
102
}
330
2B3
100
AcDbScale
 70
     0
300
1/128" = 1'-0"
140
0.0078125
141
12.0
290
     0
  0
SCALE
  5
2C6
102
{ACAD_REACTORS
330
2B3
102
}
330
2B3
100
AcDbScale
 70
     0
300
1/64" = 1'-0"
140
0.015625
141
12.0
290
     0
  0
SCALE
  5
2C7
102
{ACAD_REACTORS
330
2B3
102
}
330
2B3
100
AcDbScale
 70
     0
300
1/32" = 1'-0"
140
0.03125
141
12.0
290
     0
  0
SCALE
  5
2C8
102
{ACAD_REACTORS
330
2B3
102
}
330
2B3
100
AcDbScale
 70
     0
300
1/16" = 1'-0"
140
0.0625
141
12.0
290
     0
  0
SCALE
  5
2C9
102
{ACAD_REACTORS
330
2B3
102
}
330
2B3
100
AcDbScale
 70
     0
300
3/32" = 1'-0"
140
0.09375
141
12.0
290
     0
  0
SCALE
  5
2CA
102
{ACAD_REACTORS
330
2B3
102
}
330
2B3
100
AcDbScale
 70
     0
300
1/8" = 1'-0"
140
0.125
141
12.0
290
     0
  0
SCALE
  5
2CB
102
{ACAD_REACTORS
330
2B3
102
}
330
2B3
100
AcDbScale
 70
     0
300
3/16" = 1'-0"
140
0.1875
141
12.0
290
     0
  0
SCALE
  5
2CC
102
{ACAD_REACTORS
330
2B3
102
}
330
2B3
100
AcDbScale
 70
     0
300
1/4" = 1'-0"
140
0.25
141
12.0
290
     0
  0
SCALE
  5
2CD
102
{ACAD_REACTORS
330
2B3
102
}
330
2B3
100
AcDbScale
 70
     0
300
3/8" = 1'-0"
140
0.375
141
12.0
290
     0
  0
SCALE
  5
2CE
102
{ACAD_REACTORS
330
2B3
102
}
330
2B3
100
AcDbScale
 70
     0
300
1/2" = 1'-0"
140
0.5
141
12.0
290
     0
  0
SCALE
  5
2CF
102
{ACAD_REACTORS
330
2B3
102
}
330
2B3
100
AcDbScale
 70
     0
300
3/4" = 1'-0"
140
0.75
141
12.0
290
     0
  0
SCALE
  5
2D0
102
{ACAD_REACTORS
330
2B3
102
}
330
2B3
100
AcDbScale
 70
     0
300
1" = 1'-0"
140
1.0
141
12.0
290
     0
  0
SCALE
  5
2D1
102
{ACAD_REACTORS
330
2B3
102
}
330
2B3
100
AcDbScale
 70
     0
300
1-1/2" = 1'-0"
140
1.5
141
12.0
290
     0
  0
SCALE
  5
2D2
102
{ACAD_REACTORS
330
2B3
102
}
330
2B3
100
AcDbScale
 70
     0
300
3" = 1'-0"
140
3.0
141
12.0
290
     0
  0
SCALE
  5
2D3
102
{ACAD_REACTORS
330
2B3
102
}
330
2B3
100
AcDbScale
 70
     0
300
6" = 1'-0"
140
6.0
141
12.0
290
     0
  0
SCALE
  5
2D4
102
{ACAD_REACTORS
330
2B3
102
}
330
2B3
100
AcDbScale
 70
     0
300
1'-0" = 1'-0"
140
12.0
141
12.0
290
     0
  0
TABLESTYLE
  5
122
102
{ACAD_XDICTIONARY
360
2F5
102
}
102
{ACAD_REACTORS
330
121
102
}
330
121
100
AcDbTableStyle
  3
Standard
 70
     0
 71
     0
 40
1.5
 41
1.5
280
     0
281
     0
  7
STANDARD
140
4.5
170
     2
 62
     0
 63
     7
283
     0
 90
      512
 91
        0
  1

274
    -2
284
     1
 64
     0
275
    -2
285
     1
 65
     0
276
    -2
286
     1
 66
     0
277
    -2
287
     1
 67
     0
278
    -2
288
     1
 68
     0
279
    -2
289
     1
 69
     0
  7
STANDARD
140
6.0
170
     5
 62
     0
 63
     7
283
     0
 90
      512
 91
        0
  1

274
    -2
284
     1
 64
     0
275
    -2
285
     1
 65
     0
276
    -2
286
     1
 66
     0
277
    -2
287
     1
 67
     0
278
    -2
288
     1
 68
     0
279
    -2
289
     1
 69
     0
  7
STANDARD
140
4.5
170
     5
 62
     0
 63
     7
283
     0
 90
      512
 91
        0
  1

274
    -2
284
     1
 64
     0
275
    -2
285
     1
 65
     0
276
    -2
286
     1
 66
     0
277
    -2
287
     1
 67
     0
278
    -2
288
     1
 68
     0
279
    -2
289
     1
 69
     0
  0
VISUALSTYLE
  5
285
102
{ACAD_REACTORS
330
27F
102
}
330
27F
100
AcDbVisualStyle
  2
2dWireframe
 70
     4
 71
     0
 72
     2
 73
     0
 90
        0
 40
-0.6
 41
-30.0
 62
     5
 63
     7
421
 16777215
 74
     1
 91
        4
 64
     7
 65
   257
 75
     1
175
     1
 42
1.0
 92
        0
 66
   257
 43
1.0
 76
     1
 77
     6
 78
     2
 67
     7
 79
     5
170
     0
171
     0
290
     0
174
     0
 93
        1
 44
0.0
173
     0
291
     0
 45
0.0
  0
VISUALSTYLE
  5
287
102
{ACAD_REACTORS
330
27F
102
}
330
27F
100
AcDbVisualStyle
  2
3D Hidden
 70
     6
 71
     1
 72
     2
 73
     2
 90
        0
 40
-0.6
 41
-30.0
 62
     5
 63
     7
421
 16777215
 74
     2
 91
        2
 64
     7
 65
   257
 75
     2
175
     1
 42
40.0
 92
        0
 66
   257
 43
1.0
 76
     1
 77
     6
 78
     2
 67
     7
 79
     3
170
     0
171
     0
290
     0
174
     0
 93
        1
 44
0.0
173
     0
291
     0
 45
0.0
  0
VISUALSTYLE
  5
286
102
{ACAD_REACTORS
330
27F
102
}
330
27F
100
AcDbVisualStyle
  2
3dWireframe
 70
     5
 71
     0
 72
     2
 73
     0
 90
        0
 40
-0.6
 41
-30.0
 62
     5
 63
     7
421
 16777215
 74
     1
 91
        4
 64
     7
 65
   257
 75
     1
175
     1
 42
1.0
 92
        0
 66
   257
 43
1.0
 76
     1
 77
     6
 78
     2
 67
     7
 79
     5
170
     0
171
     0
290
     0
174
     0
 93
        1
 44
0.0
173
     0
291
     0
 45
0.0
  0
VISUALSTYLE
  5
284
102
{ACAD_REACTORS
330
27F
102
}
330
27F
100
AcDbVisualStyle
  2
Basic
 70
     7
 71
     1
 72
     0
 73
     1
 90
        0
 40
-0.6
 41
-30.0
 62
     5
 63
     7
421
 16777215
 74
     0
 91
        4
 64
     7
 65
   257
 75
     1
175
     1
 42
1.0
 92
        8
 66
     7
 43
1.0
 76
     1
 77
     6
 78
     2
 67
     7
 79
     5
170
     0
171
     0
290
     0
174
     0
 93
        1
 44
0.0
173
     0
291
     1
 45
0.0
  0
VISUALSTYLE
  5
28B
102
{ACAD_REACTORS
330
27F
102
}
330
27F
100
AcDbVisualStyle
  2
Brighten
 70
    12
 71
     2
 72
     2
 73
     0
 90
        0
 40
-0.6
 41
-30.0
 62
     5
 63
     7
421
 16777215
 74
     1
 91
        4
 64
     7
 65
   257
 75
     1
175
     1
 42
1.0
 92
        8
 66
     7
 43
1.0
 76
     1
 77
     6
 78
     2
 67
     7
 79
     5
170
     0
171
     0
290
     0
174
     0
 93
        1
 44
50.0
173
     0
291
     1
 45
0.0
  0
VISUALSTYLE
  5
28F
102
{ACAD_REACTORS
330
27F
102
}
330
27F
100
AcDbVisualStyle
  2
ColorChange
 70
    16
 71
     2
 72
     2
 73
     3
 90
        0
 40
-0.6
 41
-30.0
 62
     5
 63
     8
421
  8421504
 74
     1
 91
        4
 64
     7
 65
   257
 75
     1
175
     1
 42
1.0
 92
        8
 66
     8
424
  8421504
 43
1.0
 76
     1
 77
     6
 78
     2
 67
     7
 79
     5
170
     0
171
     0
290
     0
174
     0
 93
        1
 44
0.0
173
     0
291
     1
 45
0.0
  0
VISUALSTYLE
  5
288
102
{ACAD_REACTORS
330
27F
102
}
330
27F
100
AcDbVisualStyle
  2
Conceptual
 70
     9
 71
     3
 72
     2
 73
     0
 90
        0
 40
-0.6
 41
-30.0
 62
     5
 63
     7
421
 16777215
 74
     2
 91
        2
 64
     7
 65
   257
 75
     1
175
     1
 42
40.0
 92
        8
 66
     7
 43
1.0
 76
     1
 77
     6
 78
     2
 67
     7
 79
     3
170
     0
171
     0
290
     0
174
     0
 93
        1
 44
0.0
173
     0
291
     0
 45
0.0
  0
VISUALSTYLE
  5
28A
102
{ACAD_REACTORS
330
27F
102
}
330
27F
100
AcDbVisualStyle
  2
Dim
 70
    11
 71
     2
 72
     2
 73
     0
 90
        0
 40
-0.6
 41
-30.0
 62
     5
 63
     7
421
 16777215
 74
     1
 91
        4
 64
     7
 65
   257
 75
     1
175
     1
 42
1.0
 92
        8
 66
     7
 43
1.0
 76
     1
 77
     6
 78
     2
 67
     7
 79
     5
170
     0
171
     0
290
     0
174
     0
 93
        1
 44
-50.0
173
     0
291
     1
 45
0.0
  0
VISUALSTYLE
  5
28E
102
{ACAD_REACTORS
330
27F
102
}
330
27F
100
AcDbVisualStyle
  2
Facepattern
 70
    15
 71
     2
 72
     2
 73
     0
 90
        0
 40
-0.6
 41
-30.0
 62
     5
 63
     7
421
 16777215
 74
     1
 91
        4
 64
     7
 65
   257
 75
     1
175
     1
 42
1.0
 92
        8
 66
     7
 43
1.0
 76
     1
 77
     6
 78
     2
 67
     7
 79
     5
170
     0
171
     0
290
     0
174
     0
 93
        1
 44
0.0
173
     0
291
     1
 45
0.0
  0
VISUALSTYLE
  5
280
102
{ACAD_REACTORS
330
27F
102
}
330
27F
100
AcDbVisualStyle
  2
Flat
 70
     0
 71
     2
 72
     1
 73
     1
 90
        2
 40
-0.6
 41
30.0
 62
     5
 63
     7
421
 16777215
 74
     0
 91
        4
 64
     7
 65
   257
 75
     1
175
     1
 42
1.0
 92
        8
 66
     7
 43
1.0
 76
     1
 77
     6
 78
     2
 67
     7
 79
     5
170
     0
171
     0
290
     0
174
     0
 93
       13
 44
0.0
173
     0
291
     1
 45
0.0
  0
VISUALSTYLE
  5
281
102
{ACAD_REACTORS
330
27F
102
}
330
27F
100
AcDbVisualStyle
  2
FlatWithEdges
 70
     1
 71
     2
 72
     1
 73
     1
 90
        2
 40
-0.6
 41
30.0
 62
     5
 63
     7
421
 16777215
 74
     1
 91
        4
 64
     7
 65
   257
 75
     1
175
     1
 42
1.0
 92
        0
 66
   257
 43
1.0
 76
     1
 77
     6
 78
     2
 67
     7
 79
     5
170
     0
171
     0
290
     0
174
     0
 93
       13
 44
0.0
173
     0
291
     1
 45
0.0
  0
VISUALSTYLE
  5
282
102
{ACAD_REACTORS
330
27F
102
}
330
27F
100
AcDbVisualStyle
  2
Gouraud
 70
     2
 71
     2
 72
     2
 73
     1
 90
        2
 40
-0.6
 41
30.0
 62
     5
 63
     7
421
 16777215
 74
     0
 91
        4
 64
     7
 65
   257
 75
     1
175
     1
 42
1.0
 92
        0
 66
     7
 43
1.0
 76
     1
 77
     6
 78
     2
 67
     7
 79
     5
170
     0
171
     0
290
     0
174
     0
 93
       13
 44
0.0
173
     0
291
     1
 45
0.0
  0
VISUALSTYLE
  5
283
102
{ACAD_REACTORS
330
27F
102
}
330
27F
100
AcDbVisualStyle
  2
GouraudWithEdges
 70
     3
 71
     2
 72
     2
 73
     1
 90
        2
 40
-0.6
 41
30.0
 62
     5
 63
     7
421
 16777215
 74
     1
 91
        4
 64
     7
 65
   257
 75
     1
175
     1
 42
1.0
 92
        0
 66
   257
 43
1.0
 76
     1
 77
     6
 78
     2
 67
     7
 79
     5
170
     0
171
     0
290
     0
174
     0
 93
       13
 44
0.0
173
     0
291
     1
 45
0.0
  0
VISUALSTYLE
  5
28D
102
{ACAD_REACTORS
330
27F
102
}
330
27F
100
AcDbVisualStyle
  2
Linepattern
 70
    14
 71
     2
 72
     2
 73
     0
 90
        0
 40
-0.6
 41
-30.0
 62
     5
 63
     7
421
 16777215
 74
     1
 91
        4
 64
     7
 65
   257
 75
     7
175
     7
 42
1.0
 92
        8
 66
     7
 43
1.0
 76
     1
 77
     6
 78
     2
 67
     7
 79
     5
170
     0
171
     0
290
     0
174
     0
 93
        1
 44
0.0
173
     0
291
     1
 45
0.0
  0
VISUALSTYLE
  5
289
102
{ACAD_REACTORS
330
27F
102
}
330
27F
100
AcDbVisualStyle
  2
Realistic
 70
     8
 71
     2
 72
     2
 73
     0
 90
        0
 40
-0.6
 41
-30.0
 62
     5
 63
     7
421
 16777215
 74
     1
 91
        0
 64
     7
 65
   257
 75
     1
175
     1
 42
1.0
 92
        8
 66
     8
424
  7895160
 43
1.0
 76
     1
 77
     6
 78
     2
 67
     7
 79
     5
170
     0
171
     0
290
     0
174
     0
 93
       13
 44
0.0
173
     0
291
     0
 45
0.0
  0
VISUALSTYLE
  5
28C
102
{ACAD_REACTORS
330
27F
102
}
330
27F
100
AcDbVisualStyle
  2
Thicken
 70
    13
 71
     2
 72
     2
 73
     0
 90
        0
 40
-0.6
 41
-30.0
 62
     5
 63
     7
421
 16777215
 74
     1
 91
        4
 64
     7
 65
   257
 75
     1
175
     1
 42
1.0
 92
       12
 66
     7
 43
1.0
 76
     1
 77
     6
 78
     2
 67
     7
 79
     5
170
     0
171
     0
290
     0
174
     0
 93
        1
 44
0.0
173
     0
291
     1
 45
0.0
  0
DICTIONARYVAR
  5
2FA
102
{ACAD_REACTORS
330
34
102
}
330
34
100
DictionaryVariables
280
     0
  1
1:2
  0
DICTIONARYVAR
  5
2F8
102
{ACAD_REACTORS
330
34
102
}
330
34
100
DictionaryVariables
280
     0
  1
STANDARD
  0
DICTIONARYVAR
  5
140
102
{ACAD_REACTORS
330
34
102
}
330
34
100
DictionaryVariables
280
     0
  1
STANDARD
  0
DICTIONARYVAR
  5
AC
102
{ACAD_REACTORS
330
34
102
}
330
34
100
DictionaryVariables
280
     0
  1
1
  0
DICTIONARYVAR
  5
35
102
{ACAD_REACTORS
330
34
102
}
330
34
100
DictionaryVariables
280
     0
  1
1
  0
DICTIONARYVAR
  5
6CB6
102
{ACAD_REACTORS
330
34
102
}
330
34
100
DictionaryVariables
280
     0
  1
1
  0
DICTIONARYVAR
  5
6CB7
102
{ACAD_REACTORS
330
34
102
}
330
34
100
DictionaryVariables
280
     0
  1
15
  0
DICTIONARYVAR
  5
2FB
102
{ACAD_REACTORS
330
34
102
}
330
34
100
DictionaryVariables
280
     0
  1
0
  0
DICTIONARYVAR
  5
2F9
102
{ACAD_REACTORS
330
34
102
}
330
34
100
DictionaryVariables
280
     0
  1
0
  0
DICTIONARY
  5
161B
102
{ACAD_REACTORS
330
49
102
}
330
49
100
AcDbDictionary
281
     1
  0
DICTIONARY
  5
4A
102
{ACAD_REACTORS
330
49
102
}
330
49
100
AcDbDictionary
281
     1
  0
XRECORD
  5
12B
102
{ACAD_REACTORS
330
49
102
}
330
49
100
AcDbXrecord
280
     1
 90
-1023410169
  0
DICTIONARY
  5
2F5
330
122
100
AcDbDictionary
280
     1
281
     1
  3
ACAD_ROUNDTRIP_2008_TABLESTYLE_CELLSTYLEMAP
360
A41C
  0
CELLSTYLEMAP
  5
A41C
102
{ACAD_REACTORS
330
2F5
102
}
330
2F5
100
AcDbCellStyleMap
 90
        3
300
CELLSTYLE
  1
TABLEFORMAT_BEGIN
 90
        5
170
     1
 91
        0
 92
    32768
 62
   257
 93
        1
300
CONTENTFORMAT
  1
CONTENTFORMAT_BEGIN
 90
        0
 91
        0
 92
      512
 93
        0
300

 40
0.0
140
1.0
 94
        5
 62
     0
340
11
144
6.0
309
CONTENTFORMAT_END
171
     1
301
MARGIN
  1
CELLMARGIN_BEGIN
 40
1.5
 40
1.5
 40
1.5
 40
1.5
 40
0.18
 40
0.18
309
CELLMARGIN_END
 94
        6
 95
        1
302
GRIDFORMAT
  1
GRIDFORMAT_BEGIN
 90
        0
 91
        1
 62
     0
 92
       -2
340
0
 93
        0
 40
0.045
309
GRIDFORMAT_END
 95
        2
302
GRIDFORMAT
  1
GRIDFORMAT_BEGIN
 90
        0
 91
        1
 62
     0
 92
       -2
340
0
 93
        0
 40
0.045
309
GRIDFORMAT_END
 95
        4
302
GRIDFORMAT
  1
GRIDFORMAT_BEGIN
 90
        0
 91
        1
 62
     0
 92
       -2
340
0
 93
        0
 40
0.045
309
GRIDFORMAT_END
 95
        8
302
GRIDFORMAT
  1
GRIDFORMAT_BEGIN
 90
        0
 91
        1
 62
     0
 92
       -2
340
0
 93
        0
 40
0.045
309
GRIDFORMAT_END
 95
       16
302
GRIDFORMAT
  1
GRIDFORMAT_BEGIN
 90
        0
 91
        1
 62
     0
 92
       -2
340
0
 93
        0
 40
0.045
309
GRIDFORMAT_END
 95
       32
302
GRIDFORMAT
  1
GRIDFORMAT_BEGIN
 90
        0
 91
        1
 62
     0
 92
       -2
340
0
 93
        0
 40
0.045
309
GRIDFORMAT_END
309
TABLEFORMAT_END
  1
CELLSTYLE_BEGIN
 90
        1
 91
        1
300
_TITLE
309
CELLSTYLE_END
300
CELLSTYLE
  1
TABLEFORMAT_BEGIN
 90
        5
170
     1
 91
        0
 92
        0
 62
   257
 93
        1
300
CONTENTFORMAT
  1
CONTENTFORMAT_BEGIN
 90
        0
 91
        0
 92
      512
 93
        0
300

 40
0.0
140
1.0
 94
        5
 62
     0
340
11
144
4.5
309
CONTENTFORMAT_END
171
     1
301
MARGIN
  1
CELLMARGIN_BEGIN
 40
1.5
 40
1.5
 40
1.5
 40
1.5
 40
0.18
 40
0.18
309
CELLMARGIN_END
 94
        6
 95
        1
302
GRIDFORMAT
  1
GRIDFORMAT_BEGIN
 90
        0
 91
        1
 62
     0
 92
       -2
340
0
 93
        0
 40
0.045
309
GRIDFORMAT_END
 95
        2
302
GRIDFORMAT
  1
GRIDFORMAT_BEGIN
 90
        0
 91
        1
 62
     0
 92
       -2
340
0
 93
        0
 40
0.045
309
GRIDFORMAT_END
 95
        4
302
GRIDFORMAT
  1
GRIDFORMAT_BEGIN
 90
        0
 91
        1
 62
     0
 92
       -2
340
0
 93
        0
 40
0.045
309
GRIDFORMAT_END
 95
        8
302
GRIDFORMAT
  1
GRIDFORMAT_BEGIN
 90
        0
 91
        1
 62
     0
 92
       -2
340
0
 93
        0
 40
0.045
309
GRIDFORMAT_END
 95
       16
302
GRIDFORMAT
  1
GRIDFORMAT_BEGIN
 90
        0
 91
        1
 62
     0
 92
       -2
340
0
 93
        0
 40
0.045
309
GRIDFORMAT_END
 95
       32
302
GRIDFORMAT
  1
GRIDFORMAT_BEGIN
 90
        0
 91
        1
 62
     0
 92
       -2
340
0
 93
        0
 40
0.045
309
GRIDFORMAT_END
309
TABLEFORMAT_END
  1
CELLSTYLE_BEGIN
 90
        2
 91
        1
300
_HEADER
309
CELLSTYLE_END
300
CELLSTYLE
  1
TABLEFORMAT_BEGIN
 90
        5
170
     1
 91
        0
 92
        0
 62
   257
 93
        1
300
CONTENTFORMAT
  1
CONTENTFORMAT_BEGIN
 90
        0
 91
        0
 92
      512
 93
        0
300

 40
0.0
140
1.0
 94
        2
 62
     0
340
11
144
4.5
309
CONTENTFORMAT_END
171
     1
301
MARGIN
  1
CELLMARGIN_BEGIN
 40
1.5
 40
1.5
 40
1.5
 40
1.5
 40
0.18
 40
0.18
309
CELLMARGIN_END
 94
        6
 95
        1
302
GRIDFORMAT
  1
GRIDFORMAT_BEGIN
 90
        0
 91
        1
 62
     0
 92
       -2
340
0
 93
        0
 40
0.045
309
GRIDFORMAT_END
 95
        2
302
GRIDFORMAT
  1
GRIDFORMAT_BEGIN
 90
        0
 91
        1
 62
     0
 92
       -2
340
0
 93
        0
 40
0.045
309
GRIDFORMAT_END
 95
        4
302
GRIDFORMAT
  1
GRIDFORMAT_BEGIN
 90
        0
 91
        1
 62
     0
 92
       -2
340
0
 93
        0
 40
0.045
309
GRIDFORMAT_END
 95
        8
302
GRIDFORMAT
  1
GRIDFORMAT_BEGIN
 90
        0
 91
        1
 62
     0
 92
       -2
340
0
 93
        0
 40
0.045
309
GRIDFORMAT_END
 95
       16
302
GRIDFORMAT
  1
GRIDFORMAT_BEGIN
 90
        0
 91
        1
 62
     0
 92
       -2
340
0
 93
        0
 40
0.045
309
GRIDFORMAT_END
 95
       32
302
GRIDFORMAT
  1
GRIDFORMAT_BEGIN
 90
        0
 91
        1
 62
     0
 92
       -2
340
0
 93
        0
 40
0.045
309
GRIDFORMAT_END
309
TABLEFORMAT_END
  1
CELLSTYLE_BEGIN
 90
        3
 91
        2
300
_DATA
309
CELLSTYLE_END
  0
ENDSEC
  0
EOF
