  0
SECTION
  2
HEADER
  9
$ACADVER
  1
AC1021
  9
$ACADMAINTVER
 70
    26
  9
$DWGCODEPAGE
  3
ANSI_932
  9
$LASTSAVEDBY
  1
Htm_Terada
  9
$CUSTOMPROPERTYTAG
  1
AmdtFileType
  9
$CUSTOMPROPERTY
  1
84
  9
$INSBASE
 10
0.0
 20
0.0
 30
0.0
  9
$EXTMIN
 10
130.381624220221
 20
245.148721664322
 30
-0.0015258207003583
  9
$EXTMAX
 10
522.4493424490908
 20
408.1597381811645
 30
0.0000000349246037
  9
$LIMMIN
 10
0.0000002871507832
 20
0.0000005540730967
  9
$LIMMAX
 10
630.0000002871508
 20
445.5000005540731
  9
$ORTHOMODE
 70
     0
  9
$REGENMODE
 70
     1
  9
$FILLMODE
 70
     1
  9
$QTEXTMODE
 70
     0
  9
$MIRRTEXT
 70
     1
  9
$LTSCALE
 40
1.5
  9
$ATTMODE
 70
     1
  9
$TEXTSIZE
 40
25.0
  9
$TRACEWID
 40
1.0
  9
$TEXTSTYLE
  7
SEISA
  9
$CLAYER
  8
AM_0 外形線1
  9
$CELTYPE
  6
ByLayer
  9
$CECOLOR
 62
   256
  9
$CELTSCALE
 40
1.0
  9
$DISPSILH
 70
     0
  9
$DIMSCALE
 40
1.5
  9
$DIMASZ
 40
2.5
  9
$DIMEXO
 40
0.625
  9
$DIMDLI
 40
10.0
  9
$DIMRND
 40
0.0
  9
$DIMDLE
 40
0.0
  9
$DIMEXE
 40
0.625
  9
$DIMTP
 40
0.1
  9
$DIMTM
 40
0.1
  9
$DIMTXT
 40
3.5
  9
$DIMCEN
 40
0.0
  9
$DIMTSZ
 40
0.0
  9
$DIMTOL
 70
     0
  9
$DIMLIM
 70
     0
  9
$DIMTIH
 70
     0
  9
$DIMTOH
 70
     0
  9
$DIMSE1
 70
     0
  9
$DIMSE2
 70
     0
  9
$DIMTAD
 70
     3
  9
$DIMZIN
 70
     8
  9
$DIMBLK
  1
Open30
  9
$DIMASO
 70
     1
  9
$DIMSHO
 70
     1
  9
$DIMPOST
  1

  9
$DIMAPOST
  1
"
  9
$DIMALT
 70
     0
  9
$DIMALTD
 70
     2
  9
$DIMALTF
 40
0.0393701
  9
$DIMLFAC
 40
1.0
  9
$DIMTOFL
 70
     1
  9
$DIMTVP
 40
0.0
  9
$DIMTIX
 70
     0
  9
$DIMSOXD
 70
     0
  9
$DIMSAH
 70
     0
  9
$DIMBLK1
  1

  9
$DIMBLK2
  1

  9
$DIMSTYLE
  2
SEISA
  9
$DIMCLRD
 70
     3
  9
$DIMCLRE
 70
     3
  9
$DIMCLRT
 70
     3
  9
$DIMTFAC
 40
0.71
  9
$DIMGAP
 40
1.5
  9
$DIMJUST
 70
     0
  9
$DIMSD1
 70
     0
  9
$DIMSD2
 70
     0
  9
$DIMTOLJ
 70
     0
  9
$DIMTZIN
 70
     0
  9
$DIMALTZ
 70
     0
  9
$DIMALTTZ
 70
     8
  9
$DIMUPT
 70
     0
  9
$DIMDEC
 70
     2
  9
$DIMTDEC
 70
     2
  9
$DIMALTU
 70
     2
  9
$DIMALTTD
 70
     2
  9
$DIMTXSTY
  7
SEISA
  9
$DIMAUNIT
 70
     0
  9
$DIMADEC
 70
     0
  9
$DIMALTRND
 40
0.0
  9
$DIMAZIN
 70
     2
  9
$DIMDSEP
 70
    46
  9
$DIMATFIT
 70
     3
  9
$DIMFRAC
 70
     0
  9
$DIMLDRBLK
  1
Open30
  9
$DIMLUNIT
 70
     2
  9
$DIMLWD
 70
    -1
  9
$DIMLWE
 70
    -1
  9
$DIMTMOVE
 70
     0
  9
$DIMFXL
 40
1.0
  9
$DIMFXLON
 70
     0
  9
$DIMJOGANG
 40
0.7853981633974483
  9
$DIMTFILL
 70
     0
  9
$DIMTFILLCLR
 70
     0
  9
$DIMARCSYM
 70
     1
  9
$DIMLTYPE
  6

  9
$DIMLTEX1
  6

  9
$DIMLTEX2
  6

  9
$LUNITS
 70
     2
  9
$LUPREC
 70
     2
  9
$SKETCHINC
 40
1.0
  9
$FILLETRAD
 40
0.4
  9
$AUNITS
 70
     0
  9
$AUPREC
 70
     0
  9
$MENU
  1
.
  9
$ELEVATION
 40
0.0
  9
$PELEVATION
 40
0.0
  9
$THICKNESS
 40
0.0
  9
$LIMCHECK
 70
     0
  9
$CHAMFERA
 40
1.5
  9
$CHAMFERB
 40
1.499999999999971
  9
$CHAMFERC
 40
1.5
  9
$CHAMFERD
 40
0.7853981633974483
  9
$SKPOLY
 70
     0
  9
$TDCREATE
 40
2454960.621340081
  9
$TDUCREATE
 40
2454960.246340081
  9
$TDUPDATE
 40
2456479.588728299
  9
$TDUUPDATE
 40
2456479.213728298
  9
$TDINDWG
 40
0.2793031134
  9
$TDUSRTIMER
 40
0.2793014815
  9
$USRTIMER
 70
     1
  9
$ANGBASE
 50
0.0
  9
$ANGDIR
 70
     0
  9
$PDMODE
 70
     0
  9
$PDSIZE
 40
0.0
  9
$PLINEWID
 40
0.0
  9
$SPLFRAME
 70
     0
  9
$SPLINETYPE
 70
     6
  9
$SPLINESEGS
 70
     8
  9
$HANDSEED
  5
8459
  9
$SURFTAB1
 70
     6
  9
$SURFTAB2
 70
     6
  9
$SURFTYPE
 70
     6
  9
$SURFU
 70
     6
  9
$SURFV
 70
     6
  9
$UCSBASE
  2

  9
$UCSNAME
  2

  9
$UCSORG
 10
0.0
 20
0.0
 30
0.0
  9
$UCSXDIR
 10
1.0
 20
0.0
 30
0.0
  9
$UCSYDIR
 10
0.0
 20
1.0
 30
0.0
  9
$UCSORTHOREF
  2

  9
$UCSORTHOVIEW
 70
     0
  9
$UCSORGTOP
 10
0.0
 20
0.0
 30
0.0
  9
$UCSORGBOTTOM
 10
0.0
 20
0.0
 30
0.0
  9
$UCSORGLEFT
 10
0.0
 20
0.0
 30
0.0
  9
$UCSORGRIGHT
 10
0.0
 20
0.0
 30
0.0
  9
$UCSORGFRONT
 10
0.0
 20
0.0
 30
0.0
  9
$UCSORGBACK
 10
0.0
 20
0.0
 30
0.0
  9
$PUCSBASE
  2

  9
$PUCSNAME
  2

  9
$PUCSORG
 10
0.0
 20
0.0
 30
0.0
  9
$PUCSXDIR
 10
1.0
 20
0.0
 30
0.0
  9
$PUCSYDIR
 10
0.0
 20
1.0
 30
0.0
  9
$PUCSORTHOREF
  2

  9
$PUCSORTHOVIEW
 70
     0
  9
$PUCSORGTOP
 10
0.0
 20
0.0
 30
0.0
  9
$PUCSORGBOTTOM
 10
0.0
 20
0.0
 30
0.0
  9
$PUCSORGLEFT
 10
0.0
 20
0.0
 30
0.0
  9
$PUCSORGRIGHT
 10
0.0
 20
0.0
 30
0.0
  9
$PUCSORGFRONT
 10
0.0
 20
0.0
 30
0.0
  9
$PUCSORGBACK
 10
0.0
 20
0.0
 30
0.0
  9
$USERI1
 70
     0
  9
$USERI2
 70
     0
  9
$USERI3
 70
     0
  9
$USERI4
 70
     0
  9
$USERI5
 70
     0
  9
$USERR1
 40
0.0
  9
$USERR2
 40
0.0
  9
$USERR3
 40
0.0
  9
$USERR4
 40
0.0
  9
$USERR5
 40
0.0
  9
$WORLDVIEW
 70
     1
  9
$SHADEDGE
 70
     3
  9
$SHADEDIF
 70
    70
  9
$TILEMODE
 70
     1
  9
$MAXACTVP
 70
    64
  9
$PINSBASE
 10
0.0
 20
0.0
 30
0.0
  9
$PLIMCHECK
 70
     0
  9
$PEXTMIN
 10
1.000000000000000E+20
 20
1.000000000000000E+20
 30
1.000000000000000E+20
  9
$PEXTMAX
 10
-1.000000000000000E+20
 20
-1.000000000000000E+20
 30
-1.000000000000000E+20
  9
$PLIMMIN
 10
0.0
 20
0.0
  9
$PLIMMAX
 10
420.0
 20
297.0
  9
$UNITMODE
 70
     0
  9
$VISRETAIN
 70
     1
  9
$PLINEGEN
 70
     0
  9
$PSLTSCALE
 70
     1
  9
$TREEDEPTH
 70
  3020
  9
$CMLSTYLE
  2
Standard
  9
$CMLJUST
 70
     0
  9
$CMLSCALE
 40
20.0
  9
$PROXYGRAPHICS
 70
     1
  9
$MEASUREMENT
 70
     1
  9
$CELWEIGHT
370
    -1
  9
$ENDCAPS
280
     0
  9
$JOINSTYLE
280
     0
  9
$LWDISPLAY
290
     0
  9
$INSUNITS
 70
     4
  9
$HYPERLINKBASE
  1

  9
$STYLESHEET
  1
SEISA.ctb
  9
$XEDIT
290
     1
  9
$CEPSNTYPE
380
     0
  9
$PSTYLEMODE
290
     1
  9
$FINGERPRINTGUID
  2
{8452B7BF-EA86-4DA5-BF3D-EAB2DA249A0A}
  9
$VERSIONGUID
  2
{829044C3-F376-4A9E-9690-7AC9CFF7E49F}
  9
$EXTNAMES
290
     1
  9
$PSVPSCALE
 40
0.0
  9
$OLESTARTUP
290
     0
  9
$SORTENTS
280
   127
  9
$INDEXCTL
280
     0
  9
$HIDETEXT
280
     0
  9
$XCLIPFRAME
290
     0
  9
$HALOGAP
280
     0
  9
$OBSCOLOR
 70
   257
  9
$OBSLTYPE
280
     0
  9
$INTERSECTIONDISPLAY
280
     0
  9
$INTERSECTIONCOLOR
 70
   257
  9
$DIMASSOC
280
     2
  9
$PROJECTNAME
  1

  9
$CAMERADISPLAY
290
     0
  9
$LENSLENGTH
 40
50.0
  9
$CAMERAHEIGHT
 40
0.0
  9
$STEPSPERSEC
 40
2.0
  9
$STEPSIZE
 40
6.0
  9
$3DDWFPREC
 40
2.0
  9
$PSOLWIDTH
 40
0.25
  9
$PSOLHEIGHT
 40
4.0
  9
$LOFTANG1
 40
1.570796326794896
  9
$LOFTANG2
 40
1.570796326794896
  9
$LOFTMAG1
 40
0.0
  9
$LOFTMAG2
 40
0.0
  9
$LOFTPARAM
 70
     7
  9
$LOFTNORMALS
280
     1
  9
$LATITUDE
 40
37.795
  9
$LONGITUDE
 40
-122.394
  9
$NORTHDIRECTION
 40
0.0
  9
$TIMEZONE
 70
 -8000
  9
$LIGHTGLYPHDISPLAY
280
     1
  9
$TILEMODELIGHTSYNCH
280
     1
  9
$CMATERIAL
347
27C
  9
$SOLIDHIST
280
     1
  9
$SHOWHIST
280
     1
  9
$DWFFRAME
280
     2
  9
$DGNFRAME
280
     0
  9
$REALWORLDSCALE
290
     1
  9
$INTERFERECOLOR
 62
     1
  9
$INTERFEREOBJVS
345
289
  9
$INTERFEREVPVS
346
286
  9
$CSHADOW
280
     0
  9
$SHADOWPLANELOCATION
 40
0.0
  0
ENDSEC
  0
SECTION
  2
CLASSES
  0
CLASS
  1
ACDBDICTIONARYWDFLT
  2
AcDbDictionaryWithDefault
  3
ObjectDBX Classes
 90
        0
 91
        1
280
     0
281
     0
  0
CLASS
  1
AMGSETTINGSOBJ
  2
AmgSettingsObj
  3
"AcadM|Product Description: AutoCAD Mechanical|Company: Autodesk, Inc."
 90
     1024
 91
        2
280
     0
281
     0
  0
CLASS
  1
ACME_DOCUMENT
  2
AcMeDbDoc
  3
AcMeServices
 90
     1024
 91
        1
280
     0
281
     0
  0
CLASS
  1
ACMESCOPE
  2
AcMeScope
  3
AcMeServices
 90
     1024
 91
        1
280
     0
281
     0
  0
CLASS
  1
ACMECOMMANDHISTORY
  2
AcMeCommandHistory
  3
AcMeServices
 90
     1024
 91
        1
280
     0
281
     0
  0
CLASS
  1
DICTIONARYVAR
  2
AcDbDictionaryVar
  3
ObjectDBX Classes
 90
        0
 91
        9
280
     0
281
     0
  0
CLASS
  1
ACIMSYSVARMAN
  2
AcImSysVarManager
  3
AcMeServices
 90
     1024
 91
        5
280
     0
281
     0
  0
CLASS
  1
ACIMREALSYSVAR
  2
AcImRealSysVar
  3
AcMeServices
 90
     1024
 91
        1
280
     0
281
     0
  0
CLASS
  1
ACIMINTSYSVAR
  2
AcImIntSysVar
  3
AcMeServices
 90
     1024
 91
       27
280
     0
281
     0
  0
CLASS
  1
ACMEDRAWINGMAN
  2
AcMeDrawingMan
  3
AcMeServices
 90
     1024
 91
        1
280
     0
281
     0
  0
CLASS
  1
ACMEVIEW
  2
AcMeView
  3
AcMeServices
 90
     1024
 91
        1
280
     0
281
     0
  0
CLASS
  1
ACDBENTITYCACHE
  2
AcMeEntityCache
  3
AcMeServices
 90
     1024
 91
        1
280
     0
281
     0
  0
CLASS
  1
GSMANAGER
  2
AcMeGSManager
  3
AcMeServices
 90
     1024
 91
        1
280
     0
281
     0
  0
CLASS
  1
AMDTINTERNALREACTOR
  2
AmdtInternalReactor
  3
AcMeServices
 90
     1024
 91
        2
280
     0
281
     0
  0
CLASS
  1
ACMESTATEMGR
  2
AcMeStateMgr
  3
AcMeServices
 90
     1024
 91
        1
280
     0
281
     0
  0
CLASS
  1
ACGREFMASTER
  2
AcGrefMaster
  3
AcAttribServices
 90
     1024
 91
        1
280
     0
281
     0
  0
CLASS
  1
ACME_DATABASE
  2
AcMeDbDatabase
  3
AcMeServices
 90
     1024
 91
        1
280
     0
281
     0
  0
CLASS
  1
ACRFINSADJUSTERMGR
  2
AcRfInsAdjusterMgr
  3
AcMeServices
 90
     1024
 91
        1
280
     0
281
     0
  0
CLASS
  1
ACGREFACADMASTER
  2
AcGrefacadMaster
  3
AcGrefServices
 90
     1024
 91
        1
280
     0
281
     0
  0
CLASS
  1
AMIMASTER
  2
AmiMaster
  3
AmiServices
 90
     1024
 91
        1
280
     0
281
     0
  0
CLASS
  1
ACIMSTRSYSVAR
  2
AcImStrSysVar
  3
AcMeServices
 90
     1024
 91
        5
280
     0
281
     0
  0
CLASS
  1
ACMSTANDARDJIS
  2
AcmStandardJIS
  3
"Amdt_StdImp|Product Description: AutoCAD Mechanical|Company: Autodesk, Inc."
 90
     1024
 91
        0
280
     0
281
     0
  0
CLASS
  1
AMGOBJPROPCFG
  2
AmgObjPropCfg
  3
"AmgLay|Product Description: AutoCAD Mechanical|Company: Autodesk, Inc."
 90
     1025
 91
        1
280
     0
281
     0
  0
CLASS
  1
ACMSURFSTANDARDJIS
  2
AcmSurfTextStdJIS
  3
"Amdt_StdImp|Product Description: AutoCAD Mechanical|Company: Autodesk, Inc."
 90
     1024
 91
        0
280
     0
281
     0
  0
CLASS
  1
ACMFCFSTANDARDJIS
  2
AcmFCFStdJIS
  3
"Amdt_StdImp|Product Description: AutoCAD Mechanical|Company: Autodesk, Inc."
 90
     1024
 91
        0
280
     0
281
     0
  0
CLASS
  1
ACMWELDSTANDARDJIS
  2
AcmWeldingStdJIS
  3
"Amdt_StdImp|Product Description: AutoCAD Mechanical|Company: Autodesk, Inc."
 90
     1024
 91
        0
280
     0
281
     0
  0
CLASS
  1
ACMIDSTANDARDJIS
  2
AcmIdStdJIS
  3
"Amdt_StdImp|Product Description: AutoCAD Mechanical|Company: Autodesk, Inc."
 90
     1024
 91
        0
280
     0
281
     0
  0
CLASS
  1
ACMDATUMSTANDARDJIS
  2
AcmDatumStdJIS
  3
"Amdt_StdImp|Product Description: AutoCAD Mechanical|Company: Autodesk, Inc."
 90
     1024
 91
        0
280
     0
281
     0
  0
CLASS
  1
ACMBOMSTANDARDJIS
  2
AcmBOMStdJIS
  3
"Amdt_StdImp|Product Description: AutoCAD Mechanical|Company: Autodesk, Inc."
 90
     1024
 91
        0
280
     0
281
     0
  0
CLASS
  1
ACMDETAILSTANDARDJIS
  2
AmdtDetailSymStdJIS
  3
"Amdt_StdImp|Product Description: AutoCAD Mechanical|Company: Autodesk, Inc."
 90
     1024
 91
        0
280
     0
281
     0
  0
CLASS
  1
ACMSECTIONSTANDARDJIS
  2
AmdtSectionSymStdJIS
  3
"Amdt_StdImp|Product Description: AutoCAD Mechanical|Company: Autodesk, Inc."
 90
     1024
 91
        0
280
     0
281
     0
  0
CLASS
  1
ACMCENTERLINESTANDARDJIS
  2
AmdtCenterLineStdJIS
  3
"Amdt_StdImp|Product Description: AutoCAD Mechanical|Company: Autodesk, Inc."
 90
     1024
 91
        0
280
     0
281
     0
  0
CLASS
  1
ACMTHREADLINESTANDARDJIS
  2
AmdtThreadLineStdJIS
  3
"Amdt_StdImp|Product Description: AutoCAD Mechanical|Company: Autodesk, Inc."
 90
     1024
 91
        0
280
     0
281
     0
  0
CLASS
  1
ACAMGLAYSTD
  2
AcAmgLayStd
  3
"AmgLay|Product Description: AutoCAD Mechanical|Company: Autodesk, Inc."
 90
     1024
 91
        1
280
     0
281
     0
  0
CLASS
  1
ACAMGDIMSTD
  2
AcAmgDimStd
  3
"AmgDim|Product Description: AutoCAD Mechanical|Company: Autodesk, Inc."
 90
     1024
 91
        1
280
     0
281
     0
  0
CLASS
  1
ACAMGTITLESTD
  2
AcAmgTitleStd
  3
"AmgTitle|Product Description: AutoCAD Mechanical|Company: Autodesk, Inc."
 90
     4095
 91
        1
280
     0
281
     0
  0
CLASS
  1
ACMDATADICTIONARY
  2
AcmDataDictionary
  3
"AcmSymBB|Product Description: AutoCAD Mechanical|Company: Autodesk, Inc."
 90
     1024
 91
        1
280
     0
281
     0
  0
CLASS
  1
ACMDATAENTRYBLOCK
  2
AcmDataEntryBlock
  3
AcmSymBB|Product Description: AutoCAD Mechanical|Company: Autodesk, Inc.
 90
     1024
 91
        0
280
     0
281
     0
  0
CLASS
  1
LAYER_INDEX
  2
AcDbLayerIndex
  3
ObjectDBX Classes
 90
        0
 91
        0
280
     0
281
     0
  0
CLASS
  1
IDBUFFER
  2
AcDbIdBuffer
  3
ObjectDBX Classes
 90
        0
 91
        0
280
     0
281
     0
  0
CLASS
  1
ACMNOTESTANDARDJIS
  2
AmdtNoteStdJIS
  3
"Amdt_StdImp|Product Description: AutoCAD Mechanical|Company: Autodesk, Inc."
 90
     1024
 91
        0
280
     0
281
     0
  0
CLASS
  1
ACAMGHOLECHARTSTDJIS
  2
AcAmgHoleChartStdJIS
  3
AmgDim|Product Description: AutoCAD Mechanical|Company: Autodesk, Inc.
 90
     1024
 91
        0
280
     0
281
     0
  0
CLASS
  1
AM_DRAWING_MGR
  2
AcDmDwgMgr
  3
AcMechDwgViewMgmt
 90
     1024
 91
        1
280
     0
281
     0
  0
CLASS
  1
AM_DWG_DOCUMENT
  2
AcDmDwgDocument
  3
AcMechDwgViewMgmt
 90
     1024
 91
        1
280
     0
281
     0
  0
CLASS
  1
AM_DWG_SHEET
  2
AcDmSheet
  3
AcMechDwgViewMgmt
 90
     1024
 91
        2
280
     0
281
     0
  0
CLASS
  1
AM_VIEWDIMPARMAP
  2
AcDmViewDimParMap
  3
AcMechDwgViewMgmt
 90
     1024
 91
        2
280
     0
281
     0
  0
CLASS
  1
AM_DWGMGR_NAME
  2
AcDmDwgMgrName
  3
AcMechDwgViewMgmt
 90
     1024
 91
        1
280
     0
281
     0
  0
CLASS
  1
AMDTMENUSTATEMGR
  2
AmdtMenuStateMgr
  3
McadcomServices
 90
     1024
 91
        1
280
     0
281
     0
  0
CLASS
  1
AMDTMCOMMENUSTATE
  2
AmdtMcomMenuState
  3
McadcomServices
 90
     1024
 91
        1
280
     0
281
     0
  0
CLASS
  1
MAPIAMMOUDLE
  2
MApiAmModule
  3
MApiAmServices
 90
     1024
 91
        1
280
     0
281
     0
  0
CLASS
  1
AMDTADMENUSTATE
  2
AmdtAdMenuState
  3
DesignerServices
 90
     1024
 91
        1
280
     0
281
     0
  0
CLASS
  1
ADAPPL
  2
AcAdAppl
  3
DesignerServices
 90
     1024
 91
        1
280
     0
281
     0
  0
CLASS
  1
DEPMGR
  2
AcAdDepMgr
  3
DesignerServices
 90
     1024
 91
        1
280
     0
281
     0
  0
CLASS
  1
PARAMMGR
  2
AcAdParamMgr
  3
DesignerServices
 90
     1024
 91
        1
280
     0
281
     0
  0
CLASS
  1
PARAMSCOPE
  2
AcAdParamScope
  3
DesignerServices
 90
     1024
 91
        1
280
     0
281
     0
  0
CLASS
  1
NAMEDAPPL
  2
AcAdNamedAppl
  3
DesignerServices
 90
     1024
 91
        1
280
     0
281
     0
  0
CLASS
  1
AMDTDMMENUSTATE
  2
AmdtDmMenuState
  3
AcMechDwgViewMgmt
 90
     1024
 91
        1
280
     0
281
     0
  0
CLASS
  1
AMDTAMMENUSTATE
  2
AmdtAmMenuState
  3
DesignerAssemblies
 90
     1024
 91
        1
280
     0
281
     0
  0
CLASS
  1
ACAMPROJECT
  2
AcAmProject
  3
DesignerAssemblies
 90
     1024
 91
        1
280
     0
281
     0
  0
CLASS
  1
ACAMGRCOMPDEF
  2
AcAmGrCompDef
  3
DesignerAssemblies
 90
     1024
 91
        1
280
     0
281
     0
  0
CLASS
  1
ACCMCONTEXT
  2
AcCmContext
  3
DesignerAssemblies
 90
     1024
 91
        1
280
     0
281
     0
  0
CLASS
  1
ACAMCOMPDEF
  2
AcAmCompDef
  3
DesignerAssemblies
 90
     1024
 91
        1
280
     0
281
     0
  0
CLASS
  1
ACAMCOMPDEFMGR
  2
AcAmCompDefMgr
  3
DesignerAssemblies
 90
     1024
 91
        1
280
     0
281
     0
  0
CLASS
  1
AMCONTEXTMGR
  2
AcAmContextMgr
  3
DesignerAssemblies
 90
     1024
 91
        1
280
     0
281
     0
  0
CLASS
  1
ACAMCONTEXTMODELER
  2
AcAmContextModeler
  3
DesignerAssemblies
 90
     1024
 91
        1
280
     0
281
     0
  0
CLASS
  1
CATALOGSTATE
  2
AcAmCatalogState
  3
DesignerAssemblies
 90
     1024
 91
        1
280
     0
281
     0
  0
CLASS
  1
ACAMGRCOMPDEFSET
  2
AcAmGrCompDefSet
  3
DesignerAssemblies
 90
     1024
 91
        1
280
     0
281
     0
  0
CLASS
  1
AMDTBROWSERDBTAB
  2
AmdtBrowserDbTab
  3
McadcomServices
 90
     1024
 91
        1
280
     0
281
     0
  0
CLASS
  1
CBROWSERAPPOBJECT
  2
CBrowserAppObject
  3
McadcomServices
 90
     1024
 91
        3
280
     0
281
     0
  0
CLASS
  1
DM_PLACEHOLDER
  2
AcDmSelsetPlaceholder
  3
AcMechDwgViewMgmt
 90
     1024
 91
        1
280
     0
281
     0
  0
CLASS
  1
TABLESTYLE
  2
AcDbTableStyle
  3
ObjectDBX Classes
 90
     4095
 91
        1
280
     0
281
     0
  0
CLASS
  1
VAACXREFPANELOBJECT
  2
VaAcXREFPanelObject
  3
VAAC_ADDIN
 90
        0
 91
        0
280
     0
281
     0
  0
CLASS
  1
VAACIMAGEINVENTORY
  2
VaAcImageInventory
  3
VAAC_ADDIN
 90
        0
 91
        0
280
     0
281
     0
  0
CLASS
  1
AMDTNOTETEMPLATEDB
  2
AmdtNoteTemplateDB
  3
AcmSymBB|Product Description: AutoCAD Mechanical|Company: Autodesk, Inc.
 90
     1024
 91
        6
280
     0
281
     0
  0
CLASS
  1
ACAMGFILTERDAT
  2
AcAmgFilterDat
  3
"AcadM|Product Description: AutoCAD Mechanical|Company: Autodesk, Inc."
 90
     1024
 91
        0
280
     0
281
     0
  0
CLASS
  1
MATERIAL
  2
AcDbMaterial
  3
ObjectDBX Classes
 90
     1153
 91
        3
280
     0
281
     0
  0
CLASS
  1
VISUALSTYLE
  2
AcDbVisualStyle
  3
ObjectDBX Classes
 90
     4095
 91
       16
280
     0
281
     0
  0
CLASS
  1
ACRFATTGENMGR
  2
AcRfAttGeneralMgr
  3
AcAttribServices
 90
     1024
 91
        0
280
     0
281
     0
  0
CLASS
  1
ACRFOBJATTMGR
  2
AcRfObjAttGroupMgr
  3
AcAttribServices
 90
     1024
 91
        0
280
     0
281
     0
  0
CLASS
  1
ACRFMCADAPIATTHOLDER
  2
AcRfMCADAPIAttHolder
  3
AcAttribServices
 90
     1024
 91
        0
280
     0
281
     0
  0
CLASS
  1
AMDTSYSATTR
  2
AmdtSystemAttribute
  3
AcAttribServices
 90
     1024
 91
        0
280
     0
281
     0
  0
CLASS
  1
ACMTAPERSTANDARDJIS
  2
AcmTaperStdJIS
  3
"Amdt_StdImp|Product Description: AutoCAD Mechanical|Company: Autodesk, Inc."
 90
     1024
 91
        0
280
     0
281
     0
  0
CLASS
  1
CAMSSTRUCTBTNSTATE
  2
StructBtnState
  3
DesignerAssemblies
 90
     1024
 91
        0
280
     0
281
     0
  0
CLASS
  1
SCALE
  2
AcDbScale
  3
ObjectDBX Classes
 90
     1153
 91
       34
280
     0
281
     0
  0
CLASS
  1
MLEADERSTYLE
  2
AcDbMLeaderStyle
  3
ACDB_MLEADERSTYLE_CLASS
 90
     4095
 91
        1
280
     0
281
     0
  0
CLASS
  1
ACMANOOTATIONVIEWSTANDARDJIS
  2
AmdtAnViewStdJIS
  3
"Amdt_StdImp|Product Description: AutoCAD Mechanical|Company: Autodesk, Inc."
 90
     1024
 91
        0
280
     0
281
     0
  0
CLASS
  1
ACMSURFSTANDARDJIS2003
  2
AcmSurfTextStdJIS2003
  3
"Amdt_StdImp|Product Description: AutoCAD Mechanical|Company: Autodesk, Inc."
 90
     1024
 91
        0
280
     0
281
     0
  0
CLASS
  1
CELLSTYLEMAP
  2
AcDbCellStyleMap
  3
ObjectDBX Classes
 90
     1152
 91
        2
280
     0
281
     0
  0
CLASS
  1
ACMFCFSTANDARDJIS98
  2
AcmFCFStdJIS98
  3
"Amdt_StdImp|Product Description: AutoCAD Mechanical|Company: Autodesk, Inc."
 90
     1024
 91
        0
280
     0
281
     0
  0
CLASS
  1
SORTENTSTABLE
  2
AcDbSortentsTable
  3
ObjectDBX Classes
 90
        0
 91
       12
280
     0
281
     0
  0
CLASS
  1
DIMASSOC
  2
AcDbDimAssoc
  3
"AcDbDimAssoc|Product Desc:     AcDim ARX App For Dimension|Company:          Autodesk, Inc.|WEB Address:      www.autodesk.com"
 90
        0
 91
       20
280
     0
281
     0
  0
CLASS
  1
STDPART2D
  2
AmgStdPart
  3
AmgStdPart|Product Description: AutoCAD Mechanical|Company: Autodesk, Inc.
 90
     4095
 91
        0
280
     0
281
     1
  0
CLASS
  1
ACMDATAENTRYPART
  2
AcmDataEntryPart
  3
AcmSymBB|Product Description: AutoCAD Mechanical|Company: Autodesk, Inc.
 90
     1024
 91
        0
280
     0
281
     0
  0
CLASS
  1
ACMPARTREF
  2
AcmPartRef
  3
"AcmSymBB|Product Description: AutoCAD Mechanical|Company: Autodesk, Inc."
 90
     4095
 91
        0
280
     0
281
     1
  0
CLASS
  1
ACDBSTDPARTRES_LINE
  2
AcDbStdPartRes_Line
  3
AmgStdPart|Product Description: AutoCAD Mechanical|Company: Autodesk, Inc.
 90
     1024
 91
        0
280
     0
281
     0
  0
CLASS
  1
ACMBOM
  2
AcmBom
  3
"AcmSymBB|Product Description: AutoCAD Mechanical|Company: Autodesk, Inc."
 90
     1024
 91
        0
280
     0
281
     0
  0
CLASS
  1
AMDTFORMULAUPDATEDISPATCHER
  2
AmdtFormulaUpdateDispatcher
  3
AcMeServices
 90
     1024
 91
        0
280
     0
281
     0
  0
CLASS
  1
ACMBOMROW
  2
AcmBomRow
  3
"AcmSymBB|Product Description: AutoCAD Mechanical|Company: Autodesk, Inc."
 90
     1024
 91
        0
280
     0
281
     0
  0
CLASS
  1
ACMPARTLIST
  2
AcmPartList
  3
"AcmSymBB|Product Description: AutoCAD Mechanical|Company: Autodesk, Inc."
 90
     4095
 91
        0
280
     0
281
     1
  0
CLASS
  1
ACDBLINERES
  2
AcDbLineRes
  3
AcGrefServices
 90
     1024
 91
        0
280
     0
281
     0
  0
CLASS
  1
ACRFINSADJ
  2
AcRfInsAdjuster
  3
AcMeServices
 90
     1024
 91
        0
280
     0
281
     0
  0
CLASS
  1
ACMSTANDARDISO
  2
AcmStandardISO
  3
"Amdt_StdImp|Product Description: AutoCAD Mechanical|Company: Autodesk, Inc."
 90
     1024
 91
        1
280
     0
281
     0
  0
CLASS
  1
AMDTEDGESTANDARDISO13715
  2
AmdtEdgeStdISO13715
  3
"Amdt_StdImp|Product Description: AutoCAD Mechanical|Company: Autodesk, Inc."
 90
     1024
 91
        1
280
     0
281
     0
  0
CLASS
  1
ACMSURFSTANDARDISO2002
  2
AcmSurfTextStdISO2002
  3
"Amdt_StdImp|Product Description: AutoCAD Mechanical|Company: Autodesk, Inc."
 90
     1024
 91
        1
280
     0
281
     0
  0
CLASS
  1
ACMFCFSTANDARDISO
  2
AcmFCFStdISO
  3
"Amdt_StdImp|Product Description: AutoCAD Mechanical|Company: Autodesk, Inc."
 90
     1024
 91
        1
280
     0
281
     0
  0
CLASS
  1
ACMWELDSTANDARDISO
  2
AcmWeldingStdISO
  3
"Amdt_StdImp|Product Description: AutoCAD Mechanical|Company: Autodesk, Inc."
 90
     1024
 91
        1
280
     0
281
     0
  0
CLASS
  1
ACMIDSTANDARDISO
  2
AcmIdStdISO
  3
"Amdt_StdImp|Product Description: AutoCAD Mechanical|Company: Autodesk, Inc."
 90
     1024
 91
        1
280
     0
281
     0
  0
CLASS
  1
ACMDATUMSTANDARDISO
  2
AcmDatumStdISO
  3
"Amdt_StdImp|Product Description: AutoCAD Mechanical|Company: Autodesk, Inc."
 90
     1024
 91
        1
280
     0
281
     0
  0
CLASS
  1
ACMBOMSTANDARDISO
  2
AcmBOMStdISO
  3
"Amdt_StdImp|Product Description: AutoCAD Mechanical|Company: Autodesk, Inc."
 90
     1024
 91
        1
280
     0
281
     0
  0
CLASS
  1
ACMDETAILSTANDARDISO
  2
AmdtDetailSymStdISO
  3
"Amdt_StdImp|Product Description: AutoCAD Mechanical|Company: Autodesk, Inc."
 90
     1024
 91
        1
280
     0
281
     0
  0
CLASS
  1
ACMSECTIONSTANDARDISO2001
  2
AmdtSectionSymStdISO2001
  3
"Amdt_StdImp|Product Description: AutoCAD Mechanical|Company: Autodesk, Inc."
 90
     1024
 91
        1
280
     0
281
     0
  0
CLASS
  1
ACMCENTERLINESTANDARDISO
  2
AmdtCenterLineStdISO
  3
"Amdt_StdImp|Product Description: AutoCAD Mechanical|Company: Autodesk, Inc."
 90
     1024
 91
        1
280
     0
281
     0
  0
CLASS
  1
ACMTHREADLINESTANDARDISO
  2
AmdtThreadLineStdISO
  3
"Amdt_StdImp|Product Description: AutoCAD Mechanical|Company: Autodesk, Inc."
 90
     1024
 91
        1
280
     0
281
     0
  0
CLASS
  1
ACMNOTESTANDARDISO
  2
AmdtNoteStdISO
  3
"Amdt_StdImp|Product Description: AutoCAD Mechanical|Company: Autodesk, Inc."
 90
     1024
 91
        1
280
     0
281
     0
  0
CLASS
  1
ACMTAPERSTANDARDISO
  2
AcmTaperStdISO
  3
"Amdt_StdImp|Product Description: AutoCAD Mechanical|Company: Autodesk, Inc."
 90
     1024
 91
        1
280
     0
281
     0
  0
CLASS
  1
ACMANOOTATIONVIEWSTANDARDISO
  2
AmdtAnViewStdISO
  3
"Amdt_StdImp|Product Description: AutoCAD Mechanical|Company: Autodesk, Inc."
 90
     1024
 91
        1
280
     0
281
     0
  0
CLASS
  1
ACAMGHOLECHARTSTDISO
  2
AcAmgHoleChartStdISO
  3
AmgDim|Product Description: AutoCAD Mechanical|Company: Autodesk, Inc.
 90
     1024
 91
        1
280
     0
281
     0
  0
CLASS
  1
EXACXREFPANELOBJECT
  2
ExAcXREFPanelObject
  3
EXAC_ESW
 90
     1025
 91
        0
280
     0
281
     0
  0
CLASS
  1
NPOCOLLECTION
  2
AcDbImpNonPersistentObjectsCollection
  3
ObjectDBX Classes
 90
     1153
 91
        0
280
     0
281
     0
  0
CLASS
  1
ACDBSTDPARTRES_ARC
  2
AcDbStdPartRes_Arc
  3
AmgStdPart|Product Description: AutoCAD Mechanical|Company: Autodesk, Inc.
 90
     1024
 91
        0
280
     0
281
     0
  0
CLASS
  1
AMDTNOTE
  2
AmdtNote
  3
"AcmSymBB|Product Description: AutoCAD Mechanical|Company: Autodesk, Inc."
 90
     4095
 91
        0
280
     0
281
     1
  0
CLASS
  1
PLOTSETTINGS
  2
AcDbPlotSettings
  3
ObjectDBX Classes
 90
        0
 91
        1
280
     0
281
     0
  0
CLASS
  1
ACMSTANDARDANSI
  2
AcmStandardANSI
  3
"Amdt_StdImp|Product Description: AutoCAD Mechanical|Company: Autodesk, Inc."
 90
     1024
 91
        0
280
     0
281
     0
  0
CLASS
  1
ACMSURFSTANDARDANSI
  2
AcmSurfTextStdANSI
  3
"Amdt_StdImp|Product Description: AutoCAD Mechanical|Company: Autodesk, Inc."
 90
     1024
 91
        0
280
     0
281
     0
  0
CLASS
  1
ACMFCFSTANDARDANSI
  2
AcmFCFStdANSI
  3
"Amdt_StdImp|Product Description: AutoCAD Mechanical|Company: Autodesk, Inc."
 90
     1024
 91
        0
280
     0
281
     0
  0
CLASS
  1
ACMWELDSTANDARDANSI
  2
AcmWeldingStdANSI
  3
"Amdt_StdImp|Product Description: AutoCAD Mechanical|Company: Autodesk, Inc."
 90
     1024
 91
        0
280
     0
281
     0
  0
CLASS
  1
ACMIDSTANDARDANSI
  2
AcmIdStdANSI
  3
"Amdt_StdImp|Product Description: AutoCAD Mechanical|Company: Autodesk, Inc."
 90
     1024
 91
        0
280
     0
281
     0
  0
CLASS
  1
ACMDATUMSTANDARDANSI
  2
AcmDatumStdANSI
  3
"Amdt_StdImp|Product Description: AutoCAD Mechanical|Company: Autodesk, Inc."
 90
     1024
 91
        0
280
     0
281
     0
  0
CLASS
  1
ACMBOMSTANDARDANSI
  2
AcmBOMStdANSI
  3
"Amdt_StdImp|Product Description: AutoCAD Mechanical|Company: Autodesk, Inc."
 90
     1024
 91
        0
280
     0
281
     0
  0
CLASS
  1
ACMDETAILSTANDARDANSI
  2
AmdtDetailSymStdANSI
  3
"Amdt_StdImp|Product Description: AutoCAD Mechanical|Company: Autodesk, Inc."
 90
     1024
 91
        0
280
     0
281
     0
  0
CLASS
  1
ACMSECTIONSTANDARDANSI
  2
AmdtSectionSymStdANSI
  3
"Amdt_StdImp|Product Description: AutoCAD Mechanical|Company: Autodesk, Inc."
 90
     1024
 91
        0
280
     0
281
     0
  0
CLASS
  1
ACMCENTERLINESTANDARDANSI
  2
AmdtCenterLineStdANSI
  3
"Amdt_StdImp|Product Description: AutoCAD Mechanical|Company: Autodesk, Inc."
 90
     1024
 91
        0
280
     0
281
     0
  0
CLASS
  1
ACMTHREADLINESTANDARDANSI
  2
AmdtThreadLineStdANSI
  3
"Amdt_StdImp|Product Description: AutoCAD Mechanical|Company: Autodesk, Inc."
 90
     1024
 91
        0
280
     0
281
     0
  0
CLASS
  1
ACMNOTESTANDARDANSI
  2
AmdtNoteStdANSI
  3
"Amdt_StdImp|Product Description: AutoCAD Mechanical|Company: Autodesk, Inc."
 90
     1024
 91
        0
280
     0
281
     0
  0
CLASS
  1
ACMTAPERSTANDARDANSI
  2
AcmTaperStdANSI
  3
"Amdt_StdImp|Product Description: AutoCAD Mechanical|Company: Autodesk, Inc."
 90
     1024
 91
        0
280
     0
281
     0
  0
CLASS
  1
ACMANOOTATIONVIEWSTANDARDANSI
  2
AmdtAnViewStdANSI
  3
"Amdt_StdImp|Product Description: AutoCAD Mechanical|Company: Autodesk, Inc."
 90
     1024
 91
        0
280
     0
281
     0
  0
CLASS
  1
ACAMGHOLECHARTSTDANSI
  2
AcAmgHoleChartStdANSI
  3
AmgDim|Product Description: AutoCAD Mechanical|Company: Autodesk, Inc.
 90
     1024
 91
        0
280
     0
281
     0
  0
CLASS
  1
ACMSTANDARDBSI
  2
AcmStandardBSI
  3
"Amdt_StdImp|Product Description: AutoCAD Mechanical|Company: Autodesk, Inc."
 90
     1024
 91
        0
280
     0
281
     0
  0
CLASS
  1
ACMSURFSTANDARDBSI2002
  2
AcmSurfTextStdBSI2002
  3
"Amdt_StdImp|Product Description: AutoCAD Mechanical|Company: Autodesk, Inc."
 90
     1024
 91
        0
280
     0
281
     0
  0
CLASS
  1
ACMFCFSTANDARDBSI
  2
AcmFCFStdBSI
  3
"Amdt_StdImp|Product Description: AutoCAD Mechanical|Company: Autodesk, Inc."
 90
     1024
 91
        0
280
     0
281
     0
  0
CLASS
  1
ACMWELDSTANDARDBSI
  2
AcmWeldingStdBSI
  3
"Amdt_StdImp|Product Description: AutoCAD Mechanical|Company: Autodesk, Inc."
 90
     1024
 91
        0
280
     0
281
     0
  0
CLASS
  1
ACMIDSTANDARDBSI
  2
AcmIdStdBSI
  3
"Amdt_StdImp|Product Description: AutoCAD Mechanical|Company: Autodesk, Inc."
 90
     1024
 91
        0
280
     0
281
     0
  0
CLASS
  1
ACMDATUMSTANDARDBSI
  2
AcmDatumStdBSI
  3
"Amdt_StdImp|Product Description: AutoCAD Mechanical|Company: Autodesk, Inc."
 90
     1024
 91
        0
280
     0
281
     0
  0
CLASS
  1
ACMBOMSTANDARDBSI
  2
AcmBOMStdBSI
  3
"Amdt_StdImp|Product Description: AutoCAD Mechanical|Company: Autodesk, Inc."
 90
     1024
 91
        0
280
     0
281
     0
  0
CLASS
  1
ACMDETAILSTANDARDBSI
  2
AmdtDetailSymStdBSI
  3
"Amdt_StdImp|Product Description: AutoCAD Mechanical|Company: Autodesk, Inc."
 90
     1024
 91
        0
280
     0
281
     0
  0
CLASS
  1
ACMSECTIONSTANDARDBSI2001
  2
AmdtSectionSymStdBSI2001
  3
"Amdt_StdImp|Product Description: AutoCAD Mechanical|Company: Autodesk, Inc."
 90
     1024
 91
        0
280
     0
281
     0
  0
CLASS
  1
ACMCENTERLINESTANDARDBSI
  2
AmdtCenterLineStdBSI
  3
"Amdt_StdImp|Product Description: AutoCAD Mechanical|Company: Autodesk, Inc."
 90
     1024
 91
        0
280
     0
281
     0
  0
CLASS
  1
ACMTHREADLINESTANDARDBSI
  2
AmdtThreadLineStdBSI
  3
"Amdt_StdImp|Product Description: AutoCAD Mechanical|Company: Autodesk, Inc."
 90
     1024
 91
        0
280
     0
281
     0
  0
CLASS
  1
ACMNOTESTANDARDBSI
  2
AmdtNoteStdBSI
  3
"Amdt_StdImp|Product Description: AutoCAD Mechanical|Company: Autodesk, Inc."
 90
     1024
 91
        0
280
     0
281
     0
  0
CLASS
  1
ACMTAPERSTANDARDBSI
  2
AcmTaperStdBSI
  3
"Amdt_StdImp|Product Description: AutoCAD Mechanical|Company: Autodesk, Inc."
 90
     1024
 91
        0
280
     0
281
     0
  0
CLASS
  1
ACMANOOTATIONVIEWSTANDARDBSI
  2
AmdtAnViewStdBSI
  3
"Amdt_StdImp|Product Description: AutoCAD Mechanical|Company: Autodesk, Inc."
 90
     1024
 91
        0
280
     0
281
     0
  0
CLASS
  1
ACAMGHOLECHARTSTDBSI
  2
AcAmgHoleChartStdBSI
  3
AmgDim|Product Description: AutoCAD Mechanical|Company: Autodesk, Inc.
 90
     1024
 91
        0
280
     0
281
     0
  0
CLASS
  1
AMDTEDGESTANDARDJIS
  2
AmdtEdgeStdJIS
  3
"Amdt_StdImp|Product Description: AutoCAD Mechanical|Company: Autodesk, Inc."
 90
     1024
 91
        0
280
     0
281
     0
  0
CLASS
  1
ACMSURFSYM
  2
AcmSurfaceTexture
  3
"AcmSymBB|Product Description: AutoCAD Mechanical|Company: Autodesk, Inc."
 90
     4095
 91
        0
280
     0
281
     1
  0
CLASS
  1
ACDBDIMENSIONRES
  2
AcDbDimensionRes
  3
AcmSymBB|Product Description: AutoCAD Mechanical|Company: Autodesk, Inc.
 90
     1024
 91
        0
280
     0
281
     0
  0
CLASS
  1
ACDBCIRCARCRES
  2
AcDbCircArcRes
  3
AcGrefServices
 90
     1024
 91
        0
280
     0
281
     0
  0
CLASS
  1
ACMDIMBREAKPERSREACTOR
  2
AcmDimBreakPersReactor
  3
AmgDim|Product Description: AutoCAD Mechanical|Company: Autodesk, Inc.
 90
     4095
 91
        0
280
     0
281
     0
  0
CLASS
  1
ACDBOPPOLYLINERES
  2
AcDbOpPolylineRes
  3
AcGrefServices
 90
     1024
 91
        0
280
     0
281
     0
  0
CLASS
  1
AMDTACMWBLOCKBOMENTITY
  2
AmdtAcmWblockBomEntity
  3
"AcmSymBB|Product Description: AutoCAD Mechanical|Company: Autodesk, Inc."
 90
     4095
 91
        0
280
     0
281
     1
  0
CLASS
  1
ACDB_BLKREFOBJECTCONTEXTDATA_CLASS
  2
AcDbBlkRefObjectContextData
  3
ObjectDBX Classes
 90
     1153
 91
        0
280
     0
281
     0
  0
CLASS
  1
ACMPICKOBJ
  2
AcmPickEnt
  3
"AcmSymBB|Product Description: AutoCAD Mechanical|Company: Autodesk, Inc."
 90
     1024
 91
        0
280
     0
281
     1
  0
CLASS
  1
ACDBELLIPSERES
  2
AcDbEllipseRes
  3
AcGrefServices
 90
     1024
 91
        0
280
     0
281
     0
  0
CLASS
  1
ACMBALLOON
  2
AcmBalloon
  3
"AcmSymBB|Product Description: AutoCAD Mechanical|Company: Autodesk, Inc."
 90
     4095
 91
        0
280
     0
281
     1
  0
CLASS
  1
ACMWELDSYM
  2
AcmWelding
  3
"AcmSymBB|Product Description: AutoCAD Mechanical|Company: Autodesk, Inc."
 90
     4095
 91
        0
280
     0
281
     1
  0
ENDSEC
  0
SECTION
  2
TABLES
  0
TABLE
  2
VPORT
  5
8
330
0
100
AcDbSymbolTable
 70
     1
  0
VPORT
  5
27A
330
8
100
AcDbSymbolTableRecord
100
AcDbViewportTableRecord
  2
*Active
 70
     0
 10
0.0
 20
0.0
 11
1.0
 21
1.0
 12
326.415483334656
 22
326.6542299227433
 13
0.0
 23
0.0
 14
3.75
 24
3.75
 15
15.0
 25
15.0
 16
0.0
 26
0.0
 36
1.0
 17
0.0
 27
0.0
 37
0.0
 40
250.711176896387
 41
1.571428571428571
 42
50.0
 43
0.0
 44
0.0
 50
0.0
 51
0.0
 71
    16
 72
 20000
 73
     1
 74
     3
 75
     0
 76
     0
 77
     0
 78
     0
281
     0
 65
     0
110
0.0
120
0.0
130
0.0
111
1.0
121
0.0
131
0.0
112
0.0
122
1.0
132
0.0
 79
     0
146
0.0
348
285
 60
     3
 61
     5
292
     1
282
     0
141
0.0
142
0.0
 63
   250
421
  3355443
  0
ENDTAB
  0
TABLE
  2
LTYPE
  5
5
330
0
100
AcDbSymbolTable
 70
    16
  0
LTYPE
  5
14
330
5
100
AcDbSymbolTableRecord
100
AcDbLinetypeTableRecord
  2
ByBlock
 70
     0
  3

 72
    65
 73
     0
 40
0.0
  0
LTYPE
  5
15
330
5
100
AcDbSymbolTableRecord
100
AcDbLinetypeTableRecord
  2
ByLayer
 70
     0
  3

 72
    65
 73
     0
 40
0.0
  0
LTYPE
  5
16
330
5
100
AcDbSymbolTableRecord
100
AcDbLinetypeTableRecord
  2
Continuous
 70
     0
  3
Solid line
 72
    65
 73
     0
 40
0.0
  0
LTYPE
  5
4D
330
5
100
AcDbSymbolTableRecord
100
AcDbLinetypeTableRecord
  2
AM_ISO02W050
 70
     0
  3
__ __ __ __ __ __ __ __ __ __ __ __ __ __ __
 72
    65
 73
     2
 40
7.5
 49
6.0
 74
     0
 49
-1.5
 74
     0
  0
LTYPE
  5
4E
330
5
100
AcDbSymbolTableRecord
100
AcDbLinetypeTableRecord
  2
AM_ISO08W050
 70
     0
  3
____ . ____ . ____ . ____ . ____ . ____ . ____
 72
    65
 73
     4
 40
18.0
 49
12.0
 74
     0
 49
-1.5
 74
     0
 49
3.0
 74
     0
 49
-1.5
 74
     0
  0
LTYPE
  5
4F
330
5
100
AcDbSymbolTableRecord
100
AcDbLinetypeTableRecord
  2
AM_ISO09W050
 70
     0
  3
_____ . . _____ . . _____ . . ____ .. ____
 72
    65
 73
     6
 40
22.5
 49
12.0
 74
     0
 49
-1.5
 74
     0
 49
3.0
 74
     0
 49
-1.5
 74
     0
 49
3.0
 74
     0
 49
-1.5
 74
     0
  0
LTYPE
  5
50
330
5
100
AcDbSymbolTableRecord
100
AcDbLinetypeTableRecord
  2
Amconstr
 70
     0
  3
_______________________
 72
    65
 73
     2
 40
9999.0
 49
9999.0
 74
     0
 49
0.0
 74
     0
  0
LTYPE
  5
51
330
5
100
AcDbSymbolTableRecord
100
AcDbLinetypeTableRecord
  2
AM_ISO08W050x2
 70
     0
  3
__ . __ . __ . __ . __ . __
 72
    65
 73
     4
 40
9.0
 49
6.0
 74
     0
 49
-0.75
 74
     0
 49
1.5
 74
     0
 49
-0.75
 74
     0
  0
LTYPE
  5
52
330
5
100
AcDbSymbolTableRecord
100
AcDbLinetypeTableRecord
  2
AM_ISO02W050x2
 70
     0
  3
 _ _ _ _ _ _ _ _ _ _ _ _
 72
    65
 73
     2
 40
3.75
 49
3.0
 74
     0
 49
-0.75
 74
     0
  0
LTYPE
  5
55
330
5
100
AcDbSymbolTableRecord
100
AcDbLinetypeTableRecord
  2
Amzigzag
 70
     0
  3
/\/-/\/-/\/-/\/-/\/-/\/
 72
    65
 73
     2
 40
11.0001
 49
0.0001
 74
     4
 75
   136
340
23D
 46
0.04
 50
0.0
 44
0.0
 45
0.0
 49
-11.0
 74
     0
  0
LTYPE
  5
65
330
5
100
AcDbSymbolTableRecord
100
AcDbLinetypeTableRecord
  2
CENTER
 70
     0
  3
__ . __
 72
    65
 73
     4
 40
7.0
 49
4.0
 74
     0
 49
-1.0
 74
     0
 49
1.0
 74
     0
 49
-1.0
 74
     0
  0
LTYPE
  5
E0
330
5
100
AcDbSymbolTableRecord
100
AcDbLinetypeTableRecord
  2
HIDDEN
 70
     0
  3
Hidden __ __ __ __ __ __ __ __ __ __ __ __ __ _
 72
    65
 73
     2
 40
9.524999999999996
 49
6.349999999999997
 74
     0
 49
-3.174999999999998
 74
     0
  0
LTYPE
  5
E1
330
5
100
AcDbSymbolTableRecord
100
AcDbLinetypeTableRecord
  2
PHANTOM2
 70
     0
  3
Phantom (.5x) ___ _ _ ___ _ _ ___ _ _ ___ _ _
 72
    65
 73
     6
 40
31.75
 49
15.875
 74
     0
 49
-3.174999999999998
 74
     0
 49
3.174999999999998
 74
     0
 49
-3.174999999999998
 74
     0
 49
3.174999999999998
 74
     0
 49
-3.174999999999998
 74
     0
  0
LTYPE
  5
5A2
330
5
100
AcDbSymbolTableRecord
100
AcDbLinetypeTableRecord
  2
ACJISWELD
 70
     0
  3
_ _ _ _ _
 72
    65
 73
     2
 40
2.0
 49
2.0
 74
     0
 49
-1.0
 74
     0
  0
LTYPE
  5
836E
330
5
100
AcDbSymbolTableRecord
100
AcDbLinetypeTableRecord
  2
ACISOWELD
 70
     0
  3
_ _ _ _ _
 72
    65
 73
     2
 40
2.0
 49
2.0
 74
     0
 49
-1.0
 74
     0
  0
LTYPE
  5
836F
330
5
100
AcDbSymbolTableRecord
100
AcDbLinetypeTableRecord
  2
ACISOTGB
 70
     0
  3
__ . . __ . .
 72
    65
 73
     6
 40
9.0
 49
4.0
 74
     0
 49
-1.0
 74
     0
 49
1.0
 74
     0
 49
-1.0
 74
     0
 49
1.0
 74
     0
 49
-1.0
 74
     0
  0
LTYPE
  5
8370
330
5
100
AcDbSymbolTableRecord
100
AcDbLinetypeTableRecord
  2
ACISOTGL
 70
     0
  3
_ _ _ _ _
 72
    65
 73
     2
 40
3.0
 49
2.0
 74
     0
 49
-1.0
 74
     0
  0
ENDTAB
  0
TABLE
  2
LAYER
  5
2
102
{ACAD_XDICTIONARY
360
BF
102
}
330
0
100
AcDbSymbolTable
 70
    11
  0
LAYER
  5
10
102
{ACAD_XDICTIONARY
360
29F7
102
}
330
2
100
AcDbSymbolTableRecord
100
AcDbLayerTableRecord
  2
0
 70
     0
 62
     7
  6
Continuous
370
    -3
390
F
347
27E
  0
LAYER
  5
81
102
{ACAD_XDICTIONARY
360
29F9
102
}
330
2
100
AcDbSymbolTableRecord
100
AcDbLayerTableRecord
  2
AM_0 外形線1
 70
     0
 62
     7
  6
Continuous
370
    25
390
F
347
27E
  0
LAYER
  5
427
330
2
100
AcDbSymbolTableRecord
100
AcDbLayerTableRecord
  2
Defpoints
 70
     0
 62
     7
  6
Continuous
290
     0
370
    -3
390
F
347
27E
  0
LAYER
  5
2DFB
102
{ACAD_XDICTIONARY
360
2DFC
102
}
330
2
100
AcDbSymbolTableRecord
100
AcDbLayerTableRecord
  2
AM_6 文字
 70
     0
 62
     2
  6
Continuous
370
    13
390
F
347
27E
1001
AcAecLayerStandard
1000

1000

  0
LAYER
  5
3A91
330
2
100
AcDbSymbolTableRecord
100
AcDbLayerTableRecord
  2
AM_5 寸法線
 70
     0
 62
     3
  6
Continuous
370
    13
390
F
347
27E
1001
AcAecLayerStandard
1000

1000

  0
LAYER
  5
3A92
330
2
100
AcDbSymbolTableRecord
100
AcDbLayerTableRecord
  2
AM_4 細線
 70
     0
 62
     4
  6
Continuous
370
    13
390
F
347
27E
1001
AcAecLayerStandard
1000

1000

  0
LAYER
  5
3A93
330
2
100
AcDbSymbolTableRecord
100
AcDbLayerTableRecord
  2
AM_7 中心線
 70
     0
 62
     1
  6
AM_ISO08W050
370
    13
390
F
347
27E
1001
AcAecLayerStandard
1000

1000

  0
LAYER
  5
3A94
330
2
100
AcDbSymbolTableRecord
100
AcDbLayerTableRecord
  2
AM_3 隠れ線
 70
     0
 62
     8
  6
ACJISWELD
370
    13
390
F
347
27E
1001
AcAecLayerStandard
1000

1000

  0
LAYER
  5
6C0E
330
2
100
AcDbSymbolTableRecord
100
AcDbLayerTableRecord
  2
AM_8 ハッチング
 70
     0
 62
     1
  6
Continuous
370
    13
390
F
347
27E
1001
AcAecLayerStandard
1000

1000

  0
LAYER
  5
7D55
330
2
100
AcDbSymbolTableRecord
100
AcDbLayerTableRecord
  2
AM_11 想像線
 70
     0
 62
     5
  6
AM_ISO09W050
370
    13
390
F
347
27E
1001
AcAecLayerStandard
1000

1000

  0
ENDTAB
  0
TABLE
  2
STYLE
  5
3
330
0
100
AcDbSymbolTable
 70
     6
  0
STYLE
  5
11
330
3
100
AcDbSymbolTableRecord
100
AcDbTextStyleTableRecord
  2
STANDARD
 70
     0
 40
0.0
 41
1.0
 50
0.0
 71
     0
 42
25.0
  3
ISOCP.SHX
  4
EXTFONT.SHX
  0
STYLE
  5
23D
330
3
100
AcDbSymbolTableRecord
100
AcDbTextStyleTableRecord
  2

 70
     1
 40
0.0
 41
1.0
 50
0.0
 71
     0
 42
2.5
  3
genltshp.shx
  4

  0
STYLE
  5
5D5
330
3
100
AcDbSymbolTableRecord
100
AcDbTextStyleTableRecord
  2
SEISA
 70
     0
 40
0.0
 41
0.9
 50
0.0
 71
     0
 42
25.0
  3
romans.shx
  4
extfont2.shx
  0
STYLE
  5
835E
330
3
100
AcDbSymbolTableRecord
100
AcDbTextStyleTableRecord
  2
ACISOTS
 70
     0
 40
1.0
 41
1.0
 50
0.0
 71
     0
 42
25.0
  3
isocp.shx
  4
extfont.shx
  0
STYLE
  5
836D
330
3
100
AcDbSymbolTableRecord
100
AcDbTextStyleTableRecord
  2
ACISOGDT
 70
     0
 40
0.0
 41
1.0
 50
0.0
 71
     0
 42
25.0
  3
amgdt.shx
  4

  0
ENDTAB
  0
TABLE
  2
VIEW
  5
6
330
0
100
AcDbSymbolTable
 70
     6
  0
VIEW
  5
91B
330
6
100
AcDbSymbolTableRecord
100
AcDbViewTableRecord
  2
AM_VIEW1
 70
     0
 40
222.75
 10
215.3432884644908
 20
334.1250005540731
 41
430.6865763546798
 11
0.0
 21
0.0
 31
1.0
 12
0.0
 22
0.0
 32
0.0
 42
50.0
 43
0.0
 44
0.0
 50
0.0
 71
    16
281
     0
 72
     0
 73
     0
  0
VIEW
  5
91C
330
6
100
AcDbSymbolTableRecord
100
AcDbViewTableRecord
  2
AM_VIEW2
 70
     0
 40
222.75
 10
414.6567121098106
 20
334.1250005540731
 41
430.6865763546798
 11
0.0
 21
0.0
 31
1.0
 12
0.0
 22
0.0
 32
0.0
 42
50.0
 43
0.0
 44
0.0
 50
0.0
 71
    16
281
     0
 72
     0
 73
     0
  0
VIEW
  5
91D
330
6
100
AcDbSymbolTableRecord
100
AcDbViewTableRecord
  2
AM_VIEW3
 70
     0
 40
222.75
 10
215.3432884644908
 20
111.3750005540731
 41
430.6865763546798
 11
0.0
 21
0.0
 31
1.0
 12
0.0
 22
0.0
 32
0.0
 42
50.0
 43
0.0
 44
0.0
 50
0.0
 71
    16
281
     0
 72
     0
 73
     0
  0
VIEW
  5
91E
330
6
100
AcDbSymbolTableRecord
100
AcDbViewTableRecord
  2
AM_VIEW4
 70
     0
 40
222.75
 10
414.6567121098106
 20
111.3750005540731
 41
430.6865763546798
 11
0.0
 21
0.0
 31
1.0
 12
0.0
 22
0.0
 32
0.0
 42
50.0
 43
0.0
 44
0.0
 50
0.0
 71
    16
281
     0
 72
     0
 73
     0
  0
VIEW
  5
91F
330
6
100
AcDbSymbolTableRecord
100
AcDbViewTableRecord
  2
AM_VIEW5
 70
     0
 40
222.75
 10
315.0000002871508
 20
222.7500005540731
 41
430.68657635468
 11
0.0
 21
0.0
 31
1.0
 12
0.0
 22
0.0
 32
0.0
 42
50.0
 43
0.0
 44
0.0
 50
0.0
 71
    16
281
     0
 72
     0
 73
     0
  0
VIEW
  5
920
330
6
100
AcDbSymbolTableRecord
100
AcDbViewTableRecord
  2
AM_VIEW6
 70
     0
 40
445.4955449999998
 10
315.0000002871508
 20
222.7500005540731
 41
861.3645389778328
 11
0.0
 21
0.0
 31
1.0
 12
0.0
 22
0.0
 32
0.0
 42
50.0
 43
0.0
 44
0.0
 50
0.0
 71
    16
281
     0
 72
     0
 73
     0
  0
ENDTAB
  0
TABLE
  2
UCS
  5
7
330
0
100
AcDbSymbolTable
 70
     0
  0
ENDTAB
  0
TABLE
  2
APPID
  5
9
330
0
100
AcDbSymbolTable
 70
   394
  0
APPID
  5
12
330
9
100
AcDbSymbolTableRecord
100
AcDbRegAppTableRecord
  2
ACAD
 70
     0
  0
APPID
  5
30
330
9
100
AcDbSymbolTableRecord
100
AcDbRegAppTableRecord
  2
MCAD_NO_VIS
 70
     0
  0
APPID
  5
31
330
9
100
AcDbSymbolTableRecord
100
AcDbRegAppTableRecord
  2
ACAD_TEMP_GRAPHIC
 70
     0
  0
APPID
  5
44
330
9
100
AcDbSymbolTableRecord
100
AcDbRegAppTableRecord
  2
ACATTRIBSERVICES
 70
     0
  0
APPID
  5
F6
330
9
100
AcDbSymbolTableRecord
100
AcDbRegAppTableRecord
  2
AD_DRAW
 70
     0
  0
APPID
  5
114
330
9
100
AcDbSymbolTableRecord
100
AcDbRegAppTableRecord
  2
DESIGNERASSEMBLIES
 70
     0
  0
APPID
  5
118
330
9
100
AcDbSymbolTableRecord
100
AcDbRegAppTableRecord
  2
ACADM_DIM_EDIT
 70
     0
  0
APPID
  5
119
330
9
100
AcDbSymbolTableRecord
100
AcDbRegAppTableRecord
  2
AMDT_DM_ADJ
 70
     0
  0
APPID
  5
1AF
330
9
100
AcDbSymbolTableRecord
100
AcDbRegAppTableRecord
  2
ACAD_DSTYLE_DIMARC_LENGTH_SYMBOL
 70
     0
  0
APPID
  5
1B0
330
9
100
AcDbSymbolTableRecord
100
AcDbRegAppTableRecord
  2
ACAD_DSTYLE_DIMJOGGED_JOGANGLE_SYMBOL
 70
     0
  0
APPID
  5
2D7
330
9
100
AcDbSymbolTableRecord
100
AcDbRegAppTableRecord
  2
ACAD_MLEADERVER
 70
     0
  0
APPID
  5
355
330
9
100
AcDbSymbolTableRecord
100
AcDbRegAppTableRecord
  2
AcadAnnoPO
 70
     0
  0
APPID
  5
428
330
9
100
AcDbSymbolTableRecord
100
AcDbRegAppTableRecord
  2
ACAD_DSTYLE_DIMTEXT_FILL
 70
     0
  0
APPID
  5
429
330
9
100
AcDbSymbolTableRecord
100
AcDbRegAppTableRecord
  2
GENIUS_GENSCREG_15
 70
     0
  0
APPID
  5
42A
330
9
100
AcDbSymbolTableRecord
100
AcDbRegAppTableRecord
  2
GENIUS_GENOBJ-N-SDF_13
 70
     0
  0
APPID
  5
42B
330
9
100
AcDbSymbolTableRecord
100
AcDbRegAppTableRecord
  2
GENIUS_GENODEF_13
 70
     0
  0
APPID
  5
42C
330
9
100
AcDbSymbolTableRecord
100
AcDbRegAppTableRecord
  2
ACAD_EXEMPT_FROM_CAD_STANDARDS
 70
     0
  0
APPID
  5
42D
330
9
100
AcDbSymbolTableRecord
100
AcDbRegAppTableRecord
  2
AcAecLayerStandard
 70
     0
  0
APPID
  5
42E
330
9
100
AcDbSymbolTableRecord
100
AcDbRegAppTableRecord
  2
GENIUS_GENOBJ-N-CEN_13
 70
     0
  0
APPID
  5
42F
330
9
100
AcDbSymbolTableRecord
100
AcDbRegAppTableRecord
  2
GENIUS_GENCEN_19
 70
     0
  0
APPID
  5
430
330
9
100
AcDbSymbolTableRecord
100
AcDbRegAppTableRecord
  2
ACAD_DSTYLE_DIMINSPECT
 70
     0
  0
APPID
  5
431
330
9
100
AcDbSymbolTableRecord
100
AcDbRegAppTableRecord
  2
GENIUS_AMGTXT_16
 70
     0
  0
APPID
  5
432
330
9
100
AcDbSymbolTableRecord
100
AcDbRegAppTableRecord
  2
GENIUS_GENFIL_13
 70
     0
  0
APPID
  5
433
330
9
100
AcDbSymbolTableRecord
100
AcDbRegAppTableRecord
  2
GENIUS_GENOLIS_13
 70
     0
  0
APPID
  5
434
330
9
100
AcDbSymbolTableRecord
100
AcDbRegAppTableRecord
  2
GENIUS_GENOBJ-N-CHA_13
 70
     0
  0
APPID
  5
435
330
9
100
AcDbSymbolTableRecord
100
AcDbRegAppTableRecord
  2
GENIUS_GENOENT_13
 70
     0
  0
APPID
  5
436
330
9
100
AcDbSymbolTableRecord
100
AcDbRegAppTableRecord
  2
GENIUS_GENOREF_13
 70
     0
  0
APPID
  5
437
330
9
100
AcDbSymbolTableRecord
100
AcDbRegAppTableRecord
  2
GENIUS_GENOBJ-N-FIL_13
 70
     0
  0
APPID
  5
438
330
9
100
AcDbSymbolTableRecord
100
AcDbRegAppTableRecord
  2
GEVID1208829536
 70
     0
  0
APPID
  5
439
330
9
100
AcDbSymbolTableRecord
100
AcDbRegAppTableRecord
  2
GEVDC
 70
     0
  0
APPID
  5
43A
330
9
100
AcDbSymbolTableRecord
100
AcDbRegAppTableRecord
  2
GEVRADREF
 70
     0
  0
APPID
  5
43B
330
9
100
AcDbSymbolTableRecord
100
AcDbRegAppTableRecord
  2
GENIUS_GENBH_13
 70
     0
  0
APPID
  5
43C
330
9
100
AcDbSymbolTableRecord
100
AcDbRegAppTableRecord
  2
GENIUS_GENOBJ-NBEHI-BHF_13
 70
     0
  0
APPID
  5
43D
330
9
100
AcDbSymbolTableRecord
100
AcDbRegAppTableRecord
  2
GENIUS_GENOBJ-NBEHI-BHB_13
 70
     0
  0
APPID
  5
43E
330
9
100
AcDbSymbolTableRecord
100
AcDbRegAppTableRecord
  2
GEVID1208829537
 70
     0
  0
APPID
  5
43F
330
9
100
AcDbSymbolTableRecord
100
AcDbRegAppTableRecord
  2
ACAD_DSTYLE_DIMJAG
 70
     0
  0
APPID
  5
440
330
9
100
AcDbSymbolTableRecord
100
AcDbRegAppTableRecord
  2
ACAD_DSTYLE_DIMTALN
 70
     0
  0
APPID
  5
441
330
9
100
AcDbSymbolTableRecord
100
AcDbRegAppTableRecord
  2
AMG_2DHIDE
 70
     0
  0
APPID
  5
442
330
9
100
AcDbSymbolTableRecord
100
AcDbRegAppTableRecord
  2
AMG_2DSTRUCT_BTR
 70
     0
  0
APPID
  5
443
330
9
100
AcDbSymbolTableRecord
100
AcDbRegAppTableRecord
  2
GEVID1208845772
 70
     0
  0
APPID
  5
444
330
9
100
AcDbSymbolTableRecord
100
AcDbRegAppTableRecord
  2
GEVID1208845773
 70
     0
  0
APPID
  5
445
330
9
100
AcDbSymbolTableRecord
100
AcDbRegAppTableRecord
  2
ACADM_2DVIEW_IGN_NOTIFY
 70
     0
  0
APPID
  5
446
330
9
100
AcDbSymbolTableRecord
100
AcDbRegAppTableRecord
  2
GEVID1208845774
 70
     0
  0
APPID
  5
447
330
9
100
AcDbSymbolTableRecord
100
AcDbRegAppTableRecord
  2
GEVID1208845775
 70
     0
  0
APPID
  5
448
330
9
100
AcDbSymbolTableRecord
100
AcDbRegAppTableRecord
  2
GEVID1208845776
 70
     0
  0
APPID
  5
449
330
9
100
AcDbSymbolTableRecord
100
AcDbRegAppTableRecord
  2
GEVID1208845777
 70
     0
  0
APPID
  5
44A
330
9
100
AcDbSymbolTableRecord
100
AcDbRegAppTableRecord
  2
GEVCON
 70
     0
  0
APPID
  5
44B
330
9
100
AcDbSymbolTableRecord
100
AcDbRegAppTableRecord
  2
GENIUS_GENOBJ-F-SCPASSM_13
 70
     0
  0
APPID
  5
44C
330
9
100
AcDbSymbolTableRecord
100
AcDbRegAppTableRecord
  2
GEVID1208845778
 70
     0
  0
APPID
  5
44D
330
9
100
AcDbSymbolTableRecord
100
AcDbRegAppTableRecord
  2
GEVID1208845779
 70
     0
  0
APPID
  5
44E
330
9
100
AcDbSymbolTableRecord
100
AcDbRegAppTableRecord
  2
GEVID1208845780
 70
     0
  0
APPID
  5
44F
330
9
100
AcDbSymbolTableRecord
100
AcDbRegAppTableRecord
  2
GEVID1208845781
 70
     0
  0
APPID
  5
450
330
9
100
AcDbSymbolTableRecord
100
AcDbRegAppTableRecord
  2
GEVID1208845782
 70
     0
  0
APPID
  5
451
330
9
100
AcDbSymbolTableRecord
100
AcDbRegAppTableRecord
  2
GEVID1208845783
 70
     0
  0
APPID
  5
452
330
9
100
AcDbSymbolTableRecord
100
AcDbRegAppTableRecord
  2
GEVID1208845784
 70
     0
  0
APPID
  5
453
330
9
100
AcDbSymbolTableRecord
100
AcDbRegAppTableRecord
  2
GEVID1208845785
 70
     0
  0
APPID
  5
454
330
9
100
AcDbSymbolTableRecord
100
AcDbRegAppTableRecord
  2
GEVID1208845787
 70
     0
  0
APPID
  5
455
330
9
100
AcDbSymbolTableRecord
100
AcDbRegAppTableRecord
  2
GEVID1208845788
 70
     0
  0
APPID
  5
456
330
9
100
AcDbSymbolTableRecord
100
AcDbRegAppTableRecord
  2
GEVID1208845789
 70
     0
  0
APPID
  5
457
330
9
100
AcDbSymbolTableRecord
100
AcDbRegAppTableRecord
  2
GEVID1208845790
 70
     0
  0
APPID
  5
458
330
9
100
AcDbSymbolTableRecord
100
AcDbRegAppTableRecord
  2
GEVID1208845791
 70
     0
  0
APPID
  5
459
330
9
100
AcDbSymbolTableRecord
100
AcDbRegAppTableRecord
  2
GEVID1208845792
 70
     0
  0
APPID
  5
45A
330
9
100
AcDbSymbolTableRecord
100
AcDbRegAppTableRecord
  2
GEVID1208845793
 70
     0
  0
APPID
  5
45B
330
9
100
AcDbSymbolTableRecord
100
AcDbRegAppTableRecord
  2
GEVID1208845794
 70
     0
  0
APPID
  5
45C
330
9
100
AcDbSymbolTableRecord
100
AcDbRegAppTableRecord
  2
GEVID1208845795
 70
     0
  0
APPID
  5
45D
330
9
100
AcDbSymbolTableRecord
100
AcDbRegAppTableRecord
  2
GEVID1208845796
 70
     0
  0
APPID
  5
45E
330
9
100
AcDbSymbolTableRecord
100
AcDbRegAppTableRecord
  2
GEVID1208845797
 70
     0
  0
APPID
  5
45F
330
9
100
AcDbSymbolTableRecord
100
AcDbRegAppTableRecord
  2
GEVID1208845798
 70
     0
  0
APPID
  5
460
330
9
100
AcDbSymbolTableRecord
100
AcDbRegAppTableRecord
  2
GEVID1208845799
 70
     0
  0
APPID
  5
461
330
9
100
AcDbSymbolTableRecord
100
AcDbRegAppTableRecord
  2
GEVID1208845800
 70
     0
  0
APPID
  5
462
330
9
100
AcDbSymbolTableRecord
100
AcDbRegAppTableRecord
  2
GEVID1208845801
 70
     0
  0
APPID
  5
463
330
9
100
AcDbSymbolTableRecord
100
AcDbRegAppTableRecord
  2
GEVID1208845802
 70
     0
  0
APPID
  5
464
330
9
100
AcDbSymbolTableRecord
100
AcDbRegAppTableRecord
  2
GENIUS_GENOBJ-N-DIM_13
 70
     0
  0
APPID
  5
465
330
9
100
AcDbSymbolTableRecord
100
AcDbRegAppTableRecord
  2
GENIUS_GENDIM_13
 70
     0
  0
APPID
  5
466
330
9
100
AcDbSymbolTableRecord
100
AcDbRegAppTableRecord
  2
GENIUS_GENDIMSH_14
 70
     0
  0
APPID
  5
467
330
9
100
AcDbSymbolTableRecord
100
AcDbRegAppTableRecord
  2
GEVID1208845803
 70
     0
  0
APPID
  5
468
330
9
100
AcDbSymbolTableRecord
100
AcDbRegAppTableRecord
  2
GEVID1208845804
 70
     0
  0
APPID
  5
469
330
9
100
AcDbSymbolTableRecord
100
AcDbRegAppTableRecord
  2
GEVID1208845805
 70
     0
  0
APPID
  5
46A
330
9
100
AcDbSymbolTableRecord
100
AcDbRegAppTableRecord
  2
GEVID1208845806
 70
     0
  0
APPID
  5
46B
330
9
100
AcDbSymbolTableRecord
100
AcDbRegAppTableRecord
  2
GEVID1208845807
 70
     0
  0
APPID
  5
46C
330
9
100
AcDbSymbolTableRecord
100
AcDbRegAppTableRecord
  2
GEVID1208845808
 70
     0
  0
APPID
  5
46D
330
9
100
AcDbSymbolTableRecord
100
AcDbRegAppTableRecord
  2
GEVID1208845809
 70
     0
  0
APPID
  5
46E
330
9
100
AcDbSymbolTableRecord
100
AcDbRegAppTableRecord
  2
GEVID1208845810
 70
     0
  0
APPID
  5
46F
330
9
100
AcDbSymbolTableRecord
100
AcDbRegAppTableRecord
  2
GEVID1208845811
 70
     0
  0
APPID
  5
470
330
9
100
AcDbSymbolTableRecord
100
AcDbRegAppTableRecord
  2
GEVID1208845813
 70
     0
  0
APPID
  5
471
330
9
100
AcDbSymbolTableRecord
100
AcDbRegAppTableRecord
  2
GEVID1208845814
 70
     0
  0
APPID
  5
472
330
9
100
AcDbSymbolTableRecord
100
AcDbRegAppTableRecord
  2
GEVID1208845815
 70
     0
  0
APPID
  5
473
330
9
100
AcDbSymbolTableRecord
100
AcDbRegAppTableRecord
  2
GEVID1208845816
 70
     0
  0
APPID
  5
474
330
9
100
AcDbSymbolTableRecord
100
AcDbRegAppTableRecord
  2
GEVID1208845817
 70
     0
  0
APPID
  5
475
330
9
100
AcDbSymbolTableRecord
100
AcDbRegAppTableRecord
  2
GEVID1208845818
 70
     0
  0
APPID
  5
476
330
9
100
AcDbSymbolTableRecord
100
AcDbRegAppTableRecord
  2
GEVID1208845819
 70
     0
  0
APPID
  5
477
330
9
100
AcDbSymbolTableRecord
100
AcDbRegAppTableRecord
  2
GEVID1208845820
 70
     0
  0
APPID
  5
478
330
9
100
AcDbSymbolTableRecord
100
AcDbRegAppTableRecord
  2
GENIUS_GENOBJ-F-SHCL_13
 70
     0
  0
APPID
  5
479
330
9
100
AcDbSymbolTableRecord
100
AcDbRegAppTableRecord
  2
GENIUS_GEFMSH_13
 70
     0
  0
APPID
  5
47A
330
9
100
AcDbSymbolTableRecord
100
AcDbRegAppTableRecord
  2
GENIUS_GENOBJ-F-SHCA_13
 70
     0
  0
APPID
  5
47B
330
9
100
AcDbSymbolTableRecord
100
AcDbRegAppTableRecord
  2
GENIUS_GEFSH_13
 70
     0
  0
APPID
  5
47C
330
9
100
AcDbSymbolTableRecord
100
AcDbRegAppTableRecord
  2
GENIUS_GEFSHP_13
 70
     0
  0
APPID
  5
47D
330
9
100
AcDbSymbolTableRecord
100
AcDbRegAppTableRecord
  2
GENIUS_GEFSHP0_13
 70
     0
  0
APPID
  5
47E
330
9
100
AcDbSymbolTableRecord
100
AcDbRegAppTableRecord
  2
GENIUS_GEFSH0_13
 70
     0
  0
APPID
  5
47F
330
9
100
AcDbSymbolTableRecord
100
AcDbRegAppTableRecord
  2
GENIUS_GEFSHP1_13
 70
     0
  0
APPID
  5
480
330
9
100
AcDbSymbolTableRecord
100
AcDbRegAppTableRecord
  2
GENIUS_GEFSH1_13
 70
     0
  0
APPID
  5
481
330
9
100
AcDbSymbolTableRecord
100
AcDbRegAppTableRecord
  2
GEVID1208866337
 70
     0
  0
APPID
  5
482
330
9
100
AcDbSymbolTableRecord
100
AcDbRegAppTableRecord
  2
GEVID1208866338
 70
     0
  0
APPID
  5
483
330
9
100
AcDbSymbolTableRecord
100
AcDbRegAppTableRecord
  2
GEVID1208866339
 70
     0
  0
APPID
  5
484
330
9
100
AcDbSymbolTableRecord
100
AcDbRegAppTableRecord
  2
GEVID1208866340
 70
     0
  0
APPID
  5
485
330
9
100
AcDbSymbolTableRecord
100
AcDbRegAppTableRecord
  2
GEVID1208866341
 70
     0
  0
APPID
  5
486
330
9
100
AcDbSymbolTableRecord
100
AcDbRegAppTableRecord
  2
ACAD_PSEXT
 70
     0
  0
APPID
  5
487
330
9
100
AcDbSymbolTableRecord
100
AcDbRegAppTableRecord
  2
GEVID1208866342
 70
     0
  0
APPID
  5
488
330
9
100
AcDbSymbolTableRecord
100
AcDbRegAppTableRecord
  2
GEVID1208913836
 70
     0
  0
APPID
  5
489
330
9
100
AcDbSymbolTableRecord
100
AcDbRegAppTableRecord
  2
GEVID1208913837
 70
     0
  0
APPID
  5
48A
330
9
100
AcDbSymbolTableRecord
100
AcDbRegAppTableRecord
  2
GEVID1208913838
 70
     0
  0
APPID
  5
48B
330
9
100
AcDbSymbolTableRecord
100
AcDbRegAppTableRecord
  2
GEVID1208913839
 70
     0
  0
APPID
  5
48C
330
9
100
AcDbSymbolTableRecord
100
AcDbRegAppTableRecord
  2
GENIUS_GENDTOL_13
 70
     0
  0
APPID
  5
48D
330
9
100
AcDbSymbolTableRecord
100
AcDbRegAppTableRecord
  2
GEVID1208928889
 70
     0
  0
APPID
  5
48E
330
9
100
AcDbSymbolTableRecord
100
AcDbRegAppTableRecord
  2
GEVID1208928890
 70
     0
  0
APPID
  5
48F
330
9
100
AcDbSymbolTableRecord
100
AcDbRegAppTableRecord
  2
GEVID1208928891
 70
     0
  0
APPID
  5
490
330
9
100
AcDbSymbolTableRecord
100
AcDbRegAppTableRecord
  2
GEVID1208928892
 70
     0
  0
APPID
  5
491
330
9
100
AcDbSymbolTableRecord
100
AcDbRegAppTableRecord
  2
GEVID1208933827
 70
     0
  0
APPID
  5
492
330
9
100
AcDbSymbolTableRecord
100
AcDbRegAppTableRecord
  2
GEVID1208933829
 70
     0
  0
APPID
  5
493
330
9
100
AcDbSymbolTableRecord
100
AcDbRegAppTableRecord
  2
GEVID1208933830
 70
     0
  0
APPID
  5
494
330
9
100
AcDbSymbolTableRecord
100
AcDbRegAppTableRecord
  2
GEVID1208933831
 70
     0
  0
APPID
  5
495
330
9
100
AcDbSymbolTableRecord
100
AcDbRegAppTableRecord
  2
GEVID1208933832
 70
     0
  0
APPID
  5
496
330
9
100
AcDbSymbolTableRecord
100
AcDbRegAppTableRecord
  2
GEVID1208933833
 70
     0
  0
APPID
  5
497
330
9
100
AcDbSymbolTableRecord
100
AcDbRegAppTableRecord
  2
GEVID1208933834
 70
     0
  0
APPID
  5
498
330
9
100
AcDbSymbolTableRecord
100
AcDbRegAppTableRecord
  2
GEVID1208933835
 70
     0
  0
APPID
  5
499
330
9
100
AcDbSymbolTableRecord
100
AcDbRegAppTableRecord
  2
GEVID1208933836
 70
     0
  0
APPID
  5
49A
330
9
100
AcDbSymbolTableRecord
100
AcDbRegAppTableRecord
  2
GEVID1208933837
 70
     0
  0
APPID
  5
49B
330
9
100
AcDbSymbolTableRecord
100
AcDbRegAppTableRecord
  2
GEVID1208933838
 70
     0
  0
APPID
  5
49C
330
9
100
AcDbSymbolTableRecord
100
AcDbRegAppTableRecord
  2
GEVID1208933840
 70
     0
  0
APPID
  5
49D
330
9
100
AcDbSymbolTableRecord
100
AcDbRegAppTableRecord
  2
GEVID1208933842
 70
     0
  0
APPID
  5
49E
330
9
100
AcDbSymbolTableRecord
100
AcDbRegAppTableRecord
  2
GEVID1208933843
 70
     0
  0
APPID
  5
49F
330
9
100
AcDbSymbolTableRecord
100
AcDbRegAppTableRecord
  2
GEVID1208933844
 70
     0
  0
APPID
  5
4A0
330
9
100
AcDbSymbolTableRecord
100
AcDbRegAppTableRecord
  2
GEVID1208933845
 70
     0
  0
APPID
  5
4A1
330
9
100
AcDbSymbolTableRecord
100
AcDbRegAppTableRecord
  2
GEVID1208933846
 70
     0
  0
APPID
  5
4A2
330
9
100
AcDbSymbolTableRecord
100
AcDbRegAppTableRecord
  2
GEVID1208933847
 70
     0
  0
APPID
  5
4A3
330
9
100
AcDbSymbolTableRecord
100
AcDbRegAppTableRecord
  2
GEVID1208933848
 70
     0
  0
APPID
  5
4A4
330
9
100
AcDbSymbolTableRecord
100
AcDbRegAppTableRecord
  2
GEVID1208933849
 70
     0
  0
APPID
  5
4A5
330
9
100
AcDbSymbolTableRecord
100
AcDbRegAppTableRecord
  2
GEVID1208933850
 70
     0
  0
APPID
  5
4A6
330
9
100
AcDbSymbolTableRecord
100
AcDbRegAppTableRecord
  2
GEVID1208933851
 70
     0
  0
APPID
  5
4A7
330
9
100
AcDbSymbolTableRecord
100
AcDbRegAppTableRecord
  2
GEVID1208933852
 70
     0
  0
APPID
  5
4A8
330
9
100
AcDbSymbolTableRecord
100
AcDbRegAppTableRecord
  2
GEVID1208933853
 70
     0
  0
APPID
  5
4A9
330
9
100
AcDbSymbolTableRecord
100
AcDbRegAppTableRecord
  2
GEVID1208933854
 70
     0
  0
APPID
  5
4AA
330
9
100
AcDbSymbolTableRecord
100
AcDbRegAppTableRecord
  2
GEVID1208933855
 70
     0
  0
APPID
  5
4AB
330
9
100
AcDbSymbolTableRecord
100
AcDbRegAppTableRecord
  2
GEVID1208933856
 70
     0
  0
APPID
  5
4AC
330
9
100
AcDbSymbolTableRecord
100
AcDbRegAppTableRecord
  2
GEVID1208933857
 70
     0
  0
APPID
  5
4AD
330
9
100
AcDbSymbolTableRecord
100
AcDbRegAppTableRecord
  2
GEVID1208933858
 70
     0
  0
APPID
  5
4AE
330
9
100
AcDbSymbolTableRecord
100
AcDbRegAppTableRecord
  2
GEVID1208933859
 70
     0
  0
APPID
  5
4AF
330
9
100
AcDbSymbolTableRecord
100
AcDbRegAppTableRecord
  2
GEVID1208933860
 70
     0
  0
APPID
  5
4B0
330
9
100
AcDbSymbolTableRecord
100
AcDbRegAppTableRecord
  2
GEVID1208933861
 70
     0
  0
APPID
  5
4B1
330
9
100
AcDbSymbolTableRecord
100
AcDbRegAppTableRecord
  2
GEVID1208933862
 70
     0
  0
APPID
  5
4B2
330
9
100
AcDbSymbolTableRecord
100
AcDbRegAppTableRecord
  2
GEVID1208933863
 70
     0
  0
APPID
  5
4B3
330
9
100
AcDbSymbolTableRecord
100
AcDbRegAppTableRecord
  2
GEVID1208933864
 70
     0
  0
APPID
  5
4B4
330
9
100
AcDbSymbolTableRecord
100
AcDbRegAppTableRecord
  2
GEVID1208933865
 70
     0
  0
APPID
  5
4B5
330
9
100
AcDbSymbolTableRecord
100
AcDbRegAppTableRecord
  2
GEVID1208933866
 70
     0
  0
APPID
  5
4B6
330
9
100
AcDbSymbolTableRecord
100
AcDbRegAppTableRecord
  2
GEVID1208933867
 70
     0
  0
APPID
  5
4B7
330
9
100
AcDbSymbolTableRecord
100
AcDbRegAppTableRecord
  2
GEVID1208933868
 70
     0
  0
APPID
  5
4B8
330
9
100
AcDbSymbolTableRecord
100
AcDbRegAppTableRecord
  2
GEVID1208933869
 70
     0
  0
APPID
  5
4B9
330
9
100
AcDbSymbolTableRecord
100
AcDbRegAppTableRecord
  2
GEVID1208933870
 70
     0
  0
APPID
  5
4BA
330
9
100
AcDbSymbolTableRecord
100
AcDbRegAppTableRecord
  2
GEVID1208933871
 70
     0
  0
APPID
  5
4BB
330
9
100
AcDbSymbolTableRecord
100
AcDbRegAppTableRecord
  2
GEVID1208933872
 70
     0
  0
APPID
  5
4BC
330
9
100
AcDbSymbolTableRecord
100
AcDbRegAppTableRecord
  2
GEVID1208933873
 70
     0
  0
APPID
  5
4BD
330
9
100
AcDbSymbolTableRecord
100
AcDbRegAppTableRecord
  2
GEVID1208933874
 70
     0
  0
APPID
  5
4BE
330
9
100
AcDbSymbolTableRecord
100
AcDbRegAppTableRecord
  2
GEVID1208933875
 70
     0
  0
APPID
  5
4BF
330
9
100
AcDbSymbolTableRecord
100
AcDbRegAppTableRecord
  2
GEVID1208933876
 70
     0
  0
APPID
  5
4C0
330
9
100
AcDbSymbolTableRecord
100
AcDbRegAppTableRecord
  2
ACAD_DSTYLE_DIMRADIAL_EXTENSION
 70
     0
  0
APPID
  5
4C1
330
9
100
AcDbSymbolTableRecord
100
AcDbRegAppTableRecord
  2
GEVID1208999100
 70
     0
  0
APPID
  5
4C2
330
9
100
AcDbSymbolTableRecord
100
AcDbRegAppTableRecord
  2
GEVID1208999101
 70
     0
  0
APPID
  5
4C3
330
9
100
AcDbSymbolTableRecord
100
AcDbRegAppTableRecord
  2
GEVID1208999102
 70
     0
  0
APPID
  5
4C4
330
9
100
AcDbSymbolTableRecord
100
AcDbRegAppTableRecord
  2
GEVID1208999103
 70
     0
  0
APPID
  5
4C5
330
9
100
AcDbSymbolTableRecord
100
AcDbRegAppTableRecord
  2
GEVID1208999105
 70
     0
  0
APPID
  5
4C6
330
9
100
AcDbSymbolTableRecord
100
AcDbRegAppTableRecord
  2
GEVID1208999106
 70
     0
  0
APPID
  5
4C7
330
9
100
AcDbSymbolTableRecord
100
AcDbRegAppTableRecord
  2
GEVID1208999108
 70
     0
  0
APPID
  5
4C8
330
9
100
AcDbSymbolTableRecord
100
AcDbRegAppTableRecord
  2
GEVID1208999109
 70
     0
  0
APPID
  5
4C9
330
9
100
AcDbSymbolTableRecord
100
AcDbRegAppTableRecord
  2
GEVID1208999110
 70
     0
  0
APPID
  5
4CA
330
9
100
AcDbSymbolTableRecord
100
AcDbRegAppTableRecord
  2
GEVID1208999111
 70
     0
  0
APPID
  5
4CB
330
9
100
AcDbSymbolTableRecord
100
AcDbRegAppTableRecord
  2
GEVID1208999112
 70
     0
  0
APPID
  5
4CC
330
9
100
AcDbSymbolTableRecord
100
AcDbRegAppTableRecord
  2
GEVID1208999113
 70
     0
  0
APPID
  5
4CD
330
9
100
AcDbSymbolTableRecord
100
AcDbRegAppTableRecord
  2
GEVID1208999114
 70
     0
  0
APPID
  5
4CE
330
9
100
AcDbSymbolTableRecord
100
AcDbRegAppTableRecord
  2
GEVID1210218799
 70
     0
  0
APPID
  5
4CF
330
9
100
AcDbSymbolTableRecord
100
AcDbRegAppTableRecord
  2
GEVID1210218800
 70
     0
  0
APPID
  5
4D0
330
9
100
AcDbSymbolTableRecord
100
AcDbRegAppTableRecord
  2
GENIUS_GEFWELD_13
 70
     0
  0
APPID
  5
4D1
330
9
100
AcDbSymbolTableRecord
100
AcDbRegAppTableRecord
  2
GENIUS_GENOBJ-F-WELS_13
 70
     0
  0
APPID
  5
4D2
330
9
100
AcDbSymbolTableRecord
100
AcDbRegAppTableRecord
  2
AcadAnnotative
 70
     0
  0
APPID
  5
4D3
330
9
100
AcDbSymbolTableRecord
100
AcDbRegAppTableRecord
  2
GEVID1210145339
 70
     0
  0
APPID
  5
4D4
330
9
100
AcDbSymbolTableRecord
100
AcDbRegAppTableRecord
  2
ACAD_DSTYLE_DIMBREAK
 70
     0
  0
APPID
  5
4D5
330
9
100
AcDbSymbolTableRecord
100
AcDbRegAppTableRecord
  2
GEVID1210145340
 70
     0
  0
APPID
  5
4D6
330
9
100
AcDbSymbolTableRecord
100
AcDbRegAppTableRecord
  2
GEVID1210145341
 70
     0
  0
APPID
  5
4D7
330
9
100
AcDbSymbolTableRecord
100
AcDbRegAppTableRecord
  2
GEVID1210145342
 70
     0
  0
APPID
  5
4D8
330
9
100
AcDbSymbolTableRecord
100
AcDbRegAppTableRecord
  2
GEVID1210145343
 70
     0
  0
APPID
  5
4D9
330
9
100
AcDbSymbolTableRecord
100
AcDbRegAppTableRecord
  2
GEVID1210145344
 70
     0
  0
APPID
  5
4DA
330
9
100
AcDbSymbolTableRecord
100
AcDbRegAppTableRecord
  2
GEVID1210145345
 70
     0
  0
APPID
  5
4DB
330
9
100
AcDbSymbolTableRecord
100
AcDbRegAppTableRecord
  2
GEVID1210152816
 70
     0
  0
APPID
  5
4DC
330
9
100
AcDbSymbolTableRecord
100
AcDbRegAppTableRecord
  2
GEVID1210153850
 70
     0
  0
APPID
  5
4DD
330
9
100
AcDbSymbolTableRecord
100
AcDbRegAppTableRecord
  2
GEVID1210153851
 70
     0
  0
APPID
  5
4DE
330
9
100
AcDbSymbolTableRecord
100
AcDbRegAppTableRecord
  2
GEVID1210153852
 70
     0
  0
APPID
  5
4DF
330
9
100
AcDbSymbolTableRecord
100
AcDbRegAppTableRecord
  2
GEVID1210549898
 70
     0
  0
APPID
  5
4E0
330
9
100
AcDbSymbolTableRecord
100
AcDbRegAppTableRecord
  2
GEVID1210549899
 70
     0
  0
APPID
  5
4E1
330
9
100
AcDbSymbolTableRecord
100
AcDbRegAppTableRecord
  2
GEVID1210549900
 70
     0
  0
APPID
  5
4E2
330
9
100
AcDbSymbolTableRecord
100
AcDbRegAppTableRecord
  2
GEVID1210549901
 70
     0
  0
APPID
  5
4E3
330
9
100
AcDbSymbolTableRecord
100
AcDbRegAppTableRecord
  2
GEVID1210549902
 70
     0
  0
APPID
  5
4E4
330
9
100
AcDbSymbolTableRecord
100
AcDbRegAppTableRecord
  2
GEVID1210549903
 70
     0
  0
APPID
  5
4E5
330
9
100
AcDbSymbolTableRecord
100
AcDbRegAppTableRecord
  2
GEVID1210549904
 70
     0
  0
APPID
  5
4E6
330
9
100
AcDbSymbolTableRecord
100
AcDbRegAppTableRecord
  2
GEVID1210549905
 70
     0
  0
APPID
  5
4E7
330
9
100
AcDbSymbolTableRecord
100
AcDbRegAppTableRecord
  2
GEVID1210549906
 70
     0
  0
APPID
  5
4E8
330
9
100
AcDbSymbolTableRecord
100
AcDbRegAppTableRecord
  2
GEVID1210549907
 70
     0
  0
APPID
  5
4E9
330
9
100
AcDbSymbolTableRecord
100
AcDbRegAppTableRecord
  2
GEVID1210549908
 70
     0
  0
APPID
  5
4EA
330
9
100
AcDbSymbolTableRecord
100
AcDbRegAppTableRecord
  2
GEVID1210549909
 70
     0
  0
APPID
  5
4EB
330
9
100
AcDbSymbolTableRecord
100
AcDbRegAppTableRecord
  2
GEVID1210549910
 70
     0
  0
APPID
  5
4EC
330
9
100
AcDbSymbolTableRecord
100
AcDbRegAppTableRecord
  2
GEVID1210549911
 70
     0
  0
APPID
  5
4ED
330
9
100
AcDbSymbolTableRecord
100
AcDbRegAppTableRecord
  2
GEVID1210549912
 70
     0
  0
APPID
  5
4EE
330
9
100
AcDbSymbolTableRecord
100
AcDbRegAppTableRecord
  2
GEVID1210549913
 70
     0
  0
APPID
  5
4EF
330
9
100
AcDbSymbolTableRecord
100
AcDbRegAppTableRecord
  2
GEVID1210549914
 70
     0
  0
APPID
  5
4F0
330
9
100
AcDbSymbolTableRecord
100
AcDbRegAppTableRecord
  2
GEVID1210549915
 70
     0
  0
APPID
  5
4F1
330
9
100
AcDbSymbolTableRecord
100
AcDbRegAppTableRecord
  2
GEVID1210549916
 70
     0
  0
APPID
  5
4F2
330
9
100
AcDbSymbolTableRecord
100
AcDbRegAppTableRecord
  2
GEVID1210549917
 70
     0
  0
APPID
  5
4F3
330
9
100
AcDbSymbolTableRecord
100
AcDbRegAppTableRecord
  2
GENIUS_GENOBJ-N-CRS_13
 70
     0
  0
APPID
  5
4F4
330
9
100
AcDbSymbolTableRecord
100
AcDbRegAppTableRecord
  2
GEVID1210549918
 70
     0
  0
APPID
  5
4F5
330
9
100
AcDbSymbolTableRecord
100
AcDbRegAppTableRecord
  2
GENIUS_GENOBJ-N-CRC_13
 70
     0
  0
APPID
  5
4F6
330
9
100
AcDbSymbolTableRecord
100
AcDbRegAppTableRecord
  2
GENIUS_GENCRC_14
 70
     0
  0
APPID
  5
4F7
330
9
100
AcDbSymbolTableRecord
100
AcDbRegAppTableRecord
  2
GEVID1210549919
 70
     0
  0
APPID
  5
4F8
330
9
100
AcDbSymbolTableRecord
100
AcDbRegAppTableRecord
  2
GEVID1210549921
 70
     0
  0
APPID
  5
4F9
330
9
100
AcDbSymbolTableRecord
100
AcDbRegAppTableRecord
  2
GEVID1210549922
 70
     0
  0
APPID
  5
4FA
330
9
100
AcDbSymbolTableRecord
100
AcDbRegAppTableRecord
  2
GEVID1210635173
 70
     0
  0
APPID
  5
4FB
330
9
100
AcDbSymbolTableRecord
100
AcDbRegAppTableRecord
  2
GEVID1210635174
 70
     0
  0
APPID
  5
4FC
330
9
100
AcDbSymbolTableRecord
100
AcDbRegAppTableRecord
  2
GEVID1210635175
 70
     0
  0
APPID
  5
4FD
330
9
100
AcDbSymbolTableRecord
100
AcDbRegAppTableRecord
  2
GEVID1210635176
 70
     0
  0
APPID
  5
4FE
330
9
100
AcDbSymbolTableRecord
100
AcDbRegAppTableRecord
  2
GEVID1210635177
 70
     0
  0
APPID
  5
4FF
330
9
100
AcDbSymbolTableRecord
100
AcDbRegAppTableRecord
  2
GEVID1210635178
 70
     0
  0
APPID
  5
500
330
9
100
AcDbSymbolTableRecord
100
AcDbRegAppTableRecord
  2
GENIUS_GENIUS_GENBHEDTMP_13
 70
     0
  0
APPID
  5
501
330
9
100
AcDbSymbolTableRecord
100
AcDbRegAppTableRecord
  2
GEVID1210635179
 70
     0
  0
APPID
  5
502
330
9
100
AcDbSymbolTableRecord
100
AcDbRegAppTableRecord
  2
GEVID1210635180
 70
     0
  0
APPID
  5
503
330
9
100
AcDbSymbolTableRecord
100
AcDbRegAppTableRecord
  2
GEVID1210635181
 70
     0
  0
APPID
  5
504
330
9
100
AcDbSymbolTableRecord
100
AcDbRegAppTableRecord
  2
GEVID1210635182
 70
     0
  0
APPID
  5
505
330
9
100
AcDbSymbolTableRecord
100
AcDbRegAppTableRecord
  2
GEVID1210635184
 70
     0
  0
APPID
  5
506
330
9
100
AcDbSymbolTableRecord
100
AcDbRegAppTableRecord
  2
GEVID1210635185
 70
     0
  0
APPID
  5
507
330
9
100
AcDbSymbolTableRecord
100
AcDbRegAppTableRecord
  2
GEVID1210635186
 70
     0
  0
APPID
  5
508
330
9
100
AcDbSymbolTableRecord
100
AcDbRegAppTableRecord
  2
GEVID1210635187
 70
     0
  0
APPID
  5
509
330
9
100
AcDbSymbolTableRecord
100
AcDbRegAppTableRecord
  2
GEVID1210635188
 70
     0
  0
APPID
  5
50A
330
9
100
AcDbSymbolTableRecord
100
AcDbRegAppTableRecord
  2
GEVID1210635189
 70
     0
  0
APPID
  5
50B
330
9
100
AcDbSymbolTableRecord
100
AcDbRegAppTableRecord
  2
GEVID1210635190
 70
     0
  0
APPID
  5
50C
330
9
100
AcDbSymbolTableRecord
100
AcDbRegAppTableRecord
  2
GENIUS_GENREC_14
 70
     0
  0
APPID
  5
50D
330
9
100
AcDbSymbolTableRecord
100
AcDbRegAppTableRecord
  2
GENIUS_GENOBJ-N-REC_13
 70
     0
  0
APPID
  5
50E
330
9
100
AcDbSymbolTableRecord
100
AcDbRegAppTableRecord
  2
GEVID1210676655
 70
     0
  0
APPID
  5
50F
330
9
100
AcDbSymbolTableRecord
100
AcDbRegAppTableRecord
  2
GEVID1210676656
 70
     0
  0
APPID
  5
510
330
9
100
AcDbSymbolTableRecord
100
AcDbRegAppTableRecord
  2
GEVID1210676657
 70
     0
  0
APPID
  5
511
330
9
100
AcDbSymbolTableRecord
100
AcDbRegAppTableRecord
  2
GEVID1210676659
 70
     0
  0
APPID
  5
512
330
9
100
AcDbSymbolTableRecord
100
AcDbRegAppTableRecord
  2
GEVID1210676660
 70
     0
  0
APPID
  5
513
330
9
100
AcDbSymbolTableRecord
100
AcDbRegAppTableRecord
  2
GEVID1210676661
 70
     0
  0
APPID
  5
514
330
9
100
AcDbSymbolTableRecord
100
AcDbRegAppTableRecord
  2
GEVID1210676662
 70
     0
  0
APPID
  5
515
330
9
100
AcDbSymbolTableRecord
100
AcDbRegAppTableRecord
  2
GEVID1210721646
 70
     0
  0
APPID
  5
516
330
9
100
AcDbSymbolTableRecord
100
AcDbRegAppTableRecord
  2
GEVID1210721647
 70
     0
  0
APPID
  5
517
330
9
100
AcDbSymbolTableRecord
100
AcDbRegAppTableRecord
  2
GEVID1210721648
 70
     0
  0
APPID
  5
518
330
9
100
AcDbSymbolTableRecord
100
AcDbRegAppTableRecord
  2
GEVID1210721649
 70
     0
  0
APPID
  5
519
330
9
100
AcDbSymbolTableRecord
100
AcDbRegAppTableRecord
  2
GEVID1210721650
 70
     0
  0
APPID
  5
51A
330
9
100
AcDbSymbolTableRecord
100
AcDbRegAppTableRecord
  2
GEVID1210721651
 70
     0
  0
APPID
  5
51B
330
9
100
AcDbSymbolTableRecord
100
AcDbRegAppTableRecord
  2
GEVID1210721652
 70
     0
  0
APPID
  5
51C
330
9
100
AcDbSymbolTableRecord
100
AcDbRegAppTableRecord
  2
GEVID1210721653
 70
     0
  0
APPID
  5
51D
330
9
100
AcDbSymbolTableRecord
100
AcDbRegAppTableRecord
  2
PE_URL
 70
     0
  0
APPID
  5
51E
330
9
100
AcDbSymbolTableRecord
100
AcDbRegAppTableRecord
  2
GEVID1210825555
 70
     0
  0
APPID
  5
51F
330
9
100
AcDbSymbolTableRecord
100
AcDbRegAppTableRecord
  2
GEVID1210825556
 70
     0
  0
APPID
  5
520
330
9
100
AcDbSymbolTableRecord
100
AcDbRegAppTableRecord
  2
GEVID1210825557
 70
     0
  0
APPID
  5
521
330
9
100
AcDbSymbolTableRecord
100
AcDbRegAppTableRecord
  2
GEVID1210825558
 70
     0
  0
APPID
  5
522
330
9
100
AcDbSymbolTableRecord
100
AcDbRegAppTableRecord
  2
GEVID1210825559
 70
     0
  0
APPID
  5
523
330
9
100
AcDbSymbolTableRecord
100
AcDbRegAppTableRecord
  2
GEVID1210825560
 70
     0
  0
APPID
  5
524
330
9
100
AcDbSymbolTableRecord
100
AcDbRegAppTableRecord
  2
GEVID1210825561
 70
     0
  0
APPID
  5
525
330
9
100
AcDbSymbolTableRecord
100
AcDbRegAppTableRecord
  2
GEVID1210825562
 70
     0
  0
APPID
  5
526
330
9
100
AcDbSymbolTableRecord
100
AcDbRegAppTableRecord
  2
GEVID1210825563
 70
     0
  0
APPID
  5
527
330
9
100
AcDbSymbolTableRecord
100
AcDbRegAppTableRecord
  2
GEVID1210825564
 70
     0
  0
APPID
  5
528
330
9
100
AcDbSymbolTableRecord
100
AcDbRegAppTableRecord
  2
GEVID1210825565
 70
     0
  0
APPID
  5
529
330
9
100
AcDbSymbolTableRecord
100
AcDbRegAppTableRecord
  2
GEVID1210825566
 70
     0
  0
APPID
  5
52A
330
9
100
AcDbSymbolTableRecord
100
AcDbRegAppTableRecord
  2
GEVID1210825567
 70
     0
  0
APPID
  5
52B
330
9
100
AcDbSymbolTableRecord
100
AcDbRegAppTableRecord
  2
GENIUS_GENOBJ-N-ZOO_13
 70
     0
  0
APPID
  5
52C
330
9
100
AcDbSymbolTableRecord
100
AcDbRegAppTableRecord
  2
GENIUS_GENZOO_17
 70
     0
  0
APPID
  5
52D
330
9
100
AcDbSymbolTableRecord
100
AcDbRegAppTableRecord
  2
ACADANNOTATIVEDECOMPOSITION
 70
     0
  0
APPID
  5
52E
330
9
100
AcDbSymbolTableRecord
100
AcDbRegAppTableRecord
  2
GENIUS_GENOBJ-N-HTC_13
 70
     0
  0
APPID
  5
52F
330
9
100
AcDbSymbolTableRecord
100
AcDbRegAppTableRecord
  2
GENIUS_GENHATCH_13
 70
     0
  0
APPID
  5
530
330
9
100
AcDbSymbolTableRecord
100
AcDbRegAppTableRecord
  2
GEVID1210896020
 70
     0
  0
APPID
  5
531
330
9
100
AcDbSymbolTableRecord
100
AcDbRegAppTableRecord
  2
GEVID1210896021
 70
     0
  0
APPID
  5
532
330
9
100
AcDbSymbolTableRecord
100
AcDbRegAppTableRecord
  2
GEVID1209083540
 70
     0
  0
APPID
  5
533
330
9
100
AcDbSymbolTableRecord
100
AcDbRegAppTableRecord
  2
GEVMK
 70
     0
  0
APPID
  5
534
330
9
100
AcDbSymbolTableRecord
100
AcDbRegAppTableRecord
  2
GEVID1209083542
 70
     0
  0
APPID
  5
535
330
9
100
AcDbSymbolTableRecord
100
AcDbRegAppTableRecord
  2
GEVID1209083543
 70
     0
  0
APPID
  5
536
330
9
100
AcDbSymbolTableRecord
100
AcDbRegAppTableRecord
  2
GEVID1209083544
 70
     0
  0
APPID
  5
537
330
9
100
AcDbSymbolTableRecord
100
AcDbRegAppTableRecord
  2
GEVID1209083545
 70
     0
  0
APPID
  5
538
330
9
100
AcDbSymbolTableRecord
100
AcDbRegAppTableRecord
  2
GEVID1209083546
 70
     0
  0
APPID
  5
539
330
9
100
AcDbSymbolTableRecord
100
AcDbRegAppTableRecord
  2
GEVID1209083547
 70
     0
  0
APPID
  5
53A
330
9
100
AcDbSymbolTableRecord
100
AcDbRegAppTableRecord
  2
GEVID1209083548
 70
     0
  0
APPID
  5
53B
330
9
100
AcDbSymbolTableRecord
100
AcDbRegAppTableRecord
  2
GEVID1209083549
 70
     0
  0
APPID
  5
53C
330
9
100
AcDbSymbolTableRecord
100
AcDbRegAppTableRecord
  2
GEVID1209083550
 70
     0
  0
APPID
  5
53D
330
9
100
AcDbSymbolTableRecord
100
AcDbRegAppTableRecord
  2
GEVID1209083551
 70
     0
  0
APPID
  5
53E
330
9
100
AcDbSymbolTableRecord
100
AcDbRegAppTableRecord
  2
GEVID1209083552
 70
     0
  0
APPID
  5
53F
330
9
100
AcDbSymbolTableRecord
100
AcDbRegAppTableRecord
  2
GEVID1209083553
 70
     0
  0
APPID
  5
540
330
9
100
AcDbSymbolTableRecord
100
AcDbRegAppTableRecord
  2
GEVID1210896022
 70
     0
  0
APPID
  5
541
330
9
100
AcDbSymbolTableRecord
100
AcDbRegAppTableRecord
  2
GEVID1211508364
 70
     0
  0
APPID
  5
542
330
9
100
AcDbSymbolTableRecord
100
AcDbRegAppTableRecord
  2
GEVID1211414908
 70
     0
  0
APPID
  5
543
330
9
100
AcDbSymbolTableRecord
100
AcDbRegAppTableRecord
  2
GEVID1211414909
 70
     0
  0
APPID
  5
544
330
9
100
AcDbSymbolTableRecord
100
AcDbRegAppTableRecord
  2
GEVID1211508359
 70
     0
  0
APPID
  5
545
330
9
100
AcDbSymbolTableRecord
100
AcDbRegAppTableRecord
  2
GEVID1211508360
 70
     0
  0
APPID
  5
546
330
9
100
AcDbSymbolTableRecord
100
AcDbRegAppTableRecord
  2
GEVID1211508361
 70
     0
  0
APPID
  5
547
330
9
100
AcDbSymbolTableRecord
100
AcDbRegAppTableRecord
  2
GEVID1211508362
 70
     0
  0
APPID
  5
548
330
9
100
AcDbSymbolTableRecord
100
AcDbRegAppTableRecord
  2
GEVID1211508363
 70
     0
  0
APPID
  5
549
330
9
100
AcDbSymbolTableRecord
100
AcDbRegAppTableRecord
  2
GEVID1211878469
 70
     0
  0
APPID
  5
54A
330
9
100
AcDbSymbolTableRecord
100
AcDbRegAppTableRecord
  2
GEVID1212642819
 70
     0
  0
APPID
  5
54B
330
9
100
AcDbSymbolTableRecord
100
AcDbRegAppTableRecord
  2
GEVID1212642820
 70
     0
  0
APPID
  5
54C
330
9
100
AcDbSymbolTableRecord
100
AcDbRegAppTableRecord
  2
GEVID1212642821
 70
     0
  0
APPID
  5
54D
330
9
100
AcDbSymbolTableRecord
100
AcDbRegAppTableRecord
  2
GEVID1212642822
 70
     0
  0
APPID
  5
54E
330
9
100
AcDbSymbolTableRecord
100
AcDbRegAppTableRecord
  2
GEVID1212642823
 70
     0
  0
APPID
  5
54F
330
9
100
AcDbSymbolTableRecord
100
AcDbRegAppTableRecord
  2
GEVID1212642825
 70
     0
  0
APPID
  5
550
330
9
100
AcDbSymbolTableRecord
100
AcDbRegAppTableRecord
  2
GEVID1212642826
 70
     0
  0
APPID
  5
551
330
9
100
AcDbSymbolTableRecord
100
AcDbRegAppTableRecord
  2
GEVID1212642827
 70
     0
  0
APPID
  5
552
330
9
100
AcDbSymbolTableRecord
100
AcDbRegAppTableRecord
  2
GEVID1212642828
 70
     0
  0
APPID
  5
553
330
9
100
AcDbSymbolTableRecord
100
AcDbRegAppTableRecord
  2
GEVID1212642831
 70
     0
  0
APPID
  5
554
330
9
100
AcDbSymbolTableRecord
100
AcDbRegAppTableRecord
  2
GEVID1212642834
 70
     0
  0
APPID
  5
555
330
9
100
AcDbSymbolTableRecord
100
AcDbRegAppTableRecord
  2
GEVID1212642835
 70
     0
  0
APPID
  5
556
330
9
100
AcDbSymbolTableRecord
100
AcDbRegAppTableRecord
  2
GEVID1212642836
 70
     0
  0
APPID
  5
557
330
9
100
AcDbSymbolTableRecord
100
AcDbRegAppTableRecord
  2
GEVID1212642837
 70
     0
  0
APPID
  5
558
330
9
100
AcDbSymbolTableRecord
100
AcDbRegAppTableRecord
  2
GEVID1212642839
 70
     0
  0
APPID
  5
559
330
9
100
AcDbSymbolTableRecord
100
AcDbRegAppTableRecord
  2
GEVID1212642840
 70
     0
  0
APPID
  5
55A
330
9
100
AcDbSymbolTableRecord
100
AcDbRegAppTableRecord
  2
GEVID1212642841
 70
     0
  0
APPID
  5
55B
330
9
100
AcDbSymbolTableRecord
100
AcDbRegAppTableRecord
  2
GEVID1212655312
 70
     0
  0
APPID
  5
55C
330
9
100
AcDbSymbolTableRecord
100
AcDbRegAppTableRecord
  2
GEVID1212655313
 70
     0
  0
APPID
  5
55D
330
9
100
AcDbSymbolTableRecord
100
AcDbRegAppTableRecord
  2
GEVID1212656533
 70
     0
  0
APPID
  5
55E
330
9
100
AcDbSymbolTableRecord
100
AcDbRegAppTableRecord
  2
GEVID1212656534
 70
     0
  0
APPID
  5
55F
330
9
100
AcDbSymbolTableRecord
100
AcDbRegAppTableRecord
  2
GEVID1212656535
 70
     0
  0
APPID
  5
560
330
9
100
AcDbSymbolTableRecord
100
AcDbRegAppTableRecord
  2
GEVID1212656536
 70
     0
  0
APPID
  5
561
330
9
100
AcDbSymbolTableRecord
100
AcDbRegAppTableRecord
  2
GEVID1212656538
 70
     0
  0
APPID
  5
562
330
9
100
AcDbSymbolTableRecord
100
AcDbRegAppTableRecord
  2
GEVID1212656541
 70
     0
  0
APPID
  5
563
330
9
100
AcDbSymbolTableRecord
100
AcDbRegAppTableRecord
  2
GEVID1212656543
 70
     0
  0
APPID
  5
564
330
9
100
AcDbSymbolTableRecord
100
AcDbRegAppTableRecord
  2
GENIUS_GENOBJ-F-PFASSM_13
 70
     0
  0
APPID
  5
565
330
9
100
AcDbSymbolTableRecord
100
AcDbRegAppTableRecord
  2
GEVID1212656544
 70
     0
  0
APPID
  5
566
330
9
100
AcDbSymbolTableRecord
100
AcDbRegAppTableRecord
  2
GEVID1212656545
 70
     0
  0
APPID
  5
567
330
9
100
AcDbSymbolTableRecord
100
AcDbRegAppTableRecord
  2
GEVID1212656546
 70
     0
  0
APPID
  5
568
330
9
100
AcDbSymbolTableRecord
100
AcDbRegAppTableRecord
  2
GEVID1212656547
 70
     0
  0
APPID
  5
569
330
9
100
AcDbSymbolTableRecord
100
AcDbRegAppTableRecord
  2
GEVID1212656548
 70
     0
  0
APPID
  5
56A
330
9
100
AcDbSymbolTableRecord
100
AcDbRegAppTableRecord
  2
GEVID1212656549
 70
     0
  0
APPID
  5
56B
330
9
100
AcDbSymbolTableRecord
100
AcDbRegAppTableRecord
  2
GEVID1212656550
 70
     0
  0
APPID
  5
56C
330
9
100
AcDbSymbolTableRecord
100
AcDbRegAppTableRecord
  2
GEVID1212656552
 70
     0
  0
APPID
  5
56D
330
9
100
AcDbSymbolTableRecord
100
AcDbRegAppTableRecord
  2
GEVID1212656553
 70
     0
  0
APPID
  5
56E
330
9
100
AcDbSymbolTableRecord
100
AcDbRegAppTableRecord
  2
GEVID1212656554
 70
     0
  0
APPID
  5
56F
330
9
100
AcDbSymbolTableRecord
100
AcDbRegAppTableRecord
  2
GEVID1212656555
 70
     0
  0
APPID
  5
570
330
9
100
AcDbSymbolTableRecord
100
AcDbRegAppTableRecord
  2
GEVID1212656556
 70
     0
  0
APPID
  5
571
330
9
100
AcDbSymbolTableRecord
100
AcDbRegAppTableRecord
  2
GEVID1212656557
 70
     0
  0
APPID
  5
572
330
9
100
AcDbSymbolTableRecord
100
AcDbRegAppTableRecord
  2
GEVID1212656559
 70
     0
  0
APPID
  5
573
330
9
100
AcDbSymbolTableRecord
100
AcDbRegAppTableRecord
  2
GEVID1212656560
 70
     0
  0
APPID
  5
574
330
9
100
AcDbSymbolTableRecord
100
AcDbRegAppTableRecord
  2
GEVID1212656561
 70
     0
  0
APPID
  5
575
330
9
100
AcDbSymbolTableRecord
100
AcDbRegAppTableRecord
  2
GEVID1212656562
 70
     0
  0
APPID
  5
576
330
9
100
AcDbSymbolTableRecord
100
AcDbRegAppTableRecord
  2
GEVID1212656563
 70
     0
  0
APPID
  5
577
330
9
100
AcDbSymbolTableRecord
100
AcDbRegAppTableRecord
  2
GEVID1212711781
 70
     0
  0
APPID
  5
578
330
9
100
AcDbSymbolTableRecord
100
AcDbRegAppTableRecord
  2
GEVID1212711782
 70
     0
  0
APPID
  5
579
330
9
100
AcDbSymbolTableRecord
100
AcDbRegAppTableRecord
  2
GEVID1212711783
 70
     0
  0
APPID
  5
57A
330
9
100
AcDbSymbolTableRecord
100
AcDbRegAppTableRecord
  2
GEVID1212711784
 70
     0
  0
APPID
  5
57B
330
9
100
AcDbSymbolTableRecord
100
AcDbRegAppTableRecord
  2
GEVID1212711788
 70
     0
  0
APPID
  5
57C
330
9
100
AcDbSymbolTableRecord
100
AcDbRegAppTableRecord
  2
GEVID1212711789
 70
     0
  0
APPID
  5
57D
330
9
100
AcDbSymbolTableRecord
100
AcDbRegAppTableRecord
  2
GEVID1212711790
 70
     0
  0
APPID
  5
57E
330
9
100
AcDbSymbolTableRecord
100
AcDbRegAppTableRecord
  2
GEVID1212711791
 70
     0
  0
APPID
  5
57F
330
9
100
AcDbSymbolTableRecord
100
AcDbRegAppTableRecord
  2
GEVID1212711792
 70
     0
  0
APPID
  5
580
330
9
100
AcDbSymbolTableRecord
100
AcDbRegAppTableRecord
  2
GEVID1212711793
 70
     0
  0
APPID
  5
581
330
9
100
AcDbSymbolTableRecord
100
AcDbRegAppTableRecord
  2
GEVID1212711794
 70
     0
  0
APPID
  5
582
330
9
100
AcDbSymbolTableRecord
100
AcDbRegAppTableRecord
  2
GEVID1212711795
 70
     0
  0
APPID
  5
583
330
9
100
AcDbSymbolTableRecord
100
AcDbRegAppTableRecord
  2
GEVID1212711797
 70
     0
  0
APPID
  5
584
330
9
100
AcDbSymbolTableRecord
100
AcDbRegAppTableRecord
  2
GEVID1212711798
 70
     0
  0
APPID
  5
585
330
9
100
AcDbSymbolTableRecord
100
AcDbRegAppTableRecord
  2
GEVID1212711799
 70
     0
  0
APPID
  5
586
330
9
100
AcDbSymbolTableRecord
100
AcDbRegAppTableRecord
  2
GEVID1212711800
 70
     0
  0
APPID
  5
587
330
9
100
AcDbSymbolTableRecord
100
AcDbRegAppTableRecord
  2
GEVID1212711801
 70
     0
  0
APPID
  5
588
330
9
100
AcDbSymbolTableRecord
100
AcDbRegAppTableRecord
  2
GEVID1212711802
 70
     0
  0
APPID
  5
589
330
9
100
AcDbSymbolTableRecord
100
AcDbRegAppTableRecord
  2
GEVID1212711803
 70
     0
  0
APPID
  5
58A
330
9
100
AcDbSymbolTableRecord
100
AcDbRegAppTableRecord
  2
GEVID1212711804
 70
     0
  0
APPID
  5
58B
330
9
100
AcDbSymbolTableRecord
100
AcDbRegAppTableRecord
  2
GEVID1212711805
 70
     0
  0
APPID
  5
58C
330
9
100
AcDbSymbolTableRecord
100
AcDbRegAppTableRecord
  2
GEVID1212711806
 70
     0
  0
APPID
  5
58D
330
9
100
AcDbSymbolTableRecord
100
AcDbRegAppTableRecord
  2
GEVID1212711807
 70
     0
  0
APPID
  5
58E
330
9
100
AcDbSymbolTableRecord
100
AcDbRegAppTableRecord
  2
GEVID1212711808
 70
     0
  0
APPID
  5
58F
330
9
100
AcDbSymbolTableRecord
100
AcDbRegAppTableRecord
  2
GEVID1212711809
 70
     0
  0
APPID
  5
590
330
9
100
AcDbSymbolTableRecord
100
AcDbRegAppTableRecord
  2
GEVID1212711810
 70
     0
  0
APPID
  5
591
330
9
100
AcDbSymbolTableRecord
100
AcDbRegAppTableRecord
  2
GEVID1212711811
 70
     0
  0
APPID
  5
90A
330
9
100
AcDbSymbolTableRecord
100
AcDbRegAppTableRecord
  2
GENIUS_GENTRA_14
 70
     0
  0
APPID
  5
919
330
9
100
AcDbSymbolTableRecord
100
AcDbRegAppTableRecord
  2
GENIUS_GENOBJ-N-TIT_13
 70
     0
  0
APPID
  5
91A
330
9
100
AcDbSymbolTableRecord
100
AcDbRegAppTableRecord
  2
GENIUS_GENTITLE_13
 70
     0
  0
APPID
  5
949
330
9
100
AcDbSymbolTableRecord
100
AcDbRegAppTableRecord
  2
GENIUS_GENBLLY_14
 70
     0
  0
APPID
  5
DDD
330
9
100
AcDbSymbolTableRecord
100
AcDbRegAppTableRecord
  2
GEVID1213165152
 70
     0
  0
APPID
  5
12F9
330
9
100
AcDbSymbolTableRecord
100
AcDbRegAppTableRecord
  2
AcDbDynamicBlockTrueName
 70
     0
  0
APPID
  5
12FA
330
9
100
AcDbSymbolTableRecord
100
AcDbRegAppTableRecord
  2
ACDBBLOCKREPETAG
 70
     0
  0
APPID
  5
1C15
330
9
100
AcDbSymbolTableRecord
100
AcDbRegAppTableRecord
  2
GEVID1214872427
 70
     0
  0
APPID
  5
1C2A
330
9
100
AcDbSymbolTableRecord
100
AcDbRegAppTableRecord
  2
GEVID1214872428
 70
     0
  0
APPID
  5
1C2F
330
9
100
AcDbSymbolTableRecord
100
AcDbRegAppTableRecord
  2
GEVID1214872429
 70
     0
  0
APPID
  5
1C33
330
9
100
AcDbSymbolTableRecord
100
AcDbRegAppTableRecord
  2
GEVID1214872430
 70
     0
  0
APPID
  5
1C3F
330
9
100
AcDbSymbolTableRecord
100
AcDbRegAppTableRecord
  2
GEVID1214872432
 70
     0
  0
APPID
  5
1C4E
330
9
100
AcDbSymbolTableRecord
100
AcDbRegAppTableRecord
  2
GEVID1214872433
 70
     0
  0
APPID
  5
20DC
330
9
100
AcDbSymbolTableRecord
100
AcDbRegAppTableRecord
  2
AcDbDynamicBlockGUID
 70
     0
  0
APPID
  5
20FD
330
9
100
AcDbSymbolTableRecord
100
AcDbRegAppTableRecord
  2
GENIUS_GENOBJ-N-REV_13
 70
     0
  0
APPID
  5
20FE
330
9
100
AcDbSymbolTableRecord
100
AcDbRegAppTableRecord
  2
GENIUS_GENOBJ-N-RSSYM_13
 70
     0
  0
APPID
  5
20FF
330
9
100
AcDbSymbolTableRecord
100
AcDbRegAppTableRecord
  2
GENIUS_GENSYMENT_13
 70
     0
  0
APPID
  5
2100
330
9
100
AcDbSymbolTableRecord
100
AcDbRegAppTableRecord
  2
GENIUS_GENSCSYM_13
 70
     0
  0
APPID
  5
559E
330
9
100
AcDbSymbolTableRecord
100
AcDbRegAppTableRecord
  2
GEVID1241752660
 70
     0
  0
APPID
  5
55A3
330
9
100
AcDbSymbolTableRecord
100
AcDbRegAppTableRecord
  2
GEVID1241752661
 70
     0
  0
ENDTAB
  0
TABLE
  2
DIMSTYLE
  5
A
330
0
100
AcDbSymbolTable
 70
    11
100
AcDbDimStyleTable
 71
     1
340
5AB
  0
DIMSTYLE
105
5AB
330
A
100
AcDbSymbolTableRecord
100
AcDbDimStyleTableRecord
  2
SEISA
 70
     0
  4
"
 40
1.5
 41
2.5
 42
0.625
 43
10.0
 44
0.625
 47
0.1
 48
0.1
 73
     0
 74
     0
 77
     3
 78
     8
 79
     2
 90
     1
140
3.5
141
0.0
143
0.0393701
146
0.71
147
1.5
172
     1
176
     3
177
     3
178
     3
271
     2
272
     2
283
     0
286
     8
340
5D5
341
69
342
69
371
    -1
372
    -1
1001
ACAD_DSTYLE_DIMJAG
1070
   388
1040
1.5
1001
ACAD_DSTYLE_DIMTALN
1070
   392
1070
     1
  0
DIMSTYLE
105
5E9
102
{ACAD_REACTORS
330
5516
330
55CE
330
55FE
330
57DC
330
57F4
330
580C
330
59B0
330
59F8
330
5A10
330
5A28
330
5A58
330
5A70
330
75D9
330
7603
330
7D57
330
7E4B
330
7E6F
330
7F4D
330
800B
330
803E
102
}
330
A
100
AcDbSymbolTableRecord
100
AcDbDimStyleTableRecord
  2
SEISA$0
 70
     0
  4
"
 40
1.5
 41
2.5
 42
0.625
 43
10.0
 44
0.625
 47
0.1
 48
0.1
 73
     0
 74
     0
 77
     3
 78
     8
 79
     2
 90
     1
140
3.5
141
0.0
143
0.0393701
146
0.71
147
1.5
172
     1
176
     3
177
     3
178
     3
271
     2
272
     2
283
     0
286
     8
340
5D5
341
69
342
69
371
    -1
372
    -1
  0
DIMSTYLE
105
8379
330
A
100
AcDbSymbolTableRecord
100
AcDbDimStyleTableRecord
  2
AM_ISO
 70
     0
  4
"
 41
2.5
 42
1.0
 43
10.0
 44
1.0
 47
0.1
 48
0.1
 73
     0
 74
     0
 77
     1
 78
     8
 79
     2
 90
     1
140
3.5
141
0.0
143
0.0393701
146
0.71
147
1.5
172
     1
176
   256
177
   256
178
     2
271
     2
272
     3
274
     4
283
     0
284
     8
340
11
371
    -1
372
    -1
  0
DIMSTYLE
105
837A
330
A
100
AcDbSymbolTableRecord
100
AcDbDimStyleTableRecord
  2
AM_ISO$3
 70
     0
  4
"
 41
2.5
 42
1.0
 43
10.0
 44
1.0
 47
0.1
 48
0.1
 73
     0
 77
     1
 78
     8
 79
     2
 90
     1
140
3.5
141
0.0
143
0.0393701
146
0.71
147
1.5
176
   256
177
   256
178
     2
271
     2
272
     3
274
     4
283
     0
284
     8
288
     1
289
     0
340
11
371
    -1
372
    -1
  0
DIMSTYLE
105
837B
330
A
100
AcDbSymbolTableRecord
100
AcDbDimStyleTableRecord
  2
AM_ISO$4
 70
     0
  4
"
 41
2.5
 42
1.0
 43
10.0
 44
1.0
 47
0.1
 48
0.1
 73
     0
 77
     1
 78
     8
 79
     2
 90
     1
140
3.5
141
0.0
143
0.0393701
146
0.71
147
1.5
176
   256
177
   256
178
     2
271
     2
272
     3
274
     4
283
     0
284
     8
288
     1
289
     0
340
11
371
    -1
372
    -1
  0
DIMSTYLE
105
837C
330
A
100
AcDbSymbolTableRecord
100
AcDbDimStyleTableRecord
  2
AM_ISO$6
 70
     0
  4
"
 41
2.5
 42
1.0
 43
10.0
 44
1.0
 47
0.1
 48
0.1
 73
     0
 74
     0
 78
     8
 79
     2
 90
     1
140
3.5
141
0.0
143
0.0393701
146
0.71
147
1.5
172
     1
176
   256
177
   256
178
     2
271
     2
272
     3
274
     4
283
     0
284
     8
340
11
371
    -1
372
    -1
  0
DIMSTYLE
105
837D
330
A
100
AcDbSymbolTableRecord
100
AcDbDimStyleTableRecord
  2
AM_ISO$7
 70
     0
  4
"
 41
2.5
 42
1.0
 43
10.0
 44
1.0
 47
0.1
 48
0.1
 73
     0
 74
     0
 77
     1
 78
     8
 79
     2
 90
     1
140
5.0
141
0.0
143
0.0393701
146
0.71
147
1.5
172
     1
176
   256
177
   256
178
     2
271
     2
272
     3
274
     4
283
     0
284
     8
340
11
371
    -1
372
    -1
  0
DIMSTYLE
105
837E
330
A
100
AcDbSymbolTableRecord
100
AcDbDimStyleTableRecord
  2
AM_ISO$SF
 70
     0
  4
"
 41
2.5
 42
1.0
 43
10.0
 44
1.0
 47
0.1
 48
0.1
 73
     0
 74
     0
 75
     1
 76
     1
 77
     1
 78
     8
 79
     2
 90
     1
140
3.5
141
0.0
143
0.0393701
146
0.71
147
1.5
172
     1
176
   256
177
   256
178
     2
271
     2
272
     3
274
     4
283
     0
284
     8
340
11
371
    -1
372
    -1
  0
DIMSTYLE
105
837F
330
A
100
AcDbSymbolTableRecord
100
AcDbDimStyleTableRecord
  2
AM_ISO$SH
 70
     0
  4
"
 41
2.5
 42
1.0
 43
10.0
 44
1.0
 47
0.1
 48
0.1
 73
     0
 74
     0
 75
     1
 76
     1
 77
     1
 78
     8
 79
     2
 90
     1
140
3.5
141
0.0
143
0.0393701
144
2.0
146
0.71
147
1.5
172
     1
173
     1
176
   256
177
   256
178
     2
271
     2
272
     3
274
     4
283
     0
284
     8
340
11
343
74
371
    -1
372
    -1
  0
ENDTAB
  0
TABLE
  2
BLOCK_RECORD
  5
1
330
0
100
AcDbSymbolTable
 70
    37
  0
BLOCK_RECORD
  5
1F
102
{ACAD_XDICTIONARY
360
82
102
}
330
1
100
AcDbSymbolTableRecord
100
AcDbBlockTableRecord
  2
*Model_Space
340
22
 70
     0
280
     1
281
     0
  0
BLOCK_RECORD
  5
1B
330
1
100
AcDbSymbolTableRecord
100
AcDbBlockTableRecord
  2
*Paper_Space
340
1E
 70
     0
280
     1
281
     0
  0
BLOCK_RECORD
  5
23
330
1
100
AcDbSymbolTableRecord
100
AcDbBlockTableRecord
  2
*Paper_Space0
340
26
 70
     0
280
     1
281
     0
  0
BLOCK_RECORD
  5
69
330
1
100
AcDbSymbolTableRecord
100
AcDbBlockTableRecord
  2
_Open30
340
0
102
{BLKREFS
331
6DC9
331
6DCA
331
6E21
331
6E22
331
6E2A
331
6E2B
331
6E33
331
6E34
331
6E4E
331
6E4F
331
6E57
331
6E58
331
6E60
331
6E61
331
6E71
331
6E72
331
75FD
331
75FE
331
761E
331
761F
331
7D8E
331
7D8F
331
7FAA
331
7FE4
331
8083
331
8084
331
809B
331
809C
331
80AD
331
80AE
331
8405
331
8406
331
840E
331
840F
331
8417
331
8418
102
}
 70
     0
280
     1
281
     0
  0
BLOCK_RECORD
  5
74
330
1
100
AcDbSymbolTableRecord
100
AcDbBlockTableRecord
  2
GENAXEH
340
0
 70
     0
280
     1
281
     0
  0
BLOCK_RECORD
  5
3828
102
{ACAD_XDICTIONARY
360
3829
102
}
330
1
100
AcDbSymbolTableRecord
100
AcDbBlockTableRecord
  2
ロッカクアナツキプラグ-1　R1／8
340
0
310
2800000020000000200000000100080000000000000400000000000000000000000000000000000000000000000080000080000000808000800000008000800080800000C0C0C000C0DCC000F0CAA6000020400000206000002080000020A0000020C0000020E00000400000004020000040400000406000004080000040A0
310
000040C0000040E00000600000006020000060400000606000006080000060A0000060C0000060E00000800000008020000080400000806000008080000080A0000080C0000080E00000A0000000A0200000A0400000A0600000A0800000A0A00000A0C00000A0E00000C0000000C0200000C0400000C0600000C0800000C0
310
A00000C0C00000C0E00000E0000000E0200000E0400000E0600000E0800000E0A00000E0C00000E0E00040000000400020004000400040006000400080004000A0004000C0004000E00040200000402020004020400040206000402080004020A0004020C0004020E000404000004040200040404000404060004040800040
310
40A0004040C0004040E00040600000406020004060400040606000406080004060A0004060C0004060E00040800000408020004080400040806000408080004080A0004080C0004080E00040A0000040A0200040A0400040A0600040A0800040A0A00040A0C00040A0E00040C0000040C0200040C0400040C0600040C08000
310
40C0A00040C0C00040C0E00040E0000040E0200040E0400040E0600040E0800040E0A00040E0C00040E0E00080000000800020008000400080006000800080008000A0008000C0008000E00080200000802020008020400080206000802080008020A0008020C0008020E00080400000804020008040400080406000804080
310
008040A0008040C0008040E00080600000806020008060400080606000806080008060A0008060C0008060E00080800000808020008080400080806000808080008080A0008080C0008080E00080A0000080A0200080A0400080A0600080A0800080A0A00080A0C00080A0E00080C0000080C0200080C0400080C0600080C0
310
800080C0A00080C0C00080C0E00080E0000080E0200080E0400080E0600080E0800080E0A00080E0C00080E0E000C0000000C0002000C0004000C0006000C0008000C000A000C000C000C000E000C0200000C0202000C0204000C0206000C0208000C020A000C020C000C020E000C0400000C0402000C0404000C0406000C0
310
408000C040A000C040C000C040E000C0600000C0602000C0604000C0606000C0608000C060A000C060C000C060E000C0800000C0802000C0804000C0806000C0808000C080A000C080C000C080E000C0A00000C0A02000C0A04000C0A06000C0A08000C0A0A000C0A0C000C0A0E000C0C00000C0C02000C0C04000C0C06000
310
C0C08000C0C0A000F0FBFF00A4A0A000808080000000FF0000FF000000FFFF00FF000000FF00FF00FFFF0000FFFFFF00000000000000000000000000000000000000000000000000000000000000000000000000000000000000000000000000F9000000000000000000000000000000000000000000000000000000000000
310
00F900000000000000000000000000000000000000000000000000000000000000F90000000000000000000000000000000000000000000000000000000000FEFEF9000000000000000000000000000000000000000000000000000000FEFEFFFFF9FFFEFEFE000000000000000000000000000000000000000000FEFEFFFF
310
0000F900FFFF00FE000000000000000000000000000000000000FEFEFFFF00000000F9000000FFFFFE00000000000000000000000000000000FE00FF000000000000F90000000000FFFEFE00000000000000000000000000FE00FF00000000000000F9000000000000FFFE00000000000000000000000000FE00FF00000000
310
000000FF00000000000000FFFE0000000000000000000000FE00FF000000000000FFFFF9FF000000000000FFFE0000000000000000000000FE00FF00000000FFFF0000F900FFFF0000000000FFFE00000000000000000000FEFF00000000FF00000000F9000000FF00000000FFFE00000000000000000000FEFF00000000FF
310
00000000F9000000FF0000000000FFFE0000000000F9F9F9F9FFF9F9F9F9F9FFF9F9F9F9F9F9F9F9FFF9F9F9F9F9FFFEF9F9F9000000000000FF0000000000FF00000000F9000000FF0000000000FFFE000000000000000000FEFF00000000FF00000000F9000000FF00000000FFFE00000000000000000000FEFF00000000
310
FF00000000F9000000FF00000000FFFE00000000000000000000FE00FF00000000FFFF0000F90000FF0000000000FFFE00000000000000000000FE00FF000000000000FFFFF9FFFF0000000000FFFE000000000000000000000000FE00FF00000000000000FF00000000000000FFFE000000000000000000000000FE00FF00
310
000000000000F9000000000000FFFE0000000000000000000000000000FE00FF000000000000F90000000000FF00FE000000000000000000000000000000FE00FF0000000000F900000000FFFEFE0000000000000000000000000000000000FEFEFFFF000000F90000FFFFFE00000000000000000000000000000000000000
310
0000FEFEFFFFFFF9FFFFFEFE00000000000000000000000000000000000000000000000000FEFEF900000000000000000000000000000000000000000000000000000000000000F900000000000000000000000000000000000000000000000000000000000000F90000000000000000000000000000000000000000000000
310
0000000000000000F90000000000000000000000000000000000000000000000000000000000000000000000000000000000000000000000
102
{BLKREFS
331
4CB0
102
}
 70
     4
280
     1
281
     0
  0
BLOCK_RECORD
  5
3A5A
102
{ACAD_XDICTIONARY
360
6659
102
}
330
1
100
AcDbSymbolTableRecord
100
AcDbBlockTableRecord
  2
ロッカクアナツキプラグ-2　R1／8
340
0
310
2800000020000000200000000100080000000000000400000000000000000000000000000000000000000000000080000080000000808000800000008000800080800000C0C0C000C0DCC000F0CAA6000020400000206000002080000020A0000020C0000020E00000400000004020000040400000406000004080000040A0
310
000040C0000040E00000600000006020000060400000606000006080000060A0000060C0000060E00000800000008020000080400000806000008080000080A0000080C0000080E00000A0000000A0200000A0400000A0600000A0800000A0A00000A0C00000A0E00000C0000000C0200000C0400000C0600000C0800000C0
310
A00000C0C00000C0E00000E0000000E0200000E0400000E0600000E0800000E0A00000E0C00000E0E00040000000400020004000400040006000400080004000A0004000C0004000E00040200000402020004020400040206000402080004020A0004020C0004020E000404000004040200040404000404060004040800040
310
40A0004040C0004040E00040600000406020004060400040606000406080004060A0004060C0004060E00040800000408020004080400040806000408080004080A0004080C0004080E00040A0000040A0200040A0400040A0600040A0800040A0A00040A0C00040A0E00040C0000040C0200040C0400040C0600040C08000
310
40C0A00040C0C00040C0E00040E0000040E0200040E0400040E0600040E0800040E0A00040E0C00040E0E00080000000800020008000400080006000800080008000A0008000C0008000E00080200000802020008020400080206000802080008020A0008020C0008020E00080400000804020008040400080406000804080
310
008040A0008040C0008040E00080600000806020008060400080606000806080008060A0008060C0008060E00080800000808020008080400080806000808080008080A0008080C0008080E00080A0000080A0200080A0400080A0600080A0800080A0A00080A0C00080A0E00080C0000080C0200080C0400080C0600080C0
310
800080C0A00080C0C00080C0E00080E0000080E0200080E0400080E0600080E0800080E0A00080E0C00080E0E000C0000000C0002000C0004000C0006000C0008000C000A000C000C000C000E000C0200000C0202000C0204000C0206000C0208000C020A000C020C000C020E000C0400000C0402000C0404000C0406000C0
310
408000C040A000C040C000C040E000C0600000C0602000C0604000C0606000C0608000C060A000C060C000C060E000C0800000C0802000C0804000C0806000C0808000C080A000C080C000C080E000C0A00000C0A02000C0A04000C0A06000C0A08000C0A0A000C0A0C000C0A0E000C0C00000C0C02000C0C04000C0C06000
310
C0C08000C0C0A000F0FBFF00A4A0A000808080000000FF0000FF000000FFFF00FF000000FF00FF00FFFF0000FFFFFF00000000000000000000000000000000000000000000000000000000000000000000000000000000000000000000000000F9000000000000000000000000000000000000000000000000000000000000
310
00F900000000000000000000000000000000000000000000000000000000000000F90000000000000000000000000000000000000000000000000000000000FEFEF9000000000000000000000000000000000000000000000000000000FEFEFFFFF9FFFEFEFE000000000000000000000000000000000000000000FEFEFFFF
310
0000F900FFFF00FE000000000000000000000000000000000000FEFEFFFF00000000F9000000FFFFFE00000000000000000000000000000000FE00FF000000000000F90000000000FFFEFE00000000000000000000000000FE00FF00000000000000F9000000000000FFFE00000000000000000000000000FE00FF00000000
310
000000FF00000000000000FFFE0000000000000000000000FE00FF000000000000FFFFF9FFFF0000000000FFFE0000000000000000000000FE00FF00000000FFFF0000F90000FF0000000000FFFE00000000000000000000FEFF00000000FF00000000F9000000FF00000000FFFE00000000000000000000FEFF00000000FF
310
00000000F9000000FF0000000000FFFE0000000000F9F9F9F9F9F9F9F9F9F9FFF9F9F9F9F9F9F9F9FFF9F9F9F9F9F9F9F9F9F9000000000000FF0000000000FF00000000F9000000FF0000000000FFFE000000000000000000FEFF00000000FF00000000F9000000FF00000000FFFE00000000000000000000FEFF00000000
310
FF00000000F9000000FF00000000FFFE00000000000000000000FE00FF00000000FFFF0000F900FFFF0000000000FFFE00000000000000000000FE00FF000000000000FFFFF9FF000000000000FFFE000000000000000000000000FE00FF00000000000000FF00000000000000FFFE000000000000000000000000FE00FF00
310
000000000000F9000000000000FFFE0000000000000000000000000000FE00FF000000000000F90000000000FF00FE000000000000000000000000000000FE00FF0000000000F900000000FFFEFE0000000000000000000000000000000000FEFEFFFF000000F90000FFFFFE00000000000000000000000000000000000000
310
0000FEFEFFFFFFF9FFFFFEFE00000000000000000000000000000000000000000000000000FEFEF900000000000000000000000000000000000000000000000000000000000000F900000000000000000000000000000000000000000000000000000000000000F90000000000000000000000000000000000000000000000
310
0000000000000000F90000000000000000000000000000000000000000000000000000000000000000000000000000000000000000000000
102
{BLKREFS
331
4D7C
102
}
 70
     4
280
     1
281
     0
  0
BLOCK_RECORD
  5
4C75
102
{ACAD_XDICTIONARY
360
4D2E
102
}
330
1
100
AcDbSymbolTableRecord
100
AcDbBlockTableRecord
  2
ケースＡ-1 SAM125
340
0
310
2800000020000000200000000100080000000000000400000000000000000000000000000000000000000000000080000080000000808000800000008000800080800000C0C0C000C0DCC000F0CAA6000020400000206000002080000020A0000020C0000020E00000400000004020000040400000406000004080000040A0
310
000040C0000040E00000600000006020000060400000606000006080000060A0000060C0000060E00000800000008020000080400000806000008080000080A0000080C0000080E00000A0000000A0200000A0400000A0600000A0800000A0A00000A0C00000A0E00000C0000000C0200000C0400000C0600000C0800000C0
310
A00000C0C00000C0E00000E0000000E0200000E0400000E0600000E0800000E0A00000E0C00000E0E00040000000400020004000400040006000400080004000A0004000C0004000E00040200000402020004020400040206000402080004020A0004020C0004020E000404000004040200040404000404060004040800040
310
40A0004040C0004040E00040600000406020004060400040606000406080004060A0004060C0004060E00040800000408020004080400040806000408080004080A0004080C0004080E00040A0000040A0200040A0400040A0600040A0800040A0A00040A0C00040A0E00040C0000040C0200040C0400040C0600040C08000
310
40C0A00040C0C00040C0E00040E0000040E0200040E0400040E0600040E0800040E0A00040E0C00040E0E00080000000800020008000400080006000800080008000A0008000C0008000E00080200000802020008020400080206000802080008020A0008020C0008020E00080400000804020008040400080406000804080
310
008040A0008040C0008040E00080600000806020008060400080606000806080008060A0008060C0008060E00080800000808020008080400080806000808080008080A0008080C0008080E00080A0000080A0200080A0400080A0600080A0800080A0A00080A0C00080A0E00080C0000080C0200080C0400080C0600080C0
310
800080C0A00080C0C00080C0E00080E0000080E0200080E0400080E0600080E0800080E0A00080E0C00080E0E000C0000000C0002000C0004000C0006000C0008000C000A000C000C000C000E000C0200000C0202000C0204000C0206000C0208000C020A000C020C000C020E000C0400000C0402000C0404000C0406000C0
310
408000C040A000C040C000C040E000C0600000C0602000C0604000C0606000C0608000C060A000C060C000C060E000C0800000C0802000C0804000C0806000C0808000C080A000C080C000C080E000C0A00000C0A02000C0A04000C0A06000C0A08000C0A0A000C0A0C000C0A0E000C0C00000C0C02000C0C04000C0C06000
310
C0C08000C0C0A000F0FBFF00A4A0A000808080000000FF0000FF000000FFFF00FF000000FF00FF00FFFF0000FFFFFF00000000000000000000000000000000000000000000000000000000000000000000000000000000000000000000FFFFFFFFFF000000000000000000000000000000000000000000000000000000FF00
310
0000FF000000000000000000000000000000000000000000000000000000FF000000FF000000000000000000000000000000000000000000000000000000FF000000FF000000000000000000000000000000000000000000000000000000FF000000FFFFFFFFFFFF00000000000000000000000000000000000000000000FF
310
000000FF0000000000FF000000000000000000000000000000000000000000FF00F900FF0000000000FF000000000000000000000000000000000000000000FFFFFFFFFF0000000000FF000000000000000000000000000000000000000000FFFFFFFFF90000000000FF000000000000000000000000000000000000000000
310
FFFFF9FFFF0000000000FF000000000000000000000000000000000000000000FF000000FF0000000000FF000000000000000000000000000000000000000000FF000000FF0000000000FF000000000000000000000000000000000000000000FF000000FF0000000000FF0000000000000000000000000000000000000000
310
00FF000000FF0000000000FF000000000000000000000000000000000000000000FF000000FF0000000000FF000000000000000000000000000000000000000000FF000000FF0000000000FF000000000000000000000000000000000000000000000000000000000000000000000000000000000000000000000000000000
310
00000000000000000000000000000000000000000000000000000000000000000000000000000000000000000000000000000000000000000000000000000000000000000000000000000000000000000000000000000000000000000000000000000000000000000000000000000000000000000000000000000000000000
310
000000000000000000000000000000000000000000000000000000000000000000000000000000000000FFFFFFFF000000000000000000000000000000000000000000000000F9FFA4A4A4FFFFFF000000000000000000000000000000000000000000FFFFFFFFFFFFFFFF0000FF0000000000000000000000000000000000
310
00000000FFFF0000FFFFFFFFFFFF00000000000000000000000000000000000000000000FFFFFFFFFF00000000000000000000000000000000000000000000F9F9F9F9F9F9F9F9F9FFF9F9F9000000000000000000000000000000000000000000000000FFFFFFFFFF00000000000000000000000000000000000000000000
310
0000000000FFFFFFFFFF00000000000000000000000000000000000000000000000000000000000000000000000000000000000000000000
102
{BLKREFS
331
50E2
102
}
 70
     4
280
     1
281
     0
  0
BLOCK_RECORD
  5
4D40
102
{ACAD_XDICTIONARY
360
4DFC
102
}
330
1
100
AcDbSymbolTableRecord
100
AcDbBlockTableRecord
  2
ケースＡ-2 SAM125
340
0
310
2800000020000000200000000100080000000000000400000000000000000000000000000000000000000000000080000080000000808000800000008000800080800000C0C0C000C0DCC000F0CAA6000020400000206000002080000020A0000020C0000020E00000400000004020000040400000406000004080000040A0
310
000040C0000040E00000600000006020000060400000606000006080000060A0000060C0000060E00000800000008020000080400000806000008080000080A0000080C0000080E00000A0000000A0200000A0400000A0600000A0800000A0A00000A0C00000A0E00000C0000000C0200000C0400000C0600000C0800000C0
310
A00000C0C00000C0E00000E0000000E0200000E0400000E0600000E0800000E0A00000E0C00000E0E00040000000400020004000400040006000400080004000A0004000C0004000E00040200000402020004020400040206000402080004020A0004020C0004020E000404000004040200040404000404060004040800040
310
40A0004040C0004040E00040600000406020004060400040606000406080004060A0004060C0004060E00040800000408020004080400040806000408080004080A0004080C0004080E00040A0000040A0200040A0400040A0600040A0800040A0A00040A0C00040A0E00040C0000040C0200040C0400040C0600040C08000
310
40C0A00040C0C00040C0E00040E0000040E0200040E0400040E0600040E0800040E0A00040E0C00040E0E00080000000800020008000400080006000800080008000A0008000C0008000E00080200000802020008020400080206000802080008020A0008020C0008020E00080400000804020008040400080406000804080
310
008040A0008040C0008040E00080600000806020008060400080606000806080008060A0008060C0008060E00080800000808020008080400080806000808080008080A0008080C0008080E00080A0000080A0200080A0400080A0600080A0800080A0A00080A0C00080A0E00080C0000080C0200080C0400080C0600080C0
310
800080C0A00080C0C00080C0E00080E0000080E0200080E0400080E0600080E0800080E0A00080E0C00080E0E000C0000000C0002000C0004000C0006000C0008000C000A000C000C000C000E000C0200000C0202000C0204000C0206000C0208000C020A000C020C000C020E000C0400000C0402000C0404000C0406000C0
310
408000C040A000C040C000C040E000C0600000C0602000C0604000C0606000C0608000C060A000C060C000C060E000C0800000C0802000C0804000C0806000C0808000C080A000C080C000C080E000C0A00000C0A02000C0A04000C0A06000C0A08000C0A0A000C0A0C000C0A0E000C0C00000C0C02000C0C04000C0C06000
310
C0C08000C0C0A000F0FBFF00A4A0A000808080000000FF0000FF000000FFFF00FF000000FF00FF00FFFF0000FFFFFF0000000000000000000000000000000000000000000000000000000000000000000000000000000000000000000000FFFFFFFFFF000000000000000000000000000000000000000000000000000000FF
310
000000FF000000000000000000000000000000000000000000000000000000FF000000FF000000000000000000000000000000000000000000000000000000FF000000FF00000000000000000000000000000000000000000000FFFFFFFFFFFF000000FF000000000000000000000000000000000000000000FF0000000000
310
FF000000FF000000000000000000000000000000000000000000FF0000000000FF00F900FF000000000000000000000000000000000000000000FF0000000000FFFFFFFFFF000000000000000000000000000000000000000000FF0000000000F9FFFFF9FF000000000000000000000000000000000000000000FF00000000
310
00FFFFF9FFFF000000000000000000000000000000000000000000FF0000000000FF000000FF000000000000000000000000000000000000000000FF0000000000FF000000FF000000000000000000000000000000000000000000FF0000000000FF000000FF000000000000000000000000000000000000000000FF000000
310
0000FF000000FF000000000000000000000000000000000000000000FF0000000000FF000000FF000000000000000000000000000000000000000000FF0000000000FF000000FF0000000000000000000000000000000000000000000000000000000000000000000000000000000000000000000000000000000000000000
310
00000000000000000000000000000000000000000000000000000000000000000000000000000000000000000000000000000000000000000000000000000000000000000000000000000000000000000000000000000000000000000000000000000000000000000000000000000000000000000000000000000000000000
310
000000000000000000000000000000000000000000000000000000000000FFFFFFFF00000000000000000000000000000000000000000000000000000000FFFFFFFFF9F9FFF9000000000000000000000000000000000000000000000000FF0000FFFFFFFFFFFFFFFF00000000000000000000000000000000000000000000
310
FFFFFFFFFFFF0000FFFF000000000000000000000000000000000000000000000000000000FFFFFFFFFF000000000000000000000000000000000000000000000000F9F9F9FFF9F9F9F9F9F9F9F9F900000000000000000000000000000000000000000000FFFFFFFFFF000000000000000000000000000000000000000000
310
000000000000FFFFFFFFFF000000000000000000000000000000000000000000000000000000000000000000000000000000000000000000
102
{BLKREFS
331
50E4
102
}
 70
     4
280
     1
281
     0
  0
BLOCK_RECORD
  5
4E48
102
{ACAD_XDICTIONARY
360
4E95
102
}
330
1
100
AcDbSymbolTableRecord
100
AcDbBlockTableRecord
  2
センタ-1 SAM125
340
0
310
2800000020000000200000000100080000000000000400000000000000000000000000000000000000000000000080000080000000808000800000008000800080800000C0C0C000C0DCC000F0CAA6000020400000206000002080000020A0000020C0000020E00000400000004020000040400000406000004080000040A0
310
000040C0000040E00000600000006020000060400000606000006080000060A0000060C0000060E00000800000008020000080400000806000008080000080A0000080C0000080E00000A0000000A0200000A0400000A0600000A0800000A0A00000A0C00000A0E00000C0000000C0200000C0400000C0600000C0800000C0
310
A00000C0C00000C0E00000E0000000E0200000E0400000E0600000E0800000E0A00000E0C00000E0E00040000000400020004000400040006000400080004000A0004000C0004000E00040200000402020004020400040206000402080004020A0004020C0004020E000404000004040200040404000404060004040800040
310
40A0004040C0004040E00040600000406020004060400040606000406080004060A0004060C0004060E00040800000408020004080400040806000408080004080A0004080C0004080E00040A0000040A0200040A0400040A0600040A0800040A0A00040A0C00040A0E00040C0000040C0200040C0400040C0600040C08000
310
40C0A00040C0C00040C0E00040E0000040E0200040E0400040E0600040E0800040E0A00040E0C00040E0E00080000000800020008000400080006000800080008000A0008000C0008000E00080200000802020008020400080206000802080008020A0008020C0008020E00080400000804020008040400080406000804080
310
008040A0008040C0008040E00080600000806020008060400080606000806080008060A0008060C0008060E00080800000808020008080400080806000808080008080A0008080C0008080E00080A0000080A0200080A0400080A0600080A0800080A0A00080A0C00080A0E00080C0000080C0200080C0400080C0600080C0
310
800080C0A00080C0C00080C0E00080E0000080E0200080E0400080E0600080E0800080E0A00080E0C00080E0E000C0000000C0002000C0004000C0006000C0008000C000A000C000C000C000E000C0200000C0202000C0204000C0206000C0208000C020A000C020C000C020E000C0400000C0402000C0404000C0406000C0
310
408000C040A000C040C000C040E000C0600000C0602000C0604000C0606000C0608000C060A000C060C000C060E000C0800000C0802000C0804000C0806000C0808000C080A000C080C000C080E000C0A00000C0A02000C0A04000C0A06000C0A08000C0A0A000C0A0C000C0A0E000C0C00000C0C02000C0C04000C0C06000
310
C0C08000C0C0A000F0FBFF00A4A0A000808080000000FF0000FF000000FFFF00FF000000FF00FF00FFFF0000FFFFFF000000000000000000000000000000000000000000000000000000000000000000000000000000000000000000000000000000FFFFFFFFFFFFFFFF000000000000000000000000000000000000000000
310
0000000000000000000000FFFF00000000000000000000000000000000000000000000000000000000000000FF00000000000000000000000000000000000000000000000000000000000000FF00000000000000000000000000000000000000000000000000000000000000FF000000000000000000000000000000000000
310
00000000000000000000000000FF00000000000000000000000000000000000000000000000000000000000000FF00000000000000000000000000000000000000000000000000000000000000FF00000000000000000000000000000000000000000000000000000000000000FF0000000000000000000000000000000000
310
0000000000000000000000000000FF00000000000000000000000000000000000000000000000000000000000000FF00000000000000000000000000000000000000000000000000000000000000FF00000000000000000000000000000000000000000000000000000000000000FF0000000000000000FF00000000000000
310
0000000000000000000000000000FFFF0000000000000000FF000000000000000000000000000000000000000000FFFF0000000000000000FF000000000000000000000000000000000000000000FFFF0000000000000000FF000000000000000000000000000000000000000000FFFF0000000000000000FF000000000000
310
000000000000000000000000000000FFFF0000000000000000FF000000000000000000000000000000000000000000FFFF0000000000000000FFFFFFFFFFFFFFFFFFFFFFFFFFFFFFFFFFFFFFFFFFFFFFFF0000000000000000FFFFFFFFFFFFFFFFFFFFFFFFFFFFFFFFFFFFFFFFFFFFFFFF0000000000000000FF0000000000
310
0000000000000000000000000000000000FF0000000000000000FF00000000000000000000000000000000000000000000FF00000000000000000000000000000000000000000000000000000000000000FF0000000000000000FF000000000000F9000000000000000000000000000000FF0000000000000000FFFFFFFFFF
310
FF00F900FFFFFFFFFFFFFFFFFFFFFFFFFFFF00000000000000000000000000F9FFFFFFFFFFF90000000000000000000000000000000000000000000000000000FFFFFFFFFF0000000000000000000000000000000000000000000000000000000000F900000000000000000000000000000000000000000000000000000000
310
000000F900000000000000000000000000000000000000000000000000000000000000000000000000000000000000000000000000000000
102
{BLKREFS
331
4E62
102
}
 70
     4
280
     1
281
     0
  0
BLOCK_RECORD
  5
4E9F
102
{ACAD_XDICTIONARY
360
4EE9
102
}
330
1
100
AcDbSymbolTableRecord
100
AcDbBlockTableRecord
  2
センタ-2 SAM125
340
0
310
2800000020000000200000000100080000000000000400000000000000000000000000000000000000000000000080000080000000808000800000008000800080800000C0C0C000C0DCC000F0CAA6000020400000206000002080000020A0000020C0000020E00000400000004020000040400000406000004080000040A0
310
000040C0000040E00000600000006020000060400000606000006080000060A0000060C0000060E00000800000008020000080400000806000008080000080A0000080C0000080E00000A0000000A0200000A0400000A0600000A0800000A0A00000A0C00000A0E00000C0000000C0200000C0400000C0600000C0800000C0
310
A00000C0C00000C0E00000E0000000E0200000E0400000E0600000E0800000E0A00000E0C00000E0E00040000000400020004000400040006000400080004000A0004000C0004000E00040200000402020004020400040206000402080004020A0004020C0004020E000404000004040200040404000404060004040800040
310
40A0004040C0004040E00040600000406020004060400040606000406080004060A0004060C0004060E00040800000408020004080400040806000408080004080A0004080C0004080E00040A0000040A0200040A0400040A0600040A0800040A0A00040A0C00040A0E00040C0000040C0200040C0400040C0600040C08000
310
40C0A00040C0C00040C0E00040E0000040E0200040E0400040E0600040E0800040E0A00040E0C00040E0E00080000000800020008000400080006000800080008000A0008000C0008000E00080200000802020008020400080206000802080008020A0008020C0008020E00080400000804020008040400080406000804080
310
008040A0008040C0008040E00080600000806020008060400080606000806080008060A0008060C0008060E00080800000808020008080400080806000808080008080A0008080C0008080E00080A0000080A0200080A0400080A0600080A0800080A0A00080A0C00080A0E00080C0000080C0200080C0400080C0600080C0
310
800080C0A00080C0C00080C0E00080E0000080E0200080E0400080E0600080E0800080E0A00080E0C00080E0E000C0000000C0002000C0004000C0006000C0008000C000A000C000C000C000E000C0200000C0202000C0204000C0206000C0208000C020A000C020C000C020E000C0400000C0402000C0404000C0406000C0
310
408000C040A000C040C000C040E000C0600000C0602000C0604000C0606000C0608000C060A000C060C000C060E000C0800000C0802000C0804000C0806000C0808000C080A000C080C000C080E000C0A00000C0A02000C0A04000C0A06000C0A08000C0A0A000C0A0C000C0A0E000C0C00000C0C02000C0C04000C0C06000
310
C0C08000C0C0A000F0FBFF00A4A0A000808080000000FF0000FF000000FFFF00FF000000FF00FF00FFFF0000FFFFFF000000000000000000000000000000000000000000000000000000000000000000000000000000FFFFFFFFFFFFFFFF00000000000000000000000000000000000000000000FFFF000000000000000000
310
000000000000000000000000000000000000000000FF00000000000000000000000000000000000000000000000000000000000000FF00000000000000000000000000000000000000000000000000000000000000FF00000000000000000000000000000000000000000000000000000000000000FF000000000000000000
310
00000000000000000000000000000000000000000000FF00000000000000000000000000000000000000000000000000000000000000FF00000000000000000000000000000000000000000000000000000000000000FF00000000000000000000000000000000000000000000000000000000000000FF0000000000000000
310
0000000000000000000000000000000000000000000000FF00000000000000000000000000000000000000000000000000000000000000FF00000000000000000000000000000000000000000000000000000000000000FF00000000000000000000000000000000000000000000000000000000000000FFFF000000000000
310
000000000000000000000000000000FF0000000000000000FFFF000000000000000000000000000000000000000000FF0000000000000000FFFF000000000000000000000000000000000000000000FF0000000000000000FFFF000000000000000000000000000000000000000000FF0000000000000000FFFF0000000000
310
00000000000000000000000000000000FF0000000000000000FFFF000000000000000000000000000000000000000000FF0000000000000000FFFFFFFFFFFFFFFFFFFFFFFFFFFFFFFFFFFFFFFFFFFFFFFF0000000000000000FFFFFFFFFFFFFFFFFFFFFFFFFFFFFFFFFFFFFFFFFFFFFFFF0000000000000000FF0000000000
310
0000000000000000000000000000000000FF0000000000000000FF00000000000000000000000000000000000000000000FF0000000000000000FF00000000000000000000000000000000000000000000FF0000000000000000FF000000000000000000000000000000F9000000000000FF000000000000000000FFFFFFFF
310
FFFFFFFFFFFFFFFFFFFF00F900FFFFFFFFFFFF000000000000000000000000000000000000000000F9FFFFFFFFFFF90000000000000000000000000000000000000000000000000000FFFFFFFFFF0000000000000000000000000000000000000000000000000000000000F900000000000000000000000000000000000000
310
000000000000000000000000F900000000000000000000000000000000000000000000000000000000000000000000000000000000000000
102
{BLKREFS
331
4EB8
102
}
 70
     4
280
     1
281
     0
  0
BLOCK_RECORD
  5
51D4
102
{ACAD_XDICTIONARY
360
525F
102
}
330
1
100
AcDbSymbolTableRecord
100
AcDbBlockTableRecord
  2
リーマボルト-1 SAM125 M6
340
0
310
2800000020000000200000000100080000000000000400000000000000000000000000000000000000000000000080000080000000808000800000008000800080800000C0C0C000C0DCC000F0CAA6000020400000206000002080000020A0000020C0000020E00000400000004020000040400000406000004080000040A0
310
000040C0000040E00000600000006020000060400000606000006080000060A0000060C0000060E00000800000008020000080400000806000008080000080A0000080C0000080E00000A0000000A0200000A0400000A0600000A0800000A0A00000A0C00000A0E00000C0000000C0200000C0400000C0600000C0800000C0
310
A00000C0C00000C0E00000E0000000E0200000E0400000E0600000E0800000E0A00000E0C00000E0E00040000000400020004000400040006000400080004000A0004000C0004000E00040200000402020004020400040206000402080004020A0004020C0004020E000404000004040200040404000404060004040800040
310
40A0004040C0004040E00040600000406020004060400040606000406080004060A0004060C0004060E00040800000408020004080400040806000408080004080A0004080C0004080E00040A0000040A0200040A0400040A0600040A0800040A0A00040A0C00040A0E00040C0000040C0200040C0400040C0600040C08000
310
40C0A00040C0C00040C0E00040E0000040E0200040E0400040E0600040E0800040E0A00040E0C00040E0E00080000000800020008000400080006000800080008000A0008000C0008000E00080200000802020008020400080206000802080008020A0008020C0008020E00080400000804020008040400080406000804080
310
008040A0008040C0008040E00080600000806020008060400080606000806080008060A0008060C0008060E00080800000808020008080400080806000808080008080A0008080C0008080E00080A0000080A0200080A0400080A0600080A0800080A0A00080A0C00080A0E00080C0000080C0200080C0400080C0600080C0
310
800080C0A00080C0C00080C0E00080E0000080E0200080E0400080E0600080E0800080E0A00080E0C00080E0E000C0000000C0002000C0004000C0006000C0008000C000A000C000C000C000E000C0200000C0202000C0204000C0206000C0208000C020A000C020C000C020E000C0400000C0402000C0404000C0406000C0
310
408000C040A000C040C000C040E000C0600000C0602000C0604000C0606000C0608000C060A000C060C000C060E000C0800000C0802000C0804000C0806000C0808000C080A000C080C000C080E000C0A00000C0A02000C0A04000C0A06000C0A08000C0A0A000C0A0C000C0A0E000C0C00000C0C02000C0C04000C0C06000
310
C0C08000C0C0A000F0FBFF00A4A0A000808080000000FF0000FF000000FFFF00FF000000FF00FF00FFFF0000FFFFFF0000000000000000000000000000000000000000000000000000000000000000000000000000000000000000000000000000000000000000000000000000000000000000000000000000000000000000
310
00000000000000000000000000000000000000000000000000000000000000000000000000000000000000000000000000000000000000000000000000000000000000000000000000000000000000000000000000000000000000000000000000000000000000000000000000000000000000000000FFFFFF000000000000
310
000000000000000000FFFFFFFF000000000000F9F9F9F9FFF9FFF90000000000000000000000000000FFF9F9FFF9F9F900000000000000FF00FF000000000000000000000000000000FF0000FF00000000000000000000FF00FFFFFFFFFFFFFFFFFFFFFFFFFFFFFFFFFF0000FF00000000000000000000FF00FF0000000000
310
00000000000000000000FF0000FF00000000000000000000FF00FF000000000000000000000000000000FF0000FF00000000000000000000FF00FF000000000000000000000000000000FF0000FF00000000000000000000FF00FF000000000000000000000000000000FF0000FF00000000000000000000FF00FF00000000
310
0000000000000000000000FF0000FF00000000000000000000FFFFFF000000000000000000000000000000FF00FFFF00000000000000000000FFFF000000000000000000000000000000000000FF0000000000000000000000FFFF000000000000000000000000000000000000FF0000000000000000000000FFFF00000000
310
0000000000000000000000000000FF0000000000000000000000FFFF000000000000000000000000000000000000FF0000000000000000000000FFFFFFFFFFFFFFFFFFFFFFFFFFFFFFFFFFFFFFFFFF0000000000000000000000F9F9F9F900000000000000000000000000F9FEFEFF0000000000000000000000FFFF00FFFF
310
FFFFFFFFFFFFFFFFFFFFFFFFFF0000FF0000000000000000000000FF00FF000000000000000000000000000000FF00FFFF00FFFF00000000000000FFFFFF000000000000000000000000000000FFFFFFFF00FFFEFF00000000FFFFFFFFFF000000000000000000000000000000FFFFFFFF00FFFFFF00000000000000000000
310
00000000000000000000000000000000000000000000000000000000000000000000000000000000000000000000000000000000000000000000000000000000000000000000000000000000000000000000000000000000000000000000000000000000000000000000000000000000000000000000000000000000000000
310
0000000000000000000000000000000000000000000000000000000000000000000000000000000000000000000000000000000000000000
102
{BLKREFS
331
5201
102
}
 70
     4
280
     1
281
     0
  0
BLOCK_RECORD
  5
5269
102
{ACAD_XDICTIONARY
360
52F1
102
}
330
1
100
AcDbSymbolTableRecord
100
AcDbBlockTableRecord
  2
リーマボルト-2 SAM125 M6
340
0
310
2800000020000000200000000100080000000000000400000000000000000000000000000000000000000000000080000080000000808000800000008000800080800000C0C0C000C0DCC000F0CAA6000020400000206000002080000020A0000020C0000020E00000400000004020000040400000406000004080000040A0
310
000040C0000040E00000600000006020000060400000606000006080000060A0000060C0000060E00000800000008020000080400000806000008080000080A0000080C0000080E00000A0000000A0200000A0400000A0600000A0800000A0A00000A0C00000A0E00000C0000000C0200000C0400000C0600000C0800000C0
310
A00000C0C00000C0E00000E0000000E0200000E0400000E0600000E0800000E0A00000E0C00000E0E00040000000400020004000400040006000400080004000A0004000C0004000E00040200000402020004020400040206000402080004020A0004020C0004020E000404000004040200040404000404060004040800040
310
40A0004040C0004040E00040600000406020004060400040606000406080004060A0004060C0004060E00040800000408020004080400040806000408080004080A0004080C0004080E00040A0000040A0200040A0400040A0600040A0800040A0A00040A0C00040A0E00040C0000040C0200040C0400040C0600040C08000
310
40C0A00040C0C00040C0E00040E0000040E0200040E0400040E0600040E0800040E0A00040E0C00040E0E00080000000800020008000400080006000800080008000A0008000C0008000E00080200000802020008020400080206000802080008020A0008020C0008020E00080400000804020008040400080406000804080
310
008040A0008040C0008040E00080600000806020008060400080606000806080008060A0008060C0008060E00080800000808020008080400080806000808080008080A0008080C0008080E00080A0000080A0200080A0400080A0600080A0800080A0A00080A0C00080A0E00080C0000080C0200080C0400080C0600080C0
310
800080C0A00080C0C00080C0E00080E0000080E0200080E0400080E0600080E0800080E0A00080E0C00080E0E000C0000000C0002000C0004000C0006000C0008000C000A000C000C000C000E000C0200000C0202000C0204000C0206000C0208000C020A000C020C000C020E000C0400000C0402000C0404000C0406000C0
310
408000C040A000C040C000C040E000C0600000C0602000C0604000C0606000C0608000C060A000C060C000C060E000C0800000C0802000C0804000C0806000C0808000C080A000C080C000C080E000C0A00000C0A02000C0A04000C0A06000C0A08000C0A0A000C0A0C000C0A0E000C0C00000C0C02000C0C04000C0C06000
310
C0C08000C0C0A000F0FBFF00A4A0A000808080000000FF0000FF000000FFFF00FF000000FF00FF00FFFF0000FFFFFF0000000000000000000000000000000000000000000000000000000000000000000000000000000000000000000000000000000000000000000000000000000000000000000000000000000000000000
310
00000000000000000000000000000000000000000000000000000000000000000000000000000000000000000000000000000000000000000000000000000000000000000000000000000000000000000000000000000000000000000000000000000000000000000000000000000000000000000000000000000000000000
310
00000000000000000000000000000000000000000000000000000000000000000000000000000000000000000000000000000000000000000000000000000000000000000000000000000000000000000000000000000000000000000000000000000000000000000000000000000000000000000000000000000000000000
310
000000000000000000000000000000000000000000000000000000000000000000000000000000000000000000000000000000000000FFFFFFFFFF00000000000000000000000000000000000000FFFFFF0000000000FF0000FF000000FF000000000000000000000000000000FFFF00FF000000FFFEFEFFFFFFFFFFFFFF00
310
0000000000000000000000000000FFFF00FFFF0000FFFFFF0000FF0000FFFF000000000000000000000000000000FF0000FFFF0000FFFFFF0000FFFF00FFFF000000000000000000000000000000FFFFFFFFFF0000FFFFFFFFFFFFFFFFFFFF000000000000000000000000000000FFFF00FFFF00000000FF0000FF000000FF
310
000000000000000000000000000000FFFF00FF0000000000FFFFFFFFFF00000000000000000000000000000000000000FFFFFF00000000000000000000000000000000000000000000000000000000000000000000000000000000000000000000000000000000000000000000000000000000000000000000000000000000
310
00000000000000000000000000000000000000000000000000000000000000000000000000000000000000000000000000000000000000000000000000000000000000000000000000000000000000000000000000000000000000000000000000000000000000000000000000000000000000000000000000000000000000
310
00000000000000000000000000000000000000000000000000000000000000000000000000000000000000000000000000000000000000000000000000000000000000000000000000000000000000000000000000000000000000000000000000000000000000000000000000000000000000000000000000000000000000
310
0000000000000000000000000000000000000000000000000000000000000000000000000000000000000000000000000000000000000000
102
{BLKREFS
331
5294
102
}
 70
     4
280
     1
281
     0
  0
BLOCK_RECORD
  5
5517
330
1
100
AcDbSymbolTableRecord
100
AcDbBlockTableRecord
  2
*D11
340
0
 70
     0
280
     1
281
     0
  0
BLOCK_RECORD
  5
55CF
330
1
100
AcDbSymbolTableRecord
100
AcDbBlockTableRecord
  2
*D12
340
0
 70
     0
280
     1
281
     0
  0
BLOCK_RECORD
  5
55FF
330
1
100
AcDbSymbolTableRecord
100
AcDbBlockTableRecord
  2
*D13
340
0
 70
     0
280
     1
281
     0
  0
BLOCK_RECORD
  5
57DD
330
1
100
AcDbSymbolTableRecord
100
AcDbBlockTableRecord
  2
*D14
340
0
 70
     0
280
     1
281
     0
  0
BLOCK_RECORD
  5
57F5
330
1
100
AcDbSymbolTableRecord
100
AcDbBlockTableRecord
  2
*D15
340
0
 70
     0
280
     1
281
     0
  0
BLOCK_RECORD
  5
580D
330
1
100
AcDbSymbolTableRecord
100
AcDbBlockTableRecord
  2
*D16
340
0
 70
     0
280
     1
281
     0
  0
BLOCK_RECORD
  5
59B1
330
1
100
AcDbSymbolTableRecord
100
AcDbBlockTableRecord
  2
*D17
340
0
 70
     0
280
     1
281
     0
  0
BLOCK_RECORD
  5
59F9
330
1
100
AcDbSymbolTableRecord
100
AcDbBlockTableRecord
  2
*D18
340
0
 70
     0
280
     1
281
     0
  0
BLOCK_RECORD
  5
5A11
330
1
100
AcDbSymbolTableRecord
100
AcDbBlockTableRecord
  2
*D19
340
0
 70
     0
280
     1
281
     0
  0
BLOCK_RECORD
  5
5A29
330
1
100
AcDbSymbolTableRecord
100
AcDbBlockTableRecord
  2
*D20
340
0
 70
     0
280
     1
281
     0
  0
BLOCK_RECORD
  5
5A59
330
1
100
AcDbSymbolTableRecord
100
AcDbBlockTableRecord
  2
*D21
340
0
 70
     0
280
     1
281
     0
  0
BLOCK_RECORD
  5
5A71
330
1
100
AcDbSymbolTableRecord
100
AcDbBlockTableRecord
  2
*D22
340
0
 70
     0
280
     1
281
     0
  0
BLOCK_RECORD
  5
6B94
102
{ACAD_XDICTIONARY
360
6B95
102
}
330
1
100
AcDbSymbolTableRecord
100
AcDbBlockTableRecord
  2
ＧＣスペーサ SAMY125
340
0
310
2800000020000000200000000100080000000000000400000000000000000000000000000000000000000000000080000080000000808000800000008000800080800000C0C0C000C0DCC000F0CAA6000020400000206000002080000020A0000020C0000020E00000400000004020000040400000406000004080000040A0
310
000040C0000040E00000600000006020000060400000606000006080000060A0000060C0000060E00000800000008020000080400000806000008080000080A0000080C0000080E00000A0000000A0200000A0400000A0600000A0800000A0A00000A0C00000A0E00000C0000000C0200000C0400000C0600000C0800000C0
310
A00000C0C00000C0E00000E0000000E0200000E0400000E0600000E0800000E0A00000E0C00000E0E00040000000400020004000400040006000400080004000A0004000C0004000E00040200000402020004020400040206000402080004020A0004020C0004020E000404000004040200040404000404060004040800040
310
40A0004040C0004040E00040600000406020004060400040606000406080004060A0004060C0004060E00040800000408020004080400040806000408080004080A0004080C0004080E00040A0000040A0200040A0400040A0600040A0800040A0A00040A0C00040A0E00040C0000040C0200040C0400040C0600040C08000
310
40C0A00040C0C00040C0E00040E0000040E0200040E0400040E0600040E0800040E0A00040E0C00040E0E00080000000800020008000400080006000800080008000A0008000C0008000E00080200000802020008020400080206000802080008020A0008020C0008020E00080400000804020008040400080406000804080
310
008040A0008040C0008040E00080600000806020008060400080606000806080008060A0008060C0008060E00080800000808020008080400080806000808080008080A0008080C0008080E00080A0000080A0200080A0400080A0600080A0800080A0A00080A0C00080A0E00080C0000080C0200080C0400080C0600080C0
310
800080C0A00080C0C00080C0E00080E0000080E0200080E0400080E0600080E0800080E0A00080E0C00080E0E000C0000000C0002000C0004000C0006000C0008000C000A000C000C000C000E000C0200000C0202000C0204000C0206000C0208000C020A000C020C000C020E000C0400000C0402000C0404000C0406000C0
310
408000C040A000C040C000C040E000C0600000C0602000C0604000C0606000C0608000C060A000C060C000C060E000C0800000C0802000C0804000C0806000C0808000C080A000C080C000C080E000C0A00000C0A02000C0A04000C0A06000C0A08000C0A0A000C0A0C000C0A0E000C0C00000C0C02000C0C04000C0C06000
310
C0C08000C0C0A000F0FBFF00A4A0A000808080000000FF0000FF000000FFFF00FF000000FF00FF00FFFF0000FFFFFF0000000000000000000000000000000000000000000000000000000000000000000000000000000000000000000000000000000000000000000000000000000000000000000000000000000000000000
310
00000000000000000000000000000000000000FFFFFFFF0000000000000000000000000000000000000000FFFFFFFF00000000FF0000FF0000000000000000000000000000000000000000FF0000FF000000F9F9F9F9FFF9000000000000000000000000000000000000F9FFF9F9F9F9000000FF0000FFFF00000000000000
310
0000000000000000000000FFFF0000FF00000000FF0000FFFFFFFFFFFFFFFFFFFFFFFEFFFFFFFFFFFFFFFFFFFF0000FF00000000FF0000FFFF0000000000000000FEFE0000000000000000FFFF0000FF00000000FF0000FFFF0000000000000000FEFE0000000000000000FFFF0000FF00000000FF0000FFFF000000000000
310
0000FEFE0000000000000000FFFF0000FF00000000FF0000FFFF000000000000000000FE0000000000000000FFFF0000FF00000000FF0000FFFF0000000000000000FEFE0000000000000000FFFF0000FF00000000FF0000FFFF0000000000000000FEFE0000000000000000FFFF0000FF00000000FF0000FFFF0000000000
310
000000FEFE0000000000000000FFFF0000FF00000000FF0000FFFF000000000000000000FE0000000000000000FFFF0000FF00000000FFFF00FFFF00FF00000000000000FE000000000000FF00FFFF00FFFF0000000000FF00000000FF000000000000FEFE000000000000FF00000000FF000000000000FF00000000FF0000
310
00000000FEFE000000000000FF00000000FF000000000000FF00000000FF000000000000FEFE000000000000FF00000000FF000000000000FF00000000FF00000000000000FE000000000000FF00000000FF000000000000FF00000000FF000000000000FEFE000000000000FF00000000FF000000000000FF00000000FF00
310
0000000000FEFE000000000000FF00000000FF000000000000FF0000F9FFFFFFFFFFFFFFFFFEFEFFFFFFFFFFFFFFFFF90000FF0000000000FFFF0000FFF9FFFFFFFFFFFFFFFFFEFFFFFFFFFFFFFFFFFF0000FFFF00000000FF0000FFFFFF00000000000000000000000000000000FFFFFF0000FF000000F9FFFFFFFFF90000
310
00000000000000000000000000000000F9FFFFFFFFF9000000FFFFFFFF0000000000000000000000000000000000000000FFFFFFFF00000000FFFFFFFF0000000000000000000000000000000000000000FFFFFFFF000000000000000000000000000000000000000000000000000000000000000000000000000000000000
310
0000000000000000000000000000000000000000000000000000000000000000000000000000000000000000000000000000000000000000
102
{BLKREFS
331
6C17
102
}
 70
     4
280
     1
281
     0
  0
BLOCK_RECORD
  5
75DA
330
1
100
AcDbSymbolTableRecord
100
AcDbBlockTableRecord
  2
*D24
340
0
 70
     0
280
     1
281
     0
  0
BLOCK_RECORD
  5
7604
330
1
100
AcDbSymbolTableRecord
100
AcDbBlockTableRecord
  2
*D25
340
0
 70
     0
280
     1
281
     0
  0
BLOCK_RECORD
  5
7D58
330
1
100
AcDbSymbolTableRecord
100
AcDbBlockTableRecord
  2
*D26
340
0
 70
     0
280
     1
281
     0
  0
BLOCK_RECORD
  5
7E4C
330
1
100
AcDbSymbolTableRecord
100
AcDbBlockTableRecord
  2
*D27
340
0
 70
     0
280
     1
281
     0
  0
BLOCK_RECORD
  5
7E70
330
1
100
AcDbSymbolTableRecord
100
AcDbBlockTableRecord
  2
*D28
340
0
 70
     0
280
     1
281
     0
  0
BLOCK_RECORD
  5
7F4E
330
1
100
AcDbSymbolTableRecord
100
AcDbBlockTableRecord
  2
*D29
340
0
 70
     0
280
     1
281
     0
  0
BLOCK_RECORD
  5
7FA0
330
1
100
AcDbSymbolTableRecord
100
AcDbBlockTableRecord
  2
_DotSmall
340
0
102
{BLKREFS
331
7FAB
331
7FE3
331
80C3
331
80C4
102
}
 70
     0
280
     1
281
     0
  0
BLOCK_RECORD
  5
800C
330
1
100
AcDbSymbolTableRecord
100
AcDbBlockTableRecord
  2
*D31
340
0
 70
     0
280
     1
281
     0
  0
BLOCK_RECORD
  5
803F
330
1
100
AcDbSymbolTableRecord
100
AcDbBlockTableRecord
  2
*D32
340
0
 70
     0
280
     1
281
     0
  0
BLOCK_RECORD
  5
81C6
330
1
100
AcDbSymbolTableRecord
100
AcDbBlockTableRecord
  2
ケース
340
0
310
2800000020000000200000000100080000000000000400000000000000000000000000000000000000000000000080000080000000808000800000008000800080800000C0C0C000C0DCC000F0CAA6000020400000206000002080000020A0000020C0000020E00000400000004020000040400000406000004080000040A0
310
000040C0000040E00000600000006020000060400000606000006080000060A0000060C0000060E00000800000008020000080400000806000008080000080A0000080C0000080E00000A0000000A0200000A0400000A0600000A0800000A0A00000A0C00000A0E00000C0000000C0200000C0400000C0600000C0800000C0
310
A00000C0C00000C0E00000E0000000E0200000E0400000E0600000E0800000E0A00000E0C00000E0E00040000000400020004000400040006000400080004000A0004000C0004000E00040200000402020004020400040206000402080004020A0004020C0004020E000404000004040200040404000404060004040800040
310
40A0004040C0004040E00040600000406020004060400040606000406080004060A0004060C0004060E00040800000408020004080400040806000408080004080A0004080C0004080E00040A0000040A0200040A0400040A0600040A0800040A0A00040A0C00040A0E00040C0000040C0200040C0400040C0600040C08000
310
40C0A00040C0C00040C0E00040E0000040E0200040E0400040E0600040E0800040E0A00040E0C00040E0E00080000000800020008000400080006000800080008000A0008000C0008000E00080200000802020008020400080206000802080008020A0008020C0008020E00080400000804020008040400080406000804080
310
008040A0008040C0008040E00080600000806020008060400080606000806080008060A0008060C0008060E00080800000808020008080400080806000808080008080A0008080C0008080E00080A0000080A0200080A0400080A0600080A0800080A0A00080A0C00080A0E00080C0000080C0200080C0400080C0600080C0
310
800080C0A00080C0C00080C0E00080E0000080E0200080E0400080E0600080E0800080E0A00080E0C00080E0E000C0000000C0002000C0004000C0006000C0008000C000A000C000C000C000E000C0200000C0202000C0204000C0206000C0208000C020A000C020C000C020E000C0400000C0402000C0404000C0406000C0
310
408000C040A000C040C000C040E000C0600000C0602000C0604000C0606000C0608000C060A000C060C000C060E000C0800000C0802000C0804000C0806000C0808000C080A000C080C000C080E000C0A00000C0A02000C0A04000C0A06000C0A08000C0A0A000C0A0C000C0A0E000C0C00000C0C02000C0C04000C0C06000
310
C0C08000C0C0A000F0FBFF00A4A0A000808080000000FF0000FF000000FFFF00FF000000FF00FF00FFFF0000FFFFFF0000000000000000000000000000000000000000000000000000000000000000000000000000000000000000000000000000000000000000000000000000000000000000000000000000000000000000
310
00000000000000000000000000000000000000000000000000000000000000000000000000000000000000000000000000000000000000000000000000000000000000000000000000000000000000000000000000000000000000000000000000000000000000000000000000000000000000000000000000000000000000
310
000000000000000000000000000000000000000000000000000000000000000000000000000000000000000000000000000000FC000000FC000000000000000000FC000000FC00000000000000000000000000FCFCFCFCFC000000000000000000FCFCFCFCFC00000000000000000000000000FC000000FC00000000000000
310
0000FC000000FC00000000000000000000000000FC000000FC000000000000000000FC000000FC00000000000000000000000000FC000000FC000000000000000000FC000000FC000000FCFCFCFCFCFCFCFC0000FC000000FC000000000000000000FC000000FCFCFCFCFCFCFCFCFCFCFCFC0000FC000000FCFCFCFCFCFCFC
310
FCFCFCFC000000FC000000FC000000000000000000FC0000000000000000000000000000000000FC000000FCFCFCFCFCFCFCFC0000FC000000000000000000000000000000000000FCFCFC00000000000000000000FC00000000000000000000000000000000000000000000000000000000000000FC000000000000000000
310
00000000000000000000000000000000000000000000FC0000000000000000000000000000000000000000000000000000000000000000FC0000000000000000000000000000000000000000000000000000000000000000FCFC0000000000000000000000000000000000000000000000000000000000000000FC00000000
310
00000000000000000000000000000000000000000000000000000000FCFCFCFCFCFCFCFCFCFCFCFCFCFCFCFCFCFCFCFCFCFCFCFCFC0000000000000000000000000000000000000000000000000000000000000000000000000000000000000000000000000000000000000000000000000000000000000000000000000000
310
00000000000000000000000000000000000000000000000000000000000000000000000000000000000000000000000000000000000000000000000000000000000000000000000000000000000000000000000000000000000000000000000000000000000000000000000000000000000000000000000000000000000000
310
0000000000000000000000000000000000000000000000000000000000000000000000000000000000000000000000000000000000000000
102
{BLKREFS
331
81DF
102
}
 70
     4
280
     1
281
     1
  0
ENDTAB
  0
ENDSEC
  0
SECTION
  2
BLOCKS
  0
BLOCK
  5
20
330
1F
100
AcDbEntity
  8
0
100
AcDbBlockBegin
  2
*Model_Space
 70
     0
 10
0.0
 20
0.0
 30
0.0
  3
*Model_Space
  1

  0
ENDBLK
  5
21
330
1F
100
AcDbEntity
  8
0
100
AcDbBlockEnd
  0
BLOCK
  5
1C
330
1B
100
AcDbEntity
 67
     1
  8
0
100
AcDbBlockBegin
  2
*Paper_Space
 70
     0
 10
0.0
 20
0.0
 30
0.0
  3
*Paper_Space
  1

  0
ENDBLK
  5
1D
330
1B
100
AcDbEntity
 67
     1
  8
0
100
AcDbBlockEnd
  0
BLOCK
  5
24
330
23
100
AcDbEntity
 67
     1
  8
0
100
AcDbBlockBegin
  2
*Paper_Space0
 70
     0
 10
0.0
 20
0.0
 30
0.0
  3
*Paper_Space0
  1

  0
ENDBLK
  5
25
330
23
100
AcDbEntity
 67
     1
  8
0
100
AcDbBlockEnd
  0
BLOCK
  5
6D
330
69
100
AcDbEntity
  8
0
100
AcDbBlockBegin
  2
_Open30
 70
     0
 10
0.0
 20
0.0
 30
0.0
  3
_Open30
  1

  0
LINE
  5
6A
330
69
100
AcDbEntity
  8
0
  6
ByBlock
 62
     0
370
    -2
100
AcDbLine
 10
-1.0
 20
0.26794919
 30
0.0
 11
0.0
 21
0.0
 31
0.0
  0
LINE
  5
6B
330
69
100
AcDbEntity
  8
0
  6
ByBlock
 62
     0
370
    -2
100
AcDbLine
 10
0.0
 20
0.0
 30
0.0
 11
-1.0
 21
-0.26794919
 31
0.0
  0
LINE
  5
6C
330
69
100
AcDbEntity
  8
0
  6
ByBlock
 62
     0
370
    -2
100
AcDbLine
 10
0.0
 20
0.0
 30
0.0
 11
-1.0
 21
0.0
 31
0.0
  0
ENDBLK
  5
6E
330
69
100
AcDbEntity
  8
0
100
AcDbBlockEnd
  0
BLOCK
  5
76
330
74
100
AcDbEntity
  8
0
100
AcDbBlockBegin
  2
GENAXEH
 70
     0
 10
0.0
 20
0.0
 30
0.0
  3
GENAXEH
  1

  0
LINE
  5
75
330
74
100
AcDbEntity
  8
0
100
AcDbLine
 10
-1.0
 20
0.0
 30
0.0
 11
1.0
 21
0.0
 31
0.0
  0
ENDBLK
  5
77
330
74
100
AcDbEntity
  8
0
100
AcDbBlockEnd
  0
BLOCK
  5
382B
330
3828
100
AcDbEntity
  8
0
100
AcDbBlockBegin
  2
ロッカクアナツキプラグ-1　R1／8
 70
     0
 10
0.0
 20
0.0
 30
0.0
  3
ロッカクアナツキプラグ-1　R1／8
  1

  0
LINE
  5
4BE0
330
3828
100
AcDbEntity
  8
AM_0 外形線1
100
AcDbLine
 10
-2.178053999999974
 20
-1.25750000000005
 30
0.0
 11
0.0
 21
-2.514999999999984
 31
0.0
  0
LINE
  5
4BE1
330
3828
100
AcDbEntity
  8
AM_0 外形線1
100
AcDbLine
 10
0.0
 20
2.514999999999984
 30
0.0
 11
-2.178053999999974
 21
1.25750000000005
 31
0.0
  0
LINE
  5
4BE2
330
3828
100
AcDbEntity
  8
AM_7 中心線
100
AcDbLine
 10
6.71623199999999
 20
0.0
 30
0.0
 11
-6.71623199999999
 21
0.0
 31
0.0
  0
CIRCLE
  5
4BE3
330
3828
100
AcDbEntity
  8
AM_4 細線
100
AcDbCircle
 10
0.0
 20
0.0
 30
0.0
 40
5.271232
  0
CIRCLE
  5
4BE4
330
3828
100
AcDbEntity
  8
AM_0 外形線1
100
AcDbCircle
 10
0.0
 20
0.0
 30
0.0
 40
4.816232
  0
LINE
  5
4BE5
330
3828
100
AcDbEntity
  8
AM_0 外形線1
100
AcDbLine
 10
-2.178053999999974
 20
1.25750000000005
 30
0.0
 11
-2.178053999999974
 21
-1.25750000000005
 31
0.0
  0
LINE
  5
4BE6
330
3828
100
AcDbEntity
  8
AM_7 中心線
100
AcDbLine
 10
0.0
 20
6.716232000000102
 30
0.0
 11
0.0
 21
-6.71623199999999
 31
0.0
  0
LINE
  5
4BE7
330
3828
100
AcDbEntity
  8
AM_0 外形線1
100
AcDbLine
 10
2.178053999999974
 20
-1.25750000000005
 30
0.0
 11
2.178053999999974
 21
1.25750000000005
 31
0.0
  0
LINE
  5
4BE8
330
3828
100
AcDbEntity
  8
AM_0 外形線1
100
AcDbLine
 10
0.0
 20
-2.514999999999984
 30
0.0
 11
2.178053999999974
 21
-1.25750000000005
 31
0.0
  0
LINE
  5
4BE9
330
3828
100
AcDbEntity
  8
AM_0 外形線1
100
AcDbLine
 10
2.178053999999974
 20
1.25750000000005
 30
0.0
 11
0.0
 21
2.514999999999984
 31
0.0
  0
ENDBLK
  5
3836
330
3828
100
AcDbEntity
  8
0
100
AcDbBlockEnd
  0
BLOCK
  5
3A5B
330
3A5A
100
AcDbEntity
  8
0
100
AcDbBlockBegin
  2
ロッカクアナツキプラグ-2　R1／8
 70
     0
 10
0.0
 20
0.0
 30
0.0
  3
ロッカクアナツキプラグ-2　R1／8
  1

  0
LINE
  5
4BF3
330
3A5A
100
AcDbEntity
  8
AM_0 外形線1
100
AcDbLine
 10
2.178053999999974
 20
-1.25750000000005
 30
0.0
 11
0.0
 21
-2.514999999999984
 31
0.0
  0
LINE
  5
4BF4
330
3A5A
100
AcDbEntity
  8
AM_0 外形線1
100
AcDbLine
 10
0.0
 20
2.514999999999984
 30
0.0
 11
2.178053999999974
 21
1.25750000000005
 31
0.0
  0
CIRCLE
  5
4BF5
330
3A5A
100
AcDbEntity
  8
AM_4 細線
100
AcDbCircle
 10
0.0
 20
0.0
 30
0.0
 40
5.271232
  0
CIRCLE
  5
4BF6
330
3A5A
100
AcDbEntity
  8
AM_0 外形線1
100
AcDbCircle
 10
0.0
 20
0.0
 30
0.0
 40
4.816232
  0
LINE
  5
4BF7
330
3A5A
100
AcDbEntity
  8
AM_7 中心線
100
AcDbLine
 10
-6.71623199999999
 20
0.0
 30
0.0
 11
6.71623199999999
 21
0.0
 31
0.0
  0
LINE
  5
4BF8
330
3A5A
100
AcDbEntity
  8
AM_7 中心線
100
AcDbLine
 10
0.0
 20
-6.71623199999999
 30
0.0
 11
0.0
 21
6.716232000000102
 31
0.0
  0
LINE
  5
4BF9
330
3A5A
100
AcDbEntity
  8
AM_0 外形線1
100
AcDbLine
 10
-2.178053999999974
 20
-1.25750000000005
 30
0.0
 11
-2.178053999999974
 21
1.25750000000005
 31
0.0
  0
LINE
  5
4BFA
330
3A5A
100
AcDbEntity
  8
AM_0 外形線1
100
AcDbLine
 10
0.0
 20
-2.514999999999984
 30
0.0
 11
-2.178053999999974
 21
-1.25750000000005
 31
0.0
  0
LINE
  5
4BFB
330
3A5A
100
AcDbEntity
  8
AM_0 外形線1
100
AcDbLine
 10
-2.178053999999974
 20
1.25750000000005
 30
0.0
 11
0.0
 21
2.514999999999984
 31
0.0
  0
LINE
  5
4BFC
330
3A5A
100
AcDbEntity
  8
AM_0 外形線1
100
AcDbLine
 10
2.178053999999974
 20
1.25750000000005
 30
0.0
 11
2.178053999999974
 21
-1.25750000000005
 31
0.0
  0
ENDBLK
  5
3A66
330
3A5A
100
AcDbEntity
  8
0
100
AcDbBlockEnd
  0
BLOCK
  5
4C76
330
4C75
100
AcDbEntity
  8
0
100
AcDbBlockBegin
  2
ケースＡ-1 SAM125
 70
     0
 10
0.0
 20
0.0
 30
0.0
  3
ケースＡ-1 SAM125
  1

  0
ELLIPSE
  5
4C78
330
4C75
100
AcDbEntity
  8
AM_0 外形線1
100
AcDbEllipse
 10
1.199999999999988
 20
46.94999999999999
 30
0.0
 11
0.0
 21
1.949999999999986
 31
0.0
210
0.0
220
0.0
230
1.0
 40
0.6153846153846131
 41
0.0
 42
6.283185307179584
  0
ELLIPSE
  5
4C79
330
4C75
100
AcDbEntity
  8
AM_0 外形線1
100
AcDbEllipse
 10
37.0
 20
37.35000000000002
 30
0.0
 11
-3.799999999999952
 21
0.0
 31
0.0
210
0.0
220
0.0
230
1.0
 40
0.6184210526315777
 41
0.0
 42
6.283185307179584
  0
LINE
  5
4C7A
330
4C75
100
AcDbEntity
  8
AM_0 外形線1
100
AcDbLine
 10
0.2000000000000455
 20
-62.5
 30
0.0
 11
14.80000000000001
 21
-62.5
 31
0.0
  0
LINE
  5
4C7B
330
4C75
100
AcDbEntity
  8
AM_0 外形線1
100
AcDbLine
 10
0.0
 20
0.0
 30
0.0
 11
0.0
 21
-62.30000000000007
 31
0.0
  0
LINE
  5
4C7C
330
4C75
100
AcDbEntity
  8
AM_0 外形線1
100
AcDbLine
 10
0.0
 20
-62.30000000000007
 30
0.0
 11
0.2000000000000455
 21
-62.5
 31
0.0
  0
LINE
  5
4C7D
330
4C75
100
AcDbEntity
  8
AM_0 外形線1
100
AcDbLine
 10
43.0
 20
-43.0
 30
0.0
 11
43.0
 21
0.0
 31
0.0
  0
LINE
  5
4C7E
330
4C75
100
AcDbEntity
  8
AM_0 外形線1
100
AcDbLine
 10
15.0
 20
-62.30000000000007
 30
0.0
 11
15.0
 21
0.0
 31
0.0
  0
LINE
  5
4C7F
330
4C75
100
AcDbEntity
  8
AM_0 外形線1
100
AcDbLine
 10
18.0
 20
-46.0
 30
0.0
 11
40.0
 21
-46.0
 31
0.0
  0
LINE
  5
4C80
330
4C75
100
AcDbEntity
  8
AM_0 外形線1
100
AcDbLine
 10
14.80000000000001
 20
-62.5
 30
0.0
 11
15.0
 21
-62.30000000000007
 31
0.0
  0
ARC
  5
4C81
330
4C75
100
AcDbEntity
  8
AM_0 外形線1
100
AcDbCircle
 10
18.0
 20
-49.0
 30
0.0
 40
3.0
100
AcDbArc
 50
90.0
 51
180.0
  0
ARC
  5
4C82
330
4C75
100
AcDbEntity
  8
AM_0 外形線1
100
AcDbCircle
 10
40.0
 20
-43.0
 30
0.0
 40
3.0
100
AcDbArc
 50
270.0
 51
0.0
  0
LINE
  5
4C83
330
4C75
100
AcDbEntity
  8
AM_7 中心線
100
AcDbLine
 10
-24.0
 20
56.0
 30
0.0
 11
29.0
 21
56.0
 31
0.0
  0
LINE
  5
4C84
330
4C75
100
AcDbEntity
  8
AM_0 外形線1
100
AcDbLine
 10
13.0
 20
41.0
 30
0.0
 11
-2.0
 21
41.0
 31
0.0
  0
LINE
  5
4C85
330
4C75
100
AcDbEntity
  8
AM_0 外形線1
100
AcDbLine
 10
0.0
 20
52.5
 30
0.0
 11
15.0
 21
52.5
 31
0.0
  0
LINE
  5
4C86
330
4C75
100
AcDbEntity
  8
AM_0 外形線1
100
AcDbLine
 10
15.0
 20
59.5
 30
0.0
 11
0.0
 21
59.5
 31
0.0
  0
LINE
  5
4C87
330
4C75
100
AcDbEntity
  8
AM_0 外形線1
100
AcDbLine
 10
0.2000000000000455
 20
62.5
 30
0.0
 11
14.80000000000001
 21
62.5
 31
0.0
  0
LINE
  5
4C88
330
4C75
100
AcDbEntity
  8
AM_0 外形線1
100
AcDbLine
 10
-2.0
 20
41.0
 30
0.0
 11
-2.0
 21
44.80000000000001
 31
0.0
  0
LINE
  5
4C89
330
4C75
100
AcDbEntity
  8
AM_0 外形線1
100
AcDbLine
 10
1.899999999999975
 20
48.89999999999997
 30
0.0
 11
0.0
 21
48.89999999999997
 31
0.0
  0
LINE
  5
4C8B
330
4C75
100
AcDbEntity
  8
AM_0 外形線1
100
AcDbLine
 10
0.0
 20
48.89999999999997
 30
0.0
 11
0.0
 21
52.5
 31
0.0
  0
LINE
  5
4C8C
330
4C75
100
AcDbEntity
  8
AM_0 外形線1
100
AcDbLine
 10
-2.0
 20
44.80000000000001
 30
0.0
 11
-1.799999999999954
 21
45.0
 31
0.0
  0
ARC
  5
4C8D
330
4C75
100
AcDbEntity
  8
AM_0 外形線1
100
AcDbCircle
 10
1.899999999999975
 20
48.39999999999998
 30
0.0
 40
0.5
100
AcDbArc
 50
0.0
 51
90.0
  0
LINE
  5
4C8E
330
4C75
100
AcDbEntity
  8
AM_0 外形線1
100
AcDbLine
 10
2.399999999999977
 20
45.49999999999999
 30
0.0
 11
2.399999999999977
 21
48.39999999999998
 31
0.0
  0
ARC
  5
4C8F
330
4C75
100
AcDbEntity
  8
AM_0 外形線1
100
AcDbCircle
 10
1.899999999999975
 20
45.49999999999999
 30
0.0
 40
0.5
100
AcDbArc
 50
270.0
 51
0.0
  0
LINE
  5
4C90
330
4C75
100
AcDbEntity
  8
AM_0 外形線1
100
AcDbLine
 10
0.0
 20
59.5
 30
0.0
 11
0.0
 21
62.30000000000001
 31
0.0
  0
LINE
  5
4C91
330
4C75
100
AcDbEntity
  8
AM_0 外形線1
100
AcDbLine
 10
0.0
 20
62.30000000000001
 30
0.0
 11
0.2000000000000455
 21
62.5
 31
0.0
  0
LINE
  5
4C92
330
4C75
100
AcDbEntity
  8
AM_0 外形線1
100
AcDbLine
 10
33.20000000000006
 20
36.0
 30
0.0
 11
33.20000000000006
 21
35.0
 31
0.0
  0
LINE
  5
4C93
330
4C75
100
AcDbEntity
  8
AM_0 外形線1
100
AcDbLine
 10
31.0
 20
36.0
 30
0.0
 11
31.0
 21
35.0
 31
0.0
  0
LINE
  5
4C94
330
4C75
100
AcDbEntity
  8
AM_0 外形線1
100
AcDbLine
 10
40.79999999999995
 20
36.0
 30
0.0
 11
40.79999999999995
 21
35.0
 31
0.0
  0
LINE
  5
4C95
330
4C75
100
AcDbEntity
  8
AM_0 外形線1
100
AcDbLine
 10
43.0
 20
36.0
 30
0.0
 11
43.0
 21
35.0
 31
0.0
  0
LINE
  5
4C96
330
4C75
100
AcDbEntity
  8
AM_0 外形線1
100
AcDbLine
 10
33.20000000000006
 20
36.0
 30
0.0
 11
31.0
 21
36.0
 31
0.0
  0
LINE
  5
4C97
330
4C75
100
AcDbEntity
  8
AM_0 外形線1
100
AcDbLine
 10
18.0
 20
46.0
 30
0.0
 11
40.0
 21
46.0
 31
0.0
  0
LINE
  5
4C98
330
4C75
100
AcDbEntity
  8
AM_0 外形線1
100
AcDbLine
 10
15.0
 20
62.30000000000001
 30
0.0
 11
15.0
 21
49.89999999999998
 31
0.0
  0
LINE
  5
4C99
330
4C75
100
AcDbEntity
  8
AM_7 中心線
100
AcDbLine
 10
12.0
 20
39.0
 30
0.0
 11
30.0
 21
39.0
 31
0.0
  0
LINE
  5
4C9A
330
4C75
100
AcDbEntity
  8
AM_3 隠れ線
100
AcDbLine
 10
16.0
 20
37.80000000000001
 30
0.0
 11
27.5
 21
37.80000000000001
 31
0.0
  0
LINE
  5
4C9B
330
4C75
100
AcDbEntity
  8
AM_0 外形線1
100
AcDbLine
 10
14.0
 20
40.49999999999999
 30
0.0
 11
28.0
 21
40.49999999999999
 31
0.0
  0
ARC
  5
4C9C
330
4C75
100
AcDbEntity
  8
AM_0 外形線1
100
AcDbCircle
 10
13.0
 20
40.0
 30
0.0
 40
1.0
100
AcDbArc
 50
0.0
 51
90.0
  0
LINE
  5
4C9D
330
4C75
100
AcDbEntity
  8
AM_0 外形線1
100
AcDbLine
 10
16.0
 20
37.80000000000001
 30
0.0
 11
14.5
 21
37.80000000000001
 31
0.0
  0
LINE
  5
4C9E
330
4C75
100
AcDbEntity
  8
AM_0 外形線1
100
AcDbLine
 10
14.0
 20
38.30000000000001
 30
0.0
 11
14.0
 21
40.0
 31
0.0
  0
LINE
  5
4C9F
330
4C75
100
AcDbEntity
  8
AM_0 外形線1
100
AcDbLine
 10
14.5
 20
37.80000000000001
 30
0.0
 11
14.0
 21
38.30000000000001
 31
0.0
  0
LINE
  5
4CA0
330
4C75
100
AcDbEntity
  8
AM_0 外形線1
100
AcDbLine
 10
15.0
 20
52.5
 30
0.0
 11
15.0
 21
49.0
 31
0.0
  0
ARC
  5
4CA1
330
4C75
100
AcDbEntity
  8
AM_0 外形線1
100
AcDbCircle
 10
18.0
 20
49.0
 30
0.0
 40
3.0
100
AcDbArc
 50
180.0
 51
270.0
  0
LINE
  5
4CA2
330
4C75
100
AcDbEntity
  8
AM_0 外形線1
100
AcDbLine
 10
31.0
 20
36.0
 30
0.0
 11
31.0
 21
40.0
 31
0.0
  0
LINE
  5
4CA3
330
4C75
100
AcDbEntity
  8
AM_3 隠れ線
100
AcDbLine
 10
28.0
 20
39.88380699999999
 30
0.0
 11
28.0
 21
38.30000000000001
 31
0.0
  0
LINE
  5
4CA4
330
4C75
100
AcDbEntity
  8
AM_3 隠れ線
100
AcDbLine
 10
28.0
 20
38.30000000000001
 30
0.0
 11
27.5
 21
37.80000000000001
 31
0.0
  0
ARC
  5
4CA5
330
4C75
100
AcDbEntity
  8
AM_0 外形線1
100
AcDbCircle
 10
29.0
 20
40.0
 30
0.0
 40
1.0
100
AcDbArc
 50
90.0
 51
180.0
  0
LINE
  5
4CA6
330
4C75
100
AcDbEntity
  8
AM_0 外形線1
100
AcDbLine
 10
30.0
 20
41.0
 30
0.0
 11
29.0
 21
41.0
 31
0.0
  0
ARC
  5
4CA7
330
4C75
100
AcDbEntity
  8
AM_0 外形線1
100
AcDbCircle
 10
30.0
 20
40.0
 30
0.0
 40
1.0
100
AcDbArc
 50
0.0
 51
90.0
  0
LINE
  5
4CA9
330
4C75
100
AcDbEntity
  8
AM_0 外形線1
100
AcDbLine
 10
14.80000000000001
 20
62.5
 30
0.0
 11
15.0
 21
62.30000000000001
 31
0.0
  0
ARC
  5
4CAA
330
4C75
100
AcDbEntity
  8
AM_0 外形線1
100
AcDbCircle
 10
40.0
 20
43.0
 30
0.0
 40
3.0
100
AcDbArc
 50
0.0
 51
90.0
  0
LINE
  5
4CAB
330
4C75
100
AcDbEntity
  8
AM_0 外形線1
100
AcDbLine
 10
40.79999999999995
 20
39.69999999999999
 30
0.0
 11
33.20000000000006
 21
39.69999999999999
 31
0.0
  0
LINE
  5
4CAC
330
4C75
100
AcDbEntity
  8
AM_0 外形線1
100
AcDbLine
 10
33.20000000000006
 20
39.69999999999999
 30
0.0
 11
33.20000000000006
 21
36.0
 31
0.0
  0
LINE
  5
4CAD
330
4C75
100
AcDbEntity
  8
AM_0 外形線1
100
AcDbLine
 10
43.0
 20
43.0
 30
0.0
 11
43.0
 21
36.0
 31
0.0
  0
LINE
  5
4CAE
330
4C75
100
AcDbEntity
  8
AM_0 外形線1
100
AcDbLine
 10
40.79999999999995
 20
36.0
 30
0.0
 11
40.79999999999995
 21
39.69999999999999
 31
0.0
  0
LINE
  5
4CAF
330
4C75
100
AcDbEntity
  8
AM_0 外形線1
100
AcDbLine
 10
43.0
 20
36.0
 30
0.0
 11
40.79999999999995
 21
36.0
 31
0.0
  0
INSERT
  5
4CB0
330
4C75
100
AcDbEntity
  8
AM_0 外形線1
100
AcDbBlockReference
  2
ロッカクアナツキプラグ-1　R1／8
 10
7.5
 20
-29.87435100000006
 30
0.0
  0
LINE
  5
4D19
330
4C75
100
AcDbEntity
  8
AM_0 外形線1
100
AcDbLine
 10
-1.799999999999954
 20
45.0
 30
0.0
 11
1.899999999999975
 21
45.0
 31
0.0
  0
ENDBLK
  5
4C77
330
4C75
100
AcDbEntity
  8
0
100
AcDbBlockEnd
  0
BLOCK
  5
4D41
330
4D40
100
AcDbEntity
  8
0
100
AcDbBlockBegin
  2
ケースＡ-2 SAM125
 70
     0
 10
0.0
 20
0.0
 30
0.0
  3
ケースＡ-2 SAM125
  1

  0
LINE
  5
4D43
330
4D40
100
AcDbEntity
  8
AM_7 中心線
100
AcDbLine
 10
24.0
 20
56.0
 30
0.0
 11
-29.0
 21
56.0
 31
0.0
  0
LINE
  5
4D44
330
4D40
100
AcDbEntity
  8
AM_0 外形線1
100
AcDbLine
 10
-13.0
 20
41.0
 30
0.0
 11
2.0
 21
41.0
 31
0.0
  0
LINE
  5
4D45
330
4D40
100
AcDbEntity
  8
AM_0 外形線1
100
AcDbLine
 10
0.0
 20
52.5
 30
0.0
 11
-15.0
 21
52.5
 31
0.0
  0
LINE
  5
4D46
330
4D40
100
AcDbEntity
  8
AM_0 外形線1
100
AcDbLine
 10
-15.0
 20
59.5
 30
0.0
 11
0.0
 21
59.5
 31
0.0
  0
LINE
  5
4D47
330
4D40
100
AcDbEntity
  8
AM_0 外形線1
100
AcDbLine
 10
-0.2000000000000455
 20
62.5
 30
0.0
 11
-14.79999999999995
 21
62.5
 31
0.0
  0
LINE
  5
4D48
330
4D40
100
AcDbEntity
  8
AM_0 外形線1
100
AcDbLine
 10
-0.2000000000000455
 20
-62.5
 30
0.0
 11
-14.79999999999995
 21
-62.5
 31
0.0
  0
LINE
  5
4D49
330
4D40
100
AcDbEntity
  8
AM_0 外形線1
100
AcDbLine
 10
-43.0
 20
-43.0
 30
0.0
 11
-43.0
 21
0.0
 31
0.0
  0
LINE
  5
4D4A
330
4D40
100
AcDbEntity
  8
AM_0 外形線1
100
AcDbLine
 10
-15.0
 20
-62.30000000000007
 30
0.0
 11
-15.0
 21
0.0
 31
0.0
  0
LINE
  5
4D4B
330
4D40
100
AcDbEntity
  8
AM_0 外形線1
100
AcDbLine
 10
-18.0
 20
-46.0
 30
0.0
 11
-40.0
 21
-46.0
 31
0.0
  0
ARC
  5
4D4C
330
4D40
100
AcDbEntity
  8
AM_0 外形線1
100
AcDbCircle
 10
-40.0
 20
-43.0
 30
0.0
 40
3.0
100
AcDbArc
 50
180.0
 51
270.0
  0
LINE
  5
4D4D
330
4D40
100
AcDbEntity
  8
AM_0 外形線1
100
AcDbLine
 10
-14.79999999999995
 20
-62.5
 30
0.0
 11
-15.0
 21
-62.30000000000007
 31
0.0
  0
ARC
  5
4D4E
330
4D40
100
AcDbEntity
  8
AM_0 外形線1
100
AcDbCircle
 10
-18.0
 20
-49.0
 30
0.0
 40
3.0
100
AcDbArc
 50
0.0
 51
90.0
  0
LWPOLYLINE
  5
4D4F
330
4D40
100
AcDbEntity
  8
AM_0 外形線1
100
AcDbPolyline
 90
       73
 70
     0
 43
0.0
 10
-33.20000000000006
 20
37.35000000000002
 10
-33.21445999999993
 20
37.55481599999996
 10
-33.25773099999992
 20
37.75807299999997
 10
-33.32948199999999
 20
37.95822499999996
 10
-33.42916800000001
 20
38.15374699999996
 10
-33.55603099999996
 20
38.34315299999996
 10
-33.70910400000003
 20
38.52499999999998
 10
-33.88722200000007
 20
38.69790499999999
 10
-34.08903099999998
 20
38.860551
 10
-34.312994
 20
39.01170099999996
 10
-34.55740700000001
 20
39.15020399999998
 10
-34.82041000000004
 20
39.27500699999996
 10
-35.09999999999991
 20
39.38515999999999
 10
-35.39405099999999
 20
39.47982300000001
 10
-35.70032400000002
 20
39.55827799999998
 10
-36.01648799999998
 20
39.61992599999997
 10
-36.34013699999992
 20
39.66429799999998
 10
-36.66880800000001
 20
39.691057
 10
-37.0
 20
39.69999999999999
 10
-37.3311920000001
 20
39.691057
 10
-37.6598630000001
 20
39.66429799999998
 10
-37.98351200000003
 20
39.61992599999997
 10
-38.29967699999997
 20
39.55827799999998
 10
-38.60595000000001
 20
39.47982300000001
 10
-38.9000000000001
 20
39.38515999999999
 10
-39.17959100000008
 20
39.27500699999996
 10
-39.44259299999999
 20
39.15020399999998
 10
-39.687006
 20
39.01170099999996
 10
-39.91096900000002
 20
38.860551
 10
-40.11277799999994
 20
38.69790499999999
 10
-40.29089699999995
 20
38.52499999999998
 10
-40.44397000000003
 20
38.34315299999996
 10
-40.57083199999988
 20
38.15374699999996
 10
-40.670518
 20
37.95822499999996
 10
-40.74226999999996
 20
37.75807299999997
 10
-40.78553999999996
 20
37.55481599999996
 10
-40.79999999999995
 20
37.35000000000002
 10
-40.78553999999996
 20
37.14518399999997
 10
-40.74226999999996
 20
36.94192700000002
 10
-40.670518
 20
36.74177500000002
 10
-40.57083199999988
 20
36.54625299999998
 10
-40.44397000000003
 20
36.35684699999996
 10
-40.29089699999995
 20
36.17500000000001
 10
-40.11277799999994
 20
36.002095
 10
-39.91096900000002
 20
35.83944899999995
 10
-39.687006
 20
35.68829899999997
 10
-39.44259299999999
 20
35.54979499999996
 10
-39.17959100000008
 20
35.42499299999998
 10
-38.9000000000001
 20
35.31484000000001
 10
-38.60595000000001
 20
35.22017699999998
 10
-38.29967699999997
 20
35.14172199999996
 10
-37.98351200000003
 20
35.08007399999997
 10
-37.6598630000001
 20
35.03570200000002
 10
-37.3311920000001
 20
35.00894199999999
 10
-37.0
 20
35.0
 10
-36.66880800000001
 20
35.00894199999999
 10
-36.34013699999992
 20
35.03570200000002
 10
-36.01648799999998
 20
35.08007399999997
 10
-35.70032400000002
 20
35.14172199999996
 10
-35.39405099999999
 20
35.22017699999998
 10
-35.09999999999991
 20
35.31484000000001
 10
-34.82041000000004
 20
35.42499299999998
 10
-34.55740700000001
 20
35.54979499999996
 10
-34.312994
 20
35.68829899999997
 10
-34.08903099999998
 20
35.83944899999995
 10
-33.88722200000007
 20
36.002095
 10
-33.70910400000003
 20
36.17500000000001
 10
-33.55603099999996
 20
36.35684699999996
 10
-33.42916800000001
 20
36.54625299999998
 10
-33.32948199999999
 20
36.74177500000002
 10
-33.25773099999992
 20
36.94192700000002
 10
-33.21445999999993
 20
37.14518399999997
 10
-33.20000000000006
 20
37.35000000000002
  0
LINE
  5
4D50
330
4D40
100
AcDbEntity
  8
AM_0 外形線1
100
AcDbLine
 10
-43.0
 20
36.0
 30
0.0
 11
-43.0
 21
35.0
 31
0.0
  0
LINE
  5
4D51
330
4D40
100
AcDbEntity
  8
AM_0 外形線1
100
AcDbLine
 10
-40.79999999999995
 20
36.0
 30
0.0
 11
-40.79999999999995
 21
35.0
 31
0.0
  0
LINE
  5
4D52
330
4D40
100
AcDbEntity
  8
AM_0 外形線1
100
AcDbLine
 10
-33.20000000000006
 20
36.0
 30
0.0
 11
-33.20000000000006
 21
35.0
 31
0.0
  0
LINE
  5
4D53
330
4D40
100
AcDbEntity
  8
AM_0 外形線1
100
AcDbLine
 10
-31.0
 20
36.0
 30
0.0
 11
-31.0
 21
35.0
 31
0.0
  0
LINE
  5
4D54
330
4D40
100
AcDbEntity
  8
AM_0 外形線1
100
AcDbLine
 10
-33.20000000000006
 20
36.0
 30
0.0
 11
-31.0
 21
36.0
 31
0.0
  0
LINE
  5
4D55
330
4D40
100
AcDbEntity
  8
AM_0 外形線1
100
AcDbLine
 10
-18.0
 20
46.0
 30
0.0
 11
-40.0
 21
46.0
 31
0.0
  0
ARC
  5
4D56
330
4D40
100
AcDbEntity
  8
AM_0 外形線1
100
AcDbCircle
 10
-40.0
 20
43.0
 30
0.0
 40
3.0
100
AcDbArc
 50
90.0
 51
180.0
  0
LINE
  5
4D57
330
4D40
100
AcDbEntity
  8
AM_0 外形線1
100
AcDbLine
 10
-40.79999999999995
 20
39.69999999999999
 30
0.0
 11
-33.20000000000006
 21
39.69999999999999
 31
0.0
  0
LINE
  5
4D58
330
4D40
100
AcDbEntity
  8
AM_0 外形線1
100
AcDbLine
 10
-40.79999999999995
 20
36.0
 30
0.0
 11
-40.79999999999995
 21
39.69999999999999
 31
0.0
  0
LINE
  5
4D59
330
4D40
100
AcDbEntity
  8
AM_0 外形線1
100
AcDbLine
 10
-43.0
 20
36.0
 30
0.0
 11
-40.79999999999995
 21
36.0
 31
0.0
  0
LINE
  5
4D5A
330
4D40
100
AcDbEntity
  8
AM_0 外形線1
100
AcDbLine
 10
-43.0
 20
43.0
 30
0.0
 11
-43.0
 21
36.0
 31
0.0
  0
LINE
  5
4D5B
330
4D40
100
AcDbEntity
  8
AM_0 外形線1
100
AcDbLine
 10
-33.20000000000006
 20
39.69999999999999
 30
0.0
 11
-33.20000000000006
 21
36.0
 31
0.0
  0
LINE
  5
4D5D
330
4D40
100
AcDbEntity
  8
AM_3 隠れ線
100
AcDbLine
 10
-16.0
 20
37.80000000000001
 30
0.0
 11
-27.5
 21
37.80000000000001
 31
0.0
  0
LINE
  5
4D5E
330
4D40
100
AcDbEntity
  8
AM_7 中心線
100
AcDbLine
 10
-12.0
 20
39.0
 30
0.0
 11
-30.0
 21
39.0
 31
0.0
  0
LINE
  5
4D5F
330
4D40
100
AcDbEntity
  8
AM_0 外形線1
100
AcDbLine
 10
-14.0
 20
40.49999999999999
 30
0.0
 11
-28.0
 21
40.49999999999999
 31
0.0
  0
LINE
  5
4D60
330
4D40
100
AcDbEntity
  8
AM_3 隠れ線
100
AcDbLine
 10
-28.0
 20
39.88380699999999
 30
0.0
 11
-28.0
 21
38.30000000000001
 31
0.0
  0
LINE
  5
4D61
330
4D40
100
AcDbEntity
  8
AM_3 隠れ線
100
AcDbLine
 10
-28.0
 20
38.30000000000001
 30
0.0
 11
-27.5
 21
37.80000000000001
 31
0.0
  0
LINE
  5
4D62
330
4D40
100
AcDbEntity
  8
AM_0 外形線1
100
AcDbLine
 10
-28.0
 20
39.88380699999999
 30
0.0
 11
-28.0
 21
40.0
 31
0.0
  0
ARC
  5
4D63
330
4D40
100
AcDbEntity
  8
AM_0 外形線1
100
AcDbCircle
 10
-29.0
 20
40.0
 30
0.0
 40
1.0
100
AcDbArc
 50
0.0
 51
90.0
  0
LINE
  5
4D64
330
4D40
100
AcDbEntity
  8
AM_0 外形線1
100
AcDbLine
 10
-30.0
 20
41.0
 30
0.0
 11
-29.0
 21
41.0
 31
0.0
  0
ARC
  5
4D65
330
4D40
100
AcDbEntity
  8
AM_0 外形線1
100
AcDbCircle
 10
-30.0
 20
40.0
 30
0.0
 40
1.0
100
AcDbArc
 50
90.0
 51
180.0
  0
LINE
  5
4D66
330
4D40
100
AcDbEntity
  8
AM_0 外形線1
100
AcDbLine
 10
-31.0
 20
36.0
 30
0.0
 11
-31.0
 21
40.0
 31
0.0
  0
LINE
  5
4D67
330
4D40
100
AcDbEntity
  8
AM_0 外形線1
100
AcDbLine
 10
-14.0
 20
38.30000000000001
 30
0.0
 11
-14.0
 21
40.0
 31
0.0
  0
LINE
  5
4D68
330
4D40
100
AcDbEntity
  8
AM_0 外形線1
100
AcDbLine
 10
-16.0
 20
37.80000000000001
 30
0.0
 11
-14.5
 21
37.80000000000001
 31
0.0
  0
ARC
  5
4D69
330
4D40
100
AcDbEntity
  8
AM_0 外形線1
100
AcDbCircle
 10
-13.0
 20
40.0
 30
0.0
 40
1.0
100
AcDbArc
 50
90.0
 51
180.0
  0
LINE
  5
4D6A
330
4D40
100
AcDbEntity
  8
AM_0 外形線1
100
AcDbLine
 10
-14.5
 20
37.80000000000001
 30
0.0
 11
-14.0
 21
38.30000000000001
 31
0.0
  0
ARC
  5
4D6C
330
4D40
100
AcDbEntity
  8
AM_0 外形線1
100
AcDbCircle
 10
-18.0
 20
49.0
 30
0.0
 40
3.0
100
AcDbArc
 50
270.0
 51
0.0
  0
LINE
  5
4D6D
330
4D40
100
AcDbEntity
  8
AM_0 外形線1
100
AcDbLine
 10
-15.0
 20
62.30000000000001
 30
0.0
 11
-14.99999999999997
 21
49.0
 31
0.0
  0
LINE
  5
4D6E
330
4D40
100
AcDbEntity
  8
AM_0 外形線1
100
AcDbLine
 10
-14.79999999999995
 20
62.5
 30
0.0
 11
-15.0
 21
62.30000000000001
 31
0.0
  0
LINE
  5
4D6F
330
4D40
100
AcDbEntity
  8
AM_0 外形線1
100
AcDbLine
 10
0.0
 20
0.0
 30
0.0
 11
0.0
 21
-62.30000000000007
 31
0.0
  0
LINE
  5
4D70
330
4D40
100
AcDbEntity
  8
AM_0 外形線1
100
AcDbLine
 10
0.0
 20
-62.30000000000007
 30
0.0
 11
-0.2000000000000455
 21
-62.5
 31
0.0
  0
LINE
  5
4D71
330
4D40
100
AcDbEntity
  8
AM_0 外形線1
100
AcDbLine
 10
2.0
 20
41.0
 30
0.0
 11
2.0
 21
44.80000000000001
 31
0.0
  0
LWPOLYLINE
  5
4D72
330
4D40
100
AcDbEntity
  8
AM_0 外形線1
100
AcDbPolyline
 90
       73
 70
     0
 43
0.0
 10
-1.200000000000043
 20
45.0
 10
-1.095413000000007
 20
45.00741999999998
 10
-0.9916220000000064
 20
45.02962500000001
 10
-0.8894170000000942
 20
45.06644499999999
 10
-0.7895760000000111
 20
45.11759899999998
 10
-0.6928580000000011
 20
45.18270000000001
 10
-0.5999999999999091
 20
45.26125000000002
 10
-0.5117079999999988
 20
45.35265299999998
 10
-0.4286549999999353
 20
45.45621299999999
 10
-0.351472000000058
 20
45.571142
 10
-0.2807470000000194
 20
45.69656399999995
 10
-0.2170180000000528
 20
45.831526
 10
-0.1607699999999568
 20
45.97500000000001
 10
-0.112431000000015
 20
46.125894
 10
-0.0723689999999806
 20
46.28306099999996
 10
-0.0408889999999929
 20
46.44530299999996
 10
-0.0182310000000143
 20
46.61138599999998
 10
-0.004566000000068
 20
46.78004599999996
 10
0.0
 20
46.94999999999999
 10
-0.004566000000068
 20
47.11995400000001
 10
-0.0182310000000143
 20
47.28861399999993
 10
-0.0408889999999929
 20
47.45469699999995
 10
-0.0723689999999806
 20
47.61693899999992
 10
-0.112431000000015
 20
47.77410600000002
 10
-0.1607699999999568
 20
47.92500000000001
 10
-0.2170180000000528
 20
48.06847399999998
 10
-0.2807470000000194
 20
48.20343600000001
 10
-0.351472000000058
 20
48.32885800000003
 10
-0.4286549999999353
 20
48.443787
 10
-0.5117079999999988
 20
48.547346
 10
-0.5999999999999091
 20
48.63874899999996
 10
-0.6928580000000011
 20
48.71730000000003
 10
-0.7895760000000111
 20
48.78240099999999
 10
-0.8894170000000942
 20
48.83355499999999
 10
-0.9916220000000064
 20
48.87037500000001
 10
-1.095413000000007
 20
48.89257999999995
 10
-1.200000000000043
 20
48.89999999999997
 10
-1.304586999999969
 20
48.89257999999995
 10
-1.408378000000084
 20
48.87037500000001
 10
-1.510582999999995
 20
48.83355499999999
 10
-1.610423999999965
 20
48.78240099999999
 10
-1.707141999999976
 20
48.71730000000003
 10
-1.799999999999954
 20
48.63874899999996
 10
-1.88829200000009
 20
48.547346
 10
-1.971344999999928
 20
48.443787
 10
-2.048528000000032
 20
48.32885800000003
 10
-2.119253000000071
 20
48.20343600000001
 10
-2.182982999999921
 20
48.06847399999998
 10
-2.239231000000017
 20
47.92500000000001
 10
-2.287569000000075
 20
47.77410600000002
 10
-2.327630999999996
 20
47.61693899999992
 10
-2.359110999999983
 20
47.45469699999995
 10
-2.381769000000076
 20
47.28861399999993
 10
-2.395434000000022
 20
47.11995400000001
 10
-2.399999999999977
 20
46.94999999999999
 10
-2.395434000000022
 20
46.78004599999996
 10
-2.381769000000076
 20
46.61138599999998
 10
-2.359110999999983
 20
46.44530299999996
 10
-2.327630999999996
 20
46.28306099999996
 10
-2.287569000000075
 20
46.125894
 10
-2.239231000000017
 20
45.97500000000001
 10
-2.182982999999921
 20
45.831526
 10
-2.119253000000071
 20
45.69656399999995
 10
-2.048528000000032
 20
45.571142
 10
-1.971344999999928
 20
45.45621299999999
 10
-1.88829200000009
 20
45.35265299999998
 10
-1.799999999999954
 20
45.26125000000002
 10
-1.707141999999976
 20
45.18270000000001
 10
-1.610423999999965
 20
45.11759899999998
 10
-1.510582999999995
 20
45.06644499999999
 10
-1.408378000000084
 20
45.02962500000001
 10
-1.304586999999969
 20
45.00741999999998
 10
-1.200000000000043
 20
45.0
  0
LINE
  5
4D73
330
4D40
100
AcDbEntity
  8
AM_0 外形線1
100
AcDbLine
 10
-1.899999999999975
 20
48.89999999999997
 30
0.0
 11
0.0
 21
48.89999999999997
 31
0.0
  0
LINE
  5
4D74
330
4D40
100
AcDbEntity
  8
AM_0 外形線1
100
AcDbLine
 10
1.799999999999954
 20
45.0
 30
0.0
 11
-1.899999999999975
 21
45.0
 31
0.0
  0
ARC
  5
4D75
330
4D40
100
AcDbEntity
  8
AM_0 外形線1
100
AcDbCircle
 10
-1.899999999999975
 20
48.39999999999998
 30
0.0
 40
0.5
100
AcDbArc
 50
90.0
 51
180.0
  0
LINE
  5
4D76
330
4D40
100
AcDbEntity
  8
AM_0 外形線1
100
AcDbLine
 10
-2.399999999999977
 20
45.49999999999999
 30
0.0
 11
-2.399999999999977
 21
48.39999999999998
 31
0.0
  0
ARC
  5
4D77
330
4D40
100
AcDbEntity
  8
AM_0 外形線1
100
AcDbCircle
 10
-1.899999999999975
 20
45.49999999999999
 30
0.0
 40
0.5
100
AcDbArc
 50
180.0
 51
270.0
  0
LINE
  5
4D78
330
4D40
100
AcDbEntity
  8
AM_0 外形線1
100
AcDbLine
 10
0.0
 20
48.89999999999997
 30
0.0
 11
0.0
 21
52.5
 31
0.0
  0
LINE
  5
4D79
330
4D40
100
AcDbEntity
  8
AM_0 外形線1
100
AcDbLine
 10
2.0
 20
44.80000000000001
 30
0.0
 11
1.799999999999954
 21
45.0
 31
0.0
  0
LINE
  5
4D7A
330
4D40
100
AcDbEntity
  8
AM_0 外形線1
100
AcDbLine
 10
0.0
 20
59.5
 30
0.0
 11
0.0
 21
62.30000000000001
 31
0.0
  0
LINE
  5
4D7B
330
4D40
100
AcDbEntity
  8
AM_0 外形線1
100
AcDbLine
 10
0.0
 20
62.30000000000001
 30
0.0
 11
-0.2000000000000455
 21
62.5
 31
0.0
  0
INSERT
  5
4D7C
330
4D40
100
AcDbEntity
  8
AM_0 外形線1
100
AcDbBlockReference
  2
ロッカクアナツキプラグ-2　R1／8
 10
-7.5
 20
-29.87435100000006
 30
0.0
  0
ENDBLK
  5
4D42
330
4D40
100
AcDbEntity
  8
0
100
AcDbBlockEnd
  0
BLOCK
  5
4E49
330
4E48
100
AcDbEntity
  8
0
100
AcDbBlockBegin
  2
センタ-1 SAM125
 70
     0
 10
0.0
 20
0.0
 30
0.0
  3
センタ-1 SAM125
  1

  0
LINE
  5
4E4B
330
4E48
100
AcDbEntity
  8
AM_0 外形線1
100
AcDbLine
 10
0.0000000000001137
 20
18.33030277982334
 30
0.0
 11
63.00000000000011
 21
18.3303027798234
 31
0.0
  0
LINE
  5
4E4D
330
4E48
100
AcDbEntity
  8
AM_0 外形線1
100
AcDbLine
 10
60.00000000000011
 20
35.0
 30
0.0
 11
25.00000000000011
 21
35.0
 31
0.0
  0
LINE
  5
4E4E
330
4E48
100
AcDbEntity
  8
AM_0 外形線1
100
AcDbLine
 10
39.00000000000011
 20
-35.0
 30
0.0
 11
60.00000000000011
 21
-35.0
 31
0.0
  0
LINE
  5
4E4F
330
4E48
100
AcDbEntity
  8
AM_0 外形線1
100
AcDbLine
 10
11.50000000000011
 20
35.0
 30
0.0
 11
0.5000000000001137
 21
35.0
 31
0.0
  0
LINE
  5
4E50
330
4E48
100
AcDbEntity
  8
AM_0 外形線1
100
AcDbLine
 10
0.5000000000001137
 20
35.0
 30
0.0
 11
0.0000000000001137
 21
34.5
 31
0.0
  0
LINE
  5
4E51
330
4E48
100
AcDbEntity
  8
AM_7 中心線
100
AcDbLine
 10
17.50000000000011
 20
45.41000000000003
 30
0.0
 11
17.50000000000011
 21
32.35000000000002
 31
0.0
  0
LINE
  5
4E52
330
4E48
100
AcDbEntity
  8
AM_0 外形線1
100
AcDbLine
 10
12.00000000000011
 20
39.53396199999998
 30
0.0
 11
12.00000000000011
 21
35.5
 31
0.0
  0
LINE
  5
4E53
330
4E48
100
AcDbEntity
  8
AM_0 外形線1
100
AcDbLine
 10
24.50000000000012
 20
35.5
 30
0.0
 11
24.50000000000012
 21
39.29909699999996
 31
0.0
  0
ARC
  5
4E54
330
4E48
100
AcDbEntity
  8
AM_0 外形線1
100
AcDbCircle
 10
11.50000000000011
 20
35.5
 30
0.0
 40
0.5
100
AcDbArc
 50
270.0
 51
0.0
  0
ARC
  5
4E55
330
4E48
100
AcDbEntity
  8
AM_0 外形線1
100
AcDbCircle
 10
25.00000000000011
 20
35.5
 30
0.0
 40
0.5
100
AcDbArc
 50
180.0
 51
270.0
  0
ARC
  5
4E58
330
4E48
100
AcDbEntity
  8
AM_0 外形線1
100
AcDbCircle
 10
17.50000000000011
 20
0.0
 30
0.0
 40
40.40999999999999
100
AcDbArc
 50
80.74368899999852
 51
97.10752199999932
  0
LINE
  5
4E59
330
4E48
100
AcDbEntity
  8
AM_0 外形線1
100
AcDbLine
 10
12.50000000000011
 20
40.09947699999997
 30
0.0
 11
12.00000000000011
 21
39.53396199999998
 31
0.0
  0
LINE
  5
4E5A
330
4E48
100
AcDbEntity
  8
AM_0 外形線1
100
AcDbLine
 10
24.50000000000012
 20
39.29909699999996
 30
0.0
 11
24.00000000000011
 21
39.88380699999999
 31
0.0
  0
LINE
  5
4E5C
330
4E48
100
AcDbEntity
  8
AM_0 外形線1
100
AcDbLine
 10
63.00000000000011
 20
-32.0
 30
0.0
 11
63.00000000000011
 21
32.0
 31
0.0
  0
ARC
  5
4E5D
330
4E48
100
AcDbEntity
  8
AM_0 外形線1
100
AcDbCircle
 10
60.00000000000011
 20
-32.0
 30
0.0
 40
3.0
100
AcDbArc
 50
270.0
 51
0.0
  0
ARC
  5
4E5F
330
4E48
100
AcDbEntity
  8
AM_0 外形線1
100
AcDbCircle
 10
60.00000000000011
 20
32.0
 30
0.0
 40
3.0
100
AcDbArc
 50
0.0
 51
90.0
  0
LINE
  5
4E60
330
4E48
100
AcDbEntity
  8
AM_0 外形線1
100
AcDbLine
 10
0.0000000000001137
 20
34.5
 30
0.0
 11
0.0
 21
0.0
 31
0.0
  0
ARC
  5
7E18
330
4E48
100
AcDbEntity
  8
AM_0 外形線1
100
AcDbCircle
 10
17.49999999999988
 20
5.827690444241568
 30
0.0
 40
31.5223095557584
100
AcDbArc
 50
77.16965372530393
 51
100.0483755442136
  0
ARC
  5
7E19
330
4E48
100
AcDbEntity
  8
AM_7 中心線
100
AcDbCircle
 10
17.49999999999988
 20
0.0
 30
0.0
 40
39.0
100
AcDbArc
 50
78.22705549289316
 51
99.51423879020788
  0
ENDBLK
  5
4E4A
330
4E48
100
AcDbEntity
  8
0
100
AcDbBlockEnd
  0
BLOCK
  5
4EA0
330
4E9F
100
AcDbEntity
  8
0
100
AcDbBlockBegin
  2
センタ-2 SAM125
 70
     0
 10
0.0
 20
0.0
 30
0.0
  3
センタ-2 SAM125
  1

  0
LINE
  5
4EA3
330
4E9F
100
AcDbEntity
  8
AM_0 外形線1
100
AcDbLine
 10
-63.0
 20
18.33030277982334
 30
0.0
 11
0.0
 21
18.33030277982334
 31
0.0
  0
LINE
  5
4EA4
330
4E9F
100
AcDbEntity
  8
AM_0 外形線1
100
AcDbLine
 10
-11.5
 20
35.0
 30
0.0
 11
-0.5
 21
35.0
 31
0.0
  0
LINE
  5
4EA6
330
4E9F
100
AcDbEntity
  8
AM_0 外形線1
100
AcDbLine
 10
-63.0
 20
-32.0
 30
0.0
 11
-63.0
 21
32.0
 31
0.0
  0
LINE
  5
4EA7
330
4E9F
100
AcDbEntity
  8
AM_0 外形線1
100
AcDbLine
 10
-39.0
 20
-35.0
 30
0.0
 11
-60.0
 21
-35.0
 31
0.0
  0
ARC
  5
4EA8
330
4E9F
100
AcDbEntity
  8
AM_0 外形線1
100
AcDbCircle
 10
-60.0
 20
-32.0
 30
0.0
 40
3.0
100
AcDbArc
 50
180.0
 51
270.0
  0
LINE
  5
4EA9
330
4E9F
100
AcDbEntity
  8
AM_0 外形線1
100
AcDbLine
 10
-60.0
 20
35.0
 30
0.0
 11
-25.0
 21
35.0
 31
0.0
  0
ARC
  5
4EAB
330
4E9F
100
AcDbEntity
  8
AM_0 外形線1
100
AcDbCircle
 10
-60.0
 20
32.0
 30
0.0
 40
3.0
100
AcDbArc
 50
90.0
 51
180.0
  0
LINE
  5
4EAC
330
4E9F
100
AcDbEntity
  8
AM_7 中心線
100
AcDbLine
 10
-17.5
 20
45.41000000000003
 30
0.0
 11
-17.5
 21
32.35000000000002
 31
0.0
  0
LINE
  5
4EAD
330
4E9F
100
AcDbEntity
  8
AM_0 外形線1
100
AcDbLine
 10
-24.5
 20
35.5
 30
0.0
 11
-24.5
 21
39.29909699999996
 31
0.0
  0
LINE
  5
4EAE
330
4E9F
100
AcDbEntity
  8
AM_0 外形線1
100
AcDbLine
 10
-12.0
 20
39.53396199999998
 30
0.0
 11
-12.0
 21
35.5
 31
0.0
  0
ARC
  5
4EAF
330
4E9F
100
AcDbEntity
  8
AM_0 外形線1
100
AcDbCircle
 10
-25.0
 20
35.5
 30
0.0
 40
0.5
100
AcDbArc
 50
270.0
 51
0.0
  0
ARC
  5
4EB0
330
4E9F
100
AcDbEntity
  8
AM_0 外形線1
100
AcDbCircle
 10
-11.5
 20
35.5
 30
0.0
 40
0.5
100
AcDbArc
 50
180.0
 51
270.0
  0
ARC
  5
4EB2
330
4E9F
100
AcDbEntity
  8
AM_0 外形線1
100
AcDbCircle
 10
-17.5
 20
0.0
 30
0.0
 40
40.40999999999999
100
AcDbArc
 50
82.89247800000067
 51
99.25631100000149
  0
LINE
  5
4EB4
330
4E9F
100
AcDbEntity
  8
AM_0 外形線1
100
AcDbLine
 10
-24.5
 20
39.29909699999996
 30
0.0
 11
-24.0
 21
39.88380699999999
 31
0.0
  0
LINE
  5
4EB5
330
4E9F
100
AcDbEntity
  8
AM_0 外形線1
100
AcDbLine
 10
-12.5
 20
40.09947699999997
 30
0.0
 11
-12.0
 21
39.53396199999998
 31
0.0
  0
LINE
  5
4EB6
330
4E9F
100
AcDbEntity
  8
AM_0 外形線1
100
AcDbLine
 10
0.0
 20
34.5
 30
0.0
 11
0.0
 21
0.0
 31
0.0
  0
LINE
  5
4EB7
330
4E9F
100
AcDbEntity
  8
AM_0 外形線1
100
AcDbLine
 10
-0.5
 20
35.0
 30
0.0
 11
0.0
 21
34.49999999999994
 31
0.0
  0
ARC
  5
7DBB
330
4E9F
100
AcDbEntity
  8
AM_0 外形線1
100
AcDbCircle
 10
-17.5
 20
5.827690444241567
 30
0.0
 40
31.5223095557584
100
AcDbArc
 50
79.9516244557896
 51
102.8303462746944
  0
ARC
  5
7DBC
330
4E9F
100
AcDbEntity
  8
AM_7 中心線
100
AcDbCircle
 10
-17.5
 20
0.0
 30
0.0
 40
39.0
100
AcDbArc
 50
80.48576120979054
 51
101.7729445071052
  0
ENDBLK
  5
4EA1
330
4E9F
100
AcDbEntity
  8
0
100
AcDbBlockEnd
  0
BLOCK
  5
51D5
330
51D4
100
AcDbEntity
  8
0
100
AcDbBlockBegin
  2
リーマボルト-1 SAM125 M6
 70
     0
 10
0.0
 20
0.0
 30
0.0
  3
リーマボルト-1 SAM125 M6
  1

  0
LINE
  5
51D7
330
51D4
100
AcDbEntity
  8
AM_0 外形線1
100
AcDbLine
 10
0.0
 20
0.0
 30
0.0
 11
-3.566986999999925
 21
0.0
 31
0.0
  0
LINE
  5
51D8
330
51D4
100
AcDbEntity
  8
AM_0 外形線1
100
AcDbLine
 10
0.0
 20
4.979646000000001
 30
0.0
 11
-3.566986999999925
 21
4.979646000000001
 31
0.0
  0
LINE
  5
51D9
330
51D4
100
AcDbEntity
  8
AM_0 外形線1
100
AcDbLine
 10
-3.566986999999925
 20
-4.979646000000001
 30
0.0
 11
0.0
 21
-4.979646000000001
 31
0.0
  0
ARC
  5
51DA
330
51D4
100
AcDbEntity
  8
AM_0 外形線1
100
AcDbCircle
 10
3.198836000000028
 20
-2.489822999999999
 30
0.0
 40
7.20941
100
AcDbArc
 50
159.7963849999969
 51
200.2036150000031
  0
LINE
  5
51DB
330
51D4
100
AcDbEntity
  8
AM_0 外形線1
100
AcDbLine
 10
-4.0
 20
2.489822999999999
 30
0.0
 11
-4.0
 21
-2.099511000000063
 31
0.0
  0
ARC
  5
51DC
330
51D4
100
AcDbEntity
  8
AM_0 外形線1
100
AcDbCircle
 10
3.374747000000013
 20
2.489822999999999
 30
0.0
 40
7.374747999999997
100
AcDbArc
 50
160.2683860000035
 51
199.7316139999963
  0
LINE
  5
51DD
330
51D4
100
AcDbEntity
  8
AM_0 外形線1
100
AcDbLine
 10
0.0
 20
-4.979646000000001
 30
0.0
 11
0.0
 21
4.979646000000001
 31
0.0
  0
LINE
  5
51DE
330
51D4
100
AcDbEntity
  8
AM_0 外形線1
100
AcDbLine
 10
1.0
 20
-3.5
 30
0.0
 11
1.0
 21
3.5
 31
0.0
  0
ARC
  5
51DF
330
51D4
100
AcDbEntity
  8
AM_0 外形線1
100
AcDbCircle
 10
0.5
 20
-3.5
 30
0.0
 40
0.5
100
AcDbArc
 50
0.0
 51
180.0
  0
ARC
  5
51E0
330
51D4
100
AcDbEntity
  8
AM_0 外形線1
100
AcDbCircle
 10
0.5
 20
3.5
 30
0.0
 40
0.5
100
AcDbArc
 50
180.0
 51
0.0
  0
LINE
  5
51E1
330
51D4
100
AcDbEntity
  8
AM_0 外形線1
100
AcDbLine
 10
27.0
 20
2.922649999999975
 30
0.0
 11
27.0
 21
-2.922649999999975
 31
0.0
  0
LINE
  5
51E3
330
51D4
100
AcDbEntity
  8
AM_0 外形線1
100
AcDbLine
 10
36.5
 20
5.0
 30
0.0
 11
36.5
 21
-5.0
 31
0.0
  0
LINE
  5
51E4
330
51D4
100
AcDbEntity
  8
AM_0 外形線1
100
AcDbLine
 10
38.0
 20
3.0
 30
0.0
 11
38.0
 21
-3.0
 31
0.0
  0
LINE
  5
51E5
330
51D4
100
AcDbEntity
  8
AM_0 外形線1
100
AcDbLine
 10
39.0
 20
-2.0
 30
0.0
 11
38.0
 21
-3.0
 31
0.0
  0
ARC
  5
51E6
330
51D4
100
AcDbEntity
  8
AM_0 外形線1
100
AcDbCircle
 10
26.66098899999997
 20
0.0
 30
0.0
 40
9.839010999999999
100
AcDbArc
 50
342.9384689999998
 51
17.06153100000025
  0
LINE
  5
51E7
330
51D4
100
AcDbEntity
  8
AM_0 外形線1
100
AcDbLine
 10
26.0
 20
3.5
 30
0.0
 11
26.0
 21
-3.5
 31
0.0
  0
LINE
  5
51E8
330
51D4
100
AcDbEntity
  8
AM_0 外形線1
100
AcDbLine
 10
36.06698699999999
 20
-5.75
 30
0.0
 11
31.5
 21
-5.75
 31
0.0
  0
LINE
  5
51E9
330
51D4
100
AcDbEntity
  8
AM_0 外形線1
100
AcDbLine
 10
31.5
 20
-2.886751000000001
 30
0.0
 11
36.06698699999999
 21
-2.886751000000001
 31
0.0
  0
LINE
  5
51EA
330
51D4
100
AcDbEntity
  8
AM_0 外形線1
100
AcDbLine
 10
27.0
 20
-2.922649999999975
 30
0.0
 11
30.0
 21
-2.922649999999975
 31
0.0
  0
LINE
  5
51EB
330
51D4
100
AcDbEntity
  8
AM_0 外形線1
100
AcDbLine
 10
27.0
 20
-2.922649999999975
 30
0.0
 11
26.0
 21
-3.5
 31
0.0
  0
LINE
  5
51ED
330
51D4
100
AcDbEntity
  8
AM_0 外形線1
100
AcDbLine
 10
30.0
 20
-6.100000000000022
 30
0.0
 11
31.5
 21
-6.100000000000022
 31
0.0
  0
ARC
  5
51EE
330
51D4
100
AcDbEntity
  8
AM_0 外形線1
100
AcDbCircle
 10
33.91687899999999
 20
-4.318375999999998
 30
0.0
 40
2.583120999999998
100
AcDbArc
 50
326.3428030000036
 51
33.65719699999635
  0
LINE
  5
51EF
330
51D4
100
AcDbEntity
  8
AM_0 外形線1
100
AcDbLine
 10
36.5
 20
-5.0
 30
0.0
 11
36.06698699999999
 21
-5.75
 31
0.0
  0
LINE
  5
51F0
330
51D4
100
AcDbEntity
  8
AM_0 外形線1
100
AcDbLine
 10
38.0
 20
-3.0
 30
0.0
 11
36.5
 21
-3.0
 31
0.0
  0
LINE
  5
51F1
330
51D4
100
AcDbEntity
  8
AM_0 外形線1
100
AcDbLine
 10
31.5
 20
2.886750999999946
 30
0.0
 11
36.06698699999999
 21
2.886750999999946
 31
0.0
  0
LINE
  5
51F2
330
51D4
100
AcDbEntity
  8
AM_0 外形線1
100
AcDbLine
 10
31.5
 20
5.75
 30
0.0
 11
36.06698699999999
 21
5.75
 31
0.0
  0
LINE
  5
51F3
330
51D4
100
AcDbEntity
  8
AM_0 外形線1
100
AcDbLine
 10
31.5
 20
-6.100000000000022
 30
0.0
 11
31.5
 21
6.100000000000022
 31
0.0
  0
LINE
  5
51F4
330
51D4
100
AcDbEntity
  8
AM_0 外形線1
100
AcDbLine
 10
27.0
 20
2.922649999999975
 30
0.0
 11
30.0
 21
2.922649999999975
 31
0.0
  0
LINE
  5
51F5
330
51D4
100
AcDbEntity
  8
AM_0 外形線1
100
AcDbLine
 10
26.0
 20
3.5
 30
0.0
 11
27.0
 21
2.922649999999975
 31
0.0
  0
LINE
  5
51F6
330
51D4
100
AcDbEntity
  8
AM_0 外形線1
100
AcDbLine
 10
31.5
 20
0.5
 30
0.0
 11
30.0
 21
-1.0
 31
0.0
  0
LINE
  5
51F7
330
51D4
100
AcDbEntity
  8
AM_0 外形線1
100
AcDbLine
 10
31.5
 20
1.0
 30
0.0
 11
30.0
 21
-0.5
 31
0.0
  0
LINE
  5
51F8
330
51D4
100
AcDbEntity
  8
AM_0 外形線1
100
AcDbLine
 10
31.5
 20
6.100000000000022
 30
0.0
 11
30.0
 21
6.100000000000022
 31
0.0
  0
ARC
  5
51F9
330
51D4
100
AcDbEntity
  8
AM_0 外形線1
100
AcDbCircle
 10
33.91687899999999
 20
4.318375999999998
 30
0.0
 40
2.583120999999998
100
AcDbArc
 50
326.3428030000036
 51
33.65719699999635
  0
LINE
  5
51FA
330
51D4
100
AcDbEntity
  8
AM_0 外形線1
100
AcDbLine
 10
36.06698699999999
 20
5.75
 30
0.0
 11
36.5
 21
5.0
 31
0.0
  0
LINE
  5
51FB
330
51D4
100
AcDbEntity
  8
AM_4 細線
100
AcDbLine
 10
36.5
 20
-2.5
 30
0.0
 11
38.5
 21
-2.5
 31
0.0
  0
LINE
  5
51FC
330
51D4
100
AcDbEntity
  8
AM_4 細線
100
AcDbLine
 10
36.5
 20
2.5
 30
0.0
 11
38.5
 21
2.5
 31
0.0
  0
LINE
  5
51FD
330
51D4
100
AcDbEntity
  8
AM_0 外形線1
100
AcDbLine
 10
39.0
 20
2.0
 30
0.0
 11
39.0
 21
-2.0
 31
0.0
  0
LINE
  5
51FE
330
51D4
100
AcDbEntity
  8
AM_0 外形線1
100
AcDbLine
 10
38.0
 20
3.0
 30
0.0
 11
39.0
 21
2.0
 31
0.0
  0
LINE
  5
51FF
330
51D4
100
AcDbEntity
  8
AM_0 外形線1
100
AcDbLine
 10
36.5
 20
3.0
 30
0.0
 11
38.0
 21
3.0
 31
0.0
  0
LINE
  5
525B
330
51D4
100
AcDbEntity
  8
AM_0 外形線1
100
AcDbLine
 10
0.0
 20
4.979646000000001
 30
0.0
 11
0.0
 21
-4.979646000000001
 31
0.0
  0
LINE
  5
525C
330
51D4
100
AcDbEntity
  8
AM_0 外形線1
100
AcDbLine
 10
1.0
 20
3.5
 30
0.0
 11
26.0
 21
3.5
 31
0.0
  0
LINE
  5
525D
330
51D4
100
AcDbEntity
  8
AM_0 外形線1
100
AcDbLine
 10
0.9999999999999431
 20
-3.499999999999886
 30
0.0
 11
25.99999999999994
 21
-3.50000000000017
 31
0.0
  0
LINE
  5
525E
330
51D4
100
AcDbEntity
  8
AM_0 外形線1
100
AcDbLine
 10
30.0
 20
6.100000000000022
 30
0.0
 11
30.0
 21
-6.100000000000022
 31
0.0
  0
ENDBLK
  5
51D6
330
51D4
100
AcDbEntity
  8
0
100
AcDbBlockEnd
  0
BLOCK
  5
526A
330
5269
100
AcDbEntity
  8
0
100
AcDbBlockBegin
  2
リーマボルト-2 SAM125 M6
 70
     0
 10
0.0
 20
0.0
 30
0.0
  3
リーマボルト-2 SAM125 M6
  1

  0
LINE
  5
526C
330
5269
100
AcDbEntity
  8
AM_0 外形線1
100
AcDbLine
 10
-31.5
 20
-5.75
 30
0.0
 11
-31.5
 21
5.75
 31
0.0
  0
LINE
  5
526D
330
5269
100
AcDbEntity
  8
AM_0 外形線1
100
AcDbLine
 10
-36.5
 20
5.0
 30
0.0
 11
-36.5
 21
-5.0
 31
0.0
  0
LINE
  5
526E
330
5269
100
AcDbEntity
  8
AM_0 外形線1
100
AcDbLine
 10
-38.0
 20
3.0
 30
0.0
 11
-38.0
 21
-3.0
 31
0.0
  0
LINE
  5
526F
330
5269
100
AcDbEntity
  8
AM_0 外形線1
100
AcDbLine
 10
-39.0
 20
-2.0
 30
0.0
 11
-38.0
 21
-3.0
 31
0.0
  0
ARC
  5
5270
330
5269
100
AcDbEntity
  8
AM_0 外形線1
100
AcDbCircle
 10
-26.66098899999997
 20
0.0
 30
0.0
 40
9.839010999999999
100
AcDbArc
 50
162.9384689999997
 51
197.0615310000002
  0
LINE
  5
5271
330
5269
100
AcDbEntity
  8
AM_0 外形線1
100
AcDbLine
 10
-26.0
 20
3.5
 30
0.0
 11
-26.0
 21
-3.5
 31
0.0
  0
LINE
  5
5272
330
5269
100
AcDbEntity
  8
AM_0 外形線1
100
AcDbLine
 10
-27.0
 20
2.922649999999975
 30
0.0
 11
-27.0
 21
-2.922649999999975
 31
0.0
  0
LINE
  5
5273
330
5269
100
AcDbEntity
  8
AM_0 外形線1
100
AcDbLine
 10
-36.06698699999993
 20
-5.75
 30
0.0
 11
-31.5
 21
-5.75
 31
0.0
  0
LINE
  5
5274
330
5269
100
AcDbEntity
  8
AM_0 外形線1
100
AcDbLine
 10
-31.5
 20
-2.886751000000001
 30
0.0
 11
-36.06698699999993
 21
-2.886751000000001
 31
0.0
  0
ARC
  5
5275
330
5269
100
AcDbEntity
  8
AM_0 外形線1
100
AcDbCircle
 10
-33.91687899999999
 20
-4.318375999999998
 30
0.0
 40
2.583120999999998
100
AcDbArc
 50
146.3428030000036
 51
213.6571969999963
  0
LINE
  5
5276
330
5269
100
AcDbEntity
  8
AM_0 外形線1
100
AcDbLine
 10
-36.5
 20
-5.0
 30
0.0
 11
-36.06698699999993
 21
-5.75
 31
0.0
  0
LINE
  5
5277
330
5269
100
AcDbEntity
  8
AM_0 外形線1
100
AcDbLine
 10
-38.0
 20
-3.0
 30
0.0
 11
-36.5
 21
-3.0
 31
0.0
  0
LINE
  5
5278
330
5269
100
AcDbEntity
  8
AM_0 外形線1
100
AcDbLine
 10
-27.0
 20
-2.922649999999975
 30
0.0
 11
-30.0
 21
-2.922649999999975
 31
0.0
  0
LINE
  5
5279
330
5269
100
AcDbEntity
  8
AM_0 外形線1
100
AcDbLine
 10
-31.5
 20
-6.100000000000022
 30
0.0
 11
-31.5
 21
-5.75
 31
0.0
  0
LINE
  5
527A
330
5269
100
AcDbEntity
  8
AM_0 外形線1
100
AcDbLine
 10
-30.0
 20
-6.100000000000022
 30
0.0
 11
-31.5
 21
-6.100000000000022
 31
0.0
  0
LINE
  5
527B
330
5269
100
AcDbEntity
  8
AM_0 外形線1
100
AcDbLine
 10
-27.0
 20
-2.922649999999975
 30
0.0
 11
-26.0
 21
-3.5
 31
0.0
  0
LINE
  5
527C
330
5269
100
AcDbEntity
  8
AM_0 外形線1
100
AcDbLine
 10
-31.5
 20
2.886750999999946
 30
0.0
 11
-36.06698699999993
 21
2.886750999999946
 31
0.0
  0
LINE
  5
527D
330
5269
100
AcDbEntity
  8
AM_0 外形線1
100
AcDbLine
 10
-31.5
 20
5.75
 30
0.0
 11
-36.06698699999993
 21
5.75
 31
0.0
  0
ARC
  5
527E
330
5269
100
AcDbEntity
  8
AM_0 外形線1
100
AcDbCircle
 10
-33.91687899999999
 20
4.318375999999998
 30
0.0
 40
2.583120999999998
100
AcDbArc
 50
146.3428030000036
 51
213.6571969999963
  0
LINE
  5
527F
330
5269
100
AcDbEntity
  8
AM_0 外形線1
100
AcDbLine
 10
-36.06698699999993
 20
5.75
 30
0.0
 11
-36.5
 21
5.0
 31
0.0
  0
LINE
  5
5280
330
5269
100
AcDbEntity
  8
AM_4 細線
100
AcDbLine
 10
-36.5
 20
-2.5
 30
0.0
 11
-38.5
 21
-2.5
 31
0.0
  0
LINE
  5
5281
330
5269
100
AcDbEntity
  8
AM_4 細線
100
AcDbLine
 10
-36.5
 20
2.5
 30
0.0
 11
-38.5
 21
2.5
 31
0.0
  0
LINE
  5
5282
330
5269
100
AcDbEntity
  8
AM_0 外形線1
100
AcDbLine
 10
-39.0
 20
2.0
 30
0.0
 11
-39.0
 21
-2.0
 31
0.0
  0
LINE
  5
5283
330
5269
100
AcDbEntity
  8
AM_0 外形線1
100
AcDbLine
 10
-38.0
 20
3.0
 30
0.0
 11
-39.0
 21
2.0
 31
0.0
  0
LINE
  5
5284
330
5269
100
AcDbEntity
  8
AM_0 外形線1
100
AcDbLine
 10
-36.5
 20
3.0
 30
0.0
 11
-38.0
 21
3.0
 31
0.0
  0
LINE
  5
5285
330
5269
100
AcDbEntity
  8
AM_0 外形線1
100
AcDbLine
 10
-31.5
 20
5.75
 30
0.0
 11
-31.5
 21
6.100000000000022
 31
0.0
  0
LINE
  5
5286
330
5269
100
AcDbEntity
  8
AM_0 外形線1
100
AcDbLine
 10
-27.0
 20
2.922649999999975
 30
0.0
 11
-30.0
 21
2.922649999999975
 31
0.0
  0
LINE
  5
5287
330
5269
100
AcDbEntity
  8
AM_0 外形線1
100
AcDbLine
 10
-30.0
 20
0.5
 30
0.0
 11
-31.5
 21
-1.0
 31
0.0
  0
LINE
  5
5288
330
5269
100
AcDbEntity
  8
AM_0 外形線1
100
AcDbLine
 10
-31.5
 20
-0.5
 30
0.0
 11
-30.0
 21
1.0
 31
0.0
  0
LINE
  5
5289
330
5269
100
AcDbEntity
  8
AM_0 外形線1
100
AcDbLine
 10
-26.0
 20
3.5
 30
0.0
 11
-27.0
 21
2.922649999999975
 31
0.0
  0
LINE
  5
528A
330
5269
100
AcDbEntity
  8
AM_0 外形線1
100
AcDbLine
 10
-31.5
 20
6.100000000000022
 30
0.0
 11
-30.0
 21
6.100000000000022
 31
0.0
  0
LINE
  5
528B
330
5269
100
AcDbEntity
  8
AM_0 外形線1
100
AcDbLine
 10
0.0
 20
0.0
 30
0.0
 11
3.566986999999925
 21
0.0
 31
0.0
  0
LINE
  5
528C
330
5269
100
AcDbEntity
  8
AM_0 外形線1
100
AcDbLine
 10
0.0
 20
4.979646000000001
 30
0.0
 11
3.566986999999925
 21
4.979646000000001
 31
0.0
  0
LINE
  5
528D
330
5269
100
AcDbEntity
  8
AM_0 外形線1
100
AcDbLine
 10
3.566986999999925
 20
-4.979646000000001
 30
0.0
 11
0.0
 21
-4.979646000000001
 31
0.0
  0
LINE
  5
528E
330
5269
100
AcDbEntity
  8
AM_0 外形線1
100
AcDbLine
 10
-1.0
 20
-3.5
 30
0.0
 11
-1.0
 21
3.5
 31
0.0
  0
ARC
  5
528F
330
5269
100
AcDbEntity
  8
AM_0 外形線1
100
AcDbCircle
 10
-0.5
 20
-3.5
 30
0.0
 40
0.5
100
AcDbArc
 50
0.0
 51
180.0
  0
ARC
  5
5290
330
5269
100
AcDbEntity
  8
AM_0 外形線1
100
AcDbCircle
 10
-0.5
 20
3.5
 30
0.0
 40
0.5
100
AcDbArc
 50
180.0
 51
0.0
  0
ARC
  5
5291
330
5269
100
AcDbEntity
  8
AM_0 外形線1
100
AcDbCircle
 10
-3.198836000000028
 20
-2.489822999999999
 30
0.0
 40
7.20941
100
AcDbArc
 50
339.7963849999968
 51
20.20361500000309
  0
LINE
  5
5292
330
5269
100
AcDbEntity
  8
AM_0 外形線1
100
AcDbLine
 10
4.0
 20
2.489822999999999
 30
0.0
 11
4.0
 21
-2.099511000000063
 31
0.0
  0
ARC
  5
5293
330
5269
100
AcDbEntity
  8
AM_0 外形線1
100
AcDbCircle
 10
-3.374747999999952
 20
2.489822999999999
 30
0.0
 40
7.374747999999997
100
AcDbArc
 50
340.2683860000042
 51
19.73161399999581
  0
LINE
  5
52ED
330
5269
100
AcDbEntity
  8
AM_0 外形線1
100
AcDbLine
 10
-30.0
 20
6.100000000000022
 30
0.0
 11
-30.0
 21
-6.100000000000022
 31
0.0
  0
LINE
  5
52EE
330
5269
100
AcDbEntity
  8
AM_0 外形線1
100
AcDbLine
 10
-26.0
 20
3.5
 30
0.0
 11
-1.0
 21
3.5
 31
0.0
  0
LINE
  5
52EF
330
5269
100
AcDbEntity
  8
AM_0 外形線1
100
AcDbLine
 10
-26.0
 20
-3.5
 30
0.0
 11
-1.0
 21
-3.5
 31
0.0
  0
LINE
  5
52F0
330
5269
100
AcDbEntity
  8
AM_0 外形線1
100
AcDbLine
 10
0.0
 20
4.979646000000001
 30
0.0
 11
0.0
 21
-4.979646000000001
 31
0.0
  0
ENDBLK
  5
526B
330
5269
100
AcDbEntity
  8
0
100
AcDbBlockEnd
  0
BLOCK
  5
5518
330
5517
100
AcDbEntity
  8
0
100
AcDbBlockBegin
  2
*D11
 70
     1
 10
0.0
 20
0.0
 30
0.0
  3
*D11
  1

  0
LINE
  5
6DC6
330
5517
100
AcDbEntity
  8
AM_5 寸法線
 62
     3
100
AcDbLine
 10
169.9626562703335
 20
373.6546986975568
 30
0.0
 11
136.9626562703336
 21
373.6546986975568
 31
0.0
  0
LINE
  5
6DC7
330
5517
100
AcDbEntity
  8
AM_5 寸法線
 62
     3
100
AcDbLine
 10
169.9626562703335
 20
303.6546986975568
 30
0.0
 11
136.9626562703336
 21
303.6546986975568
 31
0.0
  0
LINE
  5
6DC8
330
5517
100
AcDbEntity
  8
AM_5 寸法線
 62
     3
100
AcDbLine
 10
137.9001562703336
 20
369.9046986975568
 30
0.0
 11
137.9001562703336
 21
307.4046986975568
 31
0.0
  0
INSERT
  5
6DC9
330
5517
100
AcDbEntity
  8
AM_5 寸法線
 62
     3
100
AcDbBlockReference
  2
_Open30
 10
137.9001562703336
 20
373.6546986975568
 30
0.0
 41
3.75
 42
3.75
 43
3.75
 50
90.0
  0
INSERT
  5
6DCA
330
5517
100
AcDbEntity
  8
AM_5 寸法線
 62
     3
100
AcDbBlockReference
  2
_Open30
 10
137.9001562703336
 20
303.6546986975568
 30
0.0
 41
3.75
 42
3.75
 43
3.75
 50
270.0
  0
MTEXT
  5
6DCB
330
5517
100
AcDbEntity
  8
AM_5 寸法線
 62
     3
100
AcDbMText
 10
133.0251562703335
 20
338.6546986975568
 30
0.0
 40
5.25
 41
0.0
 46
0.0
 71
     5
 72
     1
  1
%%c70
  7
SEISA
 11
0.0000000000000001
 21
1.0
 31
0.0
 73
     1
 44
1.0
  0
POINT
  5
6DCC
330
5517
100
AcDbEntity
  8
Defpoints
 62
     0
100
AcDbPoint
 10
170.9001562703336
 20
373.6546986975568
 30
0.0
  0
POINT
  5
6DCD
330
5517
100
AcDbEntity
  8
Defpoints
 62
     0
100
AcDbPoint
 10
170.9001562703336
 20
303.6546986975568
 30
0.0
  0
POINT
  5
6DCE
330
5517
100
AcDbEntity
  8
Defpoints
 62
     0
100
AcDbPoint
 10
137.9001562703336
 20
303.6546986975568
 30
0.0
  0
ENDBLK
  5
5519
330
5517
100
AcDbEntity
  8
0
100
AcDbBlockEnd
  0
BLOCK
  5
55D0
330
55CF
100
AcDbEntity
  8
0
100
AcDbBlockBegin
  2
*D12
 70
     1
 10
0.0
 20
0.0
 30
0.0
  3
*D12
  1

  0
LINE
  5
80A9
330
55CF
100
AcDbEntity
  8
AM_5 寸法線
 62
     3
100
AcDbLine
 10
230.9001562703336
 20
339.5921986975568
 30
0.0
 11
230.9001562703336
 21
344.2907226975568
 31
0.0
  0
LINE
  5
80AA
330
55CF
100
AcDbEntity
  8
AM_5 寸法線
 62
     3
100
AcDbLine
 10
167.9001562703336
 20
339.5921986975568
 30
0.0
 11
167.9001562703336
 21
344.2907226975568
 31
0.0
  0
LINE
  5
80AB
330
55CF
100
AcDbEntity
  8
AM_5 寸法線
 62
     3
100
AcDbLine
 10
227.1501562703336
 20
343.3532226975568
 30
0.0
 11
171.6501562703335
 21
343.3532226975568
 31
0.0
  0
MTEXT
  5
80AC
330
55CF
100
AcDbEntity
  8
AM_5 寸法線
 62
     3
100
AcDbMText
 10
181.6398142457986
 20
348.1310265244449
 30
0.0
 40
5.25
 41
0.0
 46
0.0
 71
     5
 72
     1
  1
63
  7
SEISA
 73
     1
 44
1.0
  0
INSERT
  5
80AD
330
55CF
100
AcDbEntity
  8
AM_5 寸法線
 62
     3
100
AcDbBlockReference
  2
_Open30
 10
230.9001562703336
 20
343.3532226975568
 30
0.0
 41
3.75
 42
3.75
 43
3.75
  0
INSERT
  5
80AE
330
55CF
100
AcDbEntity
  8
AM_5 寸法線
 62
     3
100
AcDbBlockReference
  2
_Open30
 10
167.9001562703336
 20
343.3532226975568
 30
0.0
 41
3.75
 42
3.75
 43
3.75
 50
180.0
  0
POINT
  5
80AF
330
55CF
100
AcDbEntity
  8
Defpoints
 62
     0
100
AcDbPoint
 10
230.9001562703336
 20
338.6546986975568
 30
0.0
  0
POINT
  5
80B0
330
55CF
100
AcDbEntity
  8
Defpoints
 62
     0
100
AcDbPoint
 10
167.9001562703336
 20
338.6546986975568
 30
0.0
  0
POINT
  5
80B1
330
55CF
100
AcDbEntity
  8
Defpoints
 62
     0
100
AcDbPoint
 10
167.9001562703336
 20
343.3532226975568
 30
0.0
  0
ENDBLK
  5
55D1
330
55CF
100
AcDbEntity
  8
0
100
AcDbBlockEnd
  0
BLOCK
  5
5600
330
55FF
100
AcDbEntity
  8
0
100
AcDbBlockBegin
  2
*D13
 70
     1
 10
0.0
 20
0.0
 30
0.0
  3
*D13
  1

  0
LINE
  5
8402
330
55FF
100
AcDbEntity
  8
AM_5 寸法線
 62
     3
100
AcDbLine
 10
435.9001562703335
 20
339.5921986975568
 30
0.0
 11
435.9001562703335
 21
344.2907226975568
 31
0.0
  0
LINE
  5
8403
330
55FF
100
AcDbEntity
  8
AM_5 寸法線
 62
     3
100
AcDbLine
 10
372.9001562703339
 20
339.5921986975568
 30
0.0
 11
372.9001562703339
 21
344.2907226975568
 31
0.0
  0
LINE
  5
8404
330
55FF
100
AcDbEntity
  8
AM_5 寸法線
 62
     3
100
AcDbLine
 10
432.1501562703335
 20
343.3532226975568
 30
0.0
 11
376.6501562703339
 21
343.3532226975568
 31
0.0
  0
INSERT
  5
8405
330
55FF
100
AcDbEntity
  8
AM_5 寸法線
 62
     3
100
AcDbBlockReference
  2
_Open30
 10
435.9001562703335
 20
343.3532226975568
 30
0.0
 41
3.75
 42
3.75
 43
3.75
  0
INSERT
  5
8406
330
55FF
100
AcDbEntity
  8
AM_5 寸法線
 62
     3
100
AcDbBlockReference
  2
_Open30
 10
372.9001562703339
 20
343.3532226975568
 30
0.0
 41
3.75
 42
3.75
 43
3.75
 50
180.0
  0
MTEXT
  5
8407
330
55FF
100
AcDbEntity
  8
AM_5 寸法線
 62
     3
100
AcDbMText
 10
404.4001562703336
 20
348.2282226975568
 30
0.0
 40
5.25
 41
0.0
 46
0.0
 71
     5
 72
     1
  1
63
  7
SEISA
 73
     1
 44
1.0
  0
POINT
  5
8408
330
55FF
100
AcDbEntity
  8
Defpoints
 62
     0
100
AcDbPoint
 10
435.9001562703335
 20
338.6546986975568
 30
0.0
  0
POINT
  5
8409
330
55FF
100
AcDbEntity
  8
Defpoints
 62
     0
100
AcDbPoint
 10
372.9001562703339
 20
338.6546986975568
 30
0.0
  0
POINT
  5
840A
330
55FF
100
AcDbEntity
  8
Defpoints
 62
     0
100
AcDbPoint
 10
372.9001562703339
 20
343.3532226975568
 30
0.0
  0
ENDBLK
  5
5601
330
55FF
100
AcDbEntity
  8
0
100
AcDbBlockEnd
  0
BLOCK
  5
57DE
330
57DD
100
AcDbEntity
  8
0
100
AcDbBlockBegin
  2
*D14
 70
     1
 10
0.0
 20
0.0
 30
0.0
  3
*D14
  1

  0
LINE
  5
840B
330
57DD
100
AcDbEntity
  8
AM_5 寸法線
 62
     3
100
AcDbLine
 10
433.8376562703335
 20
373.6546986975568
 30
0.0
 11
466.8376562703335
 21
373.6546986975568
 31
0.0
  0
LINE
  5
840C
330
57DD
100
AcDbEntity
  8
AM_5 寸法線
 62
     3
100
AcDbLine
 10
433.8376562703335
 20
303.6546986975567
 30
0.0
 11
466.8376562703335
 21
303.6546986975567
 31
0.0
  0
LINE
  5
840D
330
57DD
100
AcDbEntity
  8
AM_5 寸法線
 62
     3
100
AcDbLine
 10
465.9001562703336
 20
369.9046986975568
 30
0.0
 11
465.9001562703336
 21
307.4046986975567
 31
0.0
  0
INSERT
  5
840E
330
57DD
100
AcDbEntity
  8
AM_5 寸法線
 62
     3
100
AcDbBlockReference
  2
_Open30
 10
465.9001562703336
 20
373.6546986975568
 30
0.0
 41
3.75
 42
3.75
 43
3.75
 50
90.0
  0
INSERT
  5
840F
330
57DD
100
AcDbEntity
  8
AM_5 寸法線
 62
     3
100
AcDbBlockReference
  2
_Open30
 10
465.9001562703336
 20
303.6546986975567
 30
0.0
 41
3.75
 42
3.75
 43
3.75
 50
270.0
  0
MTEXT
  5
8410
330
57DD
100
AcDbEntity
  8
AM_5 寸法線
 62
     3
100
AcDbMText
 10
461.0251562703335
 20
338.6546986975569
 30
0.0
 40
5.25
 41
0.0
 46
0.0
 71
     5
 72
     1
  1
%%c70
  7
SEISA
 11
0.0000000000000001
 21
1.0
 31
0.0
 73
     1
 44
1.0
  0
POINT
  5
8411
330
57DD
100
AcDbEntity
  8
Defpoints
 62
     0
100
AcDbPoint
 10
432.9001562703336
 20
373.6546986975568
 30
0.0
  0
POINT
  5
8412
330
57DD
100
AcDbEntity
  8
Defpoints
 62
     0
100
AcDbPoint
 10
432.9001562703336
 20
303.6546986975567
 30
0.0
  0
POINT
  5
8413
330
57DD
100
AcDbEntity
  8
Defpoints
 62
     0
100
AcDbPoint
 10
465.9001562703336
 20
303.6546986975567
 30
0.0
  0
ENDBLK
  5
57DF
330
57DD
100
AcDbEntity
  8
0
100
AcDbBlockEnd
  0
BLOCK
  5
57F6
330
57F5
100
AcDbEntity
  8
0
100
AcDbBlockBegin
  2
*D15
 70
     1
 10
0.0
 20
0.0
 30
0.0
  3
*D15
  1

  0
LINE
  5
6E1E
330
57F5
100
AcDbEntity
  8
AM_5 寸法線
 62
     3
100
AcDbLine
 10
409.8376562703334
 20
384.6546986975568
 30
0.0
 11
481.8376562703336
 21
384.6546986975568
 31
0.0
  0
LINE
  5
6E1F
330
57F5
100
AcDbEntity
  8
AM_5 寸法線
 62
     3
100
AcDbLine
 10
409.8376562703334
 20
292.6546986975568
 30
0.0
 11
481.8376562703336
 21
292.6546986975568
 31
0.0
  0
LINE
  5
6E20
330
57F5
100
AcDbEntity
  8
AM_5 寸法線
 62
     3
100
AcDbLine
 10
480.9001562703334
 20
380.9046986975569
 30
0.0
 11
480.9001562703334
 21
296.4046986975568
 31
0.0
  0
INSERT
  5
6E21
330
57F5
100
AcDbEntity
  8
AM_5 寸法線
 62
     3
100
AcDbBlockReference
  2
_Open30
 10
480.9001562703336
 20
384.6546986975568
 30
0.0
 41
3.75
 42
3.75
 43
3.75
 50
90.0
  0
INSERT
  5
6E22
330
57F5
100
AcDbEntity
  8
AM_5 寸法線
 62
     3
100
AcDbBlockReference
  2
_Open30
 10
480.9001562703334
 20
292.6546986975568
 30
0.0
 41
3.75
 42
3.75
 43
3.75
 50
270.0
  0
MTEXT
  5
6E23
330
57F5
100
AcDbEntity
  8
AM_5 寸法線
 62
     3
100
AcDbMText
 10
476.0251562703333
 20
338.6546986975568
 30
0.0
 40
5.25
 41
0.0
 46
0.0
 71
     5
 72
     1
  1
%%c92
  7
SEISA
 11
0.0000000000000001
 21
1.0
 31
0.0
 73
     1
 44
1.0
  0
POINT
  5
6E24
330
57F5
100
AcDbEntity
  8
Defpoints
 62
     0
100
AcDbPoint
 10
408.9001562703336
 20
384.6546986975568
 30
0.0
  0
POINT
  5
6E25
330
57F5
100
AcDbEntity
  8
Defpoints
 62
     0
100
AcDbPoint
 10
408.9001562703336
 20
292.6546986975568
 30
0.0
  0
POINT
  5
6E26
330
57F5
100
AcDbEntity
  8
Defpoints
 62
     0
100
AcDbPoint
 10
480.9001562703334
 20
292.6546986975568
 30
0.0
  0
ENDBLK
  5
57F7
330
57F5
100
AcDbEntity
  8
0
100
AcDbBlockEnd
  0
BLOCK
  5
580E
330
580D
100
AcDbEntity
  8
0
100
AcDbBlockBegin
  2
*D16
 70
     1
 10
0.0
 20
0.0
 30
0.0
  3
*D16
  1

  0
LINE
  5
6E27
330
580D
100
AcDbEntity
  8
AM_5 寸法線
 62
     3
100
AcDbLine
 10
384.6376562703337
 20
401.1546986975567
 30
0.0
 11
496.8376562703336
 21
401.1546986975567
 31
0.0
  0
LINE
  5
6E28
330
580D
100
AcDbEntity
  8
AM_5 寸法線
 62
     3
100
AcDbLine
 10
384.6376562703337
 20
276.1546986975567
 30
0.0
 11
496.8376562703333
 21
276.1546986975567
 31
0.0
  0
LINE
  5
6E29
330
580D
100
AcDbEntity
  8
AM_5 寸法線
 62
     3
100
AcDbLine
 10
495.9001562703336
 20
397.4046986975567
 30
0.0
 11
495.9001562703336
 21
279.9046986975568
 31
0.0
  0
INSERT
  5
6E2A
330
580D
100
AcDbEntity
  8
AM_5 寸法線
 62
     3
100
AcDbBlockReference
  2
_Open30
 10
495.9001562703336
 20
401.1546986975567
 30
0.0
 41
3.75
 42
3.75
 43
3.75
 50
90.0
  0
INSERT
  5
6E2B
330
580D
100
AcDbEntity
  8
AM_5 寸法線
 62
     3
100
AcDbBlockReference
  2
_Open30
 10
495.9001562703336
 20
276.1546986975567
 30
0.0
 41
3.75
 42
3.75
 43
3.75
 50
270.0
  0
MTEXT
  5
6E2C
330
580D
100
AcDbEntity
  8
AM_5 寸法線
 62
     3
100
AcDbMText
 10
491.0251562703335
 20
338.6546986975568
 30
0.0
 40
5.25
 41
0.0
 46
0.0
 71
     5
 72
     1
  1
%%c125
  7
SEISA
 11
0.0000000000000001
 21
1.0
 31
0.0
 73
     1
 44
1.0
  0
POINT
  5
6E2D
330
580D
100
AcDbEntity
  8
Defpoints
 62
     0
100
AcDbPoint
 10
383.7001562703337
 20
401.1546986975567
 30
0.0
  0
POINT
  5
6E2E
330
580D
100
AcDbEntity
  8
Defpoints
 62
     0
100
AcDbPoint
 10
383.7001562703337
 20
276.1546986975568
 30
0.0
  0
POINT
  5
6E2F
330
580D
100
AcDbEntity
  8
Defpoints
 62
     0
100
AcDbPoint
 10
495.9001562703336
 20
276.1546986975567
 30
0.0
  0
ENDBLK
  5
580F
330
580D
100
AcDbEntity
  8
0
100
AcDbBlockEnd
  0
BLOCK
  5
59B2
330
59B1
100
AcDbEntity
  8
0
100
AcDbBlockBegin
  2
*D17
 70
     1
 10
0.0
 20
0.0
 30
0.0
  3
*D17
  1

  0
LINE
  5
6E30
330
59B1
100
AcDbEntity
  8
AM_5 寸法線
 62
     3
100
AcDbLine
 10
234.9001562703336
 20
275.4171986975567
 30
0.0
 11
234.9001562703336
 21
260.2171986975568
 31
0.0
  0
LINE
  5
6E31
330
59B1
100
AcDbEntity
  8
AM_5 寸法線
 62
     3
100
AcDbLine
 10
219.9001562703336
 20
275.4171986975567
 30
0.0
 11
219.9001562703336
 21
260.2171986975568
 31
0.0
  0
LINE
  5
6E32
330
59B1
100
AcDbEntity
  8
AM_5 寸法線
 62
     3
100
AcDbLine
 10
231.1501562703336
 20
261.1546986975568
 30
0.0
 11
223.6501562703336
 21
261.1546986975568
 31
0.0
  0
INSERT
  5
6E33
330
59B1
100
AcDbEntity
  8
AM_5 寸法線
 62
     3
100
AcDbBlockReference
  2
_Open30
 10
234.9001562703336
 20
261.1546986975568
 30
0.0
 41
3.75
 42
3.75
 43
3.75
  0
INSERT
  5
6E34
330
59B1
100
AcDbEntity
  8
AM_5 寸法線
 62
     3
100
AcDbBlockReference
  2
_Open30
 10
219.9001562703336
 20
261.1546986975568
 30
0.0
 41
3.75
 42
3.75
 43
3.75
 50
180.0
  0
MTEXT
  5
6E35
330
59B1
100
AcDbEntity
  8
AM_5 寸法線
 62
     3
100
AcDbMText
 10
227.4001562703336
 20
266.0296986975568
 30
0.0
 40
5.25
 41
0.0
 46
0.0
 71
     5
 72
     1
  1
15
  7
SEISA
 73
     1
 44
1.0
  0
POINT
  5
6E36
330
59B1
100
AcDbEntity
  8
Defpoints
 62
     0
100
AcDbPoint
 10
234.9001562703336
 20
276.3546986975567
 30
0.0
  0
POINT
  5
6E37
330
59B1
100
AcDbEntity
  8
Defpoints
 62
     0
100
AcDbPoint
 10
219.9001562703336
 20
276.3546986975567
 30
0.0
  0
POINT
  5
6E38
330
59B1
100
AcDbEntity
  8
Defpoints
 62
     0
100
AcDbPoint
 10
219.9001562703336
 20
261.1546986975568
 30
0.0
  0
ENDBLK
  5
59B3
330
59B1
100
AcDbEntity
  8
0
100
AcDbBlockEnd
  0
BLOCK
  5
59FA
330
59F9
100
AcDbEntity
  8
0
100
AcDbBlockBegin
  2
*D18
 70
     1
 10
0.0
 20
0.0
 30
0.0
  3
*D18
  1

  0
LINE
  5
6E4B
330
59F9
100
AcDbEntity
  8
AM_5 寸法線
 62
     3
100
AcDbLine
 10
368.9001562703337
 20
275.4171986975567
 30
0.0
 11
368.9001562703337
 21
260.2171986975568
 31
0.0
  0
LINE
  5
6E4C
330
59F9
100
AcDbEntity
  8
AM_5 寸法線
 62
     3
100
AcDbLine
 10
383.9001562703336
 20
275.4171986975567
 30
0.0
 11
383.9001562703336
 21
260.2171986975568
 31
0.0
  0
LINE
  5
6E4D
330
59F9
100
AcDbEntity
  8
AM_5 寸法線
 62
     3
100
AcDbLine
 10
372.6501562703337
 20
261.1546986975568
 30
0.0
 11
380.1501562703336
 21
261.1546986975568
 31
0.0
  0
INSERT
  5
6E4E
330
59F9
100
AcDbEntity
  8
AM_5 寸法線
 62
     3
100
AcDbBlockReference
  2
_Open30
 10
368.9001562703337
 20
261.1546986975568
 30
0.0
 41
3.75
 42
3.75
 43
3.75
 50
180.0
  0
INSERT
  5
6E4F
330
59F9
100
AcDbEntity
  8
AM_5 寸法線
 62
     3
100
AcDbBlockReference
  2
_Open30
 10
383.9001562703336
 20
261.1546986975568
 30
0.0
 41
3.75
 42
3.75
 43
3.75
  0
MTEXT
  5
6E50
330
59F9
100
AcDbEntity
  8
AM_5 寸法線
 62
     3
100
AcDbMText
 10
376.4001562703336
 20
266.0296986975568
 30
0.0
 40
5.25
 41
0.0
 46
0.0
 71
     5
 72
     1
  1
15
  7
SEISA
 73
     1
 44
1.0
  0
POINT
  5
6E51
330
59F9
100
AcDbEntity
  8
Defpoints
 62
     0
100
AcDbPoint
 10
368.9001562703337
 20
276.3546986975567
 30
0.0
  0
POINT
  5
6E52
330
59F9
100
AcDbEntity
  8
Defpoints
 62
     0
100
AcDbPoint
 10
383.9001562703336
 20
276.3546986975567
 30
0.0
  0
POINT
  5
6E53
330
59F9
100
AcDbEntity
  8
Defpoints
 62
     0
100
AcDbPoint
 10
383.9001562703336
 20
261.1546986975568
 30
0.0
  0
ENDBLK
  5
59FB
330
59F9
100
AcDbEntity
  8
0
100
AcDbBlockEnd
  0
BLOCK
  5
5A12
330
5A11
100
AcDbEntity
  8
0
100
AcDbBlockBegin
  2
*D19
 70
     1
 10
0.0
 20
0.0
 30
0.0
  3
*D19
  1

  0
LINE
  5
6E54
330
5A11
100
AcDbEntity
  8
AM_5 寸法線
 62
     3
100
AcDbLine
 10
191.9001562703336
 20
294.7171986975568
 30
0.0
 11
191.9001562703336
 21
245.2171986975568
 31
0.0
  0
LINE
  5
6E55
330
5A11
100
AcDbEntity
  8
AM_5 寸法線
 62
     3
100
AcDbLine
 10
167.9001562703336
 20
305.7171986975568
 30
0.0
 11
167.9001562703336
 21
245.2171986975568
 31
0.0
  0
LINE
  5
6E56
330
5A11
100
AcDbEntity
  8
AM_5 寸法線
 62
     3
100
AcDbLine
 10
188.1501562703336
 20
246.1546986975568
 30
0.0
 11
171.6501562703335
 21
246.1546986975568
 31
0.0
  0
INSERT
  5
6E57
330
5A11
100
AcDbEntity
  8
AM_5 寸法線
 62
     3
100
AcDbBlockReference
  2
_Open30
 10
191.9001562703336
 20
246.1546986975568
 30
0.0
 41
3.75
 42
3.75
 43
3.75
  0
INSERT
  5
6E58
330
5A11
100
AcDbEntity
  8
AM_5 寸法線
 62
     3
100
AcDbBlockReference
  2
_Open30
 10
167.9001562703336
 20
246.1546986975568
 30
0.0
 41
3.75
 42
3.75
 43
3.75
 50
180.0
  0
MTEXT
  5
6E59
330
5A11
100
AcDbEntity
  8
AM_5 寸法線
 62
     3
100
AcDbMText
 10
179.9001562703335
 20
251.0296986975568
 30
0.0
 40
5.25
 41
0.0
 46
0.0
 71
     5
 72
     1
  1
24
  7
SEISA
 73
     1
 44
1.0
  0
POINT
  5
6E5A
330
5A11
100
AcDbEntity
  8
Defpoints
 62
     0
100
AcDbPoint
 10
191.9001562703336
 20
295.6546986975568
 30
0.0
  0
POINT
  5
6E5B
330
5A11
100
AcDbEntity
  8
Defpoints
 62
     0
100
AcDbPoint
 10
167.9001562703336
 20
306.6546986975568
 30
0.0
  0
POINT
  5
6E5C
330
5A11
100
AcDbEntity
  8
Defpoints
 62
     0
100
AcDbPoint
 10
167.9001562703336
 20
246.1546986975568
 30
0.0
  0
ENDBLK
  5
5A13
330
5A11
100
AcDbEntity
  8
0
100
AcDbBlockEnd
  0
BLOCK
  5
5A2A
330
5A29
100
AcDbEntity
  8
0
100
AcDbBlockBegin
  2
*D20
 70
     1
 10
0.0
 20
0.0
 30
0.0
  3
*D20
  1

  0
LINE
  5
6E5D
330
5A29
100
AcDbEntity
  8
AM_5 寸法線
 62
     3
100
AcDbLine
 10
191.9001562703336
 20
294.7171986975568
 30
0.0
 11
191.9001562703336
 21
245.2171986975568
 31
0.0
  0
LINE
  5
6E5E
330
5A29
100
AcDbEntity
  8
AM_5 寸法線
 62
     3
100
AcDbLine
 10
234.9001562703336
 20
275.4171986975567
 30
0.0
 11
234.9001562703336
 21
245.2171986975568
 31
0.0
  0
LINE
  5
6E5F
330
5A29
100
AcDbEntity
  8
AM_5 寸法線
 62
     3
100
AcDbLine
 10
195.6501562703336
 20
246.1546986975568
 30
0.0
 11
231.1501562703336
 21
246.1546986975568
 31
0.0
  0
INSERT
  5
6E60
330
5A29
100
AcDbEntity
  8
AM_5 寸法線
 62
     3
100
AcDbBlockReference
  2
_Open30
 10
191.9001562703336
 20
246.1546986975568
 30
0.0
 41
3.75
 42
3.75
 43
3.75
 50
180.0
  0
INSERT
  5
6E61
330
5A29
100
AcDbEntity
  8
AM_5 寸法線
 62
     3
100
AcDbBlockReference
  2
_Open30
 10
234.9001562703336
 20
246.1546986975568
 30
0.0
 41
3.75
 42
3.75
 43
3.75
  0
MTEXT
  5
6E62
330
5A29
100
AcDbEntity
  8
AM_5 寸法線
 62
     3
100
AcDbMText
 10
213.4001562703336
 20
251.0296986975568
 30
0.0
 40
5.25
 41
0.0
 46
0.0
 71
     5
 72
     1
  1
43
  7
SEISA
 73
     1
 44
1.0
  0
POINT
  5
6E63
330
5A29
100
AcDbEntity
  8
Defpoints
 62
     0
100
AcDbPoint
 10
191.9001562703336
 20
295.6546986975568
 30
0.0
  0
POINT
  5
6E64
330
5A29
100
AcDbEntity
  8
Defpoints
 62
     0
100
AcDbPoint
 10
234.9001562703336
 20
276.3546986975567
 30
0.0
  0
POINT
  5
6E65
330
5A29
100
AcDbEntity
  8
Defpoints
 62
     0
100
AcDbPoint
 10
234.9001562703336
 20
246.1546986975568
 30
0.0
  0
ENDBLK
  5
5A2B
330
5A29
100
AcDbEntity
  8
0
100
AcDbBlockEnd
  0
BLOCK
  5
5A5A
330
5A59
100
AcDbEntity
  8
0
100
AcDbBlockBegin
  2
*D21
 70
     1
 10
0.0
 20
0.0
 30
0.0
  3
*D21
  1

  0
LINE
  5
6E6E
330
5A59
100
AcDbEntity
  8
AM_5 寸法線
 62
     3
100
AcDbLine
 10
368.9001562703337
 20
275.4171986975567
 30
0.0
 11
368.9001562703337
 21
245.2171986975568
 31
0.0
  0
LINE
  5
6E6F
330
5A59
100
AcDbEntity
  8
AM_5 寸法線
 62
     3
100
AcDbLine
 10
411.9001562703336
 20
294.7171986975568
 30
0.0
 11
411.9001562703336
 21
245.2171986975568
 31
0.0
  0
LINE
  5
6E70
330
5A59
100
AcDbEntity
  8
AM_5 寸法線
 62
     3
100
AcDbLine
 10
372.6501562703337
 20
246.1546986975568
 30
0.0
 11
408.1501562703333
 21
246.1546986975568
 31
0.0
  0
INSERT
  5
6E71
330
5A59
100
AcDbEntity
  8
AM_5 寸法線
 62
     3
100
AcDbBlockReference
  2
_Open30
 10
368.9001562703337
 20
246.1546986975568
 30
0.0
 41
3.75
 42
3.75
 43
3.75
 50
180.0
  0
INSERT
  5
6E72
330
5A59
100
AcDbEntity
  8
AM_5 寸法線
 62
     3
100
AcDbBlockReference
  2
_Open30
 10
411.9001562703336
 20
246.1546986975568
 30
0.0
 41
3.75
 42
3.75
 43
3.75
  0
MTEXT
  5
6E73
330
5A59
100
AcDbEntity
  8
AM_5 寸法線
 62
     3
100
AcDbMText
 10
390.4001562703336
 20
251.0296986975568
 30
0.0
 40
5.25
 41
0.0
 46
0.0
 71
     5
 72
     1
  1
43
  7
SEISA
 73
     1
 44
1.0
  0
POINT
  5
6E74
330
5A59
100
AcDbEntity
  8
Defpoints
 62
     0
100
AcDbPoint
 10
368.9001562703337
 20
276.3546986975567
 30
0.0
  0
POINT
  5
6E75
330
5A59
100
AcDbEntity
  8
Defpoints
 62
     0
100
AcDbPoint
 10
411.9001562703336
 20
295.6546986975568
 30
0.0
  0
POINT
  5
6E76
330
5A59
100
AcDbEntity
  8
Defpoints
 62
     0
100
AcDbPoint
 10
411.9001562703336
 20
246.1546986975568
 30
0.0
  0
ENDBLK
  5
5A5B
330
5A59
100
AcDbEntity
  8
0
100
AcDbBlockEnd
  0
BLOCK
  5
5A72
330
5A71
100
AcDbEntity
  8
0
100
AcDbBlockBegin
  2
*D22
 70
     1
 10
0.0
 20
0.0
 30
0.0
  3
*D22
  1

  0
LINE
  5
8414
330
5A71
100
AcDbEntity
  8
AM_5 寸法線
 62
     3
100
AcDbLine
 10
411.9001562703337
 20
294.7171986975568
 30
0.0
 11
411.9001562703337
 21
245.2171986975568
 31
0.0
  0
LINE
  5
8415
330
5A71
100
AcDbEntity
  8
AM_5 寸法線
 62
     3
100
AcDbLine
 10
435.9001562703334
 20
305.7171986975568
 30
0.0
 11
435.9001562703334
 21
245.2171986975568
 31
0.0
  0
LINE
  5
8416
330
5A71
100
AcDbEntity
  8
AM_5 寸法線
 62
     3
100
AcDbLine
 10
415.6501562703336
 20
246.1546986975568
 30
0.0
 11
432.1501562703335
 21
246.1546986975568
 31
0.0
  0
INSERT
  5
8417
330
5A71
100
AcDbEntity
  8
AM_5 寸法線
 62
     3
100
AcDbBlockReference
  2
_Open30
 10
411.9001562703337
 20
246.1546986975568
 30
0.0
 41
3.75
 42
3.75
 43
3.75
 50
180.0
  0
INSERT
  5
8418
330
5A71
100
AcDbEntity
  8
AM_5 寸法線
 62
     3
100
AcDbBlockReference
  2
_Open30
 10
435.9001562703334
 20
246.1546986975568
 30
0.0
 41
3.75
 42
3.75
 43
3.75
  0
MTEXT
  5
8419
330
5A71
100
AcDbEntity
  8
AM_5 寸法線
 62
     3
100
AcDbMText
 10
423.9001562703335
 20
251.0296986975568
 30
0.0
 40
5.25
 41
0.0
 46
0.0
 71
     5
 72
     1
  1
24
  7
SEISA
 73
     1
 44
1.0
  0
POINT
  5
841A
330
5A71
100
AcDbEntity
  8
Defpoints
 62
     0
100
AcDbPoint
 10
411.9001562703337
 20
295.6546986975568
 30
0.0
  0
POINT
  5
841B
330
5A71
100
AcDbEntity
  8
Defpoints
 62
     0
100
AcDbPoint
 10
435.9001562703334
 20
306.6546986975568
 30
0.0
  0
POINT
  5
841C
330
5A71
100
AcDbEntity
  8
Defpoints
 62
     0
100
AcDbPoint
 10
435.9001562703334
 20
246.1546986975568
 30
0.0
  0
ENDBLK
  5
5A73
330
5A71
100
AcDbEntity
  8
0
100
AcDbBlockEnd
  0
BLOCK
  5
6B97
330
6B94
100
AcDbEntity
  8
0
100
AcDbBlockBegin
  2
ＧＣスペーサ SAMY125
 70
     0
 10
0.0
 20
0.0
 30
0.0
  3
ＧＣスペーサ SAMY125
  1

  0
LINE
  5
6B98
330
6B94
100
AcDbEntity
  8
AM_0 外形線1
100
AcDbLine
 10
-32.00000000000006
 20
-44.55
 30
0.0
 11
-63.53461905411631
 21
-44.55000000000018
 31
0.0
  0
HATCH
  5
6B99
330
6B94
100
AcDbEntity
  8
AM_8 ハッチング
100
AcDbHatch
 10
0.0
 20
0.0
 30
0.0
210
0.0
220
0.0
230
1.0
  2
_USER
 70
     0
 71
     1
 91
        2
 92
        7
 72
     1
 73
     1
 93
        4
 10
-27.43028534674306
 20
45.65518645570285
 42
-0.1192067304550499
 10
-31.99999999999994
 20
44.54999999999984
 42
0.0
 10
-18.0
 20
44.54999999999984
 42
0.0
 10
-18.0
 20
50.4999999999999
 42
0.0
 97
        4
330
6BE3
330
6BE2
330
6B9A
330
6BD7
 92
        7
 72
     1
 73
     1
 93
        5
 10
-29.17542648054292
 20
44.54999999999984
 42
0.0
 10
-26.0
 20
39.04999999999984
 42
0.0
 10
-23.0
 20
39.04999999999984
 42
0.4142135623730951
 10
-18.0
 20
44.04999999999985
 42
0.0
 10
-18.0
 20
44.54999999999984
 42
0.0
 97
        5
330
6BD7
330
6B9A
330
6BE1
330
6B9B
330
6BD8
 75
     0
 76
     0
 52
45.0
 41
0.5
 77
     0
 78
     1
 53
45.0
 43
-420.5378272442277
 44
-278.1192041932427
 45
-0.3535533905932737
 46
0.3535533905932738
 79
     0
 47
0.0493520660286737
 98
        2
 10
-20.19299092921767
 20
48.09050085517696
 10
-22.95835442155123
 20
43.30335026089301
1001
ACAD
1010
0.0
1020
0.0
1030
0.0
  0
LINE
  5
6B9A
102
{ACAD_REACTORS
330
6B99
102
}
330
6B94
100
AcDbEntity
  8
AM_0 外形線1
100
AcDbLine
 10
-18.0
 20
44.54999999999984
 30
0.0
 11
-63.53461905411649
 21
44.54999999999984
 31
0.0
  0
LINE
  5
6B9B
102
{ACAD_REACTORS
330
6B99
102
}
330
6B94
100
AcDbEntity
  8
AM_0 外形線1
100
AcDbLine
 10
-23.0
 20
39.04999999999984
 30
0.0
 11
-65.51536305709328
 21
39.04999999999973
 31
0.0
  0
LINE
  5
6B9C
330
6B94
100
AcDbEntity
  8
AM_0 外形線1
100
AcDbLine
 10
-133.9999999999999
 20
-0.0000000000001137
 30
0.0
 11
-134.0
 21
-62.00000000000023
 31
0.0
  0
LINE
  5
6B9D
330
6B94
100
AcDbEntity
  8
AM_0 外形線1
100
AcDbLine
 10
-102.0
 20
-44.55000000000029
 30
0.0
 11
-66.53461905411638
 21
-44.55000000000007
 31
0.0
  0
LINE
  5
6B9E
330
6B94
100
AcDbEntity
  8
AM_0 外形線1
100
AcDbLine
 10
-116.0
 20
44.54999999999984
 30
0.0
 11
-91.0766888120762
 21
44.54999999999984
 31
0.0
  0
LINE
  5
6B9F
330
6B94
100
AcDbEntity
  8
AM_0 外形線1
100
AcDbLine
 10
-100.824574
 20
44.54999999999984
 30
0.0
 11
-66.53461905411649
 21
44.54999999999984
 31
0.0
  0
LINE
  5
6BA0
330
6B94
100
AcDbEntity
  8
AM_0 外形線1
100
AcDbLine
 10
-111.0
 20
39.04999999999984
 30
0.0
 11
-68.51536305709328
 21
39.04999999999984
 31
0.0
  0
LINE
  5
6BA1
330
6B94
100
AcDbEntity
  8
AM_0 外形線1
100
AcDbLine
 10
-134.0
 20
45.49999999999989
 30
0.0
 11
-133.9999999999999
 21
52.49999999999993
 31
0.0
  0
LINE
  5
6BA2
330
6B94
100
AcDbEntity
  8
AM_0 外形線1
100
AcDbLine
 10
0.0
 20
0.0
 30
0.0
 11
0.0
 21
-62.0000000000001
 31
0.0
  0
LINE
  5
6BA3
330
6B94
100
AcDbEntity
  8
AM_0 外形線1
100
AcDbLine
 10
-0.5
 20
-62.5000000000001
 30
0.0
 11
0.0
 21
-62.0000000000001
 31
0.0
1001
GENIUS_GENFIL_13
1070
     0
1040
0.5
1040
0.5
1040
0.4999999999999434
1040
45.00000000000162
1000
~T
1001
GENIUS_GENOREF_13
1005
6C0A
  0
LINE
  5
6BA4
330
6B94
100
AcDbEntity
  8
AM_7 中心線
100
AcDbLine
 10
-20.0
 20
-56.00000000000012
 30
0.0
 11
20.0
 21
-56.00000000000012
 31
0.0
  0
LINE
  5
6BA5
330
6B94
100
AcDbEntity
  8
AM_0 外形線1
100
AcDbLine
 10
0.0
 20
45.49999999999999
 30
0.0
 11
0.0
 21
52.49999999999989
 31
0.0
  0
LINE
  5
6BA6
330
6B94
100
AcDbEntity
  8
AM_0 外形線1
100
AcDbLine
 10
-0.5000000000001137
 20
44.99999999999988
 30
0.0
 11
-0.0000000000001137
 21
45.49999999999989
 31
0.0
1001
GENIUS_GENFIL_13
1070
     0
1040
0.5
1040
0.5
1040
0.4999999999999434
1040
44.99999999999674
1000
~T
1001
GENIUS_GENOREF_13
1005
6C09
  0
LINE
  5
6BA7
330
6B94
100
AcDbEntity
  8
AM_0 外形線1
100
AcDbLine
 10
-0.500000000000057
 20
62.49999999999989
 30
0.0
 11
-0.0000000000000568
 21
61.99999999999988
 31
0.0
1001
GENIUS_GENFIL_13
1070
     0
1040
0.5
1040
0.5
1040
0.4999999999999434
1040
45.0
1000
~T
1001
GENIUS_GENOREF_13
1005
6C08
  0
LINE
  5
6BA8
330
6B94
100
AcDbEntity
  8
AM_0 外形線1
100
AcDbLine
 10
-3.0
 20
44.99999999999988
 30
0.0
 11
-0.5000000000001707
 21
44.99999999999988
 31
0.0
  0
LINE
  5
6BA9
330
6B94
100
AcDbEntity
  8
AM_0 外形線1
100
AcDbLine
 10
0.0
 20
52.49999999999989
 30
0.0
 11
-15.0
 21
52.49999999999989
 31
0.0
  0
POLYLINE
  5
6BAA
330
6B94
100
AcDbEntity
  8
AM_4 細線
100
AcDb2dPolyline
 66
     1
 10
0.0
 20
0.0
 30
0.0
 70
     2
  0
VERTEX
  5
828E
330
6BAA
100
AcDbEntity
  8
AM_4 細線
100
AcDbVertex
100
AcDb2dVertex
 10
-63.53461905411655
 20
44.5499999999996
 30
0.0
 42
0.055257880209348
  0
VERTEX
  5
828F
330
6BAA
100
AcDbEntity
  8
AM_4 細線
100
AcDbVertex
100
AcDb2dVertex
 10
-65.72112855958571
 20
38.19161064112053
 30
0.0
 42
0.0778088632040809
 70
     1
  0
VERTEX
  5
8290
330
6BAA
100
AcDbEntity
  8
AM_4 細線
100
AcDbVertex
100
AcDb2dVertex
 10
-66.03461905411649
 20
33.41249999999968
 30
0.0
 42
0.0754275559232862
  0
VERTEX
  5
8291
330
6BAA
100
AcDbEntity
  8
AM_4 細線
100
AcDbVertex
100
AcDb2dVertex
 10
-64.50095977042872
 20
27.15551932173116
 30
0.0
 42
-0.0980480572430164
 70
     1
  0
VERTEX
  5
8292
330
6BAA
100
AcDbEntity
  8
AM_4 細線
100
AcDbVertex
100
AcDb2dVertex
 10
-63.53461905411649
 20
22.27499999999976
 30
0.0
 42
-0.1108542464691053
  0
VERTEX
  5
8293
330
6BAA
100
AcDbEntity
  8
AM_4 細線
100
AcDbVertex
100
AcDb2dVertex
 10
-64.78461905411643
 20
16.70624999999961
 30
0.0
 42
0.1108542464691106
 70
     1
  0
VERTEX
  5
8294
330
6BAA
100
AcDbEntity
  8
AM_4 細線
100
AcDbVertex
100
AcDb2dVertex
 10
-66.03461905411643
 20
11.1374999999997
 30
0.0
 42
0.1108542464691097
  0
VERTEX
  5
8295
330
6BAA
100
AcDbEntity
  8
AM_4 細線
100
AcDbVertex
100
AcDb2dVertex
 10
-64.78461905411643
 20
5.568749999999795
 30
0.0
 42
-0.1108542464691084
 70
     1
  0
VERTEX
  5
8296
330
6BAA
100
AcDbEntity
  8
AM_4 細線
100
AcDbVertex
100
AcDb2dVertex
 10
-63.53461905411643
 20
-0.0000000000003411
 30
0.0
 42
-0.1108542464691109
  0
VERTEX
  5
8297
330
6BAA
100
AcDbEntity
  8
AM_4 細線
100
AcDbVertex
100
AcDb2dVertex
 10
-64.78461905411643
 20
-5.56875000000025
 30
0.0
 42
0.1108542464691107
 70
     1
  0
VERTEX
  5
8298
330
6BAA
100
AcDbEntity
  8
AM_4 細線
100
AcDbVertex
100
AcDb2dVertex
 10
-66.03461905411643
 20
-11.13750000000016
 30
0.0
 42
0.1108542464691085
  0
VERTEX
  5
8299
330
6BAA
100
AcDbEntity
  8
AM_4 細線
100
AcDbVertex
100
AcDb2dVertex
 10
-64.78461905411643
 20
-16.70625000000029
 30
0.0
 42
-0.1108542464691136
 70
     1
  0
VERTEX
  5
829A
330
6BAA
100
AcDbEntity
  8
AM_4 細線
100
AcDbVertex
100
AcDb2dVertex
 10
-63.53461905411638
 20
-22.2750000000002
 30
0.0
 42
-0.098048057243019
  0
VERTEX
  5
829B
330
6BAA
100
AcDbEntity
  8
AM_4 細線
100
AcDbVertex
100
AcDb2dVertex
 10
-64.5009597704286
 20
-27.15551932173173
 30
0.0
 42
0.0754275559232843
 70
     1
  0
VERTEX
  5
829C
330
6BAA
100
AcDbEntity
  8
AM_4 細線
100
AcDbVertex
100
AcDb2dVertex
 10
-66.03461905411632
 20
-33.41250000000025
 30
0.0
 42
0.0778088632040829
  0
VERTEX
  5
829D
330
6BAA
100
AcDbEntity
  8
AM_4 細線
100
AcDbVertex
100
AcDb2dVertex
 10
-65.7211285595855
 20
-38.1916106411212
 30
0.0
 42
0.0552578802093454
 70
     1
  0
VERTEX
  5
829E
330
6BAA
100
AcDbEntity
  8
AM_4 細線
100
AcDbVertex
100
AcDb2dVertex
 10
-63.53461905411631
 20
-44.55000000000018
 30
0.0
  0
SEQEND
  5
829F
330
6BAA
100
AcDbEntity
  8
AM_4 細線
  0
POLYLINE
  5
6BBD
330
6B94
100
AcDbEntity
  8
AM_4 細線
100
AcDb2dPolyline
 66
     1
 10
0.0
 20
0.0
 30
0.0
 70
     2
  0
VERTEX
  5
82A1
330
6BBD
100
AcDbEntity
  8
AM_4 細線
100
AcDbVertex
100
AcDb2dVertex
 10
-66.53461905411655
 20
44.5499999999996
 30
0.0
 42
0.055257880209348
  0
VERTEX
  5
82A2
330
6BBD
100
AcDbEntity
  8
AM_4 細線
100
AcDbVertex
100
AcDb2dVertex
 10
-68.72112855958571
 20
38.19161064112053
 30
0.0
 42
0.0778088632040809
 70
     1
  0
VERTEX
  5
82A3
330
6BBD
100
AcDbEntity
  8
AM_4 細線
100
AcDbVertex
100
AcDb2dVertex
 10
-69.03461905411649
 20
33.41249999999968
 30
0.0
 42
0.0754275559232862
  0
VERTEX
  5
82A4
330
6BBD
100
AcDbEntity
  8
AM_4 細線
100
AcDbVertex
100
AcDb2dVertex
 10
-67.50095977042872
 20
27.15551932173116
 30
0.0
 42
-0.0980480572430164
 70
     1
  0
VERTEX
  5
82A5
330
6BBD
100
AcDbEntity
  8
AM_4 細線
100
AcDbVertex
100
AcDb2dVertex
 10
-66.53461905411649
 20
22.27499999999976
 30
0.0
 42
-0.1108542464691053
  0
VERTEX
  5
82A6
330
6BBD
100
AcDbEntity
  8
AM_4 細線
100
AcDbVertex
100
AcDb2dVertex
 10
-67.78461905411643
 20
16.70624999999961
 30
0.0
 42
0.1108542464691106
 70
     1
  0
VERTEX
  5
82A7
330
6BBD
100
AcDbEntity
  8
AM_4 細線
100
AcDbVertex
100
AcDb2dVertex
 10
-69.03461905411643
 20
11.1374999999997
 30
0.0
 42
0.1108542464691097
  0
VERTEX
  5
82A8
330
6BBD
100
AcDbEntity
  8
AM_4 細線
100
AcDbVertex
100
AcDb2dVertex
 10
-67.78461905411643
 20
5.568749999999795
 30
0.0
 42
-0.1108542464691084
 70
     1
  0
VERTEX
  5
82A9
330
6BBD
100
AcDbEntity
  8
AM_4 細線
100
AcDbVertex
100
AcDb2dVertex
 10
-66.53461905411643
 20
-0.0000000000003411
 30
0.0
 42
-0.1108542464691109
  0
VERTEX
  5
82AA
330
6BBD
100
AcDbEntity
  8
AM_4 細線
100
AcDbVertex
100
AcDb2dVertex
 10
-67.78461905411643
 20
-5.56875000000025
 30
0.0
 42
0.1108542464691107
 70
     1
  0
VERTEX
  5
82AB
330
6BBD
100
AcDbEntity
  8
AM_4 細線
100
AcDbVertex
100
AcDb2dVertex
 10
-69.03461905411643
 20
-11.13750000000016
 30
0.0
 42
0.1108542464691085
  0
VERTEX
  5
82AC
330
6BBD
100
AcDbEntity
  8
AM_4 細線
100
AcDbVertex
100
AcDb2dVertex
 10
-67.78461905411643
 20
-16.70625000000029
 30
0.0
 42
-0.1108542464691136
 70
     1
  0
VERTEX
  5
82AD
330
6BBD
100
AcDbEntity
  8
AM_4 細線
100
AcDbVertex
100
AcDb2dVertex
 10
-66.53461905411638
 20
-22.2750000000002
 30
0.0
 42
-0.098048057243019
  0
VERTEX
  5
82AE
330
6BBD
100
AcDbEntity
  8
AM_4 細線
100
AcDbVertex
100
AcDb2dVertex
 10
-67.50095977042859
 20
-27.15551932173173
 30
0.0
 42
0.0754275559232843
 70
     1
  0
VERTEX
  5
82AF
330
6BBD
100
AcDbEntity
  8
AM_4 細線
100
AcDbVertex
100
AcDb2dVertex
 10
-69.03461905411631
 20
-33.41250000000025
 30
0.0
 42
0.0778088632040829
  0
VERTEX
  5
82B0
330
6BBD
100
AcDbEntity
  8
AM_4 細線
100
AcDbVertex
100
AcDb2dVertex
 10
-68.72112855958551
 20
-38.1916106411212
 30
0.0
 42
0.0552578802093454
 70
     1
  0
VERTEX
  5
82B1
330
6BBD
100
AcDbEntity
  8
AM_4 細線
100
AcDbVertex
100
AcDb2dVertex
 10
-66.53461905411631
 20
-44.55000000000018
 30
0.0
  0
SEQEND
  5
82B2
330
6BBD
100
AcDbEntity
  8
AM_4 細線
  0
LINE
  5
6BD0
330
6B94
100
AcDbEntity
  8
AM_0 外形線1
100
AcDbLine
 10
-18.0
 20
-50.50000000000011
 30
0.0
 11
-17.99999999999994
 21
-0.0000000000001137
 31
0.0
  0
LINE
  5
6BD1
330
6B94
100
AcDbEntity
  8
AM_0 外形線1
100
AcDbLine
 10
-15.0
 20
-50.50000000000011
 30
0.0
 11
-18.0
 21
-50.50000000000011
 31
0.0
  0
LINE
  5
6BD2
330
6B94
100
AcDbEntity
  8
AM_0 外形線1
100
AcDbLine
 10
-14.99999999999966
 20
0.0
 30
0.0
 11
-15.00000000000006
 21
-61.50000000000011
 31
0.0
  0
LINE
  5
6BD3
330
6B94
100
AcDbEntity
  8
AM_0 外形線1
100
AcDbLine
 10
-0.5
 20
-62.5000000000001
 30
0.0
 11
-14.00000000000005
 21
-62.5000000000001
 31
0.0
  0
LINE
  5
6BD4
330
6B94
100
AcDbEntity
  8
AM_0 外形線1
100
AcDbLine
 10
-15.00000000000006
 20
-61.50000000000011
 30
0.0
 11
-14.00000000000005
 21
-62.5000000000001
 31
0.0
1001
GENIUS_GENFIL_13
1070
     0
1040
1.0
1040
1.0
1040
1.0
1040
44.99999999999918
1000
~T
1001
GENIUS_GENOREF_13
1005
6C07
  0
ARC
  5
6BD5
330
6B94
100
AcDbEntity
  8
AM_0 外形線1
100
AcDbCircle
 10
-32.0
 20
-54.55000000000007
 30
0.0
 40
10.0
100
AcDbArc
 50
62.80814630705596
 51
90.0
  0
LINE
  5
6BD6
330
6B94
100
AcDbEntity
  8
AM_0 外形線1
100
AcDbLine
 10
-18.0
 20
-50.50000000000011
 30
0.0
 11
-27.43028534674313
 21
-45.65518645570318
 31
0.0
  0
LINE
  5
6BD7
102
{ACAD_REACTORS
330
6B99
102
}
330
6B94
100
AcDbEntity
  8
AM_0 外形線1
100
AcDbLine
 10
-18.0
 20
50.4999999999999
 30
0.0
 11
-18.0
 21
44.04999999999985
 31
0.0
  0
ARC
  5
6BD8
102
{ACAD_REACTORS
330
6B99
102
}
330
6B94
100
AcDbEntity
  8
AM_0 外形線1
100
AcDbCircle
 10
-23.0
 20
44.04999999999985
 30
0.0
 40
5.0
100
AcDbArc
 50
270.0
 51
0.0000000000065138
1001
GENIUS_GENOBJ-N-FIL_13
1002
{
1000
OWNER
1000
GEN
1002
}
1001
GENIUS_GENODEF_13
1002
{
1000
HIER
1070
     0
1002
}
1002
{
1000
MANEDIT
1070
     0
1002
}
1002
{
1000
NOSEL
1070
     0
1002
}
1002
{
1000
BEHIND
1070
     0
1002
}
1002
{
1000
OTHER
1070
     0
1002
}
1002
{
1000
REACTOR
1002
}
  0
LINE
  5
6BD9
330
6B94
100
AcDbEntity
  8
AM_0 外形線1
100
AcDbLine
 10
-3.0
 20
44.99999999999988
 30
0.0
 11
-3.0
 21
-0.0000000000001137
 31
0.0
  0
LINE
  5
6BDA
330
6B94
100
AcDbEntity
  8
AM_0 外形線1
100
AcDbLine
 10
-15.0
 20
50.4999999999999
 30
0.0
 11
-18.0
 21
50.4999999999999
 31
0.0
  0
LINE
  5
6BDB
330
6B94
100
AcDbEntity
  8
AM_0 外形線1
100
AcDbLine
 10
-15.0
 20
51.02035399999988
 30
0.0
 11
-15.00000000000011
 21
61.49999999999988
 31
0.0
  0
LINE
  5
6BDC
330
6B94
100
AcDbEntity
  8
AM_0 外形線1
100
AcDbLine
 10
-0.500000000000057
 20
62.49999999999989
 30
0.0
 11
-14.00000000000011
 21
62.49999999999989
 31
0.0
  0
LINE
  5
6BDD
330
6B94
100
AcDbEntity
  8
AM_0 外形線1
100
AcDbLine
 10
-15.00000000000011
 20
61.49999999999988
 30
0.0
 11
-14.00000000000011
 21
62.49999999999989
 31
0.0
1001
GENIUS_GENFIL_13
1070
     0
1040
1.0
1040
1.0
1040
1.0
1040
45.00000000000325
1000
~T
1001
GENIUS_GENOREF_13
1005
6C06
  0
LINE
  5
6BDE
330
6B94
100
AcDbEntity
  8
AM_0 外形線1
100
AcDbLine
 10
-15.0
 20
51.02035399999988
 30
0.0
 11
-15.0
 21
50.4999999999999
 31
0.0
  0
LINE
  5
6BDF
330
6B94
100
AcDbEntity
  8
AM_0 外形線1
100
AcDbLine
 10
-3.0
 20
44.99999999999988
 30
0.0
 11
-0.5000000000001137
 21
44.99999999999988
 31
0.0
  0
LINE
  5
6BE0
330
6B94
100
AcDbEntity
  8
AM_0 外形線1
100
AcDbLine
 10
-28.0
 20
39.04999999999984
 30
0.0
 11
-27.99999999999994
 21
-0.0000000000001137
 31
0.0
  0
LINE
  5
6BE1
102
{ACAD_REACTORS
330
6B99
102
}
330
6B94
100
AcDbEntity
  8
AM_0 外形線1
100
AcDbLine
 10
-26.0
 20
39.04999999999984
 30
0.0
 11
-29.17542648054292
 21
44.54999999999984
 31
0.0
  0
ARC
  5
6BE2
102
{ACAD_REACTORS
330
6B99
102
}
330
6B94
100
AcDbEntity
  8
AM_0 外形線1
100
AcDbCircle
 10
-32.0
 20
54.54999999999984
 30
0.0
 40
10.0
100
AcDbArc
 50
270.0
 51
297.191853692944
  0
LINE
  5
6BE3
102
{ACAD_REACTORS
330
6B99
102
}
330
6B94
100
AcDbEntity
  8
AM_0 外形線1
100
AcDbLine
 10
-18.0
 20
50.4999999999999
 30
0.0
 11
-27.43028534674306
 21
45.65518645570285
 31
0.0
  0
LINE
  5
6BE4
330
6B94
100
AcDbEntity
  8
AM_0 外形線1
100
AcDbLine
 10
0.0
 20
59.49999999999988
 30
0.0
 11
-15.0
 21
59.49999999999988
 31
0.0
  0
HATCH
  5
6BE5
330
6B94
100
AcDbEntity
  8
AM_8 ハッチング
100
AcDbHatch
 10
0.0
 20
0.0
 30
0.0
210
0.0
220
0.0
230
1.0
  2
_USER
 70
     0
 71
     0
 91
        2
 92
        7
 72
     1
 73
     1
 93
        4
 10
-116.0000000000001
 20
50.4999999999999
 42
0.0
 10
-106.5697146532569
 20
45.65518645570285
 42
0.1192067304550525
 10
-101.9999999999999
 20
44.54999999999984
 42
0.0
 10
-115.9999999999999
 20
44.54999999999984
 42
0.0
 97
        0
 92
        7
 72
     1
 73
     1
 93
        5
 10
-116.0
 20
44.04999999999985
 42
0.0
 10
-115.9999999999999
 20
44.54999999999984
 42
0.0
 10
-104.8245735194571
 20
44.54999999999984
 42
0.0
 10
-108.0
 20
39.04999999999984
 42
0.0
 10
-111.0
 20
39.04999999999984
 42
-0.4142135623730951
 97
        0
 75
     0
 76
     0
 52
45.0
 41
0.5
 77
     0
 78
     1
 53
135.0
 43
286.5378272442277
 44
-278.1192041932427
 45
0.3535533905932737
 46
0.3535533905932738
 79
     0
 47
0.0493520660286737
 98
        2
 10
-113.8070090707823
 20
48.09050085517696
 10
-111.0416455784487
 20
43.30335026089301
1001
ACAD
1010
0.0
1020
0.0
1030
0.0
  0
LINE
  5
6BE6
330
6B94
100
AcDbEntity
  8
AM_0 外形線1
100
AcDbLine
 10
-133.5
 20
-62.5000000000001
 30
0.0
 11
-134.0
 21
-62.0000000000001
 31
0.0
1001
GENIUS_GENFIL_13
1070
     0
1040
0.5
1040
0.5
1040
0.4999999999999434
1040
45.00000000000162
1000
~T
1001
GENIUS_GENOREF_13
1005
6C05
  0
LINE
  5
6BE7
330
6B94
100
AcDbEntity
  8
AM_7 中心線
100
AcDbLine
 10
-114.0
 20
-56.00000000000012
 30
0.0
 11
-154.0
 21
-56.00000000000012
 31
0.0
  0
LINE
  5
6BE8
330
6B94
100
AcDbEntity
  8
AM_0 外形線1
100
AcDbLine
 10
-133.4999999999999
 20
62.49999999999989
 30
0.0
 11
-133.9999999999999
 21
61.99999999999988
 31
0.0
1001
GENIUS_GENFIL_13
1070
     0
1040
0.5
1040
0.5
1040
0.4999999999999434
1040
44.99999999999185
1000
~T
1001
GENIUS_GENOREF_13
1005
6C04
  0
LINE
  5
6BE9
330
6B94
100
AcDbEntity
  8
AM_0 外形線1
100
AcDbLine
 10
-131.0
 20
44.99999999999988
 30
0.0
 11
-133.5000000000001
 21
44.99999999999988
 31
0.0
  0
LINE
  5
6BEA
330
6B94
100
AcDbEntity
  8
AM_0 外形線1
100
AcDbLine
 10
-134.0
 20
52.49999999999989
 30
0.0
 11
-119.0
 21
52.49999999999989
 31
0.0
  0
LINE
  5
6BEB
330
6B94
100
AcDbEntity
  8
AM_0 外形線1
100
AcDbLine
 10
-116.0
 20
-50.50000000000011
 30
0.0
 11
-116.0
 21
-0.0000000000001137
 31
0.0
  0
LINE
  5
6BEC
330
6B94
100
AcDbEntity
  8
AM_0 外形線1
100
AcDbLine
 10
-119.0
 20
-50.50000000000011
 30
0.0
 11
-116.0
 21
-50.50000000000011
 31
0.0
  0
LINE
  5
6BED
330
6B94
100
AcDbEntity
  8
AM_0 外形線1
100
AcDbLine
 10
-119.0000000000002
 20
0.0
 30
0.0
 11
-118.9999999999999
 21
-61.50000000000011
 31
0.0
  0
LINE
  5
6BEE
330
6B94
100
AcDbEntity
  8
AM_0 外形線1
100
AcDbLine
 10
-133.5
 20
-62.5000000000001
 30
0.0
 11
-119.9999999999999
 21
-62.5000000000001
 31
0.0
  0
LINE
  5
6BEF
330
6B94
100
AcDbEntity
  8
AM_0 外形線1
100
AcDbLine
 10
-118.9999999999999
 20
-61.50000000000011
 30
0.0
 11
-119.9999999999999
 21
-62.5000000000001
 31
0.0
1001
GENIUS_GENFIL_13
1070
     0
1040
1.0
1040
1.0
1040
1.0
1040
44.99999999999918
1000
~T
1001
GENIUS_GENOREF_13
1005
6C03
  0
ARC
  5
6BF0
330
6B94
100
AcDbEntity
  8
AM_0 外形線1
100
AcDbCircle
 10
-102.0
 20
-54.55000000000007
 30
0.0
 40
10.0
100
AcDbArc
 50
90.0
 51
117.191853692944
  0
LINE
  5
6BF1
330
6B94
100
AcDbEntity
  8
AM_0 外形線1
100
AcDbLine
 10
-116.0
 20
-50.50000000000011
 30
0.0
 11
-106.5697146532569
 21
-45.65518645570318
 31
0.0
  0
LINE
  5
6BF2
330
6B94
100
AcDbEntity
  8
AM_0 外形線1
100
AcDbLine
 10
-116.0
 20
50.4999999999999
 30
0.0
 11
-116.0
 21
44.04999999999985
 31
0.0
  0
ARC
  5
6BF3
330
6B94
100
AcDbEntity
  8
AM_0 外形線1
100
AcDbCircle
 10
-111.0
 20
44.04999999999985
 30
0.0
 40
5.0
100
AcDbArc
 50
179.9999999999935
 51
270.0
1001
GENIUS_GENOBJ-N-FIL_13
1002
{
1000
OWNER
1000
GEN
1002
}
1001
GENIUS_GENODEF_13
1002
{
1000
HIER
1070
     0
1002
}
1002
{
1000
MANEDIT
1070
     0
1002
}
1002
{
1000
NOSEL
1070
     0
1002
}
1002
{
1000
BEHIND
1070
     0
1002
}
1002
{
1000
OTHER
1070
     0
1002
}
1002
{
1000
REACTOR
1002
}
  0
LINE
  5
6BF4
330
6B94
100
AcDbEntity
  8
AM_0 外形線1
100
AcDbLine
 10
-131.0
 20
44.99999999999988
 30
0.0
 11
-131.0
 21
-0.0000000000001137
 31
0.0
  0
LINE
  5
6BF5
330
6B94
100
AcDbEntity
  8
AM_0 外形線1
100
AcDbLine
 10
-119.0
 20
50.4999999999999
 30
0.0
 11
-116.0
 21
50.4999999999999
 31
0.0
  0
LINE
  5
6BF6
330
6B94
100
AcDbEntity
  8
AM_0 外形線1
100
AcDbLine
 10
-119.0
 20
51.02035399999988
 30
0.0
 11
-118.9999999999998
 21
61.49999999999988
 31
0.0
  0
LINE
  5
6BF7
330
6B94
100
AcDbEntity
  8
AM_0 外形線1
100
AcDbLine
 10
-133.4999999999999
 20
62.49999999999989
 30
0.0
 11
-119.9999999999998
 21
62.49999999999989
 31
0.0
  0
LINE
  5
6BF8
330
6B94
100
AcDbEntity
  8
AM_0 外形線1
100
AcDbLine
 10
-118.9999999999998
 20
61.49999999999988
 30
0.0
 11
-119.9999999999998
 21
62.49999999999989
 31
0.0
1001
GENIUS_GENFIL_13
1070
     0
1040
1.0
1040
1.0
1040
1.0
1040
45.0000000000008
1000
~T
1001
GENIUS_GENOREF_13
1005
6C02
  0
LINE
  5
6BF9
330
6B94
100
AcDbEntity
  8
AM_0 外形線1
100
AcDbLine
 10
-119.0
 20
51.02035399999988
 30
0.0
 11
-119.0
 21
50.4999999999999
 31
0.0
  0
LINE
  5
6BFA
330
6B94
100
AcDbEntity
  8
AM_0 外形線1
100
AcDbLine
 10
-131.0
 20
44.99999999999988
 30
0.0
 11
-133.5
 21
44.99999999999988
 31
0.0
  0
LINE
  5
6BFB
330
6B94
100
AcDbEntity
  8
AM_0 外形線1
100
AcDbLine
 10
-134.0
 20
45.49999999999989
 30
0.0
 11
-133.5
 21
44.99999999999988
 31
0.0
1001
GENIUS_GENFIL_13
1070
     0
1040
0.5
1040
0.5
1040
0.4999999999998864
1040
45.0
1000
~T
1001
GENIUS_GENOREF_13
1005
6C01
  0
LINE
  5
6BFC
330
6B94
100
AcDbEntity
  8
AM_0 外形線1
100
AcDbLine
 10
-106.0
 20
39.04999999999984
 30
0.0
 11
-106.0
 21
-0.0000000000001137
 31
0.0
  0
LINE
  5
6BFD
330
6B94
100
AcDbEntity
  8
AM_0 外形線1
100
AcDbLine
 10
-108.0
 20
39.04999999999984
 30
0.0
 11
-104.8245735194571
 21
44.54999999999984
 31
0.0
  0
ARC
  5
6BFE
330
6B94
100
AcDbEntity
  8
AM_0 外形線1
100
AcDbCircle
 10
-102.0
 20
54.54999999999984
 30
0.0
 40
10.0
100
AcDbArc
 50
242.8081463070559
 51
270.0
  0
LINE
  5
6BFF
330
6B94
100
AcDbEntity
  8
AM_0 外形線1
100
AcDbLine
 10
-116.0
 20
50.4999999999999
 30
0.0
 11
-106.5697146532569
 21
45.65518645570285
 31
0.0
  0
LINE
  5
6C00
330
6B94
100
AcDbEntity
  8
AM_0 外形線1
100
AcDbLine
 10
-134.0
 20
59.49999999999988
 30
0.0
 11
-119.0
 21
59.49999999999988
 31
0.0
  0
POINT
  5
6C01
330
6B94
100
AcDbEntity
  8
0
 60
     1
100
AcDbPoint
 10
1065.775051681726
 20
1350.253472267798
 30
0.0
1001
GENIUS_GENOBJ-N-CHA_13
1002
{
1000
OWNER
1000
GEN
1002
}
1001
GENIUS_GENOENT_13
1002
{
1000
MYREF
1005
6C01
1002
}
1002
{
1000
GRP
1005
0
1002
}
1001
GENIUS_GENODEF_13
1002
{
1000
HIER
1070
     1
1002
}
1002
{
1000
MANEDIT
1070
     1
1002
}
1002
{
1000
NOSEL
1070
     0
1002
}
1002
{
1000
BEHIND
1070
     0
1002
}
1002
{
1000
OTHER
1070
     0
1002
}
1002
{
1000
REACTOR
1002
}
1001
GENIUS_GENOLIS_13
1002
{
1000
ENT
1005
6BFB
1002
}
  0
POINT
  5
6C02
330
6B94
100
AcDbEntity
  8
0
 60
     1
100
AcDbPoint
 10
1065.775051681726
 20
1350.253472267798
 30
0.0
1001
GENIUS_GENOBJ-N-CHA_13
1002
{
1000
OWNER
1000
GEN
1002
}
1001
GENIUS_GENOENT_13
1002
{
1000
MYREF
1005
6C02
1002
}
1002
{
1000
GRP
1005
0
1002
}
1001
GENIUS_GENODEF_13
1002
{
1000
HIER
1070
     1
1002
}
1002
{
1000
MANEDIT
1070
     1
1002
}
1002
{
1000
NOSEL
1070
     0
1002
}
1002
{
1000
BEHIND
1070
     0
1002
}
1002
{
1000
OTHER
1070
     0
1002
}
1002
{
1000
REACTOR
1002
}
1001
GENIUS_GENOLIS_13
1002
{
1000
ENT
1005
6BF8
1002
}
  0
POINT
  5
6C03
330
6B94
100
AcDbEntity
  8
0
 60
     1
100
AcDbPoint
 10
1706.850706170181
 20
1350.253472267798
 30
0.0
 50
180.0
1001
GENIUS_GENODEF_13
1002
{
1000
HIER
1070
     1
1002
}
1002
{
1000
MANEDIT
1070
     0
1002
}
1002
{
1000
NOSEL
1070
     0
1002
}
1002
{
1000
BEHIND
1070
     0
1002
}
1002
{
1000
OTHER
1070
     0
1002
}
1002
{
1000
REACTOR
1002
}
1001
GENIUS_GENOBJ-N-CHA_13
1002
{
1000
OWNER
1000
GEN
1002
}
1001
GENIUS_GENOENT_13
1002
{
1000
MYREF
1005
6C03
1002
}
1002
{
1000
GRP
1005
0
1002
}
1001
GENIUS_GENOLIS_13
1002
{
1000
ENT
1005
6BEF
1002
}
  0
POINT
  5
6C04
330
6B94
100
AcDbEntity
  8
0
 60
     1
100
AcDbPoint
 10
1065.775051681726
 20
1350.253472267798
 30
0.0
1001
GENIUS_GENOBJ-N-CHA_13
1002
{
1000
OWNER
1000
GEN
1002
}
1001
GENIUS_GENOENT_13
1002
{
1000
MYREF
1005
6C04
1002
}
1002
{
1000
GRP
1005
0
1002
}
1001
GENIUS_GENODEF_13
1002
{
1000
HIER
1070
     1
1002
}
1002
{
1000
MANEDIT
1070
     1
1002
}
1002
{
1000
NOSEL
1070
     0
1002
}
1002
{
1000
BEHIND
1070
     0
1002
}
1002
{
1000
OTHER
1070
     0
1002
}
1002
{
1000
REACTOR
1002
}
1001
GENIUS_GENOLIS_13
1002
{
1000
ENT
1005
6BE8
1002
}
  0
POINT
  5
6C05
330
6B94
100
AcDbEntity
  8
0
 60
     1
100
AcDbPoint
 10
1706.850706170181
 20
1350.253472267798
 30
0.0
 50
180.0
1001
GENIUS_GENODEF_13
1002
{
1000
HIER
1070
     1
1002
}
1002
{
1000
MANEDIT
1070
     0
1002
}
1002
{
1000
NOSEL
1070
     0
1002
}
1002
{
1000
BEHIND
1070
     0
1002
}
1002
{
1000
OTHER
1070
     0
1002
}
1002
{
1000
REACTOR
1002
}
1001
GENIUS_GENOBJ-N-CHA_13
1002
{
1000
OWNER
1000
GEN
1002
}
1001
GENIUS_GENOENT_13
1002
{
1000
MYREF
1005
6C05
1002
}
1002
{
1000
GRP
1005
0
1002
}
1001
GENIUS_GENOLIS_13
1002
{
1000
ENT
1005
6BE6
1002
}
  0
POINT
  5
6C06
330
6B94
100
AcDbEntity
  8
0
 60
     1
100
AcDbPoint
 10
1065.775051681726
 20
1350.253472267798
 30
0.0
1001
GENIUS_GENOBJ-N-CHA_13
1002
{
1000
OWNER
1000
GEN
1002
}
1001
GENIUS_GENOENT_13
1002
{
1000
MYREF
1005
6C06
1002
}
1002
{
1000
GRP
1005
0
1002
}
1001
GENIUS_GENODEF_13
1002
{
1000
HIER
1070
     1
1002
}
1002
{
1000
MANEDIT
1070
     1
1002
}
1002
{
1000
NOSEL
1070
     0
1002
}
1002
{
1000
BEHIND
1070
     0
1002
}
1002
{
1000
OTHER
1070
     0
1002
}
1002
{
1000
REACTOR
1002
}
1001
GENIUS_GENOLIS_13
1002
{
1000
ENT
1005
6BDD
1002
}
  0
POINT
  5
6C07
330
6B94
100
AcDbEntity
  8
0
 60
     1
100
AcDbPoint
 10
1065.775051681726
 20
1350.253472267798
 30
0.0
1001
GENIUS_GENODEF_13
1002
{
1000
HIER
1070
     1
1002
}
1002
{
1000
MANEDIT
1070
     0
1002
}
1002
{
1000
NOSEL
1070
     0
1002
}
1002
{
1000
BEHIND
1070
     0
1002
}
1002
{
1000
OTHER
1070
     0
1002
}
1002
{
1000
REACTOR
1002
}
1001
GENIUS_GENOBJ-N-CHA_13
1002
{
1000
OWNER
1000
GEN
1002
}
1001
GENIUS_GENOENT_13
1002
{
1000
MYREF
1005
6C07
1002
}
1002
{
1000
GRP
1005
0
1002
}
1001
GENIUS_GENOLIS_13
1002
{
1000
ENT
1005
6BD4
1002
}
  0
POINT
  5
6C08
330
6B94
100
AcDbEntity
  8
0
 60
     1
100
AcDbPoint
 10
1065.775051681726
 20
1350.253472267798
 30
0.0
1001
GENIUS_GENOENT_13
1002
{
1000
MYREF
1005
6C08
1002
}
1002
{
1000
GRP
1005
0
1002
}
1001
GENIUS_GENOBJ-N-CHA_13
1002
{
1000
OWNER
1000
GEN
1002
}
1001
GENIUS_GENODEF_13
1002
{
1000
HIER
1070
     1
1002
}
1002
{
1000
MANEDIT
1070
     1
1002
}
1002
{
1000
NOSEL
1070
     0
1002
}
1002
{
1000
BEHIND
1070
     0
1002
}
1002
{
1000
OTHER
1070
     0
1002
}
1002
{
1000
REACTOR
1002
}
1001
GENIUS_GENOLIS_13
1002
{
1000
ENT
1005
6BA7
1002
}
  0
POINT
  5
6C09
330
6B94
100
AcDbEntity
  8
0
 60
     1
100
AcDbPoint
 10
1065.775051681726
 20
1350.253472267798
 30
0.0
1001
GENIUS_GENOBJ-N-CHA_13
1002
{
1000
OWNER
1000
GEN
1002
}
1001
GENIUS_GENOENT_13
1002
{
1000
MYREF
1005
6C09
1002
}
1002
{
1000
GRP
1005
0
1002
}
1001
GENIUS_GENODEF_13
1002
{
1000
HIER
1070
     1
1002
}
1002
{
1000
MANEDIT
1070
     1
1002
}
1002
{
1000
NOSEL
1070
     0
1002
}
1002
{
1000
BEHIND
1070
     0
1002
}
1002
{
1000
OTHER
1070
     0
1002
}
1002
{
1000
REACTOR
1002
}
1001
GENIUS_GENOLIS_13
1002
{
1000
ENT
1005
6BA6
1002
}
  0
POINT
  5
6C0A
330
6B94
100
AcDbEntity
  8
0
 60
     1
100
AcDbPoint
 10
1065.775051681726
 20
1350.253472267798
 30
0.0
1001
GENIUS_GENODEF_13
1002
{
1000
HIER
1070
     1
1002
}
1002
{
1000
MANEDIT
1070
     0
1002
}
1002
{
1000
NOSEL
1070
     0
1002
}
1002
{
1000
BEHIND
1070
     0
1002
}
1002
{
1000
OTHER
1070
     0
1002
}
1002
{
1000
REACTOR
1002
}
1001
GENIUS_GENOBJ-N-CHA_13
1002
{
1000
OWNER
1000
GEN
1002
}
1001
GENIUS_GENOENT_13
1002
{
1000
MYREF
1005
6C0A
1002
}
1002
{
1000
GRP
1005
0
1002
}
1001
GENIUS_GENOLIS_13
1002
{
1000
ENT
1005
6BA3
1002
}
  0
LINE
  5
6C0B
330
6B94
100
AcDbEntity
  8
AM_0 外形線1
100
AcDbLine
 10
-133.9999999999999
 20
59.49999999999993
 30
0.0
 11
-133.9999999999999
 21
61.99999999999988
 31
0.0
  0
LINE
  5
6C0C
330
6B94
100
AcDbEntity
  8
AM_0 外形線1
100
AcDbLine
 10
0.0
 20
59.49999999999988
 30
0.0
 11
-0.0000000000000568
 21
61.99999999999988
 31
0.0
  0
LINE
  5
82F0
330
6B94
100
AcDbEntity
  8
AM_0 外形線1
100
AcDbLine
 10
-104.4185021156966
 20
-44.55000000000029
 30
0.0
 11
-104.4185021156966
 21
-0.0000000000001137
 31
0.0
  0
LINE
  5
82F1
330
6B94
100
AcDbEntity
  8
AM_0 外形線1
100
AcDbLine
 10
-29.58149788430399
 20
-44.55
 30
0.0
 11
-29.58149788430399
 21
-0.0000000000000568
 31
0.0
  0
ENDBLK
  5
6C0D
330
6B94
100
AcDbEntity
  8
0
100
AcDbBlockEnd
  0
BLOCK
  5
75DB
330
75DA
100
AcDbEntity
  8
0
100
AcDbBlockBegin
  2
*D24
 70
     1
 10
0.0
 20
0.0
 30
0.0
  3
*D24
  1

  0
LINE
  5
75FA
330
75DA
100
AcDbEntity
  8
AM_5 寸法線
 62
     3
100
AcDbLine
 10
234.9001562703336
 20
275.4171986975567
 30
0.0
 11
234.9001562703336
 21
260.2171986975567
 31
0.0
  0
LINE
  5
75FB
330
75DA
100
AcDbEntity
  8
AM_5 寸法線
 62
     3
100
AcDbLine
 10
249.9001562703335
 20
276.2171986975568
 30
0.0
 11
249.9001562703335
 21
260.2171986975567
 31
0.0
  0
LINE
  5
75FC
330
75DA
100
AcDbEntity
  8
AM_5 寸法線
 62
     3
100
AcDbLine
 10
238.6501562703336
 20
261.1546986975567
 30
0.0
 11
246.1501562703335
 21
261.1546986975567
 31
0.0
  0
INSERT
  5
75FD
330
75DA
100
AcDbEntity
  8
AM_5 寸法線
 62
     3
100
AcDbBlockReference
  2
_Open30
 10
234.9001562703336
 20
261.1546986975567
 30
0.0
 41
3.75
 42
3.75
 43
3.75
 50
180.0
  0
INSERT
  5
75FE
330
75DA
100
AcDbEntity
  8
AM_5 寸法線
 62
     3
100
AcDbBlockReference
  2
_Open30
 10
249.9001562703335
 20
261.1546986975567
 30
0.0
 41
3.75
 42
3.75
 43
3.75
  0
MTEXT
  5
75FF
330
75DA
100
AcDbEntity
  8
AM_5 寸法線
 62
     3
100
AcDbMText
 10
242.4001562703335
 20
266.0296986975567
 30
0.0
 40
5.25
 41
0.0
 46
0.0
 71
     5
 72
     1
  1
15
  7
SEISA
 73
     1
 44
1.0
  0
POINT
  5
7600
330
75DA
100
AcDbEntity
  8
Defpoints
 62
     0
100
AcDbPoint
 10
234.9001562703336
 20
276.3546986975567
 30
0.0
  0
POINT
  5
7601
330
75DA
100
AcDbEntity
  8
Defpoints
 62
     0
100
AcDbPoint
 10
249.9001562703335
 20
277.1546986975568
 30
0.0
  0
POINT
  5
7602
330
75DA
100
AcDbEntity
  8
Defpoints
 62
     0
100
AcDbPoint
 10
249.9001562703335
 20
261.1546986975567
 30
0.0
  0
ENDBLK
  5
75DC
330
75DA
100
AcDbEntity
  8
0
100
AcDbBlockEnd
  0
BLOCK
  5
7605
330
7604
100
AcDbEntity
  8
0
100
AcDbBlockBegin
  2
*D25
 70
     1
 10
0.0
 20
0.0
 30
0.0
  3
*D25
  1

  0
LINE
  5
761B
330
7604
100
AcDbEntity
  8
AM_5 寸法線
 62
     3
100
AcDbLine
 10
368.9001562703337
 20
275.4171986975567
 30
0.0
 11
368.9001562703337
 21
260.2171986975566
 31
0.0
  0
LINE
  5
761C
330
7604
100
AcDbEntity
  8
AM_5 寸法線
 62
     3
100
AcDbLine
 10
353.9001562703334
 20
276.2171986975568
 30
0.0
 11
353.9001562703334
 21
260.2171986975566
 31
0.0
  0
LINE
  5
761D
330
7604
100
AcDbEntity
  8
AM_5 寸法線
 62
     3
100
AcDbLine
 10
365.1501562703336
 20
261.1546986975566
 30
0.0
 11
357.6501562703334
 21
261.1546986975566
 31
0.0
  0
INSERT
  5
761E
330
7604
100
AcDbEntity
  8
AM_5 寸法線
 62
     3
100
AcDbBlockReference
  2
_Open30
 10
368.9001562703337
 20
261.1546986975566
 30
0.0
 41
3.75
 42
3.75
 43
3.75
  0
INSERT
  5
761F
330
7604
100
AcDbEntity
  8
AM_5 寸法線
 62
     3
100
AcDbBlockReference
  2
_Open30
 10
353.9001562703334
 20
261.1546986975566
 30
0.0
 41
3.75
 42
3.75
 43
3.75
 50
180.0
  0
MTEXT
  5
7620
330
7604
100
AcDbEntity
  8
AM_5 寸法線
 62
     3
100
AcDbMText
 10
361.4001562703335
 20
266.0296986975566
 30
0.0
 40
5.25
 41
0.0
 46
0.0
 71
     5
 72
     1
  1
15
  7
SEISA
 73
     1
 44
1.0
  0
POINT
  5
7621
330
7604
100
AcDbEntity
  8
Defpoints
 62
     0
100
AcDbPoint
 10
368.9001562703337
 20
276.3546986975567
 30
0.0
  0
POINT
  5
7622
330
7604
100
AcDbEntity
  8
Defpoints
 62
     0
100
AcDbPoint
 10
353.9001562703334
 20
277.1546986975568
 30
0.0
  0
POINT
  5
7623
330
7604
100
AcDbEntity
  8
Defpoints
 62
     0
100
AcDbPoint
 10
353.9001562703334
 20
261.1546986975566
 30
0.0
  0
ENDBLK
  5
7606
330
7604
100
AcDbEntity
  8
0
100
AcDbBlockEnd
  0
BLOCK
  5
7D59
330
7D58
100
AcDbEntity
  8
0
100
AcDbBlockBegin
  2
*D26
 70
     1
 10
0.0
 20
0.0
 30
0.0
  3
*D26
  1

  0
LINE
  5
7D89
330
7D58
100
AcDbEntity
  8
AM_5 寸法線
 62
     3
100
AcDbLine
 10
160.9001562703338
 20
382.5921986975568
 30
0.0
 11
160.9001562703338
 21
401.5921986975568
 31
0.0
  0
LINE
  5
7D8A
330
7D58
100
AcDbEntity
  8
AM_5 寸法線
 62
     3
100
AcDbLine
 10
167.9001562703336
 20
371.5921986975569
 30
0.0
 11
167.9001562703336
 21
401.5921986975568
 31
0.0
  0
LINE
  5
7D8B
330
7D58
100
AcDbEntity
  8
AM_5 寸法線
 62
     3
100
AcDbLine
 10
157.1501562703338
 20
400.6546986975568
 30
0.0
 11
153.4001562703338
 21
400.6546986975568
 31
0.0
  0
LINE
  5
7D8C
330
7D58
100
AcDbEntity
  8
AM_5 寸法線
 62
     3
100
AcDbLine
 10
171.6501562703335
 20
400.6546986975568
 30
0.0
 11
183.0501562703336
 21
400.6546986975568
 31
0.0
  0
LINE
  5
7D8D
330
7D58
100
AcDbEntity
  8
AM_5 寸法線
 62
     3
100
AcDbLine
 10
160.9001562703338
 20
400.6546986975568
 30
0.0
 11
167.9001562703336
 21
400.6546986975568
 31
0.0
  0
INSERT
  5
7D8E
330
7D58
100
AcDbEntity
  8
AM_5 寸法線
 62
     3
100
AcDbBlockReference
  2
_Open30
 10
160.9001562703338
 20
400.6546986975568
 30
0.0
 41
3.75
 42
3.75
 43
3.75
  0
INSERT
  5
7D8F
330
7D58
100
AcDbEntity
  8
AM_5 寸法線
 62
     3
100
AcDbBlockReference
  2
_Open30
 10
167.9001562703336
 20
400.6546986975568
 30
0.0
 41
3.75
 42
3.75
 43
3.75
 50
180.0
  0
MTEXT
  5
7D90
330
7D58
100
AcDbEntity
  8
AM_5 寸法線
 62
     3
100
AcDbMText
 10
179.2251562703335
 20
405.5296986975568
 30
0.0
 40
5.25
 41
0.0
 46
0.0
 71
     5
 72
     1
  1
7
  7
SEISA
 73
     1
 44
1.0
  0
POINT
  5
7D91
330
7D58
100
AcDbEntity
  8
Defpoints
 62
     0
100
AcDbPoint
 10
160.9001562703338
 20
381.6546986975568
 30
0.0
  0
POINT
  5
7D92
330
7D58
100
AcDbEntity
  8
Defpoints
 62
     0
100
AcDbPoint
 10
167.9001562703336
 20
370.6546986975569
 30
0.0
  0
POINT
  5
7D93
330
7D58
100
AcDbEntity
  8
Defpoints
 62
     0
100
AcDbPoint
 10
167.9001562703336
 20
400.6546986975568
 30
0.0
  0
ENDBLK
  5
7D5A
330
7D58
100
AcDbEntity
  8
0
100
AcDbBlockEnd
  0
BLOCK
  5
7E4D
330
7E4C
100
AcDbEntity
  8
0
100
AcDbBlockBegin
  2
*D27
 70
     1
 10
0.0
 20
0.0
 30
0.0
  3
*D27
  1

  0
LINE
  5
80BD
330
7E4C
100
AcDbEntity
  8
AM_5 寸法線
 62
     3
100
AcDbLine
 10
206.4001562703336
 20
373.2171986975568
 30
0.0
 11
206.4001562703336
 21
363.1553646566823
 31
0.0
  0
LINE
  5
80BE
330
7E4C
100
AcDbEntity
  8
AM_5 寸法線
 62
     3
100
AcDbLine
 10
218.9001562703336
 20
373.2171986975568
 30
0.0
 11
218.9001562703336
 21
363.1553646566823
 31
0.0
  0
LINE
  5
80BF
330
7E4C
100
AcDbEntity
  8
AM_5 寸法線
 62
     3
100
AcDbLine
 10
206.4001562703336
 20
364.0928646566822
 30
0.0
 11
218.9001562703336
 21
364.0928646566822
 31
0.0
  0
LINE
  5
80C0
330
7E4C
100
AcDbEntity
  8
AM_5 寸法線
 62
     3
100
AcDbLine
 10
212.6501562703336
 20
364.0928646566822
 30
0.0
 11
211.9181672433466
 21
346.1721783184573
 31
0.0
  0
LINE
  5
80C1
330
7E4C
100
AcDbEntity
  8
AM_5 寸法線
 62
     3
100
AcDbLine
 10
211.9181672433466
 20
346.1721783184573
 30
0.0
 11
193.6931672433466
 21
346.1721783184573
 31
0.0
  0
MTEXT
  5
80C2
330
7E4C
100
AcDbEntity
  8
AM_5 寸法線
 62
     3
100
AcDbMText
 10
202.8056672433467
 20
351.0471783184573
 30
0.0
 40
5.25
 41
0.0
 46
0.0
 71
     5
 72
     1
  1
12.5
  7
SEISA
 73
     1
 44
1.0
  0
INSERT
  5
80C3
330
7E4C
100
AcDbEntity
  8
AM_5 寸法線
 62
     3
100
AcDbBlockReference
  2
_DotSmall
 10
206.4001562703336
 20
364.0928646566822
 30
0.0
 41
3.75
 42
3.75
 43
3.75
 50
180.0
  0
INSERT
  5
80C4
330
7E4C
100
AcDbEntity
  8
AM_5 寸法線
 62
     3
100
AcDbBlockReference
  2
_DotSmall
 10
218.9001562703336
 20
364.0928646566822
 30
0.0
 41
3.75
 42
3.75
 43
3.75
  0
POINT
  5
80C5
330
7E4C
100
AcDbEntity
  8
Defpoints
 62
     0
100
AcDbPoint
 10
206.4001562703336
 20
374.1546986975568
 30
0.0
  0
POINT
  5
80C6
330
7E4C
100
AcDbEntity
  8
Defpoints
 62
     0
100
AcDbPoint
 10
218.9001562703336
 20
374.1546986975568
 30
0.0
  0
POINT
  5
80C7
330
7E4C
100
AcDbEntity
  8
Defpoints
 62
     0
100
AcDbPoint
 10
218.9001562703336
 20
364.0928646566822
 30
0.0
  0
ENDBLK
  5
7E4E
330
7E4C
100
AcDbEntity
  8
0
100
AcDbBlockEnd
  0
BLOCK
  5
7E71
330
7E70
100
AcDbEntity
  8
0
100
AcDbBlockBegin
  2
*D28
 70
     1
 10
0.0
 20
0.0
 30
0.0
  3
*D28
  1

  0
LINE
  5
7FA4
330
7E70
100
AcDbEntity
  8
AM_5 寸法線
 62
     3
100
AcDbLine
 10
203.9001562703336
 20
372.7171986975569
 30
0.0
 11
203.9001562703336
 21
363.1553646566822
 31
0.0
  0
LINE
  5
7FA5
330
7E70
100
AcDbEntity
  8
AM_5 寸法線
 62
     3
100
AcDbLine
 10
206.4001562703336
 20
373.2171986975568
 30
0.0
 11
206.4001562703336
 21
363.1553646566822
 31
0.0
  0
LINE
  5
7FA6
330
7E70
100
AcDbEntity
  8
AM_5 寸法線
 62
     3
100
AcDbLine
 10
200.1501562703336
 20
364.0928646566822
 30
0.0
 11
196.4001562703335
 21
364.0928646566822
 31
0.0
  0
LINE
  5
7FA7
330
7E70
100
AcDbEntity
  8
AM_5 寸法線
 62
     3
100
AcDbLine
 10
206.4001562703336
 20
364.0928646566822
 30
0.0
 11
210.1501562703336
 21
364.0928646566822
 31
0.0
  0
MTEXT
  5
7FA8
330
7E70
100
AcDbEntity
  8
AM_5 寸法線
 62
     3
100
AcDbMText
 10
196.8127556831017
 20
368.6330864332621
 30
0.0
 40
5.25
 41
0.0
 46
0.0
 71
     5
 72
     1
  1
2.5
  7
SEISA
 73
     1
 44
1.0
  0
LINE
  5
7FA9
330
7E70
100
AcDbEntity
  8
AM_5 寸法線
 62
     3
100
AcDbLine
 10
203.9001562703336
 20
364.0928646566822
 30
0.0
 11
206.4001562703336
 21
364.0928646566822
 31
0.0
  0
INSERT
  5
7FAA
330
7E70
100
AcDbEntity
  8
AM_5 寸法線
 62
     3
100
AcDbBlockReference
  2
_Open30
 10
203.9001562703336
 20
364.0928646566822
 30
0.0
 41
3.75
 42
3.75
 43
3.75
  0
INSERT
  5
7FAB
330
7E70
100
AcDbEntity
  8
AM_5 寸法線
 62
     3
100
AcDbBlockReference
  2
_DotSmall
 10
206.4001562703336
 20
364.0928646566822
 30
0.0
 41
3.75
 42
3.75
 43
3.75
 50
180.0
  0
POINT
  5
7FAC
330
7E70
100
AcDbEntity
  8
Defpoints
 62
     0
100
AcDbPoint
 10
203.9001562703336
 20
373.6546986975568
 30
0.0
  0
POINT
  5
7FAD
330
7E70
100
AcDbEntity
  8
Defpoints
 62
     0
100
AcDbPoint
 10
206.4001562703336
 20
374.1546986975568
 30
0.0
  0
POINT
  5
7FAE
330
7E70
100
AcDbEntity
  8
Defpoints
 62
     0
100
AcDbPoint
 10
206.4001562703336
 20
364.0928646566822
 30
0.0
  0
ENDBLK
  5
7E72
330
7E70
100
AcDbEntity
  8
0
100
AcDbBlockEnd
  0
BLOCK
  5
7F4F
330
7F4E
100
AcDbEntity
  8
0
100
AcDbBlockBegin
  2
*D29
 70
     1
 10
0.0
 20
0.0
 30
0.0
  3
*D29
  1

  0
LINE
  5
7FE0
330
7F4E
100
AcDbEntity
  8
AM_5 寸法線
 62
     3
100
AcDbLine
 10
218.9001562703336
 20
373.2171986975568
 30
0.0
 11
218.9001562703336
 21
363.1553646566823
 31
0.0
  0
LINE
  5
7FE1
330
7F4E
100
AcDbEntity
  8
AM_5 寸法線
 62
     3
100
AcDbLine
 10
230.9001562703336
 20
372.2171986975567
 30
0.0
 11
230.9001562703336
 21
363.1553646566823
 31
0.0
  0
LINE
  5
7FE2
330
7F4E
100
AcDbEntity
  8
AM_5 寸法線
 62
     3
100
AcDbLine
 10
218.9001562703336
 20
364.0928646566822
 30
0.0
 11
227.1501562703336
 21
364.0928646566822
 31
0.0
  0
INSERT
  5
7FE3
330
7F4E
100
AcDbEntity
  8
AM_5 寸法線
 62
     3
100
AcDbBlockReference
  2
_DotSmall
 10
218.9001562703336
 20
364.0928646566822
 30
0.0
 41
3.75
 42
3.75
 43
3.75
 50
180.0
  0
INSERT
  5
7FE4
330
7F4E
100
AcDbEntity
  8
AM_5 寸法線
 62
     3
100
AcDbBlockReference
  2
_Open30
 10
230.9001562703336
 20
364.0928646566822
 30
0.0
 41
3.75
 42
3.75
 43
3.75
 50
180.0
  0
LINE
  5
7FE5
330
7F4E
100
AcDbEntity
  8
AM_5 寸法線
 62
     3
100
AcDbLine
 10
234.6501562703336
 20
364.0928646566822
 30
0.0
 11
238.4001562703336
 21
364.0928646566822
 31
0.0
  0
LINE
  5
7FE6
330
7F4E
100
AcDbEntity
  8
AM_5 寸法線
 62
     3
100
AcDbLine
 10
230.9001562703336
 20
364.0928646566822
 30
0.0
 11
227.1501562703336
 21
364.0928646566822
 31
0.0
  0
MTEXT
  5
7FE7
330
7F4E
100
AcDbEntity
  8
AM_5 寸法線
 62
     3
100
AcDbMText
 10
223.0251562703336
 20
368.9678646566822
 30
0.0
 40
5.25
 41
0.0
 46
0.0
 71
     5
 72
     1
  1
12
  7
SEISA
 73
     1
 44
1.0
  0
POINT
  5
7FE8
330
7F4E
100
AcDbEntity
  8
Defpoints
 62
     0
100
AcDbPoint
 10
218.9001562703336
 20
374.1546986975568
 30
0.0
  0
POINT
  5
7FE9
330
7F4E
100
AcDbEntity
  8
Defpoints
 62
     0
100
AcDbPoint
 10
230.9001562703336
 20
373.1546986975567
 30
0.0
  0
POINT
  5
7FEA
330
7F4E
100
AcDbEntity
  8
Defpoints
 62
     0
100
AcDbPoint
 10
230.9001562703336
 20
364.0928646566822
 30
0.0
  0
ENDBLK
  5
7F50
330
7F4E
100
AcDbEntity
  8
0
100
AcDbBlockEnd
  0
BLOCK
  5
7FA2
330
7FA0
100
AcDbEntity
  8
0
100
AcDbBlockBegin
  2
_DotSmall
 70
     0
 10
0.0
 20
0.0
 30
0.0
  3
_DotSmall
  1

  0
LWPOLYLINE
  5
7FA1
330
7FA0
100
AcDbEntity
  8
0
  6
ByBlock
 62
     0
100
AcDbPolyline
 90
        2
 70
     1
 43
0.5
 10
-0.0625
 20
0.0
 42
1.0
 10
0.0625
 20
0.0
 42
1.0
  0
ENDBLK
  5
7FA3
330
7FA0
100
AcDbEntity
  8
0
100
AcDbBlockEnd
  0
BLOCK
  5
800D
330
800C
100
AcDbEntity
  8
0
100
AcDbBlockBegin
  2
*D31
 70
     1
 10
0.0
 20
0.0
 30
0.0
  3
*D31
  1

  0
LINE
  5
8093
330
800C
100
AcDbEntity
  8
AM_5 寸法線
 62
     3
100
AcDbLine
 10
234.9001562703335
 20
383.2171986975568
 30
0.0
 11
234.9001562703335
 21
349.7171986975569
 31
0.0
  0
LINE
  5
8094
330
800C
100
AcDbEntity
  8
AM_5 寸法線
 62
     3
100
AcDbLine
 10
230.9001562703336
 20
372.2171986975569
 30
0.0
 11
230.9001562703336
 21
349.7171986975569
 31
0.0
  0
LINE
  5
8095
330
800C
100
AcDbEntity
  8
AM_5 寸法線
 62
     3
100
AcDbLine
 10
238.6501562703335
 20
350.6546986975568
 30
0.0
 11
242.4001562703335
 21
350.6546986975568
 31
0.0
  0
LINE
  5
8096
330
800C
100
AcDbEntity
  8
AM_5 寸法線
 62
     3
100
AcDbLine
 10
227.1501562703336
 20
350.6546986975568
 30
0.0
 11
223.4001562703336
 21
350.6546986975568
 31
0.0
  0
LINE
  5
8097
330
800C
100
AcDbEntity
  8
AM_5 寸法線
 62
     3
100
AcDbLine
 10
252.4515625160165
 20
350.6546986975568
 30
0.0
 11
234.9001562703335
 21
350.6546986975568
 31
0.0
  0
MTEXT
  5
8098
330
800C
100
AcDbEntity
  8
AM_5 寸法線
 62
     3
100
AcDbMText
 10
248.5140625160164
 20
355.5296986975569
 30
0.0
 40
5.25
 41
0.0
 46
0.0
 71
     5
 72
     1
  1
4
  7
SEISA
 73
     1
 44
1.0
  0
LINE
  5
8099
330
800C
100
AcDbEntity
  8
AM_5 寸法線
 62
     3
100
AcDbLine
 10
234.9001562703335
 20
350.6546986975568
 30
0.0
 11
230.9001562703336
 21
350.6546986975568
 31
0.0
  0
LINE
  5
809A
330
800C
100
AcDbEntity
  8
AM_5 寸法線
 62
     3
100
AcDbLine
 10
234.9001562703335
 20
350.6546986975568
 30
0.0
 11
230.9001562703336
 21
350.6546986975568
 31
0.0
  0
INSERT
  5
809B
330
800C
100
AcDbEntity
  8
AM_5 寸法線
 62
     3
100
AcDbBlockReference
  2
_Open30
 10
234.9001562703335
 20
350.6546986975568
 30
0.0
 41
3.75
 42
3.75
 43
3.75
 50
180.0
  0
INSERT
  5
809C
330
800C
100
AcDbEntity
  8
AM_5 寸法線
 62
     3
100
AcDbBlockReference
  2
_Open30
 10
230.9001562703336
 20
350.6546986975568
 30
0.0
 41
3.75
 42
3.75
 43
3.75
  0
POINT
  5
809D
330
800C
100
AcDbEntity
  8
Defpoints
 62
     0
100
AcDbPoint
 10
234.9001562703335
 20
384.1546986975568
 30
0.0
  0
POINT
  5
809E
330
800C
100
AcDbEntity
  8
Defpoints
 62
     0
100
AcDbPoint
 10
230.9001562703336
 20
373.1546986975569
 30
0.0
  0
POINT
  5
809F
330
800C
100
AcDbEntity
  8
Defpoints
 62
     0
100
AcDbPoint
 10
230.9001562703336
 20
350.6546986975568
 30
0.0
  0
ENDBLK
  5
800E
330
800C
100
AcDbEntity
  8
0
100
AcDbBlockEnd
  0
BLOCK
  5
8040
330
803F
100
AcDbEntity
  8
0
100
AcDbBlockBegin
  2
*D32
 70
     1
 10
0.0
 20
0.0
 30
0.0
  3
*D32
  1

  0
LINE
  5
807B
330
803F
100
AcDbEntity
  8
AM_5 寸法線
 62
     3
100
AcDbLine
 10
368.9001562703333
 20
383.2171986975568
 30
0.0
 11
368.9001562703333
 21
349.7171986975569
 31
0.0
  0
LINE
  5
807C
330
803F
100
AcDbEntity
  8
AM_5 寸法線
 62
     3
100
AcDbLine
 10
372.9001562703337
 20
372.2171986975569
 30
0.0
 11
372.9001562703337
 21
349.7171986975569
 31
0.0
  0
LINE
  5
807D
330
803F
100
AcDbEntity
  8
AM_5 寸法線
 62
     3
100
AcDbLine
 10
365.1501562703334
 20
350.6546986975568
 30
0.0
 11
361.4001562703334
 21
350.6546986975568
 31
0.0
  0
LINE
  5
807E
330
803F
100
AcDbEntity
  8
AM_5 寸法線
 62
     3
100
AcDbLine
 10
376.6501562703338
 20
350.6546986975568
 30
0.0
 11
380.4001562703338
 21
350.6546986975568
 31
0.0
  0
LINE
  5
807F
330
803F
100
AcDbEntity
  8
AM_5 寸法線
 62
     3
100
AcDbLine
 10
350.3221494952575
 20
350.6546986975568
 30
0.0
 11
368.9001562703333
 21
350.6546986975568
 31
0.0
  0
MTEXT
  5
8080
330
803F
100
AcDbEntity
  8
AM_5 寸法線
 62
     3
100
AcDbMText
 10
354.2596494952575
 20
355.5296986975569
 30
0.0
 40
5.25
 41
0.0
 46
0.0
 71
     5
 72
     1
  1
4
  7
SEISA
 73
     1
 44
1.0
  0
LINE
  5
8081
330
803F
100
AcDbEntity
  8
AM_5 寸法線
 62
     3
100
AcDbLine
 10
368.9001562703333
 20
350.6546986975568
 30
0.0
 11
372.9001562703337
 21
350.6546986975568
 31
0.0
  0
LINE
  5
8082
330
803F
100
AcDbEntity
  8
AM_5 寸法線
 62
     3
100
AcDbLine
 10
368.9001562703333
 20
350.6546986975568
 30
0.0
 11
372.9001562703337
 21
350.6546986975568
 31
0.0
  0
INSERT
  5
8083
330
803F
100
AcDbEntity
  8
AM_5 寸法線
 62
     3
100
AcDbBlockReference
  2
_Open30
 10
368.9001562703333
 20
350.6546986975568
 30
0.0
 41
3.75
 42
3.75
 43
3.75
  0
INSERT
  5
8084
330
803F
100
AcDbEntity
  8
AM_5 寸法線
 62
     3
100
AcDbBlockReference
  2
_Open30
 10
372.9001562703337
 20
350.6546986975568
 30
0.0
 41
3.75
 42
3.75
 43
3.75
 50
180.0
  0
POINT
  5
8085
330
803F
100
AcDbEntity
  8
Defpoints
 62
     0
100
AcDbPoint
 10
368.9001562703333
 20
384.1546986975568
 30
0.0
  0
POINT
  5
8086
330
803F
100
AcDbEntity
  8
Defpoints
 62
     0
100
AcDbPoint
 10
372.9001562703337
 20
373.1546986975569
 30
0.0
  0
POINT
  5
8087
330
803F
100
AcDbEntity
  8
Defpoints
 62
     0
100
AcDbPoint
 10
372.9001562703337
 20
350.6546986975568
 30
0.0
  0
ENDBLK
  5
8041
330
803F
100
AcDbEntity
  8
0
100
AcDbBlockEnd
  0
BLOCK
  5
81C7
330
81C6
100
AcDbEntity
  8
0
100
AcDbBlockBegin
  2
ケース
 70
     0
 10
0.0
 20
0.0
 30
0.0
  3
ケース
  1

  0
LINE
  5
81C9
330
81C6
100
AcDbEntity
  8
AM_11 想像線
 48
0.1
100
AcDbLine
 10
-18.88234950373805
 20
-10.0
 30
0.0
 11
-18.88234950373805
 21
-11.0
 31
0.0
  0
LINE
  5
81CA
330
81C6
100
AcDbEntity
  8
AM_11 想像線
 48
0.1
100
AcDbLine
 10
-16.68234950373801
 20
-10.0
 30
0.0
 11
-16.68234950373801
 21
-11.0
 31
0.0
  0
LINE
  5
81CB
330
81C6
100
AcDbEntity
  8
AM_11 想像線
 48
0.1
100
AcDbLine
 10
-9.082349503738099
 20
-10.0
 30
0.0
 11
-9.082349503738099
 21
-11.0
 31
0.0
  0
LINE
  5
81CC
330
81C6
100
AcDbEntity
  8
AM_11 想像線
 48
0.1
100
AcDbLine
 10
-6.882349503738055
 20
-10.0
 30
0.0
 11
-6.882349503738055
 21
-11.0
 31
0.0
  0
LINE
  5
81CD
330
81C6
100
AcDbEntity
  8
AM_11 想像線
 48
0.1
100
AcDbLine
 10
-9.082349503738099
 20
-10.0
 30
0.0
 11
-6.882349503738055
 21
-10.0
 31
0.0
  0
LINE
  5
81CE
330
81C6
100
AcDbEntity
  8
AM_11 想像線
 48
0.1
100
AcDbLine
 10
0.7730527552101876
 20
0.0
 30
0.0
 11
-15.88234950373805
 21
0.0
 31
0.0
  0
ARC
  5
81CF
330
81C6
100
AcDbEntity
  8
AM_11 想像線
 48
0.1
100
AcDbCircle
 10
-15.88234950373805
 20
-3.0
 30
0.0
 40
3.0
100
AcDbArc
 50
90.0
 51
180.0
  0
LINE
  5
81D0
330
81C6
100
AcDbEntity
  8
AM_11 想像線
 48
0.1
100
AcDbLine
 10
-16.68234950373801
 20
-6.300000000000013
 30
0.0
 11
-9.082349503738099
 21
-6.300000000000013
 31
0.0
  0
LINE
  5
81D1
330
81C6
100
AcDbEntity
  8
AM_11 想像線
 48
0.1
100
AcDbLine
 10
-16.68234950373801
 20
-10.0
 30
0.0
 11
-16.68234950373801
 21
-6.300000000000013
 31
0.0
  0
LINE
  5
81D2
330
81C6
100
AcDbEntity
  8
AM_11 想像線
 48
0.1
100
AcDbLine
 10
-18.88234950373805
 20
-10.0
 30
0.0
 11
-16.68234950373801
 21
-10.0
 31
0.0
  0
LINE
  5
81D3
330
81C6
100
AcDbEntity
  8
AM_11 想像線
 48
0.1
100
AcDbLine
 10
-18.88234950373805
 20
-3.0
 30
0.0
 11
-18.88234950373805
 21
-10.0
 31
0.0
  0
LINE
  5
81D4
330
81C6
100
AcDbEntity
  8
AM_11 想像線
 48
0.1
100
AcDbLine
 10
-9.082349503738099
 20
-6.300000000000013
 30
0.0
 11
-9.082349503738099
 21
-10.0
 31
0.0
  0
LINE
  5
81D5
330
81C6
100
AcDbEntity
  8
AM_11 想像線
 48
0.1
100
AcDbLine
 10
0.7730527552101876
 20
-8.199999999999986
 30
0.0
 11
-3.382349503738055
 21
-8.199999999999986
 31
0.0
  0
LINE
  5
81D6
330
81C6
100
AcDbEntity
  8
AM_11 想像線
 48
0.1
100
AcDbLine
 10
0.7730527552101876
 20
-7.0
 30
0.0
 11
-5.882349503738055
 21
-7.0
 31
0.0
  0
LINE
  5
81D7
330
81C6
100
AcDbEntity
  8
AM_11 想像線
 48
0.1
100
AcDbLine
 10
0.7730527552101876
 20
-5.5
 30
0.0
 11
-3.882349503738055
 21
-5.5
 31
0.0
  0
LINE
  5
81D8
330
81C6
100
AcDbEntity
  8
AM_11 想像線
 48
0.1
100
AcDbLine
 10
-3.882349503738055
 20
-6.116193000000007
 30
0.0
 11
-3.882349503738055
 21
-7.699999999999986
 31
0.0
  0
LINE
  5
81D9
330
81C6
100
AcDbEntity
  8
AM_11 想像線
 48
0.1
100
AcDbLine
 10
-3.882349503738055
 20
-7.699999999999986
 30
0.0
 11
-3.382349503738055
 21
-8.199999999999986
 31
0.0
  0
LINE
  5
81DA
330
81C6
100
AcDbEntity
  8
AM_11 想像線
 48
0.1
100
AcDbLine
 10
-3.882349503738055
 20
-6.116193000000007
 30
0.0
 11
-3.882349503738055
 21
-6.0
 31
0.0
  0
ARC
  5
81DB
330
81C6
100
AcDbEntity
  8
AM_11 想像線
 48
0.1
100
AcDbCircle
 10
-4.882349503738053
 20
-6.0
 30
0.0
 40
1.0
100
AcDbArc
 50
0.0
 51
90.0
  0
LINE
  5
81DC
330
81C6
100
AcDbEntity
  8
AM_11 想像線
 48
0.1
100
AcDbLine
 10
-5.882349503738055
 20
-5.0
 30
0.0
 11
-4.882349503738053
 21
-5.0
 31
0.0
  0
ARC
  5
81DD
330
81C6
100
AcDbEntity
  8
AM_11 想像線
 48
0.1
100
AcDbCircle
 10
-5.882349503738055
 20
-6.0
 30
0.0
 40
1.0
100
AcDbArc
 50
90.0
 51
180.0
  0
LINE
  5
81DE
330
81C6
100
AcDbEntity
  8
AM_11 想像線
 48
0.1
100
AcDbLine
 10
-6.882349503738055
 20
-10.0
 30
0.0
 11
-6.882349503738055
 21
-6.0
 31
0.0
  0
ENDBLK
  5
81C8
330
81C6
100
AcDbEntity
  8
0
100
AcDbBlockEnd
  0
ENDSEC
  0
SECTION
  2
ENTITIES
  0
LINE
  5
42A2
330
1F
100
AcDbEntity
  8
AM_7 中心線
100
AcDbLine
 10
162.9001562703336
 20
338.6546986975568
 30
0.0
 11
442.1021272703335
 21
338.6546986975568
 31
0.0
  0
LINE
  5
4348
330
1F
100
AcDbEntity
  8
AM_0 外形線1
100
AcDbLine
 10
234.9001562703336
 20
398.1546986975569
 30
0.0
 11
234.9001562703336
 21
400.9546986975569
 31
0.0
  0
LINE
  5
4350
330
1F
100
AcDbEntity
  8
AM_0 外形線1
100
AcDbLine
 10
252.9001562703336
 20
389.1546986975569
 30
0.0
 11
252.9001562703336
 21
389.1546986975569
 31
0.0
  0
LINE
  5
4394
330
1F
100
AcDbEntity
  8
AM_0 外形線1
100
AcDbLine
 10
379.9001562703336
 20
391.1546986975569
 30
0.0
 11
354.9001562703336
 21
391.1546986975569
 31
0.0
  0
LINE
  5
4395
330
1F
100
AcDbEntity
  8
AM_0 外形線1
100
AcDbLine
 10
354.9001562703336
 20
398.1546986975569
 30
0.0
 11
379.9001562703336
 21
398.1546986975569
 31
0.0
  0
LINE
  5
43B8
330
1F
100
AcDbEntity
  8
AM_0 外形線1
100
AcDbLine
 10
368.9001562703337
 20
398.1546986975569
 30
0.0
 11
368.9001562703337
 21
400.9546986975569
 31
0.0
  0
LINE
  5
43E6
330
1F
100
AcDbEntity
  8
AM_0 外形線1
100
AcDbLine
 10
396.9001562703336
 20
378.5385056975568
 30
0.0
 11
396.9001562703336
 21
378.6546986975569
 31
0.0
  0
LINE
  5
4E47
102
{ACAD_REACTORS
330
5615
330
804E
102
}
330
1F
100
AcDbEntity
  8
AM_0 外形線1
100
AcDbLine
 10
372.9001562703337
 20
373.1546986975569
 30
0.0
 11
372.9001562703337
 21
338.6546986975568
 31
0.0
  0
INSERT
  5
4E62
102
{ACAD_REACTORS
330
5615
330
57F3
330
5A87
102
}
330
1F
100
AcDbEntity
  8
AM_0 外形線1
100
AcDbBlockReference
  2
センタ-1 SAM125
 10
372.9001562703335
 20
338.6546986975568
 30
0.0
  0
INSERT
  5
4EB8
102
{ACAD_REACTORS
330
552D
330
55E5
330
5A27
330
7D67
330
7E5A
330
7F5D
330
801B
102
}
330
1F
100
AcDbEntity
  8
AM_0 外形線1
100
AcDbBlockReference
  2
センタ-2 SAM125
 10
230.9001562703336
 20
338.6546986975568
 30
0.0
  0
INSERT
  5
50E2
102
{ACAD_REACTORS
330
580B
330
5823
330
5A0F
330
5A6F
330
5A87
330
7611
102
}
330
1F
100
AcDbEntity
  8
AM_0 外形線1
100
AcDbBlockReference
  2
ケースＡ-1 SAM125
 10
368.9001562703337
 20
338.6546986975568
 30
0.0
  0
INSERT
  5
50E4
102
{ACAD_REACTORS
330
59C7
330
5A27
330
5A3F
330
75E7
330
7E7F
102
}
330
1F
100
AcDbEntity
  8
AM_0 外形線1
100
AcDbBlockReference
  2
ケースＡ-2 SAM125
 10
234.9001562703336
 20
338.6546986975568
 30
0.0
  0
INSERT
  5
5201
330
1F
100
AcDbEntity
  8
AM_0 外形線1
100
AcDbBlockReference
  2
リーマボルト-1 SAM125 M6
 10
353.9001562703337
 20
394.6546986975569
 30
0.0
  0
INSERT
  5
5294
330
1F
100
AcDbEntity
  8
AM_0 外形線1
100
AcDbBlockReference
  2
リーマボルト-2 SAM125 M6
 10
249.9001562703336
 20
394.6546986975569
 30
0.0
  0
DIMENSION
  5
5516
102
{ACAD_XDICTIONARY
360
5523
102
}
102
{ACAD_REACTORS
330
552D
102
}
330
1F
100
AcDbEntity
  8
AM_5 寸法線
100
AcDbDimension
  2
*D11
 10
137.9001562703336
 20
303.6546986975568
 30
0.0
 11
133.0251562703335
 21
338.6546986975568
 31
0.0
 70
    32
  1
%%c<>
 71
     5
 42
70.0
 73
     0
 74
     0
 75
     0
  3
SEISA$0
100
AcDbAlignedDimension
 13
170.9001562703336
 23
373.6546986975568
 33
0.0
 14
170.9001562703336
 24
303.6546986975568
 34
0.0
 50
90.0
100
AcDbRotatedDimension
1001
ACAD_DSTYLE_DIMINSPECT
1070
   396
1000
100%
1070
   395
1000

1070
   394
1070
    33
1070
   393
1070
     0
  0
DIMENSION
  5
55CE
102
{ACAD_XDICTIONARY
360
55DB
102
}
102
{ACAD_REACTORS
330
55E5
102
}
330
1F
100
AcDbEntity
  8
AM_5 寸法線
100
AcDbDimension
  2
*D12
 10
167.9001562703336
 20
343.3532226975568
 30
0.0
 11
181.6398142457986
 21
343.2560265244449
 31
0.0
 70
   160
 71
     5
 42
63.0
 73
     0
 74
     0
 75
     0
  3
SEISA$0
100
AcDbAlignedDimension
 13
230.9001562703336
 23
338.6546986975568
 33
0.0
 14
167.9001562703336
 24
338.6546986975568
 34
0.0
100
AcDbRotatedDimension
1001
ACAD
1000
DSTYLE
1002
{
1070
   279
1070
     1
1002
}
  0
DIMENSION
  5
55FE
102
{ACAD_XDICTIONARY
360
560B
102
}
102
{ACAD_REACTORS
330
5615
102
}
330
1F
100
AcDbEntity
  8
AM_5 寸法線
100
AcDbDimension
  2
*D13
 10
372.9001562703339
 20
343.3532226975568
 30
0.0
 11
404.4001562703336
 21
348.2282226975568
 31
0.0
 70
    32
 71
     5
 42
62.99999999999972
 73
     0
 74
     0
 75
     0
  3
SEISA$0
100
AcDbAlignedDimension
 13
435.9001562703335
 23
338.6546986975568
 33
0.0
 14
372.9001562703339
 24
338.6546986975568
 34
0.0
100
AcDbRotatedDimension
  0
DIMENSION
  5
57DC
102
{ACAD_XDICTIONARY
360
57E9
102
}
102
{ACAD_REACTORS
330
57F3
102
}
330
1F
100
AcDbEntity
  8
AM_5 寸法線
100
AcDbDimension
  2
*D14
 10
465.9001562703336
 20
303.6546986975567
 30
0.0
 11
461.0251562703335
 21
338.6546986975569
 31
0.0
 70
    32
  1
%%c<>
 71
     5
 42
70.00000000000006
 73
     0
 74
     0
 75
     0
  3
SEISA$0
100
AcDbAlignedDimension
 13
432.9001562703336
 23
373.6546986975568
 33
0.0
 14
432.9001562703336
 24
303.6546986975567
 34
0.0
 50
90.0
100
AcDbRotatedDimension
1001
ACAD_DSTYLE_DIMINSPECT
1070
   396
1000
100%
1070
   395
1000

1070
   394
1070
    33
1070
   393
1070
     0
  0
DIMENSION
  5
57F4
102
{ACAD_XDICTIONARY
360
5801
102
}
102
{ACAD_REACTORS
330
580B
102
}
330
1F
100
AcDbEntity
  8
AM_5 寸法線
100
AcDbDimension
  2
*D15
 10
480.9001562703334
 20
292.6546986975568
 30
0.0
 11
476.0251562703333
 21
338.6546986975568
 31
0.0
 70
    32
  1
%%c<>
 71
     5
 42
92.0
 73
     0
 74
     0
 75
     0
  3
SEISA$0
100
AcDbAlignedDimension
 13
408.9001562703336
 23
384.6546986975568
 33
0.0
 14
408.9001562703336
 24
292.6546986975568
 34
0.0
 50
90.0
100
AcDbRotatedDimension
1001
ACAD_DSTYLE_DIMINSPECT
1070
   396
1000
100%
1070
   395
1000

1070
   394
1070
    33
1070
   393
1070
     0
  0
DIMENSION
  5
580C
102
{ACAD_XDICTIONARY
360
5819
102
}
102
{ACAD_REACTORS
330
5823
102
}
330
1F
100
AcDbEntity
  8
AM_5 寸法線
100
AcDbDimension
  2
*D16
 10
495.9001562703336
 20
276.1546986975567
 30
0.0
 11
491.0251562703335
 21
338.6546986975568
 31
0.0
 70
    32
  1
%%c<>
 71
     5
 42
125.0
 73
     0
 74
     0
 75
     0
  3
SEISA$0
100
AcDbAlignedDimension
 13
383.7001562703337
 23
401.1546986975567
 33
0.0
 14
383.7001562703337
 24
276.1546986975568
 34
0.0
 50
90.0
100
AcDbRotatedDimension
1001
ACAD_DSTYLE_DIMINSPECT
1070
   396
1000
100%
1070
   395
1000

1070
   394
1070
    33
1070
   393
1070
     0
  0
DIMENSION
  5
59B0
102
{ACAD_XDICTIONARY
360
59BD
102
}
102
{ACAD_REACTORS
330
59C7
102
}
330
1F
100
AcDbEntity
  8
AM_5 寸法線
100
AcDbDimension
  2
*D17
 10
219.9001562703336
 20
261.1546986975568
 30
0.0
 11
227.4001562703336
 21
266.0296986975568
 31
0.0
 70
    32
 71
     5
 42
15.0
 73
     0
 74
     0
 75
     0
  3
SEISA$0
100
AcDbAlignedDimension
 13
234.9001562703336
 23
276.3546986975567
 33
0.0
 14
219.9001562703336
 24
276.3546986975567
 34
0.0
100
AcDbRotatedDimension
  0
DIMENSION
  5
59F8
102
{ACAD_XDICTIONARY
360
5A05
102
}
102
{ACAD_REACTORS
330
5A0F
102
}
330
1F
100
AcDbEntity
  8
AM_5 寸法線
100
AcDbDimension
  2
*D18
 10
383.9001562703336
 20
261.1546986975568
 30
0.0
 11
376.4001562703336
 21
266.0296986975568
 31
0.0
 70
    32
 71
     5
 42
15.0
 73
     0
 74
     0
 75
     0
  3
SEISA$0
100
AcDbAlignedDimension
 13
368.9001562703337
 23
276.3546986975567
 33
0.0
 14
383.9001562703336
 24
276.3546986975567
 34
0.0
100
AcDbRotatedDimension
  0
DIMENSION
  5
5A10
102
{ACAD_XDICTIONARY
360
5A1D
102
}
102
{ACAD_REACTORS
330
5A27
102
}
330
1F
100
AcDbEntity
  8
AM_5 寸法線
100
AcDbDimension
  2
*D19
 10
167.9001562703336
 20
246.1546986975568
 30
0.0
 11
179.9001562703335
 21
251.0296986975568
 31
0.0
 70
    32
 71
     5
 42
24.0
 73
     0
 74
     0
 75
     0
  3
SEISA$0
100
AcDbAlignedDimension
 13
191.9001562703336
 23
295.6546986975568
 33
0.0
 14
167.9001562703336
 24
306.6546986975568
 34
0.0
100
AcDbRotatedDimension
  0
DIMENSION
  5
5A28
102
{ACAD_XDICTIONARY
360
5A35
102
}
102
{ACAD_REACTORS
330
5A3F
102
}
330
1F
100
AcDbEntity
  8
AM_5 寸法線
100
AcDbDimension
  2
*D20
 10
234.9001562703336
 20
246.1546986975568
 30
0.0
 11
213.4001562703336
 21
251.0296986975568
 31
0.0
 70
    32
 71
     5
 42
43.0
 73
     0
 74
     0
 75
     0
  3
SEISA$0
100
AcDbAlignedDimension
 13
191.9001562703336
 23
295.6546986975568
 33
0.0
 14
234.9001562703336
 24
276.3546986975567
 34
0.0
100
AcDbRotatedDimension
  0
DIMENSION
  5
5A58
102
{ACAD_XDICTIONARY
360
5A65
102
}
102
{ACAD_REACTORS
330
5A6F
102
}
330
1F
100
AcDbEntity
  8
AM_5 寸法線
100
AcDbDimension
  2
*D21
 10
411.9001562703336
 20
246.1546986975568
 30
0.0
 11
390.4001562703336
 21
251.0296986975568
 31
0.0
 70
    32
 71
     5
 42
43.0
 73
     0
 74
     0
 75
     0
  3
SEISA$0
100
AcDbAlignedDimension
 13
368.9001562703337
 23
276.3546986975567
 33
0.0
 14
411.9001562703336
 24
295.6546986975568
 34
0.0
100
AcDbRotatedDimension
  0
DIMENSION
  5
5A70
102
{ACAD_XDICTIONARY
360
5A7D
102
}
102
{ACAD_REACTORS
330
5A87
102
}
330
1F
100
AcDbEntity
  8
AM_5 寸法線
100
AcDbDimension
  2
*D22
 10
435.9001562703334
 20
246.1546986975568
 30
0.0
 11
423.9001562703335
 21
251.0296986975568
 31
0.0
 70
    32
 71
     5
 42
23.99999999999977
 73
     0
 74
     0
 75
     0
  3
SEISA$0
100
AcDbAlignedDimension
 13
411.9001562703337
 23
295.6546986975568
 33
0.0
 14
435.9001562703334
 24
306.6546986975568
 34
0.0
100
AcDbRotatedDimension
  0
INSERT
  5
6C17
102
{ACAD_REACTORS
330
75E7
330
7611
330
801B
330
804E
102
}
330
1F
100
AcDbEntity
  8
AM_0 外形線1
100
AcDbBlockReference
  2
ＧＣスペーサ SAMY125
 10
368.9001562703335
 20
338.6546986975568
 30
0.0
  0
DIMENSION
  5
75D9
102
{ACAD_XDICTIONARY
360
75E6
102
}
102
{ACAD_REACTORS
330
75E7
102
}
330
1F
100
AcDbEntity
  8
AM_5 寸法線
100
AcDbDimension
  2
*D24
 10
249.9001562703335
 20
261.1546986975567
 30
0.0
 11
242.4001562703335
 21
266.0296986975567
 31
0.0
 70
    32
 71
     5
 42
14.99999999999994
 73
     0
 74
     0
 75
     0
  3
SEISA$0
100
AcDbAlignedDimension
 13
234.9001562703336
 23
276.3546986975567
 33
0.0
 14
249.9001562703335
 24
277.1546986975568
 34
0.0
 50
0.0000000000000114
100
AcDbRotatedDimension
1001
ACAD_DSTYLE_DIMINSPECT
1070
   396
1000
100%
1070
   395
1000

1070
   394
1070
    33
1070
   393
1070
     0
  0
DIMENSION
  5
7603
102
{ACAD_XDICTIONARY
360
7610
102
}
102
{ACAD_REACTORS
330
7611
102
}
330
1F
100
AcDbEntity
  8
AM_5 寸法線
100
AcDbDimension
  2
*D25
 10
353.9001562703334
 20
261.1546986975566
 30
0.0
 11
361.4001562703335
 21
266.0296986975566
 31
0.0
 70
    32
 71
     5
 42
15.00000000000017
 73
     0
 74
     0
 75
     0
  3
SEISA$0
100
AcDbAlignedDimension
 13
368.9001562703337
 23
276.3546986975567
 33
0.0
 14
353.9001562703334
 24
277.1546986975568
 34
0.0
 50
0.0000000000000114
100
AcDbRotatedDimension
1001
ACAD_DSTYLE_DIMINSPECT
1070
   396
1000
100%
1070
   395
1000

1070
   394
1070
    33
1070
   393
1070
     0
  0
MTEXT
  5
7D12
330
1F
100
AcDbEntity
  8
AM_6 文字
100
AcDbMText
 10
450.810975225957
 20
265.1864825742982
 30
0.0
 40
5.25
 41
108.5360962537228
 46
27.66929097590912
 71
     1
 72
     5
  1
{\W0.6;TYPE:SAM125/SAMH125\PSHAFT DIA:MAX/MIN φ50/φ22}
  7
SEISA
 73
     1
 44
1.0
  0
DIMENSION
  5
7D57
102
{ACAD_XDICTIONARY
360
7D66
102
}
102
{ACAD_REACTORS
330
7D67
102
}
330
1F
100
AcDbEntity
  8
AM_5 寸法線
100
AcDbDimension
  2
*D26
 10
167.9001562703336
 20
400.6546986975568
 30
0.0
 11
179.2251562703335
 21
405.5296986975568
 31
0.0
 70
    32
 71
     5
 42
6.999999999999772
 73
     0
 74
     0
 75
     0
  3
SEISA$0
100
AcDbAlignedDimension
 13
160.9001562703338
 23
381.6546986975568
 33
0.0
 14
167.9001562703336
 24
370.6546986975569
 34
0.0
100
AcDbRotatedDimension
1001
ACAD_DSTYLE_DIMINSPECT
1070
   396
1000
100%
1070
   395
1000

1070
   394
1070
    33
1070
   393
1070
     0
  0
ARC
  5
7D98
330
1F
100
AcDbEntity
  8
AM_11 想像線
100
AcDbCircle
 10
213.4001562703336
 20
338.6546986975568
 30
0.0
 40
39.0
100
AcDbArc
 50
78.91251078902938
 51
78.9475016735487
  0
DIMENSION
  5
7E4B
102
{ACAD_XDICTIONARY
360
7E59
102
}
102
{ACAD_REACTORS
330
7E5A
102
}
330
1F
100
AcDbEntity
  8
AM_5 寸法線
100
AcDbDimension
  2
*D27
 10
218.9001562703336
 20
364.0928646566822
 30
0.0
 11
209.6681672433466
 21
346.1721783184573
 31
0.0
 70
   160
 71
     5
 42
12.5
 73
     0
 74
     0
 75
     0
  3
SEISA$0
100
AcDbAlignedDimension
 13
206.4001562703336
 23
374.1546986975568
 33
0.0
 14
218.9001562703336
 24
374.1546986975568
 34
0.0
 50
0.0000000000001132
100
AcDbRotatedDimension
1001
ACAD_DSTYLE_DIMINSPECT
1070
   396
1000
100%
1070
   395
1000

1070
   394
1070
    33
1070
   393
1070
     0
1001
ACAD
1000
DSTYLE
1002
{
1070
   342
1005
0
1070
   173
1070
     1
1070
   279
1070
     1
1070
   343
1005
7FA0
1070
   344
1005
7FA0
1002
}
  0
DIMENSION
  5
7E6F
102
{ACAD_XDICTIONARY
360
7E7E
102
}
102
{ACAD_REACTORS
330
7E7F
102
}
330
1F
100
AcDbEntity
  8
AM_5 寸法線
100
AcDbDimension
  2
*D28
 10
206.4001562703336
 20
364.0928646566822
 30
0.0
 11
196.8127556831017
 21
363.7580864332621
 31
0.0
 70
   160
 71
     5
 42
2.500000000000028
 73
     0
 74
     0
 75
     0
  3
SEISA$0
100
AcDbAlignedDimension
 13
203.9001562703336
 23
373.6546986975568
 33
0.0
 14
206.4001562703336
 24
374.1546986975568
 34
0.0
100
AcDbRotatedDimension
1001
ACAD_DSTYLE_DIMINSPECT
1070
   396
1000
100%
1070
   395
1000

1070
   394
1070
    33
1070
   393
1070
     0
1001
ACAD
1000
DSTYLE
1002
{
1070
   344
1005
7FA0
1070
   342
1005
0
1070
   173
1070
     1
1070
   343
1005
69
1070
   279
1070
     1
1002
}
  0
DIMENSION
  5
7F4D
102
{ACAD_XDICTIONARY
360
7F5C
102
}
102
{ACAD_REACTORS
330
7F5D
102
}
330
1F
100
AcDbEntity
  8
AM_5 寸法線
100
AcDbDimension
  2
*D29
 10
230.9001562703336
 20
364.0928646566822
 30
0.0
 11
223.0251562703336
 21
368.9678646566822
 31
0.0
 70
    32
 71
     5
 42
12.0
 73
     0
 74
     0
 75
     1
  3
SEISA$0
100
AcDbAlignedDimension
 13
218.9001562703336
 23
374.1546986975568
 33
0.0
 14
230.9001562703336
 24
373.1546986975567
 34
0.0
 50
0.0000000000001132
100
AcDbRotatedDimension
1001
ACAD_DSTYLE_DIMINSPECT
1070
   396
1000
100%
1070
   395
1000

1070
   394
1070
    33
1070
   393
1070
     0
1001
ACAD
1000
DSTYLE
1002
{
1070
   344
1005
69
1070
   342
1005
0
1070
   173
1070
     1
1070
   343
1005
7FA0
1002
}
  0
DIMENSION
  5
800B
102
{ACAD_XDICTIONARY
360
801A
102
}
102
{ACAD_REACTORS
330
801B
102
}
330
1F
100
AcDbEntity
  8
AM_5 寸法線
100
AcDbDimension
  2
*D31
 10
230.9001562703336
 20
350.6546986975568
 30
0.0
 11
248.5140625160164
 21
348.5850732312548
 31
0.0
 70
   160
 71
     5
 42
3.999999999999886
 73
     0
 74
     0
 75
     0
  3
SEISA$0
100
AcDbAlignedDimension
 13
234.9001562703335
 23
384.1546986975568
 33
0.0
 14
230.9001562703336
 24
373.1546986975569
 34
0.0
 50
0.0000000000001132
100
AcDbRotatedDimension
1001
ACAD_DSTYLE_DIMINSPECT
1070
   396
1000
100%
1070
   395
1000

1070
   394
1070
    33
1070
   393
1070
     0
1001
ACAD
1000
DSTYLE
1002
{
1070
   279
1070
     1
1002
}
  0
DIMENSION
  5
803E
102
{ACAD_XDICTIONARY
360
804D
102
}
102
{ACAD_REACTORS
330
804E
102
}
330
1F
100
AcDbEntity
  8
AM_5 寸法線
100
AcDbDimension
  2
*D32
 10
372.9001562703337
 20
350.6546986975568
 30
0.0
 11
354.2596494952575
 21
349.5557917285582
 31
0.0
 70
   160
 71
     5
 42
4.000000000000397
 73
     0
 74
     0
 75
     0
  3
SEISA$0
100
AcDbAlignedDimension
 13
368.9001562703333
 23
384.1546986975568
 33
0.0
 14
372.9001562703337
 24
373.1546986975569
 34
0.0
 50
0.0000000000001132
100
AcDbRotatedDimension
1001
ACAD_DSTYLE_DIMINSPECT
1070
   396
1000
100%
1070
   395
1000

1070
   394
1070
    33
1070
   393
1070
     0
1001
ACAD
1000
DSTYLE
1002
{
1070
   279
1070
     1
1002
}
  0
INSERT
  5
81DF
330
1F
100
AcDbEntity
  8
AM_11 想像線
100
AcDbBlockReference
  2
ケース
 10
179.7825057740718
 20
384.6546986975568
 30
0.0
  0
ENDSEC
  0
SECTION
  2
OBJECTS
  0
DICTIONARY
  5
C
330
0
100
AcDbDictionary
281
     1
  3
ACAD_COLOR
350
C5
  3
ACAD_GROUP
350
D
  3
ACAD_LAYOUT
350
1A
  3
ACAD_MATERIAL
350
C4
  3
ACAD_MLEADERSTYLE
350
2D5
  3
ACAD_MLINESTYLE
350
17
  3
ACAD_PLOTSETTINGS
350
19
  3
ACAD_PLOTSTYLENAME
350
E
  3
ACAD_SCALELIST
350
2B3
  3
ACAD_TABLESTYLE
350
121
  3
ACAD_VISUALSTYLE
350
27F
  3
ACDB_RECOMPOSE_DATA
350
2F7
  3
AcDbVariableDictionary
350
34
  3
AcmDictionary
350
49
  3
AMG
350
2B
  3
AMGSNAPSETTINGS
350
1DE
  0
DICTIONARY
  5
BF
330
2
100
AcDbDictionary
280
     1
281
     1
  3
ACAD_LAYERSTATES
360
2E06
  3
AMLAYER_GROUPCOLORS
360
C0
  0
DICTIONARY
  5
29F7
330
10
100
AcDbDictionary
280
     1
281
     1
  3
ADSK_XREC_LAYER_RECONCILED
360
29F8
  0
DICTIONARY
  5
29F9
330
81
100
AcDbDictionary
280
     1
281
     1
  3
ADSK_XREC_LAYER_RECONCILED
360
29FA
  0
DICTIONARY
  5
2DFC
330
2DFB
100
AcDbDictionary
280
     1
281
     1
  0
DICTIONARY
  5
82
330
1F
100
AcDbDictionary
280
     1
281
     1
  3
ACAD_SORTENTS
360
A41
  0
DICTIONARY
  5
3829
330
3828
100
AcDbDictionary
280
     1
281
     1
  3
ACAD_SORTENTS
360
65C3
  0
DICTIONARY
  5
6659
330
3A5A
100
AcDbDictionary
280
     1
281
     1
  3
ACAD_SORTENTS
360
665A
  0
DICTIONARY
  5
4D2E
330
4C75
100
AcDbDictionary
280
     1
281
     1
  3
ACAD_SORTENTS
360
6638
  0
DICTIONARY
  5
4DFC
330
4D40
100
AcDbDictionary
280
     1
281
     1
  3
ACAD_SORTENTS
360
66CF
  0
DICTIONARY
  5
4E95
330
4E48
100
AcDbDictionary
280
     1
281
     1
  3
ACAD_SORTENTS
360
844E
  0
DICTIONARY
  5
4EE9
330
4E9F
100
AcDbDictionary
280
     1
281
     1
  3
ACAD_SORTENTS
360
7DFC
  0
DICTIONARY
  5
525F
330
51D4
100
AcDbDictionary
280
     1
281
     1
  3
ACAD_SORTENTS
360
5260
  0
DICTIONARY
  5
52F1
330
5269
100
AcDbDictionary
280
     1
281
     1
  3
ACAD_SORTENTS
360
68AF
  0
DICTIONARY
  5
6B95
330
6B94
100
AcDbDictionary
280
     1
281
     1
  3
ACAD_SORTENTS
360
82F2
  0
DICTIONARY
  5
5523
330
5516
100
AcDbDictionary
280
     1
281
     1
  3
ACAD_DIMASSOC
360
552D
  0
DICTIONARY
  5
55DB
330
55CE
100
AcDbDictionary
280
     1
281
     1
  3
ACAD_DIMASSOC
360
55E5
  0
DICTIONARY
  5
560B
330
55FE
100
AcDbDictionary
280
     1
281
     1
  3
ACAD_DIMASSOC
360
5615
  0
DICTIONARY
  5
57E9
330
57DC
100
AcDbDictionary
280
     1
281
     1
  3
ACAD_DIMASSOC
360
57F3
  0
DICTIONARY
  5
5801
330
57F4
100
AcDbDictionary
280
     1
281
     1
  3
ACAD_DIMASSOC
360
580B
  0
DICTIONARY
  5
5819
330
580C
100
AcDbDictionary
280
     1
281
     1
  3
ACAD_DIMASSOC
360
5823
  0
DICTIONARY
  5
59BD
330
59B0
100
AcDbDictionary
280
     1
281
     1
  3
ACAD_DIMASSOC
360
59C7
  0
DICTIONARY
  5
5A05
330
59F8
100
AcDbDictionary
280
     1
281
     1
  3
ACAD_DIMASSOC
360
5A0F
  0
DICTIONARY
  5
5A1D
330
5A10
100
AcDbDictionary
280
     1
281
     1
  3
ACAD_DIMASSOC
360
5A27
  0
DICTIONARY
  5
5A35
330
5A28
100
AcDbDictionary
280
     1
281
     1
  3
ACAD_DIMASSOC
360
5A3F
  0
DICTIONARY
  5
5A65
330
5A58
100
AcDbDictionary
280
     1
281
     1
  3
ACAD_DIMASSOC
360
5A6F
  0
DICTIONARY
  5
5A7D
330
5A70
100
AcDbDictionary
280
     1
281
     1
  3
ACAD_DIMASSOC
360
5A87
  0
DICTIONARY
  5
75E6
330
75D9
100
AcDbDictionary
280
     1
281
     1
  3
ACAD_DIMASSOC
360
75E7
  0
DICTIONARY
  5
7610
330
7603
100
AcDbDictionary
280
     1
281
     1
  3
ACAD_DIMASSOC
360
7611
  0
DICTIONARY
  5
7D66
330
7D57
100
AcDbDictionary
280
     1
281
     1
  3
ACAD_DIMASSOC
360
7D67
  0
DICTIONARY
  5
7E59
330
7E4B
100
AcDbDictionary
280
     1
281
     1
  3
ACAD_DIMASSOC
360
7E5A
  0
DICTIONARY
  5
7E7E
330
7E6F
100
AcDbDictionary
280
     1
281
     1
  3
ACAD_DIMASSOC
360
7E7F
  0
DICTIONARY
  5
7F5C
330
7F4D
100
AcDbDictionary
280
     1
281
     1
  3
ACAD_DIMASSOC
360
7F5D
  0
DICTIONARY
  5
801A
330
800B
100
AcDbDictionary
280
     1
281
     1
  3
ACAD_DIMASSOC
360
801B
  0
DICTIONARY
  5
804D
330
803E
100
AcDbDictionary
280
     1
281
     1
  3
ACAD_DIMASSOC
360
804E
  0
DICTIONARY
  5
C5
102
{ACAD_REACTORS
330
C
102
}
330
C
100
AcDbDictionary
281
     1
  0
DICTIONARY
  5
D
102
{ACAD_REACTORS
330
C
102
}
330
C
100
AcDbDictionary
281
     1
  0
DICTIONARY
  5
1A
102
{ACAD_REACTORS
330
C
102
}
330
C
100
AcDbDictionary
281
     1
  3
Model
350
22
  3
レイアウト1
350
1E
  3
レイアウト2
350
26
  0
DICTIONARY
  5
C4
102
{ACAD_REACTORS
330
C
102
}
330
C
100
AcDbDictionary
281
     1
  3
ByBlock
350
27D
  3
ByLayer
350
27C
  3
Global
350
27E
  0
DICTIONARY
  5
2D5
102
{ACAD_REACTORS
330
C
102
}
330
C
100
AcDbDictionary
281
     1
  3
Standard
350
2D6
  0
DICTIONARY
  5
17
102
{ACAD_REACTORS
330
C
102
}
330
C
100
AcDbDictionary
281
     1
  3
Standard
350
18
  0
DICTIONARY
  5
19
102
{ACAD_REACTORS
330
C
102
}
330
C
100
AcDbDictionary
281
     1
  3
SEISA基本
350
1C7E
  0
ACDBDICTIONARYWDFLT
  5
E
102
{ACAD_REACTORS
330
C
102
}
330
C
100
AcDbDictionary
281
     1
  3
Normal
350
F
100
AcDbDictionaryWithDefault
340
F
  0
DICTIONARY
  5
2B3
102
{ACAD_REACTORS
330
C
102
}
330
C
100
AcDbDictionary
281
     1
  3
*A1
350
2A04
  3
A0
350
2B4
  3
A1
350
2B5
  3
A2
350
2B6
  3
A3
350
2B7
  3
A4
350
2B8
  3
A5
350
2B9
  3
A6
350
2BA
  3
A7
350
2BB
  3
A8
350
2BC
  3
A9
350
2BD
  3
B0
350
2BE
  3
B1
350
2BF
  3
B2
350
2C0
  3
B3
350
2C1
  3
B4
350
2C2
  3
B5
350
2C3
  3
B6
350
2C4
  3
B7
350
2C5
  3
B8
350
2C6
  3
B9
350
2C7
  3
C0
350
2C8
  3
C1
350
2C9
  3
C2
350
2CA
  3
C3
350
2CB
  3
C4
350
2CC
  3
C5
350
2CD
  3
C6
350
2CE
  3
C7
350
2CF
  3
C8
350
2D0
  3
C9
350
2D1
  3
D0
350
2D2
  3
D1
350
2D3
  3
D2
350
2D4
  0
DICTIONARY
  5
121
102
{ACAD_REACTORS
330
C
102
}
330
C
100
AcDbDictionary
281
     1
  3
Standard
350
122
  0
DICTIONARY
  5
27F
102
{ACAD_REACTORS
330
C
102
}
330
C
100
AcDbDictionary
281
     1
  3
2dWireframe
350
285
  3
3D Hidden
350
287
  3
3dWireframe
350
286
  3
Basic
350
284
  3
Brighten
350
28B
  3
ColorChange
350
28F
  3
Conceptual
350
288
  3
Dim
350
28A
  3
Facepattern
350
28E
  3
Flat
350
280
  3
FlatWithEdges
350
281
  3
Gouraud
350
282
  3
GouraudWithEdges
350
283
  3
Linepattern
350
28D
  3
Realistic
350
289
  3
Thicken
350
28C
  0
XRECORD
  5
2F7
102
{ACAD_REACTORS
330
C
102
}
330
C
100
AcDbXrecord
280
     1
 90
        1
330
122
  0
DICTIONARY
  5
34
102
{ACAD_REACTORS
330
C
102
}
330
C
100
AcDbDictionary
281
     1
  3
CANNOSCALE
350
2FA
  3
CMLEADERSTYLE
350
2F8
  3
CTABLESTYLE
350
140
  3
DIMASSOC
350
AC
  3
INDEXCTL
350
35
  3
LAYEREVAL
350
698A
  3
LAYERNOTIFY
350
698B
  3
LIGHTINGUNITS
350
2FB
  3
MSLTSCALE
350
2F9
  0
DICTIONARY
  5
49
102
{ACAD_REACTORS
330
C
102
}
330
C
100
AcDbDictionary
281
     1
  3
AcmBOM
350
161B
  3
AcmStdDictionary
350
4A
  3
AMDTSECTSYM_ARROWCOLOR
350
12B
  0
DICTIONARY
  5
2B
102
{ACAD_REACTORS
330
C
102
}
330
C
100
AcDbDictionary
281
     1
  0
DICTIONARY
  5
1DE
102
{ACAD_REACTORS
330
C
102
}
330
C
100
AcDbDictionary
281
     1
  0
DICTIONARY
  5
2E06
102
{ACAD_REACTORS
330
BF
102
}
330
BF
100
AcDbDictionary
281
     1
  0
DICTIONARY
  5
C0
102
{ACAD_REACTORS
330
BF
102
}
330
BF
100
AcDbDictionary
280
     1
281
     1
  0
XRECORD
  5
29F8
102
{ACAD_REACTORS
330
29F7
102
}
330
29F7
100
AcDbXrecord
280
     1
290
     1
  0
XRECORD
  5
29FA
102
{ACAD_REACTORS
330
29F9
102
}
330
29F9
100
AcDbXrecord
280
     1
290
     1
  0
SORTENTSTABLE
  5
A41
102
{ACAD_REACTORS
330
82
102
}
330
82
100
AcDbSortentsTable
330
1F
331
43B8
  5
43BA
331
42A2
  5
42A2
331
4E62
  5
5201
331
5A70
  5
5ADA
331
59F8
  5
5A28
331
7D12
  5
7D12
331
57DC
  5
580C
331
4348
  5
4348
331
5A10
  5
5A40
331
75D9
  5
75D9
331
57F4
  5
598F
331
50E2
  5
5294
331
5516
  5
5564
331
50E4
  5
533F
331
43E6
  5
43E7
331
5294
  5
53F8
331
5A28
  5
5A58
331
6C17
  5
6C17
331
5201
  5
53AC
331
580C
  5
5990
331
4394
  5
4395
331
4EB8
  5
522C
331
5A58
  5
5A88
331
59B0
  5
59E0
331
55CE
  5
55FE
331
7603
  5
7603
331
7D57
  5
7D57
331
55FE
  5
5669
331
4395
  5
4397
331
4350
  5
4350
331
7D98
  5
7D98
331
4E47
  5
437B
  0
SORTENTSTABLE
  5
65C3
102
{ACAD_REACTORS
330
3829
102
}
330
3829
100
AcDbSortentsTable
330
3828
  0
SORTENTSTABLE
  5
665A
102
{ACAD_REACTORS
330
6659
102
}
330
6659
100
AcDbSortentsTable
330
3A5A
  0
SORTENTSTABLE
  5
6638
102
{ACAD_REACTORS
330
4D2E
102
}
330
4D2E
100
AcDbSortentsTable
330
4C75
331
4C9B
  5
4C9C
331
4CAD
  5
4CAE
331
4C99
  5
4C9A
331
4CAB
  5
4CAC
331
4C97
  5
4C98
331
4CA9
  5
4CAA
331
4CB0
  5
4D19
331
4C95
  5
4C96
331
4C93
  5
4C94
331
4CA6
  5
4CA7
331
4C91
  5
4C92
331
4CA4
  5
4CA5
331
4C8F
  5
4C90
331
4CA2
  5
4CA3
331
4C8D
  5
4C8E
331
4CA0
  5
4CA1
331
4C9E
  5
4C9F
331
4C8B
  5
4C8C
331
4CAE
  5
4CAF
331
4C9C
  5
4C9D
331
4CAC
  5
4CAD
331
4C9A
  5
4C9B
331
4CAA
  5
4CAB
331
4C98
  5
4C99
331
4C96
  5
4C97
331
4C94
  5
4C95
331
4CA7
  5
4CA9
331
4C92
  5
4C93
331
4CA5
  5
4CA6
331
4C90
  5
4C91
331
4CA3
  5
4CA4
331
4C8E
  5
4C8F
331
4CA1
  5
4CA2
331
4D19
  5
4C8B
331
4C8C
  5
4C8D
331
4C9F
  5
4CA0
331
4CAF
  5
4CB0
331
4C9D
  5
4C9E
  0
SORTENTSTABLE
  5
66CF
102
{ACAD_REACTORS
330
4DFC
102
}
330
4DFC
100
AcDbSortentsTable
330
4D40
  0
SORTENTSTABLE
  5
844E
102
{ACAD_REACTORS
330
4E95
102
}
330
4E95
100
AcDbSortentsTable
330
4E48
331
4E5F
  5
7E18
331
4E60
  5
7E19
331
4E5D
  5
4E60
331
4E5C
  5
4E5F
331
4E4F
  5
4E51
331
4E5A
  5
4E5D
331
4E4E
  5
4E50
331
4E4D
  5
4E4F
331
4E59
  5
4E5C
331
4E58
  5
4E5A
331
4E4B
  5
4E4E
331
4E55
  5
4E59
331
4E54
  5
4E58
331
4E53
  5
4E55
331
4E52
  5
4E54
331
4E51
  5
4E53
331
4E50
  5
4E52
331
7E19
  5
4E4D
331
7E18
  5
4E4B
  0
SORTENTSTABLE
  5
7DFC
102
{ACAD_REACTORS
330
4EE9
102
}
330
4EE9
100
AcDbSortentsTable
330
4E9F
331
4EB4
  5
4EB6
331
4EB2
  5
4EB5
331
4EB0
  5
4EB4
331
4EAF
  5
4EB2
331
4EAE
  5
4EB0
331
4EAD
  5
4EAF
331
4EAC
  5
4EAE
331
4EAB
  5
4EAD
331
4EA9
  5
4EAC
331
7DBC
  5
4EA4
331
4EA8
  5
4EAB
331
7DBB
  5
4EA3
331
4EA7
  5
4EA9
331
4EA6
  5
4EA8
331
4EA4
  5
4EA7
331
4EB7
  5
7DBC
331
4EA3
  5
4EA6
331
4EB6
  5
7DBB
331
4EB5
  5
4EB7
  0
SORTENTSTABLE
  5
5260
102
{ACAD_REACTORS
330
525F
102
}
330
525F
100
AcDbSortentsTable
330
51D4
  0
SORTENTSTABLE
  5
68AF
102
{ACAD_REACTORS
330
52F1
102
}
330
52F1
100
AcDbSortentsTable
330
5269
  0
SORTENTSTABLE
  5
82F2
102
{ACAD_REACTORS
330
6B95
102
}
330
6B95
100
AcDbSortentsTable
330
6B94
331
6BAA
  5
6BA2
331
6BA9
  5
6BA1
331
6BA8
  5
6BA0
331
6C07
  5
6C09
331
6C06
  5
6C08
331
6C05
  5
6C07
331
6C04
  5
6C06
331
6C0C
  5
6B9D
331
6C03
  5
6C05
331
6C0B
  5
6B98
331
6C02
  5
6C04
331
6C0A
  5
6C0C
331
6C01
  5
6C03
331
6C09
  5
6C0B
331
6C00
  5
6BF8
331
6C08
  5
6C0A
331
6BFF
  5
6BF7
331
6BFE
  5
6BF6
331
6BFD
  5
6BF5
331
6BFC
  5
6BF4
331
6BFB
  5
6BF3
331
6BFA
  5
6BF2
331
6BF9
  5
6BF1
331
6B9F
  5
6C00
331
6BF8
  5
6BF0
331
6BF7
  5
6BEF
331
6B9E
  5
6BFF
331
6BF6
  5
6BEE
331
6B9D
  5
6BFE
331
6BF5
  5
6BED
331
6B9C
  5
6BFD
331
6BBD
  5
6BA3
331
6BF4
  5
6BEC
331
6B9B
  5
6BFC
331
6BF3
  5
6BEB
331
6B9A
  5
6BFB
331
6BF2
  5
6BEA
331
6B99
  5
6BFA
331
6BF1
  5
6BE9
331
6B98
  5
6BF9
331
6BA7
  5
6B9F
331
6BA6
  5
6B9E
331
6BF0
  5
6BE8
331
6BEF
  5
6BE7
331
6BA5
  5
6B9C
331
6BA4
  5
6B9B
331
6BEE
  5
6BE6
331
6BED
  5
6BE5
331
6BA3
  5
6B9A
331
6BA2
  5
6B99
331
6BEC
  5
6BE4
331
6BEB
  5
6BE3
331
6BA1
  5
6C02
331
6BA0
  5
6C01
331
6BEA
  5
6BE2
331
6BDF
  5
6BD7
331
6BE9
  5
6BE1
331
6BDE
  5
6BD6
331
6BE8
  5
6BE0
331
6BDD
  5
6BD5
331
6BDC
  5
6BD4
331
6BDB
  5
6BD3
331
6BDA
  5
6BD2
331
6BD9
  5
6BD1
331
6BD8
  5
6BD0
331
6BD7
  5
6BBD
331
6BD6
  5
6BAA
331
6BD5
  5
6BA9
331
6BD4
  5
6BA8
331
6BD3
  5
6BA7
331
6BD2
  5
6BA6
331
6BD1
  5
6BA5
331
6BD0
  5
6BA4
331
6BE7
  5
6BDF
331
6BE6
  5
6BDE
331
6BE5
  5
6BDD
331
6BE4
  5
6BDC
331
6BE3
  5
6BDB
331
6BE2
  5
6BDA
331
6BE1
  5
6BD9
331
6BE0
  5
6BD8
  0
DIMASSOC
  5
552D
102
{ACAD_REACTORS
330
5523
102
}
330
5523
100
AcDbDimAssoc
330
5516
 90
        3
 70
     0
 71
     0
  1
AcDbOsnapPointRef
 72
    13
331
4EB8
331
4EA9
 73
     2
 91
        0
 40
0.0
 10
0.0
 20
0.0
 30
2.000000000000000E+50
 75
     0
  1
AcDbOsnapPointRef
 72
     1
331
4EB8
331
4EA7
 73
     2
 91
        0
 40
1.0
 10
0.0
 20
0.0
 30
2.000000000000000E+50
 75
     0
  0
DIMASSOC
  5
55E5
102
{ACAD_REACTORS
330
55DB
102
}
330
55DB
100
AcDbDimAssoc
330
55CE
 90
        2
 70
     0
 71
     0
  1
AcDbOsnapPointRef
 72
     2
331
4EB8
331
4EA6
 73
     2
 91
        0
 40
0.5
 10
0.0
 20
0.0
 30
0.0
 75
     0
  0
DIMASSOC
  5
5615
102
{ACAD_REACTORS
330
560B
102
}
330
560B
100
AcDbDimAssoc
330
55FE
 90
        3
 70
     0
 71
     0
  1
AcDbOsnapPointRef
 72
     2
331
4E62
331
4E5C
 73
     2
 91
        0
 40
0.5
 10
0.0
 20
0.0
 30
0.0
 75
     0
  1
AcDbOsnapPointRef
 72
     8
331
4E47
 73
     2
 91
        0
 40
0.999999999999996
 10
0.0
 20
0.0
 30
0.0
 75
     1
  1
AcDbOsnapPointRef
 72
     2
331
4E62
331
4E5C
 73
     2
 91
        0
 40
0.5
 10
0.0
 20
0.0
 30
0.0
 75
     0
  0
DIMASSOC
  5
57F3
102
{ACAD_REACTORS
330
57E9
102
}
330
57E9
100
AcDbDimAssoc
330
57DC
 90
        3
 70
     0
 71
     0
  1
AcDbOsnapPointRef
 72
    13
331
4E62
331
4E4D
 73
     2
 91
        0
 40
0.0
 10
0.0
 20
0.0
 30
2.000000000000000E+50
 75
     0
  1
AcDbOsnapPointRef
 72
     1
331
4E62
331
4E4E
 73
     2
 91
        0
 40
1.0
 10
0.0
 20
0.0
 30
2.000000000000000E+50
 75
     0
  0
DIMASSOC
  5
580B
102
{ACAD_REACTORS
330
5801
102
}
330
5801
100
AcDbDimAssoc
330
57F4
 90
        3
 70
     0
 71
     0
  1
AcDbOsnapPointRef
 72
     1
331
50E2
331
4C97
 73
     2
 91
        0
 40
1.0
 10
0.0
 20
0.0
 30
2.000000000000000E+50
 75
     0
  1
AcDbOsnapPointRef
 72
     1
331
50E2
331
4C7F
 73
     2
 91
        0
 40
1.0
 10
0.0
 20
0.0
 30
2.000000000000000E+50
 75
     0
  0
DIMASSOC
  5
5823
102
{ACAD_REACTORS
330
5819
102
}
330
5819
100
AcDbDimAssoc
330
580C
 90
        3
 70
     0
 71
     0
  1
AcDbOsnapPointRef
 72
     1
331
50E2
331
4C87
 73
     2
 91
        0
 40
1.0
 10
0.0
 20
0.0
 30
2.000000000000000E+50
 75
     0
  1
AcDbOsnapPointRef
 72
     1
331
50E2
331
4C7A
 73
     2
 91
        0
 40
1.0
 10
0.0
 20
0.0
 30
2.000000000000000E+50
 75
     0
  0
DIMASSOC
  5
59C7
102
{ACAD_REACTORS
330
59BD
102
}
330
59BD
100
AcDbDimAssoc
330
59B0
 90
        2
 70
     0
 71
     0
  1
AcDbOsnapPointRef
 72
    13
331
50E4
331
4D4A
 73
     2
 91
        0
 40
0.0
 10
0.0
 20
0.0
 30
2.000000000000000E+50
 75
     0
  0
DIMASSOC
  5
5A0F
102
{ACAD_REACTORS
330
5A05
102
}
330
5A05
100
AcDbDimAssoc
330
59F8
 90
        2
 70
     0
 71
     0
  1
AcDbOsnapPointRef
 72
    13
331
50E2
331
4C7E
 73
     2
 91
        0
 40
0.0
 10
0.0
 20
0.0
 30
2.000000000000000E+50
 75
     0
  0
DIMASSOC
  5
5A27
102
{ACAD_REACTORS
330
5A1D
102
}
330
5A1D
100
AcDbDimAssoc
330
5A10
 90
        3
 70
     0
 71
     0
  1
AcDbOsnapPointRef
 72
    13
331
50E4
331
4D49
 73
     2
 91
        0
 40
0.0
 10
0.0
 20
0.0
 30
2.000000000000000E+50
 75
     0
  1
AcDbOsnapPointRef
 72
    13
331
4EB8
331
4EA6
 73
     2
 91
        0
 40
0.0
 10
0.0
 20
0.0
 30
2.000000000000000E+50
 75
     0
  0
DIMASSOC
  5
5A3F
102
{ACAD_REACTORS
330
5A35
102
}
330
5A35
100
AcDbDimAssoc
330
5A28
 90
        1
 70
     0
 71
     0
  1
AcDbOsnapPointRef
 72
    13
331
50E4
331
4D49
 73
     2
 91
        0
 40
0.0
 10
0.0
 20
0.0
 30
2.000000000000000E+50
 75
     0
  0
DIMASSOC
  5
5A6F
102
{ACAD_REACTORS
330
5A65
102
}
330
5A65
100
AcDbDimAssoc
330
5A58
 90
        2
 70
     0
 71
     0
  1
AcDbOsnapPointRef
 72
    13
331
50E2
331
4C7D
 73
     2
 91
        0
 40
0.0
 10
0.0
 20
0.0
 30
2.000000000000000E+50
 75
     0
  0
DIMASSOC
  5
5A87
102
{ACAD_REACTORS
330
5A7D
102
}
330
5A7D
100
AcDbDimAssoc
330
5A70
 90
        3
 70
     0
 71
     0
  1
AcDbOsnapPointRef
 72
    13
331
50E2
331
4C7D
 73
     2
 91
        0
 40
0.0
 10
0.0
 20
0.0
 30
2.000000000000000E+50
 75
     0
  1
AcDbOsnapPointRef
 72
    13
331
4E62
331
4E5C
 73
     2
 91
        0
 40
0.0
 10
0.0
 20
0.0
 30
2.000000000000000E+50
 75
     0
  0
DIMASSOC
  5
75E7
102
{ACAD_REACTORS
330
75E6
102
}
330
75E6
100
AcDbDimAssoc
330
75D9
 90
        3
 70
     0
 71
     0
  1
AcDbOsnapPointRef
 72
     1
331
50E4
331
4D6F
 73
     0
 91
        0
 40
0.0
 10
0.0
 20
0.0
 30
2.000000000000000E+50
 75
     0
  1
AcDbOsnapPointRef
 72
     1
331
6C17
331
6BED
 73
     0
 91
        0
 40
0.0
 10
0.0
 20
0.0
 30
2.000000000000000E+50
 75
     0
  0
DIMASSOC
  5
7611
102
{ACAD_REACTORS
330
7610
102
}
330
7610
100
AcDbDimAssoc
330
7603
 90
        3
 70
     0
 71
     0
  1
AcDbOsnapPointRef
 72
     1
331
50E2
331
4C7B
 73
     0
 91
        0
 40
0.0
 10
0.0
 20
0.0
 30
2.000000000000000E+50
 75
     0
  1
AcDbOsnapPointRef
 72
     1
331
6C17
331
6BD2
 73
     0
 91
        0
 40
0.0
 10
0.0
 20
0.0
 30
2.000000000000000E+50
 75
     0
  0
DIMASSOC
  5
7D67
102
{ACAD_REACTORS
330
7D66
102
}
330
7D66
100
AcDbDimAssoc
330
7D57
 90
        2
 70
     0
 71
     0
  1
AcDbOsnapPointRef
 72
     1
331
4EB8
331
4EA6
 73
     0
 91
        0
 40
0.0
 10
0.0
 20
0.0
 30
2.000000000000000E+50
 75
     0
  0
DIMASSOC
  5
7E5A
102
{ACAD_REACTORS
330
7E59
102
}
330
7E59
100
AcDbDimAssoc
330
7E4B
 90
        2
 70
     0
 71
     0
  1
AcDbOsnapPointRef
 72
     1
331
4EB8
331
4EAE
 73
     0
 91
        0
 40
0.0
 10
0.0
 20
0.0
 30
2.000000000000000E+50
 75
     0
  0
DIMASSOC
  5
7E7F
102
{ACAD_REACTORS
330
7E7E
102
}
330
7E7E
100
AcDbDimAssoc
330
7E6F
 90
        1
 70
     0
 71
     0
  1
AcDbOsnapPointRef
 72
     1
331
50E4
331
4D53
 73
     2
 91
        0
 40
1.0
 10
0.0
 20
0.0
 30
2.000000000000000E+50
 75
     0
  0
DIMASSOC
  5
7F5D
102
{ACAD_REACTORS
330
7F5C
102
}
330
7F5C
100
AcDbDimAssoc
330
7F4D
 90
        2
 70
     0
 71
     0
  1
AcDbOsnapPointRef
 72
     1
331
4EB8
331
4EB7
 73
     0
 91
        0
 40
0.0
 10
0.0
 20
0.0
 30
2.000000000000000E+50
 75
     0
  0
DIMASSOC
  5
801B
102
{ACAD_REACTORS
330
801A
102
}
330
801A
100
AcDbDimAssoc
330
800B
 90
        3
 70
     0
 71
     0
  1
AcDbOsnapPointRef
 72
    13
331
6C17
331
6BA1
 73
     0
 91
        0
 40
0.0
 10
0.0
 20
0.0
 30
2.000000000000000E+50
 75
     0
  1
AcDbOsnapPointRef
 72
    13
331
4EB8
331
4EB6
 73
     0
 91
        0
 40
0.0
 10
0.0
 20
0.0
 30
2.000000000000000E+50
 75
     0
  0
DIMASSOC
  5
804E
102
{ACAD_REACTORS
330
804D
102
}
330
804D
100
AcDbDimAssoc
330
803E
 90
        3
 70
     0
 71
     0
  1
AcDbOsnapPointRef
 72
     1
331
6C17
331
6BA6
 73
     0
 91
        0
 40
0.0
 10
0.0
 20
0.0
 30
2.000000000000000E+50
 75
     0
  1
AcDbOsnapPointRef
 72
    13
331
4E47
 73
     0
 91
        0
 40
0.0
 10
0.0
 20
0.0
 30
2.000000000000000E+50
 75
     0
  0
LAYOUT
  5
22
102
{ACAD_REACTORS
330
1A
102
}
330
1A
100
AcDbPlotSettings
  1

  2
KONICA MINOLTA 501 PCL
  4
A4
  6

 40
5.027082920074462
 41
5.027085781097412
 42
5.027069091796875
 43
5.027069091796875
 44
209.9733276367186
 45
296.9259948730469
 46
40.32286171351052
 47
0.0
 48
0.0
 49
0.0
140
0.0
141
0.0
142
1.0
143
1.366699911112436
 70
 11956
 72
     1
 73
     1
 74
     1
  7
SEISA.ctb
 75
     0
147
0.7316895185762041
 76
     0
 77
     2
 78
   300
148
-130.3816242202208
149
-245.1487216643218
100
AcDbLayout
  1
Model
 70
     1
 71
     0
 10
0.0
 20
0.0
 11
12.0
 21
9.0
 12
0.0
 22
0.0
 32
0.0
 14
0.0
 24
0.0
 34
0.0
 15
0.0
 25
0.0
 35
0.0
146
0.0
 13
0.0
 23
0.0
 33
0.0
 16
1.0
 26
0.0
 36
0.0
 17
0.0
 27
1.0
 37
0.0
 76
     0
330
1F
331
27A
1001
ACAD_PSEXT
1000
KONICA MINOLTA 501 PCL
1000
KONICA MINOLTA 501/421/361PCL
1000
IP_192.168.20.231_(1)
1000

1070
     0
  0
LAYOUT
  5
1E
102
{ACAD_REACTORS
330
1A
102
}
330
1A
100
AcDbPlotSettings
  1

  2
none_device
  4
Letter_(8.50_x_11.00_Inches)
  6

 40
6.349999904632567
 41
6.349999904632567
 42
6.350006103515625
 43
6.350006103515625
 44
215.8999938964844
 45
279.3999938964844
 46
0.0
 47
0.0
 48
0.0
 49
0.0
140
0.0
141
0.0
142
1.0
143
1.0
 70
 15024
 72
     1
 73
     1
 74
     5
  7
SEISA.ctb
 75
    16
147
1.0
 76
     0
 77
     2
 78
   300
148
0.0
149
0.0
100
AcDbLayout
  1
レイアウト1
 70
     1
 71
     1
 10
0.0
 20
0.0
 11
420.0
 21
297.0
 12
0.0
 22
0.0
 32
0.0
 14
1.000000000000000E+20
 24
1.000000000000000E+20
 34
1.000000000000000E+20
 15
-1.000000000000000E+20
 25
-1.000000000000000E+20
 35
-1.000000000000000E+20
146
0.0
 13
0.0
 23
0.0
 33
0.0
 16
1.0
 26
0.0
 36
0.0
 17
0.0
 27
1.0
 37
0.0
 76
     0
330
1B
  0
LAYOUT
  5
26
102
{ACAD_REACTORS
330
1A
102
}
330
1A
100
AcDbPlotSettings
  1

  2
none_device
  4
Letter_(8.50_x_11.00_Inches)
  6

 40
6.349999904632567
 41
6.349999904632567
 42
6.350006103515625
 43
6.350006103515625
 44
215.8999938964844
 45
279.3999938964844
 46
0.0
 47
0.0
 48
0.0
 49
0.0
140
0.0
141
0.0
142
1.0
143
1.0
 70
 15024
 72
     1
 73
     1
 74
     5
  7
SEISA.ctb
 75
    16
147
1.0
 76
     0
 77
     2
 78
   300
148
0.0
149
0.0
100
AcDbLayout
  1
レイアウト2
 70
     1
 71
     2
 10
0.0
 20
0.0
 11
12.0
 21
9.0
 12
0.0
 22
0.0
 32
0.0
 14
0.0
 24
0.0
 34
0.0
 15
0.0
 25
0.0
 35
0.0
146
0.0
 13
0.0
 23
0.0
 33
0.0
 16
1.0
 26
0.0
 36
0.0
 17
0.0
 27
1.0
 37
0.0
 76
     0
330
23
  0
MATERIAL
  5
27D
102
{ACAD_REACTORS
330
C4
102
}
330
C4
100
AcDbMaterial
  1
ByBlock
 73
     1
 78
     1
172
     1
176
     1
270
     1
274
     1
 94
       63
  0
MATERIAL
  5
27C
102
{ACAD_REACTORS
330
C4
102
}
330
C4
100
AcDbMaterial
  1
ByLayer
 73
     1
 78
     1
172
     1
176
     1
270
     1
274
     1
 94
       63
  0
MATERIAL
  5
27E
102
{ACAD_REACTORS
330
C4
102
}
330
C4
100
AcDbMaterial
  1
Global
 73
     1
 78
     1
172
     1
176
     1
270
     1
274
     1
 94
       63
  0
MLEADERSTYLE
  5
2D6
102
{ACAD_REACTORS
330
2D5
102
}
330
2D5
100
AcDbMLeaderStyle
170
     2
171
     1
172
     0
 90
        2
 40
0.0
 41
0.0
173
     1
 91
-1056964608
340
14
 92
       -2
290
     1
 42
2.0
291
     1
 43
0.36
  3
Standard
 44
4.0
300

342
11
174
     1
178
     6
175
     1
176
     0
 93
-1056964608
 45
4.0
292
     0
297
     0
 46
4.0
 94
-1056964608
 47
1.0
 49
1.0
140
1.0
293
     1
141
0.0
294
     1
177
     0
142
1.0
295
     0
296
     0
143
0.125
1001
ACAD_MLEADERVER
1070
     2
  0
MLINESTYLE
  5
18
102
{ACAD_REACTORS
330
17
102
}
330
17
100
AcDbMlineStyle
  2
STANDARD
 70
     0
  3

 62
   256
 51
90.0
 52
90.0
 71
     2
 49
0.5
 62
   256
  6
BYLAYER
 49
-0.5
 62
   256
  6
BYLAYER
  0
PLOTSETTINGS
  5
1C7E
102
{ACAD_REACTORS
330
19
102
}
330
19
100
AcDbPlotSettings
  1
SEISA基本
  2
none_device
  4
Letter_(8.50_x_11.00_Inches)
  6

 40
6.349999904632567
 41
6.349999904632567
 42
6.350006103515625
 43
6.350006103515625
 44
215.8999938964844
 45
279.3999938964844
 46
7.302498226506357
 47
0.0
 48
0.0
 49
0.0
140
0.0
141
0.0
142
1.0
143
1.574803221122935
 70
 11956
 72
     1
 73
     1
 74
     2
  7
SEISA.ctb
 75
     0
147
0.6349999711627054
 76
     0
 77
     2
 78
   300
148
0.0
149
0.0
1001
ACAD_PSEXT
1000
なし
1000
なし
1000
適切ではありません
1000
新しいプロッタ環境設定名を選択しない限り、レイアウトは印刷されません。
1070
     0
  0
ACDBPLACEHOLDER
  5
F
102
{ACAD_REACTORS
330
E
102
}
330
E
  0
SCALE
  5
2A04
102
{ACAD_REACTORS
330
2B3
102
}
330
2B3
100
AcDbScale
 70
     0
300
1:1.5
140
1.0
141
1.5
290
     0
  0
SCALE
  5
2B4
102
{ACAD_REACTORS
330
2B3
102
}
330
2B3
100
AcDbScale
 70
     0
300
1:1
140
1.0
141
1.0
290
     1
  0
SCALE
  5
2B5
102
{ACAD_REACTORS
330
2B3
102
}
330
2B3
100
AcDbScale
 70
     0
300
1:2
140
1.0
141
2.0
290
     0
  0
SCALE
  5
2B6
102
{ACAD_REACTORS
330
2B3
102
}
330
2B3
100
AcDbScale
 70
     0
300
1:4
140
1.0
141
4.0
290
     0
  0
SCALE
  5
2B7
102
{ACAD_REACTORS
330
2B3
102
}
330
2B3
100
AcDbScale
 70
     0
300
1:5
140
1.0
141
5.0
290
     0
  0
SCALE
  5
2B8
102
{ACAD_REACTORS
330
2B3
102
}
330
2B3
100
AcDbScale
 70
     0
300
1:8
140
1.0
141
8.0
290
     0
  0
SCALE
  5
2B9
102
{ACAD_REACTORS
330
2B3
102
}
330
2B3
100
AcDbScale
 70
     0
300
1:10
140
1.0
141
10.0
290
     0
  0
SCALE
  5
2BA
102
{ACAD_REACTORS
330
2B3
102
}
330
2B3
100
AcDbScale
 70
     0
300
1:16
140
1.0
141
16.0
290
     0
  0
SCALE
  5
2BB
102
{ACAD_REACTORS
330
2B3
102
}
330
2B3
100
AcDbScale
 70
     0
300
1:20
140
1.0
141
20.0
290
     0
  0
SCALE
  5
2BC
102
{ACAD_REACTORS
330
2B3
102
}
330
2B3
100
AcDbScale
 70
     0
300
1:30
140
1.0
141
30.0
290
     0
  0
SCALE
  5
2BD
102
{ACAD_REACTORS
330
2B3
102
}
330
2B3
100
AcDbScale
 70
     0
300
1:40
140
1.0
141
40.0
290
     0
  0
SCALE
  5
2BE
102
{ACAD_REACTORS
330
2B3
102
}
330
2B3
100
AcDbScale
 70
     0
300
1:50
140
1.0
141
50.0
290
     0
  0
SCALE
  5
2BF
102
{ACAD_REACTORS
330
2B3
102
}
330
2B3
100
AcDbScale
 70
     0
300
1:100
140
1.0
141
100.0
290
     0
  0
SCALE
  5
2C0
102
{ACAD_REACTORS
330
2B3
102
}
330
2B3
100
AcDbScale
 70
     0
300
2:1
140
2.0
141
1.0
290
     0
  0
SCALE
  5
2C1
102
{ACAD_REACTORS
330
2B3
102
}
330
2B3
100
AcDbScale
 70
     0
300
4:1
140
4.0
141
1.0
290
     0
  0
SCALE
  5
2C2
102
{ACAD_REACTORS
330
2B3
102
}
330
2B3
100
AcDbScale
 70
     0
300
8:1
140
8.0
141
1.0
290
     0
  0
SCALE
  5
2C3
102
{ACAD_REACTORS
330
2B3
102
}
330
2B3
100
AcDbScale
 70
     0
300
10:1
140
10.0
141
1.0
290
     0
  0
SCALE
  5
2C4
102
{ACAD_REACTORS
330
2B3
102
}
330
2B3
100
AcDbScale
 70
     0
300
100:1
140
100.0
141
1.0
290
     0
  0
SCALE
  5
2C5
102
{ACAD_REACTORS
330
2B3
102
}
330
2B3
100
AcDbScale
 70
     0
300
1/128" = 1'-0"
140
0.0078125
141
12.0
290
     0
  0
SCALE
  5
2C6
102
{ACAD_REACTORS
330
2B3
102
}
330
2B3
100
AcDbScale
 70
     0
300
1/64" = 1'-0"
140
0.015625
141
12.0
290
     0
  0
SCALE
  5
2C7
102
{ACAD_REACTORS
330
2B3
102
}
330
2B3
100
AcDbScale
 70
     0
300
1/32" = 1'-0"
140
0.03125
141
12.0
290
     0
  0
SCALE
  5
2C8
102
{ACAD_REACTORS
330
2B3
102
}
330
2B3
100
AcDbScale
 70
     0
300
1/16" = 1'-0"
140
0.0625
141
12.0
290
     0
  0
SCALE
  5
2C9
102
{ACAD_REACTORS
330
2B3
102
}
330
2B3
100
AcDbScale
 70
     0
300
3/32" = 1'-0"
140
0.09375
141
12.0
290
     0
  0
SCALE
  5
2CA
102
{ACAD_REACTORS
330
2B3
102
}
330
2B3
100
AcDbScale
 70
     0
300
1/8" = 1'-0"
140
0.125
141
12.0
290
     0
  0
SCALE
  5
2CB
102
{ACAD_REACTORS
330
2B3
102
}
330
2B3
100
AcDbScale
 70
     0
300
3/16" = 1'-0"
140
0.1875
141
12.0
290
     0
  0
SCALE
  5
2CC
102
{ACAD_REACTORS
330
2B3
102
}
330
2B3
100
AcDbScale
 70
     0
300
1/4" = 1'-0"
140
0.25
141
12.0
290
     0
  0
SCALE
  5
2CD
102
{ACAD_REACTORS
330
2B3
102
}
330
2B3
100
AcDbScale
 70
     0
300
3/8" = 1'-0"
140
0.375
141
12.0
290
     0
  0
SCALE
  5
2CE
102
{ACAD_REACTORS
330
2B3
102
}
330
2B3
100
AcDbScale
 70
     0
300
1/2" = 1'-0"
140
0.5
141
12.0
290
     0
  0
SCALE
  5
2CF
102
{ACAD_REACTORS
330
2B3
102
}
330
2B3
100
AcDbScale
 70
     0
300
3/4" = 1'-0"
140
0.75
141
12.0
290
     0
  0
SCALE
  5
2D0
102
{ACAD_REACTORS
330
2B3
102
}
330
2B3
100
AcDbScale
 70
     0
300
1" = 1'-0"
140
1.0
141
12.0
290
     0
  0
SCALE
  5
2D1
102
{ACAD_REACTORS
330
2B3
102
}
330
2B3
100
AcDbScale
 70
     0
300
1-1/2" = 1'-0"
140
1.5
141
12.0
290
     0
  0
SCALE
  5
2D2
102
{ACAD_REACTORS
330
2B3
102
}
330
2B3
100
AcDbScale
 70
     0
300
3" = 1'-0"
140
3.0
141
12.0
290
     0
  0
SCALE
  5
2D3
102
{ACAD_REACTORS
330
2B3
102
}
330
2B3
100
AcDbScale
 70
     0
300
6" = 1'-0"
140
6.0
141
12.0
290
     0
  0
SCALE
  5
2D4
102
{ACAD_REACTORS
330
2B3
102
}
330
2B3
100
AcDbScale
 70
     0
300
1'-0" = 1'-0"
140
12.0
141
12.0
290
     0
  0
TABLESTYLE
  5
122
102
{ACAD_XDICTIONARY
360
2F5
102
}
102
{ACAD_REACTORS
330
121
102
}
330
121
100
AcDbTableStyle
  3
Standard
 70
     0
 71
     0
 40
1.5
 41
1.5
280
     0
281
     0
  7
STANDARD
140
4.5
170
     2
 62
     0
 63
     7
283
     0
 90
      512
 91
        0
  1

274
    -2
284
     1
 64
     0
275
    -2
285
     1
 65
     0
276
    -2
286
     1
 66
     0
277
    -2
287
     1
 67
     0
278
    -2
288
     1
 68
     0
279
    -2
289
     1
 69
     0
  7
STANDARD
140
6.0
170
     5
 62
     0
 63
     7
283
     0
 90
      512
 91
        0
  1

274
    -2
284
     1
 64
     0
275
    -2
285
     1
 65
     0
276
    -2
286
     1
 66
     0
277
    -2
287
     1
 67
     0
278
    -2
288
     1
 68
     0
279
    -2
289
     1
 69
     0
  7
STANDARD
140
4.5
170
     5
 62
     0
 63
     7
283
     0
 90
      512
 91
        0
  1

274
    -2
284
     1
 64
     0
275
    -2
285
     1
 65
     0
276
    -2
286
     1
 66
     0
277
    -2
287
     1
 67
     0
278
    -2
288
     1
 68
     0
279
    -2
289
     1
 69
     0
  0
VISUALSTYLE
  5
285
102
{ACAD_REACTORS
330
27F
102
}
330
27F
100
AcDbVisualStyle
  2
2dWireframe
 70
     4
 71
     0
 72
     2
 73
     0
 90
        0
 40
-0.6
 41
-30.0
 62
     5
 63
     7
421
 16777215
 74
     1
 91
        4
 64
     7
 65
   257
 75
     1
175
     1
 42
1.0
 92
        0
 66
   257
 43
1.0
 76
     1
 77
     6
 78
     2
 67
     7
 79
     5
170
     0
171
     0
290
     0
174
     0
 93
        1
 44
0.0
173
     0
291
     0
 45
0.0
  0
VISUALSTYLE
  5
287
102
{ACAD_REACTORS
330
27F
102
}
330
27F
100
AcDbVisualStyle
  2
3D Hidden
 70
     6
 71
     1
 72
     2
 73
     2
 90
        0
 40
-0.6
 41
-30.0
 62
     5
 63
     7
421
 16777215
 74
     2
 91
        2
 64
     7
 65
   257
 75
     2
175
     1
 42
40.0
 92
        0
 66
   257
 43
1.0
 76
     1
 77
     6
 78
     2
 67
     7
 79
     3
170
     0
171
     0
290
     0
174
     0
 93
        1
 44
0.0
173
     0
291
     0
 45
0.0
  0
VISUALSTYLE
  5
286
102
{ACAD_REACTORS
330
27F
102
}
330
27F
100
AcDbVisualStyle
  2
3dWireframe
 70
     5
 71
     0
 72
     2
 73
     0
 90
        0
 40
-0.6
 41
-30.0
 62
     5
 63
     7
421
 16777215
 74
     1
 91
        4
 64
     7
 65
   257
 75
     1
175
     1
 42
1.0
 92
        0
 66
   257
 43
1.0
 76
     1
 77
     6
 78
     2
 67
     7
 79
     5
170
     0
171
     0
290
     0
174
     0
 93
        1
 44
0.0
173
     0
291
     0
 45
0.0
  0
VISUALSTYLE
  5
284
102
{ACAD_REACTORS
330
27F
102
}
330
27F
100
AcDbVisualStyle
  2
Basic
 70
     7
 71
     1
 72
     0
 73
     1
 90
        0
 40
-0.6
 41
-30.0
 62
     5
 63
     7
421
 16777215
 74
     0
 91
        4
 64
     7
 65
   257
 75
     1
175
     1
 42
1.0
 92
        8
 66
     7
 43
1.0
 76
     1
 77
     6
 78
     2
 67
     7
 79
     5
170
     0
171
     0
290
     0
174
     0
 93
        1
 44
0.0
173
     0
291
     1
 45
0.0
  0
VISUALSTYLE
  5
28B
102
{ACAD_REACTORS
330
27F
102
}
330
27F
100
AcDbVisualStyle
  2
Brighten
 70
    12
 71
     2
 72
     2
 73
     0
 90
        0
 40
-0.6
 41
-30.0
 62
     5
 63
     7
421
 16777215
 74
     1
 91
        4
 64
     7
 65
   257
 75
     1
175
     1
 42
1.0
 92
        8
 66
     7
 43
1.0
 76
     1
 77
     6
 78
     2
 67
     7
 79
     5
170
     0
171
     0
290
     0
174
     0
 93
        1
 44
50.0
173
     0
291
     1
 45
0.0
  0
VISUALSTYLE
  5
28F
102
{ACAD_REACTORS
330
27F
102
}
330
27F
100
AcDbVisualStyle
  2
ColorChange
 70
    16
 71
     2
 72
     2
 73
     3
 90
        0
 40
-0.6
 41
-30.0
 62
     5
 63
     8
421
  8421504
 74
     1
 91
        4
 64
     7
 65
   257
 75
     1
175
     1
 42
1.0
 92
        8
 66
     8
424
  8421504
 43
1.0
 76
     1
 77
     6
 78
     2
 67
     7
 79
     5
170
     0
171
     0
290
     0
174
     0
 93
        1
 44
0.0
173
     0
291
     1
 45
0.0
  0
VISUALSTYLE
  5
288
102
{ACAD_REACTORS
330
27F
102
}
330
27F
100
AcDbVisualStyle
  2
Conceptual
 70
     9
 71
     3
 72
     2
 73
     0
 90
        0
 40
-0.6
 41
-30.0
 62
     5
 63
     7
421
 16777215
 74
     2
 91
        2
 64
     7
 65
   257
 75
     1
175
     1
 42
40.0
 92
        8
 66
     7
 43
1.0
 76
     1
 77
     6
 78
     2
 67
     7
 79
     3
170
     0
171
     0
290
     0
174
     0
 93
        1
 44
0.0
173
     0
291
     0
 45
0.0
  0
VISUALSTYLE
  5
28A
102
{ACAD_REACTORS
330
27F
102
}
330
27F
100
AcDbVisualStyle
  2
Dim
 70
    11
 71
     2
 72
     2
 73
     0
 90
        0
 40
-0.6
 41
-30.0
 62
     5
 63
     7
421
 16777215
 74
     1
 91
        4
 64
     7
 65
   257
 75
     1
175
     1
 42
1.0
 92
        8
 66
     7
 43
1.0
 76
     1
 77
     6
 78
     2
 67
     7
 79
     5
170
     0
171
     0
290
     0
174
     0
 93
        1
 44
-50.0
173
     0
291
     1
 45
0.0
  0
VISUALSTYLE
  5
28E
102
{ACAD_REACTORS
330
27F
102
}
330
27F
100
AcDbVisualStyle
  2
Facepattern
 70
    15
 71
     2
 72
     2
 73
     0
 90
        0
 40
-0.6
 41
-30.0
 62
     5
 63
     7
421
 16777215
 74
     1
 91
        4
 64
     7
 65
   257
 75
     1
175
     1
 42
1.0
 92
        8
 66
     7
 43
1.0
 76
     1
 77
     6
 78
     2
 67
     7
 79
     5
170
     0
171
     0
290
     0
174
     0
 93
        1
 44
0.0
173
     0
291
     1
 45
0.0
  0
VISUALSTYLE
  5
280
102
{ACAD_REACTORS
330
27F
102
}
330
27F
100
AcDbVisualStyle
  2
Flat
 70
     0
 71
     2
 72
     1
 73
     1
 90
        2
 40
-0.6
 41
30.0
 62
     5
 63
     7
421
 16777215
 74
     0
 91
        4
 64
     7
 65
   257
 75
     1
175
     1
 42
1.0
 92
        8
 66
     7
 43
1.0
 76
     1
 77
     6
 78
     2
 67
     7
 79
     5
170
     0
171
     0
290
     0
174
     0
 93
       13
 44
0.0
173
     0
291
     1
 45
0.0
  0
VISUALSTYLE
  5
281
102
{ACAD_REACTORS
330
27F
102
}
330
27F
100
AcDbVisualStyle
  2
FlatWithEdges
 70
     1
 71
     2
 72
     1
 73
     1
 90
        2
 40
-0.6
 41
30.0
 62
     5
 63
     7
421
 16777215
 74
     1
 91
        4
 64
     7
 65
   257
 75
     1
175
     1
 42
1.0
 92
        0
 66
   257
 43
1.0
 76
     1
 77
     6
 78
     2
 67
     7
 79
     5
170
     0
171
     0
290
     0
174
     0
 93
       13
 44
0.0
173
     0
291
     1
 45
0.0
  0
VISUALSTYLE
  5
282
102
{ACAD_REACTORS
330
27F
102
}
330
27F
100
AcDbVisualStyle
  2
Gouraud
 70
     2
 71
     2
 72
     2
 73
     1
 90
        2
 40
-0.6
 41
30.0
 62
     5
 63
     7
421
 16777215
 74
     0
 91
        4
 64
     7
 65
   257
 75
     1
175
     1
 42
1.0
 92
        0
 66
     7
 43
1.0
 76
     1
 77
     6
 78
     2
 67
     7
 79
     5
170
     0
171
     0
290
     0
174
     0
 93
       13
 44
0.0
173
     0
291
     1
 45
0.0
  0
VISUALSTYLE
  5
283
102
{ACAD_REACTORS
330
27F
102
}
330
27F
100
AcDbVisualStyle
  2
GouraudWithEdges
 70
     3
 71
     2
 72
     2
 73
     1
 90
        2
 40
-0.6
 41
30.0
 62
     5
 63
     7
421
 16777215
 74
     1
 91
        4
 64
     7
 65
   257
 75
     1
175
     1
 42
1.0
 92
        0
 66
   257
 43
1.0
 76
     1
 77
     6
 78
     2
 67
     7
 79
     5
170
     0
171
     0
290
     0
174
     0
 93
       13
 44
0.0
173
     0
291
     1
 45
0.0
  0
VISUALSTYLE
  5
28D
102
{ACAD_REACTORS
330
27F
102
}
330
27F
100
AcDbVisualStyle
  2
Linepattern
 70
    14
 71
     2
 72
     2
 73
     0
 90
        0
 40
-0.6
 41
-30.0
 62
     5
 63
     7
421
 16777215
 74
     1
 91
        4
 64
     7
 65
   257
 75
     7
175
     7
 42
1.0
 92
        8
 66
     7
 43
1.0
 76
     1
 77
     6
 78
     2
 67
     7
 79
     5
170
     0
171
     0
290
     0
174
     0
 93
        1
 44
0.0
173
     0
291
     1
 45
0.0
  0
VISUALSTYLE
  5
289
102
{ACAD_REACTORS
330
27F
102
}
330
27F
100
AcDbVisualStyle
  2
Realistic
 70
     8
 71
     2
 72
     2
 73
     0
 90
        0
 40
-0.6
 41
-30.0
 62
     5
 63
     7
421
 16777215
 74
     1
 91
        0
 64
     7
 65
   257
 75
     1
175
     1
 42
1.0
 92
        8
 66
     8
424
  7895160
 43
1.0
 76
     1
 77
     6
 78
     2
 67
     7
 79
     5
170
     0
171
     0
290
     0
174
     0
 93
       13
 44
0.0
173
     0
291
     0
 45
0.0
  0
VISUALSTYLE
  5
28C
102
{ACAD_REACTORS
330
27F
102
}
330
27F
100
AcDbVisualStyle
  2
Thicken
 70
    13
 71
     2
 72
     2
 73
     0
 90
        0
 40
-0.6
 41
-30.0
 62
     5
 63
     7
421
 16777215
 74
     1
 91
        4
 64
     7
 65
   257
 75
     1
175
     1
 42
1.0
 92
       12
 66
     7
 43
1.0
 76
     1
 77
     6
 78
     2
 67
     7
 79
     5
170
     0
171
     0
290
     0
174
     0
 93
        1
 44
0.0
173
     0
291
     1
 45
0.0
  0
DICTIONARYVAR
  5
2FA
102
{ACAD_REACTORS
330
34
102
}
330
34
100
DictionaryVariables
280
     0
  1
1:1.5
  0
DICTIONARYVAR
  5
2F8
102
{ACAD_REACTORS
330
34
102
}
330
34
100
DictionaryVariables
280
     0
  1
STANDARD
  0
DICTIONARYVAR
  5
140
102
{ACAD_REACTORS
330
34
102
}
330
34
100
DictionaryVariables
280
     0
  1
STANDARD
  0
DICTIONARYVAR
  5
AC
102
{ACAD_REACTORS
330
34
102
}
330
34
100
DictionaryVariables
280
     0
  1
1
  0
DICTIONARYVAR
  5
35
102
{ACAD_REACTORS
330
34
102
}
330
34
100
DictionaryVariables
280
     0
  1
1
  0
DICTIONARYVAR
  5
698A
102
{ACAD_REACTORS
330
34
102
}
330
34
100
DictionaryVariables
280
     0
  1
1
  0
DICTIONARYVAR
  5
698B
102
{ACAD_REACTORS
330
34
102
}
330
34
100
DictionaryVariables
280
     0
  1
15
  0
DICTIONARYVAR
  5
2FB
102
{ACAD_REACTORS
330
34
102
}
330
34
100
DictionaryVariables
280
     0
  1
0
  0
DICTIONARYVAR
  5
2F9
102
{ACAD_REACTORS
330
34
102
}
330
34
100
DictionaryVariables
280
     0
  1
0
  0
DICTIONARY
  5
161B
102
{ACAD_REACTORS
330
49
102
}
330
49
100
AcDbDictionary
281
     1
  0
DICTIONARY
  5
4A
102
{ACAD_REACTORS
330
49
102
}
330
49
100
AcDbDictionary
281
     1
  0
XRECORD
  5
12B
102
{ACAD_REACTORS
330
49
102
}
330
49
100
AcDbXrecord
280
     1
 90
-1023410169
  0
DICTIONARY
  5
2F5
330
122
100
AcDbDictionary
280
     1
281
     1
  3
ACAD_ROUNDTRIP_2008_TABLESTYLE_CELLSTYLEMAP
360
8458
  0
CELLSTYLEMAP
  5
8458
102
{ACAD_REACTORS
330
2F5
102
}
330
2F5
100
AcDbCellStyleMap
 90
        3
300
CELLSTYLE
  1
TABLEFORMAT_BEGIN
 90
        5
170
     1
 91
        0
 92
    32768
 62
   257
 93
        1
300
CONTENTFORMAT
  1
CONTENTFORMAT_BEGIN
 90
        0
 91
        0
 92
      512
 93
        0
300

 40
0.0
140
1.0
 94
        5
 62
     0
340
11
144
6.0
309
CONTENTFORMAT_END
171
     1
301
MARGIN
  1
CELLMARGIN_BEGIN
 40
1.5
 40
1.5
 40
1.5
 40
1.5
 40
0.18
 40
0.18
309
CELLMARGIN_END
 94
        6
 95
        1
302
GRIDFORMAT
  1
GRIDFORMAT_BEGIN
 90
        0
 91
        1
 62
     0
 92
       -2
340
0
 93
        0
 40
0.045
309
GRIDFORMAT_END
 95
        2
302
GRIDFORMAT
  1
GRIDFORMAT_BEGIN
 90
        0
 91
        1
 62
     0
 92
       -2
340
0
 93
        0
 40
0.045
309
GRIDFORMAT_END
 95
        4
302
GRIDFORMAT
  1
GRIDFORMAT_BEGIN
 90
        0
 91
        1
 62
     0
 92
       -2
340
0
 93
        0
 40
0.045
309
GRIDFORMAT_END
 95
        8
302
GRIDFORMAT
  1
GRIDFORMAT_BEGIN
 90
        0
 91
        1
 62
     0
 92
       -2
340
0
 93
        0
 40
0.045
309
GRIDFORMAT_END
 95
       16
302
GRIDFORMAT
  1
GRIDFORMAT_BEGIN
 90
        0
 91
        1
 62
     0
 92
       -2
340
0
 93
        0
 40
0.045
309
GRIDFORMAT_END
 95
       32
302
GRIDFORMAT
  1
GRIDFORMAT_BEGIN
 90
        0
 91
        1
 62
     0
 92
       -2
340
0
 93
        0
 40
0.045
309
GRIDFORMAT_END
309
TABLEFORMAT_END
  1
CELLSTYLE_BEGIN
 90
        1
 91
        1
300
_TITLE
309
CELLSTYLE_END
300
CELLSTYLE
  1
TABLEFORMAT_BEGIN
 90
        5
170
     1
 91
        0
 92
        0
 62
   257
 93
        1
300
CONTENTFORMAT
  1
CONTENTFORMAT_BEGIN
 90
        0
 91
        0
 92
      512
 93
        0
300

 40
0.0
140
1.0
 94
        5
 62
     0
340
11
144
4.5
309
CONTENTFORMAT_END
171
     1
301
MARGIN
  1
CELLMARGIN_BEGIN
 40
1.5
 40
1.5
 40
1.5
 40
1.5
 40
0.18
 40
0.18
309
CELLMARGIN_END
 94
        6
 95
        1
302
GRIDFORMAT
  1
GRIDFORMAT_BEGIN
 90
        0
 91
        1
 62
     0
 92
       -2
340
0
 93
        0
 40
0.045
309
GRIDFORMAT_END
 95
        2
302
GRIDFORMAT
  1
GRIDFORMAT_BEGIN
 90
        0
 91
        1
 62
     0
 92
       -2
340
0
 93
        0
 40
0.045
309
GRIDFORMAT_END
 95
        4
302
GRIDFORMAT
  1
GRIDFORMAT_BEGIN
 90
        0
 91
        1
 62
     0
 92
       -2
340
0
 93
        0
 40
0.045
309
GRIDFORMAT_END
 95
        8
302
GRIDFORMAT
  1
GRIDFORMAT_BEGIN
 90
        0
 91
        1
 62
     0
 92
       -2
340
0
 93
        0
 40
0.045
309
GRIDFORMAT_END
 95
       16
302
GRIDFORMAT
  1
GRIDFORMAT_BEGIN
 90
        0
 91
        1
 62
     0
 92
       -2
340
0
 93
        0
 40
0.045
309
GRIDFORMAT_END
 95
       32
302
GRIDFORMAT
  1
GRIDFORMAT_BEGIN
 90
        0
 91
        1
 62
     0
 92
       -2
340
0
 93
        0
 40
0.045
309
GRIDFORMAT_END
309
TABLEFORMAT_END
  1
CELLSTYLE_BEGIN
 90
        2
 91
        1
300
_HEADER
309
CELLSTYLE_END
300
CELLSTYLE
  1
TABLEFORMAT_BEGIN
 90
        5
170
     1
 91
        0
 92
        0
 62
   257
 93
        1
300
CONTENTFORMAT
  1
CONTENTFORMAT_BEGIN
 90
        0
 91
        0
 92
      512
 93
        0
300

 40
0.0
140
1.0
 94
        2
 62
     0
340
11
144
4.5
309
CONTENTFORMAT_END
171
     1
301
MARGIN
  1
CELLMARGIN_BEGIN
 40
1.5
 40
1.5
 40
1.5
 40
1.5
 40
0.18
 40
0.18
309
CELLMARGIN_END
 94
        6
 95
        1
302
GRIDFORMAT
  1
GRIDFORMAT_BEGIN
 90
        0
 91
        1
 62
     0
 92
       -2
340
0
 93
        0
 40
0.045
309
GRIDFORMAT_END
 95
        2
302
GRIDFORMAT
  1
GRIDFORMAT_BEGIN
 90
        0
 91
        1
 62
     0
 92
       -2
340
0
 93
        0
 40
0.045
309
GRIDFORMAT_END
 95
        4
302
GRIDFORMAT
  1
GRIDFORMAT_BEGIN
 90
        0
 91
        1
 62
     0
 92
       -2
340
0
 93
        0
 40
0.045
309
GRIDFORMAT_END
 95
        8
302
GRIDFORMAT
  1
GRIDFORMAT_BEGIN
 90
        0
 91
        1
 62
     0
 92
       -2
340
0
 93
        0
 40
0.045
309
GRIDFORMAT_END
 95
       16
302
GRIDFORMAT
  1
GRIDFORMAT_BEGIN
 90
        0
 91
        1
 62
     0
 92
       -2
340
0
 93
        0
 40
0.045
309
GRIDFORMAT_END
 95
       32
302
GRIDFORMAT
  1
GRIDFORMAT_BEGIN
 90
        0
 91
        1
 62
     0
 92
       -2
340
0
 93
        0
 40
0.045
309
GRIDFORMAT_END
309
TABLEFORMAT_END
  1
CELLSTYLE_BEGIN
 90
        3
 91
        2
300
_DATA
309
CELLSTYLE_END
  0
ENDSEC
  0
EOF
