  0
SECTION
  2
HEADER
  9
$ACADVER
  1
AC1021
  9
$ACADMAINTVER
 70
    26
  9
$DWGCODEPAGE
  3
ANSI_932
  9
$LASTSAVEDBY
  1
Htm_Terada
  9
$CUSTOMPROPERTYTAG
  1
AmdtFileType
  9
$CUSTOMPROPERTY
  1
84
  9
$INSBASE
 10
0.0
 20
0.0
 30
0.0
  9
$EXTMIN
 10
158.7691391059654
 20
239.3698317483901
 30
0.0
  9
$EXTMAX
 10
495.2884520035122
 20
400.3746412108901
 30
0.0
  9
$LIMMIN
 10
0.0000002871507832
 20
0.0000005540730967
  9
$LIMMAX
 10
630.0000002871508
 20
445.5000005540731
  9
$ORTHOMODE
 70
     0
  9
$REGENMODE
 70
     1
  9
$FILLMODE
 70
     1
  9
$QTEXTMODE
 70
     0
  9
$MIRRTEXT
 70
     1
  9
$LTSCALE
 40
1.5
  9
$ATTMODE
 70
     1
  9
$TEXTSIZE
 40
25.0
  9
$TRACEWID
 40
1.0
  9
$TEXTSTYLE
  7
SEISA
  9
$CLAYER
  8
AM_0 外形線1
  9
$CELTYPE
  6
ByLayer
  9
$CECOLOR
 62
   256
  9
$CELTSCALE
 40
1.0
  9
$DISPSILH
 70
     0
  9
$DIMSCALE
 40
1.5
  9
$DIMASZ
 40
2.5
  9
$DIMEXO
 40
0.625
  9
$DIMDLI
 40
10.0
  9
$DIMRND
 40
0.0
  9
$DIMDLE
 40
0.0
  9
$DIMEXE
 40
0.625
  9
$DIMTP
 40
0.1
  9
$DIMTM
 40
0.1
  9
$DIMTXT
 40
3.5
  9
$DIMCEN
 40
0.0
  9
$DIMTSZ
 40
0.0
  9
$DIMTOL
 70
     0
  9
$DIMLIM
 70
     0
  9
$DIMTIH
 70
     0
  9
$DIMTOH
 70
     0
  9
$DIMSE1
 70
     0
  9
$DIMSE2
 70
     0
  9
$DIMTAD
 70
     3
  9
$DIMZIN
 70
     8
  9
$DIMBLK
  1
Open30
  9
$DIMASO
 70
     1
  9
$DIMSHO
 70
     1
  9
$DIMPOST
  1

  9
$DIMAPOST
  1
"
  9
$DIMALT
 70
     0
  9
$DIMALTD
 70
     2
  9
$DIMALTF
 40
0.0393701
  9
$DIMLFAC
 40
1.0
  9
$DIMTOFL
 70
     1
  9
$DIMTVP
 40
0.0
  9
$DIMTIX
 70
     0
  9
$DIMSOXD
 70
     0
  9
$DIMSAH
 70
     0
  9
$DIMBLK1
  1

  9
$DIMBLK2
  1

  9
$DIMSTYLE
  2
SEISA
  9
$DIMCLRD
 70
     3
  9
$DIMCLRE
 70
     3
  9
$DIMCLRT
 70
     3
  9
$DIMTFAC
 40
0.71
  9
$DIMGAP
 40
1.5
  9
$DIMJUST
 70
     0
  9
$DIMSD1
 70
     0
  9
$DIMSD2
 70
     0
  9
$DIMTOLJ
 70
     0
  9
$DIMTZIN
 70
     0
  9
$DIMALTZ
 70
     0
  9
$DIMALTTZ
 70
     8
  9
$DIMUPT
 70
     0
  9
$DIMDEC
 70
     2
  9
$DIMTDEC
 70
     2
  9
$DIMALTU
 70
     2
  9
$DIMALTTD
 70
     2
  9
$DIMTXSTY
  7
SEISA
  9
$DIMAUNIT
 70
     0
  9
$DIMADEC
 70
     0
  9
$DIMALTRND
 40
0.0
  9
$DIMAZIN
 70
     2
  9
$DIMDSEP
 70
    46
  9
$DIMATFIT
 70
     3
  9
$DIMFRAC
 70
     0
  9
$DIMLDRBLK
  1
Open30
  9
$DIMLUNIT
 70
     2
  9
$DIMLWD
 70
    -1
  9
$DIMLWE
 70
    -1
  9
$DIMTMOVE
 70
     0
  9
$DIMFXL
 40
1.0
  9
$DIMFXLON
 70
     0
  9
$DIMJOGANG
 40
0.7853981633974483
  9
$DIMTFILL
 70
     0
  9
$DIMTFILLCLR
 70
     0
  9
$DIMARCSYM
 70
     1
  9
$DIMLTYPE
  6

  9
$DIMLTEX1
  6

  9
$DIMLTEX2
  6

  9
$LUNITS
 70
     2
  9
$LUPREC
 70
     2
  9
$SKETCHINC
 40
1.0
  9
$FILLETRAD
 40
0.25
  9
$AUNITS
 70
     0
  9
$AUPREC
 70
     0
  9
$MENU
  1
.
  9
$ELEVATION
 40
0.0
  9
$PELEVATION
 40
0.0
  9
$THICKNESS
 40
0.0
  9
$LIMCHECK
 70
     0
  9
$CHAMFERA
 40
1.0
  9
$CHAMFERB
 40
1.000000000000027
  9
$CHAMFERC
 40
1.0
  9
$CHAMFERD
 40
0.7853981633974199
  9
$SKPOLY
 70
     0
  9
$TDCREATE
 40
2454960.455254086
  9
$TDUCREATE
 40
2454960.080254086
  9
$TDUPDATE
 40
2456479.579669410
  9
$TDUUPDATE
 40
2456479.204669410
  9
$TDINDWG
 40
0.2704061690
  9
$TDUSRTIMER
 40
0.2704047222
  9
$USRTIMER
 70
     1
  9
$ANGBASE
 50
0.0
  9
$ANGDIR
 70
     0
  9
$PDMODE
 70
     0
  9
$PDSIZE
 40
0.0
  9
$PLINEWID
 40
0.0
  9
$SPLFRAME
 70
     0
  9
$SPLINETYPE
 70
     6
  9
$SPLINESEGS
 70
     8
  9
$HANDSEED
  5
97A0
  9
$SURFTAB1
 70
     6
  9
$SURFTAB2
 70
     6
  9
$SURFTYPE
 70
     6
  9
$SURFU
 70
     6
  9
$SURFV
 70
     6
  9
$UCSBASE
  2

  9
$UCSNAME
  2

  9
$UCSORG
 10
0.0
 20
0.0
 30
0.0
  9
$UCSXDIR
 10
1.0
 20
0.0
 30
0.0
  9
$UCSYDIR
 10
0.0
 20
1.0
 30
0.0
  9
$UCSORTHOREF
  2

  9
$UCSORTHOVIEW
 70
     0
  9
$UCSORGTOP
 10
0.0
 20
0.0
 30
0.0
  9
$UCSORGBOTTOM
 10
0.0
 20
0.0
 30
0.0
  9
$UCSORGLEFT
 10
0.0
 20
0.0
 30
0.0
  9
$UCSORGRIGHT
 10
0.0
 20
0.0
 30
0.0
  9
$UCSORGFRONT
 10
0.0
 20
0.0
 30
0.0
  9
$UCSORGBACK
 10
0.0
 20
0.0
 30
0.0
  9
$PUCSBASE
  2

  9
$PUCSNAME
  2

  9
$PUCSORG
 10
0.0
 20
0.0
 30
0.0
  9
$PUCSXDIR
 10
1.0
 20
0.0
 30
0.0
  9
$PUCSYDIR
 10
0.0
 20
1.0
 30
0.0
  9
$PUCSORTHOREF
  2

  9
$PUCSORTHOVIEW
 70
     0
  9
$PUCSORGTOP
 10
0.0
 20
0.0
 30
0.0
  9
$PUCSORGBOTTOM
 10
0.0
 20
0.0
 30
0.0
  9
$PUCSORGLEFT
 10
0.0
 20
0.0
 30
0.0
  9
$PUCSORGRIGHT
 10
0.0
 20
0.0
 30
0.0
  9
$PUCSORGFRONT
 10
0.0
 20
0.0
 30
0.0
  9
$PUCSORGBACK
 10
0.0
 20
0.0
 30
0.0
  9
$USERI1
 70
     0
  9
$USERI2
 70
     0
  9
$USERI3
 70
     0
  9
$USERI4
 70
     0
  9
$USERI5
 70
     0
  9
$USERR1
 40
0.0
  9
$USERR2
 40
0.0
  9
$USERR3
 40
0.0
  9
$USERR4
 40
0.0
  9
$USERR5
 40
0.0
  9
$WORLDVIEW
 70
     1
  9
$SHADEDGE
 70
     3
  9
$SHADEDIF
 70
    70
  9
$TILEMODE
 70
     1
  9
$MAXACTVP
 70
    64
  9
$PINSBASE
 10
0.0
 20
0.0
 30
0.0
  9
$PLIMCHECK
 70
     0
  9
$PEXTMIN
 10
1.000000000000000E+20
 20
1.000000000000000E+20
 30
1.000000000000000E+20
  9
$PEXTMAX
 10
-1.000000000000000E+20
 20
-1.000000000000000E+20
 30
-1.000000000000000E+20
  9
$PLIMMIN
 10
0.0
 20
0.0
  9
$PLIMMAX
 10
420.0
 20
297.0
  9
$UNITMODE
 70
     0
  9
$VISRETAIN
 70
     1
  9
$PLINEGEN
 70
     0
  9
$PSLTSCALE
 70
     1
  9
$TREEDEPTH
 70
  3020
  9
$CMLSTYLE
  2
Standard
  9
$CMLJUST
 70
     0
  9
$CMLSCALE
 40
20.0
  9
$PROXYGRAPHICS
 70
     1
  9
$MEASUREMENT
 70
     1
  9
$CELWEIGHT
370
    -1
  9
$ENDCAPS
280
     0
  9
$JOINSTYLE
280
     0
  9
$LWDISPLAY
290
     0
  9
$INSUNITS
 70
     4
  9
$HYPERLINKBASE
  1

  9
$STYLESHEET
  1
SEISA.CTB
  9
$XEDIT
290
     1
  9
$CEPSNTYPE
380
     0
  9
$PSTYLEMODE
290
     1
  9
$FINGERPRINTGUID
  2
{7BF2BA51-44B8-40CB-9BB1-FA5EB8FFFA5E}
  9
$VERSIONGUID
  2
{9C0BCBB9-801F-4818-85EE-95AF75A12DAB}
  9
$EXTNAMES
290
     1
  9
$PSVPSCALE
 40
0.0
  9
$OLESTARTUP
290
     0
  9
$SORTENTS
280
   127
  9
$INDEXCTL
280
     0
  9
$HIDETEXT
280
     0
  9
$XCLIPFRAME
290
     0
  9
$HALOGAP
280
     0
  9
$OBSCOLOR
 70
   257
  9
$OBSLTYPE
280
     0
  9
$INTERSECTIONDISPLAY
280
     0
  9
$INTERSECTIONCOLOR
 70
   257
  9
$DIMASSOC
280
     2
  9
$PROJECTNAME
  1

  9
$CAMERADISPLAY
290
     0
  9
$LENSLENGTH
 40
50.0
  9
$CAMERAHEIGHT
 40
0.0
  9
$STEPSPERSEC
 40
2.0
  9
$STEPSIZE
 40
6.0
  9
$3DDWFPREC
 40
2.0
  9
$PSOLWIDTH
 40
0.25
  9
$PSOLHEIGHT
 40
4.0
  9
$LOFTANG1
 40
1.570796326794896
  9
$LOFTANG2
 40
1.570796326794896
  9
$LOFTMAG1
 40
0.0
  9
$LOFTMAG2
 40
0.0
  9
$LOFTPARAM
 70
     7
  9
$LOFTNORMALS
280
     1
  9
$LATITUDE
 40
37.795
  9
$LONGITUDE
 40
-122.394
  9
$NORTHDIRECTION
 40
0.0
  9
$TIMEZONE
 70
 -8000
  9
$LIGHTGLYPHDISPLAY
280
     1
  9
$TILEMODELIGHTSYNCH
280
     1
  9
$CMATERIAL
347
27C
  9
$SOLIDHIST
280
     1
  9
$SHOWHIST
280
     1
  9
$DWFFRAME
280
     2
  9
$DGNFRAME
280
     0
  9
$REALWORLDSCALE
290
     1
  9
$INTERFERECOLOR
 62
     1
  9
$INTERFEREOBJVS
345
289
  9
$INTERFEREVPVS
346
286
  9
$CSHADOW
280
     0
  9
$SHADOWPLANELOCATION
 40
0.0
  0
ENDSEC
  0
SECTION
  2
CLASSES
  0
CLASS
  1
ACDBDICTIONARYWDFLT
  2
AcDbDictionaryWithDefault
  3
ObjectDBX Classes
 90
        0
 91
        1
280
     0
281
     0
  0
CLASS
  1
AMGSETTINGSOBJ
  2
AmgSettingsObj
  3
"AcadM|Product Description: AutoCAD Mechanical|Company: Autodesk, Inc."
 90
     1024
 91
        2
280
     0
281
     0
  0
CLASS
  1
ACME_DOCUMENT
  2
AcMeDbDoc
  3
AcMeServices
 90
     1024
 91
        1
280
     0
281
     0
  0
CLASS
  1
ACMESCOPE
  2
AcMeScope
  3
AcMeServices
 90
     1024
 91
        1
280
     0
281
     0
  0
CLASS
  1
ACMECOMMANDHISTORY
  2
AcMeCommandHistory
  3
AcMeServices
 90
     1024
 91
        1
280
     0
281
     0
  0
CLASS
  1
DICTIONARYVAR
  2
AcDbDictionaryVar
  3
ObjectDBX Classes
 90
        0
 91
        9
280
     0
281
     0
  0
CLASS
  1
ACIMSYSVARMAN
  2
AcImSysVarManager
  3
AcMeServices
 90
     1024
 91
        5
280
     0
281
     0
  0
CLASS
  1
ACIMREALSYSVAR
  2
AcImRealSysVar
  3
AcMeServices
 90
     1024
 91
        1
280
     0
281
     0
  0
CLASS
  1
ACIMINTSYSVAR
  2
AcImIntSysVar
  3
AcMeServices
 90
     1024
 91
       27
280
     0
281
     0
  0
CLASS
  1
ACMEDRAWINGMAN
  2
AcMeDrawingMan
  3
AcMeServices
 90
     1024
 91
        1
280
     0
281
     0
  0
CLASS
  1
ACMEVIEW
  2
AcMeView
  3
AcMeServices
 90
     1024
 91
        1
280
     0
281
     0
  0
CLASS
  1
ACDBENTITYCACHE
  2
AcMeEntityCache
  3
AcMeServices
 90
     1024
 91
        1
280
     0
281
     0
  0
CLASS
  1
GSMANAGER
  2
AcMeGSManager
  3
AcMeServices
 90
     1024
 91
        1
280
     0
281
     0
  0
CLASS
  1
AMDTINTERNALREACTOR
  2
AmdtInternalReactor
  3
AcMeServices
 90
     1024
 91
        2
280
     0
281
     0
  0
CLASS
  1
ACMESTATEMGR
  2
AcMeStateMgr
  3
AcMeServices
 90
     1024
 91
        1
280
     0
281
     0
  0
CLASS
  1
ACGREFMASTER
  2
AcGrefMaster
  3
AcAttribServices
 90
     1024
 91
        1
280
     0
281
     0
  0
CLASS
  1
ACME_DATABASE
  2
AcMeDbDatabase
  3
AcMeServices
 90
     1024
 91
        1
280
     0
281
     0
  0
CLASS
  1
ACRFINSADJUSTERMGR
  2
AcRfInsAdjusterMgr
  3
AcMeServices
 90
     1024
 91
        1
280
     0
281
     0
  0
CLASS
  1
ACGREFACADMASTER
  2
AcGrefacadMaster
  3
AcGrefServices
 90
     1024
 91
        1
280
     0
281
     0
  0
CLASS
  1
AMIMASTER
  2
AmiMaster
  3
AmiServices
 90
     1024
 91
        1
280
     0
281
     0
  0
CLASS
  1
ACIMSTRSYSVAR
  2
AcImStrSysVar
  3
AcMeServices
 90
     1024
 91
        5
280
     0
281
     0
  0
CLASS
  1
ACMSTANDARDJIS
  2
AcmStandardJIS
  3
"Amdt_StdImp|Product Description: AutoCAD Mechanical|Company: Autodesk, Inc."
 90
     1024
 91
        0
280
     0
281
     0
  0
CLASS
  1
AMGOBJPROPCFG
  2
AmgObjPropCfg
  3
"AmgLay|Product Description: AutoCAD Mechanical|Company: Autodesk, Inc."
 90
     1025
 91
        1
280
     0
281
     0
  0
CLASS
  1
ACMSURFSTANDARDJIS
  2
AcmSurfTextStdJIS
  3
"Amdt_StdImp|Product Description: AutoCAD Mechanical|Company: Autodesk, Inc."
 90
     1024
 91
        0
280
     0
281
     0
  0
CLASS
  1
ACMFCFSTANDARDJIS
  2
AcmFCFStdJIS
  3
"Amdt_StdImp|Product Description: AutoCAD Mechanical|Company: Autodesk, Inc."
 90
     1024
 91
        0
280
     0
281
     0
  0
CLASS
  1
ACMWELDSTANDARDJIS
  2
AcmWeldingStdJIS
  3
"Amdt_StdImp|Product Description: AutoCAD Mechanical|Company: Autodesk, Inc."
 90
     1024
 91
        0
280
     0
281
     0
  0
CLASS
  1
ACMIDSTANDARDJIS
  2
AcmIdStdJIS
  3
"Amdt_StdImp|Product Description: AutoCAD Mechanical|Company: Autodesk, Inc."
 90
     1024
 91
        0
280
     0
281
     0
  0
CLASS
  1
ACMDATUMSTANDARDJIS
  2
AcmDatumStdJIS
  3
"Amdt_StdImp|Product Description: AutoCAD Mechanical|Company: Autodesk, Inc."
 90
     1024
 91
        0
280
     0
281
     0
  0
CLASS
  1
ACMBOMSTANDARDJIS
  2
AcmBOMStdJIS
  3
"Amdt_StdImp|Product Description: AutoCAD Mechanical|Company: Autodesk, Inc."
 90
     1024
 91
        0
280
     0
281
     0
  0
CLASS
  1
ACMDETAILSTANDARDJIS
  2
AmdtDetailSymStdJIS
  3
"Amdt_StdImp|Product Description: AutoCAD Mechanical|Company: Autodesk, Inc."
 90
     1024
 91
        0
280
     0
281
     0
  0
CLASS
  1
ACMSECTIONSTANDARDJIS
  2
AmdtSectionSymStdJIS
  3
"Amdt_StdImp|Product Description: AutoCAD Mechanical|Company: Autodesk, Inc."
 90
     1024
 91
        0
280
     0
281
     0
  0
CLASS
  1
ACMCENTERLINESTANDARDJIS
  2
AmdtCenterLineStdJIS
  3
"Amdt_StdImp|Product Description: AutoCAD Mechanical|Company: Autodesk, Inc."
 90
     1024
 91
        0
280
     0
281
     0
  0
CLASS
  1
ACMTHREADLINESTANDARDJIS
  2
AmdtThreadLineStdJIS
  3
"Amdt_StdImp|Product Description: AutoCAD Mechanical|Company: Autodesk, Inc."
 90
     1024
 91
        0
280
     0
281
     0
  0
CLASS
  1
ACAMGLAYSTD
  2
AcAmgLayStd
  3
"AmgLay|Product Description: AutoCAD Mechanical|Company: Autodesk, Inc."
 90
     1024
 91
        1
280
     0
281
     0
  0
CLASS
  1
ACAMGDIMSTD
  2
AcAmgDimStd
  3
"AmgDim|Product Description: AutoCAD Mechanical|Company: Autodesk, Inc."
 90
     1024
 91
        1
280
     0
281
     0
  0
CLASS
  1
ACAMGTITLESTD
  2
AcAmgTitleStd
  3
"AmgTitle|Product Description: AutoCAD Mechanical|Company: Autodesk, Inc."
 90
     4095
 91
        1
280
     0
281
     0
  0
CLASS
  1
ACMDATADICTIONARY
  2
AcmDataDictionary
  3
"AcmSymBB|Product Description: AutoCAD Mechanical|Company: Autodesk, Inc."
 90
     1024
 91
        1
280
     0
281
     0
  0
CLASS
  1
ACMDATAENTRYBLOCK
  2
AcmDataEntryBlock
  3
AcmSymBB|Product Description: AutoCAD Mechanical|Company: Autodesk, Inc.
 90
     1024
 91
        0
280
     0
281
     0
  0
CLASS
  1
LAYER_INDEX
  2
AcDbLayerIndex
  3
ObjectDBX Classes
 90
        0
 91
        0
280
     0
281
     0
  0
CLASS
  1
IDBUFFER
  2
AcDbIdBuffer
  3
ObjectDBX Classes
 90
        0
 91
        0
280
     0
281
     0
  0
CLASS
  1
ACMNOTESTANDARDJIS
  2
AmdtNoteStdJIS
  3
"Amdt_StdImp|Product Description: AutoCAD Mechanical|Company: Autodesk, Inc."
 90
     1024
 91
        0
280
     0
281
     0
  0
CLASS
  1
ACAMGHOLECHARTSTDJIS
  2
AcAmgHoleChartStdJIS
  3
AmgDim|Product Description: AutoCAD Mechanical|Company: Autodesk, Inc.
 90
     1024
 91
        0
280
     0
281
     0
  0
CLASS
  1
AM_DRAWING_MGR
  2
AcDmDwgMgr
  3
AcMechDwgViewMgmt
 90
     1024
 91
        1
280
     0
281
     0
  0
CLASS
  1
AM_DWG_DOCUMENT
  2
AcDmDwgDocument
  3
AcMechDwgViewMgmt
 90
     1024
 91
        1
280
     0
281
     0
  0
CLASS
  1
AM_DWG_SHEET
  2
AcDmSheet
  3
AcMechDwgViewMgmt
 90
     1024
 91
        2
280
     0
281
     0
  0
CLASS
  1
AM_VIEWDIMPARMAP
  2
AcDmViewDimParMap
  3
AcMechDwgViewMgmt
 90
     1024
 91
        2
280
     0
281
     0
  0
CLASS
  1
AM_DWGMGR_NAME
  2
AcDmDwgMgrName
  3
AcMechDwgViewMgmt
 90
     1024
 91
        1
280
     0
281
     0
  0
CLASS
  1
AMDTMENUSTATEMGR
  2
AmdtMenuStateMgr
  3
McadcomServices
 90
     1024
 91
        1
280
     0
281
     0
  0
CLASS
  1
AMDTMCOMMENUSTATE
  2
AmdtMcomMenuState
  3
McadcomServices
 90
     1024
 91
        1
280
     0
281
     0
  0
CLASS
  1
MAPIAMMOUDLE
  2
MApiAmModule
  3
MApiAmServices
 90
     1024
 91
        1
280
     0
281
     0
  0
CLASS
  1
AMDTADMENUSTATE
  2
AmdtAdMenuState
  3
DesignerServices
 90
     1024
 91
        1
280
     0
281
     0
  0
CLASS
  1
ADAPPL
  2
AcAdAppl
  3
DesignerServices
 90
     1024
 91
        1
280
     0
281
     0
  0
CLASS
  1
DEPMGR
  2
AcAdDepMgr
  3
DesignerServices
 90
     1024
 91
        1
280
     0
281
     0
  0
CLASS
  1
PARAMMGR
  2
AcAdParamMgr
  3
DesignerServices
 90
     1024
 91
        1
280
     0
281
     0
  0
CLASS
  1
PARAMSCOPE
  2
AcAdParamScope
  3
DesignerServices
 90
     1024
 91
        1
280
     0
281
     0
  0
CLASS
  1
NAMEDAPPL
  2
AcAdNamedAppl
  3
DesignerServices
 90
     1024
 91
        1
280
     0
281
     0
  0
CLASS
  1
AMDTDMMENUSTATE
  2
AmdtDmMenuState
  3
AcMechDwgViewMgmt
 90
     1024
 91
        1
280
     0
281
     0
  0
CLASS
  1
AMDTAMMENUSTATE
  2
AmdtAmMenuState
  3
DesignerAssemblies
 90
     1024
 91
        1
280
     0
281
     0
  0
CLASS
  1
ACAMPROJECT
  2
AcAmProject
  3
DesignerAssemblies
 90
     1024
 91
        1
280
     0
281
     0
  0
CLASS
  1
ACAMGRCOMPDEF
  2
AcAmGrCompDef
  3
DesignerAssemblies
 90
     1024
 91
        1
280
     0
281
     0
  0
CLASS
  1
ACCMCONTEXT
  2
AcCmContext
  3
DesignerAssemblies
 90
     1024
 91
        1
280
     0
281
     0
  0
CLASS
  1
ACAMCOMPDEF
  2
AcAmCompDef
  3
DesignerAssemblies
 90
     1024
 91
        1
280
     0
281
     0
  0
CLASS
  1
ACAMCOMPDEFMGR
  2
AcAmCompDefMgr
  3
DesignerAssemblies
 90
     1024
 91
        1
280
     0
281
     0
  0
CLASS
  1
AMCONTEXTMGR
  2
AcAmContextMgr
  3
DesignerAssemblies
 90
     1024
 91
        1
280
     0
281
     0
  0
CLASS
  1
ACAMCONTEXTMODELER
  2
AcAmContextModeler
  3
DesignerAssemblies
 90
     1024
 91
        1
280
     0
281
     0
  0
CLASS
  1
CATALOGSTATE
  2
AcAmCatalogState
  3
DesignerAssemblies
 90
     1024
 91
        1
280
     0
281
     0
  0
CLASS
  1
ACAMGRCOMPDEFSET
  2
AcAmGrCompDefSet
  3
DesignerAssemblies
 90
     1024
 91
        1
280
     0
281
     0
  0
CLASS
  1
AMDTBROWSERDBTAB
  2
AmdtBrowserDbTab
  3
McadcomServices
 90
     1024
 91
        1
280
     0
281
     0
  0
CLASS
  1
CBROWSERAPPOBJECT
  2
CBrowserAppObject
  3
McadcomServices
 90
     1024
 91
        3
280
     0
281
     0
  0
CLASS
  1
DM_PLACEHOLDER
  2
AcDmSelsetPlaceholder
  3
AcMechDwgViewMgmt
 90
     1024
 91
        1
280
     0
281
     0
  0
CLASS
  1
TABLESTYLE
  2
AcDbTableStyle
  3
ObjectDBX Classes
 90
     4095
 91
        1
280
     0
281
     0
  0
CLASS
  1
VAACXREFPANELOBJECT
  2
VaAcXREFPanelObject
  3
VAAC_ADDIN
 90
        0
 91
        0
280
     0
281
     0
  0
CLASS
  1
VAACIMAGEINVENTORY
  2
VaAcImageInventory
  3
VAAC_ADDIN
 90
        0
 91
        0
280
     0
281
     0
  0
CLASS
  1
AMDTNOTETEMPLATEDB
  2
AmdtNoteTemplateDB
  3
AcmSymBB|Product Description: AutoCAD Mechanical|Company: Autodesk, Inc.
 90
     1024
 91
        6
280
     0
281
     0
  0
CLASS
  1
ACAMGFILTERDAT
  2
AcAmgFilterDat
  3
"AcadM|Product Description: AutoCAD Mechanical|Company: Autodesk, Inc."
 90
     1024
 91
        0
280
     0
281
     0
  0
CLASS
  1
MATERIAL
  2
AcDbMaterial
  3
ObjectDBX Classes
 90
     1153
 91
        3
280
     0
281
     0
  0
CLASS
  1
VISUALSTYLE
  2
AcDbVisualStyle
  3
ObjectDBX Classes
 90
     4095
 91
       16
280
     0
281
     0
  0
CLASS
  1
ACRFATTGENMGR
  2
AcRfAttGeneralMgr
  3
AcAttribServices
 90
     1024
 91
        0
280
     0
281
     0
  0
CLASS
  1
ACRFOBJATTMGR
  2
AcRfObjAttGroupMgr
  3
AcAttribServices
 90
     1024
 91
        0
280
     0
281
     0
  0
CLASS
  1
ACRFMCADAPIATTHOLDER
  2
AcRfMCADAPIAttHolder
  3
AcAttribServices
 90
     1024
 91
        0
280
     0
281
     0
  0
CLASS
  1
AMDTSYSATTR
  2
AmdtSystemAttribute
  3
AcAttribServices
 90
     1024
 91
        0
280
     0
281
     0
  0
CLASS
  1
ACMTAPERSTANDARDJIS
  2
AcmTaperStdJIS
  3
"Amdt_StdImp|Product Description: AutoCAD Mechanical|Company: Autodesk, Inc."
 90
     1024
 91
        0
280
     0
281
     0
  0
CLASS
  1
CAMSSTRUCTBTNSTATE
  2
StructBtnState
  3
DesignerAssemblies
 90
     1024
 91
        0
280
     0
281
     0
  0
CLASS
  1
SCALE
  2
AcDbScale
  3
ObjectDBX Classes
 90
     1153
 91
       34
280
     0
281
     0
  0
CLASS
  1
MLEADERSTYLE
  2
AcDbMLeaderStyle
  3
ACDB_MLEADERSTYLE_CLASS
 90
     4095
 91
        1
280
     0
281
     0
  0
CLASS
  1
ACMANOOTATIONVIEWSTANDARDJIS
  2
AmdtAnViewStdJIS
  3
"Amdt_StdImp|Product Description: AutoCAD Mechanical|Company: Autodesk, Inc."
 90
     1024
 91
        0
280
     0
281
     0
  0
CLASS
  1
ACMSURFSTANDARDJIS2003
  2
AcmSurfTextStdJIS2003
  3
"Amdt_StdImp|Product Description: AutoCAD Mechanical|Company: Autodesk, Inc."
 90
     1024
 91
        0
280
     0
281
     0
  0
CLASS
  1
CELLSTYLEMAP
  2
AcDbCellStyleMap
  3
ObjectDBX Classes
 90
     1152
 91
        2
280
     0
281
     0
  0
CLASS
  1
ACMFCFSTANDARDJIS98
  2
AcmFCFStdJIS98
  3
"Amdt_StdImp|Product Description: AutoCAD Mechanical|Company: Autodesk, Inc."
 90
     1024
 91
        0
280
     0
281
     0
  0
CLASS
  1
SORTENTSTABLE
  2
AcDbSortentsTable
  3
ObjectDBX Classes
 90
        0
 91
       13
280
     0
281
     0
  0
CLASS
  1
DIMASSOC
  2
AcDbDimAssoc
  3
"AcDbDimAssoc|Product Desc:     AcDim ARX App For Dimension|Company:          Autodesk, Inc.|WEB Address:      www.autodesk.com"
 90
        0
 91
       18
280
     0
281
     0
  0
CLASS
  1
STDPART2D
  2
AmgStdPart
  3
AmgStdPart|Product Description: AutoCAD Mechanical|Company: Autodesk, Inc.
 90
     4095
 91
        0
280
     0
281
     1
  0
CLASS
  1
ACMDATAENTRYPART
  2
AcmDataEntryPart
  3
AcmSymBB|Product Description: AutoCAD Mechanical|Company: Autodesk, Inc.
 90
     1024
 91
        0
280
     0
281
     0
  0
CLASS
  1
ACMPARTREF
  2
AcmPartRef
  3
"AcmSymBB|Product Description: AutoCAD Mechanical|Company: Autodesk, Inc."
 90
     4095
 91
        0
280
     0
281
     1
  0
CLASS
  1
ACDBSTDPARTRES_LINE
  2
AcDbStdPartRes_Line
  3
AmgStdPart|Product Description: AutoCAD Mechanical|Company: Autodesk, Inc.
 90
     1024
 91
        0
280
     0
281
     0
  0
CLASS
  1
ACMBOM
  2
AcmBom
  3
"AcmSymBB|Product Description: AutoCAD Mechanical|Company: Autodesk, Inc."
 90
     1024
 91
        0
280
     0
281
     0
  0
CLASS
  1
AMDTFORMULAUPDATEDISPATCHER
  2
AmdtFormulaUpdateDispatcher
  3
AcMeServices
 90
     1024
 91
        0
280
     0
281
     0
  0
CLASS
  1
ACMBOMROW
  2
AcmBomRow
  3
"AcmSymBB|Product Description: AutoCAD Mechanical|Company: Autodesk, Inc."
 90
     1024
 91
        0
280
     0
281
     0
  0
CLASS
  1
ACMPARTLIST
  2
AcmPartList
  3
"AcmSymBB|Product Description: AutoCAD Mechanical|Company: Autodesk, Inc."
 90
     4095
 91
        0
280
     0
281
     1
  0
CLASS
  1
ACDBLINERES
  2
AcDbLineRes
  3
AcGrefServices
 90
     1024
 91
        0
280
     0
281
     0
  0
CLASS
  1
ACRFINSADJ
  2
AcRfInsAdjuster
  3
AcMeServices
 90
     1024
 91
        0
280
     0
281
     0
  0
CLASS
  1
ACMSTANDARDISO
  2
AcmStandardISO
  3
"Amdt_StdImp|Product Description: AutoCAD Mechanical|Company: Autodesk, Inc."
 90
     1024
 91
        1
280
     0
281
     0
  0
CLASS
  1
AMDTEDGESTANDARDISO13715
  2
AmdtEdgeStdISO13715
  3
"Amdt_StdImp|Product Description: AutoCAD Mechanical|Company: Autodesk, Inc."
 90
     1024
 91
        1
280
     0
281
     0
  0
CLASS
  1
ACMSURFSTANDARDISO2002
  2
AcmSurfTextStdISO2002
  3
"Amdt_StdImp|Product Description: AutoCAD Mechanical|Company: Autodesk, Inc."
 90
     1024
 91
        1
280
     0
281
     0
  0
CLASS
  1
ACMFCFSTANDARDISO
  2
AcmFCFStdISO
  3
"Amdt_StdImp|Product Description: AutoCAD Mechanical|Company: Autodesk, Inc."
 90
     1024
 91
        1
280
     0
281
     0
  0
CLASS
  1
ACMWELDSTANDARDISO
  2
AcmWeldingStdISO
  3
"Amdt_StdImp|Product Description: AutoCAD Mechanical|Company: Autodesk, Inc."
 90
     1024
 91
        1
280
     0
281
     0
  0
CLASS
  1
ACMIDSTANDARDISO
  2
AcmIdStdISO
  3
"Amdt_StdImp|Product Description: AutoCAD Mechanical|Company: Autodesk, Inc."
 90
     1024
 91
        1
280
     0
281
     0
  0
CLASS
  1
ACMDATUMSTANDARDISO
  2
AcmDatumStdISO
  3
"Amdt_StdImp|Product Description: AutoCAD Mechanical|Company: Autodesk, Inc."
 90
     1024
 91
        1
280
     0
281
     0
  0
CLASS
  1
ACMBOMSTANDARDISO
  2
AcmBOMStdISO
  3
"Amdt_StdImp|Product Description: AutoCAD Mechanical|Company: Autodesk, Inc."
 90
     1024
 91
        1
280
     0
281
     0
  0
CLASS
  1
ACMDETAILSTANDARDISO
  2
AmdtDetailSymStdISO
  3
"Amdt_StdImp|Product Description: AutoCAD Mechanical|Company: Autodesk, Inc."
 90
     1024
 91
        1
280
     0
281
     0
  0
CLASS
  1
ACMSECTIONSTANDARDISO2001
  2
AmdtSectionSymStdISO2001
  3
"Amdt_StdImp|Product Description: AutoCAD Mechanical|Company: Autodesk, Inc."
 90
     1024
 91
        1
280
     0
281
     0
  0
CLASS
  1
ACMCENTERLINESTANDARDISO
  2
AmdtCenterLineStdISO
  3
"Amdt_StdImp|Product Description: AutoCAD Mechanical|Company: Autodesk, Inc."
 90
     1024
 91
        1
280
     0
281
     0
  0
CLASS
  1
ACMTHREADLINESTANDARDISO
  2
AmdtThreadLineStdISO
  3
"Amdt_StdImp|Product Description: AutoCAD Mechanical|Company: Autodesk, Inc."
 90
     1024
 91
        1
280
     0
281
     0
  0
CLASS
  1
ACMNOTESTANDARDISO
  2
AmdtNoteStdISO
  3
"Amdt_StdImp|Product Description: AutoCAD Mechanical|Company: Autodesk, Inc."
 90
     1024
 91
        1
280
     0
281
     0
  0
CLASS
  1
ACMTAPERSTANDARDISO
  2
AcmTaperStdISO
  3
"Amdt_StdImp|Product Description: AutoCAD Mechanical|Company: Autodesk, Inc."
 90
     1024
 91
        1
280
     0
281
     0
  0
CLASS
  1
ACMANOOTATIONVIEWSTANDARDISO
  2
AmdtAnViewStdISO
  3
"Amdt_StdImp|Product Description: AutoCAD Mechanical|Company: Autodesk, Inc."
 90
     1024
 91
        1
280
     0
281
     0
  0
CLASS
  1
ACAMGHOLECHARTSTDISO
  2
AcAmgHoleChartStdISO
  3
AmgDim|Product Description: AutoCAD Mechanical|Company: Autodesk, Inc.
 90
     1024
 91
        1
280
     0
281
     0
  0
CLASS
  1
EXACXREFPANELOBJECT
  2
ExAcXREFPanelObject
  3
EXAC_ESW
 90
     1025
 91
        0
280
     0
281
     0
  0
CLASS
  1
NPOCOLLECTION
  2
AcDbImpNonPersistentObjectsCollection
  3
ObjectDBX Classes
 90
     1153
 91
        0
280
     0
281
     0
  0
CLASS
  1
ACDBSTDPARTRES_ARC
  2
AcDbStdPartRes_Arc
  3
AmgStdPart|Product Description: AutoCAD Mechanical|Company: Autodesk, Inc.
 90
     1024
 91
        0
280
     0
281
     0
  0
CLASS
  1
AMDTNOTE
  2
AmdtNote
  3
"AcmSymBB|Product Description: AutoCAD Mechanical|Company: Autodesk, Inc."
 90
     4095
 91
        0
280
     0
281
     1
  0
CLASS
  1
PLOTSETTINGS
  2
AcDbPlotSettings
  3
ObjectDBX Classes
 90
        0
 91
        1
280
     0
281
     0
  0
CLASS
  1
ACMSTANDARDANSI
  2
AcmStandardANSI
  3
"Amdt_StdImp|Product Description: AutoCAD Mechanical|Company: Autodesk, Inc."
 90
     1024
 91
        0
280
     0
281
     0
  0
CLASS
  1
ACMSURFSTANDARDANSI
  2
AcmSurfTextStdANSI
  3
"Amdt_StdImp|Product Description: AutoCAD Mechanical|Company: Autodesk, Inc."
 90
     1024
 91
        0
280
     0
281
     0
  0
CLASS
  1
ACMFCFSTANDARDANSI
  2
AcmFCFStdANSI
  3
"Amdt_StdImp|Product Description: AutoCAD Mechanical|Company: Autodesk, Inc."
 90
     1024
 91
        0
280
     0
281
     0
  0
CLASS
  1
ACMWELDSTANDARDANSI
  2
AcmWeldingStdANSI
  3
"Amdt_StdImp|Product Description: AutoCAD Mechanical|Company: Autodesk, Inc."
 90
     1024
 91
        0
280
     0
281
     0
  0
CLASS
  1
ACMIDSTANDARDANSI
  2
AcmIdStdANSI
  3
"Amdt_StdImp|Product Description: AutoCAD Mechanical|Company: Autodesk, Inc."
 90
     1024
 91
        0
280
     0
281
     0
  0
CLASS
  1
ACMDATUMSTANDARDANSI
  2
AcmDatumStdANSI
  3
"Amdt_StdImp|Product Description: AutoCAD Mechanical|Company: Autodesk, Inc."
 90
     1024
 91
        0
280
     0
281
     0
  0
CLASS
  1
ACMBOMSTANDARDANSI
  2
AcmBOMStdANSI
  3
"Amdt_StdImp|Product Description: AutoCAD Mechanical|Company: Autodesk, Inc."
 90
     1024
 91
        0
280
     0
281
     0
  0
CLASS
  1
ACMDETAILSTANDARDANSI
  2
AmdtDetailSymStdANSI
  3
"Amdt_StdImp|Product Description: AutoCAD Mechanical|Company: Autodesk, Inc."
 90
     1024
 91
        0
280
     0
281
     0
  0
CLASS
  1
ACMSECTIONSTANDARDANSI
  2
AmdtSectionSymStdANSI
  3
"Amdt_StdImp|Product Description: AutoCAD Mechanical|Company: Autodesk, Inc."
 90
     1024
 91
        0
280
     0
281
     0
  0
CLASS
  1
ACMCENTERLINESTANDARDANSI
  2
AmdtCenterLineStdANSI
  3
"Amdt_StdImp|Product Description: AutoCAD Mechanical|Company: Autodesk, Inc."
 90
     1024
 91
        0
280
     0
281
     0
  0
CLASS
  1
ACMTHREADLINESTANDARDANSI
  2
AmdtThreadLineStdANSI
  3
"Amdt_StdImp|Product Description: AutoCAD Mechanical|Company: Autodesk, Inc."
 90
     1024
 91
        0
280
     0
281
     0
  0
CLASS
  1
ACMNOTESTANDARDANSI
  2
AmdtNoteStdANSI
  3
"Amdt_StdImp|Product Description: AutoCAD Mechanical|Company: Autodesk, Inc."
 90
     1024
 91
        0
280
     0
281
     0
  0
CLASS
  1
ACMTAPERSTANDARDANSI
  2
AcmTaperStdANSI
  3
"Amdt_StdImp|Product Description: AutoCAD Mechanical|Company: Autodesk, Inc."
 90
     1024
 91
        0
280
     0
281
     0
  0
CLASS
  1
ACMANOOTATIONVIEWSTANDARDANSI
  2
AmdtAnViewStdANSI
  3
"Amdt_StdImp|Product Description: AutoCAD Mechanical|Company: Autodesk, Inc."
 90
     1024
 91
        0
280
     0
281
     0
  0
CLASS
  1
ACAMGHOLECHARTSTDANSI
  2
AcAmgHoleChartStdANSI
  3
AmgDim|Product Description: AutoCAD Mechanical|Company: Autodesk, Inc.
 90
     1024
 91
        0
280
     0
281
     0
  0
CLASS
  1
ACMSTANDARDBSI
  2
AcmStandardBSI
  3
"Amdt_StdImp|Product Description: AutoCAD Mechanical|Company: Autodesk, Inc."
 90
     1024
 91
        0
280
     0
281
     0
  0
CLASS
  1
ACMSURFSTANDARDBSI2002
  2
AcmSurfTextStdBSI2002
  3
"Amdt_StdImp|Product Description: AutoCAD Mechanical|Company: Autodesk, Inc."
 90
     1024
 91
        0
280
     0
281
     0
  0
CLASS
  1
ACMFCFSTANDARDBSI
  2
AcmFCFStdBSI
  3
"Amdt_StdImp|Product Description: AutoCAD Mechanical|Company: Autodesk, Inc."
 90
     1024
 91
        0
280
     0
281
     0
  0
CLASS
  1
ACMWELDSTANDARDBSI
  2
AcmWeldingStdBSI
  3
"Amdt_StdImp|Product Description: AutoCAD Mechanical|Company: Autodesk, Inc."
 90
     1024
 91
        0
280
     0
281
     0
  0
CLASS
  1
ACMIDSTANDARDBSI
  2
AcmIdStdBSI
  3
"Amdt_StdImp|Product Description: AutoCAD Mechanical|Company: Autodesk, Inc."
 90
     1024
 91
        0
280
     0
281
     0
  0
CLASS
  1
ACMDATUMSTANDARDBSI
  2
AcmDatumStdBSI
  3
"Amdt_StdImp|Product Description: AutoCAD Mechanical|Company: Autodesk, Inc."
 90
     1024
 91
        0
280
     0
281
     0
  0
CLASS
  1
ACMBOMSTANDARDBSI
  2
AcmBOMStdBSI
  3
"Amdt_StdImp|Product Description: AutoCAD Mechanical|Company: Autodesk, Inc."
 90
     1024
 91
        0
280
     0
281
     0
  0
CLASS
  1
ACMDETAILSTANDARDBSI
  2
AmdtDetailSymStdBSI
  3
"Amdt_StdImp|Product Description: AutoCAD Mechanical|Company: Autodesk, Inc."
 90
     1024
 91
        0
280
     0
281
     0
  0
CLASS
  1
ACMSECTIONSTANDARDBSI2001
  2
AmdtSectionSymStdBSI2001
  3
"Amdt_StdImp|Product Description: AutoCAD Mechanical|Company: Autodesk, Inc."
 90
     1024
 91
        0
280
     0
281
     0
  0
CLASS
  1
ACMCENTERLINESTANDARDBSI
  2
AmdtCenterLineStdBSI
  3
"Amdt_StdImp|Product Description: AutoCAD Mechanical|Company: Autodesk, Inc."
 90
     1024
 91
        0
280
     0
281
     0
  0
CLASS
  1
ACMTHREADLINESTANDARDBSI
  2
AmdtThreadLineStdBSI
  3
"Amdt_StdImp|Product Description: AutoCAD Mechanical|Company: Autodesk, Inc."
 90
     1024
 91
        0
280
     0
281
     0
  0
CLASS
  1
ACMNOTESTANDARDBSI
  2
AmdtNoteStdBSI
  3
"Amdt_StdImp|Product Description: AutoCAD Mechanical|Company: Autodesk, Inc."
 90
     1024
 91
        0
280
     0
281
     0
  0
CLASS
  1
ACMTAPERSTANDARDBSI
  2
AcmTaperStdBSI
  3
"Amdt_StdImp|Product Description: AutoCAD Mechanical|Company: Autodesk, Inc."
 90
     1024
 91
        0
280
     0
281
     0
  0
CLASS
  1
ACMANOOTATIONVIEWSTANDARDBSI
  2
AmdtAnViewStdBSI
  3
"Amdt_StdImp|Product Description: AutoCAD Mechanical|Company: Autodesk, Inc."
 90
     1024
 91
        0
280
     0
281
     0
  0
CLASS
  1
ACAMGHOLECHARTSTDBSI
  2
AcAmgHoleChartStdBSI
  3
AmgDim|Product Description: AutoCAD Mechanical|Company: Autodesk, Inc.
 90
     1024
 91
        0
280
     0
281
     0
  0
CLASS
  1
AMDTEDGESTANDARDJIS
  2
AmdtEdgeStdJIS
  3
"Amdt_StdImp|Product Description: AutoCAD Mechanical|Company: Autodesk, Inc."
 90
     1024
 91
        0
280
     0
281
     0
  0
CLASS
  1
ACMSURFSYM
  2
AcmSurfaceTexture
  3
"AcmSymBB|Product Description: AutoCAD Mechanical|Company: Autodesk, Inc."
 90
     4095
 91
        0
280
     0
281
     1
  0
CLASS
  1
ACDBDIMENSIONRES
  2
AcDbDimensionRes
  3
AcmSymBB|Product Description: AutoCAD Mechanical|Company: Autodesk, Inc.
 90
     1024
 91
        0
280
     0
281
     0
  0
CLASS
  1
ACDBCIRCARCRES
  2
AcDbCircArcRes
  3
AcGrefServices
 90
     1024
 91
        0
280
     0
281
     0
  0
CLASS
  1
ACMDIMBREAKPERSREACTOR
  2
AcmDimBreakPersReactor
  3
AmgDim|Product Description: AutoCAD Mechanical|Company: Autodesk, Inc.
 90
     4095
 91
        0
280
     0
281
     0
  0
CLASS
  1
ACDBOPPOLYLINERES
  2
AcDbOpPolylineRes
  3
AcGrefServices
 90
     1024
 91
        0
280
     0
281
     0
  0
CLASS
  1
AMDTACMWBLOCKBOMENTITY
  2
AmdtAcmWblockBomEntity
  3
"AcmSymBB|Product Description: AutoCAD Mechanical|Company: Autodesk, Inc."
 90
     4095
 91
        0
280
     0
281
     1
  0
CLASS
  1
ACDB_BLKREFOBJECTCONTEXTDATA_CLASS
  2
AcDbBlkRefObjectContextData
  3
ObjectDBX Classes
 90
     1153
 91
        0
280
     0
281
     0
  0
CLASS
  1
ACMPICKOBJ
  2
AcmPickEnt
  3
"AcmSymBB|Product Description: AutoCAD Mechanical|Company: Autodesk, Inc."
 90
     1024
 91
        0
280
     0
281
     1
  0
CLASS
  1
ACMBALLOON
  2
AcmBalloon
  3
"AcmSymBB|Product Description: AutoCAD Mechanical|Company: Autodesk, Inc."
 90
     4095
 91
        0
280
     0
281
     1
  0
CLASS
  1
ACMDATUMID
  2
AcmDatumId
  3
"AcmSymBB|Product Description: AutoCAD Mechanical|Company: Autodesk, Inc."
 90
     4095
 91
        0
280
     0
281
     1
  0
CLASS
  1
ACMWELDSYM
  2
AcmWelding
  3
"AcmSymBB|Product Description: AutoCAD Mechanical|Company: Autodesk, Inc."
 90
     4095
 91
        0
280
     0
281
     1
  0
ENDSEC
  0
SECTION
  2
TABLES
  0
TABLE
  2
VPORT
  5
8
330
0
100
AcDbSymbolTable
 70
     1
  0
VPORT
  5
27A
330
8
100
AcDbSymbolTableRecord
100
AcDbViewportTableRecord
  2
*Active
 70
     0
 10
0.0
 20
0.0
 11
1.0
 21
1.0
 12
328.7752231793485
 22
319.8564393874857
 13
0.0
 23
0.0
 14
3.75
 24
3.75
 15
15.0
 25
15.0
 16
0.0
 26
0.0
 36
1.0
 17
0.0
 27
0.0
 37
0.0
 40
217.5203947159352
 41
1.571428571428571
 42
50.0
 43
0.0
 44
0.0
 50
0.0
 51
0.0
 71
    16
 72
 20000
 73
     1
 74
     3
 75
     0
 76
     0
 77
     0
 78
     0
281
     0
 65
     0
110
0.0
120
0.0
130
0.0
111
1.0
121
0.0
131
0.0
112
0.0
122
1.0
132
0.0
 79
     0
146
0.0
348
285
 60
     3
 61
     5
292
     1
282
     0
141
0.0
142
0.0
 63
   250
421
  3355443
  0
ENDTAB
  0
TABLE
  2
LTYPE
  5
5
330
0
100
AcDbSymbolTable
 70
    22
  0
LTYPE
  5
14
330
5
100
AcDbSymbolTableRecord
100
AcDbLinetypeTableRecord
  2
ByBlock
 70
     0
  3

 72
    65
 73
     0
 40
0.0
  0
LTYPE
  5
15
330
5
100
AcDbSymbolTableRecord
100
AcDbLinetypeTableRecord
  2
ByLayer
 70
     0
  3

 72
    65
 73
     0
 40
0.0
  0
LTYPE
  5
16
330
5
100
AcDbSymbolTableRecord
100
AcDbLinetypeTableRecord
  2
Continuous
 70
     0
  3
Solid line
 72
    65
 73
     0
 40
0.0
  0
LTYPE
  5
4D
330
5
100
AcDbSymbolTableRecord
100
AcDbLinetypeTableRecord
  2
AM_ISO02W050
 70
     0
  3
__ __ __ __ __ __ __ __ __ __ __ __ __ __ __
 72
    65
 73
     2
 40
7.5
 49
6.0
 74
     0
 49
-1.5
 74
     0
  0
LTYPE
  5
4E
330
5
100
AcDbSymbolTableRecord
100
AcDbLinetypeTableRecord
  2
AM_ISO08W050
 70
     0
  3
____ . ____ . ____ . ____ . ____ . ____ . ____
 72
    65
 73
     4
 40
18.0
 49
12.0
 74
     0
 49
-1.5
 74
     0
 49
3.0
 74
     0
 49
-1.5
 74
     0
  0
LTYPE
  5
4F
330
5
100
AcDbSymbolTableRecord
100
AcDbLinetypeTableRecord
  2
AM_ISO09W050
 70
     0
  3
_____ . . _____ . . _____ . . ____ .. ____
 72
    65
 73
     6
 40
22.5
 49
12.0
 74
     0
 49
-1.5
 74
     0
 49
3.0
 74
     0
 49
-1.5
 74
     0
 49
3.0
 74
     0
 49
-1.5
 74
     0
  0
LTYPE
  5
50
330
5
100
AcDbSymbolTableRecord
100
AcDbLinetypeTableRecord
  2
Amconstr
 70
     0
  3
_______________________
 72
    65
 73
     2
 40
9999.0
 49
9999.0
 74
     0
 49
0.0
 74
     0
  0
LTYPE
  5
51
330
5
100
AcDbSymbolTableRecord
100
AcDbLinetypeTableRecord
  2
AM_ISO08W050x2
 70
     0
  3
__ . __ . __ . __ . __ . __
 72
    65
 73
     4
 40
9.0
 49
6.0
 74
     0
 49
-0.75
 74
     0
 49
1.5
 74
     0
 49
-0.75
 74
     0
  0
LTYPE
  5
52
330
5
100
AcDbSymbolTableRecord
100
AcDbLinetypeTableRecord
  2
AM_ISO02W050x2
 70
     0
  3
 _ _ _ _ _ _ _ _ _ _ _ _
 72
    65
 73
     2
 40
3.75
 49
3.0
 74
     0
 49
-0.75
 74
     0
  0
LTYPE
  5
55
330
5
100
AcDbSymbolTableRecord
100
AcDbLinetypeTableRecord
  2
Amzigzag
 70
     0
  3
/\/-/\/-/\/-/\/-/\/-/\/
 72
    65
 73
     2
 40
11.0001
 49
0.0001
 74
     4
 75
   136
340
23D
 46
0.04
 50
0.0
 44
0.0
 45
0.0
 49
-11.0
 74
     0
  0
LTYPE
  5
65
330
5
100
AcDbSymbolTableRecord
100
AcDbLinetypeTableRecord
  2
CENTER
 70
     0
  3
__ . __
 72
    65
 73
     4
 40
7.0
 49
4.0
 74
     0
 49
-1.0
 74
     0
 49
1.0
 74
     0
 49
-1.0
 74
     0
  0
LTYPE
  5
E0
330
5
100
AcDbSymbolTableRecord
100
AcDbLinetypeTableRecord
  2
HIDDEN
 70
     0
  3
Hidden __ __ __ __ __ __ __ __ __ __ __ __ __ _
 72
    65
 73
     2
 40
9.524999999999996
 49
6.349999999999998
 74
     0
 49
-3.174999999999998
 74
     0
  0
LTYPE
  5
E1
330
5
100
AcDbSymbolTableRecord
100
AcDbLinetypeTableRecord
  2
PHANTOM2
 70
     0
  3
Phantom (.5x) ___ _ _ ___ _ _ ___ _ _ ___ _ _
 72
    65
 73
     6
 40
31.75
 49
15.875
 74
     0
 49
-3.174999999999998
 74
     0
 49
3.174999999999998
 74
     0
 49
-3.174999999999998
 74
     0
 49
3.174999999999998
 74
     0
 49
-3.174999999999998
 74
     0
  0
LTYPE
  5
5A2
330
5
100
AcDbSymbolTableRecord
100
AcDbLinetypeTableRecord
  2
ACJISWELD
 70
     0
  3
_ _ _ _ _
 72
    65
 73
     2
 40
2.0
 49
2.0
 74
     0
 49
-1.0
 74
     0
  0
LTYPE
  5
978B
330
5
100
AcDbSymbolTableRecord
100
AcDbLinetypeTableRecord
  2
ACISOWELD
 70
     0
  3
_ _ _ _ _
 72
    65
 73
     2
 40
2.0
 49
2.0
 74
     0
 49
-1.0
 74
     0
  0
LTYPE
  5
978C
330
5
100
AcDbSymbolTableRecord
100
AcDbLinetypeTableRecord
  2
ACISOTGB
 70
     0
  3
__ . . __ . .
 72
    65
 73
     6
 40
9.0
 49
4.0
 74
     0
 49
-1.0
 74
     0
 49
1.0
 74
     0
 49
-1.0
 74
     0
 49
1.0
 74
     0
 49
-1.0
 74
     0
  0
LTYPE
  5
978D
330
5
100
AcDbSymbolTableRecord
100
AcDbLinetypeTableRecord
  2
ACISOTGL
 70
     0
  3
_ _ _ _ _
 72
    65
 73
     2
 40
3.0
 49
2.0
 74
     0
 49
-1.0
 74
     0
  0
ENDTAB
  0
TABLE
  2
LAYER
  5
2
102
{ACAD_XDICTIONARY
360
BF
102
}
330
0
100
AcDbSymbolTable
 70
    11
  0
LAYER
  5
10
102
{ACAD_XDICTIONARY
360
29F7
102
}
330
2
100
AcDbSymbolTableRecord
100
AcDbLayerTableRecord
  2
0
 70
     0
 62
     7
  6
Continuous
370
    -3
390
F
347
27E
  0
LAYER
  5
81
102
{ACAD_XDICTIONARY
360
29F9
102
}
330
2
100
AcDbSymbolTableRecord
100
AcDbLayerTableRecord
  2
AM_0 外形線1
 70
     0
 62
     7
  6
Continuous
370
    25
390
F
347
27E
  0
LAYER
  5
427
330
2
100
AcDbSymbolTableRecord
100
AcDbLayerTableRecord
  2
Defpoints
 70
     0
 62
     7
  6
Continuous
290
     0
370
    -3
390
F
347
27E
  0
LAYER
  5
2DE7
102
{ACAD_XDICTIONARY
360
2DE8
102
}
330
2
100
AcDbSymbolTableRecord
100
AcDbLayerTableRecord
  2
AM_6 文字
 70
     0
 62
     2
  6
Continuous
370
    13
390
F
347
27E
1001
AcAecLayerStandard
1000

1000

  0
LAYER
  5
3D36
330
2
100
AcDbSymbolTableRecord
100
AcDbLayerTableRecord
  2
AM_5 寸法線
 70
     0
 62
     3
  6
Continuous
370
    13
390
F
347
27E
1001
AcAecLayerStandard
1000

1000

  0
LAYER
  5
3D37
330
2
100
AcDbSymbolTableRecord
100
AcDbLayerTableRecord
  2
AM_4 細線
 70
     0
 62
     4
  6
Continuous
370
    13
390
F
347
27E
1001
AcAecLayerStandard
1000

1000

  0
LAYER
  5
3D38
330
2
100
AcDbSymbolTableRecord
100
AcDbLayerTableRecord
  2
AM_7 中心線
 70
     0
 62
     1
  6
AM_ISO08W050
370
    13
390
F
347
27E
1001
AcAecLayerStandard
1000

1000

  0
LAYER
  5
3D39
330
2
100
AcDbSymbolTableRecord
100
AcDbLayerTableRecord
  2
AM_3 隠れ線
 70
     0
 62
     8
  6
ACJISWELD
370
    13
390
F
347
27E
1001
AcAecLayerStandard
1000

1000

  0
LAYER
  5
74D5
330
2
100
AcDbSymbolTableRecord
100
AcDbLayerTableRecord
  2
AM_8 ハッチング
 70
     0
 62
     1
  6
Continuous
370
    13
390
F
347
27E
1001
AcAecLayerStandard
1000

1000

  0
LAYER
  5
910A
330
2
100
AcDbSymbolTableRecord
100
AcDbLayerTableRecord
  2
AM_11 想像線
 70
     0
 62
     5
  6
AM_ISO09W050
370
    13
390
F
347
27E
1001
AcAecLayerStandard
1000

1000

  0
ENDTAB
  0
TABLE
  2
STYLE
  5
3
330
0
100
AcDbSymbolTable
 70
    11
  0
STYLE
  5
11
330
3
100
AcDbSymbolTableRecord
100
AcDbTextStyleTableRecord
  2
STANDARD
 70
     0
 40
0.0
 41
1.0
 50
0.0
 71
     0
 42
25.0
  3
ISOCP.SHX
  4
EXTFONT.SHX
  0
STYLE
  5
23D
330
3
100
AcDbSymbolTableRecord
100
AcDbTextStyleTableRecord
  2

 70
     1
 40
0.0
 41
1.0
 50
0.0
 71
     0
 42
2.5
  3
genltshp.shx
  4

  0
STYLE
  5
5D5
330
3
100
AcDbSymbolTableRecord
100
AcDbTextStyleTableRecord
  2
SEISA
 70
     0
 40
0.0
 41
0.9
 50
0.0
 71
     0
 42
25.0
  3
romans.shx
  4
extfont2.shx
  0
STYLE
  5
977B
330
3
100
AcDbSymbolTableRecord
100
AcDbTextStyleTableRecord
  2
ACISOTS
 70
     0
 40
1.0
 41
1.0
 50
0.0
 71
     0
 42
25.0
  3
isocp.shx
  4
extfont.shx
  0
STYLE
  5
978A
330
3
100
AcDbSymbolTableRecord
100
AcDbTextStyleTableRecord
  2
ACISOGDT
 70
     0
 40
0.0
 41
1.0
 50
0.0
 71
     0
 42
25.0
  3
amgdt.shx
  4

  0
ENDTAB
  0
TABLE
  2
VIEW
  5
6
330
0
100
AcDbSymbolTable
 70
     6
  0
VIEW
  5
91B
330
6
100
AcDbSymbolTableRecord
100
AcDbViewTableRecord
  2
AM_VIEW1
 70
     0
 40
222.75
 10
215.3432884644908
 20
334.1250005540731
 41
430.6865763546798
 11
0.0
 21
0.0
 31
1.0
 12
0.0
 22
0.0
 32
0.0
 42
50.0
 43
0.0
 44
0.0
 50
0.0
 71
    16
281
     0
 72
     0
 73
     0
  0
VIEW
  5
91C
330
6
100
AcDbSymbolTableRecord
100
AcDbViewTableRecord
  2
AM_VIEW2
 70
     0
 40
222.75
 10
414.6567121098107
 20
334.1250005540731
 41
430.6865763546798
 11
0.0
 21
0.0
 31
1.0
 12
0.0
 22
0.0
 32
0.0
 42
50.0
 43
0.0
 44
0.0
 50
0.0
 71
    16
281
     0
 72
     0
 73
     0
  0
VIEW
  5
91D
330
6
100
AcDbSymbolTableRecord
100
AcDbViewTableRecord
  2
AM_VIEW3
 70
     0
 40
222.75
 10
215.3432884644908
 20
111.3750005540731
 41
430.6865763546798
 11
0.0
 21
0.0
 31
1.0
 12
0.0
 22
0.0
 32
0.0
 42
50.0
 43
0.0
 44
0.0
 50
0.0
 71
    16
281
     0
 72
     0
 73
     0
  0
VIEW
  5
91E
330
6
100
AcDbSymbolTableRecord
100
AcDbViewTableRecord
  2
AM_VIEW4
 70
     0
 40
222.75
 10
414.6567121098107
 20
111.3750005540731
 41
430.6865763546798
 11
0.0
 21
0.0
 31
1.0
 12
0.0
 22
0.0
 32
0.0
 42
50.0
 43
0.0
 44
0.0
 50
0.0
 71
    16
281
     0
 72
     0
 73
     0
  0
VIEW
  5
91F
330
6
100
AcDbSymbolTableRecord
100
AcDbViewTableRecord
  2
AM_VIEW5
 70
     0
 40
222.75
 10
315.0000002871508
 20
222.7500005540731
 41
430.68657635468
 11
0.0
 21
0.0
 31
1.0
 12
0.0
 22
0.0
 32
0.0
 42
50.0
 43
0.0
 44
0.0
 50
0.0
 71
    16
281
     0
 72
     0
 73
     0
  0
VIEW
  5
920
330
6
100
AcDbSymbolTableRecord
100
AcDbViewTableRecord
  2
AM_VIEW6
 70
     0
 40
445.4955449999999
 10
315.0000002871508
 20
222.7500005540731
 41
861.3645389778328
 11
0.0
 21
0.0
 31
1.0
 12
0.0
 22
0.0
 32
0.0
 42
50.0
 43
0.0
 44
0.0
 50
0.0
 71
    16
281
     0
 72
     0
 73
     0
  0
ENDTAB
  0
TABLE
  2
UCS
  5
7
330
0
100
AcDbSymbolTable
 70
     0
  0
ENDTAB
  0
TABLE
  2
APPID
  5
9
330
0
100
AcDbSymbolTable
 70
   395
  0
APPID
  5
12
330
9
100
AcDbSymbolTableRecord
100
AcDbRegAppTableRecord
  2
ACAD
 70
     0
  0
APPID
  5
30
330
9
100
AcDbSymbolTableRecord
100
AcDbRegAppTableRecord
  2
MCAD_NO_VIS
 70
     0
  0
APPID
  5
31
330
9
100
AcDbSymbolTableRecord
100
AcDbRegAppTableRecord
  2
ACAD_TEMP_GRAPHIC
 70
     0
  0
APPID
  5
44
330
9
100
AcDbSymbolTableRecord
100
AcDbRegAppTableRecord
  2
ACATTRIBSERVICES
 70
     0
  0
APPID
  5
F6
330
9
100
AcDbSymbolTableRecord
100
AcDbRegAppTableRecord
  2
AD_DRAW
 70
     0
  0
APPID
  5
114
330
9
100
AcDbSymbolTableRecord
100
AcDbRegAppTableRecord
  2
DESIGNERASSEMBLIES
 70
     0
  0
APPID
  5
118
330
9
100
AcDbSymbolTableRecord
100
AcDbRegAppTableRecord
  2
ACADM_DIM_EDIT
 70
     0
  0
APPID
  5
119
330
9
100
AcDbSymbolTableRecord
100
AcDbRegAppTableRecord
  2
AMDT_DM_ADJ
 70
     0
  0
APPID
  5
1AF
330
9
100
AcDbSymbolTableRecord
100
AcDbRegAppTableRecord
  2
ACAD_DSTYLE_DIMARC_LENGTH_SYMBOL
 70
     0
  0
APPID
  5
1B0
330
9
100
AcDbSymbolTableRecord
100
AcDbRegAppTableRecord
  2
ACAD_DSTYLE_DIMJOGGED_JOGANGLE_SYMBOL
 70
     0
  0
APPID
  5
2D7
330
9
100
AcDbSymbolTableRecord
100
AcDbRegAppTableRecord
  2
ACAD_MLEADERVER
 70
     0
  0
APPID
  5
355
330
9
100
AcDbSymbolTableRecord
100
AcDbRegAppTableRecord
  2
AcadAnnoPO
 70
     0
  0
APPID
  5
428
330
9
100
AcDbSymbolTableRecord
100
AcDbRegAppTableRecord
  2
ACAD_DSTYLE_DIMTEXT_FILL
 70
     0
  0
APPID
  5
429
330
9
100
AcDbSymbolTableRecord
100
AcDbRegAppTableRecord
  2
GENIUS_GENSCREG_15
 70
     0
  0
APPID
  5
42A
330
9
100
AcDbSymbolTableRecord
100
AcDbRegAppTableRecord
  2
GENIUS_GENOBJ-N-SDF_13
 70
     0
  0
APPID
  5
42B
330
9
100
AcDbSymbolTableRecord
100
AcDbRegAppTableRecord
  2
GENIUS_GENODEF_13
 70
     0
  0
APPID
  5
42C
330
9
100
AcDbSymbolTableRecord
100
AcDbRegAppTableRecord
  2
ACAD_EXEMPT_FROM_CAD_STANDARDS
 70
     0
  0
APPID
  5
42D
330
9
100
AcDbSymbolTableRecord
100
AcDbRegAppTableRecord
  2
AcAecLayerStandard
 70
     0
  0
APPID
  5
42E
330
9
100
AcDbSymbolTableRecord
100
AcDbRegAppTableRecord
  2
GENIUS_GENOBJ-N-CEN_13
 70
     0
  0
APPID
  5
42F
330
9
100
AcDbSymbolTableRecord
100
AcDbRegAppTableRecord
  2
GENIUS_GENCEN_19
 70
     0
  0
APPID
  5
430
330
9
100
AcDbSymbolTableRecord
100
AcDbRegAppTableRecord
  2
ACAD_DSTYLE_DIMINSPECT
 70
     0
  0
APPID
  5
431
330
9
100
AcDbSymbolTableRecord
100
AcDbRegAppTableRecord
  2
GENIUS_AMGTXT_16
 70
     0
  0
APPID
  5
432
330
9
100
AcDbSymbolTableRecord
100
AcDbRegAppTableRecord
  2
GENIUS_GENFIL_13
 70
     0
  0
APPID
  5
433
330
9
100
AcDbSymbolTableRecord
100
AcDbRegAppTableRecord
  2
GENIUS_GENOLIS_13
 70
     0
  0
APPID
  5
434
330
9
100
AcDbSymbolTableRecord
100
AcDbRegAppTableRecord
  2
GENIUS_GENOBJ-N-CHA_13
 70
     0
  0
APPID
  5
435
330
9
100
AcDbSymbolTableRecord
100
AcDbRegAppTableRecord
  2
GENIUS_GENOENT_13
 70
     0
  0
APPID
  5
436
330
9
100
AcDbSymbolTableRecord
100
AcDbRegAppTableRecord
  2
GENIUS_GENOREF_13
 70
     0
  0
APPID
  5
437
330
9
100
AcDbSymbolTableRecord
100
AcDbRegAppTableRecord
  2
GENIUS_GENOBJ-N-FIL_13
 70
     0
  0
APPID
  5
438
330
9
100
AcDbSymbolTableRecord
100
AcDbRegAppTableRecord
  2
GEVID1208829536
 70
     0
  0
APPID
  5
439
330
9
100
AcDbSymbolTableRecord
100
AcDbRegAppTableRecord
  2
GEVDC
 70
     0
  0
APPID
  5
43A
330
9
100
AcDbSymbolTableRecord
100
AcDbRegAppTableRecord
  2
GEVRADREF
 70
     0
  0
APPID
  5
43B
330
9
100
AcDbSymbolTableRecord
100
AcDbRegAppTableRecord
  2
GENIUS_GENBH_13
 70
     0
  0
APPID
  5
43C
330
9
100
AcDbSymbolTableRecord
100
AcDbRegAppTableRecord
  2
GENIUS_GENOBJ-NBEHI-BHF_13
 70
     0
  0
APPID
  5
43D
330
9
100
AcDbSymbolTableRecord
100
AcDbRegAppTableRecord
  2
GENIUS_GENOBJ-NBEHI-BHB_13
 70
     0
  0
APPID
  5
43E
330
9
100
AcDbSymbolTableRecord
100
AcDbRegAppTableRecord
  2
GEVID1208829537
 70
     0
  0
APPID
  5
43F
330
9
100
AcDbSymbolTableRecord
100
AcDbRegAppTableRecord
  2
ACAD_DSTYLE_DIMJAG
 70
     0
  0
APPID
  5
440
330
9
100
AcDbSymbolTableRecord
100
AcDbRegAppTableRecord
  2
ACAD_DSTYLE_DIMTALN
 70
     0
  0
APPID
  5
441
330
9
100
AcDbSymbolTableRecord
100
AcDbRegAppTableRecord
  2
AMG_2DHIDE
 70
     0
  0
APPID
  5
442
330
9
100
AcDbSymbolTableRecord
100
AcDbRegAppTableRecord
  2
AMG_2DSTRUCT_BTR
 70
     0
  0
APPID
  5
443
330
9
100
AcDbSymbolTableRecord
100
AcDbRegAppTableRecord
  2
GEVID1208845772
 70
     0
  0
APPID
  5
444
330
9
100
AcDbSymbolTableRecord
100
AcDbRegAppTableRecord
  2
GEVID1208845773
 70
     0
  0
APPID
  5
445
330
9
100
AcDbSymbolTableRecord
100
AcDbRegAppTableRecord
  2
ACADM_2DVIEW_IGN_NOTIFY
 70
     0
  0
APPID
  5
446
330
9
100
AcDbSymbolTableRecord
100
AcDbRegAppTableRecord
  2
GEVID1208845774
 70
     0
  0
APPID
  5
447
330
9
100
AcDbSymbolTableRecord
100
AcDbRegAppTableRecord
  2
GEVID1208845775
 70
     0
  0
APPID
  5
448
330
9
100
AcDbSymbolTableRecord
100
AcDbRegAppTableRecord
  2
GEVID1208845776
 70
     0
  0
APPID
  5
449
330
9
100
AcDbSymbolTableRecord
100
AcDbRegAppTableRecord
  2
GEVID1208845777
 70
     0
  0
APPID
  5
44A
330
9
100
AcDbSymbolTableRecord
100
AcDbRegAppTableRecord
  2
GEVCON
 70
     0
  0
APPID
  5
44B
330
9
100
AcDbSymbolTableRecord
100
AcDbRegAppTableRecord
  2
GENIUS_GENOBJ-F-SCPASSM_13
 70
     0
  0
APPID
  5
44C
330
9
100
AcDbSymbolTableRecord
100
AcDbRegAppTableRecord
  2
GEVID1208845778
 70
     0
  0
APPID
  5
44D
330
9
100
AcDbSymbolTableRecord
100
AcDbRegAppTableRecord
  2
GEVID1208845779
 70
     0
  0
APPID
  5
44E
330
9
100
AcDbSymbolTableRecord
100
AcDbRegAppTableRecord
  2
GEVID1208845780
 70
     0
  0
APPID
  5
44F
330
9
100
AcDbSymbolTableRecord
100
AcDbRegAppTableRecord
  2
GEVID1208845781
 70
     0
  0
APPID
  5
450
330
9
100
AcDbSymbolTableRecord
100
AcDbRegAppTableRecord
  2
GEVID1208845782
 70
     0
  0
APPID
  5
451
330
9
100
AcDbSymbolTableRecord
100
AcDbRegAppTableRecord
  2
GEVID1208845783
 70
     0
  0
APPID
  5
452
330
9
100
AcDbSymbolTableRecord
100
AcDbRegAppTableRecord
  2
GEVID1208845784
 70
     0
  0
APPID
  5
453
330
9
100
AcDbSymbolTableRecord
100
AcDbRegAppTableRecord
  2
GEVID1208845785
 70
     0
  0
APPID
  5
454
330
9
100
AcDbSymbolTableRecord
100
AcDbRegAppTableRecord
  2
GEVID1208845787
 70
     0
  0
APPID
  5
455
330
9
100
AcDbSymbolTableRecord
100
AcDbRegAppTableRecord
  2
GEVID1208845788
 70
     0
  0
APPID
  5
456
330
9
100
AcDbSymbolTableRecord
100
AcDbRegAppTableRecord
  2
GEVID1208845789
 70
     0
  0
APPID
  5
457
330
9
100
AcDbSymbolTableRecord
100
AcDbRegAppTableRecord
  2
GEVID1208845790
 70
     0
  0
APPID
  5
458
330
9
100
AcDbSymbolTableRecord
100
AcDbRegAppTableRecord
  2
GEVID1208845791
 70
     0
  0
APPID
  5
459
330
9
100
AcDbSymbolTableRecord
100
AcDbRegAppTableRecord
  2
GEVID1208845792
 70
     0
  0
APPID
  5
45A
330
9
100
AcDbSymbolTableRecord
100
AcDbRegAppTableRecord
  2
GEVID1208845793
 70
     0
  0
APPID
  5
45B
330
9
100
AcDbSymbolTableRecord
100
AcDbRegAppTableRecord
  2
GEVID1208845794
 70
     0
  0
APPID
  5
45C
330
9
100
AcDbSymbolTableRecord
100
AcDbRegAppTableRecord
  2
GEVID1208845795
 70
     0
  0
APPID
  5
45D
330
9
100
AcDbSymbolTableRecord
100
AcDbRegAppTableRecord
  2
GEVID1208845796
 70
     0
  0
APPID
  5
45E
330
9
100
AcDbSymbolTableRecord
100
AcDbRegAppTableRecord
  2
GEVID1208845797
 70
     0
  0
APPID
  5
45F
330
9
100
AcDbSymbolTableRecord
100
AcDbRegAppTableRecord
  2
GEVID1208845798
 70
     0
  0
APPID
  5
460
330
9
100
AcDbSymbolTableRecord
100
AcDbRegAppTableRecord
  2
GEVID1208845799
 70
     0
  0
APPID
  5
461
330
9
100
AcDbSymbolTableRecord
100
AcDbRegAppTableRecord
  2
GEVID1208845800
 70
     0
  0
APPID
  5
462
330
9
100
AcDbSymbolTableRecord
100
AcDbRegAppTableRecord
  2
GEVID1208845801
 70
     0
  0
APPID
  5
463
330
9
100
AcDbSymbolTableRecord
100
AcDbRegAppTableRecord
  2
GEVID1208845802
 70
     0
  0
APPID
  5
464
330
9
100
AcDbSymbolTableRecord
100
AcDbRegAppTableRecord
  2
GENIUS_GENOBJ-N-DIM_13
 70
     0
  0
APPID
  5
465
330
9
100
AcDbSymbolTableRecord
100
AcDbRegAppTableRecord
  2
GENIUS_GENDIM_13
 70
     0
  0
APPID
  5
466
330
9
100
AcDbSymbolTableRecord
100
AcDbRegAppTableRecord
  2
GENIUS_GENDIMSH_14
 70
     0
  0
APPID
  5
467
330
9
100
AcDbSymbolTableRecord
100
AcDbRegAppTableRecord
  2
GEVID1208845803
 70
     0
  0
APPID
  5
468
330
9
100
AcDbSymbolTableRecord
100
AcDbRegAppTableRecord
  2
GEVID1208845804
 70
     0
  0
APPID
  5
469
330
9
100
AcDbSymbolTableRecord
100
AcDbRegAppTableRecord
  2
GEVID1208845805
 70
     0
  0
APPID
  5
46A
330
9
100
AcDbSymbolTableRecord
100
AcDbRegAppTableRecord
  2
GEVID1208845806
 70
     0
  0
APPID
  5
46B
330
9
100
AcDbSymbolTableRecord
100
AcDbRegAppTableRecord
  2
GEVID1208845807
 70
     0
  0
APPID
  5
46C
330
9
100
AcDbSymbolTableRecord
100
AcDbRegAppTableRecord
  2
GEVID1208845808
 70
     0
  0
APPID
  5
46D
330
9
100
AcDbSymbolTableRecord
100
AcDbRegAppTableRecord
  2
GEVID1208845809
 70
     0
  0
APPID
  5
46E
330
9
100
AcDbSymbolTableRecord
100
AcDbRegAppTableRecord
  2
GEVID1208845810
 70
     0
  0
APPID
  5
46F
330
9
100
AcDbSymbolTableRecord
100
AcDbRegAppTableRecord
  2
GEVID1208845811
 70
     0
  0
APPID
  5
470
330
9
100
AcDbSymbolTableRecord
100
AcDbRegAppTableRecord
  2
GEVID1208845813
 70
     0
  0
APPID
  5
471
330
9
100
AcDbSymbolTableRecord
100
AcDbRegAppTableRecord
  2
GEVID1208845814
 70
     0
  0
APPID
  5
472
330
9
100
AcDbSymbolTableRecord
100
AcDbRegAppTableRecord
  2
GEVID1208845815
 70
     0
  0
APPID
  5
473
330
9
100
AcDbSymbolTableRecord
100
AcDbRegAppTableRecord
  2
GEVID1208845816
 70
     0
  0
APPID
  5
474
330
9
100
AcDbSymbolTableRecord
100
AcDbRegAppTableRecord
  2
GEVID1208845817
 70
     0
  0
APPID
  5
475
330
9
100
AcDbSymbolTableRecord
100
AcDbRegAppTableRecord
  2
GEVID1208845818
 70
     0
  0
APPID
  5
476
330
9
100
AcDbSymbolTableRecord
100
AcDbRegAppTableRecord
  2
GEVID1208845819
 70
     0
  0
APPID
  5
477
330
9
100
AcDbSymbolTableRecord
100
AcDbRegAppTableRecord
  2
GEVID1208845820
 70
     0
  0
APPID
  5
478
330
9
100
AcDbSymbolTableRecord
100
AcDbRegAppTableRecord
  2
GENIUS_GENOBJ-F-SHCL_13
 70
     0
  0
APPID
  5
479
330
9
100
AcDbSymbolTableRecord
100
AcDbRegAppTableRecord
  2
GENIUS_GEFMSH_13
 70
     0
  0
APPID
  5
47A
330
9
100
AcDbSymbolTableRecord
100
AcDbRegAppTableRecord
  2
GENIUS_GENOBJ-F-SHCA_13
 70
     0
  0
APPID
  5
47B
330
9
100
AcDbSymbolTableRecord
100
AcDbRegAppTableRecord
  2
GENIUS_GEFSH_13
 70
     0
  0
APPID
  5
47C
330
9
100
AcDbSymbolTableRecord
100
AcDbRegAppTableRecord
  2
GENIUS_GEFSHP_13
 70
     0
  0
APPID
  5
47D
330
9
100
AcDbSymbolTableRecord
100
AcDbRegAppTableRecord
  2
GENIUS_GEFSHP0_13
 70
     0
  0
APPID
  5
47E
330
9
100
AcDbSymbolTableRecord
100
AcDbRegAppTableRecord
  2
GENIUS_GEFSH0_13
 70
     0
  0
APPID
  5
47F
330
9
100
AcDbSymbolTableRecord
100
AcDbRegAppTableRecord
  2
GENIUS_GEFSHP1_13
 70
     0
  0
APPID
  5
480
330
9
100
AcDbSymbolTableRecord
100
AcDbRegAppTableRecord
  2
GENIUS_GEFSH1_13
 70
     0
  0
APPID
  5
481
330
9
100
AcDbSymbolTableRecord
100
AcDbRegAppTableRecord
  2
GEVID1208866337
 70
     0
  0
APPID
  5
482
330
9
100
AcDbSymbolTableRecord
100
AcDbRegAppTableRecord
  2
GEVID1208866338
 70
     0
  0
APPID
  5
483
330
9
100
AcDbSymbolTableRecord
100
AcDbRegAppTableRecord
  2
GEVID1208866339
 70
     0
  0
APPID
  5
484
330
9
100
AcDbSymbolTableRecord
100
AcDbRegAppTableRecord
  2
GEVID1208866340
 70
     0
  0
APPID
  5
485
330
9
100
AcDbSymbolTableRecord
100
AcDbRegAppTableRecord
  2
GEVID1208866341
 70
     0
  0
APPID
  5
486
330
9
100
AcDbSymbolTableRecord
100
AcDbRegAppTableRecord
  2
ACAD_PSEXT
 70
     0
  0
APPID
  5
487
330
9
100
AcDbSymbolTableRecord
100
AcDbRegAppTableRecord
  2
GEVID1208866342
 70
     0
  0
APPID
  5
488
330
9
100
AcDbSymbolTableRecord
100
AcDbRegAppTableRecord
  2
GEVID1208913836
 70
     0
  0
APPID
  5
489
330
9
100
AcDbSymbolTableRecord
100
AcDbRegAppTableRecord
  2
GEVID1208913837
 70
     0
  0
APPID
  5
48A
330
9
100
AcDbSymbolTableRecord
100
AcDbRegAppTableRecord
  2
GEVID1208913838
 70
     0
  0
APPID
  5
48B
330
9
100
AcDbSymbolTableRecord
100
AcDbRegAppTableRecord
  2
GEVID1208913839
 70
     0
  0
APPID
  5
48C
330
9
100
AcDbSymbolTableRecord
100
AcDbRegAppTableRecord
  2
GENIUS_GENDTOL_13
 70
     0
  0
APPID
  5
48D
330
9
100
AcDbSymbolTableRecord
100
AcDbRegAppTableRecord
  2
GEVID1208928889
 70
     0
  0
APPID
  5
48E
330
9
100
AcDbSymbolTableRecord
100
AcDbRegAppTableRecord
  2
GEVID1208928890
 70
     0
  0
APPID
  5
48F
330
9
100
AcDbSymbolTableRecord
100
AcDbRegAppTableRecord
  2
GEVID1208928891
 70
     0
  0
APPID
  5
490
330
9
100
AcDbSymbolTableRecord
100
AcDbRegAppTableRecord
  2
GEVID1208928892
 70
     0
  0
APPID
  5
491
330
9
100
AcDbSymbolTableRecord
100
AcDbRegAppTableRecord
  2
GEVID1208933827
 70
     0
  0
APPID
  5
492
330
9
100
AcDbSymbolTableRecord
100
AcDbRegAppTableRecord
  2
GEVID1208933829
 70
     0
  0
APPID
  5
493
330
9
100
AcDbSymbolTableRecord
100
AcDbRegAppTableRecord
  2
GEVID1208933830
 70
     0
  0
APPID
  5
494
330
9
100
AcDbSymbolTableRecord
100
AcDbRegAppTableRecord
  2
GEVID1208933831
 70
     0
  0
APPID
  5
495
330
9
100
AcDbSymbolTableRecord
100
AcDbRegAppTableRecord
  2
GEVID1208933832
 70
     0
  0
APPID
  5
496
330
9
100
AcDbSymbolTableRecord
100
AcDbRegAppTableRecord
  2
GEVID1208933833
 70
     0
  0
APPID
  5
497
330
9
100
AcDbSymbolTableRecord
100
AcDbRegAppTableRecord
  2
GEVID1208933834
 70
     0
  0
APPID
  5
498
330
9
100
AcDbSymbolTableRecord
100
AcDbRegAppTableRecord
  2
GEVID1208933835
 70
     0
  0
APPID
  5
499
330
9
100
AcDbSymbolTableRecord
100
AcDbRegAppTableRecord
  2
GEVID1208933836
 70
     0
  0
APPID
  5
49A
330
9
100
AcDbSymbolTableRecord
100
AcDbRegAppTableRecord
  2
GEVID1208933837
 70
     0
  0
APPID
  5
49B
330
9
100
AcDbSymbolTableRecord
100
AcDbRegAppTableRecord
  2
GEVID1208933838
 70
     0
  0
APPID
  5
49C
330
9
100
AcDbSymbolTableRecord
100
AcDbRegAppTableRecord
  2
GEVID1208933840
 70
     0
  0
APPID
  5
49D
330
9
100
AcDbSymbolTableRecord
100
AcDbRegAppTableRecord
  2
GEVID1208933842
 70
     0
  0
APPID
  5
49E
330
9
100
AcDbSymbolTableRecord
100
AcDbRegAppTableRecord
  2
GEVID1208933843
 70
     0
  0
APPID
  5
49F
330
9
100
AcDbSymbolTableRecord
100
AcDbRegAppTableRecord
  2
GEVID1208933844
 70
     0
  0
APPID
  5
4A0
330
9
100
AcDbSymbolTableRecord
100
AcDbRegAppTableRecord
  2
GEVID1208933845
 70
     0
  0
APPID
  5
4A1
330
9
100
AcDbSymbolTableRecord
100
AcDbRegAppTableRecord
  2
GEVID1208933846
 70
     0
  0
APPID
  5
4A2
330
9
100
AcDbSymbolTableRecord
100
AcDbRegAppTableRecord
  2
GEVID1208933847
 70
     0
  0
APPID
  5
4A3
330
9
100
AcDbSymbolTableRecord
100
AcDbRegAppTableRecord
  2
GEVID1208933848
 70
     0
  0
APPID
  5
4A4
330
9
100
AcDbSymbolTableRecord
100
AcDbRegAppTableRecord
  2
GEVID1208933849
 70
     0
  0
APPID
  5
4A5
330
9
100
AcDbSymbolTableRecord
100
AcDbRegAppTableRecord
  2
GEVID1208933850
 70
     0
  0
APPID
  5
4A6
330
9
100
AcDbSymbolTableRecord
100
AcDbRegAppTableRecord
  2
GEVID1208933851
 70
     0
  0
APPID
  5
4A7
330
9
100
AcDbSymbolTableRecord
100
AcDbRegAppTableRecord
  2
GEVID1208933852
 70
     0
  0
APPID
  5
4A8
330
9
100
AcDbSymbolTableRecord
100
AcDbRegAppTableRecord
  2
GEVID1208933853
 70
     0
  0
APPID
  5
4A9
330
9
100
AcDbSymbolTableRecord
100
AcDbRegAppTableRecord
  2
GEVID1208933854
 70
     0
  0
APPID
  5
4AA
330
9
100
AcDbSymbolTableRecord
100
AcDbRegAppTableRecord
  2
GEVID1208933855
 70
     0
  0
APPID
  5
4AB
330
9
100
AcDbSymbolTableRecord
100
AcDbRegAppTableRecord
  2
GEVID1208933856
 70
     0
  0
APPID
  5
4AC
330
9
100
AcDbSymbolTableRecord
100
AcDbRegAppTableRecord
  2
GEVID1208933857
 70
     0
  0
APPID
  5
4AD
330
9
100
AcDbSymbolTableRecord
100
AcDbRegAppTableRecord
  2
GEVID1208933858
 70
     0
  0
APPID
  5
4AE
330
9
100
AcDbSymbolTableRecord
100
AcDbRegAppTableRecord
  2
GEVID1208933859
 70
     0
  0
APPID
  5
4AF
330
9
100
AcDbSymbolTableRecord
100
AcDbRegAppTableRecord
  2
GEVID1208933860
 70
     0
  0
APPID
  5
4B0
330
9
100
AcDbSymbolTableRecord
100
AcDbRegAppTableRecord
  2
GEVID1208933861
 70
     0
  0
APPID
  5
4B1
330
9
100
AcDbSymbolTableRecord
100
AcDbRegAppTableRecord
  2
GEVID1208933862
 70
     0
  0
APPID
  5
4B2
330
9
100
AcDbSymbolTableRecord
100
AcDbRegAppTableRecord
  2
GEVID1208933863
 70
     0
  0
APPID
  5
4B3
330
9
100
AcDbSymbolTableRecord
100
AcDbRegAppTableRecord
  2
GEVID1208933864
 70
     0
  0
APPID
  5
4B4
330
9
100
AcDbSymbolTableRecord
100
AcDbRegAppTableRecord
  2
GEVID1208933865
 70
     0
  0
APPID
  5
4B5
330
9
100
AcDbSymbolTableRecord
100
AcDbRegAppTableRecord
  2
GEVID1208933866
 70
     0
  0
APPID
  5
4B6
330
9
100
AcDbSymbolTableRecord
100
AcDbRegAppTableRecord
  2
GEVID1208933867
 70
     0
  0
APPID
  5
4B7
330
9
100
AcDbSymbolTableRecord
100
AcDbRegAppTableRecord
  2
GEVID1208933868
 70
     0
  0
APPID
  5
4B8
330
9
100
AcDbSymbolTableRecord
100
AcDbRegAppTableRecord
  2
GEVID1208933869
 70
     0
  0
APPID
  5
4B9
330
9
100
AcDbSymbolTableRecord
100
AcDbRegAppTableRecord
  2
GEVID1208933870
 70
     0
  0
APPID
  5
4BA
330
9
100
AcDbSymbolTableRecord
100
AcDbRegAppTableRecord
  2
GEVID1208933871
 70
     0
  0
APPID
  5
4BB
330
9
100
AcDbSymbolTableRecord
100
AcDbRegAppTableRecord
  2
GEVID1208933872
 70
     0
  0
APPID
  5
4BC
330
9
100
AcDbSymbolTableRecord
100
AcDbRegAppTableRecord
  2
GEVID1208933873
 70
     0
  0
APPID
  5
4BD
330
9
100
AcDbSymbolTableRecord
100
AcDbRegAppTableRecord
  2
GEVID1208933874
 70
     0
  0
APPID
  5
4BE
330
9
100
AcDbSymbolTableRecord
100
AcDbRegAppTableRecord
  2
GEVID1208933875
 70
     0
  0
APPID
  5
4BF
330
9
100
AcDbSymbolTableRecord
100
AcDbRegAppTableRecord
  2
GEVID1208933876
 70
     0
  0
APPID
  5
4C0
330
9
100
AcDbSymbolTableRecord
100
AcDbRegAppTableRecord
  2
ACAD_DSTYLE_DIMRADIAL_EXTENSION
 70
     0
  0
APPID
  5
4C1
330
9
100
AcDbSymbolTableRecord
100
AcDbRegAppTableRecord
  2
GEVID1208999100
 70
     0
  0
APPID
  5
4C2
330
9
100
AcDbSymbolTableRecord
100
AcDbRegAppTableRecord
  2
GEVID1208999101
 70
     0
  0
APPID
  5
4C3
330
9
100
AcDbSymbolTableRecord
100
AcDbRegAppTableRecord
  2
GEVID1208999102
 70
     0
  0
APPID
  5
4C4
330
9
100
AcDbSymbolTableRecord
100
AcDbRegAppTableRecord
  2
GEVID1208999103
 70
     0
  0
APPID
  5
4C5
330
9
100
AcDbSymbolTableRecord
100
AcDbRegAppTableRecord
  2
GEVID1208999105
 70
     0
  0
APPID
  5
4C6
330
9
100
AcDbSymbolTableRecord
100
AcDbRegAppTableRecord
  2
GEVID1208999106
 70
     0
  0
APPID
  5
4C7
330
9
100
AcDbSymbolTableRecord
100
AcDbRegAppTableRecord
  2
GEVID1208999108
 70
     0
  0
APPID
  5
4C8
330
9
100
AcDbSymbolTableRecord
100
AcDbRegAppTableRecord
  2
GEVID1208999109
 70
     0
  0
APPID
  5
4C9
330
9
100
AcDbSymbolTableRecord
100
AcDbRegAppTableRecord
  2
GEVID1208999110
 70
     0
  0
APPID
  5
4CA
330
9
100
AcDbSymbolTableRecord
100
AcDbRegAppTableRecord
  2
GEVID1208999111
 70
     0
  0
APPID
  5
4CB
330
9
100
AcDbSymbolTableRecord
100
AcDbRegAppTableRecord
  2
GEVID1208999112
 70
     0
  0
APPID
  5
4CC
330
9
100
AcDbSymbolTableRecord
100
AcDbRegAppTableRecord
  2
GEVID1208999113
 70
     0
  0
APPID
  5
4CD
330
9
100
AcDbSymbolTableRecord
100
AcDbRegAppTableRecord
  2
GEVID1208999114
 70
     0
  0
APPID
  5
4CE
330
9
100
AcDbSymbolTableRecord
100
AcDbRegAppTableRecord
  2
GEVID1210218799
 70
     0
  0
APPID
  5
4CF
330
9
100
AcDbSymbolTableRecord
100
AcDbRegAppTableRecord
  2
GEVID1210218800
 70
     0
  0
APPID
  5
4D0
330
9
100
AcDbSymbolTableRecord
100
AcDbRegAppTableRecord
  2
GENIUS_GEFWELD_13
 70
     0
  0
APPID
  5
4D1
330
9
100
AcDbSymbolTableRecord
100
AcDbRegAppTableRecord
  2
GENIUS_GENOBJ-F-WELS_13
 70
     0
  0
APPID
  5
4D2
330
9
100
AcDbSymbolTableRecord
100
AcDbRegAppTableRecord
  2
AcadAnnotative
 70
     0
  0
APPID
  5
4D3
330
9
100
AcDbSymbolTableRecord
100
AcDbRegAppTableRecord
  2
GEVID1210145339
 70
     0
  0
APPID
  5
4D4
330
9
100
AcDbSymbolTableRecord
100
AcDbRegAppTableRecord
  2
ACAD_DSTYLE_DIMBREAK
 70
     0
  0
APPID
  5
4D5
330
9
100
AcDbSymbolTableRecord
100
AcDbRegAppTableRecord
  2
GEVID1210145340
 70
     0
  0
APPID
  5
4D6
330
9
100
AcDbSymbolTableRecord
100
AcDbRegAppTableRecord
  2
GEVID1210145341
 70
     0
  0
APPID
  5
4D7
330
9
100
AcDbSymbolTableRecord
100
AcDbRegAppTableRecord
  2
GEVID1210145342
 70
     0
  0
APPID
  5
4D8
330
9
100
AcDbSymbolTableRecord
100
AcDbRegAppTableRecord
  2
GEVID1210145343
 70
     0
  0
APPID
  5
4D9
330
9
100
AcDbSymbolTableRecord
100
AcDbRegAppTableRecord
  2
GEVID1210145344
 70
     0
  0
APPID
  5
4DA
330
9
100
AcDbSymbolTableRecord
100
AcDbRegAppTableRecord
  2
GEVID1210145345
 70
     0
  0
APPID
  5
4DB
330
9
100
AcDbSymbolTableRecord
100
AcDbRegAppTableRecord
  2
GEVID1210152816
 70
     0
  0
APPID
  5
4DC
330
9
100
AcDbSymbolTableRecord
100
AcDbRegAppTableRecord
  2
GEVID1210153850
 70
     0
  0
APPID
  5
4DD
330
9
100
AcDbSymbolTableRecord
100
AcDbRegAppTableRecord
  2
GEVID1210153851
 70
     0
  0
APPID
  5
4DE
330
9
100
AcDbSymbolTableRecord
100
AcDbRegAppTableRecord
  2
GEVID1210153852
 70
     0
  0
APPID
  5
4DF
330
9
100
AcDbSymbolTableRecord
100
AcDbRegAppTableRecord
  2
GEVID1210549898
 70
     0
  0
APPID
  5
4E0
330
9
100
AcDbSymbolTableRecord
100
AcDbRegAppTableRecord
  2
GEVID1210549899
 70
     0
  0
APPID
  5
4E1
330
9
100
AcDbSymbolTableRecord
100
AcDbRegAppTableRecord
  2
GEVID1210549900
 70
     0
  0
APPID
  5
4E2
330
9
100
AcDbSymbolTableRecord
100
AcDbRegAppTableRecord
  2
GEVID1210549901
 70
     0
  0
APPID
  5
4E3
330
9
100
AcDbSymbolTableRecord
100
AcDbRegAppTableRecord
  2
GEVID1210549902
 70
     0
  0
APPID
  5
4E4
330
9
100
AcDbSymbolTableRecord
100
AcDbRegAppTableRecord
  2
GEVID1210549903
 70
     0
  0
APPID
  5
4E5
330
9
100
AcDbSymbolTableRecord
100
AcDbRegAppTableRecord
  2
GEVID1210549904
 70
     0
  0
APPID
  5
4E6
330
9
100
AcDbSymbolTableRecord
100
AcDbRegAppTableRecord
  2
GEVID1210549905
 70
     0
  0
APPID
  5
4E7
330
9
100
AcDbSymbolTableRecord
100
AcDbRegAppTableRecord
  2
GEVID1210549906
 70
     0
  0
APPID
  5
4E8
330
9
100
AcDbSymbolTableRecord
100
AcDbRegAppTableRecord
  2
GEVID1210549907
 70
     0
  0
APPID
  5
4E9
330
9
100
AcDbSymbolTableRecord
100
AcDbRegAppTableRecord
  2
GEVID1210549908
 70
     0
  0
APPID
  5
4EA
330
9
100
AcDbSymbolTableRecord
100
AcDbRegAppTableRecord
  2
GEVID1210549909
 70
     0
  0
APPID
  5
4EB
330
9
100
AcDbSymbolTableRecord
100
AcDbRegAppTableRecord
  2
GEVID1210549910
 70
     0
  0
APPID
  5
4EC
330
9
100
AcDbSymbolTableRecord
100
AcDbRegAppTableRecord
  2
GEVID1210549911
 70
     0
  0
APPID
  5
4ED
330
9
100
AcDbSymbolTableRecord
100
AcDbRegAppTableRecord
  2
GEVID1210549912
 70
     0
  0
APPID
  5
4EE
330
9
100
AcDbSymbolTableRecord
100
AcDbRegAppTableRecord
  2
GEVID1210549913
 70
     0
  0
APPID
  5
4EF
330
9
100
AcDbSymbolTableRecord
100
AcDbRegAppTableRecord
  2
GEVID1210549914
 70
     0
  0
APPID
  5
4F0
330
9
100
AcDbSymbolTableRecord
100
AcDbRegAppTableRecord
  2
GEVID1210549915
 70
     0
  0
APPID
  5
4F1
330
9
100
AcDbSymbolTableRecord
100
AcDbRegAppTableRecord
  2
GEVID1210549916
 70
     0
  0
APPID
  5
4F2
330
9
100
AcDbSymbolTableRecord
100
AcDbRegAppTableRecord
  2
GEVID1210549917
 70
     0
  0
APPID
  5
4F3
330
9
100
AcDbSymbolTableRecord
100
AcDbRegAppTableRecord
  2
GENIUS_GENOBJ-N-CRS_13
 70
     0
  0
APPID
  5
4F4
330
9
100
AcDbSymbolTableRecord
100
AcDbRegAppTableRecord
  2
GEVID1210549918
 70
     0
  0
APPID
  5
4F5
330
9
100
AcDbSymbolTableRecord
100
AcDbRegAppTableRecord
  2
GENIUS_GENOBJ-N-CRC_13
 70
     0
  0
APPID
  5
4F6
330
9
100
AcDbSymbolTableRecord
100
AcDbRegAppTableRecord
  2
GENIUS_GENCRC_14
 70
     0
  0
APPID
  5
4F7
330
9
100
AcDbSymbolTableRecord
100
AcDbRegAppTableRecord
  2
GEVID1210549919
 70
     0
  0
APPID
  5
4F8
330
9
100
AcDbSymbolTableRecord
100
AcDbRegAppTableRecord
  2
GEVID1210549921
 70
     0
  0
APPID
  5
4F9
330
9
100
AcDbSymbolTableRecord
100
AcDbRegAppTableRecord
  2
GEVID1210549922
 70
     0
  0
APPID
  5
4FA
330
9
100
AcDbSymbolTableRecord
100
AcDbRegAppTableRecord
  2
GEVID1210635173
 70
     0
  0
APPID
  5
4FB
330
9
100
AcDbSymbolTableRecord
100
AcDbRegAppTableRecord
  2
GEVID1210635174
 70
     0
  0
APPID
  5
4FC
330
9
100
AcDbSymbolTableRecord
100
AcDbRegAppTableRecord
  2
GEVID1210635175
 70
     0
  0
APPID
  5
4FD
330
9
100
AcDbSymbolTableRecord
100
AcDbRegAppTableRecord
  2
GEVID1210635176
 70
     0
  0
APPID
  5
4FE
330
9
100
AcDbSymbolTableRecord
100
AcDbRegAppTableRecord
  2
GEVID1210635177
 70
     0
  0
APPID
  5
4FF
330
9
100
AcDbSymbolTableRecord
100
AcDbRegAppTableRecord
  2
GEVID1210635178
 70
     0
  0
APPID
  5
500
330
9
100
AcDbSymbolTableRecord
100
AcDbRegAppTableRecord
  2
GENIUS_GENIUS_GENBHEDTMP_13
 70
     0
  0
APPID
  5
501
330
9
100
AcDbSymbolTableRecord
100
AcDbRegAppTableRecord
  2
GEVID1210635179
 70
     0
  0
APPID
  5
502
330
9
100
AcDbSymbolTableRecord
100
AcDbRegAppTableRecord
  2
GEVID1210635180
 70
     0
  0
APPID
  5
503
330
9
100
AcDbSymbolTableRecord
100
AcDbRegAppTableRecord
  2
GEVID1210635181
 70
     0
  0
APPID
  5
504
330
9
100
AcDbSymbolTableRecord
100
AcDbRegAppTableRecord
  2
GEVID1210635182
 70
     0
  0
APPID
  5
505
330
9
100
AcDbSymbolTableRecord
100
AcDbRegAppTableRecord
  2
GEVID1210635184
 70
     0
  0
APPID
  5
506
330
9
100
AcDbSymbolTableRecord
100
AcDbRegAppTableRecord
  2
GEVID1210635185
 70
     0
  0
APPID
  5
507
330
9
100
AcDbSymbolTableRecord
100
AcDbRegAppTableRecord
  2
GEVID1210635186
 70
     0
  0
APPID
  5
508
330
9
100
AcDbSymbolTableRecord
100
AcDbRegAppTableRecord
  2
GEVID1210635187
 70
     0
  0
APPID
  5
509
330
9
100
AcDbSymbolTableRecord
100
AcDbRegAppTableRecord
  2
GEVID1210635188
 70
     0
  0
APPID
  5
50A
330
9
100
AcDbSymbolTableRecord
100
AcDbRegAppTableRecord
  2
GEVID1210635189
 70
     0
  0
APPID
  5
50B
330
9
100
AcDbSymbolTableRecord
100
AcDbRegAppTableRecord
  2
GEVID1210635190
 70
     0
  0
APPID
  5
50C
330
9
100
AcDbSymbolTableRecord
100
AcDbRegAppTableRecord
  2
GENIUS_GENREC_14
 70
     0
  0
APPID
  5
50D
330
9
100
AcDbSymbolTableRecord
100
AcDbRegAppTableRecord
  2
GENIUS_GENOBJ-N-REC_13
 70
     0
  0
APPID
  5
50E
330
9
100
AcDbSymbolTableRecord
100
AcDbRegAppTableRecord
  2
GEVID1210676655
 70
     0
  0
APPID
  5
50F
330
9
100
AcDbSymbolTableRecord
100
AcDbRegAppTableRecord
  2
GEVID1210676656
 70
     0
  0
APPID
  5
510
330
9
100
AcDbSymbolTableRecord
100
AcDbRegAppTableRecord
  2
GEVID1210676657
 70
     0
  0
APPID
  5
511
330
9
100
AcDbSymbolTableRecord
100
AcDbRegAppTableRecord
  2
GEVID1210676659
 70
     0
  0
APPID
  5
512
330
9
100
AcDbSymbolTableRecord
100
AcDbRegAppTableRecord
  2
GEVID1210676660
 70
     0
  0
APPID
  5
513
330
9
100
AcDbSymbolTableRecord
100
AcDbRegAppTableRecord
  2
GEVID1210676661
 70
     0
  0
APPID
  5
514
330
9
100
AcDbSymbolTableRecord
100
AcDbRegAppTableRecord
  2
GEVID1210676662
 70
     0
  0
APPID
  5
515
330
9
100
AcDbSymbolTableRecord
100
AcDbRegAppTableRecord
  2
GEVID1210721646
 70
     0
  0
APPID
  5
516
330
9
100
AcDbSymbolTableRecord
100
AcDbRegAppTableRecord
  2
GEVID1210721647
 70
     0
  0
APPID
  5
517
330
9
100
AcDbSymbolTableRecord
100
AcDbRegAppTableRecord
  2
GEVID1210721648
 70
     0
  0
APPID
  5
518
330
9
100
AcDbSymbolTableRecord
100
AcDbRegAppTableRecord
  2
GEVID1210721649
 70
     0
  0
APPID
  5
519
330
9
100
AcDbSymbolTableRecord
100
AcDbRegAppTableRecord
  2
GEVID1210721650
 70
     0
  0
APPID
  5
51A
330
9
100
AcDbSymbolTableRecord
100
AcDbRegAppTableRecord
  2
GEVID1210721651
 70
     0
  0
APPID
  5
51B
330
9
100
AcDbSymbolTableRecord
100
AcDbRegAppTableRecord
  2
GEVID1210721652
 70
     0
  0
APPID
  5
51C
330
9
100
AcDbSymbolTableRecord
100
AcDbRegAppTableRecord
  2
GEVID1210721653
 70
     0
  0
APPID
  5
51D
330
9
100
AcDbSymbolTableRecord
100
AcDbRegAppTableRecord
  2
PE_URL
 70
     0
  0
APPID
  5
51E
330
9
100
AcDbSymbolTableRecord
100
AcDbRegAppTableRecord
  2
GEVID1210825555
 70
     0
  0
APPID
  5
51F
330
9
100
AcDbSymbolTableRecord
100
AcDbRegAppTableRecord
  2
GEVID1210825556
 70
     0
  0
APPID
  5
520
330
9
100
AcDbSymbolTableRecord
100
AcDbRegAppTableRecord
  2
GEVID1210825557
 70
     0
  0
APPID
  5
521
330
9
100
AcDbSymbolTableRecord
100
AcDbRegAppTableRecord
  2
GEVID1210825558
 70
     0
  0
APPID
  5
522
330
9
100
AcDbSymbolTableRecord
100
AcDbRegAppTableRecord
  2
GEVID1210825559
 70
     0
  0
APPID
  5
523
330
9
100
AcDbSymbolTableRecord
100
AcDbRegAppTableRecord
  2
GEVID1210825560
 70
     0
  0
APPID
  5
524
330
9
100
AcDbSymbolTableRecord
100
AcDbRegAppTableRecord
  2
GEVID1210825561
 70
     0
  0
APPID
  5
525
330
9
100
AcDbSymbolTableRecord
100
AcDbRegAppTableRecord
  2
GEVID1210825562
 70
     0
  0
APPID
  5
526
330
9
100
AcDbSymbolTableRecord
100
AcDbRegAppTableRecord
  2
GEVID1210825563
 70
     0
  0
APPID
  5
527
330
9
100
AcDbSymbolTableRecord
100
AcDbRegAppTableRecord
  2
GEVID1210825564
 70
     0
  0
APPID
  5
528
330
9
100
AcDbSymbolTableRecord
100
AcDbRegAppTableRecord
  2
GEVID1210825565
 70
     0
  0
APPID
  5
529
330
9
100
AcDbSymbolTableRecord
100
AcDbRegAppTableRecord
  2
GEVID1210825566
 70
     0
  0
APPID
  5
52A
330
9
100
AcDbSymbolTableRecord
100
AcDbRegAppTableRecord
  2
GEVID1210825567
 70
     0
  0
APPID
  5
52B
330
9
100
AcDbSymbolTableRecord
100
AcDbRegAppTableRecord
  2
GENIUS_GENOBJ-N-ZOO_13
 70
     0
  0
APPID
  5
52C
330
9
100
AcDbSymbolTableRecord
100
AcDbRegAppTableRecord
  2
GENIUS_GENZOO_17
 70
     0
  0
APPID
  5
52D
330
9
100
AcDbSymbolTableRecord
100
AcDbRegAppTableRecord
  2
ACADANNOTATIVEDECOMPOSITION
 70
     0
  0
APPID
  5
52E
330
9
100
AcDbSymbolTableRecord
100
AcDbRegAppTableRecord
  2
GENIUS_GENOBJ-N-HTC_13
 70
     0
  0
APPID
  5
52F
330
9
100
AcDbSymbolTableRecord
100
AcDbRegAppTableRecord
  2
GENIUS_GENHATCH_13
 70
     0
  0
APPID
  5
530
330
9
100
AcDbSymbolTableRecord
100
AcDbRegAppTableRecord
  2
GEVID1210896020
 70
     0
  0
APPID
  5
531
330
9
100
AcDbSymbolTableRecord
100
AcDbRegAppTableRecord
  2
GEVID1210896021
 70
     0
  0
APPID
  5
532
330
9
100
AcDbSymbolTableRecord
100
AcDbRegAppTableRecord
  2
GEVID1209083540
 70
     0
  0
APPID
  5
533
330
9
100
AcDbSymbolTableRecord
100
AcDbRegAppTableRecord
  2
GEVMK
 70
     0
  0
APPID
  5
534
330
9
100
AcDbSymbolTableRecord
100
AcDbRegAppTableRecord
  2
GEVID1209083542
 70
     0
  0
APPID
  5
535
330
9
100
AcDbSymbolTableRecord
100
AcDbRegAppTableRecord
  2
GEVID1209083543
 70
     0
  0
APPID
  5
536
330
9
100
AcDbSymbolTableRecord
100
AcDbRegAppTableRecord
  2
GEVID1209083544
 70
     0
  0
APPID
  5
537
330
9
100
AcDbSymbolTableRecord
100
AcDbRegAppTableRecord
  2
GEVID1209083545
 70
     0
  0
APPID
  5
538
330
9
100
AcDbSymbolTableRecord
100
AcDbRegAppTableRecord
  2
GEVID1209083546
 70
     0
  0
APPID
  5
539
330
9
100
AcDbSymbolTableRecord
100
AcDbRegAppTableRecord
  2
GEVID1209083547
 70
     0
  0
APPID
  5
53A
330
9
100
AcDbSymbolTableRecord
100
AcDbRegAppTableRecord
  2
GEVID1209083548
 70
     0
  0
APPID
  5
53B
330
9
100
AcDbSymbolTableRecord
100
AcDbRegAppTableRecord
  2
GEVID1209083549
 70
     0
  0
APPID
  5
53C
330
9
100
AcDbSymbolTableRecord
100
AcDbRegAppTableRecord
  2
GEVID1209083550
 70
     0
  0
APPID
  5
53D
330
9
100
AcDbSymbolTableRecord
100
AcDbRegAppTableRecord
  2
GEVID1209083551
 70
     0
  0
APPID
  5
53E
330
9
100
AcDbSymbolTableRecord
100
AcDbRegAppTableRecord
  2
GEVID1209083552
 70
     0
  0
APPID
  5
53F
330
9
100
AcDbSymbolTableRecord
100
AcDbRegAppTableRecord
  2
GEVID1209083553
 70
     0
  0
APPID
  5
540
330
9
100
AcDbSymbolTableRecord
100
AcDbRegAppTableRecord
  2
GEVID1210896022
 70
     0
  0
APPID
  5
541
330
9
100
AcDbSymbolTableRecord
100
AcDbRegAppTableRecord
  2
GEVID1211508364
 70
     0
  0
APPID
  5
542
330
9
100
AcDbSymbolTableRecord
100
AcDbRegAppTableRecord
  2
GEVID1211414908
 70
     0
  0
APPID
  5
543
330
9
100
AcDbSymbolTableRecord
100
AcDbRegAppTableRecord
  2
GEVID1211414909
 70
     0
  0
APPID
  5
544
330
9
100
AcDbSymbolTableRecord
100
AcDbRegAppTableRecord
  2
GEVID1211508359
 70
     0
  0
APPID
  5
545
330
9
100
AcDbSymbolTableRecord
100
AcDbRegAppTableRecord
  2
GEVID1211508360
 70
     0
  0
APPID
  5
546
330
9
100
AcDbSymbolTableRecord
100
AcDbRegAppTableRecord
  2
GEVID1211508361
 70
     0
  0
APPID
  5
547
330
9
100
AcDbSymbolTableRecord
100
AcDbRegAppTableRecord
  2
GEVID1211508362
 70
     0
  0
APPID
  5
548
330
9
100
AcDbSymbolTableRecord
100
AcDbRegAppTableRecord
  2
GEVID1211508363
 70
     0
  0
APPID
  5
549
330
9
100
AcDbSymbolTableRecord
100
AcDbRegAppTableRecord
  2
GEVID1211878469
 70
     0
  0
APPID
  5
54A
330
9
100
AcDbSymbolTableRecord
100
AcDbRegAppTableRecord
  2
GEVID1212642819
 70
     0
  0
APPID
  5
54B
330
9
100
AcDbSymbolTableRecord
100
AcDbRegAppTableRecord
  2
GEVID1212642820
 70
     0
  0
APPID
  5
54C
330
9
100
AcDbSymbolTableRecord
100
AcDbRegAppTableRecord
  2
GEVID1212642821
 70
     0
  0
APPID
  5
54D
330
9
100
AcDbSymbolTableRecord
100
AcDbRegAppTableRecord
  2
GEVID1212642822
 70
     0
  0
APPID
  5
54E
330
9
100
AcDbSymbolTableRecord
100
AcDbRegAppTableRecord
  2
GEVID1212642823
 70
     0
  0
APPID
  5
54F
330
9
100
AcDbSymbolTableRecord
100
AcDbRegAppTableRecord
  2
GEVID1212642825
 70
     0
  0
APPID
  5
550
330
9
100
AcDbSymbolTableRecord
100
AcDbRegAppTableRecord
  2
GEVID1212642826
 70
     0
  0
APPID
  5
551
330
9
100
AcDbSymbolTableRecord
100
AcDbRegAppTableRecord
  2
GEVID1212642827
 70
     0
  0
APPID
  5
552
330
9
100
AcDbSymbolTableRecord
100
AcDbRegAppTableRecord
  2
GEVID1212642828
 70
     0
  0
APPID
  5
553
330
9
100
AcDbSymbolTableRecord
100
AcDbRegAppTableRecord
  2
GEVID1212642831
 70
     0
  0
APPID
  5
554
330
9
100
AcDbSymbolTableRecord
100
AcDbRegAppTableRecord
  2
GEVID1212642834
 70
     0
  0
APPID
  5
555
330
9
100
AcDbSymbolTableRecord
100
AcDbRegAppTableRecord
  2
GEVID1212642835
 70
     0
  0
APPID
  5
556
330
9
100
AcDbSymbolTableRecord
100
AcDbRegAppTableRecord
  2
GEVID1212642836
 70
     0
  0
APPID
  5
557
330
9
100
AcDbSymbolTableRecord
100
AcDbRegAppTableRecord
  2
GEVID1212642837
 70
     0
  0
APPID
  5
558
330
9
100
AcDbSymbolTableRecord
100
AcDbRegAppTableRecord
  2
GEVID1212642839
 70
     0
  0
APPID
  5
559
330
9
100
AcDbSymbolTableRecord
100
AcDbRegAppTableRecord
  2
GEVID1212642840
 70
     0
  0
APPID
  5
55A
330
9
100
AcDbSymbolTableRecord
100
AcDbRegAppTableRecord
  2
GEVID1212642841
 70
     0
  0
APPID
  5
55B
330
9
100
AcDbSymbolTableRecord
100
AcDbRegAppTableRecord
  2
GEVID1212655312
 70
     0
  0
APPID
  5
55C
330
9
100
AcDbSymbolTableRecord
100
AcDbRegAppTableRecord
  2
GEVID1212655313
 70
     0
  0
APPID
  5
55D
330
9
100
AcDbSymbolTableRecord
100
AcDbRegAppTableRecord
  2
GEVID1212656533
 70
     0
  0
APPID
  5
55E
330
9
100
AcDbSymbolTableRecord
100
AcDbRegAppTableRecord
  2
GEVID1212656534
 70
     0
  0
APPID
  5
55F
330
9
100
AcDbSymbolTableRecord
100
AcDbRegAppTableRecord
  2
GEVID1212656535
 70
     0
  0
APPID
  5
560
330
9
100
AcDbSymbolTableRecord
100
AcDbRegAppTableRecord
  2
GEVID1212656536
 70
     0
  0
APPID
  5
561
330
9
100
AcDbSymbolTableRecord
100
AcDbRegAppTableRecord
  2
GEVID1212656538
 70
     0
  0
APPID
  5
562
330
9
100
AcDbSymbolTableRecord
100
AcDbRegAppTableRecord
  2
GEVID1212656541
 70
     0
  0
APPID
  5
563
330
9
100
AcDbSymbolTableRecord
100
AcDbRegAppTableRecord
  2
GEVID1212656543
 70
     0
  0
APPID
  5
564
330
9
100
AcDbSymbolTableRecord
100
AcDbRegAppTableRecord
  2
GENIUS_GENOBJ-F-PFASSM_13
 70
     0
  0
APPID
  5
565
330
9
100
AcDbSymbolTableRecord
100
AcDbRegAppTableRecord
  2
GEVID1212656544
 70
     0
  0
APPID
  5
566
330
9
100
AcDbSymbolTableRecord
100
AcDbRegAppTableRecord
  2
GEVID1212656545
 70
     0
  0
APPID
  5
567
330
9
100
AcDbSymbolTableRecord
100
AcDbRegAppTableRecord
  2
GEVID1212656546
 70
     0
  0
APPID
  5
568
330
9
100
AcDbSymbolTableRecord
100
AcDbRegAppTableRecord
  2
GEVID1212656547
 70
     0
  0
APPID
  5
569
330
9
100
AcDbSymbolTableRecord
100
AcDbRegAppTableRecord
  2
GEVID1212656548
 70
     0
  0
APPID
  5
56A
330
9
100
AcDbSymbolTableRecord
100
AcDbRegAppTableRecord
  2
GEVID1212656549
 70
     0
  0
APPID
  5
56B
330
9
100
AcDbSymbolTableRecord
100
AcDbRegAppTableRecord
  2
GEVID1212656550
 70
     0
  0
APPID
  5
56C
330
9
100
AcDbSymbolTableRecord
100
AcDbRegAppTableRecord
  2
GEVID1212656552
 70
     0
  0
APPID
  5
56D
330
9
100
AcDbSymbolTableRecord
100
AcDbRegAppTableRecord
  2
GEVID1212656553
 70
     0
  0
APPID
  5
56E
330
9
100
AcDbSymbolTableRecord
100
AcDbRegAppTableRecord
  2
GEVID1212656554
 70
     0
  0
APPID
  5
56F
330
9
100
AcDbSymbolTableRecord
100
AcDbRegAppTableRecord
  2
GEVID1212656555
 70
     0
  0
APPID
  5
570
330
9
100
AcDbSymbolTableRecord
100
AcDbRegAppTableRecord
  2
GEVID1212656556
 70
     0
  0
APPID
  5
571
330
9
100
AcDbSymbolTableRecord
100
AcDbRegAppTableRecord
  2
GEVID1212656557
 70
     0
  0
APPID
  5
572
330
9
100
AcDbSymbolTableRecord
100
AcDbRegAppTableRecord
  2
GEVID1212656559
 70
     0
  0
APPID
  5
573
330
9
100
AcDbSymbolTableRecord
100
AcDbRegAppTableRecord
  2
GEVID1212656560
 70
     0
  0
APPID
  5
574
330
9
100
AcDbSymbolTableRecord
100
AcDbRegAppTableRecord
  2
GEVID1212656561
 70
     0
  0
APPID
  5
575
330
9
100
AcDbSymbolTableRecord
100
AcDbRegAppTableRecord
  2
GEVID1212656562
 70
     0
  0
APPID
  5
576
330
9
100
AcDbSymbolTableRecord
100
AcDbRegAppTableRecord
  2
GEVID1212656563
 70
     0
  0
APPID
  5
577
330
9
100
AcDbSymbolTableRecord
100
AcDbRegAppTableRecord
  2
GEVID1212711781
 70
     0
  0
APPID
  5
578
330
9
100
AcDbSymbolTableRecord
100
AcDbRegAppTableRecord
  2
GEVID1212711782
 70
     0
  0
APPID
  5
579
330
9
100
AcDbSymbolTableRecord
100
AcDbRegAppTableRecord
  2
GEVID1212711783
 70
     0
  0
APPID
  5
57A
330
9
100
AcDbSymbolTableRecord
100
AcDbRegAppTableRecord
  2
GEVID1212711784
 70
     0
  0
APPID
  5
57B
330
9
100
AcDbSymbolTableRecord
100
AcDbRegAppTableRecord
  2
GEVID1212711788
 70
     0
  0
APPID
  5
57C
330
9
100
AcDbSymbolTableRecord
100
AcDbRegAppTableRecord
  2
GEVID1212711789
 70
     0
  0
APPID
  5
57D
330
9
100
AcDbSymbolTableRecord
100
AcDbRegAppTableRecord
  2
GEVID1212711790
 70
     0
  0
APPID
  5
57E
330
9
100
AcDbSymbolTableRecord
100
AcDbRegAppTableRecord
  2
GEVID1212711791
 70
     0
  0
APPID
  5
57F
330
9
100
AcDbSymbolTableRecord
100
AcDbRegAppTableRecord
  2
GEVID1212711792
 70
     0
  0
APPID
  5
580
330
9
100
AcDbSymbolTableRecord
100
AcDbRegAppTableRecord
  2
GEVID1212711793
 70
     0
  0
APPID
  5
581
330
9
100
AcDbSymbolTableRecord
100
AcDbRegAppTableRecord
  2
GEVID1212711794
 70
     0
  0
APPID
  5
582
330
9
100
AcDbSymbolTableRecord
100
AcDbRegAppTableRecord
  2
GEVID1212711795
 70
     0
  0
APPID
  5
583
330
9
100
AcDbSymbolTableRecord
100
AcDbRegAppTableRecord
  2
GEVID1212711797
 70
     0
  0
APPID
  5
584
330
9
100
AcDbSymbolTableRecord
100
AcDbRegAppTableRecord
  2
GEVID1212711798
 70
     0
  0
APPID
  5
585
330
9
100
AcDbSymbolTableRecord
100
AcDbRegAppTableRecord
  2
GEVID1212711799
 70
     0
  0
APPID
  5
586
330
9
100
AcDbSymbolTableRecord
100
AcDbRegAppTableRecord
  2
GEVID1212711800
 70
     0
  0
APPID
  5
587
330
9
100
AcDbSymbolTableRecord
100
AcDbRegAppTableRecord
  2
GEVID1212711801
 70
     0
  0
APPID
  5
588
330
9
100
AcDbSymbolTableRecord
100
AcDbRegAppTableRecord
  2
GEVID1212711802
 70
     0
  0
APPID
  5
589
330
9
100
AcDbSymbolTableRecord
100
AcDbRegAppTableRecord
  2
GEVID1212711803
 70
     0
  0
APPID
  5
58A
330
9
100
AcDbSymbolTableRecord
100
AcDbRegAppTableRecord
  2
GEVID1212711804
 70
     0
  0
APPID
  5
58B
330
9
100
AcDbSymbolTableRecord
100
AcDbRegAppTableRecord
  2
GEVID1212711805
 70
     0
  0
APPID
  5
58C
330
9
100
AcDbSymbolTableRecord
100
AcDbRegAppTableRecord
  2
GEVID1212711806
 70
     0
  0
APPID
  5
58D
330
9
100
AcDbSymbolTableRecord
100
AcDbRegAppTableRecord
  2
GEVID1212711807
 70
     0
  0
APPID
  5
58E
330
9
100
AcDbSymbolTableRecord
100
AcDbRegAppTableRecord
  2
GEVID1212711808
 70
     0
  0
APPID
  5
58F
330
9
100
AcDbSymbolTableRecord
100
AcDbRegAppTableRecord
  2
GEVID1212711809
 70
     0
  0
APPID
  5
590
330
9
100
AcDbSymbolTableRecord
100
AcDbRegAppTableRecord
  2
GEVID1212711810
 70
     0
  0
APPID
  5
591
330
9
100
AcDbSymbolTableRecord
100
AcDbRegAppTableRecord
  2
GEVID1212711811
 70
     0
  0
APPID
  5
90A
330
9
100
AcDbSymbolTableRecord
100
AcDbRegAppTableRecord
  2
GENIUS_GENTRA_14
 70
     0
  0
APPID
  5
919
330
9
100
AcDbSymbolTableRecord
100
AcDbRegAppTableRecord
  2
GENIUS_GENOBJ-N-TIT_13
 70
     0
  0
APPID
  5
91A
330
9
100
AcDbSymbolTableRecord
100
AcDbRegAppTableRecord
  2
GENIUS_GENTITLE_13
 70
     0
  0
APPID
  5
949
330
9
100
AcDbSymbolTableRecord
100
AcDbRegAppTableRecord
  2
GENIUS_GENBLLY_14
 70
     0
  0
APPID
  5
DDD
330
9
100
AcDbSymbolTableRecord
100
AcDbRegAppTableRecord
  2
GEVID1213165152
 70
     0
  0
APPID
  5
12F9
330
9
100
AcDbSymbolTableRecord
100
AcDbRegAppTableRecord
  2
AcDbDynamicBlockTrueName
 70
     0
  0
APPID
  5
12FA
330
9
100
AcDbSymbolTableRecord
100
AcDbRegAppTableRecord
  2
ACDBBLOCKREPETAG
 70
     0
  0
APPID
  5
1C15
330
9
100
AcDbSymbolTableRecord
100
AcDbRegAppTableRecord
  2
GEVID1214872427
 70
     0
  0
APPID
  5
1C2A
330
9
100
AcDbSymbolTableRecord
100
AcDbRegAppTableRecord
  2
GEVID1214872428
 70
     0
  0
APPID
  5
1C2F
330
9
100
AcDbSymbolTableRecord
100
AcDbRegAppTableRecord
  2
GEVID1214872429
 70
     0
  0
APPID
  5
1C33
330
9
100
AcDbSymbolTableRecord
100
AcDbRegAppTableRecord
  2
GEVID1214872430
 70
     0
  0
APPID
  5
1C3F
330
9
100
AcDbSymbolTableRecord
100
AcDbRegAppTableRecord
  2
GEVID1214872432
 70
     0
  0
APPID
  5
1C4E
330
9
100
AcDbSymbolTableRecord
100
AcDbRegAppTableRecord
  2
GEVID1214872433
 70
     0
  0
APPID
  5
20DC
330
9
100
AcDbSymbolTableRecord
100
AcDbRegAppTableRecord
  2
AcDbDynamicBlockGUID
 70
     0
  0
APPID
  5
20FD
330
9
100
AcDbSymbolTableRecord
100
AcDbRegAppTableRecord
  2
GENIUS_GENOBJ-N-REV_13
 70
     0
  0
APPID
  5
20FE
330
9
100
AcDbSymbolTableRecord
100
AcDbRegAppTableRecord
  2
GENIUS_GENOBJ-N-RSSYM_13
 70
     0
  0
APPID
  5
20FF
330
9
100
AcDbSymbolTableRecord
100
AcDbRegAppTableRecord
  2
GENIUS_GENSYMENT_13
 70
     0
  0
APPID
  5
2100
330
9
100
AcDbSymbolTableRecord
100
AcDbRegAppTableRecord
  2
GENIUS_GENSCSYM_13
 70
     0
  0
APPID
  5
6399
330
9
100
AcDbSymbolTableRecord
100
AcDbRegAppTableRecord
  2
GEVID1241752657
 70
     0
  0
APPID
  5
63D4
330
9
100
AcDbSymbolTableRecord
100
AcDbRegAppTableRecord
  2
GEVID1241752658
 70
     0
  0
APPID
  5
69C1
330
9
100
AcDbSymbolTableRecord
100
AcDbRegAppTableRecord
  2
GEVID1241752659
 70
     0
  0
ENDTAB
  0
TABLE
  2
DIMSTYLE
  5
A
330
0
100
AcDbSymbolTable
 70
    29
100
AcDbDimStyleTable
 71
     1
340
5AB
  0
DIMSTYLE
105
5AB
330
A
100
AcDbSymbolTableRecord
100
AcDbDimStyleTableRecord
  2
SEISA
 70
     0
  4
"
 40
1.5
 41
2.5
 42
0.625
 43
10.0
 44
0.625
 47
0.1
 48
0.1
 73
     0
 74
     0
 77
     3
 78
     8
 79
     2
 90
     1
140
3.5
141
0.0
143
0.0393701
146
0.71
147
1.5
172
     1
176
     3
177
     3
178
     3
271
     2
272
     2
283
     0
286
     8
340
5D5
341
69
342
69
371
    -1
372
    -1
1001
ACAD_DSTYLE_DIMJAG
1070
   388
1040
1.5
1001
ACAD_DSTYLE_DIMTALN
1070
   392
1070
     1
  0
DIMSTYLE
105
5E9
102
{ACAD_REACTORS
330
5A7C
330
5AE6
330
5B02
330
5B43
330
5C80
330
5C98
330
5CC2
330
5D65
330
5DAD
330
5DC5
330
5DDD
330
5E0D
330
5E25
330
7E06
330
7E30
330
910B
330
926C
330
92E9
330
92EC
330
9402
102
}
330
A
100
AcDbSymbolTableRecord
100
AcDbDimStyleTableRecord
  2
SEISA$0
 70
     0
  4
"
 40
1.5
 41
2.5
 42
0.625
 43
10.0
 44
0.625
 47
0.1
 48
0.1
 73
     0
 74
     0
 77
     3
 78
     8
 79
     2
 90
     1
140
3.5
141
0.0
143
0.0393701
146
0.71
147
1.5
172
     1
176
     3
177
     3
178
     3
271
     2
272
     2
283
     0
286
     8
340
5D5
341
69
342
69
371
    -1
372
    -1
  0
DIMSTYLE
105
9796
330
A
100
AcDbSymbolTableRecord
100
AcDbDimStyleTableRecord
  2
AM_ISO
 70
     0
  4
"
 41
2.5
 42
1.0
 43
10.0
 44
1.0
 47
0.1
 48
0.1
 73
     0
 74
     0
 77
     1
 78
     8
 79
     2
 90
     1
140
3.5
141
0.0
143
0.0393701
146
0.71
147
1.5
172
     1
176
   256
177
   256
178
     2
271
     2
272
     3
274
     4
283
     0
284
     8
340
11
371
    -1
372
    -1
  0
DIMSTYLE
105
9797
330
A
100
AcDbSymbolTableRecord
100
AcDbDimStyleTableRecord
  2
AM_ISO$3
 70
     0
  4
"
 41
2.5
 42
1.0
 43
10.0
 44
1.0
 47
0.1
 48
0.1
 73
     0
 77
     1
 78
     8
 79
     2
 90
     1
140
3.5
141
0.0
143
0.0393701
146
0.71
147
1.5
176
   256
177
   256
178
     2
271
     2
272
     3
274
     4
283
     0
284
     8
288
     1
289
     0
340
11
371
    -1
372
    -1
  0
DIMSTYLE
105
9798
330
A
100
AcDbSymbolTableRecord
100
AcDbDimStyleTableRecord
  2
AM_ISO$4
 70
     0
  4
"
 41
2.5
 42
1.0
 43
10.0
 44
1.0
 47
0.1
 48
0.1
 73
     0
 77
     1
 78
     8
 79
     2
 90
     1
140
3.5
141
0.0
143
0.0393701
146
0.71
147
1.5
176
   256
177
   256
178
     2
271
     2
272
     3
274
     4
283
     0
284
     8
288
     1
289
     0
340
11
371
    -1
372
    -1
  0
DIMSTYLE
105
9799
330
A
100
AcDbSymbolTableRecord
100
AcDbDimStyleTableRecord
  2
AM_ISO$6
 70
     0
  4
"
 41
2.5
 42
1.0
 43
10.0
 44
1.0
 47
0.1
 48
0.1
 73
     0
 74
     0
 78
     8
 79
     2
 90
     1
140
3.5
141
0.0
143
0.0393701
146
0.71
147
1.5
172
     1
176
   256
177
   256
178
     2
271
     2
272
     3
274
     4
283
     0
284
     8
340
11
371
    -1
372
    -1
  0
DIMSTYLE
105
979A
330
A
100
AcDbSymbolTableRecord
100
AcDbDimStyleTableRecord
  2
AM_ISO$7
 70
     0
  4
"
 41
2.5
 42
1.0
 43
10.0
 44
1.0
 47
0.1
 48
0.1
 73
     0
 74
     0
 77
     1
 78
     8
 79
     2
 90
     1
140
5.0
141
0.0
143
0.0393701
146
0.71
147
1.5
172
     1
176
   256
177
   256
178
     2
271
     2
272
     3
274
     4
283
     0
284
     8
340
11
371
    -1
372
    -1
  0
DIMSTYLE
105
979B
330
A
100
AcDbSymbolTableRecord
100
AcDbDimStyleTableRecord
  2
AM_ISO$SF
 70
     0
  4
"
 41
2.5
 42
1.0
 43
10.0
 44
1.0
 47
0.1
 48
0.1
 73
     0
 74
     0
 75
     1
 76
     1
 77
     1
 78
     8
 79
     2
 90
     1
140
3.5
141
0.0
143
0.0393701
146
0.71
147
1.5
172
     1
176
   256
177
   256
178
     2
271
     2
272
     3
274
     4
283
     0
284
     8
340
11
371
    -1
372
    -1
  0
DIMSTYLE
105
979C
330
A
100
AcDbSymbolTableRecord
100
AcDbDimStyleTableRecord
  2
AM_ISO$SH
 70
     0
  4
"
 41
2.5
 42
1.0
 43
10.0
 44
1.0
 47
0.1
 48
0.1
 73
     0
 74
     0
 75
     1
 76
     1
 77
     1
 78
     8
 79
     2
 90
     1
140
3.5
141
0.0
143
0.0393701
144
2.0
146
0.71
147
1.5
172
     1
173
     1
176
   256
177
   256
178
     2
271
     2
272
     3
274
     4
283
     0
284
     8
340
11
343
74
371
    -1
372
    -1
  0
ENDTAB
  0
TABLE
  2
BLOCK_RECORD
  5
1
330
0
100
AcDbSymbolTable
 70
    38
  0
BLOCK_RECORD
  5
1F
102
{ACAD_XDICTIONARY
360
82
102
}
330
1
100
AcDbSymbolTableRecord
100
AcDbBlockTableRecord
  2
*Model_Space
340
22
 70
     0
280
     1
281
     0
  0
BLOCK_RECORD
  5
1B
330
1
100
AcDbSymbolTableRecord
100
AcDbBlockTableRecord
  2
*Paper_Space
340
1E
 70
     0
280
     1
281
     0
  0
BLOCK_RECORD
  5
23
330
1
100
AcDbSymbolTableRecord
100
AcDbBlockTableRecord
  2
*Paper_Space0
340
26
 70
     0
280
     1
281
     0
  0
BLOCK_RECORD
  5
69
330
1
100
AcDbSymbolTableRecord
100
AcDbBlockTableRecord
  2
_Open30
340
0
102
{BLKREFS
331
8B9C
331
8B9D
331
8BAD
331
8BAE
331
8BC1
331
8BC2
331
8BCA
331
8BCB
331
8BD3
331
8BD4
331
8BDC
331
8BDD
331
8BE5
331
8BE6
331
8BEE
331
8BEF
331
8BF7
331
8BF8
331
8C08
331
8C09
331
8C11
331
8C12
331
8C56
331
8C57
331
8C5F
331
8C60
331
912F
331
9130
331
9138
331
9139
331
92B1
331
92B2
331
92D2
331
9357
331
9482
331
9483
102
}
 70
     0
280
     1
281
     0
  0
BLOCK_RECORD
  5
74
330
1
100
AcDbSymbolTableRecord
100
AcDbBlockTableRecord
  2
GENAXEH
340
0
 70
     0
280
     1
281
     0
  0
BLOCK_RECORD
  5
3ACD
102
{ACAD_XDICTIONARY
360
3ACE
102
}
330
1
100
AcDbSymbolTableRecord
100
AcDbBlockTableRecord
  2
ロッカクアナツキプラグ-1　R1／8
340
0
310
2800000020000000200000000100080000000000000400000000000000000000000000000000000000000000000080000080000000808000800000008000800080800000C0C0C000C0DCC000F0CAA6000020400000206000002080000020A0000020C0000020E00000400000004020000040400000406000004080000040A0
310
000040C0000040E00000600000006020000060400000606000006080000060A0000060C0000060E00000800000008020000080400000806000008080000080A0000080C0000080E00000A0000000A0200000A0400000A0600000A0800000A0A00000A0C00000A0E00000C0000000C0200000C0400000C0600000C0800000C0
310
A00000C0C00000C0E00000E0000000E0200000E0400000E0600000E0800000E0A00000E0C00000E0E00040000000400020004000400040006000400080004000A0004000C0004000E00040200000402020004020400040206000402080004020A0004020C0004020E000404000004040200040404000404060004040800040
310
40A0004040C0004040E00040600000406020004060400040606000406080004060A0004060C0004060E00040800000408020004080400040806000408080004080A0004080C0004080E00040A0000040A0200040A0400040A0600040A0800040A0A00040A0C00040A0E00040C0000040C0200040C0400040C0600040C08000
310
40C0A00040C0C00040C0E00040E0000040E0200040E0400040E0600040E0800040E0A00040E0C00040E0E00080000000800020008000400080006000800080008000A0008000C0008000E00080200000802020008020400080206000802080008020A0008020C0008020E00080400000804020008040400080406000804080
310
008040A0008040C0008040E00080600000806020008060400080606000806080008060A0008060C0008060E00080800000808020008080400080806000808080008080A0008080C0008080E00080A0000080A0200080A0400080A0600080A0800080A0A00080A0C00080A0E00080C0000080C0200080C0400080C0600080C0
310
800080C0A00080C0C00080C0E00080E0000080E0200080E0400080E0600080E0800080E0A00080E0C00080E0E000C0000000C0002000C0004000C0006000C0008000C000A000C000C000C000E000C0200000C0202000C0204000C0206000C0208000C020A000C020C000C020E000C0400000C0402000C0404000C0406000C0
310
408000C040A000C040C000C040E000C0600000C0602000C0604000C0606000C0608000C060A000C060C000C060E000C0800000C0802000C0804000C0806000C0808000C080A000C080C000C080E000C0A00000C0A02000C0A04000C0A06000C0A08000C0A0A000C0A0C000C0A0E000C0C00000C0C02000C0C04000C0C06000
310
C0C08000C0C0A000F0FBFF00A4A0A000808080000000FF0000FF000000FFFF00FF000000FF00FF00FFFF0000FFFFFF000000000000000000000000000000000000000000000000000000000000000000000000000000000000000000000000F900000000000000000000000000000000000000000000000000000000000000
310
F900000000000000000000000000000000000000000000000000000000000000F9000000000000000000000000000000000000000000000000000000000000FEFE00000000000000000000000000000000000000000000000000000000FEFEFFFFFFFFFEFEFE000000000000000000000000000000000000000000FEFEFFFF
310
00F90000FFFF00FE000000000000000000000000000000000000FEFEFFFF000000F900000000FFFFFE00000000000000000000000000000000FE00FF0000000000F9000000000000FFFEFE00000000000000000000000000FE00FF000000000000F900000000000000FFFE00000000000000000000000000FE00FF00000000
310
0000FF0000000000000000FFFE0000000000000000000000FE00FF0000000000FFFFF9FFFF000000000000FFFE0000000000000000000000FE00FF00000000FF0000F90000FFFF0000000000FFFE00000000000000000000FEFF00000000FF000000F900000000FF00000000FFFE00000000000000000000FEFF00000000FF
310
000000F900000000FF00000000FFFE00000000000000000000FF0000000000FF000000F900000000FF0000000000FFFE0000000000F9F9F9F9F9F9F9F9F9F9FFF9F9F9F9F9F9F9F9FFF9F9F9F9F9F9F9F9F9F9000000000000FEFF00000000FF000000F900000000FF0000000000FFFE000000000000000000FEFF00000000
310
FF000000F900000000FF00000000FFFE00000000000000000000FE00FF00000000FFFF00F90000FFFF0000000000FFFE00000000000000000000FE00FF000000000000FFF9FFFF000000000000FFFE000000000000000000000000FE00FF000000000000FF0000000000000000FFFE000000000000000000000000FE00FF00
310
0000000000F900000000000000FFFE0000000000000000000000000000FE00FF0000000000F9000000000000FF00FE000000000000000000000000000000FE00FF00000000F90000000000FFFEFE0000000000000000000000000000000000FEFEFFFF0000F9000000FFFFFE00000000000000000000000000000000000000
310
0000FEFEFFFFFFFFFFFFFEFE00000000000000000000000000000000000000000000000000FEFEFE000000000000000000000000000000000000000000000000000000000000F900000000000000000000000000000000000000000000000000000000000000F9000000000000000000000000000000000000000000000000
310
00000000000000F9000000000000000000000000000000000000000000000000000000000000000000000000000000000000000000000000
102
{BLKREFS
331
4D5A
102
}
 70
     4
280
     1
281
     0
  0
BLOCK_RECORD
  5
3CFF
102
{ACAD_XDICTIONARY
360
6A70
102
}
330
1
100
AcDbSymbolTableRecord
100
AcDbBlockTableRecord
  2
ロッカクアナツキプラグ-2　R1／8
340
0
310
2800000020000000200000000100080000000000000400000000000000000000000000000000000000000000000080000080000000808000800000008000800080800000C0C0C000C0DCC000F0CAA6000020400000206000002080000020A0000020C0000020E00000400000004020000040400000406000004080000040A0
310
000040C0000040E00000600000006020000060400000606000006080000060A0000060C0000060E00000800000008020000080400000806000008080000080A0000080C0000080E00000A0000000A0200000A0400000A0600000A0800000A0A00000A0C00000A0E00000C0000000C0200000C0400000C0600000C0800000C0
310
A00000C0C00000C0E00000E0000000E0200000E0400000E0600000E0800000E0A00000E0C00000E0E00040000000400020004000400040006000400080004000A0004000C0004000E00040200000402020004020400040206000402080004020A0004020C0004020E000404000004040200040404000404060004040800040
310
40A0004040C0004040E00040600000406020004060400040606000406080004060A0004060C0004060E00040800000408020004080400040806000408080004080A0004080C0004080E00040A0000040A0200040A0400040A0600040A0800040A0A00040A0C00040A0E00040C0000040C0200040C0400040C0600040C08000
310
40C0A00040C0C00040C0E00040E0000040E0200040E0400040E0600040E0800040E0A00040E0C00040E0E00080000000800020008000400080006000800080008000A0008000C0008000E00080200000802020008020400080206000802080008020A0008020C0008020E00080400000804020008040400080406000804080
310
008040A0008040C0008040E00080600000806020008060400080606000806080008060A0008060C0008060E00080800000808020008080400080806000808080008080A0008080C0008080E00080A0000080A0200080A0400080A0600080A0800080A0A00080A0C00080A0E00080C0000080C0200080C0400080C0600080C0
310
800080C0A00080C0C00080C0E00080E0000080E0200080E0400080E0600080E0800080E0A00080E0C00080E0E000C0000000C0002000C0004000C0006000C0008000C000A000C000C000C000E000C0200000C0202000C0204000C0206000C0208000C020A000C020C000C020E000C0400000C0402000C0404000C0406000C0
310
408000C040A000C040C000C040E000C0600000C0602000C0604000C0606000C0608000C060A000C060C000C060E000C0800000C0802000C0804000C0806000C0808000C080A000C080C000C080E000C0A00000C0A02000C0A04000C0A06000C0A08000C0A0A000C0A0C000C0A0E000C0C00000C0C02000C0C04000C0C06000
310
C0C08000C0C0A000F0FBFF00A4A0A000808080000000FF0000FF000000FFFF00FF000000FF00FF00FFFF0000FFFFFF00000000000000000000000000000000000000000000000000000000000000000000000000000000000000000000000000F9000000000000000000000000000000000000000000000000000000000000
310
00F900000000000000000000000000000000000000000000000000000000000000F90000000000000000000000000000000000000000000000000000000000FEFEF9000000000000000000000000000000000000000000000000000000FEFEFFFFFFFFFEFEFE000000000000000000000000000000000000000000FEFEFFFF
310
0000F900FFFF00FE000000000000000000000000000000000000FEFEFFFF00000000F9000000FFFFFE00000000000000000000000000000000FE00FF000000000000F90000000000FFFEFE00000000000000000000000000FE00FF00000000000000F9000000000000FFFE00000000000000000000000000FE00FF00000000
310
000000FF00000000000000FFFE0000000000000000000000FE00FF000000000000FFFFF9FFFF0000000000FFFE0000000000000000000000FE00FF00000000FFFF0000F90000FF0000000000FFFE00000000000000000000FEFF00000000FF00000000F9000000FF00000000FFFE00000000000000000000FEFF00000000FF
310
00000000F9000000FF00000000FFFE00000000000000000000FF0000000000FF00000000F9000000FF0000000000FFFE0000000000F9F9F9F9F9F9F9F9F9F9FFF9F9F9F9F9F9F9F9FFF9F9F9F9F9F9F9F9F9F9000000000000FEFF00000000FF00000000F9000000FF0000000000FFFE000000000000000000FEFF00000000
310
FF00000000F9000000FF00000000FFFE00000000000000000000FE00FF00000000FFFF0000F900FFFF0000000000FFFE00000000000000000000FE00FF000000000000FFFFF9FF000000000000FFFE000000000000000000000000FE00FF00000000000000FF00000000000000FFFE000000000000000000000000FE00FF00
310
000000000000F9000000000000FFFE0000000000000000000000000000FE00FF000000000000F90000000000FF00FE000000000000000000000000000000FE00FF0000000000F900000000FFFEFE0000000000000000000000000000000000FEFEFFFF000000F90000FFFFFE00000000000000000000000000000000000000
310
0000FEFEFFFFFFFFFFFFFEFE00000000000000000000000000000000000000000000000000FEFEFE00000000000000000000000000000000000000000000000000000000000000F900000000000000000000000000000000000000000000000000000000000000F90000000000000000000000000000000000000000000000
310
0000000000000000F90000000000000000000000000000000000000000000000000000000000000000000000000000000000000000000000
102
{BLKREFS
331
4E8D
102
}
 70
     4
280
     1
281
     0
  0
BLOCK_RECORD
  5
4D25
102
{ACAD_XDICTIONARY
360
4DC7
102
}
330
1
100
AcDbSymbolTableRecord
100
AcDbBlockTableRecord
  2
ケースＡ-1 SAM112
340
0
310
2800000020000000200000000100080000000000000400000000000000000000000000000000000000000000000080000080000000808000800000008000800080800000C0C0C000C0DCC000F0CAA6000020400000206000002080000020A0000020C0000020E00000400000004020000040400000406000004080000040A0
310
000040C0000040E00000600000006020000060400000606000006080000060A0000060C0000060E00000800000008020000080400000806000008080000080A0000080C0000080E00000A0000000A0200000A0400000A0600000A0800000A0A00000A0C00000A0E00000C0000000C0200000C0400000C0600000C0800000C0
310
A00000C0C00000C0E00000E0000000E0200000E0400000E0600000E0800000E0A00000E0C00000E0E00040000000400020004000400040006000400080004000A0004000C0004000E00040200000402020004020400040206000402080004020A0004020C0004020E000404000004040200040404000404060004040800040
310
40A0004040C0004040E00040600000406020004060400040606000406080004060A0004060C0004060E00040800000408020004080400040806000408080004080A0004080C0004080E00040A0000040A0200040A0400040A0600040A0800040A0A00040A0C00040A0E00040C0000040C0200040C0400040C0600040C08000
310
40C0A00040C0C00040C0E00040E0000040E0200040E0400040E0600040E0800040E0A00040E0C00040E0E00080000000800020008000400080006000800080008000A0008000C0008000E00080200000802020008020400080206000802080008020A0008020C0008020E00080400000804020008040400080406000804080
310
008040A0008040C0008040E00080600000806020008060400080606000806080008060A0008060C0008060E00080800000808020008080400080806000808080008080A0008080C0008080E00080A0000080A0200080A0400080A0600080A0800080A0A00080A0C00080A0E00080C0000080C0200080C0400080C0600080C0
310
800080C0A00080C0C00080C0E00080E0000080E0200080E0400080E0600080E0800080E0A00080E0C00080E0E000C0000000C0002000C0004000C0006000C0008000C000A000C000C000C000E000C0200000C0202000C0204000C0206000C0208000C020A000C020C000C020E000C0400000C0402000C0404000C0406000C0
310
408000C040A000C040C000C040E000C0600000C0602000C0604000C0606000C0608000C060A000C060C000C060E000C0800000C0802000C0804000C0806000C0808000C080A000C080C000C080E000C0A00000C0A02000C0A04000C0A06000C0A08000C0A0A000C0A0C000C0A0E000C0C00000C0C02000C0C04000C0C06000
310
C0C08000C0C0A000F0FBFF00A4A0A000808080000000FF0000FF000000FFFF00FF000000FF00FF00FFFF0000FFFFFF00000000000000000000000000000000000000000000000000000000000000000000000000000000000000000000FFFFFFFFFF000000000000000000000000000000000000000000000000000000FF00
310
0000FF000000000000000000000000000000000000000000000000000000FF000000FF000000000000000000000000000000000000000000000000000000FF000000FF000000000000000000000000000000000000000000000000000000FF000000FF000000000000000000000000000000000000000000000000000000FF
310
000000FFFFFFFFFFFFFF000000000000000000000000000000000000000000FF000000FF0000000000FF000000000000000000000000000000000000000000FFFEFFFFFF0000000000FF000000000000000000000000000000000000000000F9F9FFFFF90000000000FF000000000000000000000000000000000000000000
310
FFFFFFFFFF0000000000FF000000000000000000000000000000000000000000FF00FE00FF0000000000FF000000000000000000000000000000000000000000FF000000FF0000000000FF000000000000000000000000000000000000000000FF000000FF0000000000FF0000000000000000000000000000000000000000
310
00FF000000FF0000000000FF000000000000000000000000000000000000000000FF000000FF0000000000FF0000000000000000000000000000000000000000000000000000000000000000000000000000000000000000000000000000000000000000000000000000000000000000000000000000000000000000000000
310
00000000000000000000000000000000000000000000000000000000000000000000000000000000000000000000000000000000000000000000000000000000000000000000000000000000000000000000000000000000000000000000000000000000000000000000000000000000000000000000000000000000000000
310
000000000000000000000000000000000000000000000000000000000000000000000000000000000000FFFFFFFF000000000000000000000000000000000000000000FFFFFFFFFFFFA4FFFFFFFF000000000000000000000000000000000000000000FFFF000000FFFFFFFFFFFF0000000000000000000000000000000000
310
00000000FFFF0000FF000000000000000000000000000000000000000000000000000000FFFFFFFFFF00000000000000000000000000000000000000000000F9F9F9F9F9F9F9F9F9FFF9F9F9000000000000000000000000000000000000000000000000FFFFFFFFFF00000000000000000000000000000000000000000000
310
0000000000FFFFFFFFFF00000000000000000000000000000000000000000000000000000000000000000000000000000000000000000000
102
{BLKREFS
331
4D5B
102
}
 70
     4
280
     1
281
     0
  0
BLOCK_RECORD
  5
4E58
102
{ACAD_XDICTIONARY
360
4EFB
102
}
330
1
100
AcDbSymbolTableRecord
100
AcDbBlockTableRecord
  2
ケースＡ-2 SAM112
340
0
310
2800000020000000200000000100080000000000000400000000000000000000000000000000000000000000000080000080000000808000800000008000800080800000C0C0C000C0DCC000F0CAA6000020400000206000002080000020A0000020C0000020E00000400000004020000040400000406000004080000040A0
310
000040C0000040E00000600000006020000060400000606000006080000060A0000060C0000060E00000800000008020000080400000806000008080000080A0000080C0000080E00000A0000000A0200000A0400000A0600000A0800000A0A00000A0C00000A0E00000C0000000C0200000C0400000C0600000C0800000C0
310
A00000C0C00000C0E00000E0000000E0200000E0400000E0600000E0800000E0A00000E0C00000E0E00040000000400020004000400040006000400080004000A0004000C0004000E00040200000402020004020400040206000402080004020A0004020C0004020E000404000004040200040404000404060004040800040
310
40A0004040C0004040E00040600000406020004060400040606000406080004060A0004060C0004060E00040800000408020004080400040806000408080004080A0004080C0004080E00040A0000040A0200040A0400040A0600040A0800040A0A00040A0C00040A0E00040C0000040C0200040C0400040C0600040C08000
310
40C0A00040C0C00040C0E00040E0000040E0200040E0400040E0600040E0800040E0A00040E0C00040E0E00080000000800020008000400080006000800080008000A0008000C0008000E00080200000802020008020400080206000802080008020A0008020C0008020E00080400000804020008040400080406000804080
310
008040A0008040C0008040E00080600000806020008060400080606000806080008060A0008060C0008060E00080800000808020008080400080806000808080008080A0008080C0008080E00080A0000080A0200080A0400080A0600080A0800080A0A00080A0C00080A0E00080C0000080C0200080C0400080C0600080C0
310
800080C0A00080C0C00080C0E00080E0000080E0200080E0400080E0600080E0800080E0A00080E0C00080E0E000C0000000C0002000C0004000C0006000C0008000C000A000C000C000C000E000C0200000C0202000C0204000C0206000C0208000C020A000C020C000C020E000C0400000C0402000C0404000C0406000C0
310
408000C040A000C040C000C040E000C0600000C0602000C0604000C0606000C0608000C060A000C060C000C060E000C0800000C0802000C0804000C0806000C0808000C080A000C080C000C080E000C0A00000C0A02000C0A04000C0A06000C0A08000C0A0A000C0A0C000C0A0E000C0C00000C0C02000C0C04000C0C06000
310
C0C08000C0C0A000F0FBFF00A4A0A000808080000000FF0000FF000000FFFF00FF000000FF00FF00FFFF0000FFFFFF0000000000000000000000000000000000000000000000000000000000000000000000000000000000000000000000FFFFFFFFFF000000000000000000000000000000000000000000000000000000FF
310
000000FF000000000000000000000000000000000000000000000000000000FF000000FF000000000000000000000000000000000000000000000000000000FF000000FF000000000000000000000000000000000000000000000000000000FF000000FF0000000000000000000000000000000000000000FFFFFFFFFFFFFF
310
FF000000FF0000000000000000000000000000000000000000FF000000000000FF000000FF0000000000000000000000000000000000000000FF000000000000FFFFFFFFFF0000000000000000000000000000000000000000FF000000000000F9FFFFF9FF0000000000000000000000000000000000000000FF0000000000
310
00FFFFFFFFFF0000000000000000000000000000000000000000FF000000000000FF00FE00FF0000000000000000000000000000000000000000FF000000000000FF000000FF0000000000000000000000000000000000000000FF000000000000FF000000FF0000000000000000000000000000000000000000FF00000000
310
0000FF000000FF0000000000000000000000000000000000000000FF000000000000FF000000FF00000000000000000000000000000000000000000000000000000000000000000000000000000000000000000000000000000000000000000000000000000000000000000000000000000000000000000000000000000000
310
00000000000000000000000000000000000000000000000000000000000000000000000000000000000000000000000000000000000000000000000000000000000000000000000000000000000000000000000000000000000000000000000000000000000000000000000000000000000000000000000000000000000000
310
0000000000000000000000000000000000000000000000000000000000FFFFFFFF00000000000000000000000000000000000000000000000000000000FFFFFFFFA4A4A4FFF9FFFFFF0000000000000000000000000000000000000000FFFFFFFFFFFFFF000000FFFF00000000000000000000000000000000000000000000
310
0000000000FF0000FFFF000000000000000000000000000000000000000000000000000000FFFFFFFFFFFFFFFF0000000000000000000000000000000000000000F9F9F9F9FFF9F9F9F9F9F9F9F9F9F9000000000000000000000000000000000000000000FFFFFFFFFFFFFFFF000000000000000000000000000000000000
310
000000000000FFFFFFFFFF000000000000000000000000000000000000000000000000000000000000000000000000000000000000000000
102
{BLKREFS
331
522F
102
}
 70
     4
280
     1
281
     0
  0
BLOCK_RECORD
  5
4F5E
102
{ACAD_XDICTIONARY
360
4FB8
102
}
330
1
100
AcDbSymbolTableRecord
100
AcDbBlockTableRecord
  2
センタ-1 SAM112
340
0
310
2800000020000000200000000100080000000000000400000000000000000000000000000000000000000000000080000080000000808000800000008000800080800000C0C0C000C0DCC000F0CAA6000020400000206000002080000020A0000020C0000020E00000400000004020000040400000406000004080000040A0
310
000040C0000040E00000600000006020000060400000606000006080000060A0000060C0000060E00000800000008020000080400000806000008080000080A0000080C0000080E00000A0000000A0200000A0400000A0600000A0800000A0A00000A0C00000A0E00000C0000000C0200000C0400000C0600000C0800000C0
310
A00000C0C00000C0E00000E0000000E0200000E0400000E0600000E0800000E0A00000E0C00000E0E00040000000400020004000400040006000400080004000A0004000C0004000E00040200000402020004020400040206000402080004020A0004020C0004020E000404000004040200040404000404060004040800040
310
40A0004040C0004040E00040600000406020004060400040606000406080004060A0004060C0004060E00040800000408020004080400040806000408080004080A0004080C0004080E00040A0000040A0200040A0400040A0600040A0800040A0A00040A0C00040A0E00040C0000040C0200040C0400040C0600040C08000
310
40C0A00040C0C00040C0E00040E0000040E0200040E0400040E0600040E0800040E0A00040E0C00040E0E00080000000800020008000400080006000800080008000A0008000C0008000E00080200000802020008020400080206000802080008020A0008020C0008020E00080400000804020008040400080406000804080
310
008040A0008040C0008040E00080600000806020008060400080606000806080008060A0008060C0008060E00080800000808020008080400080806000808080008080A0008080C0008080E00080A0000080A0200080A0400080A0600080A0800080A0A00080A0C00080A0E00080C0000080C0200080C0400080C0600080C0
310
800080C0A00080C0C00080C0E00080E0000080E0200080E0400080E0600080E0800080E0A00080E0C00080E0E000C0000000C0002000C0004000C0006000C0008000C000A000C000C000C000E000C0200000C0202000C0204000C0206000C0208000C020A000C020C000C020E000C0400000C0402000C0404000C0406000C0
310
408000C040A000C040C000C040E000C0600000C0602000C0604000C0606000C0608000C060A000C060C000C060E000C0800000C0802000C0804000C0806000C0808000C080A000C080C000C080E000C0A00000C0A02000C0A04000C0A06000C0A08000C0A0A000C0A0C000C0A0E000C0C00000C0C02000C0C04000C0C06000
310
C0C08000C0C0A000F0FBFF00A4A0A000808080000000FF0000FF000000FFFF00FF000000FF00FF00FFFF0000FFFFFF0000000000000000000000000000000000000000000000000000000000000000000000000000000000000000000000000000000000FFFFFFFFFFFF000000000000000000000000000000000000000000
310
0000000000000000000000FF00000000000000000000000000000000000000000000000000000000000000FF00000000000000000000000000000000000000000000000000000000000000FF00000000000000000000000000000000000000000000000000000000000000FF00000000000000000000000000000000000000
310
000000000000000000000000FF00000000000000000000000000000000000000000000000000000000000000FF00000000000000000000000000000000000000000000000000000000000000FF00000000000000000000000000000000000000000000000000000000000000FF000000000000000000000000000000000000
310
00000000000000000000000000FF00000000000000000000000000000000000000000000000000000000000000FF00000000000000000000000000000000000000000000000000000000000000FF00000000000000000000000000000000000000000000000000000000000000FF00000000000000000000FF000000000000
310
0000000000000000000000000000FF00000000000000000000FF0000000000000000000000000000000000000000FF00000000000000000000FF0000000000000000000000000000000000000000FF00000000000000000000FF0000000000000000000000000000000000000000FF00000000000000000000FF0000000000
310
000000000000000000000000000000FF00000000000000000000FF0000000000000000000000000000000000000000FF00000000000000000000FFFFFFFFFFFFFFFFFFFFFFFFFFFFFFFFFFFFFFFFFFFF00000000000000000000FF0000000000000000000000000000000000000000FF00000000000000000000FFFFFFFFFF
310
FFFFFFFFFFFFFFFFFFFFFFFFFFFFFFFFFF00000000000000000000FF0000000000000000000000000000000000000000FF00000000000000000000FF0000000000000000000000000000000000000000FF00000000000000000000FF0000000000000000000000000000000000000000FF00000000000000000000FF000000
310
0000000000000000000000000000000000FF00000000000000000000FFFFFFFFFF00F90000FFFFFFFFFFFFFFFFFFFFFFFF000000000000000000000000000000FFFFF9FFFFFF0000000000000000000000000000000000000000000000000000FFFFFFFFFFFF00000000000000000000000000000000000000000000000000
310
000000F900000000000000000000000000000000000000000000000000000000000000000000000000000000000000000000000000000000
102
{BLKREFS
331
4F77
102
}
 70
     4
280
     1
281
     0
  0
BLOCK_RECORD
  5
4FF3
102
{ACAD_XDICTIONARY
360
5040
102
}
330
1
100
AcDbSymbolTableRecord
100
AcDbBlockTableRecord
  2
センタ-2 SAM112
340
0
310
2800000020000000200000000100080000000000000400000000000000000000000000000000000000000000000080000080000000808000800000008000800080800000C0C0C000C0DCC000F0CAA6000020400000206000002080000020A0000020C0000020E00000400000004020000040400000406000004080000040A0
310
000040C0000040E00000600000006020000060400000606000006080000060A0000060C0000060E00000800000008020000080400000806000008080000080A0000080C0000080E00000A0000000A0200000A0400000A0600000A0800000A0A00000A0C00000A0E00000C0000000C0200000C0400000C0600000C0800000C0
310
A00000C0C00000C0E00000E0000000E0200000E0400000E0600000E0800000E0A00000E0C00000E0E00040000000400020004000400040006000400080004000A0004000C0004000E00040200000402020004020400040206000402080004020A0004020C0004020E000404000004040200040404000404060004040800040
310
40A0004040C0004040E00040600000406020004060400040606000406080004060A0004060C0004060E00040800000408020004080400040806000408080004080A0004080C0004080E00040A0000040A0200040A0400040A0600040A0800040A0A00040A0C00040A0E00040C0000040C0200040C0400040C0600040C08000
310
40C0A00040C0C00040C0E00040E0000040E0200040E0400040E0600040E0800040E0A00040E0C00040E0E00080000000800020008000400080006000800080008000A0008000C0008000E00080200000802020008020400080206000802080008020A0008020C0008020E00080400000804020008040400080406000804080
310
008040A0008040C0008040E00080600000806020008060400080606000806080008060A0008060C0008060E00080800000808020008080400080806000808080008080A0008080C0008080E00080A0000080A0200080A0400080A0600080A0800080A0A00080A0C00080A0E00080C0000080C0200080C0400080C0600080C0
310
800080C0A00080C0C00080C0E00080E0000080E0200080E0400080E0600080E0800080E0A00080E0C00080E0E000C0000000C0002000C0004000C0006000C0008000C000A000C000C000C000E000C0200000C0202000C0204000C0206000C0208000C020A000C020C000C020E000C0400000C0402000C0404000C0406000C0
310
408000C040A000C040C000C040E000C0600000C0602000C0604000C0606000C0608000C060A000C060C000C060E000C0800000C0802000C0804000C0806000C0808000C080A000C080C000C080E000C0A00000C0A02000C0A04000C0A06000C0A08000C0A0A000C0A0C000C0A0E000C0C00000C0C02000C0C04000C0C06000
310
C0C08000C0C0A000F0FBFF00A4A0A000808080000000FF0000FF000000FFFF00FF000000FF00FF00FFFF0000FFFFFF000000000000000000000000000000000000000000000000000000000000000000000000000000FFFFFFFFFFFF0000000000000000000000000000000000000000000000000000FF0000000000000000
310
00000000000000000000000000000000000000000000FF00000000000000000000000000000000000000000000000000000000000000FF00000000000000000000000000000000000000000000000000000000000000FF00000000000000000000000000000000000000000000000000000000000000FF0000000000000000
310
0000000000000000000000000000000000000000000000FF00000000000000000000000000000000000000000000000000000000000000FF00000000000000000000000000000000000000000000000000000000000000FF00000000000000000000000000000000000000000000000000000000000000FF00000000000000
310
000000000000000000000000000000000000000000000000FF00000000000000000000000000000000000000000000000000000000000000FF00000000000000000000000000000000000000000000000000000000000000FF00000000000000000000000000000000000000000000000000000000000000FF000000000000
310
0000000000000000000000000000FF00000000000000000000FF0000000000000000000000000000000000000000FF00000000000000000000FF0000000000000000000000000000000000000000FF00000000000000000000FF0000000000000000000000000000000000000000FF00000000000000000000FF0000000000
310
000000000000000000000000000000FF00000000000000000000FFFFFFFFFFFFFFFFFFFFFFFFFFFFFFFFFFFFFFFFFFFF00000000000000000000FF0000000000000000000000000000000000000000FF00000000000000000000FFFFFFFFFFFFFFFFFFFFFFFFFFFFFFFFFFFFFFFFFFFF00000000000000000000FF00000000
310
00000000000000000000000000000000FF00000000000000000000FF0000000000000000000000000000000000000000FF00000000000000000000FF00000000000000000000000000000000000000000000000000000000000000FF0000000000000000000000000000000000000000FF0000000000000000000000FF0000
310
0000000000000000000000000000000000FF0000000000000000000000FFFFFFFFFFFFFFFFFFFFFFFFFFFFF9FFFFFFFFFFFF00000000000000000000000000000000000000000000FFF9F9F9F9FF0000000000000000000000000000000000000000000000000000FFFFFFF9FFFF0000000000000000000000000000000000
310
000000000000000000000000F900000000000000000000000000000000000000000000000000000000000000000000000000000000000000
102
{BLKREFS
331
500D
102
}
 70
     4
280
     1
281
     0
  0
BLOCK_RECORD
  5
56DD
102
{ACAD_XDICTIONARY
360
575F
102
}
330
1
100
AcDbSymbolTableRecord
100
AcDbBlockTableRecord
  2
リーマボルト-1 SAM112 M6
340
0
310
2800000020000000200000000100080000000000000400000000000000000000000000000000000000000000000080000080000000808000800000008000800080800000C0C0C000C0DCC000F0CAA6000020400000206000002080000020A0000020C0000020E00000400000004020000040400000406000004080000040A0
310
000040C0000040E00000600000006020000060400000606000006080000060A0000060C0000060E00000800000008020000080400000806000008080000080A0000080C0000080E00000A0000000A0200000A0400000A0600000A0800000A0A00000A0C00000A0E00000C0000000C0200000C0400000C0600000C0800000C0
310
A00000C0C00000C0E00000E0000000E0200000E0400000E0600000E0800000E0A00000E0C00000E0E00040000000400020004000400040006000400080004000A0004000C0004000E00040200000402020004020400040206000402080004020A0004020C0004020E000404000004040200040404000404060004040800040
310
40A0004040C0004040E00040600000406020004060400040606000406080004060A0004060C0004060E00040800000408020004080400040806000408080004080A0004080C0004080E00040A0000040A0200040A0400040A0600040A0800040A0A00040A0C00040A0E00040C0000040C0200040C0400040C0600040C08000
310
40C0A00040C0C00040C0E00040E0000040E0200040E0400040E0600040E0800040E0A00040E0C00040E0E00080000000800020008000400080006000800080008000A0008000C0008000E00080200000802020008020400080206000802080008020A0008020C0008020E00080400000804020008040400080406000804080
310
008040A0008040C0008040E00080600000806020008060400080606000806080008060A0008060C0008060E00080800000808020008080400080806000808080008080A0008080C0008080E00080A0000080A0200080A0400080A0600080A0800080A0A00080A0C00080A0E00080C0000080C0200080C0400080C0600080C0
310
800080C0A00080C0C00080C0E00080E0000080E0200080E0400080E0600080E0800080E0A00080E0C00080E0E000C0000000C0002000C0004000C0006000C0008000C000A000C000C000C000E000C0200000C0202000C0204000C0206000C0208000C020A000C020C000C020E000C0400000C0402000C0404000C0406000C0
310
408000C040A000C040C000C040E000C0600000C0602000C0604000C0606000C0608000C060A000C060C000C060E000C0800000C0802000C0804000C0806000C0808000C080A000C080C000C080E000C0A00000C0A02000C0A04000C0A06000C0A08000C0A0A000C0A0C000C0A0E000C0C00000C0C02000C0C04000C0C06000
310
C0C08000C0C0A000F0FBFF00A4A0A000808080000000FF0000FF000000FFFF00FF000000FF00FF00FFFF0000FFFFFF0000000000000000000000000000000000000000000000000000000000000000000000000000000000000000000000000000000000000000000000000000000000000000000000000000000000000000
310
00000000000000000000000000000000000000000000000000000000000000000000000000000000000000000000000000000000000000000000000000000000000000000000000000000000000000000000000000000000000000000000000000000000000000000000000000000000000000000000000000000000000000
310
00000000000000000000000000000000000000000000000000000000000000000000000000000000000000000000000000000000000000000000000000000000000000000000000000000000000000000000000000000000000000000000000000000000000000000000000000000000000000000000000000000000000000
310
00000000000000000000000000000000000000000000000000000000000000000000000000000000000000000000000000000000FFFFFFFF00000000000000000000000000000000000000FFFFFFFFFF00000000FFFF00FFFF000000000000000000000000000000FF000000FF0000FF00000000FFFF00FFFF000000000000
310
000000000000000000FFFFFFFFFFFFFFFFFFFF0000FFFF0000FF000000000000000000000000000000FFFF00FFFF0000FFFFFF0000FFFF0000FF000000000000000000000000000000FFFF00FFFF0000FFFFFF0000FFFF00FFFF000000000000000000000000000000FFFFFFFFFFFFFFFFFFFF0000FFFF00FFFF0000000000
310
00000000000000000000FF000000FF0000FF00000000FFFFFFFF00000000000000000000000000000000000000FFFFFFFFFF0000000000000000000000000000000000000000000000000000000000000000000000000000000000000000000000000000000000000000000000000000000000000000000000000000000000
310
00000000000000000000000000000000000000000000000000000000000000000000000000000000000000000000000000000000000000000000000000000000000000000000000000000000000000000000000000000000000000000000000000000000000000000000000000000000000000000000000000000000000000
310
00000000000000000000000000000000000000000000000000000000000000000000000000000000000000000000000000000000000000000000000000000000000000000000000000000000000000000000000000000000000000000000000000000000000000000000000000000000000000000000000000000000000000
310
0000000000000000000000000000000000000000000000000000000000000000000000000000000000000000000000000000000000000000
102
{BLKREFS
331
5706
102
}
 70
     4
280
     1
281
     0
  0
BLOCK_RECORD
  5
5769
102
{ACAD_XDICTIONARY
360
57EE
102
}
330
1
100
AcDbSymbolTableRecord
100
AcDbBlockTableRecord
  2
リーマボルト-2 SAM112 M6
340
0
310
2800000020000000200000000100080000000000000400000000000000000000000000000000000000000000000080000080000000808000800000008000800080800000C0C0C000C0DCC000F0CAA6000020400000206000002080000020A0000020C0000020E00000400000004020000040400000406000004080000040A0
310
000040C0000040E00000600000006020000060400000606000006080000060A0000060C0000060E00000800000008020000080400000806000008080000080A0000080C0000080E00000A0000000A0200000A0400000A0600000A0800000A0A00000A0C00000A0E00000C0000000C0200000C0400000C0600000C0800000C0
310
A00000C0C00000C0E00000E0000000E0200000E0400000E0600000E0800000E0A00000E0C00000E0E00040000000400020004000400040006000400080004000A0004000C0004000E00040200000402020004020400040206000402080004020A0004020C0004020E000404000004040200040404000404060004040800040
310
40A0004040C0004040E00040600000406020004060400040606000406080004060A0004060C0004060E00040800000408020004080400040806000408080004080A0004080C0004080E00040A0000040A0200040A0400040A0600040A0800040A0A00040A0C00040A0E00040C0000040C0200040C0400040C0600040C08000
310
40C0A00040C0C00040C0E00040E0000040E0200040E0400040E0600040E0800040E0A00040E0C00040E0E00080000000800020008000400080006000800080008000A0008000C0008000E00080200000802020008020400080206000802080008020A0008020C0008020E00080400000804020008040400080406000804080
310
008040A0008040C0008040E00080600000806020008060400080606000806080008060A0008060C0008060E00080800000808020008080400080806000808080008080A0008080C0008080E00080A0000080A0200080A0400080A0600080A0800080A0A00080A0C00080A0E00080C0000080C0200080C0400080C0600080C0
310
800080C0A00080C0C00080C0E00080E0000080E0200080E0400080E0600080E0800080E0A00080E0C00080E0E000C0000000C0002000C0004000C0006000C0008000C000A000C000C000C000E000C0200000C0202000C0204000C0206000C0208000C020A000C020C000C020E000C0400000C0402000C0404000C0406000C0
310
408000C040A000C040C000C040E000C0600000C0602000C0604000C0606000C0608000C060A000C060C000C060E000C0800000C0802000C0804000C0806000C0808000C080A000C080C000C080E000C0A00000C0A02000C0A04000C0A06000C0A08000C0A0A000C0A0C000C0A0E000C0C00000C0C02000C0C04000C0C06000
310
C0C08000C0C0A000F0FBFF00A4A0A000808080000000FF0000FF000000FFFF00FF000000FF00FF00FFFF0000FFFFFF0000000000000000000000000000000000000000000000000000000000000000000000000000000000000000000000000000000000000000000000000000000000000000000000000000000000000000
310
00000000000000000000000000000000000000000000000000000000000000000000000000000000000000000000000000000000000000000000000000000000000000000000000000000000000000000000000000000000000000000000000000000000000000000000000000000000000000000000000000000000000000
310
00000000000000000000000000000000000000000000000000000000000000000000000000000000000000000000000000000000000000000000000000000000000000000000000000000000000000000000000000000000000000000000000000000000000000000000000000000000000000000000000000000000000000
310
000000000000000000000000000000000000000000000000000000000000000000000000000000000000000000000000000000000000FFFFFFFFFF00000000000000000000000000000000000000FFFFFFFF00000000FF0000FF000000FF000000000000000000000000000000FFFF00FFFF0000FFFFFFFFFFFFFFFFFFFF00
310
0000000000000000000000000000FFFF00FFFF0000FFFFFF0000FF0000FFFF000000000000000000000000000000FF0000FFFF0000FFFFFF0000FFFF00FFFF000000000000000000000000000000FF0000FFFF0000FFFFFFFFFFFFFFFFFFFF000000000000000000000000000000FFFF00FFFF00000000FF0000FF000000FF
310
000000000000000000000000000000FFFF00FFFF00000000FFFFFFFFFF00000000000000000000000000000000000000FFFFFFFF000000000000000000000000000000000000000000000000000000000000000000000000000000000000000000000000000000000000000000000000000000000000000000000000000000
310
00000000000000000000000000000000000000000000000000000000000000000000000000000000000000000000000000000000000000000000000000000000000000000000000000000000000000000000000000000000000000000000000000000000000000000000000000000000000000000000000000000000000000
310
00000000000000000000000000000000000000000000000000000000000000000000000000000000000000000000000000000000000000000000000000000000000000000000000000000000000000000000000000000000000000000000000000000000000000000000000000000000000000000000000000000000000000
310
0000000000000000000000000000000000000000000000000000000000000000000000000000000000000000000000000000000000000000
102
{BLKREFS
331
5793
102
}
 70
     4
280
     1
281
     0
  0
BLOCK_RECORD
  5
5A7D
330
1
100
AcDbSymbolTableRecord
100
AcDbBlockTableRecord
  2
*D14
340
0
 70
     0
280
     1
281
     0
  0
BLOCK_RECORD
  5
5AE7
330
1
100
AcDbSymbolTableRecord
100
AcDbBlockTableRecord
  2
*D15
340
0
 70
     0
280
     1
281
     0
  0
BLOCK_RECORD
  5
5B03
330
1
100
AcDbSymbolTableRecord
100
AcDbBlockTableRecord
  2
*D16
340
0
 70
     0
280
     1
281
     0
  0
BLOCK_RECORD
  5
5B44
330
1
100
AcDbSymbolTableRecord
100
AcDbBlockTableRecord
  2
*D17
340
0
 70
     0
280
     1
281
     0
  0
BLOCK_RECORD
  5
5C81
330
1
100
AcDbSymbolTableRecord
100
AcDbBlockTableRecord
  2
*D18
340
0
 70
     0
280
     1
281
     0
  0
BLOCK_RECORD
  5
5C99
330
1
100
AcDbSymbolTableRecord
100
AcDbBlockTableRecord
  2
*D19
340
0
 70
     0
280
     1
281
     0
  0
BLOCK_RECORD
  5
5CC3
330
1
100
AcDbSymbolTableRecord
100
AcDbBlockTableRecord
  2
*D20
340
0
 70
     0
280
     1
281
     0
  0
BLOCK_RECORD
  5
5D66
330
1
100
AcDbSymbolTableRecord
100
AcDbBlockTableRecord
  2
*D21
340
0
 70
     0
280
     1
281
     0
  0
BLOCK_RECORD
  5
5DAE
330
1
100
AcDbSymbolTableRecord
100
AcDbBlockTableRecord
  2
*D22
340
0
 70
     0
280
     1
281
     0
  0
BLOCK_RECORD
  5
5DC6
330
1
100
AcDbSymbolTableRecord
100
AcDbBlockTableRecord
  2
*D23
340
0
 70
     0
280
     1
281
     0
  0
BLOCK_RECORD
  5
5DDE
330
1
100
AcDbSymbolTableRecord
100
AcDbBlockTableRecord
  2
*D24
340
0
 70
     0
280
     1
281
     0
  0
BLOCK_RECORD
  5
5E0E
330
1
100
AcDbSymbolTableRecord
100
AcDbBlockTableRecord
  2
*D25
340
0
 70
     0
280
     1
281
     0
  0
BLOCK_RECORD
  5
5E26
330
1
100
AcDbSymbolTableRecord
100
AcDbBlockTableRecord
  2
*D26
340
0
 70
     0
280
     1
281
     0
  0
BLOCK_RECORD
  5
6FD8
330
1
100
AcDbSymbolTableRecord
100
AcDbBlockTableRecord
  2
_DotSmall
340
0
102
{BLKREFS
331
92D1
331
9356
331
9361
331
9362
102
}
 70
     0
280
     1
281
     0
  0
BLOCK_RECORD
  5
7A9E
102
{ACAD_XDICTIONARY
360
7C11
102
}
330
1
100
AcDbSymbolTableRecord
100
AcDbBlockTableRecord
  2
ＧＣスペーサ SAMY112
340
0
310
2800000020000000200000000100080000000000000400000000000000000000000000000000000000000000000080000080000000808000800000008000800080800000C0C0C000C0DCC000F0CAA6000020400000206000002080000020A0000020C0000020E00000400000004020000040400000406000004080000040A0
310
000040C0000040E00000600000006020000060400000606000006080000060A0000060C0000060E00000800000008020000080400000806000008080000080A0000080C0000080E00000A0000000A0200000A0400000A0600000A0800000A0A00000A0C00000A0E00000C0000000C0200000C0400000C0600000C0800000C0
310
A00000C0C00000C0E00000E0000000E0200000E0400000E0600000E0800000E0A00000E0C00000E0E00040000000400020004000400040006000400080004000A0004000C0004000E00040200000402020004020400040206000402080004020A0004020C0004020E000404000004040200040404000404060004040800040
310
40A0004040C0004040E00040600000406020004060400040606000406080004060A0004060C0004060E00040800000408020004080400040806000408080004080A0004080C0004080E00040A0000040A0200040A0400040A0600040A0800040A0A00040A0C00040A0E00040C0000040C0200040C0400040C0600040C08000
310
40C0A00040C0C00040C0E00040E0000040E0200040E0400040E0600040E0800040E0A00040E0C00040E0E00080000000800020008000400080006000800080008000A0008000C0008000E00080200000802020008020400080206000802080008020A0008020C0008020E00080400000804020008040400080406000804080
310
008040A0008040C0008040E00080600000806020008060400080606000806080008060A0008060C0008060E00080800000808020008080400080806000808080008080A0008080C0008080E00080A0000080A0200080A0400080A0600080A0800080A0A00080A0C00080A0E00080C0000080C0200080C0400080C0600080C0
310
800080C0A00080C0C00080C0E00080E0000080E0200080E0400080E0600080E0800080E0A00080E0C00080E0E000C0000000C0002000C0004000C0006000C0008000C000A000C000C000C000E000C0200000C0202000C0204000C0206000C0208000C020A000C020C000C020E000C0400000C0402000C0404000C0406000C0
310
408000C040A000C040C000C040E000C0600000C0602000C0604000C0606000C0608000C060A000C060C000C060E000C0800000C0802000C0804000C0806000C0808000C080A000C080C000C080E000C0A00000C0A02000C0A04000C0A06000C0A08000C0A0A000C0A0C000C0A0E000C0C00000C0C02000C0C04000C0C06000
310
C0C08000C0C0A000F0FBFF00A4A0A000808080000000FF0000FF000000FFFF00FF000000FF00FF00FFFF0000FFFFFF0000000000000000000000000000000000000000000000000000000000000000000000000000000000000000000000000000000000000000000000000000000000000000000000000000000000000000
310
00000000000000000000000000000000000000000000000000000000000000000000000000000000000000000000000000000000000000000000000000000000000000000000000000000000000000000000000000000000000000000000000000000000000000000000000000000000000000000000000000000000000000
310
000000000000000000000000000000000000000000000000000000000000000000000000000000000000000000000000000000000000000000000000000000000000000000000000000000000000000000000000FFFFFF00000000000000000000000000000000000000000000FFFFFF000000F9F9F9FF0000000000000000
310
0000000000000000000000000000FFF9FFF9000000FF00FFFFFFFFFFFFFFFFFFFFFEFFFFFFFFFFFFFFFFFFFFFFFFFF00FF00000000FF00FF0000000000000000FEFE000000000000000000000000FF00FF00000000FF00FF0000000000000000FEFE000000000000000000000000FF00FF00000000FF00FF00000000000000
310
00FEFE000000000000000000000000FF00FF00000000FF00FF0000000000000000FEFE000000000000000000000000FF00FF00000000FF00FFFF00000000000000FEFE0000000000000000000000FFFF00FF00000000FF0000FF00000000000000FEFE0000000000000000000000FF0000FF00000000FF0000FF0000000000
310
0000FEFE0000000000000000000000FF0000FF00000000FF00F9FFFFFFFFFFFFFFFFFEFEFFFFFFFFFFFFFFFFFFFFFFFFF900FF00000000FF00FFFFFFFFFFFFFFFFFFFFFEFFFFFFFFFFFFFFFFFFFFFFFFFF00FF000000F9FFFFFFF90000000000000000000000000000000000000000F9FFFFFFF9000000FFFFFF0000000000
310
0000000000000000000000000000000000FFFFFF0000000000000000000000000000000000000000000000000000000000000000000000000000000000000000000000000000000000000000000000000000000000000000000000000000000000000000000000000000000000000000000000000000000000000000000000
310
00000000000000000000000000000000000000000000000000000000000000000000000000000000000000000000000000000000000000000000000000000000000000000000000000000000000000000000000000000000000000000000000000000000000000000000000000000000000000000000000000000000000000
310
0000000000000000000000000000000000000000000000000000000000000000000000000000000000000000000000000000000000000000
102
{BLKREFS
331
7B1A
102
}
 70
     4
280
     1
281
     0
  0
BLOCK_RECORD
  5
7E07
330
1
100
AcDbSymbolTableRecord
100
AcDbBlockTableRecord
  2
*D29
340
0
 70
     0
280
     1
281
     0
  0
BLOCK_RECORD
  5
7E31
330
1
100
AcDbSymbolTableRecord
100
AcDbBlockTableRecord
  2
*D30
340
0
 70
     0
280
     1
281
     0
  0
BLOCK_RECORD
  5
910C
330
1
100
AcDbSymbolTableRecord
100
AcDbBlockTableRecord
  2
*D31
340
0
 70
     0
280
     1
281
     0
  0
BLOCK_RECORD
  5
926D
330
1
100
AcDbSymbolTableRecord
100
AcDbBlockTableRecord
  2
*D32
340
0
 70
     0
280
     1
281
     0
  0
BLOCK_RECORD
  5
92EF
330
1
100
AcDbSymbolTableRecord
100
AcDbBlockTableRecord
  2
*D33
340
0
 70
     0
280
     1
281
     0
  0
BLOCK_RECORD
  5
92FE
330
1
100
AcDbSymbolTableRecord
100
AcDbBlockTableRecord
  2
*D34
340
0
 70
     0
280
     1
281
     0
  0
BLOCK_RECORD
  5
9403
330
1
100
AcDbSymbolTableRecord
100
AcDbBlockTableRecord
  2
*D35
340
0
 70
     0
280
     1
281
     0
  0
BLOCK_RECORD
  5
95C1
330
1
100
AcDbSymbolTableRecord
100
AcDbBlockTableRecord
  2
ケース
340
0
310
2800000020000000200000000100080000000000000400000000000000000000000000000000000000000000000080000080000000808000800000008000800080800000C0C0C000C0DCC000F0CAA6000020400000206000002080000020A0000020C0000020E00000400000004020000040400000406000004080000040A0
310
000040C0000040E00000600000006020000060400000606000006080000060A0000060C0000060E00000800000008020000080400000806000008080000080A0000080C0000080E00000A0000000A0200000A0400000A0600000A0800000A0A00000A0C00000A0E00000C0000000C0200000C0400000C0600000C0800000C0
310
A00000C0C00000C0E00000E0000000E0200000E0400000E0600000E0800000E0A00000E0C00000E0E00040000000400020004000400040006000400080004000A0004000C0004000E00040200000402020004020400040206000402080004020A0004020C0004020E000404000004040200040404000404060004040800040
310
40A0004040C0004040E00040600000406020004060400040606000406080004060A0004060C0004060E00040800000408020004080400040806000408080004080A0004080C0004080E00040A0000040A0200040A0400040A0600040A0800040A0A00040A0C00040A0E00040C0000040C0200040C0400040C0600040C08000
310
40C0A00040C0C00040C0E00040E0000040E0200040E0400040E0600040E0800040E0A00040E0C00040E0E00080000000800020008000400080006000800080008000A0008000C0008000E00080200000802020008020400080206000802080008020A0008020C0008020E00080400000804020008040400080406000804080
310
008040A0008040C0008040E00080600000806020008060400080606000806080008060A0008060C0008060E00080800000808020008080400080806000808080008080A0008080C0008080E00080A0000080A0200080A0400080A0600080A0800080A0A00080A0C00080A0E00080C0000080C0200080C0400080C0600080C0
310
800080C0A00080C0C00080C0E00080E0000080E0200080E0400080E0600080E0800080E0A00080E0C00080E0E000C0000000C0002000C0004000C0006000C0008000C000A000C000C000C000E000C0200000C0202000C0204000C0206000C0208000C020A000C020C000C020E000C0400000C0402000C0404000C0406000C0
310
408000C040A000C040C000C040E000C0600000C0602000C0604000C0606000C0608000C060A000C060C000C060E000C0800000C0802000C0804000C0806000C0808000C080A000C080C000C080E000C0A00000C0A02000C0A04000C0A06000C0A08000C0A0A000C0A0C000C0A0E000C0C00000C0C02000C0C04000C0C06000
310
C0C08000C0C0A000F0FBFF00A4A0A000808080000000FF0000FF000000FFFF00FF000000FF00FF00FFFF0000FFFFFF0000000000000000000000000000000000000000000000000000000000000000000000000000000000000000000000000000000000000000000000000000000000000000000000000000000000000000
310
00000000000000000000000000000000000000000000000000000000000000000000000000000000000000000000000000000000000000000000000000000000000000000000000000000000000000000000000000000000000000000000000000000000000000000000000000000000000000000000000000000000000000
310
000000000000000000000000000000000000000000000000000000000000000000000000000000000000000000000000000000FC0000FC00000000000000000000FC0000FC0000000000000000000000000000FC0000FC00000000000000000000FC0000FC0000000000000000000000000000FCFCFCFC0000000000000000
310
0000FCFCFCFC0000000000000000000000000000FC0000FC00000000000000000000FC0000FC0000000000000000000000000000FC0000FC00000000000000000000FC0000FC00000000FCFCFCFCFCFCFCFC0000FC0000FC00000000000000000000FC0000FC000000FC00000000000000000000FC0000FC00000000000000
310
000000FC0000FC00FCFCFCFCFCFCFCFCFCFCFC0000FC0000FCFCFCFCFCFCFCFCFCFCFCFC0000FC000000FC00000000000000000000FC0000000000000000000000000000000000FC0000FCFCFCFCFCFCFCFCFC0000FC000000000000000000000000000000000000FCFC0000000000000000000000FC000000000000000000
310
00000000000000000000000000000000000000000000FC0000000000000000000000000000000000000000000000000000000000000000FC0000000000000000000000000000000000000000000000000000000000000000FCFC0000000000000000000000000000000000000000000000000000000000000000FC00000000
310
00000000000000000000000000000000000000000000000000000000FCFCFCFCFCFCFCFCFCFCFCFCFCFCFCFCFCFCFCFCFCFCFCFCFC0000000000000000000000000000000000000000000000000000000000000000000000000000000000000000000000000000000000000000000000000000000000000000000000000000
310
00000000000000000000000000000000000000000000000000000000000000000000000000000000000000000000000000000000000000000000000000000000000000000000000000000000000000000000000000000000000000000000000000000000000000000000000000000000000000000000000000000000000000
310
0000000000000000000000000000000000000000000000000000000000000000000000000000000000000000000000000000000000000000
102
{BLKREFS
331
95D5
102
}
 70
     4
280
     1
281
     1
  0
ENDTAB
  0
ENDSEC
  0
SECTION
  2
BLOCKS
  0
BLOCK
  5
20
330
1F
100
AcDbEntity
  8
0
100
AcDbBlockBegin
  2
*Model_Space
 70
     0
 10
0.0
 20
0.0
 30
0.0
  3
*Model_Space
  1

  0
ENDBLK
  5
21
330
1F
100
AcDbEntity
  8
0
100
AcDbBlockEnd
  0
BLOCK
  5
1C
330
1B
100
AcDbEntity
 67
     1
  8
0
100
AcDbBlockBegin
  2
*Paper_Space
 70
     0
 10
0.0
 20
0.0
 30
0.0
  3
*Paper_Space
  1

  0
ENDBLK
  5
1D
330
1B
100
AcDbEntity
 67
     1
  8
0
100
AcDbBlockEnd
  0
BLOCK
  5
24
330
23
100
AcDbEntity
 67
     1
  8
0
100
AcDbBlockBegin
  2
*Paper_Space0
 70
     0
 10
0.0
 20
0.0
 30
0.0
  3
*Paper_Space0
  1

  0
ENDBLK
  5
25
330
23
100
AcDbEntity
 67
     1
  8
0
100
AcDbBlockEnd
  0
BLOCK
  5
6D
330
69
100
AcDbEntity
  8
0
100
AcDbBlockBegin
  2
_Open30
 70
     0
 10
0.0
 20
0.0
 30
0.0
  3
_Open30
  1

  0
LINE
  5
6A
330
69
100
AcDbEntity
  8
0
  6
ByBlock
 62
     0
370
    -2
100
AcDbLine
 10
-1.0
 20
0.26794919
 30
0.0
 11
0.0
 21
0.0
 31
0.0
  0
LINE
  5
6B
330
69
100
AcDbEntity
  8
0
  6
ByBlock
 62
     0
370
    -2
100
AcDbLine
 10
0.0
 20
0.0
 30
0.0
 11
-1.0
 21
-0.26794919
 31
0.0
  0
LINE
  5
6C
330
69
100
AcDbEntity
  8
0
  6
ByBlock
 62
     0
370
    -2
100
AcDbLine
 10
0.0
 20
0.0
 30
0.0
 11
-1.0
 21
0.0
 31
0.0
  0
ENDBLK
  5
6E
330
69
100
AcDbEntity
  8
0
100
AcDbBlockEnd
  0
BLOCK
  5
76
330
74
100
AcDbEntity
  8
0
100
AcDbBlockBegin
  2
GENAXEH
 70
     0
 10
0.0
 20
0.0
 30
0.0
  3
GENAXEH
  1

  0
LINE
  5
75
330
74
100
AcDbEntity
  8
0
100
AcDbLine
 10
-1.0
 20
0.0
 30
0.0
 11
1.0
 21
0.0
 31
0.0
  0
ENDBLK
  5
77
330
74
100
AcDbEntity
  8
0
100
AcDbBlockEnd
  0
BLOCK
  5
3AD0
330
3ACD
100
AcDbEntity
  8
0
100
AcDbBlockBegin
  2
ロッカクアナツキプラグ-1　R1／8
 70
     0
 10
0.0
 20
0.0
 30
0.0
  3
ロッカクアナツキプラグ-1　R1／8
  1

  0
LINE
  5
4C98
330
3ACD
100
AcDbEntity
  8
AM_7 中心線
100
AcDbLine
 10
0.0
 20
6.71623199999999
 30
0.0
 11
0.0
 21
-6.716232000000047
 31
0.0
  0
CIRCLE
  5
4C99
330
3ACD
100
AcDbEntity
  8
AM_4 細線
100
AcDbCircle
 10
0.0
 20
0.0
 30
0.0
 40
5.271232
  0
CIRCLE
  5
4C9A
330
3ACD
100
AcDbEntity
  8
AM_0 外形線1
100
AcDbCircle
 10
0.0
 20
0.0
 30
0.0
 40
4.816232
  0
LINE
  5
4C9B
330
3ACD
100
AcDbEntity
  8
AM_7 中心線
100
AcDbLine
 10
6.71623199999999
 20
0.0
 30
0.0
 11
-6.71623199999999
 21
0.0
 31
0.0
  0
LINE
  5
4C9C
330
3ACD
100
AcDbEntity
  8
AM_0 外形線1
100
AcDbLine
 10
0.0
 20
-2.514999999999985
 30
0.0
 11
2.178053999999974
 21
-1.25750000000005
 31
0.0
  0
LINE
  5
4C9D
330
3ACD
100
AcDbEntity
  8
AM_0 外形線1
100
AcDbLine
 10
2.178053999999974
 20
1.257499999999936
 30
0.0
 11
0.0
 21
2.514999999999985
 31
0.0
  0
LINE
  5
4C9E
330
3ACD
100
AcDbEntity
  8
AM_0 外形線1
100
AcDbLine
 10
-2.178053999999974
 20
-1.25750000000005
 30
0.0
 11
0.0
 21
-2.514999999999985
 31
0.0
  0
LINE
  5
4C9F
330
3ACD
100
AcDbEntity
  8
AM_0 外形線1
100
AcDbLine
 10
-2.178053999999974
 20
1.257499999999936
 30
0.0
 11
-2.178053999999974
 21
-1.25750000000005
 31
0.0
  0
LINE
  5
4CA0
330
3ACD
100
AcDbEntity
  8
AM_0 外形線1
100
AcDbLine
 10
0.0
 20
2.514999999999985
 30
0.0
 11
-2.178053999999974
 21
1.257499999999936
 31
0.0
  0
LINE
  5
4CA1
330
3ACD
100
AcDbEntity
  8
AM_0 外形線1
100
AcDbLine
 10
2.178053999999974
 20
-1.25750000000005
 30
0.0
 11
2.178053999999974
 21
1.257499999999936
 31
0.0
  0
ENDBLK
  5
3ADB
330
3ACD
100
AcDbEntity
  8
0
100
AcDbBlockEnd
  0
BLOCK
  5
3D00
330
3CFF
100
AcDbEntity
  8
0
100
AcDbBlockBegin
  2
ロッカクアナツキプラグ-2　R1／8
 70
     0
 10
0.0
 20
0.0
 30
0.0
  3
ロッカクアナツキプラグ-2　R1／8
  1

  0
LINE
  5
4CA3
330
3CFF
100
AcDbEntity
  8
AM_7 中心線
100
AcDbLine
 10
0.0
 20
-6.716232000000047
 30
0.0
 11
0.0
 21
6.71623199999999
 31
0.0
  0
CIRCLE
  5
4CA4
330
3CFF
100
AcDbEntity
  8
AM_4 細線
100
AcDbCircle
 10
0.0
 20
0.0
 30
0.0
 40
5.271232
  0
CIRCLE
  5
4CA5
330
3CFF
100
AcDbEntity
  8
AM_0 外形線1
100
AcDbCircle
 10
0.0
 20
0.0
 30
0.0
 40
4.816232
  0
LINE
  5
4CA6
330
3CFF
100
AcDbEntity
  8
AM_7 中心線
100
AcDbLine
 10
-6.71623199999999
 20
0.0
 30
0.0
 11
6.71623199999999
 21
0.0
 31
0.0
  0
LINE
  5
4CA7
330
3CFF
100
AcDbEntity
  8
AM_0 外形線1
100
AcDbLine
 10
2.178053999999974
 20
-1.25750000000005
 30
0.0
 11
0.0
 21
-2.514999999999985
 31
0.0
  0
LINE
  5
4CA8
330
3CFF
100
AcDbEntity
  8
AM_0 外形線1
100
AcDbLine
 10
0.0
 20
2.514999999999985
 30
0.0
 11
2.178053999999974
 21
1.257499999999936
 31
0.0
  0
LINE
  5
4CA9
330
3CFF
100
AcDbEntity
  8
AM_0 外形線1
100
AcDbLine
 10
-2.178053999999974
 20
-1.25750000000005
 30
0.0
 11
-2.178053999999974
 21
1.257499999999936
 31
0.0
  0
LINE
  5
4CAA
330
3CFF
100
AcDbEntity
  8
AM_0 外形線1
100
AcDbLine
 10
0.0
 20
-2.514999999999985
 30
0.0
 11
-2.178053999999974
 21
-1.25750000000005
 31
0.0
  0
LINE
  5
4CAB
330
3CFF
100
AcDbEntity
  8
AM_0 外形線1
100
AcDbLine
 10
-2.178053999999974
 20
1.257499999999936
 30
0.0
 11
0.0
 21
2.514999999999985
 31
0.0
  0
LINE
  5
4CAC
330
3CFF
100
AcDbEntity
  8
AM_0 外形線1
100
AcDbLine
 10
2.178053999999974
 20
1.257499999999936
 30
0.0
 11
2.178053999999974
 21
-1.25750000000005
 31
0.0
  0
ENDBLK
  5
3D0B
330
3CFF
100
AcDbEntity
  8
0
100
AcDbBlockEnd
  0
BLOCK
  5
4D26
330
4D25
100
AcDbEntity
  8
0
100
AcDbBlockBegin
  2
ケースＡ-1 SAM112
 70
     0
 10
0.0
 20
0.0
 30
0.0
  3
ケースＡ-1 SAM112
  1

  0
LINE
  5
4D28
330
4D25
100
AcDbEntity
  8
AM_7 中心線
100
AcDbLine
 10
26.35888999999997
 20
49.5
 30
0.0
 11
-22.2722638532083
 21
49.5
 31
0.0
  0
ARC
  5
4D29
330
4D25
100
AcDbEntity
  8
AM_0 外形線1
100
AcDbCircle
 10
37.0
 20
-36.5
 30
0.0
 40
3.0
100
AcDbArc
 50
270.0
 51
0.0
  0
LINE
  5
4D2A
330
4D25
100
AcDbEntity
  8
AM_0 外形線1
100
AcDbLine
 10
0.0
 20
0.0
 30
0.0
 11
0.0
 21
-55.80000000000007
 31
0.0
  0
LINE
  5
4D2B
330
4D25
100
AcDbEntity
  8
AM_0 外形線1
100
AcDbLine
 10
15.0
 20
-55.80000000000007
 30
0.0
 11
15.0
 21
0.0
 31
0.0
  0
ARC
  5
4D2C
330
4D25
100
AcDbEntity
  8
AM_0 外形線1
100
AcDbCircle
 10
18.0
 20
-42.5
 30
0.0
 40
3.0
100
AcDbArc
 50
90.0
 51
180.0
  0
LINE
  5
4D2D
330
4D25
100
AcDbEntity
  8
AM_0 外形線1
100
AcDbLine
 10
0.2000000000000455
 20
-56.00000000000004
 30
0.0
 11
14.79999999999995
 21
-56.00000000000004
 31
0.0
  0
LINE
  5
4D2E
330
4D25
100
AcDbEntity
  8
AM_0 外形線1
100
AcDbLine
 10
0.0
 20
-55.80000000000007
 30
0.0
 11
0.2000000000000455
 21
-56.00000000000004
 31
0.0
  0
LINE
  5
4D2F
330
4D25
100
AcDbEntity
  8
AM_0 外形線1
100
AcDbLine
 10
14.79999999999995
 20
-56.00000000000004
 30
0.0
 11
15.0
 21
-55.80000000000007
 31
0.0
  0
LINE
  5
4D30
330
4D25
100
AcDbEntity
  8
AM_0 外形線1
100
AcDbLine
 10
18.0
 20
-39.5
 30
0.0
 11
37.0
 21
-39.5
 31
0.0
  0
LINE
  5
4D31
330
4D25
100
AcDbEntity
  8
AM_0 外形線1
100
AcDbLine
 10
40.0
 20
-36.5
 30
0.0
 11
40.0
 21
0.0
 31
0.0
  0
LINE
  5
4D32
330
4D25
100
AcDbEntity
  8
AM_0 外形線1
100
AcDbLine
 10
40.0
 20
30.0
 30
0.0
 11
37.79999999999996
 21
30.0
 31
0.0
  0
ARC
  5
4D33
330
4D25
100
AcDbEntity
  8
AM_0 外形線1
100
AcDbCircle
 10
37.0
 20
36.5
 30
0.0
 40
3.0
100
AcDbArc
 50
0.0
 51
90.0
  0
LINE
  5
4D34
330
4D25
100
AcDbEntity
  8
AM_0 外形線1
100
AcDbLine
 10
0.0
 20
41.39999999999997
 30
0.0
 11
0.0
 21
46.0
 31
0.0
  0
ARC
  5
4D35
330
4D25
100
AcDbEntity
  8
AM_0 外形線1
100
AcDbCircle
 10
18.0
 20
42.5
 30
0.0
 40
3.0
100
AcDbArc
 50
180.0
 51
270.0
  0
LINE
  5
4D36
330
4D25
100
AcDbEntity
  8
AM_3 隠れ線
100
AcDbLine
 10
15.0
 20
31.79999999999996
 30
0.0
 11
24.5
 21
31.79999999999996
 31
0.0
  0
LINE
  5
4D37
330
4D25
100
AcDbEntity
  8
AM_7 中心線
100
AcDbLine
 10
11.0
 20
33.0
 30
0.0
 11
27.0
 21
33.0
 31
0.0
  0
LINE
  5
4D38
330
4D25
100
AcDbEntity
  8
AM_0 外形線1
100
AcDbLine
 10
13.0
 20
34.5
 30
0.0
 11
25.0
 21
34.5
 31
0.0
  0
LINE
  5
4D39
330
4D25
100
AcDbEntity
  8
AM_0 外形線1
100
AcDbLine
 10
12.0
 20
35.0
 30
0.0
 11
-2.0
 21
35.0
 31
0.0
  0
LWPOLYLINE
  5
4D3A
330
4D25
100
AcDbEntity
  8
AM_0 外形線1
100
AcDbPolyline
 90
       73
 70
     0
 43
0.0
 10
1.200000000000044
 20
37.5
 10
1.304587000000082
 20
37.50742099999996
 10
1.408378000000084
 20
37.52962499999995
 10
1.510582999999995
 20
37.56644499999993
 10
1.610423999999965
 20
37.61759999999997
 10
1.707141999999976
 20
37.68269999999996
 10
1.799999999999954
 20
37.76125099999996
 10
1.888292000000091
 20
37.85265399999993
 10
1.971345000000154
 20
37.95621399999993
 10
2.048528000000032
 20
38.07114199999995
 10
2.119253999999954
 20
38.19656499999997
 10
2.182982999999921
 20
38.33152599999994
 10
2.239231000000017
 20
38.47499999999996
 10
2.287569999999958
 20
38.62589499999997
 10
2.327631000000109
 20
38.78306099999998
 10
2.359110999999983
 20
38.94530299999997
 10
2.381769999999959
 20
39.11138699999992
 10
2.395434000000022
 20
39.28004699999997
 10
2.400000000000089
 20
39.44999999999999
 10
2.395434000000022
 20
39.61995399999995
 10
2.381769999999959
 20
39.78861399999994
 10
2.359110999999983
 20
39.95469799999995
 10
2.327631000000109
 20
40.11693999999994
 10
2.287569999999958
 20
40.27410599999989
 10
2.239231000000017
 20
40.42499999999995
 10
2.182982999999921
 20
40.56847499999998
 10
2.119253999999954
 20
40.70343599999995
 10
2.048528000000032
 20
40.82885899999996
 10
1.971345000000154
 20
40.94378699999992
 10
1.888292000000091
 20
41.04734699999993
 10
1.799999999999954
 20
41.13874999999995
 10
1.707141999999976
 20
41.21730099999996
 10
1.610423999999965
 20
41.28240099999993
 10
1.510582999999995
 20
41.33355599999993
 10
1.408378000000084
 20
41.37037599999996
 10
1.304587000000082
 20
41.39257999999995
 10
1.200000000000044
 20
41.39999999999997
 10
1.095413000000007
 20
41.39257999999995
 10
0.9916230000001178
 20
41.37037599999996
 10
0.8894170000000942
 20
41.33355599999993
 10
0.7895759999998973
 20
41.28240099999993
 10
0.6928580000001148
 20
41.21730099999996
 10
0.6000000000001366
 20
41.13874999999995
 10
0.5117090000001099
 20
41.04734699999993
 10
0.4286549999999353
 20
40.94378699999992
 10
0.351472000000058
 20
40.82885899999996
 10
0.2807470000000194
 20
40.70343599999995
 10
0.2170180000000528
 20
40.56847499999998
 10
0.1607699999999568
 20
40.42499999999995
 10
0.112431000000015
 20
40.27410599999989
 10
0.0723689999999806
 20
40.11693999999994
 10
0.0408890000001065
 20
39.95469799999995
 10
0.0182310000000143
 20
39.78861399999994
 10
0.0045670000001792
 20
39.61995399999995
 10
0.0
 20
39.44999999999999
 10
0.0045670000001792
 20
39.28004699999997
 10
0.0182310000000143
 20
39.11138699999992
 10
0.0408890000001065
 20
38.94530299999997
 10
0.0723689999999806
 20
38.78306099999998
 10
0.112431000000015
 20
38.62589499999997
 10
0.1607699999999568
 20
38.47499999999996
 10
0.2170180000000528
 20
38.33152599999994
 10
0.2807470000000194
 20
38.19656499999997
 10
0.351472000000058
 20
38.07114199999995
 10
0.4286549999999353
 20
37.95621399999993
 10
0.5117090000001099
 20
37.85265399999993
 10
0.6000000000001366
 20
37.76125099999996
 10
0.6928580000001148
 20
37.68269999999996
 10
0.7895759999998973
 20
37.61759999999997
 10
0.8894170000000942
 20
37.56644499999993
 10
0.9916230000001178
 20
37.52962499999995
 10
1.095413000000007
 20
37.50742099999996
 10
1.200000000000044
 20
37.5
  0
LINE
  5
4D3B
330
4D25
100
AcDbEntity
  8
AM_0 外形線1
100
AcDbLine
 10
1.90000000000009
 20
41.39999999999997
 30
0.0
 11
0.0
 21
41.39999999999997
 31
0.0
  0
ARC
  5
4D3C
330
4D25
100
AcDbEntity
  8
AM_0 外形線1
100
AcDbCircle
 10
1.90000000000009
 20
40.89999999999998
 30
0.0
 40
0.5
100
AcDbArc
 50
0.0
 51
90.0
  0
LINE
  5
4D3D
330
4D25
100
AcDbEntity
  8
AM_0 外形線1
100
AcDbLine
 10
2.400000000000089
 20
38.0
 30
0.0
 11
2.400000000000089
 21
40.89999999999998
 31
0.0
  0
ARC
  5
4D3E
330
4D25
100
AcDbEntity
  8
AM_0 外形線1
100
AcDbCircle
 10
1.90000000000009
 20
38.0
 30
0.0
 40
0.5
100
AcDbArc
 50
270.0
 51
0.0
  0
LINE
  5
4D3F
330
4D25
100
AcDbEntity
  8
AM_0 外形線1
100
AcDbLine
 10
-2.0
 20
37.29999999999995
 30
0.0
 11
-1.799999999999954
 21
37.5
 31
0.0
  0
LINE
  5
4D40
330
4D25
100
AcDbEntity
  8
AM_0 外形線1
100
AcDbLine
 10
-2.0
 20
35.0
 30
0.0
 11
-2.0
 21
37.29999999999995
 31
0.0
  0
LINE
  5
4D42
330
4D25
100
AcDbEntity
  8
AM_0 外形線1
100
AcDbLine
 10
13.0
 20
32.29999999999995
 30
0.0
 11
13.0
 21
34.0
 31
0.0
  0
LINE
  5
4D43
330
4D25
100
AcDbEntity
  8
AM_0 外形線1
100
AcDbLine
 10
15.0
 20
31.79999999999996
 30
0.0
 11
13.5
 21
31.79999999999996
 31
0.0
  0
LINE
  5
4D44
330
4D25
100
AcDbEntity
  8
AM_0 外形線1
100
AcDbLine
 10
13.5
 20
31.79999999999996
 30
0.0
 11
13.0
 21
32.29999999999995
 31
0.0
  0
ARC
  5
4D45
330
4D25
100
AcDbEntity
  8
AM_0 外形線1
100
AcDbCircle
 10
12.0
 20
34.0
 30
0.0
 40
1.0
100
AcDbArc
 50
0.0
 51
90.0
  0
ARC
  5
4D46
330
4D25
100
AcDbEntity
  8
AM_0 外形線1
100
AcDbCircle
 10
27.0
 20
34.0
 30
0.0
 40
1.0
100
AcDbArc
 50
0.0
 51
90.0
  0
LINE
  5
4D47
330
4D25
100
AcDbEntity
  8
AM_0 外形線1
100
AcDbLine
 10
18.0
 20
39.5
 30
0.0
 11
37.0
 21
39.5
 31
0.0
  0
LINE
  5
4D48
330
4D25
100
AcDbEntity
  8
AM_3 隠れ線
100
AcDbLine
 10
25.0
 20
34.0
 30
0.0
 11
25.0
 21
32.29999999999995
 31
0.0
  0
LINE
  5
4D49
330
4D25
100
AcDbEntity
  8
AM_3 隠れ線
100
AcDbLine
 10
25.0
 20
32.29999999999995
 30
0.0
 11
24.5
 21
31.79999999999996
 31
0.0
  0
ARC
  5
4D4A
330
4D25
100
AcDbEntity
  8
AM_0 外形線1
100
AcDbCircle
 10
26.0
 20
34.0
 30
0.0
 40
1.0
100
AcDbArc
 50
90.0
 51
180.0
  0
LINE
  5
4D4B
330
4D25
100
AcDbEntity
  8
AM_0 外形線1
100
AcDbLine
 10
27.0
 20
35.0
 30
0.0
 11
26.0
 21
35.0
 31
0.0
  0
LINE
  5
4D4C
330
4D25
100
AcDbEntity
  8
AM_0 外形線1
100
AcDbLine
 10
37.79999999999996
 20
29.0
 30
0.0
 11
37.79999999999996
 21
33.69999999999999
 31
0.0
  0
LINE
  5
4D4D
330
4D25
100
AcDbEntity
  8
AM_0 外形線1
100
AcDbLine
 10
30.20000000000005
 20
33.69999999999999
 30
0.0
 11
30.20000000000005
 21
29.0
 31
0.0
  0
LINE
  5
4D4E
330
4D25
100
AcDbEntity
  8
AM_0 外形線1
100
AcDbLine
 10
28.0
 20
29.0
 30
0.0
 11
28.0
 21
34.0
 31
0.0
  0
LWPOLYLINE
  5
4D4F
330
4D25
100
AcDbEntity
  8
AM_0 外形線1
100
AcDbPolyline
 90
       73
 70
     0
 43
0.0
 10
30.20000000000005
 20
31.34999999999997
 10
30.21445999999992
 20
31.14518399999997
 10
30.25773099999993
 20
30.94192699999997
 10
30.3294820000001
 20
30.74177599999996
 10
30.42916799999989
 20
30.54625299999998
 10
30.55603100000008
 20
30.35684799999996
 10
30.70910400000002
 20
30.17499999999996
 10
30.88722299999995
 20
30.002096
 10
31.0890310000002
 20
29.83945
 10
31.312995
 20
29.68829999999997
 10
31.55740700000001
 20
29.54979599999996
 10
31.82041000000004
 20
29.42499299999992
 10
32.10000000000014
 20
29.31484099999995
 10
32.39405099999999
 20
29.22017699999998
 10
32.70032400000014
 20
29.14172299999997
 10
33.01648799999998
 20
29.08007499999996
 10
33.34013699999991
 20
29.03570199999996
 10
33.66880800000013
 20
29.00894299999993
 10
34.0
 20
29.0
 10
34.3311920000001
 20
29.00894299999993
 10
34.6598630000001
 20
29.03570199999996
 10
34.98351299999991
 20
29.08007499999996
 10
35.2996770000002
 20
29.14172299999997
 10
35.60594999999989
 20
29.22017699999998
 10
35.9000000000001
 20
29.31484099999995
 10
36.17959100000007
 20
29.42499299999992
 10
36.44259299999999
 20
29.54979599999996
 10
36.68700600000011
 20
29.68829999999997
 10
36.91096900000002
 20
29.83945
 10
37.11277799999994
 20
30.002096
 10
37.2908970000001
 20
30.17499999999996
 10
37.44397000000004
 20
30.35684799999996
 10
37.57083200000011
 20
30.54625299999998
 10
37.67051800000014
 20
30.74177599999996
 10
37.74226999999996
 20
30.94192699999997
 10
37.7855400000001
 20
31.14518399999997
 10
37.79999999999996
 20
31.34999999999997
 10
37.7855400000001
 20
31.55481599999996
 10
37.74226999999996
 20
31.75807399999996
 10
37.67051800000014
 20
31.95822499999997
 10
37.57083200000011
 20
32.15374799999995
 10
37.44397000000004
 20
32.34315299999997
 10
37.2908970000001
 20
32.52499999999999
 10
37.11277799999994
 20
32.69790499999994
 10
36.91096900000002
 20
32.86055099999993
 10
36.68700600000011
 20
33.01170099999996
 10
36.44259299999999
 20
33.15020499999997
 10
36.17959100000007
 20
33.27500799999997
 10
35.9000000000001
 20
33.38515999999993
 10
35.60594999999989
 20
33.47982399999995
 10
35.2996770000002
 20
33.55827799999997
 10
34.98351299999991
 20
33.61992599999997
 10
34.6598630000001
 20
33.66429899999996
 10
34.3311920000001
 20
33.69105799999994
 10
34.0
 20
33.69999999999999
 10
33.66880800000013
 20
33.69105799999994
 10
33.34013699999991
 20
33.66429899999996
 10
33.01648799999998
 20
33.61992599999997
 10
32.70032400000014
 20
33.55827799999997
 10
32.39405099999999
 20
33.47982399999995
 10
32.10000000000014
 20
33.38515999999993
 10
31.82041000000004
 20
33.27500799999997
 10
31.55740700000001
 20
33.15020499999997
 10
31.312995
 20
33.01170099999996
 10
31.0890310000002
 20
32.86055099999993
 10
30.88722299999995
 20
32.69790499999994
 10
30.70910400000002
 20
32.52499999999999
 10
30.55603100000008
 20
32.34315299999997
 10
30.42916799999989
 20
32.15374799999995
 10
30.3294820000001
 20
31.95822499999997
 10
30.25773099999993
 20
31.75807399999996
 10
30.21445999999992
 20
31.55481599999996
 10
30.20000000000005
 20
31.34999999999997
  0
LINE
  5
4D50
330
4D25
100
AcDbEntity
  8
AM_0 外形線1
100
AcDbLine
 10
30.20000000000005
 20
30.0
 30
0.0
 11
28.0
 21
30.0
 31
0.0
  0
LINE
  5
4D51
330
4D25
100
AcDbEntity
  8
AM_0 外形線1
100
AcDbLine
 10
37.79999999999996
 20
33.69999999999999
 30
0.0
 11
30.20000000000005
 21
33.69999999999999
 31
0.0
  0
LINE
  5
4D52
330
4D25
100
AcDbEntity
  8
AM_0 外形線1
100
AcDbLine
 10
0.0
 20
46.0
 30
0.0
 11
15.0
 21
46.0
 31
0.0
  0
LINE
  5
4D53
330
4D25
100
AcDbEntity
  8
AM_0 外形線1
100
AcDbLine
 10
15.0
 20
53.0
 30
0.0
 11
0.0
 21
53.0
 31
0.0
  0
LINE
  5
4D54
330
4D25
100
AcDbEntity
  8
AM_0 外形線1
100
AcDbLine
 10
0.2000000000000455
 20
56.0
 30
0.0
 11
14.79999999999995
 21
56.0
 31
0.0
  0
LINE
  5
4D55
330
4D25
100
AcDbEntity
  8
AM_0 外形線1
100
AcDbLine
 10
0.0
 20
53.0
 30
0.0
 11
0.0
 21
55.79999999999995
 31
0.0
  0
LINE
  5
4D56
330
4D25
100
AcDbEntity
  8
AM_0 外形線1
100
AcDbLine
 10
0.0
 20
55.79999999999995
 30
0.0
 11
0.2000000000000455
 21
56.0
 31
0.0
  0
LINE
  5
4D57
330
4D25
100
AcDbEntity
  8
AM_0 外形線1
100
AcDbLine
 10
15.0
 20
42.5
 30
0.0
 11
15.0
 21
55.79999999999995
 31
0.0
  0
LINE
  5
4D58
330
4D25
100
AcDbEntity
  8
AM_0 外形線1
100
AcDbLine
 10
14.79999999999995
 20
56.0
 30
0.0
 11
15.0
 21
55.79999999999995
 31
0.0
  0
LINE
  5
4D59
330
4D25
100
AcDbEntity
  8
AM_0 外形線1
100
AcDbLine
 10
40.0
 20
36.5
 30
0.0
 11
40.0
 21
29.0
 31
0.0
  0
INSERT
  5
4D5A
330
4D25
100
AcDbEntity
  8
AM_0 外形線1
100
AcDbBlockReference
  2
ロッカクアナツキプラグ-1　R1／8
 10
7.5
 20
-24.75
 30
0.0
  0
LINE
  5
4DC6
330
4D25
100
AcDbEntity
  8
AM_0 外形線1
100
AcDbLine
 10
-1.799999999999954
 20
37.5
 30
0.0
 11
1.90000000000009
 21
37.5
 31
0.0
  0
ENDBLK
  5
4D27
330
4D25
100
AcDbEntity
  8
0
100
AcDbBlockEnd
  0
BLOCK
  5
4E59
330
4E58
100
AcDbEntity
  8
0
100
AcDbBlockBegin
  2
ケースＡ-2 SAM112
 70
     0
 10
0.0
 20
0.0
 30
0.0
  3
ケースＡ-2 SAM112
  1

  0
LWPOLYLINE
  5
4E5B
330
4E58
100
AcDbEntity
  8
AM_0 外形線1
100
AcDbPolyline
 90
       73
 70
     0
 43
0.0
 10
-1.19999999999993
 20
37.5
 10
-1.095413000000007
 20
37.50742099999996
 10
-0.9916220000000064
 20
37.52962499999995
 10
-0.8894169999998664
 20
37.56644499999993
 10
-0.7895759999998973
 20
37.61759999999997
 10
-0.6928579999998874
 20
37.68269999999996
 10
-0.5999999999999091
 20
37.76125099999996
 10
-0.5117079999999988
 20
37.85265399999993
 10
-0.4286549999999353
 20
37.95621399999993
 10
-0.3514719999999443
 20
38.07114199999995
 10
-0.2807459999999082
 20
38.19656499999997
 10
-0.2170169999999416
 20
38.33152599999994
 10
-0.1607689999999593
 20
38.47499999999996
 10
-0.1124299999999039
 20
38.62589499999997
 10
-0.0723689999999806
 20
38.78306099999998
 10
-0.0408889999998792
 20
38.94530299999997
 10
-0.0182299999999032
 20
39.11138699999992
 10
-0.0045659999999543
 20
39.28004699999997
 10
0.0
 20
39.44999999999999
 10
-0.0045659999999543
 20
39.61995399999995
 10
-0.0182299999999032
 20
39.78861399999994
 10
-0.0408889999998792
 20
39.95469799999995
 10
-0.0723689999999806
 20
40.11693999999994
 10
-0.1124299999999039
 20
40.27410599999989
 10
-0.1607689999999593
 20
40.42499999999995
 10
-0.2170169999999416
 20
40.56847499999998
 10
-0.2807459999999082
 20
40.70343599999995
 10
-0.3514719999999443
 20
40.82885899999996
 10
-0.4286549999999353
 20
40.94378699999992
 10
-0.5117079999999988
 20
41.04734699999993
 10
-0.5999999999999091
 20
41.13874999999995
 10
-0.6928579999998874
 20
41.21730099999996
 10
-0.7895759999998973
 20
41.28240099999993
 10
-0.8894169999998664
 20
41.33355599999993
 10
-0.9916220000000064
 20
41.37037599999996
 10
-1.095413000000007
 20
41.39257999999995
 10
-1.19999999999993
 20
41.39999999999997
 10
-1.304586999999969
 20
41.39257999999995
 10
-1.408376999999973
 20
41.37037599999996
 10
-1.510582999999995
 20
41.33355599999993
 10
-1.610423999999965
 20
41.28240099999993
 10
-1.707141999999976
 20
41.21730099999996
 10
-1.799999999999954
 20
41.13874999999995
 10
-1.88829099999998
 20
41.04734699999993
 10
-1.971344999999928
 20
40.94378699999992
 10
-2.048528000000032
 20
40.82885899999996
 10
-2.119252999999956
 20
40.70343599999995
 10
-2.182982000000038
 20
40.56847499999998
 10
-2.239229999999905
 20
40.42499999999995
 10
-2.287568999999961
 20
40.27410599999989
 10
-2.327630999999882
 20
40.11693999999994
 10
-2.359110999999983
 20
39.95469799999995
 10
-2.381768999999962
 20
39.78861399999994
 10
-2.395432999999911
 20
39.61995399999995
 10
-2.399999999999977
 20
39.44999999999999
 10
-2.395432999999911
 20
39.28004699999997
 10
-2.381768999999962
 20
39.11138699999992
 10
-2.359110999999983
 20
38.94530299999997
 10
-2.327630999999882
 20
38.78306099999998
 10
-2.287568999999961
 20
38.62589499999997
 10
-2.239229999999905
 20
38.47499999999996
 10
-2.182982000000038
 20
38.33152599999994
 10
-2.119252999999956
 20
38.19656499999997
 10
-2.048528000000032
 20
38.07114199999995
 10
-1.971344999999928
 20
37.95621399999993
 10
-1.88829099999998
 20
37.85265399999993
 10
-1.799999999999954
 20
37.76125099999996
 10
-1.707141999999976
 20
37.68269999999996
 10
-1.610423999999965
 20
37.61759999999997
 10
-1.510582999999995
 20
37.56644499999993
 10
-1.408376999999973
 20
37.52962499999995
 10
-1.304586999999969
 20
37.50742099999996
 10
-1.19999999999993
 20
37.5
  0
LINE
  5
4E5C
330
4E58
100
AcDbEntity
  8
AM_7 中心線
100
AcDbLine
 10
24.0
 20
49.5
 30
0.0
 11
-29.0
 21
49.5
 31
0.0
  0
LINE
  5
4E5D
330
4E58
100
AcDbEntity
  8
AM_0 外形線1
100
AcDbLine
 10
-15.0
 20
46.0
 30
0.0
 11
0.0
 21
46.0
 31
0.0
  0
LINE
  5
4E5E
330
4E58
100
AcDbEntity
  8
AM_0 外形線1
100
AcDbLine
 10
-15.0
 20
53.0
 30
0.0
 11
0.0
 21
53.0
 31
0.0
  0
LINE
  5
4E5F
330
4E58
100
AcDbEntity
  8
AM_0 外形線1
100
AcDbLine
 10
-1.899999999999976
 20
41.39999999999997
 30
0.0
 11
0.0
 21
41.39999999999997
 31
0.0
  0
LINE
  5
4E60
330
4E58
100
AcDbEntity
  8
AM_0 外形線1
100
AcDbLine
 10
-12.0
 20
35.0
 30
0.0
 11
2.0
 21
35.0
 31
0.0
  0
LINE
  5
4E61
330
4E58
100
AcDbEntity
  8
AM_0 外形線1
100
AcDbLine
 10
0.0
 20
55.79999999999995
 30
0.0
 11
-0.1999999999999318
 21
56.0
 31
0.0
  0
LINE
  5
4E62
330
4E58
100
AcDbEntity
  8
AM_0 外形線1
100
AcDbLine
 10
0.0
 20
-55.80000000000007
 30
0.0
 11
-0.1999999999999318
 21
-56.00000000000004
 31
0.0
  0
LINE
  5
4E63
330
4E58
100
AcDbEntity
  8
AM_0 外形線1
100
AcDbLine
 10
-40.0
 20
-36.5
 30
0.0
 11
-40.0
 21
0.0
 31
0.0
  0
LINE
  5
4E64
330
4E58
100
AcDbEntity
  8
AM_0 外形線1
100
AcDbLine
 10
-15.0
 20
-55.80000000000007
 30
0.0
 11
-15.0
 21
0.0
 31
0.0
  0
LINE
  5
4E65
330
4E58
100
AcDbEntity
  8
AM_0 外形線1
100
AcDbLine
 10
-18.0
 20
-39.5
 30
0.0
 11
-37.0
 21
-39.5
 31
0.0
  0
ARC
  5
4E66
330
4E58
100
AcDbEntity
  8
AM_0 外形線1
100
AcDbCircle
 10
-37.0
 20
-36.5
 30
0.0
 40
3.0
100
AcDbArc
 50
180.0
 51
270.0
  0
LINE
  5
4E67
330
4E58
100
AcDbEntity
  8
AM_0 外形線1
100
AcDbLine
 10
-0.1999999999999318
 20
-56.00000000000004
 30
0.0
 11
-14.79999999999995
 21
-56.00000000000004
 31
0.0
  0
LINE
  5
4E68
330
4E58
100
AcDbEntity
  8
AM_0 外形線1
100
AcDbLine
 10
-14.79999999999995
 20
-56.00000000000004
 30
0.0
 11
-15.0
 21
-55.80000000000007
 31
0.0
  0
ARC
  5
4E69
330
4E58
100
AcDbEntity
  8
AM_0 外形線1
100
AcDbCircle
 10
-18.0
 20
-42.5
 30
0.0
 40
3.0
100
AcDbArc
 50
0.0
 51
90.0
  0
ARC
  5
4E6A
330
4E58
100
AcDbEntity
  8
AM_0 外形線1
100
AcDbCircle
 10
-18.0
 20
42.5
 30
0.0
 40
3.0
100
AcDbArc
 50
270.0
 51
0.0
  0
LINE
  5
4E6B
330
4E58
100
AcDbEntity
  8
AM_3 隠れ線
100
AcDbLine
 10
-25.0
 20
32.29999999999995
 30
0.0
 11
-24.5
 21
31.79999999999996
 31
0.0
  0
LINE
  5
4E6C
330
4E58
100
AcDbEntity
  8
AM_7 中心線
100
AcDbLine
 10
-11.92410029005725
 20
33.0
 30
0.0
 11
-27.0
 21
33.0
 31
0.0
  0
LINE
  5
4E6D
330
4E58
100
AcDbEntity
  8
AM_0 外形線1
100
AcDbLine
 10
-13.0
 20
34.5
 30
0.0
 11
-25.0
 21
34.5
 31
0.0
  0
LINE
  5
4E6E
330
4E58
100
AcDbEntity
  8
AM_0 外形線1
100
AcDbLine
 10
-18.0
 20
39.5
 30
0.0
 11
-37.0
 21
39.5
 31
0.0
  0
LWPOLYLINE
  5
4E6F
330
4E58
100
AcDbEntity
  8
AM_0 外形線1
100
AcDbPolyline
 90
       73
 70
     0
 43
0.0
 10
-30.19999999999993
 20
31.34999999999997
 10
-30.21445999999992
 20
31.55481599999996
 10
-30.25773000000004
 20
31.75807399999996
 10
-30.32948199999998
 20
31.95822499999997
 10
-30.42916799999989
 20
32.15374799999995
 10
-30.55602999999996
 20
32.34315299999997
 10
-30.70910299999991
 20
32.52499999999999
 10
-30.88722199999995
 20
32.69790499999994
 10
-31.08903099999998
 20
32.86055099999993
 10
-31.31299399999989
 20
33.01170099999996
 10
-31.55740700000001
 20
33.15020499999997
 10
-31.82040899999993
 20
33.27500799999997
 10
-32.09999999999991
 20
33.38515999999993
 10
-32.39404999999988
 20
33.47982399999995
 10
-32.70032300000003
 20
33.55827799999997
 10
-33.01648699999998
 20
33.61992599999997
 10
-33.34013699999991
 20
33.66429899999996
 10
-33.6688079999999
 20
33.69105799999994
 10
-34.0
 20
33.69999999999999
 10
-34.33119199999988
 20
33.69105799999994
 10
-34.65986299999986
 20
33.66429899999996
 10
-34.98351200000002
 20
33.61992599999997
 10
-35.29967599999998
 20
33.55827799999997
 10
-35.60594900000001
 20
33.47982399999995
 10
-35.89999999999998
 20
33.38515999999993
 10
-36.17958999999996
 20
33.27500799999997
 10
-36.44259299999999
 20
33.15020499999997
 10
-36.687005
 20
33.01170099999996
 10
-36.91096900000002
 20
32.86055099999993
 10
-37.11277700000005
 20
32.69790499999994
 10
-37.29089599999998
 20
32.52499999999999
 10
-37.44396899999993
 20
32.34315299999997
 10
-37.570832
 20
32.15374799999995
 10
-37.6705179999999
 20
31.95822499999997
 10
-37.74226899999997
 20
31.75807399999996
 10
-37.78553999999997
 20
31.55481599999996
 10
-37.79999999999996
 20
31.34999999999997
 10
-37.78553999999997
 20
31.14518399999997
 10
-37.74226899999997
 20
30.94192699999997
 10
-37.6705179999999
 20
30.74177599999996
 10
-37.570832
 20
30.54625299999998
 10
-37.44396899999993
 20
30.35684799999996
 10
-37.29089599999998
 20
30.17499999999996
 10
-37.11277700000005
 20
30.002096
 10
-36.91096900000002
 20
29.83945
 10
-36.687005
 20
29.68829999999997
 10
-36.44259299999999
 20
29.54979599999996
 10
-36.17958999999996
 20
29.42499299999992
 10
-35.89999999999998
 20
29.31484099999995
 10
-35.60594900000001
 20
29.22017699999998
 10
-35.29967599999998
 20
29.14172299999997
 10
-34.98351200000002
 20
29.08007499999996
 10
-34.65986299999986
 20
29.03570199999996
 10
-34.33119199999988
 20
29.00894299999993
 10
-34.0
 20
29.0
 10
-33.6688079999999
 20
29.00894299999993
 10
-33.34013699999991
 20
29.03570199999996
 10
-33.01648699999998
 20
29.08007499999996
 10
-32.70032300000003
 20
29.14172299999997
 10
-32.39404999999988
 20
29.22017699999998
 10
-32.09999999999991
 20
29.31484099999995
 10
-31.82040899999993
 20
29.42499299999992
 10
-31.55740700000001
 20
29.54979599999996
 10
-31.31299399999989
 20
29.68829999999997
 10
-31.08903099999998
 20
29.83945
 10
-30.88722199999995
 20
30.002096
 10
-30.70910299999991
 20
30.17499999999996
 10
-30.55602999999996
 20
30.35684799999996
 10
-30.42916799999989
 20
30.54625299999998
 10
-30.32948199999998
 20
30.74177599999996
 10
-30.25773000000004
 20
30.94192699999997
 10
-30.21445999999992
 20
31.14518399999997
 10
-30.19999999999993
 20
31.34999999999997
  0
LINE
  5
4E70
330
4E58
100
AcDbEntity
  8
AM_0 外形線1
100
AcDbLine
 10
-37.79999999999996
 20
33.69999999999999
 30
0.0
 11
-30.19999999999993
 21
33.69999999999999
 31
0.0
  0
LINE
  5
4E71
330
4E58
100
AcDbEntity
  8
AM_0 外形線1
100
AcDbLine
 10
-37.79999999999996
 20
29.0
 30
0.0
 11
-37.79999999999996
 21
33.69999999999999
 31
0.0
  0
LINE
  5
4E72
330
4E58
100
AcDbEntity
  8
AM_0 外形線1
100
AcDbLine
 10
-40.0
 20
36.5
 30
0.0
 11
-40.0
 21
29.0
 31
0.0
  0
LINE
  5
4E73
330
4E58
100
AcDbEntity
  8
AM_0 外形線1
100
AcDbLine
 10
-40.0
 20
30.0
 30
0.0
 11
-37.79999999999996
 21
30.0
 31
0.0
  0
ARC
  5
4E74
330
4E58
100
AcDbEntity
  8
AM_0 外形線1
100
AcDbCircle
 10
-37.0
 20
36.5
 30
0.0
 40
3.0
100
AcDbArc
 50
90.0
 51
180.0
  0
LINE
  5
4E75
330
4E58
100
AcDbEntity
  8
AM_0 外形線1
100
AcDbLine
 10
-28.0
 20
29.0
 30
0.0
 11
-28.0
 21
34.0
 31
0.0
  0
LINE
  5
4E76
330
4E58
100
AcDbEntity
  8
AM_0 外形線1
100
AcDbLine
 10
-30.19999999999993
 20
33.69999999999999
 30
0.0
 11
-30.19999999999993
 21
29.0
 31
0.0
  0
LINE
  5
4E77
330
4E58
100
AcDbEntity
  8
AM_3 隠れ線
100
AcDbLine
 10
-25.0
 20
33.97773399999994
 30
0.0
 11
-25.0
 21
32.29999999999995
 31
0.0
  0
LINE
  5
4E78
330
4E58
100
AcDbEntity
  8
AM_0 外形線1
100
AcDbLine
 10
-30.19999999999993
 20
30.0
 30
0.0
 11
-28.0
 21
30.0
 31
0.0
  0
ARC
  5
4E79
330
4E58
100
AcDbEntity
  8
AM_0 外形線1
100
AcDbCircle
 10
-26.0
 20
34.0
 30
0.0
 40
1.0
100
AcDbArc
 50
0.0
 51
90.0
  0
LINE
  5
4E7A
330
4E58
100
AcDbEntity
  8
AM_0 外形線1
100
AcDbLine
 10
-27.0
 20
35.0
 30
0.0
 11
-26.0
 21
35.0
 31
0.0
  0
ARC
  5
4E7B
330
4E58
100
AcDbEntity
  8
AM_0 外形線1
100
AcDbCircle
 10
-27.0
 20
34.0
 30
0.0
 40
1.0
100
AcDbArc
 50
90.0
 51
180.0
  0
ARC
  5
4E7C
330
4E58
100
AcDbEntity
  8
AM_0 外形線1
100
AcDbCircle
 10
-12.0
 20
34.0
 30
0.0
 40
1.0
100
AcDbArc
 50
90.0
 51
180.0
  0
LINE
  5
4E7D
330
4E58
100
AcDbEntity
  8
AM_0 外形線1
100
AcDbLine
 10
-13.0
 20
32.29999999999995
 30
0.0
 11
-13.0
 21
34.0
 31
0.0
  0
LINE
  5
4E7E
330
4E58
100
AcDbEntity
  8
AM_3 隠れ線
100
AcDbLine
 10
-15.0
 20
31.79999999999996
 30
0.0
 11
-24.5
 21
31.79999999999996
 31
0.0
  0
LINE
  5
4E7F
330
4E58
100
AcDbEntity
  8
AM_0 外形線1
100
AcDbLine
 10
-15.0
 20
31.79999999999996
 30
0.0
 11
-13.5
 21
31.79999999999996
 31
0.0
  0
LINE
  5
4E80
330
4E58
100
AcDbEntity
  8
AM_0 外形線1
100
AcDbLine
 10
-13.5
 20
31.79999999999996
 30
0.0
 11
-13.0
 21
32.29999999999995
 31
0.0
  0
ARC
  5
4E81
330
4E58
100
AcDbEntity
  8
AM_0 外形線1
100
AcDbCircle
 10
-1.899999999999976
 20
40.89999999999998
 30
0.0
 40
0.5
100
AcDbArc
 50
90.0
 51
180.0
  0
LINE
  5
4E82
330
4E58
100
AcDbEntity
  8
AM_0 外形線1
100
AcDbLine
 10
-2.399999999999977
 20
38.0
 30
0.0
 11
-2.399999999999977
 21
40.89999999999998
 31
0.0
  0
ARC
  5
4E83
330
4E58
100
AcDbEntity
  8
AM_0 外形線1
100
AcDbCircle
 10
-1.899999999999976
 20
38.0
 30
0.0
 40
0.5
100
AcDbArc
 50
180.0
 51
270.0
  0
LINE
  5
4E84
330
4E58
100
AcDbEntity
  8
AM_0 外形線1
100
AcDbLine
 10
-0.1999999999999318
 20
56.0
 30
0.0
 11
-14.79999999999995
 21
56.0
 31
0.0
  0
LINE
  5
4E85
330
4E58
100
AcDbEntity
  8
AM_0 外形線1
100
AcDbLine
 10
-15.0
 20
42.5
 30
0.0
 11
-15.0
 21
55.79999999999995
 31
0.0
  0
LINE
  5
4E86
330
4E58
100
AcDbEntity
  8
AM_0 外形線1
100
AcDbLine
 10
-14.79999999999995
 20
56.0
 30
0.0
 11
-15.0
 21
55.79999999999995
 31
0.0
  0
LINE
  5
4E87
330
4E58
100
AcDbEntity
  8
AM_0 外形線1
100
AcDbLine
 10
0.0
 20
0.0
 30
0.0
 11
0.0
 21
-55.80000000000007
 31
0.0
  0
LINE
  5
4E88
330
4E58
100
AcDbEntity
  8
AM_0 外形線1
100
AcDbLine
 10
0.0
 20
41.39999999999997
 30
0.0
 11
0.0
 21
46.0
 31
0.0
  0
LINE
  5
4E89
330
4E58
100
AcDbEntity
  8
AM_0 外形線1
100
AcDbLine
 10
2.0
 20
37.29999999999995
 30
0.0
 11
1.800000000000068
 21
37.5
 31
0.0
  0
LINE
  5
4E8A
330
4E58
100
AcDbEntity
  8
AM_0 外形線1
100
AcDbLine
 10
2.0
 20
35.0
 30
0.0
 11
2.0
 21
37.29999999999995
 31
0.0
  0
LINE
  5
4E8B
330
4E58
100
AcDbEntity
  8
AM_0 外形線1
100
AcDbLine
 10
0.0
 20
53.0
 30
0.0
 11
0.0
 21
55.79999999999995
 31
0.0
  0
LINE
  5
4E8C
330
4E58
100
AcDbEntity
  8
AM_0 外形線1
100
AcDbLine
 10
-1.899999999999976
 20
37.5
 30
0.0
 11
1.800000000000039
 21
37.5
 31
0.0
  0
INSERT
  5
4E8D
330
4E58
100
AcDbEntity
  8
AM_0 外形線1
100
AcDbBlockReference
  2
ロッカクアナツキプラグ-2　R1／8
 10
-7.5
 20
-24.75
 30
0.0
  0
ENDBLK
  5
4E5A
330
4E58
100
AcDbEntity
  8
0
100
AcDbBlockEnd
  0
BLOCK
  5
4F5F
330
4F5E
100
AcDbEntity
  8
0
100
AcDbBlockBegin
  2
センタ-1 SAM112
 70
     0
 10
0.0
 20
0.0
 30
0.0
  3
センタ-1 SAM112
  1

  0
LINE
  5
4F62
330
4F5E
100
AcDbEntity
  8
AM_0 外形線1
100
AcDbLine
 10
0.0
 20
28.60546999999997
 30
0.0
 11
0.0
 21
0.0
 31
0.0
  0
LINE
  5
4F63
330
4F5E
100
AcDbEntity
  8
AM_0 外形線1
100
AcDbLine
 10
50.0
 20
-26.0
 30
0.0
 11
50.0
 21
26.0
 31
0.0
  0
ARC
  5
4F64
330
4F5E
100
AcDbEntity
  8
AM_0 外形線1
100
AcDbCircle
 10
47.0
 20
-26.0
 30
0.0
 40
3.0
100
AcDbArc
 50
270.0
 51
0.0
  0
LINE
  5
4F65
330
4F5E
100
AcDbEntity
  8
AM_0 外形線1
100
AcDbLine
 10
36.0
 20
-29.0
 30
0.0
 11
47.0
 21
-29.0
 31
0.0
  0
LINE
  5
4F67
330
4F5E
100
AcDbEntity
  8
AM_0 外形線1
100
AcDbLine
 10
0.0
 20
11.84271999999993
 30
0.0
 11
49.99999999999993
 21
11.84271999999993
 31
0.0
  0
LINE
  5
4F68
330
4F5E
100
AcDbEntity
  8
AM_0 外形線1
100
AcDbLine
 10
47.0
 20
29.0
 30
0.0
 11
22.5
 21
29.0
 31
0.0
  0
ARC
  5
4F6B
330
4F5E
100
AcDbEntity
  8
AM_0 外形線1
100
AcDbCircle
 10
10.5
 20
29.5
 30
0.0
 40
0.5
100
AcDbArc
 50
270.0
 51
0.0
  0
LINE
  5
4F6C
330
4F5E
100
AcDbEntity
  8
AM_0 外形線1
100
AcDbLine
 10
11.5
 20
34.18678699999992
 30
0.0
 11
11.0
 21
33.62457199999994
 31
0.0
  0
LINE
  5
4F6D
330
4F5E
100
AcDbEntity
  8
AM_0 外形線1
100
AcDbLine
 10
11.0
 20
33.62457199999994
 30
0.0
 11
11.0
 21
29.5
 31
0.0
  0
LINE
  5
4F6E
330
4F5E
100
AcDbEntity
  8
AM_0 外形線1
100
AcDbLine
 10
10.5
 20
29.0
 30
0.0
 11
0.5
 21
29.0
 31
0.0
  0
LINE
  5
4F6F
330
4F5E
100
AcDbEntity
  8
AM_0 外形線1
100
AcDbLine
 10
0.5
 20
29.0
 30
0.0
 11
0.0
 21
28.60546999999997
 31
0.0
  0
LINE
  5
4F70
330
4F5E
100
AcDbEntity
  8
AM_7 中心線
100
AcDbLine
 10
15.5
 20
35.72816752061682
 30
0.0
 11
15.5
 21
30.26551811380818
 31
0.0
  0
LINE
  5
4F71
330
4F5E
100
AcDbEntity
  8
AM_0 外形線1
100
AcDbLine
 10
22.0
 20
29.5
 30
0.0
 11
22.0
 21
33.30068699999993
 31
0.0
  0
ARC
  5
4F72
330
4F5E
100
AcDbEntity
  8
AM_0 外形線1
100
AcDbCircle
 10
22.5
 20
29.5
 30
0.0
 40
0.5
100
AcDbArc
 50
180.0
 51
270.0
  0
ARC
  5
4F73
330
4F5E
100
AcDbEntity
  8
AM_0 外形線1
100
AcDbCircle
 10
15.5
 20
0.0
 30
0.0
 40
34.42
100
AcDbArc
 50
79.96107100000179
 51
96.67350799999731
  0
LINE
  5
4F74
330
4F5E
100
AcDbEntity
  8
AM_0 外形線1
100
AcDbLine
 10
22.0
 20
33.30068699999993
 30
0.0
 11
21.5
 21
33.89301499999999
 31
0.0
  0
ARC
  5
4F76
330
4F5E
100
AcDbEntity
  8
AM_0 外形線1
100
AcDbCircle
 10
47.0
 20
26.0
 30
0.0
 40
3.0
100
AcDbArc
 50
0.0
 51
90.0
  0
ARC
  5
93C6
330
4F5E
100
AcDbEntity
  8
AM_7 中心線
100
AcDbCircle
 10
15.5
 20
0.0
 30
0.0
 40
32.9968428172125
100
AcDbArc
 50
77.50508776143448
 51
98.65270750788866
  0
ARC
  5
93C7
330
4F5E
100
AcDbEntity
  8
AM_0 外形線1
100
AcDbCircle
 10
15.5
 20
0.0
 30
0.0
 40
31.34999999999997
100
AcDbArc
 50
78.03368880517502
 51
98.25278173670341
  0
ENDBLK
  5
4F60
330
4F5E
100
AcDbEntity
  8
0
100
AcDbBlockEnd
  0
BLOCK
  5
4FF4
330
4FF3
100
AcDbEntity
  8
0
100
AcDbBlockBegin
  2
センタ-2 SAM112
 70
     0
 10
0.0
 20
0.0
 30
0.0
  3
センタ-2 SAM112
  1

  0
LINE
  5
4FF7
330
4FF3
100
AcDbEntity
  8
AM_0 外形線1
100
AcDbLine
 10
0.0
 20
28.60546999999997
 30
0.0
 11
0.0
 21
0.0
 31
0.0
  0
LINE
  5
4FF8
330
4FF3
100
AcDbEntity
  8
AM_0 外形線1
100
AcDbLine
 10
-50.0
 20
-26.0
 30
0.0
 11
-50.0
 21
26.0
 31
0.0
  0
LINE
  5
4FFA
330
4FF3
100
AcDbEntity
  8
AM_0 外形線1
100
AcDbLine
 10
-36.0
 20
-29.0
 30
0.0
 11
-47.0
 21
-29.0
 31
0.0
  0
ARC
  5
4FFB
330
4FF3
100
AcDbEntity
  8
AM_0 外形線1
100
AcDbCircle
 10
-47.0
 20
-26.0
 30
0.0
 40
3.0
100
AcDbArc
 50
180.0
 51
270.0
  0
LINE
  5
4FFD
330
4FF3
100
AcDbEntity
  8
AM_0 外形線1
100
AcDbLine
 10
-47.0
 20
29.0
 30
0.0
 11
-22.5
 21
29.0
 31
0.0
  0
LINE
  5
4FFE
330
4FF3
100
AcDbEntity
  8
AM_0 外形線1
100
AcDbLine
 10
0.0
 20
11.84271999999993
 30
0.0
 11
-50.0
 21
11.84271999999993
 31
0.0
  0
ARC
  5
5000
330
4FF3
100
AcDbEntity
  8
AM_0 外形線1
100
AcDbCircle
 10
-47.0
 20
26.0
 30
0.0
 40
3.0
100
AcDbArc
 50
90.0
 51
180.0
  0
ARC
  5
5002
330
4FF3
100
AcDbEntity
  8
AM_0 外形線1
100
AcDbCircle
 10
-15.5
 20
0.0
 30
0.0
 40
34.42
100
AcDbArc
 50
83.32649200000268
 51
100.0389289999982
  0
LINE
  5
5004
330
4FF3
100
AcDbEntity
  8
AM_0 外形線1
100
AcDbLine
 10
-22.0
 20
29.5
 30
0.0
 11
-22.0
 21
33.30068699999993
 31
0.0
  0
ARC
  5
5005
330
4FF3
100
AcDbEntity
  8
AM_0 外形線1
100
AcDbCircle
 10
-22.5
 20
29.5
 30
0.0
 40
0.5
100
AcDbArc
 50
270.0
 51
0.0
  0
LINE
  5
5006
330
4FF3
100
AcDbEntity
  8
AM_0 外形線1
100
AcDbLine
 10
-22.0
 20
33.30068699999993
 30
0.0
 11
-21.5
 21
33.89301499999999
 31
0.0
  0
LINE
  5
5007
330
4FF3
100
AcDbEntity
  8
AM_0 外形線1
100
AcDbLine
 10
-10.5
 20
29.0
 30
0.0
 11
-0.5
 21
29.0
 31
0.0
  0
LINE
  5
5008
330
4FF3
100
AcDbEntity
  8
AM_7 中心線
100
AcDbLine
 10
-15.5
 20
36.08093043834151
 30
0.0
 11
-15.5
 21
29.73413211700404
 31
0.0
  0
LINE
  5
5009
330
4FF3
100
AcDbEntity
  8
AM_0 外形線1
100
AcDbLine
 10
-11.0
 20
33.62457199999994
 30
0.0
 11
-11.0
 21
29.5
 31
0.0
  0
ARC
  5
500A
330
4FF3
100
AcDbEntity
  8
AM_0 外形線1
100
AcDbCircle
 10
-10.5
 20
29.5
 30
0.0
 40
0.5
100
AcDbArc
 50
180.0
 51
270.0
  0
LINE
  5
500B
330
4FF3
100
AcDbEntity
  8
AM_0 外形線1
100
AcDbLine
 10
-11.5
 20
34.18678699999992
 30
0.0
 11
-11.0
 21
33.62457199999994
 31
0.0
  0
LINE
  5
500C
330
4FF3
100
AcDbEntity
  8
AM_0 外形線1
100
AcDbLine
 10
-0.5
 20
29.0
 30
0.0
 11
0.0
 21
28.60546999999997
 31
0.0
  0
ARC
  5
9269
330
4FF3
100
AcDbEntity
  8
AM_0 外形線1
100
AcDbCircle
 10
-15.5
 20
0.0
 30
0.0
 40
31.34999999999997
100
AcDbArc
 50
81.74721826329657
 51
101.9663111948249
  0
ARC
  5
926A
330
4FF3
100
AcDbEntity
  8
AM_7 中心線
100
AcDbCircle
 10
-15.5
 20
0.0
 30
0.0
 40
33.0
100
AcDbArc
 50
80.75704693335378
 51
102.6994689525578
  0
ENDBLK
  5
4FF5
330
4FF3
100
AcDbEntity
  8
0
100
AcDbBlockEnd
  0
BLOCK
  5
56DE
330
56DD
100
AcDbEntity
  8
0
100
AcDbBlockBegin
  2
リーマボルト-1 SAM112 M6
 70
     0
 10
0.0
 20
0.0
 30
0.0
  3
リーマボルト-1 SAM112 M6
  1

  0
LINE
  5
56E0
330
56DD
100
AcDbEntity
  8
AM_0 外形線1
100
AcDbLine
 10
1.0
 20
3.5
 30
0.0
 11
1.0
 21
-3.5
 31
0.0
  0
ARC
  5
56E1
330
56DD
100
AcDbEntity
  8
AM_0 外形線1
100
AcDbCircle
 10
0.5
 20
-3.5
 30
0.0
 40
0.5
100
AcDbArc
 50
0.0
 51
180.0
  0
ARC
  5
56E2
330
56DD
100
AcDbEntity
  8
AM_0 外形線1
100
AcDbCircle
 10
0.5
 20
3.5
 30
0.0
 40
0.5
100
AcDbArc
 50
180.0
 51
0.0
  0
LINE
  5
56E3
330
56DD
100
AcDbEntity
  8
AM_0 外形線1
100
AcDbLine
 10
27.0
 20
-2.922649000000035
 30
0.0
 11
27.0
 21
2.922649999999975
 31
0.0
  0
LINE
  5
56E4
330
56DD
100
AcDbEntity
  8
AM_0 外形線1
100
AcDbLine
 10
26.0
 20
3.5
 30
0.0
 11
26.0
 21
-3.5
 31
0.0
  0
LINE
  5
56E5
330
56DD
100
AcDbEntity
  8
AM_0 外形線1
100
AcDbLine
 10
27.0
 20
-2.922649000000035
 30
0.0
 11
26.0
 21
-3.5
 31
0.0
  0
LINE
  5
56E6
330
56DD
100
AcDbEntity
  8
AM_0 外形線1
100
AcDbLine
 10
27.0
 20
-2.922649000000035
 30
0.0
 11
30.0
 21
-2.922649000000035
 31
0.0
  0
LINE
  5
56E7
330
56DD
100
AcDbEntity
  8
AM_0 外形線1
100
AcDbLine
 10
27.0
 20
2.922649999999975
 30
0.0
 11
26.0
 21
3.5
 31
0.0
  0
LINE
  5
56E8
330
56DD
100
AcDbEntity
  8
AM_0 外形線1
100
AcDbLine
 10
27.0
 20
2.922649999999975
 30
0.0
 11
30.0
 21
2.922649999999975
 31
0.0
  0
LINE
  5
56E9
330
56DD
100
AcDbEntity
  8
AM_0 外形線1
100
AcDbLine
 10
38.0
 20
3.0
 30
0.0
 11
38.0
 21
-3.0
 31
0.0
  0
LINE
  5
56EA
330
56DD
100
AcDbEntity
  8
AM_0 外形線1
100
AcDbLine
 10
39.0
 20
2.0
 30
0.0
 11
39.0
 21
-2.0
 31
0.0
  0
LINE
  5
56EB
330
56DD
100
AcDbEntity
  8
AM_4 細線
100
AcDbLine
 10
36.5
 20
-2.5
 30
0.0
 11
38.5
 21
-2.5
 31
0.0
  0
LINE
  5
56EC
330
56DD
100
AcDbEntity
  8
AM_0 外形線1
100
AcDbLine
 10
38.0
 20
-3.0
 30
0.0
 11
36.5
 21
-3.0
 31
0.0
  0
LINE
  5
56ED
330
56DD
100
AcDbEntity
  8
AM_0 外形線1
100
AcDbLine
 10
39.0
 20
-2.0
 30
0.0
 11
38.0
 21
-3.0
 31
0.0
  0
LINE
  5
56EE
330
56DD
100
AcDbEntity
  8
AM_4 細線
100
AcDbLine
 10
36.5
 20
2.5
 30
0.0
 11
38.5
 21
2.5
 31
0.0
  0
LINE
  5
56EF
330
56DD
100
AcDbEntity
  8
AM_0 外形線1
100
AcDbLine
 10
38.0
 20
3.0
 30
0.0
 11
39.0
 21
2.0
 31
0.0
  0
LINE
  5
56F0
330
56DD
100
AcDbEntity
  8
AM_0 外形線1
100
AcDbLine
 10
36.5
 20
3.0
 30
0.0
 11
38.0
 21
3.0
 31
0.0
  0
LINE
  5
56F1
330
56DD
100
AcDbEntity
  8
AM_0 外形線1
100
AcDbLine
 10
30.0
 20
6.099999999999909
 30
0.0
 11
31.5
 21
6.099999999999909
 31
0.0
  0
LINE
  5
56F2
330
56DD
100
AcDbEntity
  8
AM_0 外形線1
100
AcDbLine
 10
30.0
 20
0.0
 30
0.0
 11
31.5
 21
0.8660249999998086
 31
0.0
  0
LINE
  5
56F3
330
56DD
100
AcDbEntity
  8
AM_0 外形線1
100
AcDbLine
 10
31.5
 20
6.099999999999909
 30
0.0
 11
31.5
 21
-6.100000000000137
 31
0.0
  0
LINE
  5
56F4
330
56DD
100
AcDbEntity
  8
AM_0 外形線1
100
AcDbLine
 10
36.5
 20
4.999999999999771
 30
0.0
 11
36.5
 21
-5.000000000000226
 31
0.0
  0
LINE
  5
56F6
330
56DD
100
AcDbEntity
  8
AM_0 外形線1
100
AcDbLine
 10
36.05341800000008
 20
2.886750999999776
 30
0.0
 11
31.5
 21
2.886750999999776
 31
0.0
  0
LINE
  5
56F7
330
56DD
100
AcDbEntity
  8
AM_0 外形線1
100
AcDbLine
 10
36.05341800000008
 20
5.773502000000008
 30
0.0
 11
31.5
 21
5.773502000000008
 31
0.0
  0
ARC
  5
56F8
330
56DD
100
AcDbEntity
  8
AM_0 外形線1
100
AcDbCircle
 10
33.94417800000008
 20
4.330126999999946
 30
0.0
 40
2.555823
100
AcDbArc
 50
325.6157530000008
 51
34.38424699999921
  0
ARC
  5
56F9
330
56DD
100
AcDbEntity
  8
AM_0 外形線1
100
AcDbCircle
 10
26.94658200000004
 20
-0.0000000000002274
 30
0.0
 40
9.553417999999997
100
AcDbArc
 50
342.412045999994
 51
17.58795400000601
  0
LINE
  5
56FA
330
56DD
100
AcDbEntity
  8
AM_0 外形線1
100
AcDbLine
 10
36.5
 20
4.999999999999771
 30
0.0
 11
36.05341800000008
 21
5.773502000000008
 31
0.0
  0
LINE
  5
56FB
330
56DD
100
AcDbEntity
  8
AM_0 外形線1
100
AcDbLine
 10
31.5
 20
0.0
 30
0.0
 11
30.0
 21
-0.8660259999999198
 31
0.0
  0
LINE
  5
56FC
330
56DD
100
AcDbEntity
  8
AM_0 外形線1
100
AcDbLine
 10
31.5
 20
-6.100000000000137
 30
0.0
 11
30.0
 21
-6.100000000000137
 31
0.0
  0
ARC
  5
56FD
330
56DD
100
AcDbEntity
  8
AM_0 外形線1
100
AcDbCircle
 10
33.94417800000008
 20
-4.330127000000401
 30
0.0
 40
2.555823
100
AcDbArc
 50
325.6157530000008
 51
34.38424699999921
  0
LINE
  5
56FE
330
56DD
100
AcDbEntity
  8
AM_0 外形線1
100
AcDbLine
 10
36.05341800000008
 20
-5.773503000000117
 30
0.0
 11
31.5
 21
-5.773503000000117
 31
0.0
  0
LINE
  5
56FF
330
56DD
100
AcDbEntity
  8
AM_0 外形線1
100
AcDbLine
 10
36.5
 20
-5.000000000000226
 30
0.0
 11
36.05341800000008
 21
-5.773503000000117
 31
0.0
  0
LINE
  5
5700
330
56DD
100
AcDbEntity
  8
AM_0 外形線1
100
AcDbLine
 10
36.05341800000008
 20
-2.886752000000341
 30
0.0
 11
31.5
 21
-2.886752000000341
 31
0.0
  0
LINE
  5
5701
330
56DD
100
AcDbEntity
  8
AM_0 外形線1
100
AcDbLine
 10
-4.0
 20
-5.000000000000056
 30
0.0
 11
-4.0
 21
5.0
 31
0.0
  0
LINE
  5
5702
330
56DD
100
AcDbEntity
  8
AM_0 外形線1
100
AcDbLine
 10
-4.0
 20
5.0
 30
0.0
 11
0.0
 21
5.0
 31
0.0
  0
LINE
  5
5703
330
56DD
100
AcDbEntity
  8
AM_0 外形線1
100
AcDbLine
 10
-4.0
 20
-5.000000000000056
 30
0.0
 11
0.0
 21
-5.0
 31
0.0
  0
ARC
  5
5704
330
56DD
100
AcDbEntity
  8
AM_0 外形線1
100
AcDbCircle
 10
3.220881998112645
 20
2.50000000000017
 30
0.0
 40
7.220882231383859
100
AcDbArc
 50
159.7438302089953
 51
200.2561697910047
  0
ARC
  5
5705
330
56DD
100
AcDbEntity
  8
AM_0 外形線1
100
AcDbCircle
 10
3.220881998112645
 20
-2.50000000000017
 30
0.0
 40
7.220882231383859
100
AcDbArc
 50
159.7438302089953
 51
200.2561697910047
  0
LINE
  5
575B
330
56DD
100
AcDbEntity
  8
AM_0 外形線1
100
AcDbLine
 10
0.0
 20
5.0
 30
0.0
 11
0.0000000000001705
 21
-5.0
 31
0.0
  0
LINE
  5
575C
330
56DD
100
AcDbEntity
  8
AM_0 外形線1
100
AcDbLine
 10
30.0
 20
6.099999999999909
 30
0.0
 11
30.0
 21
-6.100000000000137
 31
0.0
  0
LINE
  5
575D
330
56DD
100
AcDbEntity
  8
AM_0 外形線1
100
AcDbLine
 10
1.0
 20
3.5
 30
0.0
 11
26.0
 21
3.5
 31
0.0
  0
LINE
  5
575E
330
56DD
100
AcDbEntity
  8
AM_0 外形線1
100
AcDbLine
 10
1.0
 20
-3.5
 30
0.0
 11
26.0
 21
-3.5
 31
0.0
  0
LINE
  5
6D05
330
56DD
100
AcDbEntity
  8
AM_0 外形線1
100
AcDbLine
 10
-3.553417980447078
 20
-0.0000000000000568
 30
0.0
 11
0.0
 21
-0.0000000000001137
 31
0.0
  0
ENDBLK
  5
56DF
330
56DD
100
AcDbEntity
  8
0
100
AcDbBlockEnd
  0
BLOCK
  5
576A
330
5769
100
AcDbEntity
  8
0
100
AcDbBlockBegin
  2
リーマボルト-2 SAM112 M6
 70
     0
 10
0.0
 20
0.0
 30
0.0
  3
リーマボルト-2 SAM112 M6
  1

  0
LINE
  5
576C
330
5769
100
AcDbEntity
  8
AM_0 外形線1
100
AcDbLine
 10
-27.0
 20
-2.922649000000035
 30
0.0
 11
-30.0
 21
-2.922649000000035
 31
0.0
  0
LINE
  5
576D
330
5769
100
AcDbEntity
  8
AM_0 外形線1
100
AcDbLine
 10
-27.0
 20
2.922649999999975
 30
0.0
 11
-30.0
 21
2.922649999999975
 31
0.0
  0
LINE
  5
576E
330
5769
100
AcDbEntity
  8
AM_0 外形線1
100
AcDbLine
 10
-38.0
 20
3.0
 30
0.0
 11
-38.0
 21
-3.0
 31
0.0
  0
LINE
  5
576F
330
5769
100
AcDbEntity
  8
AM_0 外形線1
100
AcDbLine
 10
-39.0
 20
2.0
 30
0.0
 11
-39.0
 21
-2.0
 31
0.0
  0
ARC
  5
5770
330
5769
100
AcDbEntity
  8
AM_0 外形線1
100
AcDbCircle
 10
-26.66098899999997
 20
0.0
 30
0.0
 40
9.839010999999999
100
AcDbArc
 50
162.9384689999997
 51
197.0615310000002
  0
LINE
  5
5771
330
5769
100
AcDbEntity
  8
AM_0 外形線1
100
AcDbLine
 10
-31.5
 20
-5.75
 30
0.0
 11
-31.5
 21
5.75
 31
0.0
  0
LINE
  5
5772
330
5769
100
AcDbEntity
  8
AM_0 外形線1
100
AcDbLine
 10
-36.5
 20
5.0
 30
0.0
 11
-36.5
 21
-5.0
 31
0.0
  0
LINE
  5
5773
330
5769
100
AcDbEntity
  8
AM_0 外形線1
100
AcDbLine
 10
-31.5
 20
-2.88675100000006
 30
0.0
 11
-36.06698699999993
 21
-2.88675100000006
 31
0.0
  0
LINE
  5
5774
330
5769
100
AcDbEntity
  8
AM_0 外形線1
100
AcDbLine
 10
-36.06698699999993
 20
-5.75
 30
0.0
 11
-31.5
 21
-5.75
 31
0.0
  0
LINE
  5
5775
330
5769
100
AcDbEntity
  8
AM_4 細線
100
AcDbLine
 10
-36.5
 20
-2.5
 30
0.0
 11
-38.5
 21
-2.5
 31
0.0
  0
LINE
  5
5776
330
5769
100
AcDbEntity
  8
AM_0 外形線1
100
AcDbLine
 10
-38.0
 20
-3.0
 30
0.0
 11
-36.5
 21
-3.0
 31
0.0
  0
LINE
  5
5777
330
5769
100
AcDbEntity
  8
AM_0 外形線1
100
AcDbLine
 10
-39.0
 20
-2.0
 30
0.0
 11
-38.0
 21
-3.0
 31
0.0
  0
ARC
  5
5778
330
5769
100
AcDbEntity
  8
AM_0 外形線1
100
AcDbCircle
 10
-33.91687899999988
 20
-4.318375000000003
 30
0.0
 40
2.583120999999998
100
AcDbArc
 50
146.3428030000036
 51
213.6571969999963
  0
LINE
  5
5779
330
5769
100
AcDbEntity
  8
AM_0 外形線1
100
AcDbLine
 10
-36.5
 20
-5.0
 30
0.0
 11
-36.06698699999993
 21
-5.75
 31
0.0
  0
LINE
  5
577A
330
5769
100
AcDbEntity
  8
AM_0 外形線1
100
AcDbLine
 10
-31.5
 20
-6.100000000000022
 30
0.0
 11
-31.5
 21
-5.75
 31
0.0
  0
LINE
  5
577B
330
5769
100
AcDbEntity
  8
AM_0 外形線1
100
AcDbLine
 10
-30.0
 20
-6.100000000000022
 30
0.0
 11
-31.5
 21
-6.100000000000022
 31
0.0
  0
LINE
  5
577C
330
5769
100
AcDbEntity
  8
AM_0 外形線1
100
AcDbLine
 10
-31.5
 20
2.886752000000001
 30
0.0
 11
-36.06698699999993
 21
2.886752000000001
 31
0.0
  0
LINE
  5
577D
330
5769
100
AcDbEntity
  8
AM_0 外形線1
100
AcDbLine
 10
-31.5
 20
5.75
 30
0.0
 11
-36.06698699999993
 21
5.75
 31
0.0
  0
LINE
  5
577E
330
5769
100
AcDbEntity
  8
AM_4 細線
100
AcDbLine
 10
-36.5
 20
2.5
 30
0.0
 11
-38.5
 21
2.5
 31
0.0
  0
LINE
  5
577F
330
5769
100
AcDbEntity
  8
AM_0 外形線1
100
AcDbLine
 10
-38.0
 20
3.0
 30
0.0
 11
-39.0
 21
2.0
 31
0.0
  0
LINE
  5
5780
330
5769
100
AcDbEntity
  8
AM_0 外形線1
100
AcDbLine
 10
-36.5
 20
3.0
 30
0.0
 11
-38.0
 21
3.0
 31
0.0
  0
ARC
  5
5781
330
5769
100
AcDbEntity
  8
AM_0 外形線1
100
AcDbCircle
 10
-33.91687899999988
 20
4.318375999999943
 30
0.0
 40
2.583120999999998
100
AcDbArc
 50
146.3428030000036
 51
213.6571969999963
  0
LINE
  5
5782
330
5769
100
AcDbEntity
  8
AM_0 外形線1
100
AcDbLine
 10
-36.06698699999993
 20
5.75
 30
0.0
 11
-36.5
 21
5.0
 31
0.0
  0
LINE
  5
5783
330
5769
100
AcDbEntity
  8
AM_0 外形線1
100
AcDbLine
 10
-31.5
 20
6.099999999999965
 30
0.0
 11
-30.0
 21
6.099999999999965
 31
0.0
  0
LINE
  5
5784
330
5769
100
AcDbEntity
  8
AM_0 外形線1
100
AcDbLine
 10
-31.5
 20
5.75
 30
0.0
 11
-31.5
 21
6.099999999999965
 31
0.0
  0
LINE
  5
5785
330
5769
100
AcDbEntity
  8
AM_0 外形線1
100
AcDbLine
 10
-26.0
 20
3.5
 30
0.0
 11
-26.0
 21
-3.5
 31
0.0
  0
LINE
  5
5786
330
5769
100
AcDbEntity
  8
AM_0 外形線1
100
AcDbLine
 10
-27.0
 20
2.922649999999975
 30
0.0
 11
-27.0
 21
-2.922649000000035
 31
0.0
  0
LINE
  5
5787
330
5769
100
AcDbEntity
  8
AM_0 外形線1
100
AcDbLine
 10
-27.0
 20
-2.922649000000035
 30
0.0
 11
-26.0
 21
-3.5
 31
0.0
  0
LINE
  5
5788
330
5769
100
AcDbEntity
  8
AM_0 外形線1
100
AcDbLine
 10
-26.0
 20
3.5
 30
0.0
 11
-27.0
 21
2.922649999999975
 31
0.0
  0
LINE
  5
5789
330
5769
100
AcDbEntity
  8
AM_0 外形線1
100
AcDbLine
 10
-1.0
 20
-3.5
 30
0.0
 11
-1.0
 21
3.5
 31
0.0
  0
ARC
  5
578A
330
5769
100
AcDbEntity
  8
AM_0 外形線1
100
AcDbCircle
 10
-0.5
 20
-3.5
 30
0.0
 40
0.5
100
AcDbArc
 50
0.0
 51
180.0
  0
ARC
  5
578B
330
5769
100
AcDbEntity
  8
AM_0 外形線1
100
AcDbCircle
 10
-0.5
 20
3.5
 30
0.0
 40
0.5
100
AcDbArc
 50
180.0
 51
0.0
  0
LINE
  5
578C
330
5769
100
AcDbEntity
  8
AM_0 外形線1
100
AcDbLine
 10
3.999999999999545
 20
-5.000000000000056
 30
0.0
 11
3.999999999999545
 21
5.0
 31
0.0
  0
ARC
  5
578D
330
5769
100
AcDbEntity
  8
AM_0 外形線1
100
AcDbCircle
 10
-3.2208819981131
 20
2.50000000000017
 30
0.0
 40
7.220882231383859
100
AcDbArc
 50
339.7438302089954
 51
20.25616979100467
  0
LINE
  5
578E
330
5769
100
AcDbEntity
  8
AM_0 外形線1
100
AcDbLine
 10
3.999999999999545
 20
5.0
 30
0.0
 11
-0.0000000000004547
 21
5.0
 31
0.0
  0
ARC
  5
578F
330
5769
100
AcDbEntity
  8
AM_0 外形線1
100
AcDbCircle
 10
-3.2208819981131
 20
-2.50000000000017
 30
0.0
 40
7.220882231383859
100
AcDbArc
 50
339.7438302089954
 51
20.25616979100467
  0
LINE
  5
5790
330
5769
100
AcDbEntity
  8
AM_0 外形線1
100
AcDbLine
 10
3.999999999999545
 20
-5.000000000000056
 30
0.0
 11
-0.0000000000004547
 21
-5.0
 31
0.0
  0
LINE
  5
5791
330
5769
100
AcDbEntity
  8
AM_0 外形線1
100
AcDbLine
 10
-30.00000000000046
 20
0.0
 30
0.0
 11
-31.50000000000046
 21
-0.8660249999998086
 31
0.0
  0
LINE
  5
5792
330
5769
100
AcDbEntity
  8
AM_0 外形線1
100
AcDbLine
 10
-31.50000000000046
 20
0.0
 30
0.0
 11
-30.00000000000046
 21
0.8660259999999198
 31
0.0
  0
LINE
  5
57EA
330
5769
100
AcDbEntity
  8
AM_0 外形線1
100
AcDbLine
 10
0.0
 20
5.0
 30
0.0
 11
0.0
 21
-5.0
 31
0.0
  0
LINE
  5
57EB
330
5769
100
AcDbEntity
  8
AM_0 外形線1
100
AcDbLine
 10
-30.0
 20
6.099999999999965
 30
0.0
 11
-30.0
 21
-6.100000000000022
 31
0.0
  0
LINE
  5
57EC
330
5769
100
AcDbEntity
  8
AM_0 外形線1
100
AcDbLine
 10
-26.0
 20
3.5
 30
0.0
 11
-1.0
 21
3.5
 31
0.0
  0
LINE
  5
57ED
330
5769
100
AcDbEntity
  8
AM_0 外形線1
100
AcDbLine
 10
-26.0
 20
-3.5
 30
0.0
 11
-1.0
 21
-3.5
 31
0.0
  0
LINE
  5
6D62
330
5769
100
AcDbEntity
  8
AM_0 外形線1
100
AcDbLine
 10
3.553417980446623
 20
0.0000000000000568
 30
0.0
 11
0.0
 21
0.0000000000000568
 31
0.0
  0
ENDBLK
  5
576B
330
5769
100
AcDbEntity
  8
0
100
AcDbBlockEnd
  0
BLOCK
  5
5A7E
330
5A7D
100
AcDbEntity
  8
0
100
AcDbBlockBegin
  2
*D14
 70
     1
 10
0.0
 20
0.0
 30
0.0
  3
*D14
  1

  0
LINE
  5
9135
330
5A7D
100
AcDbEntity
  8
AM_5 寸法線
 62
     3
100
AcDbLine
 10
196.8763444810023
 20
362.8746412108901
 30
0.0
 11
165.3316391059655
 21
362.8746412108901
 31
0.0
  0
LINE
  5
9136
330
5A7D
100
AcDbEntity
  8
AM_5 寸法線
 62
     3
100
AcDbLine
 10
196.8763444810023
 20
304.8746412108901
 30
0.0
 11
165.3316391059654
 21
304.8746412108901
 31
0.0
  0
LINE
  5
9137
330
5A7D
100
AcDbEntity
  8
AM_5 寸法線
 62
     3
100
AcDbLine
 10
166.2691391059655
 20
359.1246412108901
 30
0.0
 11
166.2691391059654
 21
308.6246412108901
 31
0.0
  0
INSERT
  5
9138
330
5A7D
100
AcDbEntity
  8
AM_5 寸法線
 62
     3
100
AcDbBlockReference
  2
_Open30
 10
166.2691391059655
 20
362.8746412108901
 30
0.0
 41
3.75
 42
3.75
 43
3.75
 50
90.0
  0
INSERT
  5
9139
330
5A7D
100
AcDbEntity
  8
AM_5 寸法線
 62
     3
100
AcDbBlockReference
  2
_Open30
 10
166.2691391059654
 20
304.8746412108901
 30
0.0
 41
3.75
 42
3.75
 43
3.75
 50
270.0
  0
MTEXT
  5
913A
330
5A7D
100
AcDbEntity
  8
AM_5 寸法線
 62
     3
100
AcDbMText
 10
161.3941391059654
 20
333.8746412108902
 30
0.0
 40
5.25
 41
0.0
 46
0.0
 71
     5
 72
     1
  1
%%c58
  7
SEISA
 11
0.0000000000000001
 21
1.0
 31
0.0
 73
     1
 44
1.0
  0
POINT
  5
913B
330
5A7D
100
AcDbEntity
  8
Defpoints
 62
     0
100
AcDbPoint
 10
197.8138444810023
 20
362.8746412108901
 30
0.0
  0
POINT
  5
913C
330
5A7D
100
AcDbEntity
  8
Defpoints
 62
     0
100
AcDbPoint
 10
197.8138444810023
 20
304.8746412108901
 30
0.0
  0
POINT
  5
913D
330
5A7D
100
AcDbEntity
  8
Defpoints
 62
     0
100
AcDbPoint
 10
166.2691391059654
 20
304.8746412108901
 30
0.0
  0
ENDBLK
  5
5A7F
330
5A7D
100
AcDbEntity
  8
0
100
AcDbBlockEnd
  0
BLOCK
  5
5AE8
330
5AE7
100
AcDbEntity
  8
0
100
AcDbBlockBegin
  2
*D15
 70
     1
 10
0.0
 20
0.0
 30
0.0
  3
*D15
  1

  0
LINE
  5
92CC
330
5AE7
100
AcDbEntity
  8
AM_5 寸法線
 62
     3
100
AcDbLine
 10
222.8138444810023
 20
362.4371412108901
 30
0.0
 11
222.8138444810023
 21
352.5774378115475
 31
0.0
  0
LINE
  5
92CD
330
5AE7
100
AcDbEntity
  8
AM_5 寸法線
 62
     3
100
AcDbLine
 10
220.8138444810023
 20
361.9371412108901
 30
0.0
 11
220.8138444810023
 21
352.5774378115475
 31
0.0
  0
LINE
  5
92CE
330
5AE7
100
AcDbEntity
  8
AM_5 寸法線
 62
     3
100
AcDbLine
 10
222.8138444810023
 20
353.5149378115475
 30
0.0
 11
226.5638444810023
 21
353.5149378115475
 31
0.0
  0
LINE
  5
92CF
330
5AE7
100
AcDbEntity
  8
AM_5 寸法線
 62
     3
100
AcDbLine
 10
217.0638444810023
 20
353.5149378115475
 30
0.0
 11
205.6638444810023
 21
353.5149378115475
 31
0.0
  0
LINE
  5
92D0
330
5AE7
100
AcDbEntity
  8
AM_5 寸法線
 62
     3
100
AcDbLine
 10
222.8138444810023
 20
353.5149378115475
 30
0.0
 11
220.8138444810023
 21
353.5149378115475
 31
0.0
  0
INSERT
  5
92D1
330
5AE7
100
AcDbEntity
  8
AM_5 寸法線
 62
     3
100
AcDbBlockReference
  2
_DotSmall
 10
222.8138444810023
 20
353.5149378115475
 30
0.0
 41
3.75
 42
3.75
 43
3.75
 50
180.0
  0
INSERT
  5
92D2
330
5AE7
100
AcDbEntity
  8
AM_5 寸法線
 62
     3
100
AcDbBlockReference
  2
_Open30
 10
220.8138444810023
 20
353.5149378115475
 30
0.0
 41
3.75
 42
3.75
 43
3.75
  0
MTEXT
  5
92D3
330
5AE7
100
AcDbEntity
  8
AM_5 寸法線
 62
     3
100
AcDbMText
 10
209.4888444810024
 20
358.3899378115475
 30
0.0
 40
5.25
 41
0.0
 46
0.0
 71
     5
 72
     1
  1
2
  7
SEISA
 73
     1
 44
1.0
  0
POINT
  5
92D4
330
5AE7
100
AcDbEntity
  8
Defpoints
 62
     0
100
AcDbPoint
 10
222.8138444810023
 20
363.3746412108901
 30
0.0
  0
POINT
  5
92D5
330
5AE7
100
AcDbEntity
  8
Defpoints
 62
     0
100
AcDbPoint
 10
220.8138444810023
 20
362.8746412108901
 30
0.0
  0
POINT
  5
92D6
330
5AE7
100
AcDbEntity
  8
Defpoints
 62
     0
100
AcDbPoint
 10
220.8138444810023
 20
353.5149378115475
 30
0.0
  0
ENDBLK
  5
5AE9
330
5AE7
100
AcDbEntity
  8
0
100
AcDbBlockEnd
  0
BLOCK
  5
5B04
330
5B03
100
AcDbEntity
  8
0
100
AcDbBlockBegin
  2
*D16
 70
     1
 10
0.0
 20
0.0
 30
0.0
  3
*D16
  1

  0
LINE
  5
8B99
330
5B03
100
AcDbEntity
  8
AM_5 寸法線
 62
     3
100
AcDbLine
 10
244.8138444810023
 20
334.8121412108901
 30
0.0
 11
244.8138444810023
 21
337.6543653809386
 31
0.0
  0
LINE
  5
8B9A
330
5B03
100
AcDbEntity
  8
AM_5 寸法線
 62
     3
100
AcDbLine
 10
194.8138444810023
 20
334.8121412108901
 30
0.0
 11
194.8138444810023
 21
337.6543653809386
 31
0.0
  0
LINE
  5
8B9B
330
5B03
100
AcDbEntity
  8
AM_5 寸法線
 62
     3
100
AcDbLine
 10
241.0638444810023
 20
336.7168653809386
 30
0.0
 11
198.5638444810023
 21
336.7168653809386
 31
0.0
  0
INSERT
  5
8B9C
330
5B03
100
AcDbEntity
  8
AM_5 寸法線
 62
     3
100
AcDbBlockReference
  2
_Open30
 10
244.8138444810023
 20
336.7168653809386
 30
0.0
 41
3.75
 42
3.75
 43
3.75
  0
INSERT
  5
8B9D
330
5B03
100
AcDbEntity
  8
AM_5 寸法線
 62
     3
100
AcDbBlockReference
  2
_Open30
 10
194.8138444810023
 20
336.7168653809386
 30
0.0
 41
3.75
 42
3.75
 43
3.75
 50
180.0
  0
MTEXT
  5
8B9E
330
5B03
100
AcDbEntity
  8
AM_5 寸法線
 62
     3
100
AcDbMText
 10
219.8138444810023
 20
341.5918653809385
 30
0.0
 40
5.25
 41
0.0
 46
0.0
 71
     5
 72
     1
  1
50
  7
SEISA
 73
     1
 44
1.0
  0
POINT
  5
8B9F
330
5B03
100
AcDbEntity
  8
Defpoints
 62
     0
100
AcDbPoint
 10
244.8138444810023
 20
333.8746412108901
 30
0.0
  0
POINT
  5
8BA0
330
5B03
100
AcDbEntity
  8
Defpoints
 62
     0
100
AcDbPoint
 10
194.8138444810023
 20
333.8746412108901
 30
0.0
  0
POINT
  5
8BA1
330
5B03
100
AcDbEntity
  8
Defpoints
 62
     0
100
AcDbPoint
 10
194.8138444810023
 20
336.7168653809386
 30
0.0
  0
ENDBLK
  5
5B05
330
5B03
100
AcDbEntity
  8
0
100
AcDbBlockEnd
  0
BLOCK
  5
5B45
330
5B44
100
AcDbEntity
  8
0
100
AcDbBlockBegin
  2
*D17
 70
     1
 10
0.0
 20
0.0
 30
0.0
  3
*D17
  1

  0
LINE
  5
8BAA
330
5B44
100
AcDbEntity
  8
AM_5 寸法線
 62
     3
100
AcDbLine
 10
410.8138444810021
 20
334.8121412108901
 30
0.0
 11
410.8138444810021
 21
337.6543653809386
 31
0.0
  0
LINE
  5
8BAB
330
5B44
100
AcDbEntity
  8
AM_5 寸法線
 62
     3
100
AcDbLine
 10
360.8138444810024
 20
334.8121412108901
 30
0.0
 11
360.8138444810024
 21
337.6543653809386
 31
0.0
  0
LINE
  5
8BAC
330
5B44
100
AcDbEntity
  8
AM_5 寸法線
 62
     3
100
AcDbLine
 10
407.0638444810024
 20
336.7168653809386
 30
0.0
 11
364.5638444810024
 21
336.7168653809386
 31
0.0
  0
INSERT
  5
8BAD
330
5B44
100
AcDbEntity
  8
AM_5 寸法線
 62
     3
100
AcDbBlockReference
  2
_Open30
 10
410.8138444810021
 20
336.7168653809386
 30
0.0
 41
3.75
 42
3.75
 43
3.75
  0
INSERT
  5
8BAE
330
5B44
100
AcDbEntity
  8
AM_5 寸法線
 62
     3
100
AcDbBlockReference
  2
_Open30
 10
360.8138444810024
 20
336.7168653809386
 30
0.0
 41
3.75
 42
3.75
 43
3.75
 50
180.0
  0
MTEXT
  5
8BAF
330
5B44
100
AcDbEntity
  8
AM_5 寸法線
 62
     3
100
AcDbMText
 10
385.8138444810024
 20
341.5918653809385
 30
0.0
 40
5.25
 41
0.0
 46
0.0
 71
     5
 72
     1
  1
50
  7
SEISA
 73
     1
 44
1.0
  0
POINT
  5
8BB0
330
5B44
100
AcDbEntity
  8
Defpoints
 62
     0
100
AcDbPoint
 10
410.8138444810021
 20
333.8746412108901
 30
0.0
  0
POINT
  5
8BB1
330
5B44
100
AcDbEntity
  8
Defpoints
 62
     0
100
AcDbPoint
 10
360.8138444810024
 20
333.8746412108901
 30
0.0
  0
POINT
  5
8BB2
330
5B44
100
AcDbEntity
  8
Defpoints
 62
     0
100
AcDbPoint
 10
360.8138444810024
 20
336.7168653809386
 30
0.0
  0
ENDBLK
  5
5B46
330
5B44
100
AcDbEntity
  8
0
100
AcDbBlockEnd
  0
BLOCK
  5
5C82
330
5C81
100
AcDbEntity
  8
0
100
AcDbBlockBegin
  2
*D18
 70
     1
 10
0.0
 20
0.0
 30
0.0
  3
*D18
  1

  0
LINE
  5
8BBE
330
5C81
100
AcDbEntity
  8
AM_5 寸法線
 62
     3
100
AcDbLine
 10
408.7513444810022
 20
362.8746412108901
 30
0.0
 11
449.2513444810024
 21
362.8746412108901
 31
0.0
  0
LINE
  5
8BBF
330
5C81
100
AcDbEntity
  8
AM_5 寸法線
 62
     3
100
AcDbLine
 10
408.7513444810022
 20
304.8746412108901
 30
0.0
 11
449.2513444810024
 21
304.8746412108901
 31
0.0
  0
LINE
  5
8BC0
330
5C81
100
AcDbEntity
  8
AM_5 寸法線
 62
     3
100
AcDbLine
 10
448.3138444810021
 20
359.1246412108901
 30
0.0
 11
448.3138444810021
 21
308.6246412108901
 31
0.0
  0
INSERT
  5
8BC1
330
5C81
100
AcDbEntity
  8
AM_5 寸法線
 62
     3
100
AcDbBlockReference
  2
_Open30
 10
448.3138444810021
 20
362.8746412108901
 30
0.0
 41
3.75
 42
3.75
 43
3.75
 50
90.0
  0
INSERT
  5
8BC2
330
5C81
100
AcDbEntity
  8
AM_5 寸法線
 62
     3
100
AcDbBlockReference
  2
_Open30
 10
448.3138444810021
 20
304.8746412108901
 30
0.0
 41
3.75
 42
3.75
 43
3.75
 50
270.0
  0
MTEXT
  5
8BC3
330
5C81
100
AcDbEntity
  8
AM_5 寸法線
 62
     3
100
AcDbMText
 10
443.4388444810021
 20
333.8746412108902
 30
0.0
 40
5.25
 41
0.0
 46
0.0
 71
     5
 72
     1
  1
%%c58
  7
SEISA
 11
0.0000000000000001
 21
1.0
 31
0.0
 73
     1
 44
1.0
  0
POINT
  5
8BC4
330
5C81
100
AcDbEntity
  8
Defpoints
 62
     0
100
AcDbPoint
 10
407.8138444810023
 20
362.8746412108901
 30
0.0
  0
POINT
  5
8BC5
330
5C81
100
AcDbEntity
  8
Defpoints
 62
     0
100
AcDbPoint
 10
407.8138444810023
 20
304.8746412108901
 30
0.0
  0
POINT
  5
8BC6
330
5C81
100
AcDbEntity
  8
Defpoints
 62
     0
100
AcDbPoint
 10
448.3138444810021
 20
304.8746412108901
 30
0.0
  0
ENDBLK
  5
5C83
330
5C81
100
AcDbEntity
  8
0
100
AcDbBlockEnd
  0
BLOCK
  5
5C9A
330
5C99
100
AcDbEntity
  8
0
100
AcDbBlockBegin
  2
*D19
 70
     1
 10
0.0
 20
0.0
 30
0.0
  3
*D19
  1

  0
LINE
  5
8BC7
330
5C99
100
AcDbEntity
  8
AM_5 寸法線
 62
     3
100
AcDbLine
 10
394.7513444810024
 20
373.3746412108901
 30
0.0
 11
464.2513444810023
 21
373.3746412108901
 31
0.0
  0
LINE
  5
8BC8
330
5C99
100
AcDbEntity
  8
AM_5 寸法線
 62
     3
100
AcDbLine
 10
394.7513444810024
 20
294.3746412108901
 30
0.0
 11
464.2513444810023
 21
294.3746412108901
 31
0.0
  0
LINE
  5
8BC9
330
5C99
100
AcDbEntity
  8
AM_5 寸法線
 62
     3
100
AcDbLine
 10
463.3138444810024
 20
369.6246412108901
 30
0.0
 11
463.3138444810024
 21
298.1246412108901
 31
0.0
  0
INSERT
  5
8BCA
330
5C99
100
AcDbEntity
  8
AM_5 寸法線
 62
     3
100
AcDbBlockReference
  2
_Open30
 10
463.3138444810024
 20
373.3746412108901
 30
0.0
 41
3.75
 42
3.75
 43
3.75
 50
90.0
  0
INSERT
  5
8BCB
330
5C99
100
AcDbEntity
  8
AM_5 寸法線
 62
     3
100
AcDbBlockReference
  2
_Open30
 10
463.3138444810024
 20
294.3746412108901
 30
0.0
 41
3.75
 42
3.75
 43
3.75
 50
270.0
  0
MTEXT
  5
8BCC
330
5C99
100
AcDbEntity
  8
AM_5 寸法線
 62
     3
100
AcDbMText
 10
458.4388444810024
 20
333.8746412108902
 30
0.0
 40
5.25
 41
0.0
 46
0.0
 71
     5
 72
     1
  1
%%c79
  7
SEISA
 11
0.0000000000000001
 21
1.0
 31
0.0
 73
     1
 44
1.0
  0
POINT
  5
8BCD
330
5C99
100
AcDbEntity
  8
Defpoints
 62
     0
100
AcDbPoint
 10
393.8138444810024
 20
373.3746412108901
 30
0.0
  0
POINT
  5
8BCE
330
5C99
100
AcDbEntity
  8
Defpoints
 62
     0
100
AcDbPoint
 10
393.8138444810024
 20
294.3746412108901
 30
0.0
  0
POINT
  5
8BCF
330
5C99
100
AcDbEntity
  8
Defpoints
 62
     0
100
AcDbPoint
 10
463.3138444810024
 20
294.3746412108901
 30
0.0
  0
ENDBLK
  5
5C9B
330
5C99
100
AcDbEntity
  8
0
100
AcDbBlockEnd
  0
BLOCK
  5
5CC4
330
5CC3
100
AcDbEntity
  8
0
100
AcDbBlockBegin
  2
*D20
 70
     1
 10
0.0
 20
0.0
 30
0.0
  3
*D20
  1

  0
LINE
  5
8BD0
330
5CC3
100
AcDbEntity
  8
AM_5 寸法線
 62
     3
100
AcDbLine
 10
372.5513444810023
 20
389.8746412108901
 30
0.0
 11
479.2513444810023
 21
389.87464121089
 31
0.0
  0
LINE
  5
8BD1
330
5CC3
100
AcDbEntity
  8
AM_5 寸法線
 62
     3
100
AcDbLine
 10
372.5513444810022
 20
277.8746412108901
 30
0.0
 11
479.2513444810023
 21
277.87464121089
 31
0.0
  0
LINE
  5
8BD2
330
5CC3
100
AcDbEntity
  8
AM_5 寸法線
 62
     3
100
AcDbLine
 10
478.3138444810023
 20
386.1246412108901
 30
0.0
 11
478.3138444810023
 21
281.62464121089
 31
0.0
  0
INSERT
  5
8BD3
330
5CC3
100
AcDbEntity
  8
AM_5 寸法線
 62
     3
100
AcDbBlockReference
  2
_Open30
 10
478.3138444810023
 20
389.87464121089
 30
0.0
 41
3.75
 42
3.75
 43
3.75
 50
90.0
  0
INSERT
  5
8BD4
330
5CC3
100
AcDbEntity
  8
AM_5 寸法線
 62
     3
100
AcDbBlockReference
  2
_Open30
 10
478.3138444810023
 20
277.87464121089
 30
0.0
 41
3.75
 42
3.75
 43
3.75
 50
270.0
  0
MTEXT
  5
8BD5
330
5CC3
100
AcDbEntity
  8
AM_5 寸法線
 62
     3
100
AcDbMText
 10
473.4388444810021
 20
333.87464121089
 30
0.0
 40
5.25
 41
0.0
 46
0.0
 71
     5
 72
     1
  1
%%c112
  7
SEISA
 11
0.0000000000000001
 21
1.0
 31
0.0
 73
     1
 44
1.0
  0
POINT
  5
8BD6
330
5CC3
100
AcDbEntity
  8
Defpoints
 62
     0
100
AcDbPoint
 10
371.6138444810023
 20
389.8746412108901
 30
0.0
  0
POINT
  5
8BD7
330
5CC3
100
AcDbEntity
  8
Defpoints
 62
     0
100
AcDbPoint
 10
371.6138444810022
 20
277.8746412108901
 30
0.0
  0
POINT
  5
8BD8
330
5CC3
100
AcDbEntity
  8
Defpoints
 62
     0
100
AcDbPoint
 10
478.3138444810023
 20
277.87464121089
 30
0.0
  0
ENDBLK
  5
5CC5
330
5CC3
100
AcDbEntity
  8
0
100
AcDbBlockEnd
  0
BLOCK
  5
5D67
330
5D66
100
AcDbEntity
  8
0
100
AcDbBlockBegin
  2
*D21
 70
     1
 10
0.0
 20
0.0
 30
0.0
  3
*D21
  1

  0
LINE
  5
8BD9
330
5D66
100
AcDbEntity
  8
AM_5 寸法線
 62
     3
100
AcDbLine
 10
248.8138444810023
 20
277.1371412108901
 30
0.0
 11
248.8138444810023
 21
254.4371412108901
 31
0.0
  0
LINE
  5
8BDA
330
5D66
100
AcDbEntity
  8
AM_5 寸法線
 62
     3
100
AcDbLine
 10
233.8138444810023
 20
277.1371412108901
 30
0.0
 11
233.8138444810023
 21
254.4371412108901
 31
0.0
  0
LINE
  5
8BDB
330
5D66
100
AcDbEntity
  8
AM_5 寸法線
 62
     3
100
AcDbLine
 10
245.0638444810023
 20
255.3746412108901
 30
0.0
 11
237.5638444810023
 21
255.3746412108901
 31
0.0
  0
INSERT
  5
8BDC
330
5D66
100
AcDbEntity
  8
AM_5 寸法線
 62
     3
100
AcDbBlockReference
  2
_Open30
 10
248.8138444810023
 20
255.3746412108901
 30
0.0
 41
3.75
 42
3.75
 43
3.75
  0
INSERT
  5
8BDD
330
5D66
100
AcDbEntity
  8
AM_5 寸法線
 62
     3
100
AcDbBlockReference
  2
_Open30
 10
233.8138444810023
 20
255.3746412108901
 30
0.0
 41
3.75
 42
3.75
 43
3.75
 50
180.0
  0
MTEXT
  5
8BDE
330
5D66
100
AcDbEntity
  8
AM_5 寸法線
 62
     3
100
AcDbMText
 10
241.3138444810023
 20
260.2496412108901
 30
0.0
 40
5.25
 41
0.0
 46
0.0
 71
     5
 72
     1
  1
15
  7
SEISA
 73
     1
 44
1.0
  0
POINT
  5
8BDF
330
5D66
100
AcDbEntity
  8
Defpoints
 62
     0
100
AcDbPoint
 10
248.8138444810023
 20
278.07464121089
 30
0.0
  0
POINT
  5
8BE0
330
5D66
100
AcDbEntity
  8
Defpoints
 62
     0
100
AcDbPoint
 10
233.8138444810023
 20
278.07464121089
 30
0.0
  0
POINT
  5
8BE1
330
5D66
100
AcDbEntity
  8
Defpoints
 62
     0
100
AcDbPoint
 10
233.8138444810023
 20
255.3746412108901
 30
0.0
  0
ENDBLK
  5
5D68
330
5D66
100
AcDbEntity
  8
0
100
AcDbBlockEnd
  0
BLOCK
  5
5DAF
330
5DAE
100
AcDbEntity
  8
0
100
AcDbBlockBegin
  2
*D22
 70
     1
 10
0.0
 20
0.0
 30
0.0
  3
*D22
  1

  0
LINE
  5
8BE2
330
5DAE
100
AcDbEntity
  8
AM_5 寸法線
 62
     3
100
AcDbLine
 10
356.8138444810024
 20
277.1371412108901
 30
0.0
 11
356.8138444810024
 21
254.4371412108901
 31
0.0
  0
LINE
  5
8BE3
330
5DAE
100
AcDbEntity
  8
AM_5 寸法線
 62
     3
100
AcDbLine
 10
371.8138444810024
 20
277.1371412108901
 30
0.0
 11
371.8138444810024
 21
254.4371412108901
 31
0.0
  0
LINE
  5
8BE4
330
5DAE
100
AcDbEntity
  8
AM_5 寸法線
 62
     3
100
AcDbLine
 10
360.5638444810024
 20
255.3746412108901
 30
0.0
 11
368.0638444810024
 21
255.3746412108901
 31
0.0
  0
INSERT
  5
8BE5
330
5DAE
100
AcDbEntity
  8
AM_5 寸法線
 62
     3
100
AcDbBlockReference
  2
_Open30
 10
356.8138444810024
 20
255.3746412108901
 30
0.0
 41
3.75
 42
3.75
 43
3.75
 50
180.0
  0
INSERT
  5
8BE6
330
5DAE
100
AcDbEntity
  8
AM_5 寸法線
 62
     3
100
AcDbBlockReference
  2
_Open30
 10
371.8138444810024
 20
255.3746412108901
 30
0.0
 41
3.75
 42
3.75
 43
3.75
  0
MTEXT
  5
8BE7
330
5DAE
100
AcDbEntity
  8
AM_5 寸法線
 62
     3
100
AcDbMText
 10
364.3138444810024
 20
260.2496412108901
 30
0.0
 40
5.25
 41
0.0
 46
0.0
 71
     5
 72
     1
  1
15
  7
SEISA
 73
     1
 44
1.0
  0
POINT
  5
8BE8
330
5DAE
100
AcDbEntity
  8
Defpoints
 62
     0
100
AcDbPoint
 10
356.8138444810024
 20
278.07464121089
 30
0.0
  0
POINT
  5
8BE9
330
5DAE
100
AcDbEntity
  8
Defpoints
 62
     0
100
AcDbPoint
 10
371.8138444810024
 20
278.07464121089
 30
0.0
  0
POINT
  5
8BEA
330
5DAE
100
AcDbEntity
  8
Defpoints
 62
     0
100
AcDbPoint
 10
371.8138444810024
 20
255.3746412108901
 30
0.0
  0
ENDBLK
  5
5DB0
330
5DAE
100
AcDbEntity
  8
0
100
AcDbBlockEnd
  0
BLOCK
  5
5DC7
330
5DC6
100
AcDbEntity
  8
0
100
AcDbBlockBegin
  2
*D23
 70
     1
 10
0.0
 20
0.0
 30
0.0
  3
*D23
  1

  0
LINE
  5
8BEB
330
5DC6
100
AcDbEntity
  8
AM_5 寸法線
 62
     3
100
AcDbLine
 10
248.8138444810023
 20
277.1371412108901
 30
0.0
 11
248.8138444810023
 21
239.43714121089
 31
0.0
  0
LINE
  5
8BEC
330
5DC6
100
AcDbEntity
  8
AM_5 寸法線
 62
     3
100
AcDbLine
 10
208.8138444810023
 20
296.4371412108901
 30
0.0
 11
208.8138444810023
 21
239.43714121089
 31
0.0
  0
LINE
  5
8BED
330
5DC6
100
AcDbEntity
  8
AM_5 寸法線
 62
     3
100
AcDbLine
 10
245.0638444810023
 20
240.3746412108901
 30
0.0
 11
212.5638444810023
 21
240.3746412108901
 31
0.0
  0
INSERT
  5
8BEE
330
5DC6
100
AcDbEntity
  8
AM_5 寸法線
 62
     3
100
AcDbBlockReference
  2
_Open30
 10
248.8138444810023
 20
240.3746412108901
 30
0.0
 41
3.75
 42
3.75
 43
3.75
  0
INSERT
  5
8BEF
330
5DC6
100
AcDbEntity
  8
AM_5 寸法線
 62
     3
100
AcDbBlockReference
  2
_Open30
 10
208.8138444810023
 20
240.3746412108901
 30
0.0
 41
3.75
 42
3.75
 43
3.75
 50
180.0
  0
MTEXT
  5
8BF0
330
5DC6
100
AcDbEntity
  8
AM_5 寸法線
 62
     3
100
AcDbMText
 10
228.8138444810023
 20
245.24964121089
 30
0.0
 40
5.25
 41
0.0
 46
0.0
 71
     5
 72
     1
  1
40
  7
SEISA
 73
     1
 44
1.0
  0
POINT
  5
8BF1
330
5DC6
100
AcDbEntity
  8
Defpoints
 62
     0
100
AcDbPoint
 10
248.8138444810023
 20
278.07464121089
 30
0.0
  0
POINT
  5
8BF2
330
5DC6
100
AcDbEntity
  8
Defpoints
 62
     0
100
AcDbPoint
 10
208.8138444810023
 20
297.3746412108901
 30
0.0
  0
POINT
  5
8BF3
330
5DC6
100
AcDbEntity
  8
Defpoints
 62
     0
100
AcDbPoint
 10
208.8138444810023
 20
240.3746412108901
 30
0.0
  0
ENDBLK
  5
5DC8
330
5DC6
100
AcDbEntity
  8
0
100
AcDbBlockEnd
  0
BLOCK
  5
5DDF
330
5DDE
100
AcDbEntity
  8
0
100
AcDbBlockBegin
  2
*D24
 70
     1
 10
0.0
 20
0.0
 30
0.0
  3
*D24
  1

  0
LINE
  5
8BF4
330
5DDE
100
AcDbEntity
  8
AM_5 寸法線
 62
     3
100
AcDbLine
 10
208.8138444810023
 20
296.4371412108901
 30
0.0
 11
208.8138444810023
 21
239.43714121089
 31
0.0
  0
LINE
  5
8BF5
330
5DDE
100
AcDbEntity
  8
AM_5 寸法線
 62
     3
100
AcDbLine
 10
194.8138444810023
 20
306.9371412108901
 30
0.0
 11
194.8138444810023
 21
239.43714121089
 31
0.0
  0
LINE
  5
8BF6
330
5DDE
100
AcDbEntity
  8
AM_5 寸法線
 62
     3
100
AcDbLine
 10
205.0638444810023
 20
240.3746412108901
 30
0.0
 11
198.5638444810023
 21
240.3746412108901
 31
0.0
  0
INSERT
  5
8BF7
330
5DDE
100
AcDbEntity
  8
AM_5 寸法線
 62
     3
100
AcDbBlockReference
  2
_Open30
 10
208.8138444810023
 20
240.3746412108901
 30
0.0
 41
3.75
 42
3.75
 43
3.75
  0
INSERT
  5
8BF8
330
5DDE
100
AcDbEntity
  8
AM_5 寸法線
 62
     3
100
AcDbBlockReference
  2
_Open30
 10
194.8138444810023
 20
240.3746412108901
 30
0.0
 41
3.75
 42
3.75
 43
3.75
 50
180.0
  0
MTEXT
  5
8BF9
330
5DDE
100
AcDbEntity
  8
AM_5 寸法線
 62
     3
100
AcDbMText
 10
201.8138444810023
 20
245.24964121089
 30
0.0
 40
5.25
 41
0.0
 46
0.0
 71
     5
 72
     1
  1
14
  7
SEISA
 73
     1
 44
1.0
  0
POINT
  5
8BFA
330
5DDE
100
AcDbEntity
  8
Defpoints
 62
     0
100
AcDbPoint
 10
208.8138444810023
 20
297.3746412108901
 30
0.0
  0
POINT
  5
8BFB
330
5DDE
100
AcDbEntity
  8
Defpoints
 62
     0
100
AcDbPoint
 10
194.8138444810023
 20
307.8746412108901
 30
0.0
  0
POINT
  5
8BFC
330
5DDE
100
AcDbEntity
  8
Defpoints
 62
     0
100
AcDbPoint
 10
194.8138444810023
 20
240.3746412108901
 30
0.0
  0
ENDBLK
  5
5DE0
330
5DDE
100
AcDbEntity
  8
0
100
AcDbBlockEnd
  0
BLOCK
  5
5E0F
330
5E0E
100
AcDbEntity
  8
0
100
AcDbBlockBegin
  2
*D25
 70
     1
 10
0.0
 20
0.0
 30
0.0
  3
*D25
  1

  0
LINE
  5
8C05
330
5E0E
100
AcDbEntity
  8
AM_5 寸法線
 62
     3
100
AcDbLine
 10
356.8138444810024
 20
277.1371412108901
 30
0.0
 11
356.8138444810024
 21
239.43714121089
 31
0.0
  0
LINE
  5
8C06
330
5E0E
100
AcDbEntity
  8
AM_5 寸法線
 62
     3
100
AcDbLine
 10
396.8138444810024
 20
296.4371412108901
 30
0.0
 11
396.8138444810024
 21
239.43714121089
 31
0.0
  0
LINE
  5
8C07
330
5E0E
100
AcDbEntity
  8
AM_5 寸法線
 62
     3
100
AcDbLine
 10
360.5638444810024
 20
240.3746412108901
 30
0.0
 11
393.0638444810024
 21
240.3746412108901
 31
0.0
  0
INSERT
  5
8C08
330
5E0E
100
AcDbEntity
  8
AM_5 寸法線
 62
     3
100
AcDbBlockReference
  2
_Open30
 10
356.8138444810024
 20
240.3746412108901
 30
0.0
 41
3.75
 42
3.75
 43
3.75
 50
180.0
  0
INSERT
  5
8C09
330
5E0E
100
AcDbEntity
  8
AM_5 寸法線
 62
     3
100
AcDbBlockReference
  2
_Open30
 10
396.8138444810024
 20
240.3746412108901
 30
0.0
 41
3.75
 42
3.75
 43
3.75
  0
MTEXT
  5
8C0A
330
5E0E
100
AcDbEntity
  8
AM_5 寸法線
 62
     3
100
AcDbMText
 10
376.8138444810024
 20
245.24964121089
 30
0.0
 40
5.25
 41
0.0
 46
0.0
 71
     5
 72
     1
  1
40
  7
SEISA
 73
     1
 44
1.0
  0
POINT
  5
8C0B
330
5E0E
100
AcDbEntity
  8
Defpoints
 62
     0
100
AcDbPoint
 10
356.8138444810024
 20
278.07464121089
 30
0.0
  0
POINT
  5
8C0C
330
5E0E
100
AcDbEntity
  8
Defpoints
 62
     0
100
AcDbPoint
 10
396.8138444810024
 20
297.3746412108901
 30
0.0
  0
POINT
  5
8C0D
330
5E0E
100
AcDbEntity
  8
Defpoints
 62
     0
100
AcDbPoint
 10
396.8138444810024
 20
240.3746412108901
 30
0.0
  0
ENDBLK
  5
5E10
330
5E0E
100
AcDbEntity
  8
0
100
AcDbBlockEnd
  0
BLOCK
  5
5E27
330
5E26
100
AcDbEntity
  8
0
100
AcDbBlockBegin
  2
*D26
 70
     1
 10
0.0
 20
0.0
 30
0.0
  3
*D26
  1

  0
LINE
  5
8C0E
330
5E26
100
AcDbEntity
  8
AM_5 寸法線
 62
     3
100
AcDbLine
 10
396.8138444810024
 20
296.4371412108901
 30
0.0
 11
396.8138444810024
 21
239.43714121089
 31
0.0
  0
LINE
  5
8C0F
330
5E26
100
AcDbEntity
  8
AM_5 寸法線
 62
     3
100
AcDbLine
 10
410.8138444810021
 20
306.9371412108901
 30
0.0
 11
410.8138444810021
 21
239.43714121089
 31
0.0
  0
LINE
  5
8C10
330
5E26
100
AcDbEntity
  8
AM_5 寸法線
 62
     3
100
AcDbLine
 10
400.5638444810021
 20
240.3746412108901
 30
0.0
 11
407.0638444810024
 21
240.3746412108901
 31
0.0
  0
INSERT
  5
8C11
330
5E26
100
AcDbEntity
  8
AM_5 寸法線
 62
     3
100
AcDbBlockReference
  2
_Open30
 10
396.8138444810024
 20
240.3746412108901
 30
0.0
 41
3.75
 42
3.75
 43
3.75
 50
180.0
  0
INSERT
  5
8C12
330
5E26
100
AcDbEntity
  8
AM_5 寸法線
 62
     3
100
AcDbBlockReference
  2
_Open30
 10
410.8138444810021
 20
240.3746412108901
 30
0.0
 41
3.75
 42
3.75
 43
3.75
  0
MTEXT
  5
8C13
330
5E26
100
AcDbEntity
  8
AM_5 寸法線
 62
     3
100
AcDbMText
 10
403.8138444810023
 20
245.24964121089
 30
0.0
 40
5.25
 41
0.0
 46
0.0
 71
     5
 72
     1
  1
14
  7
SEISA
 73
     1
 44
1.0
  0
POINT
  5
8C14
330
5E26
100
AcDbEntity
  8
Defpoints
 62
     0
100
AcDbPoint
 10
396.8138444810024
 20
297.3746412108901
 30
0.0
  0
POINT
  5
8C15
330
5E26
100
AcDbEntity
  8
Defpoints
 62
     0
100
AcDbPoint
 10
410.8138444810021
 20
307.8746412108901
 30
0.0
  0
POINT
  5
8C16
330
5E26
100
AcDbEntity
  8
Defpoints
 62
     0
100
AcDbPoint
 10
410.8138444810021
 20
240.3746412108901
 30
0.0
  0
ENDBLK
  5
5E28
330
5E26
100
AcDbEntity
  8
0
100
AcDbBlockEnd
  0
BLOCK
  5
6FDA
330
6FD8
100
AcDbEntity
  8
0
100
AcDbBlockBegin
  2
_DotSmall
 70
     0
 10
0.0
 20
0.0
 30
0.0
  3
_DotSmall
  1

  0
LWPOLYLINE
  5
6FD9
330
6FD8
100
AcDbEntity
  8
0
  6
ByBlock
 62
     0
100
AcDbPolyline
 90
        2
 70
     1
 43
0.5
 10
-0.0625
 20
0.0
 42
1.0
 10
0.0625
 20
0.0
 42
1.0
  0
ENDBLK
  5
6FDB
330
6FD8
100
AcDbEntity
  8
0
100
AcDbBlockEnd
  0
BLOCK
  5
7A9F
330
7A9E
100
AcDbEntity
  8
0
100
AcDbBlockBegin
  2
ＧＣスペーサ SAMY112
 70
     0
 10
0.0
 20
0.0
 30
0.0
  3
ＧＣスペーサ SAMY112
  1

  0
LINE
  5
7AA1
330
7A9E
100
AcDbEntity
  8
AM_0 外形線1
100
AcDbLine
 10
-15.9963946593914
 20
0.0
 30
0.0
 11
-15.99639465939143
 21
-55.49999999999977
 31
0.0
  0
LINE
  5
7AA2
330
7A9E
100
AcDbEntity
  8
AM_0 外形線1
100
AcDbLine
 10
-15.99639465939143
 20
38.00000000000011
 30
0.0
 11
-15.99639465939143
 21
46.00000000000011
 31
0.0
  0
LINE
  5
7AA3
330
7A9E
100
AcDbEntity
  8
AM_0 外形線1
100
AcDbLine
 10
91.50360534060805
 20
-55.99999999999977
 30
0.0
 11
92.00360534060804
 21
-55.49999999999977
 31
0.0
1001
GENIUS_GENFIL_13
1070
     0
1040
0.5
1040
0.5
1040
0.500000000000057
1040
45.0
1000
~T
1001
GENIUS_GENOREF_13
1005
7B19
  0
LINE
  5
7AA4
330
7A9E
100
AcDbEntity
  8
AM_7 中心線
100
AcDbLine
 10
72.00360534060813
 20
-49.49999999999988
 30
0.0
 11
112.0036053406085
 21
-49.49999999999988
 31
0.0
  0
LINE
  5
7AA6
330
7A9E
100
AcDbEntity
  8
AM_0 外形線1
100
AcDbLine
 10
92.00360534060813
 20
38.00000000000017
 30
0.0
 11
92.00360534060813
 21
46.00000000000017
 31
0.0
  0
LINE
  5
7AA7
330
7A9E
100
AcDbEntity
  8
AM_0 外形線1
100
AcDbLine
 10
91.50360534060814
 20
37.50000000000011
 30
0.0
 11
92.00360534060813
 21
38.00000000000011
 31
0.0
1001
GENIUS_GENFIL_13
1070
     0
1040
0.5
1040
0.5
1040
0.500000000000057
1040
45.00000000000325
1000
~T
1001
GENIUS_GENOREF_13
1005
7B18
  0
LINE
  5
7AA8
330
7A9E
100
AcDbEntity
  8
AM_0 外形線1
100
AcDbLine
 10
91.50360534060814
 20
56.00000000000012
 30
0.0
 11
92.00360534060813
 21
55.50000000000011
 31
0.0
1001
GENIUS_GENFIL_13
1070
     0
1040
0.5
1040
0.5
1040
0.5
1040
44.99999999999754
1000
~T
1001
GENIUS_GENOREF_13
1005
7B17
  0
LINE
  5
7AA9
330
7A9E
100
AcDbEntity
  8
AM_0 外形線1
100
AcDbLine
 10
89.00360534060814
 20
37.50000000000011
 30
0.0
 11
89.00360534060814
 21
0.0000000000001137
 31
0.0
  0
LINE
  5
7AAA
330
7A9E
100
AcDbEntity
  8
AM_0 外形線1
100
AcDbLine
 10
89.00360534060814
 20
37.50000000000011
 30
0.0
 11
91.50360534060814
 21
37.50000000000011
 31
0.0
  0
LINE
  5
7AAB
330
7A9E
100
AcDbEntity
  8
AM_0 外形線1
100
AcDbLine
 10
92.00360534060813
 20
46.00000000000011
 30
0.0
 11
77.00360534060813
 21
46.00000000000011
 31
0.0
  0
LINE
  5
7AAC
330
7A9E
100
AcDbEntity
  8
AM_0 外形線1
100
AcDbLine
 10
77.00360534060813
 20
53.00000000000011
 30
0.0
 11
92.00360534060813
 21
53.00000000000011
 31
0.0
  0
LINE
  5
7AAD
330
7A9E
100
AcDbEntity
  8
AM_0 外形線1
100
AcDbLine
 10
91.50360534060814
 20
56.00000000000012
 30
0.0
 11
78.00360534060813
 21
56.00000000000012
 31
0.0
  0
LINE
  5
7AAE
330
7A9E
100
AcDbEntity
  8
AM_0 外形線1
100
AcDbLine
 10
2.003605340608601
 20
38.1500000000001
 30
0.0
 11
39.54202509251968
 21
38.15000000000021
 31
0.0
  0
LINE
  5
7AAF
330
7A9E
100
AcDbEntity
  8
AM_0 外形線1
100
AcDbLine
 10
42.54202509251967
 20
38.1500000000001
 30
0.0
 11
74.00360534060816
 21
38.1500000000001
 31
0.0
  0
LINE
  5
7AB0
330
7A9E
100
AcDbEntity
  8
AM_0 外形線1
100
AcDbLine
 10
7.003605340608487
 20
32.15000000000021
 30
0.0
 11
37.22544297547984
 21
32.15000000000021
 31
0.0
  0
LINE
  5
7AB1
330
7A9E
100
AcDbEntity
  8
AM_0 外形線1
100
AcDbLine
 10
40.23498979133854
 20
32.15000000000009
 30
0.0
 11
69.00360534060815
 21
32.15000000000009
 31
0.0
  0
LINE
  5
7AB2
330
7A9E
100
AcDbEntity
  8
AM_0 外形線1
100
AcDbLine
 10
16.00360534060849
 20
-38.14999999999975
 30
0.0
 11
39.54202509251968
 21
-38.14999999999975
 31
0.0
  0
LINE
  5
7AB3
330
7A9E
100
AcDbEntity
  8
AM_0 外形線1
100
AcDbLine
 10
42.54202509251956
 20
-38.14999999999975
 30
0.0
 11
60.00360534060813
 21
-38.14999999999975
 31
0.0
  0
POLYLINE
  5
7AB4
330
7A9E
100
AcDbEntity
  8
AM_4 細線
100
AcDb2dPolyline
 66
     1
 10
0.0
 20
0.0
 30
0.0
 70
     2
  0
VERTEX
  5
96A7
330
7AB4
100
AcDbEntity
  8
AM_4 細線
100
AcDbVertex
100
AcDb2dVertex
 10
42.54202509251967
 20
38.14999999999998
 30
0.0
 42
0.0641768370672182
  0
VERTEX
  5
96A8
330
7AB4
100
AcDbEntity
  8
AM_4 細線
100
AcDbVertex
100
AcDb2dVertex
 10
40.39654515561857
 20
32.84831965651085
 30
0.0
 42
0.0866431683615698
 70
     1
  0
VERTEX
  5
96A9
330
7AB4
100
AcDbEntity
  8
AM_4 細線
100
AcDbVertex
100
AcDb2dVertex
 10
40.04202509251967
 20
28.61250000000007
 30
0.0
 42
0.0937688653764031
  0
VERTEX
  5
96AA
330
7AB4
100
AcDbEntity
  8
AM_4 細線
100
AcDbVertex
100
AcDb2dVertex
 10
41.52891521904177
 20
23.36959978689754
 30
0.0
 42
-0.1163547261409829
 70
     1
  0
VERTEX
  5
96AB
330
7AB4
100
AcDbEntity
  8
AM_4 細線
100
AcDbVertex
100
AcDb2dVertex
 10
42.54202509251967
 20
19.07500000000004
 30
0.0
 42
-0.1288845064225699
  0
VERTEX
  5
96AC
330
7AB4
100
AcDbEntity
  8
AM_4 細線
100
AcDbVertex
100
AcDb2dVertex
 10
41.29202509251967
 20
14.30624999999998
 30
0.0
 42
0.1288845064225699
 70
     1
  0
VERTEX
  5
96AD
330
7AB4
100
AcDbEntity
  8
AM_4 細線
100
AcDbVertex
100
AcDb2dVertex
 10
40.04202509251967
 20
9.537500000000024
 30
0.0
 42
0.1288845064225713
  0
VERTEX
  5
96AE
330
7AB4
100
AcDbEntity
  8
AM_4 細線
100
AcDbVertex
100
AcDb2dVertex
 10
41.29202509251967
 20
4.768750000000068
 30
0.0
 42
-0.128884506422571
 70
     1
  0
VERTEX
  5
96AF
330
7AB4
100
AcDbEntity
  8
AM_4 細線
100
AcDbVertex
100
AcDb2dVertex
 10
42.54202509251967
 20
0.0000000000001137
 30
0.0
 42
-0.1288845064225717
  0
VERTEX
  5
96B0
330
7AB4
100
AcDbEntity
  8
AM_4 細線
100
AcDbVertex
100
AcDb2dVertex
 10
41.29202509251967
 20
-4.768749999999839
 30
0.0
 42
0.1288845064225698
 70
     1
  0
VERTEX
  5
96B1
330
7AB4
100
AcDbEntity
  8
AM_4 細線
100
AcDbVertex
100
AcDb2dVertex
 10
40.04202509251967
 20
-9.537499999999797
 30
0.0
 42
0.1288845064225715
  0
VERTEX
  5
96B2
330
7AB4
100
AcDbEntity
  8
AM_4 細線
100
AcDbVertex
100
AcDb2dVertex
 10
41.29202509251967
 20
-14.30624999999975
 30
0.0
 42
-0.1288845064225706
 70
     1
  0
VERTEX
  5
96B3
330
7AB4
100
AcDbEntity
  8
AM_4 細線
100
AcDbVertex
100
AcDb2dVertex
 10
42.54202509251967
 20
-19.07499999999982
 30
0.0
 42
-0.116354726140983
  0
VERTEX
  5
96B4
330
7AB4
100
AcDbEntity
  8
AM_4 細線
100
AcDbVertex
100
AcDb2dVertex
 10
41.52891521904177
 20
-23.36959978689731
 30
0.0
 42
0.0937688653764025
 70
     1
  0
VERTEX
  5
96B5
330
7AB4
100
AcDbEntity
  8
AM_4 細線
100
AcDbVertex
100
AcDb2dVertex
 10
40.04202509251967
 20
-28.61249999999984
 30
0.0
 42
0.0866431683615718
  0
VERTEX
  5
96B6
330
7AB4
100
AcDbEntity
  8
AM_4 細線
100
AcDbVertex
100
AcDb2dVertex
 10
40.39654515561857
 20
-32.8483196565104
 30
0.0
 42
0.0641768370672218
 70
     1
  0
VERTEX
  5
96B7
330
7AB4
100
AcDbEntity
  8
AM_4 細線
100
AcDbVertex
100
AcDb2dVertex
 10
42.54202509251967
 20
-38.14999999999975
 30
0.0
  0
SEQEND
  5
96B8
330
7AB4
100
AcDbEntity
  8
AM_4 細線
  0
POLYLINE
  5
7AC7
330
7A9E
100
AcDbEntity
  8
AM_4 細線
100
AcDb2dPolyline
 66
     1
 10
0.0
 20
0.0
 30
0.0
 70
     2
  0
VERTEX
  5
96BA
330
7AC7
100
AcDbEntity
  8
AM_4 細線
100
AcDbVertex
100
AcDb2dVertex
 10
39.54202509251968
 20
38.14999999999998
 30
0.0
 42
0.0641768370672182
  0
VERTEX
  5
96BB
330
7AC7
100
AcDbEntity
  8
AM_4 細線
100
AcDbVertex
100
AcDb2dVertex
 10
37.39654515561858
 20
32.84831965651085
 30
0.0
 42
0.0866431683615698
 70
     1
  0
VERTEX
  5
96BC
330
7AC7
100
AcDbEntity
  8
AM_4 細線
100
AcDbVertex
100
AcDb2dVertex
 10
37.04202509251968
 20
28.61250000000007
 30
0.0
 42
0.0937688653764031
  0
VERTEX
  5
96BD
330
7AC7
100
AcDbEntity
  8
AM_4 細線
100
AcDbVertex
100
AcDb2dVertex
 10
38.52891521904178
 20
23.36959978689754
 30
0.0
 42
-0.1163547261409829
 70
     1
  0
VERTEX
  5
96BE
330
7AC7
100
AcDbEntity
  8
AM_4 細線
100
AcDbVertex
100
AcDb2dVertex
 10
39.54202509251968
 20
19.07500000000004
 30
0.0
 42
-0.1288845064225699
  0
VERTEX
  5
96BF
330
7AC7
100
AcDbEntity
  8
AM_4 細線
100
AcDbVertex
100
AcDb2dVertex
 10
38.29202509251968
 20
14.30624999999998
 30
0.0
 42
0.1288845064225699
 70
     1
  0
VERTEX
  5
96C0
330
7AC7
100
AcDbEntity
  8
AM_4 細線
100
AcDbVertex
100
AcDb2dVertex
 10
37.04202509251968
 20
9.537500000000024
 30
0.0
 42
0.1288845064225713
  0
VERTEX
  5
96C1
330
7AC7
100
AcDbEntity
  8
AM_4 細線
100
AcDbVertex
100
AcDb2dVertex
 10
38.29202509251968
 20
4.768750000000068
 30
0.0
 42
-0.128884506422571
 70
     1
  0
VERTEX
  5
96C2
330
7AC7
100
AcDbEntity
  8
AM_4 細線
100
AcDbVertex
100
AcDb2dVertex
 10
39.54202509251968
 20
0.0000000000001137
 30
0.0
 42
-0.1288845064225717
  0
VERTEX
  5
96C3
330
7AC7
100
AcDbEntity
  8
AM_4 細線
100
AcDbVertex
100
AcDb2dVertex
 10
38.29202509251968
 20
-4.768749999999839
 30
0.0
 42
0.1288845064225698
 70
     1
  0
VERTEX
  5
96C4
330
7AC7
100
AcDbEntity
  8
AM_4 細線
100
AcDbVertex
100
AcDb2dVertex
 10
37.04202509251968
 20
-9.537499999999797
 30
0.0
 42
0.1288845064225715
  0
VERTEX
  5
96C5
330
7AC7
100
AcDbEntity
  8
AM_4 細線
100
AcDbVertex
100
AcDb2dVertex
 10
38.29202509251968
 20
-14.30624999999975
 30
0.0
 42
-0.1288845064225706
 70
     1
  0
VERTEX
  5
96C6
330
7AC7
100
AcDbEntity
  8
AM_4 細線
100
AcDbVertex
100
AcDb2dVertex
 10
39.54202509251968
 20
-19.07499999999982
 30
0.0
 42
-0.116354726140983
  0
VERTEX
  5
96C7
330
7AC7
100
AcDbEntity
  8
AM_4 細線
100
AcDbVertex
100
AcDb2dVertex
 10
38.52891521904178
 20
-23.36959978689731
 30
0.0
 42
0.0937688653764025
 70
     1
  0
VERTEX
  5
96C8
330
7AC7
100
AcDbEntity
  8
AM_4 細線
100
AcDbVertex
100
AcDb2dVertex
 10
37.04202509251968
 20
-28.61249999999984
 30
0.0
 42
0.0866431683615718
  0
VERTEX
  5
96C9
330
7AC7
100
AcDbEntity
  8
AM_4 細線
100
AcDbVertex
100
AcDb2dVertex
 10
37.39654515561858
 20
-32.8483196565104
 30
0.0
 42
0.0641768370672218
 70
     1
  0
VERTEX
  5
96CA
330
7AC7
100
AcDbEntity
  8
AM_4 細線
100
AcDbVertex
100
AcDb2dVertex
 10
39.54202509251968
 20
-38.14999999999975
 30
0.0
  0
SEQEND
  5
96CB
330
7AC7
100
AcDbEntity
  8
AM_4 細線
  0
LINE
  5
7ADA
330
7A9E
100
AcDbEntity
  8
AM_0 外形線1
100
AcDbLine
 10
77.00360534060813
 20
-43.49999999999988
 30
0.0
 11
74.00360534060816
 21
-43.49999999999988
 31
0.0
  0
LINE
  5
7ADB
330
7A9E
100
AcDbEntity
  8
AM_0 外形線1
100
AcDbLine
 10
77.00360534060813
 20
0.0000000000001137
 30
0.0
 11
77.00360534060813
 21
-54.99999999999989
 31
0.0
  0
LINE
  5
7ADC
330
7A9E
100
AcDbEntity
  8
AM_0 外形線1
100
AcDbLine
 10
74.00360534060816
 20
-43.49999999999988
 30
0.0
 11
74.00360534060816
 21
0.0000000000001137
 31
0.0
  0
LINE
  5
7ADD
330
7A9E
100
AcDbEntity
  8
AM_0 外形線1
100
AcDbLine
 10
91.50360534060805
 20
-55.99999999999977
 30
0.0
 11
78.00360534060813
 21
-55.99999999999988
 31
0.0
  0
LINE
  5
7ADE
330
7A9E
100
AcDbEntity
  8
AM_0 外形線1
100
AcDbLine
 10
77.00360534060813
 20
-54.99999999999989
 30
0.0
 11
78.00360534060813
 21
-55.99999999999988
 31
0.0
1001
GENIUS_GENFIL_13
1070
     0
1040
1.0
1040
1.0
1040
1.0
1040
45.0
1000
~T
1001
GENIUS_GENOREF_13
1005
7B16
  0
LINE
  5
7ADF
330
7A9E
100
AcDbEntity
  8
AM_0 外形線1
100
AcDbLine
 10
58.56908312773247
 20
-38.14999999999975
 30
0.0
 11
60.00360534060813
 21
-38.14999999999987
 31
0.0
  0
ARC
  5
7AE0
330
7A9E
100
AcDbEntity
  8
AM_0 外形線1
100
AcDbCircle
 10
60.00360534060813
 20
-48.14999999999975
 30
0.0
 40
10.0
100
AcDbArc
 50
65.69591247918896
 51
90.0
  0
LINE
  5
7AE1
330
7A9E
100
AcDbEntity
  8
AM_0 外形線1
100
AcDbLine
 10
74.00360534060816
 20
-43.49999999999988
 30
0.0
 11
64.11939911763113
 21
-39.03626083404708
 31
0.0
  0
HATCH
  5
7AE2
330
7A9E
100
AcDbEntity
  8
AM_8 ハッチング
100
AcDbHatch
 10
0.0
 20
0.0
 30
0.0
210
0.0
220
0.0
230
1.0
  2
_USER
 70
     0
 71
     0
 91
        1
 92
        7
 72
     1
 73
     1
 93
        5
 10
69.00360534060815
 20
32.14999999999998
 42
0.0
 10
66.00360534060815
 20
32.14999999999998
 42
0.0
 10
62.53950372547047
 20
38.14999999999987
 42
0.0
 10
74.00360534060816
 20
38.14999999999998
 42
0.0
 10
74.00360534060816
 20
37.14999999999998
 42
-0.4142135623730935
 97
        0
 75
     0
 76
     0
 52
45.0
 41
0.5
 77
     0
 78
     1
 53
315.0
 43
-333.5342219036198
 44
278.1192041932428
 45
-0.3535533905932737
 46
-0.3535533905932738
 79
     0
 47
0.0447334544854135
 98
        1
 10
67.98870847509475
 20
35.29291828442467
1001
ACAD
1010
0.0
1020
0.0
1030
0.0
  0
LINE
  5
7AE3
330
7A9E
100
AcDbEntity
  8
AM_0 外形線1
100
AcDbLine
 10
77.00360534060813
 20
43.50000000000011
 30
0.0
 11
74.00360534060816
 21
43.50000000000011
 31
0.0
  0
LINE
  5
7AE4
330
7A9E
100
AcDbEntity
  8
AM_0 外形線1
100
AcDbLine
 10
77.00360534060813
 20
44.0203540000001
 30
0.0
 11
77.00360534060813
 21
55.0000000000001
 31
0.0
  0
LINE
  5
7AE5
330
7A9E
100
AcDbEntity
  8
AM_0 外形線1
100
AcDbLine
 10
77.00360534060813
 20
44.0203540000001
 30
0.0
 11
77.00360534060813
 21
43.50000000000011
 31
0.0
  0
HATCH
  5
7AE6
330
7A9E
100
AcDbEntity
  8
AM_8 ハッチング
100
AcDbHatch
 10
0.0
 20
0.0
 30
0.0
210
0.0
220
0.0
230
1.0
  2
_USER
 70
     0
 71
     0
 91
        1
 92
        7
 72
     1
 73
     1
 93
        4
 10
74.00360534060826
 20
38.14999999999998
 42
0.0
 10
60.00360534060813
 20
38.14999999999998
 42
0.106445912652656
 10
64.11939911763102
 20
39.03626083404731
 42
0.0
 10
74.00360534060816
 20
43.50000000000011
 42
0.0
 97
        0
 75
     0
 76
     0
 52
45.0
 41
0.5
 77
     0
 78
     1
 53
315.0
 43
-333.5342219036198
 44
278.1192041932428
 45
-0.3535533905932737
 46
-0.3535533905932738
 79
     0
 47
0.0220198945118084
 98
        1
 10
71.85187024756884
 20
40.43595036982572
1001
ACAD
1010
0.0
1020
0.0
1030
0.0
  0
LINE
  5
7AE7
330
7A9E
100
AcDbEntity
  8
AM_0 外形線1
100
AcDbLine
 10
74.00360534060816
 20
43.50000000000011
 30
0.0
 11
74.00360534060816
 21
37.14999999999998
 31
0.0
  0
ARC
  5
7AE8
330
7A9E
100
AcDbEntity
  8
AM_0 外形線1
100
AcDbCircle
 10
69.00360534060815
 20
37.14999999999998
 30
0.0
 40
5.0
100
AcDbArc
 50
270.0
 51
0.0
1001
GENIUS_GENODEF_13
1002
{
1000
HIER
1070
     0
1002
}
1002
{
1000
MANEDIT
1070
     0
1002
}
1002
{
1000
NOSEL
1070
     0
1002
}
1002
{
1000
BEHIND
1070
     0
1002
}
1002
{
1000
OTHER
1070
     0
1002
}
1002
{
1000
REACTOR
1002
}
1001
GENIUS_GENOBJ-N-FIL_13
1002
{
1000
OWNER
1000
GEN
1002
}
  0
LINE
  5
7AE9
330
7A9E
100
AcDbEntity
  8
AM_0 外形線1
100
AcDbLine
 10
91.50360534060814
 20
56.00000000000012
 30
0.0
 11
78.00360534060813
 21
56.00000000000012
 31
0.0
  0
LINE
  5
7AEA
330
7A9E
100
AcDbEntity
  8
AM_0 外形線1
100
AcDbLine
 10
77.00360534060813
 20
55.0000000000001
 30
0.0
 11
78.00360534060813
 21
56.00000000000012
 31
0.0
1001
GENIUS_GENFIL_13
1070
     0
1040
1.0
1040
1.0
1040
1.0
1040
44.99999999999754
1000
~T
1001
GENIUS_GENOREF_13
1005
7B15
  0
LINE
  5
7AEB
330
7A9E
100
AcDbEntity
  8
AM_0 外形線1
100
AcDbLine
 10
58.56908312773247
 20
38.14999999999998
 30
0.0
 11
74.00360534060816
 21
38.14999999999998
 31
0.0
  0
LINE
  5
7AEC
330
7A9E
100
AcDbEntity
  8
AM_0 外形線1
100
AcDbLine
 10
66.00360534060815
 20
32.14999999999998
 30
0.0
 11
62.53950372547047
 21
38.14999999999998
 31
0.0
  0
ARC
  5
7AED
330
7A9E
100
AcDbEntity
  8
AM_0 外形線1
100
AcDbCircle
 10
60.00360534060813
 20
48.14999999999997
 30
0.0
 40
10.0
100
AcDbArc
 50
270.0
 51
294.304087520811
  0
LINE
  5
7AEE
330
7A9E
100
AcDbEntity
  8
AM_0 外形線1
100
AcDbLine
 10
74.00360534060816
 20
43.50000000000011
 30
0.0
 11
64.11939911763102
 21
39.03626083404731
 31
0.0
  0
LINE
  5
7AEF
330
7A9E
100
AcDbEntity
  8
AM_0 外形線1
100
AcDbLine
 10
64.00360534060826
 20
0.0000000000001137
 30
0.0
 11
64.00360534060815
 21
32.14999999999998
 31
0.0
  0
LINE
  5
7AF0
330
7A9E
100
AcDbEntity
  8
AM_7 中心線
100
AcDbLine
 10
4.003605340608601
 20
-49.49999999999988
 30
0.0
 11
-35.99639465939143
 21
-49.49999999999988
 31
0.0
  0
LINE
  5
7AF2
330
7A9E
100
AcDbEntity
  8
AM_0 外形線1
100
AcDbLine
 10
-12.99639465939143
 20
37.50000000000011
 30
0.0
 11
-15.49639465939143
 21
37.50000000000011
 31
0.0
  0
LINE
  5
7AF3
330
7A9E
100
AcDbEntity
  8
AM_0 外形線1
100
AcDbLine
 10
-15.99639465939143
 20
38.00000000000011
 30
0.0
 11
-15.49639465939143
 21
37.50000000000011
 31
0.0
1001
GENIUS_GENFIL_13
1070
     0
1040
0.5
1040
0.5
1040
0.5
1040
45.00000000000162
1000
~T
1001
GENIUS_GENOREF_13
1005
7B14
  0
LINE
  5
7AF4
330
7A9E
100
AcDbEntity
  8
AM_0 外形線1
100
AcDbLine
 10
-15.99639465939143
 20
46.00000000000011
 30
0.0
 11
-0.9963946593913988
 21
46.00000000000011
 31
0.0
  0
LINE
  5
7AF5
330
7A9E
100
AcDbEntity
  8
AM_0 外形線1
100
AcDbLine
 10
-0.9963946593913988
 20
53.00000000000011
 30
0.0
 11
-15.99639465939143
 21
53.00000000000011
 31
0.0
  0
LINE
  5
7AF6
330
7A9E
100
AcDbEntity
  8
AM_0 外形線1
100
AcDbLine
 10
-12.99639465939151
 20
0.0000000000001137
 30
0.0
 11
-12.99639465939148
 21
37.50000000000011
 31
0.0
  0
LINE
  5
7AF7
330
7A9E
100
AcDbEntity
  8
AM_0 外形線1
100
AcDbLine
 10
-0.9963946593915123
 20
-43.49999999999988
 30
0.0
 11
2.003605340608487
 21
-43.49999999999988
 31
0.0
  0
LINE
  5
7AF8
330
7A9E
100
AcDbEntity
  8
AM_0 外形線1
100
AcDbLine
 10
-0.9963946593915123
 20
0.0000000000001137
 30
0.0
 11
-0.9963946593915123
 21
-54.99999999999989
 31
0.0
  0
LINE
  5
7AF9
330
7A9E
100
AcDbEntity
  8
AM_0 外形線1
100
AcDbLine
 10
-1.996394659391512
 20
-55.99999999999988
 30
0.0
 11
-0.9963946593915123
 21
-54.99999999999989
 31
0.0
1001
GENIUS_GENFIL_13
1070
     0
1040
1.0
1040
1.0
1040
1.0
1040
44.99999999999754
1000
~T
1001
GENIUS_GENOREF_13
1005
7B13
  0
LINE
  5
7AFA
330
7A9E
100
AcDbEntity
  8
AM_0 外形線1
100
AcDbLine
 10
2.003605340608487
 20
-43.49999999999988
 30
0.0
 11
2.003605340608487
 21
0.0000000000001137
 31
0.0
  0
LINE
  5
7AFB
330
7A9E
100
AcDbEntity
  8
AM_0 外形線1
100
AcDbLine
 10
-15.49639465939143
 20
-55.99999999999977
 30
0.0
 11
-1.996394659391512
 21
-55.99999999999988
 31
0.0
  0
LINE
  5
7AFC
330
7A9E
100
AcDbEntity
  8
AM_0 外形線1
100
AcDbLine
 10
-15.99639465939143
 20
-55.49999999999977
 30
0.0
 11
-15.49639465939143
 21
-55.99999999999977
 31
0.0
1001
GENIUS_GENFIL_13
1070
     0
1040
0.5
1040
0.5
1040
0.5
1040
44.99999999999836
1000
~T
1001
GENIUS_GENOREF_13
1005
7B12
  0
LINE
  5
7AFD
330
7A9E
100
AcDbEntity
  8
AM_0 外形線1
100
AcDbLine
 10
17.43812755348415
 20
-38.14999999999975
 30
0.0
 11
16.00360534060849
 21
-38.14999999999987
 31
0.0
  0
ARC
  5
7AFE
330
7A9E
100
AcDbEntity
  8
AM_0 外形線1
100
AcDbCircle
 10
16.00360534060849
 20
-48.14999999999975
 30
0.0
 40
10.0
100
AcDbArc
 50
90.0
 51
114.304087520811
  0
LINE
  5
7AFF
330
7A9E
100
AcDbEntity
  8
AM_0 外形線1
100
AcDbLine
 10
2.003605340608487
 20
-43.49999999999988
 30
0.0
 11
11.88781156358555
 21
-39.03626083404714
 31
0.0
  0
HATCH
  5
7B00
330
7A9E
100
AcDbEntity
  8
AM_8 ハッチング
100
AcDbHatch
 10
0.0
 20
0.0
 30
0.0
210
0.0
220
0.0
230
1.0
  2
_USER
 70
     0
 71
     0
 91
        1
 92
        7
 72
     1
 73
     1
 93
        5
 10
7.003605340608487
 20
32.14999999999998
 42
0.0
 10
10.00360534060849
 20
32.14999999999998
 42
0.0
 10
13.46770695574617
 20
38.14999999999987
 42
0.0
 10
2.003605340608487
 20
38.14999999999998
 42
0.0
 10
2.003605340608487
 20
37.14999999999998
 42
0.4142135623730935
 97
        0
 75
     0
 76
     0
 52
45.0
 41
0.5
 77
     0
 78
     1
 53
225.0
 43
409.5414325848365
 44
278.1192041932428
 45
0.3535533905932737
 46
-0.3535533905932738
 79
     0
 47
0.0447334544854135
 98
        1
 10
8.018502206121977
 20
35.29291828442467
1001
ACAD
1010
0.0
1020
0.0
1030
0.0
  0
LINE
  5
7B01
330
7A9E
100
AcDbEntity
  8
AM_0 外形線1
100
AcDbLine
 10
-0.9963946593915123
 20
43.50000000000011
 30
0.0
 11
2.003605340608487
 21
43.50000000000011
 31
0.0
  0
LINE
  5
7B02
330
7A9E
100
AcDbEntity
  8
AM_0 外形線1
100
AcDbLine
 10
-0.9963946593915123
 20
44.0203540000001
 30
0.0
 11
-0.9963946593913988
 21
55.0000000000001
 31
0.0
  0
LINE
  5
7B03
330
7A9E
100
AcDbEntity
  8
AM_0 外形線1
100
AcDbLine
 10
-1.996394659391454
 20
56.00000000000012
 30
0.0
 11
-0.9963946593913988
 21
55.0000000000001
 31
0.0
1001
GENIUS_GENFIL_13
1070
     0
1040
1.0
1040
1.0
1040
1.0
1040
44.99999999999754
1000
~T
1001
GENIUS_GENOREF_13
1005
7B11
  0
LINE
  5
7B04
330
7A9E
100
AcDbEntity
  8
AM_0 外形線1
100
AcDbLine
 10
-0.9963946593915123
 20
44.0203540000001
 30
0.0
 11
-0.9963946593915123
 21
43.50000000000011
 31
0.0
  0
HATCH
  5
7B05
330
7A9E
100
AcDbEntity
  8
AM_8 ハッチング
100
AcDbHatch
 10
0.0
 20
0.0
 30
0.0
210
0.0
220
0.0
230
1.0
  2
_USER
 70
     0
 71
     0
 91
        1
 92
        7
 72
     1
 73
     1
 93
        4
 10
2.003605340608487
 20
38.14999999999998
 42
0.0
 10
16.00360534060859
 20
38.14999999999998
 42
-0.106445912652656
 10
11.88781156358561
 20
39.03626083404731
 42
0.0
 10
2.003605340608487
 20
43.50000000000011
 42
0.0
 97
        0
 75
     0
 76
     0
 52
45.0
 41
0.5
 77
     0
 78
     1
 53
225.0
 43
409.5414325848365
 44
278.1192041932428
 45
0.3535533905932737
 46
-0.3535533905932738
 79
     0
 47
0.0220198945118084
 98
        1
 10
4.155340433647893
 20
40.43595036982572
1001
ACAD
1010
0.0
1020
0.0
1030
0.0
  0
LINE
  5
7B06
330
7A9E
100
AcDbEntity
  8
AM_0 外形線1
100
AcDbLine
 10
2.003605340608487
 20
43.50000000000011
 30
0.0
 11
2.003605340608487
 21
37.14999999999998
 31
0.0
  0
ARC
  5
7B07
330
7A9E
100
AcDbEntity
  8
AM_0 外形線1
100
AcDbCircle
 10
7.003605340608487
 20
37.14999999999998
 30
0.0
 40
5.0
100
AcDbArc
 50
180.0
 51
270.0
1001
GENIUS_GENODEF_13
1002
{
1000
HIER
1070
     0
1002
}
1002
{
1000
MANEDIT
1070
     0
1002
}
1002
{
1000
NOSEL
1070
     0
1002
}
1002
{
1000
BEHIND
1070
     0
1002
}
1002
{
1000
OTHER
1070
     0
1002
}
1002
{
1000
REACTOR
1002
}
1001
GENIUS_GENOBJ-N-FIL_13
1002
{
1000
OWNER
1000
GEN
1002
}
  0
LINE
  5
7B08
330
7A9E
100
AcDbEntity
  8
AM_0 外形線1
100
AcDbLine
 10
-15.49639465939143
 20
56.00000000000012
 30
0.0
 11
-1.996394659391454
 21
56.00000000000012
 31
0.0
  0
LINE
  5
7B09
330
7A9E
100
AcDbEntity
  8
AM_0 外形線1
100
AcDbLine
 10
-15.99639465939143
 20
55.50000000000011
 30
0.0
 11
-15.49639465939143
 21
56.00000000000012
 31
0.0
1001
GENIUS_GENFIL_13
1070
     0
1040
0.5
1040
0.5
1040
0.5
1040
44.99999999999836
1000
~T
1001
GENIUS_GENOREF_13
1005
7B10
  0
LINE
  5
7B0A
330
7A9E
100
AcDbEntity
  8
AM_0 外形線1
100
AcDbLine
 10
17.43812755348415
 20
38.14999999999998
 30
0.0
 11
2.003605340608487
 21
38.14999999999998
 31
0.0
  0
LINE
  5
7B0B
330
7A9E
100
AcDbEntity
  8
AM_0 外形線1
100
AcDbLine
 10
10.00360534060849
 20
32.14999999999998
 30
0.0
 11
13.46770695574617
 21
38.14999999999998
 31
0.0
  0
ARC
  5
7B0C
330
7A9E
100
AcDbEntity
  8
AM_0 外形線1
100
AcDbCircle
 10
16.00360534060849
 20
48.14999999999997
 30
0.0
 40
10.0
100
AcDbArc
 50
245.695912479189
 51
270.0
  0
LINE
  5
7B0D
330
7A9E
100
AcDbEntity
  8
AM_0 外形線1
100
AcDbLine
 10
2.003605340608487
 20
43.50000000000011
 30
0.0
 11
11.88781156358561
 21
39.03626083404731
 31
0.0
  0
LINE
  5
7B0E
330
7A9E
100
AcDbEntity
  8
AM_0 外形線1
100
AcDbLine
 10
12.00360534060848
 20
0.0000000000001137
 30
0.0
 11
12.00360534060848
 21
32.14999999999998
 31
0.0
  0
LINE
  5
7B0F
330
7A9E
100
AcDbEntity
  8
AM_0 外形線1
100
AcDbLine
 10
92.00360534060861
 20
0.0000000000001137
 30
0.0
 11
92.00360534060804
 21
-55.49999999999977
 31
0.0
  0
POINT
  5
7B10
330
7A9E
100
AcDbEntity
  8
0
 60
     1
100
AcDbPoint
 10
1052.258046952822
 20
1936.291333100894
 30
0.0
1001
GENIUS_GENOBJ-N-CHA_13
1002
{
1000
OWNER
1000
GEN
1002
}
1001
GENIUS_GENOENT_13
1002
{
1000
MYREF
1005
7B10
1002
}
1002
{
1000
GRP
1005
0
1002
}
1001
GENIUS_GENODEF_13
1002
{
1000
HIER
1070
     1
1002
}
1002
{
1000
MANEDIT
1070
     1
1002
}
1002
{
1000
NOSEL
1070
     0
1002
}
1002
{
1000
BEHIND
1070
     0
1002
}
1002
{
1000
OTHER
1070
     0
1002
}
1002
{
1000
REACTOR
1002
}
1001
GENIUS_GENOLIS_13
1002
{
1000
ENT
1005
7B09
1002
}
  0
POINT
  5
7B11
330
7A9E
100
AcDbEntity
  8
0
 60
     1
100
AcDbPoint
 10
1052.258046952822
 20
1936.291333100894
 30
0.0
1001
GENIUS_GENOENT_13
1002
{
1000
MYREF
1005
7B11
1002
}
1002
{
1000
GRP
1005
0
1002
}
1001
GENIUS_GENOBJ-N-CHA_13
1002
{
1000
OWNER
1000
GEN
1002
}
1001
GENIUS_GENODEF_13
1002
{
1000
HIER
1070
     1
1002
}
1002
{
1000
MANEDIT
1070
     1
1002
}
1002
{
1000
NOSEL
1070
     0
1002
}
1002
{
1000
BEHIND
1070
     0
1002
}
1002
{
1000
OTHER
1070
     0
1002
}
1002
{
1000
REACTOR
1002
}
1001
GENIUS_GENOLIS_13
1002
{
1000
ENT
1005
7B03
1002
}
  0
POINT
  5
7B12
330
7A9E
100
AcDbEntity
  8
0
 60
     1
100
AcDbPoint
 10
1052.258046952822
 20
1936.291333100894
 30
0.0
1001
GENIUS_GENODEF_13
1002
{
1000
HIER
1070
     1
1002
}
1002
{
1000
MANEDIT
1070
     0
1002
}
1002
{
1000
NOSEL
1070
     0
1002
}
1002
{
1000
BEHIND
1070
     0
1002
}
1002
{
1000
OTHER
1070
     0
1002
}
1002
{
1000
REACTOR
1002
}
1001
GENIUS_GENOENT_13
1002
{
1000
MYREF
1005
7B12
1002
}
1002
{
1000
GRP
1005
0
1002
}
1001
GENIUS_GENOBJ-N-CHA_13
1002
{
1000
OWNER
1000
GEN
1002
}
1001
GENIUS_GENOLIS_13
1002
{
1000
ENT
1005
7AFC
1002
}
  0
POINT
  5
7B13
330
7A9E
100
AcDbEntity
  8
0
 60
     1
100
AcDbPoint
 10
1052.258046952822
 20
1936.291333100894
 30
0.0
1001
GENIUS_GENODEF_13
1002
{
1000
HIER
1070
     1
1002
}
1002
{
1000
MANEDIT
1070
     0
1002
}
1002
{
1000
NOSEL
1070
     0
1002
}
1002
{
1000
BEHIND
1070
     0
1002
}
1002
{
1000
OTHER
1070
     0
1002
}
1002
{
1000
REACTOR
1002
}
1001
GENIUS_GENOBJ-N-CHA_13
1002
{
1000
OWNER
1000
GEN
1002
}
1001
GENIUS_GENOENT_13
1002
{
1000
MYREF
1005
7B13
1002
}
1002
{
1000
GRP
1005
0
1002
}
1001
GENIUS_GENOLIS_13
1002
{
1000
ENT
1005
7AF9
1002
}
  0
POINT
  5
7B14
330
7A9E
100
AcDbEntity
  8
0
 60
     1
100
AcDbPoint
 10
1052.258046952822
 20
1936.291333100894
 30
0.0
1001
GENIUS_GENOBJ-N-CHA_13
1002
{
1000
OWNER
1000
GEN
1002
}
1001
GENIUS_GENOENT_13
1002
{
1000
MYREF
1005
7B14
1002
}
1002
{
1000
GRP
1005
0
1002
}
1001
GENIUS_GENODEF_13
1002
{
1000
HIER
1070
     1
1002
}
1002
{
1000
MANEDIT
1070
     1
1002
}
1002
{
1000
NOSEL
1070
     0
1002
}
1002
{
1000
BEHIND
1070
     0
1002
}
1002
{
1000
OTHER
1070
     0
1002
}
1002
{
1000
REACTOR
1002
}
1001
GENIUS_GENOLIS_13
1002
{
1000
ENT
1005
7AF3
1002
}
  0
POINT
  5
7B15
330
7A9E
100
AcDbEntity
  8
0
 60
     1
100
AcDbPoint
 10
1052.258046952822
 20
1936.291333100894
 30
0.0
1001
GENIUS_GENOENT_13
1002
{
1000
MYREF
1005
7B15
1002
}
1002
{
1000
GRP
1005
0
1002
}
1001
GENIUS_GENOBJ-N-CHA_13
1002
{
1000
OWNER
1000
GEN
1002
}
1001
GENIUS_GENODEF_13
1002
{
1000
HIER
1070
     1
1002
}
1002
{
1000
MANEDIT
1070
     1
1002
}
1002
{
1000
NOSEL
1070
     0
1002
}
1002
{
1000
BEHIND
1070
     0
1002
}
1002
{
1000
OTHER
1070
     0
1002
}
1002
{
1000
REACTOR
1002
}
1001
GENIUS_GENOLIS_13
1002
{
1000
ENT
1005
7AEA
1002
}
  0
POINT
  5
7B16
330
7A9E
100
AcDbEntity
  8
0
 60
     1
100
AcDbPoint
 10
1052.258046952822
 20
1936.291333100894
 30
0.0
1001
GENIUS_GENODEF_13
1002
{
1000
HIER
1070
     1
1002
}
1002
{
1000
MANEDIT
1070
     0
1002
}
1002
{
1000
NOSEL
1070
     0
1002
}
1002
{
1000
BEHIND
1070
     0
1002
}
1002
{
1000
OTHER
1070
     0
1002
}
1002
{
1000
REACTOR
1002
}
1001
GENIUS_GENOENT_13
1002
{
1000
MYREF
1005
7B16
1002
}
1002
{
1000
GRP
1005
0
1002
}
1001
GENIUS_GENOBJ-N-CHA_13
1002
{
1000
OWNER
1000
GEN
1002
}
1001
GENIUS_GENOLIS_13
1002
{
1000
ENT
1005
7ADE
1002
}
  0
POINT
  5
7B17
330
7A9E
100
AcDbEntity
  8
0
 60
     1
100
AcDbPoint
 10
1052.258046952822
 20
1936.291333100894
 30
0.0
1001
GENIUS_GENOBJ-N-CHA_13
1002
{
1000
OWNER
1000
GEN
1002
}
1001
GENIUS_GENOENT_13
1002
{
1000
MYREF
1005
7B17
1002
}
1002
{
1000
GRP
1005
0
1002
}
1001
GENIUS_GENODEF_13
1002
{
1000
HIER
1070
     1
1002
}
1002
{
1000
MANEDIT
1070
     1
1002
}
1002
{
1000
NOSEL
1070
     0
1002
}
1002
{
1000
BEHIND
1070
     0
1002
}
1002
{
1000
OTHER
1070
     0
1002
}
1002
{
1000
REACTOR
1002
}
1001
GENIUS_GENOLIS_13
1002
{
1000
ENT
1005
7AA8
1002
}
  0
POINT
  5
7B18
330
7A9E
100
AcDbEntity
  8
0
 60
     1
100
AcDbPoint
 10
1052.258046952822
 20
1936.291333100894
 30
0.0
1001
GENIUS_GENOBJ-N-CHA_13
1002
{
1000
OWNER
1000
GEN
1002
}
1001
GENIUS_GENOENT_13
1002
{
1000
MYREF
1005
7B18
1002
}
1002
{
1000
GRP
1005
0
1002
}
1001
GENIUS_GENODEF_13
1002
{
1000
HIER
1070
     1
1002
}
1002
{
1000
MANEDIT
1070
     1
1002
}
1002
{
1000
NOSEL
1070
     0
1002
}
1002
{
1000
BEHIND
1070
     0
1002
}
1002
{
1000
OTHER
1070
     0
1002
}
1002
{
1000
REACTOR
1002
}
1001
GENIUS_GENOLIS_13
1002
{
1000
ENT
1005
7AA7
1002
}
  0
POINT
  5
7B19
330
7A9E
100
AcDbEntity
  8
0
 60
     1
100
AcDbPoint
 10
1052.258046952822
 20
1936.291333100894
 30
0.0
1001
GENIUS_GENODEF_13
1002
{
1000
HIER
1070
     1
1002
}
1002
{
1000
MANEDIT
1070
     0
1002
}
1002
{
1000
NOSEL
1070
     0
1002
}
1002
{
1000
BEHIND
1070
     0
1002
}
1002
{
1000
OTHER
1070
     0
1002
}
1002
{
1000
REACTOR
1002
}
1001
GENIUS_GENOBJ-N-CHA_13
1002
{
1000
OWNER
1000
GEN
1002
}
1001
GENIUS_GENOENT_13
1002
{
1000
MYREF
1005
7B19
1002
}
1002
{
1000
GRP
1005
0
1002
}
1001
GENIUS_GENOLIS_13
1002
{
1000
ENT
1005
7AA3
1002
}
  0
LINE
  5
7E03
330
7A9E
100
AcDbEntity
  8
AM_0 外形線1
100
AcDbLine
 10
-15.99639465939143
 20
53.00000000000011
 30
0.0
 11
-15.99639465939143
 21
55.50000000000011
 31
0.0
  0
LINE
  5
7E04
330
7A9E
100
AcDbEntity
  8
AM_0 外形線1
100
AcDbLine
 10
92.00360534060813
 20
53.00000000000011
 30
0.0
 11
92.00360534060813
 21
55.50000000000011
 31
0.0
  0
LINE
  5
970D
330
7A9E
100
AcDbEntity
  8
AM_0 外形線1
100
AcDbLine
 10
13.85028843004068
 20
-38.14999999999975
 30
0.0
 11
13.85028843004068
 21
0.0
 31
0.0
  0
LINE
  5
970E
330
7A9E
100
AcDbEntity
  8
AM_0 外形線1
100
AcDbLine
 10
62.15692225117606
 20
-38.14999999999975
 30
0.0
 11
62.15692225117606
 21
0.0
 31
0.0
  0
ENDBLK
  5
7AA0
330
7A9E
100
AcDbEntity
  8
0
100
AcDbBlockEnd
  0
BLOCK
  5
7E08
330
7E07
100
AcDbEntity
  8
0
100
AcDbBlockBegin
  2
*D29
 70
     1
 10
0.0
 20
0.0
 30
0.0
  3
*D29
  1

  0
LINE
  5
8C53
330
7E07
100
AcDbEntity
  8
AM_5 寸法線
 62
     3
100
AcDbLine
 10
248.8138444810023
 20
277.4371412108903
 30
0.0
 11
248.8138444810023
 21
254.43714121089
 31
0.0
  0
LINE
  5
8C54
330
7E07
100
AcDbEntity
  8
AM_5 寸法線
 62
     3
100
AcDbLine
 10
263.8138444810022
 20
277.9371412108902
 30
0.0
 11
263.8138444810022
 21
254.43714121089
 31
0.0
  0
LINE
  5
8C55
330
7E07
100
AcDbEntity
  8
AM_5 寸法線
 62
     3
100
AcDbLine
 10
252.5638444810023
 20
255.37464121089
 30
0.0
 11
260.0638444810022
 21
255.37464121089
 31
0.0
  0
INSERT
  5
8C56
330
7E07
100
AcDbEntity
  8
AM_5 寸法線
 62
     3
100
AcDbBlockReference
  2
_Open30
 10
248.8138444810023
 20
255.37464121089
 30
0.0
 41
3.75
 42
3.75
 43
3.75
 50
180.0
  0
INSERT
  5
8C57
330
7E07
100
AcDbEntity
  8
AM_5 寸法線
 62
     3
100
AcDbBlockReference
  2
_Open30
 10
263.8138444810022
 20
255.37464121089
 30
0.0
 41
3.75
 42
3.75
 43
3.75
  0
MTEXT
  5
8C58
330
7E07
100
AcDbEntity
  8
AM_5 寸法線
 62
     3
100
AcDbMText
 10
256.3138444810022
 20
260.24964121089
 30
0.0
 40
5.25
 41
0.0
 46
0.0
 71
     5
 72
     1
  1
15
  7
SEISA
 73
     1
 44
1.0
  0
POINT
  5
8C59
330
7E07
100
AcDbEntity
  8
Defpoints
 62
     0
100
AcDbPoint
 10
248.8138444810023
 20
278.3746412108903
 30
0.0
  0
POINT
  5
8C5A
330
7E07
100
AcDbEntity
  8
Defpoints
 62
     0
100
AcDbPoint
 10
263.8138444810022
 20
278.8746412108902
 30
0.0
  0
POINT
  5
8C5B
330
7E07
100
AcDbEntity
  8
Defpoints
 62
     0
100
AcDbPoint
 10
263.8138444810022
 20
255.37464121089
 30
0.0
  0
ENDBLK
  5
7E09
330
7E07
100
AcDbEntity
  8
0
100
AcDbBlockEnd
  0
BLOCK
  5
7E32
330
7E31
100
AcDbEntity
  8
0
100
AcDbBlockBegin
  2
*D30
 70
     1
 10
0.0
 20
0.0
 30
0.0
  3
*D30
  1

  0
LINE
  5
8C5C
330
7E31
100
AcDbEntity
  8
AM_5 寸法線
 62
     3
100
AcDbLine
 10
356.8138444810017
 20
277.4371412108903
 30
0.0
 11
356.8138444810017
 21
254.4371412108899
 31
0.0
  0
LINE
  5
8C5D
330
7E31
100
AcDbEntity
  8
AM_5 寸法線
 62
     3
100
AcDbLine
 10
341.8138444810019
 20
277.9371412108902
 30
0.0
 11
341.8138444810019
 21
254.4371412108899
 31
0.0
  0
LINE
  5
8C5E
330
7E31
100
AcDbEntity
  8
AM_5 寸法線
 62
     3
100
AcDbLine
 10
353.0638444810016
 20
255.3746412108899
 30
0.0
 11
345.5638444810019
 21
255.3746412108899
 31
0.0
  0
INSERT
  5
8C5F
330
7E31
100
AcDbEntity
  8
AM_5 寸法線
 62
     3
100
AcDbBlockReference
  2
_Open30
 10
356.8138444810017
 20
255.3746412108899
 30
0.0
 41
3.75
 42
3.75
 43
3.75
  0
INSERT
  5
8C60
330
7E31
100
AcDbEntity
  8
AM_5 寸法線
 62
     3
100
AcDbBlockReference
  2
_Open30
 10
341.8138444810019
 20
255.3746412108899
 30
0.0
 41
3.75
 42
3.75
 43
3.75
 50
180.0
  0
MTEXT
  5
8C61
330
7E31
100
AcDbEntity
  8
AM_5 寸法線
 62
     3
100
AcDbMText
 10
349.3138444810019
 20
260.2496412108899
 30
0.0
 40
5.25
 41
0.0
 46
0.0
 71
     5
 72
     1
  1
15
  7
SEISA
 73
     1
 44
1.0
  0
POINT
  5
8C62
330
7E31
100
AcDbEntity
  8
Defpoints
 62
     0
100
AcDbPoint
 10
356.8138444810017
 20
278.3746412108903
 30
0.0
  0
POINT
  5
8C63
330
7E31
100
AcDbEntity
  8
Defpoints
 62
     0
100
AcDbPoint
 10
341.8138444810019
 20
278.8746412108902
 30
0.0
  0
POINT
  5
8C64
330
7E31
100
AcDbEntity
  8
Defpoints
 62
     0
100
AcDbPoint
 10
341.8138444810019
 20
255.3746412108899
 30
0.0
  0
ENDBLK
  5
7E33
330
7E31
100
AcDbEntity
  8
0
100
AcDbBlockEnd
  0
BLOCK
  5
910D
330
910C
100
AcDbEntity
  8
0
100
AcDbBlockBegin
  2
*D31
 70
     1
 10
0.0
 20
0.0
 30
0.0
  3
*D31
  1

  0
LINE
  5
912C
330
910C
100
AcDbEntity
  8
AM_5 寸法線
 62
     3
100
AcDbLine
 10
194.8138444810023
 20
360.8121412108901
 30
0.0
 11
194.8138444810023
 21
393.8121412108901
 31
0.0
  0
LINE
  5
912D
330
910C
100
AcDbEntity
  8
AM_5 寸法線
 62
     3
100
AcDbLine
 10
180.8138444810019
 20
371.3121412108901
 30
0.0
 11
180.8138444810019
 21
393.8121412108901
 31
0.0
  0
LINE
  5
912E
330
910C
100
AcDbEntity
  8
AM_5 寸法線
 62
     3
100
AcDbLine
 10
191.0638444810023
 20
392.8746412108901
 30
0.0
 11
184.563844481002
 21
392.8746412108901
 31
0.0
  0
INSERT
  5
912F
330
910C
100
AcDbEntity
  8
AM_5 寸法線
 62
     3
100
AcDbBlockReference
  2
_Open30
 10
194.8138444810023
 20
392.8746412108901
 30
0.0
 41
3.75
 42
3.75
 43
3.75
  0
INSERT
  5
9130
330
910C
100
AcDbEntity
  8
AM_5 寸法線
 62
     3
100
AcDbBlockReference
  2
_Open30
 10
180.8138444810019
 20
392.8746412108901
 30
0.0
 41
3.75
 42
3.75
 43
3.75
 50
180.0
  0
MTEXT
  5
9131
330
910C
100
AcDbEntity
  8
AM_5 寸法線
 62
     3
100
AcDbMText
 10
187.8138444810021
 20
397.7496412108901
 30
0.0
 40
5.25
 41
0.0
 46
0.0
 71
     5
 72
     1
  1
14
  7
SEISA
 73
     1
 44
1.0
  0
POINT
  5
9132
330
910C
100
AcDbEntity
  8
Defpoints
 62
     0
100
AcDbPoint
 10
194.8138444810023
 20
359.8746412108901
 30
0.0
  0
POINT
  5
9133
330
910C
100
AcDbEntity
  8
Defpoints
 62
     0
100
AcDbPoint
 10
180.8138444810019
 20
370.3746412108901
 30
0.0
  0
POINT
  5
9134
330
910C
100
AcDbEntity
  8
Defpoints
 62
     0
100
AcDbPoint
 10
180.8138444810019
 20
392.8746412108901
 30
0.0
  0
ENDBLK
  5
910E
330
910C
100
AcDbEntity
  8
0
100
AcDbBlockEnd
  0
BLOCK
  5
926E
330
926D
100
AcDbEntity
  8
0
100
AcDbBlockBegin
  2
*D32
 70
     1
 10
0.0
 20
0.0
 30
0.0
  3
*D32
  1

  0
LINE
  5
92A9
330
926D
100
AcDbEntity
  8
AM_5 寸法線
 62
     3
100
AcDbLine
 10
248.8138444810023
 20
370.9371412108902
 30
0.0
 11
248.8138444810023
 21
341.6147582050329
 31
0.0
  0
LINE
  5
92AA
330
926D
100
AcDbEntity
  8
AM_5 寸法線
 62
     3
100
AcDbLine
 10
244.8138444810023
 20
352.5774378115476
 30
0.0
 11
244.8138444810023
 21
341.6147582050329
 31
0.0
  0
LINE
  5
92AB
330
926D
100
AcDbEntity
  8
AM_5 寸法線
 62
     3
100
AcDbLine
 10
252.5638444810023
 20
342.5522582050329
 30
0.0
 11
256.3138444810023
 21
342.5522582050329
 31
0.0
  0
LINE
  5
92AC
330
926D
100
AcDbEntity
  8
AM_5 寸法線
 62
     3
100
AcDbLine
 10
241.0638444810023
 20
342.5522582050329
 30
0.0
 11
237.3138444810023
 21
342.5522582050329
 31
0.0
  0
LINE
  5
92AD
330
926D
100
AcDbEntity
  8
AM_5 寸法線
 62
     3
100
AcDbLine
 10
265.5878958370461
 20
342.5522582050329
 30
0.0
 11
248.8138444810023
 21
342.5522582050329
 31
0.0
  0
MTEXT
  5
92AE
330
926D
100
AcDbEntity
  8
AM_5 寸法線
 62
     3
100
AcDbMText
 10
261.6503958370461
 20
347.4272582050329
 30
0.0
 40
5.25
 41
0.0
 46
0.0
 71
     5
 72
     1
  1
4
  7
SEISA
 73
     1
 44
1.0
  0
LINE
  5
92AF
330
926D
100
AcDbEntity
  8
AM_5 寸法線
 62
     3
100
AcDbLine
 10
248.8138444810023
 20
342.5522582050329
 30
0.0
 11
244.8138444810023
 21
342.5522582050329
 31
0.0
  0
LINE
  5
92B0
330
926D
100
AcDbEntity
  8
AM_5 寸法線
 62
     3
100
AcDbLine
 10
248.8138444810023
 20
342.5522582050329
 30
0.0
 11
244.8138444810023
 21
342.5522582050329
 31
0.0
  0
INSERT
  5
92B1
330
926D
100
AcDbEntity
  8
AM_5 寸法線
 62
     3
100
AcDbBlockReference
  2
_Open30
 10
248.8138444810023
 20
342.5522582050329
 30
0.0
 41
3.75
 42
3.75
 43
3.75
 50
180.0
  0
INSERT
  5
92B2
330
926D
100
AcDbEntity
  8
AM_5 寸法線
 62
     3
100
AcDbBlockReference
  2
_Open30
 10
244.8138444810023
 20
342.5522582050329
 30
0.0
 41
3.75
 42
3.75
 43
3.75
  0
POINT
  5
92B3
330
926D
100
AcDbEntity
  8
Defpoints
 62
     0
100
AcDbPoint
 10
248.8138444810023
 20
371.8746412108902
 30
0.0
  0
POINT
  5
92B4
330
926D
100
AcDbEntity
  8
Defpoints
 62
     0
100
AcDbPoint
 10
244.8138444810023
 20
353.5149378115476
 30
0.0
  0
POINT
  5
92B5
330
926D
100
AcDbEntity
  8
Defpoints
 62
     0
100
AcDbPoint
 10
244.8138444810023
 20
342.5522582050329
 30
0.0
  0
ENDBLK
  5
926F
330
926D
100
AcDbEntity
  8
0
100
AcDbBlockEnd
  0
BLOCK
  5
92F0
330
92EF
100
AcDbEntity
  8
0
100
AcDbBlockBegin
  2
*D33
 70
     1
 10
0.0
 20
0.0
 30
0.0
  3
*D33
  1

  0
LINE
  5
9353
330
92EF
100
AcDbEntity
  8
AM_5 寸法線
 62
     3
100
AcDbLine
 10
233.8138444810023
 20
362.4371412108901
 30
0.0
 11
233.8138444810023
 21
352.5774378115476
 31
0.0
  0
LINE
  5
9354
330
92EF
100
AcDbEntity
  8
AM_5 寸法線
 62
     3
100
AcDbLine
 10
244.8138444810023
 20
361.5426112108901
 30
0.0
 11
244.8138444810023
 21
352.5774378115476
 31
0.0
  0
LINE
  5
9355
330
92EF
100
AcDbEntity
  8
AM_5 寸法線
 62
     3
100
AcDbLine
 10
233.8138444810023
 20
353.5149378115476
 30
0.0
 11
241.0638444810023
 21
353.5149378115476
 31
0.0
  0
INSERT
  5
9356
330
92EF
100
AcDbEntity
  8
AM_5 寸法線
 62
     3
100
AcDbBlockReference
  2
_DotSmall
 10
233.8138444810023
 20
353.5149378115476
 30
0.0
 41
3.75
 42
3.75
 43
3.75
 50
180.0
  0
INSERT
  5
9357
330
92EF
100
AcDbEntity
  8
AM_5 寸法線
 62
     3
100
AcDbBlockReference
  2
_Open30
 10
244.8138444810023
 20
353.5149378115476
 30
0.0
 41
3.75
 42
3.75
 43
3.75
 50
180.0
  0
LINE
  5
9358
330
92EF
100
AcDbEntity
  8
AM_5 寸法線
 62
     3
100
AcDbLine
 10
248.5638444810023
 20
353.5149378115476
 30
0.0
 11
252.3138444810023
 21
353.5149378115476
 31
0.0
  0
LINE
  5
9359
330
92EF
100
AcDbEntity
  8
AM_5 寸法線
 62
     3
100
AcDbLine
 10
244.8138444810023
 20
353.5149378115476
 30
0.0
 11
241.0638444810023
 21
353.5149378115476
 31
0.0
  0
MTEXT
  5
935A
330
92EF
100
AcDbEntity
  8
AM_5 寸法線
 62
     3
100
AcDbMText
 10
237.4388444810023
 20
358.3899378115476
 30
0.0
 40
5.25
 41
0.0
 46
0.0
 71
     5
 72
     1
  1
11
  7
SEISA
 73
     1
 44
1.0
  0
POINT
  5
935B
330
92EF
100
AcDbEntity
  8
Defpoints
 62
     0
100
AcDbPoint
 10
233.8138444810023
 20
363.3746412108901
 30
0.0
  0
POINT
  5
935C
330
92EF
100
AcDbEntity
  8
Defpoints
 62
     0
100
AcDbPoint
 10
244.8138444810023
 20
362.4801112108901
 30
0.0
  0
POINT
  5
935D
330
92EF
100
AcDbEntity
  8
Defpoints
 62
     0
100
AcDbPoint
 10
244.8138444810023
 20
353.5149378115476
 30
0.0
  0
ENDBLK
  5
92F1
330
92EF
100
AcDbEntity
  8
0
100
AcDbBlockEnd
  0
BLOCK
  5
92FF
330
92FE
100
AcDbEntity
  8
0
100
AcDbBlockBegin
  2
*D34
 70
     1
 10
0.0
 20
0.0
 30
0.0
  3
*D34
  1

  0
LINE
  5
935E
330
92FE
100
AcDbEntity
  8
AM_5 寸法線
 62
     3
100
AcDbLine
 10
222.8138444810023
 20
362.4371412108901
 30
0.0
 11
222.8138444810023
 21
352.5774378115478
 31
0.0
  0
LINE
  5
935F
330
92FE
100
AcDbEntity
  8
AM_5 寸法線
 62
     3
100
AcDbLine
 10
233.8138444810023
 20
362.4371412108901
 30
0.0
 11
233.8138444810023
 21
352.5774378115478
 31
0.0
  0
LINE
  5
9360
330
92FE
100
AcDbEntity
  8
AM_5 寸法線
 62
     3
100
AcDbLine
 10
222.8138444810023
 20
353.5149378115478
 30
0.0
 11
233.8138444810023
 21
353.5149378115478
 31
0.0
  0
INSERT
  5
9361
330
92FE
100
AcDbEntity
  8
AM_5 寸法線
 62
     3
100
AcDbBlockReference
  2
_DotSmall
 10
222.8138444810023
 20
353.5149378115478
 30
0.0
 41
3.75
 42
3.75
 43
3.75
 50
180.0
  0
INSERT
  5
9362
330
92FE
100
AcDbEntity
  8
AM_5 寸法線
 62
     3
100
AcDbBlockReference
  2
_DotSmall
 10
233.8138444810023
 20
353.5149378115478
 30
0.0
 41
3.75
 42
3.75
 43
3.75
  0
MTEXT
  5
9363
330
92FE
100
AcDbEntity
  8
AM_5 寸法線
 62
     3
100
AcDbMText
 10
228.3138444810023
 20
358.3899378115478
 30
0.0
 40
5.25
 41
0.0
 46
0.0
 71
     5
 72
     1
  1
11
  7
SEISA
 73
     1
 44
1.0
  0
POINT
  5
9364
330
92FE
100
AcDbEntity
  8
Defpoints
 62
     0
100
AcDbPoint
 10
222.8138444810023
 20
363.3746412108901
 30
0.0
  0
POINT
  5
9365
330
92FE
100
AcDbEntity
  8
Defpoints
 62
     0
100
AcDbPoint
 10
233.8138444810023
 20
363.3746412108901
 30
0.0
  0
POINT
  5
9366
330
92FE
100
AcDbEntity
  8
Defpoints
 62
     0
100
AcDbPoint
 10
233.8138444810023
 20
353.5149378115478
 30
0.0
  0
ENDBLK
  5
9300
330
92FE
100
AcDbEntity
  8
0
100
AcDbBlockEnd
  0
BLOCK
  5
9404
330
9403
100
AcDbEntity
  8
0
100
AcDbBlockBegin
  2
*D35
 70
     1
 10
0.0
 20
0.0
 30
0.0
  3
*D35
  1

  0
LINE
  5
947A
330
9403
100
AcDbEntity
  8
AM_5 寸法線
 62
     3
100
AcDbLine
 10
356.8138444810019
 20
370.9371412108903
 30
0.0
 11
356.8138444810019
 21
341.6147582050329
 31
0.0
  0
LINE
  5
947B
330
9403
100
AcDbEntity
  8
AM_5 寸法線
 62
     3
100
AcDbLine
 10
360.8138444810024
 20
361.5426112108901
 30
0.0
 11
360.8138444810024
 21
341.6147582050329
 31
0.0
  0
LINE
  5
947C
330
9403
100
AcDbEntity
  8
AM_5 寸法線
 62
     3
100
AcDbLine
 10
353.0638444810019
 20
342.5522582050329
 30
0.0
 11
349.3138444810019
 21
342.5522582050329
 31
0.0
  0
LINE
  5
947D
330
9403
100
AcDbEntity
  8
AM_5 寸法線
 62
     3
100
AcDbLine
 10
364.5638444810024
 20
342.5522582050329
 30
0.0
 11
368.3138444810024
 21
342.5522582050329
 31
0.0
  0
LINE
  5
947E
330
9403
100
AcDbEntity
  8
AM_5 寸法線
 62
     3
100
AcDbLine
 10
340.1395262654765
 20
342.5522582050329
 30
0.0
 11
356.8138444810019
 21
342.5522582050329
 31
0.0
  0
MTEXT
  5
947F
330
9403
100
AcDbEntity
  8
AM_5 寸法線
 62
     3
100
AcDbMText
 10
344.0770262654766
 20
347.4272582050329
 30
0.0
 40
5.25
 41
0.0
 46
0.0
 71
     5
 72
     1
  1
4
  7
SEISA
 73
     1
 44
1.0
  0
LINE
  5
9480
330
9403
100
AcDbEntity
  8
AM_5 寸法線
 62
     3
100
AcDbLine
 10
356.8138444810019
 20
342.5522582050329
 30
0.0
 11
360.8138444810024
 21
342.5522582050329
 31
0.0
  0
LINE
  5
9481
330
9403
100
AcDbEntity
  8
AM_5 寸法線
 62
     3
100
AcDbLine
 10
356.8138444810019
 20
342.5522582050329
 30
0.0
 11
360.8138444810024
 21
342.5522582050329
 31
0.0
  0
INSERT
  5
9482
330
9403
100
AcDbEntity
  8
AM_5 寸法線
 62
     3
100
AcDbBlockReference
  2
_Open30
 10
356.8138444810019
 20
342.5522582050329
 30
0.0
 41
3.75
 42
3.75
 43
3.75
  0
INSERT
  5
9483
330
9403
100
AcDbEntity
  8
AM_5 寸法線
 62
     3
100
AcDbBlockReference
  2
_Open30
 10
360.8138444810024
 20
342.5522582050329
 30
0.0
 41
3.75
 42
3.75
 43
3.75
 50
180.0
  0
POINT
  5
9484
330
9403
100
AcDbEntity
  8
Defpoints
 62
     0
100
AcDbPoint
 10
356.8138444810019
 20
371.8746412108903
 30
0.0
  0
POINT
  5
9485
330
9403
100
AcDbEntity
  8
Defpoints
 62
     0
100
AcDbPoint
 10
360.8138444810024
 20
362.4801112108901
 30
0.0
  0
POINT
  5
9486
330
9403
100
AcDbEntity
  8
Defpoints
 62
     0
100
AcDbPoint
 10
360.8138444810024
 20
342.5522582050329
 30
0.0
  0
ENDBLK
  5
9405
330
9403
100
AcDbEntity
  8
0
100
AcDbBlockEnd
  0
BLOCK
  5
95C2
330
95C1
100
AcDbEntity
  8
0
100
AcDbBlockBegin
  2
ケース
 70
     0
 10
0.0
 20
0.0
 30
0.0
  3
ケース
  1

  0
LINE
  5
95C4
330
95C1
100
AcDbEntity
  8
AM_11 想像線
 48
0.1
100
AcDbLine
 10
-5.208127769830753
 20
-7.200000000000045
 30
0.0
 11
-4.708127769830753
 21
-7.700000000000045
 31
0.0
  0
LINE
  5
95C5
330
95C1
100
AcDbEntity
  8
AM_11 想像線
 48
0.1
100
AcDbLine
 10
0.0
 20
-6.5
 30
0.0
 11
-7.208127769830752
 21
-6.5
 31
0.0
  0
LINE
  5
95C6
330
95C1
100
AcDbEntity
  8
AM_11 想像線
 48
0.1
100
AcDbLine
 10
0.0
 20
-5.0
 30
0.0
 11
-5.208127769830753
 21
-5.0
 31
0.0
  0
LINE
  5
95C7
330
95C1
100
AcDbEntity
  8
AM_11 想像線
 48
0.1
100
AcDbLine
 10
0.0
 20
0.0
 30
0.0
 11
-17.20812776983075
 21
0.0
 31
0.0
  0
LINE
  5
95C8
330
95C1
100
AcDbEntity
  8
AM_11 想像線
 48
0.1
100
AcDbLine
 10
-18.00812776983071
 20
-5.800000000000012
 30
0.0
 11
-10.40812776983068
 21
-5.800000000000012
 31
0.0
  0
LINE
  5
95C9
330
95C1
100
AcDbEntity
  8
AM_11 想像線
 48
0.1
100
AcDbLine
 10
-18.00812776983071
 20
-10.5
 30
0.0
 11
-18.00812776983071
 21
-5.800000000000012
 31
0.0
  0
LINE
  5
95CA
330
95C1
100
AcDbEntity
  8
AM_11 想像線
 48
0.1
100
AcDbLine
 10
-20.20812776983075
 20
-3.0
 30
0.0
 11
-20.20812776983075
 21
-10.5
 31
0.0
  0
LINE
  5
95CB
330
95C1
100
AcDbEntity
  8
AM_11 想像線
 48
0.1
100
AcDbLine
 10
-20.20812776983075
 20
-9.5
 30
0.0
 11
-18.00812776983071
 21
-9.5
 31
0.0
  0
ARC
  5
95CC
102
{ACAD_REACTORS
330
9119
102
}
330
95C1
100
AcDbEntity
  8
AM_11 想像線
 48
0.1
100
AcDbCircle
 10
-17.20812776983075
 20
-3.0
 30
0.0
 40
3.0
100
AcDbArc
 50
90.0
 51
180.0
  0
LINE
  5
95CD
330
95C1
100
AcDbEntity
  8
AM_11 想像線
 48
0.1
100
AcDbLine
 10
-8.208127769830753
 20
-10.5
 30
0.0
 11
-8.208127769830753
 21
-5.5
 31
0.0
  0
LINE
  5
95CE
330
95C1
100
AcDbEntity
  8
AM_11 想像線
 48
0.1
100
AcDbLine
 10
-10.40812776983068
 20
-5.800000000000012
 30
0.0
 11
-10.40812776983068
 21
-10.5
 31
0.0
  0
LINE
  5
95CF
330
95C1
100
AcDbEntity
  8
AM_11 想像線
 48
0.1
100
AcDbLine
 10
-5.208127769830753
 20
-5.522266000000058
 30
0.0
 11
-5.208127769830753
 21
-7.200000000000045
 31
0.0
  0
LINE
  5
95D0
330
95C1
100
AcDbEntity
  8
AM_11 想像線
 48
0.1
100
AcDbLine
 10
-10.40812776983068
 20
-9.5
 30
0.0
 11
-8.208127769830753
 21
-9.5
 31
0.0
  0
ARC
  5
95D1
330
95C1
100
AcDbEntity
  8
AM_11 想像線
 48
0.1
100
AcDbCircle
 10
-6.208127769830752
 20
-5.5
 30
0.0
 40
1.0
100
AcDbArc
 50
0.0
 51
90.0
  0
LINE
  5
95D2
330
95C1
100
AcDbEntity
  8
AM_11 想像線
 48
0.1
100
AcDbLine
 10
-7.208127769830752
 20
-4.5
 30
0.0
 11
-6.208127769830752
 21
-4.5
 31
0.0
  0
ARC
  5
95D3
330
95C1
100
AcDbEntity
  8
AM_11 想像線
 48
0.1
100
AcDbCircle
 10
-7.208127769830752
 20
-5.5
 30
0.0
 40
1.0
100
AcDbArc
 50
90.0
 51
180.0
  0
LINE
  5
95D4
330
95C1
100
AcDbEntity
  8
AM_11 想像線
 48
0.1
100
AcDbLine
 10
-4.708127769830753
 20
-7.700000000000045
 30
0.0
 11
0.0
 21
-7.700000000000045
 31
0.0
  0
ENDBLK
  5
95C3
330
95C1
100
AcDbEntity
  8
0
100
AcDbBlockEnd
  0
ENDSEC
  0
SECTION
  2
ENTITIES
  0
LINE
  5
4596
330
1F
100
AcDbEntity
  8
AM_7 中心線
100
AcDbLine
 10
189.8138444810023
 20
333.8746412108901
 30
0.0
 11
415.8138444810023
 21
333.8746412108901
 31
0.0
  0
LINE
  5
45F6
330
1F
100
AcDbEntity
  8
AM_0 外形線1
100
AcDbLine
 10
223.8138444810023
 20
367.8523752108901
 30
0.0
 11
223.8138444810023
 21
367.8746412108901
 31
0.0
  0
LINE
  5
46F4
330
1F
100
AcDbEntity
  8
AM_0 外形線1
100
AcDbLine
 10
341.8138444810024
 20
387.3746412108901
 30
0.0
 11
341.8138444810023
 21
388.3746412108901
 31
0.0
  0
INSERT
  5
4D5B
102
{ACAD_REACTORS
330
5CAF
330
5CD9
330
5DC4
330
5E24
330
5E3C
102
}
330
1F
100
AcDbEntity
  8
AM_0 外形線1
100
AcDbBlockReference
  2
ケースＡ-1 SAM112
 10
356.8138444810024
 20
333.8746412108901
 30
0.0
  0
INSERT
  5
4F77
102
{ACAD_REACTORS
330
5B5A
330
5C97
330
5E3C
102
}
330
1F
100
AcDbEntity
  8
AM_0 外形線1
100
AcDbBlockReference
  2
センタ-1 SAM112
 10
360.8138444810024
 20
333.8746412108901
 30
0.0
  0
INSERT
  5
500D
102
{ACAD_REACTORS
330
5A93
330
5B01
330
5B19
330
5DF4
330
9119
102
}
330
1F
100
AcDbEntity
  8
AM_0 外形線1
100
AcDbBlockReference
  2
センタ-2 SAM112
 10
244.8138444810023
 20
333.8746412108901
 30
0.0
  0
INSERT
  5
522F
102
{ACAD_REACTORS
330
5B01
330
5D7C
330
5DDC
330
5DF4
102
}
330
1F
100
AcDbEntity
  8
AM_0 外形線1
100
AcDbBlockReference
  2
ケースＡ-2 SAM112
 10
248.8138444810023
 20
333.8746412108901
 30
0.0
  0
INSERT
  5
5706
330
1F
100
AcDbEntity
  8
AM_0 外形線1
100
AcDbBlockReference
  2
リーマボルト-1 SAM112 M6
 10
341.8138444810023
 20
383.3746412108901
 30
0.0
  0
INSERT
  5
5793
330
1F
100
AcDbEntity
  8
AM_0 外形線1
100
AcDbBlockReference
  2
リーマボルト-2 SAM112 M6
 10
263.8138444810023
 20
383.3746412108901
 30
0.0
  0
DIMENSION
  5
5A7C
102
{ACAD_XDICTIONARY
360
5A89
102
}
102
{ACAD_REACTORS
330
5A93
102
}
330
1F
100
AcDbEntity
  8
AM_5 寸法線
100
AcDbDimension
  2
*D14
 10
166.2691391059654
 20
304.8746412108901
 30
0.0
 11
161.3941391059654
 21
333.8746412108902
 31
0.0
 70
    32
  1
%%c<>
 71
     5
 42
58.0
 73
     0
 74
     0
 75
     0
  3
SEISA$0
100
AcDbAlignedDimension
 13
197.8138444810023
 23
362.8746412108901
 33
0.0
 14
197.8138444810023
 24
304.8746412108901
 34
0.0
 50
90.0
100
AcDbRotatedDimension
1001
ACAD_DSTYLE_DIMINSPECT
1070
   396
1000
100%
1070
   395
1000

1070
   394
1070
    33
1070
   393
1070
     0
  0
DIMENSION
  5
5AE6
102
{ACAD_XDICTIONARY
360
5AF5
102
}
102
{ACAD_REACTORS
330
5B01
102
}
330
1F
100
AcDbEntity
  8
AM_5 寸法線
100
AcDbDimension
  2
*D15
 10
220.8138444810023
 20
353.5149378115475
 30
0.0
 11
209.4888444810024
 21
358.3899378115475
 31
0.0
 70
    32
 71
     5
 42
2.0
 73
     0
 74
     0
 75
     0
  3
SEISA$0
100
AcDbAlignedDimension
 13
222.8138444810023
 23
363.3746412108901
 33
0.0
 14
220.8138444810023
 24
362.8746412108901
 34
0.0
100
AcDbRotatedDimension
1001
ACAD
1000
DSTYLE
1002
{
1070
   344
1005
69
1070
   342
1005
0
1070
   173
1070
     1
1070
   343
1005
6FD8
1002
}
  0
DIMENSION
  5
5B02
102
{ACAD_XDICTIONARY
360
5B0F
102
}
102
{ACAD_REACTORS
330
5B19
102
}
330
1F
100
AcDbEntity
  8
AM_5 寸法線
100
AcDbDimension
  2
*D16
 10
194.8138444810023
 20
336.7168653809386
 30
0.0
 11
219.8138444810023
 21
341.5918653809385
 31
0.0
 70
    32
 71
     5
 42
50.0
 73
     0
 74
     0
 75
     0
  3
SEISA$0
100
AcDbAlignedDimension
 13
244.8138444810023
 23
333.8746412108901
 33
0.0
 14
194.8138444810023
 24
333.8746412108901
 34
0.0
100
AcDbRotatedDimension
  0
DIMENSION
  5
5B43
102
{ACAD_XDICTIONARY
360
5B50
102
}
102
{ACAD_REACTORS
330
5B5A
102
}
330
1F
100
AcDbEntity
  8
AM_5 寸法線
100
AcDbDimension
  2
*D17
 10
360.8138444810024
 20
336.7168653809386
 30
0.0
 11
385.8138444810024
 21
341.5918653809385
 31
0.0
 70
    32
 71
     5
 42
50.0
 73
     0
 74
     0
 75
     0
  3
SEISA$0
100
AcDbAlignedDimension
 13
410.8138444810021
 23
333.8746412108901
 33
0.0
 14
360.8138444810024
 24
333.8746412108901
 34
0.0
100
AcDbRotatedDimension
  0
DIMENSION
  5
5C80
102
{ACAD_XDICTIONARY
360
5C8D
102
}
102
{ACAD_REACTORS
330
5C97
102
}
330
1F
100
AcDbEntity
  8
AM_5 寸法線
100
AcDbDimension
  2
*D18
 10
448.3138444810021
 20
304.8746412108901
 30
0.0
 11
443.4388444810021
 21
333.8746412108902
 31
0.0
 70
    32
  1
%%c<>
 71
     5
 42
58.0
 73
     0
 74
     0
 75
     0
  3
SEISA$0
100
AcDbAlignedDimension
 13
407.8138444810023
 23
362.8746412108901
 33
0.0
 14
407.8138444810023
 24
304.8746412108901
 34
0.0
 50
90.0
100
AcDbRotatedDimension
1001
ACAD_DSTYLE_DIMINSPECT
1070
   396
1000
100%
1070
   395
1000

1070
   394
1070
    33
1070
   393
1070
     0
  0
DIMENSION
  5
5C98
102
{ACAD_XDICTIONARY
360
5CA5
102
}
102
{ACAD_REACTORS
330
5CAF
102
}
330
1F
100
AcDbEntity
  8
AM_5 寸法線
100
AcDbDimension
  2
*D19
 10
463.3138444810024
 20
294.3746412108901
 30
0.0
 11
458.4388444810024
 21
333.8746412108902
 31
0.0
 70
    32
  1
%%c<>
 71
     5
 42
79.0
 73
     0
 74
     0
 75
     0
  3
SEISA$0
100
AcDbAlignedDimension
 13
393.8138444810024
 23
373.3746412108901
 33
0.0
 14
393.8138444810024
 24
294.3746412108901
 34
0.0
 50
90.0
100
AcDbRotatedDimension
1001
ACAD_DSTYLE_DIMINSPECT
1070
   396
1000
100%
1070
   395
1000

1070
   394
1070
    33
1070
   393
1070
     0
  0
DIMENSION
  5
5CC2
102
{ACAD_XDICTIONARY
360
5CCF
102
}
102
{ACAD_REACTORS
330
5CD9
102
}
330
1F
100
AcDbEntity
  8
AM_5 寸法線
100
AcDbDimension
  2
*D20
 10
478.3138444810023
 20
277.87464121089
 30
0.0
 11
473.4388444810021
 21
333.87464121089
 31
0.0
 70
    32
  1
%%c<>
 71
     5
 42
112.0
 73
     0
 74
     0
 75
     0
  3
SEISA$0
100
AcDbAlignedDimension
 13
371.6138444810023
 23
389.8746412108901
 33
0.0
 14
371.6138444810022
 24
277.8746412108901
 34
0.0
 50
90.0
100
AcDbRotatedDimension
1001
ACAD_DSTYLE_DIMINSPECT
1070
   396
1000
100%
1070
   395
1000

1070
   394
1070
    33
1070
   393
1070
     0
  0
DIMENSION
  5
5D65
102
{ACAD_XDICTIONARY
360
5D72
102
}
102
{ACAD_REACTORS
330
5D7C
102
}
330
1F
100
AcDbEntity
  8
AM_5 寸法線
100
AcDbDimension
  2
*D21
 10
233.8138444810023
 20
255.3746412108901
 30
0.0
 11
241.3138444810023
 21
260.2496412108901
 31
0.0
 70
    32
 71
     5
 42
15.0
 73
     0
 74
     0
 75
     0
  3
SEISA$0
100
AcDbAlignedDimension
 13
248.8138444810023
 23
278.07464121089
 33
0.0
 14
233.8138444810023
 24
278.07464121089
 34
0.0
100
AcDbRotatedDimension
  0
DIMENSION
  5
5DAD
102
{ACAD_XDICTIONARY
360
5DBA
102
}
102
{ACAD_REACTORS
330
5DC4
102
}
330
1F
100
AcDbEntity
  8
AM_5 寸法線
100
AcDbDimension
  2
*D22
 10
371.8138444810024
 20
255.3746412108901
 30
0.0
 11
364.3138444810024
 21
260.2496412108901
 31
0.0
 70
    32
 71
     5
 42
15.0
 73
     0
 74
     0
 75
     0
  3
SEISA$0
100
AcDbAlignedDimension
 13
356.8138444810024
 23
278.07464121089
 33
0.0
 14
371.8138444810024
 24
278.07464121089
 34
0.0
100
AcDbRotatedDimension
  0
DIMENSION
  5
5DC5
102
{ACAD_XDICTIONARY
360
5DD2
102
}
102
{ACAD_REACTORS
330
5DDC
102
}
330
1F
100
AcDbEntity
  8
AM_5 寸法線
100
AcDbDimension
  2
*D23
 10
208.8138444810023
 20
240.3746412108901
 30
0.0
 11
228.8138444810023
 21
245.24964121089
 31
0.0
 70
    32
 71
     5
 42
40.0
 73
     0
 74
     0
 75
     0
  3
SEISA$0
100
AcDbAlignedDimension
 13
248.8138444810023
 23
278.07464121089
 33
0.0
 14
208.8138444810023
 24
297.3746412108901
 34
0.0
100
AcDbRotatedDimension
  0
DIMENSION
  5
5DDD
102
{ACAD_XDICTIONARY
360
5DEA
102
}
102
{ACAD_REACTORS
330
5DF4
102
}
330
1F
100
AcDbEntity
  8
AM_5 寸法線
100
AcDbDimension
  2
*D24
 10
194.8138444810023
 20
240.3746412108901
 30
0.0
 11
201.8138444810023
 21
245.24964121089
 31
0.0
 70
    32
 71
     5
 42
14.0
 73
     0
 74
     0
 75
     0
  3
SEISA$0
100
AcDbAlignedDimension
 13
208.8138444810023
 23
297.3746412108901
 33
0.0
 14
194.8138444810023
 24
307.8746412108901
 34
0.0
100
AcDbRotatedDimension
  0
DIMENSION
  5
5E0D
102
{ACAD_XDICTIONARY
360
5E1A
102
}
102
{ACAD_REACTORS
330
5E24
102
}
330
1F
100
AcDbEntity
  8
AM_5 寸法線
100
AcDbDimension
  2
*D25
 10
396.8138444810024
 20
240.3746412108901
 30
0.0
 11
376.8138444810024
 21
245.24964121089
 31
0.0
 70
    32
 71
     5
 42
40.0
 73
     0
 74
     0
 75
     0
  3
SEISA$0
100
AcDbAlignedDimension
 13
356.8138444810024
 23
278.07464121089
 33
0.0
 14
396.8138444810024
 24
297.3746412108901
 34
0.0
100
AcDbRotatedDimension
  0
DIMENSION
  5
5E25
102
{ACAD_XDICTIONARY
360
5E32
102
}
102
{ACAD_REACTORS
330
5E3C
102
}
330
1F
100
AcDbEntity
  8
AM_5 寸法線
100
AcDbDimension
  2
*D26
 10
410.8138444810021
 20
240.3746412108901
 30
0.0
 11
403.8138444810023
 21
245.24964121089
 31
0.0
 70
    32
 71
     5
 42
14.0
 73
     0
 74
     0
 75
     0
  3
SEISA$0
100
AcDbAlignedDimension
 13
396.8138444810024
 23
297.3746412108901
 33
0.0
 14
410.8138444810021
 24
307.8746412108901
 34
0.0
100
AcDbRotatedDimension
  0
INSERT
  5
7B1A
102
{ACAD_REACTORS
330
7E14
330
7E3E
330
927C
330
9412
102
}
330
1F
100
AcDbEntity
  8
AM_0 外形線1
100
AcDbBlockReference
  2
ＧＣスペーサ SAMY112
 10
264.8102391403936
 20
333.8746412108901
 30
0.0
  0
DIMENSION
  5
7E06
102
{ACAD_XDICTIONARY
360
7E13
102
}
102
{ACAD_REACTORS
330
7E14
102
}
330
1F
100
AcDbEntity
  8
AM_5 寸法線
100
AcDbDimension
  2
*D29
 10
263.8138444810022
 20
255.37464121089
 30
0.0
 11
256.3138444810022
 21
260.24964121089
 31
0.0
 70
    32
 71
     5
 42
14.99999999999991
 73
     0
 74
     0
 75
     0
  3
SEISA$0
100
AcDbAlignedDimension
 13
248.8138444810023
 23
278.3746412108903
 33
0.0
 14
263.8138444810022
 24
278.8746412108902
 34
0.0
100
AcDbRotatedDimension
1001
ACAD_DSTYLE_DIMINSPECT
1070
   396
1000
100%
1070
   395
1000

1070
   394
1070
    33
1070
   393
1070
     0
  0
DIMENSION
  5
7E30
102
{ACAD_XDICTIONARY
360
7E3D
102
}
102
{ACAD_REACTORS
330
7E3E
102
}
330
1F
100
AcDbEntity
  8
AM_5 寸法線
100
AcDbDimension
  2
*D30
 10
341.8138444810019
 20
255.3746412108899
 30
0.0
 11
349.3138444810019
 21
260.2496412108899
 31
0.0
 70
    32
 71
     5
 42
14.99999999999983
 73
     0
 74
     0
 75
     0
  3
SEISA$0
100
AcDbAlignedDimension
 13
356.8138444810017
 23
278.3746412108903
 33
0.0
 14
341.8138444810019
 24
278.8746412108902
 34
0.0
100
AcDbRotatedDimension
1001
ACAD_DSTYLE_DIMINSPECT
1070
   396
1000
100%
1070
   395
1000

1070
   394
1070
    33
1070
   393
1070
     0
  0
MTEXT
  5
90CA
330
1F
100
AcDbEntity
  8
AM_6 文字
100
AcDbMText
 10
423.6784520035119
 20
266.8786258251806
 30
0.0
 40
5.25
 41
108.5360962537228
 46
27.66929097590912
 71
     1
 72
     5
  1
{\W0.6;TYPE:SAM112/SAMH112\PSHAFT DIA:MAX/MIN φ40/φ17}
  7
SEISA
 73
     1
 44
1.0
  0
DIMENSION
  5
910B
102
{ACAD_XDICTIONARY
360
9118
102
}
102
{ACAD_REACTORS
330
9119
102
}
330
1F
100
AcDbEntity
  8
AM_5 寸法線
100
AcDbDimension
  2
*D31
 10
180.8138444810019
 20
392.8746412108901
 30
0.0
 11
187.8138444810021
 21
397.7496412108901
 31
0.0
 70
    32
 71
     5
 42
14.00000000000034
 73
     0
 74
     0
 75
     0
  3
SEISA$0
100
AcDbAlignedDimension
 13
194.8138444810023
 23
359.8746412108901
 33
0.0
 14
180.8138444810019
 24
370.3746412108901
 34
0.0
100
AcDbRotatedDimension
1001
ACAD_DSTYLE_DIMINSPECT
1070
   396
1000
100%
1070
   395
1000

1070
   394
1070
    33
1070
   393
1070
     0
  0
DIMENSION
  5
926C
102
{ACAD_XDICTIONARY
360
927B
102
}
102
{ACAD_REACTORS
330
927C
102
}
330
1F
100
AcDbEntity
  8
AM_5 寸法線
100
AcDbDimension
  2
*D32
 10
244.8138444810023
 20
342.5522582050329
 30
0.0
 11
261.6503958370461
 21
340.9272581943942
 31
0.0
 70
   160
 71
     5
 42
3.999999999999971
 73
     0
 74
     0
 75
     0
  3
SEISA$0
100
AcDbAlignedDimension
 13
248.8138444810023
 23
371.8746412108902
 33
0.0
 14
244.8138444810023
 24
353.5149378115476
 34
0.0
 50
0.0000000000001132
100
AcDbRotatedDimension
1001
ACAD_DSTYLE_DIMINSPECT
1070
   396
1000
100%
1070
   395
1000

1070
   394
1070
    33
1070
   393
1070
     0
1001
ACAD
1000
DSTYLE
1002
{
1070
   279
1070
     1
1002
}
  0
DIMENSION
  5
92E9
330
1F
100
AcDbEntity
  8
AM_5 寸法線
100
AcDbDimension
  2
*D34
 10
233.8138444810023
 20
353.5149378115478
 30
0.0
 11
228.3138444810023
 21
358.3899378115478
 31
0.0
 70
    32
 71
     5
 42
11.0
 73
     0
 74
     0
 75
     0
  3
SEISA$0
100
AcDbAlignedDimension
 13
222.8138444810023
 23
363.3746412108901
 33
0.0
 14
233.8138444810023
 24
363.3746412108901
 34
0.0
100
AcDbRotatedDimension
1001
ACAD_DSTYLE_DIMINSPECT
1070
   396
1000
100%
1070
   395
1000

1070
   394
1070
    33
1070
   393
1070
     0
1001
ACAD
1000
DSTYLE
1002
{
1070
   343
1005
6FD8
1070
   342
1005
0
1070
   173
1070
     1
1070
   344
1005
6FD8
1002
}
  0
DIMENSION
  5
92EC
330
1F
100
AcDbEntity
  8
AM_5 寸法線
100
AcDbDimension
  2
*D33
 10
244.8138444810023
 20
353.5149378115476
 30
0.0
 11
237.4388444810023
 21
358.3899378115476
 31
0.0
 70
    32
 71
     5
 42
11.0
 73
     0
 74
     0
 75
     1
  3
SEISA$0
100
AcDbAlignedDimension
 13
233.8138444810023
 23
363.3746412108901
 33
0.0
 14
244.8138444810023
 24
362.4801112108901
 34
0.0
100
AcDbRotatedDimension
1001
ACAD_DSTYLE_DIMINSPECT
1070
   396
1000
100%
1070
   395
1000

1070
   394
1070
    33
1070
   393
1070
     0
1001
ACAD
1000
DSTYLE
1002
{
1070
   343
1005
6FD8
1070
   342
1005
0
1070
   173
1070
     1
1070
   344
1005
69
1002
}
  0
DIMENSION
  5
9402
102
{ACAD_XDICTIONARY
360
9411
102
}
102
{ACAD_REACTORS
330
9412
102
}
330
1F
100
AcDbEntity
  8
AM_5 寸法線
100
AcDbDimension
  2
*D35
 10
360.8138444810024
 20
342.5522582050329
 30
0.0
 11
344.0770262654766
 21
348.1696251290111
 31
0.0
 70
   160
 71
     5
 42
4.000000000000453
 73
     0
 74
     0
 75
     0
  3
SEISA$0
100
AcDbAlignedDimension
 13
356.8138444810019
 23
371.8746412108903
 33
0.0
 14
360.8138444810024
 24
362.4801112108901
 34
0.0
 50
0.0000000000001132
100
AcDbRotatedDimension
1001
ACAD_DSTYLE_DIMINSPECT
1070
   396
1000
100%
1070
   395
1000

1070
   394
1070
    33
1070
   393
1070
     0
1001
ACAD
1000
DSTYLE
1002
{
1070
   279
1070
     1
1002
}
  0
INSERT
  5
95D5
330
1F
100
AcDbEntity
  8
AM_11 想像線
100
AcDbBlockReference
  2
ケース
 10
201.0219722508327
 20
373.3746412108901
 30
0.0
  0
ENDSEC
  0
SECTION
  2
OBJECTS
  0
DICTIONARY
  5
C
330
0
100
AcDbDictionary
281
     1
  3
ACAD_COLOR
350
C5
  3
ACAD_GROUP
350
D
  3
ACAD_LAYOUT
350
1A
  3
ACAD_MATERIAL
350
C4
  3
ACAD_MLEADERSTYLE
350
2D5
  3
ACAD_MLINESTYLE
350
17
  3
ACAD_PLOTSETTINGS
350
19
  3
ACAD_PLOTSTYLENAME
350
E
  3
ACAD_SCALELIST
350
2B3
  3
ACAD_TABLESTYLE
350
121
  3
ACAD_VISUALSTYLE
350
27F
  3
ACDB_RECOMPOSE_DATA
350
2F7
  3
AcDbVariableDictionary
350
34
  3
AcmDictionary
350
49
  3
AMG
350
2B
  3
AMGSNAPSETTINGS
350
1DE
  0
DICTIONARY
  5
BF
330
2
100
AcDbDictionary
280
     1
281
     1
  3
ACAD_LAYERSTATES
360
2DF2
  3
AMLAYER_GROUPCOLORS
360
C0
  0
DICTIONARY
  5
29F7
330
10
100
AcDbDictionary
280
     1
281
     1
  3
ADSK_XREC_LAYER_RECONCILED
360
29F8
  0
DICTIONARY
  5
29F9
330
81
100
AcDbDictionary
280
     1
281
     1
  3
ADSK_XREC_LAYER_RECONCILED
360
29FA
  0
DICTIONARY
  5
2DE8
330
2DE7
100
AcDbDictionary
280
     1
281
     1
  0
DICTIONARY
  5
82
330
1F
100
AcDbDictionary
280
     1
281
     1
  3
ACAD_SORTENTS
360
A41
  0
DICTIONARY
  5
3ACE
330
3ACD
100
AcDbDictionary
280
     1
281
     1
  3
ACAD_SORTENTS
360
6A4E
  0
DICTIONARY
  5
6A70
330
3CFF
100
AcDbDictionary
280
     1
281
     1
  3
ACAD_SORTENTS
360
6A71
  0
DICTIONARY
  5
4DC7
330
4D25
100
AcDbDictionary
280
     1
281
     1
  3
ACAD_SORTENTS
360
6AE4
  0
DICTIONARY
  5
4EFB
330
4E58
100
AcDbDictionary
280
     1
281
     1
  3
ACAD_SORTENTS
360
6B57
  0
DICTIONARY
  5
4FB8
330
4F5E
100
AcDbDictionary
280
     1
281
     1
  3
ACAD_SORTENTS
360
94DC
  0
DICTIONARY
  5
5040
330
4FF3
100
AcDbDictionary
280
     1
281
     1
  3
ACAD_SORTENTS
360
9509
  0
DICTIONARY
  5
575F
330
56DD
100
AcDbDictionary
280
     1
281
     1
  3
ACAD_SORTENTS
360
6D06
  0
DICTIONARY
  5
57EE
330
5769
100
AcDbDictionary
280
     1
281
     1
  3
ACAD_SORTENTS
360
6D63
  0
DICTIONARY
  5
7C11
330
7A9E
100
AcDbDictionary
280
     1
281
     1
  3
ACAD_SORTENTS
360
970F
  0
DICTIONARY
  5
5A89
330
5A7C
100
AcDbDictionary
280
     1
281
     1
  3
ACAD_DIMASSOC
360
5A93
  0
DICTIONARY
  5
5AF5
330
5AE6
100
AcDbDictionary
280
     1
281
     1
  3
ACAD_DIMASSOC
360
5B01
  0
DICTIONARY
  5
5B0F
330
5B02
100
AcDbDictionary
280
     1
281
     1
  3
ACAD_DIMASSOC
360
5B19
  0
DICTIONARY
  5
5B50
330
5B43
100
AcDbDictionary
280
     1
281
     1
  3
ACAD_DIMASSOC
360
5B5A
  0
DICTIONARY
  5
5C8D
330
5C80
100
AcDbDictionary
280
     1
281
     1
  3
ACAD_DIMASSOC
360
5C97
  0
DICTIONARY
  5
5CA5
330
5C98
100
AcDbDictionary
280
     1
281
     1
  3
ACAD_DIMASSOC
360
5CAF
  0
DICTIONARY
  5
5CCF
330
5CC2
100
AcDbDictionary
280
     1
281
     1
  3
ACAD_DIMASSOC
360
5CD9
  0
DICTIONARY
  5
5D72
330
5D65
100
AcDbDictionary
280
     1
281
     1
  3
ACAD_DIMASSOC
360
5D7C
  0
DICTIONARY
  5
5DBA
330
5DAD
100
AcDbDictionary
280
     1
281
     1
  3
ACAD_DIMASSOC
360
5DC4
  0
DICTIONARY
  5
5DD2
330
5DC5
100
AcDbDictionary
280
     1
281
     1
  3
ACAD_DIMASSOC
360
5DDC
  0
DICTIONARY
  5
5DEA
330
5DDD
100
AcDbDictionary
280
     1
281
     1
  3
ACAD_DIMASSOC
360
5DF4
  0
DICTIONARY
  5
5E1A
330
5E0D
100
AcDbDictionary
280
     1
281
     1
  3
ACAD_DIMASSOC
360
5E24
  0
DICTIONARY
  5
5E32
330
5E25
100
AcDbDictionary
280
     1
281
     1
  3
ACAD_DIMASSOC
360
5E3C
  0
DICTIONARY
  5
7E13
330
7E06
100
AcDbDictionary
280
     1
281
     1
  3
ACAD_DIMASSOC
360
7E14
  0
DICTIONARY
  5
7E3D
330
7E30
100
AcDbDictionary
280
     1
281
     1
  3
ACAD_DIMASSOC
360
7E3E
  0
DICTIONARY
  5
9118
330
910B
100
AcDbDictionary
280
     1
281
     1
  3
ACAD_DIMASSOC
360
9119
  0
DICTIONARY
  5
927B
330
926C
100
AcDbDictionary
280
     1
281
     1
  3
ACAD_DIMASSOC
360
927C
  0
DICTIONARY
  5
9411
330
9402
100
AcDbDictionary
280
     1
281
     1
  3
ACAD_DIMASSOC
360
9412
  0
DICTIONARY
  5
C5
102
{ACAD_REACTORS
330
C
102
}
330
C
100
AcDbDictionary
281
     1
  0
DICTIONARY
  5
D
102
{ACAD_REACTORS
330
C
102
}
330
C
100
AcDbDictionary
281
     1
  0
DICTIONARY
  5
1A
102
{ACAD_REACTORS
330
C
102
}
330
C
100
AcDbDictionary
281
     1
  3
Model
350
22
  3
レイアウト1
350
1E
  3
レイアウト2
350
26
  0
DICTIONARY
  5
C4
102
{ACAD_REACTORS
330
C
102
}
330
C
100
AcDbDictionary
281
     1
  3
ByBlock
350
27D
  3
ByLayer
350
27C
  3
Global
350
27E
  0
DICTIONARY
  5
2D5
102
{ACAD_REACTORS
330
C
102
}
330
C
100
AcDbDictionary
281
     1
  3
Standard
350
2D6
  0
DICTIONARY
  5
17
102
{ACAD_REACTORS
330
C
102
}
330
C
100
AcDbDictionary
281
     1
  3
Standard
350
18
  0
DICTIONARY
  5
19
102
{ACAD_REACTORS
330
C
102
}
330
C
100
AcDbDictionary
281
     1
  3
SEISA基本
350
1C7E
  0
ACDBDICTIONARYWDFLT
  5
E
102
{ACAD_REACTORS
330
C
102
}
330
C
100
AcDbDictionary
281
     1
  3
Normal
350
F
100
AcDbDictionaryWithDefault
340
F
  0
DICTIONARY
  5
2B3
102
{ACAD_REACTORS
330
C
102
}
330
C
100
AcDbDictionary
281
     1
  3
*A1
350
2A04
  3
A0
350
2B4
  3
A1
350
2B5
  3
A2
350
2B6
  3
A3
350
2B7
  3
A4
350
2B8
  3
A5
350
2B9
  3
A6
350
2BA
  3
A7
350
2BB
  3
A8
350
2BC
  3
A9
350
2BD
  3
B0
350
2BE
  3
B1
350
2BF
  3
B2
350
2C0
  3
B3
350
2C1
  3
B4
350
2C2
  3
B5
350
2C3
  3
B6
350
2C4
  3
B7
350
2C5
  3
B8
350
2C6
  3
B9
350
2C7
  3
C0
350
2C8
  3
C1
350
2C9
  3
C2
350
2CA
  3
C3
350
2CB
  3
C4
350
2CC
  3
C5
350
2CD
  3
C6
350
2CE
  3
C7
350
2CF
  3
C8
350
2D0
  3
C9
350
2D1
  3
D0
350
2D2
  3
D1
350
2D3
  3
D2
350
2D4
  0
DICTIONARY
  5
121
102
{ACAD_REACTORS
330
C
102
}
330
C
100
AcDbDictionary
281
     1
  3
Standard
350
122
  0
DICTIONARY
  5
27F
102
{ACAD_REACTORS
330
C
102
}
330
C
100
AcDbDictionary
281
     1
  3
2dWireframe
350
285
  3
3D Hidden
350
287
  3
3dWireframe
350
286
  3
Basic
350
284
  3
Brighten
350
28B
  3
ColorChange
350
28F
  3
Conceptual
350
288
  3
Dim
350
28A
  3
Facepattern
350
28E
  3
Flat
350
280
  3
FlatWithEdges
350
281
  3
Gouraud
350
282
  3
GouraudWithEdges
350
283
  3
Linepattern
350
28D
  3
Realistic
350
289
  3
Thicken
350
28C
  0
XRECORD
  5
2F7
102
{ACAD_REACTORS
330
C
102
}
330
C
100
AcDbXrecord
280
     1
 90
        1
330
122
  0
DICTIONARY
  5
34
102
{ACAD_REACTORS
330
C
102
}
330
C
100
AcDbDictionary
281
     1
  3
CANNOSCALE
350
2FA
  3
CMLEADERSTYLE
350
2F8
  3
CTABLESTYLE
350
140
  3
DIMASSOC
350
AC
  3
INDEXCTL
350
35
  3
LAYEREVAL
350
6E43
  3
LAYERNOTIFY
350
6E44
  3
LIGHTINGUNITS
350
2FB
  3
MSLTSCALE
350
2F9
  0
DICTIONARY
  5
49
102
{ACAD_REACTORS
330
C
102
}
330
C
100
AcDbDictionary
281
     1
  3
AcmBOM
350
161B
  3
AcmStdDictionary
350
4A
  3
AMDTSECTSYM_ARROWCOLOR
350
12B
  0
DICTIONARY
  5
2B
102
{ACAD_REACTORS
330
C
102
}
330
C
100
AcDbDictionary
281
     1
  0
DICTIONARY
  5
1DE
102
{ACAD_REACTORS
330
C
102
}
330
C
100
AcDbDictionary
281
     1
  0
DICTIONARY
  5
2DF2
102
{ACAD_REACTORS
330
BF
102
}
330
BF
100
AcDbDictionary
281
     1
  0
DICTIONARY
  5
C0
102
{ACAD_REACTORS
330
BF
102
}
330
BF
100
AcDbDictionary
280
     1
281
     1
  0
XRECORD
  5
29F8
102
{ACAD_REACTORS
330
29F7
102
}
330
29F7
100
AcDbXrecord
280
     1
290
     1
  0
XRECORD
  5
29FA
102
{ACAD_REACTORS
330
29F9
102
}
330
29F9
100
AcDbXrecord
280
     1
290
     1
  0
SORTENTSTABLE
  5
A41
102
{ACAD_REACTORS
330
82
102
}
330
82
100
AcDbSortentsTable
330
1F
331
46F4
  5
4701
331
5E0D
  5
5E59
331
522F
  5
5869
331
7E06
  5
7E06
331
45F6
  5
4656
331
4F77
  5
55FE
331
5B02
  5
5B63
331
5D65
  5
5DAD
331
4D5B
  5
54E9
331
5C80
  5
5D65
331
90CA
  5
90CA
331
5DDD
  5
5E25
331
5706
  5
5878
331
5DAD
  5
5DF5
331
5E25
  5
5E79
331
5793
  5
587D
331
7E30
  5
7E30
331
5C98
  5
5D7D
331
4596
  5
4596
331
500D
  5
5706
331
5CC2
  5
5D95
331
5A7C
  5
5B02
331
5DC5
  5
5E0D
331
7B1A
  5
7B1A
331
5B43
  5
5C25
331
5AE6
  5
5B43
  0
SORTENTSTABLE
  5
6A4E
102
{ACAD_REACTORS
330
3ACE
102
}
330
3ACE
100
AcDbSortentsTable
330
3ACD
  0
SORTENTSTABLE
  5
6A71
102
{ACAD_REACTORS
330
6A70
102
}
330
6A70
100
AcDbSortentsTable
330
3CFF
  0
SORTENTSTABLE
  5
6AE4
102
{ACAD_REACTORS
330
4DC7
102
}
330
4DC7
100
AcDbSortentsTable
330
4D25
331
4D49
  5
4D4A
331
4D46
  5
4D47
331
4D57
  5
4D58
331
4D54
  5
4D55
331
4D43
  5
4D44
331
4D51
  5
4D52
331
4D4D
  5
4D4E
331
4D58
  5
4D59
331
4D4A
  5
4D4B
331
4D47
  5
4D48
331
4D44
  5
4D45
331
4D55
  5
4D56
331
4D52
  5
4D53
331
4D4E
  5
4D4F
331
4D59
  5
4D5A
331
4D4B
  5
4D4C
331
4D48
  5
4D49
331
4DC6
  5
4D42
331
4D45
  5
4D46
331
4D56
  5
4D57
331
4D53
  5
4D54
331
4D42
  5
4D43
331
4D4F
  5
4D50
331
4D5A
  5
4DC6
331
4D4C
  5
4D4D
331
4D50
  5
4D51
  0
SORTENTSTABLE
  5
6B57
102
{ACAD_REACTORS
330
4EFB
102
}
330
4EFB
100
AcDbSortentsTable
330
4E58
  0
SORTENTSTABLE
  5
94DC
102
{ACAD_REACTORS
330
4FB8
102
}
330
4FB8
100
AcDbSortentsTable
330
4F5E
331
4F70
  5
4F72
331
4F6F
  5
4F71
331
4F6E
  5
4F70
331
4F6D
  5
4F6F
331
4F6C
  5
4F6E
331
4F6B
  5
4F6D
331
4F68
  5
4F6C
331
4F67
  5
4F6B
331
4F76
  5
93C7
331
93C7
  5
4F62
331
4F65
  5
4F68
331
4F64
  5
4F67
331
4F74
  5
93C6
331
93C6
  5
4F63
331
4F73
  5
4F76
331
4F63
  5
4F65
331
4F62
  5
4F64
331
4F72
  5
4F74
331
4F71
  5
4F73
  0
SORTENTSTABLE
  5
9509
102
{ACAD_REACTORS
330
5040
102
}
330
5040
100
AcDbSortentsTable
330
4FF3
331
5005
  5
5007
331
5004
  5
5006
331
5002
  5
5005
331
5000
  5
5004
331
4FFE
  5
5002
331
4FFD
  5
5000
331
500C
  5
926A
331
4FFB
  5
4FFE
331
500B
  5
9269
331
926A
  5
4FF8
331
500A
  5
500C
331
9269
  5
4FF7
331
4FFA
  5
4FFD
331
5009
  5
500B
331
5008
  5
500A
331
4FF8
  5
4FFB
331
4FF7
  5
4FFA
331
5007
  5
5009
331
5006
  5
5008
  0
SORTENTSTABLE
  5
6D06
102
{ACAD_REACTORS
330
575F
102
}
330
575F
100
AcDbSortentsTable
330
56DD
331
5700
  5
5701
331
56F1
  5
56F2
331
575B
  5
575C
331
56EC
  5
56ED
331
6D05
  5
56E0
331
56E7
  5
56E8
331
56FC
  5
56FD
331
56E2
  5
56E3
331
56F7
  5
56F8
331
56F2
  5
56F3
331
5701
  5
5702
331
56ED
  5
56EE
331
575C
  5
575D
331
56E8
  5
56E9
331
56FD
  5
56FE
331
56E3
  5
56E4
331
56F8
  5
56F9
331
5702
  5
5703
331
56F3
  5
56F4
331
575D
  5
575E
331
56EE
  5
56EF
331
56E9
  5
56EA
331
56FE
  5
56FF
331
56E4
  5
56E5
331
56F9
  5
56FA
331
56F4
  5
56F6
331
5703
  5
5704
331
56EF
  5
56F0
331
575E
  5
6D05
331
56EA
  5
56EB
331
56FF
  5
5700
331
56E5
  5
56E6
331
56FA
  5
56FB
331
5704
  5
5705
331
56E0
  5
56E1
331
56F0
  5
56F1
331
56EB
  5
56EC
331
56E6
  5
56E7
331
56FB
  5
56FC
331
56E1
  5
56E2
331
56F6
  5
56F7
331
5705
  5
575B
  0
SORTENTSTABLE
  5
6D63
102
{ACAD_REACTORS
330
57EE
102
}
330
57EE
100
AcDbSortentsTable
330
5769
  0
SORTENTSTABLE
  5
970F
102
{ACAD_REACTORS
330
7C11
102
}
330
7C11
100
AcDbSortentsTable
330
7A9E
331
7AF6
  5
7AF8
331
7AF7
  5
7AF9
331
7AA8
  5
7AAA
331
7AA9
  5
7AAB
331
7AAA
  5
7AAC
331
7AAB
  5
7AAD
331
7AAC
  5
7AAE
331
7AC7
  5
7ADB
331
7AAD
  5
7AAF
331
7AAE
  5
7AB0
331
7AAF
  5
7AB1
331
7AB0
  5
7AB2
331
7AB1
  5
7AB3
331
7AB2
  5
7AB4
331
7AB3
  5
7AC7
331
7AB4
  5
7ADA
331
7AF8
  5
7AFA
331
7AF9
  5
7AFB
331
7AFA
  5
7AFC
331
7AFB
  5
7AFD
331
7AFC
  5
7AFE
331
7AFD
  5
7AFF
331
7AFE
  5
7B00
331
7AFF
  5
7B01
331
7B00
  5
7B02
331
7B01
  5
7B03
331
7B02
  5
7B04
331
7B03
  5
7B05
331
7B04
  5
7B06
331
7B05
  5
7B07
331
7B06
  5
7B08
331
7B07
  5
7B09
331
7B08
  5
7B0A
331
7B09
  5
7B0B
331
7B0A
  5
7B0C
331
7B0B
  5
7B0D
331
7ADA
  5
7ADC
331
7B0C
  5
7B0E
331
7B0D
  5
7B0F
331
7ADB
  5
7ADD
331
7ADC
  5
7ADE
331
7B0E
  5
7E03
331
7B0F
  5
7E04
331
7ADD
  5
7ADF
331
7ADE
  5
7AE0
331
7ADF
  5
7AE1
331
7AE0
  5
7AE2
331
7AA3
  5
7AA4
331
7AA4
  5
7AA6
331
7AE1
  5
7AE3
331
7E03
  5
7AA3
331
7AE2
  5
7AE4
331
7E04
  5
7AA8
331
7AA6
  5
7AA7
331
7AE3
  5
7AE5
331
7AE4
  5
7AE6
331
7AA7
  5
7AA9
331
7AE5
  5
7AE7
331
7AE6
  5
7AE8
331
7AE7
  5
7AE9
331
7AE8
  5
7AEA
331
7AE9
  5
7AEB
331
7AEA
  5
7AEC
331
7AEB
  5
7AED
331
7AEC
  5
7AEE
331
7AED
  5
7AEF
331
7AEE
  5
7AF0
331
7AEF
  5
7AF2
331
7AF0
  5
7AF3
331
7AF2
  5
7AF4
331
7AF3
  5
7AF5
331
7AF4
  5
7AF6
331
7AF5
  5
7AF7
  0
DIMASSOC
  5
5A93
102
{ACAD_REACTORS
330
5A89
102
}
330
5A89
100
AcDbDimAssoc
330
5A7C
 90
        3
 70
     0
 71
     0
  1
AcDbOsnapPointRef
 72
    13
331
500D
331
4FFD
 73
     2
 91
        0
 40
0.0
 10
0.0
 20
0.0
 30
2.000000000000000E+50
 75
     0
  1
AcDbOsnapPointRef
 72
     1
331
500D
331
4FFA
 73
     2
 91
        0
 40
1.0
 10
0.0
 20
0.0
 30
2.000000000000000E+50
 75
     0
  0
DIMASSOC
  5
5B01
102
{ACAD_REACTORS
330
5AF5
102
}
330
5AF5
100
AcDbDimAssoc
330
5AE6
 90
        3
 70
     0
 71
     0
  1
AcDbOsnapPointRef
 72
    13
331
500D
331
5004
 73
     2
 91
        0
 40
0.0
 10
0.0
 20
0.0
 30
2.000000000000000E+50
 75
     0
  1
AcDbOsnapPointRef
 72
    13
331
522F
331
4E75
 73
     2
 91
        0
 40
0.0
 10
0.0
 20
0.0
 30
2.000000000000000E+50
 75
     0
  0
DIMASSOC
  5
5B19
102
{ACAD_REACTORS
330
5B0F
102
}
330
5B0F
100
AcDbDimAssoc
330
5B02
 90
        2
 70
     0
 71
     0
  1
AcDbOsnapPointRef
 72
     2
331
500D
331
4FF8
 73
     2
 91
        0
 40
0.5
 10
0.0
 20
0.0
 30
0.0
 75
     0
  0
DIMASSOC
  5
5B5A
102
{ACAD_REACTORS
330
5B50
102
}
330
5B50
100
AcDbDimAssoc
330
5B43
 90
        1
 70
     0
 71
     0
  1
AcDbOsnapPointRef
 72
     2
331
4F77
331
4F63
 73
     2
 91
        0
 40
0.5
 10
0.0
 20
0.0
 30
0.0
 75
     0
  0
DIMASSOC
  5
5C97
102
{ACAD_REACTORS
330
5C8D
102
}
330
5C8D
100
AcDbDimAssoc
330
5C80
 90
        3
 70
     0
 71
     0
  1
AcDbOsnapPointRef
 72
    13
331
4F77
331
4F68
 73
     2
 91
        0
 40
0.0
 10
0.0
 20
0.0
 30
2.000000000000000E+50
 75
     0
  1
AcDbOsnapPointRef
 72
    13
331
4F77
331
4F64
 73
     2
 91
        0
 40
4.712388980384688
 10
0.0
 20
0.0
 30
2.000000000000000E+50
 75
     0
  0
DIMASSOC
  5
5CAF
102
{ACAD_REACTORS
330
5CA5
102
}
330
5CA5
100
AcDbDimAssoc
330
5C98
 90
        3
 70
     0
 71
     0
  1
AcDbOsnapPointRef
 72
     1
331
4D5B
331
4D33
 73
     2
 91
        0
 40
1.570796326794896
 10
0.0
 20
0.0
 30
2.000000000000000E+50
 75
     0
  1
AcDbOsnapPointRef
 72
    13
331
4D5B
331
4D29
 73
     2
 91
        0
 40
4.712388980384688
 10
0.0
 20
0.0
 30
2.000000000000000E+50
 75
     0
  0
DIMASSOC
  5
5CD9
102
{ACAD_REACTORS
330
5CCF
102
}
330
5CCF
100
AcDbDimAssoc
330
5CC2
 90
        3
 70
     0
 71
     0
  1
AcDbOsnapPointRef
 72
     1
331
4D5B
331
4D54
 73
     2
 91
        0
 40
1.0
 10
0.0
 20
0.0
 30
2.000000000000000E+50
 75
     0
  1
AcDbOsnapPointRef
 72
     8
331
4D5B
331
4D2D
 73
     2
 91
        0
 40
0.999999999999996
 10
0.0
 20
0.0
 30
0.0
 75
     1
  1
AcDbOsnapPointRef
 72
     1
331
4D5B
331
4D54
 73
     2
 91
        0
 40
1.0
 10
0.0
 20
0.0
 30
2.000000000000000E+50
 75
     0
  0
DIMASSOC
  5
5D7C
102
{ACAD_REACTORS
330
5D72
102
}
330
5D72
100
AcDbDimAssoc
330
5D65
 90
        3
 70
     0
 71
     0
  1
AcDbOsnapPointRef
 72
    13
331
522F
331
4E62
 73
     2
 91
        0
 40
0.0
 10
0.0
 20
0.0
 30
2.000000000000000E+50
 75
     0
  1
AcDbOsnapPointRef
 72
    13
331
522F
331
4E64
 73
     2
 91
        0
 40
0.0
 10
0.0
 20
0.0
 30
2.000000000000000E+50
 75
     0
  0
DIMASSOC
  5
5DC4
102
{ACAD_REACTORS
330
5DBA
102
}
330
5DBA
100
AcDbDimAssoc
330
5DAD
 90
        2
 70
     0
 71
     0
  1
AcDbOsnapPointRef
 72
    13
331
4D5B
331
4D2B
 73
     2
 91
        0
 40
0.0
 10
0.0
 20
0.0
 30
2.000000000000000E+50
 75
     0
  0
DIMASSOC
  5
5DDC
102
{ACAD_REACTORS
330
5DD2
102
}
330
5DD2
100
AcDbDimAssoc
330
5DC5
 90
        3
 70
     0
 71
     0
  1
AcDbOsnapPointRef
 72
    13
331
522F
331
4E62
 73
     2
 91
        0
 40
0.0
 10
0.0
 20
0.0
 30
2.000000000000000E+50
 75
     0
  1
AcDbOsnapPointRef
 72
    13
331
522F
331
4E63
 73
     2
 91
        0
 40
0.0
 10
0.0
 20
0.0
 30
2.000000000000000E+50
 75
     0
  0
DIMASSOC
  5
5DF4
102
{ACAD_REACTORS
330
5DEA
102
}
330
5DEA
100
AcDbDimAssoc
330
5DDD
 90
        3
 70
     0
 71
     0
  1
AcDbOsnapPointRef
 72
    13
331
522F
331
4E63
 73
     2
 91
        0
 40
0.0
 10
0.0
 20
0.0
 30
2.000000000000000E+50
 75
     0
  1
AcDbOsnapPointRef
 72
    13
331
500D
331
4FF8
 73
     2
 91
        0
 40
0.0
 10
0.0
 20
0.0
 30
2.000000000000000E+50
 75
     0
  0
DIMASSOC
  5
5E24
102
{ACAD_REACTORS
330
5E1A
102
}
330
5E1A
100
AcDbDimAssoc
330
5E0D
 90
        2
 70
     0
 71
     0
  1
AcDbOsnapPointRef
 72
     1
331
4D5B
331
4D29
 73
     2
 91
        0
 40
6.283185307179585
 10
0.0
 20
0.0
 30
2.000000000000000E+50
 75
     0
  0
DIMASSOC
  5
5E3C
102
{ACAD_REACTORS
330
5E32
102
}
330
5E32
100
AcDbDimAssoc
330
5E25
 90
        3
 70
     0
 71
     0
  1
AcDbOsnapPointRef
 72
     1
331
4D5B
331
4D29
 73
     2
 91
        0
 40
6.283185307179585
 10
0.0
 20
0.0
 30
2.000000000000000E+50
 75
     0
  1
AcDbOsnapPointRef
 72
    13
331
4F77
331
4F63
 73
     2
 91
        0
 40
0.0
 10
0.0
 20
0.0
 30
2.000000000000000E+50
 75
     0
  0
DIMASSOC
  5
7E14
102
{ACAD_REACTORS
330
7E13
102
}
330
7E13
100
AcDbDimAssoc
330
7E06
 90
        3
 70
     0
 71
     0
  1
AcDbOsnapPointRef
 72
     1
331
7B1A
331
7AA1
 73
     0
 91
        0
 40
0.0
 10
0.0
 20
0.0
 30
2.000000000000000E+50
 75
     0
  1
AcDbOsnapPointRef
 72
     1
331
7B1A
331
7AF8
 73
     0
 91
        0
 40
0.0
 10
0.0
 20
0.0
 30
2.000000000000000E+50
 75
     0
  0
DIMASSOC
  5
7E3E
102
{ACAD_REACTORS
330
7E3D
102
}
330
7E3D
100
AcDbDimAssoc
330
7E30
 90
        1
 70
     0
 71
     0
  1
AcDbOsnapPointRef
 72
     1
331
7B1A
331
7AA3
 73
     0
 91
        0
 40
0.0
 10
0.0
 20
0.0
 30
2.000000000000000E+50
 75
     0
  0
DIMASSOC
  5
9119
102
{ACAD_REACTORS
330
9118
102
}
330
9118
100
AcDbDimAssoc
330
910B
 90
        1
 70
     0
 71
     0
  1
AcDbOsnapPointRef
 72
     1
331
500D
331
4FF8
 73
     0
 91
        0
 40
0.0
 10
0.0
 20
0.0
 30
2.000000000000000E+50
 75
     0
  0
DIMASSOC
  5
927C
102
{ACAD_REACTORS
330
927B
102
}
330
927B
100
AcDbDimAssoc
330
926C
 90
        1
 70
     0
 71
     0
  1
AcDbOsnapPointRef
 72
    13
331
7B1A
331
7AA2
 73
     0
 91
        0
 40
0.0
 10
0.0
 20
0.0
 30
2.000000000000000E+50
 75
     0
  0
DIMASSOC
  5
9412
102
{ACAD_REACTORS
330
9411
102
}
330
9411
100
AcDbDimAssoc
330
9402
 90
        1
 70
     0
 71
     0
  1
AcDbOsnapPointRef
 72
    13
331
7B1A
331
7AA6
 73
     0
 91
        0
 40
0.0
 10
0.0
 20
0.0
 30
2.000000000000000E+50
 75
     0
  0
LAYOUT
  5
22
102
{ACAD_REACTORS
330
1A
102
}
330
1A
100
AcDbPlotSettings
  1

  2
KONICA MINOLTA 501 PCL
  4
A4
  6

 40
5.027082920074462
 41
5.027085781097412
 42
5.027069091796875
 43
5.027069091796875
 44
209.9733276367186
 45
296.9259948730469
 46
31.32578988018371
 47
0.0
 48
0.0
 49
0.0
140
0.0
141
0.0
142
1.0
143
1.173180430876106
 70
 11956
 72
     1
 73
     1
 74
     1
  7
SEISA.ctb
 75
     0
147
0.8523838053224432
 76
     0
 77
     2
 78
   300
148
-158.7400837258908
149
-239.3366107566766
100
AcDbLayout
  1
Model
 70
     1
 71
     0
 10
0.0
 20
0.0
 11
12.0
 21
9.0
 12
0.0
 22
0.0
 32
0.0
 14
0.0
 24
0.0
 34
0.0
 15
0.0
 25
0.0
 35
0.0
146
0.0
 13
0.0
 23
0.0
 33
0.0
 16
1.0
 26
0.0
 36
0.0
 17
0.0
 27
1.0
 37
0.0
 76
     0
330
1F
331
27A
1001
ACAD_PSEXT
1000
KONICA MINOLTA 501 PCL
1000
KONICA MINOLTA 501/421/361PCL
1000
IP_192.168.20.231_(1)
1000

1070
     0
  0
LAYOUT
  5
1E
102
{ACAD_REACTORS
330
1A
102
}
330
1A
100
AcDbPlotSettings
  1

  2
none_device
  4
Letter_(8.50_x_11.00_Inches)
  6

 40
6.349999904632567
 41
6.349999904632567
 42
6.350006103515625
 43
6.350006103515625
 44
215.8999938964844
 45
279.3999938964844
 46
0.0
 47
0.0
 48
0.0
 49
0.0
140
0.0
141
0.0
142
1.0
143
1.0
 70
 15024
 72
     1
 73
     1
 74
     5
  7
SEISA.ctb
 75
    16
147
1.0
 76
     0
 77
     2
 78
   300
148
0.0
149
0.0
100
AcDbLayout
  1
レイアウト1
 70
     1
 71
     1
 10
0.0
 20
0.0
 11
420.0
 21
297.0
 12
0.0
 22
0.0
 32
0.0
 14
1.000000000000000E+20
 24
1.000000000000000E+20
 34
1.000000000000000E+20
 15
-1.000000000000000E+20
 25
-1.000000000000000E+20
 35
-1.000000000000000E+20
146
0.0
 13
0.0
 23
0.0
 33
0.0
 16
1.0
 26
0.0
 36
0.0
 17
0.0
 27
1.0
 37
0.0
 76
     0
330
1B
  0
LAYOUT
  5
26
102
{ACAD_REACTORS
330
1A
102
}
330
1A
100
AcDbPlotSettings
  1

  2
none_device
  4
Letter_(8.50_x_11.00_Inches)
  6

 40
6.349999904632567
 41
6.349999904632567
 42
6.350006103515625
 43
6.350006103515625
 44
215.8999938964844
 45
279.3999938964844
 46
0.0
 47
0.0
 48
0.0
 49
0.0
140
0.0
141
0.0
142
1.0
143
1.0
 70
 15024
 72
     1
 73
     1
 74
     5
  7
SEISA.ctb
 75
    16
147
1.0
 76
     0
 77
     2
 78
   300
148
0.0
149
0.0
100
AcDbLayout
  1
レイアウト2
 70
     1
 71
     2
 10
0.0
 20
0.0
 11
12.0
 21
9.0
 12
0.0
 22
0.0
 32
0.0
 14
0.0
 24
0.0
 34
0.0
 15
0.0
 25
0.0
 35
0.0
146
0.0
 13
0.0
 23
0.0
 33
0.0
 16
1.0
 26
0.0
 36
0.0
 17
0.0
 27
1.0
 37
0.0
 76
     0
330
23
  0
MATERIAL
  5
27D
102
{ACAD_REACTORS
330
C4
102
}
330
C4
100
AcDbMaterial
  1
ByBlock
 73
     1
 78
     1
172
     1
176
     1
270
     1
274
     1
 94
       63
  0
MATERIAL
  5
27C
102
{ACAD_REACTORS
330
C4
102
}
330
C4
100
AcDbMaterial
  1
ByLayer
 73
     1
 78
     1
172
     1
176
     1
270
     1
274
     1
 94
       63
  0
MATERIAL
  5
27E
102
{ACAD_REACTORS
330
C4
102
}
330
C4
100
AcDbMaterial
  1
Global
 73
     1
 78
     1
172
     1
176
     1
270
     1
274
     1
 94
       63
  0
MLEADERSTYLE
  5
2D6
102
{ACAD_REACTORS
330
2D5
102
}
330
2D5
100
AcDbMLeaderStyle
170
     2
171
     1
172
     0
 90
        2
 40
0.0
 41
0.0
173
     1
 91
-1056964608
340
14
 92
       -2
290
     1
 42
2.0
291
     1
 43
0.36
  3
Standard
 44
4.0
300

342
11
174
     1
178
     6
175
     1
176
     0
 93
-1056964608
 45
4.0
292
     0
297
     0
 46
4.0
 94
-1056964608
 47
1.0
 49
1.0
140
1.0
293
     1
141
0.0
294
     1
177
     0
142
1.0
295
     0
296
     0
143
0.125
1001
ACAD_MLEADERVER
1070
     2
  0
MLINESTYLE
  5
18
102
{ACAD_REACTORS
330
17
102
}
330
17
100
AcDbMlineStyle
  2
STANDARD
 70
     0
  3

 62
   256
 51
90.0
 52
90.0
 71
     2
 49
0.5
 62
   256
  6
BYLAYER
 49
-0.5
 62
   256
  6
BYLAYER
  0
PLOTSETTINGS
  5
1C7E
102
{ACAD_REACTORS
330
19
102
}
330
19
100
AcDbPlotSettings
  1
SEISA基本
  2
none_device
  4
Letter_(8.50_x_11.00_Inches)
  6

 40
6.349999904632567
 41
6.349999904632567
 42
6.350006103515625
 43
6.350006103515625
 44
215.8999938964844
 45
279.3999938964844
 46
7.302498226506357
 47
0.0
 48
0.0
 49
0.0
140
0.0
141
0.0
142
1.0
143
1.574803221122935
 70
 11956
 72
     1
 73
     1
 74
     2
  7
SEISA.ctb
 75
     0
147
0.6349999711627054
 76
     0
 77
     2
 78
   300
148
0.0
149
0.0
1001
ACAD_PSEXT
1000
なし
1000
なし
1000
適切ではありません
1000
新しいプロッタ環境設定名を選択しない限り、レイアウトは印刷されません。
1070
     0
  0
ACDBPLACEHOLDER
  5
F
102
{ACAD_REACTORS
330
E
102
}
330
E
  0
SCALE
  5
2A04
102
{ACAD_REACTORS
330
2B3
102
}
330
2B3
100
AcDbScale
 70
     0
300
1:1.5
140
1.0
141
1.5
290
     0
  0
SCALE
  5
2B4
102
{ACAD_REACTORS
330
2B3
102
}
330
2B3
100
AcDbScale
 70
     0
300
1:1
140
1.0
141
1.0
290
     1
  0
SCALE
  5
2B5
102
{ACAD_REACTORS
330
2B3
102
}
330
2B3
100
AcDbScale
 70
     0
300
1:2
140
1.0
141
2.0
290
     0
  0
SCALE
  5
2B6
102
{ACAD_REACTORS
330
2B3
102
}
330
2B3
100
AcDbScale
 70
     0
300
1:4
140
1.0
141
4.0
290
     0
  0
SCALE
  5
2B7
102
{ACAD_REACTORS
330
2B3
102
}
330
2B3
100
AcDbScale
 70
     0
300
1:5
140
1.0
141
5.0
290
     0
  0
SCALE
  5
2B8
102
{ACAD_REACTORS
330
2B3
102
}
330
2B3
100
AcDbScale
 70
     0
300
1:8
140
1.0
141
8.0
290
     0
  0
SCALE
  5
2B9
102
{ACAD_REACTORS
330
2B3
102
}
330
2B3
100
AcDbScale
 70
     0
300
1:10
140
1.0
141
10.0
290
     0
  0
SCALE
  5
2BA
102
{ACAD_REACTORS
330
2B3
102
}
330
2B3
100
AcDbScale
 70
     0
300
1:16
140
1.0
141
16.0
290
     0
  0
SCALE
  5
2BB
102
{ACAD_REACTORS
330
2B3
102
}
330
2B3
100
AcDbScale
 70
     0
300
1:20
140
1.0
141
20.0
290
     0
  0
SCALE
  5
2BC
102
{ACAD_REACTORS
330
2B3
102
}
330
2B3
100
AcDbScale
 70
     0
300
1:30
140
1.0
141
30.0
290
     0
  0
SCALE
  5
2BD
102
{ACAD_REACTORS
330
2B3
102
}
330
2B3
100
AcDbScale
 70
     0
300
1:40
140
1.0
141
40.0
290
     0
  0
SCALE
  5
2BE
102
{ACAD_REACTORS
330
2B3
102
}
330
2B3
100
AcDbScale
 70
     0
300
1:50
140
1.0
141
50.0
290
     0
  0
SCALE
  5
2BF
102
{ACAD_REACTORS
330
2B3
102
}
330
2B3
100
AcDbScale
 70
     0
300
1:100
140
1.0
141
100.0
290
     0
  0
SCALE
  5
2C0
102
{ACAD_REACTORS
330
2B3
102
}
330
2B3
100
AcDbScale
 70
     0
300
2:1
140
2.0
141
1.0
290
     0
  0
SCALE
  5
2C1
102
{ACAD_REACTORS
330
2B3
102
}
330
2B3
100
AcDbScale
 70
     0
300
4:1
140
4.0
141
1.0
290
     0
  0
SCALE
  5
2C2
102
{ACAD_REACTORS
330
2B3
102
}
330
2B3
100
AcDbScale
 70
     0
300
8:1
140
8.0
141
1.0
290
     0
  0
SCALE
  5
2C3
102
{ACAD_REACTORS
330
2B3
102
}
330
2B3
100
AcDbScale
 70
     0
300
10:1
140
10.0
141
1.0
290
     0
  0
SCALE
  5
2C4
102
{ACAD_REACTORS
330
2B3
102
}
330
2B3
100
AcDbScale
 70
     0
300
100:1
140
100.0
141
1.0
290
     0
  0
SCALE
  5
2C5
102
{ACAD_REACTORS
330
2B3
102
}
330
2B3
100
AcDbScale
 70
     0
300
1/128" = 1'-0"
140
0.0078125
141
12.0
290
     0
  0
SCALE
  5
2C6
102
{ACAD_REACTORS
330
2B3
102
}
330
2B3
100
AcDbScale
 70
     0
300
1/64" = 1'-0"
140
0.015625
141
12.0
290
     0
  0
SCALE
  5
2C7
102
{ACAD_REACTORS
330
2B3
102
}
330
2B3
100
AcDbScale
 70
     0
300
1/32" = 1'-0"
140
0.03125
141
12.0
290
     0
  0
SCALE
  5
2C8
102
{ACAD_REACTORS
330
2B3
102
}
330
2B3
100
AcDbScale
 70
     0
300
1/16" = 1'-0"
140
0.0625
141
12.0
290
     0
  0
SCALE
  5
2C9
102
{ACAD_REACTORS
330
2B3
102
}
330
2B3
100
AcDbScale
 70
     0
300
3/32" = 1'-0"
140
0.09375
141
12.0
290
     0
  0
SCALE
  5
2CA
102
{ACAD_REACTORS
330
2B3
102
}
330
2B3
100
AcDbScale
 70
     0
300
1/8" = 1'-0"
140
0.125
141
12.0
290
     0
  0
SCALE
  5
2CB
102
{ACAD_REACTORS
330
2B3
102
}
330
2B3
100
AcDbScale
 70
     0
300
3/16" = 1'-0"
140
0.1875
141
12.0
290
     0
  0
SCALE
  5
2CC
102
{ACAD_REACTORS
330
2B3
102
}
330
2B3
100
AcDbScale
 70
     0
300
1/4" = 1'-0"
140
0.25
141
12.0
290
     0
  0
SCALE
  5
2CD
102
{ACAD_REACTORS
330
2B3
102
}
330
2B3
100
AcDbScale
 70
     0
300
3/8" = 1'-0"
140
0.375
141
12.0
290
     0
  0
SCALE
  5
2CE
102
{ACAD_REACTORS
330
2B3
102
}
330
2B3
100
AcDbScale
 70
     0
300
1/2" = 1'-0"
140
0.5
141
12.0
290
     0
  0
SCALE
  5
2CF
102
{ACAD_REACTORS
330
2B3
102
}
330
2B3
100
AcDbScale
 70
     0
300
3/4" = 1'-0"
140
0.75
141
12.0
290
     0
  0
SCALE
  5
2D0
102
{ACAD_REACTORS
330
2B3
102
}
330
2B3
100
AcDbScale
 70
     0
300
1" = 1'-0"
140
1.0
141
12.0
290
     0
  0
SCALE
  5
2D1
102
{ACAD_REACTORS
330
2B3
102
}
330
2B3
100
AcDbScale
 70
     0
300
1-1/2" = 1'-0"
140
1.5
141
12.0
290
     0
  0
SCALE
  5
2D2
102
{ACAD_REACTORS
330
2B3
102
}
330
2B3
100
AcDbScale
 70
     0
300
3" = 1'-0"
140
3.0
141
12.0
290
     0
  0
SCALE
  5
2D3
102
{ACAD_REACTORS
330
2B3
102
}
330
2B3
100
AcDbScale
 70
     0
300
6" = 1'-0"
140
6.0
141
12.0
290
     0
  0
SCALE
  5
2D4
102
{ACAD_REACTORS
330
2B3
102
}
330
2B3
100
AcDbScale
 70
     0
300
1'-0" = 1'-0"
140
12.0
141
12.0
290
     0
  0
TABLESTYLE
  5
122
102
{ACAD_XDICTIONARY
360
2F5
102
}
102
{ACAD_REACTORS
330
121
102
}
330
121
100
AcDbTableStyle
  3
Standard
 70
     0
 71
     0
 40
1.5
 41
1.5
280
     0
281
     0
  7
STANDARD
140
4.5
170
     2
 62
     0
 63
     7
283
     0
 90
      512
 91
        0
  1

274
    -2
284
     1
 64
     0
275
    -2
285
     1
 65
     0
276
    -2
286
     1
 66
     0
277
    -2
287
     1
 67
     0
278
    -2
288
     1
 68
     0
279
    -2
289
     1
 69
     0
  7
STANDARD
140
6.0
170
     5
 62
     0
 63
     7
283
     0
 90
      512
 91
        0
  1

274
    -2
284
     1
 64
     0
275
    -2
285
     1
 65
     0
276
    -2
286
     1
 66
     0
277
    -2
287
     1
 67
     0
278
    -2
288
     1
 68
     0
279
    -2
289
     1
 69
     0
  7
STANDARD
140
4.5
170
     5
 62
     0
 63
     7
283
     0
 90
      512
 91
        0
  1

274
    -2
284
     1
 64
     0
275
    -2
285
     1
 65
     0
276
    -2
286
     1
 66
     0
277
    -2
287
     1
 67
     0
278
    -2
288
     1
 68
     0
279
    -2
289
     1
 69
     0
  0
VISUALSTYLE
  5
285
102
{ACAD_REACTORS
330
27F
102
}
330
27F
100
AcDbVisualStyle
  2
2dWireframe
 70
     4
 71
     0
 72
     2
 73
     0
 90
        0
 40
-0.6
 41
-30.0
 62
     5
 63
     7
421
 16777215
 74
     1
 91
        4
 64
     7
 65
   257
 75
     1
175
     1
 42
1.0
 92
        0
 66
   257
 43
1.0
 76
     1
 77
     6
 78
     2
 67
     7
 79
     5
170
     0
171
     0
290
     0
174
     0
 93
        1
 44
0.0
173
     0
291
     0
 45
0.0
  0
VISUALSTYLE
  5
287
102
{ACAD_REACTORS
330
27F
102
}
330
27F
100
AcDbVisualStyle
  2
3D Hidden
 70
     6
 71
     1
 72
     2
 73
     2
 90
        0
 40
-0.6
 41
-30.0
 62
     5
 63
     7
421
 16777215
 74
     2
 91
        2
 64
     7
 65
   257
 75
     2
175
     1
 42
40.0
 92
        0
 66
   257
 43
1.0
 76
     1
 77
     6
 78
     2
 67
     7
 79
     3
170
     0
171
     0
290
     0
174
     0
 93
        1
 44
0.0
173
     0
291
     0
 45
0.0
  0
VISUALSTYLE
  5
286
102
{ACAD_REACTORS
330
27F
102
}
330
27F
100
AcDbVisualStyle
  2
3dWireframe
 70
     5
 71
     0
 72
     2
 73
     0
 90
        0
 40
-0.6
 41
-30.0
 62
     5
 63
     7
421
 16777215
 74
     1
 91
        4
 64
     7
 65
   257
 75
     1
175
     1
 42
1.0
 92
        0
 66
   257
 43
1.0
 76
     1
 77
     6
 78
     2
 67
     7
 79
     5
170
     0
171
     0
290
     0
174
     0
 93
        1
 44
0.0
173
     0
291
     0
 45
0.0
  0
VISUALSTYLE
  5
284
102
{ACAD_REACTORS
330
27F
102
}
330
27F
100
AcDbVisualStyle
  2
Basic
 70
     7
 71
     1
 72
     0
 73
     1
 90
        0
 40
-0.6
 41
-30.0
 62
     5
 63
     7
421
 16777215
 74
     0
 91
        4
 64
     7
 65
   257
 75
     1
175
     1
 42
1.0
 92
        8
 66
     7
 43
1.0
 76
     1
 77
     6
 78
     2
 67
     7
 79
     5
170
     0
171
     0
290
     0
174
     0
 93
        1
 44
0.0
173
     0
291
     1
 45
0.0
  0
VISUALSTYLE
  5
28B
102
{ACAD_REACTORS
330
27F
102
}
330
27F
100
AcDbVisualStyle
  2
Brighten
 70
    12
 71
     2
 72
     2
 73
     0
 90
        0
 40
-0.6
 41
-30.0
 62
     5
 63
     7
421
 16777215
 74
     1
 91
        4
 64
     7
 65
   257
 75
     1
175
     1
 42
1.0
 92
        8
 66
     7
 43
1.0
 76
     1
 77
     6
 78
     2
 67
     7
 79
     5
170
     0
171
     0
290
     0
174
     0
 93
        1
 44
50.0
173
     0
291
     1
 45
0.0
  0
VISUALSTYLE
  5
28F
102
{ACAD_REACTORS
330
27F
102
}
330
27F
100
AcDbVisualStyle
  2
ColorChange
 70
    16
 71
     2
 72
     2
 73
     3
 90
        0
 40
-0.6
 41
-30.0
 62
     5
 63
     8
421
  8421504
 74
     1
 91
        4
 64
     7
 65
   257
 75
     1
175
     1
 42
1.0
 92
        8
 66
     8
424
  8421504
 43
1.0
 76
     1
 77
     6
 78
     2
 67
     7
 79
     5
170
     0
171
     0
290
     0
174
     0
 93
        1
 44
0.0
173
     0
291
     1
 45
0.0
  0
VISUALSTYLE
  5
288
102
{ACAD_REACTORS
330
27F
102
}
330
27F
100
AcDbVisualStyle
  2
Conceptual
 70
     9
 71
     3
 72
     2
 73
     0
 90
        0
 40
-0.6
 41
-30.0
 62
     5
 63
     7
421
 16777215
 74
     2
 91
        2
 64
     7
 65
   257
 75
     1
175
     1
 42
40.0
 92
        8
 66
     7
 43
1.0
 76
     1
 77
     6
 78
     2
 67
     7
 79
     3
170
     0
171
     0
290
     0
174
     0
 93
        1
 44
0.0
173
     0
291
     0
 45
0.0
  0
VISUALSTYLE
  5
28A
102
{ACAD_REACTORS
330
27F
102
}
330
27F
100
AcDbVisualStyle
  2
Dim
 70
    11
 71
     2
 72
     2
 73
     0
 90
        0
 40
-0.6
 41
-30.0
 62
     5
 63
     7
421
 16777215
 74
     1
 91
        4
 64
     7
 65
   257
 75
     1
175
     1
 42
1.0
 92
        8
 66
     7
 43
1.0
 76
     1
 77
     6
 78
     2
 67
     7
 79
     5
170
     0
171
     0
290
     0
174
     0
 93
        1
 44
-50.0
173
     0
291
     1
 45
0.0
  0
VISUALSTYLE
  5
28E
102
{ACAD_REACTORS
330
27F
102
}
330
27F
100
AcDbVisualStyle
  2
Facepattern
 70
    15
 71
     2
 72
     2
 73
     0
 90
        0
 40
-0.6
 41
-30.0
 62
     5
 63
     7
421
 16777215
 74
     1
 91
        4
 64
     7
 65
   257
 75
     1
175
     1
 42
1.0
 92
        8
 66
     7
 43
1.0
 76
     1
 77
     6
 78
     2
 67
     7
 79
     5
170
     0
171
     0
290
     0
174
     0
 93
        1
 44
0.0
173
     0
291
     1
 45
0.0
  0
VISUALSTYLE
  5
280
102
{ACAD_REACTORS
330
27F
102
}
330
27F
100
AcDbVisualStyle
  2
Flat
 70
     0
 71
     2
 72
     1
 73
     1
 90
        2
 40
-0.6
 41
30.0
 62
     5
 63
     7
421
 16777215
 74
     0
 91
        4
 64
     7
 65
   257
 75
     1
175
     1
 42
1.0
 92
        8
 66
     7
 43
1.0
 76
     1
 77
     6
 78
     2
 67
     7
 79
     5
170
     0
171
     0
290
     0
174
     0
 93
       13
 44
0.0
173
     0
291
     1
 45
0.0
  0
VISUALSTYLE
  5
281
102
{ACAD_REACTORS
330
27F
102
}
330
27F
100
AcDbVisualStyle
  2
FlatWithEdges
 70
     1
 71
     2
 72
     1
 73
     1
 90
        2
 40
-0.6
 41
30.0
 62
     5
 63
     7
421
 16777215
 74
     1
 91
        4
 64
     7
 65
   257
 75
     1
175
     1
 42
1.0
 92
        0
 66
   257
 43
1.0
 76
     1
 77
     6
 78
     2
 67
     7
 79
     5
170
     0
171
     0
290
     0
174
     0
 93
       13
 44
0.0
173
     0
291
     1
 45
0.0
  0
VISUALSTYLE
  5
282
102
{ACAD_REACTORS
330
27F
102
}
330
27F
100
AcDbVisualStyle
  2
Gouraud
 70
     2
 71
     2
 72
     2
 73
     1
 90
        2
 40
-0.6
 41
30.0
 62
     5
 63
     7
421
 16777215
 74
     0
 91
        4
 64
     7
 65
   257
 75
     1
175
     1
 42
1.0
 92
        0
 66
     7
 43
1.0
 76
     1
 77
     6
 78
     2
 67
     7
 79
     5
170
     0
171
     0
290
     0
174
     0
 93
       13
 44
0.0
173
     0
291
     1
 45
0.0
  0
VISUALSTYLE
  5
283
102
{ACAD_REACTORS
330
27F
102
}
330
27F
100
AcDbVisualStyle
  2
GouraudWithEdges
 70
     3
 71
     2
 72
     2
 73
     1
 90
        2
 40
-0.6
 41
30.0
 62
     5
 63
     7
421
 16777215
 74
     1
 91
        4
 64
     7
 65
   257
 75
     1
175
     1
 42
1.0
 92
        0
 66
   257
 43
1.0
 76
     1
 77
     6
 78
     2
 67
     7
 79
     5
170
     0
171
     0
290
     0
174
     0
 93
       13
 44
0.0
173
     0
291
     1
 45
0.0
  0
VISUALSTYLE
  5
28D
102
{ACAD_REACTORS
330
27F
102
}
330
27F
100
AcDbVisualStyle
  2
Linepattern
 70
    14
 71
     2
 72
     2
 73
     0
 90
        0
 40
-0.6
 41
-30.0
 62
     5
 63
     7
421
 16777215
 74
     1
 91
        4
 64
     7
 65
   257
 75
     7
175
     7
 42
1.0
 92
        8
 66
     7
 43
1.0
 76
     1
 77
     6
 78
     2
 67
     7
 79
     5
170
     0
171
     0
290
     0
174
     0
 93
        1
 44
0.0
173
     0
291
     1
 45
0.0
  0
VISUALSTYLE
  5
289
102
{ACAD_REACTORS
330
27F
102
}
330
27F
100
AcDbVisualStyle
  2
Realistic
 70
     8
 71
     2
 72
     2
 73
     0
 90
        0
 40
-0.6
 41
-30.0
 62
     5
 63
     7
421
 16777215
 74
     1
 91
        0
 64
     7
 65
   257
 75
     1
175
     1
 42
1.0
 92
        8
 66
     8
424
  7895160
 43
1.0
 76
     1
 77
     6
 78
     2
 67
     7
 79
     5
170
     0
171
     0
290
     0
174
     0
 93
       13
 44
0.0
173
     0
291
     0
 45
0.0
  0
VISUALSTYLE
  5
28C
102
{ACAD_REACTORS
330
27F
102
}
330
27F
100
AcDbVisualStyle
  2
Thicken
 70
    13
 71
     2
 72
     2
 73
     0
 90
        0
 40
-0.6
 41
-30.0
 62
     5
 63
     7
421
 16777215
 74
     1
 91
        4
 64
     7
 65
   257
 75
     1
175
     1
 42
1.0
 92
       12
 66
     7
 43
1.0
 76
     1
 77
     6
 78
     2
 67
     7
 79
     5
170
     0
171
     0
290
     0
174
     0
 93
        1
 44
0.0
173
     0
291
     1
 45
0.0
  0
DICTIONARYVAR
  5
2FA
102
{ACAD_REACTORS
330
34
102
}
330
34
100
DictionaryVariables
280
     0
  1
1:1.5
  0
DICTIONARYVAR
  5
2F8
102
{ACAD_REACTORS
330
34
102
}
330
34
100
DictionaryVariables
280
     0
  1
STANDARD
  0
DICTIONARYVAR
  5
140
102
{ACAD_REACTORS
330
34
102
}
330
34
100
DictionaryVariables
280
     0
  1
STANDARD
  0
DICTIONARYVAR
  5
AC
102
{ACAD_REACTORS
330
34
102
}
330
34
100
DictionaryVariables
280
     0
  1
1
  0
DICTIONARYVAR
  5
35
102
{ACAD_REACTORS
330
34
102
}
330
34
100
DictionaryVariables
280
     0
  1
1
  0
DICTIONARYVAR
  5
6E43
102
{ACAD_REACTORS
330
34
102
}
330
34
100
DictionaryVariables
280
     0
  1
1
  0
DICTIONARYVAR
  5
6E44
102
{ACAD_REACTORS
330
34
102
}
330
34
100
DictionaryVariables
280
     0
  1
15
  0
DICTIONARYVAR
  5
2FB
102
{ACAD_REACTORS
330
34
102
}
330
34
100
DictionaryVariables
280
     0
  1
0
  0
DICTIONARYVAR
  5
2F9
102
{ACAD_REACTORS
330
34
102
}
330
34
100
DictionaryVariables
280
     0
  1
0
  0
DICTIONARY
  5
161B
102
{ACAD_REACTORS
330
49
102
}
330
49
100
AcDbDictionary
281
     1
  0
DICTIONARY
  5
4A
102
{ACAD_REACTORS
330
49
102
}
330
49
100
AcDbDictionary
281
     1
  0
XRECORD
  5
12B
102
{ACAD_REACTORS
330
49
102
}
330
49
100
AcDbXrecord
280
     1
 90
-1023410169
  0
DICTIONARY
  5
2F5
330
122
100
AcDbDictionary
280
     1
281
     1
  3
ACAD_ROUNDTRIP_2008_TABLESTYLE_CELLSTYLEMAP
360
979F
  0
CELLSTYLEMAP
  5
979F
102
{ACAD_REACTORS
330
2F5
102
}
330
2F5
100
AcDbCellStyleMap
 90
        3
300
CELLSTYLE
  1
TABLEFORMAT_BEGIN
 90
        5
170
     1
 91
        0
 92
    32768
 62
   257
 93
        1
300
CONTENTFORMAT
  1
CONTENTFORMAT_BEGIN
 90
        0
 91
        0
 92
      512
 93
        0
300

 40
0.0
140
1.0
 94
        5
 62
     0
340
11
144
6.0
309
CONTENTFORMAT_END
171
     1
301
MARGIN
  1
CELLMARGIN_BEGIN
 40
1.5
 40
1.5
 40
1.5
 40
1.5
 40
0.18
 40
0.18
309
CELLMARGIN_END
 94
        6
 95
        1
302
GRIDFORMAT
  1
GRIDFORMAT_BEGIN
 90
        0
 91
        1
 62
     0
 92
       -2
340
0
 93
        0
 40
0.045
309
GRIDFORMAT_END
 95
        2
302
GRIDFORMAT
  1
GRIDFORMAT_BEGIN
 90
        0
 91
        1
 62
     0
 92
       -2
340
0
 93
        0
 40
0.045
309
GRIDFORMAT_END
 95
        4
302
GRIDFORMAT
  1
GRIDFORMAT_BEGIN
 90
        0
 91
        1
 62
     0
 92
       -2
340
0
 93
        0
 40
0.045
309
GRIDFORMAT_END
 95
        8
302
GRIDFORMAT
  1
GRIDFORMAT_BEGIN
 90
        0
 91
        1
 62
     0
 92
       -2
340
0
 93
        0
 40
0.045
309
GRIDFORMAT_END
 95
       16
302
GRIDFORMAT
  1
GRIDFORMAT_BEGIN
 90
        0
 91
        1
 62
     0
 92
       -2
340
0
 93
        0
 40
0.045
309
GRIDFORMAT_END
 95
       32
302
GRIDFORMAT
  1
GRIDFORMAT_BEGIN
 90
        0
 91
        1
 62
     0
 92
       -2
340
0
 93
        0
 40
0.045
309
GRIDFORMAT_END
309
TABLEFORMAT_END
  1
CELLSTYLE_BEGIN
 90
        1
 91
        1
300
_TITLE
309
CELLSTYLE_END
300
CELLSTYLE
  1
TABLEFORMAT_BEGIN
 90
        5
170
     1
 91
        0
 92
        0
 62
   257
 93
        1
300
CONTENTFORMAT
  1
CONTENTFORMAT_BEGIN
 90
        0
 91
        0
 92
      512
 93
        0
300

 40
0.0
140
1.0
 94
        5
 62
     0
340
11
144
4.5
309
CONTENTFORMAT_END
171
     1
301
MARGIN
  1
CELLMARGIN_BEGIN
 40
1.5
 40
1.5
 40
1.5
 40
1.5
 40
0.18
 40
0.18
309
CELLMARGIN_END
 94
        6
 95
        1
302
GRIDFORMAT
  1
GRIDFORMAT_BEGIN
 90
        0
 91
        1
 62
     0
 92
       -2
340
0
 93
        0
 40
0.045
309
GRIDFORMAT_END
 95
        2
302
GRIDFORMAT
  1
GRIDFORMAT_BEGIN
 90
        0
 91
        1
 62
     0
 92
       -2
340
0
 93
        0
 40
0.045
309
GRIDFORMAT_END
 95
        4
302
GRIDFORMAT
  1
GRIDFORMAT_BEGIN
 90
        0
 91
        1
 62
     0
 92
       -2
340
0
 93
        0
 40
0.045
309
GRIDFORMAT_END
 95
        8
302
GRIDFORMAT
  1
GRIDFORMAT_BEGIN
 90
        0
 91
        1
 62
     0
 92
       -2
340
0
 93
        0
 40
0.045
309
GRIDFORMAT_END
 95
       16
302
GRIDFORMAT
  1
GRIDFORMAT_BEGIN
 90
        0
 91
        1
 62
     0
 92
       -2
340
0
 93
        0
 40
0.045
309
GRIDFORMAT_END
 95
       32
302
GRIDFORMAT
  1
GRIDFORMAT_BEGIN
 90
        0
 91
        1
 62
     0
 92
       -2
340
0
 93
        0
 40
0.045
309
GRIDFORMAT_END
309
TABLEFORMAT_END
  1
CELLSTYLE_BEGIN
 90
        2
 91
        1
300
_HEADER
309
CELLSTYLE_END
300
CELLSTYLE
  1
TABLEFORMAT_BEGIN
 90
        5
170
     1
 91
        0
 92
        0
 62
   257
 93
        1
300
CONTENTFORMAT
  1
CONTENTFORMAT_BEGIN
 90
        0
 91
        0
 92
      512
 93
        0
300

 40
0.0
140
1.0
 94
        2
 62
     0
340
11
144
4.5
309
CONTENTFORMAT_END
171
     1
301
MARGIN
  1
CELLMARGIN_BEGIN
 40
1.5
 40
1.5
 40
1.5
 40
1.5
 40
0.18
 40
0.18
309
CELLMARGIN_END
 94
        6
 95
        1
302
GRIDFORMAT
  1
GRIDFORMAT_BEGIN
 90
        0
 91
        1
 62
     0
 92
       -2
340
0
 93
        0
 40
0.045
309
GRIDFORMAT_END
 95
        2
302
GRIDFORMAT
  1
GRIDFORMAT_BEGIN
 90
        0
 91
        1
 62
     0
 92
       -2
340
0
 93
        0
 40
0.045
309
GRIDFORMAT_END
 95
        4
302
GRIDFORMAT
  1
GRIDFORMAT_BEGIN
 90
        0
 91
        1
 62
     0
 92
       -2
340
0
 93
        0
 40
0.045
309
GRIDFORMAT_END
 95
        8
302
GRIDFORMAT
  1
GRIDFORMAT_BEGIN
 90
        0
 91
        1
 62
     0
 92
       -2
340
0
 93
        0
 40
0.045
309
GRIDFORMAT_END
 95
       16
302
GRIDFORMAT
  1
GRIDFORMAT_BEGIN
 90
        0
 91
        1
 62
     0
 92
       -2
340
0
 93
        0
 40
0.045
309
GRIDFORMAT_END
 95
       32
302
GRIDFORMAT
  1
GRIDFORMAT_BEGIN
 90
        0
 91
        1
 62
     0
 92
       -2
340
0
 93
        0
 40
0.045
309
GRIDFORMAT_END
309
TABLEFORMAT_END
  1
CELLSTYLE_BEGIN
 90
        3
 91
        2
300
_DATA
309
CELLSTYLE_END
  0
ENDSEC
  0
EOF
