  0
SECTION
  2
HEADER
  9
$ACADVER
  1
AC1021
  9
$ACADMAINTVER
 70
    26
  9
$DWGCODEPAGE
  3
ANSI_932
  9
$LASTSAVEDBY
  1
Htm_Terada
  9
$CUSTOMPROPERTYTAG
  1
AmdtFileType
  9
$CUSTOMPROPERTY
  1
84
  9
$INSBASE
 10
0.0
 20
0.0
 30
0.0
  9
$EXTMIN
 10
168.5587286617874
 20
234.8890829466428
 30
0.0
  9
$EXTMAX
 10
488.4291387747589
 20
383.8938924091427
 30
0.0
  9
$LIMMIN
 10
0.0000002871507832
 20
0.0000005540730967
  9
$LIMMAX
 10
630.0000002871508
 20
445.5000005540731
  9
$ORTHOMODE
 70
     0
  9
$REGENMODE
 70
     1
  9
$FILLMODE
 70
     1
  9
$QTEXTMODE
 70
     0
  9
$MIRRTEXT
 70
     1
  9
$LTSCALE
 40
1.5
  9
$ATTMODE
 70
     1
  9
$TEXTSIZE
 40
25.0
  9
$TRACEWID
 40
1.0
  9
$TEXTSTYLE
  7
SEISA
  9
$CLAYER
  8
AM_0 外形線1
  9
$CELTYPE
  6
ByLayer
  9
$CECOLOR
 62
   256
  9
$CELTSCALE
 40
1.0
  9
$DISPSILH
 70
     0
  9
$DIMSCALE
 40
1.5
  9
$DIMASZ
 40
2.5
  9
$DIMEXO
 40
0.625
  9
$DIMDLI
 40
10.0
  9
$DIMRND
 40
0.0
  9
$DIMDLE
 40
0.0
  9
$DIMEXE
 40
0.625
  9
$DIMTP
 40
0.1
  9
$DIMTM
 40
0.1
  9
$DIMTXT
 40
3.5
  9
$DIMCEN
 40
0.0
  9
$DIMTSZ
 40
0.0
  9
$DIMTOL
 70
     0
  9
$DIMLIM
 70
     0
  9
$DIMTIH
 70
     0
  9
$DIMTOH
 70
     0
  9
$DIMSE1
 70
     0
  9
$DIMSE2
 70
     0
  9
$DIMTAD
 70
     3
  9
$DIMZIN
 70
     8
  9
$DIMBLK
  1
Open30
  9
$DIMASO
 70
     1
  9
$DIMSHO
 70
     1
  9
$DIMPOST
  1

  9
$DIMAPOST
  1
"
  9
$DIMALT
 70
     0
  9
$DIMALTD
 70
     2
  9
$DIMALTF
 40
0.0393701
  9
$DIMLFAC
 40
1.0
  9
$DIMTOFL
 70
     1
  9
$DIMTVP
 40
0.0
  9
$DIMTIX
 70
     0
  9
$DIMSOXD
 70
     0
  9
$DIMSAH
 70
     0
  9
$DIMBLK1
  1

  9
$DIMBLK2
  1

  9
$DIMSTYLE
  2
SEISA
  9
$DIMCLRD
 70
     3
  9
$DIMCLRE
 70
     3
  9
$DIMCLRT
 70
     3
  9
$DIMTFAC
 40
0.71
  9
$DIMGAP
 40
1.5
  9
$DIMJUST
 70
     0
  9
$DIMSD1
 70
     0
  9
$DIMSD2
 70
     0
  9
$DIMTOLJ
 70
     0
  9
$DIMTZIN
 70
     0
  9
$DIMALTZ
 70
     0
  9
$DIMALTTZ
 70
     8
  9
$DIMUPT
 70
     0
  9
$DIMDEC
 70
     2
  9
$DIMTDEC
 70
     2
  9
$DIMALTU
 70
     2
  9
$DIMALTTD
 70
     2
  9
$DIMTXSTY
  7
SEISA
  9
$DIMAUNIT
 70
     0
  9
$DIMADEC
 70
     0
  9
$DIMALTRND
 40
0.0
  9
$DIMAZIN
 70
     2
  9
$DIMDSEP
 70
    46
  9
$DIMATFIT
 70
     3
  9
$DIMFRAC
 70
     0
  9
$DIMLDRBLK
  1
Open30
  9
$DIMLUNIT
 70
     2
  9
$DIMLWD
 70
    -1
  9
$DIMLWE
 70
    -1
  9
$DIMTMOVE
 70
     0
  9
$DIMFXL
 40
1.0
  9
$DIMFXLON
 70
     0
  9
$DIMJOGANG
 40
0.7853981633974483
  9
$DIMTFILL
 70
     0
  9
$DIMTFILLCLR
 70
     0
  9
$DIMARCSYM
 70
     1
  9
$DIMLTYPE
  6

  9
$DIMLTEX1
  6

  9
$DIMLTEX2
  6

  9
$LUNITS
 70
     2
  9
$LUPREC
 70
     2
  9
$SKETCHINC
 40
1.0
  9
$FILLETRAD
 40
0.25
  9
$AUNITS
 70
     0
  9
$AUPREC
 70
     0
  9
$MENU
  1
.
  9
$ELEVATION
 40
0.0
  9
$PELEVATION
 40
0.0
  9
$THICKNESS
 40
0.0
  9
$LIMCHECK
 70
     0
  9
$CHAMFERA
 40
1.000000000000055
  9
$CHAMFERB
 40
1.000000000000027
  9
$CHAMFERC
 40
1.000000000000055
  9
$CHAMFERD
 40
0.7853981633974483
  9
$SKPOLY
 70
     0
  9
$TDCREATE
 40
2454958.665826702
  9
$TDUCREATE
 40
2454958.290826702
  9
$TDUPDATE
 40
2456479.579325810
  9
$TDUUPDATE
 40
2456479.204325810
  9
$TDINDWG
 40
0.8905617824
  9
$TDUSRTIMER
 40
0.8905607060
  9
$USRTIMER
 70
     1
  9
$ANGBASE
 50
0.0
  9
$ANGDIR
 70
     0
  9
$PDMODE
 70
     0
  9
$PDSIZE
 40
0.0
  9
$PLINEWID
 40
0.0
  9
$SPLFRAME
 70
     0
  9
$SPLINETYPE
 70
     6
  9
$SPLINESEGS
 70
     8
  9
$HANDSEED
  5
BBD1
  9
$SURFTAB1
 70
     6
  9
$SURFTAB2
 70
     6
  9
$SURFTYPE
 70
     6
  9
$SURFU
 70
     6
  9
$SURFV
 70
     6
  9
$UCSBASE
  2

  9
$UCSNAME
  2

  9
$UCSORG
 10
0.0
 20
0.0
 30
0.0
  9
$UCSXDIR
 10
1.0
 20
0.0
 30
0.0
  9
$UCSYDIR
 10
0.0
 20
1.0
 30
0.0
  9
$UCSORTHOREF
  2

  9
$UCSORTHOVIEW
 70
     0
  9
$UCSORGTOP
 10
0.0
 20
0.0
 30
0.0
  9
$UCSORGBOTTOM
 10
0.0
 20
0.0
 30
0.0
  9
$UCSORGLEFT
 10
0.0
 20
0.0
 30
0.0
  9
$UCSORGRIGHT
 10
0.0
 20
0.0
 30
0.0
  9
$UCSORGFRONT
 10
0.0
 20
0.0
 30
0.0
  9
$UCSORGBACK
 10
0.0
 20
0.0
 30
0.0
  9
$PUCSBASE
  2

  9
$PUCSNAME
  2

  9
$PUCSORG
 10
0.0
 20
0.0
 30
0.0
  9
$PUCSXDIR
 10
1.0
 20
0.0
 30
0.0
  9
$PUCSYDIR
 10
0.0
 20
1.0
 30
0.0
  9
$PUCSORTHOREF
  2

  9
$PUCSORTHOVIEW
 70
     0
  9
$PUCSORGTOP
 10
0.0
 20
0.0
 30
0.0
  9
$PUCSORGBOTTOM
 10
0.0
 20
0.0
 30
0.0
  9
$PUCSORGLEFT
 10
0.0
 20
0.0
 30
0.0
  9
$PUCSORGRIGHT
 10
0.0
 20
0.0
 30
0.0
  9
$PUCSORGFRONT
 10
0.0
 20
0.0
 30
0.0
  9
$PUCSORGBACK
 10
0.0
 20
0.0
 30
0.0
  9
$USERI1
 70
     0
  9
$USERI2
 70
     0
  9
$USERI3
 70
     0
  9
$USERI4
 70
     0
  9
$USERI5
 70
     0
  9
$USERR1
 40
0.0
  9
$USERR2
 40
0.0
  9
$USERR3
 40
0.0
  9
$USERR4
 40
0.0
  9
$USERR5
 40
0.0
  9
$WORLDVIEW
 70
     1
  9
$SHADEDGE
 70
     3
  9
$SHADEDIF
 70
    70
  9
$TILEMODE
 70
     1
  9
$MAXACTVP
 70
    64
  9
$PINSBASE
 10
0.0
 20
0.0
 30
0.0
  9
$PLIMCHECK
 70
     0
  9
$PEXTMIN
 10
1.000000000000000E+20
 20
1.000000000000000E+20
 30
1.000000000000000E+20
  9
$PEXTMAX
 10
-1.000000000000000E+20
 20
-1.000000000000000E+20
 30
-1.000000000000000E+20
  9
$PLIMMIN
 10
0.0
 20
0.0
  9
$PLIMMAX
 10
420.0
 20
297.0
  9
$UNITMODE
 70
     0
  9
$VISRETAIN
 70
     1
  9
$PLINEGEN
 70
     0
  9
$PSLTSCALE
 70
     1
  9
$TREEDEPTH
 70
  3020
  9
$CMLSTYLE
  2
Standard
  9
$CMLJUST
 70
     0
  9
$CMLSCALE
 40
20.0
  9
$PROXYGRAPHICS
 70
     1
  9
$MEASUREMENT
 70
     1
  9
$CELWEIGHT
370
    -1
  9
$ENDCAPS
280
     0
  9
$JOINSTYLE
280
     0
  9
$LWDISPLAY
290
     0
  9
$INSUNITS
 70
     4
  9
$HYPERLINKBASE
  1

  9
$STYLESHEET
  1
SEISA.CTB
  9
$XEDIT
290
     1
  9
$CEPSNTYPE
380
     0
  9
$PSTYLEMODE
290
     1
  9
$FINGERPRINTGUID
  2
{2845505E-3B2F-4919-A9AF-9FA471BD6FBD}
  9
$VERSIONGUID
  2
{B921BCF6-06D7-4C37-9BEA-CF747F8F13F6}
  9
$EXTNAMES
290
     1
  9
$PSVPSCALE
 40
0.0
  9
$OLESTARTUP
290
     0
  9
$SORTENTS
280
   127
  9
$INDEXCTL
280
     0
  9
$HIDETEXT
280
     0
  9
$XCLIPFRAME
290
     0
  9
$HALOGAP
280
     0
  9
$OBSCOLOR
 70
   257
  9
$OBSLTYPE
280
     0
  9
$INTERSECTIONDISPLAY
280
     0
  9
$INTERSECTIONCOLOR
 70
   257
  9
$DIMASSOC
280
     2
  9
$PROJECTNAME
  1

  9
$CAMERADISPLAY
290
     0
  9
$LENSLENGTH
 40
50.0
  9
$CAMERAHEIGHT
 40
0.0
  9
$STEPSPERSEC
 40
2.0
  9
$STEPSIZE
 40
6.0
  9
$3DDWFPREC
 40
2.0
  9
$PSOLWIDTH
 40
0.25
  9
$PSOLHEIGHT
 40
4.0
  9
$LOFTANG1
 40
1.570796326794896
  9
$LOFTANG2
 40
1.570796326794896
  9
$LOFTMAG1
 40
0.0
  9
$LOFTMAG2
 40
0.0
  9
$LOFTPARAM
 70
     7
  9
$LOFTNORMALS
280
     1
  9
$LATITUDE
 40
37.795
  9
$LONGITUDE
 40
-122.394
  9
$NORTHDIRECTION
 40
0.0
  9
$TIMEZONE
 70
 -8000
  9
$LIGHTGLYPHDISPLAY
280
     1
  9
$TILEMODELIGHTSYNCH
280
     1
  9
$CMATERIAL
347
27C
  9
$SOLIDHIST
280
     1
  9
$SHOWHIST
280
     1
  9
$DWFFRAME
280
     2
  9
$DGNFRAME
280
     0
  9
$REALWORLDSCALE
290
     1
  9
$INTERFERECOLOR
 62
     1
  9
$INTERFEREOBJVS
345
289
  9
$INTERFEREVPVS
346
286
  9
$CSHADOW
280
     0
  9
$SHADOWPLANELOCATION
 40
0.0
  0
ENDSEC
  0
SECTION
  2
CLASSES
  0
CLASS
  1
ACDBDICTIONARYWDFLT
  2
AcDbDictionaryWithDefault
  3
ObjectDBX Classes
 90
        0
 91
        1
280
     0
281
     0
  0
CLASS
  1
AMGSETTINGSOBJ
  2
AmgSettingsObj
  3
"AcadM|Product Description: AutoCAD Mechanical|Company: Autodesk, Inc."
 90
     1024
 91
        2
280
     0
281
     0
  0
CLASS
  1
ACME_DOCUMENT
  2
AcMeDbDoc
  3
AcMeServices
 90
     1024
 91
        1
280
     0
281
     0
  0
CLASS
  1
ACMESCOPE
  2
AcMeScope
  3
AcMeServices
 90
     1024
 91
        1
280
     0
281
     0
  0
CLASS
  1
ACMECOMMANDHISTORY
  2
AcMeCommandHistory
  3
AcMeServices
 90
     1024
 91
        1
280
     0
281
     0
  0
CLASS
  1
DICTIONARYVAR
  2
AcDbDictionaryVar
  3
ObjectDBX Classes
 90
        0
 91
        9
280
     0
281
     0
  0
CLASS
  1
ACIMSYSVARMAN
  2
AcImSysVarManager
  3
AcMeServices
 90
     1024
 91
        5
280
     0
281
     0
  0
CLASS
  1
ACIMREALSYSVAR
  2
AcImRealSysVar
  3
AcMeServices
 90
     1024
 91
        1
280
     0
281
     0
  0
CLASS
  1
ACIMINTSYSVAR
  2
AcImIntSysVar
  3
AcMeServices
 90
     1024
 91
       27
280
     0
281
     0
  0
CLASS
  1
ACMEDRAWINGMAN
  2
AcMeDrawingMan
  3
AcMeServices
 90
     1024
 91
        1
280
     0
281
     0
  0
CLASS
  1
ACMEVIEW
  2
AcMeView
  3
AcMeServices
 90
     1024
 91
        1
280
     0
281
     0
  0
CLASS
  1
ACDBENTITYCACHE
  2
AcMeEntityCache
  3
AcMeServices
 90
     1024
 91
        1
280
     0
281
     0
  0
CLASS
  1
GSMANAGER
  2
AcMeGSManager
  3
AcMeServices
 90
     1024
 91
        1
280
     0
281
     0
  0
CLASS
  1
AMDTINTERNALREACTOR
  2
AmdtInternalReactor
  3
AcMeServices
 90
     1024
 91
        2
280
     0
281
     0
  0
CLASS
  1
ACMESTATEMGR
  2
AcMeStateMgr
  3
AcMeServices
 90
     1024
 91
        1
280
     0
281
     0
  0
CLASS
  1
ACGREFMASTER
  2
AcGrefMaster
  3
AcAttribServices
 90
     1024
 91
        1
280
     0
281
     0
  0
CLASS
  1
ACME_DATABASE
  2
AcMeDbDatabase
  3
AcMeServices
 90
     1024
 91
        1
280
     0
281
     0
  0
CLASS
  1
ACRFINSADJUSTERMGR
  2
AcRfInsAdjusterMgr
  3
AcMeServices
 90
     1024
 91
        1
280
     0
281
     0
  0
CLASS
  1
ACGREFACADMASTER
  2
AcGrefacadMaster
  3
AcGrefServices
 90
     1024
 91
        1
280
     0
281
     0
  0
CLASS
  1
AMIMASTER
  2
AmiMaster
  3
AmiServices
 90
     1024
 91
        1
280
     0
281
     0
  0
CLASS
  1
ACIMSTRSYSVAR
  2
AcImStrSysVar
  3
AcMeServices
 90
     1024
 91
        5
280
     0
281
     0
  0
CLASS
  1
ACMSTANDARDJIS
  2
AcmStandardJIS
  3
"Amdt_StdImp|Product Description: AutoCAD Mechanical|Company: Autodesk, Inc."
 90
     1024
 91
        0
280
     0
281
     0
  0
CLASS
  1
AMGOBJPROPCFG
  2
AmgObjPropCfg
  3
"AmgLay|Product Description: AutoCAD Mechanical|Company: Autodesk, Inc."
 90
     1025
 91
        1
280
     0
281
     0
  0
CLASS
  1
ACMSURFSTANDARDJIS
  2
AcmSurfTextStdJIS
  3
"Amdt_StdImp|Product Description: AutoCAD Mechanical|Company: Autodesk, Inc."
 90
     1024
 91
        0
280
     0
281
     0
  0
CLASS
  1
ACMFCFSTANDARDJIS
  2
AcmFCFStdJIS
  3
"Amdt_StdImp|Product Description: AutoCAD Mechanical|Company: Autodesk, Inc."
 90
     1024
 91
        0
280
     0
281
     0
  0
CLASS
  1
ACMWELDSTANDARDJIS
  2
AcmWeldingStdJIS
  3
"Amdt_StdImp|Product Description: AutoCAD Mechanical|Company: Autodesk, Inc."
 90
     1024
 91
        0
280
     0
281
     0
  0
CLASS
  1
ACMIDSTANDARDJIS
  2
AcmIdStdJIS
  3
"Amdt_StdImp|Product Description: AutoCAD Mechanical|Company: Autodesk, Inc."
 90
     1024
 91
        0
280
     0
281
     0
  0
CLASS
  1
ACMDATUMSTANDARDJIS
  2
AcmDatumStdJIS
  3
"Amdt_StdImp|Product Description: AutoCAD Mechanical|Company: Autodesk, Inc."
 90
     1024
 91
        0
280
     0
281
     0
  0
CLASS
  1
ACMBOMSTANDARDJIS
  2
AcmBOMStdJIS
  3
"Amdt_StdImp|Product Description: AutoCAD Mechanical|Company: Autodesk, Inc."
 90
     1024
 91
        0
280
     0
281
     0
  0
CLASS
  1
ACMDETAILSTANDARDJIS
  2
AmdtDetailSymStdJIS
  3
"Amdt_StdImp|Product Description: AutoCAD Mechanical|Company: Autodesk, Inc."
 90
     1024
 91
        0
280
     0
281
     0
  0
CLASS
  1
ACMSECTIONSTANDARDJIS
  2
AmdtSectionSymStdJIS
  3
"Amdt_StdImp|Product Description: AutoCAD Mechanical|Company: Autodesk, Inc."
 90
     1024
 91
        0
280
     0
281
     0
  0
CLASS
  1
ACMCENTERLINESTANDARDJIS
  2
AmdtCenterLineStdJIS
  3
"Amdt_StdImp|Product Description: AutoCAD Mechanical|Company: Autodesk, Inc."
 90
     1024
 91
        0
280
     0
281
     0
  0
CLASS
  1
ACMTHREADLINESTANDARDJIS
  2
AmdtThreadLineStdJIS
  3
"Amdt_StdImp|Product Description: AutoCAD Mechanical|Company: Autodesk, Inc."
 90
     1024
 91
        0
280
     0
281
     0
  0
CLASS
  1
ACAMGLAYSTD
  2
AcAmgLayStd
  3
"AmgLay|Product Description: AutoCAD Mechanical|Company: Autodesk, Inc."
 90
     1024
 91
        1
280
     0
281
     0
  0
CLASS
  1
ACAMGDIMSTD
  2
AcAmgDimStd
  3
"AmgDim|Product Description: AutoCAD Mechanical|Company: Autodesk, Inc."
 90
     1024
 91
        1
280
     0
281
     0
  0
CLASS
  1
ACAMGTITLESTD
  2
AcAmgTitleStd
  3
"AmgTitle|Product Description: AutoCAD Mechanical|Company: Autodesk, Inc."
 90
     4095
 91
        1
280
     0
281
     0
  0
CLASS
  1
ACMDATADICTIONARY
  2
AcmDataDictionary
  3
"AcmSymBB|Product Description: AutoCAD Mechanical|Company: Autodesk, Inc."
 90
     1024
 91
        1
280
     0
281
     0
  0
CLASS
  1
ACMDATAENTRYBLOCK
  2
AcmDataEntryBlock
  3
AcmSymBB|Product Description: AutoCAD Mechanical|Company: Autodesk, Inc.
 90
     1024
 91
        0
280
     0
281
     0
  0
CLASS
  1
LAYER_INDEX
  2
AcDbLayerIndex
  3
ObjectDBX Classes
 90
        0
 91
        0
280
     0
281
     0
  0
CLASS
  1
IDBUFFER
  2
AcDbIdBuffer
  3
ObjectDBX Classes
 90
        0
 91
        0
280
     0
281
     0
  0
CLASS
  1
ACMNOTESTANDARDJIS
  2
AmdtNoteStdJIS
  3
"Amdt_StdImp|Product Description: AutoCAD Mechanical|Company: Autodesk, Inc."
 90
     1024
 91
        0
280
     0
281
     0
  0
CLASS
  1
ACAMGHOLECHARTSTDJIS
  2
AcAmgHoleChartStdJIS
  3
AmgDim|Product Description: AutoCAD Mechanical|Company: Autodesk, Inc.
 90
     1024
 91
        0
280
     0
281
     0
  0
CLASS
  1
AM_DRAWING_MGR
  2
AcDmDwgMgr
  3
AcMechDwgViewMgmt
 90
     1024
 91
        1
280
     0
281
     0
  0
CLASS
  1
AM_DWG_DOCUMENT
  2
AcDmDwgDocument
  3
AcMechDwgViewMgmt
 90
     1024
 91
        1
280
     0
281
     0
  0
CLASS
  1
AM_DWG_SHEET
  2
AcDmSheet
  3
AcMechDwgViewMgmt
 90
     1024
 91
        2
280
     0
281
     0
  0
CLASS
  1
AM_VIEWDIMPARMAP
  2
AcDmViewDimParMap
  3
AcMechDwgViewMgmt
 90
     1024
 91
        2
280
     0
281
     0
  0
CLASS
  1
AM_DWGMGR_NAME
  2
AcDmDwgMgrName
  3
AcMechDwgViewMgmt
 90
     1024
 91
        1
280
     0
281
     0
  0
CLASS
  1
AMDTMENUSTATEMGR
  2
AmdtMenuStateMgr
  3
McadcomServices
 90
     1024
 91
        1
280
     0
281
     0
  0
CLASS
  1
AMDTMCOMMENUSTATE
  2
AmdtMcomMenuState
  3
McadcomServices
 90
     1024
 91
        1
280
     0
281
     0
  0
CLASS
  1
MAPIAMMOUDLE
  2
MApiAmModule
  3
MApiAmServices
 90
     1024
 91
        1
280
     0
281
     0
  0
CLASS
  1
AMDTADMENUSTATE
  2
AmdtAdMenuState
  3
DesignerServices
 90
     1024
 91
        1
280
     0
281
     0
  0
CLASS
  1
ADAPPL
  2
AcAdAppl
  3
DesignerServices
 90
     1024
 91
        1
280
     0
281
     0
  0
CLASS
  1
DEPMGR
  2
AcAdDepMgr
  3
DesignerServices
 90
     1024
 91
        1
280
     0
281
     0
  0
CLASS
  1
PARAMMGR
  2
AcAdParamMgr
  3
DesignerServices
 90
     1024
 91
        1
280
     0
281
     0
  0
CLASS
  1
PARAMSCOPE
  2
AcAdParamScope
  3
DesignerServices
 90
     1024
 91
        1
280
     0
281
     0
  0
CLASS
  1
NAMEDAPPL
  2
AcAdNamedAppl
  3
DesignerServices
 90
     1024
 91
        1
280
     0
281
     0
  0
CLASS
  1
AMDTDMMENUSTATE
  2
AmdtDmMenuState
  3
AcMechDwgViewMgmt
 90
     1024
 91
        1
280
     0
281
     0
  0
CLASS
  1
AMDTAMMENUSTATE
  2
AmdtAmMenuState
  3
DesignerAssemblies
 90
     1024
 91
        1
280
     0
281
     0
  0
CLASS
  1
ACAMPROJECT
  2
AcAmProject
  3
DesignerAssemblies
 90
     1024
 91
        1
280
     0
281
     0
  0
CLASS
  1
ACAMGRCOMPDEF
  2
AcAmGrCompDef
  3
DesignerAssemblies
 90
     1024
 91
        1
280
     0
281
     0
  0
CLASS
  1
ACCMCONTEXT
  2
AcCmContext
  3
DesignerAssemblies
 90
     1024
 91
        1
280
     0
281
     0
  0
CLASS
  1
ACAMCOMPDEF
  2
AcAmCompDef
  3
DesignerAssemblies
 90
     1024
 91
        1
280
     0
281
     0
  0
CLASS
  1
ACAMCOMPDEFMGR
  2
AcAmCompDefMgr
  3
DesignerAssemblies
 90
     1024
 91
        1
280
     0
281
     0
  0
CLASS
  1
AMCONTEXTMGR
  2
AcAmContextMgr
  3
DesignerAssemblies
 90
     1024
 91
        1
280
     0
281
     0
  0
CLASS
  1
ACAMCONTEXTMODELER
  2
AcAmContextModeler
  3
DesignerAssemblies
 90
     1024
 91
        1
280
     0
281
     0
  0
CLASS
  1
CATALOGSTATE
  2
AcAmCatalogState
  3
DesignerAssemblies
 90
     1024
 91
        1
280
     0
281
     0
  0
CLASS
  1
ACAMGRCOMPDEFSET
  2
AcAmGrCompDefSet
  3
DesignerAssemblies
 90
     1024
 91
        1
280
     0
281
     0
  0
CLASS
  1
AMDTBROWSERDBTAB
  2
AmdtBrowserDbTab
  3
McadcomServices
 90
     1024
 91
        1
280
     0
281
     0
  0
CLASS
  1
CBROWSERAPPOBJECT
  2
CBrowserAppObject
  3
McadcomServices
 90
     1024
 91
        3
280
     0
281
     0
  0
CLASS
  1
DM_PLACEHOLDER
  2
AcDmSelsetPlaceholder
  3
AcMechDwgViewMgmt
 90
     1024
 91
        1
280
     0
281
     0
  0
CLASS
  1
TABLESTYLE
  2
AcDbTableStyle
  3
ObjectDBX Classes
 90
     4095
 91
        1
280
     0
281
     0
  0
CLASS
  1
VAACXREFPANELOBJECT
  2
VaAcXREFPanelObject
  3
VAAC_ADDIN
 90
        0
 91
        0
280
     0
281
     0
  0
CLASS
  1
VAACIMAGEINVENTORY
  2
VaAcImageInventory
  3
VAAC_ADDIN
 90
        0
 91
        0
280
     0
281
     0
  0
CLASS
  1
AMDTNOTETEMPLATEDB
  2
AmdtNoteTemplateDB
  3
AcmSymBB|Product Description: AutoCAD Mechanical|Company: Autodesk, Inc.
 90
     1024
 91
        6
280
     0
281
     0
  0
CLASS
  1
ACAMGFILTERDAT
  2
AcAmgFilterDat
  3
"AcadM|Product Description: AutoCAD Mechanical|Company: Autodesk, Inc."
 90
     1024
 91
        0
280
     0
281
     0
  0
CLASS
  1
MATERIAL
  2
AcDbMaterial
  3
ObjectDBX Classes
 90
     1153
 91
        3
280
     0
281
     0
  0
CLASS
  1
VISUALSTYLE
  2
AcDbVisualStyle
  3
ObjectDBX Classes
 90
     4095
 91
       16
280
     0
281
     0
  0
CLASS
  1
ACRFATTGENMGR
  2
AcRfAttGeneralMgr
  3
AcAttribServices
 90
     1024
 91
        0
280
     0
281
     0
  0
CLASS
  1
ACRFOBJATTMGR
  2
AcRfObjAttGroupMgr
  3
AcAttribServices
 90
     1024
 91
        0
280
     0
281
     0
  0
CLASS
  1
ACRFMCADAPIATTHOLDER
  2
AcRfMCADAPIAttHolder
  3
AcAttribServices
 90
     1024
 91
        0
280
     0
281
     0
  0
CLASS
  1
AMDTSYSATTR
  2
AmdtSystemAttribute
  3
AcAttribServices
 90
     1024
 91
        0
280
     0
281
     0
  0
CLASS
  1
ACMTAPERSTANDARDJIS
  2
AcmTaperStdJIS
  3
"Amdt_StdImp|Product Description: AutoCAD Mechanical|Company: Autodesk, Inc."
 90
     1024
 91
        0
280
     0
281
     0
  0
CLASS
  1
CAMSSTRUCTBTNSTATE
  2
StructBtnState
  3
DesignerAssemblies
 90
     1024
 91
        0
280
     0
281
     0
  0
CLASS
  1
SCALE
  2
AcDbScale
  3
ObjectDBX Classes
 90
     1153
 91
       34
280
     0
281
     0
  0
CLASS
  1
MLEADERSTYLE
  2
AcDbMLeaderStyle
  3
ACDB_MLEADERSTYLE_CLASS
 90
     4095
 91
        1
280
     0
281
     0
  0
CLASS
  1
ACMANOOTATIONVIEWSTANDARDJIS
  2
AmdtAnViewStdJIS
  3
"Amdt_StdImp|Product Description: AutoCAD Mechanical|Company: Autodesk, Inc."
 90
     1024
 91
        0
280
     0
281
     0
  0
CLASS
  1
ACMSURFSTANDARDJIS2003
  2
AcmSurfTextStdJIS2003
  3
"Amdt_StdImp|Product Description: AutoCAD Mechanical|Company: Autodesk, Inc."
 90
     1024
 91
        0
280
     0
281
     0
  0
CLASS
  1
CELLSTYLEMAP
  2
AcDbCellStyleMap
  3
ObjectDBX Classes
 90
     1152
 91
        2
280
     0
281
     0
  0
CLASS
  1
ACMFCFSTANDARDJIS98
  2
AcmFCFStdJIS98
  3
"Amdt_StdImp|Product Description: AutoCAD Mechanical|Company: Autodesk, Inc."
 90
     1024
 91
        0
280
     0
281
     0
  0
CLASS
  1
SORTENTSTABLE
  2
AcDbSortentsTable
  3
ObjectDBX Classes
 90
        0
 91
       12
280
     0
281
     0
  0
CLASS
  1
DIMASSOC
  2
AcDbDimAssoc
  3
"AcDbDimAssoc|Product Desc:     AcDim ARX App For Dimension|Company:          Autodesk, Inc.|WEB Address:      www.autodesk.com"
 90
        0
 91
       10
280
     0
281
     0
  0
CLASS
  1
STDPART2D
  2
AmgStdPart
  3
AmgStdPart|Product Description: AutoCAD Mechanical|Company: Autodesk, Inc.
 90
     4095
 91
        0
280
     0
281
     1
  0
CLASS
  1
ACMDATAENTRYPART
  2
AcmDataEntryPart
  3
AcmSymBB|Product Description: AutoCAD Mechanical|Company: Autodesk, Inc.
 90
     1024
 91
        0
280
     0
281
     0
  0
CLASS
  1
ACMPARTREF
  2
AcmPartRef
  3
"AcmSymBB|Product Description: AutoCAD Mechanical|Company: Autodesk, Inc."
 90
     4095
 91
        0
280
     0
281
     1
  0
CLASS
  1
ACDBSTDPARTRES_LINE
  2
AcDbStdPartRes_Line
  3
AmgStdPart|Product Description: AutoCAD Mechanical|Company: Autodesk, Inc.
 90
     1024
 91
        0
280
     0
281
     0
  0
CLASS
  1
ACMBOM
  2
AcmBom
  3
"AcmSymBB|Product Description: AutoCAD Mechanical|Company: Autodesk, Inc."
 90
     1024
 91
        0
280
     0
281
     0
  0
CLASS
  1
AMDTFORMULAUPDATEDISPATCHER
  2
AmdtFormulaUpdateDispatcher
  3
AcMeServices
 90
     1024
 91
        0
280
     0
281
     0
  0
CLASS
  1
ACMBOMROW
  2
AcmBomRow
  3
"AcmSymBB|Product Description: AutoCAD Mechanical|Company: Autodesk, Inc."
 90
     1024
 91
        0
280
     0
281
     0
  0
CLASS
  1
ACMPARTLIST
  2
AcmPartList
  3
"AcmSymBB|Product Description: AutoCAD Mechanical|Company: Autodesk, Inc."
 90
     4095
 91
        0
280
     0
281
     1
  0
CLASS
  1
ACDBLINERES
  2
AcDbLineRes
  3
AcGrefServices
 90
     1024
 91
        0
280
     0
281
     0
  0
CLASS
  1
ACRFINSADJ
  2
AcRfInsAdjuster
  3
AcMeServices
 90
     1024
 91
        0
280
     0
281
     0
  0
CLASS
  1
ACMSTANDARDISO
  2
AcmStandardISO
  3
"Amdt_StdImp|Product Description: AutoCAD Mechanical|Company: Autodesk, Inc."
 90
     1024
 91
        1
280
     0
281
     0
  0
CLASS
  1
AMDTEDGESTANDARDISO13715
  2
AmdtEdgeStdISO13715
  3
"Amdt_StdImp|Product Description: AutoCAD Mechanical|Company: Autodesk, Inc."
 90
     1024
 91
        1
280
     0
281
     0
  0
CLASS
  1
ACMSURFSTANDARDISO2002
  2
AcmSurfTextStdISO2002
  3
"Amdt_StdImp|Product Description: AutoCAD Mechanical|Company: Autodesk, Inc."
 90
     1024
 91
        1
280
     0
281
     0
  0
CLASS
  1
ACMFCFSTANDARDISO
  2
AcmFCFStdISO
  3
"Amdt_StdImp|Product Description: AutoCAD Mechanical|Company: Autodesk, Inc."
 90
     1024
 91
        1
280
     0
281
     0
  0
CLASS
  1
ACMWELDSTANDARDISO
  2
AcmWeldingStdISO
  3
"Amdt_StdImp|Product Description: AutoCAD Mechanical|Company: Autodesk, Inc."
 90
     1024
 91
        1
280
     0
281
     0
  0
CLASS
  1
ACMIDSTANDARDISO
  2
AcmIdStdISO
  3
"Amdt_StdImp|Product Description: AutoCAD Mechanical|Company: Autodesk, Inc."
 90
     1024
 91
        1
280
     0
281
     0
  0
CLASS
  1
ACMDATUMSTANDARDISO
  2
AcmDatumStdISO
  3
"Amdt_StdImp|Product Description: AutoCAD Mechanical|Company: Autodesk, Inc."
 90
     1024
 91
        1
280
     0
281
     0
  0
CLASS
  1
ACMBOMSTANDARDISO
  2
AcmBOMStdISO
  3
"Amdt_StdImp|Product Description: AutoCAD Mechanical|Company: Autodesk, Inc."
 90
     1024
 91
        1
280
     0
281
     0
  0
CLASS
  1
ACMDETAILSTANDARDISO
  2
AmdtDetailSymStdISO
  3
"Amdt_StdImp|Product Description: AutoCAD Mechanical|Company: Autodesk, Inc."
 90
     1024
 91
        1
280
     0
281
     0
  0
CLASS
  1
ACMSECTIONSTANDARDISO2001
  2
AmdtSectionSymStdISO2001
  3
"Amdt_StdImp|Product Description: AutoCAD Mechanical|Company: Autodesk, Inc."
 90
     1024
 91
        1
280
     0
281
     0
  0
CLASS
  1
ACMCENTERLINESTANDARDISO
  2
AmdtCenterLineStdISO
  3
"Amdt_StdImp|Product Description: AutoCAD Mechanical|Company: Autodesk, Inc."
 90
     1024
 91
        1
280
     0
281
     0
  0
CLASS
  1
ACMTHREADLINESTANDARDISO
  2
AmdtThreadLineStdISO
  3
"Amdt_StdImp|Product Description: AutoCAD Mechanical|Company: Autodesk, Inc."
 90
     1024
 91
        1
280
     0
281
     0
  0
CLASS
  1
ACMNOTESTANDARDISO
  2
AmdtNoteStdISO
  3
"Amdt_StdImp|Product Description: AutoCAD Mechanical|Company: Autodesk, Inc."
 90
     1024
 91
        1
280
     0
281
     0
  0
CLASS
  1
ACMTAPERSTANDARDISO
  2
AcmTaperStdISO
  3
"Amdt_StdImp|Product Description: AutoCAD Mechanical|Company: Autodesk, Inc."
 90
     1024
 91
        1
280
     0
281
     0
  0
CLASS
  1
ACMANOOTATIONVIEWSTANDARDISO
  2
AmdtAnViewStdISO
  3
"Amdt_StdImp|Product Description: AutoCAD Mechanical|Company: Autodesk, Inc."
 90
     1024
 91
        1
280
     0
281
     0
  0
CLASS
  1
ACAMGHOLECHARTSTDISO
  2
AcAmgHoleChartStdISO
  3
AmgDim|Product Description: AutoCAD Mechanical|Company: Autodesk, Inc.
 90
     1024
 91
        1
280
     0
281
     0
  0
CLASS
  1
EXACXREFPANELOBJECT
  2
ExAcXREFPanelObject
  3
EXAC_ESW
 90
     1025
 91
        0
280
     0
281
     0
  0
CLASS
  1
NPOCOLLECTION
  2
AcDbImpNonPersistentObjectsCollection
  3
ObjectDBX Classes
 90
     1153
 91
        0
280
     0
281
     0
  0
CLASS
  1
ACDBSTDPARTRES_ARC
  2
AcDbStdPartRes_Arc
  3
AmgStdPart|Product Description: AutoCAD Mechanical|Company: Autodesk, Inc.
 90
     1024
 91
        0
280
     0
281
     0
  0
CLASS
  1
AMDTNOTE
  2
AmdtNote
  3
"AcmSymBB|Product Description: AutoCAD Mechanical|Company: Autodesk, Inc."
 90
     4095
 91
        0
280
     0
281
     1
  0
CLASS
  1
PLOTSETTINGS
  2
AcDbPlotSettings
  3
ObjectDBX Classes
 90
        0
 91
        1
280
     0
281
     0
  0
CLASS
  1
ACMSTANDARDANSI
  2
AcmStandardANSI
  3
"Amdt_StdImp|Product Description: AutoCAD Mechanical|Company: Autodesk, Inc."
 90
     1024
 91
        0
280
     0
281
     0
  0
CLASS
  1
ACMSURFSTANDARDANSI
  2
AcmSurfTextStdANSI
  3
"Amdt_StdImp|Product Description: AutoCAD Mechanical|Company: Autodesk, Inc."
 90
     1024
 91
        0
280
     0
281
     0
  0
CLASS
  1
ACMFCFSTANDARDANSI
  2
AcmFCFStdANSI
  3
"Amdt_StdImp|Product Description: AutoCAD Mechanical|Company: Autodesk, Inc."
 90
     1024
 91
        0
280
     0
281
     0
  0
CLASS
  1
ACMWELDSTANDARDANSI
  2
AcmWeldingStdANSI
  3
"Amdt_StdImp|Product Description: AutoCAD Mechanical|Company: Autodesk, Inc."
 90
     1024
 91
        0
280
     0
281
     0
  0
CLASS
  1
ACMIDSTANDARDANSI
  2
AcmIdStdANSI
  3
"Amdt_StdImp|Product Description: AutoCAD Mechanical|Company: Autodesk, Inc."
 90
     1024
 91
        0
280
     0
281
     0
  0
CLASS
  1
ACMDATUMSTANDARDANSI
  2
AcmDatumStdANSI
  3
"Amdt_StdImp|Product Description: AutoCAD Mechanical|Company: Autodesk, Inc."
 90
     1024
 91
        0
280
     0
281
     0
  0
CLASS
  1
ACMBOMSTANDARDANSI
  2
AcmBOMStdANSI
  3
"Amdt_StdImp|Product Description: AutoCAD Mechanical|Company: Autodesk, Inc."
 90
     1024
 91
        0
280
     0
281
     0
  0
CLASS
  1
ACMDETAILSTANDARDANSI
  2
AmdtDetailSymStdANSI
  3
"Amdt_StdImp|Product Description: AutoCAD Mechanical|Company: Autodesk, Inc."
 90
     1024
 91
        0
280
     0
281
     0
  0
CLASS
  1
ACMSECTIONSTANDARDANSI
  2
AmdtSectionSymStdANSI
  3
"Amdt_StdImp|Product Description: AutoCAD Mechanical|Company: Autodesk, Inc."
 90
     1024
 91
        0
280
     0
281
     0
  0
CLASS
  1
ACMCENTERLINESTANDARDANSI
  2
AmdtCenterLineStdANSI
  3
"Amdt_StdImp|Product Description: AutoCAD Mechanical|Company: Autodesk, Inc."
 90
     1024
 91
        0
280
     0
281
     0
  0
CLASS
  1
ACMTHREADLINESTANDARDANSI
  2
AmdtThreadLineStdANSI
  3
"Amdt_StdImp|Product Description: AutoCAD Mechanical|Company: Autodesk, Inc."
 90
     1024
 91
        0
280
     0
281
     0
  0
CLASS
  1
ACMNOTESTANDARDANSI
  2
AmdtNoteStdANSI
  3
"Amdt_StdImp|Product Description: AutoCAD Mechanical|Company: Autodesk, Inc."
 90
     1024
 91
        0
280
     0
281
     0
  0
CLASS
  1
ACMTAPERSTANDARDANSI
  2
AcmTaperStdANSI
  3
"Amdt_StdImp|Product Description: AutoCAD Mechanical|Company: Autodesk, Inc."
 90
     1024
 91
        0
280
     0
281
     0
  0
CLASS
  1
ACMANOOTATIONVIEWSTANDARDANSI
  2
AmdtAnViewStdANSI
  3
"Amdt_StdImp|Product Description: AutoCAD Mechanical|Company: Autodesk, Inc."
 90
     1024
 91
        0
280
     0
281
     0
  0
CLASS
  1
ACAMGHOLECHARTSTDANSI
  2
AcAmgHoleChartStdANSI
  3
AmgDim|Product Description: AutoCAD Mechanical|Company: Autodesk, Inc.
 90
     1024
 91
        0
280
     0
281
     0
  0
CLASS
  1
ACMSTANDARDBSI
  2
AcmStandardBSI
  3
"Amdt_StdImp|Product Description: AutoCAD Mechanical|Company: Autodesk, Inc."
 90
     1024
 91
        0
280
     0
281
     0
  0
CLASS
  1
ACMSURFSTANDARDBSI2002
  2
AcmSurfTextStdBSI2002
  3
"Amdt_StdImp|Product Description: AutoCAD Mechanical|Company: Autodesk, Inc."
 90
     1024
 91
        0
280
     0
281
     0
  0
CLASS
  1
ACMFCFSTANDARDBSI
  2
AcmFCFStdBSI
  3
"Amdt_StdImp|Product Description: AutoCAD Mechanical|Company: Autodesk, Inc."
 90
     1024
 91
        0
280
     0
281
     0
  0
CLASS
  1
ACMWELDSTANDARDBSI
  2
AcmWeldingStdBSI
  3
"Amdt_StdImp|Product Description: AutoCAD Mechanical|Company: Autodesk, Inc."
 90
     1024
 91
        0
280
     0
281
     0
  0
CLASS
  1
ACMIDSTANDARDBSI
  2
AcmIdStdBSI
  3
"Amdt_StdImp|Product Description: AutoCAD Mechanical|Company: Autodesk, Inc."
 90
     1024
 91
        0
280
     0
281
     0
  0
CLASS
  1
ACMDATUMSTANDARDBSI
  2
AcmDatumStdBSI
  3
"Amdt_StdImp|Product Description: AutoCAD Mechanical|Company: Autodesk, Inc."
 90
     1024
 91
        0
280
     0
281
     0
  0
CLASS
  1
ACMBOMSTANDARDBSI
  2
AcmBOMStdBSI
  3
"Amdt_StdImp|Product Description: AutoCAD Mechanical|Company: Autodesk, Inc."
 90
     1024
 91
        0
280
     0
281
     0
  0
CLASS
  1
ACMDETAILSTANDARDBSI
  2
AmdtDetailSymStdBSI
  3
"Amdt_StdImp|Product Description: AutoCAD Mechanical|Company: Autodesk, Inc."
 90
     1024
 91
        0
280
     0
281
     0
  0
CLASS
  1
ACMSECTIONSTANDARDBSI2001
  2
AmdtSectionSymStdBSI2001
  3
"Amdt_StdImp|Product Description: AutoCAD Mechanical|Company: Autodesk, Inc."
 90
     1024
 91
        0
280
     0
281
     0
  0
CLASS
  1
ACMCENTERLINESTANDARDBSI
  2
AmdtCenterLineStdBSI
  3
"Amdt_StdImp|Product Description: AutoCAD Mechanical|Company: Autodesk, Inc."
 90
     1024
 91
        0
280
     0
281
     0
  0
CLASS
  1
ACMTHREADLINESTANDARDBSI
  2
AmdtThreadLineStdBSI
  3
"Amdt_StdImp|Product Description: AutoCAD Mechanical|Company: Autodesk, Inc."
 90
     1024
 91
        0
280
     0
281
     0
  0
CLASS
  1
ACMNOTESTANDARDBSI
  2
AmdtNoteStdBSI
  3
"Amdt_StdImp|Product Description: AutoCAD Mechanical|Company: Autodesk, Inc."
 90
     1024
 91
        0
280
     0
281
     0
  0
CLASS
  1
ACMTAPERSTANDARDBSI
  2
AcmTaperStdBSI
  3
"Amdt_StdImp|Product Description: AutoCAD Mechanical|Company: Autodesk, Inc."
 90
     1024
 91
        0
280
     0
281
     0
  0
CLASS
  1
ACMANOOTATIONVIEWSTANDARDBSI
  2
AmdtAnViewStdBSI
  3
"Amdt_StdImp|Product Description: AutoCAD Mechanical|Company: Autodesk, Inc."
 90
     1024
 91
        0
280
     0
281
     0
  0
CLASS
  1
ACAMGHOLECHARTSTDBSI
  2
AcAmgHoleChartStdBSI
  3
AmgDim|Product Description: AutoCAD Mechanical|Company: Autodesk, Inc.
 90
     1024
 91
        0
280
     0
281
     0
  0
CLASS
  1
AMDTEDGESTANDARDJIS
  2
AmdtEdgeStdJIS
  3
"Amdt_StdImp|Product Description: AutoCAD Mechanical|Company: Autodesk, Inc."
 90
     1024
 91
        0
280
     0
281
     0
  0
CLASS
  1
ACMSURFSYM
  2
AcmSurfaceTexture
  3
"AcmSymBB|Product Description: AutoCAD Mechanical|Company: Autodesk, Inc."
 90
     4095
 91
        0
280
     0
281
     1
  0
CLASS
  1
ACDBDIMENSIONRES
  2
AcDbDimensionRes
  3
AcmSymBB|Product Description: AutoCAD Mechanical|Company: Autodesk, Inc.
 90
     1024
 91
        0
280
     0
281
     0
  0
CLASS
  1
ACDBCIRCARCRES
  2
AcDbCircArcRes
  3
AcGrefServices
 90
     1024
 91
        0
280
     0
281
     0
  0
CLASS
  1
AMDTACMWBLOCKBOMENTITY
  2
AmdtAcmWblockBomEntity
  3
"AcmSymBB|Product Description: AutoCAD Mechanical|Company: Autodesk, Inc."
 90
     4095
 91
        0
280
     0
281
     1
  0
CLASS
  1
ACDBOPPOLYLINERES
  2
AcDbOpPolylineRes
  3
AcGrefServices
 90
     1024
 91
        0
280
     0
281
     0
  0
CLASS
  1
ACDB_BLKREFOBJECTCONTEXTDATA_CLASS
  2
AcDbBlkRefObjectContextData
  3
ObjectDBX Classes
 90
     1153
 91
        0
280
     0
281
     0
  0
CLASS
  1
ACAD_EVALUATION_GRAPH
  2
AcDbEvalGraph
  3
ObjectDBX Classes
 90
     1153
 91
        0
280
     0
281
     0
  0
CLASS
  1
ACAECUSTOBJ
  2
AcAeEditorObj
  3
AcAeEditorObj
 90
     1024
 91
        0
280
     0
281
     0
  0
CLASS
  1
ACDB_DYNAMICBLOCKPURGEPREVENTER_VERSION
  2
AcDbDynamicBlockPurgePreventer
  3
ObjectDBX Classes
 90
     1153
 91
        0
280
     0
281
     0
  0
CLASS
  1
ACMDIMBREAKPERSREACTOR
  2
AcmDimBreakPersReactor
  3
AmgDim|Product Description: AutoCAD Mechanical|Company: Autodesk, Inc.
 90
     4095
 91
        0
280
     0
281
     0
  0
CLASS
  1
ACMPICKOBJ
  2
AcmPickEnt
  3
"AcmSymBB|Product Description: AutoCAD Mechanical|Company: Autodesk, Inc."
 90
     1024
 91
        0
280
     0
281
     1
  0
CLASS
  1
ACMBALLOON
  2
AcmBalloon
  3
"AcmSymBB|Product Description: AutoCAD Mechanical|Company: Autodesk, Inc."
 90
     4095
 91
        0
280
     0
281
     1
  0
CLASS
  1
ACMDATUMID
  2
AcmDatumId
  3
"AcmSymBB|Product Description: AutoCAD Mechanical|Company: Autodesk, Inc."
 90
     4095
 91
        0
280
     0
281
     1
  0
CLASS
  1
ACMFCFRAME
  2
AcmFCF
  3
"AcmSymBB|Product Description: AutoCAD Mechanical|Company: Autodesk, Inc."
 90
     4095
 91
        0
280
     0
281
     1
  0
CLASS
  1
ACMWELDSYM
  2
AcmWelding
  3
"AcmSymBB|Product Description: AutoCAD Mechanical|Company: Autodesk, Inc."
 90
     4095
 91
        0
280
     0
281
     1
  0
ENDSEC
  0
SECTION
  2
TABLES
  0
TABLE
  2
VPORT
  5
8
330
0
100
AcDbSymbolTable
 70
     1
  0
VPORT
  5
27A
330
8
100
AcDbSymbolTableRecord
100
AcDbViewportTableRecord
  2
*Active
 70
     0
 10
0.0
 20
0.0
 11
1.0
 21
1.0
 12
330.1783276148618
 22
309.4048364395275
 13
0.0
 23
0.0
 14
3.75
 24
3.75
 15
15.0
 25
15.0
 16
0.0
 26
0.0
 36
1.0
 17
0.0
 27
0.0
 37
0.0
 40
206.7717433683596
 41
1.571428571428571
 42
50.0
 43
0.0
 44
0.0
 50
0.0
 51
0.0
 71
     0
 72
 20000
 73
     1
 74
     3
 75
     0
 76
     0
 77
     0
 78
     0
281
     0
 65
     0
110
0.0
120
0.0
130
0.0
111
1.0
121
0.0
131
0.0
112
0.0
122
1.0
132
0.0
 79
     0
146
0.0
348
285
 60
     3
 61
     5
292
     1
282
     0
141
0.0
142
0.0
 63
   250
421
  3355443
  0
ENDTAB
  0
TABLE
  2
LTYPE
  5
5
330
0
100
AcDbSymbolTable
 70
    22
  0
LTYPE
  5
14
330
5
100
AcDbSymbolTableRecord
100
AcDbLinetypeTableRecord
  2
ByBlock
 70
     0
  3

 72
    65
 73
     0
 40
0.0
  0
LTYPE
  5
15
330
5
100
AcDbSymbolTableRecord
100
AcDbLinetypeTableRecord
  2
ByLayer
 70
     0
  3

 72
    65
 73
     0
 40
0.0
  0
LTYPE
  5
16
330
5
100
AcDbSymbolTableRecord
100
AcDbLinetypeTableRecord
  2
Continuous
 70
     0
  3
Solid line
 72
    65
 73
     0
 40
0.0
  0
LTYPE
  5
4D
330
5
100
AcDbSymbolTableRecord
100
AcDbLinetypeTableRecord
  2
AM_ISO02W050
 70
     0
  3
__ __ __ __ __ __ __ __ __ __ __ __ __ __ __
 72
    65
 73
     2
 40
7.5
 49
6.0
 74
     0
 49
-1.5
 74
     0
  0
LTYPE
  5
4E
330
5
100
AcDbSymbolTableRecord
100
AcDbLinetypeTableRecord
  2
AM_ISO08W050
 70
     0
  3
____ . ____ . ____ . ____ . ____ . ____ . ____
 72
    65
 73
     4
 40
18.0
 49
12.0
 74
     0
 49
-1.5
 74
     0
 49
3.0
 74
     0
 49
-1.5
 74
     0
  0
LTYPE
  5
4F
330
5
100
AcDbSymbolTableRecord
100
AcDbLinetypeTableRecord
  2
AM_ISO09W050
 70
     0
  3
_____ . . _____ . . _____ . . ____ .. ____
 72
    65
 73
     6
 40
22.5
 49
12.0
 74
     0
 49
-1.5
 74
     0
 49
3.0
 74
     0
 49
-1.5
 74
     0
 49
3.0
 74
     0
 49
-1.5
 74
     0
  0
LTYPE
  5
50
330
5
100
AcDbSymbolTableRecord
100
AcDbLinetypeTableRecord
  2
Amconstr
 70
     0
  3
_______________________
 72
    65
 73
     2
 40
9999.0
 49
9999.0
 74
     0
 49
0.0
 74
     0
  0
LTYPE
  5
51
330
5
100
AcDbSymbolTableRecord
100
AcDbLinetypeTableRecord
  2
AM_ISO08W050x2
 70
     0
  3
__ . __ . __ . __ . __ . __
 72
    65
 73
     4
 40
9.0
 49
6.0
 74
     0
 49
-0.75
 74
     0
 49
1.5
 74
     0
 49
-0.75
 74
     0
  0
LTYPE
  5
52
330
5
100
AcDbSymbolTableRecord
100
AcDbLinetypeTableRecord
  2
AM_ISO02W050x2
 70
     0
  3
 _ _ _ _ _ _ _ _ _ _ _ _
 72
    65
 73
     2
 40
3.75
 49
3.0
 74
     0
 49
-0.75
 74
     0
  0
LTYPE
  5
55
330
5
100
AcDbSymbolTableRecord
100
AcDbLinetypeTableRecord
  2
Amzigzag
 70
     0
  3
/\/-/\/-/\/-/\/-/\/-/\/
 72
    65
 73
     2
 40
11.0001
 49
0.0001
 74
     4
 75
   136
340
23D
 46
0.04
 50
0.0
 44
0.0
 45
0.0
 49
-11.0
 74
     0
  0
LTYPE
  5
65
330
5
100
AcDbSymbolTableRecord
100
AcDbLinetypeTableRecord
  2
CENTER
 70
     0
  3
__ . __
 72
    65
 73
     4
 40
7.0
 49
4.0
 74
     0
 49
-1.0
 74
     0
 49
1.0
 74
     0
 49
-1.0
 74
     0
  0
LTYPE
  5
E0
330
5
100
AcDbSymbolTableRecord
100
AcDbLinetypeTableRecord
  2
HIDDEN
 70
     0
  3
Hidden __ __ __ __ __ __ __ __ __ __ __ __ __ _
 72
    65
 73
     2
 40
9.524999999999996
 49
6.349999999999998
 74
     0
 49
-3.174999999999998
 74
     0
  0
LTYPE
  5
E1
330
5
100
AcDbSymbolTableRecord
100
AcDbLinetypeTableRecord
  2
PHANTOM2
 70
     0
  3
Phantom (.5x) ___ _ _ ___ _ _ ___ _ _ ___ _ _
 72
    65
 73
     6
 40
31.75
 49
15.875
 74
     0
 49
-3.174999999999998
 74
     0
 49
3.174999999999998
 74
     0
 49
-3.174999999999998
 74
     0
 49
3.174999999999998
 74
     0
 49
-3.174999999999998
 74
     0
  0
LTYPE
  5
5A2
330
5
100
AcDbSymbolTableRecord
100
AcDbLinetypeTableRecord
  2
ACJISWELD
 70
     0
  3
_ _ _ _ _
 72
    65
 73
     2
 40
2.0
 49
2.0
 74
     0
 49
-1.0
 74
     0
  0
LTYPE
  5
BBBC
330
5
100
AcDbSymbolTableRecord
100
AcDbLinetypeTableRecord
  2
ACISOWELD
 70
     0
  3
_ _ _ _ _
 72
    65
 73
     2
 40
2.0
 49
2.0
 74
     0
 49
-1.0
 74
     0
  0
LTYPE
  5
BBBD
330
5
100
AcDbSymbolTableRecord
100
AcDbLinetypeTableRecord
  2
ACISOTGB
 70
     0
  3
__ . . __ . .
 72
    65
 73
     6
 40
9.0
 49
4.0
 74
     0
 49
-1.0
 74
     0
 49
1.0
 74
     0
 49
-1.0
 74
     0
 49
1.0
 74
     0
 49
-1.0
 74
     0
  0
LTYPE
  5
BBBE
330
5
100
AcDbSymbolTableRecord
100
AcDbLinetypeTableRecord
  2
ACISOTGL
 70
     0
  3
_ _ _ _ _
 72
    65
 73
     2
 40
3.0
 49
2.0
 74
     0
 49
-1.0
 74
     0
  0
ENDTAB
  0
TABLE
  2
LAYER
  5
2
102
{ACAD_XDICTIONARY
360
BF
102
}
330
0
100
AcDbSymbolTable
 70
    11
  0
LAYER
  5
10
102
{ACAD_XDICTIONARY
360
29F7
102
}
330
2
100
AcDbSymbolTableRecord
100
AcDbLayerTableRecord
  2
0
 70
     0
 62
     7
  6
Continuous
370
    -3
390
F
347
27E
  0
LAYER
  5
81
102
{ACAD_XDICTIONARY
360
29F9
102
}
330
2
100
AcDbSymbolTableRecord
100
AcDbLayerTableRecord
  2
AM_0 外形線1
 70
     0
 62
     7
  6
Continuous
370
    25
390
F
347
27E
  0
LAYER
  5
427
330
2
100
AcDbSymbolTableRecord
100
AcDbLayerTableRecord
  2
Defpoints
 70
     0
 62
     7
  6
Continuous
290
     0
370
    -3
390
F
347
27E
  0
LAYER
  5
2DED
102
{ACAD_XDICTIONARY
360
2DEE
102
}
330
2
100
AcDbSymbolTableRecord
100
AcDbLayerTableRecord
  2
AM_6 文字
 70
     0
 62
     2
  6
Continuous
370
    13
390
F
347
27E
1001
AcAecLayerStandard
1000

1000

  0
LAYER
  5
3FF3
330
2
100
AcDbSymbolTableRecord
100
AcDbLayerTableRecord
  2
AM_5 寸法線
 70
     0
 62
     3
  6
Continuous
370
    13
390
F
347
27E
1001
AcAecLayerStandard
1000

1000

  0
LAYER
  5
3FF4
330
2
100
AcDbSymbolTableRecord
100
AcDbLayerTableRecord
  2
AM_4 細線
 70
     0
 62
     4
  6
Continuous
370
    13
390
F
347
27E
1001
AcAecLayerStandard
1000

1000

  0
LAYER
  5
3FF5
330
2
100
AcDbSymbolTableRecord
100
AcDbLayerTableRecord
  2
AM_7 中心線
 70
     0
 62
     1
  6
AM_ISO08W050
370
    13
390
F
347
27E
1001
AcAecLayerStandard
1000

1000

  0
LAYER
  5
3FF6
330
2
100
AcDbSymbolTableRecord
100
AcDbLayerTableRecord
  2
AM_3 隠れ線
 70
     0
 62
     8
  6
ACJISWELD
370
    13
390
F
347
27E
1001
AcAecLayerStandard
1000

1000

  0
LAYER
  5
B14F
330
2
100
AcDbSymbolTableRecord
100
AcDbLayerTableRecord
  2
AM_11 想像線
 70
     0
 62
     5
  6
AM_ISO09W050
370
    13
390
F
347
27E
1001
AcAecLayerStandard
1000

1000

  0
LAYER
  5
B973
330
2
100
AcDbSymbolTableRecord
100
AcDbLayerTableRecord
  2
AM_8 ハッチング
 70
     0
 62
     1
  6
Continuous
370
    13
390
F
347
27E
1001
AcAecLayerStandard
1000

1000

  0
ENDTAB
  0
TABLE
  2
STYLE
  5
3
330
0
100
AcDbSymbolTable
 70
    11
  0
STYLE
  5
11
330
3
100
AcDbSymbolTableRecord
100
AcDbTextStyleTableRecord
  2
STANDARD
 70
     0
 40
0.0
 41
1.0
 50
0.0
 71
     0
 42
25.0
  3
ISOCP.SHX
  4
EXTFONT.SHX
  0
STYLE
  5
23D
330
3
100
AcDbSymbolTableRecord
100
AcDbTextStyleTableRecord
  2

 70
     1
 40
0.0
 41
1.0
 50
0.0
 71
     0
 42
2.5
  3
genltshp.shx
  4

  0
STYLE
  5
5D5
330
3
100
AcDbSymbolTableRecord
100
AcDbTextStyleTableRecord
  2
SEISA
 70
     0
 40
0.0
 41
0.9
 50
0.0
 71
     0
 42
25.0
  3
romans.shx
  4
extfont2.shx
  0
STYLE
  5
BBAC
330
3
100
AcDbSymbolTableRecord
100
AcDbTextStyleTableRecord
  2
ACISOTS
 70
     0
 40
1.0
 41
1.0
 50
0.0
 71
     0
 42
25.0
  3
isocp.shx
  4
extfont.shx
  0
STYLE
  5
BBBB
330
3
100
AcDbSymbolTableRecord
100
AcDbTextStyleTableRecord
  2
ACISOGDT
 70
     0
 40
0.0
 41
1.0
 50
0.0
 71
     0
 42
25.0
  3
amgdt.shx
  4

  0
ENDTAB
  0
TABLE
  2
VIEW
  5
6
330
0
100
AcDbSymbolTable
 70
     6
  0
VIEW
  5
91B
330
6
100
AcDbSymbolTableRecord
100
AcDbViewTableRecord
  2
AM_VIEW1
 70
     0
 40
222.75
 10
215.3432884644908
 20
334.1250005540731
 41
430.6865763546798
 11
0.0
 21
0.0
 31
1.0
 12
0.0
 22
0.0
 32
0.0
 42
50.0
 43
0.0
 44
0.0
 50
0.0
 71
    16
281
     0
 72
     0
 73
     0
  0
VIEW
  5
91C
330
6
100
AcDbSymbolTableRecord
100
AcDbViewTableRecord
  2
AM_VIEW2
 70
     0
 40
222.75
 10
414.6567121098107
 20
334.1250005540731
 41
430.6865763546798
 11
0.0
 21
0.0
 31
1.0
 12
0.0
 22
0.0
 32
0.0
 42
50.0
 43
0.0
 44
0.0
 50
0.0
 71
    16
281
     0
 72
     0
 73
     0
  0
VIEW
  5
91D
330
6
100
AcDbSymbolTableRecord
100
AcDbViewTableRecord
  2
AM_VIEW3
 70
     0
 40
222.75
 10
215.3432884644908
 20
111.3750005540731
 41
430.6865763546798
 11
0.0
 21
0.0
 31
1.0
 12
0.0
 22
0.0
 32
0.0
 42
50.0
 43
0.0
 44
0.0
 50
0.0
 71
    16
281
     0
 72
     0
 73
     0
  0
VIEW
  5
91E
330
6
100
AcDbSymbolTableRecord
100
AcDbViewTableRecord
  2
AM_VIEW4
 70
     0
 40
222.75
 10
414.6567121098107
 20
111.3750005540731
 41
430.6865763546798
 11
0.0
 21
0.0
 31
1.0
 12
0.0
 22
0.0
 32
0.0
 42
50.0
 43
0.0
 44
0.0
 50
0.0
 71
    16
281
     0
 72
     0
 73
     0
  0
VIEW
  5
91F
330
6
100
AcDbSymbolTableRecord
100
AcDbViewTableRecord
  2
AM_VIEW5
 70
     0
 40
222.75
 10
315.0000002871508
 20
222.7500005540731
 41
430.68657635468
 11
0.0
 21
0.0
 31
1.0
 12
0.0
 22
0.0
 32
0.0
 42
50.0
 43
0.0
 44
0.0
 50
0.0
 71
    16
281
     0
 72
     0
 73
     0
  0
VIEW
  5
920
330
6
100
AcDbSymbolTableRecord
100
AcDbViewTableRecord
  2
AM_VIEW6
 70
     0
 40
445.4955449999999
 10
315.0000002871508
 20
222.7500005540731
 41
861.3645389778328
 11
0.0
 21
0.0
 31
1.0
 12
0.0
 22
0.0
 32
0.0
 42
50.0
 43
0.0
 44
0.0
 50
0.0
 71
    16
281
     0
 72
     0
 73
     0
  0
ENDTAB
  0
TABLE
  2
UCS
  5
7
330
0
100
AcDbSymbolTable
 70
     0
  0
ENDTAB
  0
TABLE
  2
APPID
  5
9
330
0
100
AcDbSymbolTable
 70
   393
  0
APPID
  5
12
330
9
100
AcDbSymbolTableRecord
100
AcDbRegAppTableRecord
  2
ACAD
 70
     0
  0
APPID
  5
30
330
9
100
AcDbSymbolTableRecord
100
AcDbRegAppTableRecord
  2
MCAD_NO_VIS
 70
     0
  0
APPID
  5
31
330
9
100
AcDbSymbolTableRecord
100
AcDbRegAppTableRecord
  2
ACAD_TEMP_GRAPHIC
 70
     0
  0
APPID
  5
44
330
9
100
AcDbSymbolTableRecord
100
AcDbRegAppTableRecord
  2
ACATTRIBSERVICES
 70
     0
  0
APPID
  5
F6
330
9
100
AcDbSymbolTableRecord
100
AcDbRegAppTableRecord
  2
AD_DRAW
 70
     0
  0
APPID
  5
114
330
9
100
AcDbSymbolTableRecord
100
AcDbRegAppTableRecord
  2
DESIGNERASSEMBLIES
 70
     0
  0
APPID
  5
118
330
9
100
AcDbSymbolTableRecord
100
AcDbRegAppTableRecord
  2
ACADM_DIM_EDIT
 70
     0
  0
APPID
  5
119
330
9
100
AcDbSymbolTableRecord
100
AcDbRegAppTableRecord
  2
AMDT_DM_ADJ
 70
     0
  0
APPID
  5
1AF
330
9
100
AcDbSymbolTableRecord
100
AcDbRegAppTableRecord
  2
ACAD_DSTYLE_DIMARC_LENGTH_SYMBOL
 70
     0
  0
APPID
  5
1B0
330
9
100
AcDbSymbolTableRecord
100
AcDbRegAppTableRecord
  2
ACAD_DSTYLE_DIMJOGGED_JOGANGLE_SYMBOL
 70
     0
  0
APPID
  5
2D7
330
9
100
AcDbSymbolTableRecord
100
AcDbRegAppTableRecord
  2
ACAD_MLEADERVER
 70
     0
  0
APPID
  5
355
330
9
100
AcDbSymbolTableRecord
100
AcDbRegAppTableRecord
  2
AcadAnnoPO
 70
     0
  0
APPID
  5
428
330
9
100
AcDbSymbolTableRecord
100
AcDbRegAppTableRecord
  2
ACAD_DSTYLE_DIMTEXT_FILL
 70
     0
  0
APPID
  5
429
330
9
100
AcDbSymbolTableRecord
100
AcDbRegAppTableRecord
  2
GENIUS_GENSCREG_15
 70
     0
  0
APPID
  5
42A
330
9
100
AcDbSymbolTableRecord
100
AcDbRegAppTableRecord
  2
GENIUS_GENOBJ-N-SDF_13
 70
     0
  0
APPID
  5
42B
330
9
100
AcDbSymbolTableRecord
100
AcDbRegAppTableRecord
  2
GENIUS_GENODEF_13
 70
     0
  0
APPID
  5
42C
330
9
100
AcDbSymbolTableRecord
100
AcDbRegAppTableRecord
  2
ACAD_EXEMPT_FROM_CAD_STANDARDS
 70
     0
  0
APPID
  5
42D
330
9
100
AcDbSymbolTableRecord
100
AcDbRegAppTableRecord
  2
AcAecLayerStandard
 70
     0
  0
APPID
  5
42E
330
9
100
AcDbSymbolTableRecord
100
AcDbRegAppTableRecord
  2
GENIUS_GENOBJ-N-CEN_13
 70
     0
  0
APPID
  5
42F
330
9
100
AcDbSymbolTableRecord
100
AcDbRegAppTableRecord
  2
GENIUS_GENCEN_19
 70
     0
  0
APPID
  5
430
330
9
100
AcDbSymbolTableRecord
100
AcDbRegAppTableRecord
  2
ACAD_DSTYLE_DIMINSPECT
 70
     0
  0
APPID
  5
431
330
9
100
AcDbSymbolTableRecord
100
AcDbRegAppTableRecord
  2
GENIUS_AMGTXT_16
 70
     0
  0
APPID
  5
432
330
9
100
AcDbSymbolTableRecord
100
AcDbRegAppTableRecord
  2
GENIUS_GENFIL_13
 70
     0
  0
APPID
  5
433
330
9
100
AcDbSymbolTableRecord
100
AcDbRegAppTableRecord
  2
GENIUS_GENOLIS_13
 70
     0
  0
APPID
  5
434
330
9
100
AcDbSymbolTableRecord
100
AcDbRegAppTableRecord
  2
GENIUS_GENOBJ-N-CHA_13
 70
     0
  0
APPID
  5
435
330
9
100
AcDbSymbolTableRecord
100
AcDbRegAppTableRecord
  2
GENIUS_GENOENT_13
 70
     0
  0
APPID
  5
436
330
9
100
AcDbSymbolTableRecord
100
AcDbRegAppTableRecord
  2
GENIUS_GENOREF_13
 70
     0
  0
APPID
  5
437
330
9
100
AcDbSymbolTableRecord
100
AcDbRegAppTableRecord
  2
GENIUS_GENOBJ-N-FIL_13
 70
     0
  0
APPID
  5
438
330
9
100
AcDbSymbolTableRecord
100
AcDbRegAppTableRecord
  2
GEVID1208829536
 70
     0
  0
APPID
  5
439
330
9
100
AcDbSymbolTableRecord
100
AcDbRegAppTableRecord
  2
GEVDC
 70
     0
  0
APPID
  5
43A
330
9
100
AcDbSymbolTableRecord
100
AcDbRegAppTableRecord
  2
GEVRADREF
 70
     0
  0
APPID
  5
43B
330
9
100
AcDbSymbolTableRecord
100
AcDbRegAppTableRecord
  2
GENIUS_GENBH_13
 70
     0
  0
APPID
  5
43C
330
9
100
AcDbSymbolTableRecord
100
AcDbRegAppTableRecord
  2
GENIUS_GENOBJ-NBEHI-BHF_13
 70
     0
  0
APPID
  5
43D
330
9
100
AcDbSymbolTableRecord
100
AcDbRegAppTableRecord
  2
GENIUS_GENOBJ-NBEHI-BHB_13
 70
     0
  0
APPID
  5
43E
330
9
100
AcDbSymbolTableRecord
100
AcDbRegAppTableRecord
  2
GEVID1208829537
 70
     0
  0
APPID
  5
43F
330
9
100
AcDbSymbolTableRecord
100
AcDbRegAppTableRecord
  2
ACAD_DSTYLE_DIMJAG
 70
     0
  0
APPID
  5
440
330
9
100
AcDbSymbolTableRecord
100
AcDbRegAppTableRecord
  2
ACAD_DSTYLE_DIMTALN
 70
     0
  0
APPID
  5
441
330
9
100
AcDbSymbolTableRecord
100
AcDbRegAppTableRecord
  2
AMG_2DHIDE
 70
     0
  0
APPID
  5
442
330
9
100
AcDbSymbolTableRecord
100
AcDbRegAppTableRecord
  2
AMG_2DSTRUCT_BTR
 70
     0
  0
APPID
  5
443
330
9
100
AcDbSymbolTableRecord
100
AcDbRegAppTableRecord
  2
GEVID1208845772
 70
     0
  0
APPID
  5
444
330
9
100
AcDbSymbolTableRecord
100
AcDbRegAppTableRecord
  2
GEVID1208845773
 70
     0
  0
APPID
  5
445
330
9
100
AcDbSymbolTableRecord
100
AcDbRegAppTableRecord
  2
ACADM_2DVIEW_IGN_NOTIFY
 70
     0
  0
APPID
  5
446
330
9
100
AcDbSymbolTableRecord
100
AcDbRegAppTableRecord
  2
GEVID1208845774
 70
     0
  0
APPID
  5
447
330
9
100
AcDbSymbolTableRecord
100
AcDbRegAppTableRecord
  2
GEVID1208845775
 70
     0
  0
APPID
  5
448
330
9
100
AcDbSymbolTableRecord
100
AcDbRegAppTableRecord
  2
GEVID1208845776
 70
     0
  0
APPID
  5
449
330
9
100
AcDbSymbolTableRecord
100
AcDbRegAppTableRecord
  2
GEVID1208845777
 70
     0
  0
APPID
  5
44A
330
9
100
AcDbSymbolTableRecord
100
AcDbRegAppTableRecord
  2
GEVCON
 70
     0
  0
APPID
  5
44B
330
9
100
AcDbSymbolTableRecord
100
AcDbRegAppTableRecord
  2
GENIUS_GENOBJ-F-SCPASSM_13
 70
     0
  0
APPID
  5
44C
330
9
100
AcDbSymbolTableRecord
100
AcDbRegAppTableRecord
  2
GEVID1208845778
 70
     0
  0
APPID
  5
44D
330
9
100
AcDbSymbolTableRecord
100
AcDbRegAppTableRecord
  2
GEVID1208845779
 70
     0
  0
APPID
  5
44E
330
9
100
AcDbSymbolTableRecord
100
AcDbRegAppTableRecord
  2
GEVID1208845780
 70
     0
  0
APPID
  5
44F
330
9
100
AcDbSymbolTableRecord
100
AcDbRegAppTableRecord
  2
GEVID1208845781
 70
     0
  0
APPID
  5
450
330
9
100
AcDbSymbolTableRecord
100
AcDbRegAppTableRecord
  2
GEVID1208845782
 70
     0
  0
APPID
  5
451
330
9
100
AcDbSymbolTableRecord
100
AcDbRegAppTableRecord
  2
GEVID1208845783
 70
     0
  0
APPID
  5
452
330
9
100
AcDbSymbolTableRecord
100
AcDbRegAppTableRecord
  2
GEVID1208845784
 70
     0
  0
APPID
  5
453
330
9
100
AcDbSymbolTableRecord
100
AcDbRegAppTableRecord
  2
GEVID1208845785
 70
     0
  0
APPID
  5
454
330
9
100
AcDbSymbolTableRecord
100
AcDbRegAppTableRecord
  2
GEVID1208845787
 70
     0
  0
APPID
  5
455
330
9
100
AcDbSymbolTableRecord
100
AcDbRegAppTableRecord
  2
GEVID1208845788
 70
     0
  0
APPID
  5
456
330
9
100
AcDbSymbolTableRecord
100
AcDbRegAppTableRecord
  2
GEVID1208845789
 70
     0
  0
APPID
  5
457
330
9
100
AcDbSymbolTableRecord
100
AcDbRegAppTableRecord
  2
GEVID1208845790
 70
     0
  0
APPID
  5
458
330
9
100
AcDbSymbolTableRecord
100
AcDbRegAppTableRecord
  2
GEVID1208845791
 70
     0
  0
APPID
  5
459
330
9
100
AcDbSymbolTableRecord
100
AcDbRegAppTableRecord
  2
GEVID1208845792
 70
     0
  0
APPID
  5
45A
330
9
100
AcDbSymbolTableRecord
100
AcDbRegAppTableRecord
  2
GEVID1208845793
 70
     0
  0
APPID
  5
45B
330
9
100
AcDbSymbolTableRecord
100
AcDbRegAppTableRecord
  2
GEVID1208845794
 70
     0
  0
APPID
  5
45C
330
9
100
AcDbSymbolTableRecord
100
AcDbRegAppTableRecord
  2
GEVID1208845795
 70
     0
  0
APPID
  5
45D
330
9
100
AcDbSymbolTableRecord
100
AcDbRegAppTableRecord
  2
GEVID1208845796
 70
     0
  0
APPID
  5
45E
330
9
100
AcDbSymbolTableRecord
100
AcDbRegAppTableRecord
  2
GEVID1208845797
 70
     0
  0
APPID
  5
45F
330
9
100
AcDbSymbolTableRecord
100
AcDbRegAppTableRecord
  2
GEVID1208845798
 70
     0
  0
APPID
  5
460
330
9
100
AcDbSymbolTableRecord
100
AcDbRegAppTableRecord
  2
GEVID1208845799
 70
     0
  0
APPID
  5
461
330
9
100
AcDbSymbolTableRecord
100
AcDbRegAppTableRecord
  2
GEVID1208845800
 70
     0
  0
APPID
  5
462
330
9
100
AcDbSymbolTableRecord
100
AcDbRegAppTableRecord
  2
GEVID1208845801
 70
     0
  0
APPID
  5
463
330
9
100
AcDbSymbolTableRecord
100
AcDbRegAppTableRecord
  2
GEVID1208845802
 70
     0
  0
APPID
  5
464
330
9
100
AcDbSymbolTableRecord
100
AcDbRegAppTableRecord
  2
GENIUS_GENOBJ-N-DIM_13
 70
     0
  0
APPID
  5
465
330
9
100
AcDbSymbolTableRecord
100
AcDbRegAppTableRecord
  2
GENIUS_GENDIM_13
 70
     0
  0
APPID
  5
466
330
9
100
AcDbSymbolTableRecord
100
AcDbRegAppTableRecord
  2
GENIUS_GENDIMSH_14
 70
     0
  0
APPID
  5
467
330
9
100
AcDbSymbolTableRecord
100
AcDbRegAppTableRecord
  2
GEVID1208845803
 70
     0
  0
APPID
  5
468
330
9
100
AcDbSymbolTableRecord
100
AcDbRegAppTableRecord
  2
GEVID1208845804
 70
     0
  0
APPID
  5
469
330
9
100
AcDbSymbolTableRecord
100
AcDbRegAppTableRecord
  2
GEVID1208845805
 70
     0
  0
APPID
  5
46A
330
9
100
AcDbSymbolTableRecord
100
AcDbRegAppTableRecord
  2
GEVID1208845806
 70
     0
  0
APPID
  5
46B
330
9
100
AcDbSymbolTableRecord
100
AcDbRegAppTableRecord
  2
GEVID1208845807
 70
     0
  0
APPID
  5
46C
330
9
100
AcDbSymbolTableRecord
100
AcDbRegAppTableRecord
  2
GEVID1208845808
 70
     0
  0
APPID
  5
46D
330
9
100
AcDbSymbolTableRecord
100
AcDbRegAppTableRecord
  2
GEVID1208845809
 70
     0
  0
APPID
  5
46E
330
9
100
AcDbSymbolTableRecord
100
AcDbRegAppTableRecord
  2
GEVID1208845810
 70
     0
  0
APPID
  5
46F
330
9
100
AcDbSymbolTableRecord
100
AcDbRegAppTableRecord
  2
GEVID1208845811
 70
     0
  0
APPID
  5
470
330
9
100
AcDbSymbolTableRecord
100
AcDbRegAppTableRecord
  2
GEVID1208845813
 70
     0
  0
APPID
  5
471
330
9
100
AcDbSymbolTableRecord
100
AcDbRegAppTableRecord
  2
GEVID1208845814
 70
     0
  0
APPID
  5
472
330
9
100
AcDbSymbolTableRecord
100
AcDbRegAppTableRecord
  2
GEVID1208845815
 70
     0
  0
APPID
  5
473
330
9
100
AcDbSymbolTableRecord
100
AcDbRegAppTableRecord
  2
GEVID1208845816
 70
     0
  0
APPID
  5
474
330
9
100
AcDbSymbolTableRecord
100
AcDbRegAppTableRecord
  2
GEVID1208845817
 70
     0
  0
APPID
  5
475
330
9
100
AcDbSymbolTableRecord
100
AcDbRegAppTableRecord
  2
GEVID1208845818
 70
     0
  0
APPID
  5
476
330
9
100
AcDbSymbolTableRecord
100
AcDbRegAppTableRecord
  2
GEVID1208845819
 70
     0
  0
APPID
  5
477
330
9
100
AcDbSymbolTableRecord
100
AcDbRegAppTableRecord
  2
GEVID1208845820
 70
     0
  0
APPID
  5
478
330
9
100
AcDbSymbolTableRecord
100
AcDbRegAppTableRecord
  2
GENIUS_GENOBJ-F-SHCL_13
 70
     0
  0
APPID
  5
479
330
9
100
AcDbSymbolTableRecord
100
AcDbRegAppTableRecord
  2
GENIUS_GEFMSH_13
 70
     0
  0
APPID
  5
47A
330
9
100
AcDbSymbolTableRecord
100
AcDbRegAppTableRecord
  2
GENIUS_GENOBJ-F-SHCA_13
 70
     0
  0
APPID
  5
47B
330
9
100
AcDbSymbolTableRecord
100
AcDbRegAppTableRecord
  2
GENIUS_GEFSH_13
 70
     0
  0
APPID
  5
47C
330
9
100
AcDbSymbolTableRecord
100
AcDbRegAppTableRecord
  2
GENIUS_GEFSHP_13
 70
     0
  0
APPID
  5
47D
330
9
100
AcDbSymbolTableRecord
100
AcDbRegAppTableRecord
  2
GENIUS_GEFSHP0_13
 70
     0
  0
APPID
  5
47E
330
9
100
AcDbSymbolTableRecord
100
AcDbRegAppTableRecord
  2
GENIUS_GEFSH0_13
 70
     0
  0
APPID
  5
47F
330
9
100
AcDbSymbolTableRecord
100
AcDbRegAppTableRecord
  2
GENIUS_GEFSHP1_13
 70
     0
  0
APPID
  5
480
330
9
100
AcDbSymbolTableRecord
100
AcDbRegAppTableRecord
  2
GENIUS_GEFSH1_13
 70
     0
  0
APPID
  5
481
330
9
100
AcDbSymbolTableRecord
100
AcDbRegAppTableRecord
  2
GEVID1208866337
 70
     0
  0
APPID
  5
482
330
9
100
AcDbSymbolTableRecord
100
AcDbRegAppTableRecord
  2
GEVID1208866338
 70
     0
  0
APPID
  5
483
330
9
100
AcDbSymbolTableRecord
100
AcDbRegAppTableRecord
  2
GEVID1208866339
 70
     0
  0
APPID
  5
484
330
9
100
AcDbSymbolTableRecord
100
AcDbRegAppTableRecord
  2
GEVID1208866340
 70
     0
  0
APPID
  5
485
330
9
100
AcDbSymbolTableRecord
100
AcDbRegAppTableRecord
  2
GEVID1208866341
 70
     0
  0
APPID
  5
486
330
9
100
AcDbSymbolTableRecord
100
AcDbRegAppTableRecord
  2
ACAD_PSEXT
 70
     0
  0
APPID
  5
487
330
9
100
AcDbSymbolTableRecord
100
AcDbRegAppTableRecord
  2
GEVID1208866342
 70
     0
  0
APPID
  5
488
330
9
100
AcDbSymbolTableRecord
100
AcDbRegAppTableRecord
  2
GEVID1208913836
 70
     0
  0
APPID
  5
489
330
9
100
AcDbSymbolTableRecord
100
AcDbRegAppTableRecord
  2
GEVID1208913837
 70
     0
  0
APPID
  5
48A
330
9
100
AcDbSymbolTableRecord
100
AcDbRegAppTableRecord
  2
GEVID1208913838
 70
     0
  0
APPID
  5
48B
330
9
100
AcDbSymbolTableRecord
100
AcDbRegAppTableRecord
  2
GEVID1208913839
 70
     0
  0
APPID
  5
48C
330
9
100
AcDbSymbolTableRecord
100
AcDbRegAppTableRecord
  2
GENIUS_GENDTOL_13
 70
     0
  0
APPID
  5
48D
330
9
100
AcDbSymbolTableRecord
100
AcDbRegAppTableRecord
  2
GEVID1208928889
 70
     0
  0
APPID
  5
48E
330
9
100
AcDbSymbolTableRecord
100
AcDbRegAppTableRecord
  2
GEVID1208928890
 70
     0
  0
APPID
  5
48F
330
9
100
AcDbSymbolTableRecord
100
AcDbRegAppTableRecord
  2
GEVID1208928891
 70
     0
  0
APPID
  5
490
330
9
100
AcDbSymbolTableRecord
100
AcDbRegAppTableRecord
  2
GEVID1208928892
 70
     0
  0
APPID
  5
491
330
9
100
AcDbSymbolTableRecord
100
AcDbRegAppTableRecord
  2
GEVID1208933827
 70
     0
  0
APPID
  5
492
330
9
100
AcDbSymbolTableRecord
100
AcDbRegAppTableRecord
  2
GEVID1208933829
 70
     0
  0
APPID
  5
493
330
9
100
AcDbSymbolTableRecord
100
AcDbRegAppTableRecord
  2
GEVID1208933830
 70
     0
  0
APPID
  5
494
330
9
100
AcDbSymbolTableRecord
100
AcDbRegAppTableRecord
  2
GEVID1208933831
 70
     0
  0
APPID
  5
495
330
9
100
AcDbSymbolTableRecord
100
AcDbRegAppTableRecord
  2
GEVID1208933832
 70
     0
  0
APPID
  5
496
330
9
100
AcDbSymbolTableRecord
100
AcDbRegAppTableRecord
  2
GEVID1208933833
 70
     0
  0
APPID
  5
497
330
9
100
AcDbSymbolTableRecord
100
AcDbRegAppTableRecord
  2
GEVID1208933834
 70
     0
  0
APPID
  5
498
330
9
100
AcDbSymbolTableRecord
100
AcDbRegAppTableRecord
  2
GEVID1208933835
 70
     0
  0
APPID
  5
499
330
9
100
AcDbSymbolTableRecord
100
AcDbRegAppTableRecord
  2
GEVID1208933836
 70
     0
  0
APPID
  5
49A
330
9
100
AcDbSymbolTableRecord
100
AcDbRegAppTableRecord
  2
GEVID1208933837
 70
     0
  0
APPID
  5
49B
330
9
100
AcDbSymbolTableRecord
100
AcDbRegAppTableRecord
  2
GEVID1208933838
 70
     0
  0
APPID
  5
49C
330
9
100
AcDbSymbolTableRecord
100
AcDbRegAppTableRecord
  2
GEVID1208933840
 70
     0
  0
APPID
  5
49D
330
9
100
AcDbSymbolTableRecord
100
AcDbRegAppTableRecord
  2
GEVID1208933842
 70
     0
  0
APPID
  5
49E
330
9
100
AcDbSymbolTableRecord
100
AcDbRegAppTableRecord
  2
GEVID1208933843
 70
     0
  0
APPID
  5
49F
330
9
100
AcDbSymbolTableRecord
100
AcDbRegAppTableRecord
  2
GEVID1208933844
 70
     0
  0
APPID
  5
4A0
330
9
100
AcDbSymbolTableRecord
100
AcDbRegAppTableRecord
  2
GEVID1208933845
 70
     0
  0
APPID
  5
4A1
330
9
100
AcDbSymbolTableRecord
100
AcDbRegAppTableRecord
  2
GEVID1208933846
 70
     0
  0
APPID
  5
4A2
330
9
100
AcDbSymbolTableRecord
100
AcDbRegAppTableRecord
  2
GEVID1208933847
 70
     0
  0
APPID
  5
4A3
330
9
100
AcDbSymbolTableRecord
100
AcDbRegAppTableRecord
  2
GEVID1208933848
 70
     0
  0
APPID
  5
4A4
330
9
100
AcDbSymbolTableRecord
100
AcDbRegAppTableRecord
  2
GEVID1208933849
 70
     0
  0
APPID
  5
4A5
330
9
100
AcDbSymbolTableRecord
100
AcDbRegAppTableRecord
  2
GEVID1208933850
 70
     0
  0
APPID
  5
4A6
330
9
100
AcDbSymbolTableRecord
100
AcDbRegAppTableRecord
  2
GEVID1208933851
 70
     0
  0
APPID
  5
4A7
330
9
100
AcDbSymbolTableRecord
100
AcDbRegAppTableRecord
  2
GEVID1208933852
 70
     0
  0
APPID
  5
4A8
330
9
100
AcDbSymbolTableRecord
100
AcDbRegAppTableRecord
  2
GEVID1208933853
 70
     0
  0
APPID
  5
4A9
330
9
100
AcDbSymbolTableRecord
100
AcDbRegAppTableRecord
  2
GEVID1208933854
 70
     0
  0
APPID
  5
4AA
330
9
100
AcDbSymbolTableRecord
100
AcDbRegAppTableRecord
  2
GEVID1208933855
 70
     0
  0
APPID
  5
4AB
330
9
100
AcDbSymbolTableRecord
100
AcDbRegAppTableRecord
  2
GEVID1208933856
 70
     0
  0
APPID
  5
4AC
330
9
100
AcDbSymbolTableRecord
100
AcDbRegAppTableRecord
  2
GEVID1208933857
 70
     0
  0
APPID
  5
4AD
330
9
100
AcDbSymbolTableRecord
100
AcDbRegAppTableRecord
  2
GEVID1208933858
 70
     0
  0
APPID
  5
4AE
330
9
100
AcDbSymbolTableRecord
100
AcDbRegAppTableRecord
  2
GEVID1208933859
 70
     0
  0
APPID
  5
4AF
330
9
100
AcDbSymbolTableRecord
100
AcDbRegAppTableRecord
  2
GEVID1208933860
 70
     0
  0
APPID
  5
4B0
330
9
100
AcDbSymbolTableRecord
100
AcDbRegAppTableRecord
  2
GEVID1208933861
 70
     0
  0
APPID
  5
4B1
330
9
100
AcDbSymbolTableRecord
100
AcDbRegAppTableRecord
  2
GEVID1208933862
 70
     0
  0
APPID
  5
4B2
330
9
100
AcDbSymbolTableRecord
100
AcDbRegAppTableRecord
  2
GEVID1208933863
 70
     0
  0
APPID
  5
4B3
330
9
100
AcDbSymbolTableRecord
100
AcDbRegAppTableRecord
  2
GEVID1208933864
 70
     0
  0
APPID
  5
4B4
330
9
100
AcDbSymbolTableRecord
100
AcDbRegAppTableRecord
  2
GEVID1208933865
 70
     0
  0
APPID
  5
4B5
330
9
100
AcDbSymbolTableRecord
100
AcDbRegAppTableRecord
  2
GEVID1208933866
 70
     0
  0
APPID
  5
4B6
330
9
100
AcDbSymbolTableRecord
100
AcDbRegAppTableRecord
  2
GEVID1208933867
 70
     0
  0
APPID
  5
4B7
330
9
100
AcDbSymbolTableRecord
100
AcDbRegAppTableRecord
  2
GEVID1208933868
 70
     0
  0
APPID
  5
4B8
330
9
100
AcDbSymbolTableRecord
100
AcDbRegAppTableRecord
  2
GEVID1208933869
 70
     0
  0
APPID
  5
4B9
330
9
100
AcDbSymbolTableRecord
100
AcDbRegAppTableRecord
  2
GEVID1208933870
 70
     0
  0
APPID
  5
4BA
330
9
100
AcDbSymbolTableRecord
100
AcDbRegAppTableRecord
  2
GEVID1208933871
 70
     0
  0
APPID
  5
4BB
330
9
100
AcDbSymbolTableRecord
100
AcDbRegAppTableRecord
  2
GEVID1208933872
 70
     0
  0
APPID
  5
4BC
330
9
100
AcDbSymbolTableRecord
100
AcDbRegAppTableRecord
  2
GEVID1208933873
 70
     0
  0
APPID
  5
4BD
330
9
100
AcDbSymbolTableRecord
100
AcDbRegAppTableRecord
  2
GEVID1208933874
 70
     0
  0
APPID
  5
4BE
330
9
100
AcDbSymbolTableRecord
100
AcDbRegAppTableRecord
  2
GEVID1208933875
 70
     0
  0
APPID
  5
4BF
330
9
100
AcDbSymbolTableRecord
100
AcDbRegAppTableRecord
  2
GEVID1208933876
 70
     0
  0
APPID
  5
4C0
330
9
100
AcDbSymbolTableRecord
100
AcDbRegAppTableRecord
  2
ACAD_DSTYLE_DIMRADIAL_EXTENSION
 70
     0
  0
APPID
  5
4C1
330
9
100
AcDbSymbolTableRecord
100
AcDbRegAppTableRecord
  2
GEVID1208999100
 70
     0
  0
APPID
  5
4C2
330
9
100
AcDbSymbolTableRecord
100
AcDbRegAppTableRecord
  2
GEVID1208999101
 70
     0
  0
APPID
  5
4C3
330
9
100
AcDbSymbolTableRecord
100
AcDbRegAppTableRecord
  2
GEVID1208999102
 70
     0
  0
APPID
  5
4C4
330
9
100
AcDbSymbolTableRecord
100
AcDbRegAppTableRecord
  2
GEVID1208999103
 70
     0
  0
APPID
  5
4C5
330
9
100
AcDbSymbolTableRecord
100
AcDbRegAppTableRecord
  2
GEVID1208999105
 70
     0
  0
APPID
  5
4C6
330
9
100
AcDbSymbolTableRecord
100
AcDbRegAppTableRecord
  2
GEVID1208999106
 70
     0
  0
APPID
  5
4C7
330
9
100
AcDbSymbolTableRecord
100
AcDbRegAppTableRecord
  2
GEVID1208999108
 70
     0
  0
APPID
  5
4C8
330
9
100
AcDbSymbolTableRecord
100
AcDbRegAppTableRecord
  2
GEVID1208999109
 70
     0
  0
APPID
  5
4C9
330
9
100
AcDbSymbolTableRecord
100
AcDbRegAppTableRecord
  2
GEVID1208999110
 70
     0
  0
APPID
  5
4CA
330
9
100
AcDbSymbolTableRecord
100
AcDbRegAppTableRecord
  2
GEVID1208999111
 70
     0
  0
APPID
  5
4CB
330
9
100
AcDbSymbolTableRecord
100
AcDbRegAppTableRecord
  2
GEVID1208999112
 70
     0
  0
APPID
  5
4CC
330
9
100
AcDbSymbolTableRecord
100
AcDbRegAppTableRecord
  2
GEVID1208999113
 70
     0
  0
APPID
  5
4CD
330
9
100
AcDbSymbolTableRecord
100
AcDbRegAppTableRecord
  2
GEVID1208999114
 70
     0
  0
APPID
  5
4CE
330
9
100
AcDbSymbolTableRecord
100
AcDbRegAppTableRecord
  2
GEVID1210218799
 70
     0
  0
APPID
  5
4CF
330
9
100
AcDbSymbolTableRecord
100
AcDbRegAppTableRecord
  2
GEVID1210218800
 70
     0
  0
APPID
  5
4D0
330
9
100
AcDbSymbolTableRecord
100
AcDbRegAppTableRecord
  2
GENIUS_GEFWELD_13
 70
     0
  0
APPID
  5
4D1
330
9
100
AcDbSymbolTableRecord
100
AcDbRegAppTableRecord
  2
GENIUS_GENOBJ-F-WELS_13
 70
     0
  0
APPID
  5
4D2
330
9
100
AcDbSymbolTableRecord
100
AcDbRegAppTableRecord
  2
AcadAnnotative
 70
     0
  0
APPID
  5
4D3
330
9
100
AcDbSymbolTableRecord
100
AcDbRegAppTableRecord
  2
GEVID1210145339
 70
     0
  0
APPID
  5
4D4
330
9
100
AcDbSymbolTableRecord
100
AcDbRegAppTableRecord
  2
ACAD_DSTYLE_DIMBREAK
 70
     0
  0
APPID
  5
4D5
330
9
100
AcDbSymbolTableRecord
100
AcDbRegAppTableRecord
  2
GEVID1210145340
 70
     0
  0
APPID
  5
4D6
330
9
100
AcDbSymbolTableRecord
100
AcDbRegAppTableRecord
  2
GEVID1210145341
 70
     0
  0
APPID
  5
4D7
330
9
100
AcDbSymbolTableRecord
100
AcDbRegAppTableRecord
  2
GEVID1210145342
 70
     0
  0
APPID
  5
4D8
330
9
100
AcDbSymbolTableRecord
100
AcDbRegAppTableRecord
  2
GEVID1210145343
 70
     0
  0
APPID
  5
4D9
330
9
100
AcDbSymbolTableRecord
100
AcDbRegAppTableRecord
  2
GEVID1210145344
 70
     0
  0
APPID
  5
4DA
330
9
100
AcDbSymbolTableRecord
100
AcDbRegAppTableRecord
  2
GEVID1210145345
 70
     0
  0
APPID
  5
4DB
330
9
100
AcDbSymbolTableRecord
100
AcDbRegAppTableRecord
  2
GEVID1210152816
 70
     0
  0
APPID
  5
4DC
330
9
100
AcDbSymbolTableRecord
100
AcDbRegAppTableRecord
  2
GEVID1210153850
 70
     0
  0
APPID
  5
4DD
330
9
100
AcDbSymbolTableRecord
100
AcDbRegAppTableRecord
  2
GEVID1210153851
 70
     0
  0
APPID
  5
4DE
330
9
100
AcDbSymbolTableRecord
100
AcDbRegAppTableRecord
  2
GEVID1210153852
 70
     0
  0
APPID
  5
4DF
330
9
100
AcDbSymbolTableRecord
100
AcDbRegAppTableRecord
  2
GEVID1210549898
 70
     0
  0
APPID
  5
4E0
330
9
100
AcDbSymbolTableRecord
100
AcDbRegAppTableRecord
  2
GEVID1210549899
 70
     0
  0
APPID
  5
4E1
330
9
100
AcDbSymbolTableRecord
100
AcDbRegAppTableRecord
  2
GEVID1210549900
 70
     0
  0
APPID
  5
4E2
330
9
100
AcDbSymbolTableRecord
100
AcDbRegAppTableRecord
  2
GEVID1210549901
 70
     0
  0
APPID
  5
4E3
330
9
100
AcDbSymbolTableRecord
100
AcDbRegAppTableRecord
  2
GEVID1210549902
 70
     0
  0
APPID
  5
4E4
330
9
100
AcDbSymbolTableRecord
100
AcDbRegAppTableRecord
  2
GEVID1210549903
 70
     0
  0
APPID
  5
4E5
330
9
100
AcDbSymbolTableRecord
100
AcDbRegAppTableRecord
  2
GEVID1210549904
 70
     0
  0
APPID
  5
4E6
330
9
100
AcDbSymbolTableRecord
100
AcDbRegAppTableRecord
  2
GEVID1210549905
 70
     0
  0
APPID
  5
4E7
330
9
100
AcDbSymbolTableRecord
100
AcDbRegAppTableRecord
  2
GEVID1210549906
 70
     0
  0
APPID
  5
4E8
330
9
100
AcDbSymbolTableRecord
100
AcDbRegAppTableRecord
  2
GEVID1210549907
 70
     0
  0
APPID
  5
4E9
330
9
100
AcDbSymbolTableRecord
100
AcDbRegAppTableRecord
  2
GEVID1210549908
 70
     0
  0
APPID
  5
4EA
330
9
100
AcDbSymbolTableRecord
100
AcDbRegAppTableRecord
  2
GEVID1210549909
 70
     0
  0
APPID
  5
4EB
330
9
100
AcDbSymbolTableRecord
100
AcDbRegAppTableRecord
  2
GEVID1210549910
 70
     0
  0
APPID
  5
4EC
330
9
100
AcDbSymbolTableRecord
100
AcDbRegAppTableRecord
  2
GEVID1210549911
 70
     0
  0
APPID
  5
4ED
330
9
100
AcDbSymbolTableRecord
100
AcDbRegAppTableRecord
  2
GEVID1210549912
 70
     0
  0
APPID
  5
4EE
330
9
100
AcDbSymbolTableRecord
100
AcDbRegAppTableRecord
  2
GEVID1210549913
 70
     0
  0
APPID
  5
4EF
330
9
100
AcDbSymbolTableRecord
100
AcDbRegAppTableRecord
  2
GEVID1210549914
 70
     0
  0
APPID
  5
4F0
330
9
100
AcDbSymbolTableRecord
100
AcDbRegAppTableRecord
  2
GEVID1210549915
 70
     0
  0
APPID
  5
4F1
330
9
100
AcDbSymbolTableRecord
100
AcDbRegAppTableRecord
  2
GEVID1210549916
 70
     0
  0
APPID
  5
4F2
330
9
100
AcDbSymbolTableRecord
100
AcDbRegAppTableRecord
  2
GEVID1210549917
 70
     0
  0
APPID
  5
4F3
330
9
100
AcDbSymbolTableRecord
100
AcDbRegAppTableRecord
  2
GENIUS_GENOBJ-N-CRS_13
 70
     0
  0
APPID
  5
4F4
330
9
100
AcDbSymbolTableRecord
100
AcDbRegAppTableRecord
  2
GEVID1210549918
 70
     0
  0
APPID
  5
4F5
330
9
100
AcDbSymbolTableRecord
100
AcDbRegAppTableRecord
  2
GENIUS_GENOBJ-N-CRC_13
 70
     0
  0
APPID
  5
4F6
330
9
100
AcDbSymbolTableRecord
100
AcDbRegAppTableRecord
  2
GENIUS_GENCRC_14
 70
     0
  0
APPID
  5
4F7
330
9
100
AcDbSymbolTableRecord
100
AcDbRegAppTableRecord
  2
GEVID1210549919
 70
     0
  0
APPID
  5
4F8
330
9
100
AcDbSymbolTableRecord
100
AcDbRegAppTableRecord
  2
GEVID1210549921
 70
     0
  0
APPID
  5
4F9
330
9
100
AcDbSymbolTableRecord
100
AcDbRegAppTableRecord
  2
GEVID1210549922
 70
     0
  0
APPID
  5
4FA
330
9
100
AcDbSymbolTableRecord
100
AcDbRegAppTableRecord
  2
GEVID1210635173
 70
     0
  0
APPID
  5
4FB
330
9
100
AcDbSymbolTableRecord
100
AcDbRegAppTableRecord
  2
GEVID1210635174
 70
     0
  0
APPID
  5
4FC
330
9
100
AcDbSymbolTableRecord
100
AcDbRegAppTableRecord
  2
GEVID1210635175
 70
     0
  0
APPID
  5
4FD
330
9
100
AcDbSymbolTableRecord
100
AcDbRegAppTableRecord
  2
GEVID1210635176
 70
     0
  0
APPID
  5
4FE
330
9
100
AcDbSymbolTableRecord
100
AcDbRegAppTableRecord
  2
GEVID1210635177
 70
     0
  0
APPID
  5
4FF
330
9
100
AcDbSymbolTableRecord
100
AcDbRegAppTableRecord
  2
GEVID1210635178
 70
     0
  0
APPID
  5
500
330
9
100
AcDbSymbolTableRecord
100
AcDbRegAppTableRecord
  2
GENIUS_GENIUS_GENBHEDTMP_13
 70
     0
  0
APPID
  5
501
330
9
100
AcDbSymbolTableRecord
100
AcDbRegAppTableRecord
  2
GEVID1210635179
 70
     0
  0
APPID
  5
502
330
9
100
AcDbSymbolTableRecord
100
AcDbRegAppTableRecord
  2
GEVID1210635180
 70
     0
  0
APPID
  5
503
330
9
100
AcDbSymbolTableRecord
100
AcDbRegAppTableRecord
  2
GEVID1210635181
 70
     0
  0
APPID
  5
504
330
9
100
AcDbSymbolTableRecord
100
AcDbRegAppTableRecord
  2
GEVID1210635182
 70
     0
  0
APPID
  5
505
330
9
100
AcDbSymbolTableRecord
100
AcDbRegAppTableRecord
  2
GEVID1210635184
 70
     0
  0
APPID
  5
506
330
9
100
AcDbSymbolTableRecord
100
AcDbRegAppTableRecord
  2
GEVID1210635185
 70
     0
  0
APPID
  5
507
330
9
100
AcDbSymbolTableRecord
100
AcDbRegAppTableRecord
  2
GEVID1210635186
 70
     0
  0
APPID
  5
508
330
9
100
AcDbSymbolTableRecord
100
AcDbRegAppTableRecord
  2
GEVID1210635187
 70
     0
  0
APPID
  5
509
330
9
100
AcDbSymbolTableRecord
100
AcDbRegAppTableRecord
  2
GEVID1210635188
 70
     0
  0
APPID
  5
50A
330
9
100
AcDbSymbolTableRecord
100
AcDbRegAppTableRecord
  2
GEVID1210635189
 70
     0
  0
APPID
  5
50B
330
9
100
AcDbSymbolTableRecord
100
AcDbRegAppTableRecord
  2
GEVID1210635190
 70
     0
  0
APPID
  5
50C
330
9
100
AcDbSymbolTableRecord
100
AcDbRegAppTableRecord
  2
GENIUS_GENREC_14
 70
     0
  0
APPID
  5
50D
330
9
100
AcDbSymbolTableRecord
100
AcDbRegAppTableRecord
  2
GENIUS_GENOBJ-N-REC_13
 70
     0
  0
APPID
  5
50E
330
9
100
AcDbSymbolTableRecord
100
AcDbRegAppTableRecord
  2
GEVID1210676655
 70
     0
  0
APPID
  5
50F
330
9
100
AcDbSymbolTableRecord
100
AcDbRegAppTableRecord
  2
GEVID1210676656
 70
     0
  0
APPID
  5
510
330
9
100
AcDbSymbolTableRecord
100
AcDbRegAppTableRecord
  2
GEVID1210676657
 70
     0
  0
APPID
  5
511
330
9
100
AcDbSymbolTableRecord
100
AcDbRegAppTableRecord
  2
GEVID1210676659
 70
     0
  0
APPID
  5
512
330
9
100
AcDbSymbolTableRecord
100
AcDbRegAppTableRecord
  2
GEVID1210676660
 70
     0
  0
APPID
  5
513
330
9
100
AcDbSymbolTableRecord
100
AcDbRegAppTableRecord
  2
GEVID1210676661
 70
     0
  0
APPID
  5
514
330
9
100
AcDbSymbolTableRecord
100
AcDbRegAppTableRecord
  2
GEVID1210676662
 70
     0
  0
APPID
  5
515
330
9
100
AcDbSymbolTableRecord
100
AcDbRegAppTableRecord
  2
GEVID1210721646
 70
     0
  0
APPID
  5
516
330
9
100
AcDbSymbolTableRecord
100
AcDbRegAppTableRecord
  2
GEVID1210721647
 70
     0
  0
APPID
  5
517
330
9
100
AcDbSymbolTableRecord
100
AcDbRegAppTableRecord
  2
GEVID1210721648
 70
     0
  0
APPID
  5
518
330
9
100
AcDbSymbolTableRecord
100
AcDbRegAppTableRecord
  2
GEVID1210721649
 70
     0
  0
APPID
  5
519
330
9
100
AcDbSymbolTableRecord
100
AcDbRegAppTableRecord
  2
GEVID1210721650
 70
     0
  0
APPID
  5
51A
330
9
100
AcDbSymbolTableRecord
100
AcDbRegAppTableRecord
  2
GEVID1210721651
 70
     0
  0
APPID
  5
51B
330
9
100
AcDbSymbolTableRecord
100
AcDbRegAppTableRecord
  2
GEVID1210721652
 70
     0
  0
APPID
  5
51C
330
9
100
AcDbSymbolTableRecord
100
AcDbRegAppTableRecord
  2
GEVID1210721653
 70
     0
  0
APPID
  5
51D
330
9
100
AcDbSymbolTableRecord
100
AcDbRegAppTableRecord
  2
PE_URL
 70
     0
  0
APPID
  5
51E
330
9
100
AcDbSymbolTableRecord
100
AcDbRegAppTableRecord
  2
GEVID1210825555
 70
     0
  0
APPID
  5
51F
330
9
100
AcDbSymbolTableRecord
100
AcDbRegAppTableRecord
  2
GEVID1210825556
 70
     0
  0
APPID
  5
520
330
9
100
AcDbSymbolTableRecord
100
AcDbRegAppTableRecord
  2
GEVID1210825557
 70
     0
  0
APPID
  5
521
330
9
100
AcDbSymbolTableRecord
100
AcDbRegAppTableRecord
  2
GEVID1210825558
 70
     0
  0
APPID
  5
522
330
9
100
AcDbSymbolTableRecord
100
AcDbRegAppTableRecord
  2
GEVID1210825559
 70
     0
  0
APPID
  5
523
330
9
100
AcDbSymbolTableRecord
100
AcDbRegAppTableRecord
  2
GEVID1210825560
 70
     0
  0
APPID
  5
524
330
9
100
AcDbSymbolTableRecord
100
AcDbRegAppTableRecord
  2
GEVID1210825561
 70
     0
  0
APPID
  5
525
330
9
100
AcDbSymbolTableRecord
100
AcDbRegAppTableRecord
  2
GEVID1210825562
 70
     0
  0
APPID
  5
526
330
9
100
AcDbSymbolTableRecord
100
AcDbRegAppTableRecord
  2
GEVID1210825563
 70
     0
  0
APPID
  5
527
330
9
100
AcDbSymbolTableRecord
100
AcDbRegAppTableRecord
  2
GEVID1210825564
 70
     0
  0
APPID
  5
528
330
9
100
AcDbSymbolTableRecord
100
AcDbRegAppTableRecord
  2
GEVID1210825565
 70
     0
  0
APPID
  5
529
330
9
100
AcDbSymbolTableRecord
100
AcDbRegAppTableRecord
  2
GEVID1210825566
 70
     0
  0
APPID
  5
52A
330
9
100
AcDbSymbolTableRecord
100
AcDbRegAppTableRecord
  2
GEVID1210825567
 70
     0
  0
APPID
  5
52B
330
9
100
AcDbSymbolTableRecord
100
AcDbRegAppTableRecord
  2
GENIUS_GENOBJ-N-ZOO_13
 70
     0
  0
APPID
  5
52C
330
9
100
AcDbSymbolTableRecord
100
AcDbRegAppTableRecord
  2
GENIUS_GENZOO_17
 70
     0
  0
APPID
  5
52D
330
9
100
AcDbSymbolTableRecord
100
AcDbRegAppTableRecord
  2
ACADANNOTATIVEDECOMPOSITION
 70
     0
  0
APPID
  5
52E
330
9
100
AcDbSymbolTableRecord
100
AcDbRegAppTableRecord
  2
GENIUS_GENOBJ-N-HTC_13
 70
     0
  0
APPID
  5
52F
330
9
100
AcDbSymbolTableRecord
100
AcDbRegAppTableRecord
  2
GENIUS_GENHATCH_13
 70
     0
  0
APPID
  5
530
330
9
100
AcDbSymbolTableRecord
100
AcDbRegAppTableRecord
  2
GEVID1210896020
 70
     0
  0
APPID
  5
531
330
9
100
AcDbSymbolTableRecord
100
AcDbRegAppTableRecord
  2
GEVID1210896021
 70
     0
  0
APPID
  5
532
330
9
100
AcDbSymbolTableRecord
100
AcDbRegAppTableRecord
  2
GEVID1209083540
 70
     0
  0
APPID
  5
533
330
9
100
AcDbSymbolTableRecord
100
AcDbRegAppTableRecord
  2
GEVMK
 70
     0
  0
APPID
  5
534
330
9
100
AcDbSymbolTableRecord
100
AcDbRegAppTableRecord
  2
GEVID1209083542
 70
     0
  0
APPID
  5
535
330
9
100
AcDbSymbolTableRecord
100
AcDbRegAppTableRecord
  2
GEVID1209083543
 70
     0
  0
APPID
  5
536
330
9
100
AcDbSymbolTableRecord
100
AcDbRegAppTableRecord
  2
GEVID1209083544
 70
     0
  0
APPID
  5
537
330
9
100
AcDbSymbolTableRecord
100
AcDbRegAppTableRecord
  2
GEVID1209083545
 70
     0
  0
APPID
  5
538
330
9
100
AcDbSymbolTableRecord
100
AcDbRegAppTableRecord
  2
GEVID1209083546
 70
     0
  0
APPID
  5
539
330
9
100
AcDbSymbolTableRecord
100
AcDbRegAppTableRecord
  2
GEVID1209083547
 70
     0
  0
APPID
  5
53A
330
9
100
AcDbSymbolTableRecord
100
AcDbRegAppTableRecord
  2
GEVID1209083548
 70
     0
  0
APPID
  5
53B
330
9
100
AcDbSymbolTableRecord
100
AcDbRegAppTableRecord
  2
GEVID1209083549
 70
     0
  0
APPID
  5
53C
330
9
100
AcDbSymbolTableRecord
100
AcDbRegAppTableRecord
  2
GEVID1209083550
 70
     0
  0
APPID
  5
53D
330
9
100
AcDbSymbolTableRecord
100
AcDbRegAppTableRecord
  2
GEVID1209083551
 70
     0
  0
APPID
  5
53E
330
9
100
AcDbSymbolTableRecord
100
AcDbRegAppTableRecord
  2
GEVID1209083552
 70
     0
  0
APPID
  5
53F
330
9
100
AcDbSymbolTableRecord
100
AcDbRegAppTableRecord
  2
GEVID1209083553
 70
     0
  0
APPID
  5
540
330
9
100
AcDbSymbolTableRecord
100
AcDbRegAppTableRecord
  2
GEVID1210896022
 70
     0
  0
APPID
  5
541
330
9
100
AcDbSymbolTableRecord
100
AcDbRegAppTableRecord
  2
GEVID1211508364
 70
     0
  0
APPID
  5
542
330
9
100
AcDbSymbolTableRecord
100
AcDbRegAppTableRecord
  2
GEVID1211414908
 70
     0
  0
APPID
  5
543
330
9
100
AcDbSymbolTableRecord
100
AcDbRegAppTableRecord
  2
GEVID1211414909
 70
     0
  0
APPID
  5
544
330
9
100
AcDbSymbolTableRecord
100
AcDbRegAppTableRecord
  2
GEVID1211508359
 70
     0
  0
APPID
  5
545
330
9
100
AcDbSymbolTableRecord
100
AcDbRegAppTableRecord
  2
GEVID1211508360
 70
     0
  0
APPID
  5
546
330
9
100
AcDbSymbolTableRecord
100
AcDbRegAppTableRecord
  2
GEVID1211508361
 70
     0
  0
APPID
  5
547
330
9
100
AcDbSymbolTableRecord
100
AcDbRegAppTableRecord
  2
GEVID1211508362
 70
     0
  0
APPID
  5
548
330
9
100
AcDbSymbolTableRecord
100
AcDbRegAppTableRecord
  2
GEVID1211508363
 70
     0
  0
APPID
  5
549
330
9
100
AcDbSymbolTableRecord
100
AcDbRegAppTableRecord
  2
GEVID1211878469
 70
     0
  0
APPID
  5
54A
330
9
100
AcDbSymbolTableRecord
100
AcDbRegAppTableRecord
  2
GEVID1212642819
 70
     0
  0
APPID
  5
54B
330
9
100
AcDbSymbolTableRecord
100
AcDbRegAppTableRecord
  2
GEVID1212642820
 70
     0
  0
APPID
  5
54C
330
9
100
AcDbSymbolTableRecord
100
AcDbRegAppTableRecord
  2
GEVID1212642821
 70
     0
  0
APPID
  5
54D
330
9
100
AcDbSymbolTableRecord
100
AcDbRegAppTableRecord
  2
GEVID1212642822
 70
     0
  0
APPID
  5
54E
330
9
100
AcDbSymbolTableRecord
100
AcDbRegAppTableRecord
  2
GEVID1212642823
 70
     0
  0
APPID
  5
54F
330
9
100
AcDbSymbolTableRecord
100
AcDbRegAppTableRecord
  2
GEVID1212642825
 70
     0
  0
APPID
  5
550
330
9
100
AcDbSymbolTableRecord
100
AcDbRegAppTableRecord
  2
GEVID1212642826
 70
     0
  0
APPID
  5
551
330
9
100
AcDbSymbolTableRecord
100
AcDbRegAppTableRecord
  2
GEVID1212642827
 70
     0
  0
APPID
  5
552
330
9
100
AcDbSymbolTableRecord
100
AcDbRegAppTableRecord
  2
GEVID1212642828
 70
     0
  0
APPID
  5
553
330
9
100
AcDbSymbolTableRecord
100
AcDbRegAppTableRecord
  2
GEVID1212642831
 70
     0
  0
APPID
  5
554
330
9
100
AcDbSymbolTableRecord
100
AcDbRegAppTableRecord
  2
GEVID1212642834
 70
     0
  0
APPID
  5
555
330
9
100
AcDbSymbolTableRecord
100
AcDbRegAppTableRecord
  2
GEVID1212642835
 70
     0
  0
APPID
  5
556
330
9
100
AcDbSymbolTableRecord
100
AcDbRegAppTableRecord
  2
GEVID1212642836
 70
     0
  0
APPID
  5
557
330
9
100
AcDbSymbolTableRecord
100
AcDbRegAppTableRecord
  2
GEVID1212642837
 70
     0
  0
APPID
  5
558
330
9
100
AcDbSymbolTableRecord
100
AcDbRegAppTableRecord
  2
GEVID1212642839
 70
     0
  0
APPID
  5
559
330
9
100
AcDbSymbolTableRecord
100
AcDbRegAppTableRecord
  2
GEVID1212642840
 70
     0
  0
APPID
  5
55A
330
9
100
AcDbSymbolTableRecord
100
AcDbRegAppTableRecord
  2
GEVID1212642841
 70
     0
  0
APPID
  5
55B
330
9
100
AcDbSymbolTableRecord
100
AcDbRegAppTableRecord
  2
GEVID1212655312
 70
     0
  0
APPID
  5
55C
330
9
100
AcDbSymbolTableRecord
100
AcDbRegAppTableRecord
  2
GEVID1212655313
 70
     0
  0
APPID
  5
55D
330
9
100
AcDbSymbolTableRecord
100
AcDbRegAppTableRecord
  2
GEVID1212656533
 70
     0
  0
APPID
  5
55E
330
9
100
AcDbSymbolTableRecord
100
AcDbRegAppTableRecord
  2
GEVID1212656534
 70
     0
  0
APPID
  5
55F
330
9
100
AcDbSymbolTableRecord
100
AcDbRegAppTableRecord
  2
GEVID1212656535
 70
     0
  0
APPID
  5
560
330
9
100
AcDbSymbolTableRecord
100
AcDbRegAppTableRecord
  2
GEVID1212656536
 70
     0
  0
APPID
  5
561
330
9
100
AcDbSymbolTableRecord
100
AcDbRegAppTableRecord
  2
GEVID1212656538
 70
     0
  0
APPID
  5
562
330
9
100
AcDbSymbolTableRecord
100
AcDbRegAppTableRecord
  2
GEVID1212656541
 70
     0
  0
APPID
  5
563
330
9
100
AcDbSymbolTableRecord
100
AcDbRegAppTableRecord
  2
GEVID1212656543
 70
     0
  0
APPID
  5
564
330
9
100
AcDbSymbolTableRecord
100
AcDbRegAppTableRecord
  2
GENIUS_GENOBJ-F-PFASSM_13
 70
     0
  0
APPID
  5
565
330
9
100
AcDbSymbolTableRecord
100
AcDbRegAppTableRecord
  2
GEVID1212656544
 70
     0
  0
APPID
  5
566
330
9
100
AcDbSymbolTableRecord
100
AcDbRegAppTableRecord
  2
GEVID1212656545
 70
     0
  0
APPID
  5
567
330
9
100
AcDbSymbolTableRecord
100
AcDbRegAppTableRecord
  2
GEVID1212656546
 70
     0
  0
APPID
  5
568
330
9
100
AcDbSymbolTableRecord
100
AcDbRegAppTableRecord
  2
GEVID1212656547
 70
     0
  0
APPID
  5
569
330
9
100
AcDbSymbolTableRecord
100
AcDbRegAppTableRecord
  2
GEVID1212656548
 70
     0
  0
APPID
  5
56A
330
9
100
AcDbSymbolTableRecord
100
AcDbRegAppTableRecord
  2
GEVID1212656549
 70
     0
  0
APPID
  5
56B
330
9
100
AcDbSymbolTableRecord
100
AcDbRegAppTableRecord
  2
GEVID1212656550
 70
     0
  0
APPID
  5
56C
330
9
100
AcDbSymbolTableRecord
100
AcDbRegAppTableRecord
  2
GEVID1212656552
 70
     0
  0
APPID
  5
56D
330
9
100
AcDbSymbolTableRecord
100
AcDbRegAppTableRecord
  2
GEVID1212656553
 70
     0
  0
APPID
  5
56E
330
9
100
AcDbSymbolTableRecord
100
AcDbRegAppTableRecord
  2
GEVID1212656554
 70
     0
  0
APPID
  5
56F
330
9
100
AcDbSymbolTableRecord
100
AcDbRegAppTableRecord
  2
GEVID1212656555
 70
     0
  0
APPID
  5
570
330
9
100
AcDbSymbolTableRecord
100
AcDbRegAppTableRecord
  2
GEVID1212656556
 70
     0
  0
APPID
  5
571
330
9
100
AcDbSymbolTableRecord
100
AcDbRegAppTableRecord
  2
GEVID1212656557
 70
     0
  0
APPID
  5
572
330
9
100
AcDbSymbolTableRecord
100
AcDbRegAppTableRecord
  2
GEVID1212656559
 70
     0
  0
APPID
  5
573
330
9
100
AcDbSymbolTableRecord
100
AcDbRegAppTableRecord
  2
GEVID1212656560
 70
     0
  0
APPID
  5
574
330
9
100
AcDbSymbolTableRecord
100
AcDbRegAppTableRecord
  2
GEVID1212656561
 70
     0
  0
APPID
  5
575
330
9
100
AcDbSymbolTableRecord
100
AcDbRegAppTableRecord
  2
GEVID1212656562
 70
     0
  0
APPID
  5
576
330
9
100
AcDbSymbolTableRecord
100
AcDbRegAppTableRecord
  2
GEVID1212656563
 70
     0
  0
APPID
  5
577
330
9
100
AcDbSymbolTableRecord
100
AcDbRegAppTableRecord
  2
GEVID1212711781
 70
     0
  0
APPID
  5
578
330
9
100
AcDbSymbolTableRecord
100
AcDbRegAppTableRecord
  2
GEVID1212711782
 70
     0
  0
APPID
  5
579
330
9
100
AcDbSymbolTableRecord
100
AcDbRegAppTableRecord
  2
GEVID1212711783
 70
     0
  0
APPID
  5
57A
330
9
100
AcDbSymbolTableRecord
100
AcDbRegAppTableRecord
  2
GEVID1212711784
 70
     0
  0
APPID
  5
57B
330
9
100
AcDbSymbolTableRecord
100
AcDbRegAppTableRecord
  2
GEVID1212711788
 70
     0
  0
APPID
  5
57C
330
9
100
AcDbSymbolTableRecord
100
AcDbRegAppTableRecord
  2
GEVID1212711789
 70
     0
  0
APPID
  5
57D
330
9
100
AcDbSymbolTableRecord
100
AcDbRegAppTableRecord
  2
GEVID1212711790
 70
     0
  0
APPID
  5
57E
330
9
100
AcDbSymbolTableRecord
100
AcDbRegAppTableRecord
  2
GEVID1212711791
 70
     0
  0
APPID
  5
57F
330
9
100
AcDbSymbolTableRecord
100
AcDbRegAppTableRecord
  2
GEVID1212711792
 70
     0
  0
APPID
  5
580
330
9
100
AcDbSymbolTableRecord
100
AcDbRegAppTableRecord
  2
GEVID1212711793
 70
     0
  0
APPID
  5
581
330
9
100
AcDbSymbolTableRecord
100
AcDbRegAppTableRecord
  2
GEVID1212711794
 70
     0
  0
APPID
  5
582
330
9
100
AcDbSymbolTableRecord
100
AcDbRegAppTableRecord
  2
GEVID1212711795
 70
     0
  0
APPID
  5
583
330
9
100
AcDbSymbolTableRecord
100
AcDbRegAppTableRecord
  2
GEVID1212711797
 70
     0
  0
APPID
  5
584
330
9
100
AcDbSymbolTableRecord
100
AcDbRegAppTableRecord
  2
GEVID1212711798
 70
     0
  0
APPID
  5
585
330
9
100
AcDbSymbolTableRecord
100
AcDbRegAppTableRecord
  2
GEVID1212711799
 70
     0
  0
APPID
  5
586
330
9
100
AcDbSymbolTableRecord
100
AcDbRegAppTableRecord
  2
GEVID1212711800
 70
     0
  0
APPID
  5
587
330
9
100
AcDbSymbolTableRecord
100
AcDbRegAppTableRecord
  2
GEVID1212711801
 70
     0
  0
APPID
  5
588
330
9
100
AcDbSymbolTableRecord
100
AcDbRegAppTableRecord
  2
GEVID1212711802
 70
     0
  0
APPID
  5
589
330
9
100
AcDbSymbolTableRecord
100
AcDbRegAppTableRecord
  2
GEVID1212711803
 70
     0
  0
APPID
  5
58A
330
9
100
AcDbSymbolTableRecord
100
AcDbRegAppTableRecord
  2
GEVID1212711804
 70
     0
  0
APPID
  5
58B
330
9
100
AcDbSymbolTableRecord
100
AcDbRegAppTableRecord
  2
GEVID1212711805
 70
     0
  0
APPID
  5
58C
330
9
100
AcDbSymbolTableRecord
100
AcDbRegAppTableRecord
  2
GEVID1212711806
 70
     0
  0
APPID
  5
58D
330
9
100
AcDbSymbolTableRecord
100
AcDbRegAppTableRecord
  2
GEVID1212711807
 70
     0
  0
APPID
  5
58E
330
9
100
AcDbSymbolTableRecord
100
AcDbRegAppTableRecord
  2
GEVID1212711808
 70
     0
  0
APPID
  5
58F
330
9
100
AcDbSymbolTableRecord
100
AcDbRegAppTableRecord
  2
GEVID1212711809
 70
     0
  0
APPID
  5
590
330
9
100
AcDbSymbolTableRecord
100
AcDbRegAppTableRecord
  2
GEVID1212711810
 70
     0
  0
APPID
  5
591
330
9
100
AcDbSymbolTableRecord
100
AcDbRegAppTableRecord
  2
GEVID1212711811
 70
     0
  0
APPID
  5
90A
330
9
100
AcDbSymbolTableRecord
100
AcDbRegAppTableRecord
  2
GENIUS_GENTRA_14
 70
     0
  0
APPID
  5
919
330
9
100
AcDbSymbolTableRecord
100
AcDbRegAppTableRecord
  2
GENIUS_GENOBJ-N-TIT_13
 70
     0
  0
APPID
  5
91A
330
9
100
AcDbSymbolTableRecord
100
AcDbRegAppTableRecord
  2
GENIUS_GENTITLE_13
 70
     0
  0
APPID
  5
949
330
9
100
AcDbSymbolTableRecord
100
AcDbRegAppTableRecord
  2
GENIUS_GENBLLY_14
 70
     0
  0
APPID
  5
DDD
330
9
100
AcDbSymbolTableRecord
100
AcDbRegAppTableRecord
  2
GEVID1213165152
 70
     0
  0
APPID
  5
12F9
330
9
100
AcDbSymbolTableRecord
100
AcDbRegAppTableRecord
  2
AcDbDynamicBlockTrueName
 70
     0
  0
APPID
  5
12FA
330
9
100
AcDbSymbolTableRecord
100
AcDbRegAppTableRecord
  2
ACDBBLOCKREPETAG
 70
     0
  0
APPID
  5
1C15
330
9
100
AcDbSymbolTableRecord
100
AcDbRegAppTableRecord
  2
GEVID1214872427
 70
     0
  0
APPID
  5
1C2A
330
9
100
AcDbSymbolTableRecord
100
AcDbRegAppTableRecord
  2
GEVID1214872428
 70
     0
  0
APPID
  5
1C2F
330
9
100
AcDbSymbolTableRecord
100
AcDbRegAppTableRecord
  2
GEVID1214872429
 70
     0
  0
APPID
  5
1C33
330
9
100
AcDbSymbolTableRecord
100
AcDbRegAppTableRecord
  2
GEVID1214872430
 70
     0
  0
APPID
  5
1C3F
330
9
100
AcDbSymbolTableRecord
100
AcDbRegAppTableRecord
  2
GEVID1214872432
 70
     0
  0
APPID
  5
1C4E
330
9
100
AcDbSymbolTableRecord
100
AcDbRegAppTableRecord
  2
GEVID1214872433
 70
     0
  0
APPID
  5
20DC
330
9
100
AcDbSymbolTableRecord
100
AcDbRegAppTableRecord
  2
AcDbDynamicBlockGUID
 70
     0
  0
APPID
  5
20FD
330
9
100
AcDbSymbolTableRecord
100
AcDbRegAppTableRecord
  2
GENIUS_GENOBJ-N-REV_13
 70
     0
  0
APPID
  5
20FE
330
9
100
AcDbSymbolTableRecord
100
AcDbRegAppTableRecord
  2
GENIUS_GENOBJ-N-RSSYM_13
 70
     0
  0
APPID
  5
20FF
330
9
100
AcDbSymbolTableRecord
100
AcDbRegAppTableRecord
  2
GENIUS_GENSYMENT_13
 70
     0
  0
APPID
  5
2100
330
9
100
AcDbSymbolTableRecord
100
AcDbRegAppTableRecord
  2
GENIUS_GENSCSYM_13
 70
     0
  0
APPID
  5
4E76
330
9
100
AcDbSymbolTableRecord
100
AcDbRegAppTableRecord
  2
ACAUTHENVIRON
 70
     0
  0
ENDTAB
  0
TABLE
  2
DIMSTYLE
  5
A
330
0
100
AcDbSymbolTable
 70
    29
100
AcDbDimStyleTable
 71
     1
340
5AB
  0
DIMSTYLE
105
5AB
330
A
100
AcDbSymbolTableRecord
100
AcDbDimStyleTableRecord
  2
SEISA
 70
     0
  4
"
 40
1.5
 41
2.5
 42
0.625
 43
10.0
 44
0.625
 47
0.1
 48
0.1
 73
     0
 74
     0
 77
     3
 78
     8
 79
     2
 90
     1
140
3.5
141
0.0
143
0.0393701
146
0.71
147
1.5
172
     1
176
     3
177
     3
178
     3
271
     2
272
     2
283
     0
286
     8
340
5D5
341
69
342
69
371
    -1
372
    -1
1001
ACAD_DSTYLE_DIMJAG
1070
   388
1040
1.5
1001
ACAD_DSTYLE_DIMTALN
1070
   392
1070
     1
  0
DIMSTYLE
105
5E9
102
{ACAD_REACTORS
330
6C18
330
6C4C
330
6C64
330
6C7C
330
6D2A
330
6D5F
330
6D98
330
6DE2
330
6E9B
330
6EE3
330
708C
330
70A4
330
70BC
330
70D4
330
94D8
330
9502
330
B19B
330
B475
330
B4F2
330
B519
102
}
330
A
100
AcDbSymbolTableRecord
100
AcDbDimStyleTableRecord
  2
SEISA$0
 70
     0
  4
"
 40
1.5
 41
2.5
 42
0.625
 43
10.0
 44
0.625
 47
0.1
 48
0.1
 73
     0
 74
     0
 77
     3
 78
     8
 79
     2
 90
     1
140
3.5
141
0.0
143
0.0393701
146
0.71
147
1.5
172
     1
176
     3
177
     3
178
     3
271
     2
272
     2
283
     0
286
     8
340
5D5
341
69
342
69
371
    -1
372
    -1
  0
DIMSTYLE
105
BBC7
330
A
100
AcDbSymbolTableRecord
100
AcDbDimStyleTableRecord
  2
AM_ISO
 70
     0
  4
"
 41
2.5
 42
1.0
 43
10.0
 44
1.0
 47
0.1
 48
0.1
 73
     0
 74
     0
 77
     1
 78
     8
 79
     2
 90
     1
140
3.5
141
0.0
143
0.0393701
146
0.71
147
1.5
172
     1
176
   256
177
   256
178
     2
271
     2
272
     3
274
     4
283
     0
284
     8
340
11
371
    -1
372
    -1
  0
DIMSTYLE
105
BBC8
330
A
100
AcDbSymbolTableRecord
100
AcDbDimStyleTableRecord
  2
AM_ISO$3
 70
     0
  4
"
 41
2.5
 42
1.0
 43
10.0
 44
1.0
 47
0.1
 48
0.1
 73
     0
 77
     1
 78
     8
 79
     2
 90
     1
140
3.5
141
0.0
143
0.0393701
146
0.71
147
1.5
176
   256
177
   256
178
     2
271
     2
272
     3
274
     4
283
     0
284
     8
288
     1
289
     0
340
11
371
    -1
372
    -1
  0
DIMSTYLE
105
BBC9
330
A
100
AcDbSymbolTableRecord
100
AcDbDimStyleTableRecord
  2
AM_ISO$4
 70
     0
  4
"
 41
2.5
 42
1.0
 43
10.0
 44
1.0
 47
0.1
 48
0.1
 73
     0
 77
     1
 78
     8
 79
     2
 90
     1
140
3.5
141
0.0
143
0.0393701
146
0.71
147
1.5
176
   256
177
   256
178
     2
271
     2
272
     3
274
     4
283
     0
284
     8
288
     1
289
     0
340
11
371
    -1
372
    -1
  0
DIMSTYLE
105
BBCA
330
A
100
AcDbSymbolTableRecord
100
AcDbDimStyleTableRecord
  2
AM_ISO$6
 70
     0
  4
"
 41
2.5
 42
1.0
 43
10.0
 44
1.0
 47
0.1
 48
0.1
 73
     0
 74
     0
 78
     8
 79
     2
 90
     1
140
3.5
141
0.0
143
0.0393701
146
0.71
147
1.5
172
     1
176
   256
177
   256
178
     2
271
     2
272
     3
274
     4
283
     0
284
     8
340
11
371
    -1
372
    -1
  0
DIMSTYLE
105
BBCB
330
A
100
AcDbSymbolTableRecord
100
AcDbDimStyleTableRecord
  2
AM_ISO$7
 70
     0
  4
"
 41
2.5
 42
1.0
 43
10.0
 44
1.0
 47
0.1
 48
0.1
 73
     0
 74
     0
 77
     1
 78
     8
 79
     2
 90
     1
140
5.0
141
0.0
143
0.0393701
146
0.71
147
1.5
172
     1
176
   256
177
   256
178
     2
271
     2
272
     3
274
     4
283
     0
284
     8
340
11
371
    -1
372
    -1
  0
DIMSTYLE
105
BBCC
330
A
100
AcDbSymbolTableRecord
100
AcDbDimStyleTableRecord
  2
AM_ISO$SF
 70
     0
  4
"
 41
2.5
 42
1.0
 43
10.0
 44
1.0
 47
0.1
 48
0.1
 73
     0
 74
     0
 75
     1
 76
     1
 77
     1
 78
     8
 79
     2
 90
     1
140
3.5
141
0.0
143
0.0393701
146
0.71
147
1.5
172
     1
176
   256
177
   256
178
     2
271
     2
272
     3
274
     4
283
     0
284
     8
340
11
371
    -1
372
    -1
  0
DIMSTYLE
105
BBCD
330
A
100
AcDbSymbolTableRecord
100
AcDbDimStyleTableRecord
  2
AM_ISO$SH
 70
     0
  4
"
 41
2.5
 42
1.0
 43
10.0
 44
1.0
 47
0.1
 48
0.1
 73
     0
 74
     0
 75
     1
 76
     1
 77
     1
 78
     8
 79
     2
 90
     1
140
3.5
141
0.0
143
0.0393701
144
2.0
146
0.71
147
1.5
172
     1
173
     1
176
   256
177
   256
178
     2
271
     2
272
     3
274
     4
283
     0
284
     8
340
11
343
74
371
    -1
372
    -1
  0
ENDTAB
  0
TABLE
  2
BLOCK_RECORD
  5
1
330
0
100
AcDbSymbolTable
 70
    38
  0
BLOCK_RECORD
  5
1F
102
{ACAD_XDICTIONARY
360
82
102
}
330
1
100
AcDbSymbolTableRecord
100
AcDbBlockTableRecord
  2
*Model_Space
340
22
 70
     0
280
     1
281
     0
  0
BLOCK_RECORD
  5
1B
330
1
100
AcDbSymbolTableRecord
100
AcDbBlockTableRecord
  2
*Paper_Space
340
1E
 70
     0
280
     1
281
     0
  0
BLOCK_RECORD
  5
23
330
1
100
AcDbSymbolTableRecord
100
AcDbBlockTableRecord
  2
*Paper_Space0
340
26
 70
     0
280
     1
281
     0
  0
BLOCK_RECORD
  5
69
330
1
100
AcDbSymbolTableRecord
100
AcDbBlockTableRecord
  2
_Open30
340
0
102
{BLKREFS
331
A5F3
331
A5F4
331
A5FC
331
A5FD
331
A605
331
A606
331
A60E
331
A60F
331
A643
331
A644
331
A654
331
A655
331
A65D
331
A65E
331
A666
331
A667
331
A69B
331
A69C
331
A6A4
331
A6A5
331
A6AD
331
A6AE
331
A6B6
331
A6B7
331
A6CF
331
A6D0
331
A6D8
331
A6D9
331
B1C7
331
B1C8
331
B2D1
331
B2D2
331
B4E2
331
B60C
331
B60D
331
B6A1
102
}
 70
     0
280
     1
281
     0
  0
BLOCK_RECORD
  5
74
330
1
100
AcDbSymbolTableRecord
100
AcDbBlockTableRecord
  2
GENAXEH
340
0
 70
     0
280
     1
281
     0
  0
BLOCK_RECORD
  5
5478
102
{ACAD_XDICTIONARY
360
5506
102
}
330
1
100
AcDbSymbolTableRecord
100
AcDbBlockTableRecord
  2
リーマボルト-1 SAM100 M6
340
0
310
2800000020000000200000000100080000000000000400000000000000000000000000000000000000000000000080000080000000808000800000008000800080800000C0C0C000C0DCC000F0CAA6000020400000206000002080000020A0000020C0000020E00000400000004020000040400000406000004080000040A0
310
000040C0000040E00000600000006020000060400000606000006080000060A0000060C0000060E00000800000008020000080400000806000008080000080A0000080C0000080E00000A0000000A0200000A0400000A0600000A0800000A0A00000A0C00000A0E00000C0000000C0200000C0400000C0600000C0800000C0
310
A00000C0C00000C0E00000E0000000E0200000E0400000E0600000E0800000E0A00000E0C00000E0E00040000000400020004000400040006000400080004000A0004000C0004000E00040200000402020004020400040206000402080004020A0004020C0004020E000404000004040200040404000404060004040800040
310
40A0004040C0004040E00040600000406020004060400040606000406080004060A0004060C0004060E00040800000408020004080400040806000408080004080A0004080C0004080E00040A0000040A0200040A0400040A0600040A0800040A0A00040A0C00040A0E00040C0000040C0200040C0400040C0600040C08000
310
40C0A00040C0C00040C0E00040E0000040E0200040E0400040E0600040E0800040E0A00040E0C00040E0E00080000000800020008000400080006000800080008000A0008000C0008000E00080200000802020008020400080206000802080008020A0008020C0008020E00080400000804020008040400080406000804080
310
008040A0008040C0008040E00080600000806020008060400080606000806080008060A0008060C0008060E00080800000808020008080400080806000808080008080A0008080C0008080E00080A0000080A0200080A0400080A0600080A0800080A0A00080A0C00080A0E00080C0000080C0200080C0400080C0600080C0
310
800080C0A00080C0C00080C0E00080E0000080E0200080E0400080E0600080E0800080E0A00080E0C00080E0E000C0000000C0002000C0004000C0006000C0008000C000A000C000C000C000E000C0200000C0202000C0204000C0206000C0208000C020A000C020C000C020E000C0400000C0402000C0404000C0406000C0
310
408000C040A000C040C000C040E000C0600000C0602000C0604000C0606000C0608000C060A000C060C000C060E000C0800000C0802000C0804000C0806000C0808000C080A000C080C000C080E000C0A00000C0A02000C0A04000C0A06000C0A08000C0A0A000C0A0C000C0A0E000C0C00000C0C02000C0C04000C0C06000
310
C0C08000C0C0A000F0FBFF00A4A0A000808080000000FF0000FF000000FFFF00FF000000FF00FF00FFFF0000FFFFFF0000000000000000000000000000000000000000000000000000000000000000000000000000000000000000000000000000000000000000000000000000000000000000000000000000000000000000
310
00000000000000000000000000000000000000000000000000000000000000000000000000000000000000000000000000000000000000000000000000000000000000000000000000000000000000000000000000000000000000000000000000000000000000000000000000000000000000000000000000000000000000
310
00000000000000000000000000000000000000000000000000000000000000000000000000000000000000000000000000000000000000000000000000000000000000000000000000000000000000000000000000000000000000000000000000000000000000000000000000000000000000000000000000000000000000
310
0000000000000000000000000000000000000000000000000000000000000000000000000000000000000000000000000000000000FFFFFF00000000000000000000000000000000000000FFFFFFFFFF0000000000FF00FFFF000000000000000000000000000000FF000000FF0000FF00000000FFFF00FFFF000000000000
310
000000000000000000FFFFFFFFFFFFFFFFFFFF0000FFFF0000FF000000000000000000000000000000FFFF00FFFF0000FFFFFF0000FFFFFFFFFF000000000000000000000000000000FFFF0000FF0000FFFFFF0000FFFF00FFFF000000000000000000000000000000FFFFFFFFFFFFFFFFFFFF000000FF00FFFF0000000000
310
00000000000000000000FF000000FF0000FF0000000000FFFFFF00000000000000000000000000000000000000FFFFFFFFFF0000000000000000000000000000000000000000000000000000000000000000000000000000000000000000000000000000000000000000000000000000000000000000000000000000000000
310
00000000000000000000000000000000000000000000000000000000000000000000000000000000000000000000000000000000000000000000000000000000000000000000000000000000000000000000000000000000000000000000000000000000000000000000000000000000000000000000000000000000000000
310
00000000000000000000000000000000000000000000000000000000000000000000000000000000000000000000000000000000000000000000000000000000000000000000000000000000000000000000000000000000000000000000000000000000000000000000000000000000000000000000000000000000000000
310
0000000000000000000000000000000000000000000000000000000000000000000000000000000000000000000000000000000000000000
102
{BLKREFS
331
54A3
102
}
 70
     4
280
     1
281
     0
  0
BLOCK_RECORD
  5
62A7
102
{ACAD_XDICTIONARY
360
7671
102
}
330
1
100
AcDbSymbolTableRecord
100
AcDbBlockTableRecord
  2
ロッカクアナツキプラグ-1　R1／8
340
0
310
2800000020000000200000000100080000000000000400000000000000000000000000000000000000000000000080000080000000808000800000008000800080800000C0C0C000C0DCC000F0CAA6000020400000206000002080000020A0000020C0000020E00000400000004020000040400000406000004080000040A0
310
000040C0000040E00000600000006020000060400000606000006080000060A0000060C0000060E00000800000008020000080400000806000008080000080A0000080C0000080E00000A0000000A0200000A0400000A0600000A0800000A0A00000A0C00000A0E00000C0000000C0200000C0400000C0600000C0800000C0
310
A00000C0C00000C0E00000E0000000E0200000E0400000E0600000E0800000E0A00000E0C00000E0E00040000000400020004000400040006000400080004000A0004000C0004000E00040200000402020004020400040206000402080004020A0004020C0004020E000404000004040200040404000404060004040800040
310
40A0004040C0004040E00040600000406020004060400040606000406080004060A0004060C0004060E00040800000408020004080400040806000408080004080A0004080C0004080E00040A0000040A0200040A0400040A0600040A0800040A0A00040A0C00040A0E00040C0000040C0200040C0400040C0600040C08000
310
40C0A00040C0C00040C0E00040E0000040E0200040E0400040E0600040E0800040E0A00040E0C00040E0E00080000000800020008000400080006000800080008000A0008000C0008000E00080200000802020008020400080206000802080008020A0008020C0008020E00080400000804020008040400080406000804080
310
008040A0008040C0008040E00080600000806020008060400080606000806080008060A0008060C0008060E00080800000808020008080400080806000808080008080A0008080C0008080E00080A0000080A0200080A0400080A0600080A0800080A0A00080A0C00080A0E00080C0000080C0200080C0400080C0600080C0
310
800080C0A00080C0C00080C0E00080E0000080E0200080E0400080E0600080E0800080E0A00080E0C00080E0E000C0000000C0002000C0004000C0006000C0008000C000A000C000C000C000E000C0200000C0202000C0204000C0206000C0208000C020A000C020C000C020E000C0400000C0402000C0404000C0406000C0
310
408000C040A000C040C000C040E000C0600000C0602000C0604000C0606000C0608000C060A000C060C000C060E000C0800000C0802000C0804000C0806000C0808000C080A000C080C000C080E000C0A00000C0A02000C0A04000C0A06000C0A08000C0A0A000C0A0C000C0A0E000C0C00000C0C02000C0C04000C0C06000
310
C0C08000C0C0A000F0FBFF00A4A0A000808080000000FF0000FF000000FFFF00FF000000FF00FF00FFFF0000FFFFFF00000000000000000000000000000000000000000000000000000000000000000000000000000000000000000000000000F9000000000000000000000000000000000000000000000000000000000000
310
00F900000000000000000000000000000000000000000000000000000000000000F90000000000000000000000000000000000000000000000000000000000FEFEF9000000000000000000000000000000000000000000000000000000FEFEFFFFFEFEFEFEFE000000000000000000000000000000000000000000FEFEFFFF
310
0000F900FFFF00FE000000000000000000000000000000000000FEFEFFFF00000000F9000000FFFFFE00000000000000000000000000000000FE00FF000000000000F90000000000FFFEFE00000000000000000000000000FE00FF00000000000000F9000000000000FFFE00000000000000000000000000FE00FF00000000
310
000000FF00000000000000FFFE0000000000000000000000FE00FF000000000000FFFFF9FFFF0000000000FFFE0000000000000000000000FE00FF00000000FFFF0000F90000FF0000000000FFFE00000000000000000000FEFF00000000FF00000000F9000000FF00000000FFFE00000000000000000000FEFF00000000FF
310
00000000F9000000FF00000000FFFE00000000000000000000FE0000000000FF00000000F9000000FF0000000000FFFE0000000000F9F9F9F9F9F9F9F9F9F9FFF9F9F9F9F9F9F9F9FFF9F9F9F9F9F9F9F9F9F9000000000000FEFF00000000FF00000000F9000000FF0000000000FFFE000000000000000000FEFF00000000
310
FF00000000F9000000FF00000000FFFE00000000000000000000FE00FF00000000FFFF0000F900FFFF0000000000FFFE00000000000000000000FE00FF000000000000FFFFF9FF000000000000FFFE000000000000000000000000FE00FF00000000000000FF00000000000000FFFE000000000000000000000000FE00FF00
310
000000000000F9000000000000FFFE0000000000000000000000000000FE00FF000000000000F90000000000FF00FE000000000000000000000000000000FE00FF0000000000F900000000FFFEFE0000000000000000000000000000000000FEFEFFFF000000F90000FFFFFE00000000000000000000000000000000000000
310
0000FEFEFEFFFFF9FEFEFEFE00000000000000000000000000000000000000000000000000FEFEFE00000000000000000000000000000000000000000000000000000000000000F900000000000000000000000000000000000000000000000000000000000000F90000000000000000000000000000000000000000000000
310
0000000000000000F90000000000000000000000000000000000000000000000000000000000000000000000000000000000000000000000
102
{BLKREFS
331
7F47
102
}
 70
     4
280
     1
281
     0
  0
BLOCK_RECORD
  5
647A
102
{ACAD_XDICTIONARY
360
77FF
102
}
330
1
100
AcDbSymbolTableRecord
100
AcDbBlockTableRecord
  2
ケースＡ-2 SAM100
340
0
310
2800000020000000200000000100080000000000000400000000000000000000000000000000000000000000000080000080000000808000800000008000800080800000C0C0C000C0DCC000F0CAA6000020400000206000002080000020A0000020C0000020E00000400000004020000040400000406000004080000040A0
310
000040C0000040E00000600000006020000060400000606000006080000060A0000060C0000060E00000800000008020000080400000806000008080000080A0000080C0000080E00000A0000000A0200000A0400000A0600000A0800000A0A00000A0C00000A0E00000C0000000C0200000C0400000C0600000C0800000C0
310
A00000C0C00000C0E00000E0000000E0200000E0400000E0600000E0800000E0A00000E0C00000E0E00040000000400020004000400040006000400080004000A0004000C0004000E00040200000402020004020400040206000402080004020A0004020C0004020E000404000004040200040404000404060004040800040
310
40A0004040C0004040E00040600000406020004060400040606000406080004060A0004060C0004060E00040800000408020004080400040806000408080004080A0004080C0004080E00040A0000040A0200040A0400040A0600040A0800040A0A00040A0C00040A0E00040C0000040C0200040C0400040C0600040C08000
310
40C0A00040C0C00040C0E00040E0000040E0200040E0400040E0600040E0800040E0A00040E0C00040E0E00080000000800020008000400080006000800080008000A0008000C0008000E00080200000802020008020400080206000802080008020A0008020C0008020E00080400000804020008040400080406000804080
310
008040A0008040C0008040E00080600000806020008060400080606000806080008060A0008060C0008060E00080800000808020008080400080806000808080008080A0008080C0008080E00080A0000080A0200080A0400080A0600080A0800080A0A00080A0C00080A0E00080C0000080C0200080C0400080C0600080C0
310
800080C0A00080C0C00080C0E00080E0000080E0200080E0400080E0600080E0800080E0A00080E0C00080E0E000C0000000C0002000C0004000C0006000C0008000C000A000C000C000C000E000C0200000C0202000C0204000C0206000C0208000C020A000C020C000C020E000C0400000C0402000C0404000C0406000C0
310
408000C040A000C040C000C040E000C0600000C0602000C0604000C0606000C0608000C060A000C060C000C060E000C0800000C0802000C0804000C0806000C0808000C080A000C080C000C080E000C0A00000C0A02000C0A04000C0A06000C0A08000C0A0A000C0A0C000C0A0E000C0C00000C0C02000C0C04000C0C06000
310
C0C08000C0C0A000F0FBFF00A4A0A000808080000000FF0000FF000000FFFF00FF000000FF00FF00FFFF0000FFFFFF0000000000000000000000000000000000000000000000000000000000000000000000000000000000000000000000FFFFFFFFFF000000000000000000000000000000000000000000000000000000FF
310
000000FF000000000000000000000000000000000000000000000000000000FF000000FF000000000000000000000000000000000000000000000000000000FF000000FF000000000000000000000000000000000000000000000000000000FF000000FF00000000000000000000000000000000000000000000FFFFFFFFFF
310
FF000000FF00000000000000000000000000000000000000000000FF00000000FF00F900FF00000000000000000000000000000000000000000000FF00000000FFFEFEFEFF00000000000000000000000000000000000000000000FF00000000FFFFFFFFFF00000000000000000000000000000000000000000000FF000000
310
00FFFFFFFFFF00000000000000000000000000000000000000000000FF00000000FF00FEFEFF00000000000000000000000000000000000000000000FF00000000FF000000FF00000000000000000000000000000000000000000000FF00000000FF000000FF00000000000000000000000000000000000000000000FF0000
310
0000FF000000FF00000000000000000000000000000000000000000000FF00000000FF000000FF00000000000000000000000000000000000000000000FF00000000FF000000FF0000000000000000000000000000000000000000000000000000000000000000000000000000000000000000000000000000000000000000
310
000000000000000000000000000000000000000000000000000000000000000000000000000000000000000000000000000000000000000000000000000000000000000000000000000000000000000000000000000000000000000000000000000000000000000000000000000000000000000000000000000000000000FF
310
FFFF0000000000000000000000000000000000000000000000000000000000FFFFF9FFA4FFFF00000000000000000000000000000000000000000000000000FF00FFFFFFFFFFFFFFFFFF000000000000000000000000000000000000000000FFFFFFFFFF00000000FFFF000000000000000000000000000000000000000000
310
0000000000FF000000FF000000000000000000000000000000000000000000000000000000FFFFFFFFFF0000000000000000000000000000000000000000000000F9F9F9F9FFF9F9F9F9F9F9F9F90000000000000000000000000000000000000000000000FFFFFFFFFF000000000000000000000000000000000000000000
310
000000000000FFFFFFFFFF000000000000000000000000000000000000000000000000000000000000000000000000000000000000000000
102
{BLKREFS
331
64B1
102
}
 70
     4
280
     1
281
     0
  0
BLOCK_RECORD
  5
6535
102
{ACAD_XDICTIONARY
360
7916
102
}
330
1
100
AcDbSymbolTableRecord
100
AcDbBlockTableRecord
  2
センタ-2 SAM100
340
0
310
2800000020000000200000000100080000000000000400000000000000000000000000000000000000000000000080000080000000808000800000008000800080800000C0C0C000C0DCC000F0CAA6000020400000206000002080000020A0000020C0000020E00000400000004020000040400000406000004080000040A0
310
000040C0000040E00000600000006020000060400000606000006080000060A0000060C0000060E00000800000008020000080400000806000008080000080A0000080C0000080E00000A0000000A0200000A0400000A0600000A0800000A0A00000A0C00000A0E00000C0000000C0200000C0400000C0600000C0800000C0
310
A00000C0C00000C0E00000E0000000E0200000E0400000E0600000E0800000E0A00000E0C00000E0E00040000000400020004000400040006000400080004000A0004000C0004000E00040200000402020004020400040206000402080004020A0004020C0004020E000404000004040200040404000404060004040800040
310
40A0004040C0004040E00040600000406020004060400040606000406080004060A0004060C0004060E00040800000408020004080400040806000408080004080A0004080C0004080E00040A0000040A0200040A0400040A0600040A0800040A0A00040A0C00040A0E00040C0000040C0200040C0400040C0600040C08000
310
40C0A00040C0C00040C0E00040E0000040E0200040E0400040E0600040E0800040E0A00040E0C00040E0E00080000000800020008000400080006000800080008000A0008000C0008000E00080200000802020008020400080206000802080008020A0008020C0008020E00080400000804020008040400080406000804080
310
008040A0008040C0008040E00080600000806020008060400080606000806080008060A0008060C0008060E00080800000808020008080400080806000808080008080A0008080C0008080E00080A0000080A0200080A0400080A0600080A0800080A0A00080A0C00080A0E00080C0000080C0200080C0400080C0600080C0
310
800080C0A00080C0C00080C0E00080E0000080E0200080E0400080E0600080E0800080E0A00080E0C00080E0E000C0000000C0002000C0004000C0006000C0008000C000A000C000C000C000E000C0200000C0202000C0204000C0206000C0208000C020A000C020C000C020E000C0400000C0402000C0404000C0406000C0
310
408000C040A000C040C000C040E000C0600000C0602000C0604000C0606000C0608000C060A000C060C000C060E000C0800000C0802000C0804000C0806000C0808000C080A000C080C000C080E000C0A00000C0A02000C0A04000C0A06000C0A08000C0A0A000C0A0C000C0A0E000C0C00000C0C02000C0C04000C0C06000
310
C0C08000C0C0A000F0FBFF00A4A0A000808080000000FF0000FF000000FFFF00FF000000FF00FF00FFFF0000FFFFFF0000000000000000000000000000000000000000000000000000000000000000000000000000FFFFFFFFFFFFFFFF000000000000000000000000000000000000000000000000FF000000000000000000
310
000000000000000000000000000000000000000000FF00000000000000000000000000000000000000000000000000000000000000FF00000000000000000000000000000000000000000000000000000000000000FF00000000000000000000000000000000000000000000000000000000000000FF000000000000000000
310
00000000000000000000000000000000000000000000FF00000000000000000000000000000000000000000000000000000000000000FF00000000000000000000000000000000000000000000000000000000000000FF00000000000000000000000000000000000000000000000000000000000000FF0000000000000000
310
0000000000000000000000000000000000000000000000FF00000000000000000000000000000000000000000000000000000000000000FF00000000000000000000000000000000000000000000000000000000000000FF00000000000000000000000000000000000000000000FF0000000000000000FF00000000000000
310
000000000000000000000000000000FF0000000000000000FF00000000000000000000000000000000000000000000FF0000000000000000FF00000000000000000000000000000000000000000000FF0000000000000000FF00000000000000000000000000000000000000000000FF0000000000000000FF000000000000
310
00000000000000000000000000000000FF0000000000000000FFFFFFFFFFFFFFFFFFFFFFFFFFFFFFFFFFFFFFFFFFFFFFFF0000000000000000FFFFFFFFFFFFFFFFFFFFFFFFFFFFFFFFFFFFFFFFFFFFFFFF0000000000000000FF00000000000000000000000000000000000000000000FF0000000000000000FF0000000000
310
0000000000000000000000000000000000FF0000000000000000FF00000000000000000000000000000000000000000000FF0000000000000000FF000000000000000000000000000000F9000000000000FF000000000000000000FFFFFFFFFFFFFFFFFFFFFFFFFF0000F900FFFFFFFFFFFF00000000000000000000000000
310
0000000000000000FFFFFFFFFFFF00000000000000000000000000000000000000000000000000F9FFF9F9F9F9FFF900000000000000000000000000000000000000000000000000FFFFFFFFFFFF0000000000000000000000000000000000000000000000000000000000F900000000000000000000000000000000000000
310
000000000000000000000000F900000000000000000000000000000000000000000000000000000000000000000000000000000000000000
102
{BLKREFS
331
654E
102
}
 70
     4
280
     1
281
     0
  0
BLOCK_RECORD
  5
6B43
102
{ACAD_XDICTIONARY
360
7ACE
102
}
330
1
100
AcDbSymbolTableRecord
100
AcDbBlockTableRecord
  2
リーマボルト-2 SAM100 M6
340
0
310
2800000020000000200000000100080000000000000400000000000000000000000000000000000000000000000080000080000000808000800000008000800080800000C0C0C000C0DCC000F0CAA6000020400000206000002080000020A0000020C0000020E00000400000004020000040400000406000004080000040A0
310
000040C0000040E00000600000006020000060400000606000006080000060A0000060C0000060E00000800000008020000080400000806000008080000080A0000080C0000080E00000A0000000A0200000A0400000A0600000A0800000A0A00000A0C00000A0E00000C0000000C0200000C0400000C0600000C0800000C0
310
A00000C0C00000C0E00000E0000000E0200000E0400000E0600000E0800000E0A00000E0C00000E0E00040000000400020004000400040006000400080004000A0004000C0004000E00040200000402020004020400040206000402080004020A0004020C0004020E000404000004040200040404000404060004040800040
310
40A0004040C0004040E00040600000406020004060400040606000406080004060A0004060C0004060E00040800000408020004080400040806000408080004080A0004080C0004080E00040A0000040A0200040A0400040A0600040A0800040A0A00040A0C00040A0E00040C0000040C0200040C0400040C0600040C08000
310
40C0A00040C0C00040C0E00040E0000040E0200040E0400040E0600040E0800040E0A00040E0C00040E0E00080000000800020008000400080006000800080008000A0008000C0008000E00080200000802020008020400080206000802080008020A0008020C0008020E00080400000804020008040400080406000804080
310
008040A0008040C0008040E00080600000806020008060400080606000806080008060A0008060C0008060E00080800000808020008080400080806000808080008080A0008080C0008080E00080A0000080A0200080A0400080A0600080A0800080A0A00080A0C00080A0E00080C0000080C0200080C0400080C0600080C0
310
800080C0A00080C0C00080C0E00080E0000080E0200080E0400080E0600080E0800080E0A00080E0C00080E0E000C0000000C0002000C0004000C0006000C0008000C000A000C000C000C000E000C0200000C0202000C0204000C0206000C0208000C020A000C020C000C020E000C0400000C0402000C0404000C0406000C0
310
408000C040A000C040C000C040E000C0600000C0602000C0604000C0606000C0608000C060A000C060C000C060E000C0800000C0802000C0804000C0806000C0808000C080A000C080C000C080E000C0A00000C0A02000C0A04000C0A06000C0A08000C0A0A000C0A0C000C0A0E000C0C00000C0C02000C0C04000C0C06000
310
C0C08000C0C0A000F0FBFF00A4A0A000808080000000FF0000FF000000FFFF00FF000000FF00FF00FFFF0000FFFFFF0000000000000000000000000000000000000000000000000000000000000000000000000000000000000000000000000000000000000000000000000000000000000000000000000000000000000000
310
00000000000000000000000000000000000000000000000000000000000000000000000000000000000000000000000000000000000000000000000000000000000000000000000000000000000000000000000000000000000000000000000000000000000000000000000000000000000000000000000000000000000000
310
00000000000000000000000000000000000000000000000000000000000000000000000000000000000000000000000000000000000000000000000000000000000000000000000000000000000000000000000000000000000000000000000000000000000000000000000000000000000000000000000000000000000000
310
000000000000000000000000000000000000000000000000000000000000000000000000000000000000000000000000000000000000FFFFFFFFFF00000000000000000000000000000000000000FFFFFF0000000000FF0000FFFF0000FFFFFFFFFFFFFFFFFFFFFFFFFFFFFFFFFFFF00FF000000FFFEFEFFFFFFFFFFFFFF00
310
0000000000000000000000000000FFFF00FFFF0000FFFFFF0000FFFF00FFFF000000000000000000000000000000FFFF00FFFF0000FFFFFF0000FFFF00FFFF000000000000000000000000000000FFFFFFFFFF0000FFFFFFFFFFFFFFFFFFFF000000000000000000000000000000FFFF00FFFF00000000FF0000FFFF0000FF
310
FFFFFFFFFFFFFFFFFFFFFFFFFFFFFFFFFF00FF0000000000FFFFFFFFFF00000000000000000000000000000000000000FFFFFF00000000000000000000000000000000000000000000000000000000000000000000000000000000000000000000000000000000000000000000000000000000000000000000000000000000
310
00000000000000000000000000000000000000000000000000000000000000000000000000000000000000000000000000000000000000000000000000000000000000000000000000000000000000000000000000000000000000000000000000000000000000000000000000000000000000000000000000000000000000
310
00000000000000000000000000000000000000000000000000000000000000000000000000000000000000000000000000000000000000000000000000000000000000000000000000000000000000000000000000000000000000000000000000000000000000000000000000000000000000000000000000000000000000
310
0000000000000000000000000000000000000000000000000000000000000000000000000000000000000000000000000000000000000000
102
{BLKREFS
331
6B72
102
}
 70
     4
280
     1
281
     0
  0
BLOCK_RECORD
  5
6C19
330
1
100
AcDbSymbolTableRecord
100
AcDbBlockTableRecord
  2
*D11
340
0
 70
     0
280
     1
281
     0
  0
BLOCK_RECORD
  5
6C4D
330
1
100
AcDbSymbolTableRecord
100
AcDbBlockTableRecord
  2
*D12
340
0
 70
     0
280
     1
281
     0
  0
BLOCK_RECORD
  5
6C65
330
1
100
AcDbSymbolTableRecord
100
AcDbBlockTableRecord
  2
*D13
340
0
 70
     0
280
     1
281
     0
  0
BLOCK_RECORD
  5
6C7D
330
1
100
AcDbSymbolTableRecord
100
AcDbBlockTableRecord
  2
*D14
340
0
 70
     0
280
     1
281
     0
  0
BLOCK_RECORD
  5
6D2B
330
1
100
AcDbSymbolTableRecord
100
AcDbBlockTableRecord
  2
*D15
340
0
 70
     0
280
     1
281
     0
  0
BLOCK_RECORD
  5
6D60
330
1
100
AcDbSymbolTableRecord
100
AcDbBlockTableRecord
  2
*D16
340
0
 70
     0
280
     1
281
     0
  0
BLOCK_RECORD
  5
6D99
330
1
100
AcDbSymbolTableRecord
100
AcDbBlockTableRecord
  2
*D17
340
0
 70
     0
280
     1
281
     0
  0
BLOCK_RECORD
  5
6DE3
330
1
100
AcDbSymbolTableRecord
100
AcDbBlockTableRecord
  2
*D18
340
0
 70
     0
280
     1
281
     0
  0
BLOCK_RECORD
  5
6E9C
330
1
100
AcDbSymbolTableRecord
100
AcDbBlockTableRecord
  2
*D19
340
0
 70
     0
280
     1
281
     0
  0
BLOCK_RECORD
  5
6EE4
330
1
100
AcDbSymbolTableRecord
100
AcDbBlockTableRecord
  2
*D20
340
0
 70
     0
280
     1
281
     0
  0
BLOCK_RECORD
  5
708D
330
1
100
AcDbSymbolTableRecord
100
AcDbBlockTableRecord
  2
*D21
340
0
 70
     0
280
     1
281
     0
  0
BLOCK_RECORD
  5
70A5
330
1
100
AcDbSymbolTableRecord
100
AcDbBlockTableRecord
  2
*D22
340
0
 70
     0
280
     1
281
     0
  0
BLOCK_RECORD
  5
70BD
330
1
100
AcDbSymbolTableRecord
100
AcDbBlockTableRecord
  2
*D23
340
0
 70
     0
280
     1
281
     0
  0
BLOCK_RECORD
  5
70D5
330
1
100
AcDbSymbolTableRecord
100
AcDbBlockTableRecord
  2
*D24
340
0
 70
     0
280
     1
281
     0
  0
BLOCK_RECORD
  5
7E52
102
{ACAD_XDICTIONARY
360
84CA
102
}
330
1
100
AcDbSymbolTableRecord
100
AcDbBlockTableRecord
  2
センタ-1 SAM100
340
0
102
{BLKREFS
331
5014
102
}
 70
     0
280
     1
281
     0
  0
BLOCK_RECORD
  5
7F44
102
{ACAD_XDICTIONARY
360
83C4
102
}
330
1
100
AcDbSymbolTableRecord
100
AcDbBlockTableRecord
  2
ケースＡ-1 SAM100
340
0
102
{BLKREFS
331
4BDF
102
}
 70
     0
280
     1
281
     0
  0
BLOCK_RECORD
  5
8045
330
1
100
AcDbSymbolTableRecord
100
AcDbBlockTableRecord
  2
ロッカクアナツキプラグ-2　R1／8
340
0
102
{BLKREFS
331
647D
102
}
 70
     0
280
     1
281
     0
  0
BLOCK_RECORD
  5
9104
102
{ACAD_XDICTIONARY
360
9303
102
}
330
1
100
AcDbSymbolTableRecord
100
AcDbBlockTableRecord
  2
ＧＣスペーサ SAMY100
340
0
310
2800000020000000200000000100080000000000000400000000000000000000000000000000000000000000000080000080000000808000800000008000800080800000C0C0C000C0DCC000F0CAA6000020400000206000002080000020A0000020C0000020E00000400000004020000040400000406000004080000040A0
310
000040C0000040E00000600000006020000060400000606000006080000060A0000060C0000060E00000800000008020000080400000806000008080000080A0000080C0000080E00000A0000000A0200000A0400000A0600000A0800000A0A00000A0C00000A0E00000C0000000C0200000C0400000C0600000C0800000C0
310
A00000C0C00000C0E00000E0000000E0200000E0400000E0600000E0800000E0A00000E0C00000E0E00040000000400020004000400040006000400080004000A0004000C0004000E00040200000402020004020400040206000402080004020A0004020C0004020E000404000004040200040404000404060004040800040
310
40A0004040C0004040E00040600000406020004060400040606000406080004060A0004060C0004060E00040800000408020004080400040806000408080004080A0004080C0004080E00040A0000040A0200040A0400040A0600040A0800040A0A00040A0C00040A0E00040C0000040C0200040C0400040C0600040C08000
310
40C0A00040C0C00040C0E00040E0000040E0200040E0400040E0600040E0800040E0A00040E0C00040E0E00080000000800020008000400080006000800080008000A0008000C0008000E00080200000802020008020400080206000802080008020A0008020C0008020E00080400000804020008040400080406000804080
310
008040A0008040C0008040E00080600000806020008060400080606000806080008060A0008060C0008060E00080800000808020008080400080806000808080008080A0008080C0008080E00080A0000080A0200080A0400080A0600080A0800080A0A00080A0C00080A0E00080C0000080C0200080C0400080C0600080C0
310
800080C0A00080C0C00080C0E00080E0000080E0200080E0400080E0600080E0800080E0A00080E0C00080E0E000C0000000C0002000C0004000C0006000C0008000C000A000C000C000C000E000C0200000C0202000C0204000C0206000C0208000C020A000C020C000C020E000C0400000C0402000C0404000C0406000C0
310
408000C040A000C040C000C040E000C0600000C0602000C0604000C0606000C0608000C060A000C060C000C060E000C0800000C0802000C0804000C0806000C0808000C080A000C080C000C080E000C0A00000C0A02000C0A04000C0A06000C0A08000C0A0A000C0A0C000C0A0E000C0C00000C0C02000C0C04000C0C06000
310
C0C08000C0C0A000F0FBFF00A4A0A000808080000000FF0000FF000000FFFF00FF000000FF00FF00FFFF0000FFFFFF0000000000000000000000000000000000000000000000000000000000000000000000000000000000000000000000000000000000000000000000000000000000000000000000000000000000000000
310
000000000000000000000000000000000000000000FFFFFFFF0000000000000000000000000000000000FFFFFFFF00000000000000FF0000FF0000000000000000000000000000000000FF0000FF0000000000F9F9F9F9F9FFF90000000000000000000000000000F9F9FFF9F9FFF9000000000000FF0000FFFF0000000000
310
00000000000000000000FFFF0000FF00000000000000FF0000FFFFFF000000000000000000000000FFFFFFFF0000FF00000000000000FF0000FFFF00FFFFFFFFFFFFFEFEFFFFFFFF0000FFFF0000FF00000000000000FF0000FFFF000000000000FEFE00000000000000FFFF0000FF00000000000000FF0000FFFF00000000
310
0000FEFE00000000000000FFFF0000FF00000000000000FF0000FFFF00000000000000FE00000000000000FFFF0000FF00000000000000FF0000FFFF00000000000000FE00000000000000FFFF0000FF00000000000000FF0000FFFF00000000000000FEFE000000000000FFFF0000FF00000000000000FF0000FFFF000000
310
00000000FE00000000000000FFFF0000FF00000000F9F9F9F9F9F9F9F9F9F9F9F9F9F9FEFEF9F9F9F9FFF9F9FFFFF9FFFFF9F90000000000FF0000000000FF0000000000FE00000000FF0000000000FFFF00000000000000FF0000000000FF0000000000FE00000000FF0000000000FF0000000000000000FF0000000000FF
310
0000000000FEFE000000FF0000000000FF0000000000000000FF0000000000FF0000000000FE00000000FF0000000000FF0000000000000000FF0000000000FF00000000FEFE00000000FF0000000000FF0000000000000000FF000000F9F9F9FFFFFFFFFEFEFFFFFFFFF9F9F9F90000FF0000000000000000FF000000F9F9
310
F9F900000000FEFE000000F9F9F9F90000FF0000000000000000FF000000F9F9F9F9FFFFFFFFFEFEFFFFF9F9F9F9F90000FFFF00000000000000FF000000F9F9F90000000000000000000000F9F9F9000000FF00000000000000FFFFFFFFF9000000000000000000000000000000F9FFFFFFFF00000000000000FF0000FF00
310
00000000000000000000000000000000FF0000FF00000000000000FFFFFFFF0000000000000000000000000000000000FFFFFFFF00000000000000FFFFFFFF0000000000000000000000000000000000FFFFFFFF00000000000000000000000000000000000000000000000000000000000000000000000000000000000000
310
0000000000000000000000000000000000000000000000000000000000000000000000000000000000000000000000000000000000000000
102
{BLKREFS
331
9171
102
}
 70
     4
280
     1
281
     0
  0
BLOCK_RECORD
  5
94D9
330
1
100
AcDbSymbolTableRecord
100
AcDbBlockTableRecord
  2
*D29
340
0
 70
     0
280
     1
281
     0
  0
BLOCK_RECORD
  5
9503
330
1
100
AcDbSymbolTableRecord
100
AcDbBlockTableRecord
  2
*D30
340
0
 70
     0
280
     1
281
     0
  0
BLOCK_RECORD
  5
B19C
330
1
100
AcDbSymbolTableRecord
100
AcDbBlockTableRecord
  2
*D31
340
0
 70
     0
280
     1
281
     0
  0
BLOCK_RECORD
  5
B302
330
1
100
AcDbSymbolTableRecord
100
AcDbBlockTableRecord
  2
_DotSmall
340
0
102
{BLKREFS
331
B4E3
331
B555
331
B556
331
B6A0
102
}
 70
     0
280
     1
281
     0
  0
BLOCK_RECORD
  5
B476
330
1
100
AcDbSymbolTableRecord
100
AcDbBlockTableRecord
  2
*D33
340
0
 70
     0
280
     1
281
     0
  0
BLOCK_RECORD
  5
B4F3
330
1
100
AcDbSymbolTableRecord
100
AcDbBlockTableRecord
  2
*D34
340
0
 70
     0
280
     1
281
     0
  0
BLOCK_RECORD
  5
B51A
330
1
100
AcDbSymbolTableRecord
100
AcDbBlockTableRecord
  2
*D35
340
0
 70
     0
280
     1
281
     0
  0
BLOCK_RECORD
  5
BA0D
330
1
100
AcDbSymbolTableRecord
100
AcDbBlockTableRecord
  2
ケース
340
0
310
2800000020000000200000000100080000000000000400000000000000000000000000000000000000000000000080000080000000808000800000008000800080800000C0C0C000C0DCC000F0CAA6000020400000206000002080000020A0000020C0000020E00000400000004020000040400000406000004080000040A0
310
000040C0000040E00000600000006020000060400000606000006080000060A0000060C0000060E00000800000008020000080400000806000008080000080A0000080C0000080E00000A0000000A0200000A0400000A0600000A0800000A0A00000A0C00000A0E00000C0000000C0200000C0400000C0600000C0800000C0
310
A00000C0C00000C0E00000E0000000E0200000E0400000E0600000E0800000E0A00000E0C00000E0E00040000000400020004000400040006000400080004000A0004000C0004000E00040200000402020004020400040206000402080004020A0004020C0004020E000404000004040200040404000404060004040800040
310
40A0004040C0004040E00040600000406020004060400040606000406080004060A0004060C0004060E00040800000408020004080400040806000408080004080A0004080C0004080E00040A0000040A0200040A0400040A0600040A0800040A0A00040A0C00040A0E00040C0000040C0200040C0400040C0600040C08000
310
40C0A00040C0C00040C0E00040E0000040E0200040E0400040E0600040E0800040E0A00040E0C00040E0E00080000000800020008000400080006000800080008000A0008000C0008000E00080200000802020008020400080206000802080008020A0008020C0008020E00080400000804020008040400080406000804080
310
008040A0008040C0008040E00080600000806020008060400080606000806080008060A0008060C0008060E00080800000808020008080400080806000808080008080A0008080C0008080E00080A0000080A0200080A0400080A0600080A0800080A0A00080A0C00080A0E00080C0000080C0200080C0400080C0600080C0
310
800080C0A00080C0C00080C0E00080E0000080E0200080E0400080E0600080E0800080E0A00080E0C00080E0E000C0000000C0002000C0004000C0006000C0008000C000A000C000C000C000E000C0200000C0202000C0204000C0206000C0208000C020A000C020C000C020E000C0400000C0402000C0404000C0406000C0
310
408000C040A000C040C000C040E000C0600000C0602000C0604000C0606000C0608000C060A000C060C000C060E000C0800000C0802000C0804000C0806000C0808000C080A000C080C000C080E000C0A00000C0A02000C0A04000C0A06000C0A08000C0A0A000C0A0C000C0A0E000C0C00000C0C02000C0C04000C0C06000
310
C0C08000C0C0A000F0FBFF00A4A0A000808080000000FF0000FF000000FFFF00FF000000FF00FF00FFFF0000FFFFFF0000000000000000000000000000000000000000000000000000000000000000000000000000000000000000000000000000000000000000000000000000000000000000000000000000000000000000
310
000000000000000000000000000000000000000000000000000000000000000000000000000000000000000000000000000000000000000000000000000000000000000000000000000000000000000000000000000000000000000000000000000000000000000000000000000000000000FC000000FC0000000000000000
310
FC000000FC0000000000000000000000000000FC000000FC0000000000000000FC000000FC0000000000000000000000000000FCFCFCFCFC0000000000000000FCFCFCFCFC0000000000000000000000000000FC000000FC0000000000000000FC000000FC0000000000000000000000000000FC000000FC00000000000000
310
00FC000000FC0000000000000000000000000000FC000000FCFCFCFCFCFCFCFCFCFC000000FC0000000000FCFCFCFCFCFCFC0000FC00000000000000000000000000000000FC00000000FC000000000000000000FC00000000000000000000000000000000FC00FCFCFCFCFCFCFCFCFCFCFC0000FC00000000000000000000
310
000000000000FC00000000FC000000000000000000FC00000000000000000000000000000000FC00000000FC000000000000000000FC0000000000000000000000000000000000FC0000FCFCFCFCFCFCFCFCFC0000FC000000000000000000000000000000000000FCFC0000000000000000000000FC000000000000000000
310
00000000000000000000000000000000000000000000FC00000000000000000000000000000000000000000000000000000000000000FC0000000000000000000000000000000000000000000000000000000000000000FC0000000000000000000000000000000000000000000000000000000000000000FCFC0000000000
310
000000000000000000000000000000000000000000000000000000FC0000000000000000000000000000000000000000000000000000000000000000FC0000000000000000000000000000000000000000000000000000000000000000FCFCFCFCFCFCFCFCFCFCFCFCFCFCFCFCFCFCFCFCFCFCFCFC00000000000000000000
310
00000000000000000000000000000000000000000000000000000000000000000000000000000000000000000000000000000000000000000000000000000000000000000000000000000000000000000000000000000000000000000000000000000000000000000000000000000000000000000000000000000000000000
310
0000000000000000000000000000000000000000000000000000000000000000000000000000000000000000000000000000000000000000
102
{BLKREFS
331
BA22
102
}
 70
     4
280
     1
281
     1
  0
ENDTAB
  0
ENDSEC
  0
SECTION
  2
BLOCKS
  0
BLOCK
  5
20
330
1F
100
AcDbEntity
  8
0
100
AcDbBlockBegin
  2
*Model_Space
 70
     0
 10
0.0
 20
0.0
 30
0.0
  3
*Model_Space
  1

  0
ENDBLK
  5
21
330
1F
100
AcDbEntity
  8
0
100
AcDbBlockEnd
  0
BLOCK
  5
1C
330
1B
100
AcDbEntity
 67
     1
  8
0
100
AcDbBlockBegin
  2
*Paper_Space
 70
     0
 10
0.0
 20
0.0
 30
0.0
  3
*Paper_Space
  1

  0
ENDBLK
  5
1D
330
1B
100
AcDbEntity
 67
     1
  8
0
100
AcDbBlockEnd
  0
BLOCK
  5
24
330
23
100
AcDbEntity
 67
     1
  8
0
100
AcDbBlockBegin
  2
*Paper_Space0
 70
     0
 10
0.0
 20
0.0
 30
0.0
  3
*Paper_Space0
  1

  0
ENDBLK
  5
25
330
23
100
AcDbEntity
 67
     1
  8
0
100
AcDbBlockEnd
  0
BLOCK
  5
6D
330
69
100
AcDbEntity
  8
0
100
AcDbBlockBegin
  2
_Open30
 70
     0
 10
0.0
 20
0.0
 30
0.0
  3
_Open30
  1

  0
LINE
  5
6A
330
69
100
AcDbEntity
  8
0
  6
ByBlock
 62
     0
370
    -2
100
AcDbLine
 10
-1.0
 20
0.26794919
 30
0.0
 11
0.0
 21
0.0
 31
0.0
  0
LINE
  5
6B
330
69
100
AcDbEntity
  8
0
  6
ByBlock
 62
     0
370
    -2
100
AcDbLine
 10
0.0
 20
0.0
 30
0.0
 11
-1.0
 21
-0.26794919
 31
0.0
  0
LINE
  5
6C
330
69
100
AcDbEntity
  8
0
  6
ByBlock
 62
     0
370
    -2
100
AcDbLine
 10
0.0
 20
0.0
 30
0.0
 11
-1.0
 21
0.0
 31
0.0
  0
ENDBLK
  5
6E
330
69
100
AcDbEntity
  8
0
100
AcDbBlockEnd
  0
BLOCK
  5
76
330
74
100
AcDbEntity
  8
0
100
AcDbBlockBegin
  2
GENAXEH
 70
     0
 10
0.0
 20
0.0
 30
0.0
  3
GENAXEH
  1

  0
LINE
  5
75
330
74
100
AcDbEntity
  8
0
100
AcDbLine
 10
-1.0
 20
0.0
 30
0.0
 11
1.0
 21
0.0
 31
0.0
  0
ENDBLK
  5
77
330
74
100
AcDbEntity
  8
0
100
AcDbBlockEnd
  0
BLOCK
  5
5479
330
5478
100
AcDbEntity
  8
0
100
AcDbBlockBegin
  2
リーマボルト-1 SAM100 M6
 70
     0
 10
0.0
 20
0.0
 30
0.0
  3
リーマボルト-1 SAM100 M6
  1

  0
LINE
  5
547B
330
5478
100
AcDbEntity
  8
AM_0 外形線1
100
AcDbLine
 10
-3.566988000000037
 20
0.0
 30
0.0
 11
0.0
 21
0.0
 31
0.0
  0
LINE
  5
547C
330
5478
100
AcDbEntity
  8
AM_0 外形線1
100
AcDbLine
 10
-3.566988000000037
 20
-4.993002999999987
 30
0.0
 11
0.0
 21
-4.993002999999987
 31
0.0
  0
LINE
  5
547D
330
5478
100
AcDbEntity
  8
AM_0 外形線1
100
AcDbLine
 10
0.0
 20
4.911531000000023
 30
0.0
 11
-3.566988000000037
 21
4.911531000000023
 31
0.0
  0
ARC
  5
547E
330
5478
100
AcDbEntity
  8
AM_0 外形線1
100
AcDbCircle
 10
3.413197999999964
 20
-2.496502000000019
 30
0.0
 40
7.413199
100
AcDbArc
 50
160.3201359999976
 51
199.6798640000021
  0
LINE
  5
547F
330
5478
100
AcDbEntity
  8
AM_0 外形線1
100
AcDbLine
 10
-4.0
 20
2.39457900000002
 30
0.0
 11
-4.0
 21
-2.496502000000019
 31
0.0
  0
ARC
  5
5480
330
5478
100
AcDbEntity
  8
AM_0 外形線1
100
AcDbCircle
 10
3.175934999999981
 20
2.455766000000039
 30
0.0
 40
7.176197
100
AcDbArc
 50
159.9884260000023
 51
200.0115739999976
  0
LINE
  5
5481
330
5478
100
AcDbEntity
  8
AM_0 外形線1
100
AcDbLine
 10
1.0
 20
-3.5
 30
0.0
 11
1.0
 21
3.5
 31
0.0
  0
ARC
  5
5482
330
5478
100
AcDbEntity
  8
AM_0 外形線1
100
AcDbCircle
 10
0.5
 20
-3.5
 30
0.0
 40
0.5
100
AcDbArc
 50
0.0
 51
180.0
  0
ARC
  5
5483
330
5478
100
AcDbEntity
  8
AM_0 外形線1
100
AcDbCircle
 10
0.5
 20
3.5
 30
0.0
 40
0.5
100
AcDbArc
 50
180.0
 51
0.0
  0
LINE
  5
5484
330
5478
100
AcDbEntity
  8
AM_0 外形線1
100
AcDbLine
 10
31.5
 20
5.75
 30
0.0
 11
31.5
 21
6.100000000000022
 31
0.0
  0
LINE
  5
5485
330
5478
100
AcDbEntity
  8
AM_4 細線
100
AcDbLine
 10
36.5
 20
-2.5
 30
0.0
 11
38.5
 21
-2.5
 31
0.0
  0
LINE
  5
5486
330
5478
100
AcDbEntity
  8
AM_4 細線
100
AcDbLine
 10
36.5
 20
2.5
 30
0.0
 11
38.5
 21
2.5
 31
0.0
  0
LINE
  5
5487
330
5478
100
AcDbEntity
  8
AM_0 外形線1
100
AcDbLine
 10
38.0
 20
-3.0
 30
0.0
 11
36.5
 21
-3.0
 31
0.0
  0
LINE
  5
5488
330
5478
100
AcDbEntity
  8
AM_0 外形線1
100
AcDbLine
 10
36.5
 20
3.0
 30
0.0
 11
38.0
 21
3.0
 31
0.0
  0
ARC
  5
5489
330
5478
100
AcDbEntity
  8
AM_0 外形線1
100
AcDbCircle
 10
26.66098899999997
 20
0.0
 30
0.0
 40
9.839010999999999
100
AcDbArc
 50
342.9384689999998
 51
17.06153100000025
  0
LINE
  5
548A
330
5478
100
AcDbEntity
  8
AM_0 外形線1
100
AcDbLine
 10
31.5
 20
-5.75
 30
0.0
 11
31.5
 21
5.75
 31
0.0
  0
LINE
  5
548B
330
5478
100
AcDbEntity
  8
AM_0 外形線1
100
AcDbLine
 10
36.5
 20
5.0
 30
0.0
 11
36.5
 21
-5.0
 31
0.0
  0
LINE
  5
548C
330
5478
100
AcDbEntity
  8
AM_0 外形線1
100
AcDbLine
 10
26.0
 20
3.5
 30
0.0
 11
26.0
 21
-3.5
 31
0.0
  0
LINE
  5
548D
330
5478
100
AcDbEntity
  8
AM_0 外形線1
100
AcDbLine
 10
27.0
 20
2.922649000000035
 30
0.0
 11
27.0
 21
-2.922649999999975
 31
0.0
  0
LINE
  5
548E
330
5478
100
AcDbEntity
  8
AM_0 外形線1
100
AcDbLine
 10
30.0
 20
-6.100000000000022
 30
0.0
 11
31.5
 21
-6.100000000000022
 31
0.0
  0
LINE
  5
548F
330
5478
100
AcDbEntity
  8
AM_0 外形線1
100
AcDbLine
 10
27.0
 20
-2.922649999999975
 30
0.0
 11
30.0
 21
-2.922649999999975
 31
0.0
  0
LINE
  5
5490
330
5478
100
AcDbEntity
  8
AM_0 外形線1
100
AcDbLine
 10
27.0
 20
-2.922649999999975
 30
0.0
 11
26.0
 21
-3.5
 31
0.0
  0
LINE
  5
5491
330
5478
100
AcDbEntity
  8
AM_0 外形線1
100
AcDbLine
 10
31.5
 20
-2.886752000000001
 30
0.0
 11
36.06698699999993
 21
-2.886752000000001
 31
0.0
  0
ARC
  5
5492
330
5478
100
AcDbEntity
  8
AM_0 外形線1
100
AcDbCircle
 10
33.91687899999988
 20
-4.318375999999999
 30
0.0
 40
2.583120999999998
100
AcDbArc
 50
326.3428029999919
 51
33.65719700000809
  0
LINE
  5
5493
330
5478
100
AcDbEntity
  8
AM_0 外形線1
100
AcDbLine
 10
36.06698699999993
 20
-5.75
 30
0.0
 11
31.5
 21
-5.75
 31
0.0
  0
LINE
  5
5494
330
5478
100
AcDbEntity
  8
AM_0 外形線1
100
AcDbLine
 10
36.5
 20
-5.0
 30
0.0
 11
36.06698699999993
 21
-5.75
 31
0.0
  0
LINE
  5
5495
330
5478
100
AcDbEntity
  8
AM_0 外形線1
100
AcDbLine
 10
31.5
 20
-6.100000000000022
 30
0.0
 11
31.5
 21
-5.75
 31
0.0
  0
LINE
  5
5496
330
5478
100
AcDbEntity
  8
AM_0 外形線1
100
AcDbLine
 10
31.5
 20
0.5
 30
0.0
 11
30.0
 21
-1.0
 31
0.0
  0
LINE
  5
5497
330
5478
100
AcDbEntity
  8
AM_0 外形線1
100
AcDbLine
 10
31.5
 20
1.0
 30
0.0
 11
30.0
 21
-0.5
 31
0.0
  0
LINE
  5
5498
330
5478
100
AcDbEntity
  8
AM_0 外形線1
100
AcDbLine
 10
27.0
 20
2.922649000000035
 30
0.0
 11
30.0
 21
2.922649000000035
 31
0.0
  0
LINE
  5
5499
330
5478
100
AcDbEntity
  8
AM_0 外形線1
100
AcDbLine
 10
26.0
 20
3.5
 30
0.0
 11
27.0
 21
2.922649000000035
 31
0.0
  0
LINE
  5
549A
330
5478
100
AcDbEntity
  8
AM_0 外形線1
100
AcDbLine
 10
31.5
 20
2.886751000000002
 30
0.0
 11
36.06698699999993
 21
2.886751000000002
 31
0.0
  0
ARC
  5
549B
330
5478
100
AcDbEntity
  8
AM_0 外形線1
100
AcDbCircle
 10
33.91687899999988
 20
4.318375000000003
 30
0.0
 40
2.583120999999998
100
AcDbArc
 50
326.3428029999919
 51
33.65719700000809
  0
LINE
  5
549C
330
5478
100
AcDbEntity
  8
AM_0 外形線1
100
AcDbLine
 10
36.06698699999993
 20
5.75
 30
0.0
 11
36.5
 21
5.0
 31
0.0
  0
LINE
  5
549D
330
5478
100
AcDbEntity
  8
AM_0 外形線1
100
AcDbLine
 10
31.5
 20
5.75
 30
0.0
 11
36.06698699999993
 21
5.75
 31
0.0
  0
LINE
  5
549E
330
5478
100
AcDbEntity
  8
AM_0 外形線1
100
AcDbLine
 10
38.0
 20
3.0
 30
0.0
 11
38.0
 21
-3.0
 31
0.0
  0
LINE
  5
549F
330
5478
100
AcDbEntity
  8
AM_0 外形線1
100
AcDbLine
 10
39.0
 20
-2.0
 30
0.0
 11
38.0
 21
-3.0
 31
0.0
  0
LINE
  5
54A0
330
5478
100
AcDbEntity
  8
AM_0 外形線1
100
AcDbLine
 10
39.0
 20
2.0
 30
0.0
 11
39.0
 21
-2.0
 31
0.0
  0
LINE
  5
54A1
330
5478
100
AcDbEntity
  8
AM_0 外形線1
100
AcDbLine
 10
38.0
 20
3.0
 30
0.0
 11
39.0
 21
2.0
 31
0.0
  0
LINE
  5
54A2
330
5478
100
AcDbEntity
  8
AM_0 外形線1
100
AcDbLine
 10
31.5
 20
6.100000000000022
 30
0.0
 11
30.0
 21
6.100000000000022
 31
0.0
  0
LINE
  5
5502
330
5478
100
AcDbEntity
  8
AM_0 外形線1
100
AcDbLine
 10
1.0
 20
3.5
 30
0.0
 11
25.99999999999983
 21
3.500000000000113
 31
0.0
  0
LINE
  5
5503
330
5478
100
AcDbEntity
  8
AM_0 外形線1
100
AcDbLine
 10
1.0
 20
-3.499999999999771
 30
0.0
 11
25.99999999999983
 21
-3.499999999999886
 31
0.0
  0
LINE
  5
5504
330
5478
100
AcDbEntity
  8
AM_0 外形線1
100
AcDbLine
 10
30.0
 20
6.100000000000022
 30
0.0
 11
30.0
 21
-6.100000000000022
 31
0.0
  0
LINE
  5
5505
330
5478
100
AcDbEntity
  8
AM_0 外形線1
100
AcDbLine
 10
0.0
 20
4.911531000000023
 30
0.0
 11
0.0
 21
-4.993002999999987
 31
0.0
  0
ENDBLK
  5
547A
330
5478
100
AcDbEntity
  8
0
100
AcDbBlockEnd
  0
BLOCK
  5
62A8
330
62A7
100
AcDbEntity
  8
0
100
AcDbBlockBegin
  2
ロッカクアナツキプラグ-1　R1／8
 70
     0
 10
0.0
 20
0.0
 30
0.0
  3
ロッカクアナツキプラグ-1　R1／8
  1

  0
CIRCLE
  5
63CD
330
62A7
100
AcDbEntity
  8
AM_0 外形線1
100
AcDbCircle
 10
0.0
 20
0.0
 30
0.0
 40
4.816232
  0
LINE
  5
63CE
330
62A7
100
AcDbEntity
  8
AM_7 中心線
100
AcDbLine
 10
0.0
 20
-6.71623199999999
 30
0.0
 11
0.0
 21
6.71623199999999
 31
0.0
  0
CIRCLE
  5
63CF
330
62A7
100
AcDbEntity
  8
AM_4 細線
100
AcDbCircle
 10
0.0
 20
0.0
 30
0.0
 40
5.271232
  0
LINE
  5
63D0
330
62A7
100
AcDbEntity
  8
AM_0 外形線1
100
AcDbLine
 10
0.0
 20
2.514999999999985
 30
0.0
 11
2.178053000000089
 21
1.257499999999992
 31
0.0
  0
LINE
  5
63D1
330
62A7
100
AcDbEntity
  8
AM_0 外形線1
100
AcDbLine
 10
-2.178053999999974
 20
1.257499999999992
 30
0.0
 11
0.0
 21
2.514999999999985
 31
0.0
  0
LINE
  5
63D2
330
62A7
100
AcDbEntity
  8
AM_7 中心線
100
AcDbLine
 10
-6.71623199999999
 20
0.0
 30
0.0
 11
6.71623199999999
 21
0.0
 31
0.0
  0
LINE
  5
63D3
330
62A7
100
AcDbEntity
  8
AM_0 外形線1
100
AcDbLine
 10
2.178053000000089
 20
-1.257499999999992
 30
0.0
 11
0.0
 21
-2.514999999999985
 31
0.0
  0
LINE
  5
63D4
330
62A7
100
AcDbEntity
  8
AM_0 外形線1
100
AcDbLine
 10
-2.178053999999974
 20
-1.257499999999992
 30
0.0
 11
-2.178053999999974
 21
1.257499999999992
 31
0.0
  0
LINE
  5
63D5
330
62A7
100
AcDbEntity
  8
AM_0 外形線1
100
AcDbLine
 10
0.0
 20
-2.514999999999985
 30
0.0
 11
-2.178053999999974
 21
-1.257499999999992
 31
0.0
  0
LINE
  5
63D6
330
62A7
100
AcDbEntity
  8
AM_0 外形線1
100
AcDbLine
 10
2.178053000000089
 20
1.257499999999992
 30
0.0
 11
2.178053000000089
 21
-1.257499999999992
 31
0.0
  0
ENDBLK
  5
62A9
330
62A7
100
AcDbEntity
  8
0
100
AcDbBlockEnd
  0
BLOCK
  5
647B
330
647A
100
AcDbEntity
  8
0
100
AcDbBlockBegin
  2
ケースＡ-2 SAM100
 70
     0
 10
0.0
 20
0.0
 30
0.0
  3
ケースＡ-2 SAM100
  1

  0
INSERT
  5
647D
330
647A
100
AcDbEntity
  8
AM_5 寸法線
100
AcDbBlockReference
  2
ロッカクアナツキプラグ-2　R1／8
 10
-7.5
 20
-21.75
 30
0.0
  0
LINE
  5
647E
330
647A
100
AcDbEntity
  8
AM_7 中心線
100
AcDbLine
 10
22.06788043058168
 20
43.5
 30
0.0
 11
-27.58088457443932
 21
43.5
 31
0.0
  0
LINE
  5
647F
330
647A
100
AcDbEntity
  8
AM_0 外形線1
100
AcDbLine
 10
-15.0
 20
40.0
 30
0.0
 11
0.0
 21
40.0
 31
0.0
  0
LINE
  5
6480
330
647A
100
AcDbEntity
  8
AM_0 外形線1
100
AcDbLine
 10
-15.0
 20
47.0
 30
0.0
 11
0.0
 21
47.0
 31
0.0
  0
LINE
  5
6481
330
647A
100
AcDbEntity
  8
AM_0 外形線1
100
AcDbLine
 10
1.799999999999954
 20
32.5
 30
0.0
 11
-1.90000000000009
 21
32.5
 31
0.0
  0
LINE
  5
6482
330
647A
100
AcDbEntity
  8
AM_0 外形線1
100
AcDbLine
 10
-11.0
 20
29.0
 30
0.0
 11
2.0
 21
29.0
 31
0.0
  0
LINE
  5
6483
330
647A
100
AcDbEntity
  8
AM_0 外形線1
100
AcDbLine
 10
-1.90000000000009
 20
32.5
 30
0.0
 11
1.799999999999954
 21
32.5
 31
0.0
  0
LINE
  5
6484
330
647A
100
AcDbEntity
  8
AM_0 外形線1
100
AcDbLine
 10
-34.0
 20
-30.5
 30
0.0
 11
-34.0
 21
0.0
 31
0.0
  0
LINE
  5
6485
330
647A
100
AcDbEntity
  8
AM_0 外形線1
100
AcDbLine
 10
-15.0
 20
-49.79999999999995
 30
0.0
 11
-15.0
 21
0.0
 31
0.0
  0
LINE
  5
6486
330
647A
100
AcDbEntity
  8
AM_0 外形線1
100
AcDbLine
 10
0.0
 20
0.0
 30
0.0
 11
0.0
 21
-49.79999999999995
 31
0.0
  0
LINE
  5
6487
330
647A
100
AcDbEntity
  8
AM_0 外形線1
100
AcDbLine
 10
-18.0
 20
-33.5
 30
0.0
 11
-31.0
 21
-33.5
 31
0.0
  0
ARC
  5
6488
330
647A
100
AcDbEntity
  8
AM_0 外形線1
100
AcDbCircle
 10
-31.0
 20
-30.5
 30
0.0
 40
3.0
100
AcDbArc
 50
180.0
 51
270.0
  0
LINE
  5
6489
330
647A
100
AcDbEntity
  8
AM_0 外形線1
100
AcDbLine
 10
-0.2000000000000455
 20
-50.0
 30
0.0
 11
-14.80000000000018
 21
-50.0
 31
0.0
  0
LINE
  5
648A
330
647A
100
AcDbEntity
  8
AM_0 外形線1
100
AcDbLine
 10
-14.80000000000018
 20
-50.0
 30
0.0
 11
-15.0
 21
-49.79999999999995
 31
0.0
  0
LINE
  5
648B
330
647A
100
AcDbEntity
  8
AM_0 外形線1
100
AcDbLine
 10
0.0
 20
-49.79999999999995
 30
0.0
 11
-0.2000000000000455
 21
-50.0
 31
0.0
  0
ARC
  5
648C
330
647A
100
AcDbEntity
  8
AM_0 外形線1
100
AcDbCircle
 10
-18.0
 20
-36.5
 30
0.0
 40
3.0
100
AcDbArc
 50
0.0
 51
90.0
  0
LINE
  5
648D
330
647A
100
AcDbEntity
  8
AM_0 外形線1
100
AcDbLine
 10
-15.0
 20
36.5
 30
0.0
 11
-15.0
 21
49.80000000000001
 31
0.0
  0
LINE
  5
648E
330
647A
100
AcDbEntity
  8
AM_0 外形線1
100
AcDbLine
 10
0.0
 20
47.0
 30
0.0
 11
0.0
 21
49.80000000000001
 31
0.0
  0
ARC
  5
648F
330
647A
100
AcDbEntity
  8
AM_0 外形線1
100
AcDbCircle
 10
-24.0
 20
28.0
 30
0.0
 40
1.0
100
AcDbArc
 50
90.0
 51
180.0
  0
LINE
  5
6490
330
647A
100
AcDbEntity
  8
AM_0 外形線1
100
AcDbLine
 10
-18.0
 20
33.5
 30
0.0
 11
-31.0
 21
33.5
 31
0.0
  0
ARC
  5
6491
330
647A
100
AcDbEntity
  8
AM_0 外形線1
100
AcDbCircle
 10
-31.0
 20
30.5
 30
0.0
 40
3.0
100
AcDbArc
 50
90.0
 51
180.0
  0
LINE
  5
6492
330
647A
100
AcDbEntity
  8
AM_0 外形線1
100
AcDbLine
 10
-25.0
 20
23.0
 30
0.0
 11
-25.0
 21
28.0
 31
0.0
  0
LINE
  5
6493
330
647A
100
AcDbEntity
  8
AM_0 外形線1
100
AcDbLine
 10
-27.20000000000005
 20
26.0
 30
0.0
 11
-27.20000000000005
 21
23.0
 31
0.0
  0
LINE
  5
6494
330
647A
100
AcDbEntity
  8
AM_0 外形線1
100
AcDbLine
 10
-31.80000000000018
 20
23.0
 30
0.0
 11
-31.80000000000018
 21
26.0
 31
0.0
  0
LINE
  5
6495
330
647A
100
AcDbEntity
  8
AM_0 外形線1
100
AcDbLine
 10
-34.0
 20
30.5
 30
0.0
 11
-34.0
 21
23.0
 31
0.0
  0
LWPOLYLINE
  5
6496
330
647A
100
AcDbEntity
  8
AM_0 外形線1
100
AcDbPolyline
 90
       73
 70
     0
 43
0.0
 10
-31.80000000000018
 20
24.5
 10
-31.791248
 20
24.36926600000004
 10
-31.76505799999996
 20
24.23952700000001
 10
-31.72163000000001
 20
24.11177099999998
 10
-31.661294
 20
23.98696899999999
 10
-31.58450800000014
 20
23.86607200000003
 10
-31.49185899999998
 20
23.75
 10
-31.38405000000012
 20
23.639635
 10
-31.26190300000008
 20
23.53581800000001
 10
-31.12634600000002
 20
23.43933900000002
 10
-30.97841199999994
 20
23.350933
 10
-30.81922600000007
 20
23.27127100000002
 10
-30.65000000000009
 20
23.20096100000005
 10
-30.47202199999992
 20
23.14053800000005
 10
-30.2866469999999
 20
23.09046100000006
 10
-30.09528399999999
 20
23.05111100000005
 10
-29.89939099999992
 20
23.02278800000005
 10
-29.70045900000014
 20
23.00570800000004
 10
-29.5
 20
23.0
 10
-29.29954199999997
 20
23.00570800000004
 10
-29.10060999999996
 20
23.02278800000005
 10
-28.90471700000012
 20
23.05111100000005
 10
-28.71335399999998
 20
23.09046100000006
 10
-28.52797800000008
 20
23.14053800000005
 10
-28.35000000000014
 20
23.20096100000005
 10
-28.18077500000004
 20
23.27127100000002
 10
-28.02158899999995
 20
23.350933
 10
-27.8736550000001
 20
23.43933900000002
 10
-27.73809800000004
 20
23.53581800000001
 10
-27.615951
 20
23.639635
 10
-27.50814200000013
 20
23.75
 10
-27.41549299999997
 20
23.86607200000003
 10
-27.33870700000011
 20
23.98696899999999
 10
-27.27837100000011
 20
24.11177099999998
 10
-27.23494299999993
 20
24.23952700000001
 10
-27.20875300000012
 20
24.36926600000004
 10
-27.20000000000005
 20
24.5
 10
-27.20875300000012
 20
24.63073300000002
 10
-27.23494299999993
 20
24.76047200000005
 10
-27.27837100000011
 20
24.88822800000003
 10
-27.33870700000011
 20
25.01303000000002
 10
-27.41549299999997
 20
25.13392700000003
 10
-27.50814200000013
 20
25.25
 10
-27.615951
 20
25.360364
 10
-27.73809800000004
 20
25.464181
 10
-27.8736550000001
 20
25.56065999999999
 10
-28.02158899999995
 20
25.649066
 10
-28.18077500000004
 20
25.72872800000006
 10
-28.35000000000014
 20
25.79903800000006
 10
-28.52797800000008
 20
25.85946100000001
 10
-28.71335399999998
 20
25.90953800000006
 10
-28.90471700000012
 20
25.94888800000001
 10
-29.10060999999996
 20
25.97721100000001
 10
-29.29954199999997
 20
25.99429199999998
 10
-29.5
 20
26.0
 10
-29.70045900000014
 20
25.99429199999998
 10
-29.89939099999992
 20
25.97721100000001
 10
-30.09528399999999
 20
25.94888800000001
 10
-30.2866469999999
 20
25.90953800000006
 10
-30.47202199999992
 20
25.85946100000001
 10
-30.65000000000009
 20
25.79903800000006
 10
-30.81922600000007
 20
25.72872800000006
 10
-30.97841199999994
 20
25.649066
 10
-31.12634600000002
 20
25.56065999999999
 10
-31.26190300000008
 20
25.464181
 10
-31.38405000000012
 20
25.360364
 10
-31.49185899999998
 20
25.25
 10
-31.58450800000014
 20
25.13392700000003
 10
-31.661294
 20
25.01303000000002
 10
-31.72163000000001
 20
24.88822800000003
 10
-31.76505799999996
 20
24.76047200000005
 10
-31.791248
 20
24.63073300000002
 10
-31.80000000000018
 20
24.5
  0
LINE
  5
6497
330
647A
100
AcDbEntity
  8
AM_0 外形線1
100
AcDbLine
 10
-31.80000000000018
 20
26.0
 30
0.0
 11
-27.20000000000005
 21
26.0
 31
0.0
  0
LINE
  5
6498
330
647A
100
AcDbEntity
  8
AM_0 外形線1
100
AcDbLine
 10
-34.0
 20
24.0
 30
0.0
 11
-31.80000000000018
 21
24.0
 31
0.0
  0
LINE
  5
6499
330
647A
100
AcDbEntity
  8
AM_0 外形線1
100
AcDbLine
 10
-27.20000000000005
 20
24.0
 30
0.0
 11
-25.0
 21
24.0
 31
0.0
  0
LINE
  5
649A
330
647A
100
AcDbEntity
  8
AM_7 中心線
100
AcDbLine
 10
-10.0
 20
27.0
 30
0.0
 11
-24.0
 21
27.0
 31
0.0
  0
ARC
  5
649B
330
647A
100
AcDbEntity
  8
AM_0 外形線1
100
AcDbCircle
 10
-11.0
 20
28.0
 30
0.0
 40
1.0
100
AcDbArc
 50
90.0
 51
180.0
  0
LINE
  5
649C
330
647A
100
AcDbEntity
  8
AM_3 隠れ線
100
AcDbLine
 10
-14.0
 20
25.80000000000001
 30
0.0
 11
-21.5
 21
25.80000000000001
 31
0.0
  0
LINE
  5
649D
330
647A
100
AcDbEntity
  8
AM_0 外形線1
100
AcDbLine
 10
-12.0
 20
28.5
 30
0.0
 11
-22.0
 21
28.5
 31
0.0
  0
LINE
  5
649E
330
647A
100
AcDbEntity
  8
AM_3 隠れ線
100
AcDbLine
 10
-22.0
 20
28.0
 30
0.0
 11
-22.0
 21
26.30000000000001
 31
0.0
  0
LINE
  5
649F
330
647A
100
AcDbEntity
  8
AM_3 隠れ線
100
AcDbLine
 10
-22.0
 20
26.30000000000001
 30
0.0
 11
-21.5
 21
25.80000000000001
 31
0.0
  0
ARC
  5
64A0
330
647A
100
AcDbEntity
  8
AM_3 隠れ線
100
AcDbCircle
 10
-23.0
 20
28.0
 30
0.0
 40
1.0
100
AcDbArc
 50
0.0
 51
6.007073267136616
  0
LINE
  5
64A1
330
647A
100
AcDbEntity
  8
AM_0 外形線1
100
AcDbLine
 10
-24.0
 20
29.0
 30
0.0
 11
-23.0
 21
29.0
 31
0.0
  0
LINE
  5
64A2
330
647A
100
AcDbEntity
  8
AM_0 外形線1
100
AcDbLine
 10
-14.0
 20
25.80000000000001
 30
0.0
 11
-12.5
 21
25.80000000000001
 31
0.0
  0
LINE
  5
64A3
330
647A
100
AcDbEntity
  8
AM_0 外形線1
100
AcDbLine
 10
-12.0
 20
26.30000000000001
 30
0.0
 11
-12.0
 21
28.0
 31
0.0
  0
LINE
  5
64A4
330
647A
100
AcDbEntity
  8
AM_0 外形線1
100
AcDbLine
 10
-12.5
 20
25.80000000000001
 30
0.0
 11
-12.0
 21
26.30000000000001
 31
0.0
  0
ARC
  5
64A5
330
647A
100
AcDbEntity
  8
AM_0 外形線1
100
AcDbCircle
 10
-18.0
 20
36.5
 30
0.0
 40
3.0
100
AcDbArc
 50
270.0
 51
0.0
  0
LWPOLYLINE
  5
64A6
330
647A
100
AcDbEntity
  8
AM_0 外形線1
100
AcDbPolyline
 90
       73
 70
     0
 43
0.0
 10
-1.200000000000044
 20
32.5
 10
-1.09541399999989
 20
32.50742000000002
 10
-0.9916230000001178
 20
32.52962400000001
 10
-0.8894179999999778
 20
32.56644399999999
 10
-0.7895760000001248
 20
32.61759900000004
 10
-0.6928589999999986
 20
32.68269900000002
 10
-0.6000000000001366
 20
32.76125000000002
 10
-0.5117090000001099
 20
32.85265300000003
 10
-0.4286550000001627
 20
32.95621300000006
 10
-0.351472000000058
 20
33.07114100000001
 10
-0.2807470000000194
 20
33.19656400000003
 10
-0.2170180000000528
 20
33.33152600000005
 10
-0.1607699999999568
 20
33.47500000000002
 10
-0.112431000000015
 20
33.62589400000002
 10
-0.0723689999999806
 20
33.78306000000004
 10
-0.0408889999998792
 20
33.94530200000004
 10
-0.0182310000000143
 20
34.11138600000004
 10
-0.0045669999999518
 20
34.28004599999996
 10
0.0
 20
34.44999999999999
 10
-0.0045669999999518
 20
34.61995300000001
 10
-0.0182310000000143
 20
34.78861399999999
 10
-0.0408889999998792
 20
34.95469700000001
 10
-0.0723689999999806
 20
35.116939
 10
-0.112431000000015
 20
35.27410500000003
 10
-0.1607699999999568
 20
35.42500000000001
 10
-0.2170180000000528
 20
35.56847400000004
 10
-0.2807470000000194
 20
35.70343500000003
 10
-0.351472000000058
 20
35.82885800000003
 10
-0.4286550000001627
 20
35.94378600000005
 10
-0.5117090000001099
 20
36.047346
 10
-0.6000000000001366
 20
36.13874900000002
 10
-0.6928589999999986
 20
36.21730000000003
 10
-0.7895760000001248
 20
36.2824
 10
-0.8894179999999778
 20
36.33355500000005
 10
-0.9916230000001178
 20
36.37037500000003
 10
-1.09541399999989
 20
36.39257900000001
 10
-1.200000000000044
 20
36.39999999999998
 10
-1.304587000000082
 20
36.39257900000001
 10
-1.408378000000084
 20
36.37037500000003
 10
-1.510582999999995
 20
36.33355500000005
 10
-1.610425000000076
 20
36.2824
 10
-1.707141999999976
 20
36.21730000000003
 10
-1.800000000000181
 20
36.13874900000002
 10
-1.888292000000091
 20
36.047346
 10
-1.971346000000039
 20
35.94378600000005
 10
-2.048529000000144
 20
35.82885800000003
 10
-2.119254000000181
 20
35.70343500000003
 10
-2.182983000000149
 20
35.56847400000004
 10
-2.239231000000017
 20
35.42500000000001
 10
-2.287569999999958
 20
35.27410500000003
 10
-2.327631999999994
 20
35.116939
 10
-2.359110999999983
 20
34.95469700000001
 10
-2.381769999999959
 20
34.78861399999999
 10
-2.395434000000022
 20
34.61995300000001
 10
-2.400000000000089
 20
34.44999999999999
 10
-2.395434000000022
 20
34.28004599999996
 10
-2.381769999999959
 20
34.11138600000004
 10
-2.359110999999983
 20
33.94530200000004
 10
-2.327631999999994
 20
33.78306000000004
 10
-2.287569999999958
 20
33.62589400000002
 10
-2.239231000000017
 20
33.47500000000002
 10
-2.182983000000149
 20
33.33152600000005
 10
-2.119254000000181
 20
33.19656400000003
 10
-2.048529000000144
 20
33.07114100000001
 10
-1.971346000000039
 20
32.95621300000006
 10
-1.888292000000091
 20
32.85265300000003
 10
-1.800000000000181
 20
32.76125000000002
 10
-1.707141999999976
 20
32.68269900000002
 10
-1.610425000000076
 20
32.61759900000004
 10
-1.510582999999995
 20
32.56644399999999
 10
-1.408378000000084
 20
32.52962400000001
 10
-1.304587000000082
 20
32.50742000000002
 10
-1.200000000000044
 20
32.5
  0
LINE
  5
64A7
330
647A
100
AcDbEntity
  8
AM_0 外形線1
100
AcDbLine
 10
0.0
 20
36.39999999999998
 30
0.0
 11
0.0
 21
40.0
 31
0.0
  0
LINE
  5
64A8
330
647A
100
AcDbEntity
  8
AM_0 外形線1
100
AcDbLine
 10
-1.90000000000009
 20
36.39999999999998
 30
0.0
 11
0.0
 21
36.39999999999998
 31
0.0
  0
ARC
  5
64A9
330
647A
100
AcDbEntity
  8
AM_0 外形線1
100
AcDbCircle
 10
-1.90000000000009
 20
35.89999999999998
 30
0.0
 40
0.5
100
AcDbArc
 50
90.0
 51
180.0
  0
LINE
  5
64AA
330
647A
100
AcDbEntity
  8
AM_0 外形線1
100
AcDbLine
 10
-2.400000000000089
 20
33.0
 30
0.0
 11
-2.400000000000089
 21
35.89999999999998
 31
0.0
  0
ARC
  5
64AB
330
647A
100
AcDbEntity
  8
AM_0 外形線1
100
AcDbCircle
 10
-1.90000000000009
 20
33.0
 30
0.0
 40
0.5
100
AcDbArc
 50
180.0
 51
270.0
  0
LINE
  5
64AC
330
647A
100
AcDbEntity
  8
AM_0 外形線1
100
AcDbLine
 10
-0.2000000000000455
 20
50.0
 30
0.0
 11
-14.80000000000018
 21
50.0
 31
0.0
  0
LINE
  5
64AD
330
647A
100
AcDbEntity
  8
AM_0 外形線1
100
AcDbLine
 10
-14.80000000000018
 20
50.0
 30
0.0
 11
-15.0
 21
49.80000000000001
 31
0.0
  0
LINE
  5
64AE
330
647A
100
AcDbEntity
  8
AM_0 外形線1
100
AcDbLine
 10
0.0
 20
49.80000000000001
 30
0.0
 11
-0.2000000000000455
 21
50.0
 31
0.0
  0
LINE
  5
64AF
330
647A
100
AcDbEntity
  8
AM_0 外形線1
100
AcDbLine
 10
2.0
 20
29.0
 30
0.0
 11
2.0
 21
32.30000000000001
 31
0.0
  0
LINE
  5
64B0
330
647A
100
AcDbEntity
  8
AM_0 外形線1
100
AcDbLine
 10
2.0
 20
32.30000000000001
 30
0.0
 11
1.799999999999954
 21
32.5
 31
0.0
  0
ARC
  5
786E
330
647A
100
AcDbEntity
  8
AM_0 外形線1
100
AcDbCircle
 10
-23.0
 20
28.0
 30
0.0
 40
1.0
100
AcDbArc
 50
6.007073267136616
 51
90.0
  0
ENDBLK
  5
647C
330
647A
100
AcDbEntity
  8
0
100
AcDbBlockEnd
  0
BLOCK
  5
6536
330
6535
100
AcDbEntity
  8
0
100
AcDbBlockBegin
  2
センタ-2 SAM100
 70
     0
 10
0.0
 20
0.0
 30
0.0
  3
センタ-2 SAM100
  1

  0
LINE
  5
6538
330
6535
100
AcDbEntity
  8
AM_0 外形線1
100
AcDbLine
 10
0.0
 20
22.5
 30
0.0
 11
0.0
 21
0.0
 31
0.0
  0
LINE
  5
6539
330
6535
100
AcDbEntity
  8
AM_0 外形線1
100
AcDbLine
 10
-45.0
 20
-20.0
 30
0.0
 11
-45.0
 21
20.0
 31
0.0
  0
ARC
  5
653C
330
6535
100
AcDbEntity
  8
AM_0 外形線1
100
AcDbCircle
 10
-42.0
 20
-20.0
 30
0.0
 40
3.0
100
AcDbArc
 50
180.0
 51
270.0
  0
LINE
  5
653D
330
6535
100
AcDbEntity
  8
AM_0 外形線1
100
AcDbLine
 10
-30.0
 20
-23.0
 30
0.0
 11
-42.0
 21
-23.0
 31
0.0
  0
LINE
  5
653E
330
6535
100
AcDbEntity
  8
AM_0 外形線1
100
AcDbLine
 10
0.0
 20
10.0
 30
0.0
 11
-45.0
 21
9.999999999999943
 31
0.0
  0
ARC
  5
6540
330
6535
100
AcDbEntity
  8
AM_0 外形線1
100
AcDbCircle
 10
-42.0
 20
20.0
 30
0.0
 40
3.0
100
AcDbArc
 50
90.0
 51
180.0
  0
LINE
  5
6542
330
6535
100
AcDbEntity
  8
AM_0 外形線1
100
AcDbLine
 10
-42.0
 20
23.0
 30
0.0
 11
-19.5
 21
23.0
 31
0.0
  0
LINE
  5
6543
330
6535
100
AcDbEntity
  8
AM_0 外形線1
100
AcDbLine
 10
-9.5
 20
23.0
 30
0.0
 11
-0.5
 21
23.0
 31
0.0
  0
LINE
  5
6544
330
6535
100
AcDbEntity
  8
AM_7 中心線
100
AcDbLine
 10
-13.75
 20
31.14893600000006
 30
0.0
 11
-13.75
 21
23.77438049036312
 31
0.0
  0
ARC
  5
6545
330
6535
100
AcDbEntity
  8
AM_0 外形線1
100
AcDbCircle
 10
-9.5
 20
23.5
 30
0.0
 40
0.5
100
AcDbArc
 50
180.0
 51
270.0
  0
ARC
  5
6546
330
6535
100
AcDbEntity
  8
AM_0 外形線1
100
AcDbCircle
 10
-19.5
 20
23.5
 30
0.0
 40
0.5
100
AcDbArc
 50
270.0
 51
0.0
  0
ARC
  5
6547
330
6535
100
AcDbEntity
  8
AM_0 外形線1
100
AcDbCircle
 10
-13.75
 20
0.0
 30
0.0
 40
28.425
100
AcDbArc
 50
83.43467399999367
 51
99.61962300000305
  0
LINE
  5
6549
330
6535
100
AcDbEntity
  8
AM_0 外形線1
100
AcDbLine
 10
-19.0
 20
27.43596400000001
 30
0.0
 11
-18.5
 21
28.02531199999999
 31
0.0
  0
LINE
  5
654A
330
6535
100
AcDbEntity
  8
AM_0 外形線1
100
AcDbLine
 10
-19.0
 20
23.5
 30
0.0
 11
-19.0
 21
27.43596400000001
 31
0.0
  0
LINE
  5
654B
330
6535
100
AcDbEntity
  8
AM_0 外形線1
100
AcDbLine
 10
-10.0
 20
27.67655200000002
 30
0.0
 11
-10.0
 21
23.5
 31
0.0
  0
LINE
  5
654C
330
6535
100
AcDbEntity
  8
AM_0 外形線1
100
AcDbLine
 10
-10.5
 20
28.23859199999998
 30
0.0
 11
-10.0
 21
27.67655200000002
 31
0.0
  0
LINE
  5
654D
330
6535
100
AcDbEntity
  8
AM_0 外形線1
100
AcDbLine
 10
-0.5
 20
23.0
 30
0.0
 11
0.0
 21
22.5
 31
0.0
  0
ARC
  5
B221
330
6535
100
AcDbEntity
  8
AM_0 外形線1
100
AcDbCircle
 10
-13.75
 20
0.0000000000001137
 30
0.0
 40
25.34999999999985
100
AcDbArc
 50
81.49307224413872
 51
101.9524934010212
  0
ARC
  5
B222
330
6535
100
AcDbEntity
  8
AM_7 中心線
100
AcDbCircle
 10
-13.75
 20
0.0000000000001137
 30
0.0
 40
27.0
100
AcDbArc
 50
80.65663589655633
 51
102.4784045291881
  0
ENDBLK
  5
6537
330
6535
100
AcDbEntity
  8
0
100
AcDbBlockEnd
  0
BLOCK
  5
6B44
330
6B43
100
AcDbEntity
  8
0
100
AcDbBlockBegin
  2
リーマボルト-2 SAM100 M6
 70
     0
 10
0.0
 20
0.0
 30
0.0
  3
リーマボルト-2 SAM100 M6
  1

  0
LINE
  5
6B46
330
6B43
100
AcDbEntity
  8
AM_0 外形線1
100
AcDbLine
 10
-31.5
 20
5.75
 30
0.0
 11
-31.5
 21
6.100000000000022
 31
0.0
  0
LINE
  5
6B47
330
6B43
100
AcDbEntity
  8
AM_0 外形線1
100
AcDbLine
 10
-27.0
 20
-2.922649999999975
 30
0.0
 11
-26.0
 21
-3.5
 31
0.0
  0
LINE
  5
6B48
330
6B43
100
AcDbEntity
  8
AM_0 外形線1
100
AcDbLine
 10
-26.0
 20
3.5
 30
0.0
 11
-27.0
 21
2.922649000000035
 31
0.0
  0
LINE
  5
6B49
330
6B43
100
AcDbEntity
  8
AM_0 外形線1
100
AcDbLine
 10
-38.0
 20
3.0
 30
0.0
 11
-38.0
 21
-3.0
 31
0.0
  0
LINE
  5
6B4A
330
6B43
100
AcDbEntity
  8
AM_0 外形線1
100
AcDbLine
 10
-39.0
 20
-2.0
 30
0.0
 11
-38.0
 21
-3.0
 31
0.0
  0
ARC
  5
6B4B
330
6B43
100
AcDbEntity
  8
AM_0 外形線1
100
AcDbCircle
 10
-26.66099000000008
 20
0.0
 30
0.0
 40
9.839010999999999
100
AcDbArc
 50
162.9384689999997
 51
197.0615310000002
  0
LINE
  5
6B4C
330
6B43
100
AcDbEntity
  8
AM_0 外形線1
100
AcDbLine
 10
-31.5
 20
-5.75
 30
0.0
 11
-31.5
 21
5.75
 31
0.0
  0
LINE
  5
6B4D
330
6B43
100
AcDbEntity
  8
AM_0 外形線1
100
AcDbLine
 10
-36.5
 20
5.0
 30
0.0
 11
-36.5
 21
-5.0
 31
0.0
  0
LINE
  5
6B4E
330
6B43
100
AcDbEntity
  8
AM_0 外形線1
100
AcDbLine
 10
-27.0
 20
2.922649000000035
 30
0.0
 11
-27.0
 21
-2.922649999999975
 31
0.0
  0
LINE
  5
6B4F
330
6B43
100
AcDbEntity
  8
AM_0 外形線1
100
AcDbLine
 10
-31.5
 20
-2.886752000000001
 30
0.0
 11
-36.06698800000004
 21
-2.886752000000001
 31
0.0
  0
LINE
  5
6B50
330
6B43
100
AcDbEntity
  8
AM_0 外形線1
100
AcDbLine
 10
-36.06698800000004
 20
-5.75
 30
0.0
 11
-31.5
 21
-5.75
 31
0.0
  0
LINE
  5
6B51
330
6B43
100
AcDbEntity
  8
AM_0 外形線1
100
AcDbLine
 10
-38.0
 20
-3.0
 30
0.0
 11
-36.5
 21
-3.0
 31
0.0
  0
ARC
  5
6B52
330
6B43
100
AcDbEntity
  8
AM_0 外形線1
100
AcDbCircle
 10
-33.91687999999999
 20
-4.318375999999999
 30
0.0
 40
2.583120999999998
100
AcDbArc
 50
146.3428029999964
 51
213.6571970000036
  0
LINE
  5
6B53
330
6B43
100
AcDbEntity
  8
AM_0 外形線1
100
AcDbLine
 10
-36.5
 20
-5.0
 30
0.0
 11
-36.06698800000004
 21
-5.75
 31
0.0
  0
LINE
  5
6B54
330
6B43
100
AcDbEntity
  8
AM_0 外形線1
100
AcDbLine
 10
-27.0
 20
-2.922649999999975
 30
0.0
 11
-30.0
 21
-2.922649999999975
 31
0.0
  0
LINE
  5
6B55
330
6B43
100
AcDbEntity
  8
AM_0 外形線1
100
AcDbLine
 10
-31.5
 20
-6.100000000000022
 30
0.0
 11
-31.5
 21
-5.75
 31
0.0
  0
LINE
  5
6B56
330
6B43
100
AcDbEntity
  8
AM_0 外形線1
100
AcDbLine
 10
-30.0
 20
-6.100000000000022
 30
0.0
 11
-31.5
 21
-6.100000000000022
 31
0.0
  0
LINE
  5
6B57
330
6B43
100
AcDbEntity
  8
AM_0 外形線1
100
AcDbLine
 10
-31.5
 20
2.886751000000002
 30
0.0
 11
-36.06698800000004
 21
2.886751000000002
 31
0.0
  0
LINE
  5
6B58
330
6B43
100
AcDbEntity
  8
AM_0 外形線1
100
AcDbLine
 10
-31.5
 20
5.75
 30
0.0
 11
-36.06698800000004
 21
5.75
 31
0.0
  0
LINE
  5
6B59
330
6B43
100
AcDbEntity
  8
AM_4 細線
100
AcDbLine
 10
-36.5
 20
-2.5
 30
0.0
 11
-38.5
 21
-2.5
 31
0.0
  0
LINE
  5
6B5A
330
6B43
100
AcDbEntity
  8
AM_4 細線
100
AcDbLine
 10
-36.5
 20
2.5
 30
0.0
 11
-38.5
 21
2.5
 31
0.0
  0
LINE
  5
6B5B
330
6B43
100
AcDbEntity
  8
AM_0 外形線1
100
AcDbLine
 10
-39.0
 20
2.0
 30
0.0
 11
-39.0
 21
-2.0
 31
0.0
  0
LINE
  5
6B5C
330
6B43
100
AcDbEntity
  8
AM_0 外形線1
100
AcDbLine
 10
-38.0
 20
3.0
 30
0.0
 11
-39.0
 21
2.0
 31
0.0
  0
LINE
  5
6B5D
330
6B43
100
AcDbEntity
  8
AM_0 外形線1
100
AcDbLine
 10
-36.5
 20
3.0
 30
0.0
 11
-38.0
 21
3.0
 31
0.0
  0
ARC
  5
6B5E
330
6B43
100
AcDbEntity
  8
AM_0 外形線1
100
AcDbCircle
 10
-33.91687999999999
 20
4.318375000000003
 30
0.0
 40
2.583120999999998
100
AcDbArc
 50
146.3428029999964
 51
213.6571970000036
  0
LINE
  5
6B5F
330
6B43
100
AcDbEntity
  8
AM_0 外形線1
100
AcDbLine
 10
-36.06698800000004
 20
5.75
 30
0.0
 11
-36.5
 21
5.0
 31
0.0
  0
LINE
  5
6B60
330
6B43
100
AcDbEntity
  8
AM_0 外形線1
100
AcDbLine
 10
-27.0
 20
2.922649000000035
 30
0.0
 11
-30.0
 21
2.922649000000035
 31
0.0
  0
LINE
  5
6B61
330
6B43
100
AcDbEntity
  8
AM_0 外形線1
100
AcDbLine
 10
-31.5
 20
-0.5
 30
0.0
 11
-30.0
 21
1.0
 31
0.0
  0
LINE
  5
6B62
330
6B43
100
AcDbEntity
  8
AM_0 外形線1
100
AcDbLine
 10
-31.5
 20
-1.0
 30
0.0
 11
-30.0
 21
0.5
 31
0.0
  0
LINE
  5
6B63
330
6B43
100
AcDbEntity
  8
AM_0 外形線1
100
AcDbLine
 10
-26.0
 20
3.5
 30
0.0
 11
-26.0
 21
-3.5
 31
0.0
  0
LINE
  5
6B64
330
6B43
100
AcDbEntity
  8
AM_0 外形線1
100
AcDbLine
 10
-31.5
 20
6.100000000000022
 30
0.0
 11
-30.0
 21
6.100000000000022
 31
0.0
  0
ARC
  5
6B65
330
6B43
100
AcDbEntity
  8
AM_0 外形線1
100
AcDbCircle
 10
-3.413199000000076
 20
-2.496502000000019
 30
0.0
 40
7.413199
100
AcDbArc
 50
340.3201359999978
 51
19.67986400000223
  0
LINE
  5
6B66
330
6B43
100
AcDbEntity
  8
AM_0 外形線1
100
AcDbLine
 10
-1.0
 20
-3.5
 30
0.0
 11
-1.0
 21
3.5
 31
0.0
  0
LINE
  5
6B67
330
6B43
100
AcDbEntity
  8
AM_0 外形線1
100
AcDbLine
 10
3.566986999999925
 20
-4.993002999999987
 30
0.0
 11
0.0
 21
-4.993002999999987
 31
0.0
  0
ARC
  5
6B68
330
6B43
100
AcDbEntity
  8
AM_0 外形線1
100
AcDbCircle
 10
-0.5
 20
-3.5
 30
0.0
 40
0.5
100
AcDbArc
 50
0.0
 51
180.0
  0
LINE
  5
6B69
330
6B43
100
AcDbEntity
  8
AM_0 外形線1
100
AcDbLine
 10
4.0
 20
2.39457900000002
 30
0.0
 11
4.0
 21
-2.496502000000019
 31
0.0
  0
LINE
  5
6B6A
330
6B43
100
AcDbEntity
  8
AM_0 外形線1
100
AcDbLine
 10
3.566986999999925
 20
0.0
 30
0.0
 11
0.0
 21
0.0
 31
0.0
  0
ARC
  5
6B6B
330
6B43
100
AcDbEntity
  8
AM_0 外形線1
100
AcDbCircle
 10
-3.175936000000091
 20
2.455766000000039
 30
0.0
 40
7.176197
100
AcDbArc
 50
339.9884260000023
 51
20.01157399999767
  0
LINE
  5
6B6C
330
6B43
100
AcDbEntity
  8
AM_0 外形線1
100
AcDbLine
 10
0.0
 20
4.911531000000023
 30
0.0
 11
3.566986999999925
 21
4.911531000000023
 31
0.0
  0
ARC
  5
6B6D
330
6B43
100
AcDbEntity
  8
AM_0 外形線1
100
AcDbCircle
 10
-0.5
 20
3.5
 30
0.0
 40
0.5
100
AcDbArc
 50
180.0
 51
0.0
  0
LINE
  5
6B6E
330
6B43
100
AcDbEntity
  8
AM_0 外形線1
100
AcDbLine
 10
-26.0
 20
3.5
 30
0.0
 11
-1.0
 21
3.500000000000055
 31
0.0
  0
LINE
  5
6B6F
330
6B43
100
AcDbEntity
  8
AM_0 外形線1
100
AcDbLine
 10
-26.0
 20
-3.5
 30
0.0
 11
-1.0
 21
-3.500000000000055
 31
0.0
  0
LINE
  5
6B70
330
6B43
100
AcDbEntity
  8
AM_0 外形線1
100
AcDbLine
 10
-30.0
 20
6.100000000000022
 30
0.0
 11
-30.0
 21
-6.100000000000022
 31
0.0
  0
LINE
  5
6B71
330
6B43
100
AcDbEntity
  8
AM_0 外形線1
100
AcDbLine
 10
0.0
 20
4.911531000000023
 30
0.0
 11
0.0
 21
-4.993002999999987
 31
0.0
  0
ENDBLK
  5
6B45
330
6B43
100
AcDbEntity
  8
0
100
AcDbBlockEnd
  0
BLOCK
  5
6C1A
330
6C19
100
AcDbEntity
  8
0
100
AcDbBlockBegin
  2
*D11
 70
     1
 10
0.0
 20
0.0
 30
0.0
  3
*D11
  1

  0
LINE
  5
A5F0
330
6C19
100
AcDbEntity
  8
AM_5 寸法線
 62
     3
100
AcDbLine
 10
208.1212286617874
 20
346.3938924091426
 30
0.0
 11
175.1212286617874
 21
346.3938924091426
 31
0.0
  0
LINE
  5
A5F1
330
6C19
100
AcDbEntity
  8
AM_5 寸法線
 62
     3
100
AcDbLine
 10
208.1212286617874
 20
300.3938924091426
 30
0.0
 11
175.1212286617874
 21
300.3938924091426
 31
0.0
  0
LINE
  5
A5F2
330
6C19
100
AcDbEntity
  8
AM_5 寸法線
 62
     3
100
AcDbLine
 10
176.0587286617874
 20
342.6438924091426
 30
0.0
 11
176.0587286617874
 21
304.1438924091426
 31
0.0
  0
INSERT
  5
A5F3
330
6C19
100
AcDbEntity
  8
AM_5 寸法線
 62
     3
100
AcDbBlockReference
  2
_Open30
 10
176.0587286617874
 20
346.3938924091426
 30
0.0
 41
3.75
 42
3.75
 43
3.75
 50
90.0
  0
INSERT
  5
A5F4
330
6C19
100
AcDbEntity
  8
AM_5 寸法線
 62
     3
100
AcDbBlockReference
  2
_Open30
 10
176.0587286617874
 20
300.3938924091426
 30
0.0
 41
3.75
 42
3.75
 43
3.75
 50
270.0
  0
MTEXT
  5
A5F5
330
6C19
100
AcDbEntity
  8
AM_5 寸法線
 62
     3
100
AcDbMText
 10
171.1837286617874
 20
323.3938924091427
 30
0.0
 40
5.25
 41
0.0
 46
0.0
 71
     5
 72
     1
  1
%%c46
  7
SEISA
 11
0.0000000000000001
 21
1.0
 31
0.0
 73
     1
 44
1.0
  0
POINT
  5
A5F6
330
6C19
100
AcDbEntity
  8
Defpoints
 62
     0
100
AcDbPoint
 10
209.0587286617874
 20
346.3938924091426
 30
0.0
  0
POINT
  5
A5F7
330
6C19
100
AcDbEntity
  8
Defpoints
 62
     0
100
AcDbPoint
 10
209.0587286617874
 20
300.3938924091426
 30
0.0
  0
POINT
  5
A5F8
330
6C19
100
AcDbEntity
  8
Defpoints
 62
     0
100
AcDbPoint
 10
176.0587286617874
 20
300.3938924091426
 30
0.0
  0
ENDBLK
  5
6C1B
330
6C19
100
AcDbEntity
  8
0
100
AcDbBlockEnd
  0
BLOCK
  5
6C4E
330
6C4D
100
AcDbEntity
  8
0
100
AcDbBlockBegin
  2
*D12
 70
     1
 10
0.0
 20
0.0
 30
0.0
  3
*D12
  1

  0
LINE
  5
A5F9
330
6C4D
100
AcDbEntity
  8
AM_5 寸法線
 62
     3
100
AcDbLine
 10
403.9962286617873
 20
346.3938924091427
 30
0.0
 11
436.9962286617873
 21
346.3938924091427
 31
0.0
  0
LINE
  5
A5FA
330
6C4D
100
AcDbEntity
  8
AM_5 寸法線
 62
     3
100
AcDbLine
 10
403.9962286617873
 20
300.3938924091427
 30
0.0
 11
436.9962286617873
 21
300.3938924091427
 31
0.0
  0
LINE
  5
A5FB
330
6C4D
100
AcDbEntity
  8
AM_5 寸法線
 62
     3
100
AcDbLine
 10
436.0587286617873
 20
342.6438924091427
 30
0.0
 11
436.0587286617873
 21
304.1438924091427
 31
0.0
  0
INSERT
  5
A5FC
330
6C4D
100
AcDbEntity
  8
AM_5 寸法線
 62
     3
100
AcDbBlockReference
  2
_Open30
 10
436.0587286617873
 20
346.3938924091427
 30
0.0
 41
3.75
 42
3.75
 43
3.75
 50
90.0
  0
INSERT
  5
A5FD
330
6C4D
100
AcDbEntity
  8
AM_5 寸法線
 62
     3
100
AcDbBlockReference
  2
_Open30
 10
436.0587286617873
 20
300.3938924091427
 30
0.0
 41
3.75
 42
3.75
 43
3.75
 50
270.0
  0
MTEXT
  5
A5FE
330
6C4D
100
AcDbEntity
  8
AM_5 寸法線
 62
     3
100
AcDbMText
 10
431.1837286617873
 20
323.3938924091428
 30
0.0
 40
5.25
 41
0.0
 46
0.0
 71
     5
 72
     1
  1
%%c46
  7
SEISA
 11
0.0000000000000001
 21
1.0
 31
0.0
 73
     1
 44
1.0
  0
POINT
  5
A5FF
330
6C4D
100
AcDbEntity
  8
Defpoints
 62
     0
100
AcDbPoint
 10
403.0587286617873
 20
346.3938924091427
 30
0.0
  0
POINT
  5
A600
330
6C4D
100
AcDbEntity
  8
Defpoints
 62
     0
100
AcDbPoint
 10
403.0587286617873
 20
300.3938924091427
 30
0.0
  0
POINT
  5
A601
330
6C4D
100
AcDbEntity
  8
Defpoints
 62
     0
100
AcDbPoint
 10
436.0587286617873
 20
300.3938924091427
 30
0.0
  0
ENDBLK
  5
6C4F
330
6C4D
100
AcDbEntity
  8
0
100
AcDbBlockEnd
  0
BLOCK
  5
6C66
330
6C65
100
AcDbEntity
  8
0
100
AcDbBlockBegin
  2
*D13
 70
     1
 10
0.0
 20
0.0
 30
0.0
  3
*D13
  1

  0
LINE
  5
A602
330
6C65
100
AcDbEntity
  8
AM_5 寸法線
 62
     3
100
AcDbLine
 10
388.9962286617872
 20
356.8938924091428
 30
0.0
 11
451.9962286617873
 21
356.8938924091428
 31
0.0
  0
LINE
  5
A603
330
6C65
100
AcDbEntity
  8
AM_5 寸法線
 62
     3
100
AcDbLine
 10
388.9962286617872
 20
289.8938924091428
 30
0.0
 11
451.9962286617873
 21
289.8938924091428
 31
0.0
  0
LINE
  5
A604
330
6C65
100
AcDbEntity
  8
AM_5 寸法線
 62
     3
100
AcDbLine
 10
451.0587286617873
 20
353.1438924091428
 30
0.0
 11
451.0587286617873
 21
293.6438924091429
 31
0.0
  0
INSERT
  5
A605
330
6C65
100
AcDbEntity
  8
AM_5 寸法線
 62
     3
100
AcDbBlockReference
  2
_Open30
 10
451.0587286617873
 20
356.8938924091428
 30
0.0
 41
3.75
 42
3.75
 43
3.75
 50
90.0
  0
INSERT
  5
A606
330
6C65
100
AcDbEntity
  8
AM_5 寸法線
 62
     3
100
AcDbBlockReference
  2
_Open30
 10
451.0587286617873
 20
289.8938924091428
 30
0.0
 41
3.75
 42
3.75
 43
3.75
 50
270.0
  0
MTEXT
  5
A607
330
6C65
100
AcDbEntity
  8
AM_5 寸法線
 62
     3
100
AcDbMText
 10
446.1837286617873
 20
323.3938924091429
 30
0.0
 40
5.25
 41
0.0
 46
0.0
 71
     5
 72
     1
  1
%%c67
  7
SEISA
 11
0.0000000000000001
 21
1.0
 31
0.0
 73
     1
 44
1.0
  0
POINT
  5
A608
330
6C65
100
AcDbEntity
  8
Defpoints
 62
     0
100
AcDbPoint
 10
388.0587286617872
 20
356.8938924091428
 30
0.0
  0
POINT
  5
A609
330
6C65
100
AcDbEntity
  8
Defpoints
 62
     0
100
AcDbPoint
 10
388.0587286617872
 20
289.8938924091428
 30
0.0
  0
POINT
  5
A60A
330
6C65
100
AcDbEntity
  8
Defpoints
 62
     0
100
AcDbPoint
 10
451.0587286617873
 20
289.8938924091428
 30
0.0
  0
ENDBLK
  5
6C67
330
6C65
100
AcDbEntity
  8
0
100
AcDbBlockEnd
  0
BLOCK
  5
6C7E
330
6C7D
100
AcDbEntity
  8
0
100
AcDbBlockBegin
  2
*D14
 70
     1
 10
0.0
 20
0.0
 30
0.0
  3
*D14
  1

  0
LINE
  5
A60B
330
6C7D
100
AcDbEntity
  8
AM_5 寸法線
 62
     3
100
AcDbLine
 10
372.7962286617873
 20
373.3938924091428
 30
0.0
 11
466.9962286617873
 21
373.3938924091428
 31
0.0
  0
LINE
  5
A60C
330
6C7D
100
AcDbEntity
  8
AM_5 寸法線
 62
     3
100
AcDbLine
 10
372.7962286617873
 20
273.3938924091428
 30
0.0
 11
466.9962286617873
 21
273.3938924091428
 31
0.0
  0
LINE
  5
A60D
330
6C7D
100
AcDbEntity
  8
AM_5 寸法線
 62
     3
100
AcDbLine
 10
466.0587286617873
 20
369.6438924091428
 30
0.0
 11
466.0587286617873
 21
277.1438924091428
 31
0.0
  0
INSERT
  5
A60E
330
6C7D
100
AcDbEntity
  8
AM_5 寸法線
 62
     3
100
AcDbBlockReference
  2
_Open30
 10
466.0587286617873
 20
373.3938924091428
 30
0.0
 41
3.75
 42
3.75
 43
3.75
 50
90.0
  0
INSERT
  5
A60F
330
6C7D
100
AcDbEntity
  8
AM_5 寸法線
 62
     3
100
AcDbBlockReference
  2
_Open30
 10
466.0587286617873
 20
273.3938924091428
 30
0.0
 41
3.75
 42
3.75
 43
3.75
 50
270.0
  0
MTEXT
  5
A610
330
6C7D
100
AcDbEntity
  8
AM_5 寸法線
 62
     3
100
AcDbMText
 10
461.1837286617872
 20
323.3938924091429
 30
0.0
 40
5.25
 41
0.0
 46
0.0
 71
     5
 72
     1
  1
%%c100
  7
SEISA
 11
0.0000000000000001
 21
1.0
 31
0.0
 73
     1
 44
1.0
  0
POINT
  5
A611
330
6C7D
100
AcDbEntity
  8
Defpoints
 62
     0
100
AcDbPoint
 10
371.8587286617873
 20
373.3938924091428
 30
0.0
  0
POINT
  5
A612
330
6C7D
100
AcDbEntity
  8
Defpoints
 62
     0
100
AcDbPoint
 10
371.8587286617873
 20
273.3938924091428
 30
0.0
  0
POINT
  5
A613
330
6C7D
100
AcDbEntity
  8
Defpoints
 62
     0
100
AcDbPoint
 10
466.0587286617873
 20
273.3938924091428
 30
0.0
  0
ENDBLK
  5
6C7F
330
6C7D
100
AcDbEntity
  8
0
100
AcDbBlockEnd
  0
BLOCK
  5
6D2C
330
6D2B
100
AcDbEntity
  8
0
100
AcDbBlockBegin
  2
*D15
 70
     1
 10
0.0
 20
0.0
 30
0.0
  3
*D15
  1

  0
LINE
  5
B607
330
6D2B
100
AcDbEntity
  8
AM_5 寸法線
 62
     3
100
AcDbLine
 10
357.0587286617872
 20
355.4563924091429
 30
0.0
 11
357.0587286617872
 21
327.4641337371066
 31
0.0
  0
LINE
  5
B608
330
6D2B
100
AcDbEntity
  8
AM_5 寸法線
 62
     3
100
AcDbLine
 10
361.0587286617873
 20
344.9563924091427
 30
0.0
 11
361.0587286617873
 21
327.4641337371066
 31
0.0
  0
LINE
  5
B609
330
6D2B
100
AcDbEntity
  8
AM_5 寸法線
 62
     3
100
AcDbLine
 10
364.8087286617873
 20
328.4016337371066
 30
0.0
 11
368.5587286617873
 21
328.4016337371066
 31
0.0
  0
LINE
  5
B60A
330
6D2B
100
AcDbEntity
  8
AM_5 寸法線
 62
     3
100
AcDbLine
 10
353.3087286617872
 20
328.4016337371066
 30
0.0
 11
341.6837286617872
 21
328.4016337371066
 31
0.0
  0
LINE
  5
B60B
330
6D2B
100
AcDbEntity
  8
AM_5 寸法線
 62
     3
100
AcDbLine
 10
361.0587286617873
 20
328.4016337371066
 30
0.0
 11
357.0587286617872
 21
328.4016337371066
 31
0.0
  0
INSERT
  5
B60C
330
6D2B
100
AcDbEntity
  8
AM_5 寸法線
 62
     3
100
AcDbBlockReference
  2
_Open30
 10
361.0587286617873
 20
328.4016337371066
 30
0.0
 41
3.75
 42
3.75
 43
3.75
 50
180.0
  0
INSERT
  5
B60D
330
6D2B
100
AcDbEntity
  8
AM_5 寸法線
 62
     3
100
AcDbBlockReference
  2
_Open30
 10
357.0587286617872
 20
328.4016337371066
 30
0.0
 41
3.75
 42
3.75
 43
3.75
  0
MTEXT
  5
B60E
330
6D2B
100
AcDbEntity
  8
AM_5 寸法線
 62
     3
100
AcDbMText
 10
345.6212286617872
 20
333.2766337371066
 30
0.0
 40
5.25
 41
0.0
 46
0.0
 71
     5
 72
     1
  1
4
  7
SEISA
 73
     1
 44
1.0
  0
POINT
  5
B60F
330
6D2B
100
AcDbEntity
  8
Defpoints
 62
     0
100
AcDbPoint
 10
357.0587286617872
 20
356.3938924091428
 30
0.0
  0
POINT
  5
B610
330
6D2B
100
AcDbEntity
  8
Defpoints
 62
     0
100
AcDbPoint
 10
361.0587286617873
 20
345.8938924091427
 30
0.0
  0
POINT
  5
B611
330
6D2B
100
AcDbEntity
  8
Defpoints
 62
     0
100
AcDbPoint
 10
361.0587286617873
 20
328.4016337371066
 30
0.0
  0
ENDBLK
  5
6D2D
330
6D2B
100
AcDbEntity
  8
0
100
AcDbBlockEnd
  0
BLOCK
  5
6D61
330
6D60
100
AcDbEntity
  8
0
100
AcDbBlockBegin
  2
*D16
 70
     1
 10
0.0
 20
0.0
 30
0.0
  3
*D16
  1

  0
LINE
  5
B2CC
330
6D60
100
AcDbEntity
  8
AM_5 寸法線
 62
     3
100
AcDbLine
 10
255.0587286617872
 20
355.4563924091429
 30
0.0
 11
255.0587286617872
 21
327.4641337371066
 31
0.0
  0
LINE
  5
B2CD
330
6D60
100
AcDbEntity
  8
AM_5 寸法線
 62
     3
100
AcDbLine
 10
251.0587286617874
 20
344.9563924091426
 30
0.0
 11
251.0587286617874
 21
327.4641337371066
 31
0.0
  0
LINE
  5
B2CE
330
6D60
100
AcDbEntity
  8
AM_5 寸法線
 62
     3
100
AcDbLine
 10
247.3087286617874
 20
328.4016337371066
 30
0.0
 11
243.5587286617874
 21
328.4016337371066
 31
0.0
  0
LINE
  5
B2CF
330
6D60
100
AcDbEntity
  8
AM_5 寸法線
 62
     3
100
AcDbLine
 10
258.8087286617872
 20
328.4016337371066
 30
0.0
 11
270.4337286617872
 21
328.4016337371066
 31
0.0
  0
LINE
  5
B2D0
330
6D60
100
AcDbEntity
  8
AM_5 寸法線
 62
     3
100
AcDbLine
 10
251.0587286617874
 20
328.4016337371066
 30
0.0
 11
255.0587286617872
 21
328.4016337371066
 31
0.0
  0
INSERT
  5
B2D1
330
6D60
100
AcDbEntity
  8
AM_5 寸法線
 62
     3
100
AcDbBlockReference
  2
_Open30
 10
251.0587286617874
 20
328.4016337371066
 30
0.0
 41
3.75
 42
3.75
 43
3.75
  0
INSERT
  5
B2D2
330
6D60
100
AcDbEntity
  8
AM_5 寸法線
 62
     3
100
AcDbBlockReference
  2
_Open30
 10
255.0587286617872
 20
328.4016337371066
 30
0.0
 41
3.75
 42
3.75
 43
3.75
 50
180.0
  0
MTEXT
  5
B2D3
330
6D60
100
AcDbEntity
  8
AM_5 寸法線
 62
     3
100
AcDbMText
 10
266.4962286617872
 20
333.2766337371066
 30
0.0
 40
5.25
 41
0.0
 46
0.0
 71
     5
 72
     1
  1
4
  7
SEISA
 73
     1
 44
1.0
  0
POINT
  5
B2D4
330
6D60
100
AcDbEntity
  8
Defpoints
 62
     0
100
AcDbPoint
 10
255.0587286617872
 20
356.3938924091428
 30
0.0
  0
POINT
  5
B2D5
330
6D60
100
AcDbEntity
  8
Defpoints
 62
     0
100
AcDbPoint
 10
251.0587286617874
 20
345.8938924091426
 30
0.0
  0
POINT
  5
B2D6
330
6D60
100
AcDbEntity
  8
Defpoints
 62
     0
100
AcDbPoint
 10
251.0587286617874
 20
328.4016337371066
 30
0.0
  0
ENDBLK
  5
6D62
330
6D60
100
AcDbEntity
  8
0
100
AcDbBlockEnd
  0
BLOCK
  5
6D9A
330
6D99
100
AcDbEntity
  8
0
100
AcDbBlockBegin
  2
*D17
 70
     1
 10
0.0
 20
0.0
 30
0.0
  3
*D17
  1

  0
LINE
  5
A640
330
6D99
100
AcDbEntity
  8
AM_5 寸法線
 62
     3
100
AcDbLine
 10
251.0587286617874
 20
324.3313924091426
 30
0.0
 11
251.0587286617874
 21
325.9370986617229
 31
0.0
  0
LINE
  5
A641
330
6D99
100
AcDbEntity
  8
AM_5 寸法線
 62
     3
100
AcDbLine
 10
206.0587286617874
 20
324.3313924091427
 30
0.0
 11
206.0587286617874
 21
325.9370986617229
 31
0.0
  0
LINE
  5
A642
330
6D99
100
AcDbEntity
  8
AM_5 寸法線
 62
     3
100
AcDbLine
 10
247.3087286617874
 20
324.9995986617229
 30
0.0
 11
209.8087286617874
 21
324.9995986617229
 31
0.0
  0
INSERT
  5
A643
330
6D99
100
AcDbEntity
  8
AM_5 寸法線
 62
     3
100
AcDbBlockReference
  2
_Open30
 10
251.0587286617874
 20
324.9995986617229
 30
0.0
 41
3.75
 42
3.75
 43
3.75
  0
INSERT
  5
A644
330
6D99
100
AcDbEntity
  8
AM_5 寸法線
 62
     3
100
AcDbBlockReference
  2
_Open30
 10
206.0587286617874
 20
324.9995986617229
 30
0.0
 41
3.75
 42
3.75
 43
3.75
 50
180.0
  0
MTEXT
  5
A645
330
6D99
100
AcDbEntity
  8
AM_5 寸法線
 62
     3
100
AcDbMText
 10
228.5587286617874
 20
329.8745986617229
 30
0.0
 40
5.25
 41
0.0
 46
0.0
 71
     5
 72
     1
  1
45
  7
SEISA
 73
     1
 44
1.0
  0
POINT
  5
A646
330
6D99
100
AcDbEntity
  8
Defpoints
 62
     0
100
AcDbPoint
 10
251.0587286617874
 20
323.3938924091426
 30
0.0
  0
POINT
  5
A647
330
6D99
100
AcDbEntity
  8
Defpoints
 62
     0
100
AcDbPoint
 10
206.0587286617874
 20
323.3938924091427
 30
0.0
  0
POINT
  5
A648
330
6D99
100
AcDbEntity
  8
Defpoints
 62
     0
100
AcDbPoint
 10
206.0587286617874
 20
324.9995986617229
 30
0.0
  0
ENDBLK
  5
6D9B
330
6D99
100
AcDbEntity
  8
0
100
AcDbBlockEnd
  0
BLOCK
  5
6DE4
330
6DE3
100
AcDbEntity
  8
0
100
AcDbBlockBegin
  2
*D18
 70
     1
 10
0.0
 20
0.0
 30
0.0
  3
*D18
  1

  0
LINE
  5
A651
330
6DE3
100
AcDbEntity
  8
AM_5 寸法線
 62
     3
100
AcDbLine
 10
406.0587286617873
 20
324.3313924091427
 30
0.0
 11
406.0587286617873
 21
325.9370986617229
 31
0.0
  0
LINE
  5
A652
330
6DE3
100
AcDbEntity
  8
AM_5 寸法線
 62
     3
100
AcDbLine
 10
361.0587286617873
 20
324.3313924091427
 30
0.0
 11
361.0587286617873
 21
325.9370986617229
 31
0.0
  0
LINE
  5
A653
330
6DE3
100
AcDbEntity
  8
AM_5 寸法線
 62
     3
100
AcDbLine
 10
402.3087286617872
 20
324.9995986617229
 30
0.0
 11
364.8087286617873
 21
324.9995986617229
 31
0.0
  0
INSERT
  5
A654
330
6DE3
100
AcDbEntity
  8
AM_5 寸法線
 62
     3
100
AcDbBlockReference
  2
_Open30
 10
406.0587286617873
 20
324.9995986617229
 30
0.0
 41
3.75
 42
3.75
 43
3.75
  0
INSERT
  5
A655
330
6DE3
100
AcDbEntity
  8
AM_5 寸法線
 62
     3
100
AcDbBlockReference
  2
_Open30
 10
361.0587286617873
 20
324.9995986617229
 30
0.0
 41
3.75
 42
3.75
 43
3.75
 50
180.0
  0
MTEXT
  5
A656
330
6DE3
100
AcDbEntity
  8
AM_5 寸法線
 62
     3
100
AcDbMText
 10
383.5587286617873
 20
329.8745986617229
 30
0.0
 40
5.25
 41
0.0
 46
0.0
 71
     5
 72
     1
  1
45
  7
SEISA
 73
     1
 44
1.0
  0
POINT
  5
A657
330
6DE3
100
AcDbEntity
  8
Defpoints
 62
     0
100
AcDbPoint
 10
406.0587286617873
 20
323.3938924091427
 30
0.0
  0
POINT
  5
A658
330
6DE3
100
AcDbEntity
  8
Defpoints
 62
     0
100
AcDbPoint
 10
361.0587286617873
 20
323.3938924091427
 30
0.0
  0
POINT
  5
A659
330
6DE3
100
AcDbEntity
  8
Defpoints
 62
     0
100
AcDbPoint
 10
361.0587286617873
 20
324.9995986617229
 30
0.0
  0
ENDBLK
  5
6DE5
330
6DE3
100
AcDbEntity
  8
0
100
AcDbBlockEnd
  0
BLOCK
  5
6E9D
330
6E9C
100
AcDbEntity
  8
0
100
AcDbBlockBegin
  2
*D19
 70
     1
 10
0.0
 20
0.0
 30
0.0
  3
*D19
  1

  0
LINE
  5
A65A
330
6E9C
100
AcDbEntity
  8
AM_5 寸法線
 62
     3
100
AcDbLine
 10
255.0587286617872
 20
272.6563924091429
 30
0.0
 11
255.0587286617872
 21
249.9563924091428
 31
0.0
  0
LINE
  5
A65B
330
6E9C
100
AcDbEntity
  8
AM_5 寸法線
 62
     3
100
AcDbLine
 10
240.0587286617872
 20
272.6563924091429
 30
0.0
 11
240.0587286617872
 21
249.9563924091428
 31
0.0
  0
LINE
  5
A65C
330
6E9C
100
AcDbEntity
  8
AM_5 寸法線
 62
     3
100
AcDbLine
 10
251.3087286617872
 20
250.8938924091428
 30
0.0
 11
243.8087286617872
 21
250.8938924091428
 31
0.0
  0
INSERT
  5
A65D
330
6E9C
100
AcDbEntity
  8
AM_5 寸法線
 62
     3
100
AcDbBlockReference
  2
_Open30
 10
255.0587286617872
 20
250.8938924091428
 30
0.0
 41
3.75
 42
3.75
 43
3.75
  0
INSERT
  5
A65E
330
6E9C
100
AcDbEntity
  8
AM_5 寸法線
 62
     3
100
AcDbBlockReference
  2
_Open30
 10
240.0587286617872
 20
250.8938924091428
 30
0.0
 41
3.75
 42
3.75
 43
3.75
 50
180.0
  0
MTEXT
  5
A65F
330
6E9C
100
AcDbEntity
  8
AM_5 寸法線
 62
     3
100
AcDbMText
 10
247.5587286617872
 20
255.7688924091428
 30
0.0
 40
5.25
 41
0.0
 46
0.0
 71
     5
 72
     1
  1
15
  7
SEISA
 73
     1
 44
1.0
  0
POINT
  5
A660
330
6E9C
100
AcDbEntity
  8
Defpoints
 62
     0
100
AcDbPoint
 10
255.0587286617872
 20
273.593892409143
 30
0.0
  0
POINT
  5
A661
330
6E9C
100
AcDbEntity
  8
Defpoints
 62
     0
100
AcDbPoint
 10
240.0587286617872
 20
273.593892409143
 30
0.0
  0
POINT
  5
A662
330
6E9C
100
AcDbEntity
  8
Defpoints
 62
     0
100
AcDbPoint
 10
240.0587286617872
 20
250.8938924091428
 30
0.0
  0
ENDBLK
  5
6E9E
330
6E9C
100
AcDbEntity
  8
0
100
AcDbBlockEnd
  0
BLOCK
  5
6EE5
330
6EE4
100
AcDbEntity
  8
0
100
AcDbBlockBegin
  2
*D20
 70
     1
 10
0.0
 20
0.0
 30
0.0
  3
*D20
  1

  0
LINE
  5
A663
330
6EE4
100
AcDbEntity
  8
AM_5 寸法線
 62
     3
100
AcDbLine
 10
357.0587286617872
 20
272.656392409143
 30
0.0
 11
357.0587286617872
 21
249.9563924091428
 31
0.0
  0
LINE
  5
A664
330
6EE4
100
AcDbEntity
  8
AM_5 寸法線
 62
     3
100
AcDbLine
 10
372.0587286617872
 20
272.656392409143
 30
0.0
 11
372.0587286617872
 21
249.9563924091428
 31
0.0
  0
LINE
  5
A665
330
6EE4
100
AcDbEntity
  8
AM_5 寸法線
 62
     3
100
AcDbLine
 10
360.8087286617872
 20
250.8938924091428
 30
0.0
 11
368.3087286617872
 21
250.8938924091428
 31
0.0
  0
INSERT
  5
A666
330
6EE4
100
AcDbEntity
  8
AM_5 寸法線
 62
     3
100
AcDbBlockReference
  2
_Open30
 10
357.0587286617872
 20
250.8938924091428
 30
0.0
 41
3.75
 42
3.75
 43
3.75
 50
180.0
  0
INSERT
  5
A667
330
6EE4
100
AcDbEntity
  8
AM_5 寸法線
 62
     3
100
AcDbBlockReference
  2
_Open30
 10
372.0587286617872
 20
250.8938924091428
 30
0.0
 41
3.75
 42
3.75
 43
3.75
  0
MTEXT
  5
A668
330
6EE4
100
AcDbEntity
  8
AM_5 寸法線
 62
     3
100
AcDbMText
 10
364.5587286617872
 20
255.7688924091428
 30
0.0
 40
5.25
 41
0.0
 46
0.0
 71
     5
 72
     1
  1
15
  7
SEISA
 73
     1
 44
1.0
  0
POINT
  5
A669
330
6EE4
100
AcDbEntity
  8
Defpoints
 62
     0
100
AcDbPoint
 10
357.0587286617872
 20
273.593892409143
 30
0.0
  0
POINT
  5
A66A
330
6EE4
100
AcDbEntity
  8
Defpoints
 62
     0
100
AcDbPoint
 10
372.0587286617872
 20
273.593892409143
 30
0.0
  0
POINT
  5
A66B
330
6EE4
100
AcDbEntity
  8
Defpoints
 62
     0
100
AcDbPoint
 10
372.0587286617872
 20
250.8938924091428
 30
0.0
  0
ENDBLK
  5
6EE6
330
6EE4
100
AcDbEntity
  8
0
100
AcDbBlockEnd
  0
BLOCK
  5
708E
330
708D
100
AcDbEntity
  8
0
100
AcDbBlockBegin
  2
*D21
 70
     1
 10
0.0
 20
0.0
 30
0.0
  3
*D21
  1

  0
LINE
  5
A698
330
708D
100
AcDbEntity
  8
AM_5 寸法線
 62
     3
100
AcDbLine
 10
255.0587286617872
 20
272.6563924091429
 30
0.0
 11
255.0587286617872
 21
234.9563924091429
 31
0.0
  0
LINE
  5
A699
330
708D
100
AcDbEntity
  8
AM_5 寸法線
 62
     3
100
AcDbLine
 10
221.0587286617872
 20
291.9563924091427
 30
0.0
 11
221.0587286617872
 21
234.9563924091429
 31
0.0
  0
LINE
  5
A69A
330
708D
100
AcDbEntity
  8
AM_5 寸法線
 62
     3
100
AcDbLine
 10
251.3087286617872
 20
235.8938924091428
 30
0.0
 11
224.8087286617872
 21
235.8938924091428
 31
0.0
  0
INSERT
  5
A69B
330
708D
100
AcDbEntity
  8
AM_5 寸法線
 62
     3
100
AcDbBlockReference
  2
_Open30
 10
255.0587286617872
 20
235.8938924091428
 30
0.0
 41
3.75
 42
3.75
 43
3.75
  0
INSERT
  5
A69C
330
708D
100
AcDbEntity
  8
AM_5 寸法線
 62
     3
100
AcDbBlockReference
  2
_Open30
 10
221.0587286617872
 20
235.8938924091428
 30
0.0
 41
3.75
 42
3.75
 43
3.75
 50
180.0
  0
MTEXT
  5
A69D
330
708D
100
AcDbEntity
  8
AM_5 寸法線
 62
     3
100
AcDbMText
 10
238.0587286617872
 20
240.7688924091428
 30
0.0
 40
5.25
 41
0.0
 46
0.0
 71
     5
 72
     1
  1
34
  7
SEISA
 73
     1
 44
1.0
  0
POINT
  5
A69E
330
708D
100
AcDbEntity
  8
Defpoints
 62
     0
100
AcDbPoint
 10
255.0587286617872
 20
273.593892409143
 30
0.0
  0
POINT
  5
A69F
330
708D
100
AcDbEntity
  8
Defpoints
 62
     0
100
AcDbPoint
 10
221.0587286617872
 20
292.8938924091426
 30
0.0
  0
POINT
  5
A6A0
330
708D
100
AcDbEntity
  8
Defpoints
 62
     0
100
AcDbPoint
 10
221.0587286617872
 20
235.8938924091428
 30
0.0
  0
ENDBLK
  5
708F
330
708D
100
AcDbEntity
  8
0
100
AcDbBlockEnd
  0
BLOCK
  5
70A6
330
70A5
100
AcDbEntity
  8
0
100
AcDbBlockBegin
  2
*D22
 70
     1
 10
0.0
 20
0.0
 30
0.0
  3
*D22
  1

  0
LINE
  5
A6A1
330
70A5
100
AcDbEntity
  8
AM_5 寸法線
 62
     3
100
AcDbLine
 10
221.0587286617872
 20
291.9563924091427
 30
0.0
 11
221.0587286617872
 21
234.9563924091429
 31
0.0
  0
LINE
  5
A6A2
330
70A5
100
AcDbEntity
  8
AM_5 寸法線
 62
     3
100
AcDbLine
 10
206.0587286617874
 20
302.4563924091426
 30
0.0
 11
206.0587286617874
 21
234.9563924091429
 31
0.0
  0
LINE
  5
A6A3
330
70A5
100
AcDbEntity
  8
AM_5 寸法線
 62
     3
100
AcDbLine
 10
217.3087286617872
 20
235.8938924091428
 30
0.0
 11
209.8087286617874
 21
235.8938924091428
 31
0.0
  0
INSERT
  5
A6A4
330
70A5
100
AcDbEntity
  8
AM_5 寸法線
 62
     3
100
AcDbBlockReference
  2
_Open30
 10
221.0587286617872
 20
235.8938924091428
 30
0.0
 41
3.75
 42
3.75
 43
3.75
  0
INSERT
  5
A6A5
330
70A5
100
AcDbEntity
  8
AM_5 寸法線
 62
     3
100
AcDbBlockReference
  2
_Open30
 10
206.0587286617874
 20
235.8938924091428
 30
0.0
 41
3.75
 42
3.75
 43
3.75
 50
180.0
  0
MTEXT
  5
A6A6
330
70A5
100
AcDbEntity
  8
AM_5 寸法線
 62
     3
100
AcDbMText
 10
213.5587286617873
 20
240.7688924091428
 30
0.0
 40
5.25
 41
0.0
 46
0.0
 71
     5
 72
     1
  1
15
  7
SEISA
 73
     1
 44
1.0
  0
POINT
  5
A6A7
330
70A5
100
AcDbEntity
  8
Defpoints
 62
     0
100
AcDbPoint
 10
221.0587286617872
 20
292.8938924091426
 30
0.0
  0
POINT
  5
A6A8
330
70A5
100
AcDbEntity
  8
Defpoints
 62
     0
100
AcDbPoint
 10
206.0587286617874
 20
303.3938924091426
 30
0.0
  0
POINT
  5
A6A9
330
70A5
100
AcDbEntity
  8
Defpoints
 62
     0
100
AcDbPoint
 10
206.0587286617874
 20
235.8938924091428
 30
0.0
  0
ENDBLK
  5
70A7
330
70A5
100
AcDbEntity
  8
0
100
AcDbBlockEnd
  0
BLOCK
  5
70BE
330
70BD
100
AcDbEntity
  8
0
100
AcDbBlockBegin
  2
*D23
 70
     1
 10
0.0
 20
0.0
 30
0.0
  3
*D23
  1

  0
LINE
  5
A6AA
330
70BD
100
AcDbEntity
  8
AM_5 寸法線
 62
     3
100
AcDbLine
 10
357.0587286617872
 20
272.656392409143
 30
0.0
 11
357.0587286617872
 21
234.9563924091429
 31
0.0
  0
LINE
  5
A6AB
330
70BD
100
AcDbEntity
  8
AM_5 寸法線
 62
     3
100
AcDbLine
 10
391.0587286617872
 20
291.9563924091428
 30
0.0
 11
391.0587286617872
 21
234.9563924091429
 31
0.0
  0
LINE
  5
A6AC
330
70BD
100
AcDbEntity
  8
AM_5 寸法線
 62
     3
100
AcDbLine
 10
360.8087286617872
 20
235.8938924091428
 30
0.0
 11
387.3087286617872
 21
235.8938924091428
 31
0.0
  0
INSERT
  5
A6AD
330
70BD
100
AcDbEntity
  8
AM_5 寸法線
 62
     3
100
AcDbBlockReference
  2
_Open30
 10
357.0587286617872
 20
235.8938924091428
 30
0.0
 41
3.75
 42
3.75
 43
3.75
 50
180.0
  0
INSERT
  5
A6AE
330
70BD
100
AcDbEntity
  8
AM_5 寸法線
 62
     3
100
AcDbBlockReference
  2
_Open30
 10
391.0587286617872
 20
235.8938924091428
 30
0.0
 41
3.75
 42
3.75
 43
3.75
  0
MTEXT
  5
A6AF
330
70BD
100
AcDbEntity
  8
AM_5 寸法線
 62
     3
100
AcDbMText
 10
374.0587286617872
 20
240.7688924091428
 30
0.0
 40
5.25
 41
0.0
 46
0.0
 71
     5
 72
     1
  1
34
  7
SEISA
 73
     1
 44
1.0
  0
POINT
  5
A6B0
330
70BD
100
AcDbEntity
  8
Defpoints
 62
     0
100
AcDbPoint
 10
357.0587286617872
 20
273.593892409143
 30
0.0
  0
POINT
  5
A6B1
330
70BD
100
AcDbEntity
  8
Defpoints
 62
     0
100
AcDbPoint
 10
391.0587286617872
 20
292.8938924091428
 30
0.0
  0
POINT
  5
A6B2
330
70BD
100
AcDbEntity
  8
Defpoints
 62
     0
100
AcDbPoint
 10
391.0587286617872
 20
235.8938924091428
 30
0.0
  0
ENDBLK
  5
70BF
330
70BD
100
AcDbEntity
  8
0
100
AcDbBlockEnd
  0
BLOCK
  5
70D6
330
70D5
100
AcDbEntity
  8
0
100
AcDbBlockBegin
  2
*D24
 70
     1
 10
0.0
 20
0.0
 30
0.0
  3
*D24
  1

  0
LINE
  5
A6B3
330
70D5
100
AcDbEntity
  8
AM_5 寸法線
 62
     3
100
AcDbLine
 10
391.0587286617872
 20
291.9563924091428
 30
0.0
 11
391.0587286617872
 21
234.9563924091429
 31
0.0
  0
LINE
  5
A6B4
330
70D5
100
AcDbEntity
  8
AM_5 寸法線
 62
     3
100
AcDbLine
 10
406.0587286617873
 20
302.4563924091427
 30
0.0
 11
406.0587286617873
 21
234.9563924091429
 31
0.0
  0
LINE
  5
A6B5
330
70D5
100
AcDbEntity
  8
AM_5 寸法線
 62
     3
100
AcDbLine
 10
394.8087286617872
 20
235.8938924091428
 30
0.0
 11
402.3087286617872
 21
235.8938924091428
 31
0.0
  0
INSERT
  5
A6B6
330
70D5
100
AcDbEntity
  8
AM_5 寸法線
 62
     3
100
AcDbBlockReference
  2
_Open30
 10
391.0587286617872
 20
235.8938924091428
 30
0.0
 41
3.75
 42
3.75
 43
3.75
 50
180.0
  0
INSERT
  5
A6B7
330
70D5
100
AcDbEntity
  8
AM_5 寸法線
 62
     3
100
AcDbBlockReference
  2
_Open30
 10
406.0587286617873
 20
235.8938924091428
 30
0.0
 41
3.75
 42
3.75
 43
3.75
  0
MTEXT
  5
A6B8
330
70D5
100
AcDbEntity
  8
AM_5 寸法線
 62
     3
100
AcDbMText
 10
398.5587286617873
 20
240.7688924091428
 30
0.0
 40
5.25
 41
0.0
 46
0.0
 71
     5
 72
     1
  1
15
  7
SEISA
 73
     1
 44
1.0
  0
POINT
  5
A6B9
330
70D5
100
AcDbEntity
  8
Defpoints
 62
     0
100
AcDbPoint
 10
391.0587286617872
 20
292.8938924091428
 30
0.0
  0
POINT
  5
A6BA
330
70D5
100
AcDbEntity
  8
Defpoints
 62
     0
100
AcDbPoint
 10
406.0587286617873
 20
303.3938924091426
 30
0.0
  0
POINT
  5
A6BB
330
70D5
100
AcDbEntity
  8
Defpoints
 62
     0
100
AcDbPoint
 10
406.0587286617873
 20
235.8938924091428
 30
0.0
  0
ENDBLK
  5
70D7
330
70D5
100
AcDbEntity
  8
0
100
AcDbBlockEnd
  0
BLOCK
  5
7E53
330
7E52
100
AcDbEntity
  8
0
100
AcDbBlockBegin
  2
センタ-1 SAM100
 70
     0
 10
0.0
 20
0.0
 30
0.0
  3
センタ-1 SAM100
  1

  0
LINE
  5
7E55
330
7E52
100
AcDbEntity
  8
AM_0 外形線1
100
AcDbLine
 10
0.0
 20
22.5
 30
0.0
 11
0.0
 21
0.0
 31
0.0
  0
LINE
  5
7E56
330
7E52
100
AcDbEntity
  8
AM_0 外形線1
100
AcDbLine
 10
-45.0
 20
-20.0
 30
0.0
 11
-45.0
 21
20.0
 31
0.0
  0
ARC
  5
7E59
330
7E52
100
AcDbEntity
  8
AM_0 外形線1
100
AcDbCircle
 10
-42.0
 20
-20.0
 30
0.0
 40
3.0
100
AcDbArc
 50
180.0
 51
270.0
  0
LINE
  5
7E5A
330
7E52
100
AcDbEntity
  8
AM_0 外形線1
100
AcDbLine
 10
-30.0
 20
-23.0
 30
0.0
 11
-42.0
 21
-23.0
 31
0.0
  0
LINE
  5
7E5B
330
7E52
100
AcDbEntity
  8
AM_0 外形線1
100
AcDbLine
 10
0.0
 20
10.0
 30
0.0
 11
-45.00000000000006
 21
9.999999999999943
 31
0.0
  0
ARC
  5
7E5D
330
7E52
100
AcDbEntity
  8
AM_0 外形線1
100
AcDbCircle
 10
-42.0
 20
20.0
 30
0.0
 40
3.0
100
AcDbArc
 50
90.0
 51
180.0
  0
LINE
  5
7E5F
330
7E52
100
AcDbEntity
  8
AM_0 外形線1
100
AcDbLine
 10
-42.0
 20
23.0
 30
0.0
 11
-19.5
 21
23.0
 31
0.0
  0
LINE
  5
7E60
330
7E52
100
AcDbEntity
  8
AM_0 外形線1
100
AcDbLine
 10
-9.5
 20
23.0
 30
0.0
 11
-0.5
 21
23.0
 31
0.0
  0
LINE
  5
7E61
330
7E52
100
AcDbEntity
  8
AM_7 中心線
100
AcDbLine
 10
-13.75
 20
31.14893600000006
 30
0.0
 11
-13.75
 21
20.35000000000002
 31
0.0
  0
ARC
  5
7E62
330
7E52
100
AcDbEntity
  8
AM_0 外形線1
100
AcDbCircle
 10
-9.5
 20
23.5
 30
0.0
 40
0.5
100
AcDbArc
 50
180.0
 51
270.0
  0
ARC
  5
7E63
330
7E52
100
AcDbEntity
  8
AM_0 外形線1
100
AcDbCircle
 10
-19.5
 20
23.5
 30
0.0
 40
0.5
100
AcDbArc
 50
270.0
 51
0.0
  0
ARC
  5
7E64
330
7E52
100
AcDbEntity
  8
AM_0 外形線1
100
AcDbCircle
 10
-13.75
 20
0.0
 30
0.0
 40
28.425
100
AcDbArc
 50
83.43467399999367
 51
99.61962300000305
  0
LINE
  5
7E66
330
7E52
100
AcDbEntity
  8
AM_0 外形線1
100
AcDbLine
 10
-19.0
 20
27.43596400000001
 30
0.0
 11
-18.5
 21
28.02531199999999
 31
0.0
  0
LINE
  5
7E67
330
7E52
100
AcDbEntity
  8
AM_0 外形線1
100
AcDbLine
 10
-19.0
 20
23.5
 30
0.0
 11
-19.0
 21
27.43596400000001
 31
0.0
  0
LINE
  5
7E68
330
7E52
100
AcDbEntity
  8
AM_0 外形線1
100
AcDbLine
 10
-10.0
 20
27.67655200000002
 30
0.0
 11
-10.0
 21
23.5
 31
0.0
  0
LINE
  5
7E69
330
7E52
100
AcDbEntity
  8
AM_0 外形線1
100
AcDbLine
 10
-10.5
 20
28.23859199999998
 30
0.0
 11
-10.0
 21
27.67655200000002
 31
0.0
  0
LINE
  5
7E6A
330
7E52
100
AcDbEntity
  8
AM_0 外形線1
100
AcDbLine
 10
-0.5
 20
23.0
 30
0.0
 11
0.0
 21
22.5
 31
0.0
  0
ARC
  5
B265
330
7E52
100
AcDbEntity
  8
AM_7 中心線
100
AcDbCircle
 10
-13.75
 20
0.0000000000000568
 30
0.0
 40
26.99999999999994
100
AcDbArc
 50
81.16513386189598
 51
103.2900921307414
  0
ARC
  5
B266
330
7E52
100
AcDbEntity
  8
AM_0 外形線1
100
AcDbCircle
 10
-13.75
 20
0.0000000000000568
 30
0.0
 40
25.34999999999991
100
AcDbArc
 50
81.49307224413711
 51
101.9524934010212
  0
ENDBLK
  5
7E54
330
7E52
100
AcDbEntity
  8
0
100
AcDbBlockEnd
  0
BLOCK
  5
7F45
330
7F44
100
AcDbEntity
  8
0
100
AcDbBlockBegin
  2
ケースＡ-1 SAM100
 70
     0
 10
0.0
 20
0.0
 30
0.0
  3
ケースＡ-1 SAM100
  1

  0
INSERT
  5
7F47
330
7F44
100
AcDbEntity
  8
AM_5 寸法線
100
AcDbBlockReference
  2
ロッカクアナツキプラグ-1　R1／8
 10
-7.5
 20
-21.75
 30
0.0
  0
LINE
  5
7F48
330
7F44
100
AcDbEntity
  8
AM_7 中心線
100
AcDbLine
 10
22.06788043058168
 20
43.5
 30
0.0
 11
-27.58088457443932
 21
43.5
 31
0.0
  0
LINE
  5
7F49
330
7F44
100
AcDbEntity
  8
AM_0 外形線1
100
AcDbLine
 10
-15.0
 20
40.0
 30
0.0
 11
0.0
 21
40.0
 31
0.0
  0
LINE
  5
7F4A
330
7F44
100
AcDbEntity
  8
AM_0 外形線1
100
AcDbLine
 10
-15.0
 20
47.0
 30
0.0
 11
0.0
 21
47.0
 31
0.0
  0
LINE
  5
7F4B
330
7F44
100
AcDbEntity
  8
AM_0 外形線1
100
AcDbLine
 10
1.799999999999954
 20
32.5
 30
0.0
 11
-1.90000000000009
 21
32.5
 31
0.0
  0
LINE
  5
7F4C
330
7F44
100
AcDbEntity
  8
AM_0 外形線1
100
AcDbLine
 10
-11.0
 20
29.0
 30
0.0
 11
2.0
 21
29.0
 31
0.0
  0
LINE
  5
7F4D
330
7F44
100
AcDbEntity
  8
AM_0 外形線1
100
AcDbLine
 10
-1.90000000000009
 20
32.5
 30
0.0
 11
1.799999999999954
 21
32.5
 31
0.0
  0
LINE
  5
7F4E
330
7F44
100
AcDbEntity
  8
AM_0 外形線1
100
AcDbLine
 10
-34.0
 20
-30.5
 30
0.0
 11
-34.0
 21
0.0
 31
0.0
  0
LINE
  5
7F4F
330
7F44
100
AcDbEntity
  8
AM_0 外形線1
100
AcDbLine
 10
-15.0
 20
-49.79999999999995
 30
0.0
 11
-15.0
 21
0.0
 31
0.0
  0
LINE
  5
7F50
330
7F44
100
AcDbEntity
  8
AM_0 外形線1
100
AcDbLine
 10
0.0
 20
0.0
 30
0.0
 11
0.0
 21
-49.79999999999995
 31
0.0
  0
LINE
  5
7F51
330
7F44
100
AcDbEntity
  8
AM_0 外形線1
100
AcDbLine
 10
-18.0
 20
-33.5
 30
0.0
 11
-31.0
 21
-33.5
 31
0.0
  0
ARC
  5
7F52
330
7F44
100
AcDbEntity
  8
AM_0 外形線1
100
AcDbCircle
 10
-31.0
 20
-30.5
 30
0.0
 40
3.0
100
AcDbArc
 50
180.0
 51
270.0
  0
LINE
  5
7F53
330
7F44
100
AcDbEntity
  8
AM_0 外形線1
100
AcDbLine
 10
-0.2000000000000455
 20
-50.0
 30
0.0
 11
-14.80000000000018
 21
-50.0
 31
0.0
  0
LINE
  5
7F54
330
7F44
100
AcDbEntity
  8
AM_0 外形線1
100
AcDbLine
 10
-14.80000000000018
 20
-50.0
 30
0.0
 11
-15.0
 21
-49.79999999999995
 31
0.0
  0
LINE
  5
7F55
330
7F44
100
AcDbEntity
  8
AM_0 外形線1
100
AcDbLine
 10
0.0
 20
-49.79999999999995
 30
0.0
 11
-0.2000000000000455
 21
-50.0
 31
0.0
  0
ARC
  5
7F56
330
7F44
100
AcDbEntity
  8
AM_0 外形線1
100
AcDbCircle
 10
-18.0
 20
-36.5
 30
0.0
 40
3.0
100
AcDbArc
 50
0.0
 51
90.0
  0
LINE
  5
7F57
330
7F44
100
AcDbEntity
  8
AM_0 外形線1
100
AcDbLine
 10
-15.0
 20
36.5
 30
0.0
 11
-15.0
 21
49.80000000000001
 31
0.0
  0
LINE
  5
7F58
330
7F44
100
AcDbEntity
  8
AM_0 外形線1
100
AcDbLine
 10
0.0
 20
47.0
 30
0.0
 11
0.0
 21
49.80000000000001
 31
0.0
  0
ARC
  5
7F59
330
7F44
100
AcDbEntity
  8
AM_0 外形線1
100
AcDbCircle
 10
-24.0
 20
28.0
 30
0.0
 40
1.0
100
AcDbArc
 50
90.0
 51
180.0
  0
LINE
  5
7F5A
330
7F44
100
AcDbEntity
  8
AM_0 外形線1
100
AcDbLine
 10
-18.0
 20
33.5
 30
0.0
 11
-31.0
 21
33.5
 31
0.0
  0
ARC
  5
7F5B
330
7F44
100
AcDbEntity
  8
AM_0 外形線1
100
AcDbCircle
 10
-31.0
 20
30.5
 30
0.0
 40
3.0
100
AcDbArc
 50
90.0
 51
180.0
  0
LINE
  5
7F5C
330
7F44
100
AcDbEntity
  8
AM_0 外形線1
100
AcDbLine
 10
-25.0
 20
23.0
 30
0.0
 11
-25.0
 21
28.0
 31
0.0
  0
LINE
  5
7F5D
330
7F44
100
AcDbEntity
  8
AM_0 外形線1
100
AcDbLine
 10
-27.20000000000005
 20
26.0
 30
0.0
 11
-27.20000000000005
 21
23.0
 31
0.0
  0
LINE
  5
7F5E
330
7F44
100
AcDbEntity
  8
AM_0 外形線1
100
AcDbLine
 10
-31.80000000000018
 20
23.0
 30
0.0
 11
-31.80000000000018
 21
26.0
 31
0.0
  0
LINE
  5
7F5F
330
7F44
100
AcDbEntity
  8
AM_0 外形線1
100
AcDbLine
 10
-34.0
 20
30.5
 30
0.0
 11
-34.0
 21
23.0
 31
0.0
  0
LWPOLYLINE
  5
7F60
330
7F44
100
AcDbEntity
  8
AM_0 外形線1
100
AcDbPolyline
 90
       73
 70
     0
 43
0.0
 10
-31.80000000000018
 20
24.5
 10
-31.791248
 20
24.36926600000004
 10
-31.76505799999996
 20
24.23952700000001
 10
-31.72163000000001
 20
24.11177099999998
 10
-31.661294
 20
23.98696899999999
 10
-31.58450800000014
 20
23.86607200000003
 10
-31.49185899999998
 20
23.75
 10
-31.38405000000012
 20
23.639635
 10
-31.26190300000008
 20
23.53581800000001
 10
-31.12634600000002
 20
23.43933900000002
 10
-30.97841199999994
 20
23.350933
 10
-30.81922600000007
 20
23.27127100000002
 10
-30.65000000000009
 20
23.20096100000005
 10
-30.47202199999992
 20
23.14053800000005
 10
-30.2866469999999
 20
23.09046100000006
 10
-30.09528399999999
 20
23.05111100000005
 10
-29.89939099999992
 20
23.02278800000005
 10
-29.70045900000014
 20
23.00570800000004
 10
-29.5
 20
23.0
 10
-29.29954199999997
 20
23.00570800000004
 10
-29.10060999999996
 20
23.02278800000005
 10
-28.90471700000012
 20
23.05111100000005
 10
-28.71335399999998
 20
23.09046100000006
 10
-28.52797800000008
 20
23.14053800000005
 10
-28.35000000000014
 20
23.20096100000005
 10
-28.18077500000004
 20
23.27127100000002
 10
-28.02158899999995
 20
23.350933
 10
-27.8736550000001
 20
23.43933900000002
 10
-27.73809800000004
 20
23.53581800000001
 10
-27.615951
 20
23.639635
 10
-27.50814200000013
 20
23.75
 10
-27.41549299999997
 20
23.86607200000003
 10
-27.33870700000011
 20
23.98696899999999
 10
-27.27837100000011
 20
24.11177099999998
 10
-27.23494299999993
 20
24.23952700000001
 10
-27.20875300000012
 20
24.36926600000004
 10
-27.20000000000005
 20
24.5
 10
-27.20875300000012
 20
24.63073300000002
 10
-27.23494299999993
 20
24.76047200000005
 10
-27.27837100000011
 20
24.88822800000003
 10
-27.33870700000011
 20
25.01303000000002
 10
-27.41549299999997
 20
25.13392700000003
 10
-27.50814200000013
 20
25.25
 10
-27.615951
 20
25.360364
 10
-27.73809800000004
 20
25.464181
 10
-27.8736550000001
 20
25.56065999999999
 10
-28.02158899999995
 20
25.649066
 10
-28.18077500000004
 20
25.72872800000006
 10
-28.35000000000014
 20
25.79903800000006
 10
-28.52797800000008
 20
25.85946100000001
 10
-28.71335399999998
 20
25.90953800000006
 10
-28.90471700000012
 20
25.94888800000001
 10
-29.10060999999996
 20
25.97721100000001
 10
-29.29954199999997
 20
25.99429199999998
 10
-29.5
 20
26.0
 10
-29.70045900000014
 20
25.99429199999998
 10
-29.89939099999992
 20
25.97721100000001
 10
-30.09528399999999
 20
25.94888800000001
 10
-30.2866469999999
 20
25.90953800000006
 10
-30.47202199999992
 20
25.85946100000001
 10
-30.65000000000009
 20
25.79903800000006
 10
-30.81922600000007
 20
25.72872800000006
 10
-30.97841199999994
 20
25.649066
 10
-31.12634600000002
 20
25.56065999999999
 10
-31.26190300000008
 20
25.464181
 10
-31.38405000000012
 20
25.360364
 10
-31.49185899999998
 20
25.25
 10
-31.58450800000014
 20
25.13392700000003
 10
-31.661294
 20
25.01303000000002
 10
-31.72163000000001
 20
24.88822800000003
 10
-31.76505799999996
 20
24.76047200000005
 10
-31.791248
 20
24.63073300000002
 10
-31.80000000000018
 20
24.5
  0
LINE
  5
7F61
330
7F44
100
AcDbEntity
  8
AM_0 外形線1
100
AcDbLine
 10
-31.80000000000018
 20
26.0
 30
0.0
 11
-27.20000000000005
 21
26.0
 31
0.0
  0
LINE
  5
7F62
330
7F44
100
AcDbEntity
  8
AM_0 外形線1
100
AcDbLine
 10
-34.0
 20
24.0
 30
0.0
 11
-31.80000000000018
 21
24.0
 31
0.0
  0
LINE
  5
7F63
330
7F44
100
AcDbEntity
  8
AM_0 外形線1
100
AcDbLine
 10
-27.20000000000005
 20
24.0
 30
0.0
 11
-25.0
 21
24.0
 31
0.0
  0
LINE
  5
7F64
330
7F44
100
AcDbEntity
  8
AM_7 中心線
100
AcDbLine
 10
-10.0
 20
27.0
 30
0.0
 11
-24.0
 21
27.0
 31
0.0
  0
ARC
  5
7F65
330
7F44
100
AcDbEntity
  8
AM_0 外形線1
100
AcDbCircle
 10
-11.0
 20
28.0
 30
0.0
 40
1.0
100
AcDbArc
 50
90.0
 51
180.0
  0
LINE
  5
7F66
330
7F44
100
AcDbEntity
  8
AM_3 隠れ線
100
AcDbLine
 10
-14.0
 20
25.80000000000001
 30
0.0
 11
-21.5
 21
25.80000000000001
 31
0.0
  0
LINE
  5
7F67
330
7F44
100
AcDbEntity
  8
AM_0 外形線1
100
AcDbLine
 10
-12.0
 20
28.5
 30
0.0
 11
-22.0
 21
28.5
 31
0.0
  0
LINE
  5
7F68
330
7F44
100
AcDbEntity
  8
AM_3 隠れ線
100
AcDbLine
 10
-22.0
 20
28.0
 30
0.0
 11
-22.0
 21
26.30000000000001
 31
0.0
  0
LINE
  5
7F69
330
7F44
100
AcDbEntity
  8
AM_3 隠れ線
100
AcDbLine
 10
-22.0
 20
26.30000000000001
 30
0.0
 11
-21.5
 21
25.80000000000001
 31
0.0
  0
ARC
  5
7F6A
330
7F44
100
AcDbEntity
  8
AM_3 隠れ線
100
AcDbCircle
 10
-23.0
 20
28.0
 30
0.0
 40
1.0
100
AcDbArc
 50
0.0
 51
6.007073267136784
  0
LINE
  5
7F6B
330
7F44
100
AcDbEntity
  8
AM_0 外形線1
100
AcDbLine
 10
-24.0
 20
29.0
 30
0.0
 11
-23.0
 21
29.0
 31
0.0
  0
LINE
  5
7F6C
330
7F44
100
AcDbEntity
  8
AM_0 外形線1
100
AcDbLine
 10
-14.0
 20
25.80000000000001
 30
0.0
 11
-12.5
 21
25.80000000000001
 31
0.0
  0
LINE
  5
7F6D
330
7F44
100
AcDbEntity
  8
AM_0 外形線1
100
AcDbLine
 10
-12.0
 20
26.30000000000001
 30
0.0
 11
-12.0
 21
28.0
 31
0.0
  0
LINE
  5
7F6E
330
7F44
100
AcDbEntity
  8
AM_0 外形線1
100
AcDbLine
 10
-12.5
 20
25.80000000000001
 30
0.0
 11
-12.0
 21
26.30000000000001
 31
0.0
  0
ARC
  5
7F6F
330
7F44
100
AcDbEntity
  8
AM_0 外形線1
100
AcDbCircle
 10
-18.0
 20
36.5
 30
0.0
 40
3.0
100
AcDbArc
 50
270.0
 51
0.0
  0
LWPOLYLINE
  5
7F70
330
7F44
100
AcDbEntity
  8
AM_0 外形線1
100
AcDbPolyline
 90
       73
 70
     0
 43
0.0
 10
-1.200000000000044
 20
32.5
 10
-1.09541399999989
 20
32.50742000000002
 10
-0.9916230000001178
 20
32.52962400000001
 10
-0.8894179999999778
 20
32.56644399999999
 10
-0.7895760000001248
 20
32.61759900000004
 10
-0.6928589999999986
 20
32.68269900000002
 10
-0.6000000000001366
 20
32.76125000000002
 10
-0.5117090000001099
 20
32.85265300000003
 10
-0.4286550000001627
 20
32.95621300000006
 10
-0.351472000000058
 20
33.07114100000001
 10
-0.2807470000000194
 20
33.19656400000003
 10
-0.2170180000000528
 20
33.33152600000005
 10
-0.1607699999999568
 20
33.47500000000002
 10
-0.112431000000015
 20
33.62589400000002
 10
-0.0723689999999806
 20
33.78306000000004
 10
-0.0408889999998792
 20
33.94530200000004
 10
-0.0182310000000143
 20
34.11138600000004
 10
-0.0045669999999518
 20
34.28004599999996
 10
0.0
 20
34.44999999999999
 10
-0.0045669999999518
 20
34.61995300000001
 10
-0.0182310000000143
 20
34.78861399999999
 10
-0.0408889999998792
 20
34.95469700000001
 10
-0.0723689999999806
 20
35.116939
 10
-0.112431000000015
 20
35.27410500000003
 10
-0.1607699999999568
 20
35.42500000000001
 10
-0.2170180000000528
 20
35.56847400000004
 10
-0.2807470000000194
 20
35.70343500000003
 10
-0.351472000000058
 20
35.82885800000003
 10
-0.4286550000001627
 20
35.94378600000005
 10
-0.5117090000001099
 20
36.047346
 10
-0.6000000000001366
 20
36.13874900000002
 10
-0.6928589999999986
 20
36.21730000000003
 10
-0.7895760000001248
 20
36.2824
 10
-0.8894179999999778
 20
36.33355500000005
 10
-0.9916230000001178
 20
36.37037500000003
 10
-1.09541399999989
 20
36.39257900000001
 10
-1.200000000000044
 20
36.39999999999998
 10
-1.304587000000082
 20
36.39257900000001
 10
-1.408378000000084
 20
36.37037500000003
 10
-1.510582999999995
 20
36.33355500000005
 10
-1.610425000000076
 20
36.2824
 10
-1.707141999999976
 20
36.21730000000003
 10
-1.800000000000181
 20
36.13874900000002
 10
-1.888292000000091
 20
36.047346
 10
-1.971346000000039
 20
35.94378600000005
 10
-2.048529000000144
 20
35.82885800000003
 10
-2.119254000000181
 20
35.70343500000003
 10
-2.182983000000149
 20
35.56847400000004
 10
-2.239231000000017
 20
35.42500000000001
 10
-2.287569999999958
 20
35.27410500000003
 10
-2.327631999999994
 20
35.116939
 10
-2.359110999999983
 20
34.95469700000001
 10
-2.381769999999959
 20
34.78861399999999
 10
-2.395434000000022
 20
34.61995300000001
 10
-2.400000000000089
 20
34.44999999999999
 10
-2.395434000000022
 20
34.28004599999996
 10
-2.381769999999959
 20
34.11138600000004
 10
-2.359110999999983
 20
33.94530200000004
 10
-2.327631999999994
 20
33.78306000000004
 10
-2.287569999999958
 20
33.62589400000002
 10
-2.239231000000017
 20
33.47500000000002
 10
-2.182983000000149
 20
33.33152600000005
 10
-2.119254000000181
 20
33.19656400000003
 10
-2.048529000000144
 20
33.07114100000001
 10
-1.971346000000039
 20
32.95621300000006
 10
-1.888292000000091
 20
32.85265300000003
 10
-1.800000000000181
 20
32.76125000000002
 10
-1.707141999999976
 20
32.68269900000002
 10
-1.610425000000076
 20
32.61759900000004
 10
-1.510582999999995
 20
32.56644399999999
 10
-1.408378000000084
 20
32.52962400000001
 10
-1.304587000000082
 20
32.50742000000002
 10
-1.200000000000044
 20
32.5
  0
LINE
  5
7F71
330
7F44
100
AcDbEntity
  8
AM_0 外形線1
100
AcDbLine
 10
0.0
 20
36.39999999999998
 30
0.0
 11
0.0
 21
40.0
 31
0.0
  0
LINE
  5
7F72
330
7F44
100
AcDbEntity
  8
AM_0 外形線1
100
AcDbLine
 10
-1.90000000000009
 20
36.39999999999998
 30
0.0
 11
0.0
 21
36.39999999999998
 31
0.0
  0
ARC
  5
7F73
330
7F44
100
AcDbEntity
  8
AM_0 外形線1
100
AcDbCircle
 10
-1.90000000000009
 20
35.89999999999998
 30
0.0
 40
0.5
100
AcDbArc
 50
90.0
 51
180.0
  0
LINE
  5
7F74
330
7F44
100
AcDbEntity
  8
AM_0 外形線1
100
AcDbLine
 10
-2.400000000000089
 20
33.0
 30
0.0
 11
-2.400000000000089
 21
35.89999999999998
 31
0.0
  0
ARC
  5
7F75
330
7F44
100
AcDbEntity
  8
AM_0 外形線1
100
AcDbCircle
 10
-1.90000000000009
 20
33.0
 30
0.0
 40
0.5
100
AcDbArc
 50
180.0
 51
270.0
  0
LINE
  5
7F76
330
7F44
100
AcDbEntity
  8
AM_0 外形線1
100
AcDbLine
 10
-0.2000000000000455
 20
50.0
 30
0.0
 11
-14.80000000000018
 21
50.0
 31
0.0
  0
LINE
  5
7F77
330
7F44
100
AcDbEntity
  8
AM_0 外形線1
100
AcDbLine
 10
-14.80000000000018
 20
50.0
 30
0.0
 11
-15.0
 21
49.80000000000001
 31
0.0
  0
LINE
  5
7F78
330
7F44
100
AcDbEntity
  8
AM_0 外形線1
100
AcDbLine
 10
0.0
 20
49.80000000000001
 30
0.0
 11
-0.2000000000000455
 21
50.0
 31
0.0
  0
LINE
  5
7F79
330
7F44
100
AcDbEntity
  8
AM_0 外形線1
100
AcDbLine
 10
2.0
 20
29.0
 30
0.0
 11
2.0
 21
32.30000000000001
 31
0.0
  0
LINE
  5
7F7A
330
7F44
100
AcDbEntity
  8
AM_0 外形線1
100
AcDbLine
 10
2.0
 20
32.30000000000001
 30
0.0
 11
1.799999999999954
 21
32.5
 31
0.0
  0
ARC
  5
7F7B
330
7F44
100
AcDbEntity
  8
AM_0 外形線1
100
AcDbCircle
 10
-23.0
 20
28.0
 30
0.0
 40
1.0
100
AcDbArc
 50
6.007073267136784
 51
90.0
  0
ENDBLK
  5
7F46
330
7F44
100
AcDbEntity
  8
0
100
AcDbBlockEnd
  0
BLOCK
  5
8046
330
8045
100
AcDbEntity
  8
0
100
AcDbBlockBegin
  2
ロッカクアナツキプラグ-2　R1／8
 70
     0
 10
0.0
 20
0.0
 30
0.0
  3
ロッカクアナツキプラグ-2　R1／8
  1

  0
CIRCLE
  5
8048
330
8045
100
AcDbEntity
  8
AM_0 外形線1
100
AcDbCircle
 10
0.0
 20
0.0
 30
0.0
 40
4.816232
  0
LINE
  5
8049
330
8045
100
AcDbEntity
  8
AM_7 中心線
100
AcDbLine
 10
0.0
 20
-6.71623199999999
 30
0.0
 11
0.0
 21
6.71623199999999
 31
0.0
  0
CIRCLE
  5
804A
330
8045
100
AcDbEntity
  8
AM_4 細線
100
AcDbCircle
 10
0.0
 20
0.0
 30
0.0
 40
5.271232
  0
LINE
  5
804B
330
8045
100
AcDbEntity
  8
AM_0 外形線1
100
AcDbLine
 10
0.0
 20
2.514999999999985
 30
0.0
 11
2.178053000000089
 21
1.257499999999992
 31
0.0
  0
LINE
  5
804C
330
8045
100
AcDbEntity
  8
AM_0 外形線1
100
AcDbLine
 10
-2.178053999999974
 20
1.257499999999992
 30
0.0
 11
0.0
 21
2.514999999999985
 31
0.0
  0
LINE
  5
804D
330
8045
100
AcDbEntity
  8
AM_7 中心線
100
AcDbLine
 10
-6.71623199999999
 20
0.0
 30
0.0
 11
6.71623199999999
 21
0.0
 31
0.0
  0
LINE
  5
804E
330
8045
100
AcDbEntity
  8
AM_0 外形線1
100
AcDbLine
 10
2.178053000000089
 20
-1.257499999999992
 30
0.0
 11
0.0
 21
-2.514999999999985
 31
0.0
  0
LINE
  5
804F
330
8045
100
AcDbEntity
  8
AM_0 外形線1
100
AcDbLine
 10
-2.178053999999974
 20
-1.257499999999992
 30
0.0
 11
-2.178053999999974
 21
1.257499999999992
 31
0.0
  0
LINE
  5
8050
330
8045
100
AcDbEntity
  8
AM_0 外形線1
100
AcDbLine
 10
0.0
 20
-2.514999999999985
 30
0.0
 11
-2.178053999999974
 21
-1.257499999999992
 31
0.0
  0
LINE
  5
8051
330
8045
100
AcDbEntity
  8
AM_0 外形線1
100
AcDbLine
 10
2.178053000000089
 20
1.257499999999992
 30
0.0
 11
2.178053000000089
 21
-1.257499999999992
 31
0.0
  0
ENDBLK
  5
8047
330
8045
100
AcDbEntity
  8
0
100
AcDbBlockEnd
  0
BLOCK
  5
9105
330
9104
100
AcDbEntity
  8
0
100
AcDbBlockBegin
  2
ＧＣスペーサ SAMY100
 70
     0
 10
0.0
 20
0.0
 30
0.0
  3
ＧＣスペーサ SAMY100
  1

  0
LINE
  5
9107
330
9104
100
AcDbEntity
  8
AM_0 外形線1
100
AcDbLine
 10
18.0
 20
-38.0
 30
0.0
 11
18.0
 21
-0.0000000000001137
 31
0.0
  0
LINE
  5
9108
330
9104
100
AcDbEntity
  8
AM_0 外形線1
100
AcDbLine
 10
0.0
 20
0.0
 30
0.0
 11
0.0000000000000853
 21
-49.5
 31
0.0
  0
LINE
  5
9109
330
9104
100
AcDbEntity
  8
AM_7 中心線
100
AcDbLine
 10
20.0
 20
-43.5
 30
0.0
 11
-20.0
 21
-43.5
 31
0.0
  0
LINE
  5
910A
330
9104
100
AcDbEntity
  8
AM_0 外形線1
100
AcDbLine
 10
15.0
 20
-49.0
 30
0.0
 11
15.0
 21
-0.0000000000001137
 31
0.0
  0
LINE
  5
910B
330
9104
100
AcDbEntity
  8
AM_0 外形線1
100
AcDbLine
 10
15.0
 20
-38.0
 30
0.0
 11
18.0
 21
-38.0
 31
0.0
  0
LINE
  5
910C
330
9104
100
AcDbEntity
  8
AM_0 外形線1
100
AcDbLine
 10
-0.0000000000000284
 20
33.00000000000011
 30
0.0
 11
0.0
 21
39.99999999999995
 31
0.0
  0
LINE
  5
910D
330
9104
100
AcDbEntity
  8
AM_0 外形線1
100
AcDbLine
 10
0.500000000000057
 20
32.5
 30
0.0
 11
0.0000000000000568
 21
33.0
 31
0.0
1001
GENIUS_GENFIL_13
1070
     0
1040
0.5
1040
0.5
1040
0.4999999999999716
1040
45.00000000000325
1002
{
1002
}
1001
GENIUS_GENOREF_13
1005
9170
  0
LINE
  5
910E
330
9104
100
AcDbEntity
  8
AM_0 外形線1
100
AcDbLine
 10
28.0
 20
21.55000000000018
 30
0.0
 11
28.0
 21
0.0
 31
0.0
  0
LINE
  5
910F
330
9104
100
AcDbEntity
  8
AM_0 外形線1
100
AcDbLine
 10
3.0
 20
32.5
 30
0.0
 11
3.0
 21
0.0
 31
0.0
  0
LINE
  5
9111
330
9104
100
AcDbEntity
  8
AM_0 外形線1
100
AcDbLine
 10
68.99999999999988
 20
-30.24999999999989
 30
0.0
 11
53.95719495814887
 21
-30.25
 31
0.0
  0
LINE
  5
9112
330
9104
100
AcDbEntity
  8
AM_0 外形線1
100
AcDbLine
 10
50.95719495814886
 20
-30.25
 30
0.0
 11
33.00000000000011
 21
-30.25
 31
0.0
  0
LINE
  5
9113
330
9104
100
AcDbEntity
  8
AM_0 外形線1
100
AcDbLine
 10
84.0
 20
30.25
 30
0.0
 11
53.96021602245901
 21
30.25
 31
0.0
  0
LINE
  5
9114
330
9104
100
AcDbEntity
  8
AM_0 外形線1
100
AcDbLine
 10
50.96021602245901
 20
30.25
 30
0.0
 11
18.00000000000023
 21
30.25
 31
0.0
  0
LINE
  5
9115
330
9104
100
AcDbEntity
  8
AM_0 外形線1
100
AcDbLine
 10
79.0
 20
21.55000000000007
 30
0.0
 11
51.40450732345811
 21
21.55000000000018
 31
0.0
  0
LINE
  5
9116
330
9104
100
AcDbEntity
  8
AM_0 外形線1
100
AcDbLine
 10
48.23995611656096
 20
21.55000000000007
 30
0.0
 11
23.0
 21
21.55000000000007
 31
0.0
  0
LINE
  5
9117
330
9104
100
AcDbEntity
  8
AM_0 外形線1
100
AcDbLine
 10
14.5
 20
47.0
 30
0.0
 11
0.0000000000000284
 21
47.0
 31
0.0
  0
LINE
  5
9118
330
9104
100
AcDbEntity
  8
AM_0 外形線1
100
AcDbLine
 10
0.5000000000000285
 20
50.0
 30
0.0
 11
14.0
 21
50.0
 31
0.0
  0
LINE
  5
9119
330
9104
100
AcDbEntity
  8
AM_0 外形線1
100
AcDbLine
 10
0.0000000000000284
 20
40.0
 30
0.0
 11
15.0
 21
40.0
 31
0.0
  0
LINE
  5
911A
330
9104
100
AcDbEntity
  8
AM_0 外形線1
100
AcDbLine
 10
15.0
 20
47.0
 30
0.0
 11
0.0000000000000284
 21
47.0
 31
0.0
  0
LINE
  5
911B
330
9104
100
AcDbEntity
  8
AM_0 外形線1
100
AcDbLine
 10
0.500000000000057
 20
32.5
 30
0.0
 11
3.0
 21
32.5
 31
0.0
  0
LINE
  5
911C
330
9104
100
AcDbEntity
  8
AM_0 外形線1
100
AcDbLine
 10
18.0
 20
38.0
 30
0.0
 11
18.0
 21
26.55000000000018
 31
0.0
  0
LINE
  5
911D
330
9104
100
AcDbEntity
  8
AM_0 外形線1
100
AcDbLine
 10
15.0
 20
49.0
 30
0.0
 11
15.0
 21
38.0
 31
0.0
  0
LINE
  5
911E
330
9104
100
AcDbEntity
  8
AM_0 外形線1
100
AcDbLine
 10
15.0
 20
38.0
 30
0.0
 11
18.0
 21
38.0
 31
0.0
  0
LINE
  5
911F
330
9104
100
AcDbEntity
  8
AM_0 外形線1
100
AcDbLine
 10
84.0
 20
-38.0
 30
0.0
 11
84.00000000000011
 21
-0.0000000000001137
 31
0.0
  0
LINE
  5
9120
330
9104
100
AcDbEntity
  8
AM_7 中心線
100
AcDbLine
 10
82.0
 20
-43.5
 30
0.0
 11
122.0
 21
-43.5
 31
0.0
  0
LINE
  5
9121
330
9104
100
AcDbEntity
  8
AM_0 外形線1
100
AcDbLine
 10
87.0
 20
0.0
 30
0.0
 11
87.0
 21
-48.99999999999988
 31
0.0
  0
LINE
  5
9122
330
9104
100
AcDbEntity
  8
AM_0 外形線1
100
AcDbLine
 10
87.0
 20
-38.520354
 30
0.0
 11
87.0
 21
-38.0
 31
0.0
  0
LINE
  5
9123
330
9104
100
AcDbEntity
  8
AM_0 外形線1
100
AcDbLine
 10
87.0
 20
38.0
 30
0.0
 11
84.0
 21
38.0
 31
0.0
  0
LINE
  5
9124
330
9104
100
AcDbEntity
  8
AM_0 外形線1
100
AcDbLine
 10
74.0
 20
21.55000000000018
 30
0.0
 11
74.0
 21
0.0
 31
0.0
  0
LINE
  5
9125
330
9104
100
AcDbEntity
  8
AM_0 外形線1
100
AcDbLine
 10
84.0
 20
38.0
 30
0.0
 11
84.0
 21
26.55000000000018
 31
0.0
  0
LINE
  5
9126
330
9104
100
AcDbEntity
  8
AM_0 外形線1
100
AcDbLine
 10
102.0000000000002
 20
33.0
 30
0.0
 11
102.0000000000002
 21
40.0000000000001
 31
0.0
  0
LINE
  5
9127
330
9104
100
AcDbEntity
  8
AM_0 外形線1
100
AcDbLine
 10
101.5000000000002
 20
32.5
 30
0.0
 11
102.0000000000002
 21
33.0
 31
0.0
1001
GENIUS_GENFIL_13
1070
     0
1040
0.4999999999998864
1040
0.5
1040
0.4999999999998864
1040
44.99999999999348
1002
{
1002
}
1001
GENIUS_GENOREF_13
1005
916F
  0
LINE
  5
9128
330
9104
100
AcDbEntity
  8
AM_0 外形線1
100
AcDbLine
 10
99.0
 20
32.5
 30
0.0
 11
99.0
 21
0.0
 31
0.0
  0
LINE
  5
9129
330
9104
100
AcDbEntity
  8
AM_0 外形線1
100
AcDbLine
 10
99.0
 20
32.5
 30
0.0
 11
101.5000000000002
 21
32.5
 31
0.0
  0
LINE
  5
912A
330
9104
100
AcDbEntity
  8
AM_0 外形線1
100
AcDbLine
 10
102.0
 20
40.0
 30
0.0
 11
87.0
 21
40.0
 31
0.0
  0
LINE
  5
912B
330
9104
100
AcDbEntity
  8
AM_0 外形線1
100
AcDbLine
 10
87.0
 20
47.0
 30
0.0
 11
102.0
 21
47.0
 31
0.0
  0
LINE
  5
912C
330
9104
100
AcDbEntity
  8
AM_0 外形線1
100
AcDbLine
 10
101.5000000000002
 20
50.0
 30
0.0
 11
88.0
 21
50.0
 31
0.0
  0
LINE
  5
912D
330
9104
100
AcDbEntity
  8
AM_0 外形線1
100
AcDbLine
 10
87.0
 20
38.520354
 30
0.0
 11
87.0
 21
49.0
 31
0.0
  0
LINE
  5
912E
330
9104
100
AcDbEntity
  8
AM_0 外形線1
100
AcDbLine
 10
87.0
 20
38.520354
 30
0.0
 11
87.0
 21
38.0
 31
0.0
  0
LINE
  5
912F
330
9104
100
AcDbEntity
  8
AM_0 外形線1
100
AcDbLine
 10
0.5000000000000285
 20
50.0
 30
0.0
 11
0.0000000000000284
 21
49.5
 31
0.0
1001
GENIUS_GENFIL_13
1070
     0
1040
0.5
1040
0.5
1040
0.4999999999999716
1040
45.00000000000162
1002
{
1002
}
1001
GENIUS_GENOREF_13
1005
916E
  0
LINE
  5
9130
330
9104
100
AcDbEntity
  8
AM_0 外形線1
100
AcDbLine
 10
14.0
 20
50.0
 30
0.0
 11
15.0
 21
49.0
 31
0.0
1001
GENIUS_GENFIL_13
1070
     0
1040
0.9999999999999715
1040
0.9999999999999431
1040
0.9999999999999715
1040
44.99999999999918
1002
{
1002
}
1001
GENIUS_GENOREF_13
1005
916D
  0
LINE
  5
9131
330
9104
100
AcDbEntity
  8
AM_0 外形線1
100
AcDbLine
 10
87.0
 20
49.0
 30
0.0
 11
88.0
 21
50.0
 31
0.0
1001
GENIUS_GENFIL_13
1070
     0
1040
0.9999999999999715
1040
0.9999999999999431
1040
0.9999999999999715
1040
45.00000000000489
1002
{
1002
}
1001
GENIUS_GENOREF_13
1005
916C
  0
LINE
  5
9132
330
9104
100
AcDbEntity
  8
AM_0 外形線1
100
AcDbLine
 10
102.0000000000002
 20
49.5
 30
0.0
 11
101.5000000000002
 21
50.0
 31
0.0
1001
GENIUS_GENFIL_13
1070
     0
1040
0.4999999999998864
1040
0.5
1040
0.4999999999998864
1040
45.0000000000065
1002
{
1002
}
1001
GENIUS_GENOREF_13
1005
916B
  0
LINE
  5
9133
330
9104
100
AcDbEntity
  8
AM_0 外形線1
100
AcDbLine
 10
0.5000000000000285
 20
-50.0
 30
0.0
 11
14.0
 21
-50.0
 31
0.0
  0
LINE
  5
9134
330
9104
100
AcDbEntity
  8
AM_0 外形線1
100
AcDbLine
 10
0.5000000000000285
 20
-50.0
 30
0.0
 11
0.0000000000000284
 21
-49.49999999999988
 31
0.0
  0
LINE
  5
9135
330
9104
100
AcDbEntity
  8
AM_0 外形線1
100
AcDbLine
 10
14.0
 20
-50.0
 30
0.0
 11
15.0
 21
-49.0
 31
0.0
  0
LINE
  5
9136
330
9104
100
AcDbEntity
  8
AM_0 外形線1
100
AcDbLine
 10
101.5000000000002
 20
-50.0
 30
0.0
 11
88.0
 21
-50.0
 31
0.0
  0
LINE
  5
9137
330
9104
100
AcDbEntity
  8
AM_0 外形線1
100
AcDbLine
 10
87.0
 20
-48.99999999999988
 30
0.0
 11
88.0
 21
-50.0
 31
0.0
  0
LINE
  5
9138
330
9104
100
AcDbEntity
  8
AM_0 外形線1
100
AcDbLine
 10
102.0
 20
-49.5000000000001
 30
0.0
 11
101.5000000000002
 21
-50.0
 31
0.0
  0
POLYLINE
  5
9139
330
9104
100
AcDbEntity
  8
AM_4 細線
100
AcDb2dPolyline
 66
     1
 10
0.0
 20
0.0
 30
0.0
 70
     2
  0
VERTEX
  5
BAF7
330
9139
100
AcDbEntity
  8
AM_4 細線
100
AcDbVertex
100
AcDb2dVertex
 10
53.95719495814887
 20
30.25
 30
0.0
 42
0.0608331601082838
  0
VERTEX
  5
BAF8
330
9139
100
AcDbEntity
  8
AM_4 細線
100
AcDbVertex
100
AcDb2dVertex
 10
51.7966124607733
 20
24.58818679941305
 30
0.0
 42
0.0834018283257031
 70
     1
  0
VERTEX
  5
BAF9
330
9139
100
AcDbEntity
  8
AM_4 細線
100
AcDbVertex
100
AcDb2dVertex
 10
51.45719495814887
 20
20.16666666666674
 30
0.0
 42
0.086784507099034
  0
VERTEX
  5
BAFA
330
9139
100
AcDbEntity
  8
AM_4 細線
100
AcDbVertex
100
AcDb2dVertex
 10
52.96069443091369
 20
14.58100225710575
 30
0.0
 42
-0.1094525417734323
 70
     1
  0
VERTEX
  5
BAFB
330
9139
100
AcDbEntity
  8
AM_4 細線
100
AcDbVertex
100
AcDb2dVertex
 10
53.95719495814887
 20
10.08333333333348
 30
0.0
 42
-0.1229866360572117
  0
VERTEX
  5
BAFC
330
9139
100
AcDbEntity
  8
AM_4 細線
100
AcDbVertex
100
AcDb2dVertex
 10
52.68994878967443
 20
5.009293555164731
 30
0.0
 42
0.1247359602717481
 70
     1
  0
VERTEX
  5
BAFD
330
9139
100
AcDbEntity
  8
AM_4 細線
100
AcDbVertex
100
AcDb2dVertex
 10
51.45719495814887
 20
0.0
 30
0.0
 42
0.1155939636244395
  0
VERTEX
  5
BAFE
330
9139
100
AcDbEntity
  8
AM_4 細線
100
AcDbVertex
100
AcDb2dVertex
 10
52.64591989809469
 20
-4.920204596014855
 30
0.0
 42
-0.1096936174553131
 70
     1
  0
VERTEX
  5
BAFF
330
9139
100
AcDbEntity
  8
AM_4 細線
100
AcDbVertex
100
AcDb2dVertex
 10
53.95719495814887
 20
-10.08333333333337
 30
0.0
 42
-0.1140267228201671
  0
VERTEX
  5
BB00
330
9139
100
AcDbEntity
  8
AM_4 細線
100
AcDbVertex
100
AcDb2dVertex
 10
52.89791938343751
 20
-15.39407096986815
 30
0.0
 42
0.0973294130716613
 70
     1
  0
VERTEX
  5
BB01
330
9139
100
AcDbEntity
  8
AM_4 細線
100
AcDbVertex
100
AcDb2dVertex
 10
51.45719495814887
 20
-21.55000000000007
 30
0.0
 42
0.0790817589445343
  0
VERTEX
  5
BB02
330
9139
100
AcDbEntity
  8
AM_4 細線
100
AcDbVertex
100
AcDb2dVertex
 10
51.90743429605163
 20
-25.22270351210091
 30
0.0
 42
0.0537175890519373
 70
     1
  0
VERTEX
  5
BB03
330
9139
100
AcDbEntity
  8
AM_4 細線
100
AcDbVertex
100
AcDb2dVertex
 10
53.95719495814887
 20
-30.25
 30
0.0
  0
SEQEND
  5
BB04
330
9139
100
AcDbEntity
  8
AM_4 細線
  0
POLYLINE
  5
9148
330
9104
100
AcDbEntity
  8
AM_4 細線
100
AcDb2dPolyline
 66
     1
 10
0.0
 20
0.0
 30
0.0
 70
     2
  0
VERTEX
  5
BB06
330
9148
100
AcDbEntity
  8
AM_4 細線
100
AcDbVertex
100
AcDb2dVertex
 10
50.95719495814886
 20
30.25
 30
0.0
 42
0.0608331601082838
  0
VERTEX
  5
BB07
330
9148
100
AcDbEntity
  8
AM_4 細線
100
AcDbVertex
100
AcDb2dVertex
 10
48.79661246077329
 20
24.58818679941305
 30
0.0
 42
0.0834018283257031
 70
     1
  0
VERTEX
  5
BB08
330
9148
100
AcDbEntity
  8
AM_4 細線
100
AcDbVertex
100
AcDb2dVertex
 10
48.45719495814886
 20
20.16666666666674
 30
0.0
 42
0.086784507099034
  0
VERTEX
  5
BB09
330
9148
100
AcDbEntity
  8
AM_4 細線
100
AcDbVertex
100
AcDb2dVertex
 10
49.96069443091368
 20
14.58100225710575
 30
0.0
 42
-0.1094525417734323
 70
     1
  0
VERTEX
  5
BB0A
330
9148
100
AcDbEntity
  8
AM_4 細線
100
AcDbVertex
100
AcDb2dVertex
 10
50.95719495814886
 20
10.08333333333348
 30
0.0
 42
-0.1229866360572117
  0
VERTEX
  5
BB0B
330
9148
100
AcDbEntity
  8
AM_4 細線
100
AcDbVertex
100
AcDb2dVertex
 10
49.68994878967443
 20
5.009293555164731
 30
0.0
 42
0.1247359602717481
 70
     1
  0
VERTEX
  5
BB0C
330
9148
100
AcDbEntity
  8
AM_4 細線
100
AcDbVertex
100
AcDb2dVertex
 10
48.45719495814886
 20
0.0
 30
0.0
 42
0.1155939636244395
  0
VERTEX
  5
BB0D
330
9148
100
AcDbEntity
  8
AM_4 細線
100
AcDbVertex
100
AcDb2dVertex
 10
49.64591989809469
 20
-4.920204596014855
 30
0.0
 42
-0.1096936174553131
 70
     1
  0
VERTEX
  5
BB0E
330
9148
100
AcDbEntity
  8
AM_4 細線
100
AcDbVertex
100
AcDb2dVertex
 10
50.95719495814886
 20
-10.08333333333337
 30
0.0
 42
-0.1140267228201671
  0
VERTEX
  5
BB0F
330
9148
100
AcDbEntity
  8
AM_4 細線
100
AcDbVertex
100
AcDb2dVertex
 10
49.89791938343751
 20
-15.39407096986815
 30
0.0
 42
0.0973294130716613
 70
     1
  0
VERTEX
  5
BB10
330
9148
100
AcDbEntity
  8
AM_4 細線
100
AcDbVertex
100
AcDb2dVertex
 10
48.45719495814886
 20
-21.55000000000007
 30
0.0
 42
0.0790817589445343
  0
VERTEX
  5
BB11
330
9148
100
AcDbEntity
  8
AM_4 細線
100
AcDbVertex
100
AcDb2dVertex
 10
48.90743429605163
 20
-25.22270351210091
 30
0.0
 42
0.0537175890519373
 70
     1
  0
VERTEX
  5
BB12
330
9148
100
AcDbEntity
  8
AM_4 細線
100
AcDbVertex
100
AcDb2dVertex
 10
50.95719495814886
 20
-30.25
 30
0.0
  0
SEQEND
  5
BB13
330
9148
100
AcDbEntity
  8
AM_4 細線
  0
LINE
  5
9157
330
9104
100
AcDbEntity
  8
AM_0 外形線1
100
AcDbLine
 10
83.99999999999989
 20
-38.0
 30
0.0
 11
84.00000000000034
 21
-0.0000000000001137
 31
0.0
  0
LINE
  5
9158
330
9104
100
AcDbEntity
  8
AM_0 外形線1
100
AcDbLine
 10
86.99999999999986
 20
-38.0
 30
0.0
 11
83.99999999999989
 21
-38.0
 31
0.0
  0
LINE
  5
9159
330
9104
100
AcDbEntity
  8
AM_0 外形線1
100
AcDbLine
 10
86.99999999999986
 20
-38.520354
 30
0.0
 11
86.99999999999986
 21
-38.0
 31
0.0
  0
ARC
  5
915A
330
9104
100
AcDbEntity
  8
AM_0 外形線1
100
AcDbCircle
 10
68.99999999999988
 20
-38.25
 30
0.0
 40
8.0
100
AcDbArc
 50
58.72890470159095
 51
90.0
  0
LINE
  5
915B
330
9104
100
AcDbEntity
  8
AM_0 外形線1
100
AcDbLine
 10
83.99999999999989
 20
-38.0
 30
0.0
 11
73.15270389206084
 21
-31.41223352366728
 31
0.0
  0
ARC
  5
915C
330
9104
100
AcDbEntity
  8
AM_0 外形線1
100
AcDbCircle
 10
79.0
 20
26.55000000000018
 30
0.0
 40
5.0
100
AcDbArc
 50
270.0
 51
0.0
1001
GENIUS_GENOBJ-N-FIL_13
1002
{
1000
OWNER
1000
GEN
1002
}
1001
GENIUS_GENODEF_13
1002
{
1000
HIER
1070
     0
1002
}
1002
{
1000
MANEDIT
1070
     0
1002
}
1002
{
1000
NOSEL
1070
     0
1002
}
1002
{
1000
BEHIND
1070
     0
1002
}
1002
{
1000
OTHER
1070
     0
1002
}
1002
{
1000
REACTOR
1002
}
  0
LINE
  5
915D
330
9104
100
AcDbEntity
  8
AM_0 外形線1
100
AcDbLine
 10
76.0
 20
21.55000000000007
 30
0.0
 11
70.97705265805029
 21
30.25
 31
0.0
  0
LINE
  5
915E
330
9104
100
AcDbEntity
  8
AM_0 外形線1
100
AcDbLine
 10
83.99999999999989
 20
38.0
 30
0.0
 11
73.15270389206101
 21
31.41223352366728
 31
0.0
  0
ARC
  5
915F
330
9104
100
AcDbEntity
  8
AM_0 外形線1
100
AcDbCircle
 10
68.99999999999988
 20
38.25
 30
0.0
 40
8.0
100
AcDbArc
 50
270.0
 51
301.271095298409
  0
ARC
  5
9162
330
9104
100
AcDbEntity
  8
AM_0 外形線1
100
AcDbCircle
 10
33.00000000000011
 20
-38.25
 30
0.0
 40
8.0
100
AcDbArc
 50
90.0
 51
121.271095298409
  0
LINE
  5
9163
330
9104
100
AcDbEntity
  8
AM_0 外形線1
100
AcDbLine
 10
18.00000000000011
 20
-38.0
 30
0.0
 11
28.84729610793904
 21
-31.41223352366723
 31
0.0
  0
LINE
  5
9164
330
9104
100
AcDbEntity
  8
AM_0 外形線1
100
AcDbLine
 10
26.0
 20
21.55000000000007
 30
0.0
 11
31.0229473419497
 21
30.25
 31
0.0
  0
LINE
  5
9165
330
9104
100
AcDbEntity
  8
AM_0 外形線1
100
AcDbLine
 10
18.00000000000011
 20
38.0
 30
0.0
 11
28.84729610793897
 21
31.41223352366728
 31
0.0
  0
ARC
  5
9166
330
9104
100
AcDbEntity
  8
AM_0 外形線1
100
AcDbCircle
 10
33.00000000000011
 20
38.25
 30
0.0
 40
8.0
100
AcDbArc
 50
238.728904701591
 51
270.0
  0
ARC
  5
9167
330
9104
100
AcDbEntity
  8
AM_0 外形線1
100
AcDbCircle
 10
23.0
 20
26.55000000000018
 30
0.0
 40
5.0
100
AcDbArc
 50
180.0
 51
270.0
1001
GENIUS_GENOBJ-N-FIL_13
1002
{
1000
OWNER
1000
GEN
1002
}
1001
GENIUS_GENODEF_13
1002
{
1000
HIER
1070
     0
1002
}
1002
{
1000
MANEDIT
1070
     0
1002
}
1002
{
1000
NOSEL
1070
     0
1002
}
1002
{
1000
BEHIND
1070
     0
1002
}
1002
{
1000
OTHER
1070
     0
1002
}
1002
{
1000
REACTOR
1002
}
  0
LINE
  5
916A
330
9104
100
AcDbEntity
  8
AM_0 外形線1
100
AcDbLine
 10
102.0
 20
-49.5000000000001
 30
0.0
 11
102.0
 21
0.7456717341835885
 31
0.0
  0
POINT
  5
916B
330
9104
100
AcDbEntity
  8
0
 60
     1
100
AcDbPoint
 10
1732.500122581855
 20
2271.13193227238
 30
0.0
1001
GENIUS_GENOENT_13
1002
{
1000
MYREF
1005
916B
1002
}
1002
{
1000
GRP
1005
0
1002
}
1001
GENIUS_GENOBJ-N-CHA_13
1002
{
1000
OWNER
1000
GEN
1002
}
1001
GENIUS_GENODEF_13
1002
{
1000
HIER
1070
     1
1002
}
1002
{
1000
MANEDIT
1070
     1
1002
}
1002
{
1000
NOSEL
1070
     0
1002
}
1002
{
1000
BEHIND
1070
     0
1002
}
1002
{
1000
OTHER
1070
     0
1002
}
1002
{
1000
REACTOR
1002
}
1001
GENIUS_GENOLIS_13
1002
{
1000
ENT
1005
9132
1002
}
  0
POINT
  5
916C
330
9104
100
AcDbEntity
  8
0
 60
     1
100
AcDbPoint
 10
1732.500122581855
 20
2271.13193227238
 30
0.0
1001
GENIUS_GENOBJ-N-CHA_13
1002
{
1000
OWNER
1000
GEN
1002
}
1001
GENIUS_GENOENT_13
1002
{
1000
MYREF
1005
916C
1002
}
1002
{
1000
GRP
1005
0
1002
}
1001
GENIUS_GENODEF_13
1002
{
1000
HIER
1070
     1
1002
}
1002
{
1000
MANEDIT
1070
     1
1002
}
1002
{
1000
NOSEL
1070
     0
1002
}
1002
{
1000
BEHIND
1070
     0
1002
}
1002
{
1000
OTHER
1070
     0
1002
}
1002
{
1000
REACTOR
1002
}
1001
GENIUS_GENOLIS_13
1002
{
1000
ENT
1005
9131
1002
}
  0
POINT
  5
916D
330
9104
100
AcDbEntity
  8
0
 60
     1
100
AcDbPoint
 10
1732.500122581855
 20
2271.13193227238
 30
0.0
1001
GENIUS_GENOBJ-N-CHA_13
1002
{
1000
OWNER
1000
GEN
1002
}
1001
GENIUS_GENOENT_13
1002
{
1000
MYREF
1005
916D
1002
}
1002
{
1000
GRP
1005
0
1002
}
1001
GENIUS_GENODEF_13
1002
{
1000
HIER
1070
     1
1002
}
1002
{
1000
MANEDIT
1070
     1
1002
}
1002
{
1000
NOSEL
1070
     0
1002
}
1002
{
1000
BEHIND
1070
     0
1002
}
1002
{
1000
OTHER
1070
     0
1002
}
1002
{
1000
REACTOR
1002
}
1001
GENIUS_GENOLIS_13
1002
{
1000
ENT
1005
9130
1002
}
  0
POINT
  5
916E
330
9104
100
AcDbEntity
  8
0
 60
     1
100
AcDbPoint
 10
1732.500122581855
 20
2271.13193227238
 30
0.0
1001
GENIUS_GENOBJ-N-CHA_13
1002
{
1000
OWNER
1000
GEN
1002
}
1001
GENIUS_GENOENT_13
1002
{
1000
MYREF
1005
916E
1002
}
1002
{
1000
GRP
1005
0
1002
}
1001
GENIUS_GENODEF_13
1002
{
1000
HIER
1070
     1
1002
}
1002
{
1000
MANEDIT
1070
     1
1002
}
1002
{
1000
NOSEL
1070
     0
1002
}
1002
{
1000
BEHIND
1070
     0
1002
}
1002
{
1000
OTHER
1070
     0
1002
}
1002
{
1000
REACTOR
1002
}
1001
GENIUS_GENOLIS_13
1002
{
1000
ENT
1005
912F
1002
}
  0
POINT
  5
916F
330
9104
100
AcDbEntity
  8
0
 60
     1
100
AcDbPoint
 10
1732.500122581855
 20
2271.13193227238
 30
0.0
1001
GENIUS_GENOBJ-N-CHA_13
1002
{
1000
OWNER
1000
GEN
1002
}
1001
GENIUS_GENOENT_13
1002
{
1000
MYREF
1005
916F
1002
}
1002
{
1000
GRP
1005
0
1002
}
1001
GENIUS_GENODEF_13
1002
{
1000
HIER
1070
     1
1002
}
1002
{
1000
MANEDIT
1070
     1
1002
}
1002
{
1000
NOSEL
1070
     0
1002
}
1002
{
1000
BEHIND
1070
     0
1002
}
1002
{
1000
OTHER
1070
     0
1002
}
1002
{
1000
REACTOR
1002
}
1001
GENIUS_GENOLIS_13
1002
{
1000
ENT
1005
9127
1002
}
  0
POINT
  5
9170
330
9104
100
AcDbEntity
  8
0
 60
     1
100
AcDbPoint
 10
1732.500122581855
 20
2271.13193227238
 30
0.0
1001
GENIUS_GENOENT_13
1002
{
1000
MYREF
1005
9170
1002
}
1002
{
1000
GRP
1005
0
1002
}
1001
GENIUS_GENOBJ-N-CHA_13
1002
{
1000
OWNER
1000
GEN
1002
}
1001
GENIUS_GENODEF_13
1002
{
1000
HIER
1070
     1
1002
}
1002
{
1000
MANEDIT
1070
     1
1002
}
1002
{
1000
NOSEL
1070
     0
1002
}
1002
{
1000
BEHIND
1070
     0
1002
}
1002
{
1000
OTHER
1070
     0
1002
}
1002
{
1000
REACTOR
1002
}
1001
GENIUS_GENOLIS_13
1002
{
1000
ENT
1005
910D
1002
}
  0
LINE
  5
9302
330
9104
100
AcDbEntity
  8
AM_0 外形線1
100
AcDbLine
 10
0.0000000000000284
 20
47.0
 30
0.0
 11
0.0000000000000284
 21
49.5
 31
0.0
  0
LINE
  5
97A1
330
9104
100
AcDbEntity
  8
AM_0 外形線1
100
AcDbLine
 10
102.0000000000002
 20
47.0000000000001
 30
0.0
 11
102.0000000000002
 21
49.5
 31
0.0
  0
HATCH
  5
B9C7
330
9104
100
AcDbEntity
  8
AM_8 ハッチング
100
AcDbHatch
 10
0.0
 20
0.0
 30
0.0
210
0.0
220
0.0
230
1.0
  2
_U
 70
     0
 71
     0
 91
        1
 92
        1
 93
        5
 72
     2
 10
23.0
 20
26.55000000000018
 40
5.0
 50
180.0
 51
270.0
 73
     1
 72
     1
 10
23.0
 20
21.55000000000018
 11
26.0
 21
21.55000000000007
 72
     1
 10
26.0
 20
21.55000000000007
 11
31.0229473419497
 21
30.25
 72
     1
 10
31.0229473419497
 20
30.25
 11
18.00000000000023
 21
30.25
 72
     1
 10
18.00000000000023
 20
30.25
 11
18.0
 21
26.55000000000018
 97
        0
 75
     0
 76
     0
 52
45.0
 41
0.75
 77
     0
 78
     1
 53
45.0
 43
-255.0587286617872
 44
-323.3938924091427
 45
-0.5303300858899106
 46
0.5303300858899107
 79
     0
 98
        1
 10
-255.0587286617872
 20
-323.3938924091427
1001
GENIUS_GENODEF_13
1002
{
1000
HIER
1070
     0
1002
}
1002
{
1000
MANEDIT
1070
     0
1002
}
1002
{
1000
NOSEL
1070
     0
1002
}
1002
{
1000
BEHIND
1070
     0
1002
}
1002
{
1000
OTHER
1070
     0
1002
}
1002
{
1000
REACTOR
1002
}
1001
GENIUS_GENOBJ-N-HTC_13
1002
{
1000
OWNER
1000
GEN
1002
}
1001
GENIUS_GENHATCH_13
1002
{
1000
DATA
1040
45.0
1042
0.5
1000
_U
1070
     0
1011
22.39212792017713
1021
26.35751308828583
1031
0.0
1002
}
1002
{
1000
UCS
1010
0.0
1020
0.0
1030
0.0
1010
1.0
1020
0.0
1030
0.0
1010
0.0
1020
1.0
1030
0.0
1002
}
  0
HATCH
  5
B9C8
330
9104
100
AcDbEntity
  8
AM_8 ハッチング
100
AcDbHatch
 10
0.0
 20
0.0
 30
0.0
210
0.0
220
0.0
230
1.0
  2
_U
 70
     0
 71
     0
 91
        1
 92
        1
 93
        4
 72
     1
 10
28.84729610793897
 20
31.41223352366723
 11
18.00000000000011
 21
38.0
 72
     1
 10
18.00000000000011
 20
38.0
 11
18.00000000000023
 21
30.25
 72
     1
 10
18.00000000000023
 20
30.25
 11
33.00000000000011
 21
30.25
 72
     2
 10
33.00000000000011
 20
38.25
 40
8.0
 50
90.0
 51
121.271095298409
 73
     0
 97
        0
 75
     0
 76
     0
 52
45.0
 41
0.75
 77
     0
 78
     1
 53
45.0
 43
-255.0587286617872
 44
-323.3938924091427
 45
-0.5303300858899106
 46
0.5303300858899107
 79
     0
 98
        1
 10
-255.0587286617872
 20
-323.3938924091427
1001
GENIUS_GENODEF_13
1002
{
1000
HIER
1070
     0
1002
}
1002
{
1000
MANEDIT
1070
     0
1002
}
1002
{
1000
NOSEL
1070
     0
1002
}
1002
{
1000
BEHIND
1070
     0
1002
}
1002
{
1000
OTHER
1070
     0
1002
}
1002
{
1000
REACTOR
1002
}
1001
GENIUS_GENOBJ-N-HTC_13
1002
{
1000
OWNER
1000
GEN
1002
}
1001
GENIUS_GENHATCH_13
1002
{
1000
DATA
1040
45.0
1042
0.5
1000
_U
1070
     0
1011
24.03306207693265
1021
31.82466653530344
1031
0.0
1002
}
1002
{
1000
UCS
1010
0.0
1020
0.0
1030
0.0
1010
1.0
1020
0.0
1030
0.0
1010
0.0
1020
1.0
1030
0.0
1002
}
  0
HATCH
  5
B9C9
330
9104
100
AcDbEntity
  8
AM_8 ハッチング
100
AcDbHatch
 10
0.0
 20
0.0
 30
0.0
210
0.0
220
0.0
230
1.0
  2
_U
 70
     0
 71
     0
 91
        1
 92
        1
 93
        5
 72
     2
 10
78.99999999999995
 20
26.55000000000013
 40
5.000000000000056
 50
270.0000000000007
 51
360.0000000000007
 73
     1
 72
     1
 10
84.0
 20
26.55000000000018
 11
84.0
 21
30.25
 72
     1
 10
84.0
 20
30.25
 11
70.97705265805029
 21
30.25
 72
     1
 10
70.97705265805029
 20
30.25
 11
76.0
 21
21.55000000000007
 72
     1
 10
76.0
 20
21.55000000000007
 11
79.0
 21
21.55000000000007
 97
        0
 75
     0
 76
     0
 52
45.0
 41
0.75
 77
     0
 78
     1
 53
45.0
 43
-255.0587286617872
 44
-323.3938924091427
 45
-0.5303300858899106
 46
0.5303300858899107
 79
     0
 98
        1
 10
-255.0587286617872
 20
-323.3938924091427
1001
GENIUS_GENODEF_13
1002
{
1000
HIER
1070
     0
1002
}
1002
{
1000
MANEDIT
1070
     0
1002
}
1002
{
1000
NOSEL
1070
     0
1002
}
1002
{
1000
BEHIND
1070
     0
1002
}
1002
{
1000
OTHER
1070
     0
1002
}
1002
{
1000
REACTOR
1002
}
1001
GENIUS_GENOBJ-N-HTC_13
1002
{
1000
OWNER
1000
GEN
1002
}
1001
GENIUS_GENHATCH_13
1002
{
1000
DATA
1040
45.0
1042
0.5
1000
_U
1070
     0
1011
76.13273110040336
1021
27.04090732934151
1031
0.0
1002
}
1002
{
1000
UCS
1010
0.0
1020
0.0
1030
0.0
1010
1.0
1020
0.0
1030
0.0
1010
0.0
1020
1.0
1030
0.0
1002
}
  0
HATCH
  5
B9CA
330
9104
100
AcDbEntity
  8
AM_8 ハッチング
100
AcDbHatch
 10
0.0
 20
0.0
 30
0.0
210
0.0
220
0.0
230
1.0
  2
_U
 70
     0
 71
     0
 91
        1
 92
        1
 93
        4
 72
     2
 10
68.99999999999983
 20
38.25
 40
7.999999999999983
 50
58.72890470159045
 51
89.9999999999996
 73
     0
 72
     1
 10
68.99999999999988
 20
30.25
 11
84.0
 21
30.25
 72
     1
 10
84.0
 20
30.25
 11
84.0
 21
38.0
 72
     1
 10
84.0
 20
38.0
 11
73.15270389206101
 21
31.41223352366728
 97
        0
 75
     0
 76
     0
 52
45.0
 41
0.75
 77
     0
 78
     1
 53
45.0
 43
-255.0587286617872
 44
-323.3938924091427
 45
-0.5303300858899106
 46
0.5303300858899107
 79
     0
 98
        1
 10
-255.0587286617872
 20
-323.3938924091427
1001
GENIUS_GENODEF_13
1002
{
1000
HIER
1070
     0
1002
}
1002
{
1000
MANEDIT
1070
     0
1002
}
1002
{
1000
NOSEL
1070
     0
1002
}
1002
{
1000
BEHIND
1070
     0
1002
}
1002
{
1000
OTHER
1070
     0
1002
}
1002
{
1000
REACTOR
1002
}
1001
GENIUS_GENOBJ-N-HTC_13
1002
{
1000
OWNER
1000
GEN
1002
}
1001
GENIUS_GENHATCH_13
1002
{
1000
DATA
1040
45.0
1042
0.5
1000
_U
1070
     0
1011
81.60251262124678
1021
33.05477568777565
1031
0.0
1002
}
1002
{
1000
UCS
1010
0.0
1020
0.0
1030
0.0
1010
1.0
1020
0.0
1030
0.0
1010
0.0
1020
1.0
1030
0.0
1002
}
  0
LINE
  5
BB30
330
9104
100
AcDbEntity
  8
AM_0 外形線1
100
AcDbLine
 10
30.76100862690646
 20
-30.25
 30
0.0
 11
30.76100862690646
 21
-0.0000000000000568
 31
0.0
  0
LINE
  5
BB31
330
9104
100
AcDbEntity
  8
AM_0 外形線1
100
AcDbLine
 10
71.2389913730932
 20
-30.24999999999995
 30
0.0
 11
71.2389913730932
 21
-0.0000000000000568
 31
0.0
  0
ENDBLK
  5
9106
330
9104
100
AcDbEntity
  8
0
100
AcDbBlockEnd
  0
BLOCK
  5
94DA
330
94D9
100
AcDbEntity
  8
0
100
AcDbBlockBegin
  2
*D29
 70
     1
 10
0.0
 20
0.0
 30
0.0
  3
*D29
  1

  0
LINE
  5
A6CC
330
94D9
100
AcDbEntity
  8
AM_5 寸法線
 62
     3
100
AcDbLine
 10
270.0587286617872
 20
273.4563924091427
 30
0.0
 11
270.0587286617872
 21
249.9563924091427
 31
0.0
  0
LINE
  5
A6CD
330
94D9
100
AcDbEntity
  8
AM_5 寸法線
 62
     3
100
AcDbLine
 10
255.0587286617872
 20
272.6563924091428
 30
0.0
 11
255.0587286617872
 21
249.9563924091427
 31
0.0
  0
LINE
  5
A6CE
330
94D9
100
AcDbEntity
  8
AM_5 寸法線
 62
     3
100
AcDbLine
 10
266.3087286617872
 20
250.8938924091427
 30
0.0
 11
258.8087286617872
 21
250.8938924091427
 31
0.0
  0
INSERT
  5
A6CF
330
94D9
100
AcDbEntity
  8
AM_5 寸法線
 62
     3
100
AcDbBlockReference
  2
_Open30
 10
270.0587286617872
 20
250.8938924091427
 30
0.0
 41
3.75
 42
3.75
 43
3.75
  0
INSERT
  5
A6D0
330
94D9
100
AcDbEntity
  8
AM_5 寸法線
 62
     3
100
AcDbBlockReference
  2
_Open30
 10
255.0587286617872
 20
250.8938924091427
 30
0.0
 41
3.75
 42
3.75
 43
3.75
 50
180.0
  0
MTEXT
  5
A6D1
330
94D9
100
AcDbEntity
  8
AM_5 寸法線
 62
     3
100
AcDbMText
 10
262.5587286617872
 20
255.7688924091427
 30
0.0
 40
5.25
 41
0.0
 46
0.0
 71
     5
 72
     1
  1
15
  7
SEISA
 73
     1
 44
1.0
  0
POINT
  5
A6D2
330
94D9
100
AcDbEntity
  8
Defpoints
 62
     0
100
AcDbPoint
 10
270.0587286617872
 20
274.3938924091427
 30
0.0
  0
POINT
  5
A6D3
330
94D9
100
AcDbEntity
  8
Defpoints
 62
     0
100
AcDbPoint
 10
255.0587286617872
 20
273.5938924091428
 30
0.0
  0
POINT
  5
A6D4
330
94D9
100
AcDbEntity
  8
Defpoints
 62
     0
100
AcDbPoint
 10
255.0587286617872
 20
250.8938924091427
 30
0.0
  0
ENDBLK
  5
94DB
330
94D9
100
AcDbEntity
  8
0
100
AcDbBlockEnd
  0
BLOCK
  5
9504
330
9503
100
AcDbEntity
  8
0
100
AcDbBlockBegin
  2
*D30
 70
     1
 10
0.0
 20
0.0
 30
0.0
  3
*D30
  1

  0
LINE
  5
A6D5
330
9503
100
AcDbEntity
  8
AM_5 寸法線
 62
     3
100
AcDbLine
 10
357.0587286617872
 20
272.6563924091428
 30
0.0
 11
357.0587286617872
 21
249.9563924091427
 31
0.0
  0
LINE
  5
A6D6
330
9503
100
AcDbEntity
  8
AM_5 寸法線
 62
     3
100
AcDbLine
 10
342.0587286617872
 20
273.4563924091428
 30
0.0
 11
342.0587286617872
 21
249.9563924091427
 31
0.0
  0
LINE
  5
A6D7
330
9503
100
AcDbEntity
  8
AM_5 寸法線
 62
     3
100
AcDbLine
 10
353.3087286617872
 20
250.8938924091427
 30
0.0
 11
345.8087286617872
 21
250.8938924091427
 31
0.0
  0
INSERT
  5
A6D8
330
9503
100
AcDbEntity
  8
AM_5 寸法線
 62
     3
100
AcDbBlockReference
  2
_Open30
 10
357.0587286617872
 20
250.8938924091427
 30
0.0
 41
3.75
 42
3.75
 43
3.75
  0
INSERT
  5
A6D9
330
9503
100
AcDbEntity
  8
AM_5 寸法線
 62
     3
100
AcDbBlockReference
  2
_Open30
 10
342.0587286617872
 20
250.8938924091427
 30
0.0
 41
3.75
 42
3.75
 43
3.75
 50
180.0
  0
MTEXT
  5
A6DA
330
9503
100
AcDbEntity
  8
AM_5 寸法線
 62
     3
100
AcDbMText
 10
349.5587286617872
 20
255.7688924091427
 30
0.0
 40
5.25
 41
0.0
 46
0.0
 71
     5
 72
     1
  1
15
  7
SEISA
 73
     1
 44
1.0
  0
POINT
  5
A6DB
330
9503
100
AcDbEntity
  8
Defpoints
 62
     0
100
AcDbPoint
 10
357.0587286617872
 20
273.5938924091428
 30
0.0
  0
POINT
  5
A6DC
330
9503
100
AcDbEntity
  8
Defpoints
 62
     0
100
AcDbPoint
 10
342.0587286617872
 20
274.3938924091428
 30
0.0
  0
POINT
  5
A6DD
330
9503
100
AcDbEntity
  8
Defpoints
 62
     0
100
AcDbPoint
 10
342.0587286617872
 20
250.8938924091427
 30
0.0
  0
ENDBLK
  5
9505
330
9503
100
AcDbEntity
  8
0
100
AcDbBlockEnd
  0
BLOCK
  5
B19D
330
B19C
100
AcDbEntity
  8
0
100
AcDbBlockBegin
  2
*D31
 70
     1
 10
0.0
 20
0.0
 30
0.0
  3
*D31
  1

  0
LINE
  5
B1C2
330
B19C
100
AcDbEntity
  8
AM_5 寸法線
 62
     3
100
AcDbLine
 10
196.0587286617874
 20
354.8313924091427
 30
0.0
 11
196.0587286617874
 21
377.3313924091427
 31
0.0
  0
LINE
  5
B1C3
330
B19C
100
AcDbEntity
  8
AM_5 寸法線
 62
     3
100
AcDbLine
 10
206.0587286617874
 20
344.3313924091426
 30
0.0
 11
206.0587286617874
 21
377.3313924091427
 31
0.0
  0
LINE
  5
B1C4
330
B19C
100
AcDbEntity
  8
AM_5 寸法線
 62
     3
100
AcDbLine
 10
192.3087286617874
 20
376.3938924091427
 30
0.0
 11
188.5587286617874
 21
376.3938924091427
 31
0.0
  0
LINE
  5
B1C5
330
B19C
100
AcDbEntity
  8
AM_5 寸法線
 62
     3
100
AcDbLine
 10
209.8087286617874
 20
376.3938924091427
 30
0.0
 11
225.0337286617874
 21
376.3938924091427
 31
0.0
  0
LINE
  5
B1C6
330
B19C
100
AcDbEntity
  8
AM_5 寸法線
 62
     3
100
AcDbLine
 10
196.0587286617874
 20
376.3938924091427
 30
0.0
 11
206.0587286617874
 21
376.3938924091427
 31
0.0
  0
INSERT
  5
B1C7
330
B19C
100
AcDbEntity
  8
AM_5 寸法線
 62
     3
100
AcDbBlockReference
  2
_Open30
 10
196.0587286617874
 20
376.3938924091427
 30
0.0
 41
3.75
 42
3.75
 43
3.75
  0
INSERT
  5
B1C8
330
B19C
100
AcDbEntity
  8
AM_5 寸法線
 62
     3
100
AcDbBlockReference
  2
_Open30
 10
206.0587286617874
 20
376.3938924091427
 30
0.0
 41
3.75
 42
3.75
 43
3.75
 50
180.0
  0
MTEXT
  5
B1C9
330
B19C
100
AcDbEntity
  8
AM_5 寸法線
 62
     3
100
AcDbMText
 10
219.2962286617874
 20
381.2688924091427
 30
0.0
 40
5.25
 41
0.0
 46
0.0
 71
     5
 72
     1
  1
10
  7
SEISA
 73
     1
 44
1.0
  0
POINT
  5
B1CA
330
B19C
100
AcDbEntity
  8
Defpoints
 62
     0
100
AcDbPoint
 10
196.0587286617874
 20
353.8938924091427
 30
0.0
  0
POINT
  5
B1CB
330
B19C
100
AcDbEntity
  8
Defpoints
 62
     0
100
AcDbPoint
 10
206.0587286617874
 20
343.3938924091426
 30
0.0
  0
POINT
  5
B1CC
330
B19C
100
AcDbEntity
  8
Defpoints
 62
     0
100
AcDbPoint
 10
206.0587286617874
 20
376.3938924091427
 30
0.0
  0
ENDBLK
  5
B19E
330
B19C
100
AcDbEntity
  8
0
100
AcDbBlockEnd
  0
BLOCK
  5
B304
330
B302
100
AcDbEntity
  8
0
100
AcDbBlockBegin
  2
_DotSmall
 70
     0
 10
0.0
 20
0.0
 30
0.0
  3
_DotSmall
  1

  0
LWPOLYLINE
  5
B303
330
B302
100
AcDbEntity
  8
0
  6
ByBlock
 62
     0
100
AcDbPolyline
 90
        2
 70
     1
 43
0.5
 10
-0.0625
 20
0.0
 42
1.0
 10
0.0625
 20
0.0
 42
1.0
  0
ENDBLK
  5
B305
330
B302
100
AcDbEntity
  8
0
100
AcDbBlockEnd
  0
BLOCK
  5
B477
330
B476
100
AcDbEntity
  8
0
100
AcDbBlockBegin
  2
*D33
 70
     1
 10
0.0
 20
0.0
 30
0.0
  3
*D33
  1

  0
LINE
  5
B4DC
330
B476
100
AcDbEntity
  8
AM_5 寸法線
 62
     3
100
AcDbLine
 10
230.0587286617872
 20
345.4563924091426
 30
0.0
 11
230.0587286617872
 21
336.6173509940149
 31
0.0
  0
LINE
  5
B4DD
330
B476
100
AcDbEntity
  8
AM_5 寸法線
 62
     3
100
AcDbLine
 10
232.0587286617874
 20
345.9563924091426
 30
0.0
 11
232.0587286617874
 21
336.6173509940149
 31
0.0
  0
LINE
  5
B4DE
330
B476
100
AcDbEntity
  8
AM_5 寸法線
 62
     3
100
AcDbLine
 10
226.3087286617872
 20
337.5548509940149
 30
0.0
 11
222.5587286617872
 21
337.5548509940149
 31
0.0
  0
LINE
  5
B4DF
330
B476
100
AcDbEntity
  8
AM_5 寸法線
 62
     3
100
AcDbLine
 10
232.0587286617874
 20
337.5548509940149
 30
0.0
 11
235.8087286617874
 21
337.5548509940149
 31
0.0
  0
MTEXT
  5
B4E0
330
B476
100
AcDbEntity
  8
AM_5 寸法線
 62
     3
100
AcDbMText
 10
226.7300116320256
 20
342.0396822992394
 30
0.0
 40
5.25
 41
0.0
 46
0.0
 71
     5
 72
     1
  1
2
  7
SEISA
 73
     1
 44
1.0
  0
LINE
  5
B4E1
330
B476
100
AcDbEntity
  8
AM_5 寸法線
 62
     3
100
AcDbLine
 10
230.0587286617872
 20
337.5548509940149
 30
0.0
 11
232.0587286617874
 21
337.5548509940149
 31
0.0
  0
INSERT
  5
B4E2
330
B476
100
AcDbEntity
  8
AM_5 寸法線
 62
     3
100
AcDbBlockReference
  2
_Open30
 10
230.0587286617872
 20
337.5548509940149
 30
0.0
 41
3.75
 42
3.75
 43
3.75
  0
INSERT
  5
B4E3
330
B476
100
AcDbEntity
  8
AM_5 寸法線
 62
     3
100
AcDbBlockReference
  2
_DotSmall
 10
232.0587286617874
 20
337.5548509940149
 30
0.0
 41
3.75
 42
3.75
 43
3.75
 50
180.0
  0
POINT
  5
B4E4
330
B476
100
AcDbEntity
  8
Defpoints
 62
     0
100
AcDbPoint
 10
230.0587286617872
 20
346.3938924091426
 30
0.0
  0
POINT
  5
B4E5
330
B476
100
AcDbEntity
  8
Defpoints
 62
     0
100
AcDbPoint
 10
232.0587286617874
 20
346.8938924091426
 30
0.0
  0
POINT
  5
B4E6
330
B476
100
AcDbEntity
  8
Defpoints
 62
     0
100
AcDbPoint
 10
232.0587286617874
 20
337.5548509940149
 30
0.0
  0
ENDBLK
  5
B478
330
B476
100
AcDbEntity
  8
0
100
AcDbBlockEnd
  0
BLOCK
  5
B4F4
330
B4F3
100
AcDbEntity
  8
0
100
AcDbBlockBegin
  2
*D34
 70
     1
 10
0.0
 20
0.0
 30
0.0
  3
*D34
  1

  0
LINE
  5
B69C
330
B4F3
100
AcDbEntity
  8
AM_5 寸法線
 62
     3
100
AcDbLine
 10
241.0587286617874
 20
345.9563924091426
 30
0.0
 11
241.0587286617874
 21
336.6173509940148
 31
0.0
  0
LINE
  5
B69D
330
B4F3
100
AcDbEntity
  8
AM_5 寸法線
 62
     3
100
AcDbLine
 10
251.0587286617874
 20
344.9563924091426
 30
0.0
 11
251.0587286617874
 21
336.6173509940148
 31
0.0
  0
LINE
  5
B69E
330
B4F3
100
AcDbEntity
  8
AM_5 寸法線
 62
     3
100
AcDbLine
 10
241.0587286617874
 20
337.5548509940148
 30
0.0
 11
247.3087286617874
 21
337.5548509940148
 31
0.0
  0
MTEXT
  5
B69F
330
B4F3
100
AcDbEntity
  8
AM_5 寸法線
 62
     3
100
AcDbMText
 10
245.3743329428792
 20
342.2218487902954
 30
0.0
 40
5.25
 41
0.0
 46
0.0
 71
     5
 72
     1
  1
10
  7
SEISA
 73
     1
 44
1.0
  0
INSERT
  5
B6A0
330
B4F3
100
AcDbEntity
  8
AM_5 寸法線
 62
     3
100
AcDbBlockReference
  2
_DotSmall
 10
241.0587286617874
 20
337.5548509940148
 30
0.0
 41
3.75
 42
3.75
 43
3.75
 50
180.0
  0
INSERT
  5
B6A1
330
B4F3
100
AcDbEntity
  8
AM_5 寸法線
 62
     3
100
AcDbBlockReference
  2
_Open30
 10
251.0587286617874
 20
337.5548509940148
 30
0.0
 41
3.75
 42
3.75
 43
3.75
 50
180.0
  0
LINE
  5
B6A2
330
B4F3
100
AcDbEntity
  8
AM_5 寸法線
 62
     3
100
AcDbLine
 10
254.8087286617874
 20
337.5548509940148
 30
0.0
 11
258.5587286617874
 21
337.5548509940148
 31
0.0
  0
LINE
  5
B6A3
330
B4F3
100
AcDbEntity
  8
AM_5 寸法線
 62
     3
100
AcDbLine
 10
251.0587286617874
 20
337.5548509940148
 30
0.0
 11
247.3087286617874
 21
337.5548509940148
 31
0.0
  0
POINT
  5
B6A4
330
B4F3
100
AcDbEntity
  8
Defpoints
 62
     0
100
AcDbPoint
 10
241.0587286617874
 20
346.8938924091426
 30
0.0
  0
POINT
  5
B6A5
330
B4F3
100
AcDbEntity
  8
Defpoints
 62
     0
100
AcDbPoint
 10
251.0587286617874
 20
345.8938924091426
 30
0.0
  0
POINT
  5
B6A6
330
B4F3
100
AcDbEntity
  8
Defpoints
 62
     0
100
AcDbPoint
 10
251.0587286617874
 20
337.5548509940148
 30
0.0
  0
ENDBLK
  5
B4F5
330
B4F3
100
AcDbEntity
  8
0
100
AcDbBlockEnd
  0
BLOCK
  5
B51B
330
B51A
100
AcDbEntity
  8
0
100
AcDbBlockBegin
  2
*D35
 70
     1
 10
0.0
 20
0.0
 30
0.0
  3
*D35
  1

  0
LINE
  5
B552
330
B51A
100
AcDbEntity
  8
AM_5 寸法線
 62
     3
100
AcDbLine
 10
232.0587286617874
 20
345.9563924091427
 30
0.0
 11
232.0587286617874
 21
336.6173509940148
 31
0.0
  0
LINE
  5
B553
330
B51A
100
AcDbEntity
  8
AM_5 寸法線
 62
     3
100
AcDbLine
 10
241.0587286617874
 20
345.9563924091426
 30
0.0
 11
241.0587286617874
 21
336.6173509940148
 31
0.0
  0
LINE
  5
B554
330
B51A
100
AcDbEntity
  8
AM_5 寸法線
 62
     3
100
AcDbLine
 10
232.0587286617874
 20
337.5548509940148
 30
0.0
 11
241.0587286617874
 21
337.5548509940148
 31
0.0
  0
INSERT
  5
B555
330
B51A
100
AcDbEntity
  8
AM_5 寸法線
 62
     3
100
AcDbBlockReference
  2
_DotSmall
 10
232.0587286617874
 20
337.5548509940148
 30
0.0
 41
3.75
 42
3.75
 43
3.75
 50
180.0
  0
INSERT
  5
B556
330
B51A
100
AcDbEntity
  8
AM_5 寸法線
 62
     3
100
AcDbBlockReference
  2
_DotSmall
 10
241.0587286617874
 20
337.5548509940148
 30
0.0
 41
3.75
 42
3.75
 43
3.75
  0
MTEXT
  5
B557
330
B51A
100
AcDbEntity
  8
AM_5 寸法線
 62
     3
100
AcDbMText
 10
236.5587286617874
 20
342.4298509940148
 30
0.0
 40
5.25
 41
0.0
 46
0.0
 71
     5
 72
     1
  1
9
  7
SEISA
 73
     1
 44
1.0
  0
POINT
  5
B558
330
B51A
100
AcDbEntity
  8
Defpoints
 62
     0
100
AcDbPoint
 10
232.0587286617874
 20
346.8938924091427
 30
0.0
  0
POINT
  5
B559
330
B51A
100
AcDbEntity
  8
Defpoints
 62
     0
100
AcDbPoint
 10
241.0587286617874
 20
346.8938924091426
 30
0.0
  0
POINT
  5
B55A
330
B51A
100
AcDbEntity
  8
Defpoints
 62
     0
100
AcDbPoint
 10
241.0587286617874
 20
337.5548509940148
 30
0.0
  0
ENDBLK
  5
B51C
330
B51A
100
AcDbEntity
  8
0
100
AcDbBlockEnd
  0
BLOCK
  5
BA0E
330
BA0D
100
AcDbEntity
  8
0
100
AcDbBlockBegin
  2
ケース
 70
     0
 10
0.0
 20
0.0
 30
0.0
  3
ケース
  1

  0
ARC
  5
BA10
330
BA0D
100
AcDbEntity
  8
AM_11 想像線
 48
0.1
100
AcDbCircle
 10
-5.458157336163138
 20
-5.5
 30
0.0
 40
1.0
100
AcDbArc
 50
90.0
 51
180.0
  0
LINE
  5
BA11
330
BA0D
100
AcDbEntity
  8
AM_11 想像線
 48
0.1
100
AcDbLine
 10
0.0
 20
0.0
 30
0.0
 11
-12.45815733616314
 21
0.0
 31
0.0
  0
ARC
  5
BA12
330
BA0D
100
AcDbEntity
  8
AM_11 想像線
 48
0.1
100
AcDbCircle
 10
-12.45815733616314
 20
-3.0
 30
0.0
 40
3.0
100
AcDbArc
 50
90.0
 51
180.0
  0
LINE
  5
BA13
330
BA0D
100
AcDbEntity
  8
AM_11 想像線
 48
0.1
100
AcDbLine
 10
-6.458157336163138
 20
-10.5
 30
0.0
 11
-6.458157336163138
 21
-5.5
 31
0.0
  0
LINE
  5
BA14
330
BA0D
100
AcDbEntity
  8
AM_11 想像線
 48
0.1
100
AcDbLine
 10
-8.658157336163185
 20
-7.5
 30
0.0
 11
-8.658157336163185
 21
-10.5
 31
0.0
  0
LINE
  5
BA15
330
BA0D
100
AcDbEntity
  8
AM_11 想像線
 48
0.1
100
AcDbLine
 10
-13.25815733616332
 20
-10.5
 30
0.0
 11
-13.25815733616332
 21
-7.5
 31
0.0
  0
LINE
  5
BA16
102
{ACAD_REACTORS
330
B1AB
102
}
330
BA0D
100
AcDbEntity
  8
AM_11 想像線
 48
0.1
100
AcDbLine
 10
-15.45815733616314
 20
-3.0
 30
0.0
 11
-15.45815733616314
 21
-10.5
 31
0.0
  0
LINE
  5
BA17
330
BA0D
100
AcDbEntity
  8
AM_11 想像線
 48
0.1
100
AcDbLine
 10
-13.25815733616332
 20
-7.5
 30
0.0
 11
-8.658157336163185
 21
-7.5
 31
0.0
  0
LINE
  5
BA18
330
BA0D
100
AcDbEntity
  8
AM_11 想像線
 48
0.1
100
AcDbLine
 10
-15.45815733616314
 20
-9.5
 30
0.0
 11
-13.25815733616332
 21
-9.5
 31
0.0
  0
LINE
  5
BA19
330
BA0D
100
AcDbEntity
  8
AM_11 想像線
 48
0.1
100
AcDbLine
 10
-8.658157336163185
 20
-9.5
 30
0.0
 11
-6.458157336163138
 21
-9.5
 31
0.0
  0
LINE
  5
BA1A
330
BA0D
100
AcDbEntity
  8
AM_11 想像線
 48
0.1
100
AcDbLine
 10
0.0
 20
-6.5
 30
0.0
 11
-5.458157336163138
 21
-6.5
 31
0.0
  0
LINE
  5
BA1B
330
BA0D
100
AcDbEntity
  8
AM_11 想像線
 48
0.1
100
AcDbLine
 10
0.0
 20
-5.0
 30
0.0
 11
-3.458157336163138
 21
-5.0
 31
0.0
  0
LINE
  5
BA1C
330
BA0D
100
AcDbEntity
  8
AM_11 想像線
 48
0.1
100
AcDbLine
 10
-3.458157336163138
 20
-5.5
 30
0.0
 11
-3.458157336163138
 21
-7.199999999999986
 31
0.0
  0
LINE
  5
BA1D
330
BA0D
100
AcDbEntity
  8
AM_11 想像線
 48
0.1
100
AcDbLine
 10
-3.458157336163138
 20
-7.199999999999986
 30
0.0
 11
-2.958157336163138
 21
-7.699999999999986
 31
0.0
  0
ARC
  5
BA1E
330
BA0D
100
AcDbEntity
  8
AM_11 想像線
 48
0.1
100
AcDbCircle
 10
-4.458157336163139
 20
-5.5
 30
0.0
 40
1.0
100
AcDbArc
 50
0.0
 51
6.007073267136616
  0
ARC
  5
BA1F
330
BA0D
100
AcDbEntity
  8
AM_11 想像線
 48
0.1
100
AcDbCircle
 10
-4.458157336163139
 20
-5.5
 30
0.0
 40
1.0
100
AcDbArc
 50
6.007073267136616
 51
90.0
  0
LINE
  5
BA20
330
BA0D
100
AcDbEntity
  8
AM_11 想像線
 48
0.1
100
AcDbLine
 10
-5.458157336163138
 20
-4.5
 30
0.0
 11
-4.458157336163139
 21
-4.5
 31
0.0
  0
LINE
  5
BA21
330
BA0D
100
AcDbEntity
  8
AM_11 想像線
 48
0.1
100
AcDbLine
 10
-2.958157336163138
 20
-7.699999999999986
 30
0.0
 11
0.0
 21
-7.699999999999986
 31
0.0
  0
ENDBLK
  5
BA0F
330
BA0D
100
AcDbEntity
  8
0
100
AcDbBlockEnd
  0
ENDSEC
  0
SECTION
  2
ENTITIES
  0
LINE
  5
3972
330
1F
100
AcDbEntity
  8
AM_0 外形線1
100
AcDbLine
 10
357.0587286617872
 20
323.3938924091428
 30
0.0
 11
357.0587286617872
 21
273.593892409143
 31
0.0
  0
LINE
  5
39A7
330
1F
100
AcDbEntity
  8
AM_0 外形線1
100
AcDbLine
 10
357.0587286617872
 20
359.7938924091428
 30
0.0
 11
357.0587286617872
 21
363.3938924091428
 31
0.0
  0
LINE
  5
3A07
102
{ACAD_REACTORS
330
6DAF
102
}
330
1F
100
AcDbEntity
  8
AM_7 中心線
100
AcDbLine
 10
201.0587286617872
 20
323.3938924091427
 30
0.0
 11
411.0587286617872
 21
323.3938924091427
 31
0.0
  0
INSERT
  5
4BDF
102
{ACAD_REACTORS
330
9510
102
}
330
1F
100
AcDbEntity
  8
AM_0 外形線1
100
AcDbBlockReference
  2
ケースＡ-1 SAM100
 10
357.0587286617872
 20
323.3938924091427
 30
0.0
 41
-1.0
  0
LINE
  5
4BEC
330
1F
100
AcDbEntity
  8
AM_0 外形線1
100
AcDbLine
 10
343.0587286617872
 20
363.3938924091428
 30
0.0
 11
357.0587286617872
 21
363.3938924091428
 31
0.0
  0
LINE
  5
4BED
330
1F
100
AcDbEntity
  8
AM_0 外形線1
100
AcDbLine
 10
343.0587286617872
 20
370.3938924091428
 30
0.0
 11
357.0587286617872
 21
370.3938924091428
 31
0.0
  0
INSERT
  5
5014
330
1F
100
AcDbEntity
  8
AM_0 外形線1
100
AcDbBlockReference
  2
センタ-1 SAM100
 10
361.0587286617873
 20
323.3938924091426
 30
0.0
 41
-1.0
  0
INSERT
  5
54A3
330
1F
100
AcDbEntity
  8
AM_0 外形線1
100
AcDbBlockReference
  2
リーマボルト-1 SAM100 M6
 10
342.0587286617872
 20
366.8938924091428
 30
0.0
  0
INSERT
  5
64B1
102
{ACAD_REACTORS
330
70A3
330
70BB
330
B485
102
}
330
1F
100
AcDbEntity
  8
AM_0 外形線1
100
AcDbBlockReference
  2
ケースＡ-2 SAM100
 10
255.0587286617872
 20
323.3938924091427
 30
0.0
  0
INSERT
  5
654E
102
{ACAD_REACTORS
330
6C2F
330
6D7A
330
6DAF
330
70BB
330
B1AB
330
B485
330
B502
102
}
330
1F
100
AcDbEntity
  8
AM_0 外形線1
100
AcDbBlockReference
  2
センタ-2 SAM100
 10
251.0587286617874
 20
323.3938924091426
 30
0.0
  0
INSERT
  5
6B72
330
1F
100
AcDbEntity
  8
AM_0 外形線1
100
AcDbBlockReference
  2
リーマボルト-2 SAM100 M6
 10
270.0587286617872
 20
366.8938924091428
 30
0.0
  0
DIMENSION
  5
6C18
102
{ACAD_XDICTIONARY
360
6C25
102
}
102
{ACAD_REACTORS
330
6C2F
102
}
330
1F
100
AcDbEntity
  8
AM_5 寸法線
100
AcDbDimension
  2
*D11
 10
176.0587286617874
 20
300.3938924091426
 30
0.0
 11
171.1837286617874
 21
323.3938924091427
 31
0.0
 70
    32
  1
%%c<>
 71
     5
 42
46.0
 73
     0
 74
     0
 75
     0
  3
SEISA$0
100
AcDbAlignedDimension
 13
209.0587286617874
 23
346.3938924091426
 33
0.0
 14
209.0587286617874
 24
300.3938924091426
 34
0.0
 50
90.0
100
AcDbRotatedDimension
1001
ACAD_DSTYLE_DIMINSPECT
1070
   396
1000
100%
1070
   395
1000

1070
   394
1070
    33
1070
   393
1070
     0
  0
DIMENSION
  5
6C4C
330
1F
100
AcDbEntity
  8
AM_5 寸法線
100
AcDbDimension
  2
*D12
 10
436.0587286617873
 20
300.3938924091427
 30
0.0
 11
431.1837286617873
 21
323.3938924091428
 31
0.0
 70
    32
  1
%%c<>
 71
     5
 42
46.0
 73
     0
 74
     0
 75
     0
  3
SEISA$0
100
AcDbAlignedDimension
 13
403.0587286617873
 23
346.3938924091427
 33
0.0
 14
403.0587286617873
 24
300.3938924091427
 34
0.0
 50
90.0
100
AcDbRotatedDimension
1001
ACAD_DSTYLE_DIMINSPECT
1070
   396
1000
100%
1070
   395
1000

1070
   394
1070
    33
1070
   393
1070
     0
  0
DIMENSION
  5
6C64
330
1F
100
AcDbEntity
  8
AM_5 寸法線
100
AcDbDimension
  2
*D13
 10
451.0587286617873
 20
289.8938924091428
 30
0.0
 11
446.1837286617873
 21
323.3938924091429
 31
0.0
 70
    32
  1
%%c<>
 71
     5
 42
67.0
 73
     0
 74
     0
 75
     0
  3
SEISA$0
100
AcDbAlignedDimension
 13
388.0587286617872
 23
356.8938924091428
 33
0.0
 14
388.0587286617872
 24
289.8938924091428
 34
0.0
 50
90.0
100
AcDbRotatedDimension
1001
ACAD_DSTYLE_DIMINSPECT
1070
   396
1000
100%
1070
   395
1000

1070
   394
1070
    33
1070
   393
1070
     0
  0
DIMENSION
  5
6C7C
330
1F
100
AcDbEntity
  8
AM_5 寸法線
100
AcDbDimension
  2
*D14
 10
466.0587286617873
 20
273.3938924091428
 30
0.0
 11
461.1837286617872
 21
323.3938924091429
 31
0.0
 70
    32
  1
%%c<>
 71
     5
 42
100.0
 73
     0
 74
     0
 75
     0
  3
SEISA$0
100
AcDbAlignedDimension
 13
371.8587286617873
 23
373.3938924091428
 33
0.0
 14
371.8587286617873
 24
273.3938924091428
 34
0.0
 50
90.0
100
AcDbRotatedDimension
1001
ACAD_DSTYLE_DIMINSPECT
1070
   396
1000
100%
1070
   395
1000

1070
   394
1070
    33
1070
   393
1070
     0
  0
DIMENSION
  5
6D2A
330
1F
100
AcDbEntity
  8
AM_5 寸法線
100
AcDbDimension
  2
*D15
 10
361.0587286617873
 20
328.4016337371066
 30
0.0
 11
345.6212286617872
 21
328.4016337371066
 31
0.0
 70
   160
 71
     5
 42
4.000000000000227
 73
     0
 74
     0
 75
     0
  3
SEISA$0
100
AcDbAlignedDimension
 13
357.0587286617872
 23
356.3938924091428
 33
0.0
 14
361.0587286617873
 24
345.8938924091427
 34
0.0
100
AcDbRotatedDimension
  0
DIMENSION
  5
6D5F
102
{ACAD_XDICTIONARY
360
6D6E
102
}
102
{ACAD_REACTORS
330
6D7A
102
}
330
1F
100
AcDbEntity
  8
AM_5 寸法線
100
AcDbDimension
  2
*D16
 10
251.0587286617874
 20
328.4016337371066
 30
0.0
 11
266.4962286617872
 21
328.4016337371066
 31
0.0
 70
   160
 71
     5
 42
3.999999999999771
 73
     0
 74
     0
 75
     0
  3
SEISA$0
100
AcDbAlignedDimension
 13
255.0587286617872
 23
356.3938924091428
 33
0.0
 14
251.0587286617874
 24
345.8938924091426
 34
0.0
100
AcDbRotatedDimension
  0
DIMENSION
  5
6D98
102
{ACAD_XDICTIONARY
360
6DA5
102
}
102
{ACAD_REACTORS
330
6DAF
102
}
330
1F
100
AcDbEntity
  8
AM_5 寸法線
100
AcDbDimension
  2
*D17
 10
206.0587286617874
 20
324.9995986617229
 30
0.0
 11
228.5587286617874
 21
329.8745986617229
 31
0.0
 70
    32
 71
     5
 42
45.0
 73
     0
 74
     0
 75
     0
  3
SEISA$0
100
AcDbAlignedDimension
 13
251.0587286617874
 23
323.3938924091426
 33
0.0
 14
206.0587286617874
 24
323.3938924091427
 34
0.0
100
AcDbRotatedDimension
  0
DIMENSION
  5
6DE2
330
1F
100
AcDbEntity
  8
AM_5 寸法線
100
AcDbDimension
  2
*D18
 10
361.0587286617873
 20
324.9995986617229
 30
0.0
 11
383.5587286617873
 21
329.8745986617229
 31
0.0
 70
    32
 71
     5
 42
45.0
 73
     0
 74
     0
 75
     0
  3
SEISA$0
100
AcDbAlignedDimension
 13
406.0587286617873
 23
323.3938924091427
 33
0.0
 14
361.0587286617873
 24
323.3938924091427
 34
0.0
100
AcDbRotatedDimension
  0
DIMENSION
  5
6E9B
330
1F
100
AcDbEntity
  8
AM_5 寸法線
100
AcDbDimension
  2
*D19
 10
240.0587286617872
 20
250.8938924091428
 30
0.0
 11
247.5587286617872
 21
255.7688924091428
 31
0.0
 70
    32
 71
     5
 42
15.0
 73
     0
 74
     0
 75
     0
  3
SEISA$0
100
AcDbAlignedDimension
 13
255.0587286617872
 23
273.593892409143
 33
0.0
 14
240.0587286617872
 24
273.593892409143
 34
0.0
100
AcDbRotatedDimension
  0
DIMENSION
  5
6EE3
330
1F
100
AcDbEntity
  8
AM_5 寸法線
100
AcDbDimension
  2
*D20
 10
372.0587286617872
 20
250.8938924091428
 30
0.0
 11
364.5587286617872
 21
255.7688924091428
 31
0.0
 70
    32
 71
     5
 42
15.0
 73
     0
 74
     0
 75
     0
  3
SEISA$0
100
AcDbAlignedDimension
 13
357.0587286617872
 23
273.593892409143
 33
0.0
 14
372.0587286617872
 24
273.593892409143
 34
0.0
100
AcDbRotatedDimension
  0
DIMENSION
  5
708C
102
{ACAD_XDICTIONARY
360
7099
102
}
102
{ACAD_REACTORS
330
70A3
102
}
330
1F
100
AcDbEntity
  8
AM_5 寸法線
100
AcDbDimension
  2
*D21
 10
221.0587286617872
 20
235.8938924091428
 30
0.0
 11
238.0587286617872
 21
240.7688924091428
 31
0.0
 70
    32
 71
     5
 42
34.0
 73
     0
 74
     0
 75
     0
  3
SEISA$0
100
AcDbAlignedDimension
 13
255.0587286617872
 23
273.593892409143
 33
0.0
 14
221.0587286617872
 24
292.8938924091426
 34
0.0
100
AcDbRotatedDimension
  0
DIMENSION
  5
70A4
102
{ACAD_XDICTIONARY
360
70B1
102
}
102
{ACAD_REACTORS
330
70BB
102
}
330
1F
100
AcDbEntity
  8
AM_5 寸法線
100
AcDbDimension
  2
*D22
 10
206.0587286617874
 20
235.8938924091428
 30
0.0
 11
213.5587286617873
 21
240.7688924091428
 31
0.0
 70
    32
 71
     5
 42
14.99999999999977
 73
     0
 74
     0
 75
     0
  3
SEISA$0
100
AcDbAlignedDimension
 13
221.0587286617872
 23
292.8938924091426
 33
0.0
 14
206.0587286617874
 24
303.3938924091426
 34
0.0
100
AcDbRotatedDimension
  0
DIMENSION
  5
70BC
330
1F
100
AcDbEntity
  8
AM_5 寸法線
100
AcDbDimension
  2
*D23
 10
391.0587286617872
 20
235.8938924091428
 30
0.0
 11
374.0587286617872
 21
240.7688924091428
 31
0.0
 70
    32
 71
     5
 42
34.0
 73
     0
 74
     0
 75
     0
  3
SEISA$0
100
AcDbAlignedDimension
 13
357.0587286617872
 23
273.593892409143
 33
0.0
 14
391.0587286617872
 24
292.8938924091428
 34
0.0
100
AcDbRotatedDimension
  0
DIMENSION
  5
70D4
330
1F
100
AcDbEntity
  8
AM_5 寸法線
100
AcDbDimension
  2
*D24
 10
406.0587286617873
 20
235.8938924091428
 30
0.0
 11
398.5587286617873
 21
240.7688924091428
 31
0.0
 70
    32
 71
     5
 42
15.00000000000023
 73
     0
 74
     0
 75
     0
  3
SEISA$0
100
AcDbAlignedDimension
 13
391.0587286617872
 23
292.8938924091428
 33
0.0
 14
406.0587286617873
 24
303.3938924091426
 34
0.0
100
AcDbRotatedDimension
  0
INSERT
  5
9171
102
{ACAD_REACTORS
330
94E6
102
}
330
1F
100
AcDbEntity
  8
AM_0 外形線1
100
AcDbBlockReference
  2
ＧＣスペーサ SAMY100
 10
255.0587286617872
 20
323.3938924091427
 30
0.0
  0
DIMENSION
  5
94D8
102
{ACAD_XDICTIONARY
360
94E5
102
}
102
{ACAD_REACTORS
330
94E6
102
}
330
1F
100
AcDbEntity
  8
AM_5 寸法線
100
AcDbDimension
  2
*D29
 10
255.0587286617872
 20
250.8938924091427
 30
0.0
 11
262.5587286617872
 21
255.7688924091427
 31
0.0
 70
    32
 71
     5
 42
15.0
 73
     0
 74
     0
 75
     0
  3
SEISA$0
100
AcDbAlignedDimension
 13
270.0587286617872
 23
274.3938924091427
 33
0.0
 14
255.0587286617872
 24
273.5938924091428
 34
0.0
100
AcDbRotatedDimension
1001
ACAD_DSTYLE_DIMINSPECT
1070
   396
1000
100%
1070
   395
1000

1070
   394
1070
    33
1070
   393
1070
     0
  0
DIMENSION
  5
9502
102
{ACAD_XDICTIONARY
360
950F
102
}
102
{ACAD_REACTORS
330
9510
102
}
330
1F
100
AcDbEntity
  8
AM_5 寸法線
100
AcDbDimension
  2
*D30
 10
342.0587286617872
 20
250.8938924091427
 30
0.0
 11
349.5587286617872
 21
255.7688924091427
 31
0.0
 70
    32
 71
     5
 42
15.0
 73
     0
 74
     0
 75
     0
  3
SEISA$0
100
AcDbAlignedDimension
 13
357.0587286617872
 23
273.5938924091428
 33
0.0
 14
342.0587286617872
 24
274.3938924091428
 34
0.0
100
AcDbRotatedDimension
1001
ACAD_DSTYLE_DIMINSPECT
1070
   396
1000
100%
1070
   395
1000

1070
   394
1070
    33
1070
   393
1070
     0
  0
MTEXT
  5
B158
330
1F
100
AcDbEntity
  8
AM_6 文字
100
AcDbMText
 10
416.8191387747586
 20
262.6432964294764
 30
0.0
 40
5.25
 41
108.5360962537228
 46
27.66929097590912
 71
     1
 72
     5
  1
{\W0.6;TYPE:SAM100/SAMH100\PSHAFT DIA:MAX/MIN φ32/φ17}
  7
SEISA
 73
     1
 44
1.0
  0
DIMENSION
  5
B19B
102
{ACAD_XDICTIONARY
360
B1AA
102
}
102
{ACAD_REACTORS
330
B1AB
102
}
330
1F
100
AcDbEntity
  8
AM_5 寸法線
100
AcDbDimension
  2
*D31
 10
206.0587286617874
 20
376.3938924091427
 30
0.0
 11
219.2962286617874
 21
381.2688924091427
 31
0.0
 70
    32
 71
     5
 42
10.0
 73
     0
 74
     0
 75
     0
  3
SEISA$0
100
AcDbAlignedDimension
 13
196.0587286617874
 23
353.8938924091427
 33
0.0
 14
206.0587286617874
 24
343.3938924091426
 34
0.0
100
AcDbRotatedDimension
1001
ACAD_DSTYLE_DIMINSPECT
1070
   396
1000
100%
1070
   395
1000

1070
   394
1070
    33
1070
   393
1070
     0
  0
DIMENSION
  5
B475
102
{ACAD_XDICTIONARY
360
B484
102
}
102
{ACAD_REACTORS
330
B485
102
}
330
1F
100
AcDbEntity
  8
AM_5 寸法線
100
AcDbDimension
  2
*D33
 10
232.0587286617874
 20
337.5548509940149
 30
0.0
 11
226.7300116320256
 21
342.0396822992394
 31
0.0
 70
   160
 71
     5
 42
2.000000000000226
 73
     0
 74
     0
 75
     0
  3
SEISA$0
100
AcDbAlignedDimension
 13
230.0587286617872
 23
346.3938924091426
 33
0.0
 14
232.0587286617874
 24
346.8938924091426
 34
0.0
100
AcDbRotatedDimension
1001
ACAD
1000
DSTYLE
1002
{
1070
   173
1070
     1
1070
   279
1070
     2
1070
   342
1005
0
1070
   343
1005
69
1070
   344
1005
B302
1002
}
  0
DIMENSION
  5
B4F2
102
{ACAD_XDICTIONARY
360
B501
102
}
102
{ACAD_REACTORS
330
B502
102
}
330
1F
100
AcDbEntity
  8
AM_5 寸法線
100
AcDbDimension
  2
*D34
 10
251.0587286617874
 20
337.5548509940148
 30
0.0
 11
245.3743329428792
 21
337.3468487902954
 31
0.0
 70
   160
 71
     5
 42
10.0
 73
     0
 74
     0
 75
     1
  3
SEISA$0
100
AcDbAlignedDimension
 13
241.0587286617874
 23
346.8938924091426
 33
0.0
 14
251.0587286617874
 24
345.8938924091426
 34
0.0
 50
0.0000000000001132
100
AcDbRotatedDimension
1001
ACAD_DSTYLE_DIMINSPECT
1070
   396
1000
100%
1070
   395
1000

1070
   394
1070
    33
1070
   393
1070
     0
1001
ACAD
1000
DSTYLE
1002
{
1070
   173
1070
     1
1070
   279
1070
     1
1070
   342
1005
0
1070
   343
1005
B302
1070
   344
1005
69
1002
}
  0
DIMENSION
  5
B519
330
1F
100
AcDbEntity
  8
AM_5 寸法線
100
AcDbDimension
  2
*D35
 10
241.0587286617874
 20
337.5548509940148
 30
0.0
 11
236.5587286617874
 21
342.4298509940148
 31
0.0
 70
    32
 71
     5
 42
9.0
 73
     0
 74
     0
 75
     0
  3
SEISA$0
100
AcDbAlignedDimension
 13
232.0587286617874
 23
346.8938924091427
 33
0.0
 14
241.0587286617874
 24
346.8938924091426
 34
0.0
100
AcDbRotatedDimension
1001
ACAD
1000
DSTYLE
1002
{
1070
   173
1070
     1
1070
   342
1005
0
1070
   343
1005
B302
1070
   344
1005
B302
1002
}
  0
INSERT
  5
BA22
330
1F
100
AcDbEntity
  8
AM_5 寸法線
100
AcDbBlockReference
  2
ケース
 10
211.5168859979505
 20
356.8938924091427
 30
0.0
  0
ENDSEC
  0
SECTION
  2
OBJECTS
  0
DICTIONARY
  5
C
330
0
100
AcDbDictionary
281
     1
  3
ACAD_COLOR
350
C5
  3
ACAD_GROUP
350
D
  3
ACAD_LAYOUT
350
1A
  3
ACAD_MATERIAL
350
C4
  3
ACAD_MLEADERSTYLE
350
2D5
  3
ACAD_MLINESTYLE
350
17
  3
ACAD_PLOTSETTINGS
350
19
  3
ACAD_PLOTSTYLENAME
350
E
  3
ACAD_SCALELIST
350
2B3
  3
ACAD_TABLESTYLE
350
121
  3
ACAD_VISUALSTYLE
350
27F
  3
ACDB_RECOMPOSE_DATA
350
2F7
  3
AcDbVariableDictionary
350
34
  3
AcmDictionary
350
49
  3
AMG
350
2B
  3
AMGSNAPSETTINGS
350
1DE
  0
DICTIONARY
  5
BF
330
2
100
AcDbDictionary
280
     1
281
     1
  3
ACAD_LAYERSTATES
360
2DF8
  3
AMLAYER_GROUPCOLORS
360
C0
  0
DICTIONARY
  5
29F7
330
10
100
AcDbDictionary
280
     1
281
     1
  3
ADSK_XREC_LAYER_RECONCILED
360
29F8
  0
DICTIONARY
  5
29F9
330
81
100
AcDbDictionary
280
     1
281
     1
  3
ADSK_XREC_LAYER_RECONCILED
360
29FA
  0
DICTIONARY
  5
2DEE
330
2DED
100
AcDbDictionary
280
     1
281
     1
  0
DICTIONARY
  5
82
330
1F
100
AcDbDictionary
280
     1
281
     1
  3
ACAD_SORTENTS
360
A41
  0
DICTIONARY
  5
5506
330
5478
100
AcDbDictionary
280
     1
281
     1
  3
ACAD_SORTENTS
360
7B2C
  0
DICTIONARY
  5
7671
330
62A7
100
AcDbDictionary
280
     1
281
     1
  3
ACAD_SORTENTS
360
805C
  0
DICTIONARY
  5
77FF
330
647A
100
AcDbDictionary
280
     1
281
     1
  3
ACAD_SORTENTS
360
846C
  0
DICTIONARY
  5
7916
330
6535
100
AcDbDictionary
280
     1
281
     1
  3
ACAD_SORTENTS
360
B6D4
  0
DICTIONARY
  5
7ACE
330
6B43
100
AcDbDictionary
280
     1
281
     1
  3
ACAD_SORTENTS
360
7B89
  0
DICTIONARY
  5
84CA
330
7E52
100
AcDbDictionary
280
     1
281
     1
  3
ACAD_SORTENTS
360
B701
  0
DICTIONARY
  5
83C4
330
7F44
100
AcDbDictionary
280
     1
281
     1
  3
ACAD_SORTENTS
360
83C5
  0
DICTIONARY
  5
9303
330
9104
100
AcDbDictionary
280
     1
281
     1
  3
ACAD_SORTENTS
360
BB40
  0
DICTIONARY
  5
6C25
330
6C18
100
AcDbDictionary
280
     1
281
     1
  3
ACAD_DIMASSOC
360
6C2F
  0
DICTIONARY
  5
6D6E
330
6D5F
100
AcDbDictionary
280
     1
281
     1
  3
ACAD_DIMASSOC
360
6D7A
  0
DICTIONARY
  5
6DA5
330
6D98
100
AcDbDictionary
280
     1
281
     1
  3
ACAD_DIMASSOC
360
6DAF
  0
DICTIONARY
  5
7099
330
708C
100
AcDbDictionary
280
     1
281
     1
  3
ACAD_DIMASSOC
360
70A3
  0
DICTIONARY
  5
70B1
330
70A4
100
AcDbDictionary
280
     1
281
     1
  3
ACAD_DIMASSOC
360
70BB
  0
DICTIONARY
  5
94E5
330
94D8
100
AcDbDictionary
280
     1
281
     1
  3
ACAD_DIMASSOC
360
94E6
  0
DICTIONARY
  5
950F
330
9502
100
AcDbDictionary
280
     1
281
     1
  3
ACAD_DIMASSOC
360
9510
  0
DICTIONARY
  5
B1AA
330
B19B
100
AcDbDictionary
280
     1
281
     1
  3
ACAD_DIMASSOC
360
B1AB
  0
DICTIONARY
  5
B484
330
B475
100
AcDbDictionary
280
     1
281
     1
  3
ACAD_DIMASSOC
360
B485
  0
DICTIONARY
  5
B501
330
B4F2
100
AcDbDictionary
280
     1
281
     1
  3
ACAD_DIMASSOC
360
B502
  0
DICTIONARY
  5
C5
102
{ACAD_REACTORS
330
C
102
}
330
C
100
AcDbDictionary
281
     1
  0
DICTIONARY
  5
D
102
{ACAD_REACTORS
330
C
102
}
330
C
100
AcDbDictionary
281
     1
  0
DICTIONARY
  5
1A
102
{ACAD_REACTORS
330
C
102
}
330
C
100
AcDbDictionary
281
     1
  3
Model
350
22
  3
レイアウト1
350
1E
  3
レイアウト2
350
26
  0
DICTIONARY
  5
C4
102
{ACAD_REACTORS
330
C
102
}
330
C
100
AcDbDictionary
281
     1
  3
ByBlock
350
27D
  3
ByLayer
350
27C
  3
Global
350
27E
  0
DICTIONARY
  5
2D5
102
{ACAD_REACTORS
330
C
102
}
330
C
100
AcDbDictionary
281
     1
  3
Standard
350
2D6
  0
DICTIONARY
  5
17
102
{ACAD_REACTORS
330
C
102
}
330
C
100
AcDbDictionary
281
     1
  3
Standard
350
18
  0
DICTIONARY
  5
19
102
{ACAD_REACTORS
330
C
102
}
330
C
100
AcDbDictionary
281
     1
  3
SEISA基本
350
1C7E
  0
ACDBDICTIONARYWDFLT
  5
E
102
{ACAD_REACTORS
330
C
102
}
330
C
100
AcDbDictionary
281
     1
  3
Normal
350
F
100
AcDbDictionaryWithDefault
340
F
  0
DICTIONARY
  5
2B3
102
{ACAD_REACTORS
330
C
102
}
330
C
100
AcDbDictionary
281
     1
  3
*A1
350
2A04
  3
A0
350
2B4
  3
A1
350
2B5
  3
A2
350
2B6
  3
A3
350
2B7
  3
A4
350
2B8
  3
A5
350
2B9
  3
A6
350
2BA
  3
A7
350
2BB
  3
A8
350
2BC
  3
A9
350
2BD
  3
B0
350
2BE
  3
B1
350
2BF
  3
B2
350
2C0
  3
B3
350
2C1
  3
B4
350
2C2
  3
B5
350
2C3
  3
B6
350
2C4
  3
B7
350
2C5
  3
B8
350
2C6
  3
B9
350
2C7
  3
C0
350
2C8
  3
C1
350
2C9
  3
C2
350
2CA
  3
C3
350
2CB
  3
C4
350
2CC
  3
C5
350
2CD
  3
C6
350
2CE
  3
C7
350
2CF
  3
C8
350
2D0
  3
C9
350
2D1
  3
D0
350
2D2
  3
D1
350
2D3
  3
D2
350
2D4
  0
DICTIONARY
  5
121
102
{ACAD_REACTORS
330
C
102
}
330
C
100
AcDbDictionary
281
     1
  3
Standard
350
122
  0
DICTIONARY
  5
27F
102
{ACAD_REACTORS
330
C
102
}
330
C
100
AcDbDictionary
281
     1
  3
2dWireframe
350
285
  3
3D Hidden
350
287
  3
3dWireframe
350
286
  3
Basic
350
284
  3
Brighten
350
28B
  3
ColorChange
350
28F
  3
Conceptual
350
288
  3
Dim
350
28A
  3
Facepattern
350
28E
  3
Flat
350
280
  3
FlatWithEdges
350
281
  3
Gouraud
350
282
  3
GouraudWithEdges
350
283
  3
Linepattern
350
28D
  3
Realistic
350
289
  3
Thicken
350
28C
  0
XRECORD
  5
2F7
102
{ACAD_REACTORS
330
C
102
}
330
C
100
AcDbXrecord
280
     1
 90
        1
330
122
  0
DICTIONARY
  5
34
102
{ACAD_REACTORS
330
C
102
}
330
C
100
AcDbDictionary
281
     1
  3
CANNOSCALE
350
2FA
  3
CMLEADERSTYLE
350
2F8
  3
CTABLESTYLE
350
140
  3
DIMASSOC
350
AC
  3
INDEXCTL
350
35
  3
LAYEREVAL
350
538E
  3
LAYERNOTIFY
350
538F
  3
LIGHTINGUNITS
350
2FB
  3
MSLTSCALE
350
2F9
  0
DICTIONARY
  5
49
102
{ACAD_REACTORS
330
C
102
}
330
C
100
AcDbDictionary
281
     1
  3
AcmBOM
350
161B
  3
AcmStdDictionary
350
4A
  3
AMDTSECTSYM_ARROWCOLOR
350
12B
  0
DICTIONARY
  5
2B
102
{ACAD_REACTORS
330
C
102
}
330
C
100
AcDbDictionary
281
     1
  0
DICTIONARY
  5
1DE
102
{ACAD_REACTORS
330
C
102
}
330
C
100
AcDbDictionary
281
     1
  0
DICTIONARY
  5
2DF8
102
{ACAD_REACTORS
330
BF
102
}
330
BF
100
AcDbDictionary
281
     1
  0
DICTIONARY
  5
C0
102
{ACAD_REACTORS
330
BF
102
}
330
BF
100
AcDbDictionary
280
     1
281
     1
  0
XRECORD
  5
29F8
102
{ACAD_REACTORS
330
29F7
102
}
330
29F7
100
AcDbXrecord
280
     1
290
     1
  0
XRECORD
  5
29FA
102
{ACAD_REACTORS
330
29F9
102
}
330
29F9
100
AcDbXrecord
280
     1
290
     1
  0
SORTENTSTABLE
  5
A41
102
{ACAD_REACTORS
330
82
102
}
330
82
100
AcDbSortentsTable
330
1F
331
94D8
  5
94D8
331
4BED
  5
576F
331
39A7
  5
39E0
331
6EE3
  5
6EE3
331
5014
  5
5771
331
6C18
  5
6C18
331
B19B
  5
B19B
331
6D2A
  5
6D2A
331
54A3
  5
5AB9
331
6C4C
  5
6C4C
331
4BDF
  5
568D
331
3A07
  5
3A11
331
6C64
  5
6C64
331
708C
  5
708C
331
B158
  5
B158
331
6DE2
  5
6DE2
331
6C7C
  5
6C7C
331
3972
  5
3981
331
6D5F
  5
6D5F
331
9171
  5
9171
331
654E
  5
654E
331
9502
  5
9502
331
70A4
  5
70A4
331
4BEC
  5
576E
331
6D98
  5
6D98
331
70BC
  5
70BC
331
6E9B
  5
6E9B
331
64B1
  5
64B1
331
70D4
  5
70D4
331
6B72
  5
6B72
  0
SORTENTSTABLE
  5
7B2C
102
{ACAD_REACTORS
330
5506
102
}
330
5506
100
AcDbSortentsTable
330
5478
  0
SORTENTSTABLE
  5
805C
102
{ACAD_REACTORS
330
7671
102
}
330
7671
100
AcDbSortentsTable
330
62A7
  0
SORTENTSTABLE
  5
846C
102
{ACAD_REACTORS
330
77FF
102
}
330
77FF
100
AcDbSortentsTable
330
647A
331
64AD
  5
64AE
331
64AB
  5
64AC
331
64A9
  5
64AA
331
64A7
  5
64A8
331
786E
  5
64A1
331
64A5
  5
64A6
331
64A3
  5
64A4
331
64A1
  5
64A2
331
64AE
  5
64AF
331
64AC
  5
64AD
331
64AA
  5
64AB
331
64A8
  5
64A9
331
64A6
  5
64A7
331
64A4
  5
64A5
331
64A2
  5
64A3
331
64B0
  5
786E
331
64AF
  5
64B0
  0
SORTENTSTABLE
  5
B6D4
102
{ACAD_REACTORS
330
7916
102
}
330
7916
100
AcDbSortentsTable
330
6535
331
6543
  5
6545
331
6542
  5
6544
331
654D
  5
B222
331
6540
  5
6543
331
654C
  5
B221
331
654B
  5
654D
331
654A
  5
654C
331
653E
  5
6542
331
6549
  5
654B
331
653D
  5
6540
331
653C
  5
653E
331
6539
  5
653D
331
B222
  5
6539
331
6538
  5
653C
331
B221
  5
6538
331
6547
  5
654A
331
6546
  5
6549
331
6545
  5
6547
331
6544
  5
6546
  0
SORTENTSTABLE
  5
7B89
102
{ACAD_REACTORS
330
7ACE
102
}
330
7ACE
100
AcDbSortentsTable
330
6B43
  0
SORTENTSTABLE
  5
B701
102
{ACAD_REACTORS
330
84CA
102
}
330
84CA
100
AcDbSortentsTable
330
7E52
331
7E64
  5
7E67
331
7E63
  5
7E66
331
B266
  5
7E55
331
7E62
  5
7E64
331
B265
  5
7E56
331
7E61
  5
7E63
331
7E60
  5
7E62
331
7E5F
  5
7E61
331
7E5D
  5
7E60
331
7E5B
  5
7E5F
331
7E5A
  5
7E5D
331
7E56
  5
7E5A
331
7E59
  5
7E5B
331
7E55
  5
7E59
331
7E6A
  5
B266
331
7E69
  5
B265
331
7E68
  5
7E6A
331
7E67
  5
7E69
331
7E66
  5
7E68
  0
SORTENTSTABLE
  5
83C5
102
{ACAD_REACTORS
330
83C4
102
}
330
83C4
100
AcDbSortentsTable
330
7F44
  0
SORTENTSTABLE
  5
BB40
102
{ACAD_REACTORS
330
9303
102
}
330
9303
100
AcDbSortentsTable
330
9104
331
912B
  5
912D
331
911C
  5
911D
331
9159
  5
915B
331
9117
  5
9118
331
9129
  5
912B
331
9166
  5
916A
331
9136
  5
9138
331
9170
  5
9302
331
911A
  5
911B
331
9115
  5
9116
331
9127
  5
9129
331
9164
  5
9166
331
9157
  5
9159
331
9134
  5
9136
331
9118
  5
9119
331
9113
  5
9114
331
9125
  5
9126
331
9162
  5
9164
331
9132
  5
9134
331
916F
  5
9170
331
9111
  5
9112
331
9123
  5
9124
331
9130
  5
9132
331
916D
  5
916E
331
910F
  5
9111
331
9121
  5
9122
331
915E
  5
9162
331
9302
  5
910D
331
916B
  5
916C
331
912E
  5
9130
331
910D
  5
910E
331
911F
  5
9120
331
915C
  5
915E
331
9139
  5
9157
331
912C
  5
912E
331
915A
  5
915C
331
911D
  5
911E
331
9167
  5
916B
331
912A
  5
912C
331
9137
  5
9139
331
9158
  5
915A
331
911B
  5
911C
331
9116
  5
9117
331
9165
  5
9167
331
9128
  5
912A
331
9135
  5
9137
331
9119
  5
911A
331
9114
  5
9115
331
9126
  5
9127
331
9163
  5
9165
331
9133
  5
9135
331
9112
  5
9113
331
9124
  5
9125
331
9148
  5
9158
331
9131
  5
9133
331
916E
  5
916F
331
9122
  5
9123
331
915F
  5
9163
331
97A1
  5
9128
331
912F
  5
9131
331
916C
  5
916D
331
910E
  5
910F
331
9120
  5
9121
331
915D
  5
915F
331
912D
  5
912F
331
916A
  5
97A1
331
911E
  5
911F
331
915B
  5
915D
331
9138
  5
9148
  0
DIMASSOC
  5
6C2F
102
{ACAD_REACTORS
330
6C25
102
}
330
6C25
100
AcDbDimAssoc
330
6C18
 90
        3
 70
     0
 71
     0
  1
AcDbOsnapPointRef
 72
    13
331
654E
331
6540
 73
     2
 91
        0
 40
1.570796326794896
 10
0.0
 20
0.0
 30
2.000000000000000E+50
 75
     0
  1
AcDbOsnapPointRef
 72
     1
331
654E
331
653C
 73
     2
 91
        0
 40
4.712388980384688
 10
0.0
 20
0.0
 30
2.000000000000000E+50
 75
     0
  0
DIMASSOC
  5
6D7A
102
{ACAD_REACTORS
330
6D6E
102
}
330
6D6E
100
AcDbDimAssoc
330
6D5F
 90
        2
 70
     0
 71
     0
  1
AcDbOsnapPointRef
 72
    13
331
654E
331
6538
 73
     2
 91
        0
 40
0.0
 10
0.0
 20
0.0
 30
2.000000000000000E+50
 75
     0
  0
DIMASSOC
  5
6DAF
102
{ACAD_REACTORS
330
6DA5
102
}
330
6DA5
100
AcDbDimAssoc
330
6D98
 90
        3
 70
     0
 71
     0
  1
AcDbOsnapPointRef
 72
     1
331
654E
331
6538
 73
     2
 91
        0
 40
1.0
 10
0.0
 20
0.0
 30
2.000000000000000E+50
 75
     0
  1
AcDbOsnapPointRef
 72
     6
331
654E
331
6539
 73
     2
 91
        0
 40
0.5000000000000029
 10
0.0
 20
0.0
 30
0.0
332
3A07
 74
     2
 92
        0
 75
     0
  0
DIMASSOC
  5
70A3
102
{ACAD_REACTORS
330
7099
102
}
330
7099
100
AcDbDimAssoc
330
708C
 90
        2
 70
     0
 71
     0
  1
AcDbOsnapPointRef
 72
    13
331
64B1
331
6484
 73
     2
 91
        0
 40
0.0
 10
0.0
 20
0.0
 30
2.000000000000000E+50
 75
     0
  0
DIMASSOC
  5
70BB
102
{ACAD_REACTORS
330
70B1
102
}
330
70B1
100
AcDbDimAssoc
330
70A4
 90
        3
 70
     0
 71
     0
  1
AcDbOsnapPointRef
 72
    13
331
64B1
331
6484
 73
     2
 91
        0
 40
0.0
 10
0.0
 20
0.0
 30
2.000000000000000E+50
 75
     0
  1
AcDbOsnapPointRef
 72
    13
331
654E
331
6539
 73
     2
 91
        0
 40
0.0
 10
0.0
 20
0.0
 30
2.000000000000000E+50
 75
     0
  0
DIMASSOC
  5
94E6
102
{ACAD_REACTORS
330
94E5
102
}
330
94E5
100
AcDbDimAssoc
330
94D8
 90
        1
 70
     0
 71
     0
  1
AcDbOsnapPointRef
 72
    13
331
9171
331
910A
 73
     0
 91
        0
 40
0.0
 10
0.0
 20
0.0
 30
2.000000000000000E+50
 75
     0
  0
DIMASSOC
  5
9510
102
{ACAD_REACTORS
330
950F
102
}
330
950F
100
AcDbDimAssoc
330
9502
 90
        1
 70
     0
 71
     0
  1
AcDbOsnapPointRef
 72
     1
331
4BDF
331
7F50
 73
     0
 91
        0
 40
0.0
 10
0.0
 20
0.0
 30
2.000000000000000E+50
 75
     0
  0
DIMASSOC
  5
B1AB
102
{ACAD_REACTORS
330
B1AA
102
}
330
B1AA
100
AcDbDimAssoc
330
B19B
 90
        2
 70
     0
 71
     0
  1
AcDbOsnapPointRef
 72
     1
331
654E
331
6540
 73
     0
 91
        0
 40
0.0
 10
0.0
 20
0.0
 30
2.000000000000000E+50
 75
     0
  0
DIMASSOC
  5
B485
102
{ACAD_REACTORS
330
B484
102
}
330
B484
100
AcDbDimAssoc
330
B475
 90
        1
 70
     0
 71
     0
  1
AcDbOsnapPointRef
 72
     6
331
654E
331
6542
 73
     2
 91
        0
 40
0.9333333333333232
 10
0.0
 20
0.0
 30
0.0
332
64B1
332
6492
 74
     2
 92
        0
 75
     0
  0
DIMASSOC
  5
B502
102
{ACAD_REACTORS
330
B501
102
}
330
B501
100
AcDbDimAssoc
330
B4F2
 90
        2
 70
     0
 71
     0
  1
AcDbOsnapPointRef
 72
    13
331
654E
331
6538
 73
     0
 91
        0
 40
0.0
 10
0.0
 20
0.0
 30
2.000000000000000E+50
 75
     0
  0
LAYOUT
  5
22
102
{ACAD_REACTORS
330
1A
102
}
330
1A
100
AcDbPlotSettings
  1

  2
KONICA MINOLTA 501 PCL
  4
A4
  6

 40
5.027082920074462
 41
5.027085781097412
 42
5.027069091796875
 43
5.027069091796875
 44
209.9733276367186
 45
296.9259948730469
 46
33.13729607038239
 47
0.0
 48
0.0
 49
0.0
140
0.0
141
0.0
142
1.0
143
1.115208361471976
 70
 11956
 72
     1
 73
     1
 74
     1
  7
SEISA.ctb
 75
     0
147
0.8966934203040651
 76
     0
 77
     2
 78
   300
148
-168.5453815888681
149
-234.8840579560831
100
AcDbLayout
  1
Model
 70
     1
 71
     0
 10
0.0
 20
0.0
 11
12.0
 21
9.0
 12
0.0
 22
0.0
 32
0.0
 14
0.0
 24
0.0
 34
0.0
 15
0.0
 25
0.0
 35
0.0
146
0.0
 13
0.0
 23
0.0
 33
0.0
 16
1.0
 26
0.0
 36
0.0
 17
0.0
 27
1.0
 37
0.0
 76
     0
330
1F
331
27A
1001
ACAD_PSEXT
1000
KONICA MINOLTA 501 PCL
1000
KONICA MINOLTA 501/421/361PCL
1000
IP_192.168.20.231_(1)
1000

1070
     0
  0
LAYOUT
  5
1E
102
{ACAD_REACTORS
330
1A
102
}
330
1A
100
AcDbPlotSettings
  1

  2
none_device
  4
Letter_(8.50_x_11.00_Inches)
  6

 40
6.349999904632567
 41
6.349999904632567
 42
6.350006103515625
 43
6.350006103515625
 44
215.8999938964844
 45
279.3999938964844
 46
0.0
 47
0.0
 48
0.0
 49
0.0
140
0.0
141
0.0
142
1.0
143
1.0
 70
 15024
 72
     1
 73
     1
 74
     5
  7
SEISA.ctb
 75
    16
147
1.0
 76
     0
 77
     2
 78
   300
148
0.0
149
0.0
100
AcDbLayout
  1
レイアウト1
 70
     1
 71
     1
 10
0.0
 20
0.0
 11
420.0
 21
297.0
 12
0.0
 22
0.0
 32
0.0
 14
1.000000000000000E+20
 24
1.000000000000000E+20
 34
1.000000000000000E+20
 15
-1.000000000000000E+20
 25
-1.000000000000000E+20
 35
-1.000000000000000E+20
146
0.0
 13
0.0
 23
0.0
 33
0.0
 16
1.0
 26
0.0
 36
0.0
 17
0.0
 27
1.0
 37
0.0
 76
     0
330
1B
  0
LAYOUT
  5
26
102
{ACAD_REACTORS
330
1A
102
}
330
1A
100
AcDbPlotSettings
  1

  2
none_device
  4
Letter_(8.50_x_11.00_Inches)
  6

 40
6.349999904632567
 41
6.349999904632567
 42
6.350006103515625
 43
6.350006103515625
 44
215.8999938964844
 45
279.3999938964844
 46
0.0
 47
0.0
 48
0.0
 49
0.0
140
0.0
141
0.0
142
1.0
143
1.0
 70
 15024
 72
     1
 73
     1
 74
     5
  7
SEISA.ctb
 75
    16
147
1.0
 76
     0
 77
     2
 78
   300
148
0.0
149
0.0
100
AcDbLayout
  1
レイアウト2
 70
     1
 71
     2
 10
0.0
 20
0.0
 11
12.0
 21
9.0
 12
0.0
 22
0.0
 32
0.0
 14
0.0
 24
0.0
 34
0.0
 15
0.0
 25
0.0
 35
0.0
146
0.0
 13
0.0
 23
0.0
 33
0.0
 16
1.0
 26
0.0
 36
0.0
 17
0.0
 27
1.0
 37
0.0
 76
     0
330
23
  0
MATERIAL
  5
27D
102
{ACAD_REACTORS
330
C4
102
}
330
C4
100
AcDbMaterial
  1
ByBlock
 73
     1
 78
     1
172
     1
176
     1
270
     1
274
     1
 94
       63
  0
MATERIAL
  5
27C
102
{ACAD_REACTORS
330
C4
102
}
330
C4
100
AcDbMaterial
  1
ByLayer
 73
     1
 78
     1
172
     1
176
     1
270
     1
274
     1
 94
       63
  0
MATERIAL
  5
27E
102
{ACAD_REACTORS
330
C4
102
}
330
C4
100
AcDbMaterial
  1
Global
 73
     1
 78
     1
172
     1
176
     1
270
     1
274
     1
 94
       63
  0
MLEADERSTYLE
  5
2D6
102
{ACAD_REACTORS
330
2D5
102
}
330
2D5
100
AcDbMLeaderStyle
170
     2
171
     1
172
     0
 90
        2
 40
0.0
 41
0.0
173
     1
 91
-1056964608
340
14
 92
       -2
290
     1
 42
2.0
291
     1
 43
0.36
  3
Standard
 44
4.0
300

342
11
174
     1
178
     6
175
     1
176
     0
 93
-1056964608
 45
4.0
292
     0
297
     0
 46
4.0
 94
-1056964608
 47
1.0
 49
1.0
140
1.0
293
     1
141
0.0
294
     1
177
     0
142
1.0
295
     0
296
     0
143
0.125
1001
ACAD_MLEADERVER
1070
     2
  0
MLINESTYLE
  5
18
102
{ACAD_REACTORS
330
17
102
}
330
17
100
AcDbMlineStyle
  2
STANDARD
 70
     0
  3

 62
   256
 51
90.0
 52
90.0
 71
     2
 49
0.5
 62
   256
  6
BYLAYER
 49
-0.5
 62
   256
  6
BYLAYER
  0
PLOTSETTINGS
  5
1C7E
102
{ACAD_REACTORS
330
19
102
}
330
19
100
AcDbPlotSettings
  1
SEISA基本
  2
none_device
  4
Letter_(8.50_x_11.00_Inches)
  6

 40
6.349999904632567
 41
6.349999904632567
 42
6.350006103515625
 43
6.350006103515625
 44
215.8999938964844
 45
279.3999938964844
 46
7.302498226506357
 47
0.0
 48
0.0
 49
0.0
140
0.0
141
0.0
142
1.0
143
1.574803221122935
 70
 11956
 72
     1
 73
     1
 74
     2
  7
SEISA.ctb
 75
     0
147
0.6349999711627054
 76
     0
 77
     2
 78
   300
148
0.0
149
0.0
1001
ACAD_PSEXT
1000
なし
1000
なし
1000
適切ではありません
1000
新しいプロッタ環境設定名を選択しない限り、レイアウトは印刷されません。
1070
     0
  0
ACDBPLACEHOLDER
  5
F
102
{ACAD_REACTORS
330
E
102
}
330
E
  0
SCALE
  5
2A04
102
{ACAD_REACTORS
330
2B3
102
}
330
2B3
100
AcDbScale
 70
     0
300
1:1.5
140
1.0
141
1.5
290
     0
  0
SCALE
  5
2B4
102
{ACAD_REACTORS
330
2B3
102
}
330
2B3
100
AcDbScale
 70
     0
300
1:1
140
1.0
141
1.0
290
     1
  0
SCALE
  5
2B5
102
{ACAD_REACTORS
330
2B3
102
}
330
2B3
100
AcDbScale
 70
     0
300
1:2
140
1.0
141
2.0
290
     0
  0
SCALE
  5
2B6
102
{ACAD_REACTORS
330
2B3
102
}
330
2B3
100
AcDbScale
 70
     0
300
1:4
140
1.0
141
4.0
290
     0
  0
SCALE
  5
2B7
102
{ACAD_REACTORS
330
2B3
102
}
330
2B3
100
AcDbScale
 70
     0
300
1:5
140
1.0
141
5.0
290
     0
  0
SCALE
  5
2B8
102
{ACAD_REACTORS
330
2B3
102
}
330
2B3
100
AcDbScale
 70
     0
300
1:8
140
1.0
141
8.0
290
     0
  0
SCALE
  5
2B9
102
{ACAD_REACTORS
330
2B3
102
}
330
2B3
100
AcDbScale
 70
     0
300
1:10
140
1.0
141
10.0
290
     0
  0
SCALE
  5
2BA
102
{ACAD_REACTORS
330
2B3
102
}
330
2B3
100
AcDbScale
 70
     0
300
1:16
140
1.0
141
16.0
290
     0
  0
SCALE
  5
2BB
102
{ACAD_REACTORS
330
2B3
102
}
330
2B3
100
AcDbScale
 70
     0
300
1:20
140
1.0
141
20.0
290
     0
  0
SCALE
  5
2BC
102
{ACAD_REACTORS
330
2B3
102
}
330
2B3
100
AcDbScale
 70
     0
300
1:30
140
1.0
141
30.0
290
     0
  0
SCALE
  5
2BD
102
{ACAD_REACTORS
330
2B3
102
}
330
2B3
100
AcDbScale
 70
     0
300
1:40
140
1.0
141
40.0
290
     0
  0
SCALE
  5
2BE
102
{ACAD_REACTORS
330
2B3
102
}
330
2B3
100
AcDbScale
 70
     0
300
1:50
140
1.0
141
50.0
290
     0
  0
SCALE
  5
2BF
102
{ACAD_REACTORS
330
2B3
102
}
330
2B3
100
AcDbScale
 70
     0
300
1:100
140
1.0
141
100.0
290
     0
  0
SCALE
  5
2C0
102
{ACAD_REACTORS
330
2B3
102
}
330
2B3
100
AcDbScale
 70
     0
300
2:1
140
2.0
141
1.0
290
     0
  0
SCALE
  5
2C1
102
{ACAD_REACTORS
330
2B3
102
}
330
2B3
100
AcDbScale
 70
     0
300
4:1
140
4.0
141
1.0
290
     0
  0
SCALE
  5
2C2
102
{ACAD_REACTORS
330
2B3
102
}
330
2B3
100
AcDbScale
 70
     0
300
8:1
140
8.0
141
1.0
290
     0
  0
SCALE
  5
2C3
102
{ACAD_REACTORS
330
2B3
102
}
330
2B3
100
AcDbScale
 70
     0
300
10:1
140
10.0
141
1.0
290
     0
  0
SCALE
  5
2C4
102
{ACAD_REACTORS
330
2B3
102
}
330
2B3
100
AcDbScale
 70
     0
300
100:1
140
100.0
141
1.0
290
     0
  0
SCALE
  5
2C5
102
{ACAD_REACTORS
330
2B3
102
}
330
2B3
100
AcDbScale
 70
     0
300
1/128" = 1'-0"
140
0.0078125
141
12.0
290
     0
  0
SCALE
  5
2C6
102
{ACAD_REACTORS
330
2B3
102
}
330
2B3
100
AcDbScale
 70
     0
300
1/64" = 1'-0"
140
0.015625
141
12.0
290
     0
  0
SCALE
  5
2C7
102
{ACAD_REACTORS
330
2B3
102
}
330
2B3
100
AcDbScale
 70
     0
300
1/32" = 1'-0"
140
0.03125
141
12.0
290
     0
  0
SCALE
  5
2C8
102
{ACAD_REACTORS
330
2B3
102
}
330
2B3
100
AcDbScale
 70
     0
300
1/16" = 1'-0"
140
0.0625
141
12.0
290
     0
  0
SCALE
  5
2C9
102
{ACAD_REACTORS
330
2B3
102
}
330
2B3
100
AcDbScale
 70
     0
300
3/32" = 1'-0"
140
0.09375
141
12.0
290
     0
  0
SCALE
  5
2CA
102
{ACAD_REACTORS
330
2B3
102
}
330
2B3
100
AcDbScale
 70
     0
300
1/8" = 1'-0"
140
0.125
141
12.0
290
     0
  0
SCALE
  5
2CB
102
{ACAD_REACTORS
330
2B3
102
}
330
2B3
100
AcDbScale
 70
     0
300
3/16" = 1'-0"
140
0.1875
141
12.0
290
     0
  0
SCALE
  5
2CC
102
{ACAD_REACTORS
330
2B3
102
}
330
2B3
100
AcDbScale
 70
     0
300
1/4" = 1'-0"
140
0.25
141
12.0
290
     0
  0
SCALE
  5
2CD
102
{ACAD_REACTORS
330
2B3
102
}
330
2B3
100
AcDbScale
 70
     0
300
3/8" = 1'-0"
140
0.375
141
12.0
290
     0
  0
SCALE
  5
2CE
102
{ACAD_REACTORS
330
2B3
102
}
330
2B3
100
AcDbScale
 70
     0
300
1/2" = 1'-0"
140
0.5
141
12.0
290
     0
  0
SCALE
  5
2CF
102
{ACAD_REACTORS
330
2B3
102
}
330
2B3
100
AcDbScale
 70
     0
300
3/4" = 1'-0"
140
0.75
141
12.0
290
     0
  0
SCALE
  5
2D0
102
{ACAD_REACTORS
330
2B3
102
}
330
2B3
100
AcDbScale
 70
     0
300
1" = 1'-0"
140
1.0
141
12.0
290
     0
  0
SCALE
  5
2D1
102
{ACAD_REACTORS
330
2B3
102
}
330
2B3
100
AcDbScale
 70
     0
300
1-1/2" = 1'-0"
140
1.5
141
12.0
290
     0
  0
SCALE
  5
2D2
102
{ACAD_REACTORS
330
2B3
102
}
330
2B3
100
AcDbScale
 70
     0
300
3" = 1'-0"
140
3.0
141
12.0
290
     0
  0
SCALE
  5
2D3
102
{ACAD_REACTORS
330
2B3
102
}
330
2B3
100
AcDbScale
 70
     0
300
6" = 1'-0"
140
6.0
141
12.0
290
     0
  0
SCALE
  5
2D4
102
{ACAD_REACTORS
330
2B3
102
}
330
2B3
100
AcDbScale
 70
     0
300
1'-0" = 1'-0"
140
12.0
141
12.0
290
     0
  0
TABLESTYLE
  5
122
102
{ACAD_XDICTIONARY
360
2F5
102
}
102
{ACAD_REACTORS
330
121
102
}
330
121
100
AcDbTableStyle
  3
Standard
 70
     0
 71
     0
 40
1.5
 41
1.5
280
     0
281
     0
  7
STANDARD
140
4.5
170
     2
 62
     0
 63
     7
283
     0
 90
      512
 91
        0
  1

274
    -2
284
     1
 64
     0
275
    -2
285
     1
 65
     0
276
    -2
286
     1
 66
     0
277
    -2
287
     1
 67
     0
278
    -2
288
     1
 68
     0
279
    -2
289
     1
 69
     0
  7
STANDARD
140
6.0
170
     5
 62
     0
 63
     7
283
     0
 90
      512
 91
        0
  1

274
    -2
284
     1
 64
     0
275
    -2
285
     1
 65
     0
276
    -2
286
     1
 66
     0
277
    -2
287
     1
 67
     0
278
    -2
288
     1
 68
     0
279
    -2
289
     1
 69
     0
  7
STANDARD
140
4.5
170
     5
 62
     0
 63
     7
283
     0
 90
      512
 91
        0
  1

274
    -2
284
     1
 64
     0
275
    -2
285
     1
 65
     0
276
    -2
286
     1
 66
     0
277
    -2
287
     1
 67
     0
278
    -2
288
     1
 68
     0
279
    -2
289
     1
 69
     0
  0
VISUALSTYLE
  5
285
102
{ACAD_REACTORS
330
27F
102
}
330
27F
100
AcDbVisualStyle
  2
2dWireframe
 70
     4
 71
     0
 72
     2
 73
     0
 90
        0
 40
-0.6
 41
-30.0
 62
     5
 63
     7
421
 16777215
 74
     1
 91
        4
 64
     7
 65
   257
 75
     1
175
     1
 42
1.0
 92
        0
 66
   257
 43
1.0
 76
     1
 77
     6
 78
     2
 67
     7
 79
     5
170
     0
171
     0
290
     0
174
     0
 93
        1
 44
0.0
173
     0
291
     0
 45
0.0
  0
VISUALSTYLE
  5
287
102
{ACAD_REACTORS
330
27F
102
}
330
27F
100
AcDbVisualStyle
  2
3D Hidden
 70
     6
 71
     1
 72
     2
 73
     2
 90
        0
 40
-0.6
 41
-30.0
 62
     5
 63
     7
421
 16777215
 74
     2
 91
        2
 64
     7
 65
   257
 75
     2
175
     1
 42
40.0
 92
        0
 66
   257
 43
1.0
 76
     1
 77
     6
 78
     2
 67
     7
 79
     3
170
     0
171
     0
290
     0
174
     0
 93
        1
 44
0.0
173
     0
291
     0
 45
0.0
  0
VISUALSTYLE
  5
286
102
{ACAD_REACTORS
330
27F
102
}
330
27F
100
AcDbVisualStyle
  2
3dWireframe
 70
     5
 71
     0
 72
     2
 73
     0
 90
        0
 40
-0.6
 41
-30.0
 62
     5
 63
     7
421
 16777215
 74
     1
 91
        4
 64
     7
 65
   257
 75
     1
175
     1
 42
1.0
 92
        0
 66
   257
 43
1.0
 76
     1
 77
     6
 78
     2
 67
     7
 79
     5
170
     0
171
     0
290
     0
174
     0
 93
        1
 44
0.0
173
     0
291
     0
 45
0.0
  0
VISUALSTYLE
  5
284
102
{ACAD_REACTORS
330
27F
102
}
330
27F
100
AcDbVisualStyle
  2
Basic
 70
     7
 71
     1
 72
     0
 73
     1
 90
        0
 40
-0.6
 41
-30.0
 62
     5
 63
     7
421
 16777215
 74
     0
 91
        4
 64
     7
 65
   257
 75
     1
175
     1
 42
1.0
 92
        8
 66
     7
 43
1.0
 76
     1
 77
     6
 78
     2
 67
     7
 79
     5
170
     0
171
     0
290
     0
174
     0
 93
        1
 44
0.0
173
     0
291
     1
 45
0.0
  0
VISUALSTYLE
  5
28B
102
{ACAD_REACTORS
330
27F
102
}
330
27F
100
AcDbVisualStyle
  2
Brighten
 70
    12
 71
     2
 72
     2
 73
     0
 90
        0
 40
-0.6
 41
-30.0
 62
     5
 63
     7
421
 16777215
 74
     1
 91
        4
 64
     7
 65
   257
 75
     1
175
     1
 42
1.0
 92
        8
 66
     7
 43
1.0
 76
     1
 77
     6
 78
     2
 67
     7
 79
     5
170
     0
171
     0
290
     0
174
     0
 93
        1
 44
50.0
173
     0
291
     1
 45
0.0
  0
VISUALSTYLE
  5
28F
102
{ACAD_REACTORS
330
27F
102
}
330
27F
100
AcDbVisualStyle
  2
ColorChange
 70
    16
 71
     2
 72
     2
 73
     3
 90
        0
 40
-0.6
 41
-30.0
 62
     5
 63
     8
421
  8421504
 74
     1
 91
        4
 64
     7
 65
   257
 75
     1
175
     1
 42
1.0
 92
        8
 66
     8
424
  8421504
 43
1.0
 76
     1
 77
     6
 78
     2
 67
     7
 79
     5
170
     0
171
     0
290
     0
174
     0
 93
        1
 44
0.0
173
     0
291
     1
 45
0.0
  0
VISUALSTYLE
  5
288
102
{ACAD_REACTORS
330
27F
102
}
330
27F
100
AcDbVisualStyle
  2
Conceptual
 70
     9
 71
     3
 72
     2
 73
     0
 90
        0
 40
-0.6
 41
-30.0
 62
     5
 63
     7
421
 16777215
 74
     2
 91
        2
 64
     7
 65
   257
 75
     1
175
     1
 42
40.0
 92
        8
 66
     7
 43
1.0
 76
     1
 77
     6
 78
     2
 67
     7
 79
     3
170
     0
171
     0
290
     0
174
     0
 93
        1
 44
0.0
173
     0
291
     0
 45
0.0
  0
VISUALSTYLE
  5
28A
102
{ACAD_REACTORS
330
27F
102
}
330
27F
100
AcDbVisualStyle
  2
Dim
 70
    11
 71
     2
 72
     2
 73
     0
 90
        0
 40
-0.6
 41
-30.0
 62
     5
 63
     7
421
 16777215
 74
     1
 91
        4
 64
     7
 65
   257
 75
     1
175
     1
 42
1.0
 92
        8
 66
     7
 43
1.0
 76
     1
 77
     6
 78
     2
 67
     7
 79
     5
170
     0
171
     0
290
     0
174
     0
 93
        1
 44
-50.0
173
     0
291
     1
 45
0.0
  0
VISUALSTYLE
  5
28E
102
{ACAD_REACTORS
330
27F
102
}
330
27F
100
AcDbVisualStyle
  2
Facepattern
 70
    15
 71
     2
 72
     2
 73
     0
 90
        0
 40
-0.6
 41
-30.0
 62
     5
 63
     7
421
 16777215
 74
     1
 91
        4
 64
     7
 65
   257
 75
     1
175
     1
 42
1.0
 92
        8
 66
     7
 43
1.0
 76
     1
 77
     6
 78
     2
 67
     7
 79
     5
170
     0
171
     0
290
     0
174
     0
 93
        1
 44
0.0
173
     0
291
     1
 45
0.0
  0
VISUALSTYLE
  5
280
102
{ACAD_REACTORS
330
27F
102
}
330
27F
100
AcDbVisualStyle
  2
Flat
 70
     0
 71
     2
 72
     1
 73
     1
 90
        2
 40
-0.6
 41
30.0
 62
     5
 63
     7
421
 16777215
 74
     0
 91
        4
 64
     7
 65
   257
 75
     1
175
     1
 42
1.0
 92
        8
 66
     7
 43
1.0
 76
     1
 77
     6
 78
     2
 67
     7
 79
     5
170
     0
171
     0
290
     0
174
     0
 93
       13
 44
0.0
173
     0
291
     1
 45
0.0
  0
VISUALSTYLE
  5
281
102
{ACAD_REACTORS
330
27F
102
}
330
27F
100
AcDbVisualStyle
  2
FlatWithEdges
 70
     1
 71
     2
 72
     1
 73
     1
 90
        2
 40
-0.6
 41
30.0
 62
     5
 63
     7
421
 16777215
 74
     1
 91
        4
 64
     7
 65
   257
 75
     1
175
     1
 42
1.0
 92
        0
 66
   257
 43
1.0
 76
     1
 77
     6
 78
     2
 67
     7
 79
     5
170
     0
171
     0
290
     0
174
     0
 93
       13
 44
0.0
173
     0
291
     1
 45
0.0
  0
VISUALSTYLE
  5
282
102
{ACAD_REACTORS
330
27F
102
}
330
27F
100
AcDbVisualStyle
  2
Gouraud
 70
     2
 71
     2
 72
     2
 73
     1
 90
        2
 40
-0.6
 41
30.0
 62
     5
 63
     7
421
 16777215
 74
     0
 91
        4
 64
     7
 65
   257
 75
     1
175
     1
 42
1.0
 92
        0
 66
     7
 43
1.0
 76
     1
 77
     6
 78
     2
 67
     7
 79
     5
170
     0
171
     0
290
     0
174
     0
 93
       13
 44
0.0
173
     0
291
     1
 45
0.0
  0
VISUALSTYLE
  5
283
102
{ACAD_REACTORS
330
27F
102
}
330
27F
100
AcDbVisualStyle
  2
GouraudWithEdges
 70
     3
 71
     2
 72
     2
 73
     1
 90
        2
 40
-0.6
 41
30.0
 62
     5
 63
     7
421
 16777215
 74
     1
 91
        4
 64
     7
 65
   257
 75
     1
175
     1
 42
1.0
 92
        0
 66
   257
 43
1.0
 76
     1
 77
     6
 78
     2
 67
     7
 79
     5
170
     0
171
     0
290
     0
174
     0
 93
       13
 44
0.0
173
     0
291
     1
 45
0.0
  0
VISUALSTYLE
  5
28D
102
{ACAD_REACTORS
330
27F
102
}
330
27F
100
AcDbVisualStyle
  2
Linepattern
 70
    14
 71
     2
 72
     2
 73
     0
 90
        0
 40
-0.6
 41
-30.0
 62
     5
 63
     7
421
 16777215
 74
     1
 91
        4
 64
     7
 65
   257
 75
     7
175
     7
 42
1.0
 92
        8
 66
     7
 43
1.0
 76
     1
 77
     6
 78
     2
 67
     7
 79
     5
170
     0
171
     0
290
     0
174
     0
 93
        1
 44
0.0
173
     0
291
     1
 45
0.0
  0
VISUALSTYLE
  5
289
102
{ACAD_REACTORS
330
27F
102
}
330
27F
100
AcDbVisualStyle
  2
Realistic
 70
     8
 71
     2
 72
     2
 73
     0
 90
        0
 40
-0.6
 41
-30.0
 62
     5
 63
     7
421
 16777215
 74
     1
 91
        0
 64
     7
 65
   257
 75
     1
175
     1
 42
1.0
 92
        8
 66
     8
424
  7895160
 43
1.0
 76
     1
 77
     6
 78
     2
 67
     7
 79
     5
170
     0
171
     0
290
     0
174
     0
 93
       13
 44
0.0
173
     0
291
     0
 45
0.0
  0
VISUALSTYLE
  5
28C
102
{ACAD_REACTORS
330
27F
102
}
330
27F
100
AcDbVisualStyle
  2
Thicken
 70
    13
 71
     2
 72
     2
 73
     0
 90
        0
 40
-0.6
 41
-30.0
 62
     5
 63
     7
421
 16777215
 74
     1
 91
        4
 64
     7
 65
   257
 75
     1
175
     1
 42
1.0
 92
       12
 66
     7
 43
1.0
 76
     1
 77
     6
 78
     2
 67
     7
 79
     5
170
     0
171
     0
290
     0
174
     0
 93
        1
 44
0.0
173
     0
291
     1
 45
0.0
  0
DICTIONARYVAR
  5
2FA
102
{ACAD_REACTORS
330
34
102
}
330
34
100
DictionaryVariables
280
     0
  1
1:1.5
  0
DICTIONARYVAR
  5
2F8
102
{ACAD_REACTORS
330
34
102
}
330
34
100
DictionaryVariables
280
     0
  1
STANDARD
  0
DICTIONARYVAR
  5
140
102
{ACAD_REACTORS
330
34
102
}
330
34
100
DictionaryVariables
280
     0
  1
STANDARD
  0
DICTIONARYVAR
  5
AC
102
{ACAD_REACTORS
330
34
102
}
330
34
100
DictionaryVariables
280
     0
  1
1
  0
DICTIONARYVAR
  5
35
102
{ACAD_REACTORS
330
34
102
}
330
34
100
DictionaryVariables
280
     0
  1
1
  0
DICTIONARYVAR
  5
538E
102
{ACAD_REACTORS
330
34
102
}
330
34
100
DictionaryVariables
280
     0
  1
1
  0
DICTIONARYVAR
  5
538F
102
{ACAD_REACTORS
330
34
102
}
330
34
100
DictionaryVariables
280
     0
  1
15
  0
DICTIONARYVAR
  5
2FB
102
{ACAD_REACTORS
330
34
102
}
330
34
100
DictionaryVariables
280
     0
  1
0
  0
DICTIONARYVAR
  5
2F9
102
{ACAD_REACTORS
330
34
102
}
330
34
100
DictionaryVariables
280
     0
  1
0
  0
DICTIONARY
  5
161B
102
{ACAD_REACTORS
330
49
102
}
330
49
100
AcDbDictionary
281
     1
  0
DICTIONARY
  5
4A
102
{ACAD_REACTORS
330
49
102
}
330
49
100
AcDbDictionary
281
     1
  0
XRECORD
  5
12B
102
{ACAD_REACTORS
330
49
102
}
330
49
100
AcDbXrecord
280
     1
 90
-1023410169
  0
DICTIONARY
  5
2F5
330
122
100
AcDbDictionary
280
     1
281
     1
  3
ACAD_ROUNDTRIP_2008_TABLESTYLE_CELLSTYLEMAP
360
BBD0
  0
CELLSTYLEMAP
  5
BBD0
102
{ACAD_REACTORS
330
2F5
102
}
330
2F5
100
AcDbCellStyleMap
 90
        3
300
CELLSTYLE
  1
TABLEFORMAT_BEGIN
 90
        5
170
     1
 91
        0
 92
    32768
 62
   257
 93
        1
300
CONTENTFORMAT
  1
CONTENTFORMAT_BEGIN
 90
        0
 91
        0
 92
      512
 93
        0
300

 40
0.0
140
1.0
 94
        5
 62
     0
340
11
144
6.0
309
CONTENTFORMAT_END
171
     1
301
MARGIN
  1
CELLMARGIN_BEGIN
 40
1.5
 40
1.5
 40
1.5
 40
1.5
 40
0.18
 40
0.18
309
CELLMARGIN_END
 94
        6
 95
        1
302
GRIDFORMAT
  1
GRIDFORMAT_BEGIN
 90
        0
 91
        1
 62
     0
 92
       -2
340
0
 93
        0
 40
0.045
309
GRIDFORMAT_END
 95
        2
302
GRIDFORMAT
  1
GRIDFORMAT_BEGIN
 90
        0
 91
        1
 62
     0
 92
       -2
340
0
 93
        0
 40
0.045
309
GRIDFORMAT_END
 95
        4
302
GRIDFORMAT
  1
GRIDFORMAT_BEGIN
 90
        0
 91
        1
 62
     0
 92
       -2
340
0
 93
        0
 40
0.045
309
GRIDFORMAT_END
 95
        8
302
GRIDFORMAT
  1
GRIDFORMAT_BEGIN
 90
        0
 91
        1
 62
     0
 92
       -2
340
0
 93
        0
 40
0.045
309
GRIDFORMAT_END
 95
       16
302
GRIDFORMAT
  1
GRIDFORMAT_BEGIN
 90
        0
 91
        1
 62
     0
 92
       -2
340
0
 93
        0
 40
0.045
309
GRIDFORMAT_END
 95
       32
302
GRIDFORMAT
  1
GRIDFORMAT_BEGIN
 90
        0
 91
        1
 62
     0
 92
       -2
340
0
 93
        0
 40
0.045
309
GRIDFORMAT_END
309
TABLEFORMAT_END
  1
CELLSTYLE_BEGIN
 90
        1
 91
        1
300
_TITLE
309
CELLSTYLE_END
300
CELLSTYLE
  1
TABLEFORMAT_BEGIN
 90
        5
170
     1
 91
        0
 92
        0
 62
   257
 93
        1
300
CONTENTFORMAT
  1
CONTENTFORMAT_BEGIN
 90
        0
 91
        0
 92
      512
 93
        0
300

 40
0.0
140
1.0
 94
        5
 62
     0
340
11
144
4.5
309
CONTENTFORMAT_END
171
     1
301
MARGIN
  1
CELLMARGIN_BEGIN
 40
1.5
 40
1.5
 40
1.5
 40
1.5
 40
0.18
 40
0.18
309
CELLMARGIN_END
 94
        6
 95
        1
302
GRIDFORMAT
  1
GRIDFORMAT_BEGIN
 90
        0
 91
        1
 62
     0
 92
       -2
340
0
 93
        0
 40
0.045
309
GRIDFORMAT_END
 95
        2
302
GRIDFORMAT
  1
GRIDFORMAT_BEGIN
 90
        0
 91
        1
 62
     0
 92
       -2
340
0
 93
        0
 40
0.045
309
GRIDFORMAT_END
 95
        4
302
GRIDFORMAT
  1
GRIDFORMAT_BEGIN
 90
        0
 91
        1
 62
     0
 92
       -2
340
0
 93
        0
 40
0.045
309
GRIDFORMAT_END
 95
        8
302
GRIDFORMAT
  1
GRIDFORMAT_BEGIN
 90
        0
 91
        1
 62
     0
 92
       -2
340
0
 93
        0
 40
0.045
309
GRIDFORMAT_END
 95
       16
302
GRIDFORMAT
  1
GRIDFORMAT_BEGIN
 90
        0
 91
        1
 62
     0
 92
       -2
340
0
 93
        0
 40
0.045
309
GRIDFORMAT_END
 95
       32
302
GRIDFORMAT
  1
GRIDFORMAT_BEGIN
 90
        0
 91
        1
 62
     0
 92
       -2
340
0
 93
        0
 40
0.045
309
GRIDFORMAT_END
309
TABLEFORMAT_END
  1
CELLSTYLE_BEGIN
 90
        2
 91
        1
300
_HEADER
309
CELLSTYLE_END
300
CELLSTYLE
  1
TABLEFORMAT_BEGIN
 90
        5
170
     1
 91
        0
 92
        0
 62
   257
 93
        1
300
CONTENTFORMAT
  1
CONTENTFORMAT_BEGIN
 90
        0
 91
        0
 92
      512
 93
        0
300

 40
0.0
140
1.0
 94
        2
 62
     0
340
11
144
4.5
309
CONTENTFORMAT_END
171
     1
301
MARGIN
  1
CELLMARGIN_BEGIN
 40
1.5
 40
1.5
 40
1.5
 40
1.5
 40
0.18
 40
0.18
309
CELLMARGIN_END
 94
        6
 95
        1
302
GRIDFORMAT
  1
GRIDFORMAT_BEGIN
 90
        0
 91
        1
 62
     0
 92
       -2
340
0
 93
        0
 40
0.045
309
GRIDFORMAT_END
 95
        2
302
GRIDFORMAT
  1
GRIDFORMAT_BEGIN
 90
        0
 91
        1
 62
     0
 92
       -2
340
0
 93
        0
 40
0.045
309
GRIDFORMAT_END
 95
        4
302
GRIDFORMAT
  1
GRIDFORMAT_BEGIN
 90
        0
 91
        1
 62
     0
 92
       -2
340
0
 93
        0
 40
0.045
309
GRIDFORMAT_END
 95
        8
302
GRIDFORMAT
  1
GRIDFORMAT_BEGIN
 90
        0
 91
        1
 62
     0
 92
       -2
340
0
 93
        0
 40
0.045
309
GRIDFORMAT_END
 95
       16
302
GRIDFORMAT
  1
GRIDFORMAT_BEGIN
 90
        0
 91
        1
 62
     0
 92
       -2
340
0
 93
        0
 40
0.045
309
GRIDFORMAT_END
 95
       32
302
GRIDFORMAT
  1
GRIDFORMAT_BEGIN
 90
        0
 91
        1
 62
     0
 92
       -2
340
0
 93
        0
 40
0.045
309
GRIDFORMAT_END
309
TABLEFORMAT_END
  1
CELLSTYLE_BEGIN
 90
        3
 91
        2
300
_DATA
309
CELLSTYLE_END
  0
ENDSEC
  0
EOF
