  0
SECTION
  2
HEADER
  9
$ACADVER
  1
AC1021
  9
$ACADMAINTVER
 70
    26
  9
$DWGCODEPAGE
  3
ANSI_932
  9
$LASTSAVEDBY
  1
Htm_Terada
  9
$CUSTOMPROPERTYTAG
  1
AmdtFileType
  9
$CUSTOMPROPERTY
  1
84
  9
$INSBASE
 10
0.0
 20
0.0
 30
0.0
  9
$EXTMIN
 10
355.7691708941793
 20
443.8147016938483
 30
-0.0015258207003583
  9
$EXTMAX
 10
1155.733158623184
 20
1166.715091204638
 30
0.0000000349246037
  9
$LIMMIN
 10
-0.0000002271699202
 20
0.0
  9
$LIMMAX
 10
2376.00000068151
 20
1680.0
  9
$ORTHOMODE
 70
     0
  9
$REGENMODE
 70
     1
  9
$FILLMODE
 70
     1
  9
$QTEXTMODE
 70
     0
  9
$MIRRTEXT
 70
     1
  9
$LTSCALE
 40
4.0
  9
$ATTMODE
 70
     1
  9
$TEXTSIZE
 40
25.0
  9
$TRACEWID
 40
1.0
  9
$TEXTSTYLE
  7
SEISA
  9
$CLAYER
  8
AM_0 外形線1
  9
$CELTYPE
  6
ByLayer
  9
$CECOLOR
 62
   256
  9
$CELTSCALE
 40
1.0
  9
$DISPSILH
 70
     0
  9
$DIMSCALE
 40
4.0
  9
$DIMASZ
 40
2.5
  9
$DIMEXO
 40
0.625
  9
$DIMDLI
 40
10.0
  9
$DIMRND
 40
0.0
  9
$DIMDLE
 40
0.0
  9
$DIMEXE
 40
0.625
  9
$DIMTP
 40
0.1
  9
$DIMTM
 40
0.1
  9
$DIMTXT
 40
3.5
  9
$DIMCEN
 40
0.0
  9
$DIMTSZ
 40
0.0
  9
$DIMTOL
 70
     0
  9
$DIMLIM
 70
     0
  9
$DIMTIH
 70
     0
  9
$DIMTOH
 70
     0
  9
$DIMSE1
 70
     0
  9
$DIMSE2
 70
     0
  9
$DIMTAD
 70
     3
  9
$DIMZIN
 70
     8
  9
$DIMBLK
  1
Open30
  9
$DIMASO
 70
     1
  9
$DIMSHO
 70
     1
  9
$DIMPOST
  1

  9
$DIMAPOST
  1
"
  9
$DIMALT
 70
     0
  9
$DIMALTD
 70
     2
  9
$DIMALTF
 40
0.0393701
  9
$DIMLFAC
 40
1.0
  9
$DIMTOFL
 70
     1
  9
$DIMTVP
 40
0.0
  9
$DIMTIX
 70
     0
  9
$DIMSOXD
 70
     0
  9
$DIMSAH
 70
     0
  9
$DIMBLK1
  1

  9
$DIMBLK2
  1

  9
$DIMSTYLE
  2
SEISA
  9
$DIMCLRD
 70
     3
  9
$DIMCLRE
 70
     3
  9
$DIMCLRT
 70
     3
  9
$DIMTFAC
 40
0.71
  9
$DIMGAP
 40
1.5
  9
$DIMJUST
 70
     0
  9
$DIMSD1
 70
     0
  9
$DIMSD2
 70
     0
  9
$DIMTOLJ
 70
     0
  9
$DIMTZIN
 70
     0
  9
$DIMALTZ
 70
     0
  9
$DIMALTTZ
 70
     8
  9
$DIMUPT
 70
     0
  9
$DIMDEC
 70
     2
  9
$DIMTDEC
 70
     2
  9
$DIMALTU
 70
     2
  9
$DIMALTTD
 70
     2
  9
$DIMTXSTY
  7
SEISA
  9
$DIMAUNIT
 70
     0
  9
$DIMADEC
 70
     0
  9
$DIMALTRND
 40
0.0
  9
$DIMAZIN
 70
     2
  9
$DIMDSEP
 70
    46
  9
$DIMATFIT
 70
     3
  9
$DIMFRAC
 70
     0
  9
$DIMLDRBLK
  1
Open30
  9
$DIMLUNIT
 70
     2
  9
$DIMLWD
 70
    -1
  9
$DIMLWE
 70
    -1
  9
$DIMTMOVE
 70
     0
  9
$DIMFXL
 40
1.0
  9
$DIMFXLON
 70
     0
  9
$DIMJOGANG
 40
0.7853981633974483
  9
$DIMTFILL
 70
     0
  9
$DIMTFILLCLR
 70
     0
  9
$DIMARCSYM
 70
     1
  9
$DIMLTYPE
  6

  9
$DIMLTEX1
  6

  9
$DIMLTEX2
  6

  9
$LUNITS
 70
     2
  9
$LUPREC
 70
     2
  9
$SKETCHINC
 40
1.0
  9
$FILLETRAD
 40
10.0
  9
$AUNITS
 70
     0
  9
$AUPREC
 70
     0
  9
$MENU
  1
.
  9
$ELEVATION
 40
0.0
  9
$PELEVATION
 40
0.0
  9
$THICKNESS
 40
0.0
  9
$LIMCHECK
 70
     0
  9
$CHAMFERA
 40
10.0
  9
$CHAMFERB
 40
10.0
  9
$CHAMFERC
 40
20.0
  9
$CHAMFERD
 40
0.0
  9
$SKPOLY
 70
     0
  9
$TDCREATE
 40
2454970.521357153
  9
$TDUCREATE
 40
2454970.146357152
  9
$TDUPDATE
 40
2456478.643987987
  9
$TDUUPDATE
 40
2456478.268987986
  9
$TDINDWG
 40
0.6252621296
  9
$TDUSRTIMER
 40
0.6252612384
  9
$USRTIMER
 70
     1
  9
$ANGBASE
 50
0.0
  9
$ANGDIR
 70
     0
  9
$PDMODE
 70
     0
  9
$PDSIZE
 40
0.0
  9
$PLINEWID
 40
0.0
  9
$SPLFRAME
 70
     0
  9
$SPLINETYPE
 70
     6
  9
$SPLINESEGS
 70
     8
  9
$HANDSEED
  5
F7E1
  9
$SURFTAB1
 70
     6
  9
$SURFTAB2
 70
     6
  9
$SURFTYPE
 70
     6
  9
$SURFU
 70
     6
  9
$SURFV
 70
     6
  9
$UCSBASE
  2

  9
$UCSNAME
  2

  9
$UCSORG
 10
0.0
 20
0.0
 30
0.0
  9
$UCSXDIR
 10
1.0
 20
0.0
 30
0.0
  9
$UCSYDIR
 10
0.0
 20
1.0
 30
0.0
  9
$UCSORTHOREF
  2

  9
$UCSORTHOVIEW
 70
     0
  9
$UCSORGTOP
 10
0.0
 20
0.0
 30
0.0
  9
$UCSORGBOTTOM
 10
0.0
 20
0.0
 30
0.0
  9
$UCSORGLEFT
 10
0.0
 20
0.0
 30
0.0
  9
$UCSORGRIGHT
 10
0.0
 20
0.0
 30
0.0
  9
$UCSORGFRONT
 10
0.0
 20
0.0
 30
0.0
  9
$UCSORGBACK
 10
0.0
 20
0.0
 30
0.0
  9
$PUCSBASE
  2

  9
$PUCSNAME
  2

  9
$PUCSORG
 10
0.0
 20
0.0
 30
0.0
  9
$PUCSXDIR
 10
1.0
 20
0.0
 30
0.0
  9
$PUCSYDIR
 10
0.0
 20
1.0
 30
0.0
  9
$PUCSORTHOREF
  2

  9
$PUCSORTHOVIEW
 70
     0
  9
$PUCSORGTOP
 10
0.0
 20
0.0
 30
0.0
  9
$PUCSORGBOTTOM
 10
0.0
 20
0.0
 30
0.0
  9
$PUCSORGLEFT
 10
0.0
 20
0.0
 30
0.0
  9
$PUCSORGRIGHT
 10
0.0
 20
0.0
 30
0.0
  9
$PUCSORGFRONT
 10
0.0
 20
0.0
 30
0.0
  9
$PUCSORGBACK
 10
0.0
 20
0.0
 30
0.0
  9
$USERI1
 70
     0
  9
$USERI2
 70
     0
  9
$USERI3
 70
     0
  9
$USERI4
 70
     0
  9
$USERI5
 70
     0
  9
$USERR1
 40
0.0
  9
$USERR2
 40
0.0
  9
$USERR3
 40
0.0
  9
$USERR4
 40
0.0
  9
$USERR5
 40
0.0
  9
$WORLDVIEW
 70
     1
  9
$SHADEDGE
 70
     3
  9
$SHADEDIF
 70
    70
  9
$TILEMODE
 70
     1
  9
$MAXACTVP
 70
    64
  9
$PINSBASE
 10
0.0
 20
0.0
 30
0.0
  9
$PLIMCHECK
 70
     0
  9
$PEXTMIN
 10
1.000000000000000E+20
 20
1.000000000000000E+20
 30
1.000000000000000E+20
  9
$PEXTMAX
 10
-1.000000000000000E+20
 20
-1.000000000000000E+20
 30
-1.000000000000000E+20
  9
$PLIMMIN
 10
0.0
 20
0.0
  9
$PLIMMAX
 10
420.0
 20
297.0
  9
$UNITMODE
 70
     0
  9
$VISRETAIN
 70
     1
  9
$PLINEGEN
 70
     0
  9
$PSLTSCALE
 70
     1
  9
$TREEDEPTH
 70
  3020
  9
$CMLSTYLE
  2
Standard
  9
$CMLJUST
 70
     0
  9
$CMLSCALE
 40
20.0
  9
$PROXYGRAPHICS
 70
     1
  9
$MEASUREMENT
 70
     1
  9
$CELWEIGHT
370
    -1
  9
$ENDCAPS
280
     0
  9
$JOINSTYLE
280
     0
  9
$LWDISPLAY
290
     0
  9
$INSUNITS
 70
     4
  9
$HYPERLINKBASE
  1

  9
$STYLESHEET
  1
SEISA.CTB
  9
$XEDIT
290
     1
  9
$CEPSNTYPE
380
     0
  9
$PSTYLEMODE
290
     1
  9
$FINGERPRINTGUID
  2
{E9740A64-ABD4-4C83-A944-A2624D254DFA}
  9
$VERSIONGUID
  2
{956DD3BF-84C3-4D7C-8F7E-90FD9D22B8A0}
  9
$EXTNAMES
290
     1
  9
$PSVPSCALE
 40
0.0
  9
$OLESTARTUP
290
     0
  9
$SORTENTS
280
   127
  9
$INDEXCTL
280
     0
  9
$HIDETEXT
280
     0
  9
$XCLIPFRAME
290
     0
  9
$HALOGAP
280
     0
  9
$OBSCOLOR
 70
   257
  9
$OBSLTYPE
280
     0
  9
$INTERSECTIONDISPLAY
280
     0
  9
$INTERSECTIONCOLOR
 70
   257
  9
$DIMASSOC
280
     2
  9
$PROJECTNAME
  1

  9
$CAMERADISPLAY
290
     0
  9
$LENSLENGTH
 40
50.0
  9
$CAMERAHEIGHT
 40
0.0
  9
$STEPSPERSEC
 40
2.0
  9
$STEPSIZE
 40
6.0
  9
$3DDWFPREC
 40
2.0
  9
$PSOLWIDTH
 40
0.25
  9
$PSOLHEIGHT
 40
4.0
  9
$LOFTANG1
 40
1.570796326794896
  9
$LOFTANG2
 40
1.570796326794896
  9
$LOFTMAG1
 40
0.0
  9
$LOFTMAG2
 40
0.0
  9
$LOFTPARAM
 70
     7
  9
$LOFTNORMALS
280
     1
  9
$LATITUDE
 40
37.795
  9
$LONGITUDE
 40
-122.394
  9
$NORTHDIRECTION
 40
0.0
  9
$TIMEZONE
 70
 -8000
  9
$LIGHTGLYPHDISPLAY
280
     1
  9
$TILEMODELIGHTSYNCH
280
     1
  9
$CMATERIAL
347
27C
  9
$SOLIDHIST
280
     1
  9
$SHOWHIST
280
     1
  9
$DWFFRAME
280
     2
  9
$DGNFRAME
280
     0
  9
$REALWORLDSCALE
290
     1
  9
$INTERFERECOLOR
 62
     1
  9
$INTERFEREOBJVS
345
289
  9
$INTERFEREVPVS
346
286
  9
$CSHADOW
280
     0
  9
$SHADOWPLANELOCATION
 40
0.0
  0
ENDSEC
  0
SECTION
  2
CLASSES
  0
CLASS
  1
ACDBDICTIONARYWDFLT
  2
AcDbDictionaryWithDefault
  3
ObjectDBX Classes
 90
        0
 91
        1
280
     0
281
     0
  0
CLASS
  1
AMGSETTINGSOBJ
  2
AmgSettingsObj
  3
"AcadM|Product Description: AutoCAD Mechanical|Company: Autodesk, Inc."
 90
     1024
 91
        2
280
     0
281
     0
  0
CLASS
  1
ACME_DOCUMENT
  2
AcMeDbDoc
  3
AcMeServices
 90
     1024
 91
        1
280
     0
281
     0
  0
CLASS
  1
ACMESCOPE
  2
AcMeScope
  3
AcMeServices
 90
     1024
 91
        1
280
     0
281
     0
  0
CLASS
  1
ACMECOMMANDHISTORY
  2
AcMeCommandHistory
  3
AcMeServices
 90
     1024
 91
        1
280
     0
281
     0
  0
CLASS
  1
DICTIONARYVAR
  2
AcDbDictionaryVar
  3
ObjectDBX Classes
 90
        0
 91
        9
280
     0
281
     0
  0
CLASS
  1
ACIMSYSVARMAN
  2
AcImSysVarManager
  3
AcMeServices
 90
     1024
 91
        5
280
     0
281
     0
  0
CLASS
  1
ACIMREALSYSVAR
  2
AcImRealSysVar
  3
AcMeServices
 90
     1024
 91
        1
280
     0
281
     0
  0
CLASS
  1
ACIMINTSYSVAR
  2
AcImIntSysVar
  3
AcMeServices
 90
     1024
 91
       27
280
     0
281
     0
  0
CLASS
  1
ACMEDRAWINGMAN
  2
AcMeDrawingMan
  3
AcMeServices
 90
     1024
 91
        1
280
     0
281
     0
  0
CLASS
  1
ACMEVIEW
  2
AcMeView
  3
AcMeServices
 90
     1024
 91
        1
280
     0
281
     0
  0
CLASS
  1
ACDBENTITYCACHE
  2
AcMeEntityCache
  3
AcMeServices
 90
     1024
 91
        1
280
     0
281
     0
  0
CLASS
  1
GSMANAGER
  2
AcMeGSManager
  3
AcMeServices
 90
     1024
 91
        1
280
     0
281
     0
  0
CLASS
  1
AMDTINTERNALREACTOR
  2
AmdtInternalReactor
  3
AcMeServices
 90
     1024
 91
        2
280
     0
281
     0
  0
CLASS
  1
ACMESTATEMGR
  2
AcMeStateMgr
  3
AcMeServices
 90
     1024
 91
        1
280
     0
281
     0
  0
CLASS
  1
ACGREFMASTER
  2
AcGrefMaster
  3
AcAttribServices
 90
     1024
 91
        1
280
     0
281
     0
  0
CLASS
  1
ACME_DATABASE
  2
AcMeDbDatabase
  3
AcMeServices
 90
     1024
 91
        1
280
     0
281
     0
  0
CLASS
  1
ACRFINSADJUSTERMGR
  2
AcRfInsAdjusterMgr
  3
AcMeServices
 90
     1024
 91
        1
280
     0
281
     0
  0
CLASS
  1
ACGREFACADMASTER
  2
AcGrefacadMaster
  3
AcGrefServices
 90
     1024
 91
        1
280
     0
281
     0
  0
CLASS
  1
AMIMASTER
  2
AmiMaster
  3
AmiServices
 90
     1024
 91
        1
280
     0
281
     0
  0
CLASS
  1
ACIMSTRSYSVAR
  2
AcImStrSysVar
  3
AcMeServices
 90
     1024
 91
        5
280
     0
281
     0
  0
CLASS
  1
ACMSTANDARDJIS
  2
AcmStandardJIS
  3
"Amdt_StdImp|Product Description: AutoCAD Mechanical|Company: Autodesk, Inc."
 90
     1024
 91
        0
280
     0
281
     0
  0
CLASS
  1
AMGOBJPROPCFG
  2
AmgObjPropCfg
  3
"AmgLay|Product Description: AutoCAD Mechanical|Company: Autodesk, Inc."
 90
     1025
 91
        1
280
     0
281
     0
  0
CLASS
  1
ACMSURFSTANDARDJIS
  2
AcmSurfTextStdJIS
  3
"Amdt_StdImp|Product Description: AutoCAD Mechanical|Company: Autodesk, Inc."
 90
     1024
 91
        0
280
     0
281
     0
  0
CLASS
  1
ACMFCFSTANDARDJIS
  2
AcmFCFStdJIS
  3
"Amdt_StdImp|Product Description: AutoCAD Mechanical|Company: Autodesk, Inc."
 90
     1024
 91
        0
280
     0
281
     0
  0
CLASS
  1
ACMWELDSTANDARDJIS
  2
AcmWeldingStdJIS
  3
"Amdt_StdImp|Product Description: AutoCAD Mechanical|Company: Autodesk, Inc."
 90
     1024
 91
        0
280
     0
281
     0
  0
CLASS
  1
ACMIDSTANDARDJIS
  2
AcmIdStdJIS
  3
"Amdt_StdImp|Product Description: AutoCAD Mechanical|Company: Autodesk, Inc."
 90
     1024
 91
        0
280
     0
281
     0
  0
CLASS
  1
ACMDATUMSTANDARDJIS
  2
AcmDatumStdJIS
  3
"Amdt_StdImp|Product Description: AutoCAD Mechanical|Company: Autodesk, Inc."
 90
     1024
 91
        0
280
     0
281
     0
  0
CLASS
  1
ACMBOMSTANDARDJIS
  2
AcmBOMStdJIS
  3
"Amdt_StdImp|Product Description: AutoCAD Mechanical|Company: Autodesk, Inc."
 90
     1024
 91
        0
280
     0
281
     0
  0
CLASS
  1
ACMDETAILSTANDARDJIS
  2
AmdtDetailSymStdJIS
  3
"Amdt_StdImp|Product Description: AutoCAD Mechanical|Company: Autodesk, Inc."
 90
     1024
 91
        0
280
     0
281
     0
  0
CLASS
  1
ACMSECTIONSTANDARDJIS
  2
AmdtSectionSymStdJIS
  3
"Amdt_StdImp|Product Description: AutoCAD Mechanical|Company: Autodesk, Inc."
 90
     1024
 91
        0
280
     0
281
     0
  0
CLASS
  1
ACMCENTERLINESTANDARDJIS
  2
AmdtCenterLineStdJIS
  3
"Amdt_StdImp|Product Description: AutoCAD Mechanical|Company: Autodesk, Inc."
 90
     1024
 91
        0
280
     0
281
     0
  0
CLASS
  1
ACMTHREADLINESTANDARDJIS
  2
AmdtThreadLineStdJIS
  3
"Amdt_StdImp|Product Description: AutoCAD Mechanical|Company: Autodesk, Inc."
 90
     1024
 91
        0
280
     0
281
     0
  0
CLASS
  1
ACAMGLAYSTD
  2
AcAmgLayStd
  3
"AmgLay|Product Description: AutoCAD Mechanical|Company: Autodesk, Inc."
 90
     1024
 91
        1
280
     0
281
     0
  0
CLASS
  1
ACAMGDIMSTD
  2
AcAmgDimStd
  3
"AmgDim|Product Description: AutoCAD Mechanical|Company: Autodesk, Inc."
 90
     1024
 91
        1
280
     0
281
     0
  0
CLASS
  1
ACAMGTITLESTD
  2
AcAmgTitleStd
  3
"AmgTitle|Product Description: AutoCAD Mechanical|Company: Autodesk, Inc."
 90
     4095
 91
        1
280
     0
281
     0
  0
CLASS
  1
ACMDATADICTIONARY
  2
AcmDataDictionary
  3
"AcmSymBB|Product Description: AutoCAD Mechanical|Company: Autodesk, Inc."
 90
     1024
 91
        1
280
     0
281
     0
  0
CLASS
  1
ACMDATAENTRYBLOCK
  2
AcmDataEntryBlock
  3
AcmSymBB|Product Description: AutoCAD Mechanical|Company: Autodesk, Inc.
 90
     1024
 91
        0
280
     0
281
     0
  0
CLASS
  1
LAYER_INDEX
  2
AcDbLayerIndex
  3
ObjectDBX Classes
 90
        0
 91
        0
280
     0
281
     0
  0
CLASS
  1
IDBUFFER
  2
AcDbIdBuffer
  3
ObjectDBX Classes
 90
        0
 91
        0
280
     0
281
     0
  0
CLASS
  1
ACMNOTESTANDARDJIS
  2
AmdtNoteStdJIS
  3
"Amdt_StdImp|Product Description: AutoCAD Mechanical|Company: Autodesk, Inc."
 90
     1024
 91
        0
280
     0
281
     0
  0
CLASS
  1
ACAMGHOLECHARTSTDJIS
  2
AcAmgHoleChartStdJIS
  3
AmgDim|Product Description: AutoCAD Mechanical|Company: Autodesk, Inc.
 90
     1024
 91
        0
280
     0
281
     0
  0
CLASS
  1
AM_DRAWING_MGR
  2
AcDmDwgMgr
  3
AcMechDwgViewMgmt
 90
     1024
 91
        1
280
     0
281
     0
  0
CLASS
  1
AM_DWG_DOCUMENT
  2
AcDmDwgDocument
  3
AcMechDwgViewMgmt
 90
     1024
 91
        1
280
     0
281
     0
  0
CLASS
  1
AM_DWG_SHEET
  2
AcDmSheet
  3
AcMechDwgViewMgmt
 90
     1024
 91
        2
280
     0
281
     0
  0
CLASS
  1
AM_VIEWDIMPARMAP
  2
AcDmViewDimParMap
  3
AcMechDwgViewMgmt
 90
     1024
 91
        2
280
     0
281
     0
  0
CLASS
  1
AM_DWGMGR_NAME
  2
AcDmDwgMgrName
  3
AcMechDwgViewMgmt
 90
     1024
 91
        1
280
     0
281
     0
  0
CLASS
  1
AMDTMENUSTATEMGR
  2
AmdtMenuStateMgr
  3
McadcomServices
 90
     1024
 91
        1
280
     0
281
     0
  0
CLASS
  1
AMDTMCOMMENUSTATE
  2
AmdtMcomMenuState
  3
McadcomServices
 90
     1024
 91
        1
280
     0
281
     0
  0
CLASS
  1
MAPIAMMOUDLE
  2
MApiAmModule
  3
MApiAmServices
 90
     1024
 91
        1
280
     0
281
     0
  0
CLASS
  1
AMDTADMENUSTATE
  2
AmdtAdMenuState
  3
DesignerServices
 90
     1024
 91
        1
280
     0
281
     0
  0
CLASS
  1
ADAPPL
  2
AcAdAppl
  3
DesignerServices
 90
     1024
 91
        1
280
     0
281
     0
  0
CLASS
  1
DEPMGR
  2
AcAdDepMgr
  3
DesignerServices
 90
     1024
 91
        1
280
     0
281
     0
  0
CLASS
  1
PARAMMGR
  2
AcAdParamMgr
  3
DesignerServices
 90
     1024
 91
        1
280
     0
281
     0
  0
CLASS
  1
PARAMSCOPE
  2
AcAdParamScope
  3
DesignerServices
 90
     1024
 91
        1
280
     0
281
     0
  0
CLASS
  1
NAMEDAPPL
  2
AcAdNamedAppl
  3
DesignerServices
 90
     1024
 91
        1
280
     0
281
     0
  0
CLASS
  1
AMDTDMMENUSTATE
  2
AmdtDmMenuState
  3
AcMechDwgViewMgmt
 90
     1024
 91
        1
280
     0
281
     0
  0
CLASS
  1
AMDTAMMENUSTATE
  2
AmdtAmMenuState
  3
DesignerAssemblies
 90
     1024
 91
        1
280
     0
281
     0
  0
CLASS
  1
ACAMPROJECT
  2
AcAmProject
  3
DesignerAssemblies
 90
     1024
 91
        1
280
     0
281
     0
  0
CLASS
  1
ACAMGRCOMPDEF
  2
AcAmGrCompDef
  3
DesignerAssemblies
 90
     1024
 91
        1
280
     0
281
     0
  0
CLASS
  1
ACCMCONTEXT
  2
AcCmContext
  3
DesignerAssemblies
 90
     1024
 91
        1
280
     0
281
     0
  0
CLASS
  1
ACAMCOMPDEF
  2
AcAmCompDef
  3
DesignerAssemblies
 90
     1024
 91
        1
280
     0
281
     0
  0
CLASS
  1
ACAMCOMPDEFMGR
  2
AcAmCompDefMgr
  3
DesignerAssemblies
 90
     1024
 91
        1
280
     0
281
     0
  0
CLASS
  1
AMCONTEXTMGR
  2
AcAmContextMgr
  3
DesignerAssemblies
 90
     1024
 91
        1
280
     0
281
     0
  0
CLASS
  1
ACAMCONTEXTMODELER
  2
AcAmContextModeler
  3
DesignerAssemblies
 90
     1024
 91
        1
280
     0
281
     0
  0
CLASS
  1
CATALOGSTATE
  2
AcAmCatalogState
  3
DesignerAssemblies
 90
     1024
 91
        1
280
     0
281
     0
  0
CLASS
  1
ACAMGRCOMPDEFSET
  2
AcAmGrCompDefSet
  3
DesignerAssemblies
 90
     1024
 91
        1
280
     0
281
     0
  0
CLASS
  1
AMDTBROWSERDBTAB
  2
AmdtBrowserDbTab
  3
McadcomServices
 90
     1024
 91
        1
280
     0
281
     0
  0
CLASS
  1
CBROWSERAPPOBJECT
  2
CBrowserAppObject
  3
McadcomServices
 90
     1024
 91
        3
280
     0
281
     0
  0
CLASS
  1
DM_PLACEHOLDER
  2
AcDmSelsetPlaceholder
  3
AcMechDwgViewMgmt
 90
     1024
 91
        1
280
     0
281
     0
  0
CLASS
  1
TABLESTYLE
  2
AcDbTableStyle
  3
ObjectDBX Classes
 90
     4095
 91
        1
280
     0
281
     0
  0
CLASS
  1
VAACXREFPANELOBJECT
  2
VaAcXREFPanelObject
  3
VAAC_ADDIN
 90
        0
 91
        0
280
     0
281
     0
  0
CLASS
  1
VAACIMAGEINVENTORY
  2
VaAcImageInventory
  3
VAAC_ADDIN
 90
        0
 91
        0
280
     0
281
     0
  0
CLASS
  1
AMDTNOTETEMPLATEDB
  2
AmdtNoteTemplateDB
  3
AcmSymBB|Product Description: AutoCAD Mechanical|Company: Autodesk, Inc.
 90
     1024
 91
        6
280
     0
281
     0
  0
CLASS
  1
ACAMGFILTERDAT
  2
AcAmgFilterDat
  3
"AcadM|Product Description: AutoCAD Mechanical|Company: Autodesk, Inc."
 90
     1024
 91
        0
280
     0
281
     0
  0
CLASS
  1
MATERIAL
  2
AcDbMaterial
  3
ObjectDBX Classes
 90
     1153
 91
        3
280
     0
281
     0
  0
CLASS
  1
VISUALSTYLE
  2
AcDbVisualStyle
  3
ObjectDBX Classes
 90
     4095
 91
       16
280
     0
281
     0
  0
CLASS
  1
ACRFATTGENMGR
  2
AcRfAttGeneralMgr
  3
AcAttribServices
 90
     1024
 91
        0
280
     0
281
     0
  0
CLASS
  1
ACRFOBJATTMGR
  2
AcRfObjAttGroupMgr
  3
AcAttribServices
 90
     1024
 91
        0
280
     0
281
     0
  0
CLASS
  1
ACRFMCADAPIATTHOLDER
  2
AcRfMCADAPIAttHolder
  3
AcAttribServices
 90
     1024
 91
        0
280
     0
281
     0
  0
CLASS
  1
AMDTSYSATTR
  2
AmdtSystemAttribute
  3
AcAttribServices
 90
     1024
 91
        0
280
     0
281
     0
  0
CLASS
  1
ACMTAPERSTANDARDJIS
  2
AcmTaperStdJIS
  3
"Amdt_StdImp|Product Description: AutoCAD Mechanical|Company: Autodesk, Inc."
 90
     1024
 91
        0
280
     0
281
     0
  0
CLASS
  1
CAMSSTRUCTBTNSTATE
  2
StructBtnState
  3
DesignerAssemblies
 90
     1024
 91
        0
280
     0
281
     0
  0
CLASS
  1
SCALE
  2
AcDbScale
  3
ObjectDBX Classes
 90
     1153
 91
       34
280
     0
281
     0
  0
CLASS
  1
MLEADERSTYLE
  2
AcDbMLeaderStyle
  3
ACDB_MLEADERSTYLE_CLASS
 90
     4095
 91
        1
280
     0
281
     0
  0
CLASS
  1
ACMANOOTATIONVIEWSTANDARDJIS
  2
AmdtAnViewStdJIS
  3
"Amdt_StdImp|Product Description: AutoCAD Mechanical|Company: Autodesk, Inc."
 90
     1024
 91
        0
280
     0
281
     0
  0
CLASS
  1
ACMSURFSTANDARDJIS2003
  2
AcmSurfTextStdJIS2003
  3
"Amdt_StdImp|Product Description: AutoCAD Mechanical|Company: Autodesk, Inc."
 90
     1024
 91
        0
280
     0
281
     0
  0
CLASS
  1
CELLSTYLEMAP
  2
AcDbCellStyleMap
  3
ObjectDBX Classes
 90
     1152
 91
        2
280
     0
281
     0
  0
CLASS
  1
ACMFCFSTANDARDJIS98
  2
AcmFCFStdJIS98
  3
"Amdt_StdImp|Product Description: AutoCAD Mechanical|Company: Autodesk, Inc."
 90
     1024
 91
        0
280
     0
281
     0
  0
CLASS
  1
SORTENTSTABLE
  2
AcDbSortentsTable
  3
ObjectDBX Classes
 90
        0
 91
       18
280
     0
281
     0
  0
CLASS
  1
DIMASSOC
  2
AcDbDimAssoc
  3
"AcDbDimAssoc|Product Desc:     AcDim ARX App For Dimension|Company:          Autodesk, Inc.|WEB Address:      www.autodesk.com"
 90
        0
 91
       14
280
     0
281
     0
  0
CLASS
  1
STDPART2D
  2
AmgStdPart
  3
AmgStdPart|Product Description: AutoCAD Mechanical|Company: Autodesk, Inc.
 90
     4095
 91
        0
280
     0
281
     1
  0
CLASS
  1
ACMDATAENTRYPART
  2
AcmDataEntryPart
  3
AcmSymBB|Product Description: AutoCAD Mechanical|Company: Autodesk, Inc.
 90
     1024
 91
        0
280
     0
281
     0
  0
CLASS
  1
ACMPARTREF
  2
AcmPartRef
  3
"AcmSymBB|Product Description: AutoCAD Mechanical|Company: Autodesk, Inc."
 90
     4095
 91
        0
280
     0
281
     1
  0
CLASS
  1
ACDBSTDPARTRES_LINE
  2
AcDbStdPartRes_Line
  3
AmgStdPart|Product Description: AutoCAD Mechanical|Company: Autodesk, Inc.
 90
     1024
 91
        0
280
     0
281
     0
  0
CLASS
  1
ACMBOM
  2
AcmBom
  3
"AcmSymBB|Product Description: AutoCAD Mechanical|Company: Autodesk, Inc."
 90
     1024
 91
        0
280
     0
281
     0
  0
CLASS
  1
AMDTFORMULAUPDATEDISPATCHER
  2
AmdtFormulaUpdateDispatcher
  3
AcMeServices
 90
     1024
 91
        0
280
     0
281
     0
  0
CLASS
  1
ACMBOMROW
  2
AcmBomRow
  3
"AcmSymBB|Product Description: AutoCAD Mechanical|Company: Autodesk, Inc."
 90
     1024
 91
        0
280
     0
281
     0
  0
CLASS
  1
ACMPARTLIST
  2
AcmPartList
  3
"AcmSymBB|Product Description: AutoCAD Mechanical|Company: Autodesk, Inc."
 90
     4095
 91
        0
280
     0
281
     1
  0
CLASS
  1
ACDBLINERES
  2
AcDbLineRes
  3
AcGrefServices
 90
     1024
 91
        0
280
     0
281
     0
  0
CLASS
  1
ACRFINSADJ
  2
AcRfInsAdjuster
  3
AcMeServices
 90
     1024
 91
        0
280
     0
281
     0
  0
CLASS
  1
ACMSTANDARDISO
  2
AcmStandardISO
  3
"Amdt_StdImp|Product Description: AutoCAD Mechanical|Company: Autodesk, Inc."
 90
     1024
 91
        1
280
     0
281
     0
  0
CLASS
  1
AMDTEDGESTANDARDISO13715
  2
AmdtEdgeStdISO13715
  3
"Amdt_StdImp|Product Description: AutoCAD Mechanical|Company: Autodesk, Inc."
 90
     1024
 91
        1
280
     0
281
     0
  0
CLASS
  1
ACMSURFSTANDARDISO2002
  2
AcmSurfTextStdISO2002
  3
"Amdt_StdImp|Product Description: AutoCAD Mechanical|Company: Autodesk, Inc."
 90
     1024
 91
        1
280
     0
281
     0
  0
CLASS
  1
ACMFCFSTANDARDISO
  2
AcmFCFStdISO
  3
"Amdt_StdImp|Product Description: AutoCAD Mechanical|Company: Autodesk, Inc."
 90
     1024
 91
        1
280
     0
281
     0
  0
CLASS
  1
ACMWELDSTANDARDISO
  2
AcmWeldingStdISO
  3
"Amdt_StdImp|Product Description: AutoCAD Mechanical|Company: Autodesk, Inc."
 90
     1024
 91
        1
280
     0
281
     0
  0
CLASS
  1
ACMIDSTANDARDISO
  2
AcmIdStdISO
  3
"Amdt_StdImp|Product Description: AutoCAD Mechanical|Company: Autodesk, Inc."
 90
     1024
 91
        1
280
     0
281
     0
  0
CLASS
  1
ACMDATUMSTANDARDISO
  2
AcmDatumStdISO
  3
"Amdt_StdImp|Product Description: AutoCAD Mechanical|Company: Autodesk, Inc."
 90
     1024
 91
        1
280
     0
281
     0
  0
CLASS
  1
ACMBOMSTANDARDISO
  2
AcmBOMStdISO
  3
"Amdt_StdImp|Product Description: AutoCAD Mechanical|Company: Autodesk, Inc."
 90
     1024
 91
        1
280
     0
281
     0
  0
CLASS
  1
ACMDETAILSTANDARDISO
  2
AmdtDetailSymStdISO
  3
"Amdt_StdImp|Product Description: AutoCAD Mechanical|Company: Autodesk, Inc."
 90
     1024
 91
        1
280
     0
281
     0
  0
CLASS
  1
ACMSECTIONSTANDARDISO2001
  2
AmdtSectionSymStdISO2001
  3
"Amdt_StdImp|Product Description: AutoCAD Mechanical|Company: Autodesk, Inc."
 90
     1024
 91
        1
280
     0
281
     0
  0
CLASS
  1
ACMCENTERLINESTANDARDISO
  2
AmdtCenterLineStdISO
  3
"Amdt_StdImp|Product Description: AutoCAD Mechanical|Company: Autodesk, Inc."
 90
     1024
 91
        1
280
     0
281
     0
  0
CLASS
  1
ACMTHREADLINESTANDARDISO
  2
AmdtThreadLineStdISO
  3
"Amdt_StdImp|Product Description: AutoCAD Mechanical|Company: Autodesk, Inc."
 90
     1024
 91
        1
280
     0
281
     0
  0
CLASS
  1
ACMNOTESTANDARDISO
  2
AmdtNoteStdISO
  3
"Amdt_StdImp|Product Description: AutoCAD Mechanical|Company: Autodesk, Inc."
 90
     1024
 91
        1
280
     0
281
     0
  0
CLASS
  1
ACMTAPERSTANDARDISO
  2
AcmTaperStdISO
  3
"Amdt_StdImp|Product Description: AutoCAD Mechanical|Company: Autodesk, Inc."
 90
     1024
 91
        1
280
     0
281
     0
  0
CLASS
  1
ACMANOOTATIONVIEWSTANDARDISO
  2
AmdtAnViewStdISO
  3
"Amdt_StdImp|Product Description: AutoCAD Mechanical|Company: Autodesk, Inc."
 90
     1024
 91
        1
280
     0
281
     0
  0
CLASS
  1
ACAMGHOLECHARTSTDISO
  2
AcAmgHoleChartStdISO
  3
AmgDim|Product Description: AutoCAD Mechanical|Company: Autodesk, Inc.
 90
     1024
 91
        1
280
     0
281
     0
  0
CLASS
  1
EXACXREFPANELOBJECT
  2
ExAcXREFPanelObject
  3
EXAC_ESW
 90
     1025
 91
        0
280
     0
281
     0
  0
CLASS
  1
NPOCOLLECTION
  2
AcDbImpNonPersistentObjectsCollection
  3
ObjectDBX Classes
 90
     1153
 91
        0
280
     0
281
     0
  0
CLASS
  1
ACDBSTDPARTRES_ARC
  2
AcDbStdPartRes_Arc
  3
AmgStdPart|Product Description: AutoCAD Mechanical|Company: Autodesk, Inc.
 90
     1024
 91
        0
280
     0
281
     0
  0
CLASS
  1
AMDTNOTE
  2
AmdtNote
  3
"AcmSymBB|Product Description: AutoCAD Mechanical|Company: Autodesk, Inc."
 90
     4095
 91
        0
280
     0
281
     1
  0
CLASS
  1
PLOTSETTINGS
  2
AcDbPlotSettings
  3
ObjectDBX Classes
 90
        0
 91
        1
280
     0
281
     0
  0
CLASS
  1
ACMSTANDARDANSI
  2
AcmStandardANSI
  3
"Amdt_StdImp|Product Description: AutoCAD Mechanical|Company: Autodesk, Inc."
 90
     1024
 91
        0
280
     0
281
     0
  0
CLASS
  1
ACMSURFSTANDARDANSI
  2
AcmSurfTextStdANSI
  3
"Amdt_StdImp|Product Description: AutoCAD Mechanical|Company: Autodesk, Inc."
 90
     1024
 91
        0
280
     0
281
     0
  0
CLASS
  1
ACMFCFSTANDARDANSI
  2
AcmFCFStdANSI
  3
"Amdt_StdImp|Product Description: AutoCAD Mechanical|Company: Autodesk, Inc."
 90
     1024
 91
        0
280
     0
281
     0
  0
CLASS
  1
ACMWELDSTANDARDANSI
  2
AcmWeldingStdANSI
  3
"Amdt_StdImp|Product Description: AutoCAD Mechanical|Company: Autodesk, Inc."
 90
     1024
 91
        0
280
     0
281
     0
  0
CLASS
  1
ACMIDSTANDARDANSI
  2
AcmIdStdANSI
  3
"Amdt_StdImp|Product Description: AutoCAD Mechanical|Company: Autodesk, Inc."
 90
     1024
 91
        0
280
     0
281
     0
  0
CLASS
  1
ACMDATUMSTANDARDANSI
  2
AcmDatumStdANSI
  3
"Amdt_StdImp|Product Description: AutoCAD Mechanical|Company: Autodesk, Inc."
 90
     1024
 91
        0
280
     0
281
     0
  0
CLASS
  1
ACMBOMSTANDARDANSI
  2
AcmBOMStdANSI
  3
"Amdt_StdImp|Product Description: AutoCAD Mechanical|Company: Autodesk, Inc."
 90
     1024
 91
        0
280
     0
281
     0
  0
CLASS
  1
ACMDETAILSTANDARDANSI
  2
AmdtDetailSymStdANSI
  3
"Amdt_StdImp|Product Description: AutoCAD Mechanical|Company: Autodesk, Inc."
 90
     1024
 91
        0
280
     0
281
     0
  0
CLASS
  1
ACMSECTIONSTANDARDANSI
  2
AmdtSectionSymStdANSI
  3
"Amdt_StdImp|Product Description: AutoCAD Mechanical|Company: Autodesk, Inc."
 90
     1024
 91
        0
280
     0
281
     0
  0
CLASS
  1
ACMCENTERLINESTANDARDANSI
  2
AmdtCenterLineStdANSI
  3
"Amdt_StdImp|Product Description: AutoCAD Mechanical|Company: Autodesk, Inc."
 90
     1024
 91
        0
280
     0
281
     0
  0
CLASS
  1
ACMTHREADLINESTANDARDANSI
  2
AmdtThreadLineStdANSI
  3
"Amdt_StdImp|Product Description: AutoCAD Mechanical|Company: Autodesk, Inc."
 90
     1024
 91
        0
280
     0
281
     0
  0
CLASS
  1
ACMNOTESTANDARDANSI
  2
AmdtNoteStdANSI
  3
"Amdt_StdImp|Product Description: AutoCAD Mechanical|Company: Autodesk, Inc."
 90
     1024
 91
        0
280
     0
281
     0
  0
CLASS
  1
ACMTAPERSTANDARDANSI
  2
AcmTaperStdANSI
  3
"Amdt_StdImp|Product Description: AutoCAD Mechanical|Company: Autodesk, Inc."
 90
     1024
 91
        0
280
     0
281
     0
  0
CLASS
  1
ACMANOOTATIONVIEWSTANDARDANSI
  2
AmdtAnViewStdANSI
  3
"Amdt_StdImp|Product Description: AutoCAD Mechanical|Company: Autodesk, Inc."
 90
     1024
 91
        0
280
     0
281
     0
  0
CLASS
  1
ACAMGHOLECHARTSTDANSI
  2
AcAmgHoleChartStdANSI
  3
AmgDim|Product Description: AutoCAD Mechanical|Company: Autodesk, Inc.
 90
     1024
 91
        0
280
     0
281
     0
  0
CLASS
  1
ACMSTANDARDBSI
  2
AcmStandardBSI
  3
"Amdt_StdImp|Product Description: AutoCAD Mechanical|Company: Autodesk, Inc."
 90
     1024
 91
        0
280
     0
281
     0
  0
CLASS
  1
ACMSURFSTANDARDBSI2002
  2
AcmSurfTextStdBSI2002
  3
"Amdt_StdImp|Product Description: AutoCAD Mechanical|Company: Autodesk, Inc."
 90
     1024
 91
        0
280
     0
281
     0
  0
CLASS
  1
ACMFCFSTANDARDBSI
  2
AcmFCFStdBSI
  3
"Amdt_StdImp|Product Description: AutoCAD Mechanical|Company: Autodesk, Inc."
 90
     1024
 91
        0
280
     0
281
     0
  0
CLASS
  1
ACMWELDSTANDARDBSI
  2
AcmWeldingStdBSI
  3
"Amdt_StdImp|Product Description: AutoCAD Mechanical|Company: Autodesk, Inc."
 90
     1024
 91
        0
280
     0
281
     0
  0
CLASS
  1
ACMIDSTANDARDBSI
  2
AcmIdStdBSI
  3
"Amdt_StdImp|Product Description: AutoCAD Mechanical|Company: Autodesk, Inc."
 90
     1024
 91
        0
280
     0
281
     0
  0
CLASS
  1
ACMDATUMSTANDARDBSI
  2
AcmDatumStdBSI
  3
"Amdt_StdImp|Product Description: AutoCAD Mechanical|Company: Autodesk, Inc."
 90
     1024
 91
        0
280
     0
281
     0
  0
CLASS
  1
ACMBOMSTANDARDBSI
  2
AcmBOMStdBSI
  3
"Amdt_StdImp|Product Description: AutoCAD Mechanical|Company: Autodesk, Inc."
 90
     1024
 91
        0
280
     0
281
     0
  0
CLASS
  1
ACMDETAILSTANDARDBSI
  2
AmdtDetailSymStdBSI
  3
"Amdt_StdImp|Product Description: AutoCAD Mechanical|Company: Autodesk, Inc."
 90
     1024
 91
        0
280
     0
281
     0
  0
CLASS
  1
ACMSECTIONSTANDARDBSI2001
  2
AmdtSectionSymStdBSI2001
  3
"Amdt_StdImp|Product Description: AutoCAD Mechanical|Company: Autodesk, Inc."
 90
     1024
 91
        0
280
     0
281
     0
  0
CLASS
  1
ACMCENTERLINESTANDARDBSI
  2
AmdtCenterLineStdBSI
  3
"Amdt_StdImp|Product Description: AutoCAD Mechanical|Company: Autodesk, Inc."
 90
     1024
 91
        0
280
     0
281
     0
  0
CLASS
  1
ACMTHREADLINESTANDARDBSI
  2
AmdtThreadLineStdBSI
  3
"Amdt_StdImp|Product Description: AutoCAD Mechanical|Company: Autodesk, Inc."
 90
     1024
 91
        0
280
     0
281
     0
  0
CLASS
  1
ACMNOTESTANDARDBSI
  2
AmdtNoteStdBSI
  3
"Amdt_StdImp|Product Description: AutoCAD Mechanical|Company: Autodesk, Inc."
 90
     1024
 91
        0
280
     0
281
     0
  0
CLASS
  1
ACMTAPERSTANDARDBSI
  2
AcmTaperStdBSI
  3
"Amdt_StdImp|Product Description: AutoCAD Mechanical|Company: Autodesk, Inc."
 90
     1024
 91
        0
280
     0
281
     0
  0
CLASS
  1
ACMANOOTATIONVIEWSTANDARDBSI
  2
AmdtAnViewStdBSI
  3
"Amdt_StdImp|Product Description: AutoCAD Mechanical|Company: Autodesk, Inc."
 90
     1024
 91
        0
280
     0
281
     0
  0
CLASS
  1
ACAMGHOLECHARTSTDBSI
  2
AcAmgHoleChartStdBSI
  3
AmgDim|Product Description: AutoCAD Mechanical|Company: Autodesk, Inc.
 90
     1024
 91
        0
280
     0
281
     0
  0
CLASS
  1
ACMSURFSYM
  2
AcmSurfaceTexture
  3
"AcmSymBB|Product Description: AutoCAD Mechanical|Company: Autodesk, Inc."
 90
     4095
 91
        0
280
     0
281
     1
  0
CLASS
  1
ACDBCIRCARCRES
  2
AcDbCircArcRes
  3
AcGrefServices
 90
     1024
 91
        0
280
     0
281
     0
  0
CLASS
  1
AMDTACMWBLOCKBOMENTITY
  2
AmdtAcmWblockBomEntity
  3
"AcmSymBB|Product Description: AutoCAD Mechanical|Company: Autodesk, Inc."
 90
     4095
 91
        0
280
     0
281
     1
  0
CLASS
  1
ACDBOPPOLYLINERES
  2
AcDbOpPolylineRes
  3
AcGrefServices
 90
     1024
 91
        0
280
     0
281
     0
  0
CLASS
  1
ACDBELLIPSERES
  2
AcDbEllipseRes
  3
AcGrefServices
 90
     1024
 91
        0
280
     0
281
     0
  0
CLASS
  1
ACAD_EVALUATION_GRAPH
  2
AcDbEvalGraph
  3
ObjectDBX Classes
 90
     1153
 91
        0
280
     0
281
     0
  0
CLASS
  1
ACAECUSTOBJ
  2
AcAeEditorObj
  3
AcAeEditorObj
 90
     1024
 91
        0
280
     0
281
     0
  0
CLASS
  1
ACDB_DYNAMICBLOCKPURGEPREVENTER_VERSION
  2
AcDbDynamicBlockPurgePreventer
  3
ObjectDBX Classes
 90
     1153
 91
        0
280
     0
281
     0
  0
CLASS
  1
ACDB_BLOCKREPRESENTATION_DATA
  2
AcDbBlockRepresentationData
  3
ObjectDBX Classes
 90
     1153
 91
        0
280
     0
281
     0
  0
CLASS
  1
ACMPICKOBJ
  2
AcmPickEnt
  3
"AcmSymBB|Product Description: AutoCAD Mechanical|Company: Autodesk, Inc."
 90
     1024
 91
        0
280
     0
281
     1
  0
CLASS
  1
ACMBALLOON
  2
AcmBalloon
  3
"AcmSymBB|Product Description: AutoCAD Mechanical|Company: Autodesk, Inc."
 90
     4095
 91
        0
280
     0
281
     1
  0
CLASS
  1
AMDTEDGESTANDARDJIS
  2
AmdtEdgeStdJIS
  3
"Amdt_StdImp|Product Description: AutoCAD Mechanical|Company: Autodesk, Inc."
 90
     1024
 91
        0
280
     0
281
     0
  0
CLASS
  1
ACMDIMBREAKPERSREACTOR
  2
AcmDimBreakPersReactor
  3
AmgDim|Product Description: AutoCAD Mechanical|Company: Autodesk, Inc.
 90
     4095
 91
        0
280
     0
281
     0
  0
ENDSEC
  0
SECTION
  2
TABLES
  0
TABLE
  2
VPORT
  5
8
330
0
100
AcDbSymbolTable
 70
     1
  0
VPORT
  5
27A
330
8
100
AcDbSymbolTableRecord
100
AcDbViewportTableRecord
  2
*Active
 70
     0
 10
0.0
 20
0.0
 11
1.0
 21
1.0
 12
755.7511647586816
 22
805.2648964492432
 13
0.0
 23
0.0
 14
10.0
 24
10.0
 15
40.0
 25
40.0
 16
0.0
 26
0.0
 36
1.0
 17
0.0
 27
0.0
 37
0.0
 40
728.4257428064138
 41
1.285714285714285
 42
50.0
 43
0.0
 44
0.0
 50
0.0
 51
0.0
 71
     0
 72
 20000
 73
     1
 74
     3
 75
     0
 76
     0
 77
     0
 78
     0
281
     0
 65
     0
110
0.0
120
0.0
130
0.0
111
1.0
121
0.0
131
0.0
112
0.0
122
1.0
132
0.0
 79
     0
146
0.0
348
285
 60
     3
 61
     5
292
     1
282
     0
141
0.0
142
0.0
 63
   250
421
  3355443
  0
ENDTAB
  0
TABLE
  2
LTYPE
  5
5
330
0
100
AcDbSymbolTable
 70
    20
  0
LTYPE
  5
14
330
5
100
AcDbSymbolTableRecord
100
AcDbLinetypeTableRecord
  2
ByBlock
 70
     0
  3

 72
    65
 73
     0
 40
0.0
  0
LTYPE
  5
15
330
5
100
AcDbSymbolTableRecord
100
AcDbLinetypeTableRecord
  2
ByLayer
 70
     0
  3

 72
    65
 73
     0
 40
0.0
  0
LTYPE
  5
16
330
5
100
AcDbSymbolTableRecord
100
AcDbLinetypeTableRecord
  2
Continuous
 70
     0
  3
Solid line
 72
    65
 73
     0
 40
0.0
  0
LTYPE
  5
4D
330
5
100
AcDbSymbolTableRecord
100
AcDbLinetypeTableRecord
  2
AM_ISO02W050
 70
     0
  3
__ __ __ __ __ __ __ __ __ __ __ __ __ __ __
 72
    65
 73
     2
 40
7.5
 49
6.0
 74
     0
 49
-1.5
 74
     0
  0
LTYPE
  5
4E
330
5
100
AcDbSymbolTableRecord
100
AcDbLinetypeTableRecord
  2
AM_ISO08W050
 70
     0
  3
____ . ____ . ____ . ____ . ____ . ____ . ____
 72
    65
 73
     4
 40
18.0
 49
12.0
 74
     0
 49
-1.5
 74
     0
 49
3.0
 74
     0
 49
-1.5
 74
     0
  0
LTYPE
  5
4F
330
5
100
AcDbSymbolTableRecord
100
AcDbLinetypeTableRecord
  2
AM_ISO09W050
 70
     0
  3
_____ . . _____ . . _____ . . ____ .. ____
 72
    65
 73
     6
 40
22.5
 49
12.0
 74
     0
 49
-1.5
 74
     0
 49
3.0
 74
     0
 49
-1.5
 74
     0
 49
3.0
 74
     0
 49
-1.5
 74
     0
  0
LTYPE
  5
50
330
5
100
AcDbSymbolTableRecord
100
AcDbLinetypeTableRecord
  2
Amconstr
 70
     0
  3
_______________________
 72
    65
 73
     2
 40
9999.0
 49
9999.0
 74
     0
 49
0.0
 74
     0
  0
LTYPE
  5
51
330
5
100
AcDbSymbolTableRecord
100
AcDbLinetypeTableRecord
  2
AM_ISO08W050x2
 70
     0
  3
__ . __ . __ . __ . __ . __
 72
    65
 73
     4
 40
9.0
 49
6.0
 74
     0
 49
-0.75
 74
     0
 49
1.5
 74
     0
 49
-0.75
 74
     0
  0
LTYPE
  5
52
330
5
100
AcDbSymbolTableRecord
100
AcDbLinetypeTableRecord
  2
AM_ISO02W050x2
 70
     0
  3
 _ _ _ _ _ _ _ _ _ _ _ _
 72
    65
 73
     2
 40
3.75
 49
3.0
 74
     0
 49
-0.75
 74
     0
  0
LTYPE
  5
55
330
5
100
AcDbSymbolTableRecord
100
AcDbLinetypeTableRecord
  2
Amzigzag
 70
     0
  3
/\/-/\/-/\/-/\/-/\/-/\/
 72
    65
 73
     2
 40
11.0001
 49
0.0001
 74
     4
 75
   136
340
23D
 46
0.04
 50
0.0
 44
0.0
 45
0.0
 49
-11.0
 74
     0
  0
LTYPE
  5
65
330
5
100
AcDbSymbolTableRecord
100
AcDbLinetypeTableRecord
  2
CENTER
 70
     0
  3
__ . __
 72
    65
 73
     4
 40
7.0
 49
4.0
 74
     0
 49
-1.0
 74
     0
 49
1.0
 74
     0
 49
-1.0
 74
     0
  0
LTYPE
  5
E0
330
5
100
AcDbSymbolTableRecord
100
AcDbLinetypeTableRecord
  2
HIDDEN
 70
     0
  3
Hidden __ __ __ __ __ __ __ __ __ __ __ __ __ _
 72
    65
 73
     2
 40
9.524999999999996
 49
6.349999999999998
 74
     0
 49
-3.174999999999998
 74
     0
  0
LTYPE
  5
E1
330
5
100
AcDbSymbolTableRecord
100
AcDbLinetypeTableRecord
  2
PHANTOM2
 70
     0
  3
Phantom (.5x) ___ _ _ ___ _ _ ___ _ _ ___ _ _
 72
    65
 73
     6
 40
31.75
 49
15.875
 74
     0
 49
-3.174999999999998
 74
     0
 49
3.174999999999998
 74
     0
 49
-3.174999999999998
 74
     0
 49
3.174999999999998
 74
     0
 49
-3.174999999999998
 74
     0
  0
LTYPE
  5
5A2
330
5
100
AcDbSymbolTableRecord
100
AcDbLinetypeTableRecord
  2
ACJISWELD
 70
     0
  3
_ _ _ _ _
 72
    65
 73
     2
 40
2.0
 49
2.0
 74
     0
 49
-1.0
 74
     0
  0
LTYPE
  5
F7CC
330
5
100
AcDbSymbolTableRecord
100
AcDbLinetypeTableRecord
  2
ACISOWELD
 70
     0
  3
_ _ _ _ _
 72
    65
 73
     2
 40
2.0
 49
2.0
 74
     0
 49
-1.0
 74
     0
  0
LTYPE
  5
F7CD
330
5
100
AcDbSymbolTableRecord
100
AcDbLinetypeTableRecord
  2
ACISOTGB
 70
     0
  3
__ . . __ . .
 72
    65
 73
     6
 40
9.0
 49
4.0
 74
     0
 49
-1.0
 74
     0
 49
1.0
 74
     0
 49
-1.0
 74
     0
 49
1.0
 74
     0
 49
-1.0
 74
     0
  0
LTYPE
  5
F7CE
330
5
100
AcDbSymbolTableRecord
100
AcDbLinetypeTableRecord
  2
ACISOTGL
 70
     0
  3
_ _ _ _ _
 72
    65
 73
     2
 40
3.0
 49
2.0
 74
     0
 49
-1.0
 74
     0
  0
ENDTAB
  0
TABLE
  2
LAYER
  5
2
102
{ACAD_XDICTIONARY
360
BF
102
}
330
0
100
AcDbSymbolTable
 70
    10
  0
LAYER
  5
10
102
{ACAD_XDICTIONARY
360
29D3
102
}
330
2
100
AcDbSymbolTableRecord
100
AcDbLayerTableRecord
  2
0
 70
     0
 62
     7
  6
Continuous
370
    -3
390
F
347
27E
  0
LAYER
  5
81
102
{ACAD_XDICTIONARY
360
29D5
102
}
330
2
100
AcDbSymbolTableRecord
100
AcDbLayerTableRecord
  2
AM_0 外形線1
 70
     0
 62
     7
  6
Continuous
370
    25
390
F
347
27E
  0
LAYER
  5
427
330
2
100
AcDbSymbolTableRecord
100
AcDbLayerTableRecord
  2
Defpoints
 70
     0
 62
     7
  6
Continuous
290
     0
370
    -3
390
F
347
27E
  0
LAYER
  5
25C9
102
{ACAD_XDICTIONARY
360
29DC
102
}
330
2
100
AcDbSymbolTableRecord
100
AcDbLayerTableRecord
  2
AM_3 隠れ線
 70
     0
 62
     8
  6
ACJISWELD
370
    13
390
F
347
27E
1001
AcAecLayerStandard
1000

1000

  0
LAYER
  5
25CA
102
{ACAD_XDICTIONARY
360
29DE
102
}
330
2
100
AcDbSymbolTableRecord
100
AcDbLayerTableRecord
  2
AM_4 細線
 70
     0
 62
     4
  6
Continuous
370
    13
390
F
347
27E
1001
AcAecLayerStandard
1000

1000

  0
LAYER
  5
26B3
102
{ACAD_XDICTIONARY
360
29E4
102
}
330
2
100
AcDbSymbolTableRecord
100
AcDbLayerTableRecord
  2
AM_5 寸法線
 70
     0
 62
     3
  6
Continuous
370
    13
390
F
347
27E
1001
AcAecLayerStandard
1000

1000

  0
LAYER
  5
4D5E
102
{ACAD_XDICTIONARY
360
4D5F
102
}
330
2
100
AcDbSymbolTableRecord
100
AcDbLayerTableRecord
  2
AM_7 中心線
 70
     0
 62
     1
  6
AM_ISO08W050
370
    13
390
F
347
27E
1001
AcAecLayerStandard
1000

1000

  0
LAYER
  5
4D60
102
{ACAD_XDICTIONARY
360
4D61
102
}
330
2
100
AcDbSymbolTableRecord
100
AcDbLayerTableRecord
  2
AM_6 文字
 70
     0
 62
     2
  6
Continuous
370
    13
390
F
347
27E
1001
AcAecLayerStandard
1000

1000

  0
LAYER
  5
EE3B
330
2
100
AcDbSymbolTableRecord
100
AcDbLayerTableRecord
  2
AM_11 想像線
 70
     0
 62
     5
  6
AM_ISO09W050
370
    13
390
F
347
27E
1001
AcAecLayerStandard
1000

1000

  0
ENDTAB
  0
TABLE
  2
STYLE
  5
3
330
0
100
AcDbSymbolTable
 70
    11
  0
STYLE
  5
11
330
3
100
AcDbSymbolTableRecord
100
AcDbTextStyleTableRecord
  2
STANDARD
 70
     0
 40
0.0
 41
1.0
 50
0.0
 71
     0
 42
25.0
  3
ISOCP.SHX
  4
EXTFONT.SHX
  0
STYLE
  5
23D
330
3
100
AcDbSymbolTableRecord
100
AcDbTextStyleTableRecord
  2

 70
     1
 40
0.0
 41
1.0
 50
0.0
 71
     0
 42
2.5
  3
genltshp.shx
  4

  0
STYLE
  5
5D5
330
3
100
AcDbSymbolTableRecord
100
AcDbTextStyleTableRecord
  2
SEISA
 70
     0
 40
0.0
 41
0.9
 50
0.0
 71
     0
 42
25.0
  3
romans.shx
  4
extfont2.shx
  0
STYLE
  5
F7BC
330
3
100
AcDbSymbolTableRecord
100
AcDbTextStyleTableRecord
  2
ACISOTS
 70
     0
 40
1.0
 41
1.0
 50
0.0
 71
     0
 42
25.0
  3
isocp.shx
  4
extfont.shx
  0
STYLE
  5
F7CB
330
3
100
AcDbSymbolTableRecord
100
AcDbTextStyleTableRecord
  2
ACISOGDT
 70
     0
 40
0.0
 41
1.0
 50
0.0
 71
     0
 42
25.0
  3
amgdt.shx
  4

  0
ENDTAB
  0
TABLE
  2
VIEW
  5
6
330
0
100
AcDbSymbolTable
 70
     6
  0
VIEW
  5
91B
330
6
100
AcDbSymbolTableRecord
100
AcDbViewTableRecord
  2
AM_VIEW1
 70
     0
 40
840.0000000000003
 10
667.0263155623038
 20
1260.0
 41
1334.052631578948
 11
0.0
 21
0.0
 31
1.0
 12
0.0
 22
0.0
 32
0.0
 42
50.0
 43
0.0
 44
0.0
 50
0.0
 71
    16
281
     0
 72
     0
 73
     0
  0
VIEW
  5
91C
330
6
100
AcDbSymbolTableRecord
100
AcDbViewTableRecord
  2
AM_VIEW2
 70
     0
 40
840.0000000000003
 10
1708.973684892036
 20
1260.0
 41
1334.052631578948
 11
0.0
 21
0.0
 31
1.0
 12
0.0
 22
0.0
 32
0.0
 42
50.0
 43
0.0
 44
0.0
 50
0.0
 71
    16
281
     0
 72
     0
 73
     0
  0
VIEW
  5
91D
330
6
100
AcDbSymbolTableRecord
100
AcDbViewTableRecord
  2
AM_VIEW3
 70
     0
 40
840.0000000000003
 10
667.0263155623038
 20
420.0000000000001
 41
1334.052631578948
 11
0.0
 21
0.0
 31
1.0
 12
0.0
 22
0.0
 32
0.0
 42
50.0
 43
0.0
 44
0.0
 50
0.0
 71
    16
281
     0
 72
     0
 73
     0
  0
VIEW
  5
91E
330
6
100
AcDbSymbolTableRecord
100
AcDbViewTableRecord
  2
AM_VIEW4
 70
     0
 40
840.0000000000003
 10
1708.973684892036
 20
420.0000000000001
 41
1334.052631578948
 11
0.0
 21
0.0
 31
1.0
 12
0.0
 22
0.0
 32
0.0
 42
50.0
 43
0.0
 44
0.0
 50
0.0
 71
    16
281
     0
 72
     0
 73
     0
  0
VIEW
  5
91F
330
6
100
AcDbSymbolTableRecord
100
AcDbViewTableRecord
  2
AM_VIEW5
 70
     0
 40
840.0000000000003
 10
1188.00000022717
 20
840.0000000000003
 41
1334.052631578947
 11
0.0
 21
0.0
 31
1.0
 12
0.0
 22
0.0
 32
0.0
 42
50.0
 43
0.0
 44
0.0
 50
0.0
 71
    16
281
     0
 72
     0
 73
     0
  0
VIEW
  5
920
330
6
100
AcDbSymbolTableRecord
100
AcDbViewTableRecord
  2
AM_VIEW6
 70
     0
 40
1679.9832
 10
1188.00000022717
 20
840.0000000000003
 41
2668.078582105264
 11
0.0
 21
0.0
 31
1.0
 12
0.0
 22
0.0
 32
0.0
 42
50.0
 43
0.0
 44
0.0
 50
0.0
 71
    16
281
     0
 72
     0
 73
     0
  0
ENDTAB
  0
TABLE
  2
UCS
  5
7
330
0
100
AcDbSymbolTable
 70
     0
  0
ENDTAB
  0
TABLE
  2
APPID
  5
9
330
0
100
AcDbSymbolTable
 70
   400
  0
APPID
  5
12
330
9
100
AcDbSymbolTableRecord
100
AcDbRegAppTableRecord
  2
ACAD
 70
     0
  0
APPID
  5
30
330
9
100
AcDbSymbolTableRecord
100
AcDbRegAppTableRecord
  2
MCAD_NO_VIS
 70
     0
  0
APPID
  5
31
330
9
100
AcDbSymbolTableRecord
100
AcDbRegAppTableRecord
  2
ACAD_TEMP_GRAPHIC
 70
     0
  0
APPID
  5
44
330
9
100
AcDbSymbolTableRecord
100
AcDbRegAppTableRecord
  2
ACATTRIBSERVICES
 70
     0
  0
APPID
  5
F6
330
9
100
AcDbSymbolTableRecord
100
AcDbRegAppTableRecord
  2
AD_DRAW
 70
     0
  0
APPID
  5
114
330
9
100
AcDbSymbolTableRecord
100
AcDbRegAppTableRecord
  2
DESIGNERASSEMBLIES
 70
     0
  0
APPID
  5
118
330
9
100
AcDbSymbolTableRecord
100
AcDbRegAppTableRecord
  2
ACADM_DIM_EDIT
 70
     0
  0
APPID
  5
119
330
9
100
AcDbSymbolTableRecord
100
AcDbRegAppTableRecord
  2
AMDT_DM_ADJ
 70
     0
  0
APPID
  5
1AF
330
9
100
AcDbSymbolTableRecord
100
AcDbRegAppTableRecord
  2
ACAD_DSTYLE_DIMARC_LENGTH_SYMBOL
 70
     0
  0
APPID
  5
1B0
330
9
100
AcDbSymbolTableRecord
100
AcDbRegAppTableRecord
  2
ACAD_DSTYLE_DIMJOGGED_JOGANGLE_SYMBOL
 70
     0
  0
APPID
  5
2D7
330
9
100
AcDbSymbolTableRecord
100
AcDbRegAppTableRecord
  2
ACAD_MLEADERVER
 70
     0
  0
APPID
  5
355
330
9
100
AcDbSymbolTableRecord
100
AcDbRegAppTableRecord
  2
AcadAnnoPO
 70
     0
  0
APPID
  5
428
330
9
100
AcDbSymbolTableRecord
100
AcDbRegAppTableRecord
  2
ACAD_DSTYLE_DIMTEXT_FILL
 70
     0
  0
APPID
  5
429
330
9
100
AcDbSymbolTableRecord
100
AcDbRegAppTableRecord
  2
GENIUS_GENSCREG_15
 70
     0
  0
APPID
  5
42A
330
9
100
AcDbSymbolTableRecord
100
AcDbRegAppTableRecord
  2
GENIUS_GENOBJ-N-SDF_13
 70
     0
  0
APPID
  5
42B
330
9
100
AcDbSymbolTableRecord
100
AcDbRegAppTableRecord
  2
GENIUS_GENODEF_13
 70
     0
  0
APPID
  5
42C
330
9
100
AcDbSymbolTableRecord
100
AcDbRegAppTableRecord
  2
ACAD_EXEMPT_FROM_CAD_STANDARDS
 70
     0
  0
APPID
  5
42D
330
9
100
AcDbSymbolTableRecord
100
AcDbRegAppTableRecord
  2
AcAecLayerStandard
 70
     0
  0
APPID
  5
42E
330
9
100
AcDbSymbolTableRecord
100
AcDbRegAppTableRecord
  2
GENIUS_GENOBJ-N-CEN_13
 70
     0
  0
APPID
  5
42F
330
9
100
AcDbSymbolTableRecord
100
AcDbRegAppTableRecord
  2
GENIUS_GENCEN_19
 70
     0
  0
APPID
  5
430
330
9
100
AcDbSymbolTableRecord
100
AcDbRegAppTableRecord
  2
ACAD_DSTYLE_DIMINSPECT
 70
     0
  0
APPID
  5
431
330
9
100
AcDbSymbolTableRecord
100
AcDbRegAppTableRecord
  2
GENIUS_AMGTXT_16
 70
     0
  0
APPID
  5
432
330
9
100
AcDbSymbolTableRecord
100
AcDbRegAppTableRecord
  2
GENIUS_GENFIL_13
 70
     0
  0
APPID
  5
433
330
9
100
AcDbSymbolTableRecord
100
AcDbRegAppTableRecord
  2
GENIUS_GENOLIS_13
 70
     0
  0
APPID
  5
434
330
9
100
AcDbSymbolTableRecord
100
AcDbRegAppTableRecord
  2
GENIUS_GENOBJ-N-CHA_13
 70
     0
  0
APPID
  5
435
330
9
100
AcDbSymbolTableRecord
100
AcDbRegAppTableRecord
  2
GENIUS_GENOENT_13
 70
     0
  0
APPID
  5
436
330
9
100
AcDbSymbolTableRecord
100
AcDbRegAppTableRecord
  2
GENIUS_GENOREF_13
 70
     0
  0
APPID
  5
437
330
9
100
AcDbSymbolTableRecord
100
AcDbRegAppTableRecord
  2
GENIUS_GENOBJ-N-FIL_13
 70
     0
  0
APPID
  5
438
330
9
100
AcDbSymbolTableRecord
100
AcDbRegAppTableRecord
  2
GEVID1208829536
 70
     0
  0
APPID
  5
439
330
9
100
AcDbSymbolTableRecord
100
AcDbRegAppTableRecord
  2
GEVDC
 70
     0
  0
APPID
  5
43A
330
9
100
AcDbSymbolTableRecord
100
AcDbRegAppTableRecord
  2
GEVRADREF
 70
     0
  0
APPID
  5
43B
330
9
100
AcDbSymbolTableRecord
100
AcDbRegAppTableRecord
  2
GENIUS_GENBH_13
 70
     0
  0
APPID
  5
43C
330
9
100
AcDbSymbolTableRecord
100
AcDbRegAppTableRecord
  2
GENIUS_GENOBJ-NBEHI-BHF_13
 70
     0
  0
APPID
  5
43D
330
9
100
AcDbSymbolTableRecord
100
AcDbRegAppTableRecord
  2
GENIUS_GENOBJ-NBEHI-BHB_13
 70
     0
  0
APPID
  5
43E
330
9
100
AcDbSymbolTableRecord
100
AcDbRegAppTableRecord
  2
GEVID1208829537
 70
     0
  0
APPID
  5
43F
330
9
100
AcDbSymbolTableRecord
100
AcDbRegAppTableRecord
  2
ACAD_DSTYLE_DIMJAG
 70
     0
  0
APPID
  5
440
330
9
100
AcDbSymbolTableRecord
100
AcDbRegAppTableRecord
  2
ACAD_DSTYLE_DIMTALN
 70
     0
  0
APPID
  5
441
330
9
100
AcDbSymbolTableRecord
100
AcDbRegAppTableRecord
  2
AMG_2DHIDE
 70
     0
  0
APPID
  5
442
330
9
100
AcDbSymbolTableRecord
100
AcDbRegAppTableRecord
  2
AMG_2DSTRUCT_BTR
 70
     0
  0
APPID
  5
443
330
9
100
AcDbSymbolTableRecord
100
AcDbRegAppTableRecord
  2
GEVID1208845772
 70
     0
  0
APPID
  5
444
330
9
100
AcDbSymbolTableRecord
100
AcDbRegAppTableRecord
  2
GEVID1208845773
 70
     0
  0
APPID
  5
445
330
9
100
AcDbSymbolTableRecord
100
AcDbRegAppTableRecord
  2
ACADM_2DVIEW_IGN_NOTIFY
 70
     0
  0
APPID
  5
446
330
9
100
AcDbSymbolTableRecord
100
AcDbRegAppTableRecord
  2
GEVID1208845774
 70
     0
  0
APPID
  5
447
330
9
100
AcDbSymbolTableRecord
100
AcDbRegAppTableRecord
  2
GEVID1208845775
 70
     0
  0
APPID
  5
448
330
9
100
AcDbSymbolTableRecord
100
AcDbRegAppTableRecord
  2
GEVID1208845776
 70
     0
  0
APPID
  5
449
330
9
100
AcDbSymbolTableRecord
100
AcDbRegAppTableRecord
  2
GEVID1208845777
 70
     0
  0
APPID
  5
44A
330
9
100
AcDbSymbolTableRecord
100
AcDbRegAppTableRecord
  2
GEVCON
 70
     0
  0
APPID
  5
44B
330
9
100
AcDbSymbolTableRecord
100
AcDbRegAppTableRecord
  2
GENIUS_GENOBJ-F-SCPASSM_13
 70
     0
  0
APPID
  5
44C
330
9
100
AcDbSymbolTableRecord
100
AcDbRegAppTableRecord
  2
GEVID1208845778
 70
     0
  0
APPID
  5
44D
330
9
100
AcDbSymbolTableRecord
100
AcDbRegAppTableRecord
  2
GEVID1208845779
 70
     0
  0
APPID
  5
44E
330
9
100
AcDbSymbolTableRecord
100
AcDbRegAppTableRecord
  2
GEVID1208845780
 70
     0
  0
APPID
  5
44F
330
9
100
AcDbSymbolTableRecord
100
AcDbRegAppTableRecord
  2
GEVID1208845781
 70
     0
  0
APPID
  5
450
330
9
100
AcDbSymbolTableRecord
100
AcDbRegAppTableRecord
  2
GEVID1208845782
 70
     0
  0
APPID
  5
451
330
9
100
AcDbSymbolTableRecord
100
AcDbRegAppTableRecord
  2
GEVID1208845783
 70
     0
  0
APPID
  5
452
330
9
100
AcDbSymbolTableRecord
100
AcDbRegAppTableRecord
  2
GEVID1208845784
 70
     0
  0
APPID
  5
453
330
9
100
AcDbSymbolTableRecord
100
AcDbRegAppTableRecord
  2
GEVID1208845785
 70
     0
  0
APPID
  5
454
330
9
100
AcDbSymbolTableRecord
100
AcDbRegAppTableRecord
  2
GEVID1208845787
 70
     0
  0
APPID
  5
455
330
9
100
AcDbSymbolTableRecord
100
AcDbRegAppTableRecord
  2
GEVID1208845788
 70
     0
  0
APPID
  5
456
330
9
100
AcDbSymbolTableRecord
100
AcDbRegAppTableRecord
  2
GEVID1208845789
 70
     0
  0
APPID
  5
457
330
9
100
AcDbSymbolTableRecord
100
AcDbRegAppTableRecord
  2
GEVID1208845790
 70
     0
  0
APPID
  5
458
330
9
100
AcDbSymbolTableRecord
100
AcDbRegAppTableRecord
  2
GEVID1208845791
 70
     0
  0
APPID
  5
459
330
9
100
AcDbSymbolTableRecord
100
AcDbRegAppTableRecord
  2
GEVID1208845792
 70
     0
  0
APPID
  5
45A
330
9
100
AcDbSymbolTableRecord
100
AcDbRegAppTableRecord
  2
GEVID1208845793
 70
     0
  0
APPID
  5
45B
330
9
100
AcDbSymbolTableRecord
100
AcDbRegAppTableRecord
  2
GEVID1208845794
 70
     0
  0
APPID
  5
45C
330
9
100
AcDbSymbolTableRecord
100
AcDbRegAppTableRecord
  2
GEVID1208845795
 70
     0
  0
APPID
  5
45D
330
9
100
AcDbSymbolTableRecord
100
AcDbRegAppTableRecord
  2
GEVID1208845796
 70
     0
  0
APPID
  5
45E
330
9
100
AcDbSymbolTableRecord
100
AcDbRegAppTableRecord
  2
GEVID1208845797
 70
     0
  0
APPID
  5
45F
330
9
100
AcDbSymbolTableRecord
100
AcDbRegAppTableRecord
  2
GEVID1208845798
 70
     0
  0
APPID
  5
460
330
9
100
AcDbSymbolTableRecord
100
AcDbRegAppTableRecord
  2
GEVID1208845799
 70
     0
  0
APPID
  5
461
330
9
100
AcDbSymbolTableRecord
100
AcDbRegAppTableRecord
  2
GEVID1208845800
 70
     0
  0
APPID
  5
462
330
9
100
AcDbSymbolTableRecord
100
AcDbRegAppTableRecord
  2
GEVID1208845801
 70
     0
  0
APPID
  5
463
330
9
100
AcDbSymbolTableRecord
100
AcDbRegAppTableRecord
  2
GEVID1208845802
 70
     0
  0
APPID
  5
464
330
9
100
AcDbSymbolTableRecord
100
AcDbRegAppTableRecord
  2
GENIUS_GENOBJ-N-DIM_13
 70
     0
  0
APPID
  5
465
330
9
100
AcDbSymbolTableRecord
100
AcDbRegAppTableRecord
  2
GENIUS_GENDIM_13
 70
     0
  0
APPID
  5
466
330
9
100
AcDbSymbolTableRecord
100
AcDbRegAppTableRecord
  2
GENIUS_GENDIMSH_14
 70
     0
  0
APPID
  5
467
330
9
100
AcDbSymbolTableRecord
100
AcDbRegAppTableRecord
  2
GEVID1208845803
 70
     0
  0
APPID
  5
468
330
9
100
AcDbSymbolTableRecord
100
AcDbRegAppTableRecord
  2
GEVID1208845804
 70
     0
  0
APPID
  5
469
330
9
100
AcDbSymbolTableRecord
100
AcDbRegAppTableRecord
  2
GEVID1208845805
 70
     0
  0
APPID
  5
46A
330
9
100
AcDbSymbolTableRecord
100
AcDbRegAppTableRecord
  2
GEVID1208845806
 70
     0
  0
APPID
  5
46B
330
9
100
AcDbSymbolTableRecord
100
AcDbRegAppTableRecord
  2
GEVID1208845807
 70
     0
  0
APPID
  5
46C
330
9
100
AcDbSymbolTableRecord
100
AcDbRegAppTableRecord
  2
GEVID1208845808
 70
     0
  0
APPID
  5
46D
330
9
100
AcDbSymbolTableRecord
100
AcDbRegAppTableRecord
  2
GEVID1208845809
 70
     0
  0
APPID
  5
46E
330
9
100
AcDbSymbolTableRecord
100
AcDbRegAppTableRecord
  2
GEVID1208845810
 70
     0
  0
APPID
  5
46F
330
9
100
AcDbSymbolTableRecord
100
AcDbRegAppTableRecord
  2
GEVID1208845811
 70
     0
  0
APPID
  5
470
330
9
100
AcDbSymbolTableRecord
100
AcDbRegAppTableRecord
  2
GEVID1208845813
 70
     0
  0
APPID
  5
471
330
9
100
AcDbSymbolTableRecord
100
AcDbRegAppTableRecord
  2
GEVID1208845814
 70
     0
  0
APPID
  5
472
330
9
100
AcDbSymbolTableRecord
100
AcDbRegAppTableRecord
  2
GEVID1208845815
 70
     0
  0
APPID
  5
473
330
9
100
AcDbSymbolTableRecord
100
AcDbRegAppTableRecord
  2
GEVID1208845816
 70
     0
  0
APPID
  5
474
330
9
100
AcDbSymbolTableRecord
100
AcDbRegAppTableRecord
  2
GEVID1208845817
 70
     0
  0
APPID
  5
475
330
9
100
AcDbSymbolTableRecord
100
AcDbRegAppTableRecord
  2
GEVID1208845818
 70
     0
  0
APPID
  5
476
330
9
100
AcDbSymbolTableRecord
100
AcDbRegAppTableRecord
  2
GEVID1208845819
 70
     0
  0
APPID
  5
477
330
9
100
AcDbSymbolTableRecord
100
AcDbRegAppTableRecord
  2
GEVID1208845820
 70
     0
  0
APPID
  5
478
330
9
100
AcDbSymbolTableRecord
100
AcDbRegAppTableRecord
  2
GENIUS_GENOBJ-F-SHCL_13
 70
     0
  0
APPID
  5
479
330
9
100
AcDbSymbolTableRecord
100
AcDbRegAppTableRecord
  2
GENIUS_GEFMSH_13
 70
     0
  0
APPID
  5
47A
330
9
100
AcDbSymbolTableRecord
100
AcDbRegAppTableRecord
  2
GENIUS_GENOBJ-F-SHCA_13
 70
     0
  0
APPID
  5
47B
330
9
100
AcDbSymbolTableRecord
100
AcDbRegAppTableRecord
  2
GENIUS_GEFSH_13
 70
     0
  0
APPID
  5
47C
330
9
100
AcDbSymbolTableRecord
100
AcDbRegAppTableRecord
  2
GENIUS_GEFSHP_13
 70
     0
  0
APPID
  5
47D
330
9
100
AcDbSymbolTableRecord
100
AcDbRegAppTableRecord
  2
GENIUS_GEFSHP0_13
 70
     0
  0
APPID
  5
47E
330
9
100
AcDbSymbolTableRecord
100
AcDbRegAppTableRecord
  2
GENIUS_GEFSH0_13
 70
     0
  0
APPID
  5
47F
330
9
100
AcDbSymbolTableRecord
100
AcDbRegAppTableRecord
  2
GENIUS_GEFSHP1_13
 70
     0
  0
APPID
  5
480
330
9
100
AcDbSymbolTableRecord
100
AcDbRegAppTableRecord
  2
GENIUS_GEFSH1_13
 70
     0
  0
APPID
  5
481
330
9
100
AcDbSymbolTableRecord
100
AcDbRegAppTableRecord
  2
GEVID1208866337
 70
     0
  0
APPID
  5
482
330
9
100
AcDbSymbolTableRecord
100
AcDbRegAppTableRecord
  2
GEVID1208866338
 70
     0
  0
APPID
  5
483
330
9
100
AcDbSymbolTableRecord
100
AcDbRegAppTableRecord
  2
GEVID1208866339
 70
     0
  0
APPID
  5
484
330
9
100
AcDbSymbolTableRecord
100
AcDbRegAppTableRecord
  2
GEVID1208866340
 70
     0
  0
APPID
  5
485
330
9
100
AcDbSymbolTableRecord
100
AcDbRegAppTableRecord
  2
GEVID1208866341
 70
     0
  0
APPID
  5
486
330
9
100
AcDbSymbolTableRecord
100
AcDbRegAppTableRecord
  2
ACAD_PSEXT
 70
     0
  0
APPID
  5
487
330
9
100
AcDbSymbolTableRecord
100
AcDbRegAppTableRecord
  2
GEVID1208866342
 70
     0
  0
APPID
  5
488
330
9
100
AcDbSymbolTableRecord
100
AcDbRegAppTableRecord
  2
GEVID1208913836
 70
     0
  0
APPID
  5
489
330
9
100
AcDbSymbolTableRecord
100
AcDbRegAppTableRecord
  2
GEVID1208913837
 70
     0
  0
APPID
  5
48A
330
9
100
AcDbSymbolTableRecord
100
AcDbRegAppTableRecord
  2
GEVID1208913838
 70
     0
  0
APPID
  5
48B
330
9
100
AcDbSymbolTableRecord
100
AcDbRegAppTableRecord
  2
GEVID1208913839
 70
     0
  0
APPID
  5
48C
330
9
100
AcDbSymbolTableRecord
100
AcDbRegAppTableRecord
  2
GENIUS_GENDTOL_13
 70
     0
  0
APPID
  5
48D
330
9
100
AcDbSymbolTableRecord
100
AcDbRegAppTableRecord
  2
GEVID1208928889
 70
     0
  0
APPID
  5
48E
330
9
100
AcDbSymbolTableRecord
100
AcDbRegAppTableRecord
  2
GEVID1208928890
 70
     0
  0
APPID
  5
48F
330
9
100
AcDbSymbolTableRecord
100
AcDbRegAppTableRecord
  2
GEVID1208928891
 70
     0
  0
APPID
  5
490
330
9
100
AcDbSymbolTableRecord
100
AcDbRegAppTableRecord
  2
GEVID1208928892
 70
     0
  0
APPID
  5
491
330
9
100
AcDbSymbolTableRecord
100
AcDbRegAppTableRecord
  2
GEVID1208933827
 70
     0
  0
APPID
  5
492
330
9
100
AcDbSymbolTableRecord
100
AcDbRegAppTableRecord
  2
GEVID1208933829
 70
     0
  0
APPID
  5
493
330
9
100
AcDbSymbolTableRecord
100
AcDbRegAppTableRecord
  2
GEVID1208933830
 70
     0
  0
APPID
  5
494
330
9
100
AcDbSymbolTableRecord
100
AcDbRegAppTableRecord
  2
GEVID1208933831
 70
     0
  0
APPID
  5
495
330
9
100
AcDbSymbolTableRecord
100
AcDbRegAppTableRecord
  2
GEVID1208933832
 70
     0
  0
APPID
  5
496
330
9
100
AcDbSymbolTableRecord
100
AcDbRegAppTableRecord
  2
GEVID1208933833
 70
     0
  0
APPID
  5
497
330
9
100
AcDbSymbolTableRecord
100
AcDbRegAppTableRecord
  2
GEVID1208933834
 70
     0
  0
APPID
  5
498
330
9
100
AcDbSymbolTableRecord
100
AcDbRegAppTableRecord
  2
GEVID1208933835
 70
     0
  0
APPID
  5
499
330
9
100
AcDbSymbolTableRecord
100
AcDbRegAppTableRecord
  2
GEVID1208933836
 70
     0
  0
APPID
  5
49A
330
9
100
AcDbSymbolTableRecord
100
AcDbRegAppTableRecord
  2
GEVID1208933837
 70
     0
  0
APPID
  5
49B
330
9
100
AcDbSymbolTableRecord
100
AcDbRegAppTableRecord
  2
GEVID1208933838
 70
     0
  0
APPID
  5
49C
330
9
100
AcDbSymbolTableRecord
100
AcDbRegAppTableRecord
  2
GEVID1208933840
 70
     0
  0
APPID
  5
49D
330
9
100
AcDbSymbolTableRecord
100
AcDbRegAppTableRecord
  2
GEVID1208933842
 70
     0
  0
APPID
  5
49E
330
9
100
AcDbSymbolTableRecord
100
AcDbRegAppTableRecord
  2
GEVID1208933843
 70
     0
  0
APPID
  5
49F
330
9
100
AcDbSymbolTableRecord
100
AcDbRegAppTableRecord
  2
GEVID1208933844
 70
     0
  0
APPID
  5
4A0
330
9
100
AcDbSymbolTableRecord
100
AcDbRegAppTableRecord
  2
GEVID1208933845
 70
     0
  0
APPID
  5
4A1
330
9
100
AcDbSymbolTableRecord
100
AcDbRegAppTableRecord
  2
GEVID1208933846
 70
     0
  0
APPID
  5
4A2
330
9
100
AcDbSymbolTableRecord
100
AcDbRegAppTableRecord
  2
GEVID1208933847
 70
     0
  0
APPID
  5
4A3
330
9
100
AcDbSymbolTableRecord
100
AcDbRegAppTableRecord
  2
GEVID1208933848
 70
     0
  0
APPID
  5
4A4
330
9
100
AcDbSymbolTableRecord
100
AcDbRegAppTableRecord
  2
GEVID1208933849
 70
     0
  0
APPID
  5
4A5
330
9
100
AcDbSymbolTableRecord
100
AcDbRegAppTableRecord
  2
GEVID1208933850
 70
     0
  0
APPID
  5
4A6
330
9
100
AcDbSymbolTableRecord
100
AcDbRegAppTableRecord
  2
GEVID1208933851
 70
     0
  0
APPID
  5
4A7
330
9
100
AcDbSymbolTableRecord
100
AcDbRegAppTableRecord
  2
GEVID1208933852
 70
     0
  0
APPID
  5
4A8
330
9
100
AcDbSymbolTableRecord
100
AcDbRegAppTableRecord
  2
GEVID1208933853
 70
     0
  0
APPID
  5
4A9
330
9
100
AcDbSymbolTableRecord
100
AcDbRegAppTableRecord
  2
GEVID1208933854
 70
     0
  0
APPID
  5
4AA
330
9
100
AcDbSymbolTableRecord
100
AcDbRegAppTableRecord
  2
GEVID1208933855
 70
     0
  0
APPID
  5
4AB
330
9
100
AcDbSymbolTableRecord
100
AcDbRegAppTableRecord
  2
GEVID1208933856
 70
     0
  0
APPID
  5
4AC
330
9
100
AcDbSymbolTableRecord
100
AcDbRegAppTableRecord
  2
GEVID1208933857
 70
     0
  0
APPID
  5
4AD
330
9
100
AcDbSymbolTableRecord
100
AcDbRegAppTableRecord
  2
GEVID1208933858
 70
     0
  0
APPID
  5
4AE
330
9
100
AcDbSymbolTableRecord
100
AcDbRegAppTableRecord
  2
GEVID1208933859
 70
     0
  0
APPID
  5
4AF
330
9
100
AcDbSymbolTableRecord
100
AcDbRegAppTableRecord
  2
GEVID1208933860
 70
     0
  0
APPID
  5
4B0
330
9
100
AcDbSymbolTableRecord
100
AcDbRegAppTableRecord
  2
GEVID1208933861
 70
     0
  0
APPID
  5
4B1
330
9
100
AcDbSymbolTableRecord
100
AcDbRegAppTableRecord
  2
GEVID1208933862
 70
     0
  0
APPID
  5
4B2
330
9
100
AcDbSymbolTableRecord
100
AcDbRegAppTableRecord
  2
GEVID1208933863
 70
     0
  0
APPID
  5
4B3
330
9
100
AcDbSymbolTableRecord
100
AcDbRegAppTableRecord
  2
GEVID1208933864
 70
     0
  0
APPID
  5
4B4
330
9
100
AcDbSymbolTableRecord
100
AcDbRegAppTableRecord
  2
GEVID1208933865
 70
     0
  0
APPID
  5
4B5
330
9
100
AcDbSymbolTableRecord
100
AcDbRegAppTableRecord
  2
GEVID1208933866
 70
     0
  0
APPID
  5
4B6
330
9
100
AcDbSymbolTableRecord
100
AcDbRegAppTableRecord
  2
GEVID1208933867
 70
     0
  0
APPID
  5
4B7
330
9
100
AcDbSymbolTableRecord
100
AcDbRegAppTableRecord
  2
GEVID1208933868
 70
     0
  0
APPID
  5
4B8
330
9
100
AcDbSymbolTableRecord
100
AcDbRegAppTableRecord
  2
GEVID1208933869
 70
     0
  0
APPID
  5
4B9
330
9
100
AcDbSymbolTableRecord
100
AcDbRegAppTableRecord
  2
GEVID1208933870
 70
     0
  0
APPID
  5
4BA
330
9
100
AcDbSymbolTableRecord
100
AcDbRegAppTableRecord
  2
GEVID1208933871
 70
     0
  0
APPID
  5
4BB
330
9
100
AcDbSymbolTableRecord
100
AcDbRegAppTableRecord
  2
GEVID1208933872
 70
     0
  0
APPID
  5
4BC
330
9
100
AcDbSymbolTableRecord
100
AcDbRegAppTableRecord
  2
GEVID1208933873
 70
     0
  0
APPID
  5
4BD
330
9
100
AcDbSymbolTableRecord
100
AcDbRegAppTableRecord
  2
GEVID1208933874
 70
     0
  0
APPID
  5
4BE
330
9
100
AcDbSymbolTableRecord
100
AcDbRegAppTableRecord
  2
GEVID1208933875
 70
     0
  0
APPID
  5
4BF
330
9
100
AcDbSymbolTableRecord
100
AcDbRegAppTableRecord
  2
GEVID1208933876
 70
     0
  0
APPID
  5
4C0
330
9
100
AcDbSymbolTableRecord
100
AcDbRegAppTableRecord
  2
ACAD_DSTYLE_DIMRADIAL_EXTENSION
 70
     0
  0
APPID
  5
4C1
330
9
100
AcDbSymbolTableRecord
100
AcDbRegAppTableRecord
  2
GEVID1208999100
 70
     0
  0
APPID
  5
4C2
330
9
100
AcDbSymbolTableRecord
100
AcDbRegAppTableRecord
  2
GEVID1208999101
 70
     0
  0
APPID
  5
4C3
330
9
100
AcDbSymbolTableRecord
100
AcDbRegAppTableRecord
  2
GEVID1208999102
 70
     0
  0
APPID
  5
4C4
330
9
100
AcDbSymbolTableRecord
100
AcDbRegAppTableRecord
  2
GEVID1208999103
 70
     0
  0
APPID
  5
4C5
330
9
100
AcDbSymbolTableRecord
100
AcDbRegAppTableRecord
  2
GEVID1208999105
 70
     0
  0
APPID
  5
4C6
330
9
100
AcDbSymbolTableRecord
100
AcDbRegAppTableRecord
  2
GEVID1208999106
 70
     0
  0
APPID
  5
4C7
330
9
100
AcDbSymbolTableRecord
100
AcDbRegAppTableRecord
  2
GEVID1208999108
 70
     0
  0
APPID
  5
4C8
330
9
100
AcDbSymbolTableRecord
100
AcDbRegAppTableRecord
  2
GEVID1208999109
 70
     0
  0
APPID
  5
4C9
330
9
100
AcDbSymbolTableRecord
100
AcDbRegAppTableRecord
  2
GEVID1208999110
 70
     0
  0
APPID
  5
4CA
330
9
100
AcDbSymbolTableRecord
100
AcDbRegAppTableRecord
  2
GEVID1208999111
 70
     0
  0
APPID
  5
4CB
330
9
100
AcDbSymbolTableRecord
100
AcDbRegAppTableRecord
  2
GEVID1208999112
 70
     0
  0
APPID
  5
4CC
330
9
100
AcDbSymbolTableRecord
100
AcDbRegAppTableRecord
  2
GEVID1208999113
 70
     0
  0
APPID
  5
4CD
330
9
100
AcDbSymbolTableRecord
100
AcDbRegAppTableRecord
  2
GEVID1208999114
 70
     0
  0
APPID
  5
4CE
330
9
100
AcDbSymbolTableRecord
100
AcDbRegAppTableRecord
  2
GEVID1210218799
 70
     0
  0
APPID
  5
4CF
330
9
100
AcDbSymbolTableRecord
100
AcDbRegAppTableRecord
  2
GEVID1210218800
 70
     0
  0
APPID
  5
4D0
330
9
100
AcDbSymbolTableRecord
100
AcDbRegAppTableRecord
  2
GENIUS_GEFWELD_13
 70
     0
  0
APPID
  5
4D1
330
9
100
AcDbSymbolTableRecord
100
AcDbRegAppTableRecord
  2
GENIUS_GENOBJ-F-WELS_13
 70
     0
  0
APPID
  5
4D2
330
9
100
AcDbSymbolTableRecord
100
AcDbRegAppTableRecord
  2
AcadAnnotative
 70
     0
  0
APPID
  5
4D3
330
9
100
AcDbSymbolTableRecord
100
AcDbRegAppTableRecord
  2
GEVID1210145339
 70
     0
  0
APPID
  5
4D4
330
9
100
AcDbSymbolTableRecord
100
AcDbRegAppTableRecord
  2
ACAD_DSTYLE_DIMBREAK
 70
     0
  0
APPID
  5
4D5
330
9
100
AcDbSymbolTableRecord
100
AcDbRegAppTableRecord
  2
GEVID1210145340
 70
     0
  0
APPID
  5
4D6
330
9
100
AcDbSymbolTableRecord
100
AcDbRegAppTableRecord
  2
GEVID1210145341
 70
     0
  0
APPID
  5
4D7
330
9
100
AcDbSymbolTableRecord
100
AcDbRegAppTableRecord
  2
GEVID1210145342
 70
     0
  0
APPID
  5
4D8
330
9
100
AcDbSymbolTableRecord
100
AcDbRegAppTableRecord
  2
GEVID1210145343
 70
     0
  0
APPID
  5
4D9
330
9
100
AcDbSymbolTableRecord
100
AcDbRegAppTableRecord
  2
GEVID1210145344
 70
     0
  0
APPID
  5
4DA
330
9
100
AcDbSymbolTableRecord
100
AcDbRegAppTableRecord
  2
GEVID1210145345
 70
     0
  0
APPID
  5
4DB
330
9
100
AcDbSymbolTableRecord
100
AcDbRegAppTableRecord
  2
GEVID1210152816
 70
     0
  0
APPID
  5
4DC
330
9
100
AcDbSymbolTableRecord
100
AcDbRegAppTableRecord
  2
GEVID1210153850
 70
     0
  0
APPID
  5
4DD
330
9
100
AcDbSymbolTableRecord
100
AcDbRegAppTableRecord
  2
GEVID1210153851
 70
     0
  0
APPID
  5
4DE
330
9
100
AcDbSymbolTableRecord
100
AcDbRegAppTableRecord
  2
GEVID1210153852
 70
     0
  0
APPID
  5
4DF
330
9
100
AcDbSymbolTableRecord
100
AcDbRegAppTableRecord
  2
GEVID1210549898
 70
     0
  0
APPID
  5
4E0
330
9
100
AcDbSymbolTableRecord
100
AcDbRegAppTableRecord
  2
GEVID1210549899
 70
     0
  0
APPID
  5
4E1
330
9
100
AcDbSymbolTableRecord
100
AcDbRegAppTableRecord
  2
GEVID1210549900
 70
     0
  0
APPID
  5
4E2
330
9
100
AcDbSymbolTableRecord
100
AcDbRegAppTableRecord
  2
GEVID1210549901
 70
     0
  0
APPID
  5
4E3
330
9
100
AcDbSymbolTableRecord
100
AcDbRegAppTableRecord
  2
GEVID1210549902
 70
     0
  0
APPID
  5
4E4
330
9
100
AcDbSymbolTableRecord
100
AcDbRegAppTableRecord
  2
GEVID1210549903
 70
     0
  0
APPID
  5
4E5
330
9
100
AcDbSymbolTableRecord
100
AcDbRegAppTableRecord
  2
GEVID1210549904
 70
     0
  0
APPID
  5
4E6
330
9
100
AcDbSymbolTableRecord
100
AcDbRegAppTableRecord
  2
GEVID1210549905
 70
     0
  0
APPID
  5
4E7
330
9
100
AcDbSymbolTableRecord
100
AcDbRegAppTableRecord
  2
GEVID1210549906
 70
     0
  0
APPID
  5
4E8
330
9
100
AcDbSymbolTableRecord
100
AcDbRegAppTableRecord
  2
GEVID1210549907
 70
     0
  0
APPID
  5
4E9
330
9
100
AcDbSymbolTableRecord
100
AcDbRegAppTableRecord
  2
GEVID1210549908
 70
     0
  0
APPID
  5
4EA
330
9
100
AcDbSymbolTableRecord
100
AcDbRegAppTableRecord
  2
GEVID1210549909
 70
     0
  0
APPID
  5
4EB
330
9
100
AcDbSymbolTableRecord
100
AcDbRegAppTableRecord
  2
GEVID1210549910
 70
     0
  0
APPID
  5
4EC
330
9
100
AcDbSymbolTableRecord
100
AcDbRegAppTableRecord
  2
GEVID1210549911
 70
     0
  0
APPID
  5
4ED
330
9
100
AcDbSymbolTableRecord
100
AcDbRegAppTableRecord
  2
GEVID1210549912
 70
     0
  0
APPID
  5
4EE
330
9
100
AcDbSymbolTableRecord
100
AcDbRegAppTableRecord
  2
GEVID1210549913
 70
     0
  0
APPID
  5
4EF
330
9
100
AcDbSymbolTableRecord
100
AcDbRegAppTableRecord
  2
GEVID1210549914
 70
     0
  0
APPID
  5
4F0
330
9
100
AcDbSymbolTableRecord
100
AcDbRegAppTableRecord
  2
GEVID1210549915
 70
     0
  0
APPID
  5
4F1
330
9
100
AcDbSymbolTableRecord
100
AcDbRegAppTableRecord
  2
GEVID1210549916
 70
     0
  0
APPID
  5
4F2
330
9
100
AcDbSymbolTableRecord
100
AcDbRegAppTableRecord
  2
GEVID1210549917
 70
     0
  0
APPID
  5
4F3
330
9
100
AcDbSymbolTableRecord
100
AcDbRegAppTableRecord
  2
GENIUS_GENOBJ-N-CRS_13
 70
     0
  0
APPID
  5
4F4
330
9
100
AcDbSymbolTableRecord
100
AcDbRegAppTableRecord
  2
GEVID1210549918
 70
     0
  0
APPID
  5
4F5
330
9
100
AcDbSymbolTableRecord
100
AcDbRegAppTableRecord
  2
GENIUS_GENOBJ-N-CRC_13
 70
     0
  0
APPID
  5
4F6
330
9
100
AcDbSymbolTableRecord
100
AcDbRegAppTableRecord
  2
GENIUS_GENCRC_14
 70
     0
  0
APPID
  5
4F7
330
9
100
AcDbSymbolTableRecord
100
AcDbRegAppTableRecord
  2
GEVID1210549919
 70
     0
  0
APPID
  5
4F8
330
9
100
AcDbSymbolTableRecord
100
AcDbRegAppTableRecord
  2
GEVID1210549921
 70
     0
  0
APPID
  5
4F9
330
9
100
AcDbSymbolTableRecord
100
AcDbRegAppTableRecord
  2
GEVID1210549922
 70
     0
  0
APPID
  5
4FA
330
9
100
AcDbSymbolTableRecord
100
AcDbRegAppTableRecord
  2
GEVID1210635173
 70
     0
  0
APPID
  5
4FB
330
9
100
AcDbSymbolTableRecord
100
AcDbRegAppTableRecord
  2
GEVID1210635174
 70
     0
  0
APPID
  5
4FC
330
9
100
AcDbSymbolTableRecord
100
AcDbRegAppTableRecord
  2
GEVID1210635175
 70
     0
  0
APPID
  5
4FD
330
9
100
AcDbSymbolTableRecord
100
AcDbRegAppTableRecord
  2
GEVID1210635176
 70
     0
  0
APPID
  5
4FE
330
9
100
AcDbSymbolTableRecord
100
AcDbRegAppTableRecord
  2
GEVID1210635177
 70
     0
  0
APPID
  5
4FF
330
9
100
AcDbSymbolTableRecord
100
AcDbRegAppTableRecord
  2
GEVID1210635178
 70
     0
  0
APPID
  5
500
330
9
100
AcDbSymbolTableRecord
100
AcDbRegAppTableRecord
  2
GENIUS_GENIUS_GENBHEDTMP_13
 70
     0
  0
APPID
  5
501
330
9
100
AcDbSymbolTableRecord
100
AcDbRegAppTableRecord
  2
GEVID1210635179
 70
     0
  0
APPID
  5
502
330
9
100
AcDbSymbolTableRecord
100
AcDbRegAppTableRecord
  2
GEVID1210635180
 70
     0
  0
APPID
  5
503
330
9
100
AcDbSymbolTableRecord
100
AcDbRegAppTableRecord
  2
GEVID1210635181
 70
     0
  0
APPID
  5
504
330
9
100
AcDbSymbolTableRecord
100
AcDbRegAppTableRecord
  2
GEVID1210635182
 70
     0
  0
APPID
  5
505
330
9
100
AcDbSymbolTableRecord
100
AcDbRegAppTableRecord
  2
GEVID1210635184
 70
     0
  0
APPID
  5
506
330
9
100
AcDbSymbolTableRecord
100
AcDbRegAppTableRecord
  2
GEVID1210635185
 70
     0
  0
APPID
  5
507
330
9
100
AcDbSymbolTableRecord
100
AcDbRegAppTableRecord
  2
GEVID1210635186
 70
     0
  0
APPID
  5
508
330
9
100
AcDbSymbolTableRecord
100
AcDbRegAppTableRecord
  2
GEVID1210635187
 70
     0
  0
APPID
  5
509
330
9
100
AcDbSymbolTableRecord
100
AcDbRegAppTableRecord
  2
GEVID1210635188
 70
     0
  0
APPID
  5
50A
330
9
100
AcDbSymbolTableRecord
100
AcDbRegAppTableRecord
  2
GEVID1210635189
 70
     0
  0
APPID
  5
50B
330
9
100
AcDbSymbolTableRecord
100
AcDbRegAppTableRecord
  2
GEVID1210635190
 70
     0
  0
APPID
  5
50C
330
9
100
AcDbSymbolTableRecord
100
AcDbRegAppTableRecord
  2
GENIUS_GENREC_14
 70
     0
  0
APPID
  5
50D
330
9
100
AcDbSymbolTableRecord
100
AcDbRegAppTableRecord
  2
GENIUS_GENOBJ-N-REC_13
 70
     0
  0
APPID
  5
50E
330
9
100
AcDbSymbolTableRecord
100
AcDbRegAppTableRecord
  2
GEVID1210676655
 70
     0
  0
APPID
  5
50F
330
9
100
AcDbSymbolTableRecord
100
AcDbRegAppTableRecord
  2
GEVID1210676656
 70
     0
  0
APPID
  5
510
330
9
100
AcDbSymbolTableRecord
100
AcDbRegAppTableRecord
  2
GEVID1210676657
 70
     0
  0
APPID
  5
511
330
9
100
AcDbSymbolTableRecord
100
AcDbRegAppTableRecord
  2
GEVID1210676659
 70
     0
  0
APPID
  5
512
330
9
100
AcDbSymbolTableRecord
100
AcDbRegAppTableRecord
  2
GEVID1210676660
 70
     0
  0
APPID
  5
513
330
9
100
AcDbSymbolTableRecord
100
AcDbRegAppTableRecord
  2
GEVID1210676661
 70
     0
  0
APPID
  5
514
330
9
100
AcDbSymbolTableRecord
100
AcDbRegAppTableRecord
  2
GEVID1210676662
 70
     0
  0
APPID
  5
515
330
9
100
AcDbSymbolTableRecord
100
AcDbRegAppTableRecord
  2
GEVID1210721646
 70
     0
  0
APPID
  5
516
330
9
100
AcDbSymbolTableRecord
100
AcDbRegAppTableRecord
  2
GEVID1210721647
 70
     0
  0
APPID
  5
517
330
9
100
AcDbSymbolTableRecord
100
AcDbRegAppTableRecord
  2
GEVID1210721648
 70
     0
  0
APPID
  5
518
330
9
100
AcDbSymbolTableRecord
100
AcDbRegAppTableRecord
  2
GEVID1210721649
 70
     0
  0
APPID
  5
519
330
9
100
AcDbSymbolTableRecord
100
AcDbRegAppTableRecord
  2
GEVID1210721650
 70
     0
  0
APPID
  5
51A
330
9
100
AcDbSymbolTableRecord
100
AcDbRegAppTableRecord
  2
GEVID1210721651
 70
     0
  0
APPID
  5
51B
330
9
100
AcDbSymbolTableRecord
100
AcDbRegAppTableRecord
  2
GEVID1210721652
 70
     0
  0
APPID
  5
51C
330
9
100
AcDbSymbolTableRecord
100
AcDbRegAppTableRecord
  2
GEVID1210721653
 70
     0
  0
APPID
  5
51D
330
9
100
AcDbSymbolTableRecord
100
AcDbRegAppTableRecord
  2
PE_URL
 70
     0
  0
APPID
  5
51E
330
9
100
AcDbSymbolTableRecord
100
AcDbRegAppTableRecord
  2
GEVID1210825555
 70
     0
  0
APPID
  5
51F
330
9
100
AcDbSymbolTableRecord
100
AcDbRegAppTableRecord
  2
GEVID1210825556
 70
     0
  0
APPID
  5
520
330
9
100
AcDbSymbolTableRecord
100
AcDbRegAppTableRecord
  2
GEVID1210825557
 70
     0
  0
APPID
  5
521
330
9
100
AcDbSymbolTableRecord
100
AcDbRegAppTableRecord
  2
GEVID1210825558
 70
     0
  0
APPID
  5
522
330
9
100
AcDbSymbolTableRecord
100
AcDbRegAppTableRecord
  2
GEVID1210825559
 70
     0
  0
APPID
  5
523
330
9
100
AcDbSymbolTableRecord
100
AcDbRegAppTableRecord
  2
GEVID1210825560
 70
     0
  0
APPID
  5
524
330
9
100
AcDbSymbolTableRecord
100
AcDbRegAppTableRecord
  2
GEVID1210825561
 70
     0
  0
APPID
  5
525
330
9
100
AcDbSymbolTableRecord
100
AcDbRegAppTableRecord
  2
GEVID1210825562
 70
     0
  0
APPID
  5
526
330
9
100
AcDbSymbolTableRecord
100
AcDbRegAppTableRecord
  2
GEVID1210825563
 70
     0
  0
APPID
  5
527
330
9
100
AcDbSymbolTableRecord
100
AcDbRegAppTableRecord
  2
GEVID1210825564
 70
     0
  0
APPID
  5
528
330
9
100
AcDbSymbolTableRecord
100
AcDbRegAppTableRecord
  2
GEVID1210825565
 70
     0
  0
APPID
  5
529
330
9
100
AcDbSymbolTableRecord
100
AcDbRegAppTableRecord
  2
GEVID1210825566
 70
     0
  0
APPID
  5
52A
330
9
100
AcDbSymbolTableRecord
100
AcDbRegAppTableRecord
  2
GEVID1210825567
 70
     0
  0
APPID
  5
52B
330
9
100
AcDbSymbolTableRecord
100
AcDbRegAppTableRecord
  2
GENIUS_GENOBJ-N-ZOO_13
 70
     0
  0
APPID
  5
52C
330
9
100
AcDbSymbolTableRecord
100
AcDbRegAppTableRecord
  2
GENIUS_GENZOO_17
 70
     0
  0
APPID
  5
52D
330
9
100
AcDbSymbolTableRecord
100
AcDbRegAppTableRecord
  2
ACADANNOTATIVEDECOMPOSITION
 70
     0
  0
APPID
  5
52E
330
9
100
AcDbSymbolTableRecord
100
AcDbRegAppTableRecord
  2
GENIUS_GENOBJ-N-HTC_13
 70
     0
  0
APPID
  5
52F
330
9
100
AcDbSymbolTableRecord
100
AcDbRegAppTableRecord
  2
GENIUS_GENHATCH_13
 70
     0
  0
APPID
  5
530
330
9
100
AcDbSymbolTableRecord
100
AcDbRegAppTableRecord
  2
GEVID1210896020
 70
     0
  0
APPID
  5
531
330
9
100
AcDbSymbolTableRecord
100
AcDbRegAppTableRecord
  2
GEVID1210896021
 70
     0
  0
APPID
  5
532
330
9
100
AcDbSymbolTableRecord
100
AcDbRegAppTableRecord
  2
GEVID1209083540
 70
     0
  0
APPID
  5
533
330
9
100
AcDbSymbolTableRecord
100
AcDbRegAppTableRecord
  2
GEVMK
 70
     0
  0
APPID
  5
534
330
9
100
AcDbSymbolTableRecord
100
AcDbRegAppTableRecord
  2
GEVID1209083542
 70
     0
  0
APPID
  5
535
330
9
100
AcDbSymbolTableRecord
100
AcDbRegAppTableRecord
  2
GEVID1209083543
 70
     0
  0
APPID
  5
536
330
9
100
AcDbSymbolTableRecord
100
AcDbRegAppTableRecord
  2
GEVID1209083544
 70
     0
  0
APPID
  5
537
330
9
100
AcDbSymbolTableRecord
100
AcDbRegAppTableRecord
  2
GEVID1209083545
 70
     0
  0
APPID
  5
538
330
9
100
AcDbSymbolTableRecord
100
AcDbRegAppTableRecord
  2
GEVID1209083546
 70
     0
  0
APPID
  5
539
330
9
100
AcDbSymbolTableRecord
100
AcDbRegAppTableRecord
  2
GEVID1209083547
 70
     0
  0
APPID
  5
53A
330
9
100
AcDbSymbolTableRecord
100
AcDbRegAppTableRecord
  2
GEVID1209083548
 70
     0
  0
APPID
  5
53B
330
9
100
AcDbSymbolTableRecord
100
AcDbRegAppTableRecord
  2
GEVID1209083549
 70
     0
  0
APPID
  5
53C
330
9
100
AcDbSymbolTableRecord
100
AcDbRegAppTableRecord
  2
GEVID1209083550
 70
     0
  0
APPID
  5
53D
330
9
100
AcDbSymbolTableRecord
100
AcDbRegAppTableRecord
  2
GEVID1209083551
 70
     0
  0
APPID
  5
53E
330
9
100
AcDbSymbolTableRecord
100
AcDbRegAppTableRecord
  2
GEVID1209083552
 70
     0
  0
APPID
  5
53F
330
9
100
AcDbSymbolTableRecord
100
AcDbRegAppTableRecord
  2
GEVID1209083553
 70
     0
  0
APPID
  5
540
330
9
100
AcDbSymbolTableRecord
100
AcDbRegAppTableRecord
  2
GEVID1210896022
 70
     0
  0
APPID
  5
541
330
9
100
AcDbSymbolTableRecord
100
AcDbRegAppTableRecord
  2
GEVID1211508364
 70
     0
  0
APPID
  5
542
330
9
100
AcDbSymbolTableRecord
100
AcDbRegAppTableRecord
  2
GEVID1211414908
 70
     0
  0
APPID
  5
543
330
9
100
AcDbSymbolTableRecord
100
AcDbRegAppTableRecord
  2
GEVID1211414909
 70
     0
  0
APPID
  5
544
330
9
100
AcDbSymbolTableRecord
100
AcDbRegAppTableRecord
  2
GEVID1211508359
 70
     0
  0
APPID
  5
545
330
9
100
AcDbSymbolTableRecord
100
AcDbRegAppTableRecord
  2
GEVID1211508360
 70
     0
  0
APPID
  5
546
330
9
100
AcDbSymbolTableRecord
100
AcDbRegAppTableRecord
  2
GEVID1211508361
 70
     0
  0
APPID
  5
547
330
9
100
AcDbSymbolTableRecord
100
AcDbRegAppTableRecord
  2
GEVID1211508362
 70
     0
  0
APPID
  5
548
330
9
100
AcDbSymbolTableRecord
100
AcDbRegAppTableRecord
  2
GEVID1211508363
 70
     0
  0
APPID
  5
549
330
9
100
AcDbSymbolTableRecord
100
AcDbRegAppTableRecord
  2
GEVID1211878469
 70
     0
  0
APPID
  5
54A
330
9
100
AcDbSymbolTableRecord
100
AcDbRegAppTableRecord
  2
GEVID1212642819
 70
     0
  0
APPID
  5
54B
330
9
100
AcDbSymbolTableRecord
100
AcDbRegAppTableRecord
  2
GEVID1212642820
 70
     0
  0
APPID
  5
54C
330
9
100
AcDbSymbolTableRecord
100
AcDbRegAppTableRecord
  2
GEVID1212642821
 70
     0
  0
APPID
  5
54D
330
9
100
AcDbSymbolTableRecord
100
AcDbRegAppTableRecord
  2
GEVID1212642822
 70
     0
  0
APPID
  5
54E
330
9
100
AcDbSymbolTableRecord
100
AcDbRegAppTableRecord
  2
GEVID1212642823
 70
     0
  0
APPID
  5
54F
330
9
100
AcDbSymbolTableRecord
100
AcDbRegAppTableRecord
  2
GEVID1212642825
 70
     0
  0
APPID
  5
550
330
9
100
AcDbSymbolTableRecord
100
AcDbRegAppTableRecord
  2
GEVID1212642826
 70
     0
  0
APPID
  5
551
330
9
100
AcDbSymbolTableRecord
100
AcDbRegAppTableRecord
  2
GEVID1212642827
 70
     0
  0
APPID
  5
552
330
9
100
AcDbSymbolTableRecord
100
AcDbRegAppTableRecord
  2
GEVID1212642828
 70
     0
  0
APPID
  5
553
330
9
100
AcDbSymbolTableRecord
100
AcDbRegAppTableRecord
  2
GEVID1212642831
 70
     0
  0
APPID
  5
554
330
9
100
AcDbSymbolTableRecord
100
AcDbRegAppTableRecord
  2
GEVID1212642834
 70
     0
  0
APPID
  5
555
330
9
100
AcDbSymbolTableRecord
100
AcDbRegAppTableRecord
  2
GEVID1212642835
 70
     0
  0
APPID
  5
556
330
9
100
AcDbSymbolTableRecord
100
AcDbRegAppTableRecord
  2
GEVID1212642836
 70
     0
  0
APPID
  5
557
330
9
100
AcDbSymbolTableRecord
100
AcDbRegAppTableRecord
  2
GEVID1212642837
 70
     0
  0
APPID
  5
558
330
9
100
AcDbSymbolTableRecord
100
AcDbRegAppTableRecord
  2
GEVID1212642839
 70
     0
  0
APPID
  5
559
330
9
100
AcDbSymbolTableRecord
100
AcDbRegAppTableRecord
  2
GEVID1212642840
 70
     0
  0
APPID
  5
55A
330
9
100
AcDbSymbolTableRecord
100
AcDbRegAppTableRecord
  2
GEVID1212642841
 70
     0
  0
APPID
  5
55B
330
9
100
AcDbSymbolTableRecord
100
AcDbRegAppTableRecord
  2
GEVID1212655312
 70
     0
  0
APPID
  5
55C
330
9
100
AcDbSymbolTableRecord
100
AcDbRegAppTableRecord
  2
GEVID1212655313
 70
     0
  0
APPID
  5
55D
330
9
100
AcDbSymbolTableRecord
100
AcDbRegAppTableRecord
  2
GEVID1212656533
 70
     0
  0
APPID
  5
55E
330
9
100
AcDbSymbolTableRecord
100
AcDbRegAppTableRecord
  2
GEVID1212656534
 70
     0
  0
APPID
  5
55F
330
9
100
AcDbSymbolTableRecord
100
AcDbRegAppTableRecord
  2
GEVID1212656535
 70
     0
  0
APPID
  5
560
330
9
100
AcDbSymbolTableRecord
100
AcDbRegAppTableRecord
  2
GEVID1212656536
 70
     0
  0
APPID
  5
561
330
9
100
AcDbSymbolTableRecord
100
AcDbRegAppTableRecord
  2
GEVID1212656538
 70
     0
  0
APPID
  5
562
330
9
100
AcDbSymbolTableRecord
100
AcDbRegAppTableRecord
  2
GEVID1212656541
 70
     0
  0
APPID
  5
563
330
9
100
AcDbSymbolTableRecord
100
AcDbRegAppTableRecord
  2
GEVID1212656543
 70
     0
  0
APPID
  5
564
330
9
100
AcDbSymbolTableRecord
100
AcDbRegAppTableRecord
  2
GENIUS_GENOBJ-F-PFASSM_13
 70
     0
  0
APPID
  5
565
330
9
100
AcDbSymbolTableRecord
100
AcDbRegAppTableRecord
  2
GEVID1212656544
 70
     0
  0
APPID
  5
566
330
9
100
AcDbSymbolTableRecord
100
AcDbRegAppTableRecord
  2
GEVID1212656545
 70
     0
  0
APPID
  5
567
330
9
100
AcDbSymbolTableRecord
100
AcDbRegAppTableRecord
  2
GEVID1212656546
 70
     0
  0
APPID
  5
568
330
9
100
AcDbSymbolTableRecord
100
AcDbRegAppTableRecord
  2
GEVID1212656547
 70
     0
  0
APPID
  5
569
330
9
100
AcDbSymbolTableRecord
100
AcDbRegAppTableRecord
  2
GEVID1212656548
 70
     0
  0
APPID
  5
56A
330
9
100
AcDbSymbolTableRecord
100
AcDbRegAppTableRecord
  2
GEVID1212656549
 70
     0
  0
APPID
  5
56B
330
9
100
AcDbSymbolTableRecord
100
AcDbRegAppTableRecord
  2
GEVID1212656550
 70
     0
  0
APPID
  5
56C
330
9
100
AcDbSymbolTableRecord
100
AcDbRegAppTableRecord
  2
GEVID1212656552
 70
     0
  0
APPID
  5
56D
330
9
100
AcDbSymbolTableRecord
100
AcDbRegAppTableRecord
  2
GEVID1212656553
 70
     0
  0
APPID
  5
56E
330
9
100
AcDbSymbolTableRecord
100
AcDbRegAppTableRecord
  2
GEVID1212656554
 70
     0
  0
APPID
  5
56F
330
9
100
AcDbSymbolTableRecord
100
AcDbRegAppTableRecord
  2
GEVID1212656555
 70
     0
  0
APPID
  5
570
330
9
100
AcDbSymbolTableRecord
100
AcDbRegAppTableRecord
  2
GEVID1212656556
 70
     0
  0
APPID
  5
571
330
9
100
AcDbSymbolTableRecord
100
AcDbRegAppTableRecord
  2
GEVID1212656557
 70
     0
  0
APPID
  5
572
330
9
100
AcDbSymbolTableRecord
100
AcDbRegAppTableRecord
  2
GEVID1212656559
 70
     0
  0
APPID
  5
573
330
9
100
AcDbSymbolTableRecord
100
AcDbRegAppTableRecord
  2
GEVID1212656560
 70
     0
  0
APPID
  5
574
330
9
100
AcDbSymbolTableRecord
100
AcDbRegAppTableRecord
  2
GEVID1212656561
 70
     0
  0
APPID
  5
575
330
9
100
AcDbSymbolTableRecord
100
AcDbRegAppTableRecord
  2
GEVID1212656562
 70
     0
  0
APPID
  5
576
330
9
100
AcDbSymbolTableRecord
100
AcDbRegAppTableRecord
  2
GEVID1212656563
 70
     0
  0
APPID
  5
577
330
9
100
AcDbSymbolTableRecord
100
AcDbRegAppTableRecord
  2
GEVID1212711781
 70
     0
  0
APPID
  5
578
330
9
100
AcDbSymbolTableRecord
100
AcDbRegAppTableRecord
  2
GEVID1212711782
 70
     0
  0
APPID
  5
579
330
9
100
AcDbSymbolTableRecord
100
AcDbRegAppTableRecord
  2
GEVID1212711783
 70
     0
  0
APPID
  5
57A
330
9
100
AcDbSymbolTableRecord
100
AcDbRegAppTableRecord
  2
GEVID1212711784
 70
     0
  0
APPID
  5
57B
330
9
100
AcDbSymbolTableRecord
100
AcDbRegAppTableRecord
  2
GEVID1212711788
 70
     0
  0
APPID
  5
57C
330
9
100
AcDbSymbolTableRecord
100
AcDbRegAppTableRecord
  2
GEVID1212711789
 70
     0
  0
APPID
  5
57D
330
9
100
AcDbSymbolTableRecord
100
AcDbRegAppTableRecord
  2
GEVID1212711790
 70
     0
  0
APPID
  5
57E
330
9
100
AcDbSymbolTableRecord
100
AcDbRegAppTableRecord
  2
GEVID1212711791
 70
     0
  0
APPID
  5
57F
330
9
100
AcDbSymbolTableRecord
100
AcDbRegAppTableRecord
  2
GEVID1212711792
 70
     0
  0
APPID
  5
580
330
9
100
AcDbSymbolTableRecord
100
AcDbRegAppTableRecord
  2
GEVID1212711793
 70
     0
  0
APPID
  5
581
330
9
100
AcDbSymbolTableRecord
100
AcDbRegAppTableRecord
  2
GEVID1212711794
 70
     0
  0
APPID
  5
582
330
9
100
AcDbSymbolTableRecord
100
AcDbRegAppTableRecord
  2
GEVID1212711795
 70
     0
  0
APPID
  5
583
330
9
100
AcDbSymbolTableRecord
100
AcDbRegAppTableRecord
  2
GEVID1212711797
 70
     0
  0
APPID
  5
584
330
9
100
AcDbSymbolTableRecord
100
AcDbRegAppTableRecord
  2
GEVID1212711798
 70
     0
  0
APPID
  5
585
330
9
100
AcDbSymbolTableRecord
100
AcDbRegAppTableRecord
  2
GEVID1212711799
 70
     0
  0
APPID
  5
586
330
9
100
AcDbSymbolTableRecord
100
AcDbRegAppTableRecord
  2
GEVID1212711800
 70
     0
  0
APPID
  5
587
330
9
100
AcDbSymbolTableRecord
100
AcDbRegAppTableRecord
  2
GEVID1212711801
 70
     0
  0
APPID
  5
588
330
9
100
AcDbSymbolTableRecord
100
AcDbRegAppTableRecord
  2
GEVID1212711802
 70
     0
  0
APPID
  5
589
330
9
100
AcDbSymbolTableRecord
100
AcDbRegAppTableRecord
  2
GEVID1212711803
 70
     0
  0
APPID
  5
58A
330
9
100
AcDbSymbolTableRecord
100
AcDbRegAppTableRecord
  2
GEVID1212711804
 70
     0
  0
APPID
  5
58B
330
9
100
AcDbSymbolTableRecord
100
AcDbRegAppTableRecord
  2
GEVID1212711805
 70
     0
  0
APPID
  5
58C
330
9
100
AcDbSymbolTableRecord
100
AcDbRegAppTableRecord
  2
GEVID1212711806
 70
     0
  0
APPID
  5
58D
330
9
100
AcDbSymbolTableRecord
100
AcDbRegAppTableRecord
  2
GEVID1212711807
 70
     0
  0
APPID
  5
58E
330
9
100
AcDbSymbolTableRecord
100
AcDbRegAppTableRecord
  2
GEVID1212711808
 70
     0
  0
APPID
  5
58F
330
9
100
AcDbSymbolTableRecord
100
AcDbRegAppTableRecord
  2
GEVID1212711809
 70
     0
  0
APPID
  5
590
330
9
100
AcDbSymbolTableRecord
100
AcDbRegAppTableRecord
  2
GEVID1212711810
 70
     0
  0
APPID
  5
591
330
9
100
AcDbSymbolTableRecord
100
AcDbRegAppTableRecord
  2
GEVID1212711811
 70
     0
  0
APPID
  5
90A
330
9
100
AcDbSymbolTableRecord
100
AcDbRegAppTableRecord
  2
GENIUS_GENTRA_14
 70
     0
  0
APPID
  5
919
330
9
100
AcDbSymbolTableRecord
100
AcDbRegAppTableRecord
  2
GENIUS_GENOBJ-N-TIT_13
 70
     0
  0
APPID
  5
91A
330
9
100
AcDbSymbolTableRecord
100
AcDbRegAppTableRecord
  2
GENIUS_GENTITLE_13
 70
     0
  0
APPID
  5
949
330
9
100
AcDbSymbolTableRecord
100
AcDbRegAppTableRecord
  2
GENIUS_GENBLLY_14
 70
     0
  0
APPID
  5
DDD
330
9
100
AcDbSymbolTableRecord
100
AcDbRegAppTableRecord
  2
GEVID1213165152
 70
     0
  0
APPID
  5
12F9
330
9
100
AcDbSymbolTableRecord
100
AcDbRegAppTableRecord
  2
AcDbDynamicBlockTrueName
 70
     0
  0
APPID
  5
12FA
330
9
100
AcDbSymbolTableRecord
100
AcDbRegAppTableRecord
  2
ACDBBLOCKREPETAG
 70
     0
  0
APPID
  5
1C15
330
9
100
AcDbSymbolTableRecord
100
AcDbRegAppTableRecord
  2
GEVID1214872427
 70
     0
  0
APPID
  5
1C2A
330
9
100
AcDbSymbolTableRecord
100
AcDbRegAppTableRecord
  2
GEVID1214872428
 70
     0
  0
APPID
  5
1C2F
330
9
100
AcDbSymbolTableRecord
100
AcDbRegAppTableRecord
  2
GEVID1214872429
 70
     0
  0
APPID
  5
1C33
330
9
100
AcDbSymbolTableRecord
100
AcDbRegAppTableRecord
  2
GEVID1214872430
 70
     0
  0
APPID
  5
1C3F
330
9
100
AcDbSymbolTableRecord
100
AcDbRegAppTableRecord
  2
GEVID1214872432
 70
     0
  0
APPID
  5
1C4E
330
9
100
AcDbSymbolTableRecord
100
AcDbRegAppTableRecord
  2
GEVID1214872433
 70
     0
  0
APPID
  5
20DC
330
9
100
AcDbSymbolTableRecord
100
AcDbRegAppTableRecord
  2
AcDbDynamicBlockGUID
 70
     0
  0
APPID
  5
20FD
330
9
100
AcDbSymbolTableRecord
100
AcDbRegAppTableRecord
  2
GENIUS_GENOBJ-N-REV_13
 70
     0
  0
APPID
  5
20FE
330
9
100
AcDbSymbolTableRecord
100
AcDbRegAppTableRecord
  2
GENIUS_GENOBJ-N-RSSYM_13
 70
     0
  0
APPID
  5
20FF
330
9
100
AcDbSymbolTableRecord
100
AcDbRegAppTableRecord
  2
GENIUS_GENSYMENT_13
 70
     0
  0
APPID
  5
2100
330
9
100
AcDbSymbolTableRecord
100
AcDbRegAppTableRecord
  2
GENIUS_GENSCSYM_13
 70
     0
  0
APPID
  5
446F
330
9
100
AcDbSymbolTableRecord
100
AcDbRegAppTableRecord
  2
ACLAYERTOOLS
 70
     0
  0
APPID
  5
54F0
330
9
100
AcDbSymbolTableRecord
100
AcDbRegAppTableRecord
  2
GEVID1242619261
 70
     0
  0
APPID
  5
54FA
330
9
100
AcDbSymbolTableRecord
100
AcDbRegAppTableRecord
  2
GEVID1242619262
 70
     0
  0
APPID
  5
5B89
330
9
100
AcDbSymbolTableRecord
100
AcDbRegAppTableRecord
  2
ACAUTHENVIRON
 70
     0
  0
APPID
  5
6F1E
330
9
100
AcDbSymbolTableRecord
100
AcDbRegAppTableRecord
  2
AcDbBlockRepBTag
 70
     0
  0
APPID
  5
A389
330
9
100
AcDbSymbolTableRecord
100
AcDbRegAppTableRecord
  2
GEVID1242619264
 70
     0
  0
APPID
  5
A394
330
9
100
AcDbSymbolTableRecord
100
AcDbRegAppTableRecord
  2
GENIUS_GENCFG_13
 70
     0
1001
GENIUS_GENCFG0_13
1000
GEN
  0
APPID
  5
A395
330
9
100
AcDbSymbolTableRecord
100
AcDbRegAppTableRecord
  2
GENIUS_GENCFG0_13
 70
     0
1001
GENIUS_GENCFG_13
1071
1242640052
1000
A395
1000
GEN
1070
     0
  0
ENDTAB
  0
TABLE
  2
DIMSTYLE
  5
A
330
0
100
AcDbSymbolTable
 70
    30
100
AcDbDimStyleTable
 71
     1
340
5AB
  0
DIMSTYLE
105
5AB
330
A
100
AcDbSymbolTableRecord
100
AcDbDimStyleTableRecord
  2
SEISA
 70
     0
  4
"
 40
4.0
 41
2.5
 42
0.625
 43
10.0
 44
0.625
 47
0.1
 48
0.1
 73
     0
 74
     0
 77
     3
 78
     8
 79
     2
 90
     1
140
3.5
141
0.0
143
0.0393701
146
0.71
147
1.5
172
     1
176
     3
177
     3
178
     3
271
     2
272
     2
283
     0
286
     8
340
5D5
341
69
342
69
371
    -1
372
    -1
1001
ACAD_DSTYLE_DIMJAG
1070
   388
1040
1.5
1001
ACAD_DSTYLE_DIMTALN
1070
   392
1070
     1
  0
DIMSTYLE
105
5E9
102
{ACAD_REACTORS
330
7CE7
330
7D38
330
7DA9
330
85F5
330
8632
330
866E
330
86AB
330
8A7F
330
8A93
330
8AC5
330
8B22
330
BF77
330
EFCE
330
EFF8
330
F3D6
102
}
330
A
100
AcDbSymbolTableRecord
100
AcDbDimStyleTableRecord
  2
SEISA$0
 70
     0
  4
"
 40
4.0
 41
2.5
 42
0.625
 43
10.0
 44
0.625
 47
0.1
 48
0.1
 73
     0
 74
     0
 77
     3
 78
     8
 79
     2
 90
     1
140
3.5
141
0.0
143
0.0393701
146
0.71
147
1.5
172
     1
176
     3
177
     3
178
     3
271
     2
272
     2
283
     0
286
     8
340
5D5
341
69
342
69
371
    -1
372
    -1
  0
DIMSTYLE
105
F261
330
A
100
AcDbSymbolTableRecord
100
AcDbDimStyleTableRecord
  2
STANDARD
 70
     0
340
11
  0
DIMSTYLE
105
F7D7
330
A
100
AcDbSymbolTableRecord
100
AcDbDimStyleTableRecord
  2
AM_ISO
 70
     0
  4
"
 41
2.5
 42
1.0
 43
10.0
 44
1.0
 47
0.1
 48
0.1
 73
     0
 74
     0
 77
     1
 78
     8
 79
     2
 90
     1
140
3.5
141
0.0
143
0.0393701
146
0.71
147
1.5
172
     1
176
   256
177
   256
178
     2
271
     2
272
     3
274
     4
283
     0
284
     8
340
11
371
    -1
372
    -1
  0
DIMSTYLE
105
F7D8
330
A
100
AcDbSymbolTableRecord
100
AcDbDimStyleTableRecord
  2
AM_ISO$3
 70
     0
  4
"
 41
2.5
 42
1.0
 43
10.0
 44
1.0
 47
0.1
 48
0.1
 73
     0
 77
     1
 78
     8
 79
     2
 90
     1
140
3.5
141
0.0
143
0.0393701
146
0.71
147
1.5
176
   256
177
   256
178
     2
271
     2
272
     3
274
     4
283
     0
284
     8
288
     1
289
     0
340
11
371
    -1
372
    -1
  0
DIMSTYLE
105
F7D9
330
A
100
AcDbSymbolTableRecord
100
AcDbDimStyleTableRecord
  2
AM_ISO$4
 70
     0
  4
"
 41
2.5
 42
1.0
 43
10.0
 44
1.0
 47
0.1
 48
0.1
 73
     0
 77
     1
 78
     8
 79
     2
 90
     1
140
3.5
141
0.0
143
0.0393701
146
0.71
147
1.5
176
   256
177
   256
178
     2
271
     2
272
     3
274
     4
283
     0
284
     8
288
     1
289
     0
340
11
371
    -1
372
    -1
  0
DIMSTYLE
105
F7DA
330
A
100
AcDbSymbolTableRecord
100
AcDbDimStyleTableRecord
  2
AM_ISO$6
 70
     0
  4
"
 41
2.5
 42
1.0
 43
10.0
 44
1.0
 47
0.1
 48
0.1
 73
     0
 74
     0
 78
     8
 79
     2
 90
     1
140
3.5
141
0.0
143
0.0393701
146
0.71
147
1.5
172
     1
176
   256
177
   256
178
     2
271
     2
272
     3
274
     4
283
     0
284
     8
340
11
371
    -1
372
    -1
  0
DIMSTYLE
105
F7DB
330
A
100
AcDbSymbolTableRecord
100
AcDbDimStyleTableRecord
  2
AM_ISO$7
 70
     0
  4
"
 41
2.5
 42
1.0
 43
10.0
 44
1.0
 47
0.1
 48
0.1
 73
     0
 74
     0
 77
     1
 78
     8
 79
     2
 90
     1
140
5.0
141
0.0
143
0.0393701
146
0.71
147
1.5
172
     1
176
   256
177
   256
178
     2
271
     2
272
     3
274
     4
283
     0
284
     8
340
11
371
    -1
372
    -1
  0
DIMSTYLE
105
F7DC
330
A
100
AcDbSymbolTableRecord
100
AcDbDimStyleTableRecord
  2
AM_ISO$SF
 70
     0
  4
"
 41
2.5
 42
1.0
 43
10.0
 44
1.0
 47
0.1
 48
0.1
 73
     0
 74
     0
 75
     1
 76
     1
 77
     1
 78
     8
 79
     2
 90
     1
140
3.5
141
0.0
143
0.0393701
146
0.71
147
1.5
172
     1
176
   256
177
   256
178
     2
271
     2
272
     3
274
     4
283
     0
284
     8
340
11
371
    -1
372
    -1
  0
DIMSTYLE
105
F7DD
330
A
100
AcDbSymbolTableRecord
100
AcDbDimStyleTableRecord
  2
AM_ISO$SH
 70
     0
  4
"
 41
2.5
 42
1.0
 43
10.0
 44
1.0
 47
0.1
 48
0.1
 73
     0
 74
     0
 75
     1
 76
     1
 77
     1
 78
     8
 79
     2
 90
     1
140
3.5
141
0.0
143
0.0393701
144
2.0
146
0.71
147
1.5
172
     1
173
     1
176
   256
177
   256
178
     2
271
     2
272
     3
274
     4
283
     0
284
     8
340
11
343
74
371
    -1
372
    -1
  0
ENDTAB
  0
TABLE
  2
BLOCK_RECORD
  5
1
330
0
100
AcDbSymbolTable
 70
    38
  0
BLOCK_RECORD
  5
1F
102
{ACAD_XDICTIONARY
360
82
102
}
330
1
100
AcDbSymbolTableRecord
100
AcDbBlockTableRecord
  2
*Model_Space
340
22
 70
     0
280
     1
281
     0
  0
BLOCK_RECORD
  5
1B
330
1
100
AcDbSymbolTableRecord
100
AcDbBlockTableRecord
  2
*Paper_Space
340
1E
 70
     0
280
     1
281
     0
  0
BLOCK_RECORD
  5
23
330
1
100
AcDbSymbolTableRecord
100
AcDbBlockTableRecord
  2
*Paper_Space0
340
26
 70
     0
280
     1
281
     0
  0
BLOCK_RECORD
  5
69
330
1
100
AcDbSymbolTableRecord
100
AcDbBlockTableRecord
  2
_Open30
340
0
102
{BLKREFS
331
EB21
331
EB2C
331
EB6E
331
EB6F
331
EB77
331
EB78
331
EB80
331
EB81
331
EB89
331
EB8A
331
EB90
331
EB91
331
EB9B
331
EB9C
331
EBA4
331
EBA5
331
EBD9
331
EBDA
331
EFF2
331
EFF3
331
F02E
331
F02F
331
F039
331
F03A
331
F503
331
F504
331
F5C2
331
F5C3
102
}
 70
     0
280
     1
281
     0
  0
BLOCK_RECORD
  5
74
330
1
100
AcDbSymbolTableRecord
100
AcDbBlockTableRecord
  2
GENAXEH
340
0
 70
     0
280
     1
281
     0
  0
BLOCK_RECORD
  5
4A35
102
{ACAD_XDICTIONARY
360
6978
102
}
330
1
100
AcDbSymbolTableRecord
100
AcDbBlockTableRecord
  2
ロッカクアナツキプラグ-2 R1／2
340
0
310
2800000020000000200000000100080000000000000400000000000000000000000000000000000000000000000080000080000000808000800000008000800080800000C0C0C000C0DCC000F0CAA6000020400000206000002080000020A0000020C0000020E00000400000004020000040400000406000004080000040A0
310
000040C0000040E00000600000006020000060400000606000006080000060A0000060C0000060E00000800000008020000080400000806000008080000080A0000080C0000080E00000A0000000A0200000A0400000A0600000A0800000A0A00000A0C00000A0E00000C0000000C0200000C0400000C0600000C0800000C0
310
A00000C0C00000C0E00000E0000000E0200000E0400000E0600000E0800000E0A00000E0C00000E0E00040000000400020004000400040006000400080004000A0004000C0004000E00040200000402020004020400040206000402080004020A0004020C0004020E000404000004040200040404000404060004040800040
310
40A0004040C0004040E00040600000406020004060400040606000406080004060A0004060C0004060E00040800000408020004080400040806000408080004080A0004080C0004080E00040A0000040A0200040A0400040A0600040A0800040A0A00040A0C00040A0E00040C0000040C0200040C0400040C0600040C08000
310
40C0A00040C0C00040C0E00040E0000040E0200040E0400040E0600040E0800040E0A00040E0C00040E0E00080000000800020008000400080006000800080008000A0008000C0008000E00080200000802020008020400080206000802080008020A0008020C0008020E00080400000804020008040400080406000804080
310
008040A0008040C0008040E00080600000806020008060400080606000806080008060A0008060C0008060E00080800000808020008080400080806000808080008080A0008080C0008080E00080A0000080A0200080A0400080A0600080A0800080A0A00080A0C00080A0E00080C0000080C0200080C0400080C0600080C0
310
800080C0A00080C0C00080C0E00080E0000080E0200080E0400080E0600080E0800080E0A00080E0C00080E0E000C0000000C0002000C0004000C0006000C0008000C000A000C000C000C000E000C0200000C0202000C0204000C0206000C0208000C020A000C020C000C020E000C0400000C0402000C0404000C0406000C0
310
408000C040A000C040C000C040E000C0600000C0602000C0604000C0606000C0608000C060A000C060C000C060E000C0800000C0802000C0804000C0806000C0808000C080A000C080C000C080E000C0A00000C0A02000C0A04000C0A06000C0A08000C0A0A000C0A0C000C0A0E000C0C00000C0C02000C0C04000C0C06000
310
C0C08000C0C0A000F0FBFF00A4A0A000808080000000FF0000FF000000FFFF00FF000000FF00FF00FFFF0000FFFFFF00000000000000000000000000000000000000000000000000000000000000000000000000000000000000000000000000F9000000000000000000000000000000000000000000000000000000000000
310
00F900000000000000000000000000000000000000000000000000000000000000F900000000000000000000000000000000000000000000000000000000000000F900000000000000000000000000000000000000000000000000000000000000F900000000000000000000000000000000000000000000000000000000FE
310
FE00F9000000000000000000000000000000000000000000000000000000FE00FFFFF9FEFE0000000000000000000000000000000000000000000000FEFE00FF0000F9FFFFFFFEFE00000000000000000000000000000000000000FE00FFFF000000F9000000FFFFFE0000000000000000000000000000000000FE00FF0000
310
000000FF00000000FFFE00000000000000000000000000000000FE00FF00000000FFFFF9FF00000000FFFE000000000000000000000000000000FEFF000000FFFF0000F900FFFF0000FFFE000000000000000000000000000000FEFF0000FF00000000F9000000FF0000FFFE0000000000000000000000000000FEFF0000FF
310
00000000F9000000FF0000FFFE0000000000000000000000000000FEFF0000FF00000000F9000000FF000000FFFE00000000000000F9F9F9F9F9F9FEFFF9F9FFF9F9F9F9F9F9F9F9FFF9F9F9FFFEF9F9F9F9F90000000000000000FEFF0000FF00000000F9000000FF000000FF0000000000000000000000000000FEFF0000
310
FF00000000F9000000FF0000FFFE0000000000000000000000000000FEFF000000FFFF0000F90000FF000000FF000000000000000000000000000000FE00FF00000000FFFFF9FFFF000000FFFE00000000000000000000000000000000FE00FFFF00000000FF0000000000FF000000000000000000000000000000000000FE
310
FE00FF000000F9000000FFFFFE0000000000000000000000000000000000000000FE00FF0000F9FFFFFFFEFE00000000000000000000000000000000000000000000FE00FFFFF9FEFEFE00000000000000000000000000000000000000000000000000FEFEFEF9000000000000000000000000000000000000000000000000
310
00000000000000F900000000000000000000000000000000000000000000000000000000000000F900000000000000000000000000000000000000000000000000000000000000F900000000000000000000000000000000000000000000000000000000000000F90000000000000000000000000000000000000000000000
310
0000000000000000F90000000000000000000000000000000000000000000000000000000000000000000000000000000000000000000000
102
{BLKREFS
331
6A16
102
}
 70
     4
280
     0
281
     1
1001
AcDbDynamicBlockGUID
1000
{16C2689A-1AD5-4C32-9637-1EE625D48C7D}
1001
ACDBBLOCKREPETAG
1070
     1
1071
       10
  0
BLOCK_RECORD
  5
4B33
102
{ACAD_XDICTIONARY
360
716F
102
}
330
1
100
AcDbSymbolTableRecord
100
AcDbBlockTableRecord
  2
ロッカクアナツキプラグ-1 R1／8
340
0
310
2800000020000000200000000100080000000000000400000000000000000000000000000000000000000000000080000080000000808000800000008000800080800000C0C0C000C0DCC000F0CAA6000020400000206000002080000020A0000020C0000020E00000400000004020000040400000406000004080000040A0
310
000040C0000040E00000600000006020000060400000606000006080000060A0000060C0000060E00000800000008020000080400000806000008080000080A0000080C0000080E00000A0000000A0200000A0400000A0600000A0800000A0A00000A0C00000A0E00000C0000000C0200000C0400000C0600000C0800000C0
310
A00000C0C00000C0E00000E0000000E0200000E0400000E0600000E0800000E0A00000E0C00000E0E00040000000400020004000400040006000400080004000A0004000C0004000E00040200000402020004020400040206000402080004020A0004020C0004020E000404000004040200040404000404060004040800040
310
40A0004040C0004040E00040600000406020004060400040606000406080004060A0004060C0004060E00040800000408020004080400040806000408080004080A0004080C0004080E00040A0000040A0200040A0400040A0600040A0800040A0A00040A0C00040A0E00040C0000040C0200040C0400040C0600040C08000
310
40C0A00040C0C00040C0E00040E0000040E0200040E0400040E0600040E0800040E0A00040E0C00040E0E00080000000800020008000400080006000800080008000A0008000C0008000E00080200000802020008020400080206000802080008020A0008020C0008020E00080400000804020008040400080406000804080
310
008040A0008040C0008040E00080600000806020008060400080606000806080008060A0008060C0008060E00080800000808020008080400080806000808080008080A0008080C0008080E00080A0000080A0200080A0400080A0600080A0800080A0A00080A0C00080A0E00080C0000080C0200080C0400080C0600080C0
310
800080C0A00080C0C00080C0E00080E0000080E0200080E0400080E0600080E0800080E0A00080E0C00080E0E000C0000000C0002000C0004000C0006000C0008000C000A000C000C000C000E000C0200000C0202000C0204000C0206000C0208000C020A000C020C000C020E000C0400000C0402000C0404000C0406000C0
310
408000C040A000C040C000C040E000C0600000C0602000C0604000C0606000C0608000C060A000C060C000C060E000C0800000C0802000C0804000C0806000C0808000C080A000C080C000C080E000C0A00000C0A02000C0A04000C0A06000C0A08000C0A0A000C0A0C000C0A0E000C0C00000C0C02000C0C04000C0C06000
310
C0C08000C0C0A000F0FBFF00A4A0A000808080000000FF0000FF000000FFFF00FF000000FF00FF00FFFF0000FFFFFF00000000000000000000000000000000000000000000000000000000000000000000000000000000000000000000000000F9000000000000000000000000000000000000000000000000000000000000
310
00F900000000000000000000000000000000000000000000000000000000000000F900000000000000000000000000000000000000000000000000000000000000F900000000000000000000000000000000000000000000000000000000000000F90000000000000000000000000000000000000000000000000000000000
310
0000F900000000000000000000000000000000000000000000000000000000000000F900000000000000000000000000000000000000000000000000000000000000F900000000000000000000000000000000000000000000000000000000000000F9000000000000000000000000000000000000000000000000000000FE
310
FFFFFFF9FFFFFE000000000000000000000000000000000000000000000000FEFF0000F90000FFFE00000000000000000000000000000000000000000000FEFF000000FF0000FFFE00000000000000000000000000000000000000000000FEFF00FFFFF9FFFF00FFFE0000000000000000000000000000000000000000FEFF
310
FFFF0000F90000FFFFFE0000000000000000000000000000000000000000FEFFFF000000F90000FF00FFFE0000000000000000000000F9F9F9F9F9F9F9F9F9F9FFF9F9F9F9F9F9FFF9F9F9F9F9F9F9F9F9F9000000000000000000000000FEFFFF000000F90000FFFFFE0000000000000000000000000000000000000000FE
310
FF00FFFF00F9FFFF00FFFE000000000000000000000000000000000000000000FEFF0000FFFF0000FFFE00000000000000000000000000000000000000000000FEFF000000F90000FFFE0000000000000000000000000000000000000000000000FEFFFFFFF9FFFFFE00000000000000000000000000000000000000000000
310
000000000000F900000000000000000000000000000000000000000000000000000000000000F900000000000000000000000000000000000000000000000000000000000000F900000000000000000000000000000000000000000000000000000000000000F9000000000000000000000000000000000000000000000000
310
00000000000000F900000000000000000000000000000000000000000000000000000000000000F900000000000000000000000000000000000000000000000000000000000000F900000000000000000000000000000000000000000000000000000000000000F90000000000000000000000000000000000000000000000
310
0000000000000000F90000000000000000000000000000000000000000000000000000000000000000000000000000000000000000000000
102
{BLKREFS
331
7211
102
}
 70
     4
280
     0
281
     1
1001
AcDbDynamicBlockGUID
1000
{144C182B-A462-40F1-94F5-5A545BDB9913}
1001
ACDBBLOCKREPETAG
1070
     1
1071
       10
  0
BLOCK_RECORD
  5
4B42
102
{ACAD_XDICTIONARY
360
5B87
102
}
330
1
100
AcDbSymbolTableRecord
100
AcDbBlockTableRecord
  2
ＧＣサイドカバ－B CMVH500
340
0
310
2800000020000000200000000100080000000000000400000000000000000000000000000000000000000000000080000080000000808000800000008000800080800000C0C0C000C0DCC000F0CAA6000020400000206000002080000020A0000020C0000020E00000400000004020000040400000406000004080000040A0
310
000040C0000040E00000600000006020000060400000606000006080000060A0000060C0000060E00000800000008020000080400000806000008080000080A0000080C0000080E00000A0000000A0200000A0400000A0600000A0800000A0A00000A0C00000A0E00000C0000000C0200000C0400000C0600000C0800000C0
310
A00000C0C00000C0E00000E0000000E0200000E0400000E0600000E0800000E0A00000E0C00000E0E00040000000400020004000400040006000400080004000A0004000C0004000E00040200000402020004020400040206000402080004020A0004020C0004020E000404000004040200040404000404060004040800040
310
40A0004040C0004040E00040600000406020004060400040606000406080004060A0004060C0004060E00040800000408020004080400040806000408080004080A0004080C0004080E00040A0000040A0200040A0400040A0600040A0800040A0A00040A0C00040A0E00040C0000040C0200040C0400040C0600040C08000
310
40C0A00040C0C00040C0E00040E0000040E0200040E0400040E0600040E0800040E0A00040E0C00040E0E00080000000800020008000400080006000800080008000A0008000C0008000E00080200000802020008020400080206000802080008020A0008020C0008020E00080400000804020008040400080406000804080
310
008040A0008040C0008040E00080600000806020008060400080606000806080008060A0008060C0008060E00080800000808020008080400080806000808080008080A0008080C0008080E00080A0000080A0200080A0400080A0600080A0800080A0A00080A0C00080A0E00080C0000080C0200080C0400080C0600080C0
310
800080C0A00080C0C00080C0E00080E0000080E0200080E0400080E0600080E0800080E0A00080E0C00080E0E000C0000000C0002000C0004000C0006000C0008000C000A000C000C000C000E000C0200000C0202000C0204000C0206000C0208000C020A000C020C000C020E000C0400000C0402000C0404000C0406000C0
310
408000C040A000C040C000C040E000C0600000C0602000C0604000C0606000C0608000C060A000C060C000C060E000C0800000C0802000C0804000C0806000C0808000C080A000C080C000C080E000C0A00000C0A02000C0A04000C0A06000C0A08000C0A0A000C0A0C000C0A0E000C0C00000C0C02000C0C04000C0C06000
310
C0C08000C0C0A000F0FBFF00A4A0A000808080000000FF0000FF000000FFFF00FF000000FF00FF00FFFF0000FFFFFF0000000000000000000000000000000000000000000000000000000000000000000000000000000000000000000000000000000000000000000000000000000000000000000000000000000000000000
310
00000000000000000000000000000000000000000000000000000000000000000000000000000000000000000000000000000000000000000000000000000000000000000000000000000000000000000000000000000000000000000000000000000000000000000000000000000000000000000000000000000000000000
310
00000000000000000000000000000000000000000000000000000000000000000000000000000000000000000000000000000000000000000000000000000000000000000000000000000000000000000000000000000000000000000000000000000000000000000000000000000000000000000000000000000000000000
310
000000000000000000000000000000000000000000000000000000000000000000000000000000000000000000000000000000000000000000000000000000000000000000000000000000000000000000000000FF000000000000000000000000000000000000000000000000000000F9FF0000FF00000000000000000000
310
0000000000000000000000000000000000F9FF0000FFFFFFFF0000000000000000000000FFFFFFFFFFFFFFFFFFFFFFFFFFF9FF0000FF0000FF000000000000000000000000000000000000000000000000F9FF0000FFFFFFFF0000000000000000000000FFFFFFFFFFFFFFFFFFFFFFFFFFF9FF000000000000000000000000
310
000000000000000000000000000000000000F9000000000000000000000000000000000000000000000000000000000000000000000000000000000000000000000000000000000000000000000000000000000000000000000000000000000000000000000000000000000000000000000000000000000000000000000000
310
00000000000000000000000000000000000000000000000000000000000000000000000000000000000000000000000000000000000000000000000000000000000000000000000000000000000000000000000000000000000000000000000000000000000000000000000000000000000000000000000000000000000000
310
00000000000000000000000000000000000000000000000000000000000000000000000000000000000000000000000000000000000000000000000000000000000000000000000000000000000000000000000000000000000000000000000000000000000000000000000000000000000000000000000000000000000000
310
0000000000000000000000000000000000000000000000000000000000000000000000000000000000000000000000000000000000000000
102
{BLKREFS
331
5B6B
102
}
 70
     4
280
     0
281
     1
1001
AcDbDynamicBlockGUID
1000
{8C97BC38-EED0-446B-A8F6-2A34A4488CB5}
1001
ACDBBLOCKREPETAG
1070
     1
1071
       24
  0
BLOCK_RECORD
  5
6734
102
{ACAD_XDICTIONARY
360
6863
102
}
330
1
100
AcDbSymbolTableRecord
100
AcDbBlockTableRecord
  2
ロッカクアナツキプラグ-2 R1／8
340
0
310
2800000020000000200000000100080000000000000400000000000000000000000000000000000000000000000080000080000000808000800000008000800080800000C0C0C000C0DCC000F0CAA6000020400000206000002080000020A0000020C0000020E00000400000004020000040400000406000004080000040A0
310
000040C0000040E00000600000006020000060400000606000006080000060A0000060C0000060E00000800000008020000080400000806000008080000080A0000080C0000080E00000A0000000A0200000A0400000A0600000A0800000A0A00000A0C00000A0E00000C0000000C0200000C0400000C0600000C0800000C0
310
A00000C0C00000C0E00000E0000000E0200000E0400000E0600000E0800000E0A00000E0C00000E0E00040000000400020004000400040006000400080004000A0004000C0004000E00040200000402020004020400040206000402080004020A0004020C0004020E000404000004040200040404000404060004040800040
310
40A0004040C0004040E00040600000406020004060400040606000406080004060A0004060C0004060E00040800000408020004080400040806000408080004080A0004080C0004080E00040A0000040A0200040A0400040A0600040A0800040A0A00040A0C00040A0E00040C0000040C0200040C0400040C0600040C08000
310
40C0A00040C0C00040C0E00040E0000040E0200040E0400040E0600040E0800040E0A00040E0C00040E0E00080000000800020008000400080006000800080008000A0008000C0008000E00080200000802020008020400080206000802080008020A0008020C0008020E00080400000804020008040400080406000804080
310
008040A0008040C0008040E00080600000806020008060400080606000806080008060A0008060C0008060E00080800000808020008080400080806000808080008080A0008080C0008080E00080A0000080A0200080A0400080A0600080A0800080A0A00080A0C00080A0E00080C0000080C0200080C0400080C0600080C0
310
800080C0A00080C0C00080C0E00080E0000080E0200080E0400080E0600080E0800080E0A00080E0C00080E0E000C0000000C0002000C0004000C0006000C0008000C000A000C000C000C000E000C0200000C0202000C0204000C0206000C0208000C020A000C020C000C020E000C0400000C0402000C0404000C0406000C0
310
408000C040A000C040C000C040E000C0600000C0602000C0604000C0606000C0608000C060A000C060C000C060E000C0800000C0802000C0804000C0806000C0808000C080A000C080C000C080E000C0A00000C0A02000C0A04000C0A06000C0A08000C0A0A000C0A0C000C0A0E000C0C00000C0C02000C0C04000C0C06000
310
C0C08000C0C0A000F0FBFF00A4A0A000808080000000FF0000FF000000FFFF00FF000000FF00FF00FFFF0000FFFFFF00000000000000000000000000000000000000000000000000000000000000000000000000000000000000000000000000F9000000000000000000000000000000000000000000000000000000000000
310
00F900000000000000000000000000000000000000000000000000000000000000F900000000000000000000000000000000000000000000000000000000000000F900000000000000000000000000000000000000000000000000000000000000F90000000000000000000000000000000000000000000000000000000000
310
0000F900000000000000000000000000000000000000000000000000000000000000F900000000000000000000000000000000000000000000000000000000000000F900000000000000000000000000000000000000000000000000000000000000F9000000000000000000000000000000000000000000000000000000FE
310
FFFFFFF9FFFFFE000000000000000000000000000000000000000000000000FEFF0000F90000FFFE00000000000000000000000000000000000000000000FEFF000000F90000FFFE00000000000000000000000000000000000000000000FEFF00FFFFF9FFFF00FFFE0000000000000000000000000000000000000000FEFF
310
FFFF0000F90000FFFFFE0000000000000000000000000000000000000000FEFFFF000000F90000FF00FFFE0000000000000000000000F9F9F9F9F9F9F9F9F9F9FFF9F9F9F9F9F9FFF9F9F9F9F9F9F9F9F9F9000000000000000000000000FEFFFF000000F90000FFFFFE0000000000000000000000000000000000000000FE
310
FF00FFFF00F9FFFF00FFFE000000000000000000000000000000000000000000FEFF0000FFF90000FFFE00000000000000000000000000000000000000000000FEFF000000F90000FFFE0000000000000000000000000000000000000000000000FEFFFFFFF9FFFFFE00000000000000000000000000000000000000000000
310
000000000000F900000000000000000000000000000000000000000000000000000000000000F900000000000000000000000000000000000000000000000000000000000000F900000000000000000000000000000000000000000000000000000000000000F9000000000000000000000000000000000000000000000000
310
00000000000000F900000000000000000000000000000000000000000000000000000000000000F900000000000000000000000000000000000000000000000000000000000000F900000000000000000000000000000000000000000000000000000000000000F90000000000000000000000000000000000000000000000
310
0000000000000000F90000000000000000000000000000000000000000000000000000000000000000000000000000000000000000000000
102
{BLKREFS
331
68A6
102
}
 70
     4
280
     0
281
     1
1001
AcDbDynamicBlockGUID
1000
{4BFE9EFD-0DE2-470B-B4DD-8CA9C176FEF8}
1001
ACDBBLOCKREPETAG
1070
     1
1071
       10
  0
BLOCK_RECORD
  5
68CA
102
{ACAD_XDICTIONARY
360
6911
102
}
330
1
100
AcDbSymbolTableRecord
100
AcDbBlockTableRecord
  2
センタB CMVH500
340
0
310
2800000020000000200000000100080000000000000400000000000000000000000000000000000000000000000080000080000000808000800000008000800080800000C0C0C000C0DCC000F0CAA6000020400000206000002080000020A0000020C0000020E00000400000004020000040400000406000004080000040A0
310
000040C0000040E00000600000006020000060400000606000006080000060A0000060C0000060E00000800000008020000080400000806000008080000080A0000080C0000080E00000A0000000A0200000A0400000A0600000A0800000A0A00000A0C00000A0E00000C0000000C0200000C0400000C0600000C0800000C0
310
A00000C0C00000C0E00000E0000000E0200000E0400000E0600000E0800000E0A00000E0C00000E0E00040000000400020004000400040006000400080004000A0004000C0004000E00040200000402020004020400040206000402080004020A0004020C0004020E000404000004040200040404000404060004040800040
310
40A0004040C0004040E00040600000406020004060400040606000406080004060A0004060C0004060E00040800000408020004080400040806000408080004080A0004080C0004080E00040A0000040A0200040A0400040A0600040A0800040A0A00040A0C00040A0E00040C0000040C0200040C0400040C0600040C08000
310
40C0A00040C0C00040C0E00040E0000040E0200040E0400040E0600040E0800040E0A00040E0C00040E0E00080000000800020008000400080006000800080008000A0008000C0008000E00080200000802020008020400080206000802080008020A0008020C0008020E00080400000804020008040400080406000804080
310
008040A0008040C0008040E00080600000806020008060400080606000806080008060A0008060C0008060E00080800000808020008080400080806000808080008080A0008080C0008080E00080A0000080A0200080A0400080A0600080A0800080A0A00080A0C00080A0E00080C0000080C0200080C0400080C0600080C0
310
800080C0A00080C0C00080C0E00080E0000080E0200080E0400080E0600080E0800080E0A00080E0C00080E0E000C0000000C0002000C0004000C0006000C0008000C000A000C000C000C000E000C0200000C0202000C0204000C0206000C0208000C020A000C020C000C020E000C0400000C0402000C0404000C0406000C0
310
408000C040A000C040C000C040E000C0600000C0602000C0604000C0606000C0608000C060A000C060C000C060E000C0800000C0802000C0804000C0806000C0808000C080A000C080C000C080E000C0A00000C0A02000C0A04000C0A06000C0A08000C0A0A000C0A0C000C0A0E000C0C00000C0C02000C0C04000C0C06000
310
C0C08000C0C0A000F0FBFF00A4A0A000808080000000FF0000FF000000FFFF00FF000000FF00FF00FFFF0000FFFFFF0000000000000000000000000000000000000000000000000000000000000000000000000000000000000000000000000000000000000000000000000000000000000000000000000000000000000000
310
0000000000000000000000000000000000000000000000000000000000000000000000000000000000000000000000000000000000000000000000000000000000000000000000000000000000000000000000000000000000000000000000000000000000000000000000000000000000000000FFFFFFFFFFFFFFFFFFFFFF
310
FFFFA4000000000000000000000000000000000000FF000000000000FF0000000000A4000000000000000000000000000000000000FF000000000000FF0000000000A4000000000000000000000000000000000000FF000000000000FF0000000000A4000000000000000000000000000000000000FF000000000000FF0000
310
000000A40000000000000000000000000000000000F9FF000000000000FF0000000000A40000000000000000000000000000000000FFFF000000000000FF0000000000000000000000000000000000000000000000FFFF000000000000FF00000000000000000000000000000000000000000000F9F9F9000000000000FF00
310
00000000000000000000000000000000000000000000FFFF000000000000FF0000000000000000000000000000000000000000000000FFFF000000000000FF0000000000000000000000000000000000000000000000FFFF000000000000FF000000000000000000000000000000000000000000000000FF000000000000FF
310
000000000000000000000000000000000000000000000000FF000000000000FF000000000000000000000000000000000000000000000000FF000000000000FF0000000000FFFFFFFFFFFFFFFFFFFFFFFFFFFFFF00000000FF000000000000FF0000000000FFFFFFFFFFFFFFFFFFFFFFFFFFFFFF00000000FF000000000000
310
FF00000000000000000000000000000000000000FF00000000FF000000000000FF00000000000000000000000000000000000000FF00000000FF000000000000FF00000000000000000000000000000000000000FF0000000000FFFFFFFFFFFFFFFFFFFFFFFFFFFFFFFFFFFFFFFFFFFFFFFFFFFF0000000000000000000000
310
00000000000000000000000000000000000000000000000000000000000000000000000000000000000000000000000000000000000000000000000000000000000000000000000000000000000000000000000000000000000000000000000000000000000000000000000000000000000000000000000000000000000000
310
0000000000000000000000000000000000000000000000000000000000000000000000000000000000000000000000000000000000000000
102
{BLKREFS
331
68ED
102
}
 70
     4
280
     0
281
     1
1001
AcDbDynamicBlockGUID
1000
{148C8C15-BAB2-41B3-A8EA-BEC0F60AA7B8}
1001
ACDBBLOCKREPETAG
1070
     1
1071
       32
  0
BLOCK_RECORD
  5
699C
102
{ACAD_XDICTIONARY
360
6A17
102
}
330
1
100
AcDbSymbolTableRecord
100
AcDbBlockTableRecord
  2
ケースB CMVH500
340
0
310
2800000020000000200000000100080000000000000400000000000000000000000000000000000000000000000080000080000000808000800000008000800080800000C0C0C000C0DCC000F0CAA6000020400000206000002080000020A0000020C0000020E00000400000004020000040400000406000004080000040A0
310
000040C0000040E00000600000006020000060400000606000006080000060A0000060C0000060E00000800000008020000080400000806000008080000080A0000080C0000080E00000A0000000A0200000A0400000A0600000A0800000A0A00000A0C00000A0E00000C0000000C0200000C0400000C0600000C0800000C0
310
A00000C0C00000C0E00000E0000000E0200000E0400000E0600000E0800000E0A00000E0C00000E0E00040000000400020004000400040006000400080004000A0004000C0004000E00040200000402020004020400040206000402080004020A0004020C0004020E000404000004040200040404000404060004040800040
310
40A0004040C0004040E00040600000406020004060400040606000406080004060A0004060C0004060E00040800000408020004080400040806000408080004080A0004080C0004080E00040A0000040A0200040A0400040A0600040A0800040A0A00040A0C00040A0E00040C0000040C0200040C0400040C0600040C08000
310
40C0A00040C0C00040C0E00040E0000040E0200040E0400040E0600040E0800040E0A00040E0C00040E0E00080000000800020008000400080006000800080008000A0008000C0008000E00080200000802020008020400080206000802080008020A0008020C0008020E00080400000804020008040400080406000804080
310
008040A0008040C0008040E00080600000806020008060400080606000806080008060A0008060C0008060E00080800000808020008080400080806000808080008080A0008080C0008080E00080A0000080A0200080A0400080A0600080A0800080A0A00080A0C00080A0E00080C0000080C0200080C0400080C0600080C0
310
800080C0A00080C0C00080C0E00080E0000080E0200080E0400080E0600080E0800080E0A00080E0C00080E0E000C0000000C0002000C0004000C0006000C0008000C000A000C000C000C000E000C0200000C0202000C0204000C0206000C0208000C020A000C020C000C020E000C0400000C0402000C0404000C0406000C0
310
408000C040A000C040C000C040E000C0600000C0602000C0604000C0606000C0608000C060A000C060C000C060E000C0800000C0802000C0804000C0806000C0808000C080A000C080C000C080E000C0A00000C0A02000C0A04000C0A06000C0A08000C0A0A000C0A0C000C0A0E000C0C00000C0C02000C0C04000C0C06000
310
C0C08000C0C0A000F0FBFF00A4A0A000808080000000FF0000FF000000FFFF00FF000000FF00FF00FFFF0000FFFFFF0000000000000000000000000000000000000000000000000000000000000000000000000000000000000000000000000000000000000000000000000000000000000000000000000000000000000000
310
00000000000000000000000000000000000000000000000000000000000000000000000000000000000000000000000000000000000000000000000000000000000000000000000000000000000000000000000000000000000000000000000000000000000000000000000000000000000000000000000000000000000000
310
00000000000000000000000000000000000000000000000000000000000000000000000000000000000000000000000000000000000000000000000000000000000000000000000000000000000000000000000000000000000000000000000000000000000000000000000000000000000000000000000000000000000000
310
0000000000000000000000000000000000000000FFFFFFFF0000000000000000000000FFFFFFFFFFFFFFFFFFFFFFFFFFFFFF0000FFFFFFFFFFFFFFFFFFFFFFFFFFFFFFFF00000000000000000000000000FF0000FFFFFFFFFF00000000000000000000FFFFF9FFFFFFFFFFFFFFFFFFFFFFFF0000000000FFFF000000000000
310
0000000000F9FFF900000000000000FF0000000000000000FFFFFF0000000000000000000000F90000000000000000FF0000000000000000FFFFFF0000000000000000000000000000000000000000FF0000000000000000FFFFA40000000000000000000000000000000000000000FF0000000000000000FFFFA400000000
310
0000000000FFFFFFFFFFFFFFFFFFFFFFFF0000000000000000FFFFA40000000000000000000000000000000000000000FF0000000000000000FFFFFF0000000000000000000000000000000000000000FF00000000000000000000000000000000000000000000000000000000000000000000000000000000000000000000
310
00000000000000000000000000000000000000000000000000000000000000000000000000000000000000000000000000000000000000000000000000000000000000000000000000000000000000000000000000000000000000000000000000000000000000000000000000000000000000000000000000000000000000
310
00000000000000000000000000000000000000000000000000000000000000000000000000000000000000000000000000000000000000000000000000000000000000000000000000000000000000000000000000000000000000000000000000000000000000000000000000000000000000000000000000000000000000
310
0000000000000000000000000000000000000000000000000000000000000000000000000000000000000000000000000000000000000000
102
{BLKREFS
331
69D9
102
}
 70
     4
280
     0
281
     1
1001
AcDbDynamicBlockGUID
1000
{2F19CA48-8337-45BA-851C-D8917F1E63F5}
1001
ACDBBLOCKREPETAG
1070
     1
1071
       58
  0
BLOCK_RECORD
  5
6AA7
102
{ACAD_XDICTIONARY
360
6AC2
102
}
330
1
100
AcDbSymbolTableRecord
100
AcDbBlockTableRecord
  2
ロッカクアナツキプラグ-1 R1／2
340
0
310
2800000020000000200000000100080000000000000400000000000000000000000000000000000000000000000080000080000000808000800000008000800080800000C0C0C000C0DCC000F0CAA6000020400000206000002080000020A0000020C0000020E00000400000004020000040400000406000004080000040A0
310
000040C0000040E00000600000006020000060400000606000006080000060A0000060C0000060E00000800000008020000080400000806000008080000080A0000080C0000080E00000A0000000A0200000A0400000A0600000A0800000A0A00000A0C00000A0E00000C0000000C0200000C0400000C0600000C0800000C0
310
A00000C0C00000C0E00000E0000000E0200000E0400000E0600000E0800000E0A00000E0C00000E0E00040000000400020004000400040006000400080004000A0004000C0004000E00040200000402020004020400040206000402080004020A0004020C0004020E000404000004040200040404000404060004040800040
310
40A0004040C0004040E00040600000406020004060400040606000406080004060A0004060C0004060E00040800000408020004080400040806000408080004080A0004080C0004080E00040A0000040A0200040A0400040A0600040A0800040A0A00040A0C00040A0E00040C0000040C0200040C0400040C0600040C08000
310
40C0A00040C0C00040C0E00040E0000040E0200040E0400040E0600040E0800040E0A00040E0C00040E0E00080000000800020008000400080006000800080008000A0008000C0008000E00080200000802020008020400080206000802080008020A0008020C0008020E00080400000804020008040400080406000804080
310
008040A0008040C0008040E00080600000806020008060400080606000806080008060A0008060C0008060E00080800000808020008080400080806000808080008080A0008080C0008080E00080A0000080A0200080A0400080A0600080A0800080A0A00080A0C00080A0E00080C0000080C0200080C0400080C0600080C0
310
800080C0A00080C0C00080C0E00080E0000080E0200080E0400080E0600080E0800080E0A00080E0C00080E0E000C0000000C0002000C0004000C0006000C0008000C000A000C000C000C000E000C0200000C0202000C0204000C0206000C0208000C020A000C020C000C020E000C0400000C0402000C0404000C0406000C0
310
408000C040A000C040C000C040E000C0600000C0602000C0604000C0606000C0608000C060A000C060C000C060E000C0800000C0802000C0804000C0806000C0808000C080A000C080C000C080E000C0A00000C0A02000C0A04000C0A06000C0A08000C0A0A000C0A0C000C0A0E000C0C00000C0C02000C0C04000C0C06000
310
C0C08000C0C0A000F0FBFF00A4A0A000808080000000FF0000FF000000FFFF00FF000000FF00FF00FFFF0000FFFFFF00000000000000000000000000000000000000000000000000000000000000000000000000000000000000000000000000F9000000000000000000000000000000000000000000000000000000000000
310
00F900000000000000000000000000000000000000000000000000000000000000F900000000000000000000000000000000000000000000000000000000000000F900000000000000000000000000000000000000000000000000000000000000F900000000000000000000000000000000000000000000000000000000FE
310
FE00F9000000000000000000000000000000000000000000000000000000FE00FFFFF9FEFE0000000000000000000000000000000000000000000000FEFE00FF0000F9FFFFFFFEFE00000000000000000000000000000000000000FE00FFFF000000F9000000FFFFFE0000000000000000000000000000000000FE00FF0000
310
000000FF0000000000FF00000000000000000000000000000000FE00FF00000000FFFFF9FFFF000000FFFE000000000000000000000000000000FEFF000000FFFF0000F90000FF000000FF000000000000000000000000000000FEFF0000FF00000000F9000000FF0000FFFE0000000000000000000000000000FEFF0000FF
310
00000000F9000000FF000000FF0000000000000000F9F9F9F9F9F9FEFFF9F9FFF9F9F9F9F9F9F9F9FFF9F9F9FFFEF9F9F9F9F90000000000000000FEFF0000FF00000000F9000000FF000000FFFE00000000000000000000000000FEFF0000FF00000000F9000000FF0000FFFE0000000000000000000000000000FEFF0000
310
FF00000000F9000000FF0000FFFE0000000000000000000000000000FEFF000000FFFF0000F900FFFF0000FFFE000000000000000000000000000000FE00FF00000000FFFFF9FF00000000FFFE00000000000000000000000000000000FE00FFFF00000000FF00000000FFFE000000000000000000000000000000000000FE
310
FE00FF000000F9000000FFFFFE0000000000000000000000000000000000000000FE00FF0000F9FFFFFFFEFE00000000000000000000000000000000000000000000FE00FFFFF9FEFEFE00000000000000000000000000000000000000000000000000FEFEFEF9000000000000000000000000000000000000000000000000
310
00000000000000F900000000000000000000000000000000000000000000000000000000000000F900000000000000000000000000000000000000000000000000000000000000F900000000000000000000000000000000000000000000000000000000000000F90000000000000000000000000000000000000000000000
310
0000000000000000F90000000000000000000000000000000000000000000000000000000000000000000000000000000000000000000000
102
{BLKREFS
331
7023
102
}
 70
     4
280
     0
281
     1
1001
AcDbDynamicBlockGUID
1000
{2632BD6C-2322-436D-9640-177E23CB9E2A}
1001
ACDBBLOCKREPETAG
1070
     1
1071
       10
  0
BLOCK_RECORD
  5
6AF3
102
{ACAD_XDICTIONARY
360
6B06
102
}
330
1
100
AcDbSymbolTableRecord
100
AcDbBlockTableRecord
  2
スラストピン CMVH500
340
0
310
2800000020000000200000000100080000000000000400000000000000000000000000000000000000000000000080000080000000808000800000008000800080800000C0C0C000C0DCC000F0CAA6000020400000206000002080000020A0000020C0000020E00000400000004020000040400000406000004080000040A0
310
000040C0000040E00000600000006020000060400000606000006080000060A0000060C0000060E00000800000008020000080400000806000008080000080A0000080C0000080E00000A0000000A0200000A0400000A0600000A0800000A0A00000A0C00000A0E00000C0000000C0200000C0400000C0600000C0800000C0
310
A00000C0C00000C0E00000E0000000E0200000E0400000E0600000E0800000E0A00000E0C00000E0E00040000000400020004000400040006000400080004000A0004000C0004000E00040200000402020004020400040206000402080004020A0004020C0004020E000404000004040200040404000404060004040800040
310
40A0004040C0004040E00040600000406020004060400040606000406080004060A0004060C0004060E00040800000408020004080400040806000408080004080A0004080C0004080E00040A0000040A0200040A0400040A0600040A0800040A0A00040A0C00040A0E00040C0000040C0200040C0400040C0600040C08000
310
40C0A00040C0C00040C0E00040E0000040E0200040E0400040E0600040E0800040E0A00040E0C00040E0E00080000000800020008000400080006000800080008000A0008000C0008000E00080200000802020008020400080206000802080008020A0008020C0008020E00080400000804020008040400080406000804080
310
008040A0008040C0008040E00080600000806020008060400080606000806080008060A0008060C0008060E00080800000808020008080400080806000808080008080A0008080C0008080E00080A0000080A0200080A0400080A0600080A0800080A0A00080A0C00080A0E00080C0000080C0200080C0400080C0600080C0
310
800080C0A00080C0C00080C0E00080E0000080E0200080E0400080E0600080E0800080E0A00080E0C00080E0E000C0000000C0002000C0004000C0006000C0008000C000A000C000C000C000E000C0200000C0202000C0204000C0206000C0208000C020A000C020C000C020E000C0400000C0402000C0404000C0406000C0
310
408000C040A000C040C000C040E000C0600000C0602000C0604000C0606000C0608000C060A000C060C000C060E000C0800000C0802000C0804000C0806000C0808000C080A000C080C000C080E000C0A00000C0A02000C0A04000C0A06000C0A08000C0A0A000C0A0C000C0A0E000C0C00000C0C02000C0C04000C0C06000
310
C0C08000C0C0A000F0FBFF00A4A0A000808080000000FF0000FF000000FFFF00FF000000FF00FF00FFFF0000FFFFFF0000000000000000000000000000000000000000000000000000000000000000000000000000000000000000000000000000000000000000000000000000000000000000000000000000000000000000
310
00000000000000000000000000000000000000000000000000000000000000000000000000000000000000000000000000000000000000000000000000000000000000000000000000000000000000000000000000000000000000000000000000000000000000000000000000000000000000000000000000000000000000
310
00000000000000000000000000000000000000000000000000000000000000000000000000000000000000000000000000000000000000000000000000000000000000000000000000000000000000000000000000000000000000000000000000000000000000000000000000000000000000000000000000000000000000
310
00000000000000000000000000000000000000000000000000000000000000000000000000000000000000000000000000000000000000000000000000000000000000000000000000000000000000000000000000000000000000000000000000000000000000000000000000000000000000000000000000000000000000
310
00000000000000000000000000000000FFFFFF0000FFFFFFFFFFFFFFFFFFFFFFFFFFFFFFFFFFFFFFFFFFFFFFFFFFFFFFFFFFFF000000000000000000000000000000000000000000000000000000FF0000000000000000FFFFFFFFFFFFFFFFFFFFFFFFFFFFFFFFFFFFFFFFFFFFFFFFFFFFFFFF000000000000000000000000
310
00000000000000000000000000000000000000000000000000000000000000000000000000000000000000000000000000000000000000000000000000000000000000000000000000000000000000000000000000000000000000000000000000000000000000000000000000000000000000000000000000000000000000
310
00000000000000000000000000000000000000000000000000000000000000000000000000000000000000000000000000000000000000000000000000000000000000000000000000000000000000000000000000000000000000000000000000000000000000000000000000000000000000000000000000000000000000
310
00000000000000000000000000000000000000000000000000000000000000000000000000000000000000000000000000000000000000000000000000000000000000000000000000000000000000000000000000000000000000000000000000000000000000000000000000000000000000000000000000000000000000
310
0000000000000000000000000000000000000000000000000000000000000000000000000000000000000000000000000000000000000000
102
{BLKREFS
331
6AFC
102
}
 70
     4
280
     0
281
     1
1001
AcDbDynamicBlockGUID
1000
{5AAB7E2C-625D-4FE7-8B40-C88B30944DB9}
1001
ACDBBLOCKREPETAG
1070
     1
1071
        6
  0
BLOCK_RECORD
  5
6B2C
102
{ACAD_XDICTIONARY
360
6B8D
102
}
330
1
100
AcDbSymbolTableRecord
100
AcDbBlockTableRecord
  2
リーマボルト CMVH500 M20
340
0
310
2800000020000000200000000100080000000000000400000000000000000000000000000000000000000000000080000080000000808000800000008000800080800000C0C0C000C0DCC000F0CAA6000020400000206000002080000020A0000020C0000020E00000400000004020000040400000406000004080000040A0
310
000040C0000040E00000600000006020000060400000606000006080000060A0000060C0000060E00000800000008020000080400000806000008080000080A0000080C0000080E00000A0000000A0200000A0400000A0600000A0800000A0A00000A0C00000A0E00000C0000000C0200000C0400000C0600000C0800000C0
310
A00000C0C00000C0E00000E0000000E0200000E0400000E0600000E0800000E0A00000E0C00000E0E00040000000400020004000400040006000400080004000A0004000C0004000E00040200000402020004020400040206000402080004020A0004020C0004020E000404000004040200040404000404060004040800040
310
40A0004040C0004040E00040600000406020004060400040606000406080004060A0004060C0004060E00040800000408020004080400040806000408080004080A0004080C0004080E00040A0000040A0200040A0400040A0600040A0800040A0A00040A0C00040A0E00040C0000040C0200040C0400040C0600040C08000
310
40C0A00040C0C00040C0E00040E0000040E0200040E0400040E0600040E0800040E0A00040E0C00040E0E00080000000800020008000400080006000800080008000A0008000C0008000E00080200000802020008020400080206000802080008020A0008020C0008020E00080400000804020008040400080406000804080
310
008040A0008040C0008040E00080600000806020008060400080606000806080008060A0008060C0008060E00080800000808020008080400080806000808080008080A0008080C0008080E00080A0000080A0200080A0400080A0600080A0800080A0A00080A0C00080A0E00080C0000080C0200080C0400080C0600080C0
310
800080C0A00080C0C00080C0E00080E0000080E0200080E0400080E0600080E0800080E0A00080E0C00080E0E000C0000000C0002000C0004000C0006000C0008000C000A000C000C000C000E000C0200000C0202000C0204000C0206000C0208000C020A000C020C000C020E000C0400000C0402000C0404000C0406000C0
310
408000C040A000C040C000C040E000C0600000C0602000C0604000C0606000C0608000C060A000C060C000C060E000C0800000C0802000C0804000C0806000C0808000C080A000C080C000C080E000C0A00000C0A02000C0A04000C0A06000C0A08000C0A0A000C0A0C000C0A0E000C0C00000C0C02000C0C04000C0C06000
310
C0C08000C0C0A000F0FBFF00A4A0A000808080000000FF0000FF000000FFFF00FF000000FF00FF00FFFF0000FFFFFF00000000000000000000000000000000000000000000000000000000000000000000000000000000000000000000000000F9000000000000000000000000000000000000000000000000000000000000
310
00F900000000000000000000000000000000000000000000000000000000000000F900000000000000000000000000000000000000000000000000000000000000F9000000000000000000000000000000000000000000000000000000FFFFFFFFFFFFFFFF0000000000000000000000000000000000000000000000FFFFFF
310
FFFFFFFFFFFFFF00000000000000000000000000000000000000000000FF00FF0000F900FF00FF00000000000000000000000000000000000000000000FF00FF0000F900FF00FF00000000000000000000000000000000000000000000FF00FFFFFFFFFFFF00FF000000000000000000000000000000000000000000000000
310
FF0000F900FF0000000000000000000000000000000000000000000000000000FF0000F900FF0000000000000000000000000000000000000000000000000000FF0000F900FF0000000000000000000000000000000000000000000000000000FF0000F900FF00000000000000000000000000000000000000000000000000
310
00FF0000F900FF0000000000000000000000000000000000000000000000000000FF0000F900FF0000000000000000000000000000000000000000000000000000000000F900000000000000000000000000000000000000000000000000000000000000F90000000000000000000000000000000000000000000000000000
310
0000000000F900000000000000000000000000000000000000000000000000000000FFFFFFFFFFFF0000000000000000000000000000000000000000000000000000FFFFFFFFFFFF000000000000000000000000000000000000000000000000FF00FF00FFF900FF00FF000000000000000000000000000000000000000000
310
00FF00000000FF000000FF00000000000000000000000000000000000000000000FFFFFFFFFFFFFFFFFFFF00000000000000000000000000000000000000000000FF00FF0000F900FF00FF00000000000000000000000000000000000000000000FF00FF0000F900FF00FF0000000000000000000000000000000000000000
310
0000FF00FF0000F900FF00FF00000000000000000000000000000000000000000000FFFFFFFFFFFFFFFFFFFF000000000000000000000000000000000000000000000000FFFFFFFFFFFF0000000000000000000000000000000000000000000000000000FFFFFFFFFFFF000000000000000000000000000000000000000000
310
0000000000000000F90000000000000000000000000000000000000000000000000000000000000000000000000000000000000000000000
102
{BLKREFS
331
6B5C
102
}
 70
     4
280
     0
281
     1
1001
AcDbDynamicBlockGUID
1000
{C3F52C99-1DDF-46D4-B05D-00988877105E}
1001
ACDBBLOCKREPETAG
1070
     1
1071
       45
  0
BLOCK_RECORD
  5
6BF8
102
{ACAD_XDICTIONARY
360
6C07
102
}
330
1
100
AcDbSymbolTableRecord
100
AcDbBlockTableRecord
  2
イタ CMVH500
340
0
310
2800000020000000200000000100080000000000000400000000000000000000000000000000000000000000000080000080000000808000800000008000800080800000C0C0C000C0DCC000F0CAA6000020400000206000002080000020A0000020C0000020E00000400000004020000040400000406000004080000040A0
310
000040C0000040E00000600000006020000060400000606000006080000060A0000060C0000060E00000800000008020000080400000806000008080000080A0000080C0000080E00000A0000000A0200000A0400000A0600000A0800000A0A00000A0C00000A0E00000C0000000C0200000C0400000C0600000C0800000C0
310
A00000C0C00000C0E00000E0000000E0200000E0400000E0600000E0800000E0A00000E0C00000E0E00040000000400020004000400040006000400080004000A0004000C0004000E00040200000402020004020400040206000402080004020A0004020C0004020E000404000004040200040404000404060004040800040
310
40A0004040C0004040E00040600000406020004060400040606000406080004060A0004060C0004060E00040800000408020004080400040806000408080004080A0004080C0004080E00040A0000040A0200040A0400040A0600040A0800040A0A00040A0C00040A0E00040C0000040C0200040C0400040C0600040C08000
310
40C0A00040C0C00040C0E00040E0000040E0200040E0400040E0600040E0800040E0A00040E0C00040E0E00080000000800020008000400080006000800080008000A0008000C0008000E00080200000802020008020400080206000802080008020A0008020C0008020E00080400000804020008040400080406000804080
310
008040A0008040C0008040E00080600000806020008060400080606000806080008060A0008060C0008060E00080800000808020008080400080806000808080008080A0008080C0008080E00080A0000080A0200080A0400080A0600080A0800080A0A00080A0C00080A0E00080C0000080C0200080C0400080C0600080C0
310
800080C0A00080C0C00080C0E00080E0000080E0200080E0400080E0600080E0800080E0A00080E0C00080E0E000C0000000C0002000C0004000C0006000C0008000C000A000C000C000C000E000C0200000C0202000C0204000C0206000C0208000C020A000C020C000C020E000C0400000C0402000C0404000C0406000C0
310
408000C040A000C040C000C040E000C0600000C0602000C0604000C0606000C0608000C060A000C060C000C060E000C0800000C0802000C0804000C0806000C0808000C080A000C080C000C080E000C0A00000C0A02000C0A04000C0A06000C0A08000C0A0A000C0A0C000C0A0E000C0C00000C0C02000C0C04000C0C06000
310
C0C08000C0C0A000F0FBFF00A4A0A000808080000000FF0000FF000000FFFF00FF000000FF00FF00FFFF0000FFFFFF0000000000000000000000000000000000000000000000000000000000000000000000000000000000000000000000000000000000000000000000000000000000000000000000000000000000000000
310
00000000000000000000000000000000000000000000000000000000000000000000000000000000000000000000000000000000000000000000000000000000000000000000000000000000000000000000000000000000000000000000000000000000000000000000000000000000000000000000000000000000000000
310
00000000000000000000000000000000000000000000000000000000000000000000000000000000000000000000000000000000000000000000000000000000000000000000000000000000000000000000000000000000000000000000000000000000000000000000000000000000000000000000000000000000000000
310
00000000000000000000000000000000000000000000000000000000000000000000000000000000000000000000000000000000000000000000000000000000000000000000000000000000000000000000000000000000000000000000000000000000000000000000000000000000000000000000000000000000000000
310
000000000000000000000000000000000000000000FFFFFFFFFFFFFFFFFFFFFFFFFFFFFFFFFFFFFFFFFFFFFFFFFFFFFFFF000000000000FFFFFFFFFFFFFFFFFFFFFFFFFFFFFFFFFFFFFFFFFFFFFFFFFFFFFFFF0000000000000000000000000000000000000000000000000000000000000000000000000000000000000000
310
00000000000000000000000000000000000000000000000000000000000000000000000000000000000000000000000000000000000000000000000000000000000000000000000000000000000000000000000000000000000000000000000000000000000000000000000000000000000000000000000000000000000000
310
00000000000000000000000000000000000000000000000000000000000000000000000000000000000000000000000000000000000000000000000000000000000000000000000000000000000000000000000000000000000000000000000000000000000000000000000000000000000000000000000000000000000000
310
00000000000000000000000000000000000000000000000000000000000000000000000000000000000000000000000000000000000000000000000000000000000000000000000000000000000000000000000000000000000000000000000000000000000000000000000000000000000000000000000000000000000000
310
0000000000000000000000000000000000000000000000000000000000000000000000000000000000000000000000000000000000000000
102
{BLKREFS
331
6BFF
102
}
 70
     4
280
     0
281
     1
1001
AcDbDynamicBlockGUID
1000
{6AC9E64A-0977-4E7F-8588-AC35F10FFD4A}
1001
ACDBBLOCKREPETAG
1070
     1
1071
        4
  0
BLOCK_RECORD
  5
6C2B
102
{ACAD_XDICTIONARY
360
6CA8
102
}
330
1
100
AcDbSymbolTableRecord
100
AcDbBlockTableRecord
  2
スラストプレ－ト CMVH500
340
0
310
2800000020000000200000000100080000000000000400000000000000000000000000000000000000000000000080000080000000808000800000008000800080800000C0C0C000C0DCC000F0CAA6000020400000206000002080000020A0000020C0000020E00000400000004020000040400000406000004080000040A0
310
000040C0000040E00000600000006020000060400000606000006080000060A0000060C0000060E00000800000008020000080400000806000008080000080A0000080C0000080E00000A0000000A0200000A0400000A0600000A0800000A0A00000A0C00000A0E00000C0000000C0200000C0400000C0600000C0800000C0
310
A00000C0C00000C0E00000E0000000E0200000E0400000E0600000E0800000E0A00000E0C00000E0E00040000000400020004000400040006000400080004000A0004000C0004000E00040200000402020004020400040206000402080004020A0004020C0004020E000404000004040200040404000404060004040800040
310
40A0004040C0004040E00040600000406020004060400040606000406080004060A0004060C0004060E00040800000408020004080400040806000408080004080A0004080C0004080E00040A0000040A0200040A0400040A0600040A0800040A0A00040A0C00040A0E00040C0000040C0200040C0400040C0600040C08000
310
40C0A00040C0C00040C0E00040E0000040E0200040E0400040E0600040E0800040E0A00040E0C00040E0E00080000000800020008000400080006000800080008000A0008000C0008000E00080200000802020008020400080206000802080008020A0008020C0008020E00080400000804020008040400080406000804080
310
008040A0008040C0008040E00080600000806020008060400080606000806080008060A0008060C0008060E00080800000808020008080400080806000808080008080A0008080C0008080E00080A0000080A0200080A0400080A0600080A0800080A0A00080A0C00080A0E00080C0000080C0200080C0400080C0600080C0
310
800080C0A00080C0C00080C0E00080E0000080E0200080E0400080E0600080E0800080E0A00080E0C00080E0E000C0000000C0002000C0004000C0006000C0008000C000A000C000C000C000E000C0200000C0202000C0204000C0206000C0208000C020A000C020C000C020E000C0400000C0402000C0404000C0406000C0
310
408000C040A000C040C000C040E000C0600000C0602000C0604000C0606000C0608000C060A000C060C000C060E000C0800000C0802000C0804000C0806000C0808000C080A000C080C000C080E000C0A00000C0A02000C0A04000C0A06000C0A08000C0A0A000C0A0C000C0A0E000C0C00000C0C02000C0C04000C0C06000
310
C0C08000C0C0A000F0FBFF00A4A0A000808080000000FF0000FF000000FFFF00FF000000FF00FF00FFFF0000FFFFFF0000000000000000000000000000000000000000000000000000000000000000000000000000000000000000000000000000000000000000000000000000000000000000000000000000000000000000
310
00000000000000000000000000000000000000000000000000000000000000000000000000000000000000000000000000000000000000000000000000000000000000000000000000000000000000000000000000000000000000000000000000000000000000000000000000000000000000000000000000000000000000
310
00000000000000000000000000000000000000000000000000000000000000000000000000000000000000000000000000000000000000000000000000000000000000000000000000000000000000000000000000000000000000000000000000000000000000000000000000000000000000000000000000000000000000
310
0000000000000000000000000000000000000000000000F900000000000000000000000000000000000000000000000000000000000000FF000000000000000000000000000000000000000000000000000000000000FFFF000000000000000000000000000000000000000000000000000000000000FEFE00000000000000
310
0000000000000000000000000000000000000000000000FFFF000000000000000000000000000000000000000000000000000000000000FEFE000000000000000000000000000000000000000000000000000000000000FEFE00000000000000000000000000000000000000000000000000000000FFFFFFFFFFFFFFFFFFFF
310
FFFFFFFFFFFFFFFFFFFFFFFFFFFFFFFFFFFFFFFF0000FFFFFFFFFFFFFFFFFFFFFFFFFFFFFFFFFFFFFFFFFFFFFFFFFFFFFFFFFFFF0000000000F9000000000000000000000000000000000000000000000000000000000000000000000000000000000000000000000000000000000000000000000000000000000000000000
310
00000000000000000000000000000000000000000000000000000000000000000000000000000000000000000000000000000000000000000000000000000000000000000000000000000000000000000000000000000000000000000000000000000000000000000000000000000000000000000000000000000000000000
310
00000000000000000000000000000000000000000000000000000000000000000000000000000000000000000000000000000000000000000000000000000000000000000000000000000000000000000000000000000000000000000000000000000000000000000000000000000000000000000000000000000000000000
310
0000000000000000000000000000000000000000000000000000000000000000000000000000000000000000000000000000000000000000
102
{BLKREFS
331
6C53
102
}
 70
     4
280
     0
281
     1
1001
AcDbDynamicBlockGUID
1000
{F0FA9A3E-D6C6-4A7C-92B8-8434ED9024A8}
1001
ACDBBLOCKREPETAG
1070
     1
1071
       37
  0
BLOCK_RECORD
  5
6FA5
102
{ACAD_XDICTIONARY
360
7024
102
}
330
1
100
AcDbSymbolTableRecord
100
AcDbBlockTableRecord
  2
ケースＡ CMVH500
340
0
310
2800000020000000200000000100080000000000000400000000000000000000000000000000000000000000000080000080000000808000800000008000800080800000C0C0C000C0DCC000F0CAA6000020400000206000002080000020A0000020C0000020E00000400000004020000040400000406000004080000040A0
310
000040C0000040E00000600000006020000060400000606000006080000060A0000060C0000060E00000800000008020000080400000806000008080000080A0000080C0000080E00000A0000000A0200000A0400000A0600000A0800000A0A00000A0C00000A0E00000C0000000C0200000C0400000C0600000C0800000C0
310
A00000C0C00000C0E00000E0000000E0200000E0400000E0600000E0800000E0A00000E0C00000E0E00040000000400020004000400040006000400080004000A0004000C0004000E00040200000402020004020400040206000402080004020A0004020C0004020E000404000004040200040404000404060004040800040
310
40A0004040C0004040E00040600000406020004060400040606000406080004060A0004060C0004060E00040800000408020004080400040806000408080004080A0004080C0004080E00040A0000040A0200040A0400040A0600040A0800040A0A00040A0C00040A0E00040C0000040C0200040C0400040C0600040C08000
310
40C0A00040C0C00040C0E00040E0000040E0200040E0400040E0600040E0800040E0A00040E0C00040E0E00080000000800020008000400080006000800080008000A0008000C0008000E00080200000802020008020400080206000802080008020A0008020C0008020E00080400000804020008040400080406000804080
310
008040A0008040C0008040E00080600000806020008060400080606000806080008060A0008060C0008060E00080800000808020008080400080806000808080008080A0008080C0008080E00080A0000080A0200080A0400080A0600080A0800080A0A00080A0C00080A0E00080C0000080C0200080C0400080C0600080C0
310
800080C0A00080C0C00080C0E00080E0000080E0200080E0400080E0600080E0800080E0A00080E0C00080E0E000C0000000C0002000C0004000C0006000C0008000C000A000C000C000C000E000C0200000C0202000C0204000C0206000C0208000C020A000C020C000C020E000C0400000C0402000C0404000C0406000C0
310
408000C040A000C040C000C040E000C0600000C0602000C0604000C0606000C0608000C060A000C060C000C060E000C0800000C0802000C0804000C0806000C0808000C080A000C080C000C080E000C0A00000C0A02000C0A04000C0A06000C0A08000C0A0A000C0A0C000C0A0E000C0C00000C0C02000C0C04000C0C06000
310
C0C08000C0C0A000F0FBFF00A4A0A000808080000000FF0000FF000000FFFF00FF000000FF00FF00FFFF0000FFFFFF0000000000000000000000000000000000000000000000000000000000000000000000000000000000000000000000000000000000000000000000000000000000000000000000000000000000000000
310
00000000000000000000000000000000000000000000000000000000000000000000000000000000000000000000000000000000000000000000000000000000000000000000000000000000000000000000000000000000000000000000000000000000000000000000000000000000000000000000000000000000000000
310
00000000000000000000000000000000000000000000000000000000000000000000000000000000000000000000000000000000000000000000000000000000000000000000000000000000000000000000000000000000000000000000000000000000000000000000000000000000000000000000FF0000000000000000
310
0000000000000000000000000000000000000000000000FF00000000000000000000000000000000000000000000000000000000000000FFFFFF000000000000000000FFFFFFFFFFFFFFFFFFFFFFFF0000000000000000FFFFA4000000000000000000FFFFFFFFFFFFFFFFFFFFFFFF0000000000000000FFF9F90000000000
310
00000000FFFFFFFFFFFFFFFFFFFFFFFF0000000000000000FFFFA40000000000000000000000000000000000000000FF0000000000000000FFFFFF0000000000000000000000000000000000000000FF0000000000000000FFFFFF0000000000000000000000F90000000000000000FF0000000000000000FFFF0000000000
310
000000000000F9FFF900000000000000FF0000000000FFFFFFFFFF00000000000000000000FFFFF9FFFFFFFFFFFFFFFFFFFFFFFF0000FF0000FFFF000000000000000000000000000000000000000000000000FF0000FF0000FFFF000000000000000000000000000000000000000000000000FF0000000000000000000000
310
00000000000000000000000000000000000000000000000000000000000000000000000000000000000000000000000000000000000000000000000000000000000000000000000000000000000000000000000000000000000000000000000000000000000000000000000000000000000000000000000000000000000000
310
00000000000000000000000000000000000000000000000000000000000000000000000000000000000000000000000000000000000000000000000000000000000000000000000000000000000000000000000000000000000000000000000000000000000000000000000000000000000000000000000000000000000000
310
0000000000000000000000000000000000000000000000000000000000000000000000000000000000000000000000000000000000000000
102
{BLKREFS
331
6FE4
102
}
 70
     4
280
     0
281
     1
1001
AcDbDynamicBlockGUID
1000
{3A318B7E-01F3-4A10-8B7A-5604CB7349E1}
1001
ACDBBLOCKREPETAG
1070
     1
1071
       60
  0
BLOCK_RECORD
  5
7177
102
{ACAD_XDICTIONARY
360
7212
102
}
330
1
100
AcDbSymbolTableRecord
100
AcDbBlockTableRecord
  2
ＧＣサイドカバ－A CMVH500
340
0
310
2800000020000000200000000100080000000000000400000000000000000000000000000000000000000000000080000080000000808000800000008000800080800000C0C0C000C0DCC000F0CAA6000020400000206000002080000020A0000020C0000020E00000400000004020000040400000406000004080000040A0
310
000040C0000040E00000600000006020000060400000606000006080000060A0000060C0000060E00000800000008020000080400000806000008080000080A0000080C0000080E00000A0000000A0200000A0400000A0600000A0800000A0A00000A0C00000A0E00000C0000000C0200000C0400000C0600000C0800000C0
310
A00000C0C00000C0E00000E0000000E0200000E0400000E0600000E0800000E0A00000E0C00000E0E00040000000400020004000400040006000400080004000A0004000C0004000E00040200000402020004020400040206000402080004020A0004020C0004020E000404000004040200040404000404060004040800040
310
40A0004040C0004040E00040600000406020004060400040606000406080004060A0004060C0004060E00040800000408020004080400040806000408080004080A0004080C0004080E00040A0000040A0200040A0400040A0600040A0800040A0A00040A0C00040A0E00040C0000040C0200040C0400040C0600040C08000
310
40C0A00040C0C00040C0E00040E0000040E0200040E0400040E0600040E0800040E0A00040E0C00040E0E00080000000800020008000400080006000800080008000A0008000C0008000E00080200000802020008020400080206000802080008020A0008020C0008020E00080400000804020008040400080406000804080
310
008040A0008040C0008040E00080600000806020008060400080606000806080008060A0008060C0008060E00080800000808020008080400080806000808080008080A0008080C0008080E00080A0000080A0200080A0400080A0600080A0800080A0A00080A0C00080A0E00080C0000080C0200080C0400080C0600080C0
310
800080C0A00080C0C00080C0E00080E0000080E0200080E0400080E0600080E0800080E0A00080E0C00080E0E000C0000000C0002000C0004000C0006000C0008000C000A000C000C000C000E000C0200000C0202000C0204000C0206000C0208000C020A000C020C000C020E000C0400000C0402000C0404000C0406000C0
310
408000C040A000C040C000C040E000C0600000C0602000C0604000C0606000C0608000C060A000C060C000C060E000C0800000C0802000C0804000C0806000C0808000C080A000C080C000C080E000C0A00000C0A02000C0A04000C0A06000C0A08000C0A0A000C0A0C000C0A0E000C0C00000C0C02000C0C04000C0C06000
310
C0C08000C0C0A000F0FBFF00A4A0A000808080000000FF0000FF000000FFFF00FF000000FF00FF00FFFF0000FFFFFF0000000000000000000000000000000000000000000000000000000000000000000000000000000000000000000000000000000000000000000000000000000000000000000000000000000000000000
310
00000000000000000000000000000000000000000000000000000000000000000000000000000000000000000000000000000000000000000000000000000000000000000000000000000000000000000000000000000000000000000000000000000000000000000000000000000000000000000000000000000000000000
310
00000000000000000000000000000000000000000000000000000000000000000000000000000000000000000000000000000000000000000000000000000000000000000000000000000000000000000000000000000000000000000000000000000000000000000000000000000000000000000000000000000000000000
310
000000000000000000000000000000000000000000000000000000000000000000000000000000000000000000000000000000000000000000000000000000000000000000000000000000000000000000000000FFFFFF000000000000000000000000000000000000000000000000FFFFFF0000FFFFFFFF00000000000000
310
00000000FFFFFFFFFFFFFFFFFFFFFFFFFFFFFF0000FFFFFFFF00000000000000000000000000FFFE00000000000000000000FF0000FFFFFFFF00000000000000000000000000FFFF00000000000000000000FF000000FF00000000000000000000000000000000000000000000000000000000000000FF0000000000000000
310
00000000000000000000000000000000000000000000000000000000000000000000000000000000000000000000000000000000000000000000000000000000000000000000000000000000000000000000000000000000000000000000000000000000000000000000000000000000000000000000000000000000000000
310
00000000000000000000000000000000000000000000000000000000000000000000000000000000000000000000000000000000000000000000000000000000000000000000000000000000000000000000000000000000000000000000000000000000000000000000000000000000000000000000000000000000000000
310
00000000000000000000000000000000000000000000000000000000000000000000000000000000000000000000000000000000000000000000000000000000000000000000000000000000000000000000000000000000000000000000000000000000000000000000000000000000000000000000000000000000000000
310
0000000000000000000000000000000000000000000000000000000000000000000000000000000000000000000000000000000000000000
102
{BLKREFS
331
71C4
102
}
 70
     4
280
     0
281
     1
1001
AcDbDynamicBlockGUID
1000
{3667E596-D465-4806-9892-1D2494EF9AAE}
1001
ACDBBLOCKREPETAG
1070
     1
1071
       74
  0
BLOCK_RECORD
  5
72C4
102
{ACAD_XDICTIONARY
360
7309
102
}
330
1
100
AcDbSymbolTableRecord
100
AcDbBlockTableRecord
  2
センタＡ CMVH500
340
0
310
2800000020000000200000000100080000000000000400000000000000000000000000000000000000000000000080000080000000808000800000008000800080800000C0C0C000C0DCC000F0CAA6000020400000206000002080000020A0000020C0000020E00000400000004020000040400000406000004080000040A0
310
000040C0000040E00000600000006020000060400000606000006080000060A0000060C0000060E00000800000008020000080400000806000008080000080A0000080C0000080E00000A0000000A0200000A0400000A0600000A0800000A0A00000A0C00000A0E00000C0000000C0200000C0400000C0600000C0800000C0
310
A00000C0C00000C0E00000E0000000E0200000E0400000E0600000E0800000E0A00000E0C00000E0E00040000000400020004000400040006000400080004000A0004000C0004000E00040200000402020004020400040206000402080004020A0004020C0004020E000404000004040200040404000404060004040800040
310
40A0004040C0004040E00040600000406020004060400040606000406080004060A0004060C0004060E00040800000408020004080400040806000408080004080A0004080C0004080E00040A0000040A0200040A0400040A0600040A0800040A0A00040A0C00040A0E00040C0000040C0200040C0400040C0600040C08000
310
40C0A00040C0C00040C0E00040E0000040E0200040E0400040E0600040E0800040E0A00040E0C00040E0E00080000000800020008000400080006000800080008000A0008000C0008000E00080200000802020008020400080206000802080008020A0008020C0008020E00080400000804020008040400080406000804080
310
008040A0008040C0008040E00080600000806020008060400080606000806080008060A0008060C0008060E00080800000808020008080400080806000808080008080A0008080C0008080E00080A0000080A0200080A0400080A0600080A0800080A0A00080A0C00080A0E00080C0000080C0200080C0400080C0600080C0
310
800080C0A00080C0C00080C0E00080E0000080E0200080E0400080E0600080E0800080E0A00080E0C00080E0E000C0000000C0002000C0004000C0006000C0008000C000A000C000C000C000E000C0200000C0202000C0204000C0206000C0208000C020A000C020C000C020E000C0400000C0402000C0404000C0406000C0
310
408000C040A000C040C000C040E000C0600000C0602000C0604000C0606000C0608000C060A000C060C000C060E000C0800000C0802000C0804000C0806000C0808000C080A000C080C000C080E000C0A00000C0A02000C0A04000C0A06000C0A08000C0A0A000C0A0C000C0A0E000C0C00000C0C02000C0C04000C0C06000
310
C0C08000C0C0A000F0FBFF00A4A0A000808080000000FF0000FF000000FFFF00FF000000FF00FF00FFFF0000FFFFFF0000000000000000000000000000000000000000000000000000000000000000000000000000000000000000000000000000000000000000000000000000000000000000000000000000000000000000
310
0000000000000000000000000000000000000000000000000000000000000000000000000000000000000000000000000000000000000000000000000000000000000000000000000000000000000000000000000000000000000000000000000000000000000000000000000000000000000000FFFFFFFFFFFFFFFFFFFFFF
310
FFFFFFFFFFFFFFFFFFFFFFFFFFFFFFFF0000000000FF0000000000FF0000000000000000000000000000000000000000FF00000000FF0000000000FF0000000000000000000000000000000000000000FF00000000FF0000000000FF0000000000000000000000000000000000000000FF00000000FF0000000000FF000000
310
000000FFFFFFFFFFFFFFFFFFFFFFFFFFFFFF00000000FF0000000000FF000000000000FFFFFFFFFFFFFFFFFFFFFFFFFFFFFF00000000FF0000000000FF00000000000000000000000000000000000000000000000000FF0000000000FF000000000000000000000000000000000000000000000000FFFF0000000000FF0000
310
00000000000000000000000000000000000000000000FF000000000000FF000000000000000000000000000000000000000000000000FF000000000000FF000000000000000000000000000000000000000000000000FF000000000000FF000000000000000000000000000000000000000000000000FF000000000000FF00
310
0000000000000000000000000000000000000000000000FFFF0000000000FF000000000000000000000000000000000000000000000000F9FF0000000000FF000000000000A4000000000000000000000000000000000000FF0000000000FF000000000000A4000000000000000000000000000000000000FF0000000000FF
310
0000000000A4A4000000000000000000000000000000000000FF0000000000FF0000000000A4A4000000000000000000000000000000000000FF0000000000FF0000000000A4A4000000000000000000000000000000000000FF0000000000FF0000000000A4A4000000000000000000000000000000000000000000000000
310
00000000000000000000000000000000000000000000000000000000000000000000000000000000000000000000000000000000000000000000000000000000000000000000000000000000000000000000000000000000000000000000000000000000000000000000000000000000000000000000000000000000000000
310
0000000000000000000000000000000000000000000000000000000000000000000000000000000000000000000000000000000000000000
102
{BLKREFS
331
72E6
102
}
 70
     4
280
     0
281
     1
1001
AcDbDynamicBlockGUID
1000
{6A50090C-AA8B-4EBF-952F-0C25030868AD}
1001
ACDBBLOCKREPETAG
1070
     1
1071
       31
  0
BLOCK_RECORD
  5
7CE8
330
1
100
AcDbSymbolTableRecord
100
AcDbBlockTableRecord
  2
*D20
340
0
 70
     0
280
     1
281
     0
  0
BLOCK_RECORD
  5
7D39
330
1
100
AcDbSymbolTableRecord
100
AcDbBlockTableRecord
  2
*D21
340
0
 70
     0
280
     1
281
     0
  0
BLOCK_RECORD
  5
7DAA
330
1
100
AcDbSymbolTableRecord
100
AcDbBlockTableRecord
  2
*D22
340
0
 70
     0
280
     1
281
     0
  0
BLOCK_RECORD
  5
85F6
330
1
100
AcDbSymbolTableRecord
100
AcDbBlockTableRecord
  2
*D23
340
0
 70
     0
280
     1
281
     0
  0
BLOCK_RECORD
  5
8633
330
1
100
AcDbSymbolTableRecord
100
AcDbBlockTableRecord
  2
*D24
340
0
 70
     0
280
     1
281
     0
  0
BLOCK_RECORD
  5
866F
330
1
100
AcDbSymbolTableRecord
100
AcDbBlockTableRecord
  2
*D25
340
0
 70
     0
280
     1
281
     0
  0
BLOCK_RECORD
  5
86AC
330
1
100
AcDbSymbolTableRecord
100
AcDbBlockTableRecord
  2
*D26
340
0
 70
     0
280
     1
281
     0
  0
BLOCK_RECORD
  5
8A80
330
1
100
AcDbSymbolTableRecord
100
AcDbBlockTableRecord
  2
*D27
340
0
 70
     0
280
     1
281
     0
  0
BLOCK_RECORD
  5
8A94
330
1
100
AcDbSymbolTableRecord
100
AcDbBlockTableRecord
  2
*D28
340
0
 70
     0
280
     1
281
     0
  0
BLOCK_RECORD
  5
8AC6
330
1
100
AcDbSymbolTableRecord
100
AcDbBlockTableRecord
  2
*D29
340
0
 70
     0
280
     1
281
     0
  0
BLOCK_RECORD
  5
8B23
330
1
100
AcDbSymbolTableRecord
100
AcDbBlockTableRecord
  2
*D30
340
0
 70
     0
280
     1
281
     0
  0
BLOCK_RECORD
  5
BF78
330
1
100
AcDbSymbolTableRecord
100
AcDbBlockTableRecord
  2
*D31
340
0
 70
     0
280
     1
281
     0
  0
BLOCK_RECORD
  5
CDFB
330
1
100
AcDbSymbolTableRecord
100
AcDbBlockTableRecord
  2
GENDOT
340
0
102
{BLKREFS
331
EB20
331
EB2B
102
}
 70
     0
280
     1
281
     0
  0
BLOCK_RECORD
  5
EFCF
330
1
100
AcDbSymbolTableRecord
100
AcDbBlockTableRecord
  2
*D33
340
0
 70
     0
280
     1
281
     0
  0
BLOCK_RECORD
  5
EFF9
330
1
100
AcDbSymbolTableRecord
100
AcDbBlockTableRecord
  2
*D34
340
0
 70
     0
280
     1
281
     0
  0
BLOCK_RECORD
  5
F3D7
330
1
100
AcDbSymbolTableRecord
100
AcDbBlockTableRecord
  2
*D35
340
0
 70
     0
280
     1
281
     0
  0
BLOCK_RECORD
  5
F714
330
1
100
AcDbSymbolTableRecord
100
AcDbBlockTableRecord
  2
ＧＣサイドカバ－CMVH500
340
0
310
2800000020000000200000000100080000000000000400000000000000000000000000000000000000000000000080000080000000808000800000008000800080800000C0C0C000C0DCC000F0CAA6000020400000206000002080000020A0000020C0000020E00000400000004020000040400000406000004080000040A0
310
000040C0000040E00000600000006020000060400000606000006080000060A0000060C0000060E00000800000008020000080400000806000008080000080A0000080C0000080E00000A0000000A0200000A0400000A0600000A0800000A0A00000A0C00000A0E00000C0000000C0200000C0400000C0600000C0800000C0
310
A00000C0C00000C0E00000E0000000E0200000E0400000E0600000E0800000E0A00000E0C00000E0E00040000000400020004000400040006000400080004000A0004000C0004000E00040200000402020004020400040206000402080004020A0004020C0004020E000404000004040200040404000404060004040800040
310
40A0004040C0004040E00040600000406020004060400040606000406080004060A0004060C0004060E00040800000408020004080400040806000408080004080A0004080C0004080E00040A0000040A0200040A0400040A0600040A0800040A0A00040A0C00040A0E00040C0000040C0200040C0400040C0600040C08000
310
40C0A00040C0C00040C0E00040E0000040E0200040E0400040E0600040E0800040E0A00040E0C00040E0E00080000000800020008000400080006000800080008000A0008000C0008000E00080200000802020008020400080206000802080008020A0008020C0008020E00080400000804020008040400080406000804080
310
008040A0008040C0008040E00080600000806020008060400080606000806080008060A0008060C0008060E00080800000808020008080400080806000808080008080A0008080C0008080E00080A0000080A0200080A0400080A0600080A0800080A0A00080A0C00080A0E00080C0000080C0200080C0400080C0600080C0
310
800080C0A00080C0C00080C0E00080E0000080E0200080E0400080E0600080E0800080E0A00080E0C00080E0E000C0000000C0002000C0004000C0006000C0008000C000A000C000C000C000E000C0200000C0202000C0204000C0206000C0208000C020A000C020C000C020E000C0400000C0402000C0404000C0406000C0
310
408000C040A000C040C000C040E000C0600000C0602000C0604000C0606000C0608000C060A000C060C000C060E000C0800000C0802000C0804000C0806000C0808000C080A000C080C000C080E000C0A00000C0A02000C0A04000C0A06000C0A08000C0A0A000C0A0C000C0A0E000C0C00000C0C02000C0C04000C0C06000
310
C0C08000C0C0A000F0FBFF00A4A0A000808080000000FF0000FF000000FFFF00FF000000FF00FF00FFFF0000FFFFFF00000000000000000000000000000000000000000000000000000000000000000000000000000000000000000000000000000000000000000000000000000000000000000000000000FC000000000000
310
00000000000000000000000000000000000000000000000000FC00000000000000000000000000000000000000000000000000000000000000FC00000000000000000000000000000000000000000000000000000000000000FC00000000000000000000000000000000000000000000000000000000000000FC0000000000
310
00000000000000000000000000000000000000FCFCFCFCFCFCFCFCFCFCFCFCFCFCFCFCFCFCFCFCFCFCFCFCFCFCFCFCFC000000FC000000000000FC00000000000000000000000000000000000000FC00000000FC000000000000FC00000000000000000000000000000000FCFCFCFCFC000000FC000000000000FC00000000
310
000000000000000000000000FC00000000000000FC000000000000FC00000000000000000000000000000000FC00000000000000FC000000000000FC00000000000000000000000000000000FC00000000000000FC000000000000FC00000000000000000000000000000000FC00000000000000FC000000000000FC000000
310
00000000000000000000000000FC00000000000000FC000000000000FC00000000000000000000000000000000FC00000000000000FC000000000000FC00000000000000000000000000000000FCFCFCFCFCFC0000FC000000000000FC00000000000000000000000000000000000000FC00000000FC000000000000FC0000
310
0000000000000000000000000000000000FC00000000FC000000000000FC000000000000000000000000FCFCFCFCFCFCFCFCFCFC0000FC000000000000FC000000000000000000000000FC0000000000000000000000FC000000000000FC000000000000000000000000FC0000000000000000000000FC000000000000FC00
310
0000000000000000000000FC0000000000000000000000FC000000000000FC000000000000000000000000FC0000000000000000000000FC000000000000FC00000000FCFCFCFCFC000000FC0000000000000000000000FC000000000000FC00000000FC000000FC000000FC0000000000000000000000FCFCFCFCFCFCFCFC
310
FCFCFCFCFC000000FC000000FC000000000000000000000000000000000000FC0000000000000000FCFCFCFCFC000000000000000000000000000000000000FC00000000000000000000000000000000000000000000000000000000000000FC00000000000000000000000000000000000000000000000000000000000000
310
0000000000000000000000000000000000000000000000000000000000000000000000000000000000000000000000000000000000000000
102
{BLKREFS
331
F732
102
}
 70
     4
280
     1
281
     1
  0
ENDTAB
  0
ENDSEC
  0
SECTION
  2
BLOCKS
  0
BLOCK
  5
20
330
1F
100
AcDbEntity
  8
0
100
AcDbBlockBegin
  2
*Model_Space
 70
     0
 10
0.0
 20
0.0
 30
0.0
  3
*Model_Space
  1

  0
ENDBLK
  5
21
330
1F
100
AcDbEntity
  8
0
100
AcDbBlockEnd
  0
BLOCK
  5
1C
330
1B
100
AcDbEntity
 67
     1
  8
0
100
AcDbBlockBegin
  2
*Paper_Space
 70
     0
 10
0.0
 20
0.0
 30
0.0
  3
*Paper_Space
  1

  0
ENDBLK
  5
1D
330
1B
100
AcDbEntity
 67
     1
  8
0
100
AcDbBlockEnd
  0
BLOCK
  5
24
330
23
100
AcDbEntity
 67
     1
  8
0
100
AcDbBlockBegin
  2
*Paper_Space0
 70
     0
 10
0.0
 20
0.0
 30
0.0
  3
*Paper_Space0
  1

  0
ENDBLK
  5
25
330
23
100
AcDbEntity
 67
     1
  8
0
100
AcDbBlockEnd
  0
BLOCK
  5
6D
330
69
100
AcDbEntity
  8
0
100
AcDbBlockBegin
  2
_Open30
 70
     0
 10
0.0
 20
0.0
 30
0.0
  3
_Open30
  1

  0
LINE
  5
6A
330
69
100
AcDbEntity
  8
0
  6
ByBlock
 62
     0
370
    -2
100
AcDbLine
 10
-1.0
 20
0.26794919
 30
0.0
 11
0.0
 21
0.0
 31
0.0
  0
LINE
  5
6B
330
69
100
AcDbEntity
  8
0
  6
ByBlock
 62
     0
370
    -2
100
AcDbLine
 10
0.0
 20
0.0
 30
0.0
 11
-1.0
 21
-0.26794919
 31
0.0
  0
LINE
  5
6C
330
69
100
AcDbEntity
  8
0
  6
ByBlock
 62
     0
370
    -2
100
AcDbLine
 10
0.0
 20
0.0
 30
0.0
 11
-1.0
 21
0.0
 31
0.0
  0
ENDBLK
  5
6E
330
69
100
AcDbEntity
  8
0
100
AcDbBlockEnd
  0
BLOCK
  5
76
330
74
100
AcDbEntity
  8
0
100
AcDbBlockBegin
  2
GENAXEH
 70
     0
 10
0.0
 20
0.0
 30
0.0
  3
GENAXEH
  1

  0
LINE
  5
75
330
74
100
AcDbEntity
  8
0
100
AcDbLine
 10
-1.0
 20
0.0
 30
0.0
 11
1.0
 21
0.0
 31
0.0
  0
ENDBLK
  5
77
330
74
100
AcDbEntity
  8
0
100
AcDbBlockEnd
  0
BLOCK
  5
4A38
330
4A35
100
AcDbEntity
  8
0
100
AcDbBlockBegin
  2
ロッカクアナツキプラグ-2 R1／2
 70
     0
 10
0.0
 20
0.0
 30
0.0
  3
ロッカクアナツキプラグ-2 R1／2
  1

  0
LINE
  5
696E
330
4A35
100
AcDbEntity
  8
AM_0 外形線1
100
AcDbLine
 10
5.0
 20
2.886751000000002
 30
0.0
 11
0.0
 21
5.773501999999893
 31
0.0
  0
LINE
  5
696F
330
4A35
100
AcDbEntity
  8
AM_0 外形線1
100
AcDbLine
 10
0.0
 20
-5.773503000000005
 30
0.0
 11
5.0
 21
-2.886752000000115
 31
0.0
  0
LINE
  5
6970
330
4A35
100
AcDbEntity
  8
AM_7 中心線
100
AcDbLine
 10
15.71635800000013
 20
0.0
 30
0.0
 11
-15.71635800000013
 21
0.0
 31
0.0
  0
CIRCLE
  5
6971
330
4A35
100
AcDbEntity
  8
AM_4 細線
100
AcDbCircle
 10
0.0
 20
0.0
 30
0.0
 40
10.716358
  0
CIRCLE
  5
6972
330
4A35
100
AcDbEntity
  8
AM_0 外形線1
100
AcDbCircle
 10
0.0
 20
0.0
 30
0.0
 40
9.554358
  0
LINE
  5
6973
330
4A35
100
AcDbEntity
  8
AM_7 中心線
100
AcDbLine
 10
0.0
 20
-15.71635850000007
 30
0.0
 11
0.0
 21
15.71635849999995
 31
0.0
  0
LINE
  5
6974
330
4A35
100
AcDbEntity
  8
AM_0 外形線1
100
AcDbLine
 10
-5.0
 20
-2.886752000000115
 30
0.0
 11
0.0
 21
-5.773503000000005
 31
0.0
  0
LINE
  5
6975
330
4A35
100
AcDbEntity
  8
AM_0 外形線1
100
AcDbLine
 10
0.0
 20
5.773501999999893
 30
0.0
 11
-5.0
 21
2.886751000000002
 31
0.0
  0
LINE
  5
6976
330
4A35
100
AcDbEntity
  8
AM_0 外形線1
100
AcDbLine
 10
-5.0
 20
2.886751000000002
 30
0.0
 11
-5.0
 21
-2.886752000000115
 31
0.0
  0
LINE
  5
6977
330
4A35
100
AcDbEntity
  8
AM_0 外形線1
100
AcDbLine
 10
5.0
 20
2.886751000000002
 30
0.0
 11
5.0
 21
-2.886752000000115
 31
0.0
  0
LINE
  5
B937
330
4A35
100
AcDbEntity
  8
AM_0 外形線1
100
AcDbLine
 10
-233.3682789445497
 20
-10.26238850000004
 30
0.0
 11
-233.3682789445497
 21
10.26238750000016
 31
0.0
  0
LINE
  5
B938
330
4A35
100
AcDbEntity
  8
AM_0 外形線1
100
AcDbLine
 10
-231.3682789445497
 20
-6.798287500000013
 30
0.0
 11
-231.3682789445497
 21
6.798285500000019
 31
0.0
  0
LINE
  5
B939
330
4A35
100
AcDbEntity
  8
AM_0 外形線1
100
AcDbLine
 10
-244.8682789445497
 20
-10.6639775000001
 30
0.0
 11
-244.8682789445497
 21
10.66397649999999
 31
0.0
  0
LINE
  5
B93A
330
4A35
100
AcDbEntity
  8
AM_0 外形線1
100
AcDbLine
 10
-233.3682789445497
 20
-10.26238850000004
 30
0.0
 11
-231.3682789445497
 21
-6.798287500000013
 31
0.0
  0
LINE
  5
B93B
330
4A35
100
AcDbEntity
  8
AM_7 中心線
100
AcDbLine
 10
-247.9754829445496
 20
-0.0000004999999419
 30
0.0
 11
-228.1456159445497
 21
-0.0000004999999419
 31
0.0
  0
LINE
  5
B93C
330
4A35
100
AcDbEntity
  8
AM_4 細線
100
AcDbLine
 10
-245.9910699445495
 20
-9.541186499999867
 30
0.0
 11
-232.6835939445496
 21
-9.076479499999775
 31
0.0
  0
LINE
  5
B93D
330
4A35
100
AcDbEntity
  8
AM_0 外形線1
100
AcDbLine
 10
-244.8682789445497
 20
-10.6639775000001
 30
0.0
 11
-233.3682789445497
 21
-10.26238850000004
 31
0.0
  0
LINE
  5
B93E
330
4A35
100
AcDbEntity
  8
AM_0 外形線1
100
AcDbLine
 10
-231.3682789445497
 20
6.798285500000019
 30
0.0
 11
-233.3682789445497
 21
10.26238750000016
 31
0.0
  0
LINE
  5
B93F
330
4A35
100
AcDbEntity
  8
AM_4 細線
100
AcDbLine
 10
-245.9910699445495
 20
9.541184500000099
 30
0.0
 11
-232.6835939445496
 21
9.076477500000008
 31
0.0
  0
LINE
  5
B940
330
4A35
100
AcDbEntity
  8
AM_0 外形線1
100
AcDbLine
 10
-244.8682789445497
 20
10.66397649999999
 30
0.0
 11
-246.3682789445497
 21
9.163976499999987
 31
0.0
  0
LINE
  5
B941
330
4A35
100
AcDbEntity
  8
AM_0 外形線1
100
AcDbLine
 10
-233.3682789445497
 20
10.26238750000016
 30
0.0
 11
-244.8682789445497
 21
10.66397649999999
 31
0.0
  0
LINE
  5
B94C
330
4A35
100
AcDbEntity
  8
AM_0 外形線1
100
AcDbLine
 10
-246.3682789445497
 20
9.163976499999987
 30
0.0
 11
-246.3682789445497
 21
-9.1639775000001
 31
0.0
  0
LINE
  5
B94D
330
4A35
100
AcDbEntity
  8
AM_0 外形線1
100
AcDbLine
 10
-246.3682789445497
 20
-9.1639775000001
 30
0.0
 11
-244.8682789445497
 21
-10.6639775000001
 31
0.0
  0
ENDBLK
  5
4A50
330
4A35
100
AcDbEntity
  8
0
100
AcDbBlockEnd
  0
BLOCK
  5
4B36
330
4B33
100
AcDbEntity
  8
0
100
AcDbBlockBegin
  2
ロッカクアナツキプラグ-1 R1／8
 70
     0
 10
0.0
 20
0.0
 30
0.0
  3
ロッカクアナツキプラグ-1 R1／8
  1

  0
ENDBLK
  5
4B41
330
4B33
100
AcDbEntity
  8
0
100
AcDbBlockEnd
  0
BLOCK
  5
4B45
330
4B42
100
AcDbEntity
  8
0
100
AcDbBlockBegin
  2
ＧＣサイドカバ－B CMVH500
 70
     0
 10
0.0
 20
0.0
 30
0.0
  3
ＧＣサイドカバ－B CMVH500
  1

  0
LINE
  5
5B6F
330
4B42
100
AcDbEntity
  8
AM_0 外形線1
100
AcDbLine
 10
212.0
 20
31.0
 30
0.0
 11
199.5
 21
31.0
 31
0.0
  0
LINE
  5
5B70
330
4B42
100
AcDbEntity
  8
AM_0 外形線1
100
AcDbLine
 10
192.8000000000002
 20
0.0
 30
0.0
 11
212.0
 21
0.0
 31
0.0
  0
LINE
  5
5B71
330
4B42
100
AcDbEntity
  8
AM_0 外形線1
100
AcDbLine
 10
-169.0
 20
31.0
 30
0.0
 11
-169.0
 21
26.59999999999991
 31
0.0
  0
LINE
  5
5B72
330
4B42
100
AcDbEntity
  8
AM_0 外形線1
100
AcDbLine
 10
-212.0
 20
0.0
 30
0.0
 11
-212.0
 21
31.0
 31
0.0
  0
LINE
  5
5B73
330
4B42
100
AcDbEntity
  8
AM_0 外形線1
100
AcDbLine
 10
-192.7999999999997
 20
0.0
 30
0.0
 11
-212.0
 21
0.0
 31
0.0
  0
LINE
  5
5B74
330
4B42
100
AcDbEntity
  8
AM_0 外形線1
100
AcDbLine
 10
-187.5
 20
3.099999999999908
 30
0.0
 11
-192.7999999999997
 21
3.099999999999908
 31
0.0
  0
LINE
  5
5B75
330
4B42
100
AcDbEntity
  8
AM_0 外形線1
100
AcDbLine
 10
-192.7999999999997
 20
3.099999999999908
 30
0.0
 11
-192.7999999999997
 21
0.0
 31
0.0
  0
LINE
  5
5B76
330
4B42
100
AcDbEntity
  8
AM_0 外形線1
100
AcDbLine
 10
-187.5
 20
-2.0
 30
0.0
 11
-173.0106839999998
 21
-2.0
 31
0.0
  0
LINE
  5
5B77
330
4B42
100
AcDbEntity
  8
AM_0 外形線1
100
AcDbLine
 10
-180.0
 20
11.0
 30
0.0
 11
-180.0
 21
-2.0
 31
0.0
  0
LINE
  5
5B78
330
4B42
100
AcDbEntity
  8
AM_0 外形線1
100
AcDbLine
 10
-169.0
 20
11.0
 30
0.0
 11
-180.0
 21
11.0
 31
0.0
  0
LINE
  5
5B79
330
4B42
100
AcDbEntity
  8
AM_0 外形線1
100
AcDbLine
 10
-169.0
 20
15.40000000000009
 30
0.0
 11
-169.0
 21
11.0
 31
0.0
  0
LINE
  5
5B7A
330
4B42
100
AcDbEntity
  8
AM_0 外形線1
100
AcDbLine
 10
-174.5499999999997
 20
15.40000000000009
 30
0.0
 11
-169.0
 21
15.40000000000009
 31
0.0
  0
LINE
  5
5B7B
330
4B42
100
AcDbEntity
  8
AM_0 外形線1
100
AcDbLine
 10
-174.5499999999997
 20
26.59999999999991
 30
0.0
 11
-174.5499999999997
 21
15.40000000000009
 31
0.0
  0
LINE
  5
5B7C
330
4B42
100
AcDbEntity
  8
AM_0 外形線1
100
AcDbLine
 10
-169.0
 20
26.59999999999991
 30
0.0
 11
-174.5499999999997
 21
26.59999999999991
 31
0.0
  0
LINE
  5
5B7D
330
4B42
100
AcDbEntity
  8
AM_0 外形線1
100
AcDbLine
 10
-169.0
 20
11.0
 30
0.0
 11
-167.5
 21
11.0
 31
0.0
  0
LINE
  5
5B7E
330
4B42
100
AcDbEntity
  8
AM_0 外形線1
100
AcDbLine
 10
-169.0
 20
15.40000000000009
 30
0.0
 11
-167.5
 21
15.40000000000009
 31
0.0
  0
LINE
  5
5B7F
330
4B42
100
AcDbEntity
  8
AM_0 外形線1
100
AcDbLine
 10
-169.0
 20
26.59999999999991
 30
0.0
 11
-167.5
 21
26.59999999999991
 31
0.0
  0
LINE
  5
5B80
330
4B42
100
AcDbEntity
  8
AM_0 外形線1
100
AcDbLine
 10
-187.5
 20
-2.0
 30
0.0
 11
-187.5
 21
3.099999999999908
 31
0.0
  0
LINE
  5
5B81
330
4B42
100
AcDbEntity
  8
AM_0 外形線1
100
AcDbLine
 10
-212.0
 20
31.0
 30
0.0
 11
-167.5
 21
31.0
 31
0.0
  0
LINE
  5
5B82
330
4B42
100
AcDbEntity
  8
AM_0 外形線1
100
AcDbLine
 10
199.5
 20
31.0
 30
0.0
 11
0.0
 21
31.0
 31
0.0
  0
LINE
  5
5B83
330
4B42
100
AcDbEntity
  8
AM_0 外形線1
100
AcDbLine
 10
192.8000000000002
 20
0.0
 30
0.0
 11
0.0
 21
0.0
 31
0.0
  0
LINE
  5
5B84
330
4B42
100
AcDbEntity
  8
AM_7 中心線
100
AcDbLine
 10
201.0
 20
-23.80213000000003
 30
0.0
 11
201.0
 21
43.3259069999999
 31
0.0
  0
LINE
  5
5B85
330
4B42
100
AcDbEntity
  8
AM_0 外形線1
100
AcDbLine
 10
212.0
 20
0.0
 30
0.0
 11
212.0
 21
31.0
 31
0.0
  0
ELLIPSE
  5
5B86
330
4B42
100
AcDbEntity
  8
AM_0 外形線1
100
AcDbEllipse
 10
-171.0250000000001
 20
21.0
 30
0.0
 11
0.0
 21
-5.599999999999909
 31
0.0
210
0.0
220
0.0
230
1.0
 40
0.6294642857142918
 41
0.0
 42
6.283185307179585
  0
ELLIPSE
  5
682B
330
4B42
100
AcDbEntity
  8
AM_0 外形線1
100
AcDbEllipse
 10
-190.1499999999995
 20
1.549999999999954
 30
0.0
 11
-2.650000000000089
 21
0.0
 31
0.0
210
0.0
220
0.0
230
1.0
 40
0.5849056603773213
 41
0.0
 42
6.283185307179585
  0
INSERT
  5
68A6
330
4B42
100
AcDbEntity
  8
AM_0 外形線1
100
AcDbBlockReference
  2
ロッカクアナツキプラグ-2 R1／8
 10
44.68001194454973
 20
8.500000500000055
 30
0.0
  0
LINE
  5
B82C
330
4B42
100
AcDbEntity
  8
AM_7 中心線
100
AcDbLine
 10
-201.0
 20
-23.80213000000003
 30
0.0
 11
-201.0
 21
43.3259069999999
 31
0.0
  0
ENDBLK
  5
4B50
330
4B42
100
AcDbEntity
  8
0
100
AcDbBlockEnd
  0
BLOCK
  5
6735
330
6734
100
AcDbEntity
  8
0
100
AcDbBlockBegin
  2
ロッカクアナツキプラグ-2 R1／8
 70
     0
 10
0.0
 20
0.0
 30
0.0
  3
ロッカクアナツキプラグ-2 R1／8
  1

  0
LINE
  5
6859
330
6734
100
AcDbEntity
  8
AM_0 外形線1
100
AcDbLine
 10
2.5
 20
1.443374999999946
 30
0.0
 11
0.0
 21
2.886751000000002
 31
0.0
  0
LINE
  5
685A
330
6734
100
AcDbEntity
  8
AM_0 外形線1
100
AcDbLine
 10
0.0
 20
-2.886752000000115
 30
0.0
 11
2.5
 21
-1.443376000000056
 31
0.0
  0
CIRCLE
  5
685B
330
6734
100
AcDbEntity
  8
AM_4 細線
100
AcDbCircle
 10
0.0
 20
0.0
 30
0.0
 40
4.86397
  0
CIRCLE
  5
685C
330
6734
100
AcDbEntity
  8
AM_0 外形線1
100
AcDbCircle
 10
0.0
 20
0.0
 30
0.0
 40
4.28298
  0
LINE
  5
685D
330
6734
100
AcDbEntity
  8
AM_7 中心線
100
AcDbLine
 10
10.19634450000001
 20
0.0
 30
0.0
 11
-10.19634450000001
 21
0.0
 31
0.0
  0
LINE
  5
685E
330
6734
100
AcDbEntity
  8
AM_0 外形線1
100
AcDbLine
 10
-2.5
 20
-1.443376000000056
 30
0.0
 11
0.0
 21
-2.886752000000115
 31
0.0
  0
LINE
  5
685F
330
6734
100
AcDbEntity
  8
AM_0 外形線1
100
AcDbLine
 10
0.0
 20
2.886751000000002
 30
0.0
 11
-2.5
 21
1.443374999999946
 31
0.0
  0
LINE
  5
6860
330
6734
100
AcDbEntity
  8
AM_7 中心線
100
AcDbLine
 10
0.0
 20
-10.36398650000001
 30
0.0
 11
0.0
 21
10.36398650000001
 31
0.0
  0
LINE
  5
6861
330
6734
100
AcDbEntity
  8
AM_0 外形線1
100
AcDbLine
 10
2.5
 20
1.443374999999946
 30
0.0
 11
2.5
 21
-1.443376000000056
 31
0.0
  0
LINE
  5
6862
330
6734
100
AcDbEntity
  8
AM_0 外形線1
100
AcDbLine
 10
-2.5
 20
1.443374999999946
 30
0.0
 11
-2.5
 21
-1.443376000000056
 31
0.0
  0
ENDBLK
  5
6736
330
6734
100
AcDbEntity
  8
0
100
AcDbBlockEnd
  0
BLOCK
  5
68CB
330
68CA
100
AcDbEntity
  8
0
100
AcDbBlockBegin
  2
センタB CMVH500
 70
     0
 10
0.0
 20
0.0
 30
0.0
  3
センタB CMVH500
  1

  0
ARC
  5
68F1
330
68CA
100
AcDbEntity
  8
AM_0 外形線1
100
AcDbCircle
 10
-160.5
 20
230.0
 30
0.0
 40
6.0
100
AcDbArc
 50
90.0
 51
180.0
  0
LINE
  5
68F2
330
68CA
100
AcDbEntity
  8
AM_0 外形線1
100
AcDbLine
 10
-166.0
 20
1.0
 30
0.0
 11
-165.0
 21
0.0
 31
0.0
  0
LINE
  5
68F3
330
68CA
100
AcDbEntity
  8
AM_0 外形線1
100
AcDbLine
 10
-166.5
 20
230.0
 30
0.0
 11
-166.5
 21
183.0
 31
0.0
  0
ARC
  5
68F6
330
68CA
100
AcDbEntity
  8
AM_0 外形線1
100
AcDbCircle
 10
0.0
 20
99.50000000000001
 30
0.0
 40
185.75
100
AcDbArc
 50
170.3928970000012
 51
189.6071029999987
  0
LINE
  5
68F7
330
68CA
100
AcDbEntity
  8
AM_0 外形線1
100
AcDbLine
 10
-166.0
 20
67.5
 30
0.0
 11
-166.0
 21
1.0
 31
0.0
  0
ARC
  5
68F8
330
68CA
100
AcDbEntity
  8
AM_0 外形線1
100
AcDbCircle
 10
-166.5
 20
67.5
 30
0.0
 40
0.5
100
AcDbArc
 50
0.0
 51
90.0
  0
LINE
  5
68F9
330
68CA
100
AcDbEntity
  8
AM_0 外形線1
100
AcDbLine
 10
-182.5595869999997
 20
68.0
 30
0.0
 11
-166.5
 21
68.0
 31
0.0
  0
LINE
  5
68FA
330
68CA
100
AcDbEntity
  8
AM_0 外形線1
100
AcDbLine
 10
-183.1449219999999
 20
68.5
 30
0.0
 11
-182.5595869999997
 21
68.0
 31
0.0
  0
LINE
  5
68FB
330
68CA
100
AcDbEntity
  8
AM_7 中心線
100
AcDbLine
 10
-190.75
 20
99.50000000000001
 30
0.0
 11
-169.0
 21
99.50000000000001
 31
0.0
  0
LINE
  5
68FC
330
68CA
100
AcDbEntity
  8
AM_0 外形線1
100
AcDbLine
 10
-167.5
 20
180.0
 30
0.0
 11
-167.5
 21
131.5
 31
0.0
  0
LINE
  5
68FD
330
68CA
100
AcDbEntity
  8
AM_0 外形線1
100
AcDbLine
 10
-182.5595869999997
 20
131.0
 30
0.0
 11
-183.1449219999999
 21
130.5
 31
0.0
  0
LINE
  5
68FE
330
68CA
100
AcDbEntity
  8
AM_0 外形線1
100
AcDbLine
 10
-168.0
 20
131.0
 30
0.0
 11
-182.5595869999997
 21
131.0
 31
0.0
  0
ARC
  5
68FF
330
68CA
100
AcDbEntity
  8
AM_0 外形線1
100
AcDbCircle
 10
-168.0
 20
131.5
 30
0.0
 40
0.5
100
AcDbArc
 50
270.0
 51
0.0
  0
LINE
  5
6900
330
68CA
100
AcDbEntity
  8
AM_0 外形線1
100
AcDbLine
 10
-166.5
 20
183.0
 30
0.0
 11
-167.5
 21
180.0
 31
0.0
  0
LINE
  5
6901
330
68CA
100
AcDbEntity
  8
AM_0 外形線1
100
AcDbLine
 10
166.5
 20
183.0
 30
0.0
 11
166.5
 21
230.0
 31
0.0
  0
LINE
  5
6902
330
68CA
100
AcDbEntity
  8
AM_0 外形線1
100
AcDbLine
 10
166.5
 20
183.0
 30
0.0
 11
0.0
 21
183.0
 31
0.0
  0
LINE
  5
6903
330
68CA
100
AcDbEntity
  8
AM_0 外形線1
100
AcDbLine
 10
167.5
 20
180.0
 30
0.0
 11
0.0
 21
180.0
 31
0.0
  0
LINE
  5
6904
330
68CA
100
AcDbEntity
  8
AM_0 外形線1
100
AcDbLine
 10
-165.0
 20
0.0
 30
0.0
 11
0.0
 21
0.0
 31
0.0
  0
LINE
  5
6905
330
68CA
100
AcDbEntity
  8
AM_3 隠れ線
100
AcDbLine
 10
-8.75
 20
52.0
 30
0.0
 11
-8.75
 21
0.0
 31
0.0
  0
LINE
  5
6906
330
68CA
100
AcDbEntity
  8
AM_3 隠れ線
100
AcDbLine
 10
-10.0
 20
0.0
 30
0.0
 11
-10.0
 21
36.0
 31
0.0
  0
LINE
  5
6907
330
68CA
100
AcDbEntity
  8
AM_3 隠れ線
100
AcDbLine
 10
0.0
 20
36.0
 30
0.0
 11
-10.0
 21
36.0
 31
0.0
  0
LINE
  5
6908
330
68CA
100
AcDbEntity
  8
AM_3 隠れ線
100
AcDbLine
 10
-8.75
 20
36.72168699999998
 30
0.0
 11
0.0
 21
36.72168699999998
 31
0.0
  0
LINE
  5
6909
330
68CA
100
AcDbEntity
  8
AM_3 隠れ線
100
AcDbLine
 10
-10.0
 20
36.0
 30
0.0
 11
-8.75
 21
36.72168699999998
 31
0.0
  0
LINE
  5
690A
330
68CA
100
AcDbEntity
  8
AM_3 隠れ線
100
AcDbLine
 10
0.0
 20
57.05181500000002
 30
0.0
 11
-8.75
 21
52.0
 31
0.0
  0
LINE
  5
690B
330
68CA
100
AcDbEntity
  8
AM_3 隠れ線
100
AcDbLine
 10
-8.75
 20
52.0
 30
0.0
 11
0.0
 21
52.0
 31
0.0
  0
LINE
  5
690C
330
68CA
100
AcDbEntity
  8
AM_0 外形線1
100
AcDbLine
 10
167.5
 20
169.0
 30
0.0
 11
167.5
 21
180.0
 31
0.0
  0
LINE
  5
690D
330
68CA
100
AcDbEntity
  8
AM_0 外形線1
100
AcDbLine
 10
167.5
 20
180.0
 30
0.0
 11
166.5
 21
183.0
 31
0.0
  0
LINE
  5
690E
330
68CA
100
AcDbEntity
  8
AM_0 外形線1
100
AcDbLine
 10
160.5
 20
236.0
 30
0.0
 11
-160.5
 21
236.0
 31
0.0
  0
ARC
  5
690F
330
68CA
100
AcDbEntity
  8
AM_0 外形線1
100
AcDbCircle
 10
160.5
 20
230.0
 30
0.0
 40
6.0
100
AcDbArc
 50
0.0
 51
90.0
  0
LINE
  5
6910
330
68CA
100
AcDbEntity
  8
AM_0 外形線1
100
AcDbLine
 10
-84.49999999999954
 20
0.0
 30
0.0
 11
-84.50000000000001
 21
236.0
 31
0.0
  0
ARC
  5
F221
330
68CA
100
AcDbEntity
  8
AM_0 外形線1
100
AcDbCircle
 10
0.0000000000009095
 20
99.49999999999807
 30
0.0
 40
174.0
100
AcDbArc
 50
169.5699787089502
 51
190.4300212910497
  0
ARC
  5
F222
330
68CA
100
AcDbEntity
  8
AM_7 中心線
100
AcDbCircle
 10
0.0000000000009095
 20
99.49999999999807
 30
0.0
 40
180.0000000000001
100
AcDbArc
 50
168.3005568870919
 51
191.8500794080146
  0
ENDBLK
  5
68CC
330
68CA
100
AcDbEntity
  8
0
100
AcDbBlockEnd
  0
BLOCK
  5
699D
330
699C
100
AcDbEntity
  8
0
100
AcDbBlockBegin
  2
ケースB CMVH500
 70
     0
 10
0.0
 20
0.0
 30
0.0
  3
ケースB CMVH500
  1

  0
LINE
  5
69DD
330
699C
100
AcDbEntity
  8
AM_0 外形線1
100
AcDbLine
 10
249.0
 20
25.0
 30
0.0
 11
0.0
 21
25.0
 31
0.0
  0
ARC
  5
69DE
330
699C
100
AcDbEntity
  8
AM_0 外形線1
100
AcDbCircle
 10
209.5
 20
31.0
 30
0.0
 40
6.0
100
AcDbArc
 50
180.0
 51
270.0
  0
LINE
  5
69DF
330
699C
100
AcDbEntity
  8
AM_0 外形線1
100
AcDbLine
 10
212.0
 20
127.0
 30
0.0
 11
0.0
 21
127.0
 31
0.0
  0
LINE
  5
69E0
330
699C
100
AcDbEntity
  8
AM_0 外形線1
100
AcDbLine
 10
203.5
 20
118.5
 30
0.0
 11
212.0
 21
127.0
 31
0.0
  0
LINE
  5
69E1
330
699C
100
AcDbEntity
  8
AM_0 外形線1
100
AcDbLine
 10
0.0
 20
0.0
 30
0.0
 11
249.0
 21
0.0
 31
0.0
  0
LINE
  5
69E2
330
699C
100
AcDbEntity
  8
AM_0 外形線1
100
AcDbLine
 10
-187.4999999999999
 20
8.0
 30
0.0
 11
-200.0
 21
8.0
 31
0.0
  0
LINE
  5
69E3
330
699C
100
AcDbEntity
  8
AM_3 隠れ線
100
AcDbLine
 10
-175.1999999999998
 20
82.0
 30
0.0
 11
-175.1999999999998
 21
145.0
 31
0.0
  0
LINE
  5
69E4
330
699C
100
AcDbEntity
  8
AM_7 中心線
100
AcDbLine
 10
-180.0
 20
71.0
 30
0.0
 11
-180.0
 21
149.0
 31
0.0
  0
LINE
  5
69E5
330
699C
100
AcDbEntity
  8
AM_0 外形線1
100
AcDbLine
 10
-203.5
 20
31.0
 30
0.0
 11
-203.5
 21
118.5
 31
0.0
  0
LINE
  5
69E6
330
699C
100
AcDbEntity
  8
AM_0 外形線1
100
AcDbLine
 10
-186.0
 20
73.0
 30
0.0
 11
-186.0
 21
147.0
 31
0.0
  0
LINE
  5
69E7
330
699C
100
AcDbEntity
  8
AM_0 外形線1
100
AcDbLine
 10
-187.5
 20
72.5
 30
0.0
 11
-187.5
 21
8.0
 31
0.0
  0
LINE
  5
69EB
330
699C
100
AcDbEntity
  8
AM_0 外形線1
100
AcDbLine
 10
-200.0
 20
-0.0000000000001137
 30
0.0
 11
-220.0
 21
0.0
 31
0.0
  0
LINE
  5
69EC
330
699C
100
AcDbEntity
  8
AM_0 外形線1
100
AcDbLine
 10
-209.5
 20
25.0
 30
0.0
 11
-249.0
 21
25.0
 31
0.0
  0
LINE
  5
69ED
330
699C
100
AcDbEntity
  8
AM_0 外形線1
100
AcDbLine
 10
-220.0
 20
25.0
 30
0.0
 11
-220.0
 21
0.0
 31
0.0
  0
LINE
  5
69EE
330
699C
100
AcDbEntity
  8
AM_0 外形線1
100
AcDbLine
 10
-242.0
 20
25.0
 30
0.0
 11
-242.0
 21
0.0
 31
0.0
  0
LINE
  5
69EF
330
699C
100
AcDbEntity
  8
AM_0 外形線1
100
AcDbLine
 10
-250.0
 20
1.0
 30
0.0
 11
-250.0
 21
24.0
 31
0.0
  0
LINE
  5
69F0
330
699C
100
AcDbEntity
  8
AM_0 外形線1
100
AcDbLine
 10
-242.0
 20
0.0
 30
0.0
 11
-249.0
 21
0.0
 31
0.0
  0
LINE
  5
69F1
330
699C
100
AcDbEntity
  8
AM_0 外形線1
100
AcDbLine
 10
-249.0
 20
0.0
 30
0.0
 11
-250.0
 21
1.0
 31
0.0
  0
LINE
  5
69F2
330
699C
100
AcDbEntity
  8
AM_0 外形線1
100
AcDbLine
 10
-250.0
 20
24.0
 30
0.0
 11
-249.0
 21
25.0
 31
0.0
  0
LINE
  5
69F3
330
699C
100
AcDbEntity
  8
AM_0 外形線1
100
AcDbLine
 10
-200.0
 20
8.0
 30
0.0
 11
-199.9999999999999
 21
-0.0000000000001137
 31
0.0
  0
LINE
  5
69F4
330
699C
100
AcDbEntity
  8
AM_4 細線
100
AcDbLine
 10
-190.5
 20
39.7376119999999
 30
0.0
 11
-187.5
 21
39.84237399999983
 31
0.0
  0
LINE
  5
69F8
330
699C
100
AcDbEntity
  8
AM_4 細線
100
AcDbLine
 10
-202.0
 20
39.33602299999984
 30
0.0
 11
-203.5
 21
39.28364199999986
 31
0.0
  0
ARC
  5
69FC
330
699C
100
AcDbEntity
  8
AM_0 外形線1
100
AcDbCircle
 10
-209.5
 20
31.0
 30
0.0
 40
6.0
100
AcDbArc
 50
270.0
 51
0.0
  0
LINE
  5
69FD
330
699C
100
AcDbEntity
  8
AM_4 細線
100
AcDbLine
 10
-190.5
 20
60.26238800000011
 30
0.0
 11
-187.5
 21
60.15762500000004
 31
0.0
  0
LINE
  5
69FE
330
699C
100
AcDbEntity
  8
AM_0 外形線1
100
AcDbLine
 10
-189.8153149999998
 20
59.07647799999995
 30
0.0
 11
-187.5
 21
58.99562500000001
 31
0.0
  0
LINE
  5
6A00
330
699C
100
AcDbEntity
  8
AM_4 細線
100
AcDbLine
 10
-202.0
 20
60.66397699999993
 30
0.0
 11
-203.5
 21
60.71635800000013
 31
0.0
  0
LINE
  5
6A04
330
699C
100
AcDbEntity
  8
AM_0 外形線1
100
AcDbLine
 10
-175.1999999999998
 20
82.0
 30
0.0
 11
-175.1999999999998
 21
73.5
 31
0.0
  0
ARC
  5
6A05
330
699C
100
AcDbEntity
  8
AM_0 外形線1
100
AcDbCircle
 10
-187.0
 20
72.5
 30
0.0
 40
0.5
100
AcDbArc
 50
90.0
 51
180.0
  0
LINE
  5
6A06
330
699C
100
AcDbEntity
  8
AM_0 外形線1
100
AcDbLine
 10
-175.6999999999998
 20
73.0
 30
0.0
 11
-187.0
 21
73.0
 31
0.0
  0
LINE
  5
6A07
330
699C
100
AcDbEntity
  8
AM_0 外形線1
100
AcDbLine
 10
-175.1999999999998
 20
73.5
 30
0.0
 11
-175.6999999999998
 21
73.0
 31
0.0
  0
LINE
  5
6A08
330
699C
100
AcDbEntity
  8
AM_0 外形線1
100
AcDbLine
 10
-203.5
 20
118.5
 30
0.0
 11
-212.0
 21
127.0
 31
0.0
  0
ARC
  5
6A09
330
699C
100
AcDbEntity
  8
AM_0 外形線1
100
AcDbCircle
 10
-187.0
 20
147.5
 30
0.0
 40
0.5
100
AcDbArc
 50
180.0
 51
270.0
  0
LINE
  5
6A0A
330
699C
100
AcDbEntity
  8
AM_0 外形線1
100
AcDbLine
 10
-175.1999999999998
 20
145.0
 30
0.0
 11
-175.1999999999998
 21
146.5
 31
0.0
  0
LINE
  5
6A0B
330
699C
100
AcDbEntity
  8
AM_0 外形線1
100
AcDbLine
 10
-175.6999999999998
 20
147.0
 30
0.0
 11
-175.1999999999998
 21
146.5
 31
0.0
  0
LINE
  5
6A0C
330
699C
100
AcDbEntity
  8
AM_0 外形線1
100
AcDbLine
 10
-187.0
 20
147.0
 30
0.0
 11
-175.6999999999998
 21
147.0
 31
0.0
  0
LINE
  5
6A0D
330
699C
100
AcDbEntity
  8
AM_0 外形線1
100
AcDbLine
 10
203.5
 20
118.5
 30
0.0
 11
0.0
 21
118.5
 31
0.0
  0
LINE
  5
6A0E
330
699C
100
AcDbEntity
  8
AM_0 外形線1
100
AcDbLine
 10
203.5
 20
31.0
 30
0.0
 11
203.5
 21
118.5
 31
0.0
  0
LINE
  5
6A0F
330
699C
100
AcDbEntity
  8
AM_0 外形線1
100
AcDbLine
 10
250.0
 20
1.0
 30
0.0
 11
250.0
 21
24.0
 31
0.0
  0
LINE
  5
6A10
330
699C
100
AcDbEntity
  8
AM_0 外形線1
100
AcDbLine
 10
249.0
 20
0.0
 30
0.0
 11
250.0
 21
1.0
 31
0.0
  0
LINE
  5
6A11
330
699C
100
AcDbEntity
  8
AM_0 外形線1
100
AcDbLine
 10
250.0
 20
24.0
 30
0.0
 11
249.0
 21
25.0
 31
0.0
  0
LINE
  5
6A12
330
699C
100
AcDbEntity
  8
AM_0 外形線1
100
AcDbLine
 10
212.0
 20
127.0
 30
0.0
 11
212.0
 21
152.0
 31
0.0
  0
LINE
  5
6A13
330
699C
100
AcDbEntity
  8
AM_0 外形線1
100
AcDbLine
 10
-212.0
 20
152.0
 30
0.0
 11
-212.0
 21
127.0
 31
0.0
  0
LINE
  5
6A14
330
699C
100
AcDbEntity
  8
AM_0 外形線1
100
AcDbLine
 10
-187.5
 20
152.0
 30
0.0
 11
-187.5
 21
147.5
 31
0.0
  0
LINE
  5
6A15
330
699C
100
AcDbEntity
  8
AM_0 外形線1
100
AcDbLine
 10
-212.0
 20
152.0
 30
0.0
 11
-187.5
 21
152.0
 31
0.0
  0
INSERT
  5
6A16
330
699C
100
AcDbEntity
  8
AM_0 外形線1
100
AcDbBlockReference
  2
ロッカクアナツキプラグ-2 R1／2
 10
42.86827894454972
 20
50.00000049999993
 30
0.0
  0
LINE
  5
6A9D
330
699C
100
AcDbEntity
  8
AM_0 外形線1
100
AcDbLine
 10
0.0
 20
152.0
 30
0.0
 11
212.0
 21
152.0
 31
0.0
  0
LINE
  5
6A9E
330
699C
100
AcDbEntity
  8
AM_7 中心線
100
AcDbLine
 10
231.0
 20
0.0
 30
0.0
 11
231.0
 21
-30.0
 31
0.0
  0
LINE
  5
6A9F
330
699C
100
AcDbEntity
  8
AM_7 中心線
100
AcDbLine
 10
231.0
 20
0.0
 30
0.0
 11
231.0
 21
30.0
 31
0.0
  0
LINE
  5
B8EF
330
699C
100
AcDbEntity
  8
AM_0 外形線1
100
AcDbLine
 10
-175.6999999999998
 20
73.0
 30
0.0
 11
-169.8526299999998
 21
73.0
 31
0.0
  0
LINE
  5
B985
330
699C
100
AcDbEntity
  8
AM_0 外形線1
100
AcDbLine
 10
-203.1227909999998
 20
40.45881400000007
 30
0.0
 11
-203.5
 21
40.44564200000013
 31
0.0
  0
LINE
  5
B986
330
699C
100
AcDbEntity
  8
AM_0 外形線1
100
AcDbLine
 10
-203.5
 20
59.55435799999985
 30
0.0
 11
-203.1227909999998
 21
59.54118500000004
 31
0.0
  0
LINE
  5
B987
330
699C
100
AcDbEntity
  8
AM_0 外形線1
100
AcDbLine
 10
-189.8153149999998
 20
40.92352100000016
 30
0.0
 11
-187.5
 21
41.0043740000001
 31
0.0
  0
ENDBLK
  5
699E
330
699C
100
AcDbEntity
  8
0
100
AcDbBlockEnd
  0
BLOCK
  5
6AA8
330
6AA7
100
AcDbEntity
  8
0
100
AcDbBlockBegin
  2
ロッカクアナツキプラグ-1 R1／2
 70
     0
 10
0.0
 20
0.0
 30
0.0
  3
ロッカクアナツキプラグ-1 R1／2
  1

  0
LINE
  5
6AB8
330
6AA7
100
AcDbEntity
  8
AM_0 外形線1
100
AcDbLine
 10
5.0
 20
-2.886752000000115
 30
0.0
 11
0.0
 21
-5.773503000000005
 31
0.0
  0
LINE
  5
6AB9
330
6AA7
100
AcDbEntity
  8
AM_0 外形線1
100
AcDbLine
 10
0.0
 20
5.773501999999893
 30
0.0
 11
5.0
 21
2.886751000000002
 31
0.0
  0
LINE
  5
6ABA
330
6AA7
100
AcDbEntity
  8
AM_7 中心線
100
AcDbLine
 10
15.71635800000013
 20
0.0
 30
0.0
 11
-15.71635800000013
 21
0.0
 31
0.0
  0
CIRCLE
  5
6ABB
330
6AA7
100
AcDbEntity
  8
AM_4 細線
100
AcDbCircle
 10
0.0
 20
0.0
 30
0.0
 40
10.716358
  0
CIRCLE
  5
6ABC
330
6AA7
100
AcDbEntity
  8
AM_0 外形線1
100
AcDbCircle
 10
0.0
 20
0.0
 30
0.0
 40
9.554358
  0
LINE
  5
6ABD
330
6AA7
100
AcDbEntity
  8
AM_0 外形線1
100
AcDbLine
 10
-5.0
 20
-2.886752000000115
 30
0.0
 11
-5.0
 21
2.886751000000002
 31
0.0
  0
LINE
  5
6ABE
330
6AA7
100
AcDbEntity
  8
AM_7 中心線
100
AcDbLine
 10
0.0
 20
15.71635849999995
 30
0.0
 11
0.0
 21
-15.71635850000007
 31
0.0
  0
LINE
  5
6ABF
330
6AA7
100
AcDbEntity
  8
AM_0 外形線1
100
AcDbLine
 10
0.0
 20
-5.773503000000005
 30
0.0
 11
-5.0
 21
-2.886752000000115
 31
0.0
  0
LINE
  5
6AC0
330
6AA7
100
AcDbEntity
  8
AM_0 外形線1
100
AcDbLine
 10
-5.0
 20
2.886751000000002
 30
0.0
 11
0.0
 21
5.773501999999893
 31
0.0
  0
LINE
  5
6AC1
330
6AA7
100
AcDbEntity
  8
AM_0 外形線1
100
AcDbLine
 10
5.0
 20
-2.886752000000115
 30
0.0
 11
5.0
 21
2.886751000000002
 31
0.0
  0
LINE
  5
BA56
330
6AA7
100
AcDbEntity
  8
AM_0 外形線1
100
AcDbLine
 10
-233.3682789445497
 20
10.26238750000016
 30
0.0
 11
-233.3682789445497
 21
-10.26238850000004
 31
0.0
  0
LINE
  5
BA57
330
6AA7
100
AcDbEntity
  8
AM_0 外形線1
100
AcDbLine
 10
-231.3682789445497
 20
6.798285500000019
 30
0.0
 11
-231.3682789445497
 21
-6.798287499999786
 31
0.0
  0
LINE
  5
BA58
330
6AA7
100
AcDbEntity
  8
AM_0 外形線1
100
AcDbLine
 10
-244.8682789445497
 20
10.66397649999999
 30
0.0
 11
-244.8682789445497
 21
-10.66397749999987
 31
0.0
  0
LINE
  5
BA59
330
6AA7
100
AcDbEntity
  8
AM_7 中心線
100
AcDbLine
 10
-247.9754829445496
 20
-0.0000004999999419
 30
0.0
 11
-228.1456159445497
 21
-0.0000004999999419
 31
0.0
  0
LINE
  5
BA5A
330
6AA7
100
AcDbEntity
  8
AM_0 外形線1
100
AcDbLine
 10
-231.3682789445497
 20
-6.798287499999786
 30
0.0
 11
-233.3682789445497
 21
-10.26238850000004
 31
0.0
  0
LINE
  5
BA5B
330
6AA7
100
AcDbEntity
  8
AM_4 細線
100
AcDbLine
 10
-245.9910699445495
 20
-9.541186499999867
 30
0.0
 11
-232.6835939445496
 21
-9.076479499999775
 31
0.0
  0
LINE
  5
BA5C
330
6AA7
100
AcDbEntity
  8
AM_0 外形線1
100
AcDbLine
 10
-244.8682789445497
 20
-10.66397749999987
 30
0.0
 11
-246.3682789445497
 21
-9.163977499999873
 31
0.0
  0
LINE
  5
BA5D
330
6AA7
100
AcDbEntity
  8
AM_0 外形線1
100
AcDbLine
 10
-233.3682789445497
 20
-10.26238850000004
 30
0.0
 11
-244.8682789445497
 21
-10.66397749999987
 31
0.0
  0
LINE
  5
BA5E
330
6AA7
100
AcDbEntity
  8
AM_0 外形線1
100
AcDbLine
 10
-233.3682789445497
 20
10.26238750000016
 30
0.0
 11
-231.3682789445497
 21
6.798285500000019
 31
0.0
  0
LINE
  5
BA5F
330
6AA7
100
AcDbEntity
  8
AM_4 細線
100
AcDbLine
 10
-245.9910699445495
 20
9.541184500000099
 30
0.0
 11
-232.6835939445496
 21
9.076477500000008
 31
0.0
  0
LINE
  5
BA60
330
6AA7
100
AcDbEntity
  8
AM_0 外形線1
100
AcDbLine
 10
-244.8682789445497
 20
10.66397649999999
 30
0.0
 11
-233.3682789445497
 21
10.26238750000016
 31
0.0
  0
LINE
  5
BA61
330
6AA7
100
AcDbEntity
  8
AM_0 外形線1
100
AcDbLine
 10
-246.3682789445497
 20
9.163976499999987
 30
0.0
 11
-244.8682789445497
 21
10.66397649999999
 31
0.0
  0
LINE
  5
BA6C
330
6AA7
100
AcDbEntity
  8
AM_0 外形線1
100
AcDbLine
 10
-246.3682789445497
 20
9.163976499999987
 30
0.0
 11
-246.3682789445497
 21
-9.163977499999873
 31
0.0
  0
ENDBLK
  5
6AA9
330
6AA7
100
AcDbEntity
  8
0
100
AcDbBlockEnd
  0
BLOCK
  5
6AF4
330
6AF3
100
AcDbEntity
  8
0
100
AcDbBlockBegin
  2
スラストピン CMVH500
 70
     0
 10
0.0
 20
0.0
 30
0.0
  3
スラストピン CMVH500
  1

  0
LINE
  5
6B00
330
6AF3
100
AcDbEntity
  8
AM_0 外形線1
100
AcDbLine
 10
0.0
 20
-10.0
 30
0.0
 11
-32.5
 21
-9.999999999999886
 31
0.0
  0
LINE
  5
6B01
330
6AF3
100
AcDbEntity
  8
AM_0 外形線1
100
AcDbLine
 10
-32.5
 20
-12.942632
 30
0.0
 11
0.0
 21
-12.942632
 31
0.0
  0
ARC
  5
6B02
330
6AF3
100
AcDbEntity
  8
AM_0 外形線1
100
AcDbCircle
 10
0.0
 20
486.0
 30
0.0
 40
500.0
100
AcDbArc
 50
266.2731469999988
 51
270.0
  0
LINE
  5
6B03
330
6AF3
100
AcDbEntity
  8
AM_0 外形線1
100
AcDbLine
 10
-32.5
 20
-12.942632
 30
0.0
 11
-32.5
 21
-10.0
 31
0.0
  0
LINE
  5
6B04
330
6AF3
100
AcDbEntity
  8
AM_0 外形線1
100
AcDbLine
 10
-22.5
 20
-10.0
 30
0.0
 11
-22.5
 21
0.0
 31
0.0
  0
LINE
  5
6B05
330
6AF3
100
AcDbEntity
  8
AM_0 外形線1
100
AcDbLine
 10
-22.5
 20
0.0
 30
0.0
 11
0.0
 21
0.0
 31
0.0
  0
ENDBLK
  5
6AF5
330
6AF3
100
AcDbEntity
  8
0
100
AcDbBlockEnd
  0
BLOCK
  5
6B2D
330
6B2C
100
AcDbEntity
  8
0
100
AcDbBlockBegin
  2
リーマボルト CMVH500 M20
 70
     0
 10
0.0
 20
0.0
 30
0.0
  3
リーマボルト CMVH500 M20
  1

  0
LINE
  5
6B61
330
6B2C
100
AcDbEntity
  8
AM_0 外形線1
100
AcDbLine
 10
11.0
 20
42.26794899999993
 30
0.0
 11
11.0
 21
2.5
 31
0.0
  0
LINE
  5
6B62
330
6B2C
100
AcDbEntity
  8
AM_0 外形線1
100
AcDbLine
 10
-11.0
 20
2.5
 30
0.0
 11
-11.0
 21
42.26794899999993
 31
0.0
  0
LINE
  5
6B63
330
6B2C
100
AcDbEntity
  8
AM_0 外形線1
100
AcDbLine
 10
-17.29999999999973
 20
0.0
 30
0.0
 11
17.30000000000018
 21
0.0
 31
0.0
  0
LINE
  5
6B64
330
6B2C
100
AcDbEntity
  8
AM_0 外形線1
100
AcDbLine
 10
-12.96974599999976
 20
-13.0
 30
0.0
 11
12.96974600000021
 21
-13.0
 31
0.0
  0
ARC
  5
6B65
330
6B2C
100
AcDbEntity
  8
AM_0 外形線1
100
AcDbCircle
 10
0.0
 20
13.0
 30
0.0
 40
26.0
100
AcDbArc
 50
250.5916909999923
 51
289.4083090000076
  0
LINE
  5
6B66
330
6B2C
100
AcDbEntity
  8
AM_0 外形線1
100
AcDbLine
 10
-11.0
 20
2.5
 30
0.0
 11
-10.0
 21
1.0
 31
0.0
  0
ARC
  5
6B67
330
6B2C
100
AcDbEntity
  8
AM_0 外形線1
100
AcDbCircle
 10
-11.0
 20
1.0
 30
0.0
 40
1.0
100
AcDbArc
 50
270.0
 51
0.0
  0
LINE
  5
6B68
330
6B2C
100
AcDbEntity
  8
AM_0 外形線1
100
AcDbLine
 10
-8.63974599999983
 20
-11.52253699999983
 30
0.0
 11
-8.63974599999983
 21
0.0
 31
0.0
  0
ARC
  5
6B69
330
6B2C
100
AcDbEntity
  8
AM_0 外形線1
100
AcDbCircle
 10
-12.969873
 20
-5.91593499999999
 30
0.0
 40
7.084065999999999
100
AcDbArc
 50
232.3201419999917
 51
307.6798580000083
  0
LINE
  5
6B6A
330
6B2C
100
AcDbEntity
  8
AM_0 外形線1
100
AcDbLine
 10
-17.29999999999973
 20
0.0
 30
0.0
 11
-17.29999999999973
 21
-11.52253699999983
 31
0.0
  0
LINE
  5
6B6B
330
6B2C
100
AcDbEntity
  8
AM_0 外形線1
100
AcDbLine
 10
11.0
 20
2.5
 30
0.0
 11
10.0
 21
1.0
 31
0.0
  0
ARC
  5
6B6C
330
6B2C
100
AcDbEntity
  8
AM_0 外形線1
100
AcDbCircle
 10
11.0
 20
1.0
 30
0.0
 40
1.0
100
AcDbArc
 50
180.0
 51
270.0
  0
LINE
  5
6B6D
330
6B2C
100
AcDbEntity
  8
AM_0 外形線1
100
AcDbLine
 10
8.639746000000286
 20
-11.52253699999983
 30
0.0
 11
8.639746000000286
 21
0.0
 31
0.0
  0
LINE
  5
6B6E
330
6B2C
100
AcDbEntity
  8
AM_0 外形線1
100
AcDbLine
 10
17.30000000000018
 20
-11.52253699999983
 30
0.0
 11
17.30000000000018
 21
0.0
 31
0.0
  0
ARC
  5
6B6F
330
6B2C
100
AcDbEntity
  8
AM_0 外形線1
100
AcDbCircle
 10
12.969873
 20
-5.91593499999999
 30
0.0
 40
7.084065999999999
100
AcDbArc
 50
232.3201419999917
 51
307.6798580000083
  0
LINE
  5
6B70
330
6B2C
100
AcDbEntity
  8
AM_4 細線
100
AcDbLine
 10
8.200000000000272
 20
77.80000000000019
 30
0.0
 11
8.200000000000272
 21
71.09999999999991
 31
0.0
  0
LINE
  5
6B71
330
6B2C
100
AcDbEntity
  8
AM_4 細線
100
AcDbLine
 10
-8.199999999999818
 20
77.80000000000019
 30
0.0
 11
-8.199999999999818
 21
71.09999999999991
 31
0.0
  0
LINE
  5
6B72
330
6B2C
100
AcDbEntity
  8
AM_0 外形線1
100
AcDbLine
 10
8.0
 20
78.0
 30
0.0
 11
10.0
 21
76.0
 31
0.0
  0
LINE
  5
6B73
330
6B2C
100
AcDbEntity
  8
AM_0 外形線1
100
AcDbLine
 10
-10.0
 20
76.0
 30
0.0
 11
-8.0
 21
78.0
 31
0.0
  0
LINE
  5
6B74
330
6B2C
100
AcDbEntity
  8
AM_0 外形線1
100
AcDbLine
 10
10.0
 20
44.0
 30
0.0
 11
10.0
 21
50.0
 31
0.0
  0
LINE
  5
6B75
330
6B2C
100
AcDbEntity
  8
AM_0 外形線1
100
AcDbLine
 10
-10.0
 20
44.0
 30
0.0
 11
-10.0
 21
50.0
 31
0.0
  0
LINE
  5
6B76
330
6B2C
100
AcDbEntity
  8
AM_0 外形線1
100
AcDbLine
 10
10.0
 20
44.0
 30
0.0
 11
-10.0
 21
44.0
 31
0.0
  0
LINE
  5
6B77
330
6B2C
100
AcDbEntity
  8
AM_0 外形線1
100
AcDbLine
 10
-11.0
 20
42.26794900000004
 30
0.0
 11
11.0
 21
42.26794900000004
 31
0.0
  0
LINE
  5
6B78
330
6B2C
100
AcDbEntity
  8
AM_0 外形線1
100
AcDbLine
 10
-11.0
 20
42.26794900000004
 30
0.0
 11
-10.0
 21
44.0
 31
0.0
  0
LINE
  5
6B79
330
6B2C
100
AcDbEntity
  8
AM_0 外形線1
100
AcDbLine
 10
10.0
 20
44.0
 30
0.0
 11
11.0
 21
42.26794900000004
 31
0.0
  0
LINE
  5
6B7A
330
6B2C
100
AcDbEntity
  8
AM_0 外形線1
100
AcDbLine
 10
10.0
 20
76.0
 30
0.0
 11
-10.0
 21
76.0
 31
0.0
  0
LINE
  5
6B7B
330
6B2C
100
AcDbEntity
  8
AM_0 外形線1
100
AcDbLine
 10
-12.96974599999976
 20
71.09999999999991
 30
0.0
 11
12.97000000000025
 21
71.09999999999991
 31
0.0
  0
ARC
  5
6B7C
330
6B2C
100
AcDbEntity
  8
AM_0 外形線1
100
AcDbCircle
 10
0.0
 20
39.10000000000014
 30
0.0
 40
32.0
100
AcDbArc
 50
74.3362059999997
 51
105.6637940000002
  0
LINE
  5
6B7D
330
6B2C
100
AcDbEntity
  8
AM_0 外形線1
100
AcDbLine
 10
17.30000000000018
 20
55.10000000000013
 30
0.0
 11
-17.04999999999972
 21
55.10000000000013
 31
0.0
  0
LINE
  5
6B7E
330
6B2C
100
AcDbEntity
  8
AM_0 外形線1
100
AcDbLine
 10
-10.0
 20
71.09999999999991
 30
0.0
 11
-10.0
 21
76.0
 31
0.0
  0
LINE
  5
6B7F
330
6B2C
100
AcDbEntity
  8
AM_0 外形線1
100
AcDbLine
 10
-8.63974599999983
 20
69.911601
 30
0.0
 11
-8.63974599999983
 21
55.32246299999997
 31
0.0
  0
ARC
  5
6B80
330
6B2C
100
AcDbEntity
  8
AM_0 外形線1
100
AcDbCircle
 10
-12.969873
 20
62.61703200000011
 30
0.0
 40
8.482967
100
AcDbArc
 50
59.30622099999003
 51
120.6937790000099
  0
LINE
  5
6B81
330
6B2C
100
AcDbEntity
  8
AM_0 外形線1
100
AcDbLine
 10
-17.29999999999973
 20
55.10000000000013
 30
0.0
 11
-17.29999999999973
 21
69.911601
 31
0.0
  0
LINE
  5
6B82
330
6B2C
100
AcDbEntity
  8
AM_0 外形線1
100
AcDbLine
 10
-17.04999999999972
 20
55.10000000000013
 30
0.0
 11
-17.29999999999973
 21
55.10000000000013
 31
0.0
  0
LINE
  5
6B83
330
6B2C
100
AcDbEntity
  8
AM_0 外形線1
100
AcDbLine
 10
-17.04999999999972
 20
55.10000000000013
 30
0.0
 11
-17.04999999999972
 21
50.0
 31
0.0
  0
LINE
  5
6B84
330
6B2C
100
AcDbEntity
  8
AM_0 外形線1
100
AcDbLine
 10
10.0
 20
76.0
 30
0.0
 11
10.0
 21
71.09999999999991
 31
0.0
  0
LINE
  5
6B85
330
6B2C
100
AcDbEntity
  8
AM_0 外形線1
100
AcDbLine
 10
8.639746000000286
 20
69.911601
 30
0.0
 11
8.639746000000286
 21
55.10000000000013
 31
0.0
  0
LINE
  5
6B86
330
6B2C
100
AcDbEntity
  8
AM_0 外形線1
100
AcDbLine
 10
17.30000000000018
 20
55.32246299999997
 30
0.0
 11
17.30000000000018
 21
55.10000000000013
 31
0.0
  0
LINE
  5
6B87
330
6B2C
100
AcDbEntity
  8
AM_0 外形線1
100
AcDbLine
 10
17.30000000000018
 20
69.911601
 30
0.0
 11
17.30000000000018
 21
55.32246299999997
 31
0.0
  0
ARC
  5
6B88
330
6B2C
100
AcDbEntity
  8
AM_0 外形線1
100
AcDbCircle
 10
12.969873
 20
62.61703200000011
 30
0.0
 40
8.482967
100
AcDbArc
 50
59.30622099999003
 51
120.6937790000099
  0
LINE
  5
6B89
330
6B2C
100
AcDbEntity
  8
AM_0 外形線1
100
AcDbLine
 10
17.05000000000018
 20
50.0
 30
0.0
 11
17.05000000000018
 21
55.10000000000013
 31
0.0
  0
LINE
  5
6B8A
330
6B2C
100
AcDbEntity
  8
AM_0 外形線1
100
AcDbLine
 10
-2.099999999999909
 20
55.10000000000013
 30
0.0
 11
3.0
 21
50.0
 31
0.0
  0
LINE
  5
6B8B
330
6B2C
100
AcDbEntity
  8
AM_0 外形線1
100
AcDbLine
 10
-3.433332999999946
 20
55.10000000000013
 30
0.0
 11
1.666666999999961
 21
50.0
 31
0.0
  0
LINE
  5
6B8C
330
6B2C
100
AcDbEntity
  8
AM_0 外形線1
100
AcDbLine
 10
-8.0
 20
78.0
 30
0.0
 11
8.0
 21
78.0
 31
0.0
  0
LINE
  5
6BF0
330
6B2C
100
AcDbEntity
  8
AM_0 外形線1
100
AcDbLine
 10
-17.04999999999972
 20
50.0
 30
0.0
 11
17.05000000000018
 21
50.0
 31
0.0
  0
LINE
  5
BEC5
330
6B2C
100
AcDbEntity
  8
AM_0 外形線1
100
AcDbLine
 10
-11.0
 20
2.5
 30
0.0
 11
11.0
 21
2.5
 31
0.0
  0
ENDBLK
  5
6B2E
330
6B2C
100
AcDbEntity
  8
0
100
AcDbBlockEnd
  0
BLOCK
  5
6BF9
330
6BF8
100
AcDbEntity
  8
0
100
AcDbBlockBegin
  2
イタ CMVH500
 70
     0
 10
0.0
 20
0.0
 30
0.0
  3
イタ CMVH500
  1

  0
LINE
  5
6C03
330
6BF8
100
AcDbEntity
  8
AM_0 外形線1
100
AcDbLine
 10
-196.5
 20
-8.0
 30
0.0
 11
-196.5
 21
-10.0
 31
0.0
  0
LINE
  5
6C04
330
6BF8
100
AcDbEntity
  8
AM_0 外形線1
100
AcDbLine
 10
-200.0
 20
-8.000000000000111
 30
0.0
 11
-196.5
 21
-8.0
 31
0.0
  0
LINE
  5
6C05
330
6BF8
100
AcDbEntity
  8
AM_0 外形線1
100
AcDbLine
 10
-22.5
 20
-10.0
 30
0.0
 11
-196.5
 21
-10.0
 31
0.0
  0
LINE
  5
6C06
330
6BF8
100
AcDbEntity
  8
AM_0 外形線1
100
AcDbLine
 10
-22.5
 20
0.0
 30
0.0
 11
-199.9999999999999
 21
0.0000000000001137
 31
0.0
  0
LINE
  5
6C19
330
6BF8
100
AcDbEntity
  8
AM_0 外形線1
100
AcDbLine
 10
-22.5
 20
0.0
 30
0.0
 11
-22.5
 21
-10.0
 31
0.0
  0
LINE
  5
6C1A
330
6BF8
100
AcDbEntity
  8
AM_0 外形線1
100
AcDbLine
 10
-199.9999999999999
 20
-8.000000000000111
 30
0.0
 11
-199.9999999999999
 21
0.0
 31
0.0
  0
ENDBLK
  5
6BFA
330
6BF8
100
AcDbEntity
  8
0
100
AcDbBlockEnd
  0
BLOCK
  5
6C2C
330
6C2B
100
AcDbEntity
  8
0
100
AcDbBlockBegin
  2
スラストプレ－ト CMVH500
 70
     0
 10
0.0
 20
0.0
 30
0.0
  3
スラストプレ－ト CMVH500
  1

  0
LINE
  5
6C83
330
6C2B
100
AcDbEntity
  8
AM_0 外形線1
100
AcDbLine
 10
-160.0
 20
0.5
 30
0.0
 11
-160.0
 21
8.0
 31
0.0
  0
LINE
  5
6C84
330
6C2B
100
AcDbEntity
  8
AM_0 外形線1
100
AcDbLine
 10
-152.5
 20
2.100000000000135
 30
0.0
 11
-152.5
 21
-16.5
 31
0.0
  0
LINE
  5
6C85
330
6C2B
100
AcDbEntity
  8
AM_0 外形線1
100
AcDbLine
 10
-142.5
 20
2.100000000000135
 30
0.0
 11
-142.5
 21
-16.5
 31
0.0
  0
LINE
  5
6C86
330
6C2B
100
AcDbEntity
  8
AM_7 中心線
100
AcDbLine
 10
-147.5
 20
10.03049400000009
 30
0.0
 11
-147.5
 21
-36.1159090000001
 31
0.0
  0
LINE
  5
6C87
330
6C2B
100
AcDbEntity
  8
AM_0 外形線1
100
AcDbLine
 10
-142.5
 20
0.5
 30
0.0
 11
0.0
 21
0.5
 31
0.0
  0
LINE
  5
6C88
330
6C2B
100
AcDbEntity
  8
AM_0 外形線1
100
AcDbLine
 10
-151.75
 20
-29.0
 30
0.0
 11
-147.4985419999998
 21
-31.45373900000004
 31
0.0
  0
LINE
  5
6C89
330
6C2B
100
AcDbEntity
  8
AM_0 外形線1
100
AcDbLine
 10
-143.25
 20
-29.0
 30
0.0
 11
-147.501459
 21
-31.45373900000004
 31
0.0
  0
LINE
  5
6C8A
330
6C2B
100
AcDbEntity
  8
AM_0 外形線1
100
AcDbLine
 10
-152.5
 20
-21.79999999999996
 30
0.0
 11
-142.5
 21
-21.79999999999996
 31
0.0
  0
LINE
  5
6C8B
330
6C2B
100
AcDbEntity
  8
AM_0 外形線1
100
AcDbLine
 10
-160.0
 20
0.5
 30
0.0
 11
-152.5
 21
0.5
 31
0.0
  0
LINE
  5
6C8C
330
6C2B
100
AcDbEntity
  8
AM_4 細線
100
AcDbLine
 10
-143.25
 20
0.0
 30
0.0
 11
-142.5
 21
1.299038000000109
 31
0.0
  0
LINE
  5
6C8D
330
6C2B
100
AcDbEntity
  8
AM_4 細線
100
AcDbLine
 10
-151.75
 20
0.0
 30
0.0
 11
-152.5
 21
1.299038000000109
 31
0.0
  0
LINE
  5
6C8E
330
6C2B
100
AcDbEntity
  8
AM_4 細線
100
AcDbLine
 10
-151.75
 20
0.0
 30
0.0
 11
-151.75
 21
-17.25
 31
0.0
  0
LINE
  5
6C8F
330
6C2B
100
AcDbEntity
  8
AM_4 細線
100
AcDbLine
 10
-143.25
 20
-17.25
 30
0.0
 11
-143.25
 21
0.0
 31
0.0
  0
LINE
  5
6C90
330
6C2B
100
AcDbEntity
  8
AM_0 外形線1
100
AcDbLine
 10
-151.75
 20
-17.25
 30
0.0
 11
-151.75
 21
-29.0
 31
0.0
  0
LINE
  5
6C91
330
6C2B
100
AcDbEntity
  8
AM_0 外形線1
100
AcDbLine
 10
-143.25
 20
-17.25
 30
0.0
 11
-143.25
 21
-29.0
 31
0.0
  0
LINE
  5
6C92
330
6C2B
100
AcDbEntity
  8
AM_0 外形線1
100
AcDbLine
 10
-152.5
 20
-16.5
 30
0.0
 11
-142.5
 21
-16.5
 31
0.0
  0
LINE
  5
6C93
330
6C2B
100
AcDbEntity
  8
AM_0 外形線1
100
AcDbLine
 10
-143.5
 20
-17.5
 30
0.0
 11
-142.5
 21
-16.5
 31
0.0
  0
LINE
  5
6C94
330
6C2B
100
AcDbEntity
  8
AM_0 外形線1
100
AcDbLine
 10
-151.5
 20
-17.5
 30
0.0
 11
-152.5
 21
-16.5
 31
0.0
  0
LINE
  5
6C95
330
6C2B
100
AcDbEntity
  8
AM_4 細線
100
AcDbLine
 10
-142.5
 20
-16.5
 30
0.0
 11
-142.5
 21
-21.79999999999996
 31
0.0
  0
LINE
  5
6C96
330
6C2B
100
AcDbEntity
  8
AM_4 細線
100
AcDbLine
 10
-152.5
 20
-16.5
 30
0.0
 11
-152.5
 21
-21.79999999999996
 31
0.0
  0
LINE
  5
6C97
330
6C2B
100
AcDbEntity
  8
AM_0 外形線1
100
AcDbLine
 10
-143.5
 20
-17.5
 30
0.0
 11
-151.5
 21
-17.5
 31
0.0
  0
LINE
  5
6C98
330
6C2B
100
AcDbEntity
  8
AM_4 細線
100
AcDbLine
 10
-143.25
 20
-23.09903800000006
 30
0.0
 11
-142.5
 21
-21.79999999999996
 31
0.0
  0
LINE
  5
6C99
330
6C2B
100
AcDbEntity
  8
AM_4 細線
100
AcDbLine
 10
-152.5
 20
-21.79999999999996
 30
0.0
 11
-151.75
 21
-23.09903800000006
 31
0.0
  0
LINE
  5
6C9A
330
6C2B
100
AcDbEntity
  8
AM_4 細線
100
AcDbLine
 10
-151.75
 20
-23.09903800000006
 30
0.0
 11
-143.25
 21
-23.09903800000006
 31
0.0
  0
LINE
  5
6C9B
330
6C2B
100
AcDbEntity
  8
AM_0 外形線1
100
AcDbLine
 10
-143.25
 20
-29.0
 30
0.0
 11
-151.75
 21
-29.0
 31
0.0
  0
LINE
  5
6C9C
330
6C2B
100
AcDbEntity
  8
AM_0 外形線1
100
AcDbLine
 10
-160.0
 20
8.0
 30
0.0
 11
0.0
 21
8.0
 31
0.0
  0
LINE
  5
6C9D
330
6C2B
100
AcDbEntity
  8
AM_0 外形線1
100
AcDbLine
 10
-157.5
 20
2.5
 30
0.0
 11
-137.5
 21
2.5
 31
0.0
  0
ARC
  5
6C9E
330
6C2B
100
AcDbEntity
  8
AM_0 外形線1
100
AcDbCircle
 10
-142.0999999999999
 20
2.100000000000135
 30
0.0
 40
0.4
100
AcDbArc
 50
90.0
 51
180.0
  0
LINE
  5
6C9F
330
6C2B
100
AcDbEntity
  8
AM_0 外形線1
100
AcDbLine
 10
-142.0999999999999
 20
2.5
 30
0.0
 11
-152.9000000000001
 21
2.5
 31
0.0
  0
ARC
  5
6CA0
330
6C2B
100
AcDbEntity
  8
AM_0 外形線1
100
AcDbCircle
 10
-144.25
 20
2.5
 30
0.0
 40
5.5
100
AcDbArc
 50
0.0
 51
90.0
  0
LINE
  5
6CA1
330
6C2B
100
AcDbEntity
  8
AM_0 外形線1
100
AcDbLine
 10
-157.5
 20
8.0
 30
0.0
 11
-157.5
 21
2.5
 31
0.0
  0
ARC
  5
6CA2
330
6C2B
100
AcDbEntity
  8
AM_0 外形線1
100
AcDbCircle
 10
-152.9000000000001
 20
2.100000000000135
 30
0.0
 40
0.4
100
AcDbArc
 50
0.0
 51
90.0
  0
LINE
  5
6CA3
330
6C2B
100
AcDbEntity
  8
AM_0 外形線1
100
AcDbLine
 10
-152.9000000000001
 20
2.5
 30
0.0
 11
-156.25
 21
2.5
 31
0.0
  0
ARC
  5
6CA4
330
6C2B
100
AcDbEntity
  8
AM_0 外形線1
100
AcDbCircle
 10
-150.75
 20
2.5
 30
0.0
 40
5.5
100
AcDbArc
 50
90.0
 51
180.0
  0
LINE
  5
6CA5
330
6C2B
100
AcDbEntity
  8
AM_0 外形線1
100
AcDbLine
 10
-144.25
 20
8.0
 30
0.0
 11
-150.75
 21
8.0
 31
0.0
  0
LINE
  5
6CA6
330
6C2B
100
AcDbEntity
  8
AM_0 外形線1
100
AcDbLine
 10
-137.5
 20
8.0
 30
0.0
 11
-137.5
 21
2.5
 31
0.0
  0
LINE
  5
6CA7
330
6C2B
100
AcDbEntity
  8
AM_0 外形線1
100
AcDbLine
 10
-142.0999999999999
 20
2.5
 30
0.0
 11
-138.75
 21
2.5
 31
0.0
  0
LINE
  5
6F9A
330
6C2B
100
AcDbEntity
  8
AM_0 外形線1
100
AcDbLine
 10
-143.25
 20
0.0
 30
0.0
 11
0.0
 21
0.0
 31
0.0
  0
LINE
  5
6F9B
330
6C2B
100
AcDbEntity
  8
AM_0 外形線1
100
AcDbLine
 10
-160.0
 20
0.0
 30
0.0
 11
-160.0
 21
0.5
 31
0.0
  0
LINE
  5
6F9C
330
6C2B
100
AcDbEntity
  8
AM_0 外形線1
100
AcDbLine
 10
-160.0
 20
0.0
 30
0.0
 11
-143.25
 21
0.0
 31
0.0
  0
LINE
  5
6F9D
330
6C2B
100
AcDbEntity
  8
AM_0 外形線1
100
AcDbLine
 10
-142.5
 20
0.0
 30
0.0
 11
-152.5
 21
0.0
 31
0.0
  0
ENDBLK
  5
6C2D
330
6C2B
100
AcDbEntity
  8
0
100
AcDbBlockEnd
  0
BLOCK
  5
6FA6
330
6FA5
100
AcDbEntity
  8
0
100
AcDbBlockBegin
  2
ケースＡ CMVH500
 70
     0
 10
0.0
 20
0.0
 30
0.0
  3
ケースＡ CMVH500
  1

  0
LINE
  5
6FE8
330
6FA5
100
AcDbEntity
  8
AM_0 外形線1
100
AcDbLine
 10
249.0
 20
-25.0
 30
0.0
 11
0.0
 21
-25.0
 31
0.0
  0
LINE
  5
6FE9
330
6FA5
100
AcDbEntity
  8
AM_0 外形線1
100
AcDbLine
 10
203.5
 20
-118.5
 30
0.0
 11
212.0
 21
-127.0
 31
0.0
  0
LINE
  5
6FEA
330
6FA5
100
AcDbEntity
  8
AM_0 外形線1
100
AcDbLine
 10
212.0
 20
-127.0
 30
0.0
 11
0.0
 21
-127.0
 31
0.0
  0
ARC
  5
6FEB
330
6FA5
100
AcDbEntity
  8
AM_0 外形線1
100
AcDbCircle
 10
209.5
 20
-31.0
 30
0.0
 40
6.0
100
AcDbArc
 50
90.0
 51
180.0
  0
LINE
  5
6FEC
330
6FA5
100
AcDbEntity
  8
AM_0 外形線1
100
AcDbLine
 10
192.8000000000002
 20
-152.0
 30
0.0
 11
212.0
 21
-152.0
 31
0.0
  0
LINE
  5
6FED
330
6FA5
100
AcDbEntity
  8
AM_0 外形線1
100
AcDbLine
 10
-187.5
 20
-72.5
 30
0.0
 11
-187.5
 21
-2.0
 31
0.0
  0
LINE
  5
6FEE
330
6FA5
100
AcDbEntity
  8
AM_0 外形線1
100
AcDbLine
 10
-250.0
 20
-1.0
 30
0.0
 11
-250.0
 21
-24.0
 31
0.0
  0
LINE
  5
6FEF
330
6FA5
100
AcDbEntity
  8
AM_3 隠れ線
100
AcDbLine
 10
-175.1999999999998
 20
-145.0
 30
0.0
 11
-175.1999999999998
 21
-82.0
 31
0.0
  0
LINE
  5
6FF0
330
6FA5
100
AcDbEntity
  8
AM_0 外形線1
100
AcDbLine
 10
-212.0
 20
-127.0
 30
0.0
 11
-212.0
 21
-151.9999999999999
 31
0.0
  0
LINE
  5
6FF1
330
6FA5
100
AcDbEntity
  8
AM_7 中心線
100
AcDbLine
 10
-180.0
 20
-71.0
 30
0.0
 11
-180.0
 21
-149.0
 31
0.0
  0
LINE
  5
6FF2
330
6FA5
100
AcDbEntity
  8
AM_0 外形線1
100
AcDbLine
 10
-186.0
 20
-73.0
 30
0.0
 11
-186.0
 21
-147.0
 31
0.0
  0
LINE
  5
6FF3
330
6FA5
100
AcDbEntity
  8
AM_0 外形線1
100
AcDbLine
 10
-205.2999999999997
 20
-152.0
 30
0.0
 11
-212.0
 21
-152.0
 31
0.0
  0
LINE
  5
6FF4
330
6FA5
100
AcDbEntity
  8
AM_0 外形線1
100
AcDbLine
 10
-196.6999999999998
 20
-152.0
 30
0.0
 11
-187.5
 21
-152.0
 31
0.0
  0
LINE
  5
6FF5
330
6FA5
100
AcDbEntity
  8
AM_0 外形線1
100
AcDbLine
 10
-175.1999999999998
 20
-145.0
 30
0.0
 11
-175.1999999999998
 21
-146.5
 31
0.0
  0
LINE
  5
6FF6
330
6FA5
100
AcDbEntity
  8
AM_0 外形線1
100
AcDbLine
 10
-187.5
 20
-147.5
 30
0.0
 11
-187.5
 21
-152.0
 31
0.0
  0
LINE
  5
6FF7
330
6FA5
100
AcDbEntity
  8
AM_0 外形線1
100
AcDbLine
 10
-175.6999999999998
 20
-147.0
 30
0.0
 11
-175.1999999999998
 21
-146.5
 31
0.0
  0
LINE
  5
6FF8
330
6FA5
100
AcDbEntity
  8
AM_0 外形線1
100
AcDbLine
 10
-187.0
 20
-147.0
 30
0.0
 11
-175.6999999999998
 21
-147.0
 31
0.0
  0
ARC
  5
6FF9
330
6FA5
100
AcDbEntity
  8
AM_0 外形線1
100
AcDbCircle
 10
-187.0
 20
-147.5
 30
0.0
 40
0.5
100
AcDbArc
 50
90.0
 51
180.0
  0
LINE
  5
6FFA
330
6FA5
100
AcDbEntity
  8
AM_0 外形線1
100
AcDbLine
 10
-175.1999999999998
 20
-82.0
 30
0.0
 11
-175.1999999999998
 21
-73.5
 31
0.0
  0
LINE
  5
6FFB
330
6FA5
100
AcDbEntity
  8
AM_0 外形線1
100
AcDbLine
 10
-203.5
 20
-31.0
 30
0.0
 11
-203.5
 21
-118.5
 31
0.0
  0
LINE
  5
6FFC
330
6FA5
100
AcDbEntity
  8
AM_0 外形線1
100
AcDbLine
 10
-203.5
 20
-118.5
 30
0.0
 11
-212.0
 21
-127.0
 31
0.0
  0
LINE
  5
6FFE
330
6FA5
100
AcDbEntity
  8
AM_0 外形線1
100
AcDbLine
 10
-220.0
 20
-25.0
 30
0.0
 11
-209.5
 21
-25.0
 31
0.0
  0
LINE
  5
6FFF
330
6FA5
100
AcDbEntity
  8
AM_0 外形線1
100
AcDbLine
 10
-249.0
 20
-25.0
 30
0.0
 11
-220.0000000000001
 21
-25.0
 31
0.0
  0
LINE
  5
7000
330
6FA5
100
AcDbEntity
  8
AM_0 外形線1
100
AcDbLine
 10
-250.0
 20
-24.0
 30
0.0
 11
-249.0
 21
-25.0
 31
0.0
  0
LINE
  5
7004
330
6FA5
100
AcDbEntity
  8
AM_4 細線
100
AcDbLine
 10
-190.5
 20
-60.26238800000011
 30
0.0
 11
-187.5
 21
-60.15762599999994
 31
0.0
  0
LINE
  5
7006
330
6FA5
100
AcDbEntity
  8
AM_0 外形線1
100
AcDbLine
 10
-189.8153149999998
 20
-59.07647899999982
 30
0.0
 11
-187.5
 21
-58.99562599999989
 31
0.0
  0
LINE
  5
7008
330
6FA5
100
AcDbEntity
  8
AM_4 細線
100
AcDbLine
 10
-202.0
 20
-60.66397699999993
 30
0.0
 11
-203.5
 21
-60.71635799999989
 31
0.0
  0
ARC
  5
700C
330
6FA5
100
AcDbEntity
  8
AM_0 外形線1
100
AcDbCircle
 10
-187.0
 20
-72.5
 30
0.0
 40
0.5
100
AcDbArc
 50
180.0
 51
270.0
  0
LINE
  5
700D
330
6FA5
100
AcDbEntity
  8
AM_0 外形線1
100
AcDbLine
 10
-175.6999999999998
 20
-73.0
 30
0.0
 11
-187.0
 21
-73.0
 31
0.0
  0
LINE
  5
700E
330
6FA5
100
AcDbEntity
  8
AM_0 外形線1
100
AcDbLine
 10
-175.1999999999998
 20
-73.5
 30
0.0
 11
-175.6999999999998
 21
-73.0
 31
0.0
  0
LINE
  5
700F
330
6FA5
100
AcDbEntity
  8
AM_4 細線
100
AcDbLine
 10
-190.5
 20
-39.7376119999999
 30
0.0
 11
-187.5
 21
-39.84237499999995
 31
0.0
  0
LINE
  5
7010
330
6FA5
100
AcDbEntity
  8
AM_0 外形線1
100
AcDbLine
 10
-189.8153149999998
 20
-40.92352200000004
 30
0.0
 11
-187.5
 21
-41.00437499999997
 31
0.0
  0
LINE
  5
7012
330
6FA5
100
AcDbEntity
  8
AM_4 細線
100
AcDbLine
 10
-202.0
 20
-39.33602300000007
 30
0.0
 11
-203.5
 21
-39.28364199999986
 31
0.0
  0
ARC
  5
7016
330
6FA5
100
AcDbEntity
  8
AM_0 外形線1
100
AcDbCircle
 10
-209.5
 20
-31.0
 30
0.0
 40
6.0
100
AcDbArc
 50
0.0
 51
90.0
  0
LINE
  5
7017
330
6FA5
100
AcDbEntity
  8
AM_0 外形線1
100
AcDbLine
 10
203.5
 20
-118.5
 30
0.0
 11
0.0
 21
-118.5
 31
0.0
  0
LINE
  5
7018
330
6FA5
100
AcDbEntity
  8
AM_0 外形線1
100
AcDbLine
 10
192.8000000000002
 20
-152.0
 30
0.0
 11
0.0
 21
-152.0
 31
0.0
  0
LINE
  5
7019
330
6FA5
100
AcDbEntity
  8
AM_0 外形線1
100
AcDbLine
 10
203.5
 20
-31.0
 30
0.0
 11
203.5
 21
-118.5
 31
0.0
  0
LINE
  5
701A
330
6FA5
100
AcDbEntity
  8
AM_0 外形線1
100
AcDbLine
 10
-249.0
 20
0.0
 30
0.0
 11
-250.0
 21
-1.0
 31
0.0
  0
LINE
  5
701B
330
6FA5
100
AcDbEntity
  8
AM_0 外形線1
100
AcDbLine
 10
-207.1999999999998
 20
-4.0
 30
0.0
 11
-207.1999999999998
 21
0.0
 31
0.0
  0
ARC
  5
701C
330
6FA5
100
AcDbEntity
  8
AM_0 外形線1
100
AcDbCircle
 10
-206.6999999999998
 20
-4.0
 30
0.0
 40
0.5
100
AcDbArc
 50
180.0
 51
270.0
  0
LINE
  5
701D
330
6FA5
100
AcDbEntity
  8
AM_0 外形線1
100
AcDbLine
 10
-200.5
 20
-4.5
 30
0.0
 11
-206.6999999999998
 21
-4.5
 31
0.0
  0
ARC
  5
701E
330
6FA5
100
AcDbEntity
  8
AM_0 外形線1
100
AcDbCircle
 10
-200.5
 20
-4.0
 30
0.0
 40
0.5
100
AcDbArc
 50
270.0
 51
0.0
  0
LINE
  5
701F
330
6FA5
100
AcDbEntity
  8
AM_0 外形線1
100
AcDbLine
 10
250.0
 20
-1.0
 30
0.0
 11
250.0
 21
-24.0
 31
0.0
  0
LINE
  5
7020
330
6FA5
100
AcDbEntity
  8
AM_0 外形線1
100
AcDbLine
 10
212.0
 20
-127.0
 30
0.0
 11
212.0
 21
-152.0
 31
0.0
  0
ELLIPSE
  5
7021
330
6FA5
100
AcDbEntity
  8
AM_0 外形線1
100
AcDbEllipse
 10
-203.6
 20
-2.25
 30
0.0
 11
3.608670115153247
 21
0.0
 31
0.0
210
0.0
220
0.0
230
0.9999999999999998
 40
0.6234983881047962
 41
0.0
 42
6.283185307179585
  0
LINE
  5
7022
330
6FA5
100
AcDbEntity
  8
AM_0 外形線1
100
AcDbLine
 10
-199.9999999999999
 20
-0.0000000000001137
 30
0.0
 11
-200.0
 21
-4.0
 31
0.0
  0
INSERT
  5
7023
330
6FA5
100
AcDbEntity
  8
AM_0 外形線1
100
AcDbBlockReference
  2
ロッカクアナツキプラグ-1 R1／2
 10
42.86827894454972
 20
-49.99999950000006
 30
0.0
  0
LINE
  5
70B2
330
6FA5
100
AcDbEntity
  8
AM_0 外形線1
100
AcDbLine
 10
-196.5
 20
0.0
 30
0.0
 11
-196.5
 21
-2.0
 31
0.0
  0
LINE
  5
70B3
330
6FA5
100
AcDbEntity
  8
AM_0 外形線1
100
AcDbLine
 10
-196.5
 20
-2.0
 30
0.0
 11
-196.5
 21
-2.0
 31
0.0
  0
LINE
  5
70B4
330
6FA5
100
AcDbEntity
  8
AM_0 外形線1
100
AcDbLine
 10
-196.5
 20
-2.0
 30
0.0
 11
-187.5
 21
-2.0
 31
0.0
  0
LINE
  5
70B5
330
6FA5
100
AcDbEntity
  8
AM_0 外形線1
100
AcDbLine
 10
-200.0
 20
-0.0000000000001137
 30
0.0
 11
-196.5
 21
-0.0000000000001137
 31
0.0
  0
LINE
  5
70B6
330
6FA5
100
AcDbEntity
  8
AM_0 外形線1
100
AcDbLine
 10
-207.1999999999998
 20
-0.0000000000001137
 30
0.0
 11
-220.0
 21
-0.0000000000001137
 31
0.0
  0
LINE
  5
70B7
330
6FA5
100
AcDbEntity
  8
AM_0 外形線1
100
AcDbLine
 10
-220.0
 20
-0.0000000000001137
 30
0.0
 11
-220.0
 21
-0.0000000000001137
 31
0.0
  0
LINE
  5
70B8
330
6FA5
100
AcDbEntity
  8
AM_0 外形線1
100
AcDbLine
 10
-220.0
 20
-0.0000000000001137
 30
0.0
 11
-220.0
 21
-25.0
 31
0.0
  0
LINE
  5
70B9
330
6FA5
100
AcDbEntity
  8
AM_0 外形線1
100
AcDbLine
 10
-249.0
 20
0.0
 30
0.0
 11
-242.0
 21
0.0
 31
0.0
  0
LINE
  5
70BA
330
6FA5
100
AcDbEntity
  8
AM_0 外形線1
100
AcDbLine
 10
0.0
 20
0.0
 30
0.0
 11
249.0
 21
0.0
 31
0.0
  0
LINE
  5
70BB
330
6FA5
100
AcDbEntity
  8
AM_0 外形線1
100
AcDbLine
 10
250.0
 20
-24.0
 30
0.0
 11
249.0
 21
-25.0
 31
0.0
  0
LINE
  5
70BC
330
6FA5
100
AcDbEntity
  8
AM_0 外形線1
100
AcDbLine
 10
249.0
 20
0.0
 30
0.0
 11
250.0
 21
-1.0
 31
0.0
  0
LINE
  5
BAAD
330
6FA5
100
AcDbEntity
  8
AM_0 外形線1
100
AcDbLine
 10
-175.6999999999998
 20
-73.0
 30
0.0
 11
-169.8526299999998
 21
-73.0
 31
0.0
  0
LINE
  5
BB8F
330
6FA5
100
AcDbEntity
  8
AM_7 中心線
100
AcDbLine
 10
-231.0
 20
62.23270790309015
 30
0.0
 11
-231.0
 21
-47.23738009690986
 31
0.0
  0
ENDBLK
  5
6FA7
330
6FA5
100
AcDbEntity
  8
0
100
AcDbBlockEnd
  0
BLOCK
  5
7178
330
7177
100
AcDbEntity
  8
0
100
AcDbBlockBegin
  2
ＧＣサイドカバ－A CMVH500
 70
     0
 10
0.0
 20
0.0
 30
0.0
  3
ＧＣサイドカバ－A CMVH500
  1

  0
LINE
  5
71C8
330
7177
100
AcDbEntity
  8
AM_0 外形線1
100
AcDbLine
 10
212.0
 20
-31.0
 30
0.0
 11
0.0
 21
-31.0
 31
0.0
  0
LINE
  5
71C9
330
7177
100
AcDbEntity
  8
AM_7 中心線
100
AcDbLine
 10
-201.0
 20
25.30323300000009
 30
0.0
 11
-201.0
 21
-43.3259069999999
 31
0.0
  0
LINE
  5
71CA
330
7177
100
AcDbEntity
  8
AM_4 細線
100
AcDbLine
 10
-196.6999999999998
 20
-31.0
 30
0.0
 11
-196.6999999999998
 21
15.80000000000018
 31
0.0
  0
LINE
  5
71CB
330
7177
100
AcDbEntity
  8
AM_4 細線
100
AcDbLine
 10
-205.2999999999997
 20
-31.0
 30
0.0
 11
-205.2999999999997
 21
15.80000000000018
 31
0.0
  0
LINE
  5
71CC
330
7177
100
AcDbEntity
  8
AM_0 外形線1
100
AcDbLine
 10
-206.0
 20
-31.0
 30
0.0
 11
-206.0
 21
15.80000000000018
 31
0.0
  0
LINE
  5
71CD
330
7177
100
AcDbEntity
  8
AM_0 外形線1
100
AcDbLine
 10
-196.0
 20
-31.0
 30
0.0
 11
-196.0
 21
15.80000000000018
 31
0.0
  0
LINE
  5
71CE
330
7177
100
AcDbEntity
  8
AM_0 外形線1
100
AcDbLine
 10
-212.0
 20
-31.0
 30
0.0
 11
-169.0
 21
-31.0
 31
0.0
  0
LINE
  5
71CF
330
7177
100
AcDbEntity
  8
AM_0 外形線1
100
AcDbLine
 10
-174.5499999999997
 20
-26.59999999999991
 30
0.0
 11
-174.5499999999997
 21
-15.39999999999986
 31
0.0
  0
LINE
  5
71D0
330
7177
100
AcDbEntity
  8
AM_0 外形線1
100
AcDbLine
 10
-206.5
 20
-31.0
 30
0.0
 11
-206.5
 21
0.0
 31
0.0
  0
LINE
  5
71D1
330
7177
100
AcDbEntity
  8
AM_0 外形線1
100
AcDbLine
 10
-195.5
 20
-31.0
 30
0.0
 11
-195.5
 21
0.0
 31
0.0
  0
LINE
  5
71D2
330
7177
100
AcDbEntity
  8
AM_0 外形線1
100
AcDbLine
 10
-201.25
 20
-31.0
 30
0.0
 11
-198.75
 21
-33.5
 31
0.0
  0
LINE
  5
71D3
330
7177
100
AcDbEntity
  8
AM_0 外形線1
100
AcDbLine
 10
-203.25
 20
-31.0
 30
0.0
 11
-200.75
 21
-33.5
 31
0.0
  0
LINE
  5
71D4
330
7177
100
AcDbEntity
  8
AM_0 外形線1
100
AcDbLine
 10
-205.892523
 20
-39.61728700000004
 30
0.0
 11
-205.892523
 21
-33.5
 31
0.0
  0
LINE
  5
71D5
330
7177
100
AcDbEntity
  8
AM_0 外形線1
100
AcDbLine
 10
-196.107477
 20
-39.61728700000004
 30
0.0
 11
-196.107477
 21
-33.5
 31
0.0
  0
LINE
  5
71D6
330
7177
100
AcDbEntity
  8
AM_0 外形線1
100
AcDbLine
 10
-193.6795579999998
 20
-40.49999999999999
 30
0.0
 11
-208.3204419999997
 21
-40.49999999999999
 31
0.0
  0
LINE
  5
71D7
330
7177
100
AcDbEntity
  8
AM_0 外形線1
100
AcDbLine
 10
-191.1999999999998
 20
-33.5
 30
0.0
 11
-191.75
 21
-33.5
 31
0.0
  0
LINE
  5
71D8
330
7177
100
AcDbEntity
  8
AM_0 外形線1
100
AcDbLine
 10
-191.1999999999998
 20
-39.36435399999982
 30
0.0
 11
-191.1999999999998
 21
-33.5
 31
0.0
  0
ARC
  5
71D9
330
7177
100
AcDbEntity
  8
AM_0 外形線1
100
AcDbCircle
 10
-193.7820399999995
 20
-37.00150099999996
 30
0.0
 40
3.5
100
AcDbArc
 50
228.3628590000148
 51
317.5380259999965
  0
ARC
  5
71DA
330
7177
100
AcDbEntity
  8
AM_0 外形線1
100
AcDbCircle
 10
-201.0
 20
-26.5
 30
0.0
 40
14.0
100
AcDbArc
 50
249.5453490000056
 51
290.4546509999942
  0
ARC
  5
71DB
330
7177
100
AcDbEntity
  8
AM_0 外形線1
100
AcDbCircle
 10
-208.2179609999998
 20
-37.00150099999996
 30
0.0
 40
3.5
100
AcDbArc
 50
222.4619740000035
 51
311.6371409999853
  0
LINE
  5
71DC
330
7177
100
AcDbEntity
  8
AM_0 外形線1
100
AcDbLine
 10
-210.7999999999997
 20
-33.5
 30
0.0
 11
-210.7999999999997
 21
-39.36435399999982
 31
0.0
  0
LINE
  5
71DD
330
7177
100
AcDbEntity
  8
AM_0 外形線1
100
AcDbLine
 10
-210.25
 20
-33.5
 30
0.0
 11
-210.7999999999997
 21
-33.5
 31
0.0
  0
LINE
  5
71DE
330
7177
100
AcDbEntity
  8
AM_0 外形線1
100
AcDbLine
 10
-191.75
 20
-33.5
 30
0.0
 11
-191.75
 21
-31.0
 31
0.0
  0
LINE
  5
71DF
330
7177
100
AcDbEntity
  8
AM_0 外形線1
100
AcDbLine
 10
-210.25
 20
-33.5
 30
0.0
 11
-191.75
 21
-33.5
 31
0.0
  0
LINE
  5
71E0
330
7177
100
AcDbEntity
  8
AM_0 外形線1
100
AcDbLine
 10
-210.25
 20
-31.0
 30
0.0
 11
-210.25
 21
-33.5
 31
0.0
  0
LINE
  5
71E1
330
7177
100
AcDbEntity
  8
AM_0 外形線1
100
AcDbLine
 10
-169.0
 20
-26.59999999999991
 30
0.0
 11
-174.5499999999997
 21
-26.59999999999991
 31
0.0
  0
LINE
  5
71E2
330
7177
100
AcDbEntity
  8
AM_0 外形線1
100
AcDbLine
 10
-169.0
 20
-31.0
 30
0.0
 11
-169.0
 21
-26.59999999999991
 31
0.0
  0
LINE
  5
71E3
330
7177
100
AcDbEntity
  8
AM_0 外形線1
100
AcDbLine
 10
-169.0
 20
-26.59999999999991
 30
0.0
 11
-167.5
 21
-26.59999999999991
 31
0.0
  0
LINE
  5
71E4
330
7177
100
AcDbEntity
  8
AM_0 外形線1
100
AcDbLine
 10
-169.0
 20
-31.0
 30
0.0
 11
-167.5
 21
-31.0
 31
0.0
  0
LINE
  5
71E5
330
7177
100
AcDbEntity
  8
AM_0 外形線1
100
AcDbLine
 10
-187.5
 20
-3.099999999999908
 30
0.0
 11
-192.7999999999997
 21
-3.099999999999908
 31
0.0
  0
LINE
  5
71E6
330
7177
100
AcDbEntity
  8
AM_0 外形線1
100
AcDbLine
 10
-192.7999999999997
 20
-3.099999999999908
 30
0.0
 11
-192.7999999999997
 21
0.0
 31
0.0
  0
LINE
  5
71E7
330
7177
100
AcDbEntity
  8
AM_0 外形線1
100
AcDbLine
 10
-169.0
 20
-11.0
 30
0.0
 11
-167.5
 21
-11.0
 31
0.0
  0
LINE
  5
71E8
330
7177
100
AcDbEntity
  8
AM_0 外形線1
100
AcDbLine
 10
-169.0
 20
-11.0
 30
0.0
 11
-180.0
 21
-11.0
 31
0.0
  0
LINE
  5
71E9
330
7177
100
AcDbEntity
  8
AM_0 外形線1
100
AcDbLine
 10
-180.0
 20
-11.0
 30
0.0
 11
-180.0
 21
2.0
 31
0.0
  0
LINE
  5
71EA
330
7177
100
AcDbEntity
  8
AM_0 外形線1
100
AcDbLine
 10
-169.0
 20
-15.39999999999986
 30
0.0
 11
-169.0
 21
-11.0
 31
0.0
  0
LINE
  5
71EB
330
7177
100
AcDbEntity
  8
AM_0 外形線1
100
AcDbLine
 10
-180.0
 20
2.0
 30
0.0
 11
-187.5
 21
2.0
 31
0.0
  0
LINE
  5
71EC
330
7177
100
AcDbEntity
  8
AM_0 外形線1
100
AcDbLine
 10
-174.5499999999997
 20
-15.39999999999986
 30
0.0
 11
-169.0
 21
-15.39999999999986
 31
0.0
  0
LINE
  5
71ED
330
7177
100
AcDbEntity
  8
AM_0 外形線1
100
AcDbLine
 10
-169.0
 20
-15.39999999999986
 30
0.0
 11
-167.5
 21
-15.39999999999986
 31
0.0
  0
LINE
  5
71EE
330
7177
100
AcDbEntity
  8
AM_4 細線
100
AcDbLine
 10
-206.0
 20
22.0
 30
0.0
 11
-205.25
 21
26.0
 31
0.0
  0
LINE
  5
71EF
330
7177
100
AcDbEntity
  8
AM_4 細線
100
AcDbLine
 10
-196.75
 20
26.0
 30
0.0
 11
-196.0
 21
22.0
 31
0.0
  0
LINE
  5
71F0
330
7177
100
AcDbEntity
  8
AM_4 細線
100
AcDbLine
 10
-206.0
 20
16.5
 30
0.0
 11
-206.0
 21
22.0
 31
0.0
  0
LINE
  5
71F1
330
7177
100
AcDbEntity
  8
AM_4 細線
100
AcDbLine
 10
-206.0
 20
22.0
 30
0.0
 11
-196.0
 21
22.0
 31
0.0
  0
LINE
  5
71F2
330
7177
100
AcDbEntity
  8
AM_4 細線
100
AcDbLine
 10
-196.0
 20
16.5
 30
0.0
 11
-196.0
 21
22.0
 31
0.0
  0
LINE
  5
71F3
330
7177
100
AcDbEntity
  8
AM_0 外形線1
100
AcDbLine
 10
-205.25
 20
26.0
 30
0.0
 11
-196.75
 21
26.0
 31
0.0
  0
LINE
  5
71F4
330
7177
100
AcDbEntity
  8
AM_0 外形線1
100
AcDbLine
 10
-196.75
 20
26.0
 30
0.0
 11
-196.75
 21
16.5
 31
0.0
  0
LINE
  5
71F5
330
7177
100
AcDbEntity
  8
AM_0 外形線1
100
AcDbLine
 10
-201.0
 20
28.45373800000016
 30
0.0
 11
-196.75
 21
26.0
 31
0.0
  0
LINE
  5
71F6
330
7177
100
AcDbEntity
  8
AM_0 外形線1
100
AcDbLine
 10
-205.25
 20
26.0
 30
0.0
 11
-201.0
 21
28.45373800000016
 31
0.0
  0
LINE
  5
71F7
330
7177
100
AcDbEntity
  8
AM_0 外形線1
100
AcDbLine
 10
-205.25
 20
16.5
 30
0.0
 11
-205.25
 21
26.0
 31
0.0
  0
LINE
  5
71F8
330
7177
100
AcDbEntity
  8
AM_4 細線
100
AcDbLine
 10
-196.6999999999998
 20
15.80000000000018
 30
0.0
 11
-196.6999999999998
 21
16.5
 31
0.0
  0
LINE
  5
71F9
330
7177
100
AcDbEntity
  8
AM_4 細線
100
AcDbLine
 10
-205.2999999999997
 20
15.80000000000018
 30
0.0
 11
-205.2999999999997
 21
16.5
 31
0.0
  0
LINE
  5
71FA
330
7177
100
AcDbEntity
  8
AM_0 外形線1
100
AcDbLine
 10
-206.0
 20
16.5
 30
0.0
 11
-196.0
 21
16.5
 31
0.0
  0
LINE
  5
71FB
330
7177
100
AcDbEntity
  8
AM_0 外形線1
100
AcDbLine
 10
-196.0
 20
15.80000000000018
 30
0.0
 11
-196.0
 21
16.5
 31
0.0
  0
LINE
  5
71FC
330
7177
100
AcDbEntity
  8
AM_0 外形線1
100
AcDbLine
 10
-206.0
 20
15.80000000000018
 30
0.0
 11
-206.0
 21
16.5
 31
0.0
  0
LINE
  5
71FD
330
7177
100
AcDbEntity
  8
AM_0 外形線1
100
AcDbLine
 10
212.0
 20
0.0
 30
0.0
 11
212.0
 21
-31.0
 31
0.0
  0
ELLIPSE
  5
71FE
330
7177
100
AcDbEntity
  8
AM_0 外形線1
100
AcDbEllipse
 10
-171.0250000000001
 20
-21.0
 30
0.0
 11
0.0
 21
-5.600000000000021
 31
0.0
210
0.0
220
0.0
230
1.0
 40
0.6294642857142792
 41
0.0
 42
6.283185307179585
  0
ELLIPSE
  5
71FF
330
7177
100
AcDbEntity
  8
AM_0 外形線1
100
AcDbEllipse
 10
-190.1499999999995
 20
-1.549999999999954
 30
0.0
 11
-2.650000000000089
 21
0.0
 31
0.0
210
0.0
220
0.0
230
1.0
 40
0.5849056603773213
 41
0.0
 42
6.283185307179585
  0
LINE
  5
7200
330
7177
100
AcDbEntity
  8
AM_0 外形線1
100
AcDbLine
 10
201.25
 20
-33.5
 30
0.0
 11
198.75
 21
-31.0
 31
0.0
  0
LINE
  5
7201
330
7177
100
AcDbEntity
  8
AM_0 外形線1
100
AcDbLine
 10
203.25
 20
-33.5
 30
0.0
 11
200.75
 21
-31.0
 31
0.0
  0
LINE
  5
7202
330
7177
100
AcDbEntity
  8
AM_0 外形線1
100
AcDbLine
 10
205.892523
 20
-39.61728700000004
 30
0.0
 11
205.892523
 21
-33.5
 31
0.0
  0
LINE
  5
7203
330
7177
100
AcDbEntity
  8
AM_0 外形線1
100
AcDbLine
 10
196.107477
 20
-39.61728700000004
 30
0.0
 11
196.107477
 21
-33.5
 31
0.0
  0
LINE
  5
7204
330
7177
100
AcDbEntity
  8
AM_0 外形線1
100
AcDbLine
 10
193.6795579999998
 20
-40.49999999999999
 30
0.0
 11
208.3204419999997
 21
-40.49999999999999
 31
0.0
  0
LINE
  5
7205
330
7177
100
AcDbEntity
  8
AM_0 外形線1
100
AcDbLine
 10
191.1999999999998
 20
-33.5
 30
0.0
 11
191.75
 21
-33.5
 31
0.0
  0
LINE
  5
7206
330
7177
100
AcDbEntity
  8
AM_0 外形線1
100
AcDbLine
 10
191.1999999999998
 20
-39.36435399999982
 30
0.0
 11
191.1999999999998
 21
-33.5
 31
0.0
  0
ARC
  5
7207
330
7177
100
AcDbEntity
  8
AM_0 外形線1
100
AcDbCircle
 10
193.7820399999995
 20
-37.00150099999996
 30
0.0
 40
3.5
100
AcDbArc
 50
222.4619740000035
 51
311.6371409999853
  0
ARC
  5
7208
330
7177
100
AcDbEntity
  8
AM_0 外形線1
100
AcDbCircle
 10
201.0
 20
-26.5
 30
0.0
 40
14.0
100
AcDbArc
 50
249.5453490000056
 51
290.4546509999942
  0
ARC
  5
7209
330
7177
100
AcDbEntity
  8
AM_0 外形線1
100
AcDbCircle
 10
208.2179609999998
 20
-37.00150099999996
 30
0.0
 40
3.5
100
AcDbArc
 50
228.3628590000148
 51
317.5380259999965
  0
LINE
  5
720A
330
7177
100
AcDbEntity
  8
AM_0 外形線1
100
AcDbLine
 10
210.7999999999997
 20
-33.5
 30
0.0
 11
210.7999999999997
 21
-39.36435399999982
 31
0.0
  0
LINE
  5
720B
330
7177
100
AcDbEntity
  8
AM_0 外形線1
100
AcDbLine
 10
210.25
 20
-33.5
 30
0.0
 11
210.7999999999997
 21
-33.5
 31
0.0
  0
LINE
  5
720C
330
7177
100
AcDbEntity
  8
AM_0 外形線1
100
AcDbLine
 10
191.75
 20
-33.5
 30
0.0
 11
191.75
 21
-31.0
 31
0.0
  0
LINE
  5
720D
330
7177
100
AcDbEntity
  8
AM_0 外形線1
100
AcDbLine
 10
210.25
 20
-33.5
 30
0.0
 11
191.75
 21
-33.5
 31
0.0
  0
LINE
  5
720E
330
7177
100
AcDbEntity
  8
AM_0 外形線1
100
AcDbLine
 10
210.25
 20
-31.0
 30
0.0
 11
210.25
 21
-33.5
 31
0.0
  0
LINE
  5
720F
330
7177
100
AcDbEntity
  8
AM_0 外形線1
100
AcDbLine
 10
-187.5
 20
2.0
 30
0.0
 11
-187.5
 21
-3.100000000000021
 31
0.0
  0
LINE
  5
7210
330
7177
100
AcDbEntity
  8
AM_0 外形線1
100
AcDbLine
 10
-212.0
 20
0.0
 30
0.0
 11
-212.0
 21
-31.0
 31
0.0
  0
INSERT
  5
7211
330
7177
100
AcDbEntity
  8
AM_0 外形線1
100
AcDbBlockReference
  2
ロッカクアナツキプラグ-1 R1／8
 10
44.68001194454973
 20
-8.5
 30
0.0
  0
LINE
  5
72B8
330
7177
100
AcDbEntity
  8
AM_0 外形線1
100
AcDbLine
 10
-212.0
 20
0.0000000000001137
 30
0.0
 11
-206.0
 21
0.0
 31
0.0
  0
LINE
  5
72B9
330
7177
100
AcDbEntity
  8
AM_0 外形線1
100
AcDbLine
 10
-196.0
 20
0.0
 30
0.0
 11
-192.7999999999997
 21
0.0
 31
0.0
  0
LINE
  5
72BA
330
7177
100
AcDbEntity
  8
AM_0 外形線1
100
AcDbLine
 10
-180.0
 20
2.0
 30
0.0
 11
-173.01
 21
2.0
 31
0.0
  0
LINE
  5
72BB
330
7177
100
AcDbEntity
  8
AM_0 外形線1
100
AcDbLine
 10
212.0
 20
0.0
 30
0.0
 11
0.0
 21
0.0
 31
0.0
  0
LINE
  5
72BC
330
7177
100
AcDbEntity
  8
AM_7 中心線
100
AcDbLine
 10
201.0
 20
25.30323300000009
 30
0.0
 11
201.0
 21
-43.3259069999999
 31
0.0
  0
ENDBLK
  5
7179
330
7177
100
AcDbEntity
  8
0
100
AcDbBlockEnd
  0
BLOCK
  5
72C5
330
72C4
100
AcDbEntity
  8
0
100
AcDbBlockBegin
  2
センタＡ CMVH500
 70
     0
 10
0.0
 20
0.0
 30
0.0
  3
センタＡ CMVH500
  1

  0
LINE
  5
72EA
330
72C4
100
AcDbEntity
  8
AM_0 外形線1
100
AcDbLine
 10
-166.0
 20
-1.0
 30
0.0
 11
-165.0
 21
0.0
 31
0.0
  0
ARC
  5
72EB
330
72C4
100
AcDbEntity
  8
AM_0 外形線1
100
AcDbCircle
 10
-160.5
 20
-230.0
 30
0.0
 40
6.0
100
AcDbArc
 50
180.0
 51
270.0
  0
ARC
  5
72ED
330
72C4
100
AcDbEntity
  8
AM_0 外形線1
100
AcDbCircle
 10
0.0
 20
-99.50000000000001
 30
0.0
 40
185.75
100
AcDbArc
 50
170.3928970000012
 51
189.6071029999987
  0
LINE
  5
72EF
330
72C4
100
AcDbEntity
  8
AM_0 外形線1
100
AcDbLine
 10
-166.5
 20
-230.0
 30
0.0
 11
-166.5
 21
-183.0
 31
0.0
  0
LINE
  5
72F0
330
72C4
100
AcDbEntity
  8
AM_0 外形線1
100
AcDbLine
 10
-167.5
 20
-180.0
 30
0.0
 11
-167.5
 21
-131.5
 31
0.0
  0
LINE
  5
72F1
330
72C4
100
AcDbEntity
  8
AM_0 外形線1
100
AcDbLine
 10
-166.5
 20
-183.0
 30
0.0
 11
-167.5
 21
-180.0
 31
0.0
  0
LINE
  5
72F2
330
72C4
100
AcDbEntity
  8
AM_0 外形線1
100
AcDbLine
 10
-182.5595869999997
 20
-131.0
 30
0.0
 11
-183.1449219999999
 21
-130.5
 31
0.0
  0
LINE
  5
72F3
330
72C4
100
AcDbEntity
  8
AM_0 外形線1
100
AcDbLine
 10
-168.0
 20
-131.0
 30
0.0
 11
-182.5595869999997
 21
-131.0
 31
0.0
  0
ARC
  5
72F4
330
72C4
100
AcDbEntity
  8
AM_0 外形線1
100
AcDbCircle
 10
-168.0
 20
-131.5
 30
0.0
 40
0.5
100
AcDbArc
 50
0.0
 51
90.0
  0
LINE
  5
72F5
330
72C4
100
AcDbEntity
  8
AM_0 外形線1
100
AcDbLine
 10
-166.0
 20
-67.5
 30
0.0
 11
-166.0
 21
-1.0
 31
0.0
  0
ARC
  5
72F6
330
72C4
100
AcDbEntity
  8
AM_0 外形線1
100
AcDbCircle
 10
-166.5
 20
-67.5
 30
0.0
 40
0.5
100
AcDbArc
 50
270.0
 51
0.0
  0
LINE
  5
72F7
330
72C4
100
AcDbEntity
  8
AM_0 外形線1
100
AcDbLine
 10
-182.5595869999997
 20
-68.0
 30
0.0
 11
-166.5
 21
-68.0
 31
0.0
  0
LINE
  5
72F8
330
72C4
100
AcDbEntity
  8
AM_0 外形線1
100
AcDbLine
 10
-183.1449219999999
 20
-68.5
 30
0.0
 11
-182.5595869999997
 21
-68.0
 31
0.0
  0
LINE
  5
72F9
330
72C4
100
AcDbEntity
  8
AM_0 外形線1
100
AcDbLine
 10
160.5
 20
-236.0
 30
0.0
 11
-160.5
 21
-236.0
 31
0.0
  0
LINE
  5
72FA
330
72C4
100
AcDbEntity
  8
AM_0 外形線1
100
AcDbLine
 10
166.5
 20
-183.0
 30
0.0
 11
0.0
 21
-183.0
 31
0.0
  0
LINE
  5
72FB
330
72C4
100
AcDbEntity
  8
AM_0 外形線1
100
AcDbLine
 10
167.5
 20
-180.0
 30
0.0
 11
0.0
 21
-180.0
 31
0.0
  0
LINE
  5
72FC
330
72C4
100
AcDbEntity
  8
AM_3 隠れ線
100
AcDbLine
 10
-8.75
 20
-52.0
 30
0.0
 11
-8.75
 21
0.0
 31
0.0
  0
LINE
  5
72FD
330
72C4
100
AcDbEntity
  8
AM_3 隠れ線
100
AcDbLine
 10
-10.0
 20
0.0
 30
0.0
 11
-10.0
 21
-36.0
 31
0.0
  0
LINE
  5
72FE
330
72C4
100
AcDbEntity
  8
AM_3 隠れ線
100
AcDbLine
 10
-8.75
 20
-52.0
 30
0.0
 11
0.0
 21
-52.0
 31
0.0
  0
LINE
  5
72FF
330
72C4
100
AcDbEntity
  8
AM_3 隠れ線
100
AcDbLine
 10
0.0
 20
-57.05181500000002
 30
0.0
 11
-8.75
 21
-52.0
 31
0.0
  0
LINE
  5
7300
330
72C4
100
AcDbEntity
  8
AM_3 隠れ線
100
AcDbLine
 10
-8.75
 20
-36.72168800000009
 30
0.0
 11
0.0
 21
-36.72168800000009
 31
0.0
  0
LINE
  5
7301
330
72C4
100
AcDbEntity
  8
AM_3 隠れ線
100
AcDbLine
 10
0.0
 20
-36.0
 30
0.0
 11
-10.0
 21
-36.0
 31
0.0
  0
LINE
  5
7302
330
72C4
100
AcDbEntity
  8
AM_3 隠れ線
100
AcDbLine
 10
-10.0
 20
-36.0
 30
0.0
 11
-8.75
 21
-36.72168800000009
 31
0.0
  0
LINE
  5
7303
330
72C4
100
AcDbEntity
  8
AM_0 外形線1
100
AcDbLine
 10
166.5
 20
-183.0
 30
0.0
 11
166.5
 21
-230.0
 31
0.0
  0
ARC
  5
7304
330
72C4
100
AcDbEntity
  8
AM_0 外形線1
100
AcDbCircle
 10
160.5
 20
-230.0
 30
0.0
 40
6.0
100
AcDbArc
 50
270.0
 51
0.0
  0
LINE
  5
7305
330
72C4
100
AcDbEntity
  8
AM_0 外形線1
100
AcDbLine
 10
167.5
 20
-169.0
 30
0.0
 11
167.5
 21
-180.0
 31
0.0
  0
LINE
  5
7306
330
72C4
100
AcDbEntity
  8
AM_0 外形線1
100
AcDbLine
 10
167.5
 20
-180.0
 30
0.0
 11
166.5
 21
-183.0
 31
0.0
  0
LINE
  5
7307
330
72C4
100
AcDbEntity
  8
AM_0 外形線1
100
AcDbLine
 10
-84.49999999999954
 20
0.0
 30
0.0
 11
-84.50000000000001
 21
-236.0
 31
0.0
  0
LINE
  5
7308
330
72C4
100
AcDbEntity
  8
AM_0 外形線1
100
AcDbLine
 10
-165.0
 20
0.0
 30
0.0
 11
-160.0
 21
0.0
 31
0.0
  0
LINE
  5
7351
330
72C4
100
AcDbEntity
  8
AM_0 外形線1
100
AcDbLine
 10
-160.0
 20
0.0
 30
0.0
 11
-152.5
 21
0.0
 31
0.0
  0
LINE
  5
7352
330
72C4
100
AcDbEntity
  8
AM_0 外形線1
100
AcDbLine
 10
-142.5
 20
0.0
 30
0.0
 11
0.0
 21
0.0
 31
0.0
  0
LINE
  5
BD83
330
72C4
100
AcDbEntity
  8
AM_7 中心線
100
AcDbLine
 10
-190.75
 20
-99.50000000000001
 30
0.0
 11
-169.0
 21
-99.50000000000001
 31
0.0
  0
ARC
  5
EF93
330
72C4
100
AcDbEntity
  8
AM_0 外形線1
100
AcDbCircle
 10
0.0
 20
-99.50000000000001
 30
0.0
 40
174.0
100
AcDbArc
 50
169.5699787089491
 51
190.4300212910509
  0
ARC
  5
EF94
330
72C4
100
AcDbEntity
  8
AM_7 中心線
100
AcDbCircle
 10
0.0
 20
-99.50000000000001
 30
0.0
 40
180.0000000000001
100
AcDbArc
 50
168.1499205919853
 51
191.699443112908
  0
ENDBLK
  5
72C6
330
72C4
100
AcDbEntity
  8
0
100
AcDbBlockEnd
  0
BLOCK
  5
7CE9
330
7CE8
100
AcDbEntity
  8
0
100
AcDbBlockBegin
  2
*D20
 70
     1
 10
0.0
 20
0.0
 30
0.0
  3
*D20
  1

  0
LINE
  5
EB1B
330
7CE8
100
AcDbEntity
  8
AM_5 寸法線
 62
     3
100
AcDbLine
 10
903.7282529999997
 20
881.6150018496456
 30
0.0
 11
964.7282529999996
 21
881.6150018496456
 31
0.0
  0
LINE
  5
EB1C
330
7CE8
100
AcDbEntity
  8
AM_5 寸法線
 62
     3
100
AcDbLine
 10
903.7282529999997
 20
856.6150018496456
 30
0.0
 11
964.7282529999996
 21
856.6150018496456
 31
0.0
  0
LINE
  5
EB1D
330
7CE8
100
AcDbEntity
  8
AM_5 寸法線
 62
     3
100
AcDbLine
 10
962.2282529999996
 20
846.6150018496456
 30
0.0
 11
962.2282529999996
 21
836.6150018496457
 31
0.0
  0
LINE
  5
EB1E
330
7CE8
100
AcDbEntity
  8
AM_5 寸法線
 62
     3
100
AcDbLine
 10
962.2282529999996
 20
891.6150018496455
 30
0.0
 11
962.2282529999996
 21
934.0150018496457
 31
0.0
  0
LINE
  5
EB1F
330
7CE8
100
AcDbEntity
  8
AM_5 寸法線
 62
     3
100
AcDbLine
 10
962.2282529999996
 20
856.6150018496456
 30
0.0
 11
962.2282529999996
 21
881.6150018496456
 31
0.0
  0
INSERT
  5
EB20
330
7CE8
100
AcDbEntity
  8
AM_5 寸法線
 62
     3
100
AcDbBlockReference
  2
GENDOT
 10
962.2282529999996
 20
856.6150018496456
 30
0.0
 41
10.0
 42
10.0
 43
10.0
 50
90.0
  0
INSERT
  5
EB21
330
7CE8
100
AcDbEntity
  8
AM_5 寸法線
 62
     3
100
AcDbBlockReference
  2
_Open30
 10
962.2282529999996
 20
881.6150018496456
 30
0.0
 41
10.0
 42
10.0
 43
10.0
 50
270.0
  0
MTEXT
  5
EB22
330
7CE8
100
AcDbEntity
  8
AM_5 寸法線
 62
     3
100
AcDbMText
 10
949.2282529999997
 20
917.8150018496459
 30
0.0
 40
14.0
 41
0.0
 46
0.0
 71
     5
 72
     1
  1
25
  7
SEISA
 11
0.0000000000000001
 21
1.0
 31
0.0
 73
     1
 44
1.0
  0
POINT
  5
EB23
330
7CE8
100
AcDbEntity
  8
Defpoints
 62
     0
100
AcDbPoint
 10
901.2282529999996
 20
881.6150018496456
 30
0.0
  0
POINT
  5
EB24
330
7CE8
100
AcDbEntity
  8
Defpoints
 62
     0
100
AcDbPoint
 10
901.2282529999996
 20
856.6150018496456
 30
0.0
  0
POINT
  5
EB25
330
7CE8
100
AcDbEntity
  8
Defpoints
 62
     0
100
AcDbPoint
 10
962.2282529999996
 20
856.6150018496456
 30
0.0
  0
ENDBLK
  5
7CEA
330
7CE8
100
AcDbEntity
  8
0
100
AcDbBlockEnd
  0
BLOCK
  5
7D3A
330
7D39
100
AcDbEntity
  8
0
100
AcDbBlockBegin
  2
*D21
 70
     1
 10
0.0
 20
0.0
 30
0.0
  3
*D21
  1

  0
LINE
  5
EB26
330
7D39
100
AcDbEntity
  8
AM_5 寸法線
 62
     3
100
AcDbLine
 10
903.7282529999997
 20
831.6150018496456
 30
0.0
 11
964.7282529999996
 21
831.6150018496456
 31
0.0
  0
LINE
  5
EB27
330
7D39
100
AcDbEntity
  8
AM_5 寸法線
 62
     3
100
AcDbLine
 10
903.7282529999997
 20
856.6150018496456
 30
0.0
 11
964.7282529999996
 21
856.6150018496456
 31
0.0
  0
LINE
  5
EB28
330
7D39
100
AcDbEntity
  8
AM_5 寸法線
 62
     3
100
AcDbLine
 10
962.2282529999996
 20
866.6150018496455
 30
0.0
 11
962.2282529999996
 21
876.6150018496457
 31
0.0
  0
LINE
  5
EB29
330
7D39
100
AcDbEntity
  8
AM_5 寸法線
 62
     3
100
AcDbLine
 10
962.2282529999996
 20
821.6150018496456
 30
0.0
 11
962.2282529999996
 21
779.2150018496457
 31
0.0
  0
LINE
  5
EB2A
330
7D39
100
AcDbEntity
  8
AM_5 寸法線
 62
     3
100
AcDbLine
 10
962.2282529999996
 20
856.6150018496456
 30
0.0
 11
962.2282529999996
 21
831.6150018496456
 31
0.0
  0
INSERT
  5
EB2B
330
7D39
100
AcDbEntity
  8
AM_5 寸法線
 62
     3
100
AcDbBlockReference
  2
GENDOT
 10
962.2282529999996
 20
856.6150018496456
 30
0.0
 41
10.0
 42
10.0
 43
10.0
 50
270.0
  0
INSERT
  5
EB2C
330
7D39
100
AcDbEntity
  8
AM_5 寸法線
 62
     3
100
AcDbBlockReference
  2
_Open30
 10
962.2282529999996
 20
831.6150018496456
 30
0.0
 41
10.0
 42
10.0
 43
10.0
 50
90.0
  0
MTEXT
  5
EB2D
330
7D39
100
AcDbEntity
  8
AM_5 寸法線
 62
     3
100
AcDbMText
 10
949.2282529999997
 20
795.4150018496457
 30
0.0
 40
14.0
 41
0.0
 46
0.0
 71
     5
 72
     1
  1
25
  7
SEISA
 11
0.0000000000000001
 21
1.0
 31
0.0
 73
     1
 44
1.0
  0
POINT
  5
EB2E
330
7D39
100
AcDbEntity
  8
Defpoints
 62
     0
100
AcDbPoint
 10
901.2282529999996
 20
831.6150018496456
 30
0.0
  0
POINT
  5
EB2F
330
7D39
100
AcDbEntity
  8
Defpoints
 62
     0
100
AcDbPoint
 10
901.2282529999996
 20
856.6150018496456
 30
0.0
  0
POINT
  5
EB30
330
7D39
100
AcDbEntity
  8
Defpoints
 62
     0
100
AcDbPoint
 10
962.2282529999996
 20
856.6150018496456
 30
0.0
  0
ENDBLK
  5
7D3B
330
7D39
100
AcDbEntity
  8
0
100
AcDbBlockEnd
  0
BLOCK
  5
7DAB
330
7DAA
100
AcDbEntity
  8
0
100
AcDbBlockBegin
  2
*D22
 70
     1
 10
0.0
 20
0.0
 30
0.0
  3
*D22
  1

  0
LINE
  5
F5BF
330
7DAA
100
AcDbEntity
  8
AM_5 寸法線
 62
     3
100
AcDbLine
 10
866.7282529999996
 20
673.6150018496458
 30
0.0
 11
1004.728253
 21
673.6150018496458
 31
0.0
  0
LINE
  5
F5C0
330
7DAA
100
AcDbEntity
  8
AM_5 寸法線
 62
     3
100
AcDbLine
 10
866.7282529999996
 20
1039.615001849646
 30
0.0
 11
1004.728253
 21
1039.615001849646
 31
0.0
  0
LINE
  5
F5C1
330
7DAA
100
AcDbEntity
  8
AM_5 寸法線
 62
     3
100
AcDbLine
 10
1002.228253
 20
683.6150018496457
 30
0.0
 11
1002.228253
 21
1029.615001849646
 31
0.0
  0
INSERT
  5
F5C2
330
7DAA
100
AcDbEntity
  8
AM_5 寸法線
 62
     3
100
AcDbBlockReference
  2
_Open30
 10
1002.228253
 20
673.6150018496458
 30
0.0
 41
10.0
 42
10.0
 43
10.0
 50
270.0
  0
INSERT
  5
F5C3
330
7DAA
100
AcDbEntity
  8
AM_5 寸法線
 62
     3
100
AcDbBlockReference
  2
_Open30
 10
1002.228253
 20
1039.615001849646
 30
0.0
 41
10.0
 42
10.0
 43
10.0
 50
90.0
  0
MTEXT
  5
F5C4
330
7DAA
100
AcDbEntity
  8
AM_5 寸法線
 62
     3
100
AcDbMText
 10
989.2282530000001
 20
856.6150018496456
 30
0.0
 40
14.0
 41
0.0
 46
0.0
 71
     5
 72
     1
  1
366
  7
SEISA
 11
0.0000000000000001
 21
1.0
 31
0.0
 73
     1
 44
1.0
  0
POINT
  5
F5C5
330
7DAA
100
AcDbEntity
  8
Defpoints
 62
     0
100
AcDbPoint
 10
864.2282529999997
 20
673.6150018496458
 30
0.0
  0
POINT
  5
F5C6
330
7DAA
100
AcDbEntity
  8
Defpoints
 62
     0
100
AcDbPoint
 10
864.2282529999997
 20
1039.615001849646
 30
0.0
  0
POINT
  5
F5C7
330
7DAA
100
AcDbEntity
  8
Defpoints
 62
     0
100
AcDbPoint
 10
1002.228253
 20
1039.615001849646
 30
0.0
  0
ENDBLK
  5
7DAC
330
7DAA
100
AcDbEntity
  8
0
100
AcDbBlockEnd
  0
BLOCK
  5
85F7
330
85F6
100
AcDbEntity
  8
0
100
AcDbBlockBegin
  2
*D23
 70
     1
 10
0.0
 20
0.0
 30
0.0
  3
*D23
  1

  0
LINE
  5
EB6B
330
85F6
100
AcDbEntity
  8
AM_5 寸法線
 62
     3
100
AcDbLine
 10
484.7282529999997
 20
1053.115001849646
 30
0.0
 11
484.7282529999997
 21
1149.115001849644
 31
0.0
  0
LINE
  5
EB6C
330
85F6
100
AcDbEntity
  8
AM_5 寸法線
 62
     3
100
AcDbLine
 10
819.7282529999997
 20
1053.115001849646
 30
0.0
 11
819.7282529999997
 21
1149.115001849644
 31
0.0
  0
LINE
  5
EB6D
330
85F6
100
AcDbEntity
  8
AM_5 寸法線
 62
     3
100
AcDbLine
 10
494.7282529999998
 20
1146.615001849646
 30
0.0
 11
809.7282529999997
 21
1146.615001849646
 31
0.0
  0
INSERT
  5
EB6E
330
85F6
100
AcDbEntity
  8
AM_5 寸法線
 62
     3
100
AcDbBlockReference
  2
_Open30
 10
484.7282529999997
 20
1146.615001849646
 30
0.0
 41
10.0
 42
10.0
 43
10.0
 50
180.0
  0
INSERT
  5
EB6F
330
85F6
100
AcDbEntity
  8
AM_5 寸法線
 62
     3
100
AcDbBlockReference
  2
_Open30
 10
819.7282529999997
 20
1146.615001849646
 30
0.0
 41
10.0
 42
10.0
 43
10.0
  0
MTEXT
  5
EB70
330
85F6
100
AcDbEntity
  8
AM_5 寸法線
 62
     3
100
AcDbMText
 10
652.2282529999998
 20
1159.615001849646
 30
0.0
 40
14.0
 41
0.0
 46
0.0
 71
     5
 72
     1
  1
%%c335
  7
SEISA
 73
     1
 44
1.0
  0
POINT
  5
EB71
330
85F6
100
AcDbEntity
  8
Defpoints
 62
     0
100
AcDbPoint
 10
484.7282529999997
 20
1050.615001849646
 30
0.0
  0
POINT
  5
EB72
330
85F6
100
AcDbEntity
  8
Defpoints
 62
     0
100
AcDbPoint
 10
819.7282529999997
 20
1050.615001849646
 30
0.0
  0
POINT
  5
EB73
330
85F6
100
AcDbEntity
  8
Defpoints
 62
     0
100
AcDbPoint
 10
819.7282529999997
 20
1146.615001849646
 30
0.0
  0
ENDBLK
  5
85F8
330
85F6
100
AcDbEntity
  8
0
100
AcDbBlockEnd
  0
BLOCK
  5
8634
330
8633
100
AcDbEntity
  8
0
100
AcDbBlockBegin
  2
*D24
 70
     1
 10
0.0
 20
0.0
 30
0.0
  3
*D24
  1

  0
LINE
  5
EB74
330
8633
100
AcDbEntity
  8
AM_5 寸法線
 62
     3
100
AcDbLine
 10
484.7282529999997
 20
660.1150018496457
 30
0.0
 11
484.7282529999997
 21
524.1150018496456
 31
0.0
  0
LINE
  5
EB75
330
8633
100
AcDbEntity
  8
AM_5 寸法線
 62
     3
100
AcDbLine
 10
819.7282529999997
 20
660.1150018496457
 30
0.0
 11
819.7282529999997
 21
524.1150018496456
 31
0.0
  0
LINE
  5
EB76
330
8633
100
AcDbEntity
  8
AM_5 寸法線
 62
     3
100
AcDbLine
 10
494.7282529999998
 20
526.6150018496456
 30
0.0
 11
809.7282529999997
 21
526.6150018496456
 31
0.0
  0
INSERT
  5
EB77
330
8633
100
AcDbEntity
  8
AM_5 寸法線
 62
     3
100
AcDbBlockReference
  2
_Open30
 10
484.7282529999997
 20
526.6150018496456
 30
0.0
 41
10.0
 42
10.0
 43
10.0
 50
180.0
  0
INSERT
  5
EB78
330
8633
100
AcDbEntity
  8
AM_5 寸法線
 62
     3
100
AcDbBlockReference
  2
_Open30
 10
819.7282529999997
 20
526.6150018496456
 30
0.0
 41
10.0
 42
10.0
 43
10.0
  0
MTEXT
  5
EB79
330
8633
100
AcDbEntity
  8
AM_5 寸法線
 62
     3
100
AcDbMText
 10
652.2282529999998
 20
539.6150018496456
 30
0.0
 40
14.0
 41
0.0
 46
0.0
 71
     5
 72
     1
  1
%%c335
  7
SEISA
 73
     1
 44
1.0
  0
POINT
  5
EB7A
330
8633
100
AcDbEntity
  8
Defpoints
 62
     0
100
AcDbPoint
 10
484.7282529999997
 20
662.6150018496457
 30
0.0
  0
POINT
  5
EB7B
330
8633
100
AcDbEntity
  8
Defpoints
 62
     0
100
AcDbPoint
 10
819.7282529999997
 20
662.6150018496457
 30
0.0
  0
POINT
  5
EB7C
330
8633
100
AcDbEntity
  8
Defpoints
 62
     0
100
AcDbPoint
 10
819.7282529999997
 20
526.6150018496456
 30
0.0
  0
ENDBLK
  5
8635
330
8633
100
AcDbEntity
  8
0
100
AcDbBlockEnd
  0
BLOCK
  5
8670
330
866F
100
AcDbEntity
  8
0
100
AcDbBlockBegin
  2
*D25
 70
     1
 10
0.0
 20
0.0
 30
0.0
  3
*D25
  1

  0
LINE
  5
EB7D
330
866F
100
AcDbEntity
  8
AM_5 寸法線
 62
     3
100
AcDbLine
 10
440.2282529999998
 20
671.1150018496457
 30
0.0
 11
440.2282529999998
 21
484.1150018496456
 31
0.0
  0
LINE
  5
EB7E
330
866F
100
AcDbEntity
  8
AM_5 寸法線
 62
     3
100
AcDbLine
 10
864.2282529999997
 20
671.1150018496457
 30
0.0
 11
864.2282529999997
 21
484.1150018496456
 31
0.0
  0
LINE
  5
EB7F
330
866F
100
AcDbEntity
  8
AM_5 寸法線
 62
     3
100
AcDbLine
 10
450.2282529999996
 20
486.6150018496457
 30
0.0
 11
854.2282529999996
 21
486.6150018496457
 31
0.0
  0
INSERT
  5
EB80
330
866F
100
AcDbEntity
  8
AM_5 寸法線
 62
     3
100
AcDbBlockReference
  2
_Open30
 10
440.2282529999998
 20
486.6150018496457
 30
0.0
 41
10.0
 42
10.0
 43
10.0
 50
180.0
  0
INSERT
  5
EB81
330
866F
100
AcDbEntity
  8
AM_5 寸法線
 62
     3
100
AcDbBlockReference
  2
_Open30
 10
864.2282529999997
 20
486.6150018496457
 30
0.0
 41
10.0
 42
10.0
 43
10.0
  0
MTEXT
  5
EB82
330
866F
100
AcDbEntity
  8
AM_5 寸法線
 62
     3
100
AcDbMText
 10
652.2282529999998
 20
499.6150018496456
 30
0.0
 40
14.0
 41
0.0
 46
0.0
 71
     5
 72
     1
  1
%%c424
  7
SEISA
 73
     1
 44
1.0
  0
POINT
  5
EB83
330
866F
100
AcDbEntity
  8
Defpoints
 62
     0
100
AcDbPoint
 10
440.2282529999998
 20
673.6150018496458
 30
0.0
  0
POINT
  5
EB84
330
866F
100
AcDbEntity
  8
Defpoints
 62
     0
100
AcDbPoint
 10
864.2282529999997
 20
673.6150018496458
 30
0.0
  0
POINT
  5
EB85
330
866F
100
AcDbEntity
  8
Defpoints
 62
     0
100
AcDbPoint
 10
864.2282529999997
 20
486.6150018496457
 30
0.0
  0
ENDBLK
  5
8671
330
866F
100
AcDbEntity
  8
0
100
AcDbBlockEnd
  0
BLOCK
  5
86AD
330
86AC
100
AcDbEntity
  8
0
100
AcDbBlockBegin
  2
*D26
 70
     1
 10
0.0
 20
0.0
 30
0.0
  3
*D26
  1

  0
LINE
  5
EB86
330
86AC
100
AcDbEntity
  8
AM_5 寸法線
 62
     3
100
AcDbLine
 10
902.2282529999996
 20
830.1150018496455
 30
0.0
 11
902.2282529999996
 21
444.1150018496457
 31
0.0
  0
LINE
  5
EB87
330
86AC
100
AcDbEntity
  8
AM_5 寸法線
 62
     3
100
AcDbLine
 10
402.2282529999997
 20
830.1150018496455
 30
0.0
 11
402.2282529999997
 21
444.1150018496457
 31
0.0
  0
LINE
  5
EB88
330
86AC
100
AcDbEntity
  8
AM_5 寸法線
 62
     3
100
AcDbLine
 10
892.2282529999996
 20
446.6150018496456
 30
0.0
 11
412.2282529999997
 21
446.6150018496456
 31
0.0
  0
INSERT
  5
EB89
330
86AC
100
AcDbEntity
  8
AM_5 寸法線
 62
     3
100
AcDbBlockReference
  2
_Open30
 10
902.2282529999996
 20
446.6150018496456
 30
0.0
 41
10.0
 42
10.0
 43
10.0
  0
INSERT
  5
EB8A
330
86AC
100
AcDbEntity
  8
AM_5 寸法線
 62
     3
100
AcDbBlockReference
  2
_Open30
 10
402.2282529999997
 20
446.6150018496456
 30
0.0
 41
10.0
 42
10.0
 43
10.0
 50
180.0
  0
MTEXT
  5
EB8B
330
86AC
100
AcDbEntity
  8
AM_5 寸法線
 62
     3
100
AcDbMText
 10
652.2282529999998
 20
459.6150018496457
 30
0.0
 40
14.0
 41
0.0
 46
0.0
 71
     5
 72
     1
  1
%%c500
  7
SEISA
 73
     1
 44
1.0
  0
POINT
  5
EB8C
330
86AC
100
AcDbEntity
  8
Defpoints
 62
     0
100
AcDbPoint
 10
902.2282529999996
 20
832.6150018496456
 30
0.0
  0
POINT
  5
EB8D
330
86AC
100
AcDbEntity
  8
Defpoints
 62
     0
100
AcDbPoint
 10
402.2282529999997
 20
832.6150018496456
 30
0.0
  0
POINT
  5
EB8E
330
86AC
100
AcDbEntity
  8
Defpoints
 62
     0
100
AcDbPoint
 10
402.2282529999997
 20
446.6150018496456
 30
0.0
  0
ENDBLK
  5
86AE
330
86AC
100
AcDbEntity
  8
0
100
AcDbBlockEnd
  0
BLOCK
  5
8A81
330
8A80
100
AcDbEntity
  8
0
100
AcDbBlockBegin
  2
*D27
 70
     1
 10
0.0
 20
0.0
 30
0.0
  3
*D27
  1

  0
LINE
  5
EB8F
330
8A80
100
AcDbEntity
  8
AM_5 寸法線
 62
     3
100
AcDbLine
 10
612.2282529999997
 20
880.6150018496456
 30
0.0
 11
612.2282529999997
 21
1096.615001849646
 31
0.0
  0
INSERT
  5
EB90
330
8A80
100
AcDbEntity
  8
AM_5 寸法線
 62
     3
100
AcDbBlockReference
  2
_Open30
 10
612.2282529999997
 20
870.6150018496456
 30
0.0
 41
10.0
 42
10.0
 43
10.0
 50
270.0
  0
INSERT
  5
EB91
330
8A80
100
AcDbEntity
  8
AM_5 寸法線
 62
     3
100
AcDbBlockReference
  2
_Open30
 10
612.2282529999997
 20
1106.615001849646
 30
0.0
 41
10.0
 42
10.0
 43
10.0
 50
90.0
  0
MTEXT
  5
EB92
330
8A80
100
AcDbEntity
  8
AM_5 寸法線
 62
     3
100
AcDbMText
 10
599.2282529999997
 20
988.615001849646
 30
0.0
 40
14.0
 41
0.0
 46
0.0
 71
     5
 72
     1
  1
236
  7
SEISA
 11
0.0000000000000001
 21
1.0
 31
0.0
 73
     1
 44
1.0
  0
POINT
  5
EB93
330
8A80
100
AcDbEntity
  8
Defpoints
 62
     0
100
AcDbPoint
 10
612.2282529999997
 20
870.6150018496456
 30
0.0
  0
POINT
  5
EB94
330
8A80
100
AcDbEntity
  8
Defpoints
 62
     0
100
AcDbPoint
 10
612.2282529999997
 20
1106.615001849646
 30
0.0
  0
POINT
  5
EB95
330
8A80
100
AcDbEntity
  8
Defpoints
 62
     0
100
AcDbPoint
 10
612.2282529999997
 20
1106.615001849646
 30
0.0
  0
ENDBLK
  5
8A82
330
8A80
100
AcDbEntity
  8
0
100
AcDbBlockEnd
  0
BLOCK
  5
8A95
330
8A94
100
AcDbEntity
  8
0
100
AcDbBlockBegin
  2
*D28
 70
     1
 10
0.0
 20
0.0
 30
0.0
  3
*D28
  1

  0
LINE
  5
EB96
330
8A94
100
AcDbEntity
  8
AM_5 寸法線
 62
     3
100
AcDbLine
 10
649.7282529999997
 20
870.6150018496456
 30
0.0
 11
609.7282529999997
 21
870.6150018496456
 31
0.0
  0
LINE
  5
EB97
330
8A94
100
AcDbEntity
  8
AM_5 寸法線
 62
     3
100
AcDbLine
 10
649.7282529999997
 20
842.6150018496455
 30
0.0
 11
609.7282529999997
 21
842.6150018496455
 31
0.0
  0
LINE
  5
EB98
330
8A94
100
AcDbEntity
  8
AM_5 寸法線
 62
     3
100
AcDbLine
 10
612.2282529999997
 20
832.6150018496456
 30
0.0
 11
612.2282529999997
 21
822.6150018496456
 31
0.0
  0
LINE
  5
EB99
330
8A94
100
AcDbEntity
  8
AM_5 寸法線
 62
     3
100
AcDbLine
 10
612.2282529999997
 20
880.6150018496456
 30
0.0
 11
612.2282529999997
 21
923.0150018496457
 31
0.0
  0
LINE
  5
EB9A
330
8A94
100
AcDbEntity
  8
AM_5 寸法線
 62
     3
100
AcDbLine
 10
612.2282529999997
 20
842.6150018496455
 30
0.0
 11
612.2282529999997
 21
870.6150018496456
 31
0.0
  0
INSERT
  5
EB9B
330
8A94
100
AcDbEntity
  8
AM_5 寸法線
 62
     3
100
AcDbBlockReference
  2
_Open30
 10
612.2282529999997
 20
842.6150018496455
 30
0.0
 41
10.0
 42
10.0
 43
10.0
 50
90.0
  0
INSERT
  5
EB9C
330
8A94
100
AcDbEntity
  8
AM_5 寸法線
 62
     3
100
AcDbBlockReference
  2
_Open30
 10
612.2282529999997
 20
870.6150018496456
 30
0.0
 41
10.0
 42
10.0
 43
10.0
 50
270.0
  0
MTEXT
  5
EB9D
330
8A94
100
AcDbEntity
  8
AM_5 寸法線
 62
     3
100
AcDbMText
 10
599.2282529999994
 20
906.8150018496456
 30
0.0
 40
14.0
 41
0.0
 46
0.0
 71
     5
 72
     1
  1
28
  7
SEISA
 11
0.0000000000000001
 21
1.0
 31
0.0
 73
     1
 44
1.0
  0
POINT
  5
EB9E
330
8A94
100
AcDbEntity
  8
Defpoints
 62
     0
100
AcDbPoint
 10
652.2282529999998
 20
870.6150018496456
 30
0.0
  0
POINT
  5
EB9F
330
8A94
100
AcDbEntity
  8
Defpoints
 62
     0
100
AcDbPoint
 10
652.2282529999998
 20
842.6150018496455
 30
0.0
  0
POINT
  5
EBA0
330
8A94
100
AcDbEntity
  8
Defpoints
 62
     0
100
AcDbPoint
 10
612.2282529999997
 20
842.6150018496455
 30
0.0
  0
ENDBLK
  5
8A96
330
8A94
100
AcDbEntity
  8
0
100
AcDbBlockEnd
  0
BLOCK
  5
8AC7
330
8AC6
100
AcDbEntity
  8
0
100
AcDbBlockBegin
  2
*D29
 70
     1
 10
0.0
 20
0.0
 30
0.0
  3
*D29
  1

  0
LINE
  5
EBA1
330
8AC6
100
AcDbEntity
  8
AM_5 寸法線
 62
     3
100
AcDbLine
 10
649.7282529999997
 20
606.6150018496458
 30
0.0
 11
609.7282529999999
 21
606.6150018496458
 31
0.0
  0
LINE
  5
EBA2
330
8AC6
100
AcDbEntity
  8
AM_5 寸法線
 62
     3
100
AcDbLine
 10
649.7282529999997
 20
842.6150018496455
 30
0.0
 11
609.728253
 21
842.6150018496455
 31
0.0
  0
LINE
  5
EBA3
330
8AC6
100
AcDbEntity
  8
AM_5 寸法線
 62
     3
100
AcDbLine
 10
612.2282529999997
 20
616.6150018496457
 30
0.0
 11
612.2282529999998
 21
832.6150018496456
 31
0.0
  0
INSERT
  5
EBA4
330
8AC6
100
AcDbEntity
  8
AM_5 寸法線
 62
     3
100
AcDbBlockReference
  2
_Open30
 10
612.2282529999997
 20
606.6150018496458
 30
0.0
 41
10.0
 42
10.0
 43
10.0
 50
270.0
  0
INSERT
  5
EBA5
330
8AC6
100
AcDbEntity
  8
AM_5 寸法線
 62
     3
100
AcDbBlockReference
  2
_Open30
 10
612.2282529999998
 20
842.6150018496455
 30
0.0
 41
10.0
 42
10.0
 43
10.0
 50
90.0
  0
MTEXT
  5
EBA6
330
8AC6
100
AcDbEntity
  8
AM_5 寸法線
 62
     3
100
AcDbMText
 10
599.2282529999997
 20
748.0872413459883
 30
0.0
 40
14.0
 41
0.0
 46
0.0
 71
     5
 72
     1
  1
236
  7
SEISA
 11
0.0000000000000001
 21
1.0
 31
0.0
 73
     1
 44
1.0
  0
POINT
  5
EBA7
330
8AC6
100
AcDbEntity
  8
Defpoints
 62
     0
100
AcDbPoint
 10
652.2282529999998
 20
606.6150018496458
 30
0.0
  0
POINT
  5
EBA8
330
8AC6
100
AcDbEntity
  8
Defpoints
 62
     0
100
AcDbPoint
 10
652.2282529999998
 20
842.6150018496455
 30
0.0
  0
POINT
  5
EBA9
330
8AC6
100
AcDbEntity
  8
Defpoints
 62
     0
100
AcDbPoint
 10
612.2282529999998
 20
842.6150018496455
 30
0.0
  0
ENDBLK
  5
8AC8
330
8AC6
100
AcDbEntity
  8
0
100
AcDbBlockEnd
  0
BLOCK
  5
8B24
330
8B23
100
AcDbEntity
  8
0
100
AcDbBlockBegin
  2
*D30
 70
     1
 10
0.0
 20
0.0
 30
0.0
  3
*D30
  1

  0
LINE
  5
F034
330
8B23
100
AcDbEntity
  8
AM_5 寸法線
 62
     3
100
AcDbLine
 10
474.7282529999997
 20
706.6150018496456
 30
0.0
 11
546.7282529999996
 21
706.6150018496456
 31
0.0
  0
LINE
  5
F035
330
8B23
100
AcDbEntity
  8
AM_5 寸法線
 62
     3
100
AcDbLine
 10
486.7282529999997
 20
711.6150018496456
 30
0.0
 11
546.7282529999996
 21
711.6150018496456
 31
0.0
  0
LINE
  5
F036
330
8B23
100
AcDbEntity
  8
AM_5 寸法線
 62
     3
100
AcDbLine
 10
544.2282529999996
 20
721.6150018496456
 30
0.0
 11
544.2282529999996
 21
731.6150018496456
 31
0.0
  0
LINE
  5
F037
330
8B23
100
AcDbEntity
  8
AM_5 寸法線
 62
     3
100
AcDbLine
 10
544.2282529999996
 20
696.6150018496456
 30
0.0
 11
544.2282529999996
 21
666.2150018496458
 31
0.0
  0
LINE
  5
F038
330
8B23
100
AcDbEntity
  8
AM_5 寸法線
 62
     3
100
AcDbLine
 10
544.2282529999996
 20
711.6150018496456
 30
0.0
 11
544.2282529999996
 21
706.6150018496456
 31
0.0
  0
INSERT
  5
F039
330
8B23
100
AcDbEntity
  8
AM_5 寸法線
 62
     3
100
AcDbBlockReference
  2
_Open30
 10
544.2282529999996
 20
711.6150018496456
 30
0.0
 41
10.0
 42
10.0
 43
10.0
 50
270.0
  0
INSERT
  5
F03A
330
8B23
100
AcDbEntity
  8
AM_5 寸法線
 62
     3
100
AcDbBlockReference
  2
_Open30
 10
544.2282529999996
 20
706.6150018496456
 30
0.0
 41
10.0
 42
10.0
 43
10.0
 50
90.0
  0
MTEXT
  5
F03B
330
8B23
100
AcDbEntity
  8
AM_5 寸法線
 62
     3
100
AcDbMText
 10
531.2282529999994
 20
676.4150018496458
 30
0.0
 40
14.0
 41
0.0
 46
0.0
 71
     5
 72
     1
  1
5
  7
SEISA
 11
0.0000000000000001
 21
1.0
 31
0.0
 73
     1
 44
1.0
  0
POINT
  5
F03C
330
8B23
100
AcDbEntity
  8
Defpoints
 62
     0
100
AcDbPoint
 10
472.2282529999997
 20
706.6150018496456
 30
0.0
  0
POINT
  5
F03D
330
8B23
100
AcDbEntity
  8
Defpoints
 62
     0
100
AcDbPoint
 10
484.2282529999997
 20
711.6150018496456
 30
0.0
  0
POINT
  5
F03E
330
8B23
100
AcDbEntity
  8
Defpoints
 62
     0
100
AcDbPoint
 10
544.2282529999996
 20
711.6150018496456
 30
0.0
  0
ENDBLK
  5
8B25
330
8B23
100
AcDbEntity
  8
0
100
AcDbBlockEnd
  0
BLOCK
  5
BF79
330
BF78
100
AcDbEntity
  8
0
100
AcDbBlockBegin
  2
*D31
 70
     1
 10
0.0
 20
0.0
 30
0.0
  3
*D31
  1

  0
LINE
  5
EBD6
330
BF78
100
AcDbEntity
  8
AM_5 寸法線
 62
     3
100
AcDbLine
 10
815.2282529999997
 20
1106.615001849646
 30
0.0
 11
1044.728253
 21
1106.615001849646
 31
0.0
  0
LINE
  5
EBD7
330
BF78
100
AcDbEntity
  8
AM_5 寸法線
 62
     3
100
AcDbLine
 10
815.2282529999997
 20
606.6150018496458
 30
0.0
 11
1044.728253
 21
606.6150018496458
 31
0.0
  0
LINE
  5
EBD8
330
BF78
100
AcDbEntity
  8
AM_5 寸法線
 62
     3
100
AcDbLine
 10
1042.228253
 20
1096.615001849646
 30
0.0
 11
1042.228253
 21
616.6150018496457
 31
0.0
  0
INSERT
  5
EBD9
330
BF78
100
AcDbEntity
  8
AM_5 寸法線
 62
     3
100
AcDbBlockReference
  2
_Open30
 10
1042.228253
 20
1106.615001849646
 30
0.0
 41
10.0
 42
10.0
 43
10.0
 50
90.0
  0
INSERT
  5
EBDA
330
BF78
100
AcDbEntity
  8
AM_5 寸法線
 62
     3
100
AcDbBlockReference
  2
_Open30
 10
1042.228253
 20
606.6150018496458
 30
0.0
 41
10.0
 42
10.0
 43
10.0
 50
270.0
  0
MTEXT
  5
EBDB
330
BF78
100
AcDbEntity
  8
AM_5 寸法線
 62
     3
100
AcDbMText
 10
1029.228253
 20
856.6150018496456
 30
0.0
 40
14.0
 41
0.0
 46
0.0
 71
     5
 72
     1
  1
500
  7
SEISA
 11
0.0000000000000001
 21
1.0
 31
0.0
 73
     1
 44
1.0
  0
POINT
  5
EBDC
330
BF78
100
AcDbEntity
  8
Defpoints
 62
     0
100
AcDbPoint
 10
812.7282529999996
 20
1106.615001849646
 30
0.0
  0
POINT
  5
EBDD
330
BF78
100
AcDbEntity
  8
Defpoints
 62
     0
100
AcDbPoint
 10
812.7282529999996
 20
606.6150018496458
 30
0.0
  0
POINT
  5
EBDE
330
BF78
100
AcDbEntity
  8
Defpoints
 62
     0
100
AcDbPoint
 10
1042.228253
 20
606.6150018496458
 30
0.0
  0
ENDBLK
  5
BF7A
330
BF78
100
AcDbEntity
  8
0
100
AcDbBlockEnd
  0
BLOCK
  5
CDFC
330
CDFB
100
AcDbEntity
  8
0
100
AcDbBlockBegin
  2
GENDOT
 70
     0
 10
0.0
 20
0.0
 30
0.0
  3
GENDOT
  1

  0
LINE
  5
CDFD
330
CDFB
100
AcDbEntity
  8
0
100
AcDbLine
 10
0.0
 20
0.0
 30
0.0
 11
-1.0
 21
0.0
 31
0.0
  0
LWPOLYLINE
  5
CDFE
330
CDFB
100
AcDbEntity
  8
0
100
AcDbPolyline
 90
        2
 70
     1
 43
0.25
 10
-0.125
 20
0.0
 42
1.0
 10
0.125
 20
0.0
 42
1.0
  0
ENDBLK
  5
CDFF
330
CDFB
100
AcDbEntity
  8
0
100
AcDbBlockEnd
  0
BLOCK
  5
EFD0
330
EFCF
100
AcDbEntity
  8
0
100
AcDbBlockBegin
  2
*D33
 70
     1
 10
0.0
 20
0.0
 30
0.0
  3
*D33
  1

  0
LINE
  5
EFEF
330
EFCF
100
AcDbEntity
  8
AM_5 寸法線
 62
     3
100
AcDbLine
 10
486.7282529999997
 20
711.6150018496456
 30
0.0
 11
546.7282529999996
 21
711.6150018496456
 31
0.0
  0
LINE
  5
EFF0
330
EFCF
100
AcDbEntity
  8
AM_5 寸法線
 62
     3
100
AcDbLine
 10
486.7282529999997
 20
774.6150018496456
 30
0.0
 11
546.7282529999996
 21
774.6150018496456
 31
0.0
  0
LINE
  5
EFF1
330
EFCF
100
AcDbEntity
  8
AM_5 寸法線
 62
     3
100
AcDbLine
 10
544.2282529999996
 20
721.6150018496456
 30
0.0
 11
544.2282529999996
 21
764.6150018496456
 31
0.0
  0
INSERT
  5
EFF2
330
EFCF
100
AcDbEntity
  8
AM_5 寸法線
 62
     3
100
AcDbBlockReference
  2
_Open30
 10
544.2282529999996
 20
711.6150018496456
 30
0.0
 41
10.0
 42
10.0
 43
10.0
 50
270.0
  0
INSERT
  5
EFF3
330
EFCF
100
AcDbEntity
  8
AM_5 寸法線
 62
     3
100
AcDbBlockReference
  2
_Open30
 10
544.2282529999999
 20
774.6150018496456
 30
0.0
 41
10.0
 42
10.0
 43
10.0
 50
90.0
  0
MTEXT
  5
EFF4
330
EFCF
100
AcDbEntity
  8
AM_5 寸法線
 62
     3
100
AcDbMText
 10
531.2282529999994
 20
743.1150018496459
 30
0.0
 40
14.0
 41
0.0
 46
0.0
 71
     5
 72
     1
  1
63
  7
SEISA
 11
0.0000000000000001
 21
1.0
 31
0.0
 73
     1
 44
1.0
  0
POINT
  5
EFF5
330
EFCF
100
AcDbEntity
  8
Defpoints
 62
     0
100
AcDbPoint
 10
484.2282529999997
 20
711.6150018496456
 30
0.0
  0
POINT
  5
EFF6
330
EFCF
100
AcDbEntity
  8
Defpoints
 62
     0
100
AcDbPoint
 10
484.2282529999997
 20
774.6150018496456
 30
0.0
  0
POINT
  5
EFF7
330
EFCF
100
AcDbEntity
  8
Defpoints
 62
     0
100
AcDbPoint
 10
544.2282529999999
 20
774.6150018496456
 30
0.0
  0
ENDBLK
  5
EFD1
330
EFCF
100
AcDbEntity
  8
0
100
AcDbBlockEnd
  0
BLOCK
  5
EFFA
330
EFF9
100
AcDbEntity
  8
0
100
AcDbBlockBegin
  2
*D34
 70
     1
 10
0.0
 20
0.0
 30
0.0
  3
*D34
  1

  0
LINE
  5
F02B
330
EFF9
100
AcDbEntity
  8
AM_5 寸法線
 62
     3
100
AcDbLine
 10
488.2282529999996
 20
774.6150018496456
 30
0.0
 11
546.7282529999996
 21
774.6150018496456
 31
0.0
  0
LINE
  5
F02C
330
EFF9
100
AcDbEntity
  8
AM_5 寸法線
 62
     3
100
AcDbLine
 10
526.8186484161422
 20
842.6150018496455
 30
0.0
 11
546.7282529999996
 21
842.6150018496455
 31
0.0
  0
LINE
  5
F02D
330
EFF9
100
AcDbEntity
  8
AM_5 寸法線
 62
     3
100
AcDbLine
 10
544.2282529999999
 20
784.6150018496456
 30
0.0
 11
544.2282529999999
 21
832.6150018496456
 31
0.0
  0
INSERT
  5
F02E
330
EFF9
100
AcDbEntity
  8
AM_5 寸法線
 62
     3
100
AcDbBlockReference
  2
_Open30
 10
544.2282529999999
 20
774.6150018496456
 30
0.0
 41
10.0
 42
10.0
 43
10.0
 50
270.0
  0
INSERT
  5
F02F
330
EFF9
100
AcDbEntity
  8
AM_5 寸法線
 62
     3
100
AcDbBlockReference
  2
_Open30
 10
544.2282529999999
 20
842.6150018496455
 30
0.0
 41
10.0
 42
10.0
 43
10.0
 50
90.0
  0
MTEXT
  5
F030
330
EFF9
100
AcDbEntity
  8
AM_5 寸法線
 62
     3
100
AcDbMText
 10
531.2282529999994
 20
808.6150018496459
 30
0.0
 40
14.0
 41
0.0
 46
0.0
 71
     5
 72
     1
  1
68
  7
SEISA
 11
0.0000000000000001
 21
1.0
 31
0.0
 73
     1
 44
1.0
  0
POINT
  5
F031
330
EFF9
100
AcDbEntity
  8
Defpoints
 62
     0
100
AcDbPoint
 10
485.7282529999998
 20
774.6150018496456
 30
0.0
  0
POINT
  5
F032
330
EFF9
100
AcDbEntity
  8
Defpoints
 62
     0
100
AcDbPoint
 10
524.3186484161423
 20
842.6150018496455
 30
0.0
  0
POINT
  5
F033
330
EFF9
100
AcDbEntity
  8
Defpoints
 62
     0
100
AcDbPoint
 10
544.2282529999999
 20
842.6150018496455
 30
0.0
  0
ENDBLK
  5
EFFB
330
EFF9
100
AcDbEntity
  8
0
100
AcDbBlockEnd
  0
BLOCK
  5
F3D8
330
F3D7
100
AcDbEntity
  8
0
100
AcDbBlockBegin
  2
*D35
 70
     1
 10
0.0
 20
0.0
 30
0.0
  3
*D35
  1

  0
LINE
  5
F4FE
330
F3D7
100
AcDbEntity
  8
AM_5 寸法線
 62
     3
100
AcDbLine
 10
438.7282529999998
 20
596.6150018496457
 30
0.0
 11
373.3069792225358
 21
596.6150018496457
 31
0.0
  0
LINE
  5
F4FF
330
F3D7
100
AcDbEntity
  8
AM_5 寸法線
 62
     3
100
AcDbLine
 10
489.2282529999997
 20
606.6150018496458
 30
0.0
 11
373.3069792225358
 21
606.6150018496458
 31
0.0
  0
LINE
  5
F500
330
F3D7
100
AcDbEntity
  8
AM_5 寸法線
 62
     3
100
AcDbLine
 10
375.8069792225358
 20
586.6150018496457
 30
0.0
 11
375.8069792225358
 21
576.6150018496457
 31
0.0
  0
LINE
  5
F501
330
F3D7
100
AcDbEntity
  8
AM_5 寸法線
 62
     3
100
AcDbLine
 10
375.8069792225358
 20
616.6150018496457
 30
0.0
 11
375.8069792225358
 21
657.2150018496458
 31
0.0
  0
LINE
  5
F502
330
F3D7
100
AcDbEntity
  8
AM_5 寸法線
 62
     3
100
AcDbLine
 10
375.8069792225358
 20
596.6150018496457
 30
0.0
 11
375.8069792225358
 21
606.6150018496458
 31
0.0
  0
INSERT
  5
F503
330
F3D7
100
AcDbEntity
  8
AM_5 寸法線
 62
     3
100
AcDbBlockReference
  2
_Open30
 10
375.8069792225358
 20
596.6150018496457
 30
0.0
 41
10.0
 42
10.0
 43
10.0
 50
90.0
  0
INSERT
  5
F504
330
F3D7
100
AcDbEntity
  8
AM_5 寸法線
 62
     3
100
AcDbBlockReference
  2
_Open30
 10
375.8069792225358
 20
606.6150018496458
 30
0.0
 41
10.0
 42
10.0
 43
10.0
 50
270.0
  0
MTEXT
  5
F505
330
F3D7
100
AcDbEntity
  8
AM_5 寸法線
 62
     3
100
AcDbMText
 10
362.8069792225357
 20
641.9150018496458
 30
0.0
 40
14.0
 41
0.0
 46
0.0
 71
     5
 72
     1
  1
10
  7
SEISA
 11
0.0000000000000001
 21
1.0
 31
0.0
 73
     1
 44
1.0
  0
POINT
  5
F506
330
F3D7
100
AcDbEntity
  8
Defpoints
 62
     0
100
AcDbPoint
 10
441.2282529999997
 20
596.6150018496457
 30
0.0
  0
POINT
  5
F507
330
F3D7
100
AcDbEntity
  8
Defpoints
 62
     0
100
AcDbPoint
 10
491.7282529999996
 20
606.6150018496458
 30
0.0
  0
POINT
  5
F508
330
F3D7
100
AcDbEntity
  8
Defpoints
 62
     0
100
AcDbPoint
 10
375.8069792225358
 20
606.6150018496458
 30
0.0
  0
ENDBLK
  5
F3D9
330
F3D7
100
AcDbEntity
  8
0
100
AcDbBlockEnd
  0
BLOCK
  5
F715
330
F714
100
AcDbEntity
  8
0
100
AcDbBlockBegin
  2
ＧＣサイドカバ－CMVH500
 70
     0
 10
0.0
 20
0.0
 30
0.0
  3
ＧＣサイドカバ－CMVH500
  1

  0
LINE
  5
F717
330
F714
100
AcDbEntity
  8
AM_11 想像線
 48
0.1
100
AcDbLine
 10
0.0
 20
0.0
 30
0.0
 11
-7.0
 21
0.0
 31
0.0
  0
LINE
  5
F718
330
F714
100
AcDbEntity
  8
AM_11 想像線
 48
0.1
100
AcDbLine
 10
-31.0
 20
-33.00000000000023
 30
0.0
 11
12.49999999999994
 21
-33.00000000000023
 31
0.0
  0
LINE
  5
F719
330
F714
100
AcDbEntity
  8
AM_11 想像線
 48
0.1
100
AcDbLine
 10
10.5
 20
-28.60000000000013
 30
0.0
 11
12.49999999999994
 21
-28.60000000000013
 31
0.0
  0
LINE
  5
F71A
330
F714
100
AcDbEntity
  8
AM_11 想像線
 48
0.1
100
AcDbLine
 10
11.0
 20
-16.90000000000009
 30
0.0
 11
11.0
 21
-13.50000000000022
 31
0.0
  0
LINE
  5
F71B
330
F714
100
AcDbEntity
  8
AM_11 想像線
 48
0.1
100
AcDbLine
 10
-32.0
 20
-2.000000000000226
 30
0.0
 11
-32.0
 21
-32.00000000000023
 31
0.0
  0
LINE
  5
F71C
330
F714
100
AcDbEntity
  8
AM_11 想像線
 48
0.1
100
AcDbLine
 10
-21.0
 20
4.0
 30
0.0
 11
-21.0
 21
-41.00000000000021
 31
0.0
  0
LINE
  5
F71D
330
F714
100
AcDbEntity
  8
AM_11 想像線
 48
0.1
100
AcDbLine
 10
-26.5
 20
-2.000000000000226
 30
0.0
 11
-15.5
 21
-2.000000000000226
 31
0.0
  0
LINE
  5
F71E
330
F714
100
AcDbEntity
  8
AM_11 想像線
 48
0.1
100
AcDbLine
 10
0.0
 20
-13.00000000000023
 30
0.0
 11
13.49999999999988
 21
-13.00000000000023
 31
0.0
  0
LINE
  5
F71F
330
F714
100
AcDbEntity
  8
AM_11 想像線
 48
0.1
100
AcDbLine
 10
11.0
 20
-13.50000000000022
 30
0.0
 11
10.5
 21
-13.00000000000023
 31
0.0
  0
LINE
  5
F720
330
F714
100
AcDbEntity
  8
AM_11 想像線
 48
0.1
100
AcDbLine
 10
0.0
 20
0.0
 30
0.0
 11
0.0
 21
-13.00000000000023
 31
0.0
  0
LINE
  5
F721
330
F714
100
AcDbEntity
  8
AM_11 想像線
 48
0.1
100
AcDbLine
 10
-15.5
 20
-2.000000000000226
 30
0.0
 11
-12.79999999999978
 21
-2.000000000000226
 31
0.0
  0
LINE
  5
F722
330
F714
100
AcDbEntity
  8
AM_11 想像線
 48
0.1
100
AcDbLine
 10
-12.79999999999978
 20
-5.100000000000136
 30
0.0
 11
-12.79999999999978
 21
-2.000000000000226
 31
0.0
  0
LINE
  5
F723
330
F714
100
AcDbEntity
  8
AM_11 想像線
 48
0.1
100
AcDbLine
 10
-7.5
 20
-5.100000000000136
 30
0.0
 11
-12.79999999999978
 21
-5.100000000000136
 31
0.0
  0
LINE
  5
F724
330
F714
100
AcDbEntity
  8
AM_11 想像線
 48
0.1
100
AcDbLine
 10
-7.5
 20
-2.000000000000226
 30
0.0
 11
-7.5
 21
-5.100000000000136
 31
0.0
  0
LINE
  5
F725
330
F714
100
AcDbEntity
  8
AM_11 想像線
 48
0.1
100
AcDbLine
 10
-7.5
 20
-0.5
 30
0.0
 11
-7.5
 21
-2.000000000000226
 31
0.0
  0
LINE
  5
F726
330
F714
100
AcDbEntity
  8
AM_11 想像線
 48
0.1
100
AcDbLine
 10
-7.0
 20
0.0
 30
0.0
 11
-7.5
 21
-0.5
 31
0.0
  0
LINE
  5
F727
330
F714
100
AcDbEntity
  8
AM_11 想像線
 48
0.1
100
AcDbLine
 10
-26.5
 20
-2.000000000000226
 30
0.0
 11
-32.0
 21
-2.000000000000226
 31
0.0
  0
LINE
  5
F728
330
F714
100
AcDbEntity
  8
AM_11 想像線
 48
0.1
100
AcDbLine
 10
11.0
 20
-32.50000000000023
 30
0.0
 11
11.0
 21
-29.10000000000014
 31
0.0
  0
LINE
  5
F729
330
F714
100
AcDbEntity
  8
AM_11 想像線
 48
0.1
100
AcDbLine
 10
10.5
 20
-17.40000000000009
 30
0.0
 11
11.0
 21
-16.90000000000009
 31
0.0
  0
LINE
  5
F72A
330
F714
100
AcDbEntity
  8
AM_11 想像線
 48
0.1
100
AcDbLine
 10
6.0
 20
-17.40000000000009
 30
0.0
 11
13.50591716120266
 21
-17.26640368172445
 31
0.0
  0
ARC
  5
F72B
330
F714
100
AcDbEntity
  8
AM_11 想像線
 48
0.1
100
AcDbCircle
 10
6.0
 20
-17.90000000000009
 30
0.0
 40
0.5
100
AcDbArc
 50
90.0
 51
180.0
  0
LINE
  5
F72C
330
F714
100
AcDbEntity
  8
AM_11 想像線
 48
0.1
100
AcDbLine
 10
5.5
 20
-28.10000000000014
 30
0.0
 11
5.5
 21
-17.90000000000009
 31
0.0
  0
ARC
  5
F72D
330
F714
100
AcDbEntity
  8
AM_11 想像線
 48
0.1
100
AcDbCircle
 10
6.0
 20
-28.10000000000014
 30
0.0
 40
0.5
100
AcDbArc
 50
180.0
 51
270.0
  0
LINE
  5
F72E
330
F714
100
AcDbEntity
  8
AM_11 想像線
 48
0.1
100
AcDbLine
 10
10.5
 20
-28.60000000000013
 30
0.0
 11
6.0
 21
-28.60000000000013
 31
0.0
  0
LINE
  5
F72F
330
F714
100
AcDbEntity
  8
AM_11 想像線
 48
0.1
100
AcDbLine
 10
11.0
 20
-29.10000000000014
 30
0.0
 11
10.5
 21
-28.60000000000013
 31
0.0
  0
LINE
  5
F730
330
F714
100
AcDbEntity
  8
AM_11 想像線
 48
0.1
100
AcDbLine
 10
10.5
 20
-33.00000000000023
 30
0.0
 11
11.0
 21
-32.50000000000023
 31
0.0
  0
LINE
  5
F731
330
F714
100
AcDbEntity
  8
AM_11 想像線
 48
0.1
100
AcDbLine
 10
-32.0
 20
-32.00000000000023
 30
0.0
 11
-31.0
 21
-33.00000000000023
 31
0.0
  0
ENDBLK
  5
F716
330
F714
100
AcDbEntity
  8
0
100
AcDbBlockEnd
  0
ENDSEC
  0
SECTION
  2
ENTITIES
  0
LINE
  5
410E
330
1F
100
AcDbEntity
  8
AM_7 中心線
100
AcDbLine
 10
652.2282529999998
 20
1111.615001849646
 30
0.0
 11
652.2282529999998
 21
601.6150018496457
 31
0.0
  0
LINE
  5
4168
330
1F
100
AcDbEntity
  8
AM_0 外形線1
100
AcDbLine
 10
410.2282529999997
 20
834.1150018496456
 30
0.0
 11
410.2282529999997
 21
831.6150018496456
 31
0.0
  0
LINE
  5
4170
330
1F
100
AcDbEntity
  8
AM_0 外形線1
100
AcDbLine
 10
432.2282529999998
 20
834.1150018496456
 30
0.0
 11
432.2282529999998
 21
831.6150018496456
 31
0.0
  0
LINE
  5
417F
330
1F
100
AcDbEntity
  8
AM_0 外形線1
100
AcDbLine
 10
448.7282529999998
 20
797.0606438496457
 30
0.0
 11
449.1054619999998
 21
797.0738158496457
 31
0.0
  0
LINE
  5
418B
330
1F
100
AcDbEntity
  8
AM_0 外形線1
100
AcDbLine
 10
449.1054619999998
 20
816.1561868496457
 30
0.0
 11
448.7282529999998
 21
816.1693598496459
 31
0.0
  0
LINE
  5
4196
330
1F
100
AcDbEntity
  8
AM_0 外形線1
100
AcDbLine
 10
508.9782529999998
 20
842.6150018496455
 30
0.0
 11
652.2282529999998
 21
842.6150018496455
 31
0.0
  0
LINE
  5
41FD
330
1F
100
AcDbEntity
  8
AM_0 外形線1
100
AcDbLine
 10
452.2282529999997
 20
857.6150018496456
 30
0.0
 11
451.2282529999997
 21
856.6150018496456
 31
0.0
  0
INSERT
  5
5B6B
330
1F
100
AcDbEntity
  8
AM_4 細線
100
AcDbBlockReference
  2
ＧＣサイドカバ－B CMVH500
 10
652.2282529999998
 20
1008.615001849646
 30
0.0
  0
INSERT
  5
68ED
102
{ACAD_REACTORS
330
860C
330
8AAE
330
BF8E
102
}
330
1F
100
AcDbEntity
  8
AM_0 外形線1
100
AcDbBlockReference
  2
センタB CMVH500
 10
652.2282529999998
 20
870.6150018496456
 30
0.0
  0
INSERT
  5
69D9
102
{ACAD_REACTORS
330
7D02
102
}
330
1F
100
AcDbEntity
  8
AM_0 外形線1
100
AcDbBlockReference
  2
ケースB CMVH500
 10
652.2282529999998
 20
856.6150018496456
 30
0.0
  0
INSERT
  5
6AFC
330
1F
100
AcDbEntity
  8
AM_0 外形線1
100
AcDbBlockReference
  2
スラストピン CMVH500
 10
652.2282529999998
 20
864.6150018496456
 30
0.0
  0
INSERT
  5
6B5C
330
1F
100
AcDbEntity
  8
AM_0 外形線1
100
AcDbBlockReference
  2
リーマボルト CMVH500 M20
 10
421.2282529999996
 20
831.6150018496456
 30
0.0
  0
INSERT
  5
6BFF
330
1F
100
AcDbEntity
  8
AM_0 外形線1
100
AcDbBlockReference
  2
イタ CMVH500
 10
652.2282529999998
 20
864.6150018496456
 30
0.0
  0
INSERT
  5
6C53
102
{ACAD_XDICTIONARY
360
6F47
102
}
330
1F
100
AcDbEntity
  8
AM_0 外形線1
100
AcDbBlockReference
  2
スラストプレ－ト CMVH500
 10
652.2282529999998
 20
842.6150018496455
 30
0.0
  0
INSERT
  5
6FE4
102
{ACAD_REACTORS
330
7D02
330
7D53
330
86C2
102
}
330
1F
100
AcDbEntity
  8
AM_0 外形線1
100
AcDbBlockReference
  2
ケースＡ CMVH500
 10
652.2282529999998
 20
856.6150018496456
 30
0.0
  0
INSERT
  5
71C4
102
{ACAD_REACTORS
330
7DC0
330
8685
330
8B3D
102
}
330
1F
100
AcDbEntity
  8
AM_0 外形線1
100
AcDbBlockReference
  2
ＧＣサイドカバ－A CMVH500
 10
652.2282529999998
 20
704.6150018496456
 30
0.0
  0
INSERT
  5
72E6
102
{ACAD_REACTORS
330
8649
330
8AAE
330
8ADC
330
8B3D
330
BF8E
330
EFDC
330
F006
330
F3E6
102
}
330
1F
100
AcDbEntity
  8
AM_0 外形線1
100
AcDbBlockReference
  2
センタＡ CMVH500
 10
652.2282529999998
 20
842.6150018496455
 30
0.0
  0
DIMENSION
  5
7CE7
102
{ACAD_XDICTIONARY
360
7CF6
102
}
102
{ACAD_REACTORS
330
7D02
102
}
330
1F
100
AcDbEntity
  8
AM_5 寸法線
100
AcDbDimension
  2
*D20
 10
962.2282529999996
 20
856.6150018496456
 30
0.0
 11
962.2282529999996
 21
917.8150018496459
 31
0.0
 70
   160
 71
     5
 42
25.0
 73
     0
 74
     0
 75
     0
  3
SEISA$0
100
AcDbAlignedDimension
 13
901.2282529999996
 23
881.6150018496456
 33
0.0
 14
901.2282529999996
 24
856.6150018496456
 34
0.0
 50
90.0
100
AcDbRotatedDimension
1001
ACAD_DSTYLE_DIMINSPECT
1070
   396
1000
100%
1070
   395
1000

1070
   394
1070
    33
1070
   393
1070
     0
1001
ACAD
1000
DSTYLE
1002
{
1070
   173
1070
     1
1070
   342
1005
0
1070
   343
1005
69
1070
   344
1005
CDFB
1002
}
  0
DIMENSION
  5
7D38
102
{ACAD_XDICTIONARY
360
7D47
102
}
102
{ACAD_REACTORS
330
7D53
102
}
330
1F
100
AcDbEntity
  8
AM_5 寸法線
100
AcDbDimension
  2
*D21
 10
962.2282529999996
 20
856.6150018496456
 30
0.0
 11
962.2282529999996
 21
795.4150018496457
 31
0.0
 70
   160
 71
     5
 42
25.0
 73
     0
 74
     0
 75
     0
  3
SEISA$0
100
AcDbAlignedDimension
 13
901.2282529999996
 23
831.6150018496456
 33
0.0
 14
901.2282529999996
 24
856.6150018496456
 34
0.0
 50
90.0
100
AcDbRotatedDimension
1001
ACAD_DSTYLE_DIMINSPECT
1070
   396
1000
100%
1070
   395
1000

1070
   394
1070
    33
1070
   393
1070
     0
1001
ACAD
1000
DSTYLE
1002
{
1070
   173
1070
     1
1070
   342
1005
0
1070
   343
1005
69
1070
   344
1005
CDFB
1002
}
  0
DIMENSION
  5
7DA9
102
{ACAD_XDICTIONARY
360
7DB6
102
}
102
{ACAD_REACTORS
330
7DC0
102
}
330
1F
100
AcDbEntity
  8
AM_5 寸法線
100
AcDbDimension
  2
*D22
 10
1002.228253
 20
1039.615001849646
 30
0.0
 11
1002.228253
 21
856.6150018496456
 31
0.0
 70
   160
 71
     5
 42
366.0
 73
     0
 74
     0
 75
     0
  3
SEISA$0
100
AcDbAlignedDimension
 13
864.2282529999997
 23
673.6150018496458
 33
0.0
 14
864.2282529999997
 24
1039.615001849646
 34
0.0
 50
90.0
100
AcDbRotatedDimension
  0
DIMENSION
  5
85F5
102
{ACAD_XDICTIONARY
360
8602
102
}
102
{ACAD_REACTORS
330
860C
102
}
330
1F
100
AcDbEntity
  8
AM_5 寸法線
100
AcDbDimension
  2
*D23
 10
819.7282529999997
 20
1146.615001849646
 30
0.0
 11
652.2282529999998
 21
1146.615001849646
 31
0.0
 70
   160
  1
%%c<>
 71
     5
 42
335.0
 73
     0
 74
     0
 75
     0
  3
SEISA$0
100
AcDbAlignedDimension
 13
484.7282529999997
 23
1050.615001849646
 33
0.0
 14
819.7282529999997
 24
1050.615001849646
 34
0.0
100
AcDbRotatedDimension
1001
ACAD_DSTYLE_DIMINSPECT
1070
   396
1000
100%
1070
   395
1000

1070
   394
1070
    33
1070
   393
1070
     0
  0
DIMENSION
  5
8632
102
{ACAD_XDICTIONARY
360
863F
102
}
102
{ACAD_REACTORS
330
8649
102
}
330
1F
100
AcDbEntity
  8
AM_5 寸法線
100
AcDbDimension
  2
*D24
 10
819.7282529999997
 20
526.6150018496456
 30
0.0
 11
652.2282529999998
 21
526.6150018496456
 31
0.0
 70
   160
  1
%%c<>
 71
     5
 42
335.0
 73
     0
 74
     0
 75
     0
  3
SEISA$0
100
AcDbAlignedDimension
 13
484.7282529999997
 23
662.6150018496457
 33
0.0
 14
819.7282529999997
 24
662.6150018496457
 34
0.0
100
AcDbRotatedDimension
1001
ACAD_DSTYLE_DIMINSPECT
1070
   396
1000
100%
1070
   395
1000

1070
   394
1070
    33
1070
   393
1070
     0
  0
DIMENSION
  5
866E
102
{ACAD_XDICTIONARY
360
867B
102
}
102
{ACAD_REACTORS
330
8685
102
}
330
1F
100
AcDbEntity
  8
AM_5 寸法線
100
AcDbDimension
  2
*D25
 10
864.2282529999997
 20
486.6150018496457
 30
0.0
 11
652.2282529999998
 21
486.6150018496457
 31
0.0
 70
   160
  1
%%c<>
 71
     5
 42
424.0
 73
     0
 74
     0
 75
     0
  3
SEISA$0
100
AcDbAlignedDimension
 13
440.2282529999998
 23
673.6150018496458
 33
0.0
 14
864.2282529999997
 24
673.6150018496458
 34
0.0
100
AcDbRotatedDimension
1001
ACAD_DSTYLE_DIMINSPECT
1070
   396
1000
100%
1070
   395
1000

1070
   394
1070
    33
1070
   393
1070
     0
  0
DIMENSION
  5
86AB
102
{ACAD_XDICTIONARY
360
86B8
102
}
102
{ACAD_REACTORS
330
86C2
102
}
330
1F
100
AcDbEntity
  8
AM_5 寸法線
100
AcDbDimension
  2
*D26
 10
402.2282529999997
 20
446.6150018496456
 30
0.0
 11
652.2282529999998
 21
446.6150018496456
 31
0.0
 70
   160
  1
%%c<>
 71
     5
 42
500.0
 73
     0
 74
     0
 75
     0
  3
SEISA$0
100
AcDbAlignedDimension
 13
902.2282529999996
 23
832.6150018496456
 33
0.0
 14
402.2282529999997
 24
832.6150018496456
 34
0.0
100
AcDbRotatedDimension
1001
ACAD_DSTYLE_DIMINSPECT
1070
   396
1000
100%
1070
   395
1000

1070
   394
1070
    33
1070
   393
1070
     0
  0
DIMENSION
  5
8A7F
330
1F
100
AcDbEntity
  8
AM_5 寸法線
100
AcDbDimension
  2
*D27
 10
612.2282529999997
 20
1106.615001849646
 30
0.0
 11
599.2282529999997
 21
988.615001849646
 31
0.0
 70
    32
 71
     5
 42
236.0000000000001
 73
     0
 74
     0
 75
     0
  3
SEISA$0
100
AcDbAlignedDimension
 13
612.2282529999997
 23
870.6150018496456
 33
0.0
 14
612.2282529999997
 24
1106.615001849646
 34
0.0
 50
90.0
100
AcDbRotatedDimension
  0
DIMENSION
  5
8A93
102
{ACAD_XDICTIONARY
360
8AA2
102
}
102
{ACAD_REACTORS
330
8AAE
102
}
330
1F
100
AcDbEntity
  8
AM_5 寸法線
100
AcDbDimension
  2
*D28
 10
612.2282529999997
 20
842.6150018496455
 30
0.0
 11
612.2282529999994
 21
906.8150018496456
 31
0.0
 70
   160
 71
     5
 42
28.0
 73
     0
 74
     0
 75
     0
  3
SEISA$0
100
AcDbAlignedDimension
 13
652.2282529999998
 23
870.6150018496456
 33
0.0
 14
652.2282529999998
 24
842.6150018496455
 34
0.0
 50
90.0
100
AcDbRotatedDimension
  0
DIMENSION
  5
8AC5
102
{ACAD_XDICTIONARY
360
8AD2
102
}
102
{ACAD_REACTORS
330
8ADC
102
}
330
1F
100
AcDbEntity
  8
AM_5 寸法線
100
AcDbDimension
  2
*D29
 10
612.2282529999998
 20
842.6150018496455
 30
0.0
 11
612.2282529999997
 21
748.0872413459883
 31
0.0
 70
   160
 71
     5
 42
236.0
 73
     0
 74
     0
 75
     0
  3
SEISA$0
100
AcDbAlignedDimension
 13
652.2282529999998
 23
606.6150018496458
 33
0.0
 14
652.2282529999998
 24
842.6150018496455
 34
0.0
 50
90.0
100
AcDbRotatedDimension
  0
DIMENSION
  5
8B22
102
{ACAD_XDICTIONARY
360
8B31
102
}
102
{ACAD_REACTORS
330
8B3D
330
EFDC
102
}
330
1F
100
AcDbEntity
  8
AM_5 寸法線
100
AcDbDimension
  2
*D30
 10
544.2282529999996
 20
711.6150018496456
 30
0.0
 11
544.2282529999994
 21
676.4150018496458
 31
0.0
 70
   160
 71
     5
 42
5.0
 73
     0
 74
     0
 75
     0
  3
SEISA$0
100
AcDbAlignedDimension
 13
472.2282529999997
 23
706.6150018496456
 33
0.0
 14
484.2282529999997
 24
711.6150018496456
 34
0.0
 50
90.0
100
AcDbRotatedDimension
  0
DIMENSION
  5
BF77
102
{ACAD_XDICTIONARY
360
BF84
102
}
102
{ACAD_REACTORS
330
BF8E
102
}
330
1F
100
AcDbEntity
  8
AM_5 寸法線
100
AcDbDimension
  2
*D31
 10
1042.228253
 20
606.6150018496458
 30
0.0
 11
1029.228253
 21
856.6150018496456
 31
0.0
 70
    32
 71
     5
 42
500.0
 73
     0
 74
     0
 75
     0
  3
SEISA$0
100
AcDbAlignedDimension
 13
812.7282529999996
 23
1106.615001849646
 33
0.0
 14
812.7282529999996
 24
606.6150018496458
 34
0.0
 50
90.0
100
AcDbRotatedDimension
  0
MTEXT
  5
EE45
330
1F
100
AcDbEntity
  8
AM_6 文字
100
AcDbMText
 10
948.6329663953737
 20
560.9206196906423
 30
0.0
 40
14.0
 41
275.1548118735609
 46
72.39933079743986
 71
     1
 72
     5
  1
{\W0.6;TYPE:CMV500/CMVH500\PSHAFT DIA:MAX/MIN φ250/φ170}
  7
SEISA
 73
     1
 44
1.0
  0
DIMENSION
  5
EFCE
102
{ACAD_XDICTIONARY
360
EFDB
102
}
102
{ACAD_REACTORS
330
EFDC
102
}
330
1F
100
AcDbEntity
  8
AM_5 寸法線
100
AcDbDimension
  2
*D33
 10
544.2282529999999
 20
774.6150018496456
 30
0.0
 11
531.2282529999994
 21
743.1150018496459
 31
0.0
 70
    32
 71
     5
 42
63.0
 73
     0
 74
     0
 75
     0
  3
SEISA$0
100
AcDbAlignedDimension
 13
484.2282529999997
 23
711.6150018496456
 33
0.0
 14
484.2282529999997
 24
774.6150018496456
 34
0.0
 50
90.00000000000005
100
AcDbRotatedDimension
1001
ACAD_DSTYLE_DIMINSPECT
1070
   396
1000
100%
1070
   395
1000

1070
   394
1070
    33
1070
   393
1070
     0
  0
DIMENSION
  5
EFF8
102
{ACAD_XDICTIONARY
360
F005
102
}
102
{ACAD_REACTORS
330
F006
102
}
330
1F
100
AcDbEntity
  8
AM_5 寸法線
100
AcDbDimension
  2
*D34
 10
544.2282529999999
 20
842.6150018496455
 30
0.0
 11
531.2282529999994
 21
808.6150018496459
 31
0.0
 70
    32
 71
     5
 42
68.0
 73
     0
 74
     0
 75
     0
  3
SEISA$0
100
AcDbAlignedDimension
 13
485.7282529999998
 23
774.6150018496456
 33
0.0
 14
524.3186484161423
 24
842.6150018496455
 34
0.0
 50
90.00000000000005
100
AcDbRotatedDimension
1001
ACAD_DSTYLE_DIMINSPECT
1070
   396
1000
100%
1070
   395
1000

1070
   394
1070
    33
1070
   393
1070
     0
  0
LINE
  5
F059
330
1F
100
AcDbEntity
  8
AM_0 外形線1
100
AcDbLine
 10
699.4082649445496
 20
694.6716258496457
 30
0.0
 11
696.9082649445494
 21
693.2282498496456
 31
0.0
  0
LINE
  5
F05A
330
1F
100
AcDbEntity
  8
AM_0 外形線1
100
AcDbLine
 10
696.9082649445494
 20
699.0017528496456
 30
0.0
 11
699.4082649445496
 21
697.5583768496457
 31
0.0
  0
CIRCLE
  5
F05B
330
1F
100
AcDbEntity
  8
AM_4 細線
100
AcDbCircle
 10
696.9082649445494
 20
696.1150018496456
 30
0.0
 40
4.86397
  0
CIRCLE
  5
F05C
330
1F
100
AcDbEntity
  8
AM_0 外形線1
100
AcDbCircle
 10
696.9082649445494
 20
696.1150018496456
 30
0.0
 40
4.28298
  0
LINE
  5
F05D
330
1F
100
AcDbEntity
  8
AM_7 中心線
100
AcDbLine
 10
707.1046094445494
 20
696.1150018496456
 30
0.0
 11
686.7119204445494
 21
696.1150018496456
 31
0.0
  0
LINE
  5
F05E
330
1F
100
AcDbEntity
  8
AM_7 中心線
100
AcDbLine
 10
696.9082649445494
 20
706.4789883496456
 30
0.0
 11
696.9082649445494
 21
685.7510153496457
 31
0.0
  0
LINE
  5
F05F
330
1F
100
AcDbEntity
  8
AM_0 外形線1
100
AcDbLine
 10
694.4082649445496
 20
697.5583768496457
 30
0.0
 11
696.9082649445494
 21
699.0017528496456
 31
0.0
  0
LINE
  5
F060
330
1F
100
AcDbEntity
  8
AM_0 外形線1
100
AcDbLine
 10
696.9082649445494
 20
693.2282498496456
 30
0.0
 11
694.4082649445496
 21
694.6716258496457
 31
0.0
  0
LINE
  5
F061
330
1F
100
AcDbEntity
  8
AM_0 外形線1
100
AcDbLine
 10
694.4082649445496
 20
694.6716258496457
 30
0.0
 11
694.4082649445496
 21
697.5583768496457
 31
0.0
  0
LINE
  5
F062
330
1F
100
AcDbEntity
  8
AM_0 外形線1
100
AcDbLine
 10
699.4082649445496
 20
694.6716258496457
 30
0.0
 11
699.4082649445496
 21
697.5583768496457
 31
0.0
  0
DIMENSION
  5
F3D6
102
{ACAD_XDICTIONARY
360
F3E5
102
}
102
{ACAD_REACTORS
330
F3E6
102
}
330
1F
100
AcDbEntity
  8
AM_5 寸法線
100
AcDbDimension
  2
*D35
 10
375.8069792225358
 20
606.6150018496458
 30
0.0
 11
362.8069792225357
 21
641.9150018496458
 31
0.0
 70
    32
 71
     5
 42
10.0
 73
     0
 74
     0
 75
     0
  3
SEISA$0
100
AcDbAlignedDimension
 13
441.2282529999997
 23
596.6150018496457
 33
0.0
 14
491.7282529999996
 24
606.6150018496458
 34
0.0
 50
90.00000000000005
100
AcDbRotatedDimension
1001
ACAD_DSTYLE_DIMINSPECT
1070
   396
1000
100%
1070
   395
1000

1070
   394
1070
    33
1070
   393
1070
     0
  0
INSERT
  5
F732
330
1F
100
AcDbEntity
  8
AM_0 外形線1
100
AcDbBlockReference
  2
ＧＣサイドカバ－CMVH500
 10
472.2282529999998
 20
629.615001849646
 30
0.0
  0
ENDSEC
  0
SECTION
  2
OBJECTS
  0
DICTIONARY
  5
C
330
0
100
AcDbDictionary
281
     1
  3
ACAD_COLOR
350
C5
  3
ACAD_GROUP
350
D
  3
ACAD_LAYOUT
350
1A
  3
ACAD_MATERIAL
350
C4
  3
ACAD_MLEADERSTYLE
350
2D5
  3
ACAD_MLINESTYLE
350
17
  3
ACAD_PLOTSETTINGS
350
19
  3
ACAD_PLOTSTYLENAME
350
E
  3
ACAD_SCALELIST
350
2B3
  3
ACAD_TABLESTYLE
350
121
  3
ACAD_VISUALSTYLE
350
27F
  3
ACDB_RECOMPOSE_DATA
350
2F7
  3
AcDbVariableDictionary
350
34
  3
AcmDictionary
350
49
  3
AMG
350
2B
  3
AMGSNAPSETTINGS
350
1DE
  0
DICTIONARY
  5
BF
330
2
100
AcDbDictionary
280
     1
281
     1
  3
ACAD_LAYERFILTERS
360
B5B5
  3
ACAD_LAYERSTATES
360
2782
  3
ACLYDICTIONARY
360
B5B4
  3
AMLAYER_GROUPCOLORS
360
C0
  0
DICTIONARY
  5
29D3
330
10
100
AcDbDictionary
280
     1
281
     1
  3
ADSK_XREC_LAYER_RECONCILED
360
29D4
  0
DICTIONARY
  5
29D5
330
81
100
AcDbDictionary
280
     1
281
     1
  3
ADSK_XREC_LAYER_RECONCILED
360
29D6
  0
DICTIONARY
  5
29DC
330
25C9
100
AcDbDictionary
280
     1
281
     1
  3
ADSK_XREC_LAYER_RECONCILED
360
29DD
  0
DICTIONARY
  5
29DE
330
25CA
100
AcDbDictionary
280
     1
281
     1
  3
ADSK_XREC_LAYER_RECONCILED
360
29DF
  0
DICTIONARY
  5
29E4
330
26B3
100
AcDbDictionary
280
     1
281
     1
  3
ADSK_XREC_LAYER_RECONCILED
360
29E5
  0
DICTIONARY
  5
4D5F
330
4D5E
100
AcDbDictionary
280
     1
281
     1
  0
DICTIONARY
  5
4D61
330
4D60
100
AcDbDictionary
280
     1
281
     1
  0
DICTIONARY
  5
82
330
1F
100
AcDbDictionary
280
     1
281
     1
  3
ACAD_SORTENTS
360
F063
  0
DICTIONARY
  5
6978
330
4A35
100
AcDbDictionary
280
     1
281
     1
  3
ACAD_SORTENTS
360
B94E
  0
DICTIONARY
  5
716F
330
4B33
100
AcDbDictionary
280
     1
281
     1
  3
ACAD_SORTENTS
360
F057
  0
DICTIONARY
  5
5B87
330
4B42
100
AcDbDictionary
280
     1
281
     1
  3
ACAD_SORTENTS
360
B847
  0
DICTIONARY
  5
6863
330
6734
100
AcDbDictionary
280
     1
281
     1
  3
ACAD_SORTENTS
360
B80D
  0
DICTIONARY
  5
6911
330
68CA
100
AcDbDictionary
280
     1
281
     1
  3
ACAD_SORTENTS
360
F23E
  0
DICTIONARY
  5
6A17
330
699C
100
AcDbDictionary
280
     1
281
     1
  3
ACAD_SORTENTS
360
E4A6
  0
DICTIONARY
  5
6AC2
330
6AA7
100
AcDbDictionary
280
     1
281
     1
  3
ACAD_SORTENTS
360
BA6D
  0
DICTIONARY
  5
6B06
330
6AF3
100
AcDbDictionary
280
     1
281
     1
  3
ACAD_SORTENTS
360
BE5C
  0
DICTIONARY
  5
6B8D
330
6B2C
100
AcDbDictionary
280
     1
281
     1
  3
ACAD_SORTENTS
360
F648
  0
DICTIONARY
  5
6C07
330
6BF8
100
AcDbDictionary
280
     1
281
     1
  3
ACAD_SORTENTS
360
6C1B
  0
DICTIONARY
  5
6CA8
330
6C2B
100
AcDbDictionary
280
     1
281
     1
  3
ACAD_SORTENTS
360
BE4A
  0
DICTIONARY
  5
7024
330
6FA5
100
AcDbDictionary
280
     1
281
     1
  3
ACAD_SORTENTS
360
BF75
  0
DICTIONARY
  5
7212
330
7177
100
AcDbDictionary
280
     1
281
     1
  3
ACAD_SORTENTS
360
F6EB
  0
DICTIONARY
  5
7309
330
72C4
100
AcDbDictionary
280
     1
281
     1
  3
ACAD_SORTENTS
360
F1F9
  0
DICTIONARY
  5
6F47
330
6C53
100
AcDbDictionary
280
     1
281
     1
  0
DICTIONARY
  5
7CF6
330
7CE7
100
AcDbDictionary
280
     1
281
     1
  3
ACAD_DIMASSOC
360
7D02
  0
DICTIONARY
  5
7D47
330
7D38
100
AcDbDictionary
280
     1
281
     1
  3
ACAD_DIMASSOC
360
7D53
  0
DICTIONARY
  5
7DB6
330
7DA9
100
AcDbDictionary
280
     1
281
     1
  3
ACAD_DIMASSOC
360
7DC0
  0
DICTIONARY
  5
8602
330
85F5
100
AcDbDictionary
280
     1
281
     1
  3
ACAD_DIMASSOC
360
860C
  0
DICTIONARY
  5
863F
330
8632
100
AcDbDictionary
280
     1
281
     1
  3
ACAD_DIMASSOC
360
8649
  0
DICTIONARY
  5
867B
330
866E
100
AcDbDictionary
280
     1
281
     1
  3
ACAD_DIMASSOC
360
8685
  0
DICTIONARY
  5
86B8
330
86AB
100
AcDbDictionary
280
     1
281
     1
  3
ACAD_DIMASSOC
360
86C2
  0
DICTIONARY
  5
8AA2
330
8A93
100
AcDbDictionary
280
     1
281
     1
  3
ACAD_DIMASSOC
360
8AAE
  0
DICTIONARY
  5
8AD2
330
8AC5
100
AcDbDictionary
280
     1
281
     1
  3
ACAD_DIMASSOC
360
8ADC
  0
DICTIONARY
  5
8B31
330
8B22
100
AcDbDictionary
280
     1
281
     1
  3
ACAD_DIMASSOC
360
8B3D
  0
DICTIONARY
  5
BF84
330
BF77
100
AcDbDictionary
280
     1
281
     1
  3
ACAD_DIMASSOC
360
BF8E
  0
DICTIONARY
  5
EFDB
330
EFCE
100
AcDbDictionary
280
     1
281
     1
  3
ACAD_DIMASSOC
360
EFDC
  0
DICTIONARY
  5
F005
330
EFF8
100
AcDbDictionary
280
     1
281
     1
  3
ACAD_DIMASSOC
360
F006
  0
DICTIONARY
  5
F3E5
330
F3D6
100
AcDbDictionary
280
     1
281
     1
  3
ACAD_DIMASSOC
360
F3E6
  0
DICTIONARY
  5
C5
102
{ACAD_REACTORS
330
C
102
}
330
C
100
AcDbDictionary
281
     1
  0
DICTIONARY
  5
D
102
{ACAD_REACTORS
330
C
102
}
330
C
100
AcDbDictionary
281
     1
  0
DICTIONARY
  5
1A
102
{ACAD_REACTORS
330
C
102
}
330
C
100
AcDbDictionary
281
     1
  3
Model
350
22
  3
レイアウト1
350
1E
  3
レイアウト2
350
26
  0
DICTIONARY
  5
C4
102
{ACAD_REACTORS
330
C
102
}
330
C
100
AcDbDictionary
281
     1
  3
ByBlock
350
27D
  3
ByLayer
350
27C
  3
Global
350
27E
  0
DICTIONARY
  5
2D5
102
{ACAD_REACTORS
330
C
102
}
330
C
100
AcDbDictionary
281
     1
  3
Standard
350
2D6
  0
DICTIONARY
  5
17
102
{ACAD_REACTORS
330
C
102
}
330
C
100
AcDbDictionary
281
     1
  3
Standard
350
18
  0
DICTIONARY
  5
19
102
{ACAD_REACTORS
330
C
102
}
330
C
100
AcDbDictionary
281
     1
  3
SEISA基本
350
1C7E
  0
ACDBDICTIONARYWDFLT
  5
E
102
{ACAD_REACTORS
330
C
102
}
330
C
100
AcDbDictionary
281
     1
  3
Normal
350
F
100
AcDbDictionaryWithDefault
340
F
  0
DICTIONARY
  5
2B3
102
{ACAD_REACTORS
330
C
102
}
330
C
100
AcDbDictionary
281
     1
  3
*A1
350
EE3C
  3
A0
350
2B4
  3
A1
350
2B5
  3
A2
350
2B6
  3
A3
350
2B7
  3
A4
350
2B8
  3
A5
350
2B9
  3
A6
350
2BA
  3
A7
350
2BB
  3
A8
350
2BC
  3
A9
350
2BD
  3
B0
350
2BE
  3
B1
350
2BF
  3
B2
350
2C0
  3
B3
350
2C1
  3
B4
350
2C2
  3
B5
350
2C3
  3
B6
350
2C4
  3
B7
350
2C5
  3
B8
350
2C6
  3
B9
350
2C7
  3
C0
350
2C8
  3
C1
350
2C9
  3
C2
350
2CA
  3
C3
350
2CB
  3
C4
350
2CC
  3
C5
350
2CD
  3
C6
350
2CE
  3
C7
350
2CF
  3
C8
350
2D0
  3
C9
350
2D1
  3
D0
350
2D2
  3
D1
350
2D3
  3
D2
350
2D4
  0
DICTIONARY
  5
121
102
{ACAD_REACTORS
330
C
102
}
330
C
100
AcDbDictionary
281
     1
  3
Standard
350
122
  0
DICTIONARY
  5
27F
102
{ACAD_REACTORS
330
C
102
}
330
C
100
AcDbDictionary
281
     1
  3
2dWireframe
350
285
  3
3D Hidden
350
287
  3
3dWireframe
350
286
  3
Basic
350
284
  3
Brighten
350
28B
  3
ColorChange
350
28F
  3
Conceptual
350
288
  3
Dim
350
28A
  3
Facepattern
350
28E
  3
Flat
350
280
  3
FlatWithEdges
350
281
  3
Gouraud
350
282
  3
GouraudWithEdges
350
283
  3
Linepattern
350
28D
  3
Realistic
350
289
  3
Thicken
350
28C
  0
XRECORD
  5
2F7
102
{ACAD_REACTORS
330
C
102
}
330
C
100
AcDbXrecord
280
     1
 90
        1
330
122
  0
DICTIONARY
  5
34
102
{ACAD_REACTORS
330
C
102
}
330
C
100
AcDbDictionary
281
     1
  3
CANNOSCALE
350
2FA
  3
CMLEADERSTYLE
350
2F8
  3
CTABLESTYLE
350
140
  3
DIMASSOC
350
AC
  3
INDEXCTL
350
35
  3
LAYEREVAL
350
C000
  3
LAYERNOTIFY
350
C001
  3
LIGHTINGUNITS
350
2FB
  3
MSLTSCALE
350
2F9
  0
DICTIONARY
  5
49
102
{ACAD_REACTORS
330
C
102
}
330
C
100
AcDbDictionary
281
     1
  3
AcmBOM
350
161B
  3
AcmStdDictionary
350
4A
  3
AMDTSECTSYM_ARROWCOLOR
350
12B
  0
DICTIONARY
  5
2B
102
{ACAD_REACTORS
330
C
102
}
330
C
100
AcDbDictionary
281
     1
  0
DICTIONARY
  5
1DE
102
{ACAD_REACTORS
330
C
102
}
330
C
100
AcDbDictionary
281
     1
  0
DICTIONARY
  5
B5B5
102
{ACAD_REACTORS
330
BF
102
}
330
BF
100
AcDbDictionary
281
     1
  0
DICTIONARY
  5
2782
102
{ACAD_REACTORS
330
BF
102
}
330
BF
100
AcDbDictionary
281
     1
  0
DICTIONARY
  5
B5B4
102
{ACAD_REACTORS
330
BF
102
}
330
BF
100
AcDbDictionary
281
     1
1001
ACAD
1000
<All
  0
DICTIONARY
  5
C0
102
{ACAD_REACTORS
330
BF
102
}
330
BF
100
AcDbDictionary
280
     1
281
     1
  0
XRECORD
  5
29D4
102
{ACAD_REACTORS
330
29D3
102
}
330
29D3
100
AcDbXrecord
280
     1
290
     1
  0
XRECORD
  5
29D6
102
{ACAD_REACTORS
330
29D5
102
}
330
29D5
100
AcDbXrecord
280
     1
290
     1
  0
XRECORD
  5
29DD
102
{ACAD_REACTORS
330
29DC
102
}
330
29DC
100
AcDbXrecord
280
     1
290
     1
  0
XRECORD
  5
29DF
102
{ACAD_REACTORS
330
29DE
102
}
330
29DE
100
AcDbXrecord
280
     1
290
     1
  0
XRECORD
  5
29E5
102
{ACAD_REACTORS
330
29E4
102
}
330
29E4
100
AcDbXrecord
280
     1
290
     1
  0
SORTENTSTABLE
  5
F063
102
{ACAD_REACTORS
330
82
102
}
330
82
100
AcDbSortentsTable
330
1F
331
69D9
  5
69D9
331
8AC5
  5
8AC5
331
6AFC
  5
6AFC
331
7DA9
  5
7DA9
331
F05A
  5
F05A
331
8A7F
  5
8A7F
331
8A93
  5
8A93
331
7CE7
  5
7CE7
331
6C53
  5
6C53
331
F060
  5
F060
331
417F
  5
417F
331
418B
  5
418B
331
F05B
  5
F05B
331
EFF8
  5
EFF8
331
BF77
  5
BF77
331
7D38
  5
7D38
331
4170
  5
4170
331
6BFF
  5
6BFF
331
85F5
  5
85F5
331
4196
  5
4196
331
F061
  5
F061
331
F05C
  5
F05C
331
6FE4
  5
6FE4
331
410E
  5
410E
331
71C4
  5
71C4
331
68ED
  5
68ED
331
F062
  5
F062
331
8632
  5
8632
331
EFCE
  5
EFCE
331
F05D
  5
F05D
331
41FD
  5
41FD
331
5B6B
  5
5B6B
331
72E6
  5
72E6
331
F05E
  5
F05E
331
4168
  5
4168
331
EE45
  5
EE45
331
86AB
  5
86AB
331
866E
  5
866E
331
F059
  5
F059
331
6B5C
  5
6B5C
331
8B22
  5
8B22
331
F05F
  5
F05F
  0
SORTENTSTABLE
  5
B94E
102
{ACAD_REACTORS
330
6978
102
}
330
6978
100
AcDbSortentsTable
330
4A35
331
6973
  5
B93D
331
B93C
  5
6973
331
696E
  5
B938
331
6976
  5
B940
331
B93F
  5
6976
331
6971
  5
B93B
331
B93A
  5
6971
331
6974
  5
B93E
331
B93D
  5
6974
331
696F
  5
B939
331
6977
  5
B941
331
B938
  5
696F
331
B940
  5
6977
331
B937
  5
696E
331
6972
  5
B93C
331
B93B
  5
6972
331
6975
  5
B93F
331
B93E
  5
6975
331
6970
  5
B93A
331
B939
  5
6970
331
B941
  5
B937
  0
SORTENTSTABLE
  5
F057
102
{ACAD_REACTORS
330
716F
102
}
330
716F
100
AcDbSortentsTable
330
4B33
  0
SORTENTSTABLE
  5
B847
102
{ACAD_REACTORS
330
5B87
102
}
330
5B87
100
AcDbSortentsTable
330
4B42
331
5B83
  5
5B86
331
B82C
  5
5B6F
331
5B82
  5
5B85
331
5B7F
  5
5B82
331
5B81
  5
5B84
331
5B7E
  5
5B81
331
5B80
  5
5B83
331
5B7D
  5
5B80
331
5B7C
  5
5B7F
331
5B7B
  5
5B7E
331
5B7A
  5
5B7D
331
68A6
  5
5B70
331
5B79
  5
5B7C
331
5B78
  5
5B7B
331
5B77
  5
5B7A
331
5B76
  5
5B79
331
5B75
  5
5B78
331
5B74
  5
5B77
331
5B73
  5
5B76
331
5B72
  5
5B75
331
5B71
  5
5B74
331
5B6F
  5
5B72
331
5B70
  5
5B73
331
5B86
  5
B82C
331
682B
  5
5B71
331
5B85
  5
68A6
331
5B84
  5
682B
  0
SORTENTSTABLE
  5
B80D
102
{ACAD_REACTORS
330
6863
102
}
330
6863
100
AcDbSortentsTable
330
6734
  0
SORTENTSTABLE
  5
F23E
102
{ACAD_REACTORS
330
6911
102
}
330
6911
100
AcDbSortentsTable
330
68CA
331
6910
  5
F222
331
68F9
  5
68FB
331
68F8
  5
68FA
331
68FB
  5
68FD
331
68FA
  5
68FC
331
68FD
  5
68FF
331
68FC
  5
68FE
331
68FF
  5
6901
331
68FE
  5
6900
331
6901
  5
6903
331
6900
  5
6902
331
6904
  5
6906
331
6903
  5
6905
331
6906
  5
6908
331
6905
  5
6907
331
6908
  5
690A
331
6907
  5
6909
331
690A
  5
690C
331
6909
  5
690B
331
690C
  5
690E
331
690B
  5
690D
331
690E
  5
6910
331
690D
  5
690F
331
690F
  5
F221
331
68F3
  5
68F7
331
F222
  5
68F2
331
68F2
  5
68F6
331
68F7
  5
68F9
331
68F6
  5
68F8
331
F221
  5
68F1
331
68F1
  5
68F3
331
6902
  5
6904
  0
SORTENTSTABLE
  5
E4A6
102
{ACAD_REACTORS
330
6A17
102
}
330
6A17
100
AcDbSortentsTable
330
699C
331
6A06
  5
6A0C
331
6A12
  5
6A9E
331
6A00
  5
6A09
331
6A0D
  5
6A13
331
69F1
  5
69FD
331
69E4
  5
69ED
331
6A13
  5
6A9F
331
69EB
  5
69F1
331
6A07
  5
6A0D
331
B985
  5
69DD
331
69E5
  5
69EE
331
69F2
  5
69FE
331
B8EF
  5
69E0
331
6A0E
  5
6A14
331
6A14
  5
B8EF
331
B986
  5
69DE
331
6A9D
  5
B987
331
6A08
  5
6A0E
331
69EC
  5
69F2
331
6A0F
  5
6A15
331
69F3
  5
6A00
331
69E6
  5
69EF
331
69FC
  5
6A06
331
6A15
  5
B985
331
B987
  5
69DF
331
6A9E
  5
69E1
331
6A09
  5
6A0F
331
69ED
  5
69F3
331
69E0
  5
69E6
331
69F4
  5
6A04
331
69E7
  5
69F0
331
69E1
  5
69E7
331
69FD
  5
6A07
331
69EE
  5
69F4
331
69DD
  5
69E3
331
6A9F
  5
69E2
331
6A0A
  5
6A10
331
6A16
  5
B986
331
6A04
  5
6A0A
331
6A10
  5
6A16
331
69FE
  5
6A08
331
69E2
  5
69EB
331
6A0B
  5
6A11
331
69EF
  5
69F8
331
69DE
  5
69E4
331
69F8
  5
6A05
331
6A05
  5
6A0B
331
6A11
  5
6A9D
331
69E3
  5
69EC
331
69F0
  5
69FC
331
69DF
  5
69E5
331
6A0C
  5
6A12
  0
SORTENTSTABLE
  5
BA6D
102
{ACAD_REACTORS
330
6AC2
102
}
330
6AC2
100
AcDbSortentsTable
330
6AA7
331
BA5A
  5
6ABC
331
6ABB
  5
BA5B
331
6AC1
  5
BA61
331
BA5F
  5
6AC1
331
BA59
  5
6ABB
331
6ABA
  5
BA5A
331
BA5E
  5
6AC0
331
6ABF
  5
BA5F
331
6AC0
  5
BA60
331
BA58
  5
6ABA
331
6AB9
  5
BA59
331
BA5D
  5
6ABF
331
6ABE
  5
BA5E
331
BA57
  5
6AB9
331
6AB8
  5
BA58
331
BA5C
  5
6ABE
331
6ABD
  5
BA5D
331
BA61
  5
BA57
331
BA56
  5
6AB8
331
BA5B
  5
6ABD
331
6ABC
  5
BA5C
331
BA60
  5
BA56
  0
SORTENTSTABLE
  5
BE5C
102
{ACAD_REACTORS
330
6B06
102
}
330
6B06
100
AcDbSortentsTable
330
6AF3
  0
SORTENTSTABLE
  5
F648
102
{ACAD_REACTORS
330
6B8D
102
}
330
6B8D
100
AcDbSortentsTable
330
6B2C
331
6B6A
  5
6B6B
331
6B81
  5
6B82
331
6B77
  5
6B78
331
6B84
  5
6B85
331
6B6D
  5
6B6E
331
6B63
  5
6B64
331
6B7A
  5
6B7B
331
6B70
  5
6B71
331
6B87
  5
6B88
331
6B89
  5
6B8A
331
6B66
  5
6B67
331
6B7D
  5
6B7E
331
6B73
  5
6B74
331
6B8C
  5
6BF0
331
6B80
  5
6B81
331
6B69
  5
6B6A
331
6B76
  5
6B77
331
6B6C
  5
6B6D
331
6B83
  5
6B84
331
6B62
  5
6B63
331
6B79
  5
6B7A
331
6B86
  5
6B87
331
6B88
  5
6B89
331
6B6F
  5
6B70
331
6B7C
  5
6B7D
331
6B65
  5
6B66
331
6B72
  5
6B73
331
6B8B
  5
6B8C
331
6B68
  5
6B69
331
6B7F
  5
6B80
331
6B75
  5
6B76
331
6B82
  5
6B83
331
6B6B
  5
6B6C
331
6B61
  5
6B62
331
6B78
  5
6B79
331
6B6E
  5
6B6F
331
6B85
  5
6B86
331
6B64
  5
6B65
331
6B7B
  5
6B7C
331
6BF0
  5
BEC5
331
6B8A
  5
6B8B
331
6B71
  5
6B72
331
6B7E
  5
6B7F
331
BEC5
  5
6B61
331
6B67
  5
6B68
331
6B74
  5
6B75
  0
SORTENTSTABLE
  5
6C1B
102
{ACAD_REACTORS
330
6C07
102
}
330
6C07
100
AcDbSortentsTable
330
6BF8
  0
SORTENTSTABLE
  5
BE4A
102
{ACAD_REACTORS
330
6CA8
102
}
330
6CA8
100
AcDbSortentsTable
330
6C2B
331
6C90
  5
6C94
331
6C9C
  5
6CA0
331
6C88
  5
6C8C
331
6F9D
  5
6C86
331
6CA5
  5
6F9B
331
6C91
  5
6C95
331
6C9D
  5
6CA1
331
6C89
  5
6C8D
331
6CA6
  5
6F9C
331
6C92
  5
6C96
331
6C9E
  5
6CA2
331
6C8A
  5
6C8E
331
6CA7
  5
6F9D
331
6C93
  5
6C97
331
6C9F
  5
6CA3
331
6C8B
  5
6C8F
331
6C83
  5
6C87
331
6CA0
  5
6CA4
331
6C94
  5
6C98
331
6C8C
  5
6C90
331
6C98
  5
6C9C
331
6C84
  5
6C88
331
6C95
  5
6C99
331
6CA1
  5
6CA5
331
6C99
  5
6C9D
331
6C8D
  5
6C91
331
6C85
  5
6C89
331
6F9A
  5
6C83
331
6CA2
  5
6CA6
331
6C96
  5
6C9A
331
6C8E
  5
6C92
331
6C9A
  5
6C9E
331
6C86
  5
6C8A
331
6F9B
  5
6C84
331
6C97
  5
6C9B
331
6CA3
  5
6CA7
331
6C8F
  5
6C93
331
6C9B
  5
6C9F
331
6C87
  5
6C8B
331
6F9C
  5
6C85
331
6CA4
  5
6F9A
  0
SORTENTSTABLE
  5
BF75
102
{ACAD_REACTORS
330
7024
102
}
330
7024
100
AcDbSortentsTable
330
6FA5
331
BB8F
  5
6FE8
331
7012
  5
7019
331
6FF6
  5
6FFA
331
701A
  5
701E
331
6FFE
  5
7006
331
6FEF
  5
6FF3
331
70B9
  5
BAAD
331
7006
  5
700E
331
6FF7
  5
6FFB
331
70B2
  5
70B6
331
6FE8
  5
6FEC
331
70BA
  5
BB8F
331
701B
  5
701F
331
6FFF
  5
7008
331
700C
  5
7010
331
6FF0
  5
6FF4
331
6FE9
  5
6FED
331
70B3
  5
70B7
331
6FF8
  5
6FFC
331
7020
  5
70B2
331
70BB
  5
6FEA
331
701C
  5
7020
331
7000
  5
700C
331
700D
  5
7012
331
6FF1
  5
6FF5
331
6FF9
  5
6FFE
331
70B4
  5
70B8
331
6FEA
  5
6FEE
331
7021
  5
70B3
331
70BC
  5
6FEB
331
701D
  5
7021
331
700E
  5
7016
331
6FF2
  5
6FF6
331
6FFA
  5
6FFF
331
6FEB
  5
6FEF
331
70B5
  5
70B9
331
7016
  5
701A
331
7022
  5
70B4
331
701E
  5
7022
331
700F
  5
7017
331
6FF3
  5
6FF7
331
BAAD
  5
6FE9
331
7017
  5
701B
331
7008
  5
700F
331
6FFB
  5
7000
331
70B6
  5
70BA
331
6FEC
  5
6FF0
331
7023
  5
70B5
331
701F
  5
7023
331
7010
  5
7018
331
6FF4
  5
6FF8
331
6FFC
  5
7004
331
6FED
  5
6FF1
331
70B7
  5
70BB
331
7018
  5
701C
331
7004
  5
700D
331
6FF5
  5
6FF9
331
70B8
  5
70BC
331
7019
  5
701D
331
6FEE
  5
6FF2
  0
SORTENTSTABLE
  5
F6EB
102
{ACAD_REACTORS
330
7212
102
}
330
7212
100
AcDbSortentsTable
330
7177
331
71CF
  5
71D0
331
71E2
  5
71E3
331
71F5
  5
71F6
331
7209
  5
720A
331
71D6
  5
71D7
331
71E9
  5
71EA
331
71CA
  5
71CB
331
72B8
  5
72B9
331
71FC
  5
71FD
331
71DD
  5
71DE
331
71F0
  5
71F1
331
7204
  5
7205
331
71D1
  5
71D2
331
7210
  5
7211
331
71E4
  5
71E5
331
71F7
  5
71F8
331
720B
  5
720C
331
71D8
  5
71D9
331
71EB
  5
71EC
331
71CC
  5
71CD
331
72BA
  5
72BB
331
71FE
  5
71FF
331
71DF
  5
71E0
331
71F2
  5
71F3
331
7206
  5
7207
331
71D3
  5
71D4
331
71E6
  5
71E7
331
71F9
  5
71FA
331
720D
  5
720E
331
7201
  5
7202
331
71DA
  5
71DB
331
71ED
  5
71EE
331
71CE
  5
71CF
331
72BC
  5
71C8
331
71E1
  5
71E2
331
71F4
  5
71F5
331
7208
  5
7209
331
71D5
  5
71D6
331
71E8
  5
71E9
331
71C9
  5
71CA
331
71FB
  5
71FC
331
720F
  5
7210
331
71EF
  5
71F0
331
7203
  5
7204
331
71DC
  5
71DD
331
71D0
  5
71D1
331
71E3
  5
71E4
331
71F6
  5
71F7
331
720A
  5
720B
331
71D7
  5
71D8
331
71EA
  5
71EB
331
71CB
  5
71CC
331
71FD
  5
71FE
331
72B9
  5
72BA
331
71DE
  5
71DF
331
71F1
  5
71F2
331
7205
  5
7206
331
71D2
  5
71D3
331
7211
  5
72B8
331
720C
  5
720D
331
71E5
  5
71E6
331
71F8
  5
71F9
331
71D9
  5
71DA
331
71EC
  5
71ED
331
7200
  5
7201
331
71CD
  5
71CE
331
71FF
  5
7200
331
72BB
  5
72BC
331
71E0
  5
71E1
331
71F3
  5
71F4
331
7207
  5
7208
331
71D4
  5
71D5
331
71C8
  5
71C9
331
720E
  5
720F
331
71E7
  5
71E8
331
71FA
  5
71FB
331
71DB
  5
71DC
331
71EE
  5
71EF
331
7202
  5
7203
  0
SORTENTSTABLE
  5
F1F9
102
{ACAD_REACTORS
330
7309
102
}
330
7309
100
AcDbSortentsTable
330
72C4
331
72FC
  5
72FF
331
72EB
  5
72F0
331
7351
  5
EF93
331
72F8
  5
72FB
331
72F4
  5
72F7
331
7305
  5
7308
331
7301
  5
7304
331
72F0
  5
72F3
331
72FD
  5
7300
331
EF93
  5
72EA
331
7352
  5
EF94
331
72F9
  5
72FC
331
72F5
  5
72F8
331
7306
  5
7351
331
72F1
  5
72F4
331
7302
  5
7305
331
BD83
  5
72ED
331
72FE
  5
7301
331
72ED
  5
72F1
331
EF94
  5
72EB
331
72FA
  5
72FD
331
72F6
  5
72F9
331
7307
  5
7352
331
7303
  5
7306
331
72F2
  5
72F5
331
72FF
  5
7302
331
72FB
  5
72FE
331
72EA
  5
72EF
331
7308
  5
BD83
331
72F7
  5
72FA
331
72F3
  5
72F6
331
7304
  5
7307
331
72EF
  5
72F2
331
7300
  5
7303
  0
DIMASSOC
  5
7D02
102
{ACAD_REACTORS
330
7CF6
102
}
330
7CF6
100
AcDbDimAssoc
330
7CE7
 90
        3
 70
     0
 71
     0
  1
AcDbOsnapPointRef
 72
    13
331
69D9
331
69DD
 73
     2
 91
        0
 40
0.0
 10
0.0
 20
0.0
 30
2.000000000000000E+50
 75
     0
  1
AcDbOsnapPointRef
 72
    13
331
6FE4
331
70BC
 73
     2
 91
        0
 40
0.0
 10
0.0
 20
0.0
 30
2.000000000000000E+50
 75
     0
  0
DIMASSOC
  5
7D53
102
{ACAD_REACTORS
330
7D47
102
}
330
7D47
100
AcDbDimAssoc
330
7D38
 90
        1
 70
     0
 71
     0
  1
AcDbOsnapPointRef
 72
     1
331
6FE4
331
70BB
 73
     2
 91
        0
 40
0.9999999999999998
 10
0.0
 20
0.0
 30
2.000000000000000E+50
 75
     0
  0
DIMASSOC
  5
7DC0
102
{ACAD_REACTORS
330
7DB6
102
}
330
7DB6
100
AcDbDimAssoc
330
7DA9
 90
        1
 70
     0
 71
     0
  1
AcDbOsnapPointRef
 72
    13
331
71C4
331
71C8
 73
     2
 91
        0
 40
0.0
 10
0.0
 20
0.0
 30
2.000000000000000E+50
 75
     0
  0
DIMASSOC
  5
860C
102
{ACAD_REACTORS
330
8602
102
}
330
8602
100
AcDbDimAssoc
330
85F5
 90
        3
 70
     0
 71
     0
  1
AcDbOsnapPointRef
 72
    13
331
68ED
331
68FC
 73
     2
 91
        0
 40
0.0
 10
0.0
 20
0.0
 30
2.000000000000000E+50
 75
     0
  1
AcDbOsnapPointRef
 72
    13
331
68ED
331
6903
 73
     2
 91
        0
 40
0.0
 10
0.0
 20
0.0
 30
2.000000000000000E+50
 75
     0
  0
DIMASSOC
  5
8649
102
{ACAD_REACTORS
330
863F
102
}
330
863F
100
AcDbDimAssoc
330
8632
 90
        3
 70
     0
 71
     0
  1
AcDbOsnapPointRef
 72
    13
331
72E6
331
72F0
 73
     2
 91
        0
 40
0.0
 10
0.0
 20
0.0
 30
2.000000000000000E+50
 75
     0
  1
AcDbOsnapPointRef
 72
    13
331
72E6
331
72FB
 73
     2
 91
        0
 40
0.0
 10
0.0
 20
0.0
 30
2.000000000000000E+50
 75
     0
  0
DIMASSOC
  5
8685
102
{ACAD_REACTORS
330
867B
102
}
330
867B
100
AcDbDimAssoc
330
866E
 90
        1
 70
     0
 71
     0
  1
AcDbOsnapPointRef
 72
    13
331
71C4
331
71CE
 73
     2
 91
        0
 40
0.0
 10
0.0
 20
0.0
 30
2.000000000000000E+50
 75
     0
  0
DIMASSOC
  5
86C2
102
{ACAD_REACTORS
330
86B8
102
}
330
86B8
100
AcDbDimAssoc
330
86AB
 90
        3
 70
     0
 71
     0
  1
AcDbOsnapPointRef
 72
    13
331
6FE4
331
70BB
 73
     2
 91
        0
 40
0.0
 10
0.0
 20
0.0
 30
2.000000000000000E+50
 75
     0
  1
AcDbOsnapPointRef
 72
     1
331
6FE4
331
6FEE
 73
     2
 91
        0
 40
1.0
 10
0.0
 20
0.0
 30
2.000000000000000E+50
 75
     0
  0
DIMASSOC
  5
8AAE
102
{ACAD_REACTORS
330
8AA2
102
}
330
8AA2
100
AcDbDimAssoc
330
8A93
 90
        3
 70
     0
 71
     0
  1
AcDbOsnapPointRef
 72
     1
331
68ED
331
6904
 73
     2
 91
        0
 40
1.0
 10
0.0
 20
0.0
 30
2.000000000000000E+50
 75
     0
  1
AcDbOsnapPointRef
 72
     1
331
72E6
331
7352
 73
     2
 91
        0
 40
1.0
 10
0.0
 20
0.0
 30
2.000000000000000E+50
 75
     0
  0
DIMASSOC
  5
8ADC
102
{ACAD_REACTORS
330
8AD2
102
}
330
8AD2
100
AcDbDimAssoc
330
8AC5
 90
        1
 70
     0
 71
     0
  1
AcDbOsnapPointRef
 72
     2
331
72E6
331
72F9
 73
     2
 91
        0
 40
0.5
 10
0.0
 20
0.0
 30
0.0
 75
     0
  0
DIMASSOC
  5
8B3D
102
{ACAD_REACTORS
330
8B31
102
}
330
8B31
100
AcDbDimAssoc
330
8B22
 90
        3
 70
     0
 71
     0
  1
AcDbOsnapPointRef
 72
     1
331
71C4
331
71E9
 73
     2
 91
        0
 40
1.0
 10
0.0
 20
0.0
 30
2.000000000000000E+50
 75
     0
  1
AcDbOsnapPointRef
 72
    13
331
72E6
331
72F3
 73
     2
 91
        0
 40
0.0
 10
0.0
 20
0.0
 30
2.000000000000000E+50
 75
     0
  0
DIMASSOC
  5
BF8E
102
{ACAD_REACTORS
330
BF84
102
}
330
BF84
100
AcDbDimAssoc
330
BF77
 90
        3
 70
     0
 71
     0
  1
AcDbOsnapPointRef
 72
    13
331
68ED
331
690E
 73
     2
 91
        0
 40
0.0
 10
0.0
 20
0.0
 30
2.000000000000000E+50
 75
     0
  1
AcDbOsnapPointRef
 72
    13
331
72E6
331
72F9
 73
     2
 91
        0
 40
0.0
 10
0.0
 20
0.0
 30
2.000000000000000E+50
 75
     0
  0
DIMASSOC
  5
EFDC
102
{ACAD_REACTORS
330
EFDB
102
}
330
EFDB
100
AcDbDimAssoc
330
EFCE
 90
        2
 70
     0
 71
     0
  1
AcDbOsnapPointRef
 72
     8
331
72E6
331
72F7
 73
     0
 91
        0
 40
0.9065978471301892
 10
0.0
 20
0.0
 30
0.0
 75
     1
  1
AcDbOsnapPointRef
 72
     4
331
8B22
 73
     0
 91
        0
 40
0.0
 10
0.0
 20
0.0
 30
0.0
 75
     0
  0
DIMASSOC
  5
F006
102
{ACAD_REACTORS
330
F005
102
}
330
F005
100
AcDbDimAssoc
330
EFF8
 90
        1
 70
     0
 71
     0
  1
AcDbOsnapPointRef
 72
    13
331
72E6
331
72F6
 73
     0
 91
        0
 40
0.0
 10
0.0
 20
0.0
 30
2.000000000000000E+50
 75
     0
  0
DIMASSOC
  5
F3E6
102
{ACAD_REACTORS
330
F3E5
102
}
330
F3E5
100
AcDbDimAssoc
330
F3D6
 90
        2
 70
     0
 71
     0
  1
AcDbOsnapPointRef
 72
     1
331
72E6
331
72EB
 73
     0
 91
        0
 40
0.0
 10
0.0
 20
0.0
 30
2.000000000000000E+50
 75
     0
  0
LAYOUT
  5
22
102
{ACAD_REACTORS
330
1A
102
}
330
1A
100
AcDbPlotSettings
  1

  2
KONICA MINOLTA 501 PCL
  4
A4
  6

 40
5.027082920074462
 41
5.027085781097412
 42
5.027069091796875
 43
5.027069091796875
 44
209.9733276367186
 45
296.9259948730469
 46
0.0
 47
53.1058225539671
 48
40.00000000000039
 49
39.99999751479926
140
2335.99999909132
141
1640.0
142
1.0
143
4.001437006873988
 70
 11956
 72
     1
 73
     0
 74
     1
  7
SEISA.ctb
 75
     0
147
0.2499102193242378
 76
     0
 77
     2
 78
   300
148
-355.7691708941793
149
-443.8147016938483
100
AcDbLayout
  1
Model
 70
     1
 71
     0
 10
0.0
 20
0.0
 11
12.0
 21
9.0
 12
0.0
 22
0.0
 32
0.0
 14
0.0
 24
0.0
 34
0.0
 15
0.0
 25
0.0
 35
0.0
146
0.0
 13
0.0
 23
0.0
 33
0.0
 16
1.0
 26
0.0
 36
0.0
 17
0.0
 27
1.0
 37
0.0
 76
     0
330
1F
331
27A
1001
ACAD_PSEXT
1000
KONICA MINOLTA 501 PCL
1000
KONICA MINOLTA 501/421/361PCL
1000
IP_192.168.20.231_(1)
1000

1070
     0
  0
LAYOUT
  5
1E
102
{ACAD_REACTORS
330
1A
102
}
330
1A
100
AcDbPlotSettings
  1

  2
none_device
  4
Letter_(8.50_x_11.00_Inches)
  6

 40
6.349999904632567
 41
6.349999904632567
 42
6.350006103515625
 43
6.350006103515625
 44
215.8999938964844
 45
279.3999938964844
 46
0.0
 47
0.0
 48
0.0
 49
0.0
140
0.0
141
0.0
142
1.0
143
1.0
 70
 15024
 72
     1
 73
     1
 74
     5
  7
SEISA.ctb
 75
    16
147
1.0
 76
     0
 77
     2
 78
   300
148
0.0
149
0.0
100
AcDbLayout
  1
レイアウト1
 70
     1
 71
     1
 10
0.0
 20
0.0
 11
420.0
 21
297.0
 12
0.0
 22
0.0
 32
0.0
 14
1.000000000000000E+20
 24
1.000000000000000E+20
 34
1.000000000000000E+20
 15
-1.000000000000000E+20
 25
-1.000000000000000E+20
 35
-1.000000000000000E+20
146
0.0
 13
0.0
 23
0.0
 33
0.0
 16
1.0
 26
0.0
 36
0.0
 17
0.0
 27
1.0
 37
0.0
 76
     0
330
1B
  0
LAYOUT
  5
26
102
{ACAD_REACTORS
330
1A
102
}
330
1A
100
AcDbPlotSettings
  1

  2
none_device
  4
Letter_(8.50_x_11.00_Inches)
  6

 40
6.349999904632567
 41
6.349999904632567
 42
6.350006103515625
 43
6.350006103515625
 44
215.8999938964844
 45
279.3999938964844
 46
0.0
 47
0.0
 48
0.0
 49
0.0
140
0.0
141
0.0
142
1.0
143
1.0
 70
 15024
 72
     1
 73
     1
 74
     5
  7
SEISA.ctb
 75
    16
147
1.0
 76
     0
 77
     2
 78
   300
148
0.0
149
0.0
100
AcDbLayout
  1
レイアウト2
 70
     1
 71
     2
 10
0.0
 20
0.0
 11
12.0
 21
9.0
 12
0.0
 22
0.0
 32
0.0
 14
0.0
 24
0.0
 34
0.0
 15
0.0
 25
0.0
 35
0.0
146
0.0
 13
0.0
 23
0.0
 33
0.0
 16
1.0
 26
0.0
 36
0.0
 17
0.0
 27
1.0
 37
0.0
 76
     0
330
23
  0
MATERIAL
  5
27D
102
{ACAD_REACTORS
330
C4
102
}
330
C4
100
AcDbMaterial
  1
ByBlock
 73
     1
 78
     1
172
     1
176
     1
270
     1
274
     1
 94
       63
  0
MATERIAL
  5
27C
102
{ACAD_REACTORS
330
C4
102
}
330
C4
100
AcDbMaterial
  1
ByLayer
 73
     1
 78
     1
172
     1
176
     1
270
     1
274
     1
 94
       63
  0
MATERIAL
  5
27E
102
{ACAD_REACTORS
330
C4
102
}
330
C4
100
AcDbMaterial
  1
Global
 73
     1
 78
     1
172
     1
176
     1
270
     1
274
     1
 94
       63
  0
MLEADERSTYLE
  5
2D6
102
{ACAD_REACTORS
330
2D5
102
}
330
2D5
100
AcDbMLeaderStyle
170
     2
171
     1
172
     0
 90
        2
 40
0.0
 41
0.0
173
     1
 91
-1056964608
340
14
 92
       -2
290
     1
 42
2.0
291
     1
 43
0.36
  3
Standard
 44
4.0
300

342
11
174
     1
178
     6
175
     1
176
     0
 93
-1056964608
 45
4.0
292
     0
297
     0
 46
4.0
 94
-1056964608
 47
1.0
 49
1.0
140
1.0
293
     1
141
0.0
294
     1
177
     0
142
1.0
295
     0
296
     0
143
0.125
1001
ACAD_MLEADERVER
1070
     2
  0
MLINESTYLE
  5
18
102
{ACAD_REACTORS
330
17
102
}
330
17
100
AcDbMlineStyle
  2
STANDARD
 70
     0
  3

 62
   256
 51
90.0
 52
90.0
 71
     2
 49
0.5
 62
   256
  6
BYLAYER
 49
-0.5
 62
   256
  6
BYLAYER
  0
PLOTSETTINGS
  5
1C7E
102
{ACAD_REACTORS
330
19
102
}
330
19
100
AcDbPlotSettings
  1
SEISA基本
  2
none_device
  4
Letter_(8.50_x_11.00_Inches)
  6

 40
6.349999904632567
 41
6.349999904632567
 42
6.350006103515625
 43
6.350006103515625
 44
215.8999938964844
 45
279.3999938964844
 46
7.302498226506357
 47
0.0
 48
0.0
 49
0.0
140
0.0
141
0.0
142
1.0
143
1.574803221122935
 70
 11956
 72
     1
 73
     1
 74
     2
  7
SEISA.ctb
 75
     0
147
0.6349999711627054
 76
     0
 77
     2
 78
   300
148
0.0
149
0.0
1001
ACAD_PSEXT
1000
なし
1000
なし
1000
適切ではありません
1000
新しいプロッタ環境設定名を選択しない限り、レイアウトは印刷されません。
1070
     0
  0
ACDBPLACEHOLDER
  5
F
102
{ACAD_REACTORS
330
E
102
}
330
E
  0
SCALE
  5
EE3C
102
{ACAD_REACTORS
330
2B3
102
}
330
2B3
100
AcDbScale
 70
     0
300
1:1.5
140
1.0
141
1.5
290
     0
  0
SCALE
  5
2B4
102
{ACAD_REACTORS
330
2B3
102
}
330
2B3
100
AcDbScale
 70
     0
300
1:1
140
1.0
141
1.0
290
     1
  0
SCALE
  5
2B5
102
{ACAD_REACTORS
330
2B3
102
}
330
2B3
100
AcDbScale
 70
     0
300
1:2
140
1.0
141
2.0
290
     0
  0
SCALE
  5
2B6
102
{ACAD_REACTORS
330
2B3
102
}
330
2B3
100
AcDbScale
 70
     0
300
1:4
140
1.0
141
4.0
290
     0
  0
SCALE
  5
2B7
102
{ACAD_REACTORS
330
2B3
102
}
330
2B3
100
AcDbScale
 70
     0
300
1:5
140
1.0
141
5.0
290
     0
  0
SCALE
  5
2B8
102
{ACAD_REACTORS
330
2B3
102
}
330
2B3
100
AcDbScale
 70
     0
300
1:8
140
1.0
141
8.0
290
     0
  0
SCALE
  5
2B9
102
{ACAD_REACTORS
330
2B3
102
}
330
2B3
100
AcDbScale
 70
     0
300
1:10
140
1.0
141
10.0
290
     0
  0
SCALE
  5
2BA
102
{ACAD_REACTORS
330
2B3
102
}
330
2B3
100
AcDbScale
 70
     0
300
1:16
140
1.0
141
16.0
290
     0
  0
SCALE
  5
2BB
102
{ACAD_REACTORS
330
2B3
102
}
330
2B3
100
AcDbScale
 70
     0
300
1:20
140
1.0
141
20.0
290
     0
  0
SCALE
  5
2BC
102
{ACAD_REACTORS
330
2B3
102
}
330
2B3
100
AcDbScale
 70
     0
300
1:30
140
1.0
141
30.0
290
     0
  0
SCALE
  5
2BD
102
{ACAD_REACTORS
330
2B3
102
}
330
2B3
100
AcDbScale
 70
     0
300
1:40
140
1.0
141
40.0
290
     0
  0
SCALE
  5
2BE
102
{ACAD_REACTORS
330
2B3
102
}
330
2B3
100
AcDbScale
 70
     0
300
1:50
140
1.0
141
50.0
290
     0
  0
SCALE
  5
2BF
102
{ACAD_REACTORS
330
2B3
102
}
330
2B3
100
AcDbScale
 70
     0
300
1:100
140
1.0
141
100.0
290
     0
  0
SCALE
  5
2C0
102
{ACAD_REACTORS
330
2B3
102
}
330
2B3
100
AcDbScale
 70
     0
300
2:1
140
2.0
141
1.0
290
     0
  0
SCALE
  5
2C1
102
{ACAD_REACTORS
330
2B3
102
}
330
2B3
100
AcDbScale
 70
     0
300
4:1
140
4.0
141
1.0
290
     0
  0
SCALE
  5
2C2
102
{ACAD_REACTORS
330
2B3
102
}
330
2B3
100
AcDbScale
 70
     0
300
8:1
140
8.0
141
1.0
290
     0
  0
SCALE
  5
2C3
102
{ACAD_REACTORS
330
2B3
102
}
330
2B3
100
AcDbScale
 70
     0
300
10:1
140
10.0
141
1.0
290
     0
  0
SCALE
  5
2C4
102
{ACAD_REACTORS
330
2B3
102
}
330
2B3
100
AcDbScale
 70
     0
300
100:1
140
100.0
141
1.0
290
     0
  0
SCALE
  5
2C5
102
{ACAD_REACTORS
330
2B3
102
}
330
2B3
100
AcDbScale
 70
     0
300
1/128" = 1'-0"
140
0.0078125
141
12.0
290
     0
  0
SCALE
  5
2C6
102
{ACAD_REACTORS
330
2B3
102
}
330
2B3
100
AcDbScale
 70
     0
300
1/64" = 1'-0"
140
0.015625
141
12.0
290
     0
  0
SCALE
  5
2C7
102
{ACAD_REACTORS
330
2B3
102
}
330
2B3
100
AcDbScale
 70
     0
300
1/32" = 1'-0"
140
0.03125
141
12.0
290
     0
  0
SCALE
  5
2C8
102
{ACAD_REACTORS
330
2B3
102
}
330
2B3
100
AcDbScale
 70
     0
300
1/16" = 1'-0"
140
0.0625
141
12.0
290
     0
  0
SCALE
  5
2C9
102
{ACAD_REACTORS
330
2B3
102
}
330
2B3
100
AcDbScale
 70
     0
300
3/32" = 1'-0"
140
0.09375
141
12.0
290
     0
  0
SCALE
  5
2CA
102
{ACAD_REACTORS
330
2B3
102
}
330
2B3
100
AcDbScale
 70
     0
300
1/8" = 1'-0"
140
0.125
141
12.0
290
     0
  0
SCALE
  5
2CB
102
{ACAD_REACTORS
330
2B3
102
}
330
2B3
100
AcDbScale
 70
     0
300
3/16" = 1'-0"
140
0.1875
141
12.0
290
     0
  0
SCALE
  5
2CC
102
{ACAD_REACTORS
330
2B3
102
}
330
2B3
100
AcDbScale
 70
     0
300
1/4" = 1'-0"
140
0.25
141
12.0
290
     0
  0
SCALE
  5
2CD
102
{ACAD_REACTORS
330
2B3
102
}
330
2B3
100
AcDbScale
 70
     0
300
3/8" = 1'-0"
140
0.375
141
12.0
290
     0
  0
SCALE
  5
2CE
102
{ACAD_REACTORS
330
2B3
102
}
330
2B3
100
AcDbScale
 70
     0
300
1/2" = 1'-0"
140
0.5
141
12.0
290
     0
  0
SCALE
  5
2CF
102
{ACAD_REACTORS
330
2B3
102
}
330
2B3
100
AcDbScale
 70
     0
300
3/4" = 1'-0"
140
0.75
141
12.0
290
     0
  0
SCALE
  5
2D0
102
{ACAD_REACTORS
330
2B3
102
}
330
2B3
100
AcDbScale
 70
     0
300
1" = 1'-0"
140
1.0
141
12.0
290
     0
  0
SCALE
  5
2D1
102
{ACAD_REACTORS
330
2B3
102
}
330
2B3
100
AcDbScale
 70
     0
300
1-1/2" = 1'-0"
140
1.5
141
12.0
290
     0
  0
SCALE
  5
2D2
102
{ACAD_REACTORS
330
2B3
102
}
330
2B3
100
AcDbScale
 70
     0
300
3" = 1'-0"
140
3.0
141
12.0
290
     0
  0
SCALE
  5
2D3
102
{ACAD_REACTORS
330
2B3
102
}
330
2B3
100
AcDbScale
 70
     0
300
6" = 1'-0"
140
6.0
141
12.0
290
     0
  0
SCALE
  5
2D4
102
{ACAD_REACTORS
330
2B3
102
}
330
2B3
100
AcDbScale
 70
     0
300
1'-0" = 1'-0"
140
12.0
141
12.0
290
     0
  0
TABLESTYLE
  5
122
102
{ACAD_XDICTIONARY
360
2F5
102
}
102
{ACAD_REACTORS
330
121
102
}
330
121
100
AcDbTableStyle
  3
Standard
 70
     0
 71
     0
 40
1.5
 41
1.5
280
     0
281
     0
  7
STANDARD
140
4.5
170
     2
 62
     0
 63
     7
283
     0
 90
      512
 91
        0
  1

274
    -2
284
     1
 64
     0
275
    -2
285
     1
 65
     0
276
    -2
286
     1
 66
     0
277
    -2
287
     1
 67
     0
278
    -2
288
     1
 68
     0
279
    -2
289
     1
 69
     0
  7
STANDARD
140
6.0
170
     5
 62
     0
 63
     7
283
     0
 90
      512
 91
        0
  1

274
    -2
284
     1
 64
     0
275
    -2
285
     1
 65
     0
276
    -2
286
     1
 66
     0
277
    -2
287
     1
 67
     0
278
    -2
288
     1
 68
     0
279
    -2
289
     1
 69
     0
  7
STANDARD
140
4.5
170
     5
 62
     0
 63
     7
283
     0
 90
      512
 91
        0
  1

274
    -2
284
     1
 64
     0
275
    -2
285
     1
 65
     0
276
    -2
286
     1
 66
     0
277
    -2
287
     1
 67
     0
278
    -2
288
     1
 68
     0
279
    -2
289
     1
 69
     0
  0
VISUALSTYLE
  5
285
102
{ACAD_REACTORS
330
27F
102
}
330
27F
100
AcDbVisualStyle
  2
2dWireframe
 70
     4
 71
     0
 72
     2
 73
     0
 90
        0
 40
-0.6
 41
-30.0
 62
     5
 63
     7
421
 16777215
 74
     1
 91
        4
 64
     7
 65
   257
 75
     1
175
     1
 42
1.0
 92
        0
 66
   257
 43
1.0
 76
     1
 77
     6
 78
     2
 67
     7
 79
     5
170
     0
171
     0
290
     0
174
     0
 93
        1
 44
0.0
173
     0
291
     0
 45
0.0
  0
VISUALSTYLE
  5
287
102
{ACAD_REACTORS
330
27F
102
}
330
27F
100
AcDbVisualStyle
  2
3D Hidden
 70
     6
 71
     1
 72
     2
 73
     2
 90
        0
 40
-0.6
 41
-30.0
 62
     5
 63
     7
421
 16777215
 74
     2
 91
        2
 64
     7
 65
   257
 75
     2
175
     1
 42
40.0
 92
        0
 66
   257
 43
1.0
 76
     1
 77
     6
 78
     2
 67
     7
 79
     3
170
     0
171
     0
290
     0
174
     0
 93
        1
 44
0.0
173
     0
291
     0
 45
0.0
  0
VISUALSTYLE
  5
286
102
{ACAD_REACTORS
330
27F
102
}
330
27F
100
AcDbVisualStyle
  2
3dWireframe
 70
     5
 71
     0
 72
     2
 73
     0
 90
        0
 40
-0.6
 41
-30.0
 62
     5
 63
     7
421
 16777215
 74
     1
 91
        4
 64
     7
 65
   257
 75
     1
175
     1
 42
1.0
 92
        0
 66
   257
 43
1.0
 76
     1
 77
     6
 78
     2
 67
     7
 79
     5
170
     0
171
     0
290
     0
174
     0
 93
        1
 44
0.0
173
     0
291
     0
 45
0.0
  0
VISUALSTYLE
  5
284
102
{ACAD_REACTORS
330
27F
102
}
330
27F
100
AcDbVisualStyle
  2
Basic
 70
     7
 71
     1
 72
     0
 73
     1
 90
        0
 40
-0.6
 41
-30.0
 62
     5
 63
     7
421
 16777215
 74
     0
 91
        4
 64
     7
 65
   257
 75
     1
175
     1
 42
1.0
 92
        8
 66
     7
 43
1.0
 76
     1
 77
     6
 78
     2
 67
     7
 79
     5
170
     0
171
     0
290
     0
174
     0
 93
        1
 44
0.0
173
     0
291
     1
 45
0.0
  0
VISUALSTYLE
  5
28B
102
{ACAD_REACTORS
330
27F
102
}
330
27F
100
AcDbVisualStyle
  2
Brighten
 70
    12
 71
     2
 72
     2
 73
     0
 90
        0
 40
-0.6
 41
-30.0
 62
     5
 63
     7
421
 16777215
 74
     1
 91
        4
 64
     7
 65
   257
 75
     1
175
     1
 42
1.0
 92
        8
 66
     7
 43
1.0
 76
     1
 77
     6
 78
     2
 67
     7
 79
     5
170
     0
171
     0
290
     0
174
     0
 93
        1
 44
50.0
173
     0
291
     1
 45
0.0
  0
VISUALSTYLE
  5
28F
102
{ACAD_REACTORS
330
27F
102
}
330
27F
100
AcDbVisualStyle
  2
ColorChange
 70
    16
 71
     2
 72
     2
 73
     3
 90
        0
 40
-0.6
 41
-30.0
 62
     5
 63
     8
421
  8421504
 74
     1
 91
        4
 64
     7
 65
   257
 75
     1
175
     1
 42
1.0
 92
        8
 66
     8
424
  8421504
 43
1.0
 76
     1
 77
     6
 78
     2
 67
     7
 79
     5
170
     0
171
     0
290
     0
174
     0
 93
        1
 44
0.0
173
     0
291
     1
 45
0.0
  0
VISUALSTYLE
  5
288
102
{ACAD_REACTORS
330
27F
102
}
330
27F
100
AcDbVisualStyle
  2
Conceptual
 70
     9
 71
     3
 72
     2
 73
     0
 90
        0
 40
-0.6
 41
-30.0
 62
     5
 63
     7
421
 16777215
 74
     2
 91
        2
 64
     7
 65
   257
 75
     1
175
     1
 42
40.0
 92
        8
 66
     7
 43
1.0
 76
     1
 77
     6
 78
     2
 67
     7
 79
     3
170
     0
171
     0
290
     0
174
     0
 93
        1
 44
0.0
173
     0
291
     0
 45
0.0
  0
VISUALSTYLE
  5
28A
102
{ACAD_REACTORS
330
27F
102
}
330
27F
100
AcDbVisualStyle
  2
Dim
 70
    11
 71
     2
 72
     2
 73
     0
 90
        0
 40
-0.6
 41
-30.0
 62
     5
 63
     7
421
 16777215
 74
     1
 91
        4
 64
     7
 65
   257
 75
     1
175
     1
 42
1.0
 92
        8
 66
     7
 43
1.0
 76
     1
 77
     6
 78
     2
 67
     7
 79
     5
170
     0
171
     0
290
     0
174
     0
 93
        1
 44
-50.0
173
     0
291
     1
 45
0.0
  0
VISUALSTYLE
  5
28E
102
{ACAD_REACTORS
330
27F
102
}
330
27F
100
AcDbVisualStyle
  2
Facepattern
 70
    15
 71
     2
 72
     2
 73
     0
 90
        0
 40
-0.6
 41
-30.0
 62
     5
 63
     7
421
 16777215
 74
     1
 91
        4
 64
     7
 65
   257
 75
     1
175
     1
 42
1.0
 92
        8
 66
     7
 43
1.0
 76
     1
 77
     6
 78
     2
 67
     7
 79
     5
170
     0
171
     0
290
     0
174
     0
 93
        1
 44
0.0
173
     0
291
     1
 45
0.0
  0
VISUALSTYLE
  5
280
102
{ACAD_REACTORS
330
27F
102
}
330
27F
100
AcDbVisualStyle
  2
Flat
 70
     0
 71
     2
 72
     1
 73
     1
 90
        2
 40
-0.6
 41
30.0
 62
     5
 63
     7
421
 16777215
 74
     0
 91
        4
 64
     7
 65
   257
 75
     1
175
     1
 42
1.0
 92
        8
 66
     7
 43
1.0
 76
     1
 77
     6
 78
     2
 67
     7
 79
     5
170
     0
171
     0
290
     0
174
     0
 93
       13
 44
0.0
173
     0
291
     1
 45
0.0
  0
VISUALSTYLE
  5
281
102
{ACAD_REACTORS
330
27F
102
}
330
27F
100
AcDbVisualStyle
  2
FlatWithEdges
 70
     1
 71
     2
 72
     1
 73
     1
 90
        2
 40
-0.6
 41
30.0
 62
     5
 63
     7
421
 16777215
 74
     1
 91
        4
 64
     7
 65
   257
 75
     1
175
     1
 42
1.0
 92
        0
 66
   257
 43
1.0
 76
     1
 77
     6
 78
     2
 67
     7
 79
     5
170
     0
171
     0
290
     0
174
     0
 93
       13
 44
0.0
173
     0
291
     1
 45
0.0
  0
VISUALSTYLE
  5
282
102
{ACAD_REACTORS
330
27F
102
}
330
27F
100
AcDbVisualStyle
  2
Gouraud
 70
     2
 71
     2
 72
     2
 73
     1
 90
        2
 40
-0.6
 41
30.0
 62
     5
 63
     7
421
 16777215
 74
     0
 91
        4
 64
     7
 65
   257
 75
     1
175
     1
 42
1.0
 92
        0
 66
     7
 43
1.0
 76
     1
 77
     6
 78
     2
 67
     7
 79
     5
170
     0
171
     0
290
     0
174
     0
 93
       13
 44
0.0
173
     0
291
     1
 45
0.0
  0
VISUALSTYLE
  5
283
102
{ACAD_REACTORS
330
27F
102
}
330
27F
100
AcDbVisualStyle
  2
GouraudWithEdges
 70
     3
 71
     2
 72
     2
 73
     1
 90
        2
 40
-0.6
 41
30.0
 62
     5
 63
     7
421
 16777215
 74
     1
 91
        4
 64
     7
 65
   257
 75
     1
175
     1
 42
1.0
 92
        0
 66
   257
 43
1.0
 76
     1
 77
     6
 78
     2
 67
     7
 79
     5
170
     0
171
     0
290
     0
174
     0
 93
       13
 44
0.0
173
     0
291
     1
 45
0.0
  0
VISUALSTYLE
  5
28D
102
{ACAD_REACTORS
330
27F
102
}
330
27F
100
AcDbVisualStyle
  2
Linepattern
 70
    14
 71
     2
 72
     2
 73
     0
 90
        0
 40
-0.6
 41
-30.0
 62
     5
 63
     7
421
 16777215
 74
     1
 91
        4
 64
     7
 65
   257
 75
     7
175
     7
 42
1.0
 92
        8
 66
     7
 43
1.0
 76
     1
 77
     6
 78
     2
 67
     7
 79
     5
170
     0
171
     0
290
     0
174
     0
 93
        1
 44
0.0
173
     0
291
     1
 45
0.0
  0
VISUALSTYLE
  5
289
102
{ACAD_REACTORS
330
27F
102
}
330
27F
100
AcDbVisualStyle
  2
Realistic
 70
     8
 71
     2
 72
     2
 73
     0
 90
        0
 40
-0.6
 41
-30.0
 62
     5
 63
     7
421
 16777215
 74
     1
 91
        0
 64
     7
 65
   257
 75
     1
175
     1
 42
1.0
 92
        8
 66
     8
424
  7895160
 43
1.0
 76
     1
 77
     6
 78
     2
 67
     7
 79
     5
170
     0
171
     0
290
     0
174
     0
 93
       13
 44
0.0
173
     0
291
     0
 45
0.0
  0
VISUALSTYLE
  5
28C
102
{ACAD_REACTORS
330
27F
102
}
330
27F
100
AcDbVisualStyle
  2
Thicken
 70
    13
 71
     2
 72
     2
 73
     0
 90
        0
 40
-0.6
 41
-30.0
 62
     5
 63
     7
421
 16777215
 74
     1
 91
        4
 64
     7
 65
   257
 75
     1
175
     1
 42
1.0
 92
       12
 66
     7
 43
1.0
 76
     1
 77
     6
 78
     2
 67
     7
 79
     5
170
     0
171
     0
290
     0
174
     0
 93
        1
 44
0.0
173
     0
291
     1
 45
0.0
  0
DICTIONARYVAR
  5
2FA
102
{ACAD_REACTORS
330
34
102
}
330
34
100
DictionaryVariables
280
     0
  1
1:4
  0
DICTIONARYVAR
  5
2F8
102
{ACAD_REACTORS
330
34
102
}
330
34
100
DictionaryVariables
280
     0
  1
STANDARD
  0
DICTIONARYVAR
  5
140
102
{ACAD_REACTORS
330
34
102
}
330
34
100
DictionaryVariables
280
     0
  1
STANDARD
  0
DICTIONARYVAR
  5
AC
102
{ACAD_REACTORS
330
34
102
}
330
34
100
DictionaryVariables
280
     0
  1
1
  0
DICTIONARYVAR
  5
35
102
{ACAD_REACTORS
330
34
102
}
330
34
100
DictionaryVariables
280
     0
  1
1
  0
DICTIONARYVAR
  5
C000
102
{ACAD_REACTORS
330
34
102
}
330
34
100
DictionaryVariables
280
     0
  1
1
  0
DICTIONARYVAR
  5
C001
102
{ACAD_REACTORS
330
34
102
}
330
34
100
DictionaryVariables
280
     0
  1
15
  0
DICTIONARYVAR
  5
2FB
102
{ACAD_REACTORS
330
34
102
}
330
34
100
DictionaryVariables
280
     0
  1
0
  0
DICTIONARYVAR
  5
2F9
102
{ACAD_REACTORS
330
34
102
}
330
34
100
DictionaryVariables
280
     0
  1
0
  0
DICTIONARY
  5
161B
102
{ACAD_REACTORS
330
49
102
}
330
49
100
AcDbDictionary
281
     1
  0
DICTIONARY
  5
4A
102
{ACAD_REACTORS
330
49
102
}
330
49
100
AcDbDictionary
281
     1
  0
XRECORD
  5
12B
102
{ACAD_REACTORS
330
49
102
}
330
49
100
AcDbXrecord
280
     1
 90
-1023410169
  0
DICTIONARY
  5
2F5
330
122
100
AcDbDictionary
280
     1
281
     1
  3
ACAD_ROUNDTRIP_2008_TABLESTYLE_CELLSTYLEMAP
360
F7E0
  0
CELLSTYLEMAP
  5
F7E0
102
{ACAD_REACTORS
330
2F5
102
}
330
2F5
100
AcDbCellStyleMap
 90
        3
300
CELLSTYLE
  1
TABLEFORMAT_BEGIN
 90
        5
170
     1
 91
        0
 92
    32768
 62
   257
 93
        1
300
CONTENTFORMAT
  1
CONTENTFORMAT_BEGIN
 90
        0
 91
        0
 92
      512
 93
        0
300

 40
0.0
140
1.0
 94
        5
 62
     0
340
11
144
6.0
309
CONTENTFORMAT_END
171
     1
301
MARGIN
  1
CELLMARGIN_BEGIN
 40
1.5
 40
1.5
 40
1.5
 40
1.5
 40
0.18
 40
0.18
309
CELLMARGIN_END
 94
        6
 95
        1
302
GRIDFORMAT
  1
GRIDFORMAT_BEGIN
 90
        0
 91
        1
 62
     0
 92
       -2
340
0
 93
        0
 40
0.045
309
GRIDFORMAT_END
 95
        2
302
GRIDFORMAT
  1
GRIDFORMAT_BEGIN
 90
        0
 91
        1
 62
     0
 92
       -2
340
0
 93
        0
 40
0.045
309
GRIDFORMAT_END
 95
        4
302
GRIDFORMAT
  1
GRIDFORMAT_BEGIN
 90
        0
 91
        1
 62
     0
 92
       -2
340
0
 93
        0
 40
0.045
309
GRIDFORMAT_END
 95
        8
302
GRIDFORMAT
  1
GRIDFORMAT_BEGIN
 90
        0
 91
        1
 62
     0
 92
       -2
340
0
 93
        0
 40
0.045
309
GRIDFORMAT_END
 95
       16
302
GRIDFORMAT
  1
GRIDFORMAT_BEGIN
 90
        0
 91
        1
 62
     0
 92
       -2
340
0
 93
        0
 40
0.045
309
GRIDFORMAT_END
 95
       32
302
GRIDFORMAT
  1
GRIDFORMAT_BEGIN
 90
        0
 91
        1
 62
     0
 92
       -2
340
0
 93
        0
 40
0.045
309
GRIDFORMAT_END
309
TABLEFORMAT_END
  1
CELLSTYLE_BEGIN
 90
        1
 91
        1
300
_TITLE
309
CELLSTYLE_END
300
CELLSTYLE
  1
TABLEFORMAT_BEGIN
 90
        5
170
     1
 91
        0
 92
        0
 62
   257
 93
        1
300
CONTENTFORMAT
  1
CONTENTFORMAT_BEGIN
 90
        0
 91
        0
 92
      512
 93
        0
300

 40
0.0
140
1.0
 94
        5
 62
     0
340
11
144
4.5
309
CONTENTFORMAT_END
171
     1
301
MARGIN
  1
CELLMARGIN_BEGIN
 40
1.5
 40
1.5
 40
1.5
 40
1.5
 40
0.18
 40
0.18
309
CELLMARGIN_END
 94
        6
 95
        1
302
GRIDFORMAT
  1
GRIDFORMAT_BEGIN
 90
        0
 91
        1
 62
     0
 92
       -2
340
0
 93
        0
 40
0.045
309
GRIDFORMAT_END
 95
        2
302
GRIDFORMAT
  1
GRIDFORMAT_BEGIN
 90
        0
 91
        1
 62
     0
 92
       -2
340
0
 93
        0
 40
0.045
309
GRIDFORMAT_END
 95
        4
302
GRIDFORMAT
  1
GRIDFORMAT_BEGIN
 90
        0
 91
        1
 62
     0
 92
       -2
340
0
 93
        0
 40
0.045
309
GRIDFORMAT_END
 95
        8
302
GRIDFORMAT
  1
GRIDFORMAT_BEGIN
 90
        0
 91
        1
 62
     0
 92
       -2
340
0
 93
        0
 40
0.045
309
GRIDFORMAT_END
 95
       16
302
GRIDFORMAT
  1
GRIDFORMAT_BEGIN
 90
        0
 91
        1
 62
     0
 92
       -2
340
0
 93
        0
 40
0.045
309
GRIDFORMAT_END
 95
       32
302
GRIDFORMAT
  1
GRIDFORMAT_BEGIN
 90
        0
 91
        1
 62
     0
 92
       -2
340
0
 93
        0
 40
0.045
309
GRIDFORMAT_END
309
TABLEFORMAT_END
  1
CELLSTYLE_BEGIN
 90
        2
 91
        1
300
_HEADER
309
CELLSTYLE_END
300
CELLSTYLE
  1
TABLEFORMAT_BEGIN
 90
        5
170
     1
 91
        0
 92
        0
 62
   257
 93
        1
300
CONTENTFORMAT
  1
CONTENTFORMAT_BEGIN
 90
        0
 91
        0
 92
      512
 93
        0
300

 40
0.0
140
1.0
 94
        2
 62
     0
340
11
144
4.5
309
CONTENTFORMAT_END
171
     1
301
MARGIN
  1
CELLMARGIN_BEGIN
 40
1.5
 40
1.5
 40
1.5
 40
1.5
 40
0.18
 40
0.18
309
CELLMARGIN_END
 94
        6
 95
        1
302
GRIDFORMAT
  1
GRIDFORMAT_BEGIN
 90
        0
 91
        1
 62
     0
 92
       -2
340
0
 93
        0
 40
0.045
309
GRIDFORMAT_END
 95
        2
302
GRIDFORMAT
  1
GRIDFORMAT_BEGIN
 90
        0
 91
        1
 62
     0
 92
       -2
340
0
 93
        0
 40
0.045
309
GRIDFORMAT_END
 95
        4
302
GRIDFORMAT
  1
GRIDFORMAT_BEGIN
 90
        0
 91
        1
 62
     0
 92
       -2
340
0
 93
        0
 40
0.045
309
GRIDFORMAT_END
 95
        8
302
GRIDFORMAT
  1
GRIDFORMAT_BEGIN
 90
        0
 91
        1
 62
     0
 92
       -2
340
0
 93
        0
 40
0.045
309
GRIDFORMAT_END
 95
       16
302
GRIDFORMAT
  1
GRIDFORMAT_BEGIN
 90
        0
 91
        1
 62
     0
 92
       -2
340
0
 93
        0
 40
0.045
309
GRIDFORMAT_END
 95
       32
302
GRIDFORMAT
  1
GRIDFORMAT_BEGIN
 90
        0
 91
        1
 62
     0
 92
       -2
340
0
 93
        0
 40
0.045
309
GRIDFORMAT_END
309
TABLEFORMAT_END
  1
CELLSTYLE_BEGIN
 90
        3
 91
        2
300
_DATA
309
CELLSTYLE_END
  0
ENDSEC
  0
EOF
