  0
SECTION
  2
HEADER
  9
$ACADVER
  1
AC1021
  9
$ACADMAINTVER
 70
    26
  9
$DWGCODEPAGE
  3
ANSI_932
  9
$LASTSAVEDBY
  1
Htm_Terada
  9
$CUSTOMPROPERTYTAG
  1
AmdtFileType
  9
$CUSTOMPROPERTY
  1
84
  9
$INSBASE
 10
0.0
 20
0.0
 30
0.0
  9
$EXTMIN
 10
356.3129941372081
 20
473.0383345403692
 30
-0.0015258207003583
  9
$EXTMAX
 10
1091.199467117126
 20
1159.79370447783
 30
0.0000000349246037
  9
$LIMMIN
 10
-0.0000002271699202
 20
0.0
  9
$LIMMAX
 10
2376.00000068151
 20
1680.0
  9
$ORTHOMODE
 70
     1
  9
$REGENMODE
 70
     1
  9
$FILLMODE
 70
     1
  9
$QTEXTMODE
 70
     0
  9
$MIRRTEXT
 70
     1
  9
$LTSCALE
 40
4.0
  9
$ATTMODE
 70
     1
  9
$TEXTSIZE
 40
25.0
  9
$TRACEWID
 40
1.0
  9
$TEXTSTYLE
  7
SEISA
  9
$CLAYER
  8
AM_11 想像線
  9
$CELTYPE
  6
ByLayer
  9
$CECOLOR
 62
   256
  9
$CELTSCALE
 40
1.0
  9
$DISPSILH
 70
     0
  9
$DIMSCALE
 40
4.0
  9
$DIMASZ
 40
2.5
  9
$DIMEXO
 40
0.625
  9
$DIMDLI
 40
10.0
  9
$DIMRND
 40
0.0
  9
$DIMDLE
 40
0.0
  9
$DIMEXE
 40
0.625
  9
$DIMTP
 40
0.1
  9
$DIMTM
 40
0.1
  9
$DIMTXT
 40
3.5
  9
$DIMCEN
 40
0.0
  9
$DIMTSZ
 40
0.0
  9
$DIMTOL
 70
     0
  9
$DIMLIM
 70
     0
  9
$DIMTIH
 70
     0
  9
$DIMTOH
 70
     0
  9
$DIMSE1
 70
     0
  9
$DIMSE2
 70
     0
  9
$DIMTAD
 70
     3
  9
$DIMZIN
 70
     8
  9
$DIMBLK
  1
Open30
  9
$DIMASO
 70
     1
  9
$DIMSHO
 70
     1
  9
$DIMPOST
  1

  9
$DIMAPOST
  1
"
  9
$DIMALT
 70
     0
  9
$DIMALTD
 70
     2
  9
$DIMALTF
 40
0.0393701
  9
$DIMLFAC
 40
1.0
  9
$DIMTOFL
 70
     1
  9
$DIMTVP
 40
0.0
  9
$DIMTIX
 70
     0
  9
$DIMSOXD
 70
     0
  9
$DIMSAH
 70
     0
  9
$DIMBLK1
  1

  9
$DIMBLK2
  1

  9
$DIMSTYLE
  2
SEISA
  9
$DIMCLRD
 70
     3
  9
$DIMCLRE
 70
     3
  9
$DIMCLRT
 70
     3
  9
$DIMTFAC
 40
0.71
  9
$DIMGAP
 40
1.5
  9
$DIMJUST
 70
     0
  9
$DIMSD1
 70
     0
  9
$DIMSD2
 70
     0
  9
$DIMTOLJ
 70
     0
  9
$DIMTZIN
 70
     0
  9
$DIMALTZ
 70
     0
  9
$DIMALTTZ
 70
     8
  9
$DIMUPT
 70
     0
  9
$DIMDEC
 70
     2
  9
$DIMTDEC
 70
     2
  9
$DIMALTU
 70
     2
  9
$DIMALTTD
 70
     2
  9
$DIMTXSTY
  7
SEISA
  9
$DIMAUNIT
 70
     0
  9
$DIMADEC
 70
     0
  9
$DIMALTRND
 40
0.0
  9
$DIMAZIN
 70
     2
  9
$DIMDSEP
 70
    46
  9
$DIMATFIT
 70
     3
  9
$DIMFRAC
 70
     0
  9
$DIMLDRBLK
  1
Open30
  9
$DIMLUNIT
 70
     2
  9
$DIMLWD
 70
    -1
  9
$DIMLWE
 70
    -1
  9
$DIMTMOVE
 70
     0
  9
$DIMFXL
 40
1.0
  9
$DIMFXLON
 70
     0
  9
$DIMJOGANG
 40
0.7853981633974483
  9
$DIMTFILL
 70
     0
  9
$DIMTFILLCLR
 70
     0
  9
$DIMARCSYM
 70
     1
  9
$DIMLTYPE
  6

  9
$DIMLTEX1
  6

  9
$DIMLTEX2
  6

  9
$LUNITS
 70
     2
  9
$LUPREC
 70
     2
  9
$SKETCHINC
 40
1.0
  9
$FILLETRAD
 40
10.0
  9
$AUNITS
 70
     0
  9
$AUPREC
 70
     0
  9
$MENU
  1
.
  9
$ELEVATION
 40
0.0
  9
$PELEVATION
 40
0.0
  9
$THICKNESS
 40
0.0
  9
$LIMCHECK
 70
     0
  9
$CHAMFERA
 40
10.0
  9
$CHAMFERB
 40
10.0
  9
$CHAMFERC
 40
20.0
  9
$CHAMFERD
 40
0.0
  9
$SKPOLY
 70
     0
  9
$TDCREATE
 40
2454966.588766285
  9
$TDUCREATE
 40
2454966.213766285
  9
$TDUPDATE
 40
2456478.643364433
  9
$TDUUPDATE
 40
2456478.268364433
  9
$TDINDWG
 40
0.1899154745
  9
$TDUSRTIMER
 40
0.1899138542
  9
$USRTIMER
 70
     1
  9
$ANGBASE
 50
0.0
  9
$ANGDIR
 70
     0
  9
$PDMODE
 70
     0
  9
$PDSIZE
 40
0.0
  9
$PLINEWID
 40
0.0
  9
$SPLFRAME
 70
     0
  9
$SPLINETYPE
 70
     6
  9
$SPLINESEGS
 70
     8
  9
$HANDSEED
  5
6242
  9
$SURFTAB1
 70
     6
  9
$SURFTAB2
 70
     6
  9
$SURFTYPE
 70
     6
  9
$SURFU
 70
     6
  9
$SURFV
 70
     6
  9
$UCSBASE
  2

  9
$UCSNAME
  2

  9
$UCSORG
 10
0.0
 20
0.0
 30
0.0
  9
$UCSXDIR
 10
1.0
 20
0.0
 30
0.0
  9
$UCSYDIR
 10
0.0
 20
1.0
 30
0.0
  9
$UCSORTHOREF
  2

  9
$UCSORTHOVIEW
 70
     0
  9
$UCSORGTOP
 10
0.0
 20
0.0
 30
0.0
  9
$UCSORGBOTTOM
 10
0.0
 20
0.0
 30
0.0
  9
$UCSORGLEFT
 10
0.0
 20
0.0
 30
0.0
  9
$UCSORGRIGHT
 10
0.0
 20
0.0
 30
0.0
  9
$UCSORGFRONT
 10
0.0
 20
0.0
 30
0.0
  9
$UCSORGBACK
 10
0.0
 20
0.0
 30
0.0
  9
$PUCSBASE
  2

  9
$PUCSNAME
  2

  9
$PUCSORG
 10
0.0
 20
0.0
 30
0.0
  9
$PUCSXDIR
 10
1.0
 20
0.0
 30
0.0
  9
$PUCSYDIR
 10
0.0
 20
1.0
 30
0.0
  9
$PUCSORTHOREF
  2

  9
$PUCSORTHOVIEW
 70
     0
  9
$PUCSORGTOP
 10
0.0
 20
0.0
 30
0.0
  9
$PUCSORGBOTTOM
 10
0.0
 20
0.0
 30
0.0
  9
$PUCSORGLEFT
 10
0.0
 20
0.0
 30
0.0
  9
$PUCSORGRIGHT
 10
0.0
 20
0.0
 30
0.0
  9
$PUCSORGFRONT
 10
0.0
 20
0.0
 30
0.0
  9
$PUCSORGBACK
 10
0.0
 20
0.0
 30
0.0
  9
$USERI1
 70
     0
  9
$USERI2
 70
     0
  9
$USERI3
 70
     0
  9
$USERI4
 70
     0
  9
$USERI5
 70
     0
  9
$USERR1
 40
0.0
  9
$USERR2
 40
0.0
  9
$USERR3
 40
0.0
  9
$USERR4
 40
0.0
  9
$USERR5
 40
0.0
  9
$WORLDVIEW
 70
     1
  9
$SHADEDGE
 70
     3
  9
$SHADEDIF
 70
    70
  9
$TILEMODE
 70
     1
  9
$MAXACTVP
 70
    64
  9
$PINSBASE
 10
0.0
 20
0.0
 30
0.0
  9
$PLIMCHECK
 70
     0
  9
$PEXTMIN
 10
1.000000000000000E+20
 20
1.000000000000000E+20
 30
1.000000000000000E+20
  9
$PEXTMAX
 10
-1.000000000000000E+20
 20
-1.000000000000000E+20
 30
-1.000000000000000E+20
  9
$PLIMMIN
 10
0.0
 20
0.0
  9
$PLIMMAX
 10
420.0
 20
297.0
  9
$UNITMODE
 70
     0
  9
$VISRETAIN
 70
     1
  9
$PLINEGEN
 70
     0
  9
$PSLTSCALE
 70
     1
  9
$TREEDEPTH
 70
  3020
  9
$CMLSTYLE
  2
Standard
  9
$CMLJUST
 70
     0
  9
$CMLSCALE
 40
20.0
  9
$PROXYGRAPHICS
 70
     1
  9
$MEASUREMENT
 70
     1
  9
$CELWEIGHT
370
    -1
  9
$ENDCAPS
280
     0
  9
$JOINSTYLE
280
     0
  9
$LWDISPLAY
290
     0
  9
$INSUNITS
 70
     4
  9
$HYPERLINKBASE
  1

  9
$STYLESHEET
  1
SEISA.CTB
  9
$XEDIT
290
     1
  9
$CEPSNTYPE
380
     0
  9
$PSTYLEMODE
290
     1
  9
$FINGERPRINTGUID
  2
{A9BF93DE-C07B-4897-B536-2402ECE1414D}
  9
$VERSIONGUID
  2
{C70812B0-15F8-4414-BC72-1F8B579384B1}
  9
$EXTNAMES
290
     1
  9
$PSVPSCALE
 40
0.0
  9
$OLESTARTUP
290
     0
  9
$SORTENTS
280
   127
  9
$INDEXCTL
280
     0
  9
$HIDETEXT
280
     0
  9
$XCLIPFRAME
290
     0
  9
$HALOGAP
280
     0
  9
$OBSCOLOR
 70
   257
  9
$OBSLTYPE
280
     0
  9
$INTERSECTIONDISPLAY
280
     0
  9
$INTERSECTIONCOLOR
 70
   257
  9
$DIMASSOC
280
     2
  9
$PROJECTNAME
  1

  9
$CAMERADISPLAY
290
     0
  9
$LENSLENGTH
 40
50.0
  9
$CAMERAHEIGHT
 40
0.0
  9
$STEPSPERSEC
 40
2.0
  9
$STEPSIZE
 40
6.0
  9
$3DDWFPREC
 40
2.0
  9
$PSOLWIDTH
 40
0.25
  9
$PSOLHEIGHT
 40
4.0
  9
$LOFTANG1
 40
1.570796326794896
  9
$LOFTANG2
 40
1.570796326794896
  9
$LOFTMAG1
 40
0.0
  9
$LOFTMAG2
 40
0.0
  9
$LOFTPARAM
 70
     7
  9
$LOFTNORMALS
280
     1
  9
$LATITUDE
 40
37.795
  9
$LONGITUDE
 40
-122.394
  9
$NORTHDIRECTION
 40
0.0
  9
$TIMEZONE
 70
 -8000
  9
$LIGHTGLYPHDISPLAY
280
     1
  9
$TILEMODELIGHTSYNCH
280
     1
  9
$CMATERIAL
347
27C
  9
$SOLIDHIST
280
     1
  9
$SHOWHIST
280
     1
  9
$DWFFRAME
280
     2
  9
$DGNFRAME
280
     0
  9
$REALWORLDSCALE
290
     1
  9
$INTERFERECOLOR
 62
     1
  9
$INTERFEREOBJVS
345
289
  9
$INTERFEREVPVS
346
286
  9
$CSHADOW
280
     0
  9
$SHADOWPLANELOCATION
 40
0.0
  0
ENDSEC
  0
SECTION
  2
CLASSES
  0
CLASS
  1
ACDBDICTIONARYWDFLT
  2
AcDbDictionaryWithDefault
  3
ObjectDBX Classes
 90
        0
 91
        1
280
     0
281
     0
  0
CLASS
  1
AMGSETTINGSOBJ
  2
AmgSettingsObj
  3
"AcadM|Product Description: AutoCAD Mechanical|Company: Autodesk, Inc."
 90
     1024
 91
        2
280
     0
281
     0
  0
CLASS
  1
ACME_DOCUMENT
  2
AcMeDbDoc
  3
AcMeServices
 90
     1024
 91
        1
280
     0
281
     0
  0
CLASS
  1
ACMESCOPE
  2
AcMeScope
  3
AcMeServices
 90
     1024
 91
        1
280
     0
281
     0
  0
CLASS
  1
ACMECOMMANDHISTORY
  2
AcMeCommandHistory
  3
AcMeServices
 90
     1024
 91
        1
280
     0
281
     0
  0
CLASS
  1
DICTIONARYVAR
  2
AcDbDictionaryVar
  3
ObjectDBX Classes
 90
        0
 91
        9
280
     0
281
     0
  0
CLASS
  1
ACIMSYSVARMAN
  2
AcImSysVarManager
  3
AcMeServices
 90
     1024
 91
        5
280
     0
281
     0
  0
CLASS
  1
ACIMREALSYSVAR
  2
AcImRealSysVar
  3
AcMeServices
 90
     1024
 91
        1
280
     0
281
     0
  0
CLASS
  1
ACIMINTSYSVAR
  2
AcImIntSysVar
  3
AcMeServices
 90
     1024
 91
       27
280
     0
281
     0
  0
CLASS
  1
ACMEDRAWINGMAN
  2
AcMeDrawingMan
  3
AcMeServices
 90
     1024
 91
        1
280
     0
281
     0
  0
CLASS
  1
ACMEVIEW
  2
AcMeView
  3
AcMeServices
 90
     1024
 91
        1
280
     0
281
     0
  0
CLASS
  1
ACDBENTITYCACHE
  2
AcMeEntityCache
  3
AcMeServices
 90
     1024
 91
        1
280
     0
281
     0
  0
CLASS
  1
GSMANAGER
  2
AcMeGSManager
  3
AcMeServices
 90
     1024
 91
        1
280
     0
281
     0
  0
CLASS
  1
AMDTINTERNALREACTOR
  2
AmdtInternalReactor
  3
AcMeServices
 90
     1024
 91
        2
280
     0
281
     0
  0
CLASS
  1
ACMESTATEMGR
  2
AcMeStateMgr
  3
AcMeServices
 90
     1024
 91
        1
280
     0
281
     0
  0
CLASS
  1
ACGREFMASTER
  2
AcGrefMaster
  3
AcAttribServices
 90
     1024
 91
        1
280
     0
281
     0
  0
CLASS
  1
ACME_DATABASE
  2
AcMeDbDatabase
  3
AcMeServices
 90
     1024
 91
        1
280
     0
281
     0
  0
CLASS
  1
ACRFINSADJUSTERMGR
  2
AcRfInsAdjusterMgr
  3
AcMeServices
 90
     1024
 91
        1
280
     0
281
     0
  0
CLASS
  1
ACGREFACADMASTER
  2
AcGrefacadMaster
  3
AcGrefServices
 90
     1024
 91
        1
280
     0
281
     0
  0
CLASS
  1
AMIMASTER
  2
AmiMaster
  3
AmiServices
 90
     1024
 91
        1
280
     0
281
     0
  0
CLASS
  1
ACIMSTRSYSVAR
  2
AcImStrSysVar
  3
AcMeServices
 90
     1024
 91
        5
280
     0
281
     0
  0
CLASS
  1
ACMSTANDARDJIS
  2
AcmStandardJIS
  3
"Amdt_StdImp|Product Description: AutoCAD Mechanical|Company: Autodesk, Inc."
 90
     1024
 91
        0
280
     0
281
     0
  0
CLASS
  1
AMGOBJPROPCFG
  2
AmgObjPropCfg
  3
"AmgLay|Product Description: AutoCAD Mechanical|Company: Autodesk, Inc."
 90
     1025
 91
        1
280
     0
281
     0
  0
CLASS
  1
ACMSURFSTANDARDJIS
  2
AcmSurfTextStdJIS
  3
"Amdt_StdImp|Product Description: AutoCAD Mechanical|Company: Autodesk, Inc."
 90
     1024
 91
        0
280
     0
281
     0
  0
CLASS
  1
ACMFCFSTANDARDJIS
  2
AcmFCFStdJIS
  3
"Amdt_StdImp|Product Description: AutoCAD Mechanical|Company: Autodesk, Inc."
 90
     1024
 91
        0
280
     0
281
     0
  0
CLASS
  1
ACMWELDSTANDARDJIS
  2
AcmWeldingStdJIS
  3
"Amdt_StdImp|Product Description: AutoCAD Mechanical|Company: Autodesk, Inc."
 90
     1024
 91
        0
280
     0
281
     0
  0
CLASS
  1
ACMIDSTANDARDJIS
  2
AcmIdStdJIS
  3
"Amdt_StdImp|Product Description: AutoCAD Mechanical|Company: Autodesk, Inc."
 90
     1024
 91
        0
280
     0
281
     0
  0
CLASS
  1
ACMDATUMSTANDARDJIS
  2
AcmDatumStdJIS
  3
"Amdt_StdImp|Product Description: AutoCAD Mechanical|Company: Autodesk, Inc."
 90
     1024
 91
        0
280
     0
281
     0
  0
CLASS
  1
ACMBOMSTANDARDJIS
  2
AcmBOMStdJIS
  3
"Amdt_StdImp|Product Description: AutoCAD Mechanical|Company: Autodesk, Inc."
 90
     1024
 91
        0
280
     0
281
     0
  0
CLASS
  1
ACMDETAILSTANDARDJIS
  2
AmdtDetailSymStdJIS
  3
"Amdt_StdImp|Product Description: AutoCAD Mechanical|Company: Autodesk, Inc."
 90
     1024
 91
        0
280
     0
281
     0
  0
CLASS
  1
ACMSECTIONSTANDARDJIS
  2
AmdtSectionSymStdJIS
  3
"Amdt_StdImp|Product Description: AutoCAD Mechanical|Company: Autodesk, Inc."
 90
     1024
 91
        0
280
     0
281
     0
  0
CLASS
  1
ACMCENTERLINESTANDARDJIS
  2
AmdtCenterLineStdJIS
  3
"Amdt_StdImp|Product Description: AutoCAD Mechanical|Company: Autodesk, Inc."
 90
     1024
 91
        0
280
     0
281
     0
  0
CLASS
  1
ACMTHREADLINESTANDARDJIS
  2
AmdtThreadLineStdJIS
  3
"Amdt_StdImp|Product Description: AutoCAD Mechanical|Company: Autodesk, Inc."
 90
     1024
 91
        0
280
     0
281
     0
  0
CLASS
  1
ACAMGLAYSTD
  2
AcAmgLayStd
  3
"AmgLay|Product Description: AutoCAD Mechanical|Company: Autodesk, Inc."
 90
     1024
 91
        1
280
     0
281
     0
  0
CLASS
  1
ACAMGDIMSTD
  2
AcAmgDimStd
  3
"AmgDim|Product Description: AutoCAD Mechanical|Company: Autodesk, Inc."
 90
     1024
 91
        1
280
     0
281
     0
  0
CLASS
  1
ACAMGTITLESTD
  2
AcAmgTitleStd
  3
"AmgTitle|Product Description: AutoCAD Mechanical|Company: Autodesk, Inc."
 90
     4095
 91
        1
280
     0
281
     0
  0
CLASS
  1
ACMDATADICTIONARY
  2
AcmDataDictionary
  3
"AcmSymBB|Product Description: AutoCAD Mechanical|Company: Autodesk, Inc."
 90
     1024
 91
        1
280
     0
281
     0
  0
CLASS
  1
ACMDATAENTRYBLOCK
  2
AcmDataEntryBlock
  3
AcmSymBB|Product Description: AutoCAD Mechanical|Company: Autodesk, Inc.
 90
     1024
 91
        0
280
     0
281
     0
  0
CLASS
  1
LAYER_INDEX
  2
AcDbLayerIndex
  3
ObjectDBX Classes
 90
        0
 91
        0
280
     0
281
     0
  0
CLASS
  1
IDBUFFER
  2
AcDbIdBuffer
  3
ObjectDBX Classes
 90
        0
 91
        0
280
     0
281
     0
  0
CLASS
  1
ACMNOTESTANDARDJIS
  2
AmdtNoteStdJIS
  3
"Amdt_StdImp|Product Description: AutoCAD Mechanical|Company: Autodesk, Inc."
 90
     1024
 91
        0
280
     0
281
     0
  0
CLASS
  1
ACAMGHOLECHARTSTDJIS
  2
AcAmgHoleChartStdJIS
  3
AmgDim|Product Description: AutoCAD Mechanical|Company: Autodesk, Inc.
 90
     1024
 91
        0
280
     0
281
     0
  0
CLASS
  1
AM_DRAWING_MGR
  2
AcDmDwgMgr
  3
AcMechDwgViewMgmt
 90
     1024
 91
        1
280
     0
281
     0
  0
CLASS
  1
AM_DWG_DOCUMENT
  2
AcDmDwgDocument
  3
AcMechDwgViewMgmt
 90
     1024
 91
        1
280
     0
281
     0
  0
CLASS
  1
AM_DWG_SHEET
  2
AcDmSheet
  3
AcMechDwgViewMgmt
 90
     1024
 91
        2
280
     0
281
     0
  0
CLASS
  1
AM_VIEWDIMPARMAP
  2
AcDmViewDimParMap
  3
AcMechDwgViewMgmt
 90
     1024
 91
        2
280
     0
281
     0
  0
CLASS
  1
AM_DWGMGR_NAME
  2
AcDmDwgMgrName
  3
AcMechDwgViewMgmt
 90
     1024
 91
        1
280
     0
281
     0
  0
CLASS
  1
AMDTMENUSTATEMGR
  2
AmdtMenuStateMgr
  3
McadcomServices
 90
     1024
 91
        1
280
     0
281
     0
  0
CLASS
  1
AMDTMCOMMENUSTATE
  2
AmdtMcomMenuState
  3
McadcomServices
 90
     1024
 91
        1
280
     0
281
     0
  0
CLASS
  1
MAPIAMMOUDLE
  2
MApiAmModule
  3
MApiAmServices
 90
     1024
 91
        1
280
     0
281
     0
  0
CLASS
  1
AMDTADMENUSTATE
  2
AmdtAdMenuState
  3
DesignerServices
 90
     1024
 91
        1
280
     0
281
     0
  0
CLASS
  1
ADAPPL
  2
AcAdAppl
  3
DesignerServices
 90
     1024
 91
        1
280
     0
281
     0
  0
CLASS
  1
DEPMGR
  2
AcAdDepMgr
  3
DesignerServices
 90
     1024
 91
        1
280
     0
281
     0
  0
CLASS
  1
PARAMMGR
  2
AcAdParamMgr
  3
DesignerServices
 90
     1024
 91
        1
280
     0
281
     0
  0
CLASS
  1
PARAMSCOPE
  2
AcAdParamScope
  3
DesignerServices
 90
     1024
 91
        1
280
     0
281
     0
  0
CLASS
  1
NAMEDAPPL
  2
AcAdNamedAppl
  3
DesignerServices
 90
     1024
 91
        1
280
     0
281
     0
  0
CLASS
  1
AMDTDMMENUSTATE
  2
AmdtDmMenuState
  3
AcMechDwgViewMgmt
 90
     1024
 91
        1
280
     0
281
     0
  0
CLASS
  1
AMDTAMMENUSTATE
  2
AmdtAmMenuState
  3
DesignerAssemblies
 90
     1024
 91
        1
280
     0
281
     0
  0
CLASS
  1
ACAMPROJECT
  2
AcAmProject
  3
DesignerAssemblies
 90
     1024
 91
        1
280
     0
281
     0
  0
CLASS
  1
ACAMGRCOMPDEF
  2
AcAmGrCompDef
  3
DesignerAssemblies
 90
     1024
 91
        1
280
     0
281
     0
  0
CLASS
  1
ACCMCONTEXT
  2
AcCmContext
  3
DesignerAssemblies
 90
     1024
 91
        1
280
     0
281
     0
  0
CLASS
  1
ACAMCOMPDEF
  2
AcAmCompDef
  3
DesignerAssemblies
 90
     1024
 91
        1
280
     0
281
     0
  0
CLASS
  1
ACAMCOMPDEFMGR
  2
AcAmCompDefMgr
  3
DesignerAssemblies
 90
     1024
 91
        1
280
     0
281
     0
  0
CLASS
  1
AMCONTEXTMGR
  2
AcAmContextMgr
  3
DesignerAssemblies
 90
     1024
 91
        1
280
     0
281
     0
  0
CLASS
  1
ACAMCONTEXTMODELER
  2
AcAmContextModeler
  3
DesignerAssemblies
 90
     1024
 91
        1
280
     0
281
     0
  0
CLASS
  1
CATALOGSTATE
  2
AcAmCatalogState
  3
DesignerAssemblies
 90
     1024
 91
        1
280
     0
281
     0
  0
CLASS
  1
ACAMGRCOMPDEFSET
  2
AcAmGrCompDefSet
  3
DesignerAssemblies
 90
     1024
 91
        1
280
     0
281
     0
  0
CLASS
  1
AMDTBROWSERDBTAB
  2
AmdtBrowserDbTab
  3
McadcomServices
 90
     1024
 91
        1
280
     0
281
     0
  0
CLASS
  1
CBROWSERAPPOBJECT
  2
CBrowserAppObject
  3
McadcomServices
 90
     1024
 91
        3
280
     0
281
     0
  0
CLASS
  1
DM_PLACEHOLDER
  2
AcDmSelsetPlaceholder
  3
AcMechDwgViewMgmt
 90
     1024
 91
        1
280
     0
281
     0
  0
CLASS
  1
TABLESTYLE
  2
AcDbTableStyle
  3
ObjectDBX Classes
 90
     4095
 91
        1
280
     0
281
     0
  0
CLASS
  1
VAACXREFPANELOBJECT
  2
VaAcXREFPanelObject
  3
VAAC_ADDIN
 90
        0
 91
        0
280
     0
281
     0
  0
CLASS
  1
VAACIMAGEINVENTORY
  2
VaAcImageInventory
  3
VAAC_ADDIN
 90
        0
 91
        0
280
     0
281
     0
  0
CLASS
  1
AMDTNOTETEMPLATEDB
  2
AmdtNoteTemplateDB
  3
AcmSymBB|Product Description: AutoCAD Mechanical|Company: Autodesk, Inc.
 90
     1024
 91
        6
280
     0
281
     0
  0
CLASS
  1
ACAMGFILTERDAT
  2
AcAmgFilterDat
  3
"AcadM|Product Description: AutoCAD Mechanical|Company: Autodesk, Inc."
 90
     1024
 91
        0
280
     0
281
     0
  0
CLASS
  1
MATERIAL
  2
AcDbMaterial
  3
ObjectDBX Classes
 90
     1153
 91
        3
280
     0
281
     0
  0
CLASS
  1
VISUALSTYLE
  2
AcDbVisualStyle
  3
ObjectDBX Classes
 90
     4095
 91
       16
280
     0
281
     0
  0
CLASS
  1
ACRFATTGENMGR
  2
AcRfAttGeneralMgr
  3
AcAttribServices
 90
     1024
 91
        0
280
     0
281
     0
  0
CLASS
  1
ACRFOBJATTMGR
  2
AcRfObjAttGroupMgr
  3
AcAttribServices
 90
     1024
 91
        0
280
     0
281
     0
  0
CLASS
  1
ACRFMCADAPIATTHOLDER
  2
AcRfMCADAPIAttHolder
  3
AcAttribServices
 90
     1024
 91
        0
280
     0
281
     0
  0
CLASS
  1
AMDTSYSATTR
  2
AmdtSystemAttribute
  3
AcAttribServices
 90
     1024
 91
        0
280
     0
281
     0
  0
CLASS
  1
ACMTAPERSTANDARDJIS
  2
AcmTaperStdJIS
  3
"Amdt_StdImp|Product Description: AutoCAD Mechanical|Company: Autodesk, Inc."
 90
     1024
 91
        0
280
     0
281
     0
  0
CLASS
  1
CAMSSTRUCTBTNSTATE
  2
StructBtnState
  3
DesignerAssemblies
 90
     1024
 91
        0
280
     0
281
     0
  0
CLASS
  1
SCALE
  2
AcDbScale
  3
ObjectDBX Classes
 90
     1153
 91
       34
280
     0
281
     0
  0
CLASS
  1
MLEADERSTYLE
  2
AcDbMLeaderStyle
  3
ACDB_MLEADERSTYLE_CLASS
 90
     4095
 91
        1
280
     0
281
     0
  0
CLASS
  1
ACMANOOTATIONVIEWSTANDARDJIS
  2
AmdtAnViewStdJIS
  3
"Amdt_StdImp|Product Description: AutoCAD Mechanical|Company: Autodesk, Inc."
 90
     1024
 91
        0
280
     0
281
     0
  0
CLASS
  1
ACMSURFSTANDARDJIS2003
  2
AcmSurfTextStdJIS2003
  3
"Amdt_StdImp|Product Description: AutoCAD Mechanical|Company: Autodesk, Inc."
 90
     1024
 91
        0
280
     0
281
     0
  0
CLASS
  1
CELLSTYLEMAP
  2
AcDbCellStyleMap
  3
ObjectDBX Classes
 90
     1152
 91
        2
280
     0
281
     0
  0
CLASS
  1
ACMFCFSTANDARDJIS98
  2
AcmFCFStdJIS98
  3
"Amdt_StdImp|Product Description: AutoCAD Mechanical|Company: Autodesk, Inc."
 90
     1024
 91
        0
280
     0
281
     0
  0
CLASS
  1
SORTENTSTABLE
  2
AcDbSortentsTable
  3
ObjectDBX Classes
 90
        0
 91
       18
280
     0
281
     0
  0
CLASS
  1
DIMASSOC
  2
AcDbDimAssoc
  3
"AcDbDimAssoc|Product Desc:     AcDim ARX App For Dimension|Company:          Autodesk, Inc.|WEB Address:      www.autodesk.com"
 90
        0
 91
       14
280
     0
281
     0
  0
CLASS
  1
STDPART2D
  2
AmgStdPart
  3
AmgStdPart|Product Description: AutoCAD Mechanical|Company: Autodesk, Inc.
 90
     4095
 91
        0
280
     0
281
     1
  0
CLASS
  1
ACMDATAENTRYPART
  2
AcmDataEntryPart
  3
AcmSymBB|Product Description: AutoCAD Mechanical|Company: Autodesk, Inc.
 90
     1024
 91
        0
280
     0
281
     0
  0
CLASS
  1
ACMPARTREF
  2
AcmPartRef
  3
"AcmSymBB|Product Description: AutoCAD Mechanical|Company: Autodesk, Inc."
 90
     4095
 91
        0
280
     0
281
     1
  0
CLASS
  1
ACDBSTDPARTRES_LINE
  2
AcDbStdPartRes_Line
  3
AmgStdPart|Product Description: AutoCAD Mechanical|Company: Autodesk, Inc.
 90
     1024
 91
        0
280
     0
281
     0
  0
CLASS
  1
ACMBOM
  2
AcmBom
  3
"AcmSymBB|Product Description: AutoCAD Mechanical|Company: Autodesk, Inc."
 90
     1024
 91
        0
280
     0
281
     0
  0
CLASS
  1
AMDTFORMULAUPDATEDISPATCHER
  2
AmdtFormulaUpdateDispatcher
  3
AcMeServices
 90
     1024
 91
        0
280
     0
281
     0
  0
CLASS
  1
ACMBOMROW
  2
AcmBomRow
  3
"AcmSymBB|Product Description: AutoCAD Mechanical|Company: Autodesk, Inc."
 90
     1024
 91
        0
280
     0
281
     0
  0
CLASS
  1
ACMPARTLIST
  2
AcmPartList
  3
"AcmSymBB|Product Description: AutoCAD Mechanical|Company: Autodesk, Inc."
 90
     4095
 91
        0
280
     0
281
     1
  0
CLASS
  1
ACDBLINERES
  2
AcDbLineRes
  3
AcGrefServices
 90
     1024
 91
        0
280
     0
281
     0
  0
CLASS
  1
ACRFINSADJ
  2
AcRfInsAdjuster
  3
AcMeServices
 90
     1024
 91
        0
280
     0
281
     0
  0
CLASS
  1
ACMSTANDARDISO
  2
AcmStandardISO
  3
"Amdt_StdImp|Product Description: AutoCAD Mechanical|Company: Autodesk, Inc."
 90
     1024
 91
        1
280
     0
281
     0
  0
CLASS
  1
AMDTEDGESTANDARDISO13715
  2
AmdtEdgeStdISO13715
  3
"Amdt_StdImp|Product Description: AutoCAD Mechanical|Company: Autodesk, Inc."
 90
     1024
 91
        1
280
     0
281
     0
  0
CLASS
  1
ACMSURFSTANDARDISO2002
  2
AcmSurfTextStdISO2002
  3
"Amdt_StdImp|Product Description: AutoCAD Mechanical|Company: Autodesk, Inc."
 90
     1024
 91
        1
280
     0
281
     0
  0
CLASS
  1
ACMFCFSTANDARDISO
  2
AcmFCFStdISO
  3
"Amdt_StdImp|Product Description: AutoCAD Mechanical|Company: Autodesk, Inc."
 90
     1024
 91
        1
280
     0
281
     0
  0
CLASS
  1
ACMWELDSTANDARDISO
  2
AcmWeldingStdISO
  3
"Amdt_StdImp|Product Description: AutoCAD Mechanical|Company: Autodesk, Inc."
 90
     1024
 91
        1
280
     0
281
     0
  0
CLASS
  1
ACMIDSTANDARDISO
  2
AcmIdStdISO
  3
"Amdt_StdImp|Product Description: AutoCAD Mechanical|Company: Autodesk, Inc."
 90
     1024
 91
        1
280
     0
281
     0
  0
CLASS
  1
ACMDATUMSTANDARDISO
  2
AcmDatumStdISO
  3
"Amdt_StdImp|Product Description: AutoCAD Mechanical|Company: Autodesk, Inc."
 90
     1024
 91
        1
280
     0
281
     0
  0
CLASS
  1
ACMBOMSTANDARDISO
  2
AcmBOMStdISO
  3
"Amdt_StdImp|Product Description: AutoCAD Mechanical|Company: Autodesk, Inc."
 90
     1024
 91
        1
280
     0
281
     0
  0
CLASS
  1
ACMDETAILSTANDARDISO
  2
AmdtDetailSymStdISO
  3
"Amdt_StdImp|Product Description: AutoCAD Mechanical|Company: Autodesk, Inc."
 90
     1024
 91
        1
280
     0
281
     0
  0
CLASS
  1
ACMSECTIONSTANDARDISO2001
  2
AmdtSectionSymStdISO2001
  3
"Amdt_StdImp|Product Description: AutoCAD Mechanical|Company: Autodesk, Inc."
 90
     1024
 91
        1
280
     0
281
     0
  0
CLASS
  1
ACMCENTERLINESTANDARDISO
  2
AmdtCenterLineStdISO
  3
"Amdt_StdImp|Product Description: AutoCAD Mechanical|Company: Autodesk, Inc."
 90
     1024
 91
        1
280
     0
281
     0
  0
CLASS
  1
ACMTHREADLINESTANDARDISO
  2
AmdtThreadLineStdISO
  3
"Amdt_StdImp|Product Description: AutoCAD Mechanical|Company: Autodesk, Inc."
 90
     1024
 91
        1
280
     0
281
     0
  0
CLASS
  1
ACMNOTESTANDARDISO
  2
AmdtNoteStdISO
  3
"Amdt_StdImp|Product Description: AutoCAD Mechanical|Company: Autodesk, Inc."
 90
     1024
 91
        1
280
     0
281
     0
  0
CLASS
  1
ACMTAPERSTANDARDISO
  2
AcmTaperStdISO
  3
"Amdt_StdImp|Product Description: AutoCAD Mechanical|Company: Autodesk, Inc."
 90
     1024
 91
        1
280
     0
281
     0
  0
CLASS
  1
ACMANOOTATIONVIEWSTANDARDISO
  2
AmdtAnViewStdISO
  3
"Amdt_StdImp|Product Description: AutoCAD Mechanical|Company: Autodesk, Inc."
 90
     1024
 91
        1
280
     0
281
     0
  0
CLASS
  1
ACAMGHOLECHARTSTDISO
  2
AcAmgHoleChartStdISO
  3
AmgDim|Product Description: AutoCAD Mechanical|Company: Autodesk, Inc.
 90
     1024
 91
        1
280
     0
281
     0
  0
CLASS
  1
EXACXREFPANELOBJECT
  2
ExAcXREFPanelObject
  3
EXAC_ESW
 90
     1025
 91
        0
280
     0
281
     0
  0
CLASS
  1
NPOCOLLECTION
  2
AcDbImpNonPersistentObjectsCollection
  3
ObjectDBX Classes
 90
     1153
 91
        0
280
     0
281
     0
  0
CLASS
  1
ACDBSTDPARTRES_ARC
  2
AcDbStdPartRes_Arc
  3
AmgStdPart|Product Description: AutoCAD Mechanical|Company: Autodesk, Inc.
 90
     1024
 91
        0
280
     0
281
     0
  0
CLASS
  1
AMDTNOTE
  2
AmdtNote
  3
"AcmSymBB|Product Description: AutoCAD Mechanical|Company: Autodesk, Inc."
 90
     4095
 91
        0
280
     0
281
     1
  0
CLASS
  1
PLOTSETTINGS
  2
AcDbPlotSettings
  3
ObjectDBX Classes
 90
        0
 91
        1
280
     0
281
     0
  0
CLASS
  1
ACMSTANDARDANSI
  2
AcmStandardANSI
  3
"Amdt_StdImp|Product Description: AutoCAD Mechanical|Company: Autodesk, Inc."
 90
     1024
 91
        0
280
     0
281
     0
  0
CLASS
  1
ACMSURFSTANDARDANSI
  2
AcmSurfTextStdANSI
  3
"Amdt_StdImp|Product Description: AutoCAD Mechanical|Company: Autodesk, Inc."
 90
     1024
 91
        0
280
     0
281
     0
  0
CLASS
  1
ACMFCFSTANDARDANSI
  2
AcmFCFStdANSI
  3
"Amdt_StdImp|Product Description: AutoCAD Mechanical|Company: Autodesk, Inc."
 90
     1024
 91
        0
280
     0
281
     0
  0
CLASS
  1
ACMWELDSTANDARDANSI
  2
AcmWeldingStdANSI
  3
"Amdt_StdImp|Product Description: AutoCAD Mechanical|Company: Autodesk, Inc."
 90
     1024
 91
        0
280
     0
281
     0
  0
CLASS
  1
ACMIDSTANDARDANSI
  2
AcmIdStdANSI
  3
"Amdt_StdImp|Product Description: AutoCAD Mechanical|Company: Autodesk, Inc."
 90
     1024
 91
        0
280
     0
281
     0
  0
CLASS
  1
ACMDATUMSTANDARDANSI
  2
AcmDatumStdANSI
  3
"Amdt_StdImp|Product Description: AutoCAD Mechanical|Company: Autodesk, Inc."
 90
     1024
 91
        0
280
     0
281
     0
  0
CLASS
  1
ACMBOMSTANDARDANSI
  2
AcmBOMStdANSI
  3
"Amdt_StdImp|Product Description: AutoCAD Mechanical|Company: Autodesk, Inc."
 90
     1024
 91
        0
280
     0
281
     0
  0
CLASS
  1
ACMDETAILSTANDARDANSI
  2
AmdtDetailSymStdANSI
  3
"Amdt_StdImp|Product Description: AutoCAD Mechanical|Company: Autodesk, Inc."
 90
     1024
 91
        0
280
     0
281
     0
  0
CLASS
  1
ACMSECTIONSTANDARDANSI
  2
AmdtSectionSymStdANSI
  3
"Amdt_StdImp|Product Description: AutoCAD Mechanical|Company: Autodesk, Inc."
 90
     1024
 91
        0
280
     0
281
     0
  0
CLASS
  1
ACMCENTERLINESTANDARDANSI
  2
AmdtCenterLineStdANSI
  3
"Amdt_StdImp|Product Description: AutoCAD Mechanical|Company: Autodesk, Inc."
 90
     1024
 91
        0
280
     0
281
     0
  0
CLASS
  1
ACMTHREADLINESTANDARDANSI
  2
AmdtThreadLineStdANSI
  3
"Amdt_StdImp|Product Description: AutoCAD Mechanical|Company: Autodesk, Inc."
 90
     1024
 91
        0
280
     0
281
     0
  0
CLASS
  1
ACMNOTESTANDARDANSI
  2
AmdtNoteStdANSI
  3
"Amdt_StdImp|Product Description: AutoCAD Mechanical|Company: Autodesk, Inc."
 90
     1024
 91
        0
280
     0
281
     0
  0
CLASS
  1
ACMTAPERSTANDARDANSI
  2
AcmTaperStdANSI
  3
"Amdt_StdImp|Product Description: AutoCAD Mechanical|Company: Autodesk, Inc."
 90
     1024
 91
        0
280
     0
281
     0
  0
CLASS
  1
ACMANOOTATIONVIEWSTANDARDANSI
  2
AmdtAnViewStdANSI
  3
"Amdt_StdImp|Product Description: AutoCAD Mechanical|Company: Autodesk, Inc."
 90
     1024
 91
        0
280
     0
281
     0
  0
CLASS
  1
ACAMGHOLECHARTSTDANSI
  2
AcAmgHoleChartStdANSI
  3
AmgDim|Product Description: AutoCAD Mechanical|Company: Autodesk, Inc.
 90
     1024
 91
        0
280
     0
281
     0
  0
CLASS
  1
ACMSTANDARDBSI
  2
AcmStandardBSI
  3
"Amdt_StdImp|Product Description: AutoCAD Mechanical|Company: Autodesk, Inc."
 90
     1024
 91
        0
280
     0
281
     0
  0
CLASS
  1
ACMSURFSTANDARDBSI2002
  2
AcmSurfTextStdBSI2002
  3
"Amdt_StdImp|Product Description: AutoCAD Mechanical|Company: Autodesk, Inc."
 90
     1024
 91
        0
280
     0
281
     0
  0
CLASS
  1
ACMFCFSTANDARDBSI
  2
AcmFCFStdBSI
  3
"Amdt_StdImp|Product Description: AutoCAD Mechanical|Company: Autodesk, Inc."
 90
     1024
 91
        0
280
     0
281
     0
  0
CLASS
  1
ACMWELDSTANDARDBSI
  2
AcmWeldingStdBSI
  3
"Amdt_StdImp|Product Description: AutoCAD Mechanical|Company: Autodesk, Inc."
 90
     1024
 91
        0
280
     0
281
     0
  0
CLASS
  1
ACMIDSTANDARDBSI
  2
AcmIdStdBSI
  3
"Amdt_StdImp|Product Description: AutoCAD Mechanical|Company: Autodesk, Inc."
 90
     1024
 91
        0
280
     0
281
     0
  0
CLASS
  1
ACMDATUMSTANDARDBSI
  2
AcmDatumStdBSI
  3
"Amdt_StdImp|Product Description: AutoCAD Mechanical|Company: Autodesk, Inc."
 90
     1024
 91
        0
280
     0
281
     0
  0
CLASS
  1
ACMBOMSTANDARDBSI
  2
AcmBOMStdBSI
  3
"Amdt_StdImp|Product Description: AutoCAD Mechanical|Company: Autodesk, Inc."
 90
     1024
 91
        0
280
     0
281
     0
  0
CLASS
  1
ACMDETAILSTANDARDBSI
  2
AmdtDetailSymStdBSI
  3
"Amdt_StdImp|Product Description: AutoCAD Mechanical|Company: Autodesk, Inc."
 90
     1024
 91
        0
280
     0
281
     0
  0
CLASS
  1
ACMSECTIONSTANDARDBSI2001
  2
AmdtSectionSymStdBSI2001
  3
"Amdt_StdImp|Product Description: AutoCAD Mechanical|Company: Autodesk, Inc."
 90
     1024
 91
        0
280
     0
281
     0
  0
CLASS
  1
ACMCENTERLINESTANDARDBSI
  2
AmdtCenterLineStdBSI
  3
"Amdt_StdImp|Product Description: AutoCAD Mechanical|Company: Autodesk, Inc."
 90
     1024
 91
        0
280
     0
281
     0
  0
CLASS
  1
ACMTHREADLINESTANDARDBSI
  2
AmdtThreadLineStdBSI
  3
"Amdt_StdImp|Product Description: AutoCAD Mechanical|Company: Autodesk, Inc."
 90
     1024
 91
        0
280
     0
281
     0
  0
CLASS
  1
ACMNOTESTANDARDBSI
  2
AmdtNoteStdBSI
  3
"Amdt_StdImp|Product Description: AutoCAD Mechanical|Company: Autodesk, Inc."
 90
     1024
 91
        0
280
     0
281
     0
  0
CLASS
  1
ACMTAPERSTANDARDBSI
  2
AcmTaperStdBSI
  3
"Amdt_StdImp|Product Description: AutoCAD Mechanical|Company: Autodesk, Inc."
 90
     1024
 91
        0
280
     0
281
     0
  0
CLASS
  1
ACMANOOTATIONVIEWSTANDARDBSI
  2
AmdtAnViewStdBSI
  3
"Amdt_StdImp|Product Description: AutoCAD Mechanical|Company: Autodesk, Inc."
 90
     1024
 91
        0
280
     0
281
     0
  0
CLASS
  1
ACAMGHOLECHARTSTDBSI
  2
AcAmgHoleChartStdBSI
  3
AmgDim|Product Description: AutoCAD Mechanical|Company: Autodesk, Inc.
 90
     1024
 91
        0
280
     0
281
     0
  0
CLASS
  1
ACMSURFSYM
  2
AcmSurfaceTexture
  3
"AcmSymBB|Product Description: AutoCAD Mechanical|Company: Autodesk, Inc."
 90
     4095
 91
        0
280
     0
281
     1
  0
CLASS
  1
ACDBCIRCARCRES
  2
AcDbCircArcRes
  3
AcGrefServices
 90
     1024
 91
        0
280
     0
281
     0
  0
CLASS
  1
ACDB_BLKREFOBJECTCONTEXTDATA_CLASS
  2
AcDbBlkRefObjectContextData
  3
ObjectDBX Classes
 90
     1153
 91
        0
280
     0
281
     0
  0
CLASS
  1
ACDBOPPOLYLINERES
  2
AcDbOpPolylineRes
  3
AcGrefServices
 90
     1024
 91
        0
280
     0
281
     0
  0
CLASS
  1
ACDBDIMENSIONRES
  2
AcDbDimensionRes
  3
AcmSymBB|Product Description: AutoCAD Mechanical|Company: Autodesk, Inc.
 90
     1024
 91
        0
280
     0
281
     0
  0
CLASS
  1
ACMPICKOBJ
  2
AcmPickEnt
  3
"AcmSymBB|Product Description: AutoCAD Mechanical|Company: Autodesk, Inc."
 90
     1024
 91
        0
280
     0
281
     1
  0
CLASS
  1
ACDBELLIPSERES
  2
AcDbEllipseRes
  3
AcGrefServices
 90
     1024
 91
        0
280
     0
281
     0
  0
CLASS
  1
ACMBALLOON
  2
AcmBalloon
  3
"AcmSymBB|Product Description: AutoCAD Mechanical|Company: Autodesk, Inc."
 90
     4095
 91
        0
280
     0
281
     1
  0
CLASS
  1
AMDTEDGESTANDARDJIS
  2
AmdtEdgeStdJIS
  3
"Amdt_StdImp|Product Description: AutoCAD Mechanical|Company: Autodesk, Inc."
 90
     1024
 91
        0
280
     0
281
     0
  0
CLASS
  1
AMDTACMWBLOCKBOMENTITY
  2
AmdtAcmWblockBomEntity
  3
"AcmSymBB|Product Description: AutoCAD Mechanical|Company: Autodesk, Inc."
 90
     4095
 91
        0
280
     0
281
     1
  0
CLASS
  1
ACMDIMBREAKPERSREACTOR
  2
AcmDimBreakPersReactor
  3
AmgDim|Product Description: AutoCAD Mechanical|Company: Autodesk, Inc.
 90
     4095
 91
        0
280
     0
281
     0
  0
ENDSEC
  0
SECTION
  2
TABLES
  0
TABLE
  2
VPORT
  5
8
330
0
100
AcDbSymbolTable
 70
     1
  0
VPORT
  5
27A
330
8
100
AcDbSymbolTableRecord
100
AcDbViewportTableRecord
  2
*Active
 70
     0
 10
0.0
 20
0.0
 11
1.0
 21
1.0
 12
723.756230627167
 22
816.4160195090996
 13
0.0
 23
0.0
 14
10.0
 24
10.0
 15
40.0
 25
40.0
 16
0.0
 26
0.0
 36
1.0
 17
0.0
 27
0.0
 37
0.0
 40
692.0044555675558
 41
1.285714285714285
 42
50.0
 43
0.0
 44
0.0
 50
0.0
 51
0.0
 71
    16
 72
 20000
 73
     1
 74
     3
 75
     0
 76
     0
 77
     0
 78
     0
281
     0
 65
     0
110
0.0
120
0.0
130
0.0
111
1.0
121
0.0
131
0.0
112
0.0
122
1.0
132
0.0
 79
     0
146
0.0
348
285
 60
     3
 61
     5
292
     1
282
     0
141
0.0
142
0.0
 63
   250
421
  3355443
  0
ENDTAB
  0
TABLE
  2
LTYPE
  5
5
330
0
100
AcDbSymbolTable
 70
    18
  0
LTYPE
  5
14
330
5
100
AcDbSymbolTableRecord
100
AcDbLinetypeTableRecord
  2
ByBlock
 70
     0
  3

 72
    65
 73
     0
 40
0.0
  0
LTYPE
  5
15
330
5
100
AcDbSymbolTableRecord
100
AcDbLinetypeTableRecord
  2
ByLayer
 70
     0
  3

 72
    65
 73
     0
 40
0.0
  0
LTYPE
  5
16
330
5
100
AcDbSymbolTableRecord
100
AcDbLinetypeTableRecord
  2
Continuous
 70
     0
  3
Solid line
 72
    65
 73
     0
 40
0.0
  0
LTYPE
  5
4D
330
5
100
AcDbSymbolTableRecord
100
AcDbLinetypeTableRecord
  2
AM_ISO02W050
 70
     0
  3
__ __ __ __ __ __ __ __ __ __ __ __ __ __ __
 72
    65
 73
     2
 40
7.5
 49
6.0
 74
     0
 49
-1.5
 74
     0
  0
LTYPE
  5
4E
330
5
100
AcDbSymbolTableRecord
100
AcDbLinetypeTableRecord
  2
AM_ISO08W050
 70
     0
  3
____ . ____ . ____ . ____ . ____ . ____ . ____
 72
    65
 73
     4
 40
18.0
 49
12.0
 74
     0
 49
-1.5
 74
     0
 49
3.0
 74
     0
 49
-1.5
 74
     0
  0
LTYPE
  5
4F
330
5
100
AcDbSymbolTableRecord
100
AcDbLinetypeTableRecord
  2
AM_ISO09W050
 70
     0
  3
_____ . . _____ . . _____ . . ____ .. ____
 72
    65
 73
     6
 40
22.5
 49
12.0
 74
     0
 49
-1.5
 74
     0
 49
3.0
 74
     0
 49
-1.5
 74
     0
 49
3.0
 74
     0
 49
-1.5
 74
     0
  0
LTYPE
  5
50
330
5
100
AcDbSymbolTableRecord
100
AcDbLinetypeTableRecord
  2
Amconstr
 70
     0
  3
_______________________
 72
    65
 73
     2
 40
9999.0
 49
9999.0
 74
     0
 49
0.0
 74
     0
  0
LTYPE
  5
51
330
5
100
AcDbSymbolTableRecord
100
AcDbLinetypeTableRecord
  2
AM_ISO08W050x2
 70
     0
  3
__ . __ . __ . __ . __ . __
 72
    65
 73
     4
 40
9.0
 49
6.0
 74
     0
 49
-0.75
 74
     0
 49
1.5
 74
     0
 49
-0.75
 74
     0
  0
LTYPE
  5
52
330
5
100
AcDbSymbolTableRecord
100
AcDbLinetypeTableRecord
  2
AM_ISO02W050x2
 70
     0
  3
 _ _ _ _ _ _ _ _ _ _ _ _
 72
    65
 73
     2
 40
3.75
 49
3.0
 74
     0
 49
-0.75
 74
     0
  0
LTYPE
  5
55
330
5
100
AcDbSymbolTableRecord
100
AcDbLinetypeTableRecord
  2
Amzigzag
 70
     0
  3
/\/-/\/-/\/-/\/-/\/-/\/
 72
    65
 73
     2
 40
11.0001
 49
0.0001
 74
     4
 75
   136
340
23D
 46
0.04
 50
0.0
 44
0.0
 45
0.0
 49
-11.0
 74
     0
  0
LTYPE
  5
65
330
5
100
AcDbSymbolTableRecord
100
AcDbLinetypeTableRecord
  2
CENTER
 70
     0
  3
__ . __
 72
    65
 73
     4
 40
7.0
 49
4.0
 74
     0
 49
-1.0
 74
     0
 49
1.0
 74
     0
 49
-1.0
 74
     0
  0
LTYPE
  5
E0
330
5
100
AcDbSymbolTableRecord
100
AcDbLinetypeTableRecord
  2
HIDDEN
 70
     0
  3
Hidden __ __ __ __ __ __ __ __ __ __ __ __ __ _
 72
    65
 73
     2
 40
9.524999999999996
 49
6.349999999999998
 74
     0
 49
-3.174999999999998
 74
     0
  0
LTYPE
  5
E1
330
5
100
AcDbSymbolTableRecord
100
AcDbLinetypeTableRecord
  2
PHANTOM2
 70
     0
  3
Phantom (.5x) ___ _ _ ___ _ _ ___ _ _ ___ _ _
 72
    65
 73
     6
 40
31.75
 49
15.875
 74
     0
 49
-3.174999999999998
 74
     0
 49
3.174999999999998
 74
     0
 49
-3.174999999999998
 74
     0
 49
3.174999999999998
 74
     0
 49
-3.174999999999998
 74
     0
  0
LTYPE
  5
5A2
330
5
100
AcDbSymbolTableRecord
100
AcDbLinetypeTableRecord
  2
ACJISWELD
 70
     0
  3
_ _ _ _ _
 72
    65
 73
     2
 40
2.0
 49
2.0
 74
     0
 49
-1.0
 74
     0
  0
LTYPE
  5
622D
330
5
100
AcDbSymbolTableRecord
100
AcDbLinetypeTableRecord
  2
ACISOWELD
 70
     0
  3
_ _ _ _ _
 72
    65
 73
     2
 40
2.0
 49
2.0
 74
     0
 49
-1.0
 74
     0
  0
LTYPE
  5
622E
330
5
100
AcDbSymbolTableRecord
100
AcDbLinetypeTableRecord
  2
ACISOTGB
 70
     0
  3
__ . . __ . .
 72
    65
 73
     6
 40
9.0
 49
4.0
 74
     0
 49
-1.0
 74
     0
 49
1.0
 74
     0
 49
-1.0
 74
     0
 49
1.0
 74
     0
 49
-1.0
 74
     0
  0
LTYPE
  5
622F
330
5
100
AcDbSymbolTableRecord
100
AcDbLinetypeTableRecord
  2
ACISOTGL
 70
     0
  3
_ _ _ _ _
 72
    65
 73
     2
 40
3.0
 49
2.0
 74
     0
 49
-1.0
 74
     0
  0
ENDTAB
  0
TABLE
  2
LAYER
  5
2
102
{ACAD_XDICTIONARY
360
BF
102
}
330
0
100
AcDbSymbolTable
 70
    10
  0
LAYER
  5
10
102
{ACAD_XDICTIONARY
360
4574
102
}
330
2
100
AcDbSymbolTableRecord
100
AcDbLayerTableRecord
  2
0
 70
     0
 62
     7
  6
Continuous
370
    -3
390
F
347
27E
  0
LAYER
  5
81
102
{ACAD_XDICTIONARY
360
4576
102
}
330
2
100
AcDbSymbolTableRecord
100
AcDbLayerTableRecord
  2
AM_0 外形線1
 70
     0
 62
     7
  6
Continuous
370
    25
390
F
347
27E
  0
LAYER
  5
427
330
2
100
AcDbSymbolTableRecord
100
AcDbLayerTableRecord
  2
Defpoints
 70
     0
 62
     7
  6
Continuous
290
     0
370
    -3
390
F
347
27E
  0
LAYER
  5
25C9
102
{ACAD_XDICTIONARY
360
457D
102
}
330
2
100
AcDbSymbolTableRecord
100
AcDbLayerTableRecord
  2
AM_3 隠れ線
 70
     0
 62
     8
  6
ACJISWELD
370
    13
390
F
347
27E
1001
AcAecLayerStandard
1000

1000

  0
LAYER
  5
25CA
102
{ACAD_XDICTIONARY
360
457F
102
}
330
2
100
AcDbSymbolTableRecord
100
AcDbLayerTableRecord
  2
AM_4 細線
 70
     0
 62
     4
  6
Continuous
370
    13
390
F
347
27E
1001
AcAecLayerStandard
1000

1000

  0
LAYER
  5
26B3
102
{ACAD_XDICTIONARY
360
4585
102
}
330
2
100
AcDbSymbolTableRecord
100
AcDbLayerTableRecord
  2
AM_5 寸法線
 70
     0
 62
     3
  6
Continuous
370
    13
390
F
347
27E
1001
AcAecLayerStandard
1000

1000

  0
LAYER
  5
2CFE
102
{ACAD_XDICTIONARY
360
458B
102
}
330
2
100
AcDbSymbolTableRecord
100
AcDbLayerTableRecord
  2
AM_7 中心線
 70
     0
 62
     1
  6
AM_ISO08W050
370
    13
390
F
347
27E
1001
AcAecLayerStandard
1000

1000

  0
LAYER
  5
2CFF
102
{ACAD_XDICTIONARY
360
458D
102
}
330
2
100
AcDbSymbolTableRecord
100
AcDbLayerTableRecord
  2
AM_6 文字
 70
     0
 62
     2
  6
Continuous
370
    13
390
F
347
27E
1001
AcAecLayerStandard
1000

1000

  0
LAYER
  5
5DC6
330
2
100
AcDbSymbolTableRecord
100
AcDbLayerTableRecord
  2
AM_11 想像線
 70
     0
 62
     5
  6
AM_ISO09W050
370
    13
390
F
347
27E
1001
AcAecLayerStandard
1000

1000

  0
ENDTAB
  0
TABLE
  2
STYLE
  5
3
330
0
100
AcDbSymbolTable
 70
     9
  0
STYLE
  5
11
330
3
100
AcDbSymbolTableRecord
100
AcDbTextStyleTableRecord
  2
STANDARD
 70
     0
 40
0.0
 41
1.0
 50
0.0
 71
     0
 42
25.0
  3
ISOCP.SHX
  4
EXTFONT.SHX
  0
STYLE
  5
23D
330
3
100
AcDbSymbolTableRecord
100
AcDbTextStyleTableRecord
  2

 70
     1
 40
0.0
 41
1.0
 50
0.0
 71
     0
 42
2.5
  3
genltshp.shx
  4

  0
STYLE
  5
5D5
330
3
100
AcDbSymbolTableRecord
100
AcDbTextStyleTableRecord
  2
SEISA
 70
     0
 40
0.0
 41
0.9
 50
0.0
 71
     0
 42
25.0
  3
romans.shx
  4
extfont2.shx
  0
STYLE
  5
621D
330
3
100
AcDbSymbolTableRecord
100
AcDbTextStyleTableRecord
  2
ACISOTS
 70
     0
 40
1.0
 41
1.0
 50
0.0
 71
     0
 42
25.0
  3
isocp.shx
  4
extfont.shx
  0
STYLE
  5
622C
330
3
100
AcDbSymbolTableRecord
100
AcDbTextStyleTableRecord
  2
ACISOGDT
 70
     0
 40
0.0
 41
1.0
 50
0.0
 71
     0
 42
25.0
  3
amgdt.shx
  4

  0
ENDTAB
  0
TABLE
  2
VIEW
  5
6
330
0
100
AcDbSymbolTable
 70
     6
  0
VIEW
  5
91B
330
6
100
AcDbSymbolTableRecord
100
AcDbViewTableRecord
  2
AM_VIEW1
 70
     0
 40
840.0000000000003
 10
843.0259363722539
 20
1260.0
 41
1686.051873198848
 11
0.0
 21
0.0
 31
1.0
 12
0.0
 22
0.0
 32
0.0
 42
50.0
 43
0.0
 44
0.0
 50
0.0
 71
    16
281
     0
 72
     0
 73
     0
  0
VIEW
  5
91C
330
6
100
AcDbSymbolTableRecord
100
AcDbViewTableRecord
  2
AM_VIEW2
 70
     0
 40
840.0000000000003
 10
1532.974064082086
 20
1260.0
 41
1686.051873198848
 11
0.0
 21
0.0
 31
1.0
 12
0.0
 22
0.0
 32
0.0
 42
50.0
 43
0.0
 44
0.0
 50
0.0
 71
    16
281
     0
 72
     0
 73
     0
  0
VIEW
  5
91D
330
6
100
AcDbSymbolTableRecord
100
AcDbViewTableRecord
  2
AM_VIEW3
 70
     0
 40
840.0000000000003
 10
843.0259363722539
 20
420.0000000000001
 41
1686.051873198848
 11
0.0
 21
0.0
 31
1.0
 12
0.0
 22
0.0
 32
0.0
 42
50.0
 43
0.0
 44
0.0
 50
0.0
 71
    16
281
     0
 72
     0
 73
     0
  0
VIEW
  5
91E
330
6
100
AcDbSymbolTableRecord
100
AcDbViewTableRecord
  2
AM_VIEW4
 70
     0
 40
840.0000000000003
 10
1532.974064082086
 20
420.0000000000001
 41
1686.051873198848
 11
0.0
 21
0.0
 31
1.0
 12
0.0
 22
0.0
 32
0.0
 42
50.0
 43
0.0
 44
0.0
 50
0.0
 71
    16
281
     0
 72
     0
 73
     0
  0
VIEW
  5
91F
330
6
100
AcDbSymbolTableRecord
100
AcDbViewTableRecord
  2
AM_VIEW5
 70
     0
 40
840.0000000000003
 10
1188.00000022717
 20
840.0000000000003
 41
1686.051873198848
 11
0.0
 21
0.0
 31
1.0
 12
0.0
 22
0.0
 32
0.0
 42
50.0
 43
0.0
 44
0.0
 50
0.0
 71
    16
281
     0
 72
     0
 73
     0
  0
VIEW
  5
920
330
6
100
AcDbSymbolTableRecord
100
AcDbViewTableRecord
  2
AM_VIEW6
 70
     0
 40
1679.9832
 10
1188.00000022717
 20
840.0000000000003
 41
3372.070025360232
 11
0.0
 21
0.0
 31
1.0
 12
0.0
 22
0.0
 32
0.0
 42
50.0
 43
0.0
 44
0.0
 50
0.0
 71
    16
281
     0
 72
     0
 73
     0
  0
ENDTAB
  0
TABLE
  2
UCS
  5
7
330
0
100
AcDbSymbolTable
 70
     0
  0
ENDTAB
  0
TABLE
  2
APPID
  5
9
330
0
100
AcDbSymbolTable
 70
   392
  0
APPID
  5
12
330
9
100
AcDbSymbolTableRecord
100
AcDbRegAppTableRecord
  2
ACAD
 70
     0
  0
APPID
  5
30
330
9
100
AcDbSymbolTableRecord
100
AcDbRegAppTableRecord
  2
MCAD_NO_VIS
 70
     0
  0
APPID
  5
31
330
9
100
AcDbSymbolTableRecord
100
AcDbRegAppTableRecord
  2
ACAD_TEMP_GRAPHIC
 70
     0
  0
APPID
  5
44
330
9
100
AcDbSymbolTableRecord
100
AcDbRegAppTableRecord
  2
ACATTRIBSERVICES
 70
     0
  0
APPID
  5
F6
330
9
100
AcDbSymbolTableRecord
100
AcDbRegAppTableRecord
  2
AD_DRAW
 70
     0
  0
APPID
  5
114
330
9
100
AcDbSymbolTableRecord
100
AcDbRegAppTableRecord
  2
DESIGNERASSEMBLIES
 70
     0
  0
APPID
  5
118
330
9
100
AcDbSymbolTableRecord
100
AcDbRegAppTableRecord
  2
ACADM_DIM_EDIT
 70
     0
  0
APPID
  5
119
330
9
100
AcDbSymbolTableRecord
100
AcDbRegAppTableRecord
  2
AMDT_DM_ADJ
 70
     0
  0
APPID
  5
1AF
330
9
100
AcDbSymbolTableRecord
100
AcDbRegAppTableRecord
  2
ACAD_DSTYLE_DIMARC_LENGTH_SYMBOL
 70
     0
  0
APPID
  5
1B0
330
9
100
AcDbSymbolTableRecord
100
AcDbRegAppTableRecord
  2
ACAD_DSTYLE_DIMJOGGED_JOGANGLE_SYMBOL
 70
     0
  0
APPID
  5
2D7
330
9
100
AcDbSymbolTableRecord
100
AcDbRegAppTableRecord
  2
ACAD_MLEADERVER
 70
     0
  0
APPID
  5
355
330
9
100
AcDbSymbolTableRecord
100
AcDbRegAppTableRecord
  2
AcadAnnoPO
 70
     0
  0
APPID
  5
428
330
9
100
AcDbSymbolTableRecord
100
AcDbRegAppTableRecord
  2
ACAD_DSTYLE_DIMTEXT_FILL
 70
     0
  0
APPID
  5
429
330
9
100
AcDbSymbolTableRecord
100
AcDbRegAppTableRecord
  2
GENIUS_GENSCREG_15
 70
     0
  0
APPID
  5
42A
330
9
100
AcDbSymbolTableRecord
100
AcDbRegAppTableRecord
  2
GENIUS_GENOBJ-N-SDF_13
 70
     0
  0
APPID
  5
42B
330
9
100
AcDbSymbolTableRecord
100
AcDbRegAppTableRecord
  2
GENIUS_GENODEF_13
 70
     0
  0
APPID
  5
42C
330
9
100
AcDbSymbolTableRecord
100
AcDbRegAppTableRecord
  2
ACAD_EXEMPT_FROM_CAD_STANDARDS
 70
     0
  0
APPID
  5
42D
330
9
100
AcDbSymbolTableRecord
100
AcDbRegAppTableRecord
  2
AcAecLayerStandard
 70
     0
  0
APPID
  5
42E
330
9
100
AcDbSymbolTableRecord
100
AcDbRegAppTableRecord
  2
GENIUS_GENOBJ-N-CEN_13
 70
     0
  0
APPID
  5
42F
330
9
100
AcDbSymbolTableRecord
100
AcDbRegAppTableRecord
  2
GENIUS_GENCEN_19
 70
     0
  0
APPID
  5
430
330
9
100
AcDbSymbolTableRecord
100
AcDbRegAppTableRecord
  2
ACAD_DSTYLE_DIMINSPECT
 70
     0
  0
APPID
  5
431
330
9
100
AcDbSymbolTableRecord
100
AcDbRegAppTableRecord
  2
GENIUS_AMGTXT_16
 70
     0
  0
APPID
  5
432
330
9
100
AcDbSymbolTableRecord
100
AcDbRegAppTableRecord
  2
GENIUS_GENFIL_13
 70
     0
  0
APPID
  5
433
330
9
100
AcDbSymbolTableRecord
100
AcDbRegAppTableRecord
  2
GENIUS_GENOLIS_13
 70
     0
  0
APPID
  5
434
330
9
100
AcDbSymbolTableRecord
100
AcDbRegAppTableRecord
  2
GENIUS_GENOBJ-N-CHA_13
 70
     0
  0
APPID
  5
435
330
9
100
AcDbSymbolTableRecord
100
AcDbRegAppTableRecord
  2
GENIUS_GENOENT_13
 70
     0
  0
APPID
  5
436
330
9
100
AcDbSymbolTableRecord
100
AcDbRegAppTableRecord
  2
GENIUS_GENOREF_13
 70
     0
  0
APPID
  5
437
330
9
100
AcDbSymbolTableRecord
100
AcDbRegAppTableRecord
  2
GENIUS_GENOBJ-N-FIL_13
 70
     0
  0
APPID
  5
438
330
9
100
AcDbSymbolTableRecord
100
AcDbRegAppTableRecord
  2
GEVID1208829536
 70
     0
  0
APPID
  5
439
330
9
100
AcDbSymbolTableRecord
100
AcDbRegAppTableRecord
  2
GEVDC
 70
     0
  0
APPID
  5
43A
330
9
100
AcDbSymbolTableRecord
100
AcDbRegAppTableRecord
  2
GEVRADREF
 70
     0
  0
APPID
  5
43B
330
9
100
AcDbSymbolTableRecord
100
AcDbRegAppTableRecord
  2
GENIUS_GENBH_13
 70
     0
  0
APPID
  5
43C
330
9
100
AcDbSymbolTableRecord
100
AcDbRegAppTableRecord
  2
GENIUS_GENOBJ-NBEHI-BHF_13
 70
     0
  0
APPID
  5
43D
330
9
100
AcDbSymbolTableRecord
100
AcDbRegAppTableRecord
  2
GENIUS_GENOBJ-NBEHI-BHB_13
 70
     0
  0
APPID
  5
43E
330
9
100
AcDbSymbolTableRecord
100
AcDbRegAppTableRecord
  2
GEVID1208829537
 70
     0
  0
APPID
  5
43F
330
9
100
AcDbSymbolTableRecord
100
AcDbRegAppTableRecord
  2
ACAD_DSTYLE_DIMJAG
 70
     0
  0
APPID
  5
440
330
9
100
AcDbSymbolTableRecord
100
AcDbRegAppTableRecord
  2
ACAD_DSTYLE_DIMTALN
 70
     0
  0
APPID
  5
441
330
9
100
AcDbSymbolTableRecord
100
AcDbRegAppTableRecord
  2
AMG_2DHIDE
 70
     0
  0
APPID
  5
442
330
9
100
AcDbSymbolTableRecord
100
AcDbRegAppTableRecord
  2
AMG_2DSTRUCT_BTR
 70
     0
  0
APPID
  5
443
330
9
100
AcDbSymbolTableRecord
100
AcDbRegAppTableRecord
  2
GEVID1208845772
 70
     0
  0
APPID
  5
444
330
9
100
AcDbSymbolTableRecord
100
AcDbRegAppTableRecord
  2
GEVID1208845773
 70
     0
  0
APPID
  5
445
330
9
100
AcDbSymbolTableRecord
100
AcDbRegAppTableRecord
  2
ACADM_2DVIEW_IGN_NOTIFY
 70
     0
  0
APPID
  5
446
330
9
100
AcDbSymbolTableRecord
100
AcDbRegAppTableRecord
  2
GEVID1208845774
 70
     0
  0
APPID
  5
447
330
9
100
AcDbSymbolTableRecord
100
AcDbRegAppTableRecord
  2
GEVID1208845775
 70
     0
  0
APPID
  5
448
330
9
100
AcDbSymbolTableRecord
100
AcDbRegAppTableRecord
  2
GEVID1208845776
 70
     0
  0
APPID
  5
449
330
9
100
AcDbSymbolTableRecord
100
AcDbRegAppTableRecord
  2
GEVID1208845777
 70
     0
  0
APPID
  5
44A
330
9
100
AcDbSymbolTableRecord
100
AcDbRegAppTableRecord
  2
GEVCON
 70
     0
  0
APPID
  5
44B
330
9
100
AcDbSymbolTableRecord
100
AcDbRegAppTableRecord
  2
GENIUS_GENOBJ-F-SCPASSM_13
 70
     0
  0
APPID
  5
44C
330
9
100
AcDbSymbolTableRecord
100
AcDbRegAppTableRecord
  2
GEVID1208845778
 70
     0
  0
APPID
  5
44D
330
9
100
AcDbSymbolTableRecord
100
AcDbRegAppTableRecord
  2
GEVID1208845779
 70
     0
  0
APPID
  5
44E
330
9
100
AcDbSymbolTableRecord
100
AcDbRegAppTableRecord
  2
GEVID1208845780
 70
     0
  0
APPID
  5
44F
330
9
100
AcDbSymbolTableRecord
100
AcDbRegAppTableRecord
  2
GEVID1208845781
 70
     0
  0
APPID
  5
450
330
9
100
AcDbSymbolTableRecord
100
AcDbRegAppTableRecord
  2
GEVID1208845782
 70
     0
  0
APPID
  5
451
330
9
100
AcDbSymbolTableRecord
100
AcDbRegAppTableRecord
  2
GEVID1208845783
 70
     0
  0
APPID
  5
452
330
9
100
AcDbSymbolTableRecord
100
AcDbRegAppTableRecord
  2
GEVID1208845784
 70
     0
  0
APPID
  5
453
330
9
100
AcDbSymbolTableRecord
100
AcDbRegAppTableRecord
  2
GEVID1208845785
 70
     0
  0
APPID
  5
454
330
9
100
AcDbSymbolTableRecord
100
AcDbRegAppTableRecord
  2
GEVID1208845787
 70
     0
  0
APPID
  5
455
330
9
100
AcDbSymbolTableRecord
100
AcDbRegAppTableRecord
  2
GEVID1208845788
 70
     0
  0
APPID
  5
456
330
9
100
AcDbSymbolTableRecord
100
AcDbRegAppTableRecord
  2
GEVID1208845789
 70
     0
  0
APPID
  5
457
330
9
100
AcDbSymbolTableRecord
100
AcDbRegAppTableRecord
  2
GEVID1208845790
 70
     0
  0
APPID
  5
458
330
9
100
AcDbSymbolTableRecord
100
AcDbRegAppTableRecord
  2
GEVID1208845791
 70
     0
  0
APPID
  5
459
330
9
100
AcDbSymbolTableRecord
100
AcDbRegAppTableRecord
  2
GEVID1208845792
 70
     0
  0
APPID
  5
45A
330
9
100
AcDbSymbolTableRecord
100
AcDbRegAppTableRecord
  2
GEVID1208845793
 70
     0
  0
APPID
  5
45B
330
9
100
AcDbSymbolTableRecord
100
AcDbRegAppTableRecord
  2
GEVID1208845794
 70
     0
  0
APPID
  5
45C
330
9
100
AcDbSymbolTableRecord
100
AcDbRegAppTableRecord
  2
GEVID1208845795
 70
     0
  0
APPID
  5
45D
330
9
100
AcDbSymbolTableRecord
100
AcDbRegAppTableRecord
  2
GEVID1208845796
 70
     0
  0
APPID
  5
45E
330
9
100
AcDbSymbolTableRecord
100
AcDbRegAppTableRecord
  2
GEVID1208845797
 70
     0
  0
APPID
  5
45F
330
9
100
AcDbSymbolTableRecord
100
AcDbRegAppTableRecord
  2
GEVID1208845798
 70
     0
  0
APPID
  5
460
330
9
100
AcDbSymbolTableRecord
100
AcDbRegAppTableRecord
  2
GEVID1208845799
 70
     0
  0
APPID
  5
461
330
9
100
AcDbSymbolTableRecord
100
AcDbRegAppTableRecord
  2
GEVID1208845800
 70
     0
  0
APPID
  5
462
330
9
100
AcDbSymbolTableRecord
100
AcDbRegAppTableRecord
  2
GEVID1208845801
 70
     0
  0
APPID
  5
463
330
9
100
AcDbSymbolTableRecord
100
AcDbRegAppTableRecord
  2
GEVID1208845802
 70
     0
  0
APPID
  5
464
330
9
100
AcDbSymbolTableRecord
100
AcDbRegAppTableRecord
  2
GENIUS_GENOBJ-N-DIM_13
 70
     0
  0
APPID
  5
465
330
9
100
AcDbSymbolTableRecord
100
AcDbRegAppTableRecord
  2
GENIUS_GENDIM_13
 70
     0
  0
APPID
  5
466
330
9
100
AcDbSymbolTableRecord
100
AcDbRegAppTableRecord
  2
GENIUS_GENDIMSH_14
 70
     0
  0
APPID
  5
467
330
9
100
AcDbSymbolTableRecord
100
AcDbRegAppTableRecord
  2
GEVID1208845803
 70
     0
  0
APPID
  5
468
330
9
100
AcDbSymbolTableRecord
100
AcDbRegAppTableRecord
  2
GEVID1208845804
 70
     0
  0
APPID
  5
469
330
9
100
AcDbSymbolTableRecord
100
AcDbRegAppTableRecord
  2
GEVID1208845805
 70
     0
  0
APPID
  5
46A
330
9
100
AcDbSymbolTableRecord
100
AcDbRegAppTableRecord
  2
GEVID1208845806
 70
     0
  0
APPID
  5
46B
330
9
100
AcDbSymbolTableRecord
100
AcDbRegAppTableRecord
  2
GEVID1208845807
 70
     0
  0
APPID
  5
46C
330
9
100
AcDbSymbolTableRecord
100
AcDbRegAppTableRecord
  2
GEVID1208845808
 70
     0
  0
APPID
  5
46D
330
9
100
AcDbSymbolTableRecord
100
AcDbRegAppTableRecord
  2
GEVID1208845809
 70
     0
  0
APPID
  5
46E
330
9
100
AcDbSymbolTableRecord
100
AcDbRegAppTableRecord
  2
GEVID1208845810
 70
     0
  0
APPID
  5
46F
330
9
100
AcDbSymbolTableRecord
100
AcDbRegAppTableRecord
  2
GEVID1208845811
 70
     0
  0
APPID
  5
470
330
9
100
AcDbSymbolTableRecord
100
AcDbRegAppTableRecord
  2
GEVID1208845813
 70
     0
  0
APPID
  5
471
330
9
100
AcDbSymbolTableRecord
100
AcDbRegAppTableRecord
  2
GEVID1208845814
 70
     0
  0
APPID
  5
472
330
9
100
AcDbSymbolTableRecord
100
AcDbRegAppTableRecord
  2
GEVID1208845815
 70
     0
  0
APPID
  5
473
330
9
100
AcDbSymbolTableRecord
100
AcDbRegAppTableRecord
  2
GEVID1208845816
 70
     0
  0
APPID
  5
474
330
9
100
AcDbSymbolTableRecord
100
AcDbRegAppTableRecord
  2
GEVID1208845817
 70
     0
  0
APPID
  5
475
330
9
100
AcDbSymbolTableRecord
100
AcDbRegAppTableRecord
  2
GEVID1208845818
 70
     0
  0
APPID
  5
476
330
9
100
AcDbSymbolTableRecord
100
AcDbRegAppTableRecord
  2
GEVID1208845819
 70
     0
  0
APPID
  5
477
330
9
100
AcDbSymbolTableRecord
100
AcDbRegAppTableRecord
  2
GEVID1208845820
 70
     0
  0
APPID
  5
478
330
9
100
AcDbSymbolTableRecord
100
AcDbRegAppTableRecord
  2
GENIUS_GENOBJ-F-SHCL_13
 70
     0
  0
APPID
  5
479
330
9
100
AcDbSymbolTableRecord
100
AcDbRegAppTableRecord
  2
GENIUS_GEFMSH_13
 70
     0
  0
APPID
  5
47A
330
9
100
AcDbSymbolTableRecord
100
AcDbRegAppTableRecord
  2
GENIUS_GENOBJ-F-SHCA_13
 70
     0
  0
APPID
  5
47B
330
9
100
AcDbSymbolTableRecord
100
AcDbRegAppTableRecord
  2
GENIUS_GEFSH_13
 70
     0
  0
APPID
  5
47C
330
9
100
AcDbSymbolTableRecord
100
AcDbRegAppTableRecord
  2
GENIUS_GEFSHP_13
 70
     0
  0
APPID
  5
47D
330
9
100
AcDbSymbolTableRecord
100
AcDbRegAppTableRecord
  2
GENIUS_GEFSHP0_13
 70
     0
  0
APPID
  5
47E
330
9
100
AcDbSymbolTableRecord
100
AcDbRegAppTableRecord
  2
GENIUS_GEFSH0_13
 70
     0
  0
APPID
  5
47F
330
9
100
AcDbSymbolTableRecord
100
AcDbRegAppTableRecord
  2
GENIUS_GEFSHP1_13
 70
     0
  0
APPID
  5
480
330
9
100
AcDbSymbolTableRecord
100
AcDbRegAppTableRecord
  2
GENIUS_GEFSH1_13
 70
     0
  0
APPID
  5
481
330
9
100
AcDbSymbolTableRecord
100
AcDbRegAppTableRecord
  2
GEVID1208866337
 70
     0
  0
APPID
  5
482
330
9
100
AcDbSymbolTableRecord
100
AcDbRegAppTableRecord
  2
GEVID1208866338
 70
     0
  0
APPID
  5
483
330
9
100
AcDbSymbolTableRecord
100
AcDbRegAppTableRecord
  2
GEVID1208866339
 70
     0
  0
APPID
  5
484
330
9
100
AcDbSymbolTableRecord
100
AcDbRegAppTableRecord
  2
GEVID1208866340
 70
     0
  0
APPID
  5
485
330
9
100
AcDbSymbolTableRecord
100
AcDbRegAppTableRecord
  2
GEVID1208866341
 70
     0
  0
APPID
  5
486
330
9
100
AcDbSymbolTableRecord
100
AcDbRegAppTableRecord
  2
ACAD_PSEXT
 70
     0
  0
APPID
  5
487
330
9
100
AcDbSymbolTableRecord
100
AcDbRegAppTableRecord
  2
GEVID1208866342
 70
     0
  0
APPID
  5
488
330
9
100
AcDbSymbolTableRecord
100
AcDbRegAppTableRecord
  2
GEVID1208913836
 70
     0
  0
APPID
  5
489
330
9
100
AcDbSymbolTableRecord
100
AcDbRegAppTableRecord
  2
GEVID1208913837
 70
     0
  0
APPID
  5
48A
330
9
100
AcDbSymbolTableRecord
100
AcDbRegAppTableRecord
  2
GEVID1208913838
 70
     0
  0
APPID
  5
48B
330
9
100
AcDbSymbolTableRecord
100
AcDbRegAppTableRecord
  2
GEVID1208913839
 70
     0
  0
APPID
  5
48C
330
9
100
AcDbSymbolTableRecord
100
AcDbRegAppTableRecord
  2
GENIUS_GENDTOL_13
 70
     0
  0
APPID
  5
48D
330
9
100
AcDbSymbolTableRecord
100
AcDbRegAppTableRecord
  2
GEVID1208928889
 70
     0
  0
APPID
  5
48E
330
9
100
AcDbSymbolTableRecord
100
AcDbRegAppTableRecord
  2
GEVID1208928890
 70
     0
  0
APPID
  5
48F
330
9
100
AcDbSymbolTableRecord
100
AcDbRegAppTableRecord
  2
GEVID1208928891
 70
     0
  0
APPID
  5
490
330
9
100
AcDbSymbolTableRecord
100
AcDbRegAppTableRecord
  2
GEVID1208928892
 70
     0
  0
APPID
  5
491
330
9
100
AcDbSymbolTableRecord
100
AcDbRegAppTableRecord
  2
GEVID1208933827
 70
     0
  0
APPID
  5
492
330
9
100
AcDbSymbolTableRecord
100
AcDbRegAppTableRecord
  2
GEVID1208933829
 70
     0
  0
APPID
  5
493
330
9
100
AcDbSymbolTableRecord
100
AcDbRegAppTableRecord
  2
GEVID1208933830
 70
     0
  0
APPID
  5
494
330
9
100
AcDbSymbolTableRecord
100
AcDbRegAppTableRecord
  2
GEVID1208933831
 70
     0
  0
APPID
  5
495
330
9
100
AcDbSymbolTableRecord
100
AcDbRegAppTableRecord
  2
GEVID1208933832
 70
     0
  0
APPID
  5
496
330
9
100
AcDbSymbolTableRecord
100
AcDbRegAppTableRecord
  2
GEVID1208933833
 70
     0
  0
APPID
  5
497
330
9
100
AcDbSymbolTableRecord
100
AcDbRegAppTableRecord
  2
GEVID1208933834
 70
     0
  0
APPID
  5
498
330
9
100
AcDbSymbolTableRecord
100
AcDbRegAppTableRecord
  2
GEVID1208933835
 70
     0
  0
APPID
  5
499
330
9
100
AcDbSymbolTableRecord
100
AcDbRegAppTableRecord
  2
GEVID1208933836
 70
     0
  0
APPID
  5
49A
330
9
100
AcDbSymbolTableRecord
100
AcDbRegAppTableRecord
  2
GEVID1208933837
 70
     0
  0
APPID
  5
49B
330
9
100
AcDbSymbolTableRecord
100
AcDbRegAppTableRecord
  2
GEVID1208933838
 70
     0
  0
APPID
  5
49C
330
9
100
AcDbSymbolTableRecord
100
AcDbRegAppTableRecord
  2
GEVID1208933840
 70
     0
  0
APPID
  5
49D
330
9
100
AcDbSymbolTableRecord
100
AcDbRegAppTableRecord
  2
GEVID1208933842
 70
     0
  0
APPID
  5
49E
330
9
100
AcDbSymbolTableRecord
100
AcDbRegAppTableRecord
  2
GEVID1208933843
 70
     0
  0
APPID
  5
49F
330
9
100
AcDbSymbolTableRecord
100
AcDbRegAppTableRecord
  2
GEVID1208933844
 70
     0
  0
APPID
  5
4A0
330
9
100
AcDbSymbolTableRecord
100
AcDbRegAppTableRecord
  2
GEVID1208933845
 70
     0
  0
APPID
  5
4A1
330
9
100
AcDbSymbolTableRecord
100
AcDbRegAppTableRecord
  2
GEVID1208933846
 70
     0
  0
APPID
  5
4A2
330
9
100
AcDbSymbolTableRecord
100
AcDbRegAppTableRecord
  2
GEVID1208933847
 70
     0
  0
APPID
  5
4A3
330
9
100
AcDbSymbolTableRecord
100
AcDbRegAppTableRecord
  2
GEVID1208933848
 70
     0
  0
APPID
  5
4A4
330
9
100
AcDbSymbolTableRecord
100
AcDbRegAppTableRecord
  2
GEVID1208933849
 70
     0
  0
APPID
  5
4A5
330
9
100
AcDbSymbolTableRecord
100
AcDbRegAppTableRecord
  2
GEVID1208933850
 70
     0
  0
APPID
  5
4A6
330
9
100
AcDbSymbolTableRecord
100
AcDbRegAppTableRecord
  2
GEVID1208933851
 70
     0
  0
APPID
  5
4A7
330
9
100
AcDbSymbolTableRecord
100
AcDbRegAppTableRecord
  2
GEVID1208933852
 70
     0
  0
APPID
  5
4A8
330
9
100
AcDbSymbolTableRecord
100
AcDbRegAppTableRecord
  2
GEVID1208933853
 70
     0
  0
APPID
  5
4A9
330
9
100
AcDbSymbolTableRecord
100
AcDbRegAppTableRecord
  2
GEVID1208933854
 70
     0
  0
APPID
  5
4AA
330
9
100
AcDbSymbolTableRecord
100
AcDbRegAppTableRecord
  2
GEVID1208933855
 70
     0
  0
APPID
  5
4AB
330
9
100
AcDbSymbolTableRecord
100
AcDbRegAppTableRecord
  2
GEVID1208933856
 70
     0
  0
APPID
  5
4AC
330
9
100
AcDbSymbolTableRecord
100
AcDbRegAppTableRecord
  2
GEVID1208933857
 70
     0
  0
APPID
  5
4AD
330
9
100
AcDbSymbolTableRecord
100
AcDbRegAppTableRecord
  2
GEVID1208933858
 70
     0
  0
APPID
  5
4AE
330
9
100
AcDbSymbolTableRecord
100
AcDbRegAppTableRecord
  2
GEVID1208933859
 70
     0
  0
APPID
  5
4AF
330
9
100
AcDbSymbolTableRecord
100
AcDbRegAppTableRecord
  2
GEVID1208933860
 70
     0
  0
APPID
  5
4B0
330
9
100
AcDbSymbolTableRecord
100
AcDbRegAppTableRecord
  2
GEVID1208933861
 70
     0
  0
APPID
  5
4B1
330
9
100
AcDbSymbolTableRecord
100
AcDbRegAppTableRecord
  2
GEVID1208933862
 70
     0
  0
APPID
  5
4B2
330
9
100
AcDbSymbolTableRecord
100
AcDbRegAppTableRecord
  2
GEVID1208933863
 70
     0
  0
APPID
  5
4B3
330
9
100
AcDbSymbolTableRecord
100
AcDbRegAppTableRecord
  2
GEVID1208933864
 70
     0
  0
APPID
  5
4B4
330
9
100
AcDbSymbolTableRecord
100
AcDbRegAppTableRecord
  2
GEVID1208933865
 70
     0
  0
APPID
  5
4B5
330
9
100
AcDbSymbolTableRecord
100
AcDbRegAppTableRecord
  2
GEVID1208933866
 70
     0
  0
APPID
  5
4B6
330
9
100
AcDbSymbolTableRecord
100
AcDbRegAppTableRecord
  2
GEVID1208933867
 70
     0
  0
APPID
  5
4B7
330
9
100
AcDbSymbolTableRecord
100
AcDbRegAppTableRecord
  2
GEVID1208933868
 70
     0
  0
APPID
  5
4B8
330
9
100
AcDbSymbolTableRecord
100
AcDbRegAppTableRecord
  2
GEVID1208933869
 70
     0
  0
APPID
  5
4B9
330
9
100
AcDbSymbolTableRecord
100
AcDbRegAppTableRecord
  2
GEVID1208933870
 70
     0
  0
APPID
  5
4BA
330
9
100
AcDbSymbolTableRecord
100
AcDbRegAppTableRecord
  2
GEVID1208933871
 70
     0
  0
APPID
  5
4BB
330
9
100
AcDbSymbolTableRecord
100
AcDbRegAppTableRecord
  2
GEVID1208933872
 70
     0
  0
APPID
  5
4BC
330
9
100
AcDbSymbolTableRecord
100
AcDbRegAppTableRecord
  2
GEVID1208933873
 70
     0
  0
APPID
  5
4BD
330
9
100
AcDbSymbolTableRecord
100
AcDbRegAppTableRecord
  2
GEVID1208933874
 70
     0
  0
APPID
  5
4BE
330
9
100
AcDbSymbolTableRecord
100
AcDbRegAppTableRecord
  2
GEVID1208933875
 70
     0
  0
APPID
  5
4BF
330
9
100
AcDbSymbolTableRecord
100
AcDbRegAppTableRecord
  2
GEVID1208933876
 70
     0
  0
APPID
  5
4C0
330
9
100
AcDbSymbolTableRecord
100
AcDbRegAppTableRecord
  2
ACAD_DSTYLE_DIMRADIAL_EXTENSION
 70
     0
  0
APPID
  5
4C1
330
9
100
AcDbSymbolTableRecord
100
AcDbRegAppTableRecord
  2
GEVID1208999100
 70
     0
  0
APPID
  5
4C2
330
9
100
AcDbSymbolTableRecord
100
AcDbRegAppTableRecord
  2
GEVID1208999101
 70
     0
  0
APPID
  5
4C3
330
9
100
AcDbSymbolTableRecord
100
AcDbRegAppTableRecord
  2
GEVID1208999102
 70
     0
  0
APPID
  5
4C4
330
9
100
AcDbSymbolTableRecord
100
AcDbRegAppTableRecord
  2
GEVID1208999103
 70
     0
  0
APPID
  5
4C5
330
9
100
AcDbSymbolTableRecord
100
AcDbRegAppTableRecord
  2
GEVID1208999105
 70
     0
  0
APPID
  5
4C6
330
9
100
AcDbSymbolTableRecord
100
AcDbRegAppTableRecord
  2
GEVID1208999106
 70
     0
  0
APPID
  5
4C7
330
9
100
AcDbSymbolTableRecord
100
AcDbRegAppTableRecord
  2
GEVID1208999108
 70
     0
  0
APPID
  5
4C8
330
9
100
AcDbSymbolTableRecord
100
AcDbRegAppTableRecord
  2
GEVID1208999109
 70
     0
  0
APPID
  5
4C9
330
9
100
AcDbSymbolTableRecord
100
AcDbRegAppTableRecord
  2
GEVID1208999110
 70
     0
  0
APPID
  5
4CA
330
9
100
AcDbSymbolTableRecord
100
AcDbRegAppTableRecord
  2
GEVID1208999111
 70
     0
  0
APPID
  5
4CB
330
9
100
AcDbSymbolTableRecord
100
AcDbRegAppTableRecord
  2
GEVID1208999112
 70
     0
  0
APPID
  5
4CC
330
9
100
AcDbSymbolTableRecord
100
AcDbRegAppTableRecord
  2
GEVID1208999113
 70
     0
  0
APPID
  5
4CD
330
9
100
AcDbSymbolTableRecord
100
AcDbRegAppTableRecord
  2
GEVID1208999114
 70
     0
  0
APPID
  5
4CE
330
9
100
AcDbSymbolTableRecord
100
AcDbRegAppTableRecord
  2
GEVID1210218799
 70
     0
  0
APPID
  5
4CF
330
9
100
AcDbSymbolTableRecord
100
AcDbRegAppTableRecord
  2
GEVID1210218800
 70
     0
  0
APPID
  5
4D0
330
9
100
AcDbSymbolTableRecord
100
AcDbRegAppTableRecord
  2
GENIUS_GEFWELD_13
 70
     0
  0
APPID
  5
4D1
330
9
100
AcDbSymbolTableRecord
100
AcDbRegAppTableRecord
  2
GENIUS_GENOBJ-F-WELS_13
 70
     0
  0
APPID
  5
4D2
330
9
100
AcDbSymbolTableRecord
100
AcDbRegAppTableRecord
  2
AcadAnnotative
 70
     0
  0
APPID
  5
4D3
330
9
100
AcDbSymbolTableRecord
100
AcDbRegAppTableRecord
  2
GEVID1210145339
 70
     0
  0
APPID
  5
4D4
330
9
100
AcDbSymbolTableRecord
100
AcDbRegAppTableRecord
  2
ACAD_DSTYLE_DIMBREAK
 70
     0
  0
APPID
  5
4D5
330
9
100
AcDbSymbolTableRecord
100
AcDbRegAppTableRecord
  2
GEVID1210145340
 70
     0
  0
APPID
  5
4D6
330
9
100
AcDbSymbolTableRecord
100
AcDbRegAppTableRecord
  2
GEVID1210145341
 70
     0
  0
APPID
  5
4D7
330
9
100
AcDbSymbolTableRecord
100
AcDbRegAppTableRecord
  2
GEVID1210145342
 70
     0
  0
APPID
  5
4D8
330
9
100
AcDbSymbolTableRecord
100
AcDbRegAppTableRecord
  2
GEVID1210145343
 70
     0
  0
APPID
  5
4D9
330
9
100
AcDbSymbolTableRecord
100
AcDbRegAppTableRecord
  2
GEVID1210145344
 70
     0
  0
APPID
  5
4DA
330
9
100
AcDbSymbolTableRecord
100
AcDbRegAppTableRecord
  2
GEVID1210145345
 70
     0
  0
APPID
  5
4DB
330
9
100
AcDbSymbolTableRecord
100
AcDbRegAppTableRecord
  2
GEVID1210152816
 70
     0
  0
APPID
  5
4DC
330
9
100
AcDbSymbolTableRecord
100
AcDbRegAppTableRecord
  2
GEVID1210153850
 70
     0
  0
APPID
  5
4DD
330
9
100
AcDbSymbolTableRecord
100
AcDbRegAppTableRecord
  2
GEVID1210153851
 70
     0
  0
APPID
  5
4DE
330
9
100
AcDbSymbolTableRecord
100
AcDbRegAppTableRecord
  2
GEVID1210153852
 70
     0
  0
APPID
  5
4DF
330
9
100
AcDbSymbolTableRecord
100
AcDbRegAppTableRecord
  2
GEVID1210549898
 70
     0
  0
APPID
  5
4E0
330
9
100
AcDbSymbolTableRecord
100
AcDbRegAppTableRecord
  2
GEVID1210549899
 70
     0
  0
APPID
  5
4E1
330
9
100
AcDbSymbolTableRecord
100
AcDbRegAppTableRecord
  2
GEVID1210549900
 70
     0
  0
APPID
  5
4E2
330
9
100
AcDbSymbolTableRecord
100
AcDbRegAppTableRecord
  2
GEVID1210549901
 70
     0
  0
APPID
  5
4E3
330
9
100
AcDbSymbolTableRecord
100
AcDbRegAppTableRecord
  2
GEVID1210549902
 70
     0
  0
APPID
  5
4E4
330
9
100
AcDbSymbolTableRecord
100
AcDbRegAppTableRecord
  2
GEVID1210549903
 70
     0
  0
APPID
  5
4E5
330
9
100
AcDbSymbolTableRecord
100
AcDbRegAppTableRecord
  2
GEVID1210549904
 70
     0
  0
APPID
  5
4E6
330
9
100
AcDbSymbolTableRecord
100
AcDbRegAppTableRecord
  2
GEVID1210549905
 70
     0
  0
APPID
  5
4E7
330
9
100
AcDbSymbolTableRecord
100
AcDbRegAppTableRecord
  2
GEVID1210549906
 70
     0
  0
APPID
  5
4E8
330
9
100
AcDbSymbolTableRecord
100
AcDbRegAppTableRecord
  2
GEVID1210549907
 70
     0
  0
APPID
  5
4E9
330
9
100
AcDbSymbolTableRecord
100
AcDbRegAppTableRecord
  2
GEVID1210549908
 70
     0
  0
APPID
  5
4EA
330
9
100
AcDbSymbolTableRecord
100
AcDbRegAppTableRecord
  2
GEVID1210549909
 70
     0
  0
APPID
  5
4EB
330
9
100
AcDbSymbolTableRecord
100
AcDbRegAppTableRecord
  2
GEVID1210549910
 70
     0
  0
APPID
  5
4EC
330
9
100
AcDbSymbolTableRecord
100
AcDbRegAppTableRecord
  2
GEVID1210549911
 70
     0
  0
APPID
  5
4ED
330
9
100
AcDbSymbolTableRecord
100
AcDbRegAppTableRecord
  2
GEVID1210549912
 70
     0
  0
APPID
  5
4EE
330
9
100
AcDbSymbolTableRecord
100
AcDbRegAppTableRecord
  2
GEVID1210549913
 70
     0
  0
APPID
  5
4EF
330
9
100
AcDbSymbolTableRecord
100
AcDbRegAppTableRecord
  2
GEVID1210549914
 70
     0
  0
APPID
  5
4F0
330
9
100
AcDbSymbolTableRecord
100
AcDbRegAppTableRecord
  2
GEVID1210549915
 70
     0
  0
APPID
  5
4F1
330
9
100
AcDbSymbolTableRecord
100
AcDbRegAppTableRecord
  2
GEVID1210549916
 70
     0
  0
APPID
  5
4F2
330
9
100
AcDbSymbolTableRecord
100
AcDbRegAppTableRecord
  2
GEVID1210549917
 70
     0
  0
APPID
  5
4F3
330
9
100
AcDbSymbolTableRecord
100
AcDbRegAppTableRecord
  2
GENIUS_GENOBJ-N-CRS_13
 70
     0
  0
APPID
  5
4F4
330
9
100
AcDbSymbolTableRecord
100
AcDbRegAppTableRecord
  2
GEVID1210549918
 70
     0
  0
APPID
  5
4F5
330
9
100
AcDbSymbolTableRecord
100
AcDbRegAppTableRecord
  2
GENIUS_GENOBJ-N-CRC_13
 70
     0
  0
APPID
  5
4F6
330
9
100
AcDbSymbolTableRecord
100
AcDbRegAppTableRecord
  2
GENIUS_GENCRC_14
 70
     0
  0
APPID
  5
4F7
330
9
100
AcDbSymbolTableRecord
100
AcDbRegAppTableRecord
  2
GEVID1210549919
 70
     0
  0
APPID
  5
4F8
330
9
100
AcDbSymbolTableRecord
100
AcDbRegAppTableRecord
  2
GEVID1210549921
 70
     0
  0
APPID
  5
4F9
330
9
100
AcDbSymbolTableRecord
100
AcDbRegAppTableRecord
  2
GEVID1210549922
 70
     0
  0
APPID
  5
4FA
330
9
100
AcDbSymbolTableRecord
100
AcDbRegAppTableRecord
  2
GEVID1210635173
 70
     0
  0
APPID
  5
4FB
330
9
100
AcDbSymbolTableRecord
100
AcDbRegAppTableRecord
  2
GEVID1210635174
 70
     0
  0
APPID
  5
4FC
330
9
100
AcDbSymbolTableRecord
100
AcDbRegAppTableRecord
  2
GEVID1210635175
 70
     0
  0
APPID
  5
4FD
330
9
100
AcDbSymbolTableRecord
100
AcDbRegAppTableRecord
  2
GEVID1210635176
 70
     0
  0
APPID
  5
4FE
330
9
100
AcDbSymbolTableRecord
100
AcDbRegAppTableRecord
  2
GEVID1210635177
 70
     0
  0
APPID
  5
4FF
330
9
100
AcDbSymbolTableRecord
100
AcDbRegAppTableRecord
  2
GEVID1210635178
 70
     0
  0
APPID
  5
500
330
9
100
AcDbSymbolTableRecord
100
AcDbRegAppTableRecord
  2
GENIUS_GENIUS_GENBHEDTMP_13
 70
     0
  0
APPID
  5
501
330
9
100
AcDbSymbolTableRecord
100
AcDbRegAppTableRecord
  2
GEVID1210635179
 70
     0
  0
APPID
  5
502
330
9
100
AcDbSymbolTableRecord
100
AcDbRegAppTableRecord
  2
GEVID1210635180
 70
     0
  0
APPID
  5
503
330
9
100
AcDbSymbolTableRecord
100
AcDbRegAppTableRecord
  2
GEVID1210635181
 70
     0
  0
APPID
  5
504
330
9
100
AcDbSymbolTableRecord
100
AcDbRegAppTableRecord
  2
GEVID1210635182
 70
     0
  0
APPID
  5
505
330
9
100
AcDbSymbolTableRecord
100
AcDbRegAppTableRecord
  2
GEVID1210635184
 70
     0
  0
APPID
  5
506
330
9
100
AcDbSymbolTableRecord
100
AcDbRegAppTableRecord
  2
GEVID1210635185
 70
     0
  0
APPID
  5
507
330
9
100
AcDbSymbolTableRecord
100
AcDbRegAppTableRecord
  2
GEVID1210635186
 70
     0
  0
APPID
  5
508
330
9
100
AcDbSymbolTableRecord
100
AcDbRegAppTableRecord
  2
GEVID1210635187
 70
     0
  0
APPID
  5
509
330
9
100
AcDbSymbolTableRecord
100
AcDbRegAppTableRecord
  2
GEVID1210635188
 70
     0
  0
APPID
  5
50A
330
9
100
AcDbSymbolTableRecord
100
AcDbRegAppTableRecord
  2
GEVID1210635189
 70
     0
  0
APPID
  5
50B
330
9
100
AcDbSymbolTableRecord
100
AcDbRegAppTableRecord
  2
GEVID1210635190
 70
     0
  0
APPID
  5
50C
330
9
100
AcDbSymbolTableRecord
100
AcDbRegAppTableRecord
  2
GENIUS_GENREC_14
 70
     0
  0
APPID
  5
50D
330
9
100
AcDbSymbolTableRecord
100
AcDbRegAppTableRecord
  2
GENIUS_GENOBJ-N-REC_13
 70
     0
  0
APPID
  5
50E
330
9
100
AcDbSymbolTableRecord
100
AcDbRegAppTableRecord
  2
GEVID1210676655
 70
     0
  0
APPID
  5
50F
330
9
100
AcDbSymbolTableRecord
100
AcDbRegAppTableRecord
  2
GEVID1210676656
 70
     0
  0
APPID
  5
510
330
9
100
AcDbSymbolTableRecord
100
AcDbRegAppTableRecord
  2
GEVID1210676657
 70
     0
  0
APPID
  5
511
330
9
100
AcDbSymbolTableRecord
100
AcDbRegAppTableRecord
  2
GEVID1210676659
 70
     0
  0
APPID
  5
512
330
9
100
AcDbSymbolTableRecord
100
AcDbRegAppTableRecord
  2
GEVID1210676660
 70
     0
  0
APPID
  5
513
330
9
100
AcDbSymbolTableRecord
100
AcDbRegAppTableRecord
  2
GEVID1210676661
 70
     0
  0
APPID
  5
514
330
9
100
AcDbSymbolTableRecord
100
AcDbRegAppTableRecord
  2
GEVID1210676662
 70
     0
  0
APPID
  5
515
330
9
100
AcDbSymbolTableRecord
100
AcDbRegAppTableRecord
  2
GEVID1210721646
 70
     0
  0
APPID
  5
516
330
9
100
AcDbSymbolTableRecord
100
AcDbRegAppTableRecord
  2
GEVID1210721647
 70
     0
  0
APPID
  5
517
330
9
100
AcDbSymbolTableRecord
100
AcDbRegAppTableRecord
  2
GEVID1210721648
 70
     0
  0
APPID
  5
518
330
9
100
AcDbSymbolTableRecord
100
AcDbRegAppTableRecord
  2
GEVID1210721649
 70
     0
  0
APPID
  5
519
330
9
100
AcDbSymbolTableRecord
100
AcDbRegAppTableRecord
  2
GEVID1210721650
 70
     0
  0
APPID
  5
51A
330
9
100
AcDbSymbolTableRecord
100
AcDbRegAppTableRecord
  2
GEVID1210721651
 70
     0
  0
APPID
  5
51B
330
9
100
AcDbSymbolTableRecord
100
AcDbRegAppTableRecord
  2
GEVID1210721652
 70
     0
  0
APPID
  5
51C
330
9
100
AcDbSymbolTableRecord
100
AcDbRegAppTableRecord
  2
GEVID1210721653
 70
     0
  0
APPID
  5
51D
330
9
100
AcDbSymbolTableRecord
100
AcDbRegAppTableRecord
  2
PE_URL
 70
     0
  0
APPID
  5
51E
330
9
100
AcDbSymbolTableRecord
100
AcDbRegAppTableRecord
  2
GEVID1210825555
 70
     0
  0
APPID
  5
51F
330
9
100
AcDbSymbolTableRecord
100
AcDbRegAppTableRecord
  2
GEVID1210825556
 70
     0
  0
APPID
  5
520
330
9
100
AcDbSymbolTableRecord
100
AcDbRegAppTableRecord
  2
GEVID1210825557
 70
     0
  0
APPID
  5
521
330
9
100
AcDbSymbolTableRecord
100
AcDbRegAppTableRecord
  2
GEVID1210825558
 70
     0
  0
APPID
  5
522
330
9
100
AcDbSymbolTableRecord
100
AcDbRegAppTableRecord
  2
GEVID1210825559
 70
     0
  0
APPID
  5
523
330
9
100
AcDbSymbolTableRecord
100
AcDbRegAppTableRecord
  2
GEVID1210825560
 70
     0
  0
APPID
  5
524
330
9
100
AcDbSymbolTableRecord
100
AcDbRegAppTableRecord
  2
GEVID1210825561
 70
     0
  0
APPID
  5
525
330
9
100
AcDbSymbolTableRecord
100
AcDbRegAppTableRecord
  2
GEVID1210825562
 70
     0
  0
APPID
  5
526
330
9
100
AcDbSymbolTableRecord
100
AcDbRegAppTableRecord
  2
GEVID1210825563
 70
     0
  0
APPID
  5
527
330
9
100
AcDbSymbolTableRecord
100
AcDbRegAppTableRecord
  2
GEVID1210825564
 70
     0
  0
APPID
  5
528
330
9
100
AcDbSymbolTableRecord
100
AcDbRegAppTableRecord
  2
GEVID1210825565
 70
     0
  0
APPID
  5
529
330
9
100
AcDbSymbolTableRecord
100
AcDbRegAppTableRecord
  2
GEVID1210825566
 70
     0
  0
APPID
  5
52A
330
9
100
AcDbSymbolTableRecord
100
AcDbRegAppTableRecord
  2
GEVID1210825567
 70
     0
  0
APPID
  5
52B
330
9
100
AcDbSymbolTableRecord
100
AcDbRegAppTableRecord
  2
GENIUS_GENOBJ-N-ZOO_13
 70
     0
  0
APPID
  5
52C
330
9
100
AcDbSymbolTableRecord
100
AcDbRegAppTableRecord
  2
GENIUS_GENZOO_17
 70
     0
  0
APPID
  5
52D
330
9
100
AcDbSymbolTableRecord
100
AcDbRegAppTableRecord
  2
ACADANNOTATIVEDECOMPOSITION
 70
     0
  0
APPID
  5
52E
330
9
100
AcDbSymbolTableRecord
100
AcDbRegAppTableRecord
  2
GENIUS_GENOBJ-N-HTC_13
 70
     0
  0
APPID
  5
52F
330
9
100
AcDbSymbolTableRecord
100
AcDbRegAppTableRecord
  2
GENIUS_GENHATCH_13
 70
     0
  0
APPID
  5
530
330
9
100
AcDbSymbolTableRecord
100
AcDbRegAppTableRecord
  2
GEVID1210896020
 70
     0
  0
APPID
  5
531
330
9
100
AcDbSymbolTableRecord
100
AcDbRegAppTableRecord
  2
GEVID1210896021
 70
     0
  0
APPID
  5
532
330
9
100
AcDbSymbolTableRecord
100
AcDbRegAppTableRecord
  2
GEVID1209083540
 70
     0
  0
APPID
  5
533
330
9
100
AcDbSymbolTableRecord
100
AcDbRegAppTableRecord
  2
GEVMK
 70
     0
  0
APPID
  5
534
330
9
100
AcDbSymbolTableRecord
100
AcDbRegAppTableRecord
  2
GEVID1209083542
 70
     0
  0
APPID
  5
535
330
9
100
AcDbSymbolTableRecord
100
AcDbRegAppTableRecord
  2
GEVID1209083543
 70
     0
  0
APPID
  5
536
330
9
100
AcDbSymbolTableRecord
100
AcDbRegAppTableRecord
  2
GEVID1209083544
 70
     0
  0
APPID
  5
537
330
9
100
AcDbSymbolTableRecord
100
AcDbRegAppTableRecord
  2
GEVID1209083545
 70
     0
  0
APPID
  5
538
330
9
100
AcDbSymbolTableRecord
100
AcDbRegAppTableRecord
  2
GEVID1209083546
 70
     0
  0
APPID
  5
539
330
9
100
AcDbSymbolTableRecord
100
AcDbRegAppTableRecord
  2
GEVID1209083547
 70
     0
  0
APPID
  5
53A
330
9
100
AcDbSymbolTableRecord
100
AcDbRegAppTableRecord
  2
GEVID1209083548
 70
     0
  0
APPID
  5
53B
330
9
100
AcDbSymbolTableRecord
100
AcDbRegAppTableRecord
  2
GEVID1209083549
 70
     0
  0
APPID
  5
53C
330
9
100
AcDbSymbolTableRecord
100
AcDbRegAppTableRecord
  2
GEVID1209083550
 70
     0
  0
APPID
  5
53D
330
9
100
AcDbSymbolTableRecord
100
AcDbRegAppTableRecord
  2
GEVID1209083551
 70
     0
  0
APPID
  5
53E
330
9
100
AcDbSymbolTableRecord
100
AcDbRegAppTableRecord
  2
GEVID1209083552
 70
     0
  0
APPID
  5
53F
330
9
100
AcDbSymbolTableRecord
100
AcDbRegAppTableRecord
  2
GEVID1209083553
 70
     0
  0
APPID
  5
540
330
9
100
AcDbSymbolTableRecord
100
AcDbRegAppTableRecord
  2
GEVID1210896022
 70
     0
  0
APPID
  5
541
330
9
100
AcDbSymbolTableRecord
100
AcDbRegAppTableRecord
  2
GEVID1211508364
 70
     0
  0
APPID
  5
542
330
9
100
AcDbSymbolTableRecord
100
AcDbRegAppTableRecord
  2
GEVID1211414908
 70
     0
  0
APPID
  5
543
330
9
100
AcDbSymbolTableRecord
100
AcDbRegAppTableRecord
  2
GEVID1211414909
 70
     0
  0
APPID
  5
544
330
9
100
AcDbSymbolTableRecord
100
AcDbRegAppTableRecord
  2
GEVID1211508359
 70
     0
  0
APPID
  5
545
330
9
100
AcDbSymbolTableRecord
100
AcDbRegAppTableRecord
  2
GEVID1211508360
 70
     0
  0
APPID
  5
546
330
9
100
AcDbSymbolTableRecord
100
AcDbRegAppTableRecord
  2
GEVID1211508361
 70
     0
  0
APPID
  5
547
330
9
100
AcDbSymbolTableRecord
100
AcDbRegAppTableRecord
  2
GEVID1211508362
 70
     0
  0
APPID
  5
548
330
9
100
AcDbSymbolTableRecord
100
AcDbRegAppTableRecord
  2
GEVID1211508363
 70
     0
  0
APPID
  5
549
330
9
100
AcDbSymbolTableRecord
100
AcDbRegAppTableRecord
  2
GEVID1211878469
 70
     0
  0
APPID
  5
54A
330
9
100
AcDbSymbolTableRecord
100
AcDbRegAppTableRecord
  2
GEVID1212642819
 70
     0
  0
APPID
  5
54B
330
9
100
AcDbSymbolTableRecord
100
AcDbRegAppTableRecord
  2
GEVID1212642820
 70
     0
  0
APPID
  5
54C
330
9
100
AcDbSymbolTableRecord
100
AcDbRegAppTableRecord
  2
GEVID1212642821
 70
     0
  0
APPID
  5
54D
330
9
100
AcDbSymbolTableRecord
100
AcDbRegAppTableRecord
  2
GEVID1212642822
 70
     0
  0
APPID
  5
54E
330
9
100
AcDbSymbolTableRecord
100
AcDbRegAppTableRecord
  2
GEVID1212642823
 70
     0
  0
APPID
  5
54F
330
9
100
AcDbSymbolTableRecord
100
AcDbRegAppTableRecord
  2
GEVID1212642825
 70
     0
  0
APPID
  5
550
330
9
100
AcDbSymbolTableRecord
100
AcDbRegAppTableRecord
  2
GEVID1212642826
 70
     0
  0
APPID
  5
551
330
9
100
AcDbSymbolTableRecord
100
AcDbRegAppTableRecord
  2
GEVID1212642827
 70
     0
  0
APPID
  5
552
330
9
100
AcDbSymbolTableRecord
100
AcDbRegAppTableRecord
  2
GEVID1212642828
 70
     0
  0
APPID
  5
553
330
9
100
AcDbSymbolTableRecord
100
AcDbRegAppTableRecord
  2
GEVID1212642831
 70
     0
  0
APPID
  5
554
330
9
100
AcDbSymbolTableRecord
100
AcDbRegAppTableRecord
  2
GEVID1212642834
 70
     0
  0
APPID
  5
555
330
9
100
AcDbSymbolTableRecord
100
AcDbRegAppTableRecord
  2
GEVID1212642835
 70
     0
  0
APPID
  5
556
330
9
100
AcDbSymbolTableRecord
100
AcDbRegAppTableRecord
  2
GEVID1212642836
 70
     0
  0
APPID
  5
557
330
9
100
AcDbSymbolTableRecord
100
AcDbRegAppTableRecord
  2
GEVID1212642837
 70
     0
  0
APPID
  5
558
330
9
100
AcDbSymbolTableRecord
100
AcDbRegAppTableRecord
  2
GEVID1212642839
 70
     0
  0
APPID
  5
559
330
9
100
AcDbSymbolTableRecord
100
AcDbRegAppTableRecord
  2
GEVID1212642840
 70
     0
  0
APPID
  5
55A
330
9
100
AcDbSymbolTableRecord
100
AcDbRegAppTableRecord
  2
GEVID1212642841
 70
     0
  0
APPID
  5
55B
330
9
100
AcDbSymbolTableRecord
100
AcDbRegAppTableRecord
  2
GEVID1212655312
 70
     0
  0
APPID
  5
55C
330
9
100
AcDbSymbolTableRecord
100
AcDbRegAppTableRecord
  2
GEVID1212655313
 70
     0
  0
APPID
  5
55D
330
9
100
AcDbSymbolTableRecord
100
AcDbRegAppTableRecord
  2
GEVID1212656533
 70
     0
  0
APPID
  5
55E
330
9
100
AcDbSymbolTableRecord
100
AcDbRegAppTableRecord
  2
GEVID1212656534
 70
     0
  0
APPID
  5
55F
330
9
100
AcDbSymbolTableRecord
100
AcDbRegAppTableRecord
  2
GEVID1212656535
 70
     0
  0
APPID
  5
560
330
9
100
AcDbSymbolTableRecord
100
AcDbRegAppTableRecord
  2
GEVID1212656536
 70
     0
  0
APPID
  5
561
330
9
100
AcDbSymbolTableRecord
100
AcDbRegAppTableRecord
  2
GEVID1212656538
 70
     0
  0
APPID
  5
562
330
9
100
AcDbSymbolTableRecord
100
AcDbRegAppTableRecord
  2
GEVID1212656541
 70
     0
  0
APPID
  5
563
330
9
100
AcDbSymbolTableRecord
100
AcDbRegAppTableRecord
  2
GEVID1212656543
 70
     0
  0
APPID
  5
564
330
9
100
AcDbSymbolTableRecord
100
AcDbRegAppTableRecord
  2
GENIUS_GENOBJ-F-PFASSM_13
 70
     0
  0
APPID
  5
565
330
9
100
AcDbSymbolTableRecord
100
AcDbRegAppTableRecord
  2
GEVID1212656544
 70
     0
  0
APPID
  5
566
330
9
100
AcDbSymbolTableRecord
100
AcDbRegAppTableRecord
  2
GEVID1212656545
 70
     0
  0
APPID
  5
567
330
9
100
AcDbSymbolTableRecord
100
AcDbRegAppTableRecord
  2
GEVID1212656546
 70
     0
  0
APPID
  5
568
330
9
100
AcDbSymbolTableRecord
100
AcDbRegAppTableRecord
  2
GEVID1212656547
 70
     0
  0
APPID
  5
569
330
9
100
AcDbSymbolTableRecord
100
AcDbRegAppTableRecord
  2
GEVID1212656548
 70
     0
  0
APPID
  5
56A
330
9
100
AcDbSymbolTableRecord
100
AcDbRegAppTableRecord
  2
GEVID1212656549
 70
     0
  0
APPID
  5
56B
330
9
100
AcDbSymbolTableRecord
100
AcDbRegAppTableRecord
  2
GEVID1212656550
 70
     0
  0
APPID
  5
56C
330
9
100
AcDbSymbolTableRecord
100
AcDbRegAppTableRecord
  2
GEVID1212656552
 70
     0
  0
APPID
  5
56D
330
9
100
AcDbSymbolTableRecord
100
AcDbRegAppTableRecord
  2
GEVID1212656553
 70
     0
  0
APPID
  5
56E
330
9
100
AcDbSymbolTableRecord
100
AcDbRegAppTableRecord
  2
GEVID1212656554
 70
     0
  0
APPID
  5
56F
330
9
100
AcDbSymbolTableRecord
100
AcDbRegAppTableRecord
  2
GEVID1212656555
 70
     0
  0
APPID
  5
570
330
9
100
AcDbSymbolTableRecord
100
AcDbRegAppTableRecord
  2
GEVID1212656556
 70
     0
  0
APPID
  5
571
330
9
100
AcDbSymbolTableRecord
100
AcDbRegAppTableRecord
  2
GEVID1212656557
 70
     0
  0
APPID
  5
572
330
9
100
AcDbSymbolTableRecord
100
AcDbRegAppTableRecord
  2
GEVID1212656559
 70
     0
  0
APPID
  5
573
330
9
100
AcDbSymbolTableRecord
100
AcDbRegAppTableRecord
  2
GEVID1212656560
 70
     0
  0
APPID
  5
574
330
9
100
AcDbSymbolTableRecord
100
AcDbRegAppTableRecord
  2
GEVID1212656561
 70
     0
  0
APPID
  5
575
330
9
100
AcDbSymbolTableRecord
100
AcDbRegAppTableRecord
  2
GEVID1212656562
 70
     0
  0
APPID
  5
576
330
9
100
AcDbSymbolTableRecord
100
AcDbRegAppTableRecord
  2
GEVID1212656563
 70
     0
  0
APPID
  5
577
330
9
100
AcDbSymbolTableRecord
100
AcDbRegAppTableRecord
  2
GEVID1212711781
 70
     0
  0
APPID
  5
578
330
9
100
AcDbSymbolTableRecord
100
AcDbRegAppTableRecord
  2
GEVID1212711782
 70
     0
  0
APPID
  5
579
330
9
100
AcDbSymbolTableRecord
100
AcDbRegAppTableRecord
  2
GEVID1212711783
 70
     0
  0
APPID
  5
57A
330
9
100
AcDbSymbolTableRecord
100
AcDbRegAppTableRecord
  2
GEVID1212711784
 70
     0
  0
APPID
  5
57B
330
9
100
AcDbSymbolTableRecord
100
AcDbRegAppTableRecord
  2
GEVID1212711788
 70
     0
  0
APPID
  5
57C
330
9
100
AcDbSymbolTableRecord
100
AcDbRegAppTableRecord
  2
GEVID1212711789
 70
     0
  0
APPID
  5
57D
330
9
100
AcDbSymbolTableRecord
100
AcDbRegAppTableRecord
  2
GEVID1212711790
 70
     0
  0
APPID
  5
57E
330
9
100
AcDbSymbolTableRecord
100
AcDbRegAppTableRecord
  2
GEVID1212711791
 70
     0
  0
APPID
  5
57F
330
9
100
AcDbSymbolTableRecord
100
AcDbRegAppTableRecord
  2
GEVID1212711792
 70
     0
  0
APPID
  5
580
330
9
100
AcDbSymbolTableRecord
100
AcDbRegAppTableRecord
  2
GEVID1212711793
 70
     0
  0
APPID
  5
581
330
9
100
AcDbSymbolTableRecord
100
AcDbRegAppTableRecord
  2
GEVID1212711794
 70
     0
  0
APPID
  5
582
330
9
100
AcDbSymbolTableRecord
100
AcDbRegAppTableRecord
  2
GEVID1212711795
 70
     0
  0
APPID
  5
583
330
9
100
AcDbSymbolTableRecord
100
AcDbRegAppTableRecord
  2
GEVID1212711797
 70
     0
  0
APPID
  5
584
330
9
100
AcDbSymbolTableRecord
100
AcDbRegAppTableRecord
  2
GEVID1212711798
 70
     0
  0
APPID
  5
585
330
9
100
AcDbSymbolTableRecord
100
AcDbRegAppTableRecord
  2
GEVID1212711799
 70
     0
  0
APPID
  5
586
330
9
100
AcDbSymbolTableRecord
100
AcDbRegAppTableRecord
  2
GEVID1212711800
 70
     0
  0
APPID
  5
587
330
9
100
AcDbSymbolTableRecord
100
AcDbRegAppTableRecord
  2
GEVID1212711801
 70
     0
  0
APPID
  5
588
330
9
100
AcDbSymbolTableRecord
100
AcDbRegAppTableRecord
  2
GEVID1212711802
 70
     0
  0
APPID
  5
589
330
9
100
AcDbSymbolTableRecord
100
AcDbRegAppTableRecord
  2
GEVID1212711803
 70
     0
  0
APPID
  5
58A
330
9
100
AcDbSymbolTableRecord
100
AcDbRegAppTableRecord
  2
GEVID1212711804
 70
     0
  0
APPID
  5
58B
330
9
100
AcDbSymbolTableRecord
100
AcDbRegAppTableRecord
  2
GEVID1212711805
 70
     0
  0
APPID
  5
58C
330
9
100
AcDbSymbolTableRecord
100
AcDbRegAppTableRecord
  2
GEVID1212711806
 70
     0
  0
APPID
  5
58D
330
9
100
AcDbSymbolTableRecord
100
AcDbRegAppTableRecord
  2
GEVID1212711807
 70
     0
  0
APPID
  5
58E
330
9
100
AcDbSymbolTableRecord
100
AcDbRegAppTableRecord
  2
GEVID1212711808
 70
     0
  0
APPID
  5
58F
330
9
100
AcDbSymbolTableRecord
100
AcDbRegAppTableRecord
  2
GEVID1212711809
 70
     0
  0
APPID
  5
590
330
9
100
AcDbSymbolTableRecord
100
AcDbRegAppTableRecord
  2
GEVID1212711810
 70
     0
  0
APPID
  5
591
330
9
100
AcDbSymbolTableRecord
100
AcDbRegAppTableRecord
  2
GEVID1212711811
 70
     0
  0
APPID
  5
90A
330
9
100
AcDbSymbolTableRecord
100
AcDbRegAppTableRecord
  2
GENIUS_GENTRA_14
 70
     0
  0
APPID
  5
919
330
9
100
AcDbSymbolTableRecord
100
AcDbRegAppTableRecord
  2
GENIUS_GENOBJ-N-TIT_13
 70
     0
  0
APPID
  5
91A
330
9
100
AcDbSymbolTableRecord
100
AcDbRegAppTableRecord
  2
GENIUS_GENTITLE_13
 70
     0
  0
APPID
  5
949
330
9
100
AcDbSymbolTableRecord
100
AcDbRegAppTableRecord
  2
GENIUS_GENBLLY_14
 70
     0
  0
APPID
  5
DDD
330
9
100
AcDbSymbolTableRecord
100
AcDbRegAppTableRecord
  2
GEVID1213165152
 70
     0
  0
APPID
  5
12F9
330
9
100
AcDbSymbolTableRecord
100
AcDbRegAppTableRecord
  2
AcDbDynamicBlockTrueName
 70
     0
  0
APPID
  5
12FA
330
9
100
AcDbSymbolTableRecord
100
AcDbRegAppTableRecord
  2
ACDBBLOCKREPETAG
 70
     0
  0
APPID
  5
1C15
330
9
100
AcDbSymbolTableRecord
100
AcDbRegAppTableRecord
  2
GEVID1214872427
 70
     0
  0
APPID
  5
1C2A
330
9
100
AcDbSymbolTableRecord
100
AcDbRegAppTableRecord
  2
GEVID1214872428
 70
     0
  0
APPID
  5
1C2F
330
9
100
AcDbSymbolTableRecord
100
AcDbRegAppTableRecord
  2
GEVID1214872429
 70
     0
  0
APPID
  5
1C33
330
9
100
AcDbSymbolTableRecord
100
AcDbRegAppTableRecord
  2
GEVID1214872430
 70
     0
  0
APPID
  5
1C3F
330
9
100
AcDbSymbolTableRecord
100
AcDbRegAppTableRecord
  2
GEVID1214872432
 70
     0
  0
APPID
  5
1C4E
330
9
100
AcDbSymbolTableRecord
100
AcDbRegAppTableRecord
  2
GEVID1214872433
 70
     0
  0
APPID
  5
20DC
330
9
100
AcDbSymbolTableRecord
100
AcDbRegAppTableRecord
  2
AcDbDynamicBlockGUID
 70
     0
  0
APPID
  5
20FD
330
9
100
AcDbSymbolTableRecord
100
AcDbRegAppTableRecord
  2
GENIUS_GENOBJ-N-REV_13
 70
     0
  0
APPID
  5
20FE
330
9
100
AcDbSymbolTableRecord
100
AcDbRegAppTableRecord
  2
GENIUS_GENOBJ-N-RSSYM_13
 70
     0
  0
APPID
  5
20FF
330
9
100
AcDbSymbolTableRecord
100
AcDbRegAppTableRecord
  2
GENIUS_GENSYMENT_13
 70
     0
  0
APPID
  5
2100
330
9
100
AcDbSymbolTableRecord
100
AcDbRegAppTableRecord
  2
GENIUS_GENSCSYM_13
 70
     0
  0
ENDTAB
  0
TABLE
  2
DIMSTYLE
  5
A
330
0
100
AcDbSymbolTable
 70
    23
100
AcDbDimStyleTable
 71
     1
340
5AB
  0
DIMSTYLE
105
5AB
330
A
100
AcDbSymbolTableRecord
100
AcDbDimStyleTableRecord
  2
SEISA
 70
     0
  4
"
 40
4.0
 41
2.5
 42
0.625
 43
10.0
 44
0.625
 47
0.1
 48
0.1
 73
     0
 74
     0
 77
     3
 78
     8
 79
     2
 90
     1
140
3.5
141
0.0
143
0.0393701
146
0.71
147
1.5
172
     1
176
     3
177
     3
178
     3
271
     2
272
     2
283
     0
286
     8
340
5D5
341
69
342
69
371
    -1
372
    -1
1001
ACAD_DSTYLE_DIMJAG
1070
   388
1040
1.5
1001
ACAD_DSTYLE_DIMTALN
1070
   392
1070
     1
  0
DIMSTYLE
105
5E9
102
{ACAD_REACTORS
330
2EEE
330
2EF1
330
2EF4
330
2EF7
330
2EFA
330
2F00
330
2F03
330
2F06
330
2F0F
330
2F22
330
2F25
330
2F28
330
5D94
330
5E1A
330
5E44
102
}
330
A
100
AcDbSymbolTableRecord
100
AcDbDimStyleTableRecord
  2
SEISA$0
 70
     0
  4
"
 40
4.0
 41
2.5
 42
0.625
 43
10.0
 44
0.625
 47
0.1
 48
0.1
 73
     0
 74
     0
 77
     3
 78
     8
 79
     2
 90
     1
140
3.5
141
0.0
143
0.0393701
146
0.71
147
1.5
172
     1
176
     3
177
     3
178
     3
271
     2
272
     2
283
     0
286
     8
340
5D5
341
69
342
69
371
    -1
372
    -1
  0
DIMSTYLE
105
6238
330
A
100
AcDbSymbolTableRecord
100
AcDbDimStyleTableRecord
  2
AM_ISO
 70
     0
  4
"
 41
2.5
 42
1.0
 43
10.0
 44
1.0
 47
0.1
 48
0.1
 73
     0
 74
     0
 77
     1
 78
     8
 79
     2
 90
     1
140
3.5
141
0.0
143
0.0393701
146
0.71
147
1.5
172
     1
176
   256
177
   256
178
     2
271
     2
272
     3
274
     4
283
     0
284
     8
340
11
371
    -1
372
    -1
  0
DIMSTYLE
105
6239
330
A
100
AcDbSymbolTableRecord
100
AcDbDimStyleTableRecord
  2
AM_ISO$3
 70
     0
  4
"
 41
2.5
 42
1.0
 43
10.0
 44
1.0
 47
0.1
 48
0.1
 73
     0
 77
     1
 78
     8
 79
     2
 90
     1
140
3.5
141
0.0
143
0.0393701
146
0.71
147
1.5
176
   256
177
   256
178
     2
271
     2
272
     3
274
     4
283
     0
284
     8
288
     1
289
     0
340
11
371
    -1
372
    -1
  0
DIMSTYLE
105
623A
330
A
100
AcDbSymbolTableRecord
100
AcDbDimStyleTableRecord
  2
AM_ISO$4
 70
     0
  4
"
 41
2.5
 42
1.0
 43
10.0
 44
1.0
 47
0.1
 48
0.1
 73
     0
 77
     1
 78
     8
 79
     2
 90
     1
140
3.5
141
0.0
143
0.0393701
146
0.71
147
1.5
176
   256
177
   256
178
     2
271
     2
272
     3
274
     4
283
     0
284
     8
288
     1
289
     0
340
11
371
    -1
372
    -1
  0
DIMSTYLE
105
623B
330
A
100
AcDbSymbolTableRecord
100
AcDbDimStyleTableRecord
  2
AM_ISO$6
 70
     0
  4
"
 41
2.5
 42
1.0
 43
10.0
 44
1.0
 47
0.1
 48
0.1
 73
     0
 74
     0
 78
     8
 79
     2
 90
     1
140
3.5
141
0.0
143
0.0393701
146
0.71
147
1.5
172
     1
176
   256
177
   256
178
     2
271
     2
272
     3
274
     4
283
     0
284
     8
340
11
371
    -1
372
    -1
  0
DIMSTYLE
105
623C
330
A
100
AcDbSymbolTableRecord
100
AcDbDimStyleTableRecord
  2
AM_ISO$7
 70
     0
  4
"
 41
2.5
 42
1.0
 43
10.0
 44
1.0
 47
0.1
 48
0.1
 73
     0
 74
     0
 77
     1
 78
     8
 79
     2
 90
     1
140
5.0
141
0.0
143
0.0393701
146
0.71
147
1.5
172
     1
176
   256
177
   256
178
     2
271
     2
272
     3
274
     4
283
     0
284
     8
340
11
371
    -1
372
    -1
  0
DIMSTYLE
105
623D
330
A
100
AcDbSymbolTableRecord
100
AcDbDimStyleTableRecord
  2
AM_ISO$SF
 70
     0
  4
"
 41
2.5
 42
1.0
 43
10.0
 44
1.0
 47
0.1
 48
0.1
 73
     0
 74
     0
 75
     1
 76
     1
 77
     1
 78
     8
 79
     2
 90
     1
140
3.5
141
0.0
143
0.0393701
146
0.71
147
1.5
172
     1
176
   256
177
   256
178
     2
271
     2
272
     3
274
     4
283
     0
284
     8
340
11
371
    -1
372
    -1
  0
DIMSTYLE
105
623E
330
A
100
AcDbSymbolTableRecord
100
AcDbDimStyleTableRecord
  2
AM_ISO$SH
 70
     0
  4
"
 41
2.5
 42
1.0
 43
10.0
 44
1.0
 47
0.1
 48
0.1
 73
     0
 74
     0
 75
     1
 76
     1
 77
     1
 78
     8
 79
     2
 90
     1
140
3.5
141
0.0
143
0.0393701
144
2.0
146
0.71
147
1.5
172
     1
173
     1
176
   256
177
   256
178
     2
271
     2
272
     3
274
     4
283
     0
284
     8
340
11
343
74
371
    -1
372
    -1
  0
ENDTAB
  0
TABLE
  2
BLOCK_RECORD
  5
1
330
0
100
AcDbSymbolTable
 70
    38
  0
BLOCK_RECORD
  5
1F
102
{ACAD_XDICTIONARY
360
82
102
}
330
1
100
AcDbSymbolTableRecord
100
AcDbBlockTableRecord
  2
*Model_Space
340
22
 70
     0
280
     1
281
     0
  0
BLOCK_RECORD
  5
1B
330
1
100
AcDbSymbolTableRecord
100
AcDbBlockTableRecord
  2
*Paper_Space
340
1E
 70
     0
280
     1
281
     0
  0
BLOCK_RECORD
  5
23
330
1
100
AcDbSymbolTableRecord
100
AcDbBlockTableRecord
  2
*Paper_Space0
340
26
 70
     0
280
     1
281
     0
  0
BLOCK_RECORD
  5
69
330
1
100
AcDbSymbolTableRecord
100
AcDbBlockTableRecord
  2
_Open30
340
0
102
{BLKREFS
331
5A78
331
5A79
331
5A81
331
5A82
331
5A8A
331
5A8B
331
5A93
331
5A94
331
5AB2
331
5AB3
331
5ABD
331
5ABE
331
5AC6
331
5AC7
331
5B22
331
5B2D
331
5B35
331
5B36
331
5DC0
331
5DC1
331
5E71
331
5E72
331
5E7C
331
5E7D
331
5F82
331
5F83
331
6071
331
6072
102
}
 70
     0
280
     1
281
     0
  0
BLOCK_RECORD
  5
74
330
1
100
AcDbSymbolTableRecord
100
AcDbBlockTableRecord
  2
GENAXEH
340
0
 70
     0
280
     1
281
     0
  0
BLOCK_RECORD
  5
29D5
330
1
100
AcDbSymbolTableRecord
100
AcDbBlockTableRecord
  2
GENDOT
340
0
102
{BLKREFS
331
5B21
331
5B2C
102
}
 70
     0
280
     1
281
     0
  0
BLOCK_RECORD
  5
29DA
102
{ACAD_XDICTIONARY
360
29DB
102
}
330
1
100
AcDbSymbolTableRecord
100
AcDbBlockTableRecord
  2
ロッカクアナツキプラグ-1 R1／4
340
0
310
2800000020000000200000000100080000000000000400000000000000000000000000000000000000000000000080000080000000808000800000008000800080800000C0C0C000C0DCC000F0CAA6000020400000206000002080000020A0000020C0000020E00000400000004020000040400000406000004080000040A0
310
000040C0000040E00000600000006020000060400000606000006080000060A0000060C0000060E00000800000008020000080400000806000008080000080A0000080C0000080E00000A0000000A0200000A0400000A0600000A0800000A0A00000A0C00000A0E00000C0000000C0200000C0400000C0600000C0800000C0
310
A00000C0C00000C0E00000E0000000E0200000E0400000E0600000E0800000E0A00000E0C00000E0E00040000000400020004000400040006000400080004000A0004000C0004000E00040200000402020004020400040206000402080004020A0004020C0004020E000404000004040200040404000404060004040800040
310
40A0004040C0004040E00040600000406020004060400040606000406080004060A0004060C0004060E00040800000408020004080400040806000408080004080A0004080C0004080E00040A0000040A0200040A0400040A0600040A0800040A0A00040A0C00040A0E00040C0000040C0200040C0400040C0600040C08000
310
40C0A00040C0C00040C0E00040E0000040E0200040E0400040E0600040E0800040E0A00040E0C00040E0E00080000000800020008000400080006000800080008000A0008000C0008000E00080200000802020008020400080206000802080008020A0008020C0008020E00080400000804020008040400080406000804080
310
008040A0008040C0008040E00080600000806020008060400080606000806080008060A0008060C0008060E00080800000808020008080400080806000808080008080A0008080C0008080E00080A0000080A0200080A0400080A0600080A0800080A0A00080A0C00080A0E00080C0000080C0200080C0400080C0600080C0
310
800080C0A00080C0C00080C0E00080E0000080E0200080E0400080E0600080E0800080E0A00080E0C00080E0E000C0000000C0002000C0004000C0006000C0008000C000A000C000C000C000E000C0200000C0202000C0204000C0206000C0208000C020A000C020C000C020E000C0400000C0402000C0404000C0406000C0
310
408000C040A000C040C000C040E000C0600000C0602000C0604000C0606000C0608000C060A000C060C000C060E000C0800000C0802000C0804000C0806000C0808000C080A000C080C000C080E000C0A00000C0A02000C0A04000C0A06000C0A08000C0A0A000C0A0C000C0A0E000C0C00000C0C02000C0C04000C0C06000
310
C0C08000C0C0A000F0FBFF00A4A0A000808080000000FF0000FF000000FFFF00FF000000FF00FF00FFFF0000FFFFFF00000000000000000000000000000000000000000000000000000000000000000000000000000000000000000000000000F9000000000000000000000000000000000000000000000000000000000000
310
00F900000000000000000000000000000000000000000000000000000000000000F900000000000000000000000000000000000000000000000000000000000000F900000000000000000000000000000000000000000000000000000000000000F900000000000000000000000000000000000000000000000000000000FE
310
FE00F9000000000000000000000000000000000000000000000000000000FE00FFFFFEFEFE0000000000000000000000000000000000000000000000FEFE00FF0000FFFFFFFFFEFE00000000000000000000000000000000000000FE00FFFF000000F9000000FFFFFE0000000000000000000000000000000000FE00FF0000
310
000000FF00000000FFFE00000000000000000000000000000000FE00FF00000000FFFFF9FFFF000000FFFE000000000000000000000000000000FEFF000000FFFF0000F90000FF0000FFFE000000000000000000000000000000FEFF0000FF00000000F9000000FF0000FFFE0000000000000000000000000000FEFF0000FF
310
00000000F9000000FF0000FFFE0000000000000000000000000000FEFF0000FF00000000F9000000FF000000FFFE00000000000000F9F9F9F9F9F9F9F9F9F9FFF9F9F9F9F9F9F9F9FFF9F9F9F9F9F9F9F9F9F90000000000000000FEFF0000FF00000000F9000000FF000000FF0000000000000000000000000000FEFF0000
310
FF00000000F9000000FF0000FFFE0000000000000000000000000000FEFF000000FFFF0000F900FFFF000000FF000000000000000000000000000000FE00FF00000000FFFFF9FF00000000FFFE00000000000000000000000000000000FE00FFFF00000000FF0000000000FF000000000000000000000000000000000000FE
310
FE00FF000000F9000000FFFFFE0000000000000000000000000000000000000000FE00FF0000FFFFFFFFFEFE00000000000000000000000000000000000000000000FE00FFFFFEFEFEFE00000000000000000000000000000000000000000000000000FEFEFEF9000000000000000000000000000000000000000000000000
310
00000000000000F900000000000000000000000000000000000000000000000000000000000000F900000000000000000000000000000000000000000000000000000000000000F900000000000000000000000000000000000000000000000000000000000000F90000000000000000000000000000000000000000000000
310
0000000000000000F90000000000000000000000000000000000000000000000000000000000000000000000000000000000000000000000
102
{BLKREFS
331
2A3E
102
}
 70
     4
280
     1
281
     0
  0
BLOCK_RECORD
  5
29F6
102
{ACAD_XDICTIONARY
360
29F7
102
}
330
1
100
AcDbSymbolTableRecord
100
AcDbBlockTableRecord
  2
ロッカクアナツキプラグ-2 R1／2
340
0
310
2800000020000000200000000100080000000000000400000000000000000000000000000000000000000000000080000080000000808000800000008000800080800000C0C0C000C0DCC000F0CAA6000020400000206000002080000020A0000020C0000020E00000400000004020000040400000406000004080000040A0
310
000040C0000040E00000600000006020000060400000606000006080000060A0000060C0000060E00000800000008020000080400000806000008080000080A0000080C0000080E00000A0000000A0200000A0400000A0600000A0800000A0A00000A0C00000A0E00000C0000000C0200000C0400000C0600000C0800000C0
310
A00000C0C00000C0E00000E0000000E0200000E0400000E0600000E0800000E0A00000E0C00000E0E00040000000400020004000400040006000400080004000A0004000C0004000E00040200000402020004020400040206000402080004020A0004020C0004020E000404000004040200040404000404060004040800040
310
40A0004040C0004040E00040600000406020004060400040606000406080004060A0004060C0004060E00040800000408020004080400040806000408080004080A0004080C0004080E00040A0000040A0200040A0400040A0600040A0800040A0A00040A0C00040A0E00040C0000040C0200040C0400040C0600040C08000
310
40C0A00040C0C00040C0E00040E0000040E0200040E0400040E0600040E0800040E0A00040E0C00040E0E00080000000800020008000400080006000800080008000A0008000C0008000E00080200000802020008020400080206000802080008020A0008020C0008020E00080400000804020008040400080406000804080
310
008040A0008040C0008040E00080600000806020008060400080606000806080008060A0008060C0008060E00080800000808020008080400080806000808080008080A0008080C0008080E00080A0000080A0200080A0400080A0600080A0800080A0A00080A0C00080A0E00080C0000080C0200080C0400080C0600080C0
310
800080C0A00080C0C00080C0E00080E0000080E0200080E0400080E0600080E0800080E0A00080E0C00080E0E000C0000000C0002000C0004000C0006000C0008000C000A000C000C000C000E000C0200000C0202000C0204000C0206000C0208000C020A000C020C000C020E000C0400000C0402000C0404000C0406000C0
310
408000C040A000C040C000C040E000C0600000C0602000C0604000C0606000C0608000C060A000C060C000C060E000C0800000C0802000C0804000C0806000C0808000C080A000C080C000C080E000C0A00000C0A02000C0A04000C0A06000C0A08000C0A0A000C0A0C000C0A0E000C0C00000C0C02000C0C04000C0C06000
310
C0C08000C0C0A000F0FBFF00A4A0A000808080000000FF0000FF000000FFFF00FF000000FF00FF00FFFF0000FFFFFF00000000000000000000000000000000000000000000000000000000000000000000000000000000000000000000000000F9000000000000000000000000000000000000000000000000000000000000
310
00F900000000000000000000000000000000000000000000000000000000000000F900000000000000000000000000000000000000000000000000000000000000F900000000000000000000000000000000000000000000000000000000000000F900000000000000000000000000000000000000000000000000000000FE
310
FE00F9000000000000000000000000000000000000000000000000000000FE00FFFFFEFEFE0000000000000000000000000000000000000000000000FEFE00FF0000FFFFFFFFFEFE00000000000000000000000000000000000000FE00FFFF000000F9000000FFFFFE0000000000000000000000000000000000FE00FF0000
310
000000FF00000000FFFE00000000000000000000000000000000FE00FF00000000FFFFF9FF00000000FFFE000000000000000000000000000000FEFF000000FFFF0000F900FFFF0000FFFE000000000000000000000000000000FEFF0000FF00000000F9000000FF0000FFFE0000000000000000000000000000FEFF0000FF
310
00000000F9000000FF0000FFFE0000000000000000000000000000FEFF0000FF00000000F9000000FF000000FFFE00000000000000F9F9F9F9F9F9FEFFF9F9FFF9F9F9F9F9F9F9F9FFF9F9F9FFFEF9F9F9F9F90000000000000000FEFF0000FF00000000F9000000FF000000FF0000000000000000000000000000FEFF0000
310
FF00000000F9000000FF0000FFFE0000000000000000000000000000FEFF000000FFFF0000F90000FF000000FF000000000000000000000000000000FE00FF00000000FFFFF9FFFF000000FFFE00000000000000000000000000000000FE00FFFF00000000FF0000000000FF000000000000000000000000000000000000FE
310
FE00FF000000F9000000FFFFFE0000000000000000000000000000000000000000FE00FF0000FFFFFFFFFEFE00000000000000000000000000000000000000000000FE00FFFFFEFEFEFE00000000000000000000000000000000000000000000000000FEFEFEF9000000000000000000000000000000000000000000000000
310
00000000000000F900000000000000000000000000000000000000000000000000000000000000F900000000000000000000000000000000000000000000000000000000000000F900000000000000000000000000000000000000000000000000000000000000F90000000000000000000000000000000000000000000000
310
0000000000000000F90000000000000000000000000000000000000000000000000000000000000000000000000000000000000000000000
102
{BLKREFS
331
2A80
102
}
 70
     4
280
     1
281
     0
  0
BLOCK_RECORD
  5
2A11
102
{ACAD_XDICTIONARY
360
2A12
102
}
330
1
100
AcDbSymbolTableRecord
100
AcDbBlockTableRecord
  2
ケースＡ CMVH450
340
0
310
2800000020000000200000000100080000000000000400000000000000000000000000000000000000000000000080000080000000808000800000008000800080800000C0C0C000C0DCC000F0CAA6000020400000206000002080000020A0000020C0000020E00000400000004020000040400000406000004080000040A0
310
000040C0000040E00000600000006020000060400000606000006080000060A0000060C0000060E00000800000008020000080400000806000008080000080A0000080C0000080E00000A0000000A0200000A0400000A0600000A0800000A0A00000A0C00000A0E00000C0000000C0200000C0400000C0600000C0800000C0
310
A00000C0C00000C0E00000E0000000E0200000E0400000E0600000E0800000E0A00000E0C00000E0E00040000000400020004000400040006000400080004000A0004000C0004000E00040200000402020004020400040206000402080004020A0004020C0004020E000404000004040200040404000404060004040800040
310
40A0004040C0004040E00040600000406020004060400040606000406080004060A0004060C0004060E00040800000408020004080400040806000408080004080A0004080C0004080E00040A0000040A0200040A0400040A0600040A0800040A0A00040A0C00040A0E00040C0000040C0200040C0400040C0600040C08000
310
40C0A00040C0C00040C0E00040E0000040E0200040E0400040E0600040E0800040E0A00040E0C00040E0E00080000000800020008000400080006000800080008000A0008000C0008000E00080200000802020008020400080206000802080008020A0008020C0008020E00080400000804020008040400080406000804080
310
008040A0008040C0008040E00080600000806020008060400080606000806080008060A0008060C0008060E00080800000808020008080400080806000808080008080A0008080C0008080E00080A0000080A0200080A0400080A0600080A0800080A0A00080A0C00080A0E00080C0000080C0200080C0400080C0600080C0
310
800080C0A00080C0C00080C0E00080E0000080E0200080E0400080E0600080E0800080E0A00080E0C00080E0E000C0000000C0002000C0004000C0006000C0008000C000A000C000C000C000E000C0200000C0202000C0204000C0206000C0208000C020A000C020C000C020E000C0400000C0402000C0404000C0406000C0
310
408000C040A000C040C000C040E000C0600000C0602000C0604000C0606000C0608000C060A000C060C000C060E000C0800000C0802000C0804000C0806000C0808000C080A000C080C000C080E000C0A00000C0A02000C0A04000C0A06000C0A08000C0A0A000C0A0C000C0A0E000C0C00000C0C02000C0C04000C0C06000
310
C0C08000C0C0A000F0FBFF00A4A0A000808080000000FF0000FF000000FFFF00FF000000FF00FF00FFFF0000FFFFFF0000000000000000000000000000000000000000000000000000000000000000000000000000000000000000000000000000000000000000000000000000000000000000000000000000000000000000
310
00000000000000000000000000000000000000000000000000000000000000000000000000000000000000000000000000000000000000000000000000000000000000000000000000000000000000000000000000000000000000000000000000000000000000000000000000000000000000000000000000000000000000
310
00000000000000000000000000000000000000000000000000000000000000000000000000000000000000000000000000000000000000000000000000000000000000000000000000000000000000000000000000000000000000000000000000000000000000000000000000000000000000000000000000000000000000
310
0000000000000000000000000000FF0000000000000000FFFF000000000000000000000000000000000000000000FF0000000000000000FFFFFF0000000000000000000000000000000000000000FF0000000000000000FFFFF9000000000000000000FFFFFFFFFFFFFFFFFFFFFFFF0000000000000000FFFFF90000000000
310
00000000FFFFFFFFFFFFFFFFFFFFFFFF0000000000000000FFFFFF0000000000000000000000000000000000000000FF0000000000000000FEFFFF0000000000000000000000F90000000000000000FF0000000000000000FEFFF900000000000000000000F9F9FF00000000000000FF0000000000FFFFFFFFFF0000000000
310
0000000000FFFFF9FFFFFFFFFFFFFFFFFFFFFFFF0000FFFFFF00FF000000000000000000000000000000000000000000000000FF0000FFFFFFFFFF00000000000000000000FFFFFFFFFFFFFFFFFFFFFFFFFFFFFF000000FFFF0000000000000000000000000000000000000000000000000000000000000000000000000000
310
00000000000000000000000000000000000000000000000000000000000000000000000000000000000000000000000000000000000000000000000000000000000000000000000000000000000000000000000000000000000000000000000000000000000000000000000000000000000000000000000000000000000000
310
00000000000000000000000000000000000000000000000000000000000000000000000000000000000000000000000000000000000000000000000000000000000000000000000000000000000000000000000000000000000000000000000000000000000000000000000000000000000000000000000000000000000000
310
0000000000000000000000000000000000000000000000000000000000000000000000000000000000000000000000000000000000000000
102
{BLKREFS
331
2EE9
102
}
 70
     4
280
     1
281
     0
  0
BLOCK_RECORD
  5
2A50
102
{ACAD_XDICTIONARY
360
2A51
102
}
330
1
100
AcDbSymbolTableRecord
100
AcDbBlockTableRecord
  2
ケースB CMVH450
340
0
310
2800000020000000200000000100080000000000000400000000000000000000000000000000000000000000000080000080000000808000800000008000800080800000C0C0C000C0DCC000F0CAA6000020400000206000002080000020A0000020C0000020E00000400000004020000040400000406000004080000040A0
310
000040C0000040E00000600000006020000060400000606000006080000060A0000060C0000060E00000800000008020000080400000806000008080000080A0000080C0000080E00000A0000000A0200000A0400000A0600000A0800000A0A00000A0C00000A0E00000C0000000C0200000C0400000C0600000C0800000C0
310
A00000C0C00000C0E00000E0000000E0200000E0400000E0600000E0800000E0A00000E0C00000E0E00040000000400020004000400040006000400080004000A0004000C0004000E00040200000402020004020400040206000402080004020A0004020C0004020E000404000004040200040404000404060004040800040
310
40A0004040C0004040E00040600000406020004060400040606000406080004060A0004060C0004060E00040800000408020004080400040806000408080004080A0004080C0004080E00040A0000040A0200040A0400040A0600040A0800040A0A00040A0C00040A0E00040C0000040C0200040C0400040C0600040C08000
310
40C0A00040C0C00040C0E00040E0000040E0200040E0400040E0600040E0800040E0A00040E0C00040E0E00080000000800020008000400080006000800080008000A0008000C0008000E00080200000802020008020400080206000802080008020A0008020C0008020E00080400000804020008040400080406000804080
310
008040A0008040C0008040E00080600000806020008060400080606000806080008060A0008060C0008060E00080800000808020008080400080806000808080008080A0008080C0008080E00080A0000080A0200080A0400080A0600080A0800080A0A00080A0C00080A0E00080C0000080C0200080C0400080C0600080C0
310
800080C0A00080C0C00080C0E00080E0000080E0200080E0400080E0600080E0800080E0A00080E0C00080E0E000C0000000C0002000C0004000C0006000C0008000C000A000C000C000C000E000C0200000C0202000C0204000C0206000C0208000C020A000C020C000C020E000C0400000C0402000C0404000C0406000C0
310
408000C040A000C040C000C040E000C0600000C0602000C0604000C0606000C0608000C060A000C060C000C060E000C0800000C0802000C0804000C0806000C0808000C080A000C080C000C080E000C0A00000C0A02000C0A04000C0A06000C0A08000C0A0A000C0A0C000C0A0E000C0C00000C0C02000C0C04000C0C06000
310
C0C08000C0C0A000F0FBFF00A4A0A000808080000000FF0000FF000000FFFF00FF000000FF00FF00FFFF0000FFFFFF0000000000000000000000000000000000000000000000000000000000000000000000000000000000000000000000000000000000000000000000000000000000000000000000000000000000000000
310
00000000000000000000000000000000000000000000000000000000000000000000000000000000000000000000000000000000000000000000000000000000000000000000000000000000000000000000000000000000000000000000000000000000000000000000000000000000000000000000000000000000000000
310
0000000000000000000000000000000000000000000000000000000000000000000000000000000000000000000000000000000000000000000000000000000000000000000000000000000000000000000000000000000000000000000000000000000000000000000000000000F900000000000000000000000000000000
310
000000000000000000000000000000F900000000FFFFFF000000000000000000000000000000000000000000000000F900FF0000FFFFFF00FF00000000000000000000000000000000000000000000F900FF0000FFFFFFFFFF00000000000000000000FFFFF9FFFFFFFFFFFFFFFFFFF9FFFF0000000000FEFFF90000000000
310
0000000000F9F9FF00000000000000FF0000000000000000FEFFFF0000000000000000000000F9FF00000000000000FF0000000000000000FFFFFF0000000000000000000000000000000000000000FF0000000000000000FFFFF90000000000000000000000000000000000000000FF0000000000000000FFFFF900000000
310
0000000000FFFFFFFFFFFFFFFFFFFFFFFF0000000000000000FFFFFF0000000000000000000000000000000000000000FF0000000000000000FFFFF9000000000000000000FFFFFFFFFFFFFFFFFFFFFFFF00000000000000000000000000000000000000000000000000000000000000FF0000000000000000000000000000
310
0000000000000000000000000000000000FF00000000000000000000000000000000000000000000000000000000000000000000000000000000000000000000000000000000000000000000000000000000000000000000000000000000000000000000000000000000000000000000000000000000000000000000000000
310
00000000000000000000000000000000000000000000000000000000000000000000000000000000000000000000000000000000000000000000000000000000000000000000000000000000000000000000000000000000000000000000000000000000000000000000000000000000000000000000000000000000000000
310
0000000000000000000000000000000000000000000000000000000000000000000000000000000000000000000000000000000000000000
102
{BLKREFS
331
2EE1
102
}
 70
     4
280
     1
281
     0
  0
BLOCK_RECORD
  5
2A89
102
{ACAD_XDICTIONARY
360
550E
102
}
330
1
100
AcDbSymbolTableRecord
100
AcDbBlockTableRecord
  2
センタＡ CMVH450
340
0
310
2800000020000000200000000100080000000000000400000000000000000000000000000000000000000000000080000080000000808000800000008000800080800000C0C0C000C0DCC000F0CAA6000020400000206000002080000020A0000020C0000020E00000400000004020000040400000406000004080000040A0
310
000040C0000040E00000600000006020000060400000606000006080000060A0000060C0000060E00000800000008020000080400000806000008080000080A0000080C0000080E00000A0000000A0200000A0400000A0600000A0800000A0A00000A0C00000A0E00000C0000000C0200000C0400000C0600000C0800000C0
310
A00000C0C00000C0E00000E0000000E0200000E0400000E0600000E0800000E0A00000E0C00000E0E00040000000400020004000400040006000400080004000A0004000C0004000E00040200000402020004020400040206000402080004020A0004020C0004020E000404000004040200040404000404060004040800040
310
40A0004040C0004040E00040600000406020004060400040606000406080004060A0004060C0004060E00040800000408020004080400040806000408080004080A0004080C0004080E00040A0000040A0200040A0400040A0600040A0800040A0A00040A0C00040A0E00040C0000040C0200040C0400040C0600040C08000
310
40C0A00040C0C00040C0E00040E0000040E0200040E0400040E0600040E0800040E0A00040E0C00040E0E00080000000800020008000400080006000800080008000A0008000C0008000E00080200000802020008020400080206000802080008020A0008020C0008020E00080400000804020008040400080406000804080
310
008040A0008040C0008040E00080600000806020008060400080606000806080008060A0008060C0008060E00080800000808020008080400080806000808080008080A0008080C0008080E00080A0000080A0200080A0400080A0600080A0800080A0A00080A0C00080A0E00080C0000080C0200080C0400080C0600080C0
310
800080C0A00080C0C00080C0E00080E0000080E0200080E0400080E0600080E0800080E0A00080E0C00080E0E000C0000000C0002000C0004000C0006000C0008000C000A000C000C000C000E000C0200000C0202000C0204000C0206000C0208000C020A000C020C000C020E000C0400000C0402000C0404000C0406000C0
310
408000C040A000C040C000C040E000C0600000C0602000C0604000C0606000C0608000C060A000C060C000C060E000C0800000C0802000C0804000C0806000C0808000C080A000C080C000C080E000C0A00000C0A02000C0A04000C0A06000C0A08000C0A0A000C0A0C000C0A0E000C0C00000C0C02000C0C04000C0C06000
310
C0C08000C0C0A000F0FBFF00A4A0A000808080000000FF0000FF000000FFFF00FF000000FF00FF00FFFF0000FFFFFF0000000000000000000000000000000000000000000000000000000000000000000000000000000000000000000000000000000000000000000000000000000000000000000000000000000000000000
310
000000000000000000000000000000000000000000000000000000000000000000000000000000000000000000000000000000000000000000000000000000000000000000000000000000000000000000000000000000000000000000000000000000000000000000000000000000000000000000FFFFFFFFFFFFFFFFFFFF
310
FFFFFFFFFFFFFFFFFFFFFFFFFFFFFFFF0000000000FF000000000000FF000000000000000000000000000000000000FF0000000000FF000000000000FF000000000000000000000000000000000000FF0000000000FF000000000000FF000000000000000000000000000000000000FF0000000000FF000000000000FF0000
310
000000FFFFFFFFFFFFFFFFFFFFFFFFFFFFFF00000000FF000000000000FF00000000000000000000000000000000000000FF00000000FF000000000000FF000000000000000000000000000000000000000000000000FF000000000000FF0000000000000000000000000000000000000000000000FFFF000000000000FF00
310
00000000000000000000000000000000000000000000FFFF000000000000FF0000000000000000000000000000000000000000000000FFFF000000000000FF00000000000000000000000000000000000000000000F9F9F9000000000000FF0000000000000000000000000000000000000000000000FFFF000000000000FF
310
0000000000000000000000000000000000000000000000FFFF000000000000FF0000000000A4000000000000000000000000000000000000FF000000000000FF0000000000A4000000000000000000000000000000000000FF000000000000FF00000000A4A4000000000000000000000000000000000000FF000000000000
310
FF00000000A4A4000000000000000000000000000000000000FF000000000000FF00000000A4A4000000000000000000000000000000000000FF000000000000FF00000000A4A4000000000000000000000000000000000000FFFFFFFFFFFFFFFFFFFFFFFFA4A4000000000000000000000000000000000000000000000000
310
00000000000000000000000000000000000000000000000000000000000000000000000000000000000000000000000000000000000000000000000000000000000000000000000000000000000000000000000000000000000000000000000000000000000000000000000000000000000000000000000000000000000000
310
0000000000000000000000000000000000000000000000000000000000000000000000000000000000000000000000000000000000000000
102
{BLKREFS
331
2EE2
102
}
 70
     4
280
     1
281
     0
  0
BLOCK_RECORD
  5
2AAD
102
{ACAD_XDICTIONARY
360
5554
102
}
330
1
100
AcDbSymbolTableRecord
100
AcDbBlockTableRecord
  2
センタB CMVH450
340
0
310
2800000020000000200000000100080000000000000400000000000000000000000000000000000000000000000080000080000000808000800000008000800080800000C0C0C000C0DCC000F0CAA6000020400000206000002080000020A0000020C0000020E00000400000004020000040400000406000004080000040A0
310
000040C0000040E00000600000006020000060400000606000006080000060A0000060C0000060E00000800000008020000080400000806000008080000080A0000080C0000080E00000A0000000A0200000A0400000A0600000A0800000A0A00000A0C00000A0E00000C0000000C0200000C0400000C0600000C0800000C0
310
A00000C0C00000C0E00000E0000000E0200000E0400000E0600000E0800000E0A00000E0C00000E0E00040000000400020004000400040006000400080004000A0004000C0004000E00040200000402020004020400040206000402080004020A0004020C0004020E000404000004040200040404000404060004040800040
310
40A0004040C0004040E00040600000406020004060400040606000406080004060A0004060C0004060E00040800000408020004080400040806000408080004080A0004080C0004080E00040A0000040A0200040A0400040A0600040A0800040A0A00040A0C00040A0E00040C0000040C0200040C0400040C0600040C08000
310
40C0A00040C0C00040C0E00040E0000040E0200040E0400040E0600040E0800040E0A00040E0C00040E0E00080000000800020008000400080006000800080008000A0008000C0008000E00080200000802020008020400080206000802080008020A0008020C0008020E00080400000804020008040400080406000804080
310
008040A0008040C0008040E00080600000806020008060400080606000806080008060A0008060C0008060E00080800000808020008080400080806000808080008080A0008080C0008080E00080A0000080A0200080A0400080A0600080A0800080A0A00080A0C00080A0E00080C0000080C0200080C0400080C0600080C0
310
800080C0A00080C0C00080C0E00080E0000080E0200080E0400080E0600080E0800080E0A00080E0C00080E0E000C0000000C0002000C0004000C0006000C0008000C000A000C000C000C000E000C0200000C0202000C0204000C0206000C0208000C020A000C020C000C020E000C0400000C0402000C0404000C0406000C0
310
408000C040A000C040C000C040E000C0600000C0602000C0604000C0606000C0608000C060A000C060C000C060E000C0800000C0802000C0804000C0806000C0808000C080A000C080C000C080E000C0A00000C0A02000C0A04000C0A06000C0A08000C0A0A000C0A0C000C0A0E000C0C00000C0C02000C0C04000C0C06000
310
C0C08000C0C0A000F0FBFF00A4A0A000808080000000FF0000FF000000FFFF00FF000000FF00FF00FFFF0000FFFFFF0000000000000000000000000000000000000000000000000000000000000000000000000000000000000000000000000000000000000000000000000000000000000000000000000000000000000000
310
0000000000000000000000000000000000000000000000000000000000000000000000000000000000000000000000000000000000000000000000000000000000000000000000000000000000000000000000000000000000000000000000000000000000000000000000000000000000000000FFFFFFFFFFFFFFFFFFFFFF
310
FFA4A4000000000000000000000000000000000000FF000000000000FF00000000A4A4000000000000000000000000000000000000FF000000000000FF00000000A4A4000000000000000000000000000000000000FF000000000000FF00000000A4A4000000000000000000000000000000000000FF000000000000FF0000
310
0000A4A4000000000000000000000000000000000000FF000000000000FF0000000000A40000000000000000000000000000000000FFFF000000000000FF0000000000A40000000000000000000000000000000000FFFF000000000000FF00000000000000000000000000000000000000000000F9F9F9000000000000FF00
310
00000000000000000000000000000000000000000000FFFF000000000000FF0000000000000000000000000000000000000000000000FFFF000000000000FF0000000000000000000000000000000000000000000000FFFF000000000000FF000000000000000000000000000000000000000000000000FF000000000000FF
310
000000000000000000000000000000000000000000000000FF000000000000FF000000000000000000000000000000000000000000000000FF000000000000FF00000000000000000000000000000000000000FF00000000FF000000000000FF0000000000FFFFFFFFFFFFFFFFFFFFFFFFFFFFFF00000000FF000000000000
310
FF000000000000000000000000000000000000FF0000000000FF000000000000FF000000000000000000000000000000000000FF0000000000FF000000000000FF000000000000000000000000000000000000FF000000000000FFFFFFFFFFFFFFFFFFFFFFFFFFFFFFFFFFFFFFFFFFFFFFFFFFFF0000000000000000000000
310
00000000000000000000000000000000000000000000000000000000000000000000000000000000000000000000000000000000000000000000000000000000000000000000000000000000000000000000000000000000000000000000000000000000000000000000000000000000000000000000000000000000000000
310
0000000000000000000000000000000000000000000000000000000000000000000000000000000000000000000000000000000000000000
102
{BLKREFS
331
2EE3
102
}
 70
     4
280
     1
281
     0
  0
BLOCK_RECORD
  5
2AD0
102
{ACAD_XDICTIONARY
360
2AD1
102
}
330
1
100
AcDbSymbolTableRecord
100
AcDbBlockTableRecord
  2
ＧＣサイドカバ－A CMVH450
340
0
310
2800000020000000200000000100080000000000000400000000000000000000000000000000000000000000000080000080000000808000800000008000800080800000C0C0C000C0DCC000F0CAA6000020400000206000002080000020A0000020C0000020E00000400000004020000040400000406000004080000040A0
310
000040C0000040E00000600000006020000060400000606000006080000060A0000060C0000060E00000800000008020000080400000806000008080000080A0000080C0000080E00000A0000000A0200000A0400000A0600000A0800000A0A00000A0C00000A0E00000C0000000C0200000C0400000C0600000C0800000C0
310
A00000C0C00000C0E00000E0000000E0200000E0400000E0600000E0800000E0A00000E0C00000E0E00040000000400020004000400040006000400080004000A0004000C0004000E00040200000402020004020400040206000402080004020A0004020C0004020E000404000004040200040404000404060004040800040
310
40A0004040C0004040E00040600000406020004060400040606000406080004060A0004060C0004060E00040800000408020004080400040806000408080004080A0004080C0004080E00040A0000040A0200040A0400040A0600040A0800040A0A00040A0C00040A0E00040C0000040C0200040C0400040C0600040C08000
310
40C0A00040C0C00040C0E00040E0000040E0200040E0400040E0600040E0800040E0A00040E0C00040E0E00080000000800020008000400080006000800080008000A0008000C0008000E00080200000802020008020400080206000802080008020A0008020C0008020E00080400000804020008040400080406000804080
310
008040A0008040C0008040E00080600000806020008060400080606000806080008060A0008060C0008060E00080800000808020008080400080806000808080008080A0008080C0008080E00080A0000080A0200080A0400080A0600080A0800080A0A00080A0C00080A0E00080C0000080C0200080C0400080C0600080C0
310
800080C0A00080C0C00080C0E00080E0000080E0200080E0400080E0600080E0800080E0A00080E0C00080E0E000C0000000C0002000C0004000C0006000C0008000C000A000C000C000C000E000C0200000C0202000C0204000C0206000C0208000C020A000C020C000C020E000C0400000C0402000C0404000C0406000C0
310
408000C040A000C040C000C040E000C0600000C0602000C0604000C0606000C0608000C060A000C060C000C060E000C0800000C0802000C0804000C0806000C0808000C080A000C080C000C080E000C0A00000C0A02000C0A04000C0A06000C0A08000C0A0A000C0A0C000C0A0E000C0C00000C0C02000C0C04000C0C06000
310
C0C08000C0C0A000F0FBFF00A4A0A000808080000000FF0000FF000000FFFF00FF000000FF00FF00FFFF0000FFFFFF0000000000000000000000000000000000000000000000000000000000000000000000000000000000000000000000000000000000000000000000000000000000000000000000000000000000000000
310
00000000000000000000000000000000000000000000000000000000000000000000000000000000000000000000000000000000000000000000000000000000000000000000000000000000000000000000000000000000000000000000000000000000000000000000000000000000000000000000000000000000000000
310
00000000000000000000000000000000000000000000000000000000000000000000000000000000000000000000000000000000000000000000000000000000000000000000000000000000000000000000000000000000000000000000000000000000000000000000000000000000000000000000000000000000000000
310
00000000000000000000000000000000000000000000000000000000000000000000000000000000000000000000000000000000000000000000000000000000000000000000000000000000000000000000000000F90000000000000000000000000000000000000000000000000000F9000000FFF9FFFFFF000000000000
310
00000000FFFFFFFFFFFFFFFFFFFFFFFFFFF9FF0000FFF900FFFF0000000000000000000000000000000000000000000000F9FF0000FFF9FFFF000000000000000000000000000000000000000000000000F9FF000000F90000000000000000000000000000000000000000000000000000F900000000F90000000000000000
310
000000000000000000000000000000000000F9000000000000000000000000000000000000000000000000000000000000000000000000000000000000000000000000000000000000000000000000000000000000000000000000000000000000000000000000000000000000000000000000000000000000000000000000
310
00000000000000000000000000000000000000000000000000000000000000000000000000000000000000000000000000000000000000000000000000000000000000000000000000000000000000000000000000000000000000000000000000000000000000000000000000000000000000000000000000000000000000
310
00000000000000000000000000000000000000000000000000000000000000000000000000000000000000000000000000000000000000000000000000000000000000000000000000000000000000000000000000000000000000000000000000000000000000000000000000000000000000000000000000000000000000
310
0000000000000000000000000000000000000000000000000000000000000000000000000000000000000000000000000000000000000000
102
{BLKREFS
331
2EE4
102
}
 70
     4
280
     1
281
     0
  0
BLOCK_RECORD
  5
2AEF
102
{ACAD_XDICTIONARY
360
2AF0
102
}
330
1
100
AcDbSymbolTableRecord
100
AcDbBlockTableRecord
  2
ロッカクアナツキプラグ-1 R1／8
340
0
310
2800000020000000200000000100080000000000000400000000000000000000000000000000000000000000000080000080000000808000800000008000800080800000C0C0C000C0DCC000F0CAA6000020400000206000002080000020A0000020C0000020E00000400000004020000040400000406000004080000040A0
310
000040C0000040E00000600000006020000060400000606000006080000060A0000060C0000060E00000800000008020000080400000806000008080000080A0000080C0000080E00000A0000000A0200000A0400000A0600000A0800000A0A00000A0C00000A0E00000C0000000C0200000C0400000C0600000C0800000C0
310
A00000C0C00000C0E00000E0000000E0200000E0400000E0600000E0800000E0A00000E0C00000E0E00040000000400020004000400040006000400080004000A0004000C0004000E00040200000402020004020400040206000402080004020A0004020C0004020E000404000004040200040404000404060004040800040
310
40A0004040C0004040E00040600000406020004060400040606000406080004060A0004060C0004060E00040800000408020004080400040806000408080004080A0004080C0004080E00040A0000040A0200040A0400040A0600040A0800040A0A00040A0C00040A0E00040C0000040C0200040C0400040C0600040C08000
310
40C0A00040C0C00040C0E00040E0000040E0200040E0400040E0600040E0800040E0A00040E0C00040E0E00080000000800020008000400080006000800080008000A0008000C0008000E00080200000802020008020400080206000802080008020A0008020C0008020E00080400000804020008040400080406000804080
310
008040A0008040C0008040E00080600000806020008060400080606000806080008060A0008060C0008060E00080800000808020008080400080806000808080008080A0008080C0008080E00080A0000080A0200080A0400080A0600080A0800080A0A00080A0C00080A0E00080C0000080C0200080C0400080C0600080C0
310
800080C0A00080C0C00080C0E00080E0000080E0200080E0400080E0600080E0800080E0A00080E0C00080E0E000C0000000C0002000C0004000C0006000C0008000C000A000C000C000C000E000C0200000C0202000C0204000C0206000C0208000C020A000C020C000C020E000C0400000C0402000C0404000C0406000C0
310
408000C040A000C040C000C040E000C0600000C0602000C0604000C0606000C0608000C060A000C060C000C060E000C0800000C0802000C0804000C0806000C0808000C080A000C080C000C080E000C0A00000C0A02000C0A04000C0A06000C0A08000C0A0A000C0A0C000C0A0E000C0C00000C0C02000C0C04000C0C06000
310
C0C08000C0C0A000F0FBFF00A4A0A000808080000000FF0000FF000000FFFF00FF000000FF00FF00FFFF0000FFFFFF00000000000000000000000000000000000000000000000000000000000000000000000000000000000000000000000000F9000000000000000000000000000000000000000000000000000000000000
310
00F900000000000000000000000000000000000000000000000000000000000000F900000000000000000000000000000000000000000000000000000000000000F900000000000000000000000000000000000000000000000000000000000000F90000000000000000000000000000000000000000000000000000000000
310
0000F900000000000000000000000000000000000000000000000000000000000000F900000000000000000000000000000000000000000000000000000000000000F900000000000000000000000000000000000000000000000000000000000000F9000000000000000000000000000000000000000000000000000000FE
310
FFFFFFFFFFFFFE000000000000000000000000000000000000000000000000FEFF0000F90000FFFE00000000000000000000000000000000000000000000FEFF000000FF0000FFFE00000000000000000000000000000000000000000000FEFF00FFFFF9FFFF00FFFE0000000000000000000000000000000000000000FEFF
310
FFFF0000F90000FFFFFE0000000000000000000000000000000000000000FEFFFF000000F90000FF00FFFE0000000000000000000000F9F9F9F9F9F9F9FEFFF9FFF9F9F9F9F9F9FFF9FFFEF9F9F9F9F9F9F9000000000000000000000000FEFFFF000000F90000FFFFFE0000000000000000000000000000000000000000FE
310
FF00FFFF00F9FFFF00FFFE000000000000000000000000000000000000000000FEFF0000FFFF0000FFFE00000000000000000000000000000000000000000000FEFF000000F90000FFFE0000000000000000000000000000000000000000000000FEFFFFFFFFFFFFFE00000000000000000000000000000000000000000000
310
000000000000F900000000000000000000000000000000000000000000000000000000000000F900000000000000000000000000000000000000000000000000000000000000F900000000000000000000000000000000000000000000000000000000000000F9000000000000000000000000000000000000000000000000
310
00000000000000F900000000000000000000000000000000000000000000000000000000000000F900000000000000000000000000000000000000000000000000000000000000F900000000000000000000000000000000000000000000000000000000000000F90000000000000000000000000000000000000000000000
310
0000000000000000F90000000000000000000000000000000000000000000000000000000000000000000000000000000000000000000000
102
{BLKREFS
331
2AEB
102
}
 70
     4
280
     1
281
     0
  0
BLOCK_RECORD
  5
2AFE
102
{ACAD_XDICTIONARY
360
52E2
102
}
330
1
100
AcDbSymbolTableRecord
100
AcDbBlockTableRecord
  2
ロッカクアナツキプラグ-2 R1／8
340
0
310
2800000020000000200000000100080000000000000400000000000000000000000000000000000000000000000080000080000000808000800000008000800080800000C0C0C000C0DCC000F0CAA6000020400000206000002080000020A0000020C0000020E00000400000004020000040400000406000004080000040A0
310
000040C0000040E00000600000006020000060400000606000006080000060A0000060C0000060E00000800000008020000080400000806000008080000080A0000080C0000080E00000A0000000A0200000A0400000A0600000A0800000A0A00000A0C00000A0E00000C0000000C0200000C0400000C0600000C0800000C0
310
A00000C0C00000C0E00000E0000000E0200000E0400000E0600000E0800000E0A00000E0C00000E0E00040000000400020004000400040006000400080004000A0004000C0004000E00040200000402020004020400040206000402080004020A0004020C0004020E000404000004040200040404000404060004040800040
310
40A0004040C0004040E00040600000406020004060400040606000406080004060A0004060C0004060E00040800000408020004080400040806000408080004080A0004080C0004080E00040A0000040A0200040A0400040A0600040A0800040A0A00040A0C00040A0E00040C0000040C0200040C0400040C0600040C08000
310
40C0A00040C0C00040C0E00040E0000040E0200040E0400040E0600040E0800040E0A00040E0C00040E0E00080000000800020008000400080006000800080008000A0008000C0008000E00080200000802020008020400080206000802080008020A0008020C0008020E00080400000804020008040400080406000804080
310
008040A0008040C0008040E00080600000806020008060400080606000806080008060A0008060C0008060E00080800000808020008080400080806000808080008080A0008080C0008080E00080A0000080A0200080A0400080A0600080A0800080A0A00080A0C00080A0E00080C0000080C0200080C0400080C0600080C0
310
800080C0A00080C0C00080C0E00080E0000080E0200080E0400080E0600080E0800080E0A00080E0C00080E0E000C0000000C0002000C0004000C0006000C0008000C000A000C000C000C000E000C0200000C0202000C0204000C0206000C0208000C020A000C020C000C020E000C0400000C0402000C0404000C0406000C0
310
408000C040A000C040C000C040E000C0600000C0602000C0604000C0606000C0608000C060A000C060C000C060E000C0800000C0802000C0804000C0806000C0808000C080A000C080C000C080E000C0A00000C0A02000C0A04000C0A06000C0A08000C0A0A000C0A0C000C0A0E000C0C00000C0C02000C0C04000C0C06000
310
C0C08000C0C0A000F0FBFF00A4A0A000808080000000FF0000FF000000FFFF00FF000000FF00FF00FFFF0000FFFFFF00000000000000000000000000000000000000000000000000000000000000000000000000000000000000000000000000F9000000000000000000000000000000000000000000000000000000000000
310
00F900000000000000000000000000000000000000000000000000000000000000F900000000000000000000000000000000000000000000000000000000000000F900000000000000000000000000000000000000000000000000000000000000F90000000000000000000000000000000000000000000000000000000000
310
0000F900000000000000000000000000000000000000000000000000000000000000F900000000000000000000000000000000000000000000000000000000000000F900000000000000000000000000000000000000000000000000000000000000F9000000000000000000000000000000000000000000000000000000FE
310
FFFFFFFFFFFFFE000000000000000000000000000000000000000000000000FEFF0000F90000FFFE00000000000000000000000000000000000000000000FEFF000000FF0000FFFE00000000000000000000000000000000000000000000FEFF00FFFFF9FFFF00FFFE0000000000000000000000000000000000000000FEFF
310
FFFF0000F90000FFFFFE0000000000000000000000000000000000000000FEFFFF000000F90000FF00FFFE0000000000000000000000F9F9F9F9F9F9F9FEFFF9FFF9F9F9F9F9F9FFF9FFFEF9F9F9F9F9F9F9000000000000000000000000FEFFFF000000F90000FFFFFE0000000000000000000000000000000000000000FE
310
FF00FFFF00F9FFFF00FFFE000000000000000000000000000000000000000000FEFF0000FFFF0000FFFE00000000000000000000000000000000000000000000FEFF000000F90000FFFE0000000000000000000000000000000000000000000000FEFFFFFFFFFFFFFE00000000000000000000000000000000000000000000
310
000000000000F900000000000000000000000000000000000000000000000000000000000000F900000000000000000000000000000000000000000000000000000000000000F900000000000000000000000000000000000000000000000000000000000000F9000000000000000000000000000000000000000000000000
310
00000000000000F900000000000000000000000000000000000000000000000000000000000000F900000000000000000000000000000000000000000000000000000000000000F900000000000000000000000000000000000000000000000000000000000000F90000000000000000000000000000000000000000000000
310
0000000000000000F90000000000000000000000000000000000000000000000000000000000000000000000000000000000000000000000
102
{BLKREFS
331
2B5C
102
}
 70
     4
280
     1
281
     0
  0
BLOCK_RECORD
  5
2B0B
102
{ACAD_XDICTIONARY
360
2B0C
102
}
330
1
100
AcDbSymbolTableRecord
100
AcDbBlockTableRecord
  2
ＧＣサイドカバ－B CMVH450
340
0
310
2800000020000000200000000100080000000000000400000000000000000000000000000000000000000000000080000080000000808000800000008000800080800000C0C0C000C0DCC000F0CAA6000020400000206000002080000020A0000020C0000020E00000400000004020000040400000406000004080000040A0
310
000040C0000040E00000600000006020000060400000606000006080000060A0000060C0000060E00000800000008020000080400000806000008080000080A0000080C0000080E00000A0000000A0200000A0400000A0600000A0800000A0A00000A0C00000A0E00000C0000000C0200000C0400000C0600000C0800000C0
310
A00000C0C00000C0E00000E0000000E0200000E0400000E0600000E0800000E0A00000E0C00000E0E00040000000400020004000400040006000400080004000A0004000C0004000E00040200000402020004020400040206000402080004020A0004020C0004020E000404000004040200040404000404060004040800040
310
40A0004040C0004040E00040600000406020004060400040606000406080004060A0004060C0004060E00040800000408020004080400040806000408080004080A0004080C0004080E00040A0000040A0200040A0400040A0600040A0800040A0A00040A0C00040A0E00040C0000040C0200040C0400040C0600040C08000
310
40C0A00040C0C00040C0E00040E0000040E0200040E0400040E0600040E0800040E0A00040E0C00040E0E00080000000800020008000400080006000800080008000A0008000C0008000E00080200000802020008020400080206000802080008020A0008020C0008020E00080400000804020008040400080406000804080
310
008040A0008040C0008040E00080600000806020008060400080606000806080008060A0008060C0008060E00080800000808020008080400080806000808080008080A0008080C0008080E00080A0000080A0200080A0400080A0600080A0800080A0A00080A0C00080A0E00080C0000080C0200080C0400080C0600080C0
310
800080C0A00080C0C00080C0E00080E0000080E0200080E0400080E0600080E0800080E0A00080E0C00080E0E000C0000000C0002000C0004000C0006000C0008000C000A000C000C000C000E000C0200000C0202000C0204000C0206000C0208000C020A000C020C000C020E000C0400000C0402000C0404000C0406000C0
310
408000C040A000C040C000C040E000C0600000C0602000C0604000C0606000C0608000C060A000C060C000C060E000C0800000C0802000C0804000C0806000C0808000C080A000C080C000C080E000C0A00000C0A02000C0A04000C0A06000C0A08000C0A0A000C0A0C000C0A0E000C0C00000C0C02000C0C04000C0C06000
310
C0C08000C0C0A000F0FBFF00A4A0A000808080000000FF0000FF000000FFFF00FF000000FF00FF00FFFF0000FFFFFF0000000000000000000000000000000000000000000000000000000000000000000000000000000000000000000000000000000000000000000000000000000000000000000000000000000000000000
310
00000000000000000000000000000000000000000000000000000000000000000000000000000000000000000000000000000000000000000000000000000000000000000000000000000000000000000000000000000000000000000000000000000000000000000000000000000000000000000000000000000000000000
310
00000000000000000000000000000000000000000000000000000000000000000000000000000000000000000000000000000000000000000000000000000000000000000000000000000000000000000000000000000000000000000000000000000000000000000000000000000000000000000000000000000000000000
310
00000000000000000000000000000000000000000000000000000000000000000000000000000000000000000000000000000000000000000000000000000000000000000000000000000000000000000000000000FFFE00000000000000000000000000000000000000000000000000F900000000FFFF0000000000000000
310
0000000000000000000000000000000000F9000000FFFFFFFF000000000000000000000000000000000000000000000000F9FF0000FFFFFFFFFF0000000000000000000000000000000000000000000000F9FF0000FFFFFFFFFF00000000000000000000FFFFFFFFFFFFFFFFFFFFFFFFFFFFFF0000FFFFFF00000000000000
310
0000000000000000000000000000000000FFFFFF0000000000000000000000000000000000000000000000000000000000000000000000000000000000000000000000000000000000000000000000000000000000000000000000000000000000000000000000000000000000000000000000000000000000000000000000
310
00000000000000000000000000000000000000000000000000000000000000000000000000000000000000000000000000000000000000000000000000000000000000000000000000000000000000000000000000000000000000000000000000000000000000000000000000000000000000000000000000000000000000
310
00000000000000000000000000000000000000000000000000000000000000000000000000000000000000000000000000000000000000000000000000000000000000000000000000000000000000000000000000000000000000000000000000000000000000000000000000000000000000000000000000000000000000
310
0000000000000000000000000000000000000000000000000000000000000000000000000000000000000000000000000000000000000000
102
{BLKREFS
331
2EE5
102
}
 70
     4
280
     1
281
     0
  0
BLOCK_RECORD
  5
2B5E
102
{ACAD_XDICTIONARY
360
2B5F
102
}
330
1
100
AcDbSymbolTableRecord
100
AcDbBlockTableRecord
  2
スラストプレ－ト CMVH450
340
0
310
2800000020000000200000000100080000000000000400000000000000000000000000000000000000000000000080000080000000808000800000008000800080800000C0C0C000C0DCC000F0CAA6000020400000206000002080000020A0000020C0000020E00000400000004020000040400000406000004080000040A0
310
000040C0000040E00000600000006020000060400000606000006080000060A0000060C0000060E00000800000008020000080400000806000008080000080A0000080C0000080E00000A0000000A0200000A0400000A0600000A0800000A0A00000A0C00000A0E00000C0000000C0200000C0400000C0600000C0800000C0
310
A00000C0C00000C0E00000E0000000E0200000E0400000E0600000E0800000E0A00000E0C00000E0E00040000000400020004000400040006000400080004000A0004000C0004000E00040200000402020004020400040206000402080004020A0004020C0004020E000404000004040200040404000404060004040800040
310
40A0004040C0004040E00040600000406020004060400040606000406080004060A0004060C0004060E00040800000408020004080400040806000408080004080A0004080C0004080E00040A0000040A0200040A0400040A0600040A0800040A0A00040A0C00040A0E00040C0000040C0200040C0400040C0600040C08000
310
40C0A00040C0C00040C0E00040E0000040E0200040E0400040E0600040E0800040E0A00040E0C00040E0E00080000000800020008000400080006000800080008000A0008000C0008000E00080200000802020008020400080206000802080008020A0008020C0008020E00080400000804020008040400080406000804080
310
008040A0008040C0008040E00080600000806020008060400080606000806080008060A0008060C0008060E00080800000808020008080400080806000808080008080A0008080C0008080E00080A0000080A0200080A0400080A0600080A0800080A0A00080A0C00080A0E00080C0000080C0200080C0400080C0600080C0
310
800080C0A00080C0C00080C0E00080E0000080E0200080E0400080E0600080E0800080E0A00080E0C00080E0E000C0000000C0002000C0004000C0006000C0008000C000A000C000C000C000E000C0200000C0202000C0204000C0206000C0208000C020A000C020C000C020E000C0400000C0402000C0404000C0406000C0
310
408000C040A000C040C000C040E000C0600000C0602000C0604000C0606000C0608000C060A000C060C000C060E000C0800000C0802000C0804000C0806000C0808000C080A000C080C000C080E000C0A00000C0A02000C0A04000C0A06000C0A08000C0A0A000C0A0C000C0A0E000C0C00000C0C02000C0C04000C0C06000
310
C0C08000C0C0A000F0FBFF00A4A0A000808080000000FF0000FF000000FFFF00FF000000FF00FF00FFFF0000FFFFFF0000000000000000000000000000000000000000000000000000000000000000000000000000000000000000000000000000000000000000000000000000000000000000000000000000000000000000
310
00000000000000000000000000000000000000000000000000000000000000000000000000000000000000000000000000000000000000000000000000000000000000000000000000000000000000000000000000000000000000000000000000000000000000000000000000000000000000000000000000000000000000
310
00000000000000000000000000000000000000000000000000000000000000000000000000000000000000000000000000000000000000000000000000000000000000000000000000000000000000000000000000000000000000000000000000000000000000000000000000000000000000000000000000000000000000
310
00000000000000000000000000000000000000000000F900000000000000000000000000000000000000000000000000000000000000FF00000000000000000000000000000000000000000000000000000000000000FFFF000000000000000000000000000000000000000000000000000000000000FEFE00000000000000
310
0000000000000000000000000000000000000000000000FFFE000000000000000000000000000000000000000000000000000000000000F9FF000000000000000000000000000000000000000000000000000000000000F9FF00000000000000000000000000000000000000000000000000000000FFFFFFFFFFFFFFFFFFFF
310
FFFFFFFFFFFFFFFFFFFFFFFFFFFFFFFFFFFFFFFF0000FFFFFFFFFFFFFFFFFFFFFFFFFFFFFFFFFFFFFFFFFFFFFFFFFFFFFFFFFFFF00000000F900000000000000000000000000000000000000000000000000000000000000000000000000000000000000000000000000000000000000000000000000000000000000000000
310
00000000000000000000000000000000000000000000000000000000000000000000000000000000000000000000000000000000000000000000000000000000000000000000000000000000000000000000000000000000000000000000000000000000000000000000000000000000000000000000000000000000000000
310
00000000000000000000000000000000000000000000000000000000000000000000000000000000000000000000000000000000000000000000000000000000000000000000000000000000000000000000000000000000000000000000000000000000000000000000000000000000000000000000000000000000000000
310
0000000000000000000000000000000000000000000000000000000000000000000000000000000000000000000000000000000000000000
102
{BLKREFS
331
2EE6
102
}
 70
     4
280
     1
281
     0
  0
BLOCK_RECORD
  5
2B8B
102
{ACAD_XDICTIONARY
360
2B8C
102
}
330
1
100
AcDbSymbolTableRecord
100
AcDbBlockTableRecord
  2
イタ CMVH450
340
0
310
2800000020000000200000000100080000000000000400000000000000000000000000000000000000000000000080000080000000808000800000008000800080800000C0C0C000C0DCC000F0CAA6000020400000206000002080000020A0000020C0000020E00000400000004020000040400000406000004080000040A0
310
000040C0000040E00000600000006020000060400000606000006080000060A0000060C0000060E00000800000008020000080400000806000008080000080A0000080C0000080E00000A0000000A0200000A0400000A0600000A0800000A0A00000A0C00000A0E00000C0000000C0200000C0400000C0600000C0800000C0
310
A00000C0C00000C0E00000E0000000E0200000E0400000E0600000E0800000E0A00000E0C00000E0E00040000000400020004000400040006000400080004000A0004000C0004000E00040200000402020004020400040206000402080004020A0004020C0004020E000404000004040200040404000404060004040800040
310
40A0004040C0004040E00040600000406020004060400040606000406080004060A0004060C0004060E00040800000408020004080400040806000408080004080A0004080C0004080E00040A0000040A0200040A0400040A0600040A0800040A0A00040A0C00040A0E00040C0000040C0200040C0400040C0600040C08000
310
40C0A00040C0C00040C0E00040E0000040E0200040E0400040E0600040E0800040E0A00040E0C00040E0E00080000000800020008000400080006000800080008000A0008000C0008000E00080200000802020008020400080206000802080008020A0008020C0008020E00080400000804020008040400080406000804080
310
008040A0008040C0008040E00080600000806020008060400080606000806080008060A0008060C0008060E00080800000808020008080400080806000808080008080A0008080C0008080E00080A0000080A0200080A0400080A0600080A0800080A0A00080A0C00080A0E00080C0000080C0200080C0400080C0600080C0
310
800080C0A00080C0C00080C0E00080E0000080E0200080E0400080E0600080E0800080E0A00080E0C00080E0E000C0000000C0002000C0004000C0006000C0008000C000A000C000C000C000E000C0200000C0202000C0204000C0206000C0208000C020A000C020C000C020E000C0400000C0402000C0404000C0406000C0
310
408000C040A000C040C000C040E000C0600000C0602000C0604000C0606000C0608000C060A000C060C000C060E000C0800000C0802000C0804000C0806000C0808000C080A000C080C000C080E000C0A00000C0A02000C0A04000C0A06000C0A08000C0A0A000C0A0C000C0A0E000C0C00000C0C02000C0C04000C0C06000
310
C0C08000C0C0A000F0FBFF00A4A0A000808080000000FF0000FF000000FFFF00FF000000FF00FF00FFFF0000FFFFFF0000000000000000000000000000000000000000000000000000000000000000000000000000000000000000000000000000000000000000000000000000000000000000000000000000000000000000
310
00000000000000000000000000000000000000000000000000000000000000000000000000000000000000000000000000000000000000000000000000000000000000000000000000000000000000000000000000000000000000000000000000000000000000000000000000000000000000000000000000000000000000
310
00000000000000000000000000000000000000000000000000000000000000000000000000000000000000000000000000000000000000000000000000000000000000000000000000000000000000000000000000000000000000000000000000000000000000000000000000000000000000000000000000000000000000
310
00000000000000000000000000000000000000000000000000000000000000000000000000000000000000000000000000000000000000000000000000000000000000000000000000000000000000000000000000000000000000000000000000000000000000000000000000000000000000000000000000000000000000
310
00000000000000000000000000000000FFFFFF000000FFFFFFFFFFFFFFFFFFFFFFFFFFFFFFFFFFFFFFFFFFFFFFFFFFFFFFFFFF000000000000000000000000000000000000000000000000000000FF000000000000FFFFFFFFFFFFFFFFFFFFFFFFFFFFFFFFFFFFFFFFFFFFFFFFFFFFFFFFFFFF000000000000000000000000
310
00000000000000000000000000000000000000000000000000000000000000000000000000000000000000000000000000000000000000000000000000000000000000000000000000000000000000000000000000000000000000000000000000000000000000000000000000000000000000000000000000000000000000
310
00000000000000000000000000000000000000000000000000000000000000000000000000000000000000000000000000000000000000000000000000000000000000000000000000000000000000000000000000000000000000000000000000000000000000000000000000000000000000000000000000000000000000
310
00000000000000000000000000000000000000000000000000000000000000000000000000000000000000000000000000000000000000000000000000000000000000000000000000000000000000000000000000000000000000000000000000000000000000000000000000000000000000000000000000000000000000
310
0000000000000000000000000000000000000000000000000000000000000000000000000000000000000000000000000000000000000000
102
{BLKREFS
331
2EE7
102
}
 70
     4
280
     1
281
     0
  0
BLOCK_RECORD
  5
2B99
102
{ACAD_XDICTIONARY
360
2B9A
102
}
330
1
100
AcDbSymbolTableRecord
100
AcDbBlockTableRecord
  2
リーマボルト CMVH450 M20
340
0
310
2800000020000000200000000100080000000000000400000000000000000000000000000000000000000000000080000080000000808000800000008000800080800000C0C0C000C0DCC000F0CAA6000020400000206000002080000020A0000020C0000020E00000400000004020000040400000406000004080000040A0
310
000040C0000040E00000600000006020000060400000606000006080000060A0000060C0000060E00000800000008020000080400000806000008080000080A0000080C0000080E00000A0000000A0200000A0400000A0600000A0800000A0A00000A0C00000A0E00000C0000000C0200000C0400000C0600000C0800000C0
310
A00000C0C00000C0E00000E0000000E0200000E0400000E0600000E0800000E0A00000E0C00000E0E00040000000400020004000400040006000400080004000A0004000C0004000E00040200000402020004020400040206000402080004020A0004020C0004020E000404000004040200040404000404060004040800040
310
40A0004040C0004040E00040600000406020004060400040606000406080004060A0004060C0004060E00040800000408020004080400040806000408080004080A0004080C0004080E00040A0000040A0200040A0400040A0600040A0800040A0A00040A0C00040A0E00040C0000040C0200040C0400040C0600040C08000
310
40C0A00040C0C00040C0E00040E0000040E0200040E0400040E0600040E0800040E0A00040E0C00040E0E00080000000800020008000400080006000800080008000A0008000C0008000E00080200000802020008020400080206000802080008020A0008020C0008020E00080400000804020008040400080406000804080
310
008040A0008040C0008040E00080600000806020008060400080606000806080008060A0008060C0008060E00080800000808020008080400080806000808080008080A0008080C0008080E00080A0000080A0200080A0400080A0600080A0800080A0A00080A0C00080A0E00080C0000080C0200080C0400080C0600080C0
310
800080C0A00080C0C00080C0E00080E0000080E0200080E0400080E0600080E0800080E0A00080E0C00080E0E000C0000000C0002000C0004000C0006000C0008000C000A000C000C000C000E000C0200000C0202000C0204000C0206000C0208000C020A000C020C000C020E000C0400000C0402000C0404000C0406000C0
310
408000C040A000C040C000C040E000C0600000C0602000C0604000C0606000C0608000C060A000C060C000C060E000C0800000C0802000C0804000C0806000C0808000C080A000C080C000C080E000C0A00000C0A02000C0A04000C0A06000C0A08000C0A0A000C0A0C000C0A0E000C0C00000C0C02000C0C04000C0C06000
310
C0C08000C0C0A000F0FBFF00A4A0A000808080000000FF0000FF000000FFFF00FF000000FF00FF00FFFF0000FFFFFF0000000000000000000000000000000000000000000000000000000000000000000000000000000000000000000000000000000000000000000000000000000000000000000000000000000000000000
310
00000000000000000000000000000000000000000000000000000000000000000000000000000000000000000000000000000000000000000000000000000000000000000000000000000000000000000000000000000000000000000000000000000000000000000000000000000000000000000000000000000000000000
310
0000000000000000000000000000000000000000000000000000000000000000000000000000000000000000000000000000000000000000000000000000000000000000000000000000000000000000000000000000FFFF00000000000000000000FFFFFFFFFFFFFFFFFFFFFFFF0000000000000000FFFFA4000000000000
310
0000000000000000000000000000FF0000000000000000FFFFA4000000000000000000FFFFFFFFFFFFFFFFFFFFFFFF0000000000000000FFFFA4000000000000000000FFFFFFFFFFFFFFFFFFFFFFFF0000000000000000FFFFA40000000000000000000000000000000000000000FF0000000000000000FFFFF90000000000
310
000000000000F90000000000000000FF00000000000000F9FFFFF900000000000000000000F9F9FF00000000000000FF0000000000FFFFF9FFFF00000000000000000000FFFFFFFFFFFFFFFFFFFFFFFFFFFFFF0000FFFFF900FF000000000000000000000000000000000000000000000000FF0000FFFFF9FFFF0000000000
310
0000000000FFFFFFFFFFFFFFFFFFFFFFFFFFFFFF000000FFF9FF0000000000000000000000000000000000000000000000000000000000FFF9FF0000000000000000000000000000000000000000000000000000000000FFF9FF000000000000000000000000000000000000000000000000000000000000F9000000000000
310
00000000000000000000000000000000000000000000000000000000000000000000000000000000000000000000000000000000000000000000000000000000000000000000000000000000000000000000000000000000000000000000000000000000000000000000000000000000000000000000000000000000000000
310
00000000000000000000000000000000000000000000000000000000000000000000000000000000000000000000000000000000000000000000000000000000000000000000000000000000000000000000000000000000000000000000000000000000000000000000000000000000000000000000000000000000000000
310
0000000000000000000000000000000000000000000000000000000000000000000000000000000000000000000000000000000000000000
102
{BLKREFS
331
2EE8
102
}
 70
     4
280
     1
281
     0
  0
BLOCK_RECORD
  5
2F3F
330
1
100
AcDbSymbolTableRecord
100
AcDbBlockTableRecord
  2
*D20
340
0
 70
     0
280
     1
281
     0
  0
BLOCK_RECORD
  5
2F4B
330
1
100
AcDbSymbolTableRecord
100
AcDbBlockTableRecord
  2
*D21
340
0
 70
     0
280
     1
281
     0
  0
BLOCK_RECORD
  5
2F57
330
1
100
AcDbSymbolTableRecord
100
AcDbBlockTableRecord
  2
*D22
340
0
 70
     0
280
     1
281
     0
  0
BLOCK_RECORD
  5
2F63
330
1
100
AcDbSymbolTableRecord
100
AcDbBlockTableRecord
  2
*D23
340
0
 70
     0
280
     1
281
     0
  0
BLOCK_RECORD
  5
2F6F
330
1
100
AcDbSymbolTableRecord
100
AcDbBlockTableRecord
  2
*D24
340
0
 70
     0
280
     1
281
     0
  0
BLOCK_RECORD
  5
2F8B
330
1
100
AcDbSymbolTableRecord
100
AcDbBlockTableRecord
  2
*D25
340
0
 70
     0
280
     1
281
     0
  0
BLOCK_RECORD
  5
2F97
330
1
100
AcDbSymbolTableRecord
100
AcDbBlockTableRecord
  2
*D26
340
0
 70
     0
280
     1
281
     0
  0
BLOCK_RECORD
  5
2FA3
330
1
100
AcDbSymbolTableRecord
100
AcDbBlockTableRecord
  2
*D27
340
0
 70
     0
280
     1
281
     0
  0
BLOCK_RECORD
  5
2FC7
330
1
100
AcDbSymbolTableRecord
100
AcDbBlockTableRecord
  2
*D28
340
0
 70
     0
280
     1
281
     0
  0
BLOCK_RECORD
  5
3011
330
1
100
AcDbSymbolTableRecord
100
AcDbBlockTableRecord
  2
*D29
340
0
 70
     0
280
     1
281
     0
  0
BLOCK_RECORD
  5
301E
330
1
100
AcDbSymbolTableRecord
100
AcDbBlockTableRecord
  2
*D30
340
0
 70
     0
280
     1
281
     0
  0
BLOCK_RECORD
  5
302A
330
1
100
AcDbSymbolTableRecord
100
AcDbBlockTableRecord
  2
*D31
340
0
 70
     0
280
     1
281
     0
  0
BLOCK_RECORD
  5
4704
102
{ACAD_XDICTIONARY
360
4723
102
}
330
1
100
AcDbSymbolTableRecord
100
AcDbBlockTableRecord
  2
スラストピン CMVH450
340
0
310
2800000020000000200000000100080000000000000400000000000000000000000000000000000000000000000080000080000000808000800000008000800080800000C0C0C000C0DCC000F0CAA6000020400000206000002080000020A0000020C0000020E00000400000004020000040400000406000004080000040A0
310
000040C0000040E00000600000006020000060400000606000006080000060A0000060C0000060E00000800000008020000080400000806000008080000080A0000080C0000080E00000A0000000A0200000A0400000A0600000A0800000A0A00000A0C00000A0E00000C0000000C0200000C0400000C0600000C0800000C0
310
A00000C0C00000C0E00000E0000000E0200000E0400000E0600000E0800000E0A00000E0C00000E0E00040000000400020004000400040006000400080004000A0004000C0004000E00040200000402020004020400040206000402080004020A0004020C0004020E000404000004040200040404000404060004040800040
310
40A0004040C0004040E00040600000406020004060400040606000406080004060A0004060C0004060E00040800000408020004080400040806000408080004080A0004080C0004080E00040A0000040A0200040A0400040A0600040A0800040A0A00040A0C00040A0E00040C0000040C0200040C0400040C0600040C08000
310
40C0A00040C0C00040C0E00040E0000040E0200040E0400040E0600040E0800040E0A00040E0C00040E0E00080000000800020008000400080006000800080008000A0008000C0008000E00080200000802020008020400080206000802080008020A0008020C0008020E00080400000804020008040400080406000804080
310
008040A0008040C0008040E00080600000806020008060400080606000806080008060A0008060C0008060E00080800000808020008080400080806000808080008080A0008080C0008080E00080A0000080A0200080A0400080A0600080A0800080A0A00080A0C00080A0E00080C0000080C0200080C0400080C0600080C0
310
800080C0A00080C0C00080C0E00080E0000080E0200080E0400080E0600080E0800080E0A00080E0C00080E0E000C0000000C0002000C0004000C0006000C0008000C000A000C000C000C000E000C0200000C0202000C0204000C0206000C0208000C020A000C020C000C020E000C0400000C0402000C0404000C0406000C0
310
408000C040A000C040C000C040E000C0600000C0602000C0604000C0606000C0608000C060A000C060C000C060E000C0800000C0802000C0804000C0806000C0808000C080A000C080C000C080E000C0A00000C0A02000C0A04000C0A06000C0A08000C0A0A000C0A0C000C0A0E000C0C00000C0C02000C0C04000C0C06000
310
C0C08000C0C0A000F0FBFF00A4A0A000808080000000FF0000FF000000FFFF00FF000000FF00FF00FFFF0000FFFFFF0000000000000000000000000000000000000000000000000000000000000000000000000000000000000000000000000000000000000000000000000000000000000000000000000000000000000000
310
00000000000000000000000000000000000000000000000000000000000000000000000000000000000000000000000000000000000000000000000000000000000000000000000000000000000000000000000000000000000000000000000000000000000000000000000000000000000000000000000000000000000000
310
0000000000000000000000000000000000000000000000000000000000000000000000000000000000000000000000000000000000000000000000000000000000000000000000000000000000000000000000000000000000000000000000000000FFFFFFFFFFFFFFFFFFFFFFFFFFFFFF0000FFFFFFFFFFFFFFFFFFFFFFFF
310
FFFFFFFFFFFFFFFFFFFFFFFFFFFFFFFFFFFF0000FF00000000000000000000000000000000000000000000000000000000000000FF00000000000000000000000000000000000000000000000000000000000000FF0000000000000000FFFFFFFFFFFFFFFFFFFFFFFFFFFFFFFFFFFFFFFFFF00000000000000000000000000
310
00000000000000000000000000000000000000000000000000000000000000000000000000000000000000000000000000000000000000000000000000000000000000000000000000000000000000000000000000000000000000000000000000000000000000000000000000000000000000000000000000000000000000
310
00000000000000000000000000000000000000000000000000000000000000000000000000000000000000000000000000000000000000000000000000000000000000000000000000000000000000000000000000000000000000000000000000000000000000000000000000000000000000000000000000000000000000
310
FFFFFFFFFFFFFFFFFFFFFFFFFFFFFFFFFFFFFFFFFF00000000000000000000000000000000000000000000000000000000000000000000000000000000000000000000000000000000000000000000000000000000000000000000000000000000000000000000000000000000000000000000000000000000000000000000
310
00000000000000000000000000000000000000000000000000000000000000000000000000000000000000000000000000000000000000000000000000000000000000000000000000000000000000000000000000000000000000000000000000000000000000000000000000000000000000000000000000000000000000
310
0000000000000000000000000000000000000000000000000000000000000000000000000000000000000000000000000000000000000000
102
{BLKREFS
331
470C
102
}
 70
     4
280
     1
281
     0
  0
BLOCK_RECORD
  5
5D95
330
1
100
AcDbSymbolTableRecord
100
AcDbBlockTableRecord
  2
*D33
340
0
 70
     0
280
     1
281
     0
  0
BLOCK_RECORD
  5
5E1B
330
1
100
AcDbSymbolTableRecord
100
AcDbBlockTableRecord
  2
*D34
340
0
 70
     0
280
     1
281
     0
  0
BLOCK_RECORD
  5
5E45
330
1
100
AcDbSymbolTableRecord
100
AcDbBlockTableRecord
  2
*D35
340
0
 70
     0
280
     1
281
     0
  0
BLOCK_RECORD
  5
617D
330
1
100
AcDbSymbolTableRecord
100
AcDbBlockTableRecord
  2
ＧＣサイドカバ－ CMVH450
340
0
310
2800000020000000200000000100080000000000000400000000000000000000000000000000000000000000000080000080000000808000800000008000800080800000C0C0C000C0DCC000F0CAA6000020400000206000002080000020A0000020C0000020E00000400000004020000040400000406000004080000040A0
310
000040C0000040E00000600000006020000060400000606000006080000060A0000060C0000060E00000800000008020000080400000806000008080000080A0000080C0000080E00000A0000000A0200000A0400000A0600000A0800000A0A00000A0C00000A0E00000C0000000C0200000C0400000C0600000C0800000C0
310
A00000C0C00000C0E00000E0000000E0200000E0400000E0600000E0800000E0A00000E0C00000E0E00040000000400020004000400040006000400080004000A0004000C0004000E00040200000402020004020400040206000402080004020A0004020C0004020E000404000004040200040404000404060004040800040
310
40A0004040C0004040E00040600000406020004060400040606000406080004060A0004060C0004060E00040800000408020004080400040806000408080004080A0004080C0004080E00040A0000040A0200040A0400040A0600040A0800040A0A00040A0C00040A0E00040C0000040C0200040C0400040C0600040C08000
310
40C0A00040C0C00040C0E00040E0000040E0200040E0400040E0600040E0800040E0A00040E0C00040E0E00080000000800020008000400080006000800080008000A0008000C0008000E00080200000802020008020400080206000802080008020A0008020C0008020E00080400000804020008040400080406000804080
310
008040A0008040C0008040E00080600000806020008060400080606000806080008060A0008060C0008060E00080800000808020008080400080806000808080008080A0008080C0008080E00080A0000080A0200080A0400080A0600080A0800080A0A00080A0C00080A0E00080C0000080C0200080C0400080C0600080C0
310
800080C0A00080C0C00080C0E00080E0000080E0200080E0400080E0600080E0800080E0A00080E0C00080E0E000C0000000C0002000C0004000C0006000C0008000C000A000C000C000C000E000C0200000C0202000C0204000C0206000C0208000C020A000C020C000C020E000C0400000C0402000C0404000C0406000C0
310
408000C040A000C040C000C040E000C0600000C0602000C0604000C0606000C0608000C060A000C060C000C060E000C0800000C0802000C0804000C0806000C0808000C080A000C080C000C080E000C0A00000C0A02000C0A04000C0A06000C0A08000C0A0A000C0A0C000C0A0E000C0C00000C0C02000C0C04000C0C06000
310
C0C08000C0C0A000F0FBFF00A4A0A000808080000000FF0000FF000000FFFF00FF000000FF00FF00FFFF0000FFFFFF00000000000000000000000000000000000000000000000000000000000000000000000000000000000000FC00000000000000000000000000000000000000000000000000000000000000FC00000000
310
000000000000000000000000000000000000000000000000000000FC00000000000000000000000000000000000000000000000000000000000000FC00000000000000000000000000000000000000000000000000000000000000FC00000000000000000000000000000000000000000000000000000000000000FC000000
310
00000000000000000000000000000000000000000000000000000000FC00000000000000000000000000000000000000000000000000000000000000FC00000000000000000000000000000000000000000000000000FCFCFCFCFCFCFCFCFCFCFCFCFCFCFCFCFCFCFCFCFCFCFCFC0000000000000000FC0000000000FC0000
310
00000000000000000000000000FC000000000000000000FC0000000000FC000000000000000000000000000000FC000000000000000000FC0000000000FC000000000000000000000000FCFCFCFCFC0000000000000000FC0000000000FC000000000000000000000000FC000000000000000000000000FC0000000000FC00
310
0000000000000000000000FC000000000000000000000000FC0000000000FC000000000000000000000000FC000000000000000000000000FC0000000000FC000000000000000000000000FC000000000000000000000000FC0000000000FC000000000000000000000000FC000000000000000000000000FC0000000000FC
310
000000000000000000000000FCFCFCFCFC0000000000000000FC0000000000FC000000000000000000000000000000FC000000000000000000FC0000000000FC00000000000000000000FCFCFCFCFCFCFC0000000000000000FC0000000000FC00000000000000000000FC0000000000000000000000000000FC0000000000
310
FC00000000000000000000FC0000000000000000000000000000FC0000000000FC00000000000000000000FC0000000000000000000000000000FC0000000000FC00000000000000000000FC0000000000000000000000000000FC0000000000FC00000000FCFCFCFC0000FC0000000000000000000000000000FC00000000
310
00FC00000000FC0000FC0000FC0000000000000000000000000000FCFCFCFCFCFCFCFCFCFCFCFC0000FC0000FC0000000000000000000000000000000000000000FC00000000000000FCFCFCFCFCFCFC0000000000000000000000000000000000FC0000000000000000000000000000000000000000000000000000000000
310
0000FC0000000000000000000000000000000000000000000000000000000000000000000000000000000000000000000000000000000000
102
{BLKREFS
331
6193
102
}
 70
     4
280
     1
281
     1
  0
ENDTAB
  0
ENDSEC
  0
SECTION
  2
BLOCKS
  0
BLOCK
  5
20
330
1F
100
AcDbEntity
  8
0
100
AcDbBlockBegin
  2
*Model_Space
 70
     0
 10
0.0
 20
0.0
 30
0.0
  3
*Model_Space
  1

  0
ENDBLK
  5
21
330
1F
100
AcDbEntity
  8
0
100
AcDbBlockEnd
  0
BLOCK
  5
1C
330
1B
100
AcDbEntity
 67
     1
  8
0
100
AcDbBlockBegin
  2
*Paper_Space
 70
     0
 10
0.0
 20
0.0
 30
0.0
  3
*Paper_Space
  1

  0
ENDBLK
  5
1D
330
1B
100
AcDbEntity
 67
     1
  8
0
100
AcDbBlockEnd
  0
BLOCK
  5
24
330
23
100
AcDbEntity
 67
     1
  8
0
100
AcDbBlockBegin
  2
*Paper_Space0
 70
     0
 10
0.0
 20
0.0
 30
0.0
  3
*Paper_Space0
  1

  0
ENDBLK
  5
25
330
23
100
AcDbEntity
 67
     1
  8
0
100
AcDbBlockEnd
  0
BLOCK
  5
6D
330
69
100
AcDbEntity
  8
0
100
AcDbBlockBegin
  2
_Open30
 70
     0
 10
0.0
 20
0.0
 30
0.0
  3
_Open30
  1

  0
LINE
  5
6A
330
69
100
AcDbEntity
  8
0
  6
ByBlock
 62
     0
370
    -2
100
AcDbLine
 10
-1.0
 20
0.26794919
 30
0.0
 11
0.0
 21
0.0
 31
0.0
  0
LINE
  5
6B
330
69
100
AcDbEntity
  8
0
  6
ByBlock
 62
     0
370
    -2
100
AcDbLine
 10
0.0
 20
0.0
 30
0.0
 11
-1.0
 21
-0.26794919
 31
0.0
  0
LINE
  5
6C
330
69
100
AcDbEntity
  8
0
  6
ByBlock
 62
     0
370
    -2
100
AcDbLine
 10
0.0
 20
0.0
 30
0.0
 11
-1.0
 21
0.0
 31
0.0
  0
ENDBLK
  5
6E
330
69
100
AcDbEntity
  8
0
100
AcDbBlockEnd
  0
BLOCK
  5
76
330
74
100
AcDbEntity
  8
0
100
AcDbBlockBegin
  2
GENAXEH
 70
     0
 10
0.0
 20
0.0
 30
0.0
  3
GENAXEH
  1

  0
LINE
  5
75
330
74
100
AcDbEntity
  8
0
100
AcDbLine
 10
-1.0
 20
0.0
 30
0.0
 11
1.0
 21
0.0
 31
0.0
  0
ENDBLK
  5
77
330
74
100
AcDbEntity
  8
0
100
AcDbBlockEnd
  0
BLOCK
  5
29D6
330
29D5
100
AcDbEntity
  8
0
100
AcDbBlockBegin
  2
GENDOT
 70
     0
 10
0.0
 20
0.0
 30
0.0
  3
GENDOT
  1

  0
LINE
  5
29D7
330
29D5
100
AcDbEntity
  8
0
100
AcDbLine
 10
0.0
 20
0.0
 30
0.0
 11
-1.0
 21
0.0
 31
0.0
  0
LWPOLYLINE
  5
29D8
330
29D5
100
AcDbEntity
  8
0
100
AcDbPolyline
 90
        2
 70
     1
 43
0.25
 10
-0.125
 20
0.0
 42
1.0
 10
0.125
 20
0.0
 42
1.0
  0
ENDBLK
  5
29D9
330
29D5
100
AcDbEntity
  8
0
100
AcDbBlockEnd
  0
BLOCK
  5
29DD
330
29DA
100
AcDbEntity
  8
0
100
AcDbBlockBegin
  2
ロッカクアナツキプラグ-1 R1／4
 70
     0
 10
0.0
 20
0.0
 30
0.0
  3
ロッカクアナツキプラグ-1 R1／4
  1

  0
LINE
  5
29DE
330
29DA
100
AcDbEntity
  8
AM_7 中心線
100
AcDbLine
 10
0.0
 20
15.71635800000001
 30
0.0
 11
0.0
 21
-15.71635900000001
 31
0.0
  0
CIRCLE
  5
29DF
330
29DA
100
AcDbEntity
  8
AM_4 細線
100
AcDbCircle
 10
0.0
 20
0.0
 30
0.0
 40
10.716358
  0
CIRCLE
  5
29E0
330
29DA
100
AcDbEntity
  8
AM_0 外形線1
100
AcDbCircle
 10
0.0
 20
0.0
 30
0.0
 40
9.554358
  0
LINE
  5
29E1
330
29DA
100
AcDbEntity
  8
AM_7 中心線
100
AcDbLine
 10
15.71635799999967
 20
0.0
 30
0.0
 11
-15.71635800000013
 21
0.0
 31
0.0
  0
LINE
  5
29E2
330
29DA
100
AcDbEntity
  8
AM_0 外形線1
100
AcDbLine
 10
5.0
 20
-2.886752000000115
 30
0.0
 11
0.0
 21
-5.773503000000005
 31
0.0
  0
LINE
  5
29E3
330
29DA
100
AcDbEntity
  8
AM_0 外形線1
100
AcDbLine
 10
-5.0
 20
2.886751000000002
 30
0.0
 11
0.0
 21
5.773501999999893
 31
0.0
  0
LINE
  5
29E4
330
29DA
100
AcDbEntity
  8
AM_0 外形線1
100
AcDbLine
 10
0.0
 20
-5.773503000000005
 30
0.0
 11
-5.0
 21
-2.886752000000115
 31
0.0
  0
LINE
  5
29E5
330
29DA
100
AcDbEntity
  8
AM_0 外形線1
100
AcDbLine
 10
0.0
 20
5.773501999999893
 30
0.0
 11
5.0
 21
2.886751000000002
 31
0.0
  0
LINE
  5
29E6
330
29DA
100
AcDbEntity
  8
AM_0 外形線1
100
AcDbLine
 10
5.0
 20
-2.886752000000115
 30
0.0
 11
5.0
 21
2.886751000000002
 31
0.0
  0
LINE
  5
29E7
330
29DA
100
AcDbEntity
  8
AM_0 外形線1
100
AcDbLine
 10
-5.0
 20
-2.886752000000115
 30
0.0
 11
-5.0
 21
2.886751000000002
 31
0.0
  0
LINE
  5
29E8
330
29DA
100
AcDbEntity
  8
AM_0 外形線1
100
AcDbLine
 10
-222.8109709999999
 20
8.977499999999963
 30
0.0
 11
-222.8109709999999
 21
-8.977499999999963
 31
0.0
  0
LINE
  5
29E9
330
29DA
100
AcDbEntity
  8
AM_7 中心線
100
AcDbLine
 10
-224.9678519999998
 20
0.0
 30
0.0
 11
-203.2810829999998
 21
0.0
 31
0.0
  0
LINE
  5
29EA
330
29DA
100
AcDbEntity
  8
AM_0 外形線1
100
AcDbLine
 10
-222.8109709999999
 20
8.977499999999963
 30
0.0
 11
-221.1307869999996
 21
10.65768400000024
 31
0.0
  0
LINE
  5
29EB
330
29DA
100
AcDbEntity
  8
AM_0 外形線1
100
AcDbLine
 10
-221.3109709999999
 20
-10.47749999999996
 30
0.0
 11
-222.8109709999999
 21
-8.977499999999963
 31
0.0
  0
LINE
  5
29EC
330
29DA
100
AcDbEntity
  8
AM_0 外形線1
100
AcDbLine
 10
-209.8109709999999
 20
10.2623880000001
 30
0.0
 11
-207.8109709999999
 21
9.107686999999939
 31
0.0
  0
LINE
  5
29ED
330
29DA
100
AcDbEntity
  8
AM_0 外形線1
100
AcDbLine
 10
-209.8109709999999
 20
10.2623880000001
 30
0.0
 11
-209.8109709999999
 21
-10.2623880000001
 31
0.0
  0
LINE
  5
29EE
330
29DA
100
AcDbEntity
  8
AM_0 外形線1
100
AcDbLine
 10
-221.1307869999996
 20
10.65768400000024
 30
0.0
 11
-221.1307869999996
 21
-10.65768500000013
 31
0.0
  0
LINE
  5
29EF
330
29DA
100
AcDbEntity
  8
AM_4 細線
100
AcDbLine
 10
-222.2535779999994
 20
9.534893000000009
 30
0.0
 11
-207.8109709999999
 21
9.030545999999956
 31
0.0
  0
LINE
  5
29F0
330
29DA
100
AcDbEntity
  8
AM_4 細線
100
AcDbLine
 10
-222.2535779999994
 20
-9.534893999999894
 30
0.0
 11
-207.8109709999999
 21
-9.030546999999842
 31
0.0
  0
LINE
  5
29F1
330
29DA
100
AcDbEntity
  8
AM_0 外形線1
100
AcDbLine
 10
-209.8109709999999
 20
-10.2623880000001
 30
0.0
 11
-221.1307869999996
 21
-10.65768500000013
 31
0.0
  0
LINE
  5
29F2
330
29DA
100
AcDbEntity
  8
AM_0 外形線1
100
AcDbLine
 10
-207.8109709999999
 20
-9.107688000000052
 30
0.0
 11
-209.8109709999999
 21
-10.2623880000001
 31
0.0
  0
LINE
  5
29F3
330
29DA
100
AcDbEntity
  8
AM_0 外形線1
100
AcDbLine
 10
-207.8109709999999
 20
9.107686999999939
 30
0.0
 11
-207.8109709999999
 21
-9.107688000000052
 31
0.0
  0
LINE
  5
29F4
330
29DA
100
AcDbEntity
  8
AM_0 外形線1
100
AcDbLine
 10
-221.1307869999996
 20
10.65768400000024
 30
0.0
 11
-209.8109709999999
 21
10.2623880000001
 31
0.0
  0
ENDBLK
  5
29F5
330
29DA
100
AcDbEntity
  8
0
100
AcDbBlockEnd
  0
BLOCK
  5
29F9
330
29F6
100
AcDbEntity
  8
0
100
AcDbBlockBegin
  2
ロッカクアナツキプラグ-2 R1／2
 70
     0
 10
0.0
 20
0.0
 30
0.0
  3
ロッカクアナツキプラグ-2 R1／2
  1

  0
LINE
  5
29FA
330
29F6
100
AcDbEntity
  8
AM_7 中心線
100
AcDbLine
 10
0.0
 20
-15.71635900000001
 30
0.0
 11
0.0
 21
15.71635800000001
 31
0.0
  0
LINE
  5
29FB
330
29F6
100
AcDbEntity
  8
AM_7 中心線
100
AcDbLine
 10
15.71635799999967
 20
0.0
 30
0.0
 11
-15.71635800000013
 21
0.0
 31
0.0
  0
CIRCLE
  5
29FC
330
29F6
100
AcDbEntity
  8
AM_4 細線
100
AcDbCircle
 10
0.0
 20
0.0
 30
0.0
 40
10.716358
  0
CIRCLE
  5
29FD
330
29F6
100
AcDbEntity
  8
AM_0 外形線1
100
AcDbCircle
 10
0.0
 20
0.0
 30
0.0
 40
9.554358
  0
LINE
  5
29FE
330
29F6
100
AcDbEntity
  8
AM_0 外形線1
100
AcDbLine
 10
5.0
 20
2.886751000000002
 30
0.0
 11
0.0
 21
5.773501999999893
 31
0.0
  0
LINE
  5
29FF
330
29F6
100
AcDbEntity
  8
AM_0 外形線1
100
AcDbLine
 10
-5.0
 20
-2.886752000000115
 30
0.0
 11
0.0
 21
-5.773503000000005
 31
0.0
  0
LINE
  5
2A00
330
29F6
100
AcDbEntity
  8
AM_0 外形線1
100
AcDbLine
 10
0.0
 20
5.773501999999893
 30
0.0
 11
-5.0
 21
2.886751000000002
 31
0.0
  0
LINE
  5
2A01
330
29F6
100
AcDbEntity
  8
AM_0 外形線1
100
AcDbLine
 10
0.0
 20
-5.773503000000005
 30
0.0
 11
5.0
 21
-2.886752000000115
 31
0.0
  0
LINE
  5
2A02
330
29F6
100
AcDbEntity
  8
AM_0 外形線1
100
AcDbLine
 10
5.0
 20
2.886751000000002
 30
0.0
 11
5.0
 21
-2.886752000000115
 31
0.0
  0
LINE
  5
2A03
330
29F6
100
AcDbEntity
  8
AM_0 外形線1
100
AcDbLine
 10
-5.0
 20
2.886751000000002
 30
0.0
 11
-5.0
 21
-2.886752000000115
 31
0.0
  0
LINE
  5
2A04
330
29F6
100
AcDbEntity
  8
AM_0 外形線1
100
AcDbLine
 10
-222.8109709999999
 20
8.977499999999963
 30
0.0
 11
-222.8109709999999
 21
-8.977499999999963
 31
0.0
  0
LINE
  5
2A05
330
29F6
100
AcDbEntity
  8
AM_7 中心線
100
AcDbLine
 10
-224.9678519999998
 20
0.0
 30
0.0
 11
-203.2810829999998
 21
0.0
 31
0.0
  0
LINE
  5
2A06
330
29F6
100
AcDbEntity
  8
AM_0 外形線1
100
AcDbLine
 10
-222.8109709999999
 20
-8.977499999999963
 30
0.0
 11
-221.1307869999996
 21
-10.65768500000013
 31
0.0
  0
LINE
  5
2A07
330
29F6
100
AcDbEntity
  8
AM_0 外形線1
100
AcDbLine
 10
-221.3109709999999
 20
10.47749999999996
 30
0.0
 11
-222.8109709999999
 21
8.977499999999963
 31
0.0
  0
LINE
  5
2A08
330
29F6
100
AcDbEntity
  8
AM_0 外形線1
100
AcDbLine
 10
-209.8109709999999
 20
-10.2623880000001
 30
0.0
 11
-209.8109709999999
 21
10.2623880000001
 31
0.0
  0
LINE
  5
2A09
330
29F6
100
AcDbEntity
  8
AM_0 外形線1
100
AcDbLine
 10
-221.1307869999996
 20
-10.65768500000013
 30
0.0
 11
-221.1307869999996
 21
10.65768399999979
 31
0.0
  0
LINE
  5
2A0A
330
29F6
100
AcDbEntity
  8
AM_0 外形線1
100
AcDbLine
 10
-207.8109709999999
 20
-9.107688000000052
 30
0.0
 11
-207.8109709999999
 21
9.107687000000167
 31
0.0
  0
LINE
  5
2A0B
330
29F6
100
AcDbEntity
  8
AM_4 細線
100
AcDbLine
 10
-222.2535779999994
 20
-9.534893999999894
 30
0.0
 11
-207.8109709999999
 21
-9.030546999999842
 31
0.0
  0
LINE
  5
2A0C
330
29F6
100
AcDbEntity
  8
AM_0 外形線1
100
AcDbLine
 10
-209.8109709999999
 20
-10.2623880000001
 30
0.0
 11
-207.8109709999999
 21
-9.107688000000052
 31
0.0
  0
LINE
  5
2A0D
330
29F6
100
AcDbEntity
  8
AM_4 細線
100
AcDbLine
 10
-222.2535779999994
 20
9.534893000000009
 30
0.0
 11
-207.8109709999999
 21
9.030545999999956
 31
0.0
  0
LINE
  5
2A0E
330
29F6
100
AcDbEntity
  8
AM_0 外形線1
100
AcDbLine
 10
-209.8109709999999
 20
10.2623880000001
 30
0.0
 11
-221.1307869999996
 21
10.65768399999979
 31
0.0
  0
LINE
  5
2A0F
330
29F6
100
AcDbEntity
  8
AM_0 外形線1
100
AcDbLine
 10
-207.8109709999999
 20
9.107687000000167
 30
0.0
 11
-209.8109709999999
 21
10.2623880000001
 31
0.0
  0
LINE
  5
532E
330
29F6
100
AcDbEntity
  8
AM_0 外形線1
100
AcDbLine
 10
-221.1307869999996
 20
-10.65768500000013
 30
0.0
 11
-209.8109709999999
 21
-10.2623880000001
 31
0.0
  0
ENDBLK
  5
2A10
330
29F6
100
AcDbEntity
  8
0
100
AcDbBlockEnd
  0
BLOCK
  5
2A14
330
2A11
100
AcDbEntity
  8
0
100
AcDbBlockBegin
  2
ケースＡ CMVH450
 70
     0
 10
0.0
 20
0.0
 30
0.0
  3
ケースＡ CMVH450
  1

  0
LINE
  5
2A15
330
2A11
100
AcDbEntity
  8
AM_3 隠れ線
100
AcDbLine
 10
-151.0
 20
-129.0
 30
0.0
 11
-151.0
 21
-73.0000000000001
 31
0.0
  0
LINE
  5
2A16
330
2A11
100
AcDbEntity
  8
AM_7 中心線
100
AcDbLine
 10
-155.0
 20
-63.0
 30
0.0
 11
-155.0
 21
-132.0
 31
0.0
  0
LINE
  5
2A17
330
2A11
100
AcDbEntity
  8
AM_0 外形線1
100
AcDbLine
 10
-160.0
 20
-65.0
 30
0.0
 11
-160.0
 21
-130.0
 31
0.0
  0
LINE
  5
2A18
330
2A11
100
AcDbEntity
  8
AM_0 外形線1
100
AcDbLine
 10
-177.0
 20
-31.0
 30
0.0
 11
-177.0
 21
-101.0
 31
0.0
  0
LINE
  5
2A19
330
2A11
100
AcDbEntity
  8
AM_0 外形線1
100
AcDbLine
 10
-186.0
 20
-135.0
 30
0.0
 11
-161.5
 21
-135.0
 31
0.0
  0
LINE
  5
2A1A
330
2A11
100
AcDbEntity
  8
AM_0 外形線1
100
AcDbLine
 10
-186.0
 20
-110.0
 30
0.0
 11
-186.0
 21
-135.0
 31
0.0
  0
LINE
  5
2A1B
330
2A11
100
AcDbEntity
  8
AM_0 外形線1
100
AcDbLine
 10
-177.0
 20
-101.0
 30
0.0
 11
-186.0
 21
-110.0
 31
0.0
  0
LINE
  5
2A1C
330
2A11
100
AcDbEntity
  8
AM_0 外形線1
100
AcDbLine
 10
-161.5
 20
-135.0
 30
0.0
 11
-161.5
 21
-131.0
 31
0.0
  0
LINE
  5
2A1D
330
2A11
100
AcDbEntity
  8
AM_0 外形線1
100
AcDbLine
 10
-152.0
 20
-130.0
 30
0.0
 11
-151.0
 21
-129.0
 31
0.0
  0
LINE
  5
2A1E
330
2A11
100
AcDbEntity
  8
AM_0 外形線1
100
AcDbLine
 10
-160.0
 20
-130.0
 30
0.0
 11
-152.0
 21
-130.0
 31
0.0
  0
LINE
  5
2A1F
330
2A11
100
AcDbEntity
  8
AM_0 外形線1
100
AcDbLine
 10
-160.5
 20
-130.0
 30
0.0
 11
-160.0
 21
-130.0
 31
0.0
  0
ARC
  5
2A20
330
2A11
100
AcDbEntity
  8
AM_0 外形線1
100
AcDbCircle
 10
-160.5
 20
-131.0
 30
0.0
 40
1.0
100
AcDbArc
 50
90.0
 51
180.0
  0
LINE
  5
2A21
330
2A11
100
AcDbEntity
  8
AM_0 外形線1
100
AcDbLine
 10
-166.5
 20
0.0
 30
0.0
 11
-170.0
 21
0.0
 31
0.0
  0
ARC
  5
2A22
330
2A11
100
AcDbEntity
  8
AM_0 外形線1
100
AcDbCircle
 10
-170.5
 20
-4.0
 30
0.0
 40
0.5
100
AcDbArc
 50
270.0
 51
0.0
  0
ARC
  5
2A23
330
2A11
100
AcDbEntity
  8
AM_0 外形線1
100
AcDbCircle
 10
-183.0
 20
-31.0
 30
0.0
 40
6.0
100
AcDbArc
 50
0.0
 51
90.0
  0
LINE
  5
2A24
330
2A11
100
AcDbEntity
  8
AM_0 外形線1
100
AcDbLine
 10
-183.0
 20
-25.0
 30
0.0
 11
-224.0
 21
-25.0
 31
0.0
  0
LINE
  5
2A25
330
2A11
100
AcDbEntity
  8
AM_0 外形線1
100
AcDbLine
 10
-216.0
 20
0.0
 30
0.0
 11
-224.0
 21
0.0
 31
0.0
  0
LINE
  5
2A26
330
2A11
100
AcDbEntity
  8
AM_0 外形線1
100
AcDbLine
 10
-225.0
 20
-24.0
 30
0.0
 11
-224.0
 21
-25.0
 31
0.0
  0
LINE
  5
2A27
330
2A11
100
AcDbEntity
  8
AM_0 外形線1
100
AcDbLine
 10
-225.0
 20
-1.0
 30
0.0
 11
-225.0
 21
-24.0
 31
0.0
  0
LINE
  5
2A28
330
2A11
100
AcDbEntity
  8
AM_0 外形線1
100
AcDbLine
 10
-224.0
 20
0.0
 30
0.0
 11
-225.0
 21
-1.0
 31
0.0
  0
LINE
  5
2A29
330
2A11
100
AcDbEntity
  8
AM_0 外形線1
100
AcDbLine
 10
-177.1999999999998
 20
-4.0
 30
0.0
 11
-177.1999999999998
 21
0.0
 31
0.0
  0
ARC
  5
2A2A
330
2A11
100
AcDbEntity
  8
AM_0 外形線1
100
AcDbCircle
 10
-176.6999999999998
 20
-4.0
 30
0.0
 40
0.5
100
AcDbArc
 50
180.0
 51
270.0
  0
LINE
  5
2A2B
330
2A11
100
AcDbEntity
  8
AM_0 外形線1
100
AcDbLine
 10
-170.5
 20
-4.5
 30
0.0
 11
-176.6999999999998
 21
-4.5
 31
0.0
  0
LINE
  5
2A2C
330
2A11
100
AcDbEntity
  8
AM_0 外形線1
100
AcDbLine
 10
-161.5
 20
-64.0
 30
0.0
 11
-161.5
 21
-2.0
 31
0.0
  0
LINE
  5
2A2D
330
2A11
100
AcDbEntity
  8
AM_0 外形線1
100
AcDbLine
 10
-151.0
 20
-73.0000000000001
 30
0.0
 11
-151.0
 21
-66.0
 31
0.0
  0
ARC
  5
2A2E
330
2A11
100
AcDbEntity
  8
AM_0 外形線1
100
AcDbCircle
 10
-160.5
 20
-64.0
 30
0.0
 40
1.0
100
AcDbArc
 50
180.0
 51
270.0
  0
LINE
  5
2A2F
330
2A11
100
AcDbEntity
  8
AM_0 外形線1
100
AcDbLine
 10
-152.0
 20
-65.0
 30
0.0
 11
-160.5
 21
-65.0
 31
0.0
  0
LINE
  5
2A30
330
2A11
100
AcDbEntity
  8
AM_0 外形線1
100
AcDbLine
 10
-151.0
 20
-66.0
 30
0.0
 11
-152.0
 21
-65.0
 31
0.0
  0
LINE
  5
2A31
330
2A11
100
AcDbEntity
  8
AM_0 外形線1
100
AcDbLine
 10
-166.5
 20
0.0
 30
0.0
 11
-166.5
 21
-2.0
 31
0.0
  0
LINE
  5
2A32
330
2A11
100
AcDbEntity
  8
AM_0 外形線1
100
AcDbLine
 10
176.9999999999997
 20
-31.0
 30
0.0
 11
176.9999999999997
 21
-101.0
 31
0.0
  0
LINE
  5
2A33
330
2A11
100
AcDbEntity
  8
AM_0 外形線1
100
AcDbLine
 10
185.9999999999997
 20
-110.0
 30
0.0
 11
0.0
 21
-110.0
 31
0.0
  0
LINE
  5
2A34
330
2A11
100
AcDbEntity
  8
AM_0 外形線1
100
AcDbLine
 10
176.9999999999997
 20
-101.0
 30
0.0
 11
0.0
 21
-101.0
 31
0.0
  0
LINE
  5
2A35
330
2A11
100
AcDbEntity
  8
AM_0 外形線1
100
AcDbLine
 10
185.9999999999997
 20
-110.0
 30
0.0
 11
185.9999999999997
 21
-135.0
 31
0.0
  0
LINE
  5
2A36
330
2A11
100
AcDbEntity
  8
AM_0 外形線1
100
AcDbLine
 10
176.9999999999997
 20
-101.0
 30
0.0
 11
185.9999999999997
 21
-110.0
 31
0.0
  0
LINE
  5
2A37
330
2A11
100
AcDbEntity
  8
AM_0 外形線1
100
AcDbLine
 10
0.0
 20
0.0
 30
0.0
 11
223.9999999999998
 21
0.0
 31
0.0
  0
LINE
  5
2A38
330
2A11
100
AcDbEntity
  8
AM_0 外形線1
100
AcDbLine
 10
223.9999999999998
 20
-25.0
 30
0.0
 11
0.0
 21
-25.0
 31
0.0
  0
ARC
  5
2A39
330
2A11
100
AcDbEntity
  8
AM_0 外形線1
100
AcDbCircle
 10
182.9999999999998
 20
-31.0
 30
0.0
 40
6.0
100
AcDbArc
 50
90.0
 51
180.0
  0
LINE
  5
2A3A
330
2A11
100
AcDbEntity
  8
AM_0 外形線1
100
AcDbLine
 10
224.9999999999998
 20
-24.0
 30
0.0
 11
223.9999999999998
 21
-25.0
 31
0.0
  0
LINE
  5
2A3B
330
2A11
100
AcDbEntity
  8
AM_0 外形線1
100
AcDbLine
 10
223.9999999999998
 20
0.0
 30
0.0
 11
224.9999999999998
 21
-1.0
 31
0.0
  0
LINE
  5
2A3C
330
2A11
100
AcDbEntity
  8
AM_0 外形線1
100
AcDbLine
 10
224.9999999999998
 20
-1.0
 30
0.0
 11
224.9999999999998
 21
-24.0
 31
0.0
  0
ELLIPSE
  5
2A3D
330
2A11
100
AcDbEntity
  8
AM_0 外形線1
100
AcDbEllipse
 10
-173.5999999999999
 20
-2.25
 30
0.0
 11
3.599999999999908
 21
0.0
 31
0.0
210
0.0
220
0.0
230
1.0
 40
0.6250000000000158
 41
0.0
 42
6.283185307179585
  0
INSERT
  5
2A3E
330
2A11
100
AcDbEntity
  8
AM_0 外形線1
100
AcDbBlockReference
  2
ロッカクアナツキプラグ-1 R1／4
 10
45.81097099999989
 20
-50.0
 30
0.0
  0
LINE
  5
2A3F
330
2A11
100
AcDbEntity
  8
AM_0 外形線1
100
AcDbLine
 10
-216.0
 20
0.0
 30
0.0
 11
-216.0
 21
-25.0
 31
0.0
  0
LINE
  5
2A40
330
2A11
100
AcDbEntity
  8
AM_0 外形線1
100
AcDbLine
 10
-193.9999999999999
 20
0.0
 30
0.0
 11
-194.0
 21
-25.0
 31
0.0
  0
LINE
  5
2A41
330
2A11
100
AcDbEntity
  8
AM_0 外形線1
100
AcDbLine
 10
-177.1999999999998
 20
0.0
 30
0.0
 11
-194.0
 21
0.0
 31
0.0
  0
LINE
  5
2A42
330
2A11
100
AcDbEntity
  8
AM_0 外形線1
100
AcDbLine
 10
-170.0
 20
0.0
 30
0.0
 11
-170.0
 21
-4.0
 31
0.0
  0
LINE
  5
2A43
330
2A11
100
AcDbEntity
  8
AM_0 外形線1
100
AcDbLine
 10
-166.5
 20
-2.0
 30
0.0
 11
-161.5
 21
-2.0
 31
0.0
  0
LINE
  5
2A44
330
2A11
100
AcDbEntity
  8
AM_7 中心線
100
AcDbLine
 10
-205.0
 20
-43.0
 30
0.0
 11
-205.0
 21
58.0
 31
0.0
  0
LINE
  5
2A45
330
2A11
100
AcDbEntity
  8
AM_4 細線
100
AcDbLine
 10
-175.3198159999997
 20
-39.34231599999975
 30
0.0
 11
-177.0
 21
-39.28364199999986
 31
0.0
  0
LINE
  5
2A46
330
2A11
100
AcDbEntity
  8
AM_0 外形線1
100
AcDbLine
 10
-176.4426069999995
 20
-40.46510699999998
 30
0.0
 11
-177.0
 21
-40.44564200000013
 31
0.0
  0
LINE
  5
2A47
330
2A11
100
AcDbEntity
  8
AM_4 細線
100
AcDbLine
 10
-175.3198159999997
 20
-60.65768500000014
 30
0.0
 11
-177.0
 21
-60.71635799999967
 31
0.0
  0
LINE
  5
2A48
330
2A11
100
AcDbEntity
  8
AM_0 外形線1
100
AcDbLine
 10
-176.4426069999995
 20
-59.53489399999989
 30
0.0
 11
-177.0
 21
-59.55435799999985
 31
0.0
  0
LINE
  5
2A49
330
2A11
100
AcDbEntity
  8
AM_0 外形線1
100
AcDbLine
 10
-162.0
 20
-40.96945400000004
 30
0.0
 11
-161.5
 21
-40.98691400000006
 31
0.0
  0
LINE
  5
2A4A
330
2A11
100
AcDbEntity
  8
AM_4 細線
100
AcDbLine
 10
-164.0
 20
-60.26238800000011
 30
0.0
 11
-161.5
 21
-60.17508600000019
 31
0.0
  0
LINE
  5
2A4B
330
2A11
100
AcDbEntity
  8
AM_0 外形線1
100
AcDbLine
 10
-162.0
 20
-59.03054699999985
 30
0.0
 11
-161.5
 21
-59.01308599999993
 31
0.0
  0
LINE
  5
2A4C
330
2A11
100
AcDbEntity
  8
AM_0 外形線1
100
AcDbLine
 10
-175.3198159999997
 20
-60.65768500000014
 30
0.0
 11
-175.5
 21
-60.47749999999997
 31
0.0
  0
LINE
  5
2A4D
330
2A11
100
AcDbEntity
  8
AM_4 細線
100
AcDbLine
 10
-164.0
 20
-39.7376119999999
 30
0.0
 11
-161.5
 21
-39.82491400000004
 31
0.0
  0
LINE
  5
2A4E
330
2A11
100
AcDbEntity
  8
AM_0 外形線1
100
AcDbLine
 10
185.9999999999997
 20
-135.0
 30
0.0
 11
0.0
 21
-135.0
 31
0.0
  0
ENDBLK
  5
2A4F
330
2A11
100
AcDbEntity
  8
0
100
AcDbBlockEnd
  0
BLOCK
  5
2A53
330
2A50
100
AcDbEntity
  8
0
100
AcDbBlockBegin
  2
ケースB CMVH450
 70
     0
 10
0.0
 20
0.0
 30
0.0
  3
ケースB CMVH450
  1

  0
LINE
  5
2A54
330
2A50
100
AcDbEntity
  8
AM_0 外形線1
100
AcDbLine
 10
185.9999999999997
 20
110.0
 30
0.0
 11
185.9999999999997
 21
135.0
 31
0.0
  0
LINE
  5
2A55
330
2A50
100
AcDbEntity
  8
AM_0 外形線1
100
AcDbLine
 10
-161.5
 20
64.0
 30
0.0
 11
-161.5
 21
8.0
 31
0.0
  0
LINE
  5
2A56
330
2A50
100
AcDbEntity
  8
AM_0 外形線1
100
AcDbLine
 10
-177.0
 20
31.0
 30
0.0
 11
-177.0
 21
101.0
 31
0.0
  0
LINE
  5
2A57
330
2A50
100
AcDbEntity
  8
AM_0 外形線1
100
AcDbLine
 10
-183.0
 20
25.0
 30
0.0
 11
-224.0
 21
25.0
 31
0.0
  0
LINE
  5
2A58
330
2A50
100
AcDbEntity
  8
AM_0 外形線1
100
AcDbLine
 10
-225.0
 20
1.0
 30
0.0
 11
-225.0
 21
24.0
 31
0.0
  0
LINE
  5
2A59
330
2A50
100
AcDbEntity
  8
AM_0 外形線1
100
AcDbLine
 10
-224.0
 20
0.0
 30
0.0
 11
-225.0
 21
1.0
 31
0.0
  0
LINE
  5
2A5A
330
2A50
100
AcDbEntity
  8
AM_0 外形線1
100
AcDbLine
 10
-225.0
 20
24.0
 30
0.0
 11
-224.0
 21
25.0
 31
0.0
  0
ARC
  5
2A5B
330
2A50
100
AcDbEntity
  8
AM_0 外形線1
100
AcDbCircle
 10
-183.0
 20
31.0
 30
0.0
 40
6.0
100
AcDbArc
 50
270.0
 51
0.0
  0
LINE
  5
2A5C
330
2A50
100
AcDbEntity
  8
AM_0 外形線1
100
AcDbLine
 10
-177.0
 20
101.0
 30
0.0
 11
-186.0
 21
110.0
 31
0.0
  0
LINE
  5
2A5D
330
2A50
100
AcDbEntity
  8
AM_0 外形線1
100
AcDbLine
 10
-186.0
 20
110.0
 30
0.0
 11
-186.0
 21
135.0
 31
0.0
  0
LINE
  5
2A5E
330
2A50
100
AcDbEntity
  8
AM_0 外形線1
100
AcDbLine
 10
-186.0
 20
135.0
 30
0.0
 11
-180.0
 21
135.0
 31
0.0
  0
LINE
  5
2A5F
330
2A50
100
AcDbEntity
  8
AM_3 隠れ線
100
AcDbLine
 10
-151.0
 20
129.0
 30
0.0
 11
-151.0
 21
73.0
 31
0.0
  0
LINE
  5
2A60
330
2A50
100
AcDbEntity
  8
AM_7 中心線
100
AcDbLine
 10
-155.0
 20
63.0
 30
0.0
 11
-155.0
 21
132.0
 31
0.0
  0
LINE
  5
2A61
330
2A50
100
AcDbEntity
  8
AM_0 外形線1
100
AcDbLine
 10
-160.0
 20
65.0
 30
0.0
 11
-160.0
 21
130.0
 31
0.0
  0
LINE
  5
2A62
330
2A50
100
AcDbEntity
  8
AM_0 外形線1
100
AcDbLine
 10
-151.0
 20
73.0
 30
0.0
 11
-151.0
 21
66.0
 31
0.0
  0
ARC
  5
2A63
330
2A50
100
AcDbEntity
  8
AM_0 外形線1
100
AcDbCircle
 10
-160.5
 20
64.0
 30
0.0
 40
1.0
100
AcDbArc
 50
90.0
 51
180.0
  0
LINE
  5
2A64
330
2A50
100
AcDbEntity
  8
AM_0 外形線1
100
AcDbLine
 10
-152.0
 20
65.0
 30
0.0
 11
-160.5
 21
65.0
 31
0.0
  0
LINE
  5
2A65
330
2A50
100
AcDbEntity
  8
AM_0 外形線1
100
AcDbLine
 10
-151.0
 20
66.0
 30
0.0
 11
-152.0
 21
65.0
 31
0.0
  0
LINE
  5
2A66
330
2A50
100
AcDbEntity
  8
AM_0 外形線1
100
AcDbLine
 10
-161.5
 20
135.0
 30
0.0
 11
-161.5
 21
131.0
 31
0.0
  0
LINE
  5
2A67
330
2A50
100
AcDbEntity
  8
AM_0 外形線1
100
AcDbLine
 10
-152.0
 20
130.0
 30
0.0
 11
-151.0
 21
129.0
 31
0.0
  0
LINE
  5
2A68
330
2A50
100
AcDbEntity
  8
AM_0 外形線1
100
AcDbLine
 10
-160.5
 20
130.0
 30
0.0
 11
-152.0
 21
130.0
 31
0.0
  0
ARC
  5
2A69
330
2A50
100
AcDbEntity
  8
AM_0 外形線1
100
AcDbCircle
 10
-160.5
 20
131.0
 30
0.0
 40
1.0
100
AcDbArc
 50
180.0
 51
270.0
  0
LINE
  5
2A6A
330
2A50
100
AcDbEntity
  8
AM_0 外形線1
100
AcDbLine
 10
-170.0
 20
135.0
 30
0.0
 11
-161.5
 21
135.0
 31
0.0
  0
LINE
  5
2A6B
330
2A50
100
AcDbEntity
  8
AM_0 外形線1
100
AcDbLine
 10
185.9999999999997
 20
135.0
 30
0.0
 11
0.0
 21
135.0
 31
0.0
  0
LINE
  5
2A6C
330
2A50
100
AcDbEntity
  8
AM_0 外形線1
100
AcDbLine
 10
223.9999999999998
 20
25.0
 30
0.0
 11
0.0
 21
25.0
 31
0.0
  0
LINE
  5
2A6D
330
2A50
100
AcDbEntity
  8
AM_0 外形線1
100
AcDbLine
 10
185.9999999999997
 20
110.0
 30
0.0
 11
0.0
 21
110.0
 31
0.0
  0
LINE
  5
2A6E
330
2A50
100
AcDbEntity
  8
AM_0 外形線1
100
AcDbLine
 10
176.9999999999997
 20
101.0
 30
0.0
 11
0.0
 21
101.0
 31
0.0
  0
LINE
  5
2A6F
330
2A50
100
AcDbEntity
  8
AM_0 外形線1
100
AcDbLine
 10
176.9999999999997
 20
31.0
 30
0.0
 11
176.9999999999997
 21
101.0
 31
0.0
  0
ARC
  5
2A70
330
2A50
100
AcDbEntity
  8
AM_0 外形線1
100
AcDbCircle
 10
182.9999999999998
 20
31.0
 30
0.0
 40
6.0
100
AcDbArc
 50
180.0
 51
270.0
  0
LINE
  5
2A71
330
2A50
100
AcDbEntity
  8
AM_7 中心線
100
AcDbLine
 10
204.9999999999998
 20
30.0
 30
0.0
 11
204.9999999999998
 21
-30.0
 31
0.0
  0
LINE
  5
2A72
330
2A50
100
AcDbEntity
  8
AM_0 外形線1
100
AcDbLine
 10
224.9999999999998
 20
1.0
 30
0.0
 11
224.9999999999998
 21
24.0
 31
0.0
  0
LINE
  5
2A73
330
2A50
100
AcDbEntity
  8
AM_0 外形線1
100
AcDbLine
 10
223.9999999999998
 20
0.0
 30
0.0
 11
224.9999999999998
 21
1.0
 31
0.0
  0
LINE
  5
2A74
330
2A50
100
AcDbEntity
  8
AM_0 外形線1
100
AcDbLine
 10
224.9999999999998
 20
24.0
 30
0.0
 11
223.9999999999998
 21
25.0
 31
0.0
  0
LINE
  5
2A75
330
2A50
100
AcDbEntity
  8
AM_0 外形線1
100
AcDbLine
 10
176.9999999999997
 20
101.0
 30
0.0
 11
185.9999999999997
 21
110.0
 31
0.0
  0
LINE
  5
2A76
330
2A50
100
AcDbEntity
  8
AM_4 細線
100
AcDbLine
 10
-175.3198159999997
 20
39.34231499999987
 30
0.0
 11
-177.0
 21
39.28364200000033
 31
0.0
  0
LINE
  5
2A77
330
2A50
100
AcDbEntity
  8
AM_0 外形線1
100
AcDbLine
 10
-176.4426069999995
 20
40.46510600000011
 30
0.0
 11
-177.0
 21
40.44564200000013
 31
0.0
  0
LINE
  5
2A78
330
2A50
100
AcDbEntity
  8
AM_4 細線
100
AcDbLine
 10
-175.3198159999997
 20
60.65768399999979
 30
0.0
 11
-177.0
 21
60.71635800000013
 31
0.0
  0
LINE
  5
2A79
330
2A50
100
AcDbEntity
  8
AM_0 外形線1
100
AcDbLine
 10
-176.4426069999995
 20
59.53489300000001
 30
0.0
 11
-177.0
 21
59.55435799999985
 31
0.0
  0
LINE
  5
2A7A
330
2A50
100
AcDbEntity
  8
AM_4 細線
100
AcDbLine
 10
-164.0
 20
39.7376119999999
 30
0.0
 11
-161.5
 21
39.82491399999982
 31
0.0
  0
LINE
  5
2A7B
330
2A50
100
AcDbEntity
  8
AM_0 外形線1
100
AcDbLine
 10
-162.0
 20
40.96945300000014
 30
0.0
 11
-161.5
 21
40.98691400000006
 31
0.0
  0
LINE
  5
2A7C
330
2A50
100
AcDbEntity
  8
AM_0 外形線1
100
AcDbLine
 10
-175.3198159999997
 20
39.34231499999987
 30
0.0
 11
-164.0
 21
39.7376119999999
 31
0.0
  0
LINE
  5
2A7D
330
2A50
100
AcDbEntity
  8
AM_4 細線
100
AcDbLine
 10
-164.0
 20
60.26238800000011
 30
0.0
 11
-161.5
 21
60.17508600000019
 31
0.0
  0
LINE
  5
2A7E
330
2A50
100
AcDbEntity
  8
AM_0 外形線1
100
AcDbLine
 10
-162.0
 20
59.03054599999996
 30
0.0
 11
-161.5
 21
59.01308599999993
 31
0.0
  0
LINE
  5
2A7F
330
2A50
100
AcDbEntity
  8
AM_0 外形線1
100
AcDbLine
 10
-175.3198159999997
 20
60.65768399999979
 30
0.0
 11
-175.5
 21
60.47749999999997
 31
0.0
  0
INSERT
  5
2A80
330
2A50
100
AcDbEntity
  8
AM_0 外形線1
100
AcDbBlockReference
  2
ロッカクアナツキプラグ-2 R1／2
 10
45.81097099999989
 20
50.0
 30
0.0
  0
LINE
  5
2A81
330
2A50
100
AcDbEntity
  8
AM_0 外形線1
100
AcDbLine
 10
-194.0
 20
25.0
 30
0.0
 11
-193.9999999999999
 21
0.0
 31
0.0
  0
LINE
  5
2A82
330
2A50
100
AcDbEntity
  8
AM_0 外形線1
100
AcDbLine
 10
-216.0
 20
25.0
 30
0.0
 11
-216.0
 21
0.0
 31
0.0
  0
LINE
  5
2A83
330
2A50
100
AcDbEntity
  8
AM_0 外形線1
100
AcDbLine
 10
-224.0
 20
0.0
 30
0.0
 11
-216.0
 21
0.0
 31
0.0
  0
LINE
  5
2A84
330
2A50
100
AcDbEntity
  8
AM_0 外形線1
100
AcDbLine
 10
-193.9999999999999
 20
0.0
 30
0.0
 11
-170.0
 21
0.0
 31
0.0
  0
LINE
  5
2A85
330
2A50
100
AcDbEntity
  8
AM_0 外形線1
100
AcDbLine
 10
-170.0
 20
0.0
 30
0.0
 11
-170.0
 21
8.0
 31
0.0
  0
LINE
  5
2A86
330
2A50
100
AcDbEntity
  8
AM_0 外形線1
100
AcDbLine
 10
-170.0
 20
8.0
 30
0.0
 11
-161.5
 21
8.0
 31
0.0
  0
LINE
  5
2A87
330
2A50
100
AcDbEntity
  8
AM_0 外形線1
100
AcDbLine
 10
0.0
 20
0.0
 30
0.0
 11
223.9999999999998
 21
0.0
 31
0.0
  0
ENDBLK
  5
2A88
330
2A50
100
AcDbEntity
  8
0
100
AcDbBlockEnd
  0
BLOCK
  5
2A8A
330
2A89
100
AcDbEntity
  8
0
100
AcDbBlockBegin
  2
センタＡ CMVH450
 70
     0
 10
0.0
 20
0.0
 30
0.0
  3
センタＡ CMVH450
  1

  0
LINE
  5
2A8B
330
2A89
100
AcDbEntity
  8
AM_0 外形線1
100
AcDbLine
 10
138.0
 20
-200.0
 30
0.0
 11
-138.0
 21
-200.0
 31
0.0
  0
LINE
  5
2A8C
330
2A89
100
AcDbEntity
  8
AM_0 外形線1
100
AcDbLine
 10
-123.5
 20
0.0
 30
0.0
 11
0.0
 21
0.0
 31
0.0
  0
ARC
  5
2A8E
330
2A89
100
AcDbEntity
  8
AM_0 外形線1
100
AcDbCircle
 10
0.0
 20
-89.0
 30
0.0
 40
159.8
100
AcDbArc
 50
170.0906350000025
 51
189.9093649999974
  0
LINE
  5
2A90
330
2A89
100
AcDbEntity
  8
AM_0 外形線1
100
AcDbLine
 10
-145.0
 20
-160.0
 30
0.0
 11
-145.0
 21
-117.5
 31
0.0
  0
LINE
  5
2A91
330
2A89
100
AcDbEntity
  8
AM_0 外形線1
100
AcDbLine
 10
-144.0
 20
-194.0
 30
0.0
 11
-144.0
 21
-163.0
 31
0.0
  0
ARC
  5
2A92
330
2A89
100
AcDbEntity
  8
AM_0 外形線1
100
AcDbCircle
 10
-138.0
 20
-194.0
 30
0.0
 40
6.0
100
AcDbArc
 50
180.0
 51
270.0
  0
LINE
  5
2A93
330
2A89
100
AcDbEntity
  8
AM_0 外形線1
100
AcDbLine
 10
-144.0
 20
-163.0
 30
0.0
 11
-145.0
 21
-160.0
 31
0.0
  0
LINE
  5
2A94
330
2A89
100
AcDbEntity
  8
AM_0 外形線1
100
AcDbLine
 10
-145.5
 20
-117.0
 30
0.0
 11
-156.8278110000001
 21
-117.0
 31
0.0
  0
LINE
  5
2A95
330
2A89
100
AcDbEntity
  8
AM_0 外形線1
100
AcDbLine
 10
-156.8278110000001
 20
-117.0
 30
0.0
 11
-157.415978
 21
-116.5
 31
0.0
  0
ARC
  5
2A96
330
2A89
100
AcDbEntity
  8
AM_0 外形線1
100
AcDbCircle
 10
-145.5
 20
-117.5
 30
0.0
 40
0.5
100
AcDbArc
 50
0.0
 51
90.0
  0
LINE
  5
2A97
330
2A89
100
AcDbEntity
  8
AM_7 中心線
100
AcDbLine
 10
-164.8000000000002
 20
-89.0
 30
0.0
 11
-145.0
 21
-89.0
 31
0.0
  0
LINE
  5
2A98
330
2A89
100
AcDbEntity
  8
AM_0 外形線1
100
AcDbLine
 10
-143.0
 20
-60.5
 30
0.0
 11
-143.0
 21
-1.0
 31
0.0
  0
LINE
  5
2A99
330
2A89
100
AcDbEntity
  8
AM_0 外形線1
100
AcDbLine
 10
-156.8278110000001
 20
-61.0
 30
0.0
 11
-143.5
 21
-61.0
 31
0.0
  0
LINE
  5
2A9A
330
2A89
100
AcDbEntity
  8
AM_0 外形線1
100
AcDbLine
 10
-157.415978
 20
-61.5
 30
0.0
 11
-156.8278110000001
 21
-61.0
 31
0.0
  0
ARC
  5
2A9B
330
2A89
100
AcDbEntity
  8
AM_0 外形線1
100
AcDbCircle
 10
-143.5
 20
-60.5
 30
0.0
 40
0.5
100
AcDbArc
 50
270.0
 51
0.0
  0
LINE
  5
2A9C
330
2A89
100
AcDbEntity
  8
AM_0 外形線1
100
AcDbLine
 10
-131.5
 20
0.0
 30
0.0
 11
-142.0
 21
0.0
 31
0.0
  0
LINE
  5
2A9D
330
2A89
100
AcDbEntity
  8
AM_0 外形線1
100
AcDbLine
 10
-143.0
 20
-1.0
 30
0.0
 11
-142.0
 21
0.0
 31
0.0
  0
LINE
  5
2A9E
330
2A89
100
AcDbEntity
  8
AM_0 外形線1
100
AcDbLine
 10
143.9999999999997
 20
-163.0
 30
0.0
 11
0.0
 21
-163.0
 31
0.0
  0
LINE
  5
2A9F
330
2A89
100
AcDbEntity
  8
AM_0 外形線1
100
AcDbLine
 10
144.9999999999997
 20
-160.0
 30
0.0
 11
0.0
 21
-160.0
 31
0.0
  0
LINE
  5
2AA0
330
2A89
100
AcDbEntity
  8
AM_0 外形線1
100
AcDbLine
 10
143.9999999999997
 20
-163.0
 30
0.0
 11
143.9999999999997
 21
-194.0
 31
0.0
  0
ARC
  5
2AA1
330
2A89
100
AcDbEntity
  8
AM_0 外形線1
100
AcDbCircle
 10
138.0
 20
-194.0
 30
0.0
 40
6.0
100
AcDbArc
 50
270.0
 51
0.0
  0
LINE
  5
2AA2
330
2A89
100
AcDbEntity
  8
AM_0 外形線1
100
AcDbLine
 10
144.9999999999997
 20
-154.0
 30
0.0
 11
144.9999999999997
 21
-160.0
 31
0.0
  0
LINE
  5
2AA3
330
2A89
100
AcDbEntity
  8
AM_0 外形線1
100
AcDbLine
 10
144.9999999999997
 20
-160.0
 30
0.0
 11
143.9999999999997
 21
-163.0
 31
0.0
  0
LINE
  5
2AA4
330
2A89
100
AcDbEntity
  8
AM_3 隠れ線
100
AcDbLine
 10
-8.75
 20
0.0
 30
0.0
 11
-8.75
 21
-52.0
 31
0.0
  0
LINE
  5
2AA5
330
2A89
100
AcDbEntity
  8
AM_3 隠れ線
100
AcDbLine
 10
-10.0
 20
0.0
 30
0.0
 11
-10.0
 21
-36.0
 31
0.0
  0
LINE
  5
2AA6
330
2A89
100
AcDbEntity
  8
AM_3 隠れ線
100
AcDbLine
 10
-8.75
 20
-52.0
 30
0.0
 11
0.0
 21
-57.05181500000002
 31
0.0
  0
LINE
  5
2AA7
330
2A89
100
AcDbEntity
  8
AM_3 隠れ線
100
AcDbLine
 10
-8.75
 20
-52.0
 30
0.0
 11
0.0
 21
-52.0
 31
0.0
  0
LINE
  5
2AA8
330
2A89
100
AcDbEntity
  8
AM_3 隠れ線
100
AcDbLine
 10
-8.75
 20
-36.72168799999997
 30
0.0
 11
0.0
 21
-36.72168799999997
 31
0.0
  0
LINE
  5
2AA9
330
2A89
100
AcDbEntity
  8
AM_3 隠れ線
100
AcDbLine
 10
-10.0
 20
-36.0
 30
0.0
 11
0.0
 21
-36.0
 31
0.0
  0
LINE
  5
2AAA
330
2A89
100
AcDbEntity
  8
AM_3 隠れ線
100
AcDbLine
 10
-10.0
 20
-36.0
 30
0.0
 11
-8.75
 21
-36.72168799999997
 31
0.0
  0
LINE
  5
2AAB
330
2A89
100
AcDbEntity
  8
AM_0 外形線1
100
AcDbLine
 10
-69.49999999999954
 20
-0.0000000000001137
 30
0.0
 11
-69.49999999999954
 21
-200.0
 31
0.0
  0
ARC
  5
5DF8
330
2A89
100
AcDbEntity
  8
AM_0 外形線1
100
AcDbCircle
 10
0.0
 20
-89.0
 30
0.0
 40
150.0000000000002
100
AcDbArc
 50
169.2416817710084
 51
190.7583182289915
  0
ARC
  5
5DF9
330
2A89
100
AcDbEntity
  8
AM_7 中心線
100
AcDbCircle
 10
0.0
 20
-89.0
 30
0.0
 40
155.0000000000002
100
AcDbArc
 50
167.6699496582586
 51
191.4464958667498
  0
ENDBLK
  5
2AAC
330
2A89
100
AcDbEntity
  8
0
100
AcDbBlockEnd
  0
BLOCK
  5
2AAE
330
2AAD
100
AcDbEntity
  8
0
100
AcDbBlockBegin
  2
センタB CMVH450
 70
     0
 10
0.0
 20
0.0
 30
0.0
  3
センタB CMVH450
  1

  0
LINE
  5
2AAF
330
2AAD
100
AcDbEntity
  8
AM_0 外形線1
100
AcDbLine
 10
-145.0
 20
160.0
 30
0.0
 11
-145.0
 21
117.5
 31
0.0
  0
LINE
  5
2AB0
330
2AAD
100
AcDbEntity
  8
AM_0 外形線1
100
AcDbLine
 10
-142.0
 20
0.0
 30
0.0
 11
0.0
 21
0.0
 31
0.0
  0
LINE
  5
2AB1
330
2AAD
100
AcDbEntity
  8
AM_0 外形線1
100
AcDbLine
 10
-143.0
 20
60.5
 30
0.0
 11
-143.0
 21
1.0
 31
0.0
  0
LINE
  5
2AB2
330
2AAD
100
AcDbEntity
  8
AM_0 外形線1
100
AcDbLine
 10
-143.0
 20
1.0
 30
0.0
 11
-142.0
 21
0.0
 31
0.0
  0
ARC
  5
2AB5
330
2AAD
100
AcDbEntity
  8
AM_0 外形線1
100
AcDbCircle
 10
0.0
 20
89.0
 30
0.0
 40
159.8
100
AcDbArc
 50
170.0906350000025
 51
189.9093649999974
  0
LINE
  5
2AB6
330
2AAD
100
AcDbEntity
  8
AM_0 外形線1
100
AcDbLine
 10
-157.415978
 20
61.5
 30
0.0
 11
-156.8278110000001
 21
61.0
 31
0.0
  0
LINE
  5
2AB7
330
2AAD
100
AcDbEntity
  8
AM_0 外形線1
100
AcDbLine
 10
-156.8278110000001
 20
61.0
 30
0.0
 11
-143.5
 21
61.0
 31
0.0
  0
ARC
  5
2AB8
330
2AAD
100
AcDbEntity
  8
AM_0 外形線1
100
AcDbCircle
 10
-143.5
 20
60.5
 30
0.0
 40
0.5
100
AcDbArc
 50
0.0
 51
90.0
  0
LINE
  5
2AB9
330
2AAD
100
AcDbEntity
  8
AM_7 中心線
100
AcDbLine
 10
-164.8000000000002
 20
89.0
 30
0.0
 11
-145.0
 21
89.0
 31
0.0
  0
LINE
  5
2ABA
330
2AAD
100
AcDbEntity
  8
AM_0 外形線1
100
AcDbLine
 10
-145.5
 20
117.0
 30
0.0
 11
-156.8278110000001
 21
117.0
 31
0.0
  0
LINE
  5
2ABB
330
2AAD
100
AcDbEntity
  8
AM_0 外形線1
100
AcDbLine
 10
-156.8278110000001
 20
117.0
 30
0.0
 11
-157.415978
 21
116.5
 31
0.0
  0
ARC
  5
2ABC
330
2AAD
100
AcDbEntity
  8
AM_0 外形線1
100
AcDbCircle
 10
-145.5
 20
117.5
 30
0.0
 40
0.5
100
AcDbArc
 50
270.0
 51
0.0
  0
LINE
  5
2ABD
330
2AAD
100
AcDbEntity
  8
AM_3 隠れ線
100
AcDbLine
 10
-8.75
 20
0.0
 30
0.0
 11
-8.75
 21
52.0
 31
0.0
  0
LINE
  5
2ABE
330
2AAD
100
AcDbEntity
  8
AM_3 隠れ線
100
AcDbLine
 10
-10.0
 20
0.0
 30
0.0
 11
-10.0
 21
36.0
 31
0.0
  0
LINE
  5
2ABF
330
2AAD
100
AcDbEntity
  8
AM_3 隠れ線
100
AcDbLine
 10
-10.0
 20
36.0
 30
0.0
 11
0.0
 21
36.0
 31
0.0
  0
LINE
  5
2AC0
330
2AAD
100
AcDbEntity
  8
AM_3 隠れ線
100
AcDbLine
 10
-8.75
 20
36.72168699999998
 30
0.0
 11
0.0
 21
36.72168699999998
 31
0.0
  0
LINE
  5
2AC1
330
2AAD
100
AcDbEntity
  8
AM_3 隠れ線
100
AcDbLine
 10
-8.75
 20
52.0
 30
0.0
 11
0.0
 21
57.05181399999992
 31
0.0
  0
LINE
  5
2AC2
330
2AAD
100
AcDbEntity
  8
AM_3 隠れ線
100
AcDbLine
 10
-8.75
 20
52.0
 30
0.0
 11
0.0
 21
52.0
 31
0.0
  0
LINE
  5
2AC3
330
2AAD
100
AcDbEntity
  8
AM_3 隠れ線
100
AcDbLine
 10
-10.0
 20
36.0
 30
0.0
 11
-8.75
 21
36.72168699999998
 31
0.0
  0
LINE
  5
2AC4
330
2AAD
100
AcDbEntity
  8
AM_0 外形線1
100
AcDbLine
 10
138.0
 20
200.0
 30
0.0
 11
-138.0
 21
200.0
 31
0.0
  0
LINE
  5
2AC5
330
2AAD
100
AcDbEntity
  8
AM_0 外形線1
100
AcDbLine
 10
-144.0
 20
194.0
 30
0.0
 11
-144.0
 21
163.0
 31
0.0
  0
LINE
  5
2AC6
330
2AAD
100
AcDbEntity
  8
AM_0 外形線1
100
AcDbLine
 10
-144.0
 20
163.0
 30
0.0
 11
-145.0
 21
160.0
 31
0.0
  0
ARC
  5
2AC7
330
2AAD
100
AcDbEntity
  8
AM_0 外形線1
100
AcDbCircle
 10
-138.0
 20
194.0
 30
0.0
 40
6.0
100
AcDbArc
 50
90.0
 51
180.0
  0
LINE
  5
2AC8
330
2AAD
100
AcDbEntity
  8
AM_0 外形線1
100
AcDbLine
 10
143.9999999999997
 20
163.0
 30
0.0
 11
0.0
 21
163.0
 31
0.0
  0
LINE
  5
2AC9
330
2AAD
100
AcDbEntity
  8
AM_0 外形線1
100
AcDbLine
 10
144.9999999999997
 20
160.0
 30
0.0
 11
0.0
 21
160.0
 31
0.0
  0
LINE
  5
2ACA
330
2AAD
100
AcDbEntity
  8
AM_0 外形線1
100
AcDbLine
 10
143.9999999999997
 20
163.0
 30
0.0
 11
143.9999999999997
 21
194.0
 31
0.0
  0
LINE
  5
2ACB
330
2AAD
100
AcDbEntity
  8
AM_0 外形線1
100
AcDbLine
 10
144.9999999999997
 20
160.0
 30
0.0
 11
144.9999999999997
 21
154.0
 31
0.0
  0
LINE
  5
2ACC
330
2AAD
100
AcDbEntity
  8
AM_0 外形線1
100
AcDbLine
 10
144.9999999999997
 20
160.0
 30
0.0
 11
143.9999999999997
 21
163.0
 31
0.0
  0
ARC
  5
2ACD
330
2AAD
100
AcDbEntity
  8
AM_0 外形線1
100
AcDbCircle
 10
138.0
 20
194.0
 30
0.0
 40
6.0
100
AcDbArc
 50
0.0
 51
90.0
  0
LINE
  5
2ACE
330
2AAD
100
AcDbEntity
  8
AM_0 外形線1
100
AcDbLine
 10
-69.49999999999954
 20
0.0000000000001137
 30
0.0
 11
-69.49999999999954
 21
200.0
 31
0.0
  0
ARC
  5
5F17
330
2AAD
100
AcDbEntity
  8
AM_0 外形線1
100
AcDbCircle
 10
0.0
 20
89.0
 30
0.0
 40
150.0000000000002
100
AcDbArc
 50
169.2416817710149
 51
190.7583182289851
  0
ARC
  5
5F18
330
2AAD
100
AcDbEntity
  8
AM_7 中心線
100
AcDbCircle
 10
0.0
 20
89.0
 30
0.0
 40
155.0000000000002
100
AcDbArc
 50
168.5535041332501
 51
192.3300503417349
  0
ENDBLK
  5
2ACF
330
2AAD
100
AcDbEntity
  8
0
100
AcDbBlockEnd
  0
BLOCK
  5
2AD3
330
2AD0
100
AcDbEntity
  8
0
100
AcDbBlockBegin
  2
ＧＣサイドカバ－A CMVH450
 70
     0
 10
0.0
 20
0.0
 30
0.0
  3
ＧＣサイドカバ－A CMVH450
  1

  0
LINE
  5
2AD4
330
2AD0
100
AcDbEntity
  8
AM_0 外形線1
100
AcDbLine
 10
-186.0
 20
-31.0
 30
0.0
 11
-146.5
 21
-31.0
 31
0.0
  0
LINE
  5
2AD5
330
2AD0
100
AcDbEntity
  8
AM_7 中心線
100
AcDbLine
 10
-175.0
 20
30.5013469999999
 30
0.0
 11
-175.0
 21
-44.81931700000006
 31
0.0
  0
LINE
  5
2AD6
330
2AD0
100
AcDbEntity
  8
AM_0 外形線1
100
AcDbLine
 10
-186.0
 20
0.0
 30
0.0
 11
-186.0
 21
-31.0
 31
0.0
  0
LINE
  5
2AD7
330
2AD0
100
AcDbEntity
  8
AM_0 外形線1
100
AcDbLine
 10
-152.0500000000002
 20
-26.60000000000002
 30
0.0
 11
-152.0500000000002
 21
-15.40000000000009
 31
0.0
  0
LINE
  5
2AD8
330
2AD0
100
AcDbEntity
  8
AM_0 外形線1
100
AcDbLine
 10
-146.5
 20
-26.60000000000002
 30
0.0
 11
-152.0500000000002
 21
-26.60000000000002
 31
0.0
  0
LINE
  5
2AD9
330
2AD0
100
AcDbEntity
  8
AM_0 外形線1
100
AcDbLine
 10
-146.5
 20
-31.0
 30
0.0
 11
-146.5
 21
-26.60000000000002
 31
0.0
  0
LINE
  5
2ADA
330
2AD0
100
AcDbEntity
  8
AM_0 外形線1
100
AcDbLine
 10
-146.5
 20
-26.60000000000002
 30
0.0
 11
-145.0
 21
-26.60000000000002
 31
0.0
  0
LINE
  5
2ADB
330
2AD0
100
AcDbEntity
  8
AM_0 外形線1
100
AcDbLine
 10
-146.5
 20
-31.0
 30
0.0
 11
-145.0
 21
-31.0
 31
0.0
  0
LINE
  5
2ADC
330
2AD0
100
AcDbEntity
  8
AM_0 外形線1
100
AcDbLine
 10
-155.0
 20
-11.0
 30
0.0
 11
-146.5
 21
-11.0
 31
0.0
  0
LINE
  5
2ADD
330
2AD0
100
AcDbEntity
  8
AM_0 外形線1
100
AcDbLine
 10
-152.0500000000002
 20
-15.40000000000009
 30
0.0
 11
-146.5
 21
-15.40000000000009
 31
0.0
  0
LINE
  5
2ADE
330
2AD0
100
AcDbEntity
  8
AM_0 外形線1
100
AcDbLine
 10
-155.0
 20
-11.0
 30
0.0
 11
-155.0
 21
2.0
 31
0.0
  0
LINE
  5
2ADF
330
2AD0
100
AcDbEntity
  8
AM_0 外形線1
100
AcDbLine
 10
-150.39599
 20
2.0
 30
0.0
 11
-161.5
 21
2.0
 31
0.0
  0
LINE
  5
2AE0
330
2AD0
100
AcDbEntity
  8
AM_0 外形線1
100
AcDbLine
 10
-166.8000000000002
 20
-3.100000000000021
 30
0.0
 11
-166.8000000000002
 21
0.0
 31
0.0
  0
LINE
  5
2AE1
330
2AD0
100
AcDbEntity
  8
AM_0 外形線1
100
AcDbLine
 10
-161.5
 20
-3.100000000000021
 30
0.0
 11
-166.8000000000002
 21
-3.100000000000021
 31
0.0
  0
LINE
  5
2AE2
330
2AD0
100
AcDbEntity
  8
AM_0 外形線1
100
AcDbLine
 10
-161.5
 20
1.899014134015486
 30
0.0
 11
-161.5
 21
-3.100000000000021
 31
0.0
  0
LINE
  5
2AE3
330
2AD0
100
AcDbEntity
  8
AM_0 外形線1
100
AcDbLine
 10
-146.5
 20
-15.40000000000009
 30
0.0
 11
-146.5
 21
-11.0
 31
0.0
  0
LINE
  5
2AE4
330
2AD0
100
AcDbEntity
  8
AM_0 外形線1
100
AcDbLine
 10
-146.5
 20
-11.0
 30
0.0
 11
-145.0
 21
-11.0
 31
0.0
  0
LINE
  5
2AE5
330
2AD0
100
AcDbEntity
  8
AM_0 外形線1
100
AcDbLine
 10
-146.5
 20
-15.40000000000009
 30
0.0
 11
-145.0
 21
-15.40000000000009
 31
0.0
  0
LINE
  5
2AE6
330
2AD0
100
AcDbEntity
  8
AM_0 外形線1
100
AcDbLine
 10
185.9999999999997
 20
-31.0
 30
0.0
 11
0.0
 21
-31.0
 31
0.0
  0
LINE
  5
2AE7
330
2AD0
100
AcDbEntity
  8
AM_7 中心線
100
AcDbLine
 10
174.9999999999998
 20
30.5013469999999
 30
0.0
 11
174.9999999999998
 21
-44.81931700000006
 31
0.0
  0
ELLIPSE
  5
2AE8
330
2AD0
100
AcDbEntity
  8
AM_0 外形線1
100
AcDbEllipse
 10
-164.1500000000001
 20
-1.549999999999954
 30
0.0
 11
2.650000000000089
 21
0.0
 31
0.0
210
0.0
220
0.0
230
1.0
 40
0.5849056603773643
 41
0.0
 42
6.283185307179585
  0
ELLIPSE
  5
2AE9
330
2AD0
100
AcDbEntity
  8
AM_0 外形線1
100
AcDbEllipse
 10
-148.5250000000001
 20
-21.0
 30
0.0
 11
0.0
 21
-5.599999999999909
 31
0.0
210
0.0
220
0.0
230
1.0
 40
0.6294642857143123
 41
0.0
 42
6.283185307179585
  0
LINE
  5
2AEA
330
2AD0
100
AcDbEntity
  8
AM_0 外形線1
100
AcDbLine
 10
185.9999999999997
 20
0.0
 30
0.0
 11
185.9999999999997
 21
-31.0
 31
0.0
  0
INSERT
  5
2AEB
330
2AD0
100
AcDbEntity
  8
AM_0 外形線1
100
AcDbBlockReference
  2
ロッカクアナツキプラグ-1 R1／8
 10
48.14034199999968
 20
-8.500000500000169
 30
0.0
  0
LINE
  5
2AEC
330
2AD0
100
AcDbEntity
  8
AM_0 外形線1
100
AcDbLine
 10
185.9999999999997
 20
0.0
 30
0.0
 11
0.0
 21
0.0
 31
0.0
  0
LINE
  5
2AED
330
2AD0
100
AcDbEntity
  8
AM_0 外形線1
100
AcDbLine
 10
-186.0
 20
0.0
 30
0.0
 11
-166.8000000000002
 21
0.0
 31
0.0
  0
ENDBLK
  5
2AEE
330
2AD0
100
AcDbEntity
  8
0
100
AcDbBlockEnd
  0
BLOCK
  5
2AF2
330
2AEF
100
AcDbEntity
  8
0
100
AcDbBlockBegin
  2
ロッカクアナツキプラグ-1 R1／8
 70
     0
 10
0.0
 20
0.0
 30
0.0
  3
ロッカクアナツキプラグ-1 R1／8
  1

  0
LINE
  5
2AF3
330
2AEF
100
AcDbEntity
  8
AM_7 中心線
100
AcDbLine
 10
0.0
 20
-10.36398700000006
 30
0.0
 11
0.0
 21
10.36398599999984
 31
0.0
  0
LINE
  5
2AF4
330
2AEF
100
AcDbEntity
  8
AM_7 中心線
100
AcDbLine
 10
10.17989500000021
 20
0.0
 30
0.0
 11
-10.21279400000003
 21
0.0
 31
0.0
  0
LINE
  5
2AF5
330
2AEF
100
AcDbEntity
  8
AM_0 外形線1
100
AcDbLine
 10
-2.5
 20
-1.44337600000017
 30
0.0
 11
0.0
 21
-2.886752000000115
 31
0.0
  0
LINE
  5
2AF6
330
2AEF
100
AcDbEntity
  8
AM_0 外形線1
100
AcDbLine
 10
2.5
 20
1.443374999999831
 30
0.0
 11
0.0
 21
2.886751000000002
 31
0.0
  0
LINE
  5
2AF7
330
2AEF
100
AcDbEntity
  8
AM_0 外形線1
100
AcDbLine
 10
0.0
 20
2.886751000000002
 30
0.0
 11
-2.5
 21
1.443374999999831
 31
0.0
  0
LINE
  5
2AF8
330
2AEF
100
AcDbEntity
  8
AM_0 外形線1
100
AcDbLine
 10
0.0
 20
-2.886752000000115
 30
0.0
 11
2.5
 21
-1.44337600000017
 31
0.0
  0
LINE
  5
2AF9
330
2AEF
100
AcDbEntity
  8
AM_0 外形線1
100
AcDbLine
 10
-2.5
 20
1.443374999999831
 30
0.0
 11
-2.5
 21
-1.44337600000017
 31
0.0
  0
LINE
  5
2AFA
330
2AEF
100
AcDbEntity
  8
AM_0 外形線1
100
AcDbLine
 10
2.5
 20
1.443374999999831
 30
0.0
 11
2.5
 21
-1.44337600000017
 31
0.0
  0
CIRCLE
  5
2AFB
330
2AEF
100
AcDbEntity
  8
AM_4 細線
100
AcDbCircle
 10
0.0
 20
0.0
 30
0.0
 40
4.86397
  0
CIRCLE
  5
2AFC
330
2AEF
100
AcDbEntity
  8
AM_0 外形線1
100
AcDbCircle
 10
0.0
 20
0.0
 30
0.0
 40
4.28298
  0
ENDBLK
  5
2AFD
330
2AEF
100
AcDbEntity
  8
0
100
AcDbBlockEnd
  0
BLOCK
  5
2AFF
330
2AFE
100
AcDbEntity
  8
0
100
AcDbBlockBegin
  2
ロッカクアナツキプラグ-2 R1／8
 70
     0
 10
0.0
 20
0.0
 30
0.0
  3
ロッカクアナツキプラグ-2 R1／8
  1

  0
LINE
  5
2B00
330
2AFE
100
AcDbEntity
  8
AM_7 中心線
100
AcDbLine
 10
0.0
 20
-10.36398700000006
 30
0.0
 11
0.0
 21
10.36398599999984
 31
0.0
  0
LINE
  5
2B01
330
2AFE
100
AcDbEntity
  8
AM_7 中心線
100
AcDbLine
 10
10.17989500000021
 20
0.0
 30
0.0
 11
-10.21279400000003
 21
0.0
 31
0.0
  0
LINE
  5
2B02
330
2AFE
100
AcDbEntity
  8
AM_0 外形線1
100
AcDbLine
 10
-2.5
 20
-1.44337600000017
 30
0.0
 11
0.0
 21
-2.886752000000115
 31
0.0
  0
LINE
  5
2B03
330
2AFE
100
AcDbEntity
  8
AM_0 外形線1
100
AcDbLine
 10
2.5
 20
1.443374999999831
 30
0.0
 11
0.0
 21
2.886751000000002
 31
0.0
  0
LINE
  5
2B04
330
2AFE
100
AcDbEntity
  8
AM_0 外形線1
100
AcDbLine
 10
0.0
 20
2.886751000000002
 30
0.0
 11
-2.5
 21
1.443374999999831
 31
0.0
  0
LINE
  5
2B05
330
2AFE
100
AcDbEntity
  8
AM_0 外形線1
100
AcDbLine
 10
0.0
 20
-2.886752000000115
 30
0.0
 11
2.5
 21
-1.44337600000017
 31
0.0
  0
LINE
  5
2B06
330
2AFE
100
AcDbEntity
  8
AM_0 外形線1
100
AcDbLine
 10
-2.5
 20
1.443374999999831
 30
0.0
 11
-2.5
 21
-1.44337600000017
 31
0.0
  0
LINE
  5
2B07
330
2AFE
100
AcDbEntity
  8
AM_0 外形線1
100
AcDbLine
 10
2.5
 20
1.443374999999831
 30
0.0
 11
2.5
 21
-1.44337600000017
 31
0.0
  0
CIRCLE
  5
2B08
330
2AFE
100
AcDbEntity
  8
AM_4 細線
100
AcDbCircle
 10
0.0
 20
0.0
 30
0.0
 40
4.86397
  0
CIRCLE
  5
2B09
330
2AFE
100
AcDbEntity
  8
AM_0 外形線1
100
AcDbCircle
 10
0.0
 20
0.0
 30
0.0
 40
4.28298
  0
ENDBLK
  5
2B0A
330
2AFE
100
AcDbEntity
  8
0
100
AcDbBlockEnd
  0
BLOCK
  5
2B0E
330
2B0B
100
AcDbEntity
  8
0
100
AcDbBlockBegin
  2
ＧＣサイドカバ－B CMVH450
 70
     0
 10
0.0
 20
0.0
 30
0.0
  3
ＧＣサイドカバ－B CMVH450
  1

  0
LINE
  5
2B0F
330
2B0B
100
AcDbEntity
  8
AM_7 中心線
100
AcDbLine
 10
174.9999999999998
 20
-30.50134800000012
 30
0.0
 11
174.9999999999998
 21
44.81931600000006
 31
0.0
  0
LINE
  5
2B10
330
2B0B
100
AcDbEntity
  8
AM_7 中心線
100
AcDbLine
 10
-175.0
 20
-30.50134800000012
 30
0.0
 11
-175.0
 21
44.81931600000006
 31
0.0
  0
LINE
  5
2B11
330
2B0B
100
AcDbEntity
  8
AM_4 細線
100
AcDbLine
 10
-179.25
 20
-16.5
 30
0.0
 11
-179.25
 21
29.49999999999988
 31
0.0
  0
LINE
  5
2B12
330
2B0B
100
AcDbEntity
  8
AM_4 細線
100
AcDbLine
 10
-170.75
 20
-16.5
 30
0.0
 11
-170.75
 21
29.49999999999988
 31
0.0
  0
LINE
  5
2B13
330
2B0B
100
AcDbEntity
  8
AM_0 外形線1
100
AcDbLine
 10
-169.5
 20
31.0
 30
0.0
 11
-169.5
 21
0.0
 31
0.0
  0
LINE
  5
2B14
330
2B0B
100
AcDbEntity
  8
AM_0 外形線1
100
AcDbLine
 10
-180.5
 20
31.0
 30
0.0
 11
-180.5
 21
0.0
 31
0.0
  0
LINE
  5
2B15
330
2B0B
100
AcDbEntity
  8
AM_0 外形線1
100
AcDbLine
 10
-180.0
 20
-15.75
 30
0.0
 11
-180.0
 21
31.0
 31
0.0
  0
LINE
  5
2B16
330
2B0B
100
AcDbEntity
  8
AM_0 外形線1
100
AcDbLine
 10
-170.0
 20
-15.75
 30
0.0
 11
-170.0
 21
31.0
 31
0.0
  0
LINE
  5
2B17
330
2B0B
100
AcDbEntity
  8
AM_0 外形線1
100
AcDbLine
 10
-146.5
 20
31.0
 30
0.0
 11
-146.5
 21
26.59999999999991
 31
0.0
  0
LINE
  5
2B18
330
2B0B
100
AcDbEntity
  8
AM_0 外形線1
100
AcDbLine
 10
-186.0
 20
0.0
 30
0.0
 11
-186.0
 21
31.0
 31
0.0
  0
LINE
  5
2B19
330
2B0B
100
AcDbEntity
  8
AM_4 細線
100
AcDbLine
 10
-170.75
 20
-26.0
 30
0.0
 11
-170.0
 21
-22.0
 31
0.0
  0
LINE
  5
2B1A
330
2B0B
100
AcDbEntity
  8
AM_4 細線
100
AcDbLine
 10
-180.0
 20
-22.0
 30
0.0
 11
-170.0
 21
-22.0
 31
0.0
  0
LINE
  5
2B1B
330
2B0B
100
AcDbEntity
  8
AM_4 細線
100
AcDbLine
 10
-180.0
 20
-22.0
 30
0.0
 11
-179.25
 21
-26.0
 31
0.0
  0
LINE
  5
2B1C
330
2B0B
100
AcDbEntity
  8
AM_4 細線
100
AcDbLine
 10
-180.0
 20
-15.75
 30
0.0
 11
-180.0
 21
-22.0
 31
0.0
  0
LINE
  5
2B1D
330
2B0B
100
AcDbEntity
  8
AM_0 外形線1
100
AcDbLine
 10
-179.25
 20
-26.0
 30
0.0
 11
-170.75
 21
-26.0
 31
0.0
  0
LINE
  5
2B1E
330
2B0B
100
AcDbEntity
  8
AM_0 外形線1
100
AcDbLine
 10
-170.75
 20
-26.0
 30
0.0
 11
-170.75
 21
-16.5
 31
0.0
  0
LINE
  5
2B1F
330
2B0B
100
AcDbEntity
  8
AM_0 外形線1
100
AcDbLine
 10
-175.0
 20
-28.45373900000004
 30
0.0
 11
-170.75
 21
-26.0
 31
0.0
  0
LINE
  5
2B20
330
2B0B
100
AcDbEntity
  8
AM_0 外形線1
100
AcDbLine
 10
-179.25
 20
-26.0
 30
0.0
 11
-175.0
 21
-28.45373900000004
 31
0.0
  0
LINE
  5
2B21
330
2B0B
100
AcDbEntity
  8
AM_0 外形線1
100
AcDbLine
 10
-179.25
 20
-16.5
 30
0.0
 11
-179.25
 21
-26.0
 31
0.0
  0
LINE
  5
2B22
330
2B0B
100
AcDbEntity
  8
AM_0 外形線1
100
AcDbLine
 10
-170.75
 20
-16.5
 30
0.0
 11
-179.25
 21
-16.50000000000011
 31
0.0
  0
LINE
  5
2B23
330
2B0B
100
AcDbEntity
  8
AM_0 外形線1
100
AcDbLine
 10
-155.0
 20
11.0
 30
0.0
 11
-155.0
 21
-2.0
 31
0.0
  0
LINE
  5
2B24
330
2B0B
100
AcDbEntity
  8
AM_0 外形線1
100
AcDbLine
 10
-161.5
 20
-2.0
 30
0.0
 11
-149.2824479999999
 21
-2.0
 31
0.0
  0
LINE
  5
2B25
330
2B0B
100
AcDbEntity
  8
AM_4 細線
100
AcDbLine
 10
-170.0
 20
-15.75
 30
0.0
 11
-170.0
 21
-22.0
 31
0.0
  0
LINE
  5
2B26
330
2B0B
100
AcDbEntity
  8
AM_0 外形線1
100
AcDbLine
 10
-146.5
 20
11.0
 30
0.0
 11
-155.0
 21
11.0
 31
0.0
  0
LWPOLYLINE
  5
2B27
330
2B0B
100
AcDbEntity
  8
AM_0 外形線1
100
AcDbPolyline
 90
       73
 70
     0
 43
0.0
 10
-148.5250000000001
 20
15.40000000000009
 10
-148.2177760000004
 20
15.42130899999984
 10
-147.9128909999999
 20
15.48507599999993
 10
-147.6126629999999
 20
15.59081500000002
 10
-147.3193790000005
 20
15.73772099999996
 10
-147.0352710000002
 20
15.92467600000009
 10
-146.7624999999998
 20
16.15025699999978
 10
-146.5031429999999
 20
16.41274799999996
 10
-146.2591740000002
 20
16.71015099999999
 10
-146.0324490000003
 20
17.04020199999991
 10
-145.8246939999999
 20
17.4003889999999
 10
-145.6374890000002
 20
17.78797099999997
 10
-145.4722609999999
 20
18.19999999999982
 10
-145.330265
 20
18.63333699999998
 10
-145.2125839999999
 20
19.08468700000003
 10
-145.1201120000005
 20
19.55061299999988
 10
-145.0535529999997
 20
20.02756999999997
 10
-145.013414
 20
20.51192700000001
 10
-145.0
 20
21.0
 10
-145.013414
 20
21.4880720000001
 10
-145.0535529999997
 20
21.97242899999992
 10
-145.1201120000005
 20
22.44938599999978
 10
-145.2125839999999
 20
22.91531200000008
 10
-145.330265
 20
23.3666619999999
 10
-145.4722609999999
 20
23.79999999999995
 10
-145.6374890000002
 20
24.21202799999992
 10
-145.8246939999999
 20
24.59960999999998
 10
-146.0324490000003
 20
24.95979699999998
 10
-146.2591740000002
 20
25.28984799999989
 10
-146.5031429999999
 20
25.58725099999993
 10
-146.7624999999998
 20
25.84974199999988
 10
-147.0352710000002
 20
26.07532300000003
 10
-147.3193790000005
 20
26.26227800000015
 10
-147.6126629999999
 20
26.4091840000001
 10
-147.9128909999999
 20
26.51492299999996
 10
-148.2177760000004
 20
26.57868999999982
 10
-148.5250000000001
 20
26.59999999999991
 10
-148.8322240000002
 20
26.57868999999982
 10
-149.1371100000001
 20
26.51492299999996
 10
-149.4373370000003
 20
26.4091840000001
 10
-149.7306210000001
 20
26.26227800000015
 10
-150.0147299999999
 20
26.07532300000003
 10
-150.2875000000003
 20
25.84974199999988
 10
-150.5468570000003
 20
25.58725099999993
 10
-150.7908269999998
 20
25.28984799999989
 10
-151.0175520000002
 20
24.95979699999998
 10
-151.2253070000001
 20
24.59960999999998
 10
-151.412511
 20
24.21202799999992
 10
-151.5777400000001
 20
23.79999999999995
 10
-151.7197350000001
 20
23.3666619999999
 10
-151.8374170000002
 20
22.91531200000008
 10
-151.929889
 20
22.44938599999978
 10
-151.9964479999998
 20
21.97242899999992
 10
-152.0365870000005
 20
21.4880720000001
 10
-152.0500000000002
 20
21.0
 10
-152.0365870000005
 20
20.51192700000001
 10
-151.9964479999998
 20
20.02756999999997
 10
-151.929889
 20
19.55061299999988
 10
-151.8374170000002
 20
19.08468700000003
 10
-151.7197350000001
 20
18.63333699999998
 10
-151.5777400000001
 20
18.19999999999982
 10
-151.412511
 20
17.78797099999997
 10
-151.2253070000001
 20
17.4003889999999
 10
-151.0175520000002
 20
17.04020199999991
 10
-150.7908269999998
 20
16.71015099999999
 10
-150.5468570000003
 20
16.41274799999996
 10
-150.2875000000003
 20
16.15025699999978
 10
-150.0147299999999
 20
15.92467600000009
 10
-149.7306210000001
 20
15.73772099999996
 10
-149.4373370000003
 20
15.59081500000002
 10
-149.1371100000001
 20
15.48507599999993
 10
-148.8322240000002
 20
15.42130899999984
 10
-148.5250000000001
 20
15.40000000000009
  0
LINE
  5
2B28
330
2B0B
100
AcDbEntity
  8
AM_0 外形線1
100
AcDbLine
 10
-152.0500000000002
 20
15.40000000000009
 30
0.0
 11
-146.5
 21
15.40000000000009
 31
0.0
  0
LINE
  5
2B29
330
2B0B
100
AcDbEntity
  8
AM_0 外形線1
100
AcDbLine
 10
-146.5
 20
26.59999999999991
 30
0.0
 11
-152.0500000000002
 21
26.59999999999991
 31
0.0
  0
LINE
  5
2B2A
330
2B0B
100
AcDbEntity
  8
AM_0 外形線1
100
AcDbLine
 10
-152.0500000000002
 20
26.59999999999991
 30
0.0
 11
-152.0500000000002
 21
15.40000000000009
 31
0.0
  0
LWPOLYLINE
  5
2B2B
330
2B0B
100
AcDbEntity
  8
AM_0 外形線1
100
AcDbPolyline
 90
       73
 70
     0
 43
0.0
 10
-161.5
 20
1.549999999999954
 10
-161.510084
 20
1.685090999999943
 10
-161.5402599999997
 20
1.819154000000025
 10
-161.5902970000002
 20
1.951168999999936
 10
-161.6598149999999
 20
2.080130999999936
 10
-161.7482850000001
 20
2.205058000000008
 10
-161.8550329999998
 20
2.324999999999931
 10
-161.9792470000002
 20
2.439042999999969
 10
-162.119983
 20
2.546320000000036
 10
-162.276167
 20
2.646014999999919
 10
-162.446613
 20
2.737367999999945
 10
-162.6300230000001
 20
2.819684999999934
 10
-162.8249999999998
 20
2.892338999999991
 10
-163.0300620000002
 20
2.954776999999921
 10
-163.2436470000001
 20
3.006523000000014
 10
-163.4641300000003
 20
3.047184999999898
 10
-163.6898330000003
 20
3.07645199999979
 10
-163.919038
 20
3.094100999999908
 10
-164.1500000000001
 20
3.099999999999908
 10
-164.3809630000005
 20
3.094100999999908
 10
-164.6101680000001
 20
3.07645199999979
 10
-164.8358710000002
 20
3.047184999999898
 10
-165.0563540000003
 20
3.006523000000014
 10
-165.2699390000002
 20
2.954776999999921
 10
-165.4750000000003
 20
2.892338999999991
 10
-165.6699779999999
 20
2.819684999999934
 10
-165.8533870000001
 20
2.737367999999945
 10
-166.0238330000002
 20
2.646014999999919
 10
-166.180018
 20
2.546320000000036
 10
-166.320753
 20
2.439042999999969
 10
-166.4449679999998
 20
2.324999999999931
 10
-166.5517159999999
 20
2.205058000000008
 10
-166.6401860000001
 20
2.080130999999936
 10
-166.7097040000003
 20
1.951168999999936
 10
-166.7597409999998
 20
1.819154000000025
 10
-166.7899160000001
 20
1.685090999999943
 10
-166.8000000000002
 20
1.549999999999954
 10
-166.7899160000001
 20
1.414907999999968
 10
-166.7597409999998
 20
1.280844999999998
 10
-166.7097040000003
 20
1.148829999999975
 10
-166.6401860000001
 20
1.019867999999974
 10
-166.5517159999999
 20
0.894941000000017
 10
-166.4449679999998
 20
0.7749999999999773
 10
-166.320753
 20
0.6609559999999421
 10
-166.180018
 20
0.5536789999999883
 10
-166.0238330000002
 20
0.4539839999999913
 10
-165.8533870000001
 20
0.3626309999999648
 10
-165.6699779999999
 20
0.2803139999999757
 10
-165.4750000000003
 20
0.2076599999999189
 10
-165.2699390000002
 20
0.1452219999999897
 10
-165.0563540000003
 20
0.093475999999896
 10
-164.8358710000002
 20
0.0528139999998985
 10
-164.6101680000001
 20
0.0235469999998941
 10
-164.3809630000005
 20
0.0058979999998883
 10
-164.1500000000001
 20
0.0
 10
-163.919038
 20
0.0058979999998883
 10
-163.6898330000003
 20
0.0235469999998941
 10
-163.4641300000003
 20
0.0528139999998985
 10
-163.2436470000001
 20
0.093475999999896
 10
-163.0300620000002
 20
0.1452219999999897
 10
-162.8249999999998
 20
0.2076599999999189
 10
-162.6300230000001
 20
0.2803139999999757
 10
-162.446613
 20
0.3626309999999648
 10
-162.276167
 20
0.4539839999999913
 10
-162.119983
 20
0.5536789999999883
 10
-161.9792470000002
 20
0.6609559999999421
 10
-161.8550329999998
 20
0.7749999999999773
 10
-161.7482850000001
 20
0.894941000000017
 10
-161.6598149999999
 20
1.019867999999974
 10
-161.5902970000002
 20
1.148829999999975
 10
-161.5402599999997
 20
1.280844999999998
 10
-161.510084
 20
1.414907999999968
 10
-161.5
 20
1.549999999999954
  0
LINE
  5
2B2C
330
2B0B
100
AcDbEntity
  8
AM_0 外形線1
100
AcDbLine
 10
-161.5
 20
3.099999999999908
 30
0.0
 11
-166.8000000000002
 21
3.099999999999908
 31
0.0
  0
LINE
  5
2B2D
330
2B0B
100
AcDbEntity
  8
AM_0 外形線1
100
AcDbLine
 10
-161.5
 20
-2.0
 30
0.0
 11
-161.5
 21
3.099999999999908
 31
0.0
  0
LINE
  5
2B2E
330
2B0B
100
AcDbEntity
  8
AM_0 外形線1
100
AcDbLine
 10
-166.8000000000002
 20
3.099999999999908
 30
0.0
 11
-166.8000000000002
 21
0.0
 31
0.0
  0
LINE
  5
2B2F
330
2B0B
100
AcDbEntity
  8
AM_0 外形線1
100
AcDbLine
 10
-146.5
 20
15.40000000000009
 30
0.0
 11
-146.5
 21
11.0
 31
0.0
  0
LINE
  5
2B30
330
2B0B
100
AcDbEntity
  8
AM_0 外形線1
100
AcDbLine
 10
-146.5
 20
26.59999999999991
 30
0.0
 11
-145.0
 21
26.59999999999991
 31
0.0
  0
LINE
  5
2B31
330
2B0B
100
AcDbEntity
  8
AM_0 外形線1
100
AcDbLine
 10
-146.5
 20
31.0
 30
0.0
 11
-186.0
 21
31.0
 31
0.0
  0
LINE
  5
2B32
330
2B0B
100
AcDbEntity
  8
AM_0 外形線1
100
AcDbLine
 10
-146.5
 20
31.0
 30
0.0
 11
-145.0
 21
31.0
 31
0.0
  0
LINE
  5
2B33
330
2B0B
100
AcDbEntity
  8
AM_0 外形線1
100
AcDbLine
 10
185.9999999999997
 20
31.0
 30
0.0
 11
0.0
 21
31.0
 31
0.0
  0
LINE
  5
2B34
330
2B0B
100
AcDbEntity
  8
AM_0 外形線1
100
AcDbLine
 10
-170.0925229999998
 20
39.74081100000012
 30
0.0
 11
-170.0925229999998
 21
33.5
 31
0.0
  0
LINE
  5
2B35
330
2B0B
100
AcDbEntity
  8
AM_0 外形線1
100
AcDbLine
 10
-179.9074770000002
 20
39.74081100000012
 30
0.0
 11
-179.9074770000002
 21
33.5
 31
0.0
  0
LINE
  5
2B36
330
2B0B
100
AcDbEntity
  8
AM_0 外形線1
100
AcDbLine
 10
-165.1850449999997
 20
33.5
 30
0.0
 11
-165.1850449999997
 21
39.74081100000012
 31
0.0
  0
LINE
  5
2B37
330
2B0B
100
AcDbEntity
  8
AM_0 外形線1
100
AcDbLine
 10
-184.8149539999999
 20
39.74081100000012
 30
0.0
 11
-184.8149539999999
 21
33.5
 31
0.0
  0
ARC
  5
2B38
330
2B0B
100
AcDbEntity
  8
AM_0 外形線1
100
AcDbCircle
 10
-175.0
 20
24.25919000000011
 30
0.0
 40
16.24081099999999
100
AcDbArc
 50
72.41204599999398
 51
107.587954000006
  0
LINE
  5
2B39
330
2B0B
100
AcDbEntity
  8
AM_0 外形線1
100
AcDbLine
 10
-166.5
 20
40.49999999999999
 30
0.0
 11
-183.5
 21
40.49999999999999
 31
0.0
  0
ARC
  5
2B3A
330
2B0B
100
AcDbEntity
  8
AM_0 外形線1
100
AcDbCircle
 10
-182.3612159999998
 20
36.15510200000006
 30
0.0
 40
4.344898999999998
100
AcDbArc
 50
55.61575299999442
 51
124.3842470000055
  0
LINE
  5
2B3B
330
2B0B
100
AcDbEntity
  8
AM_0 外形線1
100
AcDbLine
 10
-184.8149539999999
 20
39.74081100000012
 30
0.0
 11
-183.5
 21
40.49999999999999
 31
0.0
  0
ARC
  5
2B3C
330
2B0B
100
AcDbEntity
  8
AM_0 外形線1
100
AcDbCircle
 10
-167.6387840000002
 20
36.15510200000006
 30
0.0
 40
4.344898999999998
100
AcDbArc
 50
55.61575299999442
 51
124.3842470000055
  0
LINE
  5
2B3D
330
2B0B
100
AcDbEntity
  8
AM_0 外形線1
100
AcDbLine
 10
-165.1850449999997
 20
39.74081100000012
 30
0.0
 11
-166.5
 21
40.49999999999999
 31
0.0
  0
LINE
  5
2B3E
330
2B0B
100
AcDbEntity
  8
AM_4 細線
100
AcDbLine
 10
-170.0
 20
29.49999999999977
 30
0.0
 11
-180.0
 21
29.49999999999977
 31
0.0
  0
LINE
  5
2B3F
330
2B0B
100
AcDbEntity
  8
AM_0 外形線1
100
AcDbLine
 10
-184.8149539999999
 20
33.5
 30
0.0
 11
-165.1850449999997
 21
33.5
 31
0.0
  0
LINE
  5
2B40
330
2B0B
100
AcDbEntity
  8
AM_4 細線
100
AcDbLine
 10
-179.25
 20
29.49999999999977
 30
0.0
 11
-180.0
 21
30.79903899999977
 31
0.0
  0
LINE
  5
2B41
330
2B0B
100
AcDbEntity
  8
AM_4 細線
100
AcDbLine
 10
-170.0
 20
30.79903899999977
 30
0.0
 11
-170.75
 21
29.49999999999977
 31
0.0
  0
LINE
  5
2B42
330
2B0B
100
AcDbEntity
  8
AM_0 外形線1
100
AcDbLine
 10
-180.0
 20
-15.75
 30
0.0
 11
-170.0
 21
-15.75
 31
0.0
  0
LINE
  5
2B43
330
2B0B
100
AcDbEntity
  8
AM_0 外形線1
100
AcDbLine
 10
-180.0
 20
-15.75
 30
0.0
 11
-179.25
 21
-16.5
 31
0.0
  0
LINE
  5
2B44
330
2B0B
100
AcDbEntity
  8
AM_0 外形線1
100
AcDbLine
 10
-170.75
 20
-16.5
 30
0.0
 11
-170.0
 21
-15.75
 31
0.0
  0
LINE
  5
2B45
330
2B0B
100
AcDbEntity
  8
AM_0 外形線1
100
AcDbLine
 10
-184.1999999999998
 20
33.5
 30
0.0
 11
-184.1999999999998
 21
31.0
 31
0.0
  0
LINE
  5
2B46
330
2B0B
100
AcDbEntity
  8
AM_0 外形線1
100
AcDbLine
 10
-173.5566240000003
 20
31.0
 30
0.0
 11
-175.0
 21
33.5
 31
0.0
  0
LINE
  5
2B47
330
2B0B
100
AcDbEntity
  8
AM_0 外形線1
100
AcDbLine
 10
-176.4433760000001
 20
33.5
 30
0.0
 11
-175.0
 21
31.0
 31
0.0
  0
LINE
  5
2B48
330
2B0B
100
AcDbEntity
  8
AM_0 外形線1
100
AcDbLine
 10
-165.8000000000002
 20
31.0
 30
0.0
 11
-165.8000000000002
 21
33.5
 31
0.0
  0
LINE
  5
2B49
330
2B0B
100
AcDbEntity
  8
AM_0 外形線1
100
AcDbLine
 10
183.4999999999998
 20
40.50000000000022
 30
0.0
 11
166.4999999999998
 21
40.50000000000022
 31
0.0
  0
ARC
  5
2B4A
330
2B0B
100
AcDbEntity
  8
AM_0 外形線1
100
AcDbCircle
 10
174.9999999999998
 20
24.25919000000033
 30
0.0
 40
16.24081099999999
100
AcDbArc
 50
72.41204599999398
 51
107.587954000006
  0
LINE
  5
2B4B
330
2B0B
100
AcDbEntity
  8
AM_0 外形線1
100
AcDbLine
 10
165.1850459999998
 20
33.50000000000023
 30
0.0
 11
184.8149549999998
 21
33.50000000000023
 31
0.0
  0
LINE
  5
2B4C
330
2B0B
100
AcDbEntity
  8
AM_0 外形線1
100
AcDbLine
 10
165.1850459999998
 20
39.74081100000036
 30
0.0
 11
166.4999999999998
 21
40.50000000000022
 31
0.0
  0
ARC
  5
2B4D
330
2B0B
100
AcDbEntity
  8
AM_0 外形線1
100
AcDbCircle
 10
167.6387839999997
 20
36.15510200000028
 30
0.0
 40
4.344898999999998
100
AcDbArc
 50
55.61575299999442
 51
124.3842470000055
  0
LINE
  5
2B4E
330
2B0B
100
AcDbEntity
  8
AM_0 外形線1
100
AcDbLine
 10
165.7999999999997
 20
33.50000000000023
 30
0.0
 11
165.7999999999997
 21
31.00000000000023
 31
0.0
  0
LINE
  5
2B4F
330
2B0B
100
AcDbEntity
  8
AM_0 外形線1
100
AcDbLine
 10
173.5566239999998
 20
33.50000000000023
 30
0.0
 11
174.9999999999995
 21
31.00000000000023
 31
0.0
  0
LINE
  5
2B50
330
2B0B
100
AcDbEntity
  8
AM_0 外形線1
100
AcDbLine
 10
176.4433759999997
 20
31.00000000000023
 30
0.0
 11
174.9999999999995
 21
33.50000000000023
 31
0.0
  0
LINE
  5
2B51
330
2B0B
100
AcDbEntity
  8
AM_0 外形線1
100
AcDbLine
 10
165.1850459999998
 20
39.74081100000036
 30
0.0
 11
165.1850459999998
 21
33.50000000000023
 31
0.0
  0
LINE
  5
2B52
330
2B0B
100
AcDbEntity
  8
AM_0 外形線1
100
AcDbLine
 10
170.0925229999998
 20
39.74081100000036
 30
0.0
 11
170.0925229999998
 21
33.50000000000023
 31
0.0
  0
LINE
  5
2B53
330
2B0B
100
AcDbEntity
  8
AM_0 外形線1
100
AcDbLine
 10
184.8149549999998
 20
39.74081100000036
 30
0.0
 11
183.4999999999998
 21
40.50000000000022
 31
0.0
  0
ARC
  5
2B54
330
2B0B
100
AcDbEntity
  8
AM_0 外形線1
100
AcDbCircle
 10
182.3612159999998
 20
36.15510200000028
 30
0.0
 40
4.344898999999998
100
AcDbArc
 50
55.61575299999442
 51
124.3842470000055
  0
LINE
  5
2B55
330
2B0B
100
AcDbEntity
  8
AM_0 外形線1
100
AcDbLine
 10
184.1999999999998
 20
31.00000000000023
 30
0.0
 11
184.1999999999998
 21
33.50000000000023
 31
0.0
  0
LINE
  5
2B56
330
2B0B
100
AcDbEntity
  8
AM_0 外形線1
100
AcDbLine
 10
184.8149549999998
 20
33.50000000000023
 30
0.0
 11
184.8149549999998
 21
39.74081100000036
 31
0.0
  0
LINE
  5
2B57
330
2B0B
100
AcDbEntity
  8
AM_0 外形線1
100
AcDbLine
 10
179.9074769999997
 20
39.74081100000036
 30
0.0
 11
179.9074769999997
 21
33.50000000000023
 31
0.0
  0
LINE
  5
2B58
330
2B0B
100
AcDbEntity
  8
AM_0 外形線1
100
AcDbLine
 10
185.9999999999997
 20
0.0
 30
0.0
 11
185.9999999999997
 21
31.0
 31
0.0
  0
LINE
  5
2B59
330
2B0B
100
AcDbEntity
  8
AM_0 外形線1
100
AcDbLine
 10
-186.0
 20
0.0
 30
0.0
 11
-180.0
 21
0.0
 31
0.0
  0
LINE
  5
2B5A
330
2B0B
100
AcDbEntity
  8
AM_0 外形線1
100
AcDbLine
 10
-170.0
 20
0.0
 30
0.0
 11
-166.8000000000001
 21
0.0000000000001137
 31
0.0
  0
LINE
  5
2B5B
330
2B0B
100
AcDbEntity
  8
AM_0 外形線1
100
AcDbLine
 10
185.9999999999997
 20
0.0
 30
0.0
 11
0.0
 21
0.0000000000001137
 31
0.0
  0
INSERT
  5
2B5C
330
2B0B
100
AcDbEntity
  8
AM_0 外形線1
100
AcDbBlockReference
  2
ロッカクアナツキプラグ-2 R1／8
 10
48.14034199999968
 20
8.5
 30
0.0
  0
LINE
  5
5671
330
2B0B
100
AcDbEntity
  8
AM_0 外形線1
100
AcDbLine
 10
-146.5
 20
11.0
 30
0.0
 11
-145.0
 21
11.0
 31
0.0
  0
LINE
  5
5672
330
2B0B
100
AcDbEntity
  8
AM_0 外形線1
100
AcDbLine
 10
-146.5
 20
15.40000000000009
 30
0.0
 11
-145.0
 21
15.40000000000009
 31
0.0
  0
ENDBLK
  5
2B5D
330
2B0B
100
AcDbEntity
  8
0
100
AcDbBlockEnd
  0
BLOCK
  5
2B61
330
2B5E
100
AcDbEntity
  8
0
100
AcDbBlockBegin
  2
スラストプレ－ト CMVH450
 70
     0
 10
0.0
 20
0.0
 30
0.0
  3
スラストプレ－ト CMVH450
  1

  0
LINE
  5
2B62
330
2B5E
100
AcDbEntity
  8
AM_0 外形線1
100
AcDbLine
 10
-123.5
 20
0.5
 30
0.0
 11
0.0
 21
0.5
 31
0.0
  0
LINE
  5
2B63
330
2B5E
100
AcDbEntity
  8
AM_0 外形線1
100
AcDbLine
 10
-137.5
 20
6.0
 30
0.0
 11
0.0
 21
6.0
 31
0.0
  0
LINE
  5
2B64
330
2B5E
100
AcDbEntity
  8
AM_4 細線
100
AcDbLine
 10
-130.9000000000001
 20
-0.5
 30
0.0
 11
-130.9000000000001
 21
-13.30000000000007
 31
0.0
  0
LINE
  5
2B65
330
2B5E
100
AcDbEntity
  8
AM_4 細線
100
AcDbLine
 10
-124.1000000000003
 20
-13.30000000000007
 30
0.0
 11
-124.1000000000003
 21
-0.5
 31
0.0
  0
LINE
  5
2B66
330
2B5E
100
AcDbEntity
  8
AM_0 外形線1
100
AcDbLine
 10
-123.5
 20
1.100000000000021
 30
0.0
 11
-123.5
 21
-12.70000000000004
 31
0.0
  0
LINE
  5
2B67
330
2B5E
100
AcDbEntity
  8
AM_0 外形線1
100
AcDbLine
 10
-131.5
 20
1.100000000000021
 30
0.0
 11
-131.5
 21
-12.70000000000004
 31
0.0
  0
LINE
  5
2B68
330
2B5E
100
AcDbEntity
  8
AM_7 中心線
100
AcDbLine
 10
-127.5
 20
9.397834999999986
 30
0.0
 11
-127.5
 21
-32.4708730000001
 31
0.0
  0
LINE
  5
2B69
330
2B5E
100
AcDbEntity
  8
AM_0 外形線1
100
AcDbLine
 10
-131.5
 20
-20.10000000000002
 30
0.0
 11
-123.5
 21
-20.10000000000002
 31
0.0
  0
LINE
  5
2B6A
330
2B5E
100
AcDbEntity
  8
AM_0 外形線1
100
AcDbLine
 10
-131.5
 20
-12.70000000000004
 30
0.0
 11
-123.5
 21
-12.70000000000004
 31
0.0
  0
LINE
  5
2B6B
330
2B5E
100
AcDbEntity
  8
AM_0 外形線1
100
AcDbLine
 10
-124.3000000000002
 20
-13.5
 30
0.0
 11
-123.5
 21
-12.70000000000004
 31
0.0
  0
LINE
  5
2B6C
330
2B5E
100
AcDbEntity
  8
AM_4 細線
100
AcDbLine
 10
-123.5
 20
-20.10000000000002
 30
0.0
 11
-124.1000000000003
 21
-21.13923100000011
 31
0.0
  0
LINE
  5
2B6D
330
2B5E
100
AcDbEntity
  8
AM_0 外形線1
100
AcDbLine
 10
-124.1000000000003
 20
-13.30000000000007
 30
0.0
 11
-124.1000000000003
 21
-26.0
 31
0.0
  0
LINE
  5
2B6E
330
2B5E
100
AcDbEntity
  8
AM_0 外形線1
100
AcDbLine
 10
-130.9000000000001
 20
-13.30000000000007
 30
0.0
 11
-130.9000000000001
 21
-26.0
 31
0.0
  0
LINE
  5
2B6F
330
2B5E
100
AcDbEntity
  8
AM_0 外形線1
100
AcDbLine
 10
-130.6999999999998
 20
-13.5
 30
0.0
 11
-131.5
 21
-12.70000000000004
 31
0.0
  0
LINE
  5
2B70
330
2B5E
100
AcDbEntity
  8
AM_4 細線
100
AcDbLine
 10
-131.5
 20
-12.70000000000004
 30
0.0
 11
-131.5
 21
-20.10000000000002
 31
0.0
  0
LINE
  5
2B71
330
2B5E
100
AcDbEntity
  8
AM_0 外形線1
100
AcDbLine
 10
-130.6999999999998
 20
-13.5
 30
0.0
 11
-124.3000000000002
 21
-13.5
 31
0.0
  0
LINE
  5
2B72
330
2B5E
100
AcDbEntity
  8
AM_4 細線
100
AcDbLine
 10
-130.9000000000001
 20
-21.13923100000011
 30
0.0
 11
-131.5
 21
-20.10000000000002
 31
0.0
  0
LINE
  5
2B73
330
2B5E
100
AcDbEntity
  8
AM_4 細線
100
AcDbLine
 10
-124.1000000000003
 20
-21.13923100000011
 30
0.0
 11
-130.9000000000001
 21
-21.13923100000011
 31
0.0
  0
LINE
  5
2B74
330
2B5E
100
AcDbEntity
  8
AM_0 外形線1
100
AcDbLine
 10
-124.1000000000003
 20
-26.0
 30
0.0
 11
-127.5
 21
-27.96299099999999
 31
0.0
  0
LINE
  5
2B75
330
2B5E
100
AcDbEntity
  8
AM_0 外形線1
100
AcDbLine
 10
-130.9000000000001
 20
-26.0
 30
0.0
 11
-127.5
 21
-27.96299099999999
 31
0.0
  0
LINE
  5
2B76
330
2B5E
100
AcDbEntity
  8
AM_0 外形線1
100
AcDbLine
 10
-124.1000000000003
 20
-26.0
 30
0.0
 11
-130.9000000000001
 21
-26.0
 31
0.0
  0
LINE
  5
2B77
330
2B5E
100
AcDbEntity
  8
AM_4 細線
100
AcDbLine
 10
-123.5
 20
-12.70000000000004
 30
0.0
 11
-123.5
 21
-20.10000000000002
 31
0.0
  0
LINE
  5
2B78
330
2B5E
100
AcDbEntity
  8
AM_0 外形線1
100
AcDbLine
 10
-135.5
 20
1.5
 30
0.0
 11
-119.5
 21
1.5
 31
0.0
  0
LINE
  5
2B79
330
2B5E
100
AcDbEntity
  8
AM_4 細線
100
AcDbLine
 10
-124.1000000000003
 20
-0.5
 30
0.0
 11
-123.5
 21
0.539229999999975
 31
0.0
  0
LINE
  5
2B7A
330
2B5E
100
AcDbEntity
  8
AM_0 外形線1
100
AcDbLine
 10
-123.5
 20
-0.5
 30
0.0
 11
-131.5
 21
-0.5
 31
0.0
  0
LINE
  5
2B7B
330
2B5E
100
AcDbEntity
  8
AM_0 外形線1
100
AcDbLine
 10
-123.1000000000003
 20
1.5
 30
0.0
 11
-131.9000000000001
 21
1.5
 31
0.0
  0
ARC
  5
2B7C
330
2B5E
100
AcDbEntity
  8
AM_0 外形線1
100
AcDbCircle
 10
-124.9000000000001
 20
1.5
 30
0.0
 40
4.4
100
AcDbArc
 50
0.0
 51
90.0
  0
LINE
  5
2B7D
330
2B5E
100
AcDbEntity
  8
AM_0 外形線1
100
AcDbLine
 10
-135.5
 20
6.0
 30
0.0
 11
-135.5
 21
1.5
 31
0.0
  0
LINE
  5
2B7E
330
2B5E
100
AcDbEntity
  8
AM_0 外形線1
100
AcDbLine
 10
-131.5
 20
0.5
 30
0.0
 11
-137.5
 21
0.5
 31
0.0
  0
LINE
  5
2B7F
330
2B5E
100
AcDbEntity
  8
AM_4 細線
100
AcDbLine
 10
-130.9000000000001
 20
-0.5
 30
0.0
 11
-131.5
 21
0.539229999999975
 31
0.0
  0
ARC
  5
2B80
330
2B5E
100
AcDbEntity
  8
AM_0 外形線1
100
AcDbCircle
 10
-131.9000000000001
 20
1.100000000000021
 30
0.0
 40
0.4
100
AcDbArc
 50
0.0
 51
90.0
  0
LINE
  5
2B81
330
2B5E
100
AcDbEntity
  8
AM_0 外形線1
100
AcDbLine
 10
-131.9000000000001
 20
1.5
 30
0.0
 11
-134.5
 21
1.5
 31
0.0
  0
ARC
  5
2B82
330
2B5E
100
AcDbEntity
  8
AM_0 外形線1
100
AcDbCircle
 10
-130.1000000000003
 20
1.5
 30
0.0
 40
4.4
100
AcDbArc
 50
90.0
 51
180.0
  0
LINE
  5
2B83
330
2B5E
100
AcDbEntity
  8
AM_0 外形線1
100
AcDbLine
 10
-130.1000000000003
 20
5.899999999999977
 30
0.0
 11
-124.9000000000001
 21
5.899999999999977
 31
0.0
  0
LINE
  5
2B84
330
2B5E
100
AcDbEntity
  8
AM_0 外形線1
100
AcDbLine
 10
-137.5
 20
0.0
 30
0.0
 11
-137.5
 21
6.0
 31
0.0
  0
LINE
  5
2B85
330
2B5E
100
AcDbEntity
  8
AM_0 外形線1
100
AcDbLine
 10
-119.5
 20
6.0
 30
0.0
 11
-119.5
 21
1.5
 31
0.0
  0
ARC
  5
2B86
330
2B5E
100
AcDbEntity
  8
AM_0 外形線1
100
AcDbCircle
 10
-123.1000000000003
 20
1.100000000000021
 30
0.0
 40
0.4
100
AcDbArc
 50
90.0
 51
180.0
  0
LINE
  5
2B87
330
2B5E
100
AcDbEntity
  8
AM_0 外形線1
100
AcDbLine
 10
-123.1000000000003
 20
1.5
 30
0.0
 11
-120.5
 21
1.5
 31
0.0
  0
LINE
  5
2B88
330
2B5E
100
AcDbEntity
  8
AM_0 外形線1
100
AcDbLine
 10
-137.5
 20
0.0
 30
0.0
 11
-131.5169425695985
 21
0.0
 31
0.0
  0
LINE
  5
2B89
330
2B5E
100
AcDbEntity
  8
AM_0 外形線1
100
AcDbLine
 10
-123.5
 20
0.0
 30
0.0
 11
0.0
 21
0.0
 31
0.0
  0
ENDBLK
  5
2B8A
330
2B5E
100
AcDbEntity
  8
0
100
AcDbBlockEnd
  0
BLOCK
  5
2B8E
330
2B8B
100
AcDbEntity
  8
0
100
AcDbBlockBegin
  2
イタ CMVH450
 70
     0
 10
0.0
 20
0.0
 30
0.0
  3
イタ CMVH450
  1

  0
LINE
  5
2B94
330
2B8B
100
AcDbEntity
  8
AM_0 外形線1
100
AcDbLine
 10
-22.5
 20
-10.0
 30
0.0
 11
-22.5
 21
0.0
 31
0.0
  0
LINE
  5
2B95
330
2B8B
100
AcDbEntity
  8
AM_0 外形線1
100
AcDbLine
 10
-170.0
 20
0.0
 30
0.0
 11
-170.0
 21
-8.0
 31
0.0
  0
LINE
  5
2B96
330
2B8B
100
AcDbEntity
  8
AM_0 外形線1
100
AcDbLine
 10
-170.0
 20
-8.0
 30
0.0
 11
-166.5
 21
-8.0
 31
0.0
  0
LINE
  5
2B97
330
2B8B
100
AcDbEntity
  8
AM_0 外形線1
100
AcDbLine
 10
-166.5
 20
-8.0
 30
0.0
 11
-166.5
 21
-9.999999999999886
 31
0.0
  0
LINE
  5
4701
330
2B8B
100
AcDbEntity
  8
AM_0 外形線1
100
AcDbLine
 10
-22.5
 20
-10.0
 30
0.0
 11
-166.5
 21
-10.0
 31
0.0
  0
LINE
  5
4702
330
2B8B
100
AcDbEntity
  8
AM_0 外形線1
100
AcDbLine
 10
-22.5
 20
0.0
 30
0.0
 11
-170.0
 21
0.0
 31
0.0
  0
ENDBLK
  5
2B98
330
2B8B
100
AcDbEntity
  8
0
100
AcDbBlockEnd
  0
BLOCK
  5
2B9C
330
2B99
100
AcDbEntity
  8
0
100
AcDbBlockBegin
  2
リーマボルト CMVH450 M20
 70
     0
 10
0.0
 20
0.0
 30
0.0
  3
リーマボルト CMVH450 M20
  1

  0
LINE
  5
2B9D
330
2B99
100
AcDbEntity
  8
AM_0 外形線1
100
AcDbLine
 10
8.660253999999895
 20
55.10000000000001
 30
0.0
 11
8.660253999999895
 21
69.77209399999992
 31
0.0
  0
LINE
  5
2B9E
330
2B99
100
AcDbEntity
  8
AM_0 外形線1
100
AcDbLine
 10
-8.66025400000035
 20
55.10000000000001
 30
0.0
 11
-8.66025400000035
 21
69.77209399999992
 31
0.0
  0
LINE
  5
2B9F
330
2B99
100
AcDbEntity
  8
AM_0 外形線1
100
AcDbLine
 10
17.30000000000018
 20
69.77209399999992
 30
0.0
 11
17.30000000000018
 21
55.10000000000001
 31
0.0
  0
LINE
  5
2BA0
330
2B99
100
AcDbEntity
  8
AM_0 外形線1
100
AcDbLine
 10
-17.30000000000018
 20
55.10000000000001
 30
0.0
 11
-17.30000000000018
 21
69.77209399999992
 31
0.0
  0
LINE
  5
2BA1
330
2B99
100
AcDbEntity
  8
AM_0 外形線1
100
AcDbLine
 10
8.660253999999895
 20
0.0
 30
0.0
 11
8.660253999999895
 21
-11.67209500000001
 31
0.0
  0
LINE
  5
2BA2
330
2B99
100
AcDbEntity
  8
AM_0 外形線1
100
AcDbLine
 10
-8.66025400000035
 20
0.0
 30
0.0
 11
-8.66025400000035
 21
-11.67209500000001
 31
0.0
  0
LINE
  5
2BA3
330
2B99
100
AcDbEntity
  8
AM_0 外形線1
100
AcDbLine
 10
17.30000000000018
 20
-11.67209500000001
 30
0.0
 11
17.30000000000018
 21
0.0
 31
0.0
  0
LINE
  5
2BA4
330
2B99
100
AcDbEntity
  8
AM_0 外形線1
100
AcDbLine
 10
-17.30000000000018
 20
0.0
 30
0.0
 11
-17.30000000000018
 21
-11.67209500000001
 31
0.0
  0
ARC
  5
2BA5
330
2B99
100
AcDbEntity
  8
AM_0 外形線1
100
AcDbCircle
 10
-12.98012699999981
 20
-5.309454999999957
 30
0.0
 40
7.690544999999998
100
AcDbArc
 50
235.8257089999964
 51
304.1742910000035
  0
LINE
  5
2BA6
330
2B99
100
AcDbEntity
  8
AM_0 外形線1
100
AcDbLine
 10
-15.0
 20
-13.0
 30
0.0
 11
15.0
 21
-13.0
 31
0.0
  0
LINE
  5
2BA7
330
2B99
100
AcDbEntity
  8
AM_0 外形線1
100
AcDbLine
 10
-17.30000000000018
 20
-11.67209500000001
 30
0.0
 11
-15.0
 21
-13.0
 31
0.0
  0
ARC
  5
2BA8
330
2B99
100
AcDbEntity
  8
AM_0 外形線1
100
AcDbCircle
 10
12.98012699999981
 20
-5.309454999999957
 30
0.0
 40
7.690544999999998
100
AcDbArc
 50
235.8257089999964
 51
304.1742910000035
  0
ARC
  5
2BA9
330
2B99
100
AcDbEntity
  8
AM_0 外形線1
100
AcDbCircle
 10
0.0
 20
15.90391099999988
 30
0.0
 40
28.903912
100
AcDbArc
 50
252.5650860000132
 51
287.4349139999869
  0
LINE
  5
2BAA
330
2B99
100
AcDbEntity
  8
AM_0 外形線1
100
AcDbLine
 10
15.0
 20
-13.0
 30
0.0
 11
17.30000000000018
 21
-11.67209500000001
 31
0.0
  0
LINE
  5
2BAB
330
2B99
100
AcDbEntity
  8
AM_0 外形線1
100
AcDbLine
 10
17.30000000000018
 20
55.10000000000001
 30
0.0
 11
-17.30000000000018
 21
55.10000000000001
 31
0.0
  0
LINE
  5
2BAC
330
2B99
100
AcDbEntity
  8
AM_0 外形線1
100
AcDbLine
 10
-14.0
 20
55.10000000000001
 30
0.0
 11
-14.0
 21
50.0
 31
0.0
  0
LINE
  5
2BAD
330
2B99
100
AcDbEntity
  8
AM_0 外形線1
100
AcDbLine
 10
11.0
 20
2.5
 30
0.0
 11
-11.0
 21
2.5
 31
0.0
  0
ARC
  5
2BAE
330
2B99
100
AcDbEntity
  8
AM_0 外形線1
100
AcDbCircle
 10
11.0
 20
1.5
 30
0.0
 40
1.0
100
AcDbArc
 50
90.0
 51
180.0
  0
LINE
  5
2BAF
330
2B99
100
AcDbEntity
  8
AM_0 外形線1
100
AcDbLine
 10
10.0
 20
1.0
 30
0.0
 11
10.0
 21
1.5
 31
0.0
  0
ARC
  5
2BB0
330
2B99
100
AcDbEntity
  8
AM_0 外形線1
100
AcDbCircle
 10
11.0
 20
1.0
 30
0.0
 40
1.0
100
AcDbArc
 50
180.0
 51
270.0
  0
ARC
  5
2BB1
330
2B99
100
AcDbEntity
  8
AM_0 外形線1
100
AcDbCircle
 10
-11.0
 20
1.5
 30
0.0
 40
1.0
100
AcDbArc
 50
0.0
 51
90.0
  0
LINE
  5
2BB2
330
2B99
100
AcDbEntity
  8
AM_0 外形線1
100
AcDbLine
 10
-10.0
 20
1.0
 30
0.0
 11
-10.0
 21
1.5
 31
0.0
  0
ARC
  5
2BB3
330
2B99
100
AcDbEntity
  8
AM_0 外形線1
100
AcDbCircle
 10
-11.0
 20
1.0
 30
0.0
 40
1.0
100
AcDbArc
 50
270.0
 51
0.0
  0
LINE
  5
2BB4
330
2B99
100
AcDbEntity
  8
AM_4 細線
100
AcDbLine
 10
9.0
 20
50.0
 30
0.0
 11
9.0
 21
44.73204999999995
 31
0.0
  0
LINE
  5
2BB5
330
2B99
100
AcDbEntity
  8
AM_4 細線
100
AcDbLine
 10
-9.0
 20
50.0
 30
0.0
 11
-9.0
 21
44.73204999999995
 31
0.0
  0
LINE
  5
2BB6
330
2B99
100
AcDbEntity
  8
AM_0 外形線1
100
AcDbLine
 10
10.0
 20
44.73204999999995
 30
0.0
 11
10.0
 21
50.0
 31
0.0
  0
LINE
  5
2BB7
330
2B99
100
AcDbEntity
  8
AM_0 外形線1
100
AcDbLine
 10
-10.0
 20
44.73204999999995
 30
0.0
 11
-10.0
 21
50.0
 31
0.0
  0
LINE
  5
2BB8
330
2B99
100
AcDbEntity
  8
AM_0 外形線1
100
AcDbLine
 10
-1.699999999999818
 20
55.0999999999999
 30
0.0
 11
3.399999999999636
 21
49.99999999999989
 31
0.0
  0
LINE
  5
2BB9
330
2B99
100
AcDbEntity
  8
AM_0 外形線1
100
AcDbLine
 10
-3.40000000000009
 20
55.0999999999999
 30
0.0
 11
1.699999999999818
 21
49.99999999999989
 31
0.0
  0
LINE
  5
2BBA
330
2B99
100
AcDbEntity
  8
AM_0 外形線1
100
AcDbLine
 10
-11.0
 20
43.0
 30
0.0
 11
11.0
 21
43.0
 31
0.0
  0
LINE
  5
2BBB
330
2B99
100
AcDbEntity
  8
AM_0 外形線1
100
AcDbLine
 10
10.0
 20
44.73204999999995
 30
0.0
 11
11.0
 21
43.0
 31
0.0
  0
LINE
  5
2BBC
330
2B99
100
AcDbEntity
  8
AM_0 外形線1
100
AcDbLine
 10
-10.0
 20
44.73204999999995
 30
0.0
 11
10.0
 21
44.73204999999995
 31
0.0
  0
LINE
  5
2BBD
330
2B99
100
AcDbEntity
  8
AM_0 外形線1
100
AcDbLine
 10
-11.0
 20
43.0
 30
0.0
 11
-10.0
 21
44.73204999999995
 31
0.0
  0
LINE
  5
2BBE
330
2B99
100
AcDbEntity
  8
AM_0 外形線1
100
AcDbLine
 10
14.0
 20
50.0
 30
0.0
 11
14.0
 21
55.10000000000001
 31
0.0
  0
ARC
  5
2BBF
330
2B99
100
AcDbEntity
  8
AM_0 外形線1
100
AcDbCircle
 10
-12.98012699999981
 20
63.40945399999998
 30
0.0
 40
7.690544999999998
100
AcDbArc
 50
55.82570899999641
 51
124.1742910000035
  0
LINE
  5
2BC0
330
2B99
100
AcDbEntity
  8
AM_0 外形線1
100
AcDbLine
 10
-15.0
 20
71.10000000000002
 30
0.0
 11
15.0
 21
71.10000000000002
 31
0.0
  0
LINE
  5
2BC1
330
2B99
100
AcDbEntity
  8
AM_0 外形線1
100
AcDbLine
 10
-17.30000000000018
 20
69.77209399999992
 30
0.0
 11
-15.0
 21
71.10000000000002
 31
0.0
  0
ARC
  5
2BC2
330
2B99
100
AcDbEntity
  8
AM_0 外形線1
100
AcDbCircle
 10
12.98012699999981
 20
63.40945399999998
 30
0.0
 40
7.690544999999998
100
AcDbArc
 50
55.82570899999641
 51
124.1742910000035
  0
LINE
  5
2BC3
330
2B99
100
AcDbEntity
  8
AM_4 細線
100
AcDbLine
 10
9.0
 20
71.10000000000002
 30
0.0
 11
9.0
 21
77.0
 31
0.0
  0
LINE
  5
2BC4
330
2B99
100
AcDbEntity
  8
AM_4 細線
100
AcDbLine
 10
-9.0
 20
71.10000000000002
 30
0.0
 11
-9.0
 21
77.0
 31
0.0
  0
LINE
  5
2BC5
330
2B99
100
AcDbEntity
  8
AM_0 外形線1
100
AcDbLine
 10
-10.0
 20
76.0
 30
0.0
 11
10.0
 21
76.0
 31
0.0
  0
LINE
  5
2BC6
330
2B99
100
AcDbEntity
  8
AM_0 外形線1
100
AcDbLine
 10
10.0
 20
76.0
 30
0.0
 11
10.0
 21
71.10000000000002
 31
0.0
  0
LINE
  5
2BC7
330
2B99
100
AcDbEntity
  8
AM_0 外形線1
100
AcDbLine
 10
8.0
 20
78.0
 30
0.0
 11
10.0
 21
76.0
 31
0.0
  0
LINE
  5
2BC8
330
2B99
100
AcDbEntity
  8
AM_0 外形線1
100
AcDbLine
 10
-8.0
 20
78.0
 30
0.0
 11
8.0
 21
78.0
 31
0.0
  0
LINE
  5
2BC9
330
2B99
100
AcDbEntity
  8
AM_0 外形線1
100
AcDbLine
 10
-10.0
 20
76.0
 30
0.0
 11
-8.0
 21
78.0
 31
0.0
  0
LINE
  5
2BCA
330
2B99
100
AcDbEntity
  8
AM_0 外形線1
100
AcDbLine
 10
-10.0
 20
71.10000000000002
 30
0.0
 11
-10.0
 21
76.0
 31
0.0
  0
ARC
  5
2BCB
330
2B99
100
AcDbEntity
  8
AM_0 外形線1
100
AcDbCircle
 10
0.0
 20
42.1960879999999
 30
0.0
 40
28.903912
100
AcDbArc
 50
72.56508600001317
 51
107.4349139999868
  0
LINE
  5
2BCC
330
2B99
100
AcDbEntity
  8
AM_0 外形線1
100
AcDbLine
 10
15.0
 20
71.10000000000002
 30
0.0
 11
17.30000000000018
 21
69.77209399999992
 31
0.0
  0
LINE
  5
2BCD
330
2B99
100
AcDbEntity
  8
AM_0 外形線1
100
AcDbLine
 10
-17.30000000000018
 20
0.0
 30
0.0
 11
17.30000000000018
 21
0.0
 31
0.0
  0
LINE
  5
2BCE
330
2B99
100
AcDbEntity
  8
AM_0 外形線1
100
AcDbLine
 10
11.0
 20
2.5
 30
0.0
 11
10.99999999999994
 21
43.0
 31
0.0
  0
LINE
  5
2BCF
330
2B99
100
AcDbEntity
  8
AM_0 外形線1
100
AcDbLine
 10
-11.0
 20
2.5
 30
0.0
 11
-11.0
 21
43.0
 31
0.0
  0
LINE
  5
2BD0
330
2B99
100
AcDbEntity
  8
AM_0 外形線1
100
AcDbLine
 10
-14.0
 20
50.0
 30
0.0
 11
14.0
 21
50.0
 31
0.0
  0
ENDBLK
  5
2BD1
330
2B99
100
AcDbEntity
  8
0
100
AcDbBlockEnd
  0
BLOCK
  5
2F40
330
2F3F
100
AcDbEntity
  8
0
100
AcDbBlockBegin
  2
*D20
 70
     1
 10
0.0
 20
0.0
 30
0.0
  3
*D20
  1

  0
LINE
  5
5A75
330
2F3F
100
AcDbEntity
  8
AM_5 寸法線
 62
     3
100
AcDbLine
 10
767.4592569612175
 20
1022.240920832482
 30
0.0
 11
767.4592569612175
 21
1142.240920832482
 31
0.0
  0
LINE
  5
5A76
330
2F3F
100
AcDbEntity
  8
AM_5 寸法線
 62
     3
100
AcDbLine
 10
477.4592569612178
 20
1022.240920832482
 30
0.0
 11
477.4592569612178
 21
1142.240920832482
 31
0.0
  0
LINE
  5
5A77
330
2F3F
100
AcDbEntity
  8
AM_5 寸法線
 62
     3
100
AcDbLine
 10
757.4592569612175
 20
1139.740920832482
 30
0.0
 11
487.4592569612176
 21
1139.740920832482
 31
0.0
  0
INSERT
  5
5A78
330
2F3F
100
AcDbEntity
  8
AM_5 寸法線
 62
     3
100
AcDbBlockReference
  2
_Open30
 10
767.4592569612175
 20
1139.740920832482
 30
0.0
 41
10.0
 42
10.0
 43
10.0
  0
INSERT
  5
5A79
330
2F3F
100
AcDbEntity
  8
AM_5 寸法線
 62
     3
100
AcDbBlockReference
  2
_Open30
 10
477.4592569612178
 20
1139.740920832482
 30
0.0
 41
10.0
 42
10.0
 43
10.0
 50
180.0
  0
MTEXT
  5
5A7A
330
2F3F
100
AcDbEntity
  8
AM_5 寸法線
 62
     3
100
AcDbMText
 10
622.4592569612176
 20
1152.740920832482
 30
0.0
 40
14.0
 41
0.0
 46
0.0
 71
     5
 72
     1
  1
%%c290
  7
SEISA
 73
     1
 44
1.0
  0
POINT
  5
5A7B
330
2F3F
100
AcDbEntity
  8
Defpoints
 62
     0
100
AcDbPoint
 10
767.4592569612175
 20
1019.740920832482
 30
0.0
  0
POINT
  5
5A7C
330
2F3F
100
AcDbEntity
  8
Defpoints
 62
     0
100
AcDbPoint
 10
477.4592569612178
 20
1019.740920832482
 30
0.0
  0
POINT
  5
5A7D
330
2F3F
100
AcDbEntity
  8
Defpoints
 62
     0
100
AcDbPoint
 10
477.4592569612178
 20
1139.740920832482
 30
0.0
  0
ENDBLK
  5
2F41
330
2F3F
100
AcDbEntity
  8
0
100
AcDbBlockEnd
  0
BLOCK
  5
2F4C
330
2F4B
100
AcDbEntity
  8
0
100
AcDbBlockBegin
  2
*D21
 70
     1
 10
0.0
 20
0.0
 30
0.0
  3
*D21
  1

  0
LINE
  5
5A7E
330
2F4B
100
AcDbEntity
  8
AM_5 寸法線
 62
     3
100
AcDbLine
 10
477.4592569612178
 20
673.2409208324825
 30
0.0
 11
477.4592569612178
 21
553.2409208324825
 31
0.0
  0
LINE
  5
5A7F
330
2F4B
100
AcDbEntity
  8
AM_5 寸法線
 62
     3
100
AcDbLine
 10
767.4592569612175
 20
673.2409208324825
 30
0.0
 11
767.4592569612175
 21
553.2409208324825
 31
0.0
  0
LINE
  5
5A80
330
2F4B
100
AcDbEntity
  8
AM_5 寸法線
 62
     3
100
AcDbLine
 10
487.4592569612176
 20
555.7409208324825
 30
0.0
 11
757.4592569612175
 21
555.7409208324825
 31
0.0
  0
INSERT
  5
5A81
330
2F4B
100
AcDbEntity
  8
AM_5 寸法線
 62
     3
100
AcDbBlockReference
  2
_Open30
 10
477.4592569612178
 20
555.7409208324825
 30
0.0
 41
10.0
 42
10.0
 43
10.0
 50
180.0
  0
INSERT
  5
5A82
330
2F4B
100
AcDbEntity
  8
AM_5 寸法線
 62
     3
100
AcDbBlockReference
  2
_Open30
 10
767.4592569612175
 20
555.7409208324825
 30
0.0
 41
10.0
 42
10.0
 43
10.0
  0
MTEXT
  5
5A83
330
2F4B
100
AcDbEntity
  8
AM_5 寸法線
 62
     3
100
AcDbMText
 10
622.4592569612176
 20
568.7409208324825
 30
0.0
 40
14.0
 41
0.0
 46
0.0
 71
     5
 72
     1
  1
%%c290
  7
SEISA
 73
     1
 44
1.0
  0
POINT
  5
5A84
330
2F4B
100
AcDbEntity
  8
Defpoints
 62
     0
100
AcDbPoint
 10
477.4592569612178
 20
675.7409208324824
 30
0.0
  0
POINT
  5
5A85
330
2F4B
100
AcDbEntity
  8
Defpoints
 62
     0
100
AcDbPoint
 10
767.4592569612175
 20
675.7409208324824
 30
0.0
  0
POINT
  5
5A86
330
2F4B
100
AcDbEntity
  8
Defpoints
 62
     0
100
AcDbPoint
 10
767.4592569612175
 20
555.7409208324825
 30
0.0
  0
ENDBLK
  5
2F4D
330
2F4B
100
AcDbEntity
  8
0
100
AcDbBlockEnd
  0
BLOCK
  5
2F58
330
2F57
100
AcDbEntity
  8
0
100
AcDbBlockBegin
  2
*D22
 70
     1
 10
0.0
 20
0.0
 30
0.0
  3
*D22
  1

  0
LINE
  5
5A87
330
2F57
100
AcDbEntity
  8
AM_5 寸法線
 62
     3
100
AcDbLine
 10
436.4592569612177
 20
679.2409208324825
 30
0.0
 11
436.4592569612177
 21
513.2409208324824
 31
0.0
  0
LINE
  5
5A88
330
2F57
100
AcDbEntity
  8
AM_5 寸法線
 62
     3
100
AcDbLine
 10
808.4592569612173
 20
679.2409208324825
 30
0.0
 11
808.4592569612173
 21
513.2409208324824
 31
0.0
  0
LINE
  5
5A89
330
2F57
100
AcDbEntity
  8
AM_5 寸法線
 62
     3
100
AcDbLine
 10
446.4592569612176
 20
515.7409208324825
 30
0.0
 11
798.4592569612175
 21
515.7409208324825
 31
0.0
  0
INSERT
  5
5A8A
330
2F57
100
AcDbEntity
  8
AM_5 寸法線
 62
     3
100
AcDbBlockReference
  2
_Open30
 10
436.4592569612177
 20
515.7409208324825
 30
0.0
 41
10.0
 42
10.0
 43
10.0
 50
180.0
  0
INSERT
  5
5A8B
330
2F57
100
AcDbEntity
  8
AM_5 寸法線
 62
     3
100
AcDbBlockReference
  2
_Open30
 10
808.4592569612173
 20
515.7409208324825
 30
0.0
 41
10.0
 42
10.0
 43
10.0
  0
MTEXT
  5
5A8C
330
2F57
100
AcDbEntity
  8
AM_5 寸法線
 62
     3
100
AcDbMText
 10
622.4592569612176
 20
528.7409208324825
 30
0.0
 40
14.0
 41
0.0
 46
0.0
 71
     5
 72
     1
  1
%%c372
  7
SEISA
 73
     1
 44
1.0
  0
POINT
  5
5A8D
330
2F57
100
AcDbEntity
  8
Defpoints
 62
     0
100
AcDbPoint
 10
436.4592569612177
 20
681.7409208324825
 30
0.0
  0
POINT
  5
5A8E
330
2F57
100
AcDbEntity
  8
Defpoints
 62
     0
100
AcDbPoint
 10
808.4592569612173
 20
681.7409208324825
 30
0.0
  0
POINT
  5
5A8F
330
2F57
100
AcDbEntity
  8
Defpoints
 62
     0
100
AcDbPoint
 10
808.4592569612173
 20
515.7409208324825
 30
0.0
  0
ENDBLK
  5
2F59
330
2F57
100
AcDbEntity
  8
0
100
AcDbBlockEnd
  0
BLOCK
  5
2F64
330
2F63
100
AcDbEntity
  8
0
100
AcDbBlockBegin
  2
*D23
 70
     1
 10
0.0
 20
0.0
 30
0.0
  3
*D23
  1

  0
LINE
  5
5A90
330
2F63
100
AcDbEntity
  8
AM_5 寸法線
 62
     3
100
AcDbLine
 10
397.4592569612178
 20
821.2409208324825
 30
0.0
 11
397.4592569612178
 21
473.2409208324825
 31
0.0
  0
LINE
  5
5A91
330
2F63
100
AcDbEntity
  8
AM_5 寸法線
 62
     3
100
AcDbLine
 10
847.4592569612175
 20
821.2409208324825
 30
0.0
 11
847.4592569612175
 21
473.2409208324825
 31
0.0
  0
LINE
  5
5A92
330
2F63
100
AcDbEntity
  8
AM_5 寸法線
 62
     3
100
AcDbLine
 10
407.4592569612176
 20
475.7409208324824
 30
0.0
 11
837.4592569612175
 21
475.7409208324824
 31
0.0
  0
INSERT
  5
5A93
330
2F63
100
AcDbEntity
  8
AM_5 寸法線
 62
     3
100
AcDbBlockReference
  2
_Open30
 10
397.4592569612178
 20
475.7409208324824
 30
0.0
 41
10.0
 42
10.0
 43
10.0
 50
180.0
  0
INSERT
  5
5A94
330
2F63
100
AcDbEntity
  8
AM_5 寸法線
 62
     3
100
AcDbBlockReference
  2
_Open30
 10
847.4592569612175
 20
475.7409208324824
 30
0.0
 41
10.0
 42
10.0
 43
10.0
  0
MTEXT
  5
5A95
330
2F63
100
AcDbEntity
  8
AM_5 寸法線
 62
     3
100
AcDbMText
 10
622.4592569612176
 20
488.7409208324823
 30
0.0
 40
14.0
 41
0.0
 46
0.0
 71
     5
 72
     1
  1
%%c450
  7
SEISA
 73
     1
 44
1.0
  0
POINT
  5
5A96
330
2F63
100
AcDbEntity
  8
Defpoints
 62
     0
100
AcDbPoint
 10
397.4592569612178
 20
823.7409208324823
 30
0.0
  0
POINT
  5
5A97
330
2F63
100
AcDbEntity
  8
Defpoints
 62
     0
100
AcDbPoint
 10
847.4592569612175
 20
823.7409208324823
 30
0.0
  0
POINT
  5
5A98
330
2F63
100
AcDbEntity
  8
Defpoints
 62
     0
100
AcDbPoint
 10
847.4592569612175
 20
475.7409208324824
 30
0.0
  0
ENDBLK
  5
2F65
330
2F63
100
AcDbEntity
  8
0
100
AcDbBlockEnd
  0
BLOCK
  5
2F70
330
2F6F
100
AcDbEntity
  8
0
100
AcDbBlockBegin
  2
*D24
 70
     1
 10
0.0
 20
0.0
 30
0.0
  3
*D24
  1

  0
LINE
  5
5E77
330
2F6F
100
AcDbEntity
  8
AM_5 寸法線
 62
     3
100
AcDbLine
 10
479.4592569612176
 20
718.7409208324823
 30
0.0
 11
525.6567603067868
 21
718.7409208324823
 31
0.0
  0
LINE
  5
5E78
330
2F6F
100
AcDbEntity
  8
AM_5 寸法線
 62
     3
100
AcDbLine
 10
474.5632669612176
 20
714.7409208324823
 30
0.0
 11
525.6567603067868
 21
714.7409208324823
 31
0.0
  0
LINE
  5
5E79
330
2F6F
100
AcDbEntity
  8
AM_5 寸法線
 62
     3
100
AcDbLine
 10
523.1567603067868
 20
728.7409208324824
 30
0.0
 11
523.1567603067868
 21
738.7409208324823
 31
0.0
  0
LINE
  5
5E7A
330
2F6F
100
AcDbEntity
  8
AM_5 寸法線
 62
     3
100
AcDbLine
 10
523.1567603067868
 20
704.7409208324823
 30
0.0
 11
523.1567603067868
 21
673.7409208324825
 31
0.0
  0
LINE
  5
5E7B
330
2F6F
100
AcDbEntity
  8
AM_5 寸法線
 62
     3
100
AcDbLine
 10
523.1567603067868
 20
718.7409208324823
 30
0.0
 11
523.1567603067868
 21
714.7409208324823
 31
0.0
  0
INSERT
  5
5E7C
330
2F6F
100
AcDbEntity
  8
AM_5 寸法線
 62
     3
100
AcDbBlockReference
  2
_Open30
 10
523.1567603067868
 20
718.7409208324823
 30
0.0
 41
10.0
 42
10.0
 43
10.0
 50
270.0
  0
INSERT
  5
5E7D
330
2F6F
100
AcDbEntity
  8
AM_5 寸法線
 62
     3
100
AcDbBlockReference
  2
_Open30
 10
523.1567603067868
 20
714.7409208324823
 30
0.0
 41
10.0
 42
10.0
 43
10.0
 50
90.0
  0
MTEXT
  5
5E7E
330
2F6F
100
AcDbEntity
  8
AM_5 寸法線
 62
     3
100
AcDbMText
 10
510.1567603067866
 20
684.2409208324826
 30
0.0
 40
14.0
 41
0.0
 46
0.0
 71
     5
 72
     1
  1
4
  7
SEISA
 11
0.0000000000000001
 21
1.0
 31
0.0
 73
     1
 44
1.0
  0
POINT
  5
5E7F
330
2F6F
100
AcDbEntity
  8
Defpoints
 62
     0
100
AcDbPoint
 10
476.9592569612178
 20
718.7409208324823
 30
0.0
  0
POINT
  5
5E80
330
2F6F
100
AcDbEntity
  8
Defpoints
 62
     0
100
AcDbPoint
 10
472.0632669612178
 20
714.7409208324823
 30
0.0
  0
POINT
  5
5E81
330
2F6F
100
AcDbEntity
  8
Defpoints
 62
     0
100
AcDbPoint
 10
523.1567603067868
 20
714.7409208324823
 30
0.0
  0
ENDBLK
  5
2F71
330
2F6F
100
AcDbEntity
  8
0
100
AcDbBlockEnd
  0
BLOCK
  5
2F8C
330
2F8B
100
AcDbEntity
  8
0
100
AcDbBlockBegin
  2
*D25
 70
     1
 10
0.0
 20
0.0
 30
0.0
  3
*D25
  1

  0
LINE
  5
5AAF
330
2F8B
100
AcDbEntity
  8
AM_5 寸法線
 62
     3
100
AcDbLine
 10
581.9680237293558
 20
835.7409208324822
 30
0.0
 11
581.2732492247306
 21
835.7409208324822
 31
0.0
  0
LINE
  5
5AB0
330
2F8B
100
AcDbEntity
  8
AM_5 寸法線
 62
     3
100
AcDbLine
 10
585.6542577553264
 20
635.7409208324826
 30
0.0
 11
586.2732492247305
 21
635.7409208324826
 31
0.0
  0
LINE
  5
5AB1
330
2F8B
100
AcDbEntity
  8
AM_5 寸法線
 62
     3
100
AcDbLine
 10
583.7732492247306
 20
825.7409208324823
 30
0.0
 11
583.7732492247305
 21
645.7409208324826
 31
0.0
  0
INSERT
  5
5AB2
330
2F8B
100
AcDbEntity
  8
AM_5 寸法線
 62
     3
100
AcDbBlockReference
  2
_Open30
 10
583.7732492247306
 20
835.7409208324822
 30
0.0
 41
10.0
 42
10.0
 43
10.0
 50
90.0
  0
INSERT
  5
5AB3
330
2F8B
100
AcDbEntity
  8
AM_5 寸法線
 62
     3
100
AcDbBlockReference
  2
_Open30
 10
583.7732492247305
 20
635.7409208324826
 30
0.0
 41
10.0
 42
10.0
 43
10.0
 50
270.0
  0
MTEXT
  5
5AB4
330
2F8B
100
AcDbEntity
  8
AM_5 寸法線
 62
     3
100
AcDbMText
 10
570.7732492247304
 20
735.7409208324827
 30
0.0
 40
14.0
 41
0.0
 46
0.0
 71
     5
 72
     1
  1
200
  7
SEISA
 11
0.0000000000000001
 21
1.0
 31
0.0
 73
     1
 44
1.0
  0
POINT
  5
5AB5
330
2F8B
100
AcDbEntity
  8
Defpoints
 62
     0
100
AcDbPoint
 10
584.468023729356
 20
835.7409208324822
 30
0.0
  0
POINT
  5
5AB6
330
2F8B
100
AcDbEntity
  8
Defpoints
 62
     0
100
AcDbPoint
 10
583.1542577553262
 20
635.7409208324826
 30
0.0
  0
POINT
  5
5AB7
330
2F8B
100
AcDbEntity
  8
Defpoints
 62
     0
100
AcDbPoint
 10
583.7732492247305
 20
635.7409208324826
 30
0.0
  0
ENDBLK
  5
2F8D
330
2F8B
100
AcDbEntity
  8
0
100
AcDbBlockEnd
  0
BLOCK
  5
2F98
330
2F97
100
AcDbEntity
  8
0
100
AcDbBlockBegin
  2
*D26
 70
     1
 10
0.0
 20
0.0
 30
0.0
  3
*D26
  1

  0
LINE
  5
5AB8
330
2F97
100
AcDbEntity
  8
AM_5 寸法線
 62
     3
100
AcDbLine
 10
585.3894908682105
 20
859.7409208324823
 30
0.0
 11
581.2732492247306
 21
859.7409208324823
 31
0.0
  0
LINE
  5
5AB9
330
2F97
100
AcDbEntity
  8
AM_5 寸法線
 62
     3
100
AcDbLine
 10
585.3894908682105
 20
835.7409208324822
 30
0.0
 11
581.2732492247306
 21
835.7409208324822
 31
0.0
  0
LINE
  5
5ABA
330
2F97
100
AcDbEntity
  8
AM_5 寸法線
 62
     3
100
AcDbLine
 10
583.7732492247306
 20
869.7409208324826
 30
0.0
 11
583.7732492247306
 21
879.7409208324824
 31
0.0
  0
LINE
  5
5ABB
330
2F97
100
AcDbEntity
  8
AM_5 寸法線
 62
     3
100
AcDbLine
 10
583.7732492247306
 20
825.7409208324823
 30
0.0
 11
583.7732492247306
 21
782.7409208324824
 31
0.0
  0
LINE
  5
5ABC
330
2F97
100
AcDbEntity
  8
AM_5 寸法線
 62
     3
100
AcDbLine
 10
583.7732492247306
 20
859.7409208324823
 30
0.0
 11
583.7732492247306
 21
835.7409208324822
 31
0.0
  0
INSERT
  5
5ABD
330
2F97
100
AcDbEntity
  8
AM_5 寸法線
 62
     3
100
AcDbBlockReference
  2
_Open30
 10
583.7732492247306
 20
859.7409208324823
 30
0.0
 41
10.0
 42
10.0
 43
10.0
 50
270.0
  0
INSERT
  5
5ABE
330
2F97
100
AcDbEntity
  8
AM_5 寸法線
 62
     3
100
AcDbBlockReference
  2
_Open30
 10
583.7732492247306
 20
835.7409208324822
 30
0.0
 41
10.0
 42
10.0
 43
10.0
 50
90.0
  0
MTEXT
  5
5ABF
330
2F97
100
AcDbEntity
  8
AM_5 寸法線
 62
     3
100
AcDbMText
 10
570.7732492247304
 20
799.2409208324826
 30
0.0
 40
14.0
 41
0.0
 46
0.0
 71
     5
 72
     1
  1
24
  7
SEISA
 11
0.0000000000000001
 21
1.0
 31
0.0
 73
     1
 44
1.0
  0
POINT
  5
5AC0
330
2F97
100
AcDbEntity
  8
Defpoints
 62
     0
100
AcDbPoint
 10
587.8894908682105
 20
859.7409208324823
 30
0.0
  0
POINT
  5
5AC1
330
2F97
100
AcDbEntity
  8
Defpoints
 62
     0
100
AcDbPoint
 10
587.8894908682105
 20
835.7409208324822
 30
0.0
  0
POINT
  5
5AC2
330
2F97
100
AcDbEntity
  8
Defpoints
 62
     0
100
AcDbPoint
 10
583.7732492247306
 20
835.7409208324822
 30
0.0
  0
ENDBLK
  5
2F99
330
2F97
100
AcDbEntity
  8
0
100
AcDbBlockEnd
  0
BLOCK
  5
2FA4
330
2FA3
100
AcDbEntity
  8
0
100
AcDbBlockBegin
  2
*D27
 70
     1
 10
0.0
 20
0.0
 30
0.0
  3
*D27
  1

  0
LINE
  5
5AC3
330
2FA3
100
AcDbEntity
  8
AM_5 寸法線
 62
     3
100
AcDbLine
 10
592.4117079449479
 20
1059.740920832482
 30
0.0
 11
581.2732492247306
 21
1059.740920832482
 31
0.0
  0
LINE
  5
5AC4
330
2FA3
100
AcDbEntity
  8
AM_5 寸法線
 62
     3
100
AcDbLine
 10
592.722044811011
 20
859.7409208324823
 30
0.0
 11
581.2732492247306
 21
859.7409208324823
 31
0.0
  0
LINE
  5
5AC5
330
2FA3
100
AcDbEntity
  8
AM_5 寸法線
 62
     3
100
AcDbLine
 10
583.7732492247306
 20
1049.740920832482
 30
0.0
 11
583.7732492247306
 21
869.7409208324826
 31
0.0
  0
INSERT
  5
5AC6
330
2FA3
100
AcDbEntity
  8
AM_5 寸法線
 62
     3
100
AcDbBlockReference
  2
_Open30
 10
583.7732492247306
 20
1059.740920832482
 30
0.0
 41
10.0
 42
10.0
 43
10.0
 50
90.0
  0
INSERT
  5
5AC7
330
2FA3
100
AcDbEntity
  8
AM_5 寸法線
 62
     3
100
AcDbBlockReference
  2
_Open30
 10
583.7732492247306
 20
859.7409208324823
 30
0.0
 41
10.0
 42
10.0
 43
10.0
 50
270.0
  0
MTEXT
  5
5AC8
330
2FA3
100
AcDbEntity
  8
AM_5 寸法線
 62
     3
100
AcDbMText
 10
570.7732492247305
 20
959.7409208324828
 30
0.0
 40
14.0
 41
0.0
 46
0.0
 71
     5
 72
     1
  1
200
  7
SEISA
 11
0.0000000000000001
 21
1.0
 31
0.0
 73
     1
 44
1.0
  0
POINT
  5
5AC9
330
2FA3
100
AcDbEntity
  8
Defpoints
 62
     0
100
AcDbPoint
 10
594.9117079449479
 20
1059.740920832482
 30
0.0
  0
POINT
  5
5ACA
330
2FA3
100
AcDbEntity
  8
Defpoints
 62
     0
100
AcDbPoint
 10
595.2220448110109
 20
859.7409208324823
 30
0.0
  0
POINT
  5
5ACB
330
2FA3
100
AcDbEntity
  8
Defpoints
 62
     0
100
AcDbPoint
 10
583.7732492247306
 20
859.7409208324823
 30
0.0
  0
ENDBLK
  5
2FA5
330
2FA3
100
AcDbEntity
  8
0
100
AcDbBlockEnd
  0
BLOCK
  5
2FC8
330
2FC7
100
AcDbEntity
  8
0
100
AcDbBlockBegin
  2
*D28
 70
     1
 10
0.0
 20
0.0
 30
0.0
  3
*D28
  1

  0
LINE
  5
5F7F
330
2FC7
100
AcDbEntity
  8
AM_5 寸法線
 62
     3
100
AcDbLine
 10
810.9592569612175
 20
1013.740920832482
 30
0.0
 11
949.9592569612175
 21
1013.740920832482
 31
0.0
  0
LINE
  5
5F80
330
2FC7
100
AcDbEntity
  8
AM_5 寸法線
 62
     3
100
AcDbLine
 10
810.9592569612175
 20
681.7409208324825
 30
0.0
 11
949.9592569612175
 21
681.7409208324825
 31
0.0
  0
LINE
  5
5F81
330
2FC7
100
AcDbEntity
  8
AM_5 寸法線
 62
     3
100
AcDbLine
 10
947.4592569612177
 20
1003.740920832482
 30
0.0
 11
947.4592569612177
 21
691.7409208324824
 31
0.0
  0
INSERT
  5
5F82
330
2FC7
100
AcDbEntity
  8
AM_5 寸法線
 62
     3
100
AcDbBlockReference
  2
_Open30
 10
947.4592569612177
 20
1013.740920832482
 30
0.0
 41
10.0
 42
10.0
 43
10.0
 50
90.0
  0
INSERT
  5
5F83
330
2FC7
100
AcDbEntity
  8
AM_5 寸法線
 62
     3
100
AcDbBlockReference
  2
_Open30
 10
947.4592569612177
 20
681.7409208324825
 30
0.0
 41
10.0
 42
10.0
 43
10.0
 50
270.0
  0
MTEXT
  5
5F84
330
2FC7
100
AcDbEntity
  8
AM_5 寸法線
 62
     3
100
AcDbMText
 10
934.4592569612172
 20
847.7409208324823
 30
0.0
 40
14.0
 41
0.0
 46
0.0
 71
     5
 72
     1
  1
332
  7
SEISA
 11
0.0000000000000001
 21
1.0
 31
0.0
 73
     1
 44
1.0
  0
POINT
  5
5F85
330
2FC7
100
AcDbEntity
  8
Defpoints
 62
     0
100
AcDbPoint
 10
808.4592569612173
 20
1013.740920832482
 30
0.0
  0
POINT
  5
5F86
330
2FC7
100
AcDbEntity
  8
Defpoints
 62
     0
100
AcDbPoint
 10
808.4592569612173
 20
681.7409208324825
 30
0.0
  0
POINT
  5
5F87
330
2FC7
100
AcDbEntity
  8
Defpoints
 62
     0
100
AcDbPoint
 10
947.4592569612177
 20
681.7409208324825
 30
0.0
  0
ENDBLK
  5
2FC9
330
2FC7
100
AcDbEntity
  8
0
100
AcDbBlockEnd
  0
BLOCK
  5
3012
330
3011
100
AcDbEntity
  8
0
100
AcDbBlockBegin
  2
*D29
 70
     1
 10
0.0
 20
0.0
 30
0.0
  3
*D29
  1

  0
LINE
  5
5B1C
330
3011
100
AcDbEntity
  8
AM_5 寸法線
 62
     3
100
AcDbLine
 10
848.9592569612176
 20
872.7409208324823
 30
0.0
 11
909.9592569612177
 21
872.7409208324823
 31
0.0
  0
LINE
  5
5B1D
330
3011
100
AcDbEntity
  8
AM_5 寸法線
 62
     3
100
AcDbLine
 10
848.9592569612172
 20
847.7409208324823
 30
0.0
 11
909.9592569612177
 21
847.7409208324823
 31
0.0
  0
LINE
  5
5B1E
330
3011
100
AcDbEntity
  8
AM_5 寸法線
 62
     3
100
AcDbLine
 10
907.4592569612176
 20
837.7409208324824
 30
0.0
 11
907.4592569612176
 21
827.7409208324826
 31
0.0
  0
LINE
  5
5B1F
330
3011
100
AcDbEntity
  8
AM_5 寸法線
 62
     3
100
AcDbLine
 10
907.4592569612176
 20
882.7409208324823
 30
0.0
 11
907.4592569612176
 21
925.1409208324822
 31
0.0
  0
LINE
  5
5B20
330
3011
100
AcDbEntity
  8
AM_5 寸法線
 62
     3
100
AcDbLine
 10
907.4592569612176
 20
847.7409208324823
 30
0.0
 11
907.4592569612176
 21
872.7409208324823
 31
0.0
  0
INSERT
  5
5B21
330
3011
100
AcDbEntity
  8
AM_5 寸法線
 62
     3
100
AcDbBlockReference
  2
GENDOT
 10
907.4592569612176
 20
847.7409208324823
 30
0.0
 41
10.0
 42
10.0
 43
10.0
 50
90.0
  0
INSERT
  5
5B22
330
3011
100
AcDbEntity
  8
AM_5 寸法線
 62
     3
100
AcDbBlockReference
  2
_Open30
 10
907.4592569612176
 20
872.7409208324823
 30
0.0
 41
10.0
 42
10.0
 43
10.0
 50
270.0
  0
MTEXT
  5
5B23
330
3011
100
AcDbEntity
  8
AM_5 寸法線
 62
     3
100
AcDbMText
 10
894.4592569612176
 20
908.9409208324827
 30
0.0
 40
14.0
 41
0.0
 46
0.0
 71
     5
 72
     1
  1
25
  7
SEISA
 11
0.0000000000000001
 21
1.0
 31
0.0
 73
     1
 44
1.0
  0
POINT
  5
5B24
330
3011
100
AcDbEntity
  8
Defpoints
 62
     0
100
AcDbPoint
 10
846.4592569612175
 20
872.7409208324823
 30
0.0
  0
POINT
  5
5B25
330
3011
100
AcDbEntity
  8
Defpoints
 62
     0
100
AcDbPoint
 10
846.4592569612172
 20
847.7409208324823
 30
0.0
  0
POINT
  5
5B26
330
3011
100
AcDbEntity
  8
Defpoints
 62
     0
100
AcDbPoint
 10
907.4592569612176
 20
847.7409208324823
 30
0.0
  0
ENDBLK
  5
3013
330
3011
100
AcDbEntity
  8
0
100
AcDbBlockEnd
  0
BLOCK
  5
301F
330
301E
100
AcDbEntity
  8
0
100
AcDbBlockBegin
  2
*D30
 70
     1
 10
0.0
 20
0.0
 30
0.0
  3
*D30
  1

  0
LINE
  5
5B27
330
301E
100
AcDbEntity
  8
AM_5 寸法線
 62
     3
100
AcDbLine
 10
848.9592569612176
 20
847.7409208324823
 30
0.0
 11
909.9592569612177
 21
847.7409208324823
 31
0.0
  0
LINE
  5
5B28
330
301E
100
AcDbEntity
  8
AM_5 寸法線
 62
     3
100
AcDbLine
 10
848.9592569612172
 20
822.7409208324823
 30
0.0
 11
909.9592569612177
 21
822.7409208324823
 31
0.0
  0
LINE
  5
5B29
330
301E
100
AcDbEntity
  8
AM_5 寸法線
 62
     3
100
AcDbLine
 10
907.4592569612176
 20
857.7409208324823
 30
0.0
 11
907.4592569612176
 21
867.7409208324823
 31
0.0
  0
LINE
  5
5B2A
330
301E
100
AcDbEntity
  8
AM_5 寸法線
 62
     3
100
AcDbLine
 10
907.4592569612176
 20
812.7409208324824
 30
0.0
 11
907.4592569612176
 21
770.3409208324824
 31
0.0
  0
LINE
  5
5B2B
330
301E
100
AcDbEntity
  8
AM_5 寸法線
 62
     3
100
AcDbLine
 10
907.4592569612176
 20
847.7409208324823
 30
0.0
 11
907.4592569612176
 21
822.7409208324823
 31
0.0
  0
INSERT
  5
5B2C
330
301E
100
AcDbEntity
  8
AM_5 寸法線
 62
     3
100
AcDbBlockReference
  2
GENDOT
 10
907.4592569612176
 20
847.7409208324823
 30
0.0
 41
10.0
 42
10.0
 43
10.0
 50
270.0
  0
INSERT
  5
5B2D
330
301E
100
AcDbEntity
  8
AM_5 寸法線
 62
     3
100
AcDbBlockReference
  2
_Open30
 10
907.4592569612176
 20
822.7409208324823
 30
0.0
 41
10.0
 42
10.0
 43
10.0
 50
90.0
  0
MTEXT
  5
5B2E
330
301E
100
AcDbEntity
  8
AM_5 寸法線
 62
     3
100
AcDbMText
 10
894.4592569612172
 20
786.5409208324828
 30
0.0
 40
14.0
 41
0.0
 46
0.0
 71
     5
 72
     1
  1
25
  7
SEISA
 11
0.0000000000000001
 21
1.0
 31
0.0
 73
     1
 44
1.0
  0
POINT
  5
5B2F
330
301E
100
AcDbEntity
  8
Defpoints
 62
     0
100
AcDbPoint
 10
846.4592569612175
 20
847.7409208324823
 30
0.0
  0
POINT
  5
5B30
330
301E
100
AcDbEntity
  8
Defpoints
 62
     0
100
AcDbPoint
 10
846.4592569612172
 20
822.7409208324823
 30
0.0
  0
POINT
  5
5B31
330
301E
100
AcDbEntity
  8
Defpoints
 62
     0
100
AcDbPoint
 10
907.4592569612176
 20
822.7409208324823
 30
0.0
  0
ENDBLK
  5
3020
330
301E
100
AcDbEntity
  8
0
100
AcDbBlockEnd
  0
BLOCK
  5
302B
330
302A
100
AcDbEntity
  8
0
100
AcDbBlockBegin
  2
*D31
 70
     1
 10
0.0
 20
0.0
 30
0.0
  3
*D31
  1

  0
LINE
  5
5B32
330
302A
100
AcDbEntity
  8
AM_5 寸法線
 62
     3
100
AcDbLine
 10
762.9592569612177
 20
1059.740920832482
 30
0.0
 11
989.9592569612176
 21
1059.740920832482
 31
0.0
  0
LINE
  5
5B33
330
302A
100
AcDbEntity
  8
AM_5 寸法線
 62
     3
100
AcDbLine
 10
762.9592569612177
 20
635.7409208324825
 30
0.0
 11
989.9592569612176
 21
635.7409208324824
 31
0.0
  0
LINE
  5
5B34
330
302A
100
AcDbEntity
  8
AM_5 寸法線
 62
     3
100
AcDbLine
 10
987.4592569612175
 20
1049.740920832482
 30
0.0
 11
987.4592569612175
 21
645.7409208324824
 31
0.0
  0
INSERT
  5
5B35
330
302A
100
AcDbEntity
  8
AM_5 寸法線
 62
     3
100
AcDbBlockReference
  2
_Open30
 10
987.4592569612175
 20
1059.740920832482
 30
0.0
 41
10.0
 42
10.0
 43
10.0
 50
90.0
  0
INSERT
  5
5B36
330
302A
100
AcDbEntity
  8
AM_5 寸法線
 62
     3
100
AcDbBlockReference
  2
_Open30
 10
987.4592569612175
 20
635.7409208324824
 30
0.0
 41
10.0
 42
10.0
 43
10.0
 50
270.0
  0
MTEXT
  5
5B37
330
302A
100
AcDbEntity
  8
AM_5 寸法線
 62
     3
100
AcDbMText
 10
974.4592569612176
 20
847.7409208324823
 30
0.0
 40
14.0
 41
0.0
 46
0.0
 71
     5
 72
     1
  1
424
  7
SEISA
 11
0.0000000000000001
 21
1.0
 31
0.0
 73
     1
 44
1.0
  0
POINT
  5
5B38
330
302A
100
AcDbEntity
  8
Defpoints
 62
     0
100
AcDbPoint
 10
760.4592569612178
 20
1059.740920832482
 30
0.0
  0
POINT
  5
5B39
330
302A
100
AcDbEntity
  8
Defpoints
 62
     0
100
AcDbPoint
 10
760.4592569612178
 20
635.7409208324825
 30
0.0
  0
POINT
  5
5B3A
330
302A
100
AcDbEntity
  8
Defpoints
 62
     0
100
AcDbPoint
 10
987.4592569612175
 20
635.7409208324824
 30
0.0
  0
ENDBLK
  5
302C
330
302A
100
AcDbEntity
  8
0
100
AcDbBlockEnd
  0
BLOCK
  5
4705
330
4704
100
AcDbEntity
  8
0
100
AcDbBlockBegin
  2
スラストピン CMVH450
 70
     0
 10
0.0
 20
0.0
 30
0.0
  3
スラストピン CMVH450
  1

  0
LINE
  5
4707
330
4704
100
AcDbEntity
  8
AM_0 外形線1
100
AcDbLine
 10
0.0
 20
-10.0
 30
0.0
 11
-32.5
 21
-10.0
 31
0.0
  0
LINE
  5
4708
330
4704
100
AcDbEntity
  8
AM_0 外形線1
100
AcDbLine
 10
0.0
 20
0.0
 30
0.0
 11
-22.5
 21
0.0
 31
0.0
  0
LINE
  5
4709
330
4704
100
AcDbEntity
  8
AM_0 外形線1
100
AcDbLine
 10
-32.5
 20
-12.942632
 30
0.0
 11
0.0
 21
-12.942632
 31
0.0
  0
ARC
  5
470A
330
4704
100
AcDbEntity
  8
AM_0 外形線1
100
AcDbCircle
 10
0.0
 20
485.9999999999997
 30
0.0
 40
500.0
100
AcDbArc
 50
266.2731469999988
 51
270.0
  0
LINE
  5
470B
330
4704
100
AcDbEntity
  8
AM_0 外形線1
100
AcDbLine
 10
-32.5
 20
-12.942632
 30
0.0
 11
-32.5
 21
-10.0
 31
0.0
  0
LINE
  5
4722
330
4704
100
AcDbEntity
  8
AM_0 外形線1
100
AcDbLine
 10
-22.5
 20
0.0
 30
0.0
 11
-22.5
 21
-10.0
 31
0.0
  0
ENDBLK
  5
4706
330
4704
100
AcDbEntity
  8
0
100
AcDbBlockEnd
  0
BLOCK
  5
5D96
330
5D95
100
AcDbEntity
  8
0
100
AcDbBlockBegin
  2
*D33
 70
     1
 10
0.0
 20
0.0
 30
0.0
  3
*D33
  1

  0
LINE
  5
5DBB
330
5D95
100
AcDbEntity
  8
AM_5 寸法線
 62
     3
100
AcDbLine
 10
433.9592569612176
 20
612.7409208324825
 30
0.0
 11
373.9592569612177
 21
612.7409208324825
 31
0.0
  0
LINE
  5
5DBC
330
5D95
100
AcDbEntity
  8
AM_5 寸法線
 62
     3
100
AcDbLine
 10
481.9592569612176
 20
635.7409208324825
 30
0.0
 11
373.9592569612177
 21
635.7409208324825
 31
0.0
  0
LINE
  5
5DBD
330
5D95
100
AcDbEntity
  8
AM_5 寸法線
 62
     3
100
AcDbLine
 10
376.4592569612176
 20
602.7409208324825
 30
0.0
 11
376.4592569612176
 21
592.7409208324823
 31
0.0
  0
LINE
  5
5DBE
330
5D95
100
AcDbEntity
  8
AM_5 寸法線
 62
     3
100
AcDbLine
 10
376.4592569612176
 20
645.7409208324825
 30
0.0
 11
376.4592569612176
 21
688.1409208324825
 31
0.0
  0
LINE
  5
5DBF
330
5D95
100
AcDbEntity
  8
AM_5 寸法線
 62
     3
100
AcDbLine
 10
376.4592569612176
 20
612.7409208324825
 30
0.0
 11
376.4592569612176
 21
635.7409208324825
 31
0.0
  0
INSERT
  5
5DC0
330
5D95
100
AcDbEntity
  8
AM_5 寸法線
 62
     3
100
AcDbBlockReference
  2
_Open30
 10
376.4592569612176
 20
612.7409208324825
 30
0.0
 41
10.0
 42
10.0
 43
10.0
 50
90.0
  0
INSERT
  5
5DC1
330
5D95
100
AcDbEntity
  8
AM_5 寸法線
 62
     3
100
AcDbBlockReference
  2
_Open30
 10
376.4592569612176
 20
635.7409208324825
 30
0.0
 41
10.0
 42
10.0
 43
10.0
 50
270.0
  0
MTEXT
  5
5DC2
330
5D95
100
AcDbEntity
  8
AM_5 寸法線
 62
     3
100
AcDbMText
 10
363.4592569612177
 20
671.9409208324825
 30
0.0
 40
14.0
 41
0.0
 46
0.0
 71
     5
 72
     1
  1
23
  7
SEISA
 11
0.0000000000000001
 21
1.0
 31
0.0
 73
     1
 44
1.0
  0
POINT
  5
5DC3
330
5D95
100
AcDbEntity
  8
Defpoints
 62
     0
100
AcDbPoint
 10
436.4592569612177
 20
612.7409208324825
 30
0.0
  0
POINT
  5
5DC4
330
5D95
100
AcDbEntity
  8
Defpoints
 62
     0
100
AcDbPoint
 10
484.4592569612176
 20
635.7409208324825
 30
0.0
  0
POINT
  5
5DC5
330
5D95
100
AcDbEntity
  8
Defpoints
 62
     0
100
AcDbPoint
 10
376.4592569612176
 20
635.7409208324825
 30
0.0
  0
ENDBLK
  5
5D97
330
5D95
100
AcDbEntity
  8
0
100
AcDbBlockEnd
  0
BLOCK
  5
5E1C
330
5E1B
100
AcDbEntity
  8
0
100
AcDbBlockBegin
  2
*D34
 70
     1
 10
0.0
 20
0.0
 30
0.0
  3
*D34
  1

  0
LINE
  5
5E6E
330
5E1B
100
AcDbEntity
  8
AM_5 寸法線
 62
     3
100
AcDbLine
 10
479.4592569612176
 20
718.7409208324823
 30
0.0
 11
525.6567603067868
 21
718.7409208324823
 31
0.0
  0
LINE
  5
5E6F
330
5E1B
100
AcDbEntity
  8
AM_5 寸法線
 62
     3
100
AcDbLine
 10
481.4592569612178
 20
774.7409208324824
 30
0.0
 11
525.6567603067868
 21
774.7409208324824
 31
0.0
  0
LINE
  5
5E70
330
5E1B
100
AcDbEntity
  8
AM_5 寸法線
 62
     3
100
AcDbLine
 10
523.1567603067868
 20
728.7409208324824
 30
0.0
 11
523.1567603067868
 21
764.7409208324823
 31
0.0
  0
INSERT
  5
5E71
330
5E1B
100
AcDbEntity
  8
AM_5 寸法線
 62
     3
100
AcDbBlockReference
  2
_Open30
 10
523.1567603067868
 20
718.7409208324823
 30
0.0
 41
10.0
 42
10.0
 43
10.0
 50
270.0
  0
INSERT
  5
5E72
330
5E1B
100
AcDbEntity
  8
AM_5 寸法線
 62
     3
100
AcDbBlockReference
  2
_Open30
 10
523.1567603067868
 20
774.7409208324824
 30
0.0
 41
10.0
 42
10.0
 43
10.0
 50
90.0
  0
MTEXT
  5
5E73
330
5E1B
100
AcDbEntity
  8
AM_5 寸法線
 62
     3
100
AcDbMText
 10
510.1567603067866
 20
746.7409208324826
 30
0.0
 40
14.0
 41
0.0
 46
0.0
 71
     5
 72
     1
  1
56
  7
SEISA
 11
0.0000000000000001
 21
1.0
 31
0.0
 73
     1
 44
1.0
  0
POINT
  5
5E74
330
5E1B
100
AcDbEntity
  8
Defpoints
 62
     0
100
AcDbPoint
 10
476.9592569612178
 20
718.7409208324823
 30
0.0
  0
POINT
  5
5E75
330
5E1B
100
AcDbEntity
  8
Defpoints
 62
     0
100
AcDbPoint
 10
478.9592569612176
 20
774.7409208324824
 30
0.0
  0
POINT
  5
5E76
330
5E1B
100
AcDbEntity
  8
Defpoints
 62
     0
100
AcDbPoint
 10
523.1567603067868
 20
774.7409208324824
 30
0.0
  0
ENDBLK
  5
5E1D
330
5E1B
100
AcDbEntity
  8
0
100
AcDbBlockEnd
  0
BLOCK
  5
5E46
330
5E45
100
AcDbEntity
  8
0
100
AcDbBlockBegin
  2
*D35
 70
     1
 10
0.0
 20
0.0
 30
0.0
  3
*D35
  1

  0
LINE
  5
606E
330
5E45
100
AcDbEntity
  8
AM_5 寸法線
 62
     3
100
AcDbLine
 10
481.4592569612178
 20
774.7409208324824
 30
0.0
 11
525.6567603067868
 21
774.7409208324824
 31
0.0
  0
LINE
  5
606F
330
5E45
100
AcDbEntity
  8
AM_5 寸法線
 62
     3
100
AcDbLine
 10
506.8080086340024
 20
835.7409208324822
 30
0.0
 11
525.6567603067868
 21
835.7409208324822
 31
0.0
  0
LINE
  5
6070
330
5E45
100
AcDbEntity
  8
AM_5 寸法線
 62
     3
100
AcDbLine
 10
523.1567603067868
 20
784.7409208324823
 30
0.0
 11
523.1567603067868
 21
825.7409208324823
 31
0.0
  0
INSERT
  5
6071
330
5E45
100
AcDbEntity
  8
AM_5 寸法線
 62
     3
100
AcDbBlockReference
  2
_Open30
 10
523.1567603067868
 20
774.7409208324824
 30
0.0
 41
10.0
 42
10.0
 43
10.0
 50
270.0
  0
INSERT
  5
6072
330
5E45
100
AcDbEntity
  8
AM_5 寸法線
 62
     3
100
AcDbBlockReference
  2
_Open30
 10
523.1567603067868
 20
835.7409208324822
 30
0.0
 41
10.0
 42
10.0
 43
10.0
 50
90.0
  0
MTEXT
  5
6073
330
5E45
100
AcDbEntity
  8
AM_5 寸法線
 62
     3
100
AcDbMText
 10
510.1567603067866
 20
805.2409208324826
 30
0.0
 40
14.0
 41
0.0
 46
0.0
 71
     5
 72
     1
  1
61
  7
SEISA
 11
0.0000000000000001
 21
1.0
 31
0.0
 73
     1
 44
1.0
  0
POINT
  5
6074
330
5E45
100
AcDbEntity
  8
Defpoints
 62
     0
100
AcDbPoint
 10
478.9592569612176
 20
774.7409208324824
 30
0.0
  0
POINT
  5
6075
330
5E45
100
AcDbEntity
  8
Defpoints
 62
     0
100
AcDbPoint
 10
504.3080086340022
 20
835.7409208324822
 30
0.0
  0
POINT
  5
6076
330
5E45
100
AcDbEntity
  8
Defpoints
 62
     0
100
AcDbPoint
 10
523.1567603067868
 20
835.7409208324822
 30
0.0
  0
ENDBLK
  5
5E47
330
5E45
100
AcDbEntity
  8
0
100
AcDbBlockEnd
  0
BLOCK
  5
617E
330
617D
100
AcDbEntity
  8
0
100
AcDbBlockBegin
  2
ＧＣサイドカバ－ CMVH450
 70
     0
 10
0.0
 20
0.0
 30
0.0
  3
ＧＣサイドカバ－ CMVH450
  1

  0
LINE
  5
6180
330
617D
100
AcDbEntity
  8
AM_11 想像線
 48
0.1
100
AcDbLine
 10
-35.60401000000002
 20
-33.0
 30
0.0
 11
3.895989999999982
 21
-33.0
 31
0.0
  0
LINE
  5
6181
330
617D
100
AcDbEntity
  8
AM_11 想像線
 48
0.1
100
AcDbLine
 10
-24.60401000000002
 20
3.425936623873781
 30
0.0
 11
-24.60401000000002
 21
-46.81931700000006
 31
0.0
  0
LINE
  5
6182
102
{ACAD_REACTORS
330
5DA4
102
}
330
617D
100
AcDbEntity
  8
AM_11 想像線
 48
0.1
100
AcDbLine
 10
-35.60401000000002
 20
-2.0
 30
0.0
 11
-35.60401000000002
 21
-33.0
 31
0.0
  0
LINE
  5
6183
330
617D
100
AcDbEntity
  8
AM_11 想像線
 48
0.1
100
AcDbLine
 10
-1.654010000000198
 20
-28.60000000000002
 30
0.0
 11
-1.654010000000198
 21
-17.40000000000009
 31
0.0
  0
LINE
  5
6184
330
617D
100
AcDbEntity
  8
AM_11 想像線
 48
0.1
100
AcDbLine
 10
3.895989999999982
 20
-28.60000000000002
 30
0.0
 11
-1.654010000000198
 21
-28.60000000000002
 31
0.0
  0
LINE
  5
6185
330
617D
100
AcDbEntity
  8
AM_11 想像線
 48
0.1
100
AcDbLine
 10
3.895989999999982
 20
-33.0
 30
0.0
 11
3.895989999999982
 21
-28.60000000000002
 31
0.0
  0
LINE
  5
6186
330
617D
100
AcDbEntity
  8
AM_11 想像線
 48
0.1
100
AcDbLine
 10
3.895989999999982
 20
-28.60000000000002
 30
0.0
 11
5.395989999999983
 21
-28.60000000000002
 31
0.0
  0
LINE
  5
6187
330
617D
100
AcDbEntity
  8
AM_11 想像線
 48
0.1
100
AcDbLine
 10
3.895989999999982
 20
-33.0
 30
0.0
 11
5.395989999999983
 21
-33.0
 31
0.0
  0
LINE
  5
6188
330
617D
100
AcDbEntity
  8
AM_11 想像線
 48
0.1
100
AcDbLine
 10
-4.604010000000016
 20
-13.0
 30
0.0
 11
3.895989999999982
 21
-13.0
 31
0.0
  0
LINE
  5
6189
330
617D
100
AcDbEntity
  8
AM_11 想像線
 48
0.1
100
AcDbLine
 10
-1.654010000000198
 20
-17.40000000000009
 30
0.0
 11
3.895989999999982
 21
-17.40000000000009
 31
0.0
  0
LINE
  5
618A
330
617D
100
AcDbEntity
  8
AM_11 想像線
 48
0.1
100
AcDbLine
 10
-4.604010000000016
 20
-13.0
 30
0.0
 11
-4.604010000000016
 21
0.0
 31
0.0
  0
LINE
  5
618B
330
617D
100
AcDbEntity
  8
AM_11 想像線
 48
0.1
100
AcDbLine
 10
0.0
 20
0.0
 30
0.0
 11
-11.10401000000001
 21
0.0
 31
0.0
  0
LINE
  5
618C
330
617D
100
AcDbEntity
  8
AM_11 想像線
 48
0.1
100
AcDbLine
 10
-16.4040100000002
 20
-5.100000000000021
 30
0.0
 11
-16.4040100000002
 21
-2.0
 31
0.0
  0
LINE
  5
618D
330
617D
100
AcDbEntity
  8
AM_11 想像線
 48
0.1
100
AcDbLine
 10
-11.10401000000001
 20
-5.100000000000021
 30
0.0
 11
-16.4040100000002
 21
-5.100000000000021
 31
0.0
  0
LINE
  5
618E
330
617D
100
AcDbEntity
  8
AM_11 想像線
 48
0.1
100
AcDbLine
 10
-11.10401000000001
 20
-0.1009858659845122
 30
0.0
 11
-11.10401000000001
 21
-5.100000000000021
 31
0.0
  0
LINE
  5
618F
330
617D
100
AcDbEntity
  8
AM_11 想像線
 48
0.1
100
AcDbLine
 10
3.895989999999982
 20
-17.40000000000009
 30
0.0
 11
3.895989999999982
 21
-13.0
 31
0.0
  0
LINE
  5
6190
330
617D
100
AcDbEntity
  8
AM_11 想像線
 48
0.1
100
AcDbLine
 10
3.895989999999982
 20
-13.0
 30
0.0
 11
5.395989999999983
 21
-13.0
 31
0.0
  0
LINE
  5
6191
330
617D
100
AcDbEntity
  8
AM_11 想像線
 48
0.1
100
AcDbLine
 10
3.895989999999982
 20
-17.40000000000009
 30
0.0
 11
5.395989999999983
 21
-17.40000000000009
 31
0.0
  0
LINE
  5
6192
330
617D
100
AcDbEntity
  8
AM_11 想像線
 48
0.1
100
AcDbLine
 10
-35.60401000000002
 20
-2.0
 30
0.0
 11
-16.4040100000002
 21
-2.0
 31
0.0
  0
ENDBLK
  5
617F
330
617D
100
AcDbEntity
  8
0
100
AcDbBlockEnd
  0
ENDSEC
  0
SECTION
  2
ENTITIES
  0
LINE
  5
2E3D
330
1F
100
AcDbEntity
  8
AM_7 中心線
100
AcDbLine
 10
622.4592569612177
 20
845.7409208324826
 30
0.0
 11
622.4592569612177
 21
1076.138634500146
 31
0.0
  0
LINE
  5
2E3E
330
1F
100
AcDbEntity
  8
AM_0 外形線1
100
AcDbLine
 10
499.9592569612176
 20
835.7409208324822
 30
0.0
 11
622.4592569612177
 21
835.7409208324822
 31
0.0
  0
LINE
  5
2E41
330
1F
100
AcDbEntity
  8
AM_7 中心線
100
AcDbLine
 10
622.4592569612177
 20
845.7409208324826
 30
0.0
 11
622.4592569612177
 21
618.9583072115437
 31
0.0
  0
LINE
  5
2EE0
330
1F
100
AcDbEntity
  8
AM_0 外形線1
100
AcDbLine
 10
452.4592569612178
 20
855.7409208324823
 30
0.0
 11
452.4592569612178
 21
847.7409208324823
 31
0.0
  0
INSERT
  5
2EE1
102
{ACAD_REACTORS
330
2F24
102
}
330
1F
100
AcDbEntity
  8
AM_0 外形線1
100
AcDbBlockReference
  2
ケースB CMVH450
 10
622.4592569612177
 20
847.7409208324823
 30
0.0
  0
INSERT
  5
2EE2
102
{ACAD_REACTORS
330
2EF3
330
2EFC
330
2F02
330
2F2A
330
5DA4
330
5E28
102
}
330
1F
100
AcDbEntity
  8
AM_0 外形線1
100
AcDbBlockReference
  2
センタＡ CMVH450
 10
622.4592569612177
 20
835.7409208324822
 30
0.0
  0
INSERT
  5
2EE3
102
{ACAD_REACTORS
330
2EF0
330
2F05
330
2F08
330
2F2A
102
}
330
1F
100
AcDbEntity
  8
AM_0 外形線1
100
AcDbBlockReference
  2
センタB CMVH450
 10
622.4592569612177
 20
859.7409208324823
 30
0.0
  0
INSERT
  5
2EE4
102
{ACAD_REACTORS
330
2F11
330
2EFC
330
2EF6
102
}
330
1F
100
AcDbEntity
  8
AM_0 外形線1
100
AcDbBlockReference
  2
ＧＣサイドカバ－A CMVH450
 10
622.4592569612177
 20
712.7409208324824
 30
0.0
  0
INSERT
  5
2EE5
330
1F
100
AcDbEntity
  8
AM_0 外形線1
100
AcDbBlockReference
  2
ＧＣサイドカバ－B CMVH450
 10
622.4592569612177
 20
982.7409208324823
 30
0.0
  0
INSERT
  5
2EE6
102
{ACAD_REACTORS
330
2F02
330
2F05
102
}
330
1F
100
AcDbEntity
  8
AM_0 外形線1
100
AcDbBlockReference
  2
スラストプレ－ト CMVH450
 10
622.4592569612177
 20
835.7409208324822
 30
0.0
  0
INSERT
  5
2EE7
330
1F
100
AcDbEntity
  8
AM_0 外形線1
100
AcDbBlockReference
  2
イタ CMVH450
 10
622.4592569612177
 20
855.7409208324823
 30
0.0
  0
INSERT
  5
2EE8
330
1F
100
AcDbEntity
  8
AM_0 外形線1
100
AcDbBlockReference
  2
リーマボルト CMVH450 M20
 10
417.4592569612176
 20
822.7409208324823
 30
0.0
  0
INSERT
  5
2EE9
102
{ACAD_REACTORS
330
2EF9
330
2F24
330
2F27
102
}
330
1F
100
AcDbEntity
  8
AM_0 外形線1
100
AcDbBlockReference
  2
ケースＡ CMVH450
 10
622.4592569612177
 20
847.7409208324823
 30
0.0
  0
DIMENSION
  5
2EEE
102
{ACAD_XDICTIONARY
360
2EEF
102
}
102
{ACAD_REACTORS
330
2EF0
102
}
330
1F
100
AcDbEntity
  8
AM_5 寸法線
100
AcDbDimension
  2
*D20
 10
477.4592569612178
 20
1139.740920832482
 30
0.0
 11
622.4592569612176
 21
1152.740920832482
 31
0.0
 70
    32
  1
%%c<>
 71
     5
 42
289.9999999999998
 73
     0
 74
     0
 75
     0
  3
SEISA$0
100
AcDbAlignedDimension
 13
767.4592569612175
 23
1019.740920832482
 33
0.0
 14
477.4592569612178
 24
1019.740920832482
 34
0.0
100
AcDbRotatedDimension
1001
ACAD_DSTYLE_DIMINSPECT
1070
   396
1000
100%
1070
   395
1000

1070
   394
1070
    33
1070
   393
1070
     0
  0
DIMENSION
  5
2EF1
102
{ACAD_XDICTIONARY
360
2EF2
102
}
102
{ACAD_REACTORS
330
2EF3
102
}
330
1F
100
AcDbEntity
  8
AM_5 寸法線
100
AcDbDimension
  2
*D21
 10
767.4592569612175
 20
555.7409208324825
 30
0.0
 11
622.4592569612176
 21
568.7409208324825
 31
0.0
 70
    32
  1
%%c<>
 71
     5
 42
289.9999999999998
 73
     0
 74
     0
 75
     0
  3
SEISA$0
100
AcDbAlignedDimension
 13
477.4592569612178
 23
675.7409208324824
 33
0.0
 14
767.4592569612175
 24
675.7409208324824
 34
0.0
100
AcDbRotatedDimension
1001
ACAD_DSTYLE_DIMINSPECT
1070
   396
1000
100%
1070
   395
1000

1070
   394
1070
    33
1070
   393
1070
     0
1001
ACAD
1000
DSTYLE
1002
{
1070
   279
1070
     0
1002
}
  0
DIMENSION
  5
2EF4
102
{ACAD_XDICTIONARY
360
2EF5
102
}
102
{ACAD_REACTORS
330
2EF6
102
}
330
1F
100
AcDbEntity
  8
AM_5 寸法線
100
AcDbDimension
  2
*D22
 10
808.4592569612173
 20
515.7409208324825
 30
0.0
 11
622.4592569612176
 21
515.7409208324825
 31
0.0
 70
   160
  1
%%c<>
 71
     5
 42
371.9999999999998
 73
     0
 74
     0
 75
     0
  3
SEISA$0
100
AcDbAlignedDimension
 13
436.4592569612177
 23
681.7409208324825
 33
0.0
 14
808.4592569612173
 24
681.7409208324825
 34
0.0
100
AcDbRotatedDimension
1001
ACAD_DSTYLE_DIMINSPECT
1070
   396
1000
100%
1070
   395
1000

1070
   394
1070
    33
1070
   393
1070
     0
1001
ACAD
1000
DSTYLE
1002
{
1070
   279
1070
     0
1002
}
  0
DIMENSION
  5
2EF7
102
{ACAD_XDICTIONARY
360
2EF8
102
}
102
{ACAD_REACTORS
330
2EF9
102
}
330
1F
100
AcDbEntity
  8
AM_5 寸法線
100
AcDbDimension
  2
*D23
 10
847.4592569612175
 20
475.7409208324824
 30
0.0
 11
622.4592569612176
 21
475.7409208324824
 31
0.0
 70
   160
  1
%%c<>
 71
     5
 42
449.9999999999998
 73
     0
 74
     0
 75
     0
  3
SEISA$0
100
AcDbAlignedDimension
 13
397.4592569612178
 23
823.7409208324823
 33
0.0
 14
847.4592569612175
 24
823.7409208324823
 34
0.0
100
AcDbRotatedDimension
1001
ACAD_DSTYLE_DIMINSPECT
1070
   396
1000
100%
1070
   395
1000

1070
   394
1070
    33
1070
   393
1070
     0
1001
ACAD
1000
DSTYLE
1002
{
1070
   279
1070
     0
1002
}
  0
DIMENSION
  5
2EFA
102
{ACAD_XDICTIONARY
360
2EFB
102
}
102
{ACAD_REACTORS
330
2EFC
102
}
330
1F
100
AcDbEntity
  8
AM_5 寸法線
100
AcDbDimension
  2
*D24
 10
523.1567603067868
 20
714.7409208324823
 30
0.0
 11
510.1567603067866
 21
684.2409208324826
 31
0.0
 70
    32
 71
     5
 42
4.0
 73
     0
 74
     0
 75
     0
  3
SEISA$0
100
AcDbAlignedDimension
 13
476.9592569612178
 23
718.7409208324823
 33
0.0
 14
472.0632669612178
 24
714.7409208324823
 34
0.0
 50
90.0
100
AcDbRotatedDimension
  0
DIMENSION
  5
2F00
102
{ACAD_XDICTIONARY
360
2F01
102
}
102
{ACAD_REACTORS
330
2F02
102
}
330
1F
100
AcDbEntity
  8
AM_5 寸法線
100
AcDbDimension
  2
*D25
 10
583.7732492247305
 20
635.7409208324826
 30
0.0
 11
570.7732492247304
 21
735.7409208324827
 31
0.0
 70
    32
 71
     5
 42
199.9999999999999
 73
     0
 74
     0
 75
     0
  3
SEISA$0
100
AcDbAlignedDimension
 13
584.468023729356
 23
835.7409208324822
 33
0.0
 14
583.1542577553262
 24
635.7409208324826
 34
0.0
 50
90.0
100
AcDbRotatedDimension
  0
DIMENSION
  5
2F03
102
{ACAD_XDICTIONARY
360
2F04
102
}
102
{ACAD_REACTORS
330
2F05
102
}
330
1F
100
AcDbEntity
  8
AM_5 寸法線
100
AcDbDimension
  2
*D26
 10
583.7732492247306
 20
835.7409208324822
 30
0.0
 11
570.7732492247304
 21
799.2409208324826
 31
0.0
 70
    32
 71
     5
 42
24.0
 73
     0
 74
     0
 75
     0
  3
SEISA$0
100
AcDbAlignedDimension
 13
587.8894908682105
 23
859.7409208324823
 33
0.0
 14
587.8894908682105
 24
835.7409208324822
 34
0.0
 50
90.0
100
AcDbRotatedDimension
  0
DIMENSION
  5
2F06
102
{ACAD_XDICTIONARY
360
2F07
102
}
102
{ACAD_REACTORS
330
2F08
102
}
330
1F
100
AcDbEntity
  8
AM_5 寸法線
100
AcDbDimension
  2
*D27
 10
583.7732492247306
 20
859.7409208324823
 30
0.0
 11
570.7732492247305
 21
959.7409208324828
 31
0.0
 70
    32
 71
     5
 42
200.0000000000001
 73
     0
 74
     0
 75
     0
  3
SEISA$0
100
AcDbAlignedDimension
 13
594.9117079449479
 23
1059.740920832482
 33
0.0
 14
595.2220448110109
 24
859.7409208324823
 34
0.0
 50
90.0
100
AcDbRotatedDimension
  0
DIMENSION
  5
2F0F
102
{ACAD_XDICTIONARY
360
2F10
102
}
102
{ACAD_REACTORS
330
2F11
102
}
330
1F
100
AcDbEntity
  8
AM_5 寸法線
100
AcDbDimension
  2
*D28
 10
947.4592569612177
 20
681.7409208324825
 30
0.0
 11
934.4592569612172
 21
847.7409208324823
 31
0.0
 70
    32
 71
     5
 42
332.0
 73
     0
 74
     0
 75
     0
  3
SEISA$0
100
AcDbAlignedDimension
 13
808.4592569612173
 23
1013.740920832482
 33
0.0
 14
808.4592569612173
 24
681.7409208324825
 34
0.0
 50
90.0
100
AcDbRotatedDimension
  0
DIMENSION
  5
2F22
102
{ACAD_XDICTIONARY
360
2F23
102
}
102
{ACAD_REACTORS
330
2F24
102
}
330
1F
100
AcDbEntity
  8
AM_5 寸法線
100
AcDbDimension
  2
*D29
 10
907.4592569612176
 20
847.7409208324823
 30
0.0
 11
907.4592569612176
 21
908.9409208324827
 31
0.0
 70
   160
 71
     5
 42
24.99999999999989
 73
     0
 74
     0
 75
     0
  3
SEISA$0
100
AcDbAlignedDimension
 13
846.4592569612175
 23
872.7409208324823
 33
0.0
 14
846.4592569612172
 24
847.7409208324823
 34
0.0
 50
90.0
100
AcDbRotatedDimension
1001
ACAD_DSTYLE_DIMINSPECT
1070
   396
1000
100%
1070
   395
1000

1070
   394
1070
    33
1070
   393
1070
     0
1001
ACAD
1000
DSTYLE
1002
{
1070
   173
1070
     1
1070
   342
1005
0
1070
   343
1005
69
1070
   344
1005
29D5
1002
}
  0
DIMENSION
  5
2F25
102
{ACAD_XDICTIONARY
360
2F26
102
}
102
{ACAD_REACTORS
330
2F27
102
}
330
1F
100
AcDbEntity
  8
AM_5 寸法線
100
AcDbDimension
  2
*D30
 10
907.4592569612176
 20
822.7409208324823
 30
0.0
 11
894.4592569612172
 21
786.5409208324828
 31
0.0
 70
    32
 71
     5
 42
25.0
 73
     0
 74
     0
 75
     0
  3
SEISA$0
100
AcDbAlignedDimension
 13
846.4592569612175
 23
847.7409208324823
 33
0.0
 14
846.4592569612172
 24
822.7409208324823
 34
0.0
 50
90.0
100
AcDbRotatedDimension
1001
ACAD_DSTYLE_DIMINSPECT
1070
   396
1000
100%
1070
   395
1000

1070
   394
1070
    33
1070
   393
1070
     0
1001
ACAD
1000
DSTYLE
1002
{
1070
   173
1070
     1
1070
   342
1005
0
1070
   343
1005
29D5
1070
   344
1005
69
1002
}
  0
DIMENSION
  5
2F28
102
{ACAD_XDICTIONARY
360
2F29
102
}
102
{ACAD_REACTORS
330
2F2A
102
}
330
1F
100
AcDbEntity
  8
AM_5 寸法線
100
AcDbDimension
  2
*D31
 10
987.4592569612175
 20
635.7409208324824
 30
0.0
 11
974.4592569612176
 21
847.7409208324823
 31
0.0
 70
    32
 71
     5
 42
424.0000000000001
 73
     0
 74
     0
 75
     0
  3
SEISA$0
100
AcDbAlignedDimension
 13
760.4592569612178
 23
1059.740920832482
 33
0.0
 14
760.4592569612178
 24
635.7409208324825
 34
0.0
 50
90.0
100
AcDbRotatedDimension
  0
INSERT
  5
470C
330
1F
100
AcDbEntity
  8
AM_0 外形線1
100
AcDbBlockReference
  2
スラストピン CMVH450
 10
622.4592569612177
 20
855.7409208324823
 30
0.0
  0
MTEXT
  5
5D77
330
1F
100
AcDbEntity
  8
AM_6 文字
100
AcDbMText
 10
884.1191128967958
 20
600.3660126155997
 30
0.0
 40
14.0
 41
227.6351336409143
 46
15.9103167730538
 71
     1
 72
     5
  1
{\W0.6;TYPE:CMV450/CMVH450\PSHAFT DIA:MAX/MIN φ205/φ140}
  7
SEISA
 73
     1
 44
1.0
  0
DIMENSION
  5
5D94
102
{ACAD_XDICTIONARY
360
5DA3
102
}
102
{ACAD_REACTORS
330
5DA4
102
}
330
1F
100
AcDbEntity
  8
AM_5 寸法線
100
AcDbDimension
  2
*D33
 10
376.4592569612176
 20
635.7409208324825
 30
0.0
 11
363.4592569612177
 21
671.9409208324825
 31
0.0
 70
    32
 71
     5
 42
23.0
 73
     0
 74
     0
 75
     0
  3
SEISA$0
100
AcDbAlignedDimension
 13
436.4592569612177
 23
612.7409208324825
 33
0.0
 14
484.4592569612176
 24
635.7409208324825
 34
0.0
 50
90.0
100
AcDbRotatedDimension
1001
ACAD_DSTYLE_DIMINSPECT
1070
   396
1000
100%
1070
   395
1000

1070
   394
1070
    33
1070
   393
1070
     0
  0
DIMENSION
  5
5E1A
102
{ACAD_XDICTIONARY
360
5E27
102
}
102
{ACAD_REACTORS
330
5E28
102
}
330
1F
100
AcDbEntity
  8
AM_5 寸法線
100
AcDbDimension
  2
*D34
 10
523.1567603067868
 20
774.7409208324824
 30
0.0
 11
510.1567603067866
 21
746.7409208324826
 31
0.0
 70
    32
 71
     5
 42
56.0
 73
     0
 74
     0
 75
     0
  3
SEISA$0
100
AcDbAlignedDimension
 13
476.9592569612178
 23
718.7409208324823
 33
0.0
 14
478.9592569612176
 24
774.7409208324824
 34
0.0
 50
90.00000000000005
100
AcDbRotatedDimension
1001
ACAD_DSTYLE_DIMINSPECT
1070
   396
1000
100%
1070
   395
1000

1070
   394
1070
    33
1070
   393
1070
     0
  0
DIMENSION
  5
5E44
330
1F
100
AcDbEntity
  8
AM_5 寸法線
100
AcDbDimension
  2
*D35
 10
523.1567603067868
 20
835.7409208324822
 30
0.0
 11
510.1567603067866
 21
805.2409208324826
 31
0.0
 70
    32
 71
     5
 42
61.0
 73
     0
 74
     0
 75
     0
  3
SEISA$0
100
AcDbAlignedDimension
 13
478.9592569612176
 23
774.7409208324824
 33
0.0
 14
504.3080086340022
 24
835.7409208324822
 34
0.0
 50
90.00000000000005
100
AcDbRotatedDimension
1001
ACAD_DSTYLE_DIMINSPECT
1070
   396
1000
100%
1070
   395
1000

1070
   394
1070
    33
1070
   393
1070
     0
  0
INSERT
  5
6193
330
1F
100
AcDbEntity
  8
AM_11 想像線
100
AcDbBlockReference
  2
ＧＣサイドカバ－ CMVH450
 10
472.0632669612178
 20
645.7409208324825
 30
0.0
  0
ENDSEC
  0
SECTION
  2
OBJECTS
  0
DICTIONARY
  5
C
330
0
100
AcDbDictionary
281
     1
  3
ACAD_COLOR
350
C5
  3
ACAD_GROUP
350
D
  3
ACAD_LAYOUT
350
1A
  3
ACAD_MATERIAL
350
C4
  3
ACAD_MLEADERSTYLE
350
2D5
  3
ACAD_MLINESTYLE
350
17
  3
ACAD_PLOTSETTINGS
350
19
  3
ACAD_PLOTSTYLENAME
350
E
  3
ACAD_SCALELIST
350
2B3
  3
ACAD_TABLESTYLE
350
121
  3
ACAD_VISUALSTYLE
350
27F
  3
ACDB_RECOMPOSE_DATA
350
2F7
  3
AcDbVariableDictionary
350
34
  3
AcmDictionary
350
49
  3
AMG
350
2B
  3
AMGSNAPSETTINGS
350
1DE
  0
DICTIONARY
  5
BF
330
2
100
AcDbDictionary
280
     1
281
     1
  3
ACAD_LAYERSTATES
360
2782
  3
AMLAYER_GROUPCOLORS
360
C0
  0
DICTIONARY
  5
4574
330
10
100
AcDbDictionary
280
     1
281
     1
  3
ADSK_XREC_LAYER_RECONCILED
360
4575
  0
DICTIONARY
  5
4576
330
81
100
AcDbDictionary
280
     1
281
     1
  3
ADSK_XREC_LAYER_RECONCILED
360
4577
  0
DICTIONARY
  5
457D
330
25C9
100
AcDbDictionary
280
     1
281
     1
  3
ADSK_XREC_LAYER_RECONCILED
360
457E
  0
DICTIONARY
  5
457F
330
25CA
100
AcDbDictionary
280
     1
281
     1
  3
ADSK_XREC_LAYER_RECONCILED
360
4580
  0
DICTIONARY
  5
4585
330
26B3
100
AcDbDictionary
280
     1
281
     1
  3
ADSK_XREC_LAYER_RECONCILED
360
4586
  0
DICTIONARY
  5
458B
330
2CFE
100
AcDbDictionary
280
     1
281
     1
  3
ADSK_XREC_LAYER_RECONCILED
360
458C
  0
DICTIONARY
  5
458D
330
2CFF
100
AcDbDictionary
280
     1
281
     1
  3
ADSK_XREC_LAYER_RECONCILED
360
458E
  0
DICTIONARY
  5
82
330
1F
100
AcDbDictionary
280
     1
281
     1
  3
ACAD_SORTENTS
360
A41
  0
DICTIONARY
  5
29DB
330
29DA
100
AcDbDictionary
280
     1
281
     1
  3
ACAD_SORTENTS
360
52C4
  0
DICTIONARY
  5
29F7
330
29F6
100
AcDbDictionary
280
     1
281
     1
  3
ACAD_SORTENTS
360
532F
  0
DICTIONARY
  5
2A12
330
2A11
100
AcDbDictionary
280
     1
281
     1
  3
ACAD_SORTENTS
360
53A8
  0
DICTIONARY
  5
2A51
330
2A50
100
AcDbDictionary
280
     1
281
     1
  3
ACAD_SORTENTS
360
54BC
  0
DICTIONARY
  5
550E
330
2A89
100
AcDbDictionary
280
     1
281
     1
  3
ACAD_SORTENTS
360
5EF2
  0
DICTIONARY
  5
5554
330
2AAD
100
AcDbDictionary
280
     1
281
     1
  3
ACAD_SORTENTS
360
5F37
  0
DICTIONARY
  5
2AD1
330
2AD0
100
AcDbDictionary
280
     1
281
     1
  3
ACAD_SORTENTS
360
617C
  0
DICTIONARY
  5
2AF0
330
2AEF
100
AcDbDictionary
280
     1
281
     1
  3
ACAD_SORTENTS
360
5579
  0
DICTIONARY
  5
52E2
330
2AFE
100
AcDbDictionary
280
     1
281
     1
  3
ACAD_SORTENTS
360
5592
  0
DICTIONARY
  5
2B0C
330
2B0B
100
AcDbDictionary
280
     1
281
     1
  3
ACAD_SORTENTS
360
5673
  0
DICTIONARY
  5
2B5F
330
2B5E
100
AcDbDictionary
280
     1
281
     1
  3
ACAD_SORTENTS
360
576B
  0
DICTIONARY
  5
2B8C
330
2B8B
100
AcDbDictionary
280
     1
281
     1
  3
ACAD_SORTENTS
360
5684
  0
DICTIONARY
  5
2B9A
330
2B99
100
AcDbDictionary
280
     1
281
     1
  3
ACAD_SORTENTS
360
603C
  0
DICTIONARY
  5
4723
330
4704
100
AcDbDictionary
280
     1
281
     1
  3
ACAD_SORTENTS
360
5695
  0
DICTIONARY
  5
2EEF
330
2EEE
100
AcDbDictionary
280
     1
281
     1
  3
ACAD_DIMASSOC
360
2EF0
  0
DICTIONARY
  5
2EF2
330
2EF1
100
AcDbDictionary
280
     1
281
     1
  3
ACAD_DIMASSOC
360
2EF3
  0
DICTIONARY
  5
2EF5
330
2EF4
100
AcDbDictionary
280
     1
281
     1
  3
ACAD_DIMASSOC
360
2EF6
  0
DICTIONARY
  5
2EF8
330
2EF7
100
AcDbDictionary
280
     1
281
     1
  3
ACAD_DIMASSOC
360
2EF9
  0
DICTIONARY
  5
2EFB
330
2EFA
100
AcDbDictionary
280
     1
281
     1
  3
ACAD_DIMASSOC
360
2EFC
  0
DICTIONARY
  5
2F01
330
2F00
100
AcDbDictionary
280
     1
281
     1
  3
ACAD_DIMASSOC
360
2F02
  0
DICTIONARY
  5
2F04
330
2F03
100
AcDbDictionary
280
     1
281
     1
  3
ACAD_DIMASSOC
360
2F05
  0
DICTIONARY
  5
2F07
330
2F06
100
AcDbDictionary
280
     1
281
     1
  3
ACAD_DIMASSOC
360
2F08
  0
DICTIONARY
  5
2F10
330
2F0F
100
AcDbDictionary
280
     1
281
     1
  3
ACAD_DIMASSOC
360
2F11
  0
DICTIONARY
  5
2F23
330
2F22
100
AcDbDictionary
280
     1
281
     1
  3
ACAD_DIMASSOC
360
2F24
  0
DICTIONARY
  5
2F26
330
2F25
100
AcDbDictionary
280
     1
281
     1
  3
ACAD_DIMASSOC
360
2F27
  0
DICTIONARY
  5
2F29
330
2F28
100
AcDbDictionary
280
     1
281
     1
  3
ACAD_DIMASSOC
360
2F2A
  0
DICTIONARY
  5
5DA3
330
5D94
100
AcDbDictionary
280
     1
281
     1
  3
ACAD_DIMASSOC
360
5DA4
  0
DICTIONARY
  5
5E27
330
5E1A
100
AcDbDictionary
280
     1
281
     1
  3
ACAD_DIMASSOC
360
5E28
  0
DICTIONARY
  5
C5
102
{ACAD_REACTORS
330
C
102
}
330
C
100
AcDbDictionary
281
     1
  0
DICTIONARY
  5
D
102
{ACAD_REACTORS
330
C
102
}
330
C
100
AcDbDictionary
281
     1
  0
DICTIONARY
  5
1A
102
{ACAD_REACTORS
330
C
102
}
330
C
100
AcDbDictionary
281
     1
  3
Model
350
22
  3
レイアウト1
350
1E
  3
レイアウト2
350
26
  0
DICTIONARY
  5
C4
102
{ACAD_REACTORS
330
C
102
}
330
C
100
AcDbDictionary
281
     1
  3
ByBlock
350
27D
  3
ByLayer
350
27C
  3
Global
350
27E
  0
DICTIONARY
  5
2D5
102
{ACAD_REACTORS
330
C
102
}
330
C
100
AcDbDictionary
281
     1
  3
Standard
350
2D6
  0
DICTIONARY
  5
17
102
{ACAD_REACTORS
330
C
102
}
330
C
100
AcDbDictionary
281
     1
  3
Standard
350
18
  0
DICTIONARY
  5
19
102
{ACAD_REACTORS
330
C
102
}
330
C
100
AcDbDictionary
281
     1
  3
SEISA基本
350
1C7E
  0
ACDBDICTIONARYWDFLT
  5
E
102
{ACAD_REACTORS
330
C
102
}
330
C
100
AcDbDictionary
281
     1
  3
Normal
350
F
100
AcDbDictionaryWithDefault
340
F
  0
DICTIONARY
  5
2B3
102
{ACAD_REACTORS
330
C
102
}
330
C
100
AcDbDictionary
281
     1
  3
*A1
350
5D6E
  3
A0
350
2B4
  3
A1
350
2B5
  3
A2
350
2B6
  3
A3
350
2B7
  3
A4
350
2B8
  3
A5
350
2B9
  3
A6
350
2BA
  3
A7
350
2BB
  3
A8
350
2BC
  3
A9
350
2BD
  3
B0
350
2BE
  3
B1
350
2BF
  3
B2
350
2C0
  3
B3
350
2C1
  3
B4
350
2C2
  3
B5
350
2C3
  3
B6
350
2C4
  3
B7
350
2C5
  3
B8
350
2C6
  3
B9
350
2C7
  3
C0
350
2C8
  3
C1
350
2C9
  3
C2
350
2CA
  3
C3
350
2CB
  3
C4
350
2CC
  3
C5
350
2CD
  3
C6
350
2CE
  3
C7
350
2CF
  3
C8
350
2D0
  3
C9
350
2D1
  3
D0
350
2D2
  3
D1
350
2D3
  3
D2
350
2D4
  0
DICTIONARY
  5
121
102
{ACAD_REACTORS
330
C
102
}
330
C
100
AcDbDictionary
281
     1
  3
Standard
350
122
  0
DICTIONARY
  5
27F
102
{ACAD_REACTORS
330
C
102
}
330
C
100
AcDbDictionary
281
     1
  3
2dWireframe
350
285
  3
3D Hidden
350
287
  3
3dWireframe
350
286
  3
Basic
350
284
  3
Brighten
350
28B
  3
ColorChange
350
28F
  3
Conceptual
350
288
  3
Dim
350
28A
  3
Facepattern
350
28E
  3
Flat
350
280
  3
FlatWithEdges
350
281
  3
Gouraud
350
282
  3
GouraudWithEdges
350
283
  3
Linepattern
350
28D
  3
Realistic
350
289
  3
Thicken
350
28C
  0
XRECORD
  5
2F7
102
{ACAD_REACTORS
330
C
102
}
330
C
100
AcDbXrecord
280
     1
 90
        1
330
122
  0
DICTIONARY
  5
34
102
{ACAD_REACTORS
330
C
102
}
330
C
100
AcDbDictionary
281
     1
  3
CANNOSCALE
350
2FA
  3
CMLEADERSTYLE
350
2F8
  3
CTABLESTYLE
350
140
  3
DIMASSOC
350
AC
  3
INDEXCTL
350
35
  3
LAYEREVAL
350
5828
  3
LAYERNOTIFY
350
5829
  3
LIGHTINGUNITS
350
2FB
  3
MSLTSCALE
350
2F9
  0
DICTIONARY
  5
49
102
{ACAD_REACTORS
330
C
102
}
330
C
100
AcDbDictionary
281
     1
  3
AcmBOM
350
161B
  3
AcmStdDictionary
350
4A
  3
AMDTSECTSYM_ARROWCOLOR
350
12B
  0
DICTIONARY
  5
2B
102
{ACAD_REACTORS
330
C
102
}
330
C
100
AcDbDictionary
281
     1
  0
DICTIONARY
  5
1DE
102
{ACAD_REACTORS
330
C
102
}
330
C
100
AcDbDictionary
281
     1
  0
DICTIONARY
  5
2782
102
{ACAD_REACTORS
330
BF
102
}
330
BF
100
AcDbDictionary
281
     1
  0
DICTIONARY
  5
C0
102
{ACAD_REACTORS
330
BF
102
}
330
BF
100
AcDbDictionary
280
     1
281
     1
  0
XRECORD
  5
4575
102
{ACAD_REACTORS
330
4574
102
}
330
4574
100
AcDbXrecord
280
     1
290
     1
  0
XRECORD
  5
4577
102
{ACAD_REACTORS
330
4576
102
}
330
4576
100
AcDbXrecord
280
     1
290
     1
  0
XRECORD
  5
457E
102
{ACAD_REACTORS
330
457D
102
}
330
457D
100
AcDbXrecord
280
     1
290
     1
  0
XRECORD
  5
4580
102
{ACAD_REACTORS
330
457F
102
}
330
457F
100
AcDbXrecord
280
     1
290
     1
  0
XRECORD
  5
4586
102
{ACAD_REACTORS
330
4585
102
}
330
4585
100
AcDbXrecord
280
     1
290
     1
  0
XRECORD
  5
458C
102
{ACAD_REACTORS
330
458B
102
}
330
458B
100
AcDbXrecord
280
     1
290
     1
  0
XRECORD
  5
458E
102
{ACAD_REACTORS
330
458D
102
}
330
458D
100
AcDbXrecord
280
     1
290
     1
  0
SORTENTSTABLE
  5
A41
102
{ACAD_REACTORS
330
82
102
}
330
82
100
AcDbSortentsTable
330
1F
331
470C
  5
473B
331
2F00
  5
2F0C
331
5D77
  5
5D77
331
2EE7
  5
2EEB
331
2EFA
  5
2F06
331
2EE6
  5
2EEA
331
2EE5
  5
2EE9
331
2EE4
  5
2EE8
331
2EE3
  5
2EE7
331
2EF7
  5
2F03
331
2EE2
  5
2EE6
331
2EE1
  5
2EE5
331
2EF4
  5
2F00
331
2EE0
  5
2EE4
331
2F28
  5
2F32
331
2EF1
  5
2EFD
331
2EEE
  5
2EFA
331
2F25
  5
2F30
331
2E41
  5
2E41
331
2F22
  5
2F2E
331
2F06
  5
2F12
331
2E3E
  5
2E3E
331
2EE9
  5
2EED
331
2F03
  5
2F0F
331
2F0F
  5
2F1B
331
2E3D
  5
2E3D
331
2EE8
  5
2EEC
  0
SORTENTSTABLE
  5
52C4
102
{ACAD_REACTORS
330
29DB
102
}
330
29DB
100
AcDbSortentsTable
330
29DA
331
29E6
  5
29F2
331
29EE
  5
29E3
331
29E9
  5
29DE
331
29E1
  5
29ED
331
29F0
  5
29E5
331
29E4
  5
29F0
331
29EC
  5
29E1
331
29F3
  5
29E8
331
29DE
  5
29EA
331
29EF
  5
29E4
331
29E7
  5
29F3
331
29E2
  5
29EE
331
29EA
  5
29DF
331
29F1
  5
29E6
331
29ED
  5
29E2
331
29E5
  5
29F1
331
29E8
  5
29F4
331
29E0
  5
29EC
331
29F4
  5
29E9
331
29DF
  5
29EB
331
29EB
  5
29E0
331
29E3
  5
29EF
331
29F2
  5
29E7
  0
SORTENTSTABLE
  5
532F
102
{ACAD_REACTORS
330
29F7
102
}
330
29F7
100
AcDbSortentsTable
330
29F6
331
2A0B
  5
2A00
331
2A00
  5
2A0B
331
2A05
  5
29FA
331
29FA
  5
2A05
331
2A0A
  5
29FF
331
29FF
  5
2A0A
331
2A04
  5
2A0F
331
2A0F
  5
2A04
331
2A09
  5
29FE
331
29FE
  5
2A09
331
2A0E
  5
2A03
331
2A03
  5
2A0E
331
2A08
  5
29FD
331
29FD
  5
2A08
331
2A02
  5
2A0D
331
2A0D
  5
2A02
331
2A07
  5
29FC
331
29FC
  5
2A07
331
2A0C
  5
2A01
331
2A01
  5
2A0C
331
2A06
  5
29FB
331
29FB
  5
2A06
  0
SORTENTSTABLE
  5
53A8
102
{ACAD_REACTORS
330
2A12
102
}
330
2A12
100
AcDbSortentsTable
330
2A11
331
2A1A
  5
2A25
331
2A3E
  5
2A4D
331
2A42
  5
2A3F
331
2A46
  5
2A18
331
2A1E
  5
2A29
331
2A4A
  5
2A1C
331
2A22
  5
2A2E
331
2A26
  5
2A32
331
2A4E
  5
2A15
331
2A15
  5
2A20
331
2A29
  5
2A37
331
2A2D
  5
2A3B
331
2A31
  5
2A40
331
2A35
  5
2A44
331
2A39
  5
2A48
331
2A19
  5
2A24
331
2A3D
  5
2A4C
331
2A41
  5
2A2D
331
2A1D
  5
2A28
331
2A45
  5
2A17
331
2A21
  5
2A2C
331
2A49
  5
2A1B
331
2A28
  5
2A34
331
2A25
  5
2A31
331
2A4D
  5
2A1F
331
2A2C
  5
2A3A
331
2A30
  5
2A3E
331
2A38
  5
2A47
331
2A34
  5
2A43
331
2A18
  5
2A23
331
2A3C
  5
2A4B
331
2A40
  5
2A35
331
2A1C
  5
2A27
331
2A44
  5
2A16
331
2A48
  5
2A1A
331
2A20
  5
2A2B
331
2A24
  5
2A30
331
2A4C
  5
2A1E
331
2A17
  5
2A22
331
2A2B
  5
2A39
331
2A2F
  5
2A3D
331
2A33
  5
2A42
331
2A3B
  5
2A4A
331
2A37
  5
2A46
331
2A1B
  5
2A26
331
2A3F
  5
2A36
331
2A43
  5
2A4E
331
2A1F
  5
2A2A
331
2A47
  5
2A19
331
2A23
  5
2A2F
331
2A4B
  5
2A1D
331
2A16
  5
2A21
331
2A2A
  5
2A38
331
2A27
  5
2A33
331
2A2E
  5
2A3C
331
2A32
  5
2A41
331
2A3A
  5
2A49
331
2A36
  5
2A45
  0
SORTENTSTABLE
  5
54BC
102
{ACAD_REACTORS
330
2A51
102
}
330
2A51
100
AcDbSortentsTable
330
2A50
  0
SORTENTSTABLE
  5
5EF2
102
{ACAD_REACTORS
330
550E
102
}
330
550E
100
AcDbSortentsTable
330
2A89
331
2A93
  5
2A95
331
2A9B
  5
2A9D
331
2AA3
  5
2AA5
331
2A92
  5
2A94
331
5DF9
  5
2A8C
331
2A9A
  5
2A9C
331
2AA2
  5
2AA4
331
2A8E
  5
2A91
331
2A91
  5
2A93
331
5DF8
  5
2A8B
331
2A99
  5
2A9B
331
2AA1
  5
2AA3
331
2A90
  5
2A92
331
2A98
  5
2A9A
331
2AA0
  5
2AA2
331
2A8C
  5
2A90
331
2AAB
  5
5DF9
331
2A97
  5
2A99
331
2A9F
  5
2AA1
331
2AA7
  5
2AA9
331
2A8B
  5
2A8E
331
2AAA
  5
5DF8
331
2A96
  5
2A98
331
2A9E
  5
2AA0
331
2AA6
  5
2AA8
331
2AA9
  5
2AAB
331
2A95
  5
2A97
331
2A9D
  5
2A9F
331
2AA5
  5
2AA7
331
2AA8
  5
2AAA
331
2A94
  5
2A96
331
2A9C
  5
2A9E
331
2AA4
  5
2AA6
  0
SORTENTSTABLE
  5
5F37
102
{ACAD_REACTORS
330
5554
102
}
330
5554
100
AcDbSortentsTable
330
2AAD
331
2AC2
  5
2AC4
331
2AC1
  5
2AC3
331
2AC4
  5
2AC6
331
2AC3
  5
2AC5
331
2AC6
  5
2AC8
331
2AC5
  5
2AC7
331
2AC8
  5
2ACA
331
2AB0
  5
2AB2
331
2AC7
  5
2AC9
331
2ACA
  5
2ACC
331
2AB2
  5
2AB6
331
2AC9
  5
2ACB
331
2AB5
  5
2AB7
331
2ACC
  5
2ACE
331
2ACB
  5
2ACD
331
2AB7
  5
2AB9
331
2ACE
  5
5F18
331
2AB6
  5
2AB8
331
2AB9
  5
2ABB
331
2AB8
  5
2ABA
331
2ABB
  5
2ABD
331
2ABA
  5
2ABC
331
2ABD
  5
2ABF
331
2ABC
  5
2ABE
331
2ACD
  5
5F17
331
5F17
  5
2AAF
331
2AAF
  5
2AB1
331
2ABF
  5
2AC1
331
5F18
  5
2AB0
331
2ABE
  5
2AC0
331
2AB1
  5
2AB5
331
2AC0
  5
2AC2
  0
SORTENTSTABLE
  5
617C
102
{ACAD_REACTORS
330
2AD1
102
}
330
2AD1
100
AcDbSortentsTable
330
2AD0
331
2ADE
  5
2ADF
331
2AE8
  5
2AE9
331
2ADB
  5
2ADC
331
2AE1
  5
2AE2
331
2AE4
  5
2AE5
331
2AEB
  5
2AD4
331
2AE7
  5
2AE8
331
2AD7
  5
2AD8
331
2AD4
  5
2AD5
331
2AD8
  5
2AD9
331
2ADC
  5
2ADD
331
2AD9
  5
2ADA
331
2ADF
  5
2AE0
331
2AE2
  5
2AE3
331
2AD5
  5
2AD6
331
2AE5
  5
2AE6
331
2AE9
  5
2AEA
331
2AE0
  5
2AE1
331
2AEA
  5
2AEB
331
2ADD
  5
2ADE
331
2AE6
  5
2AE7
331
2AE3
  5
2AE4
331
2AD6
  5
2AD7
331
2ADA
  5
2ADB
  0
SORTENTSTABLE
  5
5579
102
{ACAD_REACTORS
330
2AF0
102
}
330
2AF0
100
AcDbSortentsTable
330
2AEF
  0
SORTENTSTABLE
  5
5592
102
{ACAD_REACTORS
330
52E2
102
}
330
52E2
100
AcDbSortentsTable
330
2AFE
  0
SORTENTSTABLE
  5
5673
102
{ACAD_REACTORS
330
2B0C
102
}
330
2B0C
100
AcDbSortentsTable
330
2B0B
331
2B50
  5
2B53
331
2B3A
  5
2B3D
331
2B55
  5
2B58
331
2B3F
  5
2B42
331
5672
  5
2B10
331
2B44
  5
2B47
331
2B26
  5
2B29
331
2B21
  5
2B24
331
2B49
  5
2B4C
331
2B4E
  5
2B51
331
2B30
  5
2B33
331
2B35
  5
2B38
331
2B17
  5
2B1A
331
2B12
  5
2B15
331
2B58
  5
2B5B
331
2B2B
  5
2B2E
331
2B1C
  5
2B1F
331
2B19
  5
2B1C
331
2B52
  5
2B55
331
2B1E
  5
2B21
331
2B57
  5
2B5A
331
2B41
  5
2B44
331
2B46
  5
2B49
331
2B28
  5
2B2B
331
2B23
  5
2B26
331
2B4B
  5
2B4E
331
2B3C
  5
2B3F
331
2B32
  5
2B35
331
2B37
  5
2B3A
331
2B14
  5
2B17
331
2B5A
  5
5671
331
2B2D
  5
2B30
331
2B39
  5
2B3C
331
2B1B
  5
2B1E
331
2B54
  5
2B57
331
2B20
  5
2B23
331
5671
  5
2B0F
331
2B43
  5
2B46
331
2B48
  5
2B4B
331
2B2A
  5
2B2D
331
2B25
  5
2B28
331
2B2F
  5
2B32
331
2B11
  5
2B14
331
2B34
  5
2B37
331
2B16
  5
2B19
331
2B5C
  5
2B11
331
2B4D
  5
2B50
331
2B3E
  5
2B41
331
2B51
  5
2B54
331
2B3B
  5
2B3E
331
2B1D
  5
2B20
331
2B18
  5
2B1B
331
2B40
  5
2B43
331
2B22
  5
2B25
331
2B45
  5
2B48
331
2B4A
  5
2B4D
331
2B2C
  5
2B2F
331
2B27
  5
2B2A
331
2B56
  5
2B59
331
2B31
  5
2B34
331
2B13
  5
2B16
331
2B59
  5
2B5C
331
2B36
  5
2B39
331
2B4F
  5
2B52
331
2B38
  5
2B3B
331
2B53
  5
2B56
331
2B3D
  5
2B40
331
2B42
  5
2B45
331
2B24
  5
2B27
331
2B1F
  5
2B22
331
2B47
  5
2B4A
331
2B4C
  5
2B4F
331
2B2E
  5
2B31
331
2B33
  5
2B36
331
2B15
  5
2B18
331
2B5B
  5
5672
331
2B10
  5
2B13
331
2B29
  5
2B2C
331
2B0F
  5
2B12
331
2B1A
  5
2B1D
  0
SORTENTSTABLE
  5
576B
102
{ACAD_REACTORS
330
2B5F
102
}
330
2B5F
100
AcDbSortentsTable
330
2B5E
  0
SORTENTSTABLE
  5
5684
102
{ACAD_REACTORS
330
2B8C
102
}
330
2B8C
100
AcDbSortentsTable
330
2B8B
331
4702
  5
2B95
331
2B96
  5
4701
331
2B94
  5
2B96
331
4701
  5
2B94
331
2B97
  5
4702
331
2B95
  5
2B97
  0
SORTENTSTABLE
  5
603C
102
{ACAD_REACTORS
330
2B9A
102
}
330
2B9A
100
AcDbSortentsTable
330
2B99
  0
SORTENTSTABLE
  5
5695
102
{ACAD_REACTORS
330
4723
102
}
330
4723
100
AcDbSortentsTable
330
4704
  0
DIMASSOC
  5
2EF0
102
{ACAD_REACTORS
330
2EEF
102
}
330
2EEF
100
AcDbDimAssoc
330
2EEE
 90
        3
 70
     0
 71
     0
  1
AcDbOsnapPointRef
 72
    13
331
2EE3
331
2AC9
 73
     2
 91
        0
 40
0.0
 10
0.0
 20
0.0
 30
2.000000000000000E+50
 75
     0
  1
AcDbOsnapPointRef
 72
    13
331
2EE3
331
2AAF
 73
     2
 91
        0
 40
0.0
 10
0.0
 20
0.0
 30
2.000000000000000E+50
 75
     0
  0
DIMASSOC
  5
2EF3
102
{ACAD_REACTORS
330
2EF2
102
}
330
2EF2
100
AcDbDimAssoc
330
2EF1
 90
        3
 70
     0
 71
     0
  1
AcDbOsnapPointRef
 72
    13
331
2EE2
331
2A90
 73
     2
 91
        0
 40
0.0
 10
0.0
 20
0.0
 30
2.000000000000000E+50
 75
     0
  1
AcDbOsnapPointRef
 72
    13
331
2EE2
331
2A9F
 73
     2
 91
        0
 40
0.0
 10
0.0
 20
0.0
 30
2.000000000000000E+50
 75
     0
  0
DIMASSOC
  5
2EF6
102
{ACAD_REACTORS
330
2EF5
102
}
330
2EF5
100
AcDbDimAssoc
330
2EF4
 90
        3
 70
     0
 71
     0
  1
AcDbOsnapPointRef
 72
    13
331
2EE4
331
2AD4
 73
     2
 91
        0
 40
0.0
 10
0.0
 20
0.0
 30
2.000000000000000E+50
 75
     0
  1
AcDbOsnapPointRef
 72
    13
331
2EE4
331
2AE6
 73
     2
 91
        0
 40
0.0
 10
0.0
 20
0.0
 30
2.000000000000000E+50
 75
     0
  0
DIMASSOC
  5
2EF9
102
{ACAD_REACTORS
330
2EF8
102
}
330
2EF8
100
AcDbDimAssoc
330
2EF7
 90
        3
 70
     0
 71
     0
  1
AcDbOsnapPointRef
 72
    13
331
2EE9
331
2A26
 73
     2
 91
        0
 40
0.0
 10
0.0
 20
0.0
 30
2.000000000000000E+50
 75
     0
  1
AcDbOsnapPointRef
 72
    13
331
2EE9
331
2A3A
 73
     2
 91
        0
 40
0.0
 10
0.0
 20
0.0
 30
2.000000000000000E+50
 75
     0
  0
DIMASSOC
  5
2EFC
102
{ACAD_REACTORS
330
2EFB
102
}
330
2EFB
100
AcDbDimAssoc
330
2EFA
 90
        3
 70
     0
 71
     0
  1
AcDbOsnapPointRef
 72
    13
331
2EE2
331
2A94
 73
     2
 91
        0
 40
0.0
 10
0.0
 20
0.0
 30
2.000000000000000E+50
 75
     0
  1
AcDbOsnapPointRef
 72
    10
331
2EE4
331
2ADF
 73
     2
 91
        0
 40
0.0
 10
0.0
 20
0.0
 30
0.0
 75
     0
  0
DIMASSOC
  5
2F02
102
{ACAD_REACTORS
330
2F01
102
}
330
2F01
100
AcDbDimAssoc
330
2F00
 90
        3
 70
     0
 71
     0
  1
AcDbOsnapPointRef
 72
    10
331
2EE6
331
2B89
 73
     2
 91
        0
 40
0.6923786782845202
 10
0.0
 20
0.0
 30
0.0
 75
     0
  1
AcDbOsnapPointRef
 72
    10
331
2EE2
331
2A8B
 73
     2
 91
        0
 40
0.64240941741265
 10
0.0
 20
0.0
 30
0.0
 75
     0
  0
DIMASSOC
  5
2F05
102
{ACAD_REACTORS
330
2F04
102
}
330
2F04
100
AcDbDimAssoc
330
2F03
 90
        3
 70
     0
 71
     0
  1
AcDbOsnapPointRef
 72
    10
331
2EE3
331
2AB0
 73
     2
 91
        0
 40
0.756550943006991
 10
0.0
 20
0.0
 30
0.0
 75
     0
  1
AcDbOsnapPointRef
 72
     8
331
2EE6
331
2B89
 73
     2
 91
        0
 40
0.7200828656436659
 10
0.0
 20
0.0
 30
0.0
 75
     1
  1
AcDbOsnapPointRef
 72
    10
331
2EE3
331
2AB0
 73
     2
 91
        0
 40
0.756550943006991
 10
0.0
 20
0.0
 30
0.0
 75
     0
  0
DIMASSOC
  5
2F08
102
{ACAD_REACTORS
330
2F07
102
}
330
2F07
100
AcDbDimAssoc
330
2F06
 90
        3
 70
     0
 71
     0
  1
AcDbOsnapPointRef
 72
    10
331
2EE3
331
2AC4
 73
     2
 91
        0
 40
0.5998099602038762
 10
0.0
 20
0.0
 30
0.0
 75
     0
  1
AcDbOsnapPointRef
 72
    10
331
2EE3
331
2AB0
 73
     2
 91
        0
 40
0.8081886468295301
 10
0.0
 20
0.0
 30
0.0
 75
     0
  0
DIMASSOC
  5
2F11
102
{ACAD_REACTORS
330
2F10
102
}
330
2F10
100
AcDbDimAssoc
330
2F0F
 90
        2
 70
     0
 71
     0
  1
AcDbOsnapPointRef
 72
    13
331
2EE4
331
2AE6
 73
     2
 91
        0
 40
0.0
 10
0.0
 20
0.0
 30
2.000000000000000E+50
 75
     0
  0
DIMASSOC
  5
2F24
102
{ACAD_REACTORS
330
2F23
102
}
330
2F23
100
AcDbDimAssoc
330
2F22
 90
        3
 70
     0
 71
     0
  1
AcDbOsnapPointRef
 72
    13
331
2EE1
331
2A6C
 73
     2
 91
        0
 40
0.0
 10
0.0
 20
0.0
 30
2.000000000000000E+50
 75
     0
  1
AcDbOsnapPointRef
 72
     8
331
2EE9
331
2A37
 73
     2
 91
        0
 40
0.9999999999999996
 10
0.0
 20
0.0
 30
0.0
 75
     1
  1
AcDbOsnapPointRef
 72
    13
331
2EE1
331
2A6C
 73
     2
 91
        0
 40
0.0
 10
0.0
 20
0.0
 30
2.000000000000000E+50
 75
     0
  0
DIMASSOC
  5
2F27
102
{ACAD_REACTORS
330
2F26
102
}
330
2F26
100
AcDbDimAssoc
330
2F25
 90
        3
 70
     0
 71
     0
  1
AcDbOsnapPointRef
 72
     1
331
2EE9
331
2A37
 73
     2
 91
        0
 40
1.0
 10
0.0
 20
0.0
 30
2.000000000000000E+50
 75
     0
  1
AcDbOsnapPointRef
 72
     8
331
2EE9
331
2A38
 73
     2
 91
        0
 40
0.0
 10
0.0
 20
0.0
 30
0.0
 75
     1
  1
AcDbOsnapPointRef
 72
     1
331
2EE9
331
2A37
 73
     2
 91
        0
 40
1.0
 10
0.0
 20
0.0
 30
2.000000000000000E+50
 75
     0
  0
DIMASSOC
  5
2F2A
102
{ACAD_REACTORS
330
2F29
102
}
330
2F29
100
AcDbDimAssoc
330
2F28
 90
        3
 70
     0
 71
     0
  1
AcDbOsnapPointRef
 72
    13
331
2EE3
331
2AC4
 73
     2
 91
        0
 40
0.0
 10
0.0
 20
0.0
 30
2.000000000000000E+50
 75
     0
  1
AcDbOsnapPointRef
 72
    13
331
2EE2
331
2A8B
 73
     2
 91
        0
 40
0.0
 10
0.0
 20
0.0
 30
2.000000000000000E+50
 75
     0
  0
DIMASSOC
  5
5DA4
102
{ACAD_REACTORS
330
5DA3
102
}
330
5DA3
100
AcDbDimAssoc
330
5D94
 90
        2
 70
     0
 71
     0
  1
AcDbOsnapPointRef
 72
     1
331
2EE2
331
2A8B
 73
     0
 91
        0
 40
0.0
 10
0.0
 20
0.0
 30
2.000000000000000E+50
 75
     0
  0
DIMASSOC
  5
5E28
102
{ACAD_REACTORS
330
5E27
102
}
330
5E27
100
AcDbDimAssoc
330
5E1A
 90
        2
 70
     0
 71
     0
  1
AcDbOsnapPointRef
 72
     1
331
2EE2
331
2A99
 73
     0
 91
        0
 40
0.0
 10
0.0
 20
0.0
 30
2.000000000000000E+50
 75
     0
  0
LAYOUT
  5
22
102
{ACAD_REACTORS
330
1A
102
}
330
1A
100
AcDbPlotSettings
  1

  2
KONICA MINOLTA 501 PCL
  4
A4
  6

 40
5.027082920074462
 41
5.027085781097412
 42
5.027069091796875
 43
5.027069091796875
 44
209.9733276367186
 45
296.9259948730469
 46
0.0
 47
50.02314642083923
 48
0.0
 49
0.0
140
0.0
141
0.0
142
1.0
143
3.675917883729913
 70
 11956
 72
     1
 73
     0
 74
     1
  7
SEISA.ctb
 75
     0
147
0.2720408974384681
 76
     0
 77
     2
 78
   300
148
-356.3129941372081
149
-473.0383345403687
100
AcDbLayout
  1
Model
 70
     1
 71
     0
 10
0.0
 20
0.0
 11
12.0
 21
9.0
 12
0.0
 22
0.0
 32
0.0
 14
0.0
 24
0.0
 34
0.0
 15
0.0
 25
0.0
 35
0.0
146
0.0
 13
0.0
 23
0.0
 33
0.0
 16
1.0
 26
0.0
 36
0.0
 17
0.0
 27
1.0
 37
0.0
 76
     0
330
1F
331
27A
1001
ACAD_PSEXT
1000
KONICA MINOLTA 501 PCL
1000
KONICA MINOLTA 501/421/361PCL
1000
IP_192.168.20.231_(1)
1000

1070
     0
  0
LAYOUT
  5
1E
102
{ACAD_REACTORS
330
1A
102
}
330
1A
100
AcDbPlotSettings
  1

  2
none_device
  4
Letter_(8.50_x_11.00_Inches)
  6

 40
6.349999904632567
 41
6.349999904632567
 42
6.350006103515625
 43
6.350006103515625
 44
215.8999938964844
 45
279.3999938964844
 46
0.0
 47
0.0
 48
0.0
 49
0.0
140
0.0
141
0.0
142
1.0
143
1.0
 70
 15024
 72
     1
 73
     1
 74
     5
  7
SEISA.ctb
 75
    16
147
1.0
 76
     0
 77
     2
 78
   300
148
0.0
149
0.0
100
AcDbLayout
  1
レイアウト1
 70
     1
 71
     1
 10
0.0
 20
0.0
 11
420.0
 21
297.0
 12
0.0
 22
0.0
 32
0.0
 14
1.000000000000000E+20
 24
1.000000000000000E+20
 34
1.000000000000000E+20
 15
-1.000000000000000E+20
 25
-1.000000000000000E+20
 35
-1.000000000000000E+20
146
0.0
 13
0.0
 23
0.0
 33
0.0
 16
1.0
 26
0.0
 36
0.0
 17
0.0
 27
1.0
 37
0.0
 76
     0
330
1B
  0
LAYOUT
  5
26
102
{ACAD_REACTORS
330
1A
102
}
330
1A
100
AcDbPlotSettings
  1

  2
none_device
  4
Letter_(8.50_x_11.00_Inches)
  6

 40
6.349999904632567
 41
6.349999904632567
 42
6.350006103515625
 43
6.350006103515625
 44
215.8999938964844
 45
279.3999938964844
 46
0.0
 47
0.0
 48
0.0
 49
0.0
140
0.0
141
0.0
142
1.0
143
1.0
 70
 15024
 72
     1
 73
     1
 74
     5
  7
SEISA.ctb
 75
    16
147
1.0
 76
     0
 77
     2
 78
   300
148
0.0
149
0.0
100
AcDbLayout
  1
レイアウト2
 70
     1
 71
     2
 10
0.0
 20
0.0
 11
12.0
 21
9.0
 12
0.0
 22
0.0
 32
0.0
 14
0.0
 24
0.0
 34
0.0
 15
0.0
 25
0.0
 35
0.0
146
0.0
 13
0.0
 23
0.0
 33
0.0
 16
1.0
 26
0.0
 36
0.0
 17
0.0
 27
1.0
 37
0.0
 76
     0
330
23
  0
MATERIAL
  5
27D
102
{ACAD_REACTORS
330
C4
102
}
330
C4
100
AcDbMaterial
  1
ByBlock
 73
     1
 78
     1
172
     1
176
     1
270
     1
274
     1
 94
       63
  0
MATERIAL
  5
27C
102
{ACAD_REACTORS
330
C4
102
}
330
C4
100
AcDbMaterial
  1
ByLayer
 73
     1
 78
     1
172
     1
176
     1
270
     1
274
     1
 94
       63
  0
MATERIAL
  5
27E
102
{ACAD_REACTORS
330
C4
102
}
330
C4
100
AcDbMaterial
  1
Global
 73
     1
 78
     1
172
     1
176
     1
270
     1
274
     1
 94
       63
  0
MLEADERSTYLE
  5
2D6
102
{ACAD_REACTORS
330
2D5
102
}
330
2D5
100
AcDbMLeaderStyle
170
     2
171
     1
172
     0
 90
        2
 40
0.0
 41
0.0
173
     1
 91
-1056964608
340
14
 92
       -2
290
     1
 42
2.0
291
     1
 43
0.36
  3
Standard
 44
4.0
300

342
11
174
     1
178
     6
175
     1
176
     0
 93
-1056964608
 45
4.0
292
     0
297
     0
 46
4.0
 94
-1056964608
 47
1.0
 49
1.0
140
1.0
293
     1
141
0.0
294
     1
177
     0
142
1.0
295
     0
296
     0
143
0.125
1001
ACAD_MLEADERVER
1070
     2
  0
MLINESTYLE
  5
18
102
{ACAD_REACTORS
330
17
102
}
330
17
100
AcDbMlineStyle
  2
STANDARD
 70
     0
  3

 62
   256
 51
90.0
 52
90.0
 71
     2
 49
0.5
 62
   256
  6
BYLAYER
 49
-0.5
 62
   256
  6
BYLAYER
  0
PLOTSETTINGS
  5
1C7E
102
{ACAD_REACTORS
330
19
102
}
330
19
100
AcDbPlotSettings
  1
SEISA基本
  2
none_device
  4
Letter_(8.50_x_11.00_Inches)
  6

 40
6.349999904632567
 41
6.349999904632567
 42
6.350006103515625
 43
6.350006103515625
 44
215.8999938964844
 45
279.3999938964844
 46
7.302498226506357
 47
0.0
 48
0.0
 49
0.0
140
0.0
141
0.0
142
1.0
143
1.574803221122935
 70
 11956
 72
     1
 73
     1
 74
     2
  7
SEISA.ctb
 75
     0
147
0.6349999711627054
 76
     0
 77
     2
 78
   300
148
0.0
149
0.0
1001
ACAD_PSEXT
1000
なし
1000
なし
1000
適切ではありません
1000
新しいプロッタ環境設定名を選択しない限り、レイアウトは印刷されません。
1070
     0
  0
ACDBPLACEHOLDER
  5
F
102
{ACAD_REACTORS
330
E
102
}
330
E
  0
SCALE
  5
5D6E
102
{ACAD_REACTORS
330
2B3
102
}
330
2B3
100
AcDbScale
 70
     0
300
1:1.5
140
1.0
141
1.5
290
     0
  0
SCALE
  5
2B4
102
{ACAD_REACTORS
330
2B3
102
}
330
2B3
100
AcDbScale
 70
     0
300
1:1
140
1.0
141
1.0
290
     1
  0
SCALE
  5
2B5
102
{ACAD_REACTORS
330
2B3
102
}
330
2B3
100
AcDbScale
 70
     0
300
1:2
140
1.0
141
2.0
290
     0
  0
SCALE
  5
2B6
102
{ACAD_REACTORS
330
2B3
102
}
330
2B3
100
AcDbScale
 70
     0
300
1:4
140
1.0
141
4.0
290
     0
  0
SCALE
  5
2B7
102
{ACAD_REACTORS
330
2B3
102
}
330
2B3
100
AcDbScale
 70
     0
300
1:5
140
1.0
141
5.0
290
     0
  0
SCALE
  5
2B8
102
{ACAD_REACTORS
330
2B3
102
}
330
2B3
100
AcDbScale
 70
     0
300
1:8
140
1.0
141
8.0
290
     0
  0
SCALE
  5
2B9
102
{ACAD_REACTORS
330
2B3
102
}
330
2B3
100
AcDbScale
 70
     0
300
1:10
140
1.0
141
10.0
290
     0
  0
SCALE
  5
2BA
102
{ACAD_REACTORS
330
2B3
102
}
330
2B3
100
AcDbScale
 70
     0
300
1:16
140
1.0
141
16.0
290
     0
  0
SCALE
  5
2BB
102
{ACAD_REACTORS
330
2B3
102
}
330
2B3
100
AcDbScale
 70
     0
300
1:20
140
1.0
141
20.0
290
     0
  0
SCALE
  5
2BC
102
{ACAD_REACTORS
330
2B3
102
}
330
2B3
100
AcDbScale
 70
     0
300
1:30
140
1.0
141
30.0
290
     0
  0
SCALE
  5
2BD
102
{ACAD_REACTORS
330
2B3
102
}
330
2B3
100
AcDbScale
 70
     0
300
1:40
140
1.0
141
40.0
290
     0
  0
SCALE
  5
2BE
102
{ACAD_REACTORS
330
2B3
102
}
330
2B3
100
AcDbScale
 70
     0
300
1:50
140
1.0
141
50.0
290
     0
  0
SCALE
  5
2BF
102
{ACAD_REACTORS
330
2B3
102
}
330
2B3
100
AcDbScale
 70
     0
300
1:100
140
1.0
141
100.0
290
     0
  0
SCALE
  5
2C0
102
{ACAD_REACTORS
330
2B3
102
}
330
2B3
100
AcDbScale
 70
     0
300
2:1
140
2.0
141
1.0
290
     0
  0
SCALE
  5
2C1
102
{ACAD_REACTORS
330
2B3
102
}
330
2B3
100
AcDbScale
 70
     0
300
4:1
140
4.0
141
1.0
290
     0
  0
SCALE
  5
2C2
102
{ACAD_REACTORS
330
2B3
102
}
330
2B3
100
AcDbScale
 70
     0
300
8:1
140
8.0
141
1.0
290
     0
  0
SCALE
  5
2C3
102
{ACAD_REACTORS
330
2B3
102
}
330
2B3
100
AcDbScale
 70
     0
300
10:1
140
10.0
141
1.0
290
     0
  0
SCALE
  5
2C4
102
{ACAD_REACTORS
330
2B3
102
}
330
2B3
100
AcDbScale
 70
     0
300
100:1
140
100.0
141
1.0
290
     0
  0
SCALE
  5
2C5
102
{ACAD_REACTORS
330
2B3
102
}
330
2B3
100
AcDbScale
 70
     0
300
1/128" = 1'-0"
140
0.0078125
141
12.0
290
     0
  0
SCALE
  5
2C6
102
{ACAD_REACTORS
330
2B3
102
}
330
2B3
100
AcDbScale
 70
     0
300
1/64" = 1'-0"
140
0.015625
141
12.0
290
     0
  0
SCALE
  5
2C7
102
{ACAD_REACTORS
330
2B3
102
}
330
2B3
100
AcDbScale
 70
     0
300
1/32" = 1'-0"
140
0.03125
141
12.0
290
     0
  0
SCALE
  5
2C8
102
{ACAD_REACTORS
330
2B3
102
}
330
2B3
100
AcDbScale
 70
     0
300
1/16" = 1'-0"
140
0.0625
141
12.0
290
     0
  0
SCALE
  5
2C9
102
{ACAD_REACTORS
330
2B3
102
}
330
2B3
100
AcDbScale
 70
     0
300
3/32" = 1'-0"
140
0.09375
141
12.0
290
     0
  0
SCALE
  5
2CA
102
{ACAD_REACTORS
330
2B3
102
}
330
2B3
100
AcDbScale
 70
     0
300
1/8" = 1'-0"
140
0.125
141
12.0
290
     0
  0
SCALE
  5
2CB
102
{ACAD_REACTORS
330
2B3
102
}
330
2B3
100
AcDbScale
 70
     0
300
3/16" = 1'-0"
140
0.1875
141
12.0
290
     0
  0
SCALE
  5
2CC
102
{ACAD_REACTORS
330
2B3
102
}
330
2B3
100
AcDbScale
 70
     0
300
1/4" = 1'-0"
140
0.25
141
12.0
290
     0
  0
SCALE
  5
2CD
102
{ACAD_REACTORS
330
2B3
102
}
330
2B3
100
AcDbScale
 70
     0
300
3/8" = 1'-0"
140
0.375
141
12.0
290
     0
  0
SCALE
  5
2CE
102
{ACAD_REACTORS
330
2B3
102
}
330
2B3
100
AcDbScale
 70
     0
300
1/2" = 1'-0"
140
0.5
141
12.0
290
     0
  0
SCALE
  5
2CF
102
{ACAD_REACTORS
330
2B3
102
}
330
2B3
100
AcDbScale
 70
     0
300
3/4" = 1'-0"
140
0.75
141
12.0
290
     0
  0
SCALE
  5
2D0
102
{ACAD_REACTORS
330
2B3
102
}
330
2B3
100
AcDbScale
 70
     0
300
1" = 1'-0"
140
1.0
141
12.0
290
     0
  0
SCALE
  5
2D1
102
{ACAD_REACTORS
330
2B3
102
}
330
2B3
100
AcDbScale
 70
     0
300
1-1/2" = 1'-0"
140
1.5
141
12.0
290
     0
  0
SCALE
  5
2D2
102
{ACAD_REACTORS
330
2B3
102
}
330
2B3
100
AcDbScale
 70
     0
300
3" = 1'-0"
140
3.0
141
12.0
290
     0
  0
SCALE
  5
2D3
102
{ACAD_REACTORS
330
2B3
102
}
330
2B3
100
AcDbScale
 70
     0
300
6" = 1'-0"
140
6.0
141
12.0
290
     0
  0
SCALE
  5
2D4
102
{ACAD_REACTORS
330
2B3
102
}
330
2B3
100
AcDbScale
 70
     0
300
1'-0" = 1'-0"
140
12.0
141
12.0
290
     0
  0
TABLESTYLE
  5
122
102
{ACAD_XDICTIONARY
360
2F5
102
}
102
{ACAD_REACTORS
330
121
102
}
330
121
100
AcDbTableStyle
  3
Standard
 70
     0
 71
     0
 40
1.5
 41
1.5
280
     0
281
     0
  7
STANDARD
140
4.5
170
     2
 62
     0
 63
     7
283
     0
 90
      512
 91
        0
  1

274
    -2
284
     1
 64
     0
275
    -2
285
     1
 65
     0
276
    -2
286
     1
 66
     0
277
    -2
287
     1
 67
     0
278
    -2
288
     1
 68
     0
279
    -2
289
     1
 69
     0
  7
STANDARD
140
6.0
170
     5
 62
     0
 63
     7
283
     0
 90
      512
 91
        0
  1

274
    -2
284
     1
 64
     0
275
    -2
285
     1
 65
     0
276
    -2
286
     1
 66
     0
277
    -2
287
     1
 67
     0
278
    -2
288
     1
 68
     0
279
    -2
289
     1
 69
     0
  7
STANDARD
140
4.5
170
     5
 62
     0
 63
     7
283
     0
 90
      512
 91
        0
  1

274
    -2
284
     1
 64
     0
275
    -2
285
     1
 65
     0
276
    -2
286
     1
 66
     0
277
    -2
287
     1
 67
     0
278
    -2
288
     1
 68
     0
279
    -2
289
     1
 69
     0
  0
VISUALSTYLE
  5
285
102
{ACAD_REACTORS
330
27F
102
}
330
27F
100
AcDbVisualStyle
  2
2dWireframe
 70
     4
 71
     0
 72
     2
 73
     0
 90
        0
 40
-0.6
 41
-30.0
 62
     5
 63
     7
421
 16777215
 74
     1
 91
        4
 64
     7
 65
   257
 75
     1
175
     1
 42
1.0
 92
        0
 66
   257
 43
1.0
 76
     1
 77
     6
 78
     2
 67
     7
 79
     5
170
     0
171
     0
290
     0
174
     0
 93
        1
 44
0.0
173
     0
291
     0
 45
0.0
  0
VISUALSTYLE
  5
287
102
{ACAD_REACTORS
330
27F
102
}
330
27F
100
AcDbVisualStyle
  2
3D Hidden
 70
     6
 71
     1
 72
     2
 73
     2
 90
        0
 40
-0.6
 41
-30.0
 62
     5
 63
     7
421
 16777215
 74
     2
 91
        2
 64
     7
 65
   257
 75
     2
175
     1
 42
40.0
 92
        0
 66
   257
 43
1.0
 76
     1
 77
     6
 78
     2
 67
     7
 79
     3
170
     0
171
     0
290
     0
174
     0
 93
        1
 44
0.0
173
     0
291
     0
 45
0.0
  0
VISUALSTYLE
  5
286
102
{ACAD_REACTORS
330
27F
102
}
330
27F
100
AcDbVisualStyle
  2
3dWireframe
 70
     5
 71
     0
 72
     2
 73
     0
 90
        0
 40
-0.6
 41
-30.0
 62
     5
 63
     7
421
 16777215
 74
     1
 91
        4
 64
     7
 65
   257
 75
     1
175
     1
 42
1.0
 92
        0
 66
   257
 43
1.0
 76
     1
 77
     6
 78
     2
 67
     7
 79
     5
170
     0
171
     0
290
     0
174
     0
 93
        1
 44
0.0
173
     0
291
     0
 45
0.0
  0
VISUALSTYLE
  5
284
102
{ACAD_REACTORS
330
27F
102
}
330
27F
100
AcDbVisualStyle
  2
Basic
 70
     7
 71
     1
 72
     0
 73
     1
 90
        0
 40
-0.6
 41
-30.0
 62
     5
 63
     7
421
 16777215
 74
     0
 91
        4
 64
     7
 65
   257
 75
     1
175
     1
 42
1.0
 92
        8
 66
     7
 43
1.0
 76
     1
 77
     6
 78
     2
 67
     7
 79
     5
170
     0
171
     0
290
     0
174
     0
 93
        1
 44
0.0
173
     0
291
     1
 45
0.0
  0
VISUALSTYLE
  5
28B
102
{ACAD_REACTORS
330
27F
102
}
330
27F
100
AcDbVisualStyle
  2
Brighten
 70
    12
 71
     2
 72
     2
 73
     0
 90
        0
 40
-0.6
 41
-30.0
 62
     5
 63
     7
421
 16777215
 74
     1
 91
        4
 64
     7
 65
   257
 75
     1
175
     1
 42
1.0
 92
        8
 66
     7
 43
1.0
 76
     1
 77
     6
 78
     2
 67
     7
 79
     5
170
     0
171
     0
290
     0
174
     0
 93
        1
 44
50.0
173
     0
291
     1
 45
0.0
  0
VISUALSTYLE
  5
28F
102
{ACAD_REACTORS
330
27F
102
}
330
27F
100
AcDbVisualStyle
  2
ColorChange
 70
    16
 71
     2
 72
     2
 73
     3
 90
        0
 40
-0.6
 41
-30.0
 62
     5
 63
     8
421
  8421504
 74
     1
 91
        4
 64
     7
 65
   257
 75
     1
175
     1
 42
1.0
 92
        8
 66
     8
424
  8421504
 43
1.0
 76
     1
 77
     6
 78
     2
 67
     7
 79
     5
170
     0
171
     0
290
     0
174
     0
 93
        1
 44
0.0
173
     0
291
     1
 45
0.0
  0
VISUALSTYLE
  5
288
102
{ACAD_REACTORS
330
27F
102
}
330
27F
100
AcDbVisualStyle
  2
Conceptual
 70
     9
 71
     3
 72
     2
 73
     0
 90
        0
 40
-0.6
 41
-30.0
 62
     5
 63
     7
421
 16777215
 74
     2
 91
        2
 64
     7
 65
   257
 75
     1
175
     1
 42
40.0
 92
        8
 66
     7
 43
1.0
 76
     1
 77
     6
 78
     2
 67
     7
 79
     3
170
     0
171
     0
290
     0
174
     0
 93
        1
 44
0.0
173
     0
291
     0
 45
0.0
  0
VISUALSTYLE
  5
28A
102
{ACAD_REACTORS
330
27F
102
}
330
27F
100
AcDbVisualStyle
  2
Dim
 70
    11
 71
     2
 72
     2
 73
     0
 90
        0
 40
-0.6
 41
-30.0
 62
     5
 63
     7
421
 16777215
 74
     1
 91
        4
 64
     7
 65
   257
 75
     1
175
     1
 42
1.0
 92
        8
 66
     7
 43
1.0
 76
     1
 77
     6
 78
     2
 67
     7
 79
     5
170
     0
171
     0
290
     0
174
     0
 93
        1
 44
-50.0
173
     0
291
     1
 45
0.0
  0
VISUALSTYLE
  5
28E
102
{ACAD_REACTORS
330
27F
102
}
330
27F
100
AcDbVisualStyle
  2
Facepattern
 70
    15
 71
     2
 72
     2
 73
     0
 90
        0
 40
-0.6
 41
-30.0
 62
     5
 63
     7
421
 16777215
 74
     1
 91
        4
 64
     7
 65
   257
 75
     1
175
     1
 42
1.0
 92
        8
 66
     7
 43
1.0
 76
     1
 77
     6
 78
     2
 67
     7
 79
     5
170
     0
171
     0
290
     0
174
     0
 93
        1
 44
0.0
173
     0
291
     1
 45
0.0
  0
VISUALSTYLE
  5
280
102
{ACAD_REACTORS
330
27F
102
}
330
27F
100
AcDbVisualStyle
  2
Flat
 70
     0
 71
     2
 72
     1
 73
     1
 90
        2
 40
-0.6
 41
30.0
 62
     5
 63
     7
421
 16777215
 74
     0
 91
        4
 64
     7
 65
   257
 75
     1
175
     1
 42
1.0
 92
        8
 66
     7
 43
1.0
 76
     1
 77
     6
 78
     2
 67
     7
 79
     5
170
     0
171
     0
290
     0
174
     0
 93
       13
 44
0.0
173
     0
291
     1
 45
0.0
  0
VISUALSTYLE
  5
281
102
{ACAD_REACTORS
330
27F
102
}
330
27F
100
AcDbVisualStyle
  2
FlatWithEdges
 70
     1
 71
     2
 72
     1
 73
     1
 90
        2
 40
-0.6
 41
30.0
 62
     5
 63
     7
421
 16777215
 74
     1
 91
        4
 64
     7
 65
   257
 75
     1
175
     1
 42
1.0
 92
        0
 66
   257
 43
1.0
 76
     1
 77
     6
 78
     2
 67
     7
 79
     5
170
     0
171
     0
290
     0
174
     0
 93
       13
 44
0.0
173
     0
291
     1
 45
0.0
  0
VISUALSTYLE
  5
282
102
{ACAD_REACTORS
330
27F
102
}
330
27F
100
AcDbVisualStyle
  2
Gouraud
 70
     2
 71
     2
 72
     2
 73
     1
 90
        2
 40
-0.6
 41
30.0
 62
     5
 63
     7
421
 16777215
 74
     0
 91
        4
 64
     7
 65
   257
 75
     1
175
     1
 42
1.0
 92
        0
 66
     7
 43
1.0
 76
     1
 77
     6
 78
     2
 67
     7
 79
     5
170
     0
171
     0
290
     0
174
     0
 93
       13
 44
0.0
173
     0
291
     1
 45
0.0
  0
VISUALSTYLE
  5
283
102
{ACAD_REACTORS
330
27F
102
}
330
27F
100
AcDbVisualStyle
  2
GouraudWithEdges
 70
     3
 71
     2
 72
     2
 73
     1
 90
        2
 40
-0.6
 41
30.0
 62
     5
 63
     7
421
 16777215
 74
     1
 91
        4
 64
     7
 65
   257
 75
     1
175
     1
 42
1.0
 92
        0
 66
   257
 43
1.0
 76
     1
 77
     6
 78
     2
 67
     7
 79
     5
170
     0
171
     0
290
     0
174
     0
 93
       13
 44
0.0
173
     0
291
     1
 45
0.0
  0
VISUALSTYLE
  5
28D
102
{ACAD_REACTORS
330
27F
102
}
330
27F
100
AcDbVisualStyle
  2
Linepattern
 70
    14
 71
     2
 72
     2
 73
     0
 90
        0
 40
-0.6
 41
-30.0
 62
     5
 63
     7
421
 16777215
 74
     1
 91
        4
 64
     7
 65
   257
 75
     7
175
     7
 42
1.0
 92
        8
 66
     7
 43
1.0
 76
     1
 77
     6
 78
     2
 67
     7
 79
     5
170
     0
171
     0
290
     0
174
     0
 93
        1
 44
0.0
173
     0
291
     1
 45
0.0
  0
VISUALSTYLE
  5
289
102
{ACAD_REACTORS
330
27F
102
}
330
27F
100
AcDbVisualStyle
  2
Realistic
 70
     8
 71
     2
 72
     2
 73
     0
 90
        0
 40
-0.6
 41
-30.0
 62
     5
 63
     7
421
 16777215
 74
     1
 91
        0
 64
     7
 65
   257
 75
     1
175
     1
 42
1.0
 92
        8
 66
     8
424
  7895160
 43
1.0
 76
     1
 77
     6
 78
     2
 67
     7
 79
     5
170
     0
171
     0
290
     0
174
     0
 93
       13
 44
0.0
173
     0
291
     0
 45
0.0
  0
VISUALSTYLE
  5
28C
102
{ACAD_REACTORS
330
27F
102
}
330
27F
100
AcDbVisualStyle
  2
Thicken
 70
    13
 71
     2
 72
     2
 73
     0
 90
        0
 40
-0.6
 41
-30.0
 62
     5
 63
     7
421
 16777215
 74
     1
 91
        4
 64
     7
 65
   257
 75
     1
175
     1
 42
1.0
 92
       12
 66
     7
 43
1.0
 76
     1
 77
     6
 78
     2
 67
     7
 79
     5
170
     0
171
     0
290
     0
174
     0
 93
        1
 44
0.0
173
     0
291
     1
 45
0.0
  0
DICTIONARYVAR
  5
2FA
102
{ACAD_REACTORS
330
34
102
}
330
34
100
DictionaryVariables
280
     0
  1
1:4
  0
DICTIONARYVAR
  5
2F8
102
{ACAD_REACTORS
330
34
102
}
330
34
100
DictionaryVariables
280
     0
  1
STANDARD
  0
DICTIONARYVAR
  5
140
102
{ACAD_REACTORS
330
34
102
}
330
34
100
DictionaryVariables
280
     0
  1
STANDARD
  0
DICTIONARYVAR
  5
AC
102
{ACAD_REACTORS
330
34
102
}
330
34
100
DictionaryVariables
280
     0
  1
1
  0
DICTIONARYVAR
  5
35
102
{ACAD_REACTORS
330
34
102
}
330
34
100
DictionaryVariables
280
     0
  1
1
  0
DICTIONARYVAR
  5
5828
102
{ACAD_REACTORS
330
34
102
}
330
34
100
DictionaryVariables
280
     0
  1
1
  0
DICTIONARYVAR
  5
5829
102
{ACAD_REACTORS
330
34
102
}
330
34
100
DictionaryVariables
280
     0
  1
15
  0
DICTIONARYVAR
  5
2FB
102
{ACAD_REACTORS
330
34
102
}
330
34
100
DictionaryVariables
280
     0
  1
0
  0
DICTIONARYVAR
  5
2F9
102
{ACAD_REACTORS
330
34
102
}
330
34
100
DictionaryVariables
280
     0
  1
0
  0
DICTIONARY
  5
161B
102
{ACAD_REACTORS
330
49
102
}
330
49
100
AcDbDictionary
281
     1
  0
DICTIONARY
  5
4A
102
{ACAD_REACTORS
330
49
102
}
330
49
100
AcDbDictionary
281
     1
  0
XRECORD
  5
12B
102
{ACAD_REACTORS
330
49
102
}
330
49
100
AcDbXrecord
280
     1
 90
-1023410169
  0
DICTIONARY
  5
2F5
330
122
100
AcDbDictionary
280
     1
281
     1
  3
ACAD_ROUNDTRIP_2008_TABLESTYLE_CELLSTYLEMAP
360
6241
  0
CELLSTYLEMAP
  5
6241
102
{ACAD_REACTORS
330
2F5
102
}
330
2F5
100
AcDbCellStyleMap
 90
        3
300
CELLSTYLE
  1
TABLEFORMAT_BEGIN
 90
        5
170
     1
 91
        0
 92
    32768
 62
   257
 93
        1
300
CONTENTFORMAT
  1
CONTENTFORMAT_BEGIN
 90
        0
 91
        0
 92
      512
 93
        0
300

 40
0.0
140
1.0
 94
        5
 62
     0
340
11
144
6.0
309
CONTENTFORMAT_END
171
     1
301
MARGIN
  1
CELLMARGIN_BEGIN
 40
1.5
 40
1.5
 40
1.5
 40
1.5
 40
0.18
 40
0.18
309
CELLMARGIN_END
 94
        6
 95
        1
302
GRIDFORMAT
  1
GRIDFORMAT_BEGIN
 90
        0
 91
        1
 62
     0
 92
       -2
340
0
 93
        0
 40
0.045
309
GRIDFORMAT_END
 95
        2
302
GRIDFORMAT
  1
GRIDFORMAT_BEGIN
 90
        0
 91
        1
 62
     0
 92
       -2
340
0
 93
        0
 40
0.045
309
GRIDFORMAT_END
 95
        4
302
GRIDFORMAT
  1
GRIDFORMAT_BEGIN
 90
        0
 91
        1
 62
     0
 92
       -2
340
0
 93
        0
 40
0.045
309
GRIDFORMAT_END
 95
        8
302
GRIDFORMAT
  1
GRIDFORMAT_BEGIN
 90
        0
 91
        1
 62
     0
 92
       -2
340
0
 93
        0
 40
0.045
309
GRIDFORMAT_END
 95
       16
302
GRIDFORMAT
  1
GRIDFORMAT_BEGIN
 90
        0
 91
        1
 62
     0
 92
       -2
340
0
 93
        0
 40
0.045
309
GRIDFORMAT_END
 95
       32
302
GRIDFORMAT
  1
GRIDFORMAT_BEGIN
 90
        0
 91
        1
 62
     0
 92
       -2
340
0
 93
        0
 40
0.045
309
GRIDFORMAT_END
309
TABLEFORMAT_END
  1
CELLSTYLE_BEGIN
 90
        1
 91
        1
300
_TITLE
309
CELLSTYLE_END
300
CELLSTYLE
  1
TABLEFORMAT_BEGIN
 90
        5
170
     1
 91
        0
 92
        0
 62
   257
 93
        1
300
CONTENTFORMAT
  1
CONTENTFORMAT_BEGIN
 90
        0
 91
        0
 92
      512
 93
        0
300

 40
0.0
140
1.0
 94
        5
 62
     0
340
11
144
4.5
309
CONTENTFORMAT_END
171
     1
301
MARGIN
  1
CELLMARGIN_BEGIN
 40
1.5
 40
1.5
 40
1.5
 40
1.5
 40
0.18
 40
0.18
309
CELLMARGIN_END
 94
        6
 95
        1
302
GRIDFORMAT
  1
GRIDFORMAT_BEGIN
 90
        0
 91
        1
 62
     0
 92
       -2
340
0
 93
        0
 40
0.045
309
GRIDFORMAT_END
 95
        2
302
GRIDFORMAT
  1
GRIDFORMAT_BEGIN
 90
        0
 91
        1
 62
     0
 92
       -2
340
0
 93
        0
 40
0.045
309
GRIDFORMAT_END
 95
        4
302
GRIDFORMAT
  1
GRIDFORMAT_BEGIN
 90
        0
 91
        1
 62
     0
 92
       -2
340
0
 93
        0
 40
0.045
309
GRIDFORMAT_END
 95
        8
302
GRIDFORMAT
  1
GRIDFORMAT_BEGIN
 90
        0
 91
        1
 62
     0
 92
       -2
340
0
 93
        0
 40
0.045
309
GRIDFORMAT_END
 95
       16
302
GRIDFORMAT
  1
GRIDFORMAT_BEGIN
 90
        0
 91
        1
 62
     0
 92
       -2
340
0
 93
        0
 40
0.045
309
GRIDFORMAT_END
 95
       32
302
GRIDFORMAT
  1
GRIDFORMAT_BEGIN
 90
        0
 91
        1
 62
     0
 92
       -2
340
0
 93
        0
 40
0.045
309
GRIDFORMAT_END
309
TABLEFORMAT_END
  1
CELLSTYLE_BEGIN
 90
        2
 91
        1
300
_HEADER
309
CELLSTYLE_END
300
CELLSTYLE
  1
TABLEFORMAT_BEGIN
 90
        5
170
     1
 91
        0
 92
        0
 62
   257
 93
        1
300
CONTENTFORMAT
  1
CONTENTFORMAT_BEGIN
 90
        0
 91
        0
 92
      512
 93
        0
300

 40
0.0
140
1.0
 94
        2
 62
     0
340
11
144
4.5
309
CONTENTFORMAT_END
171
     1
301
MARGIN
  1
CELLMARGIN_BEGIN
 40
1.5
 40
1.5
 40
1.5
 40
1.5
 40
0.18
 40
0.18
309
CELLMARGIN_END
 94
        6
 95
        1
302
GRIDFORMAT
  1
GRIDFORMAT_BEGIN
 90
        0
 91
        1
 62
     0
 92
       -2
340
0
 93
        0
 40
0.045
309
GRIDFORMAT_END
 95
        2
302
GRIDFORMAT
  1
GRIDFORMAT_BEGIN
 90
        0
 91
        1
 62
     0
 92
       -2
340
0
 93
        0
 40
0.045
309
GRIDFORMAT_END
 95
        4
302
GRIDFORMAT
  1
GRIDFORMAT_BEGIN
 90
        0
 91
        1
 62
     0
 92
       -2
340
0
 93
        0
 40
0.045
309
GRIDFORMAT_END
 95
        8
302
GRIDFORMAT
  1
GRIDFORMAT_BEGIN
 90
        0
 91
        1
 62
     0
 92
       -2
340
0
 93
        0
 40
0.045
309
GRIDFORMAT_END
 95
       16
302
GRIDFORMAT
  1
GRIDFORMAT_BEGIN
 90
        0
 91
        1
 62
     0
 92
       -2
340
0
 93
        0
 40
0.045
309
GRIDFORMAT_END
 95
       32
302
GRIDFORMAT
  1
GRIDFORMAT_BEGIN
 90
        0
 91
        1
 62
     0
 92
       -2
340
0
 93
        0
 40
0.045
309
GRIDFORMAT_END
309
TABLEFORMAT_END
  1
CELLSTYLE_BEGIN
 90
        3
 91
        2
300
_DATA
309
CELLSTYLE_END
  0
ENDSEC
  0
EOF
