  0
SECTION
  2
HEADER
  9
$ACADVER
  1
AC1021
  9
$ACADMAINTVER
 70
    26
  9
$DWGCODEPAGE
  3
ANSI_932
  9
$LASTSAVEDBY
  1
Htm_Terada
  9
$CUSTOMPROPERTYTAG
  1
AmdtFileType
  9
$CUSTOMPROPERTY
  1
84
  9
$INSBASE
 10
0.0
 20
0.0
 30
0.0
  9
$EXTMIN
 10
1328.666129114044
 20
1363.677924502864
 30
0.0
  9
$EXTMAX
 10
3227.628483440933
 20
2683.129721246367
 30
0.0
  9
$LIMMIN
 10
0.0000019143385543
 20
0.0000036938206449
  9
$LIMMAX
 10
4200.000001914339
 20
2970.000003693821
  9
$ORTHOMODE
 70
     1
  9
$REGENMODE
 70
     1
  9
$FILLMODE
 70
     1
  9
$QTEXTMODE
 70
     0
  9
$MIRRTEXT
 70
     1
  9
$LTSCALE
 40
10.0
  9
$ATTMODE
 70
     1
  9
$TEXTSIZE
 40
25.0
  9
$TRACEWID
 40
1.0
  9
$TEXTSTYLE
  7
SEISA
  9
$CLAYER
  8
AM_11 想像線
  9
$CELTYPE
  6
ByLayer
  9
$CECOLOR
 62
   256
  9
$CELTSCALE
 40
1.0
  9
$DISPSILH
 70
     0
  9
$DIMSCALE
 40
10.0
  9
$DIMASZ
 40
2.5
  9
$DIMEXO
 40
0.625
  9
$DIMDLI
 40
10.0
  9
$DIMRND
 40
0.0
  9
$DIMDLE
 40
0.0
  9
$DIMEXE
 40
0.625
  9
$DIMTP
 40
0.1
  9
$DIMTM
 40
0.1
  9
$DIMTXT
 40
3.5
  9
$DIMCEN
 40
0.0
  9
$DIMTSZ
 40
0.0
  9
$DIMTOL
 70
     0
  9
$DIMLIM
 70
     0
  9
$DIMTIH
 70
     0
  9
$DIMTOH
 70
     0
  9
$DIMSE1
 70
     0
  9
$DIMSE2
 70
     0
  9
$DIMTAD
 70
     3
  9
$DIMZIN
 70
     8
  9
$DIMBLK
  1
Open30
  9
$DIMASO
 70
     1
  9
$DIMSHO
 70
     1
  9
$DIMPOST
  1

  9
$DIMAPOST
  1
"
  9
$DIMALT
 70
     0
  9
$DIMALTD
 70
     2
  9
$DIMALTF
 40
0.0393701
  9
$DIMLFAC
 40
1.0
  9
$DIMTOFL
 70
     1
  9
$DIMTVP
 40
0.0
  9
$DIMTIX
 70
     0
  9
$DIMSOXD
 70
     0
  9
$DIMSAH
 70
     0
  9
$DIMBLK1
  1

  9
$DIMBLK2
  1

  9
$DIMSTYLE
  2
SEISA
  9
$DIMCLRD
 70
     3
  9
$DIMCLRE
 70
     3
  9
$DIMCLRT
 70
     3
  9
$DIMTFAC
 40
0.71
  9
$DIMGAP
 40
1.5
  9
$DIMJUST
 70
     0
  9
$DIMSD1
 70
     0
  9
$DIMSD2
 70
     0
  9
$DIMTOLJ
 70
     0
  9
$DIMTZIN
 70
     0
  9
$DIMALTZ
 70
     0
  9
$DIMALTTZ
 70
     8
  9
$DIMUPT
 70
     0
  9
$DIMDEC
 70
     2
  9
$DIMTDEC
 70
     2
  9
$DIMALTU
 70
     2
  9
$DIMALTTD
 70
     2
  9
$DIMTXSTY
  7
SEISA
  9
$DIMAUNIT
 70
     0
  9
$DIMADEC
 70
     0
  9
$DIMALTRND
 40
0.0
  9
$DIMAZIN
 70
     2
  9
$DIMDSEP
 70
    46
  9
$DIMATFIT
 70
     3
  9
$DIMFRAC
 70
     0
  9
$DIMLDRBLK
  1
Open30
  9
$DIMLUNIT
 70
     2
  9
$DIMLWD
 70
    -1
  9
$DIMLWE
 70
    -1
  9
$DIMTMOVE
 70
     0
  9
$DIMFXL
 40
1.0
  9
$DIMFXLON
 70
     0
  9
$DIMJOGANG
 40
0.7853981633974483
  9
$DIMTFILL
 70
     0
  9
$DIMTFILLCLR
 70
     0
  9
$DIMARCSYM
 70
     1
  9
$DIMLTYPE
  6

  9
$DIMLTEX1
  6

  9
$DIMLTEX2
  6

  9
$LUNITS
 70
     2
  9
$LUPREC
 70
     2
  9
$SKETCHINC
 40
1.0
  9
$FILLETRAD
 40
2.5
  9
$AUNITS
 70
     0
  9
$AUPREC
 70
     0
  9
$MENU
  1
.
  9
$ELEVATION
 40
0.0
  9
$PELEVATION
 40
0.0
  9
$THICKNESS
 40
0.0
  9
$LIMCHECK
 70
     0
  9
$CHAMFERA
 40
3.000000000000453
  9
$CHAMFERB
 40
3.0
  9
$CHAMFERC
 40
3.000000000000453
  9
$CHAMFERD
 40
0.7853981633973726
  9
$SKPOLY
 70
     0
  9
$TDCREATE
 40
2454945.420595637
  9
$TDUCREATE
 40
2454945.045595636
  9
$TDUPDATE
 40
2456479.567998588
  9
$TDUUPDATE
 40
2456479.192998588
  9
$TDINDWG
 40
0.4612236458
  9
$TDUSRTIMER
 40
0.4612227431
  9
$USRTIMER
 70
     1
  9
$ANGBASE
 50
0.0
  9
$ANGDIR
 70
     0
  9
$PDMODE
 70
     0
  9
$PDSIZE
 40
0.0
  9
$PLINEWID
 40
0.0
  9
$SPLFRAME
 70
     0
  9
$SPLINETYPE
 70
     6
  9
$SPLINESEGS
 70
     8
  9
$HANDSEED
  5
8910
  9
$SURFTAB1
 70
     6
  9
$SURFTAB2
 70
     6
  9
$SURFTYPE
 70
     6
  9
$SURFU
 70
     6
  9
$SURFV
 70
     6
  9
$UCSBASE
  2

  9
$UCSNAME
  2

  9
$UCSORG
 10
0.0
 20
0.0
 30
0.0
  9
$UCSXDIR
 10
1.0
 20
0.0
 30
0.0
  9
$UCSYDIR
 10
0.0
 20
1.0
 30
0.0
  9
$UCSORTHOREF
  2

  9
$UCSORTHOVIEW
 70
     0
  9
$UCSORGTOP
 10
0.0
 20
0.0
 30
0.0
  9
$UCSORGBOTTOM
 10
0.0
 20
0.0
 30
0.0
  9
$UCSORGLEFT
 10
0.0
 20
0.0
 30
0.0
  9
$UCSORGRIGHT
 10
0.0
 20
0.0
 30
0.0
  9
$UCSORGFRONT
 10
0.0
 20
0.0
 30
0.0
  9
$UCSORGBACK
 10
0.0
 20
0.0
 30
0.0
  9
$PUCSBASE
  2

  9
$PUCSNAME
  2

  9
$PUCSORG
 10
0.0
 20
0.0
 30
0.0
  9
$PUCSXDIR
 10
1.0
 20
0.0
 30
0.0
  9
$PUCSYDIR
 10
0.0
 20
1.0
 30
0.0
  9
$PUCSORTHOREF
  2

  9
$PUCSORTHOVIEW
 70
     0
  9
$PUCSORGTOP
 10
0.0
 20
0.0
 30
0.0
  9
$PUCSORGBOTTOM
 10
0.0
 20
0.0
 30
0.0
  9
$PUCSORGLEFT
 10
0.0
 20
0.0
 30
0.0
  9
$PUCSORGRIGHT
 10
0.0
 20
0.0
 30
0.0
  9
$PUCSORGFRONT
 10
0.0
 20
0.0
 30
0.0
  9
$PUCSORGBACK
 10
0.0
 20
0.0
 30
0.0
  9
$USERI1
 70
     0
  9
$USERI2
 70
     0
  9
$USERI3
 70
     0
  9
$USERI4
 70
     0
  9
$USERI5
 70
     0
  9
$USERR1
 40
0.0
  9
$USERR2
 40
0.0
  9
$USERR3
 40
0.0
  9
$USERR4
 40
0.0
  9
$USERR5
 40
0.0
  9
$WORLDVIEW
 70
     1
  9
$SHADEDGE
 70
     3
  9
$SHADEDIF
 70
    70
  9
$TILEMODE
 70
     1
  9
$MAXACTVP
 70
    64
  9
$PINSBASE
 10
0.0
 20
0.0
 30
0.0
  9
$PLIMCHECK
 70
     0
  9
$PEXTMIN
 10
1.000000000000000E+20
 20
1.000000000000000E+20
 30
1.000000000000000E+20
  9
$PEXTMAX
 10
-1.000000000000000E+20
 20
-1.000000000000000E+20
 30
-1.000000000000000E+20
  9
$PLIMMIN
 10
0.0
 20
0.0
  9
$PLIMMAX
 10
420.0
 20
297.0
  9
$UNITMODE
 70
     0
  9
$VISRETAIN
 70
     1
  9
$PLINEGEN
 70
     0
  9
$PSLTSCALE
 70
     1
  9
$TREEDEPTH
 70
  3020
  9
$CMLSTYLE
  2
Standard
  9
$CMLJUST
 70
     0
  9
$CMLSCALE
 40
20.0
  9
$PROXYGRAPHICS
 70
     1
  9
$MEASUREMENT
 70
     1
  9
$CELWEIGHT
370
    -1
  9
$ENDCAPS
280
     0
  9
$JOINSTYLE
280
     0
  9
$LWDISPLAY
290
     0
  9
$INSUNITS
 70
     4
  9
$HYPERLINKBASE
  1

  9
$STYLESHEET
  1
SEISA.CTB
  9
$XEDIT
290
     1
  9
$CEPSNTYPE
380
     0
  9
$PSTYLEMODE
290
     1
  9
$FINGERPRINTGUID
  2
{AE3AAC6C-34F2-49CA-B5FE-CE2FD74AA6DF}
  9
$VERSIONGUID
  2
{318978A5-7A71-4FFF-9132-2512A2F6D02C}
  9
$EXTNAMES
290
     1
  9
$PSVPSCALE
 40
0.0
  9
$OLESTARTUP
290
     0
  9
$SORTENTS
280
   127
  9
$INDEXCTL
280
     0
  9
$HIDETEXT
280
     0
  9
$XCLIPFRAME
290
     0
  9
$HALOGAP
280
     0
  9
$OBSCOLOR
 70
   257
  9
$OBSLTYPE
280
     0
  9
$INTERSECTIONDISPLAY
280
     0
  9
$INTERSECTIONCOLOR
 70
   257
  9
$DIMASSOC
280
     2
  9
$PROJECTNAME
  1

  9
$CAMERADISPLAY
290
     0
  9
$LENSLENGTH
 40
50.0
  9
$CAMERAHEIGHT
 40
0.0
  9
$STEPSPERSEC
 40
2.0
  9
$STEPSIZE
 40
6.0
  9
$3DDWFPREC
 40
2.0
  9
$PSOLWIDTH
 40
0.25
  9
$PSOLHEIGHT
 40
4.0
  9
$LOFTANG1
 40
1.570796326794896
  9
$LOFTANG2
 40
1.570796326794896
  9
$LOFTMAG1
 40
0.0
  9
$LOFTMAG2
 40
0.0
  9
$LOFTPARAM
 70
     7
  9
$LOFTNORMALS
280
     1
  9
$LATITUDE
 40
37.795
  9
$LONGITUDE
 40
-122.394
  9
$NORTHDIRECTION
 40
0.0
  9
$TIMEZONE
 70
 -8000
  9
$LIGHTGLYPHDISPLAY
280
     1
  9
$TILEMODELIGHTSYNCH
280
     1
  9
$CMATERIAL
347
27C
  9
$SOLIDHIST
280
     1
  9
$SHOWHIST
280
     1
  9
$DWFFRAME
280
     2
  9
$DGNFRAME
280
     0
  9
$REALWORLDSCALE
290
     1
  9
$INTERFERECOLOR
 62
     1
  9
$INTERFEREOBJVS
345
289
  9
$INTERFEREVPVS
346
286
  9
$CSHADOW
280
     0
  9
$SHADOWPLANELOCATION
 40
0.0
  0
ENDSEC
  0
SECTION
  2
CLASSES
  0
CLASS
  1
ACDBDICTIONARYWDFLT
  2
AcDbDictionaryWithDefault
  3
ObjectDBX Classes
 90
        0
 91
        1
280
     0
281
     0
  0
CLASS
  1
AMGSETTINGSOBJ
  2
AmgSettingsObj
  3
"AcadM|Product Description: AutoCAD Mechanical|Company: Autodesk, Inc."
 90
     1024
 91
        2
280
     0
281
     0
  0
CLASS
  1
ACME_DOCUMENT
  2
AcMeDbDoc
  3
AcMeServices
 90
     1024
 91
        1
280
     0
281
     0
  0
CLASS
  1
ACMESCOPE
  2
AcMeScope
  3
AcMeServices
 90
     1024
 91
        1
280
     0
281
     0
  0
CLASS
  1
ACMECOMMANDHISTORY
  2
AcMeCommandHistory
  3
AcMeServices
 90
     1024
 91
        1
280
     0
281
     0
  0
CLASS
  1
DICTIONARYVAR
  2
AcDbDictionaryVar
  3
ObjectDBX Classes
 90
        0
 91
        9
280
     0
281
     0
  0
CLASS
  1
ACIMSYSVARMAN
  2
AcImSysVarManager
  3
AcMeServices
 90
     1024
 91
        5
280
     0
281
     0
  0
CLASS
  1
ACIMREALSYSVAR
  2
AcImRealSysVar
  3
AcMeServices
 90
     1024
 91
        1
280
     0
281
     0
  0
CLASS
  1
ACIMINTSYSVAR
  2
AcImIntSysVar
  3
AcMeServices
 90
     1024
 91
       27
280
     0
281
     0
  0
CLASS
  1
ACMEDRAWINGMAN
  2
AcMeDrawingMan
  3
AcMeServices
 90
     1024
 91
        1
280
     0
281
     0
  0
CLASS
  1
ACMEVIEW
  2
AcMeView
  3
AcMeServices
 90
     1024
 91
        1
280
     0
281
     0
  0
CLASS
  1
ACDBENTITYCACHE
  2
AcMeEntityCache
  3
AcMeServices
 90
     1024
 91
        1
280
     0
281
     0
  0
CLASS
  1
GSMANAGER
  2
AcMeGSManager
  3
AcMeServices
 90
     1024
 91
        1
280
     0
281
     0
  0
CLASS
  1
AMDTINTERNALREACTOR
  2
AmdtInternalReactor
  3
AcMeServices
 90
     1024
 91
        2
280
     0
281
     0
  0
CLASS
  1
ACMESTATEMGR
  2
AcMeStateMgr
  3
AcMeServices
 90
     1024
 91
        1
280
     0
281
     0
  0
CLASS
  1
ACGREFMASTER
  2
AcGrefMaster
  3
AcAttribServices
 90
     1024
 91
        1
280
     0
281
     0
  0
CLASS
  1
ACME_DATABASE
  2
AcMeDbDatabase
  3
AcMeServices
 90
     1024
 91
        1
280
     0
281
     0
  0
CLASS
  1
ACRFINSADJUSTERMGR
  2
AcRfInsAdjusterMgr
  3
AcMeServices
 90
     1024
 91
        1
280
     0
281
     0
  0
CLASS
  1
ACGREFACADMASTER
  2
AcGrefacadMaster
  3
AcGrefServices
 90
     1024
 91
        1
280
     0
281
     0
  0
CLASS
  1
AMIMASTER
  2
AmiMaster
  3
AmiServices
 90
     1024
 91
        1
280
     0
281
     0
  0
CLASS
  1
ACIMSTRSYSVAR
  2
AcImStrSysVar
  3
AcMeServices
 90
     1024
 91
        5
280
     0
281
     0
  0
CLASS
  1
ACMSTANDARDJIS
  2
AcmStandardJIS
  3
"Amdt_StdImp|Product Description: AutoCAD Mechanical|Company: Autodesk, Inc."
 90
     1024
 91
        0
280
     0
281
     0
  0
CLASS
  1
AMGOBJPROPCFG
  2
AmgObjPropCfg
  3
"AmgLay|Product Description: AutoCAD Mechanical|Company: Autodesk, Inc."
 90
     1025
 91
        1
280
     0
281
     0
  0
CLASS
  1
ACMSURFSTANDARDJIS
  2
AcmSurfTextStdJIS
  3
"Amdt_StdImp|Product Description: AutoCAD Mechanical|Company: Autodesk, Inc."
 90
     1024
 91
        0
280
     0
281
     0
  0
CLASS
  1
ACMFCFSTANDARDJIS
  2
AcmFCFStdJIS
  3
"Amdt_StdImp|Product Description: AutoCAD Mechanical|Company: Autodesk, Inc."
 90
     1024
 91
        0
280
     0
281
     0
  0
CLASS
  1
ACMWELDSTANDARDJIS
  2
AcmWeldingStdJIS
  3
"Amdt_StdImp|Product Description: AutoCAD Mechanical|Company: Autodesk, Inc."
 90
     1024
 91
        0
280
     0
281
     0
  0
CLASS
  1
ACMIDSTANDARDJIS
  2
AcmIdStdJIS
  3
"Amdt_StdImp|Product Description: AutoCAD Mechanical|Company: Autodesk, Inc."
 90
     1024
 91
        0
280
     0
281
     0
  0
CLASS
  1
ACMDATUMSTANDARDJIS
  2
AcmDatumStdJIS
  3
"Amdt_StdImp|Product Description: AutoCAD Mechanical|Company: Autodesk, Inc."
 90
     1024
 91
        0
280
     0
281
     0
  0
CLASS
  1
ACMBOMSTANDARDJIS
  2
AcmBOMStdJIS
  3
"Amdt_StdImp|Product Description: AutoCAD Mechanical|Company: Autodesk, Inc."
 90
     1024
 91
        0
280
     0
281
     0
  0
CLASS
  1
ACMDETAILSTANDARDJIS
  2
AmdtDetailSymStdJIS
  3
"Amdt_StdImp|Product Description: AutoCAD Mechanical|Company: Autodesk, Inc."
 90
     1024
 91
        0
280
     0
281
     0
  0
CLASS
  1
ACMSECTIONSTANDARDJIS
  2
AmdtSectionSymStdJIS
  3
"Amdt_StdImp|Product Description: AutoCAD Mechanical|Company: Autodesk, Inc."
 90
     1024
 91
        0
280
     0
281
     0
  0
CLASS
  1
ACMCENTERLINESTANDARDJIS
  2
AmdtCenterLineStdJIS
  3
"Amdt_StdImp|Product Description: AutoCAD Mechanical|Company: Autodesk, Inc."
 90
     1024
 91
        0
280
     0
281
     0
  0
CLASS
  1
ACMTHREADLINESTANDARDJIS
  2
AmdtThreadLineStdJIS
  3
"Amdt_StdImp|Product Description: AutoCAD Mechanical|Company: Autodesk, Inc."
 90
     1024
 91
        0
280
     0
281
     0
  0
CLASS
  1
ACAMGLAYSTD
  2
AcAmgLayStd
  3
"AmgLay|Product Description: AutoCAD Mechanical|Company: Autodesk, Inc."
 90
     1024
 91
        1
280
     0
281
     0
  0
CLASS
  1
ACAMGDIMSTD
  2
AcAmgDimStd
  3
"AmgDim|Product Description: AutoCAD Mechanical|Company: Autodesk, Inc."
 90
     1024
 91
        1
280
     0
281
     0
  0
CLASS
  1
ACAMGTITLESTD
  2
AcAmgTitleStd
  3
"AmgTitle|Product Description: AutoCAD Mechanical|Company: Autodesk, Inc."
 90
     4095
 91
        1
280
     0
281
     0
  0
CLASS
  1
ACMDATADICTIONARY
  2
AcmDataDictionary
  3
"AcmSymBB|Product Description: AutoCAD Mechanical|Company: Autodesk, Inc."
 90
     1024
 91
        1
280
     0
281
     0
  0
CLASS
  1
ACMDATAENTRYBLOCK
  2
AcmDataEntryBlock
  3
AcmSymBB|Product Description: AutoCAD Mechanical|Company: Autodesk, Inc.
 90
     1024
 91
        0
280
     0
281
     0
  0
CLASS
  1
LAYER_INDEX
  2
AcDbLayerIndex
  3
ObjectDBX Classes
 90
        0
 91
        0
280
     0
281
     0
  0
CLASS
  1
IDBUFFER
  2
AcDbIdBuffer
  3
ObjectDBX Classes
 90
        0
 91
        0
280
     0
281
     0
  0
CLASS
  1
ACMNOTESTANDARDJIS
  2
AmdtNoteStdJIS
  3
"Amdt_StdImp|Product Description: AutoCAD Mechanical|Company: Autodesk, Inc."
 90
     1024
 91
        0
280
     0
281
     0
  0
CLASS
  1
ACAMGHOLECHARTSTDJIS
  2
AcAmgHoleChartStdJIS
  3
AmgDim|Product Description: AutoCAD Mechanical|Company: Autodesk, Inc.
 90
     1024
 91
        0
280
     0
281
     0
  0
CLASS
  1
AM_DRAWING_MGR
  2
AcDmDwgMgr
  3
AcMechDwgViewMgmt
 90
     1024
 91
        1
280
     0
281
     0
  0
CLASS
  1
AM_DWG_DOCUMENT
  2
AcDmDwgDocument
  3
AcMechDwgViewMgmt
 90
     1024
 91
        1
280
     0
281
     0
  0
CLASS
  1
AM_DWG_SHEET
  2
AcDmSheet
  3
AcMechDwgViewMgmt
 90
     1024
 91
        2
280
     0
281
     0
  0
CLASS
  1
AM_VIEWDIMPARMAP
  2
AcDmViewDimParMap
  3
AcMechDwgViewMgmt
 90
     1024
 91
        2
280
     0
281
     0
  0
CLASS
  1
AM_DWGMGR_NAME
  2
AcDmDwgMgrName
  3
AcMechDwgViewMgmt
 90
     1024
 91
        1
280
     0
281
     0
  0
CLASS
  1
AMDTMENUSTATEMGR
  2
AmdtMenuStateMgr
  3
McadcomServices
 90
     1024
 91
        1
280
     0
281
     0
  0
CLASS
  1
AMDTMCOMMENUSTATE
  2
AmdtMcomMenuState
  3
McadcomServices
 90
     1024
 91
        1
280
     0
281
     0
  0
CLASS
  1
MAPIAMMOUDLE
  2
MApiAmModule
  3
MApiAmServices
 90
     1024
 91
        1
280
     0
281
     0
  0
CLASS
  1
AMDTADMENUSTATE
  2
AmdtAdMenuState
  3
DesignerServices
 90
     1024
 91
        1
280
     0
281
     0
  0
CLASS
  1
ADAPPL
  2
AcAdAppl
  3
DesignerServices
 90
     1024
 91
        1
280
     0
281
     0
  0
CLASS
  1
DEPMGR
  2
AcAdDepMgr
  3
DesignerServices
 90
     1024
 91
        1
280
     0
281
     0
  0
CLASS
  1
PARAMMGR
  2
AcAdParamMgr
  3
DesignerServices
 90
     1024
 91
        1
280
     0
281
     0
  0
CLASS
  1
PARAMSCOPE
  2
AcAdParamScope
  3
DesignerServices
 90
     1024
 91
        1
280
     0
281
     0
  0
CLASS
  1
NAMEDAPPL
  2
AcAdNamedAppl
  3
DesignerServices
 90
     1024
 91
        1
280
     0
281
     0
  0
CLASS
  1
AMDTDMMENUSTATE
  2
AmdtDmMenuState
  3
AcMechDwgViewMgmt
 90
     1024
 91
        1
280
     0
281
     0
  0
CLASS
  1
AMDTAMMENUSTATE
  2
AmdtAmMenuState
  3
DesignerAssemblies
 90
     1024
 91
        1
280
     0
281
     0
  0
CLASS
  1
ACAMPROJECT
  2
AcAmProject
  3
DesignerAssemblies
 90
     1024
 91
        1
280
     0
281
     0
  0
CLASS
  1
ACAMGRCOMPDEF
  2
AcAmGrCompDef
  3
DesignerAssemblies
 90
     1024
 91
        1
280
     0
281
     0
  0
CLASS
  1
ACCMCONTEXT
  2
AcCmContext
  3
DesignerAssemblies
 90
     1024
 91
        1
280
     0
281
     0
  0
CLASS
  1
ACAMCOMPDEF
  2
AcAmCompDef
  3
DesignerAssemblies
 90
     1024
 91
        1
280
     0
281
     0
  0
CLASS
  1
ACAMCOMPDEFMGR
  2
AcAmCompDefMgr
  3
DesignerAssemblies
 90
     1024
 91
        1
280
     0
281
     0
  0
CLASS
  1
AMCONTEXTMGR
  2
AcAmContextMgr
  3
DesignerAssemblies
 90
     1024
 91
        1
280
     0
281
     0
  0
CLASS
  1
ACAMCONTEXTMODELER
  2
AcAmContextModeler
  3
DesignerAssemblies
 90
     1024
 91
        1
280
     0
281
     0
  0
CLASS
  1
CATALOGSTATE
  2
AcAmCatalogState
  3
DesignerAssemblies
 90
     1024
 91
        1
280
     0
281
     0
  0
CLASS
  1
ACAMGRCOMPDEFSET
  2
AcAmGrCompDefSet
  3
DesignerAssemblies
 90
     1024
 91
        1
280
     0
281
     0
  0
CLASS
  1
AMDTBROWSERDBTAB
  2
AmdtBrowserDbTab
  3
McadcomServices
 90
     1024
 91
        1
280
     0
281
     0
  0
CLASS
  1
CBROWSERAPPOBJECT
  2
CBrowserAppObject
  3
McadcomServices
 90
     1024
 91
        3
280
     0
281
     0
  0
CLASS
  1
DM_PLACEHOLDER
  2
AcDmSelsetPlaceholder
  3
AcMechDwgViewMgmt
 90
     1024
 91
        1
280
     0
281
     0
  0
CLASS
  1
TABLESTYLE
  2
AcDbTableStyle
  3
ObjectDBX Classes
 90
     4095
 91
        1
280
     0
281
     0
  0
CLASS
  1
VAACXREFPANELOBJECT
  2
VaAcXREFPanelObject
  3
VAAC_ADDIN
 90
        0
 91
        0
280
     0
281
     0
  0
CLASS
  1
VAACIMAGEINVENTORY
  2
VaAcImageInventory
  3
VAAC_ADDIN
 90
        0
 91
        0
280
     0
281
     0
  0
CLASS
  1
AMDTNOTETEMPLATEDB
  2
AmdtNoteTemplateDB
  3
AcmSymBB|Product Description: AutoCAD Mechanical|Company: Autodesk, Inc.
 90
     1024
 91
        6
280
     0
281
     0
  0
CLASS
  1
ACAMGFILTERDAT
  2
AcAmgFilterDat
  3
"AcadM|Product Description: AutoCAD Mechanical|Company: Autodesk, Inc."
 90
     1024
 91
        0
280
     0
281
     0
  0
CLASS
  1
MATERIAL
  2
AcDbMaterial
  3
ObjectDBX Classes
 90
     1153
 91
        3
280
     0
281
     0
  0
CLASS
  1
VISUALSTYLE
  2
AcDbVisualStyle
  3
ObjectDBX Classes
 90
     4095
 91
       16
280
     0
281
     0
  0
CLASS
  1
ACRFATTGENMGR
  2
AcRfAttGeneralMgr
  3
AcAttribServices
 90
     1024
 91
        0
280
     0
281
     0
  0
CLASS
  1
ACRFOBJATTMGR
  2
AcRfObjAttGroupMgr
  3
AcAttribServices
 90
     1024
 91
        0
280
     0
281
     0
  0
CLASS
  1
ACRFMCADAPIATTHOLDER
  2
AcRfMCADAPIAttHolder
  3
AcAttribServices
 90
     1024
 91
        0
280
     0
281
     0
  0
CLASS
  1
AMDTSYSATTR
  2
AmdtSystemAttribute
  3
AcAttribServices
 90
     1024
 91
        0
280
     0
281
     0
  0
CLASS
  1
ACMTAPERSTANDARDJIS
  2
AcmTaperStdJIS
  3
"Amdt_StdImp|Product Description: AutoCAD Mechanical|Company: Autodesk, Inc."
 90
     1024
 91
        0
280
     0
281
     0
  0
CLASS
  1
CAMSSTRUCTBTNSTATE
  2
StructBtnState
  3
DesignerAssemblies
 90
     1024
 91
        0
280
     0
281
     0
  0
CLASS
  1
SCALE
  2
AcDbScale
  3
ObjectDBX Classes
 90
     1153
 91
       36
280
     0
281
     0
  0
CLASS
  1
MLEADERSTYLE
  2
AcDbMLeaderStyle
  3
ACDB_MLEADERSTYLE_CLASS
 90
     4095
 91
        1
280
     0
281
     0
  0
CLASS
  1
ACMANOOTATIONVIEWSTANDARDJIS
  2
AmdtAnViewStdJIS
  3
"Amdt_StdImp|Product Description: AutoCAD Mechanical|Company: Autodesk, Inc."
 90
     1024
 91
        0
280
     0
281
     0
  0
CLASS
  1
ACMSURFSTANDARDJIS2003
  2
AcmSurfTextStdJIS2003
  3
"Amdt_StdImp|Product Description: AutoCAD Mechanical|Company: Autodesk, Inc."
 90
     1024
 91
        0
280
     0
281
     0
  0
CLASS
  1
CELLSTYLEMAP
  2
AcDbCellStyleMap
  3
ObjectDBX Classes
 90
     1152
 91
        2
280
     0
281
     0
  0
CLASS
  1
ACMFCFSTANDARDJIS98
  2
AcmFCFStdJIS98
  3
"Amdt_StdImp|Product Description: AutoCAD Mechanical|Company: Autodesk, Inc."
 90
     1024
 91
        0
280
     0
281
     0
  0
CLASS
  1
SORTENTSTABLE
  2
AcDbSortentsTable
  3
ObjectDBX Classes
 90
        0
 91
       11
280
     0
281
     0
  0
CLASS
  1
DIMASSOC
  2
AcDbDimAssoc
  3
"AcDbDimAssoc|Product Desc:     AcDim ARX App For Dimension|Company:          Autodesk, Inc.|WEB Address:      www.autodesk.com"
 90
        0
 91
       17
280
     0
281
     0
  0
CLASS
  1
STDPART2D
  2
AmgStdPart
  3
AmgStdPart|Product Description: AutoCAD Mechanical|Company: Autodesk, Inc.
 90
     4095
 91
        0
280
     0
281
     1
  0
CLASS
  1
ACMDATAENTRYPART
  2
AcmDataEntryPart
  3
AcmSymBB|Product Description: AutoCAD Mechanical|Company: Autodesk, Inc.
 90
     1024
 91
        0
280
     0
281
     0
  0
CLASS
  1
ACMPARTREF
  2
AcmPartRef
  3
"AcmSymBB|Product Description: AutoCAD Mechanical|Company: Autodesk, Inc."
 90
     4095
 91
        0
280
     0
281
     1
  0
CLASS
  1
ACDBSTDPARTRES_LINE
  2
AcDbStdPartRes_Line
  3
AmgStdPart|Product Description: AutoCAD Mechanical|Company: Autodesk, Inc.
 90
     1024
 91
        0
280
     0
281
     0
  0
CLASS
  1
ACMBOM
  2
AcmBom
  3
"AcmSymBB|Product Description: AutoCAD Mechanical|Company: Autodesk, Inc."
 90
     1024
 91
        0
280
     0
281
     0
  0
CLASS
  1
AMDTFORMULAUPDATEDISPATCHER
  2
AmdtFormulaUpdateDispatcher
  3
AcMeServices
 90
     1024
 91
        0
280
     0
281
     0
  0
CLASS
  1
ACMBOMROW
  2
AcmBomRow
  3
"AcmSymBB|Product Description: AutoCAD Mechanical|Company: Autodesk, Inc."
 90
     1024
 91
        0
280
     0
281
     0
  0
CLASS
  1
ACMPARTLIST
  2
AcmPartList
  3
"AcmSymBB|Product Description: AutoCAD Mechanical|Company: Autodesk, Inc."
 90
     4095
 91
        0
280
     0
281
     1
  0
CLASS
  1
ACDBLINERES
  2
AcDbLineRes
  3
AcGrefServices
 90
     1024
 91
        0
280
     0
281
     0
  0
CLASS
  1
ACRFINSADJ
  2
AcRfInsAdjuster
  3
AcMeServices
 90
     1024
 91
        0
280
     0
281
     0
  0
CLASS
  1
ACMSTANDARDISO
  2
AcmStandardISO
  3
"Amdt_StdImp|Product Description: AutoCAD Mechanical|Company: Autodesk, Inc."
 90
     1024
 91
        1
280
     0
281
     0
  0
CLASS
  1
AMDTEDGESTANDARDISO13715
  2
AmdtEdgeStdISO13715
  3
"Amdt_StdImp|Product Description: AutoCAD Mechanical|Company: Autodesk, Inc."
 90
     1024
 91
        1
280
     0
281
     0
  0
CLASS
  1
ACMSURFSTANDARDISO2002
  2
AcmSurfTextStdISO2002
  3
"Amdt_StdImp|Product Description: AutoCAD Mechanical|Company: Autodesk, Inc."
 90
     1024
 91
        1
280
     0
281
     0
  0
CLASS
  1
ACMFCFSTANDARDISO
  2
AcmFCFStdISO
  3
"Amdt_StdImp|Product Description: AutoCAD Mechanical|Company: Autodesk, Inc."
 90
     1024
 91
        1
280
     0
281
     0
  0
CLASS
  1
ACMWELDSTANDARDISO
  2
AcmWeldingStdISO
  3
"Amdt_StdImp|Product Description: AutoCAD Mechanical|Company: Autodesk, Inc."
 90
     1024
 91
        1
280
     0
281
     0
  0
CLASS
  1
ACMIDSTANDARDISO
  2
AcmIdStdISO
  3
"Amdt_StdImp|Product Description: AutoCAD Mechanical|Company: Autodesk, Inc."
 90
     1024
 91
        1
280
     0
281
     0
  0
CLASS
  1
ACMDATUMSTANDARDISO
  2
AcmDatumStdISO
  3
"Amdt_StdImp|Product Description: AutoCAD Mechanical|Company: Autodesk, Inc."
 90
     1024
 91
        1
280
     0
281
     0
  0
CLASS
  1
ACMBOMSTANDARDISO
  2
AcmBOMStdISO
  3
"Amdt_StdImp|Product Description: AutoCAD Mechanical|Company: Autodesk, Inc."
 90
     1024
 91
        1
280
     0
281
     0
  0
CLASS
  1
ACMDETAILSTANDARDISO
  2
AmdtDetailSymStdISO
  3
"Amdt_StdImp|Product Description: AutoCAD Mechanical|Company: Autodesk, Inc."
 90
     1024
 91
        1
280
     0
281
     0
  0
CLASS
  1
ACMSECTIONSTANDARDISO2001
  2
AmdtSectionSymStdISO2001
  3
"Amdt_StdImp|Product Description: AutoCAD Mechanical|Company: Autodesk, Inc."
 90
     1024
 91
        1
280
     0
281
     0
  0
CLASS
  1
ACMCENTERLINESTANDARDISO
  2
AmdtCenterLineStdISO
  3
"Amdt_StdImp|Product Description: AutoCAD Mechanical|Company: Autodesk, Inc."
 90
     1024
 91
        1
280
     0
281
     0
  0
CLASS
  1
ACMTHREADLINESTANDARDISO
  2
AmdtThreadLineStdISO
  3
"Amdt_StdImp|Product Description: AutoCAD Mechanical|Company: Autodesk, Inc."
 90
     1024
 91
        1
280
     0
281
     0
  0
CLASS
  1
ACMNOTESTANDARDISO
  2
AmdtNoteStdISO
  3
"Amdt_StdImp|Product Description: AutoCAD Mechanical|Company: Autodesk, Inc."
 90
     1024
 91
        1
280
     0
281
     0
  0
CLASS
  1
ACMTAPERSTANDARDISO
  2
AcmTaperStdISO
  3
"Amdt_StdImp|Product Description: AutoCAD Mechanical|Company: Autodesk, Inc."
 90
     1024
 91
        1
280
     0
281
     0
  0
CLASS
  1
ACMANOOTATIONVIEWSTANDARDISO
  2
AmdtAnViewStdISO
  3
"Amdt_StdImp|Product Description: AutoCAD Mechanical|Company: Autodesk, Inc."
 90
     1024
 91
        1
280
     0
281
     0
  0
CLASS
  1
ACAMGHOLECHARTSTDISO
  2
AcAmgHoleChartStdISO
  3
AmgDim|Product Description: AutoCAD Mechanical|Company: Autodesk, Inc.
 90
     1024
 91
        1
280
     0
281
     0
  0
CLASS
  1
EXACXREFPANELOBJECT
  2
ExAcXREFPanelObject
  3
EXAC_ESW
 90
     1025
 91
        0
280
     0
281
     0
  0
CLASS
  1
NPOCOLLECTION
  2
AcDbImpNonPersistentObjectsCollection
  3
ObjectDBX Classes
 90
     1153
 91
        0
280
     0
281
     0
  0
CLASS
  1
ACDBSTDPARTRES_ARC
  2
AcDbStdPartRes_Arc
  3
AmgStdPart|Product Description: AutoCAD Mechanical|Company: Autodesk, Inc.
 90
     1024
 91
        0
280
     0
281
     0
  0
CLASS
  1
AMDTNOTE
  2
AmdtNote
  3
"AcmSymBB|Product Description: AutoCAD Mechanical|Company: Autodesk, Inc."
 90
     4095
 91
        0
280
     0
281
     1
  0
CLASS
  1
PLOTSETTINGS
  2
AcDbPlotSettings
  3
ObjectDBX Classes
 90
        0
 91
        1
280
     0
281
     0
  0
CLASS
  1
ACMSTANDARDANSI
  2
AcmStandardANSI
  3
"Amdt_StdImp|Product Description: AutoCAD Mechanical|Company: Autodesk, Inc."
 90
     1024
 91
        0
280
     0
281
     0
  0
CLASS
  1
ACMSURFSTANDARDANSI
  2
AcmSurfTextStdANSI
  3
"Amdt_StdImp|Product Description: AutoCAD Mechanical|Company: Autodesk, Inc."
 90
     1024
 91
        0
280
     0
281
     0
  0
CLASS
  1
ACMFCFSTANDARDANSI
  2
AcmFCFStdANSI
  3
"Amdt_StdImp|Product Description: AutoCAD Mechanical|Company: Autodesk, Inc."
 90
     1024
 91
        0
280
     0
281
     0
  0
CLASS
  1
ACMWELDSTANDARDANSI
  2
AcmWeldingStdANSI
  3
"Amdt_StdImp|Product Description: AutoCAD Mechanical|Company: Autodesk, Inc."
 90
     1024
 91
        0
280
     0
281
     0
  0
CLASS
  1
ACMIDSTANDARDANSI
  2
AcmIdStdANSI
  3
"Amdt_StdImp|Product Description: AutoCAD Mechanical|Company: Autodesk, Inc."
 90
     1024
 91
        0
280
     0
281
     0
  0
CLASS
  1
ACMDATUMSTANDARDANSI
  2
AcmDatumStdANSI
  3
"Amdt_StdImp|Product Description: AutoCAD Mechanical|Company: Autodesk, Inc."
 90
     1024
 91
        0
280
     0
281
     0
  0
CLASS
  1
ACMBOMSTANDARDANSI
  2
AcmBOMStdANSI
  3
"Amdt_StdImp|Product Description: AutoCAD Mechanical|Company: Autodesk, Inc."
 90
     1024
 91
        0
280
     0
281
     0
  0
CLASS
  1
ACMDETAILSTANDARDANSI
  2
AmdtDetailSymStdANSI
  3
"Amdt_StdImp|Product Description: AutoCAD Mechanical|Company: Autodesk, Inc."
 90
     1024
 91
        0
280
     0
281
     0
  0
CLASS
  1
ACMSECTIONSTANDARDANSI
  2
AmdtSectionSymStdANSI
  3
"Amdt_StdImp|Product Description: AutoCAD Mechanical|Company: Autodesk, Inc."
 90
     1024
 91
        0
280
     0
281
     0
  0
CLASS
  1
ACMCENTERLINESTANDARDANSI
  2
AmdtCenterLineStdANSI
  3
"Amdt_StdImp|Product Description: AutoCAD Mechanical|Company: Autodesk, Inc."
 90
     1024
 91
        0
280
     0
281
     0
  0
CLASS
  1
ACMTHREADLINESTANDARDANSI
  2
AmdtThreadLineStdANSI
  3
"Amdt_StdImp|Product Description: AutoCAD Mechanical|Company: Autodesk, Inc."
 90
     1024
 91
        0
280
     0
281
     0
  0
CLASS
  1
ACMNOTESTANDARDANSI
  2
AmdtNoteStdANSI
  3
"Amdt_StdImp|Product Description: AutoCAD Mechanical|Company: Autodesk, Inc."
 90
     1024
 91
        0
280
     0
281
     0
  0
CLASS
  1
ACMTAPERSTANDARDANSI
  2
AcmTaperStdANSI
  3
"Amdt_StdImp|Product Description: AutoCAD Mechanical|Company: Autodesk, Inc."
 90
     1024
 91
        0
280
     0
281
     0
  0
CLASS
  1
ACMANOOTATIONVIEWSTANDARDANSI
  2
AmdtAnViewStdANSI
  3
"Amdt_StdImp|Product Description: AutoCAD Mechanical|Company: Autodesk, Inc."
 90
     1024
 91
        0
280
     0
281
     0
  0
CLASS
  1
ACAMGHOLECHARTSTDANSI
  2
AcAmgHoleChartStdANSI
  3
AmgDim|Product Description: AutoCAD Mechanical|Company: Autodesk, Inc.
 90
     1024
 91
        0
280
     0
281
     0
  0
CLASS
  1
ACMSTANDARDBSI
  2
AcmStandardBSI
  3
"Amdt_StdImp|Product Description: AutoCAD Mechanical|Company: Autodesk, Inc."
 90
     1024
 91
        0
280
     0
281
     0
  0
CLASS
  1
ACMSURFSTANDARDBSI2002
  2
AcmSurfTextStdBSI2002
  3
"Amdt_StdImp|Product Description: AutoCAD Mechanical|Company: Autodesk, Inc."
 90
     1024
 91
        0
280
     0
281
     0
  0
CLASS
  1
ACMFCFSTANDARDBSI
  2
AcmFCFStdBSI
  3
"Amdt_StdImp|Product Description: AutoCAD Mechanical|Company: Autodesk, Inc."
 90
     1024
 91
        0
280
     0
281
     0
  0
CLASS
  1
ACMWELDSTANDARDBSI
  2
AcmWeldingStdBSI
  3
"Amdt_StdImp|Product Description: AutoCAD Mechanical|Company: Autodesk, Inc."
 90
     1024
 91
        0
280
     0
281
     0
  0
CLASS
  1
ACMIDSTANDARDBSI
  2
AcmIdStdBSI
  3
"Amdt_StdImp|Product Description: AutoCAD Mechanical|Company: Autodesk, Inc."
 90
     1024
 91
        0
280
     0
281
     0
  0
CLASS
  1
ACMDATUMSTANDARDBSI
  2
AcmDatumStdBSI
  3
"Amdt_StdImp|Product Description: AutoCAD Mechanical|Company: Autodesk, Inc."
 90
     1024
 91
        0
280
     0
281
     0
  0
CLASS
  1
ACMBOMSTANDARDBSI
  2
AcmBOMStdBSI
  3
"Amdt_StdImp|Product Description: AutoCAD Mechanical|Company: Autodesk, Inc."
 90
     1024
 91
        0
280
     0
281
     0
  0
CLASS
  1
ACMDETAILSTANDARDBSI
  2
AmdtDetailSymStdBSI
  3
"Amdt_StdImp|Product Description: AutoCAD Mechanical|Company: Autodesk, Inc."
 90
     1024
 91
        0
280
     0
281
     0
  0
CLASS
  1
ACMSECTIONSTANDARDBSI2001
  2
AmdtSectionSymStdBSI2001
  3
"Amdt_StdImp|Product Description: AutoCAD Mechanical|Company: Autodesk, Inc."
 90
     1024
 91
        0
280
     0
281
     0
  0
CLASS
  1
ACMCENTERLINESTANDARDBSI
  2
AmdtCenterLineStdBSI
  3
"Amdt_StdImp|Product Description: AutoCAD Mechanical|Company: Autodesk, Inc."
 90
     1024
 91
        0
280
     0
281
     0
  0
CLASS
  1
ACMTHREADLINESTANDARDBSI
  2
AmdtThreadLineStdBSI
  3
"Amdt_StdImp|Product Description: AutoCAD Mechanical|Company: Autodesk, Inc."
 90
     1024
 91
        0
280
     0
281
     0
  0
CLASS
  1
ACMNOTESTANDARDBSI
  2
AmdtNoteStdBSI
  3
"Amdt_StdImp|Product Description: AutoCAD Mechanical|Company: Autodesk, Inc."
 90
     1024
 91
        0
280
     0
281
     0
  0
CLASS
  1
ACMTAPERSTANDARDBSI
  2
AcmTaperStdBSI
  3
"Amdt_StdImp|Product Description: AutoCAD Mechanical|Company: Autodesk, Inc."
 90
     1024
 91
        0
280
     0
281
     0
  0
CLASS
  1
ACMANOOTATIONVIEWSTANDARDBSI
  2
AmdtAnViewStdBSI
  3
"Amdt_StdImp|Product Description: AutoCAD Mechanical|Company: Autodesk, Inc."
 90
     1024
 91
        0
280
     0
281
     0
  0
CLASS
  1
ACAMGHOLECHARTSTDBSI
  2
AcAmgHoleChartStdBSI
  3
AmgDim|Product Description: AutoCAD Mechanical|Company: Autodesk, Inc.
 90
     1024
 91
        0
280
     0
281
     0
  0
CLASS
  1
AMDTEDGESTANDARDJIS
  2
AmdtEdgeStdJIS
  3
"Amdt_StdImp|Product Description: AutoCAD Mechanical|Company: Autodesk, Inc."
 90
     1024
 91
        0
280
     0
281
     0
  0
CLASS
  1
ACDBOPPOLYLINERES
  2
AcDbOpPolylineRes
  3
AcGrefServices
 90
     1024
 91
        0
280
     0
281
     0
  0
CLASS
  1
AMDTACMWBLOCKBOMENTITY
  2
AmdtAcmWblockBomEntity
  3
"AcmSymBB|Product Description: AutoCAD Mechanical|Company: Autodesk, Inc."
 90
     4095
 91
        0
280
     0
281
     1
  0
CLASS
  1
ACMSURFSYM
  2
AcmSurfaceTexture
  3
"AcmSymBB|Product Description: AutoCAD Mechanical|Company: Autodesk, Inc."
 90
     4095
 91
        0
280
     0
281
     1
  0
CLASS
  1
ACDBDIMENSIONRES
  2
AcDbDimensionRes
  3
AcmSymBB|Product Description: AutoCAD Mechanical|Company: Autodesk, Inc.
 90
     1024
 91
        0
280
     0
281
     0
  0
CLASS
  1
ACDBCIRCARCRES
  2
AcDbCircArcRes
  3
AcGrefServices
 90
     1024
 91
        0
280
     0
281
     0
  0
CLASS
  1
ACDB_BLKREFOBJECTCONTEXTDATA_CLASS
  2
AcDbBlkRefObjectContextData
  3
ObjectDBX Classes
 90
     1153
 91
        0
280
     0
281
     0
  0
CLASS
  1
ACMPICKOBJ
  2
AcmPickEnt
  3
"AcmSymBB|Product Description: AutoCAD Mechanical|Company: Autodesk, Inc."
 90
     1024
 91
        0
280
     0
281
     1
  0
CLASS
  1
ACMBALLOON
  2
AcmBalloon
  3
"AcmSymBB|Product Description: AutoCAD Mechanical|Company: Autodesk, Inc."
 90
     4095
 91
        0
280
     0
281
     1
  0
ENDSEC
  0
SECTION
  2
TABLES
  0
TABLE
  2
VPORT
  5
8
330
0
100
AcDbSymbolTable
 70
     1
  0
VPORT
  5
27A
330
8
100
AcDbSymbolTableRecord
100
AcDbViewportTableRecord
  2
*Active
 70
     0
 10
0.0
 20
0.0
 11
1.0
 21
1.0
 12
2278.161632994384
 22
2023.43296922004
 13
0.0
 23
0.0
 14
25.0
 24
25.0
 15
100.0
 25
100.0
 16
0.0
 26
0.0
 36
1.0
 17
0.0
 27
0.0
 37
0.0
 40
1329.633334929353
 41
1.571428571428571
 42
50.0
 43
0.0
 44
0.0
 50
0.0
 51
0.0
 71
    16
 72
 20000
 73
     1
 74
     3
 75
     0
 76
     0
 77
     0
 78
     0
281
     0
 65
     0
110
0.0
120
0.0
130
0.0
111
1.0
121
0.0
131
0.0
112
0.0
122
1.0
132
0.0
 79
     0
146
0.0
348
285
 60
     3
 61
     5
292
     1
282
     0
141
0.0
142
0.0
 63
   250
421
  3355443
  0
ENDTAB
  0
TABLE
  2
LTYPE
  5
5
330
0
100
AcDbSymbolTable
 70
    22
  0
LTYPE
  5
14
330
5
100
AcDbSymbolTableRecord
100
AcDbLinetypeTableRecord
  2
ByBlock
 70
     0
  3

 72
    65
 73
     0
 40
0.0
  0
LTYPE
  5
15
330
5
100
AcDbSymbolTableRecord
100
AcDbLinetypeTableRecord
  2
ByLayer
 70
     0
  3

 72
    65
 73
     0
 40
0.0
  0
LTYPE
  5
16
330
5
100
AcDbSymbolTableRecord
100
AcDbLinetypeTableRecord
  2
Continuous
 70
     0
  3
Solid line
 72
    65
 73
     0
 40
0.0
  0
LTYPE
  5
4D
330
5
100
AcDbSymbolTableRecord
100
AcDbLinetypeTableRecord
  2
AM_ISO02W050
 70
     0
  3
__ __ __ __ __ __ __ __ __ __ __ __ __ __ __
 72
    65
 73
     2
 40
7.5
 49
6.0
 74
     0
 49
-1.5
 74
     0
  0
LTYPE
  5
4E
330
5
100
AcDbSymbolTableRecord
100
AcDbLinetypeTableRecord
  2
AM_ISO08W050
 70
     0
  3
____ . ____ . ____ . ____ . ____ . ____ . ____
 72
    65
 73
     4
 40
18.0
 49
12.0
 74
     0
 49
-1.5
 74
     0
 49
3.0
 74
     0
 49
-1.5
 74
     0
  0
LTYPE
  5
4F
330
5
100
AcDbSymbolTableRecord
100
AcDbLinetypeTableRecord
  2
AM_ISO09W050
 70
     0
  3
_____ . . _____ . . _____ . . ____ .. ____
 72
    65
 73
     6
 40
22.5
 49
12.0
 74
     0
 49
-1.5
 74
     0
 49
3.0
 74
     0
 49
-1.5
 74
     0
 49
3.0
 74
     0
 49
-1.5
 74
     0
  0
LTYPE
  5
50
330
5
100
AcDbSymbolTableRecord
100
AcDbLinetypeTableRecord
  2
Amconstr
 70
     0
  3
_______________________
 72
    65
 73
     2
 40
9999.0
 49
9999.0
 74
     0
 49
0.0
 74
     0
  0
LTYPE
  5
51
330
5
100
AcDbSymbolTableRecord
100
AcDbLinetypeTableRecord
  2
AM_ISO08W050x2
 70
     0
  3
__ . __ . __ . __ . __ . __
 72
    65
 73
     4
 40
9.0
 49
6.0
 74
     0
 49
-0.75
 74
     0
 49
1.5
 74
     0
 49
-0.75
 74
     0
  0
LTYPE
  5
52
330
5
100
AcDbSymbolTableRecord
100
AcDbLinetypeTableRecord
  2
AM_ISO02W050x2
 70
     0
  3
 _ _ _ _ _ _ _ _ _ _ _ _
 72
    65
 73
     2
 40
3.75
 49
3.0
 74
     0
 49
-0.75
 74
     0
  0
LTYPE
  5
55
330
5
100
AcDbSymbolTableRecord
100
AcDbLinetypeTableRecord
  2
Amzigzag
 70
     0
  3
/\/-/\/-/\/-/\/-/\/-/\/
 72
    65
 73
     2
 40
11.0001
 49
0.0001
 74
     4
 75
   136
340
23D
 46
0.04
 50
0.0
 44
0.0
 45
0.0
 49
-11.0
 74
     0
  0
LTYPE
  5
65
330
5
100
AcDbSymbolTableRecord
100
AcDbLinetypeTableRecord
  2
CENTER
 70
     0
  3
__ . __
 72
    65
 73
     4
 40
7.0
 49
4.0
 74
     0
 49
-1.0
 74
     0
 49
1.0
 74
     0
 49
-1.0
 74
     0
  0
LTYPE
  5
E0
330
5
100
AcDbSymbolTableRecord
100
AcDbLinetypeTableRecord
  2
HIDDEN
 70
     0
  3
Hidden __ __ __ __ __ __ __ __ __ __ __ __ __ _
 72
    65
 73
     2
 40
9.524999999999996
 49
6.349999999999998
 74
     0
 49
-3.174999999999998
 74
     0
  0
LTYPE
  5
E1
330
5
100
AcDbSymbolTableRecord
100
AcDbLinetypeTableRecord
  2
PHANTOM2
 70
     0
  3
Phantom (.5x) ___ _ _ ___ _ _ ___ _ _ ___ _ _
 72
    65
 73
     6
 40
31.75
 49
15.875
 74
     0
 49
-3.174999999999998
 74
     0
 49
3.174999999999998
 74
     0
 49
-3.174999999999998
 74
     0
 49
3.174999999999998
 74
     0
 49
-3.174999999999998
 74
     0
  0
LTYPE
  5
5A2
330
5
100
AcDbSymbolTableRecord
100
AcDbLinetypeTableRecord
  2
ACJISWELD
 70
     0
  3
_ _ _ _ _
 72
    65
 73
     2
 40
2.0
 49
2.0
 74
     0
 49
-1.0
 74
     0
  0
LTYPE
  5
88FB
330
5
100
AcDbSymbolTableRecord
100
AcDbLinetypeTableRecord
  2
ACISOWELD
 70
     0
  3
_ _ _ _ _
 72
    65
 73
     2
 40
2.0
 49
2.0
 74
     0
 49
-1.0
 74
     0
  0
LTYPE
  5
88FC
330
5
100
AcDbSymbolTableRecord
100
AcDbLinetypeTableRecord
  2
ACISOTGB
 70
     0
  3
__ . . __ . .
 72
    65
 73
     6
 40
9.0
 49
4.0
 74
     0
 49
-1.0
 74
     0
 49
1.0
 74
     0
 49
-1.0
 74
     0
 49
1.0
 74
     0
 49
-1.0
 74
     0
  0
LTYPE
  5
88FD
330
5
100
AcDbSymbolTableRecord
100
AcDbLinetypeTableRecord
  2
ACISOTGL
 70
     0
  3
_ _ _ _ _
 72
    65
 73
     2
 40
3.0
 49
2.0
 74
     0
 49
-1.0
 74
     0
  0
ENDTAB
  0
TABLE
  2
LAYER
  5
2
102
{ACAD_XDICTIONARY
360
BF
102
}
330
0
100
AcDbSymbolTable
 70
    10
  0
LAYER
  5
10
102
{ACAD_XDICTIONARY
360
29F7
102
}
330
2
100
AcDbSymbolTableRecord
100
AcDbLayerTableRecord
  2
0
 70
     0
 62
     7
  6
Continuous
370
    -3
390
F
347
27E
  0
LAYER
  5
81
102
{ACAD_XDICTIONARY
360
29F9
102
}
330
2
100
AcDbSymbolTableRecord
100
AcDbLayerTableRecord
  2
AM_0 外形線1
 70
     0
 62
     7
  6
Continuous
370
    25
390
F
347
27E
  0
LAYER
  5
427
330
2
100
AcDbSymbolTableRecord
100
AcDbLayerTableRecord
  2
Defpoints
 70
     0
 62
     7
  6
Continuous
290
     0
370
    -3
390
F
347
27E
  0
LAYER
  5
3AB3
330
2
100
AcDbSymbolTableRecord
100
AcDbLayerTableRecord
  2
AM_5 寸法線
 70
     0
 62
     3
  6
Continuous
370
    13
390
F
347
27E
1001
AcAecLayerStandard
1000

1000

  0
LAYER
  5
3AB4
330
2
100
AcDbSymbolTableRecord
100
AcDbLayerTableRecord
  2
AM_4 細線
 70
     0
 62
     4
  6
Continuous
370
    13
390
F
347
27E
1001
AcAecLayerStandard
1000

1000

  0
LAYER
  5
3AB5
330
2
100
AcDbSymbolTableRecord
100
AcDbLayerTableRecord
  2
AM_7 中心線
 70
     0
 62
     1
  6
AM_ISO08W050
370
    13
390
F
347
27E
1001
AcAecLayerStandard
1000

1000

  0
LAYER
  5
3AB6
330
2
100
AcDbSymbolTableRecord
100
AcDbLayerTableRecord
  2
AM_3 隠れ線
 70
     0
 62
     8
  6
ACJISWELD
370
    13
390
F
347
27E
1001
AcAecLayerStandard
1000

1000

  0
LAYER
  5
3AB8
330
2
100
AcDbSymbolTableRecord
100
AcDbLayerTableRecord
  2
AM_6 文字
 70
     0
 62
     2
  6
Continuous
370
    13
390
F
347
27E
1001
AcAecLayerStandard
1000

1000

  0
LAYER
  5
844D
330
2
100
AcDbSymbolTableRecord
100
AcDbLayerTableRecord
  2
AM_11 想像線
 70
     0
 62
     5
  6
AM_ISO09W050
370
    13
390
F
347
27E
1001
AcAecLayerStandard
1000

1000

  0
ENDTAB
  0
TABLE
  2
STYLE
  5
3
330
0
100
AcDbSymbolTable
 70
    11
  0
STYLE
  5
11
330
3
100
AcDbSymbolTableRecord
100
AcDbTextStyleTableRecord
  2
STANDARD
 70
     0
 40
0.0
 41
1.0
 50
0.0
 71
     0
 42
25.0
  3
ISOCP.SHX
  4
EXTFONT.SHX
  0
STYLE
  5
23D
330
3
100
AcDbSymbolTableRecord
100
AcDbTextStyleTableRecord
  2

 70
     1
 40
0.0
 41
1.0
 50
0.0
 71
     0
 42
2.5
  3
genltshp.shx
  4

  0
STYLE
  5
5D5
330
3
100
AcDbSymbolTableRecord
100
AcDbTextStyleTableRecord
  2
SEISA
 70
     0
 40
0.0
 41
0.9
 50
0.0
 71
     0
 42
25.0
  3
romans.shx
  4
extfont2.shx
  0
STYLE
  5
88EB
330
3
100
AcDbSymbolTableRecord
100
AcDbTextStyleTableRecord
  2
ACISOTS
 70
     0
 40
1.0
 41
1.0
 50
0.0
 71
     0
 42
25.0
  3
isocp.shx
  4
extfont.shx
  0
STYLE
  5
88FA
330
3
100
AcDbSymbolTableRecord
100
AcDbTextStyleTableRecord
  2
ACISOGDT
 70
     0
 40
0.0
 41
1.0
 50
0.0
 71
     0
 42
25.0
  3
amgdt.shx
  4

  0
ENDTAB
  0
TABLE
  2
VIEW
  5
6
330
0
100
AcDbSymbolTable
 70
     6
  0
VIEW
  5
91B
330
6
100
AcDbSymbolTableRecord
100
AcDbViewTableRecord
  2
AM_VIEW1
 70
     0
 40
1485.0
 10
1435.621923096604
 20
2227.500003693821
 41
2871.243842364532
 11
0.0
 21
0.0
 31
1.0
 12
0.0
 22
0.0
 32
0.0
 42
50.0
 43
0.0
 44
0.0
 50
0.0
 71
    16
281
     0
 72
     0
 73
     0
  0
VIEW
  5
91C
330
6
100
AcDbSymbolTableRecord
100
AcDbViewTableRecord
  2
AM_VIEW2
 70
     0
 40
1485.0
 10
2764.378080732073
 20
2227.500003693821
 41
2871.243842364532
 11
0.0
 21
0.0
 31
1.0
 12
0.0
 22
0.0
 32
0.0
 42
50.0
 43
0.0
 44
0.0
 50
0.0
 71
    16
281
     0
 72
     0
 73
     0
  0
VIEW
  5
91D
330
6
100
AcDbSymbolTableRecord
100
AcDbViewTableRecord
  2
AM_VIEW3
 70
     0
 40
1485.0
 10
1435.621923096604
 20
742.5000036938206
 41
2871.243842364532
 11
0.0
 21
0.0
 31
1.0
 12
0.0
 22
0.0
 32
0.0
 42
50.0
 43
0.0
 44
0.0
 50
0.0
 71
    16
281
     0
 72
     0
 73
     0
  0
VIEW
  5
91E
330
6
100
AcDbSymbolTableRecord
100
AcDbViewTableRecord
  2
AM_VIEW4
 70
     0
 40
1485.0
 10
2764.378080732073
 20
742.5000036938206
 41
2871.243842364532
 11
0.0
 21
0.0
 31
1.0
 12
0.0
 22
0.0
 32
0.0
 42
50.0
 43
0.0
 44
0.0
 50
0.0
 71
    16
281
     0
 72
     0
 73
     0
  0
VIEW
  5
91F
330
6
100
AcDbSymbolTableRecord
100
AcDbViewTableRecord
  2
AM_VIEW5
 70
     0
 40
1485.0
 10
2100.000001914338
 20
1485.000003693821
 41
2871.243842364532
 11
0.0
 21
0.0
 31
1.0
 12
0.0
 22
0.0
 32
0.0
 42
50.0
 43
0.0
 44
0.0
 50
0.0
 71
    16
281
     0
 72
     0
 73
     0
  0
VIEW
  5
920
330
6
100
AcDbSymbolTableRecord
100
AcDbViewTableRecord
  2
AM_VIEW6
 70
     0
 40
2969.9703
 10
2100.000001914338
 20
1485.00000369382
 41
5742.430259852215
 11
0.0
 21
0.0
 31
1.0
 12
0.0
 22
0.0
 32
0.0
 42
50.0
 43
0.0
 44
0.0
 50
0.0
 71
    16
281
     0
 72
     0
 73
     0
  0
ENDTAB
  0
TABLE
  2
UCS
  5
7
330
0
100
AcDbSymbolTable
 70
     0
  0
ENDTAB
  0
TABLE
  2
APPID
  5
9
330
0
100
AcDbSymbolTable
 70
   397
  0
APPID
  5
12
330
9
100
AcDbSymbolTableRecord
100
AcDbRegAppTableRecord
  2
ACAD
 70
     0
  0
APPID
  5
30
330
9
100
AcDbSymbolTableRecord
100
AcDbRegAppTableRecord
  2
MCAD_NO_VIS
 70
     0
  0
APPID
  5
31
330
9
100
AcDbSymbolTableRecord
100
AcDbRegAppTableRecord
  2
ACAD_TEMP_GRAPHIC
 70
     0
  0
APPID
  5
44
330
9
100
AcDbSymbolTableRecord
100
AcDbRegAppTableRecord
  2
ACATTRIBSERVICES
 70
     0
  0
APPID
  5
F6
330
9
100
AcDbSymbolTableRecord
100
AcDbRegAppTableRecord
  2
AD_DRAW
 70
     0
  0
APPID
  5
114
330
9
100
AcDbSymbolTableRecord
100
AcDbRegAppTableRecord
  2
DESIGNERASSEMBLIES
 70
     0
  0
APPID
  5
118
330
9
100
AcDbSymbolTableRecord
100
AcDbRegAppTableRecord
  2
ACADM_DIM_EDIT
 70
     0
  0
APPID
  5
119
330
9
100
AcDbSymbolTableRecord
100
AcDbRegAppTableRecord
  2
AMDT_DM_ADJ
 70
     0
  0
APPID
  5
1AF
330
9
100
AcDbSymbolTableRecord
100
AcDbRegAppTableRecord
  2
ACAD_DSTYLE_DIMARC_LENGTH_SYMBOL
 70
     0
  0
APPID
  5
1B0
330
9
100
AcDbSymbolTableRecord
100
AcDbRegAppTableRecord
  2
ACAD_DSTYLE_DIMJOGGED_JOGANGLE_SYMBOL
 70
     0
  0
APPID
  5
2D7
330
9
100
AcDbSymbolTableRecord
100
AcDbRegAppTableRecord
  2
ACAD_MLEADERVER
 70
     0
  0
APPID
  5
355
330
9
100
AcDbSymbolTableRecord
100
AcDbRegAppTableRecord
  2
AcadAnnoPO
 70
     0
  0
APPID
  5
428
330
9
100
AcDbSymbolTableRecord
100
AcDbRegAppTableRecord
  2
ACAD_DSTYLE_DIMTEXT_FILL
 70
     0
  0
APPID
  5
429
330
9
100
AcDbSymbolTableRecord
100
AcDbRegAppTableRecord
  2
GENIUS_GENSCREG_15
 70
     0
  0
APPID
  5
42A
330
9
100
AcDbSymbolTableRecord
100
AcDbRegAppTableRecord
  2
GENIUS_GENOBJ-N-SDF_13
 70
     0
  0
APPID
  5
42B
330
9
100
AcDbSymbolTableRecord
100
AcDbRegAppTableRecord
  2
GENIUS_GENODEF_13
 70
     0
  0
APPID
  5
42C
330
9
100
AcDbSymbolTableRecord
100
AcDbRegAppTableRecord
  2
ACAD_EXEMPT_FROM_CAD_STANDARDS
 70
     0
  0
APPID
  5
42D
330
9
100
AcDbSymbolTableRecord
100
AcDbRegAppTableRecord
  2
AcAecLayerStandard
 70
     0
  0
APPID
  5
42E
330
9
100
AcDbSymbolTableRecord
100
AcDbRegAppTableRecord
  2
GENIUS_GENOBJ-N-CEN_13
 70
     0
  0
APPID
  5
42F
330
9
100
AcDbSymbolTableRecord
100
AcDbRegAppTableRecord
  2
GENIUS_GENCEN_19
 70
     0
  0
APPID
  5
430
330
9
100
AcDbSymbolTableRecord
100
AcDbRegAppTableRecord
  2
ACAD_DSTYLE_DIMINSPECT
 70
     0
  0
APPID
  5
431
330
9
100
AcDbSymbolTableRecord
100
AcDbRegAppTableRecord
  2
GENIUS_AMGTXT_16
 70
     0
  0
APPID
  5
432
330
9
100
AcDbSymbolTableRecord
100
AcDbRegAppTableRecord
  2
GENIUS_GENFIL_13
 70
     0
  0
APPID
  5
433
330
9
100
AcDbSymbolTableRecord
100
AcDbRegAppTableRecord
  2
GENIUS_GENOLIS_13
 70
     0
  0
APPID
  5
434
330
9
100
AcDbSymbolTableRecord
100
AcDbRegAppTableRecord
  2
GENIUS_GENOBJ-N-CHA_13
 70
     0
  0
APPID
  5
435
330
9
100
AcDbSymbolTableRecord
100
AcDbRegAppTableRecord
  2
GENIUS_GENOENT_13
 70
     0
  0
APPID
  5
436
330
9
100
AcDbSymbolTableRecord
100
AcDbRegAppTableRecord
  2
GENIUS_GENOREF_13
 70
     0
  0
APPID
  5
437
330
9
100
AcDbSymbolTableRecord
100
AcDbRegAppTableRecord
  2
GENIUS_GENOBJ-N-FIL_13
 70
     0
  0
APPID
  5
438
330
9
100
AcDbSymbolTableRecord
100
AcDbRegAppTableRecord
  2
GEVID1208829536
 70
     0
  0
APPID
  5
439
330
9
100
AcDbSymbolTableRecord
100
AcDbRegAppTableRecord
  2
GEVDC
 70
     0
  0
APPID
  5
43A
330
9
100
AcDbSymbolTableRecord
100
AcDbRegAppTableRecord
  2
GEVRADREF
 70
     0
  0
APPID
  5
43B
330
9
100
AcDbSymbolTableRecord
100
AcDbRegAppTableRecord
  2
GENIUS_GENBH_13
 70
     0
  0
APPID
  5
43C
330
9
100
AcDbSymbolTableRecord
100
AcDbRegAppTableRecord
  2
GENIUS_GENOBJ-NBEHI-BHF_13
 70
     0
  0
APPID
  5
43D
330
9
100
AcDbSymbolTableRecord
100
AcDbRegAppTableRecord
  2
GENIUS_GENOBJ-NBEHI-BHB_13
 70
     0
  0
APPID
  5
43E
330
9
100
AcDbSymbolTableRecord
100
AcDbRegAppTableRecord
  2
GEVID1208829537
 70
     0
  0
APPID
  5
43F
330
9
100
AcDbSymbolTableRecord
100
AcDbRegAppTableRecord
  2
ACAD_DSTYLE_DIMJAG
 70
     0
  0
APPID
  5
440
330
9
100
AcDbSymbolTableRecord
100
AcDbRegAppTableRecord
  2
ACAD_DSTYLE_DIMTALN
 70
     0
  0
APPID
  5
441
330
9
100
AcDbSymbolTableRecord
100
AcDbRegAppTableRecord
  2
AMG_2DHIDE
 70
     0
  0
APPID
  5
442
330
9
100
AcDbSymbolTableRecord
100
AcDbRegAppTableRecord
  2
AMG_2DSTRUCT_BTR
 70
     0
  0
APPID
  5
443
330
9
100
AcDbSymbolTableRecord
100
AcDbRegAppTableRecord
  2
GEVID1208845772
 70
     0
  0
APPID
  5
444
330
9
100
AcDbSymbolTableRecord
100
AcDbRegAppTableRecord
  2
GEVID1208845773
 70
     0
  0
APPID
  5
445
330
9
100
AcDbSymbolTableRecord
100
AcDbRegAppTableRecord
  2
ACADM_2DVIEW_IGN_NOTIFY
 70
     0
  0
APPID
  5
446
330
9
100
AcDbSymbolTableRecord
100
AcDbRegAppTableRecord
  2
GEVID1208845774
 70
     0
  0
APPID
  5
447
330
9
100
AcDbSymbolTableRecord
100
AcDbRegAppTableRecord
  2
GEVID1208845775
 70
     0
  0
APPID
  5
448
330
9
100
AcDbSymbolTableRecord
100
AcDbRegAppTableRecord
  2
GEVID1208845776
 70
     0
  0
APPID
  5
449
330
9
100
AcDbSymbolTableRecord
100
AcDbRegAppTableRecord
  2
GEVID1208845777
 70
     0
  0
APPID
  5
44A
330
9
100
AcDbSymbolTableRecord
100
AcDbRegAppTableRecord
  2
GEVCON
 70
     0
  0
APPID
  5
44B
330
9
100
AcDbSymbolTableRecord
100
AcDbRegAppTableRecord
  2
GENIUS_GENOBJ-F-SCPASSM_13
 70
     0
  0
APPID
  5
44C
330
9
100
AcDbSymbolTableRecord
100
AcDbRegAppTableRecord
  2
GEVID1208845778
 70
     0
  0
APPID
  5
44D
330
9
100
AcDbSymbolTableRecord
100
AcDbRegAppTableRecord
  2
GEVID1208845779
 70
     0
  0
APPID
  5
44E
330
9
100
AcDbSymbolTableRecord
100
AcDbRegAppTableRecord
  2
GEVID1208845780
 70
     0
  0
APPID
  5
44F
330
9
100
AcDbSymbolTableRecord
100
AcDbRegAppTableRecord
  2
GEVID1208845781
 70
     0
  0
APPID
  5
450
330
9
100
AcDbSymbolTableRecord
100
AcDbRegAppTableRecord
  2
GEVID1208845782
 70
     0
  0
APPID
  5
451
330
9
100
AcDbSymbolTableRecord
100
AcDbRegAppTableRecord
  2
GEVID1208845783
 70
     0
  0
APPID
  5
452
330
9
100
AcDbSymbolTableRecord
100
AcDbRegAppTableRecord
  2
GEVID1208845784
 70
     0
  0
APPID
  5
453
330
9
100
AcDbSymbolTableRecord
100
AcDbRegAppTableRecord
  2
GEVID1208845785
 70
     0
  0
APPID
  5
454
330
9
100
AcDbSymbolTableRecord
100
AcDbRegAppTableRecord
  2
GEVID1208845787
 70
     0
  0
APPID
  5
455
330
9
100
AcDbSymbolTableRecord
100
AcDbRegAppTableRecord
  2
GEVID1208845788
 70
     0
  0
APPID
  5
456
330
9
100
AcDbSymbolTableRecord
100
AcDbRegAppTableRecord
  2
GEVID1208845789
 70
     0
  0
APPID
  5
457
330
9
100
AcDbSymbolTableRecord
100
AcDbRegAppTableRecord
  2
GEVID1208845790
 70
     0
  0
APPID
  5
458
330
9
100
AcDbSymbolTableRecord
100
AcDbRegAppTableRecord
  2
GEVID1208845791
 70
     0
  0
APPID
  5
459
330
9
100
AcDbSymbolTableRecord
100
AcDbRegAppTableRecord
  2
GEVID1208845792
 70
     0
  0
APPID
  5
45A
330
9
100
AcDbSymbolTableRecord
100
AcDbRegAppTableRecord
  2
GEVID1208845793
 70
     0
  0
APPID
  5
45B
330
9
100
AcDbSymbolTableRecord
100
AcDbRegAppTableRecord
  2
GEVID1208845794
 70
     0
  0
APPID
  5
45C
330
9
100
AcDbSymbolTableRecord
100
AcDbRegAppTableRecord
  2
GEVID1208845795
 70
     0
  0
APPID
  5
45D
330
9
100
AcDbSymbolTableRecord
100
AcDbRegAppTableRecord
  2
GEVID1208845796
 70
     0
  0
APPID
  5
45E
330
9
100
AcDbSymbolTableRecord
100
AcDbRegAppTableRecord
  2
GEVID1208845797
 70
     0
  0
APPID
  5
45F
330
9
100
AcDbSymbolTableRecord
100
AcDbRegAppTableRecord
  2
GEVID1208845798
 70
     0
  0
APPID
  5
460
330
9
100
AcDbSymbolTableRecord
100
AcDbRegAppTableRecord
  2
GEVID1208845799
 70
     0
  0
APPID
  5
461
330
9
100
AcDbSymbolTableRecord
100
AcDbRegAppTableRecord
  2
GEVID1208845800
 70
     0
  0
APPID
  5
462
330
9
100
AcDbSymbolTableRecord
100
AcDbRegAppTableRecord
  2
GEVID1208845801
 70
     0
  0
APPID
  5
463
330
9
100
AcDbSymbolTableRecord
100
AcDbRegAppTableRecord
  2
GEVID1208845802
 70
     0
  0
APPID
  5
464
330
9
100
AcDbSymbolTableRecord
100
AcDbRegAppTableRecord
  2
GENIUS_GENOBJ-N-DIM_13
 70
     0
  0
APPID
  5
465
330
9
100
AcDbSymbolTableRecord
100
AcDbRegAppTableRecord
  2
GENIUS_GENDIM_13
 70
     0
  0
APPID
  5
466
330
9
100
AcDbSymbolTableRecord
100
AcDbRegAppTableRecord
  2
GENIUS_GENDIMSH_14
 70
     0
  0
APPID
  5
467
330
9
100
AcDbSymbolTableRecord
100
AcDbRegAppTableRecord
  2
GEVID1208845803
 70
     0
  0
APPID
  5
468
330
9
100
AcDbSymbolTableRecord
100
AcDbRegAppTableRecord
  2
GEVID1208845804
 70
     0
  0
APPID
  5
469
330
9
100
AcDbSymbolTableRecord
100
AcDbRegAppTableRecord
  2
GEVID1208845805
 70
     0
  0
APPID
  5
46A
330
9
100
AcDbSymbolTableRecord
100
AcDbRegAppTableRecord
  2
GEVID1208845806
 70
     0
  0
APPID
  5
46B
330
9
100
AcDbSymbolTableRecord
100
AcDbRegAppTableRecord
  2
GEVID1208845807
 70
     0
  0
APPID
  5
46C
330
9
100
AcDbSymbolTableRecord
100
AcDbRegAppTableRecord
  2
GEVID1208845808
 70
     0
  0
APPID
  5
46D
330
9
100
AcDbSymbolTableRecord
100
AcDbRegAppTableRecord
  2
GEVID1208845809
 70
     0
  0
APPID
  5
46E
330
9
100
AcDbSymbolTableRecord
100
AcDbRegAppTableRecord
  2
GEVID1208845810
 70
     0
  0
APPID
  5
46F
330
9
100
AcDbSymbolTableRecord
100
AcDbRegAppTableRecord
  2
GEVID1208845811
 70
     0
  0
APPID
  5
470
330
9
100
AcDbSymbolTableRecord
100
AcDbRegAppTableRecord
  2
GEVID1208845813
 70
     0
  0
APPID
  5
471
330
9
100
AcDbSymbolTableRecord
100
AcDbRegAppTableRecord
  2
GEVID1208845814
 70
     0
  0
APPID
  5
472
330
9
100
AcDbSymbolTableRecord
100
AcDbRegAppTableRecord
  2
GEVID1208845815
 70
     0
  0
APPID
  5
473
330
9
100
AcDbSymbolTableRecord
100
AcDbRegAppTableRecord
  2
GEVID1208845816
 70
     0
  0
APPID
  5
474
330
9
100
AcDbSymbolTableRecord
100
AcDbRegAppTableRecord
  2
GEVID1208845817
 70
     0
  0
APPID
  5
475
330
9
100
AcDbSymbolTableRecord
100
AcDbRegAppTableRecord
  2
GEVID1208845818
 70
     0
  0
APPID
  5
476
330
9
100
AcDbSymbolTableRecord
100
AcDbRegAppTableRecord
  2
GEVID1208845819
 70
     0
  0
APPID
  5
477
330
9
100
AcDbSymbolTableRecord
100
AcDbRegAppTableRecord
  2
GEVID1208845820
 70
     0
  0
APPID
  5
478
330
9
100
AcDbSymbolTableRecord
100
AcDbRegAppTableRecord
  2
GENIUS_GENOBJ-F-SHCL_13
 70
     0
  0
APPID
  5
479
330
9
100
AcDbSymbolTableRecord
100
AcDbRegAppTableRecord
  2
GENIUS_GEFMSH_13
 70
     0
  0
APPID
  5
47A
330
9
100
AcDbSymbolTableRecord
100
AcDbRegAppTableRecord
  2
GENIUS_GENOBJ-F-SHCA_13
 70
     0
  0
APPID
  5
47B
330
9
100
AcDbSymbolTableRecord
100
AcDbRegAppTableRecord
  2
GENIUS_GEFSH_13
 70
     0
  0
APPID
  5
47C
330
9
100
AcDbSymbolTableRecord
100
AcDbRegAppTableRecord
  2
GENIUS_GEFSHP_13
 70
     0
  0
APPID
  5
47D
330
9
100
AcDbSymbolTableRecord
100
AcDbRegAppTableRecord
  2
GENIUS_GEFSHP0_13
 70
     0
  0
APPID
  5
47E
330
9
100
AcDbSymbolTableRecord
100
AcDbRegAppTableRecord
  2
GENIUS_GEFSH0_13
 70
     0
  0
APPID
  5
47F
330
9
100
AcDbSymbolTableRecord
100
AcDbRegAppTableRecord
  2
GENIUS_GEFSHP1_13
 70
     0
  0
APPID
  5
480
330
9
100
AcDbSymbolTableRecord
100
AcDbRegAppTableRecord
  2
GENIUS_GEFSH1_13
 70
     0
  0
APPID
  5
481
330
9
100
AcDbSymbolTableRecord
100
AcDbRegAppTableRecord
  2
GEVID1208866337
 70
     0
  0
APPID
  5
482
330
9
100
AcDbSymbolTableRecord
100
AcDbRegAppTableRecord
  2
GEVID1208866338
 70
     0
  0
APPID
  5
483
330
9
100
AcDbSymbolTableRecord
100
AcDbRegAppTableRecord
  2
GEVID1208866339
 70
     0
  0
APPID
  5
484
330
9
100
AcDbSymbolTableRecord
100
AcDbRegAppTableRecord
  2
GEVID1208866340
 70
     0
  0
APPID
  5
485
330
9
100
AcDbSymbolTableRecord
100
AcDbRegAppTableRecord
  2
GEVID1208866341
 70
     0
  0
APPID
  5
486
330
9
100
AcDbSymbolTableRecord
100
AcDbRegAppTableRecord
  2
ACAD_PSEXT
 70
     0
  0
APPID
  5
487
330
9
100
AcDbSymbolTableRecord
100
AcDbRegAppTableRecord
  2
GEVID1208866342
 70
     0
  0
APPID
  5
488
330
9
100
AcDbSymbolTableRecord
100
AcDbRegAppTableRecord
  2
GEVID1208913836
 70
     0
  0
APPID
  5
489
330
9
100
AcDbSymbolTableRecord
100
AcDbRegAppTableRecord
  2
GEVID1208913837
 70
     0
  0
APPID
  5
48A
330
9
100
AcDbSymbolTableRecord
100
AcDbRegAppTableRecord
  2
GEVID1208913838
 70
     0
  0
APPID
  5
48B
330
9
100
AcDbSymbolTableRecord
100
AcDbRegAppTableRecord
  2
GEVID1208913839
 70
     0
  0
APPID
  5
48C
330
9
100
AcDbSymbolTableRecord
100
AcDbRegAppTableRecord
  2
GENIUS_GENDTOL_13
 70
     0
  0
APPID
  5
48D
330
9
100
AcDbSymbolTableRecord
100
AcDbRegAppTableRecord
  2
GEVID1208928889
 70
     0
  0
APPID
  5
48E
330
9
100
AcDbSymbolTableRecord
100
AcDbRegAppTableRecord
  2
GEVID1208928890
 70
     0
  0
APPID
  5
48F
330
9
100
AcDbSymbolTableRecord
100
AcDbRegAppTableRecord
  2
GEVID1208928891
 70
     0
  0
APPID
  5
490
330
9
100
AcDbSymbolTableRecord
100
AcDbRegAppTableRecord
  2
GEVID1208928892
 70
     0
  0
APPID
  5
491
330
9
100
AcDbSymbolTableRecord
100
AcDbRegAppTableRecord
  2
GEVID1208933827
 70
     0
  0
APPID
  5
492
330
9
100
AcDbSymbolTableRecord
100
AcDbRegAppTableRecord
  2
GEVID1208933829
 70
     0
  0
APPID
  5
493
330
9
100
AcDbSymbolTableRecord
100
AcDbRegAppTableRecord
  2
GEVID1208933830
 70
     0
  0
APPID
  5
494
330
9
100
AcDbSymbolTableRecord
100
AcDbRegAppTableRecord
  2
GEVID1208933831
 70
     0
  0
APPID
  5
495
330
9
100
AcDbSymbolTableRecord
100
AcDbRegAppTableRecord
  2
GEVID1208933832
 70
     0
  0
APPID
  5
496
330
9
100
AcDbSymbolTableRecord
100
AcDbRegAppTableRecord
  2
GEVID1208933833
 70
     0
  0
APPID
  5
497
330
9
100
AcDbSymbolTableRecord
100
AcDbRegAppTableRecord
  2
GEVID1208933834
 70
     0
  0
APPID
  5
498
330
9
100
AcDbSymbolTableRecord
100
AcDbRegAppTableRecord
  2
GEVID1208933835
 70
     0
  0
APPID
  5
499
330
9
100
AcDbSymbolTableRecord
100
AcDbRegAppTableRecord
  2
GEVID1208933836
 70
     0
  0
APPID
  5
49A
330
9
100
AcDbSymbolTableRecord
100
AcDbRegAppTableRecord
  2
GEVID1208933837
 70
     0
  0
APPID
  5
49B
330
9
100
AcDbSymbolTableRecord
100
AcDbRegAppTableRecord
  2
GEVID1208933838
 70
     0
  0
APPID
  5
49C
330
9
100
AcDbSymbolTableRecord
100
AcDbRegAppTableRecord
  2
GEVID1208933840
 70
     0
  0
APPID
  5
49D
330
9
100
AcDbSymbolTableRecord
100
AcDbRegAppTableRecord
  2
GEVID1208933842
 70
     0
  0
APPID
  5
49E
330
9
100
AcDbSymbolTableRecord
100
AcDbRegAppTableRecord
  2
GEVID1208933843
 70
     0
  0
APPID
  5
49F
330
9
100
AcDbSymbolTableRecord
100
AcDbRegAppTableRecord
  2
GEVID1208933844
 70
     0
  0
APPID
  5
4A0
330
9
100
AcDbSymbolTableRecord
100
AcDbRegAppTableRecord
  2
GEVID1208933845
 70
     0
  0
APPID
  5
4A1
330
9
100
AcDbSymbolTableRecord
100
AcDbRegAppTableRecord
  2
GEVID1208933846
 70
     0
  0
APPID
  5
4A2
330
9
100
AcDbSymbolTableRecord
100
AcDbRegAppTableRecord
  2
GEVID1208933847
 70
     0
  0
APPID
  5
4A3
330
9
100
AcDbSymbolTableRecord
100
AcDbRegAppTableRecord
  2
GEVID1208933848
 70
     0
  0
APPID
  5
4A4
330
9
100
AcDbSymbolTableRecord
100
AcDbRegAppTableRecord
  2
GEVID1208933849
 70
     0
  0
APPID
  5
4A5
330
9
100
AcDbSymbolTableRecord
100
AcDbRegAppTableRecord
  2
GEVID1208933850
 70
     0
  0
APPID
  5
4A6
330
9
100
AcDbSymbolTableRecord
100
AcDbRegAppTableRecord
  2
GEVID1208933851
 70
     0
  0
APPID
  5
4A7
330
9
100
AcDbSymbolTableRecord
100
AcDbRegAppTableRecord
  2
GEVID1208933852
 70
     0
  0
APPID
  5
4A8
330
9
100
AcDbSymbolTableRecord
100
AcDbRegAppTableRecord
  2
GEVID1208933853
 70
     0
  0
APPID
  5
4A9
330
9
100
AcDbSymbolTableRecord
100
AcDbRegAppTableRecord
  2
GEVID1208933854
 70
     0
  0
APPID
  5
4AA
330
9
100
AcDbSymbolTableRecord
100
AcDbRegAppTableRecord
  2
GEVID1208933855
 70
     0
  0
APPID
  5
4AB
330
9
100
AcDbSymbolTableRecord
100
AcDbRegAppTableRecord
  2
GEVID1208933856
 70
     0
  0
APPID
  5
4AC
330
9
100
AcDbSymbolTableRecord
100
AcDbRegAppTableRecord
  2
GEVID1208933857
 70
     0
  0
APPID
  5
4AD
330
9
100
AcDbSymbolTableRecord
100
AcDbRegAppTableRecord
  2
GEVID1208933858
 70
     0
  0
APPID
  5
4AE
330
9
100
AcDbSymbolTableRecord
100
AcDbRegAppTableRecord
  2
GEVID1208933859
 70
     0
  0
APPID
  5
4AF
330
9
100
AcDbSymbolTableRecord
100
AcDbRegAppTableRecord
  2
GEVID1208933860
 70
     0
  0
APPID
  5
4B0
330
9
100
AcDbSymbolTableRecord
100
AcDbRegAppTableRecord
  2
GEVID1208933861
 70
     0
  0
APPID
  5
4B1
330
9
100
AcDbSymbolTableRecord
100
AcDbRegAppTableRecord
  2
GEVID1208933862
 70
     0
  0
APPID
  5
4B2
330
9
100
AcDbSymbolTableRecord
100
AcDbRegAppTableRecord
  2
GEVID1208933863
 70
     0
  0
APPID
  5
4B3
330
9
100
AcDbSymbolTableRecord
100
AcDbRegAppTableRecord
  2
GEVID1208933864
 70
     0
  0
APPID
  5
4B4
330
9
100
AcDbSymbolTableRecord
100
AcDbRegAppTableRecord
  2
GEVID1208933865
 70
     0
  0
APPID
  5
4B5
330
9
100
AcDbSymbolTableRecord
100
AcDbRegAppTableRecord
  2
GEVID1208933866
 70
     0
  0
APPID
  5
4B6
330
9
100
AcDbSymbolTableRecord
100
AcDbRegAppTableRecord
  2
GEVID1208933867
 70
     0
  0
APPID
  5
4B7
330
9
100
AcDbSymbolTableRecord
100
AcDbRegAppTableRecord
  2
GEVID1208933868
 70
     0
  0
APPID
  5
4B8
330
9
100
AcDbSymbolTableRecord
100
AcDbRegAppTableRecord
  2
GEVID1208933869
 70
     0
  0
APPID
  5
4B9
330
9
100
AcDbSymbolTableRecord
100
AcDbRegAppTableRecord
  2
GEVID1208933870
 70
     0
  0
APPID
  5
4BA
330
9
100
AcDbSymbolTableRecord
100
AcDbRegAppTableRecord
  2
GEVID1208933871
 70
     0
  0
APPID
  5
4BB
330
9
100
AcDbSymbolTableRecord
100
AcDbRegAppTableRecord
  2
GEVID1208933872
 70
     0
  0
APPID
  5
4BC
330
9
100
AcDbSymbolTableRecord
100
AcDbRegAppTableRecord
  2
GEVID1208933873
 70
     0
  0
APPID
  5
4BD
330
9
100
AcDbSymbolTableRecord
100
AcDbRegAppTableRecord
  2
GEVID1208933874
 70
     0
  0
APPID
  5
4BE
330
9
100
AcDbSymbolTableRecord
100
AcDbRegAppTableRecord
  2
GEVID1208933875
 70
     0
  0
APPID
  5
4BF
330
9
100
AcDbSymbolTableRecord
100
AcDbRegAppTableRecord
  2
GEVID1208933876
 70
     0
  0
APPID
  5
4C0
330
9
100
AcDbSymbolTableRecord
100
AcDbRegAppTableRecord
  2
ACAD_DSTYLE_DIMRADIAL_EXTENSION
 70
     0
  0
APPID
  5
4C1
330
9
100
AcDbSymbolTableRecord
100
AcDbRegAppTableRecord
  2
GEVID1208999100
 70
     0
  0
APPID
  5
4C2
330
9
100
AcDbSymbolTableRecord
100
AcDbRegAppTableRecord
  2
GEVID1208999101
 70
     0
  0
APPID
  5
4C3
330
9
100
AcDbSymbolTableRecord
100
AcDbRegAppTableRecord
  2
GEVID1208999102
 70
     0
  0
APPID
  5
4C4
330
9
100
AcDbSymbolTableRecord
100
AcDbRegAppTableRecord
  2
GEVID1208999103
 70
     0
  0
APPID
  5
4C5
330
9
100
AcDbSymbolTableRecord
100
AcDbRegAppTableRecord
  2
GEVID1208999105
 70
     0
  0
APPID
  5
4C6
330
9
100
AcDbSymbolTableRecord
100
AcDbRegAppTableRecord
  2
GEVID1208999106
 70
     0
  0
APPID
  5
4C7
330
9
100
AcDbSymbolTableRecord
100
AcDbRegAppTableRecord
  2
GEVID1208999108
 70
     0
  0
APPID
  5
4C8
330
9
100
AcDbSymbolTableRecord
100
AcDbRegAppTableRecord
  2
GEVID1208999109
 70
     0
  0
APPID
  5
4C9
330
9
100
AcDbSymbolTableRecord
100
AcDbRegAppTableRecord
  2
GEVID1208999110
 70
     0
  0
APPID
  5
4CA
330
9
100
AcDbSymbolTableRecord
100
AcDbRegAppTableRecord
  2
GEVID1208999111
 70
     0
  0
APPID
  5
4CB
330
9
100
AcDbSymbolTableRecord
100
AcDbRegAppTableRecord
  2
GEVID1208999112
 70
     0
  0
APPID
  5
4CC
330
9
100
AcDbSymbolTableRecord
100
AcDbRegAppTableRecord
  2
GEVID1208999113
 70
     0
  0
APPID
  5
4CD
330
9
100
AcDbSymbolTableRecord
100
AcDbRegAppTableRecord
  2
GEVID1208999114
 70
     0
  0
APPID
  5
4CE
330
9
100
AcDbSymbolTableRecord
100
AcDbRegAppTableRecord
  2
GEVID1210218799
 70
     0
  0
APPID
  5
4CF
330
9
100
AcDbSymbolTableRecord
100
AcDbRegAppTableRecord
  2
GEVID1210218800
 70
     0
  0
APPID
  5
4D0
330
9
100
AcDbSymbolTableRecord
100
AcDbRegAppTableRecord
  2
GENIUS_GEFWELD_13
 70
     0
  0
APPID
  5
4D1
330
9
100
AcDbSymbolTableRecord
100
AcDbRegAppTableRecord
  2
GENIUS_GENOBJ-F-WELS_13
 70
     0
  0
APPID
  5
4D2
330
9
100
AcDbSymbolTableRecord
100
AcDbRegAppTableRecord
  2
AcadAnnotative
 70
     0
  0
APPID
  5
4D3
330
9
100
AcDbSymbolTableRecord
100
AcDbRegAppTableRecord
  2
GEVID1210145339
 70
     0
  0
APPID
  5
4D4
330
9
100
AcDbSymbolTableRecord
100
AcDbRegAppTableRecord
  2
ACAD_DSTYLE_DIMBREAK
 70
     0
  0
APPID
  5
4D5
330
9
100
AcDbSymbolTableRecord
100
AcDbRegAppTableRecord
  2
GEVID1210145340
 70
     0
  0
APPID
  5
4D6
330
9
100
AcDbSymbolTableRecord
100
AcDbRegAppTableRecord
  2
GEVID1210145341
 70
     0
  0
APPID
  5
4D7
330
9
100
AcDbSymbolTableRecord
100
AcDbRegAppTableRecord
  2
GEVID1210145342
 70
     0
  0
APPID
  5
4D8
330
9
100
AcDbSymbolTableRecord
100
AcDbRegAppTableRecord
  2
GEVID1210145343
 70
     0
  0
APPID
  5
4D9
330
9
100
AcDbSymbolTableRecord
100
AcDbRegAppTableRecord
  2
GEVID1210145344
 70
     0
  0
APPID
  5
4DA
330
9
100
AcDbSymbolTableRecord
100
AcDbRegAppTableRecord
  2
GEVID1210145345
 70
     0
  0
APPID
  5
4DB
330
9
100
AcDbSymbolTableRecord
100
AcDbRegAppTableRecord
  2
GEVID1210152816
 70
     0
  0
APPID
  5
4DC
330
9
100
AcDbSymbolTableRecord
100
AcDbRegAppTableRecord
  2
GEVID1210153850
 70
     0
  0
APPID
  5
4DD
330
9
100
AcDbSymbolTableRecord
100
AcDbRegAppTableRecord
  2
GEVID1210153851
 70
     0
  0
APPID
  5
4DE
330
9
100
AcDbSymbolTableRecord
100
AcDbRegAppTableRecord
  2
GEVID1210153852
 70
     0
  0
APPID
  5
4DF
330
9
100
AcDbSymbolTableRecord
100
AcDbRegAppTableRecord
  2
GEVID1210549898
 70
     0
  0
APPID
  5
4E0
330
9
100
AcDbSymbolTableRecord
100
AcDbRegAppTableRecord
  2
GEVID1210549899
 70
     0
  0
APPID
  5
4E1
330
9
100
AcDbSymbolTableRecord
100
AcDbRegAppTableRecord
  2
GEVID1210549900
 70
     0
  0
APPID
  5
4E2
330
9
100
AcDbSymbolTableRecord
100
AcDbRegAppTableRecord
  2
GEVID1210549901
 70
     0
  0
APPID
  5
4E3
330
9
100
AcDbSymbolTableRecord
100
AcDbRegAppTableRecord
  2
GEVID1210549902
 70
     0
  0
APPID
  5
4E4
330
9
100
AcDbSymbolTableRecord
100
AcDbRegAppTableRecord
  2
GEVID1210549903
 70
     0
  0
APPID
  5
4E5
330
9
100
AcDbSymbolTableRecord
100
AcDbRegAppTableRecord
  2
GEVID1210549904
 70
     0
  0
APPID
  5
4E6
330
9
100
AcDbSymbolTableRecord
100
AcDbRegAppTableRecord
  2
GEVID1210549905
 70
     0
  0
APPID
  5
4E7
330
9
100
AcDbSymbolTableRecord
100
AcDbRegAppTableRecord
  2
GEVID1210549906
 70
     0
  0
APPID
  5
4E8
330
9
100
AcDbSymbolTableRecord
100
AcDbRegAppTableRecord
  2
GEVID1210549907
 70
     0
  0
APPID
  5
4E9
330
9
100
AcDbSymbolTableRecord
100
AcDbRegAppTableRecord
  2
GEVID1210549908
 70
     0
  0
APPID
  5
4EA
330
9
100
AcDbSymbolTableRecord
100
AcDbRegAppTableRecord
  2
GEVID1210549909
 70
     0
  0
APPID
  5
4EB
330
9
100
AcDbSymbolTableRecord
100
AcDbRegAppTableRecord
  2
GEVID1210549910
 70
     0
  0
APPID
  5
4EC
330
9
100
AcDbSymbolTableRecord
100
AcDbRegAppTableRecord
  2
GEVID1210549911
 70
     0
  0
APPID
  5
4ED
330
9
100
AcDbSymbolTableRecord
100
AcDbRegAppTableRecord
  2
GEVID1210549912
 70
     0
  0
APPID
  5
4EE
330
9
100
AcDbSymbolTableRecord
100
AcDbRegAppTableRecord
  2
GEVID1210549913
 70
     0
  0
APPID
  5
4EF
330
9
100
AcDbSymbolTableRecord
100
AcDbRegAppTableRecord
  2
GEVID1210549914
 70
     0
  0
APPID
  5
4F0
330
9
100
AcDbSymbolTableRecord
100
AcDbRegAppTableRecord
  2
GEVID1210549915
 70
     0
  0
APPID
  5
4F1
330
9
100
AcDbSymbolTableRecord
100
AcDbRegAppTableRecord
  2
GEVID1210549916
 70
     0
  0
APPID
  5
4F2
330
9
100
AcDbSymbolTableRecord
100
AcDbRegAppTableRecord
  2
GEVID1210549917
 70
     0
  0
APPID
  5
4F3
330
9
100
AcDbSymbolTableRecord
100
AcDbRegAppTableRecord
  2
GENIUS_GENOBJ-N-CRS_13
 70
     0
  0
APPID
  5
4F4
330
9
100
AcDbSymbolTableRecord
100
AcDbRegAppTableRecord
  2
GEVID1210549918
 70
     0
  0
APPID
  5
4F5
330
9
100
AcDbSymbolTableRecord
100
AcDbRegAppTableRecord
  2
GENIUS_GENOBJ-N-CRC_13
 70
     0
  0
APPID
  5
4F6
330
9
100
AcDbSymbolTableRecord
100
AcDbRegAppTableRecord
  2
GENIUS_GENCRC_14
 70
     0
  0
APPID
  5
4F7
330
9
100
AcDbSymbolTableRecord
100
AcDbRegAppTableRecord
  2
GEVID1210549919
 70
     0
  0
APPID
  5
4F8
330
9
100
AcDbSymbolTableRecord
100
AcDbRegAppTableRecord
  2
GEVID1210549921
 70
     0
  0
APPID
  5
4F9
330
9
100
AcDbSymbolTableRecord
100
AcDbRegAppTableRecord
  2
GEVID1210549922
 70
     0
  0
APPID
  5
4FA
330
9
100
AcDbSymbolTableRecord
100
AcDbRegAppTableRecord
  2
GEVID1210635173
 70
     0
  0
APPID
  5
4FB
330
9
100
AcDbSymbolTableRecord
100
AcDbRegAppTableRecord
  2
GEVID1210635174
 70
     0
  0
APPID
  5
4FC
330
9
100
AcDbSymbolTableRecord
100
AcDbRegAppTableRecord
  2
GEVID1210635175
 70
     0
  0
APPID
  5
4FD
330
9
100
AcDbSymbolTableRecord
100
AcDbRegAppTableRecord
  2
GEVID1210635176
 70
     0
  0
APPID
  5
4FE
330
9
100
AcDbSymbolTableRecord
100
AcDbRegAppTableRecord
  2
GEVID1210635177
 70
     0
  0
APPID
  5
4FF
330
9
100
AcDbSymbolTableRecord
100
AcDbRegAppTableRecord
  2
GEVID1210635178
 70
     0
  0
APPID
  5
500
330
9
100
AcDbSymbolTableRecord
100
AcDbRegAppTableRecord
  2
GENIUS_GENIUS_GENBHEDTMP_13
 70
     0
  0
APPID
  5
501
330
9
100
AcDbSymbolTableRecord
100
AcDbRegAppTableRecord
  2
GEVID1210635179
 70
     0
  0
APPID
  5
502
330
9
100
AcDbSymbolTableRecord
100
AcDbRegAppTableRecord
  2
GEVID1210635180
 70
     0
  0
APPID
  5
503
330
9
100
AcDbSymbolTableRecord
100
AcDbRegAppTableRecord
  2
GEVID1210635181
 70
     0
  0
APPID
  5
504
330
9
100
AcDbSymbolTableRecord
100
AcDbRegAppTableRecord
  2
GEVID1210635182
 70
     0
  0
APPID
  5
505
330
9
100
AcDbSymbolTableRecord
100
AcDbRegAppTableRecord
  2
GEVID1210635184
 70
     0
  0
APPID
  5
506
330
9
100
AcDbSymbolTableRecord
100
AcDbRegAppTableRecord
  2
GEVID1210635185
 70
     0
  0
APPID
  5
507
330
9
100
AcDbSymbolTableRecord
100
AcDbRegAppTableRecord
  2
GEVID1210635186
 70
     0
  0
APPID
  5
508
330
9
100
AcDbSymbolTableRecord
100
AcDbRegAppTableRecord
  2
GEVID1210635187
 70
     0
  0
APPID
  5
509
330
9
100
AcDbSymbolTableRecord
100
AcDbRegAppTableRecord
  2
GEVID1210635188
 70
     0
  0
APPID
  5
50A
330
9
100
AcDbSymbolTableRecord
100
AcDbRegAppTableRecord
  2
GEVID1210635189
 70
     0
  0
APPID
  5
50B
330
9
100
AcDbSymbolTableRecord
100
AcDbRegAppTableRecord
  2
GEVID1210635190
 70
     0
  0
APPID
  5
50C
330
9
100
AcDbSymbolTableRecord
100
AcDbRegAppTableRecord
  2
GENIUS_GENREC_14
 70
     0
  0
APPID
  5
50D
330
9
100
AcDbSymbolTableRecord
100
AcDbRegAppTableRecord
  2
GENIUS_GENOBJ-N-REC_13
 70
     0
  0
APPID
  5
50E
330
9
100
AcDbSymbolTableRecord
100
AcDbRegAppTableRecord
  2
GEVID1210676655
 70
     0
  0
APPID
  5
50F
330
9
100
AcDbSymbolTableRecord
100
AcDbRegAppTableRecord
  2
GEVID1210676656
 70
     0
  0
APPID
  5
510
330
9
100
AcDbSymbolTableRecord
100
AcDbRegAppTableRecord
  2
GEVID1210676657
 70
     0
  0
APPID
  5
511
330
9
100
AcDbSymbolTableRecord
100
AcDbRegAppTableRecord
  2
GEVID1210676659
 70
     0
  0
APPID
  5
512
330
9
100
AcDbSymbolTableRecord
100
AcDbRegAppTableRecord
  2
GEVID1210676660
 70
     0
  0
APPID
  5
513
330
9
100
AcDbSymbolTableRecord
100
AcDbRegAppTableRecord
  2
GEVID1210676661
 70
     0
  0
APPID
  5
514
330
9
100
AcDbSymbolTableRecord
100
AcDbRegAppTableRecord
  2
GEVID1210676662
 70
     0
  0
APPID
  5
515
330
9
100
AcDbSymbolTableRecord
100
AcDbRegAppTableRecord
  2
GEVID1210721646
 70
     0
  0
APPID
  5
516
330
9
100
AcDbSymbolTableRecord
100
AcDbRegAppTableRecord
  2
GEVID1210721647
 70
     0
  0
APPID
  5
517
330
9
100
AcDbSymbolTableRecord
100
AcDbRegAppTableRecord
  2
GEVID1210721648
 70
     0
  0
APPID
  5
518
330
9
100
AcDbSymbolTableRecord
100
AcDbRegAppTableRecord
  2
GEVID1210721649
 70
     0
  0
APPID
  5
519
330
9
100
AcDbSymbolTableRecord
100
AcDbRegAppTableRecord
  2
GEVID1210721650
 70
     0
  0
APPID
  5
51A
330
9
100
AcDbSymbolTableRecord
100
AcDbRegAppTableRecord
  2
GEVID1210721651
 70
     0
  0
APPID
  5
51B
330
9
100
AcDbSymbolTableRecord
100
AcDbRegAppTableRecord
  2
GEVID1210721652
 70
     0
  0
APPID
  5
51C
330
9
100
AcDbSymbolTableRecord
100
AcDbRegAppTableRecord
  2
GEVID1210721653
 70
     0
  0
APPID
  5
51D
330
9
100
AcDbSymbolTableRecord
100
AcDbRegAppTableRecord
  2
PE_URL
 70
     0
  0
APPID
  5
51E
330
9
100
AcDbSymbolTableRecord
100
AcDbRegAppTableRecord
  2
GEVID1210825555
 70
     0
  0
APPID
  5
51F
330
9
100
AcDbSymbolTableRecord
100
AcDbRegAppTableRecord
  2
GEVID1210825556
 70
     0
  0
APPID
  5
520
330
9
100
AcDbSymbolTableRecord
100
AcDbRegAppTableRecord
  2
GEVID1210825557
 70
     0
  0
APPID
  5
521
330
9
100
AcDbSymbolTableRecord
100
AcDbRegAppTableRecord
  2
GEVID1210825558
 70
     0
  0
APPID
  5
522
330
9
100
AcDbSymbolTableRecord
100
AcDbRegAppTableRecord
  2
GEVID1210825559
 70
     0
  0
APPID
  5
523
330
9
100
AcDbSymbolTableRecord
100
AcDbRegAppTableRecord
  2
GEVID1210825560
 70
     0
  0
APPID
  5
524
330
9
100
AcDbSymbolTableRecord
100
AcDbRegAppTableRecord
  2
GEVID1210825561
 70
     0
  0
APPID
  5
525
330
9
100
AcDbSymbolTableRecord
100
AcDbRegAppTableRecord
  2
GEVID1210825562
 70
     0
  0
APPID
  5
526
330
9
100
AcDbSymbolTableRecord
100
AcDbRegAppTableRecord
  2
GEVID1210825563
 70
     0
  0
APPID
  5
527
330
9
100
AcDbSymbolTableRecord
100
AcDbRegAppTableRecord
  2
GEVID1210825564
 70
     0
  0
APPID
  5
528
330
9
100
AcDbSymbolTableRecord
100
AcDbRegAppTableRecord
  2
GEVID1210825565
 70
     0
  0
APPID
  5
529
330
9
100
AcDbSymbolTableRecord
100
AcDbRegAppTableRecord
  2
GEVID1210825566
 70
     0
  0
APPID
  5
52A
330
9
100
AcDbSymbolTableRecord
100
AcDbRegAppTableRecord
  2
GEVID1210825567
 70
     0
  0
APPID
  5
52B
330
9
100
AcDbSymbolTableRecord
100
AcDbRegAppTableRecord
  2
GENIUS_GENOBJ-N-ZOO_13
 70
     0
  0
APPID
  5
52C
330
9
100
AcDbSymbolTableRecord
100
AcDbRegAppTableRecord
  2
GENIUS_GENZOO_17
 70
     0
  0
APPID
  5
52D
330
9
100
AcDbSymbolTableRecord
100
AcDbRegAppTableRecord
  2
ACADANNOTATIVEDECOMPOSITION
 70
     0
  0
APPID
  5
52E
330
9
100
AcDbSymbolTableRecord
100
AcDbRegAppTableRecord
  2
GENIUS_GENOBJ-N-HTC_13
 70
     0
  0
APPID
  5
52F
330
9
100
AcDbSymbolTableRecord
100
AcDbRegAppTableRecord
  2
GENIUS_GENHATCH_13
 70
     0
  0
APPID
  5
530
330
9
100
AcDbSymbolTableRecord
100
AcDbRegAppTableRecord
  2
GEVID1210896020
 70
     0
  0
APPID
  5
531
330
9
100
AcDbSymbolTableRecord
100
AcDbRegAppTableRecord
  2
GEVID1210896021
 70
     0
  0
APPID
  5
532
330
9
100
AcDbSymbolTableRecord
100
AcDbRegAppTableRecord
  2
GEVID1209083540
 70
     0
  0
APPID
  5
533
330
9
100
AcDbSymbolTableRecord
100
AcDbRegAppTableRecord
  2
GEVMK
 70
     0
  0
APPID
  5
534
330
9
100
AcDbSymbolTableRecord
100
AcDbRegAppTableRecord
  2
GEVID1209083542
 70
     0
  0
APPID
  5
535
330
9
100
AcDbSymbolTableRecord
100
AcDbRegAppTableRecord
  2
GEVID1209083543
 70
     0
  0
APPID
  5
536
330
9
100
AcDbSymbolTableRecord
100
AcDbRegAppTableRecord
  2
GEVID1209083544
 70
     0
  0
APPID
  5
537
330
9
100
AcDbSymbolTableRecord
100
AcDbRegAppTableRecord
  2
GEVID1209083545
 70
     0
  0
APPID
  5
538
330
9
100
AcDbSymbolTableRecord
100
AcDbRegAppTableRecord
  2
GEVID1209083546
 70
     0
  0
APPID
  5
539
330
9
100
AcDbSymbolTableRecord
100
AcDbRegAppTableRecord
  2
GEVID1209083547
 70
     0
  0
APPID
  5
53A
330
9
100
AcDbSymbolTableRecord
100
AcDbRegAppTableRecord
  2
GEVID1209083548
 70
     0
  0
APPID
  5
53B
330
9
100
AcDbSymbolTableRecord
100
AcDbRegAppTableRecord
  2
GEVID1209083549
 70
     0
  0
APPID
  5
53C
330
9
100
AcDbSymbolTableRecord
100
AcDbRegAppTableRecord
  2
GEVID1209083550
 70
     0
  0
APPID
  5
53D
330
9
100
AcDbSymbolTableRecord
100
AcDbRegAppTableRecord
  2
GEVID1209083551
 70
     0
  0
APPID
  5
53E
330
9
100
AcDbSymbolTableRecord
100
AcDbRegAppTableRecord
  2
GEVID1209083552
 70
     0
  0
APPID
  5
53F
330
9
100
AcDbSymbolTableRecord
100
AcDbRegAppTableRecord
  2
GEVID1209083553
 70
     0
  0
APPID
  5
540
330
9
100
AcDbSymbolTableRecord
100
AcDbRegAppTableRecord
  2
GEVID1210896022
 70
     0
  0
APPID
  5
541
330
9
100
AcDbSymbolTableRecord
100
AcDbRegAppTableRecord
  2
GEVID1211508364
 70
     0
  0
APPID
  5
542
330
9
100
AcDbSymbolTableRecord
100
AcDbRegAppTableRecord
  2
GEVID1211414908
 70
     0
  0
APPID
  5
543
330
9
100
AcDbSymbolTableRecord
100
AcDbRegAppTableRecord
  2
GEVID1211414909
 70
     0
  0
APPID
  5
544
330
9
100
AcDbSymbolTableRecord
100
AcDbRegAppTableRecord
  2
GEVID1211508359
 70
     0
  0
APPID
  5
545
330
9
100
AcDbSymbolTableRecord
100
AcDbRegAppTableRecord
  2
GEVID1211508360
 70
     0
  0
APPID
  5
546
330
9
100
AcDbSymbolTableRecord
100
AcDbRegAppTableRecord
  2
GEVID1211508361
 70
     0
  0
APPID
  5
547
330
9
100
AcDbSymbolTableRecord
100
AcDbRegAppTableRecord
  2
GEVID1211508362
 70
     0
  0
APPID
  5
548
330
9
100
AcDbSymbolTableRecord
100
AcDbRegAppTableRecord
  2
GEVID1211508363
 70
     0
  0
APPID
  5
549
330
9
100
AcDbSymbolTableRecord
100
AcDbRegAppTableRecord
  2
GEVID1211878469
 70
     0
  0
APPID
  5
54A
330
9
100
AcDbSymbolTableRecord
100
AcDbRegAppTableRecord
  2
GEVID1212642819
 70
     0
  0
APPID
  5
54B
330
9
100
AcDbSymbolTableRecord
100
AcDbRegAppTableRecord
  2
GEVID1212642820
 70
     0
  0
APPID
  5
54C
330
9
100
AcDbSymbolTableRecord
100
AcDbRegAppTableRecord
  2
GEVID1212642821
 70
     0
  0
APPID
  5
54D
330
9
100
AcDbSymbolTableRecord
100
AcDbRegAppTableRecord
  2
GEVID1212642822
 70
     0
  0
APPID
  5
54E
330
9
100
AcDbSymbolTableRecord
100
AcDbRegAppTableRecord
  2
GEVID1212642823
 70
     0
  0
APPID
  5
54F
330
9
100
AcDbSymbolTableRecord
100
AcDbRegAppTableRecord
  2
GEVID1212642825
 70
     0
  0
APPID
  5
550
330
9
100
AcDbSymbolTableRecord
100
AcDbRegAppTableRecord
  2
GEVID1212642826
 70
     0
  0
APPID
  5
551
330
9
100
AcDbSymbolTableRecord
100
AcDbRegAppTableRecord
  2
GEVID1212642827
 70
     0
  0
APPID
  5
552
330
9
100
AcDbSymbolTableRecord
100
AcDbRegAppTableRecord
  2
GEVID1212642828
 70
     0
  0
APPID
  5
553
330
9
100
AcDbSymbolTableRecord
100
AcDbRegAppTableRecord
  2
GEVID1212642831
 70
     0
  0
APPID
  5
554
330
9
100
AcDbSymbolTableRecord
100
AcDbRegAppTableRecord
  2
GEVID1212642834
 70
     0
  0
APPID
  5
555
330
9
100
AcDbSymbolTableRecord
100
AcDbRegAppTableRecord
  2
GEVID1212642835
 70
     0
  0
APPID
  5
556
330
9
100
AcDbSymbolTableRecord
100
AcDbRegAppTableRecord
  2
GEVID1212642836
 70
     0
  0
APPID
  5
557
330
9
100
AcDbSymbolTableRecord
100
AcDbRegAppTableRecord
  2
GEVID1212642837
 70
     0
  0
APPID
  5
558
330
9
100
AcDbSymbolTableRecord
100
AcDbRegAppTableRecord
  2
GEVID1212642839
 70
     0
  0
APPID
  5
559
330
9
100
AcDbSymbolTableRecord
100
AcDbRegAppTableRecord
  2
GEVID1212642840
 70
     0
  0
APPID
  5
55A
330
9
100
AcDbSymbolTableRecord
100
AcDbRegAppTableRecord
  2
GEVID1212642841
 70
     0
  0
APPID
  5
55B
330
9
100
AcDbSymbolTableRecord
100
AcDbRegAppTableRecord
  2
GEVID1212655312
 70
     0
  0
APPID
  5
55C
330
9
100
AcDbSymbolTableRecord
100
AcDbRegAppTableRecord
  2
GEVID1212655313
 70
     0
  0
APPID
  5
55D
330
9
100
AcDbSymbolTableRecord
100
AcDbRegAppTableRecord
  2
GEVID1212656533
 70
     0
  0
APPID
  5
55E
330
9
100
AcDbSymbolTableRecord
100
AcDbRegAppTableRecord
  2
GEVID1212656534
 70
     0
  0
APPID
  5
55F
330
9
100
AcDbSymbolTableRecord
100
AcDbRegAppTableRecord
  2
GEVID1212656535
 70
     0
  0
APPID
  5
560
330
9
100
AcDbSymbolTableRecord
100
AcDbRegAppTableRecord
  2
GEVID1212656536
 70
     0
  0
APPID
  5
561
330
9
100
AcDbSymbolTableRecord
100
AcDbRegAppTableRecord
  2
GEVID1212656538
 70
     0
  0
APPID
  5
562
330
9
100
AcDbSymbolTableRecord
100
AcDbRegAppTableRecord
  2
GEVID1212656541
 70
     0
  0
APPID
  5
563
330
9
100
AcDbSymbolTableRecord
100
AcDbRegAppTableRecord
  2
GEVID1212656543
 70
     0
  0
APPID
  5
564
330
9
100
AcDbSymbolTableRecord
100
AcDbRegAppTableRecord
  2
GENIUS_GENOBJ-F-PFASSM_13
 70
     0
  0
APPID
  5
565
330
9
100
AcDbSymbolTableRecord
100
AcDbRegAppTableRecord
  2
GEVID1212656544
 70
     0
  0
APPID
  5
566
330
9
100
AcDbSymbolTableRecord
100
AcDbRegAppTableRecord
  2
GEVID1212656545
 70
     0
  0
APPID
  5
567
330
9
100
AcDbSymbolTableRecord
100
AcDbRegAppTableRecord
  2
GEVID1212656546
 70
     0
  0
APPID
  5
568
330
9
100
AcDbSymbolTableRecord
100
AcDbRegAppTableRecord
  2
GEVID1212656547
 70
     0
  0
APPID
  5
569
330
9
100
AcDbSymbolTableRecord
100
AcDbRegAppTableRecord
  2
GEVID1212656548
 70
     0
  0
APPID
  5
56A
330
9
100
AcDbSymbolTableRecord
100
AcDbRegAppTableRecord
  2
GEVID1212656549
 70
     0
  0
APPID
  5
56B
330
9
100
AcDbSymbolTableRecord
100
AcDbRegAppTableRecord
  2
GEVID1212656550
 70
     0
  0
APPID
  5
56C
330
9
100
AcDbSymbolTableRecord
100
AcDbRegAppTableRecord
  2
GEVID1212656552
 70
     0
  0
APPID
  5
56D
330
9
100
AcDbSymbolTableRecord
100
AcDbRegAppTableRecord
  2
GEVID1212656553
 70
     0
  0
APPID
  5
56E
330
9
100
AcDbSymbolTableRecord
100
AcDbRegAppTableRecord
  2
GEVID1212656554
 70
     0
  0
APPID
  5
56F
330
9
100
AcDbSymbolTableRecord
100
AcDbRegAppTableRecord
  2
GEVID1212656555
 70
     0
  0
APPID
  5
570
330
9
100
AcDbSymbolTableRecord
100
AcDbRegAppTableRecord
  2
GEVID1212656556
 70
     0
  0
APPID
  5
571
330
9
100
AcDbSymbolTableRecord
100
AcDbRegAppTableRecord
  2
GEVID1212656557
 70
     0
  0
APPID
  5
572
330
9
100
AcDbSymbolTableRecord
100
AcDbRegAppTableRecord
  2
GEVID1212656559
 70
     0
  0
APPID
  5
573
330
9
100
AcDbSymbolTableRecord
100
AcDbRegAppTableRecord
  2
GEVID1212656560
 70
     0
  0
APPID
  5
574
330
9
100
AcDbSymbolTableRecord
100
AcDbRegAppTableRecord
  2
GEVID1212656561
 70
     0
  0
APPID
  5
575
330
9
100
AcDbSymbolTableRecord
100
AcDbRegAppTableRecord
  2
GEVID1212656562
 70
     0
  0
APPID
  5
576
330
9
100
AcDbSymbolTableRecord
100
AcDbRegAppTableRecord
  2
GEVID1212656563
 70
     0
  0
APPID
  5
577
330
9
100
AcDbSymbolTableRecord
100
AcDbRegAppTableRecord
  2
GEVID1212711781
 70
     0
  0
APPID
  5
578
330
9
100
AcDbSymbolTableRecord
100
AcDbRegAppTableRecord
  2
GEVID1212711782
 70
     0
  0
APPID
  5
579
330
9
100
AcDbSymbolTableRecord
100
AcDbRegAppTableRecord
  2
GEVID1212711783
 70
     0
  0
APPID
  5
57A
330
9
100
AcDbSymbolTableRecord
100
AcDbRegAppTableRecord
  2
GEVID1212711784
 70
     0
  0
APPID
  5
57B
330
9
100
AcDbSymbolTableRecord
100
AcDbRegAppTableRecord
  2
GEVID1212711788
 70
     0
  0
APPID
  5
57C
330
9
100
AcDbSymbolTableRecord
100
AcDbRegAppTableRecord
  2
GEVID1212711789
 70
     0
  0
APPID
  5
57D
330
9
100
AcDbSymbolTableRecord
100
AcDbRegAppTableRecord
  2
GEVID1212711790
 70
     0
  0
APPID
  5
57E
330
9
100
AcDbSymbolTableRecord
100
AcDbRegAppTableRecord
  2
GEVID1212711791
 70
     0
  0
APPID
  5
57F
330
9
100
AcDbSymbolTableRecord
100
AcDbRegAppTableRecord
  2
GEVID1212711792
 70
     0
  0
APPID
  5
580
330
9
100
AcDbSymbolTableRecord
100
AcDbRegAppTableRecord
  2
GEVID1212711793
 70
     0
  0
APPID
  5
581
330
9
100
AcDbSymbolTableRecord
100
AcDbRegAppTableRecord
  2
GEVID1212711794
 70
     0
  0
APPID
  5
582
330
9
100
AcDbSymbolTableRecord
100
AcDbRegAppTableRecord
  2
GEVID1212711795
 70
     0
  0
APPID
  5
583
330
9
100
AcDbSymbolTableRecord
100
AcDbRegAppTableRecord
  2
GEVID1212711797
 70
     0
  0
APPID
  5
584
330
9
100
AcDbSymbolTableRecord
100
AcDbRegAppTableRecord
  2
GEVID1212711798
 70
     0
  0
APPID
  5
585
330
9
100
AcDbSymbolTableRecord
100
AcDbRegAppTableRecord
  2
GEVID1212711799
 70
     0
  0
APPID
  5
586
330
9
100
AcDbSymbolTableRecord
100
AcDbRegAppTableRecord
  2
GEVID1212711800
 70
     0
  0
APPID
  5
587
330
9
100
AcDbSymbolTableRecord
100
AcDbRegAppTableRecord
  2
GEVID1212711801
 70
     0
  0
APPID
  5
588
330
9
100
AcDbSymbolTableRecord
100
AcDbRegAppTableRecord
  2
GEVID1212711802
 70
     0
  0
APPID
  5
589
330
9
100
AcDbSymbolTableRecord
100
AcDbRegAppTableRecord
  2
GEVID1212711803
 70
     0
  0
APPID
  5
58A
330
9
100
AcDbSymbolTableRecord
100
AcDbRegAppTableRecord
  2
GEVID1212711804
 70
     0
  0
APPID
  5
58B
330
9
100
AcDbSymbolTableRecord
100
AcDbRegAppTableRecord
  2
GEVID1212711805
 70
     0
  0
APPID
  5
58C
330
9
100
AcDbSymbolTableRecord
100
AcDbRegAppTableRecord
  2
GEVID1212711806
 70
     0
  0
APPID
  5
58D
330
9
100
AcDbSymbolTableRecord
100
AcDbRegAppTableRecord
  2
GEVID1212711807
 70
     0
  0
APPID
  5
58E
330
9
100
AcDbSymbolTableRecord
100
AcDbRegAppTableRecord
  2
GEVID1212711808
 70
     0
  0
APPID
  5
58F
330
9
100
AcDbSymbolTableRecord
100
AcDbRegAppTableRecord
  2
GEVID1212711809
 70
     0
  0
APPID
  5
590
330
9
100
AcDbSymbolTableRecord
100
AcDbRegAppTableRecord
  2
GEVID1212711810
 70
     0
  0
APPID
  5
591
330
9
100
AcDbSymbolTableRecord
100
AcDbRegAppTableRecord
  2
GEVID1212711811
 70
     0
  0
APPID
  5
90A
330
9
100
AcDbSymbolTableRecord
100
AcDbRegAppTableRecord
  2
GENIUS_GENTRA_14
 70
     0
  0
APPID
  5
919
330
9
100
AcDbSymbolTableRecord
100
AcDbRegAppTableRecord
  2
GENIUS_GENOBJ-N-TIT_13
 70
     0
  0
APPID
  5
91A
330
9
100
AcDbSymbolTableRecord
100
AcDbRegAppTableRecord
  2
GENIUS_GENTITLE_13
 70
     0
  0
APPID
  5
949
330
9
100
AcDbSymbolTableRecord
100
AcDbRegAppTableRecord
  2
GENIUS_GENBLLY_14
 70
     0
  0
APPID
  5
DDD
330
9
100
AcDbSymbolTableRecord
100
AcDbRegAppTableRecord
  2
GEVID1213165152
 70
     0
  0
APPID
  5
12F9
330
9
100
AcDbSymbolTableRecord
100
AcDbRegAppTableRecord
  2
AcDbDynamicBlockTrueName
 70
     0
  0
APPID
  5
12FA
330
9
100
AcDbSymbolTableRecord
100
AcDbRegAppTableRecord
  2
ACDBBLOCKREPETAG
 70
     0
  0
APPID
  5
1C15
330
9
100
AcDbSymbolTableRecord
100
AcDbRegAppTableRecord
  2
GEVID1214872427
 70
     0
  0
APPID
  5
1C2A
330
9
100
AcDbSymbolTableRecord
100
AcDbRegAppTableRecord
  2
GEVID1214872428
 70
     0
  0
APPID
  5
1C2F
330
9
100
AcDbSymbolTableRecord
100
AcDbRegAppTableRecord
  2
GEVID1214872429
 70
     0
  0
APPID
  5
1C33
330
9
100
AcDbSymbolTableRecord
100
AcDbRegAppTableRecord
  2
GEVID1214872430
 70
     0
  0
APPID
  5
1C3F
330
9
100
AcDbSymbolTableRecord
100
AcDbRegAppTableRecord
  2
GEVID1214872432
 70
     0
  0
APPID
  5
1C4E
330
9
100
AcDbSymbolTableRecord
100
AcDbRegAppTableRecord
  2
GEVID1214872433
 70
     0
  0
APPID
  5
20DC
330
9
100
AcDbSymbolTableRecord
100
AcDbRegAppTableRecord
  2
AcDbDynamicBlockGUID
 70
     0
  0
APPID
  5
20FD
330
9
100
AcDbSymbolTableRecord
100
AcDbRegAppTableRecord
  2
GENIUS_GENOBJ-N-REV_13
 70
     0
  0
APPID
  5
20FE
330
9
100
AcDbSymbolTableRecord
100
AcDbRegAppTableRecord
  2
GENIUS_GENOBJ-N-RSSYM_13
 70
     0
  0
APPID
  5
20FF
330
9
100
AcDbSymbolTableRecord
100
AcDbRegAppTableRecord
  2
GENIUS_GENSYMENT_13
 70
     0
  0
APPID
  5
2100
330
9
100
AcDbSymbolTableRecord
100
AcDbRegAppTableRecord
  2
GENIUS_GENSCSYM_13
 70
     0
  0
APPID
  5
5D7B
330
9
100
AcDbSymbolTableRecord
100
AcDbRegAppTableRecord
  2
GEVID1240454047
 70
     0
  0
APPID
  5
5D89
330
9
100
AcDbSymbolTableRecord
100
AcDbRegAppTableRecord
  2
GEVID1240454048
 70
     0
  0
APPID
  5
5DC6
330
9
100
AcDbSymbolTableRecord
100
AcDbRegAppTableRecord
  2
GEVID1240454049
 70
     0
  0
APPID
  5
5DCB
330
9
100
AcDbSymbolTableRecord
100
AcDbRegAppTableRecord
  2
GEVID1240454050
 70
     0
  0
APPID
  5
6AF8
330
9
100
AcDbSymbolTableRecord
100
AcDbRegAppTableRecord
  2
GEVID1240537869
 70
     0
  0
ENDTAB
  0
TABLE
  2
DIMSTYLE
  5
A
330
0
100
AcDbSymbolTable
 70
    30
100
AcDbDimStyleTable
 71
     1
340
5AB
  0
DIMSTYLE
105
5AB
330
A
100
AcDbSymbolTableRecord
100
AcDbDimStyleTableRecord
  2
SEISA
 70
     0
  4
"
 40
10.0
 41
2.5
 42
0.625
 43
10.0
 44
0.625
 47
0.1
 48
0.1
 73
     0
 74
     0
 77
     3
 78
     8
 79
     2
 90
     1
140
3.5
141
0.0
143
0.0393701
146
0.71
147
1.5
172
     1
176
     3
177
     3
178
     3
271
     2
272
     2
283
     0
286
     8
340
5D5
341
69
342
69
371
    -1
372
    -1
1001
ACAD_DSTYLE_DIMJAG
1070
   388
1040
1.5
1001
ACAD_DSTYLE_DIMTALN
1070
   392
1070
     1
  0
DIMSTYLE
105
5E9
102
{ACAD_REACTORS
330
5FDB
330
6006
330
601E
330
6050
330
6096
330
6154
330
616C
330
6184
330
62D4
330
62F0
330
639F
330
63B7
330
63CF
330
63E7
330
8450
330
8544
330
8572
102
}
330
A
100
AcDbSymbolTableRecord
100
AcDbDimStyleTableRecord
  2
SEISA$0
 70
     0
  4
"
 40
10.0
 41
2.5
 42
0.625
 43
10.0
 44
0.625
 47
0.1
 48
0.1
 73
     0
 74
     0
 77
     3
 78
     8
 79
     2
 90
     1
140
3.5
141
0.0
143
0.0393701
146
0.71
147
1.5
172
     1
176
     3
177
     3
178
     3
271
     2
272
     2
283
     0
286
     8
340
5D5
341
69
342
69
371
    -1
372
    -1
  0
DIMSTYLE
105
840C
330
A
100
AcDbSymbolTableRecord
100
AcDbDimStyleTableRecord
  2
STANDARD
 70
     0
340
11
  0
DIMSTYLE
105
8906
330
A
100
AcDbSymbolTableRecord
100
AcDbDimStyleTableRecord
  2
AM_ISO
 70
     0
  4
"
 41
2.5
 42
1.0
 43
10.0
 44
1.0
 47
0.1
 48
0.1
 73
     0
 74
     0
 77
     1
 78
     8
 79
     2
 90
     1
140
3.5
141
0.0
143
0.0393701
146
0.71
147
1.5
172
     1
176
   256
177
   256
178
     2
271
     2
272
     3
274
     4
283
     0
284
     8
340
11
371
    -1
372
    -1
  0
DIMSTYLE
105
8907
330
A
100
AcDbSymbolTableRecord
100
AcDbDimStyleTableRecord
  2
AM_ISO$3
 70
     0
  4
"
 41
2.5
 42
1.0
 43
10.0
 44
1.0
 47
0.1
 48
0.1
 73
     0
 77
     1
 78
     8
 79
     2
 90
     1
140
3.5
141
0.0
143
0.0393701
146
0.71
147
1.5
176
   256
177
   256
178
     2
271
     2
272
     3
274
     4
283
     0
284
     8
288
     1
289
     0
340
11
371
    -1
372
    -1
  0
DIMSTYLE
105
8908
330
A
100
AcDbSymbolTableRecord
100
AcDbDimStyleTableRecord
  2
AM_ISO$4
 70
     0
  4
"
 41
2.5
 42
1.0
 43
10.0
 44
1.0
 47
0.1
 48
0.1
 73
     0
 77
     1
 78
     8
 79
     2
 90
     1
140
3.5
141
0.0
143
0.0393701
146
0.71
147
1.5
176
   256
177
   256
178
     2
271
     2
272
     3
274
     4
283
     0
284
     8
288
     1
289
     0
340
11
371
    -1
372
    -1
  0
DIMSTYLE
105
8909
330
A
100
AcDbSymbolTableRecord
100
AcDbDimStyleTableRecord
  2
AM_ISO$6
 70
     0
  4
"
 41
2.5
 42
1.0
 43
10.0
 44
1.0
 47
0.1
 48
0.1
 73
     0
 74
     0
 78
     8
 79
     2
 90
     1
140
3.5
141
0.0
143
0.0393701
146
0.71
147
1.5
172
     1
176
   256
177
   256
178
     2
271
     2
272
     3
274
     4
283
     0
284
     8
340
11
371
    -1
372
    -1
  0
DIMSTYLE
105
890A
330
A
100
AcDbSymbolTableRecord
100
AcDbDimStyleTableRecord
  2
AM_ISO$7
 70
     0
  4
"
 41
2.5
 42
1.0
 43
10.0
 44
1.0
 47
0.1
 48
0.1
 73
     0
 74
     0
 77
     1
 78
     8
 79
     2
 90
     1
140
5.0
141
0.0
143
0.0393701
146
0.71
147
1.5
172
     1
176
   256
177
   256
178
     2
271
     2
272
     3
274
     4
283
     0
284
     8
340
11
371
    -1
372
    -1
  0
DIMSTYLE
105
890B
330
A
100
AcDbSymbolTableRecord
100
AcDbDimStyleTableRecord
  2
AM_ISO$SF
 70
     0
  4
"
 41
2.5
 42
1.0
 43
10.0
 44
1.0
 47
0.1
 48
0.1
 73
     0
 74
     0
 75
     1
 76
     1
 77
     1
 78
     8
 79
     2
 90
     1
140
3.5
141
0.0
143
0.0393701
146
0.71
147
1.5
172
     1
176
   256
177
   256
178
     2
271
     2
272
     3
274
     4
283
     0
284
     8
340
11
371
    -1
372
    -1
  0
DIMSTYLE
105
890C
330
A
100
AcDbSymbolTableRecord
100
AcDbDimStyleTableRecord
  2
AM_ISO$SH
 70
     0
  4
"
 41
2.5
 42
1.0
 43
10.0
 44
1.0
 47
0.1
 48
0.1
 73
     0
 74
     0
 75
     1
 76
     1
 77
     1
 78
     8
 79
     2
 90
     1
140
3.5
141
0.0
143
0.0393701
144
2.0
146
0.71
147
1.5
172
     1
173
     1
176
   256
177
   256
178
     2
271
     2
272
     3
274
     4
283
     0
284
     8
340
11
343
74
371
    -1
372
    -1
  0
ENDTAB
  0
TABLE
  2
BLOCK_RECORD
  5
1
330
0
100
AcDbSymbolTable
 70
    33
  0
BLOCK_RECORD
  5
1F
102
{ACAD_XDICTIONARY
360
82
102
}
330
1
100
AcDbSymbolTableRecord
100
AcDbBlockTableRecord
  2
*Model_Space
340
22
 70
     0
280
     1
281
     0
  0
BLOCK_RECORD
  5
1B
330
1
100
AcDbSymbolTableRecord
100
AcDbBlockTableRecord
  2
*Paper_Space
340
1E
 70
     0
280
     1
281
     0
  0
BLOCK_RECORD
  5
23
330
1
100
AcDbSymbolTableRecord
100
AcDbBlockTableRecord
  2
*Paper_Space0
340
26
 70
     0
280
     1
281
     0
  0
BLOCK_RECORD
  5
69
330
1
100
AcDbSymbolTableRecord
100
AcDbBlockTableRecord
  2
_Open30
340
0
102
{BLKREFS
331
5FFF
331
6000
331
6017
331
6018
331
6061
331
6062
331
6079
331
607A
331
61F0
331
61F1
331
61F9
331
61FA
331
6202
331
6203
331
6372
331
6388
331
63B0
331
63B1
331
63C8
331
63C9
331
63E0
331
63E1
331
63F8
331
63F9
331
8474
331
8475
331
8596
331
8597
331
85AC
331
85AD
331
85B6
331
85B7
102
}
 70
     0
280
     1
281
     0
  0
BLOCK_RECORD
  5
74
330
1
100
AcDbSymbolTableRecord
100
AcDbBlockTableRecord
  2
GENAXEH
340
0
 70
     0
280
     1
281
     0
  0
BLOCK_RECORD
  5
3AAE
330
1
100
AcDbSymbolTableRecord
100
AcDbBlockTableRecord
  2
GENDOT
340
0
102
{BLKREFS
331
6371
331
6387
102
}
 70
     0
280
     1
281
     0
  0
BLOCK_RECORD
  5
547B
102
{ACAD_XDICTIONARY
360
54A9
102
}
330
1
100
AcDbSymbolTableRecord
100
AcDbBlockTableRecord
  2
ロッカクアナツキプラグ-E R3／4
340
0
310
2800000020000000200000000100080000000000000400000000000000000000000000000000000000000000000080000080000000808000800000008000800080800000C0C0C000C0DCC000F0CAA6000020400000206000002080000020A0000020C0000020E00000400000004020000040400000406000004080000040A0
310
000040C0000040E00000600000006020000060400000606000006080000060A0000060C0000060E00000800000008020000080400000806000008080000080A0000080C0000080E00000A0000000A0200000A0400000A0600000A0800000A0A00000A0C00000A0E00000C0000000C0200000C0400000C0600000C0800000C0
310
A00000C0C00000C0E00000E0000000E0200000E0400000E0600000E0800000E0A00000E0C00000E0E00040000000400020004000400040006000400080004000A0004000C0004000E00040200000402020004020400040206000402080004020A0004020C0004020E000404000004040200040404000404060004040800040
310
40A0004040C0004040E00040600000406020004060400040606000406080004060A0004060C0004060E00040800000408020004080400040806000408080004080A0004080C0004080E00040A0000040A0200040A0400040A0600040A0800040A0A00040A0C00040A0E00040C0000040C0200040C0400040C0600040C08000
310
40C0A00040C0C00040C0E00040E0000040E0200040E0400040E0600040E0800040E0A00040E0C00040E0E00080000000800020008000400080006000800080008000A0008000C0008000E00080200000802020008020400080206000802080008020A0008020C0008020E00080400000804020008040400080406000804080
310
008040A0008040C0008040E00080600000806020008060400080606000806080008060A0008060C0008060E00080800000808020008080400080806000808080008080A0008080C0008080E00080A0000080A0200080A0400080A0600080A0800080A0A00080A0C00080A0E00080C0000080C0200080C0400080C0600080C0
310
800080C0A00080C0C00080C0E00080E0000080E0200080E0400080E0600080E0800080E0A00080E0C00080E0E000C0000000C0002000C0004000C0006000C0008000C000A000C000C000C000E000C0200000C0202000C0204000C0206000C0208000C020A000C020C000C020E000C0400000C0402000C0404000C0406000C0
310
408000C040A000C040C000C040E000C0600000C0602000C0604000C0606000C0608000C060A000C060C000C060E000C0800000C0802000C0804000C0806000C0808000C080A000C080C000C080E000C0A00000C0A02000C0A04000C0A06000C0A08000C0A0A000C0A0C000C0A0E000C0C00000C0C02000C0C04000C0C06000
310
C0C08000C0C0A000F0FBFF00A4A0A000808080000000FF0000FF000000FFFF00FF000000FF00FF00FFFF0000FFFFFF00000000000000000000000000000000000000000000000000000000000000000000000000000000000000000000000000F9000000000000000000000000000000000000000000000000000000000000
310
00F900000000000000000000000000000000000000000000000000000000000000F900000000000000000000000000000000000000000000000000000000000000F900000000000000000000000000000000000000000000000000000000000000F90000000000000000000000000000000000000000000000000000000000
310
0000F900000000000000000000000000000000000000000000000000000000000000F900000000000000000000000000000000000000000000000000000000000000F900000000000000000000000000000000000000000000000000000000000000F900000000000000000000000000000000000000000000000000000000
310
000000F900000000000000000000000000000000000000000000FFFFFFFFFFFFFFFFFFF9FFFFFFFFFFFFFFFF000000000000000000000000FFFF000000000000000000F90000000000000000FFFF0000000000000000FFFFFFFFFFFFFFFFFFFFFFFFFFF9FFFFFFFFFFFFFFFFFFFFFFFF000000000000FFFE00000000000000
310
00000000F900000000000000000000FEFF000000000000FFFE0000000000000000000000F900000000000000000000FEFF000000000000FFFE0000000000000000000000F900000000000000000000FEFF000000000000FFFE0000000000000000000000F900000000000000000000FEFF000000000000FFFE000000000000
310
0000000000F900000000000000000000FEFF0000000000FF00FE0000000000000000000000F900000000000000000000FEFF0000000000FFFE000000000000000000000000F90000000000000000000000FEFF00000000FFFE000000000000000000000000F90000000000000000000000FEFF00000000FFFE000000000000
310
000000000000F90000000000000000000000FEFF00000000FFFE000000000000000000000000F90000000000000000000000FEFF00000000FFFE000000000000000000000000F90000000000000000000000FEFF00000000FFFFFFFFFFFFFFFFFFFFFFFFFFFFF9FFFFFFFFFFFFFFFFFFFFFFFFFF0000000000FF0000000000
310
00000000000000F90000000000000000000000FF00000000000000FF0000000000000000000000F900000000000000000000FF0000000000000000000000000000000000000000F900000000000000000000000000000000000000000000000000000000000000F90000000000000000000000000000000000000000000000
310
0000000000000000F90000000000000000000000000000000000000000000000000000000000000000000000000000000000000000000000
102
{BLKREFS
331
556A
102
}
 70
     4
280
     1
281
     0
  0
BLOCK_RECORD
  5
552E
102
{ACAD_XDICTIONARY
360
55EE
102
}
330
1
100
AcDbSymbolTableRecord
100
AcDbBlockTableRecord
  2
ケースＡ-E CEMH900
340
0
310
2800000020000000200000000100080000000000000400000000000000000000000000000000000000000000000080000080000000808000800000008000800080800000C0C0C000C0DCC000F0CAA6000020400000206000002080000020A0000020C0000020E00000400000004020000040400000406000004080000040A0
310
000040C0000040E00000600000006020000060400000606000006080000060A0000060C0000060E00000800000008020000080400000806000008080000080A0000080C0000080E00000A0000000A0200000A0400000A0600000A0800000A0A00000A0C00000A0E00000C0000000C0200000C0400000C0600000C0800000C0
310
A00000C0C00000C0E00000E0000000E0200000E0400000E0600000E0800000E0A00000E0C00000E0E00040000000400020004000400040006000400080004000A0004000C0004000E00040200000402020004020400040206000402080004020A0004020C0004020E000404000004040200040404000404060004040800040
310
40A0004040C0004040E00040600000406020004060400040606000406080004060A0004060C0004060E00040800000408020004080400040806000408080004080A0004080C0004080E00040A0000040A0200040A0400040A0600040A0800040A0A00040A0C00040A0E00040C0000040C0200040C0400040C0600040C08000
310
40C0A00040C0C00040C0E00040E0000040E0200040E0400040E0600040E0800040E0A00040E0C00040E0E00080000000800020008000400080006000800080008000A0008000C0008000E00080200000802020008020400080206000802080008020A0008020C0008020E00080400000804020008040400080406000804080
310
008040A0008040C0008040E00080600000806020008060400080606000806080008060A0008060C0008060E00080800000808020008080400080806000808080008080A0008080C0008080E00080A0000080A0200080A0400080A0600080A0800080A0A00080A0C00080A0E00080C0000080C0200080C0400080C0600080C0
310
800080C0A00080C0C00080C0E00080E0000080E0200080E0400080E0600080E0800080E0A00080E0C00080E0E000C0000000C0002000C0004000C0006000C0008000C000A000C000C000C000E000C0200000C0202000C0204000C0206000C0208000C020A000C020C000C020E000C0400000C0402000C0404000C0406000C0
310
408000C040A000C040C000C040E000C0600000C0602000C0604000C0606000C0608000C060A000C060C000C060E000C0800000C0802000C0804000C0806000C0808000C080A000C080C000C080E000C0A00000C0A02000C0A04000C0A06000C0A08000C0A0A000C0A0C000C0A0E000C0C00000C0C02000C0C04000C0C06000
310
C0C08000C0C0A000F0FBFF00A4A0A000808080000000FF0000FF000000FFFF00FF000000FF00FF00FFFF0000FFFFFF000000000000000000000000000000000000000000000000000000000000000000000000000000000000000000FFFF000000000000000000000000000000000000000000000000000000000000FFFF00
310
0000000000000000000000000000000000000000000000000000000000FFFFFFFFFFFFFFFFFFFF00000000000000000000000000000000000000000000FFFF0000000000FF000000000000000000000000000000000000000000000000FFFF0000000000FF000000000000000000000000000000000000000000000000FFFF
310
0000000000FF000000000000000000000000000000000000000000000000FFFF0000000000FF000000000000000000000000000000000000000000000000FFFF0000000000FF000000000000000000000000000000000000000000000000FFFF0000000000FF000000000000000000000000000000000000000000000000FF
310
FF0000000000FF000000000000000000000000000000000000000000000000FFFF0000000000FF000000000000000000000000000000000000000000000000FFFF0000000000FF000000000000000000000000000000000000000000000000FFFF0000000000FF000000000000000000000000000000000000000000000000
310
FFFF0000000000FF000000000000000000000000000000000000000000000000FFFF0000000000FF000000000000000000000000000000000000000000000000000000000000000000000000000000000000000000000000000000000000000000000000000000000000000000000000000000000000000000000000000000
310
00000000000000000000000000000000000000000000000000000000000000000000000000000000000000000000000000000000000000000000000000000000000000000000000000000000000000000000000000000000000000000000000000000000000000000000000000000000000000000000000000000000000000
310
00000000000000000000000000000000000000000000000000000000000000000000000000000000000000000000000000000000000000000000000000000000000000000000000000000000000000000000000000000000000000000000000000000000000000000000000000000000000000000000000000000000000000
310
00000000000000FFFFFFFFFF0000000000000000000000000000000000000000000000FFFFF9FFFFF9F9F9FFFF00000000000000000000000000000000000000000000FFFFFFFFFFFFFFFFFFFFFF000000000000000000000000000000000000F9F9F9FFFFF900000000000000000000000000000000000000000000000000
310
00000000FFFF0000000000000000000000000000000000000000000000000000000000000000000000000000000000000000000000000000
102
{BLKREFS
331
556B
102
}
 70
     4
280
     1
281
     0
  0
BLOCK_RECORD
  5
5667
102
{ACAD_XDICTIONARY
360
570D
102
}
330
1
100
AcDbSymbolTableRecord
100
AcDbBlockTableRecord
  2
リジット-E CEMH900
340
0
310
2800000020000000200000000100080000000000000400000000000000000000000000000000000000000000000080000080000000808000800000008000800080800000C0C0C000C0DCC000F0CAA6000020400000206000002080000020A0000020C0000020E00000400000004020000040400000406000004080000040A0
310
000040C0000040E00000600000006020000060400000606000006080000060A0000060C0000060E00000800000008020000080400000806000008080000080A0000080C0000080E00000A0000000A0200000A0400000A0600000A0800000A0A00000A0C00000A0E00000C0000000C0200000C0400000C0600000C0800000C0
310
A00000C0C00000C0E00000E0000000E0200000E0400000E0600000E0800000E0A00000E0C00000E0E00040000000400020004000400040006000400080004000A0004000C0004000E00040200000402020004020400040206000402080004020A0004020C0004020E000404000004040200040404000404060004040800040
310
40A0004040C0004040E00040600000406020004060400040606000406080004060A0004060C0004060E00040800000408020004080400040806000408080004080A0004080C0004080E00040A0000040A0200040A0400040A0600040A0800040A0A00040A0C00040A0E00040C0000040C0200040C0400040C0600040C08000
310
40C0A00040C0C00040C0E00040E0000040E0200040E0400040E0600040E0800040E0A00040E0C00040E0E00080000000800020008000400080006000800080008000A0008000C0008000E00080200000802020008020400080206000802080008020A0008020C0008020E00080400000804020008040400080406000804080
310
008040A0008040C0008040E00080600000806020008060400080606000806080008060A0008060C0008060E00080800000808020008080400080806000808080008080A0008080C0008080E00080A0000080A0200080A0400080A0600080A0800080A0A00080A0C00080A0E00080C0000080C0200080C0400080C0600080C0
310
800080C0A00080C0C00080C0E00080E0000080E0200080E0400080E0600080E0800080E0A00080E0C00080E0E000C0000000C0002000C0004000C0006000C0008000C000A000C000C000C000E000C0200000C0202000C0204000C0206000C0208000C020A000C020C000C020E000C0400000C0402000C0404000C0406000C0
310
408000C040A000C040C000C040E000C0600000C0602000C0604000C0606000C0608000C060A000C060C000C060E000C0800000C0802000C0804000C0806000C0808000C080A000C080C000C080E000C0A00000C0A02000C0A04000C0A06000C0A08000C0A0A000C0A0C000C0A0E000C0C00000C0C02000C0C04000C0C06000
310
C0C08000C0C0A000F0FBFF00A4A0A000808080000000FF0000FF000000FFFF00FF000000FF00FF00FFFF0000FFFFFF000000000000000000000000000000000000000000000000000000000000000000000000000000000000000000000000000000000000FFFF000000000000000000000000000000000000000000000000
310
0000000000F9F9F9F9F900000000000000000000000000000000000000000000000000000000FF000000000000000000000000000000000000FFFFFFFFFFFFFFFFFFFFFFFFFFFF0000000000000000000000000000000000FF0000000000000000000000FF00FF0000000000000000000000000000000000FF000000000000
310
0000000000FF00FF0000000000000000000000000000000000FF0000000000000000000000FF00FF0000000000000000000000000000000000FF0000000000000000000000FF00FF0000000000000000000000000000000000FF0000000000000000000000FF00FF0000000000000000000000000000000000FF0000000000
310
000000000000FF00FF0000000000000000000000000000000000FF0000000000000000000000FF00FF0000000000000000000000000000000000FF0000000000000000000000FF00FF0000000000000000000000000000000000FF0000000000000000000000FF00FF0000000000000000000000000000000000FF00000000
310
00000000000000FF00FF0000000000000000000000000000000000FF00A4A40000000000000000A4A4FF0000000000000000000000000000000000A4A4A4A40000000000000000A4A4A40000000000000000000000000000000000FF00000000000000000000000000FF0000000000000000000000000000000000FF000000
310
00000000000000000000FF0000000000000000000000000000000000FF00000000000000000000000000FF0000000000000000000000000000000000FF00000000000000000000000000FF0000000000000000000000000000000000FF00000000000000000000000000FF0000000000000000000000000000000000FFFFFF
310
FFFFFFFFFFFFFFFFFFFFFFFF0000000000000000000000000000000000FF00000000000000000000000000FF0000000000000000000000000000000000FF00000000000000000000000000FF0000000000000000000000000000000000FF00000000000000000000000000FF0000000000000000000000000000000000FF00
310
000000000000000000000000FF000000000000000000000000000000000000FFFFFFFFFFFFFFFFFFFFFFFF00FFFF0000000000000000000000000000000000000000000000000000000000FFFF00000000000000000000000000000000000000000000000000000000000000FF000000000000000000000000000000000000
310
00000000000000000000000000FFFF0000000000000000000000000000000000000000000000000000000000000000000000000000000000
102
{BLKREFS
331
569A
102
}
 70
     4
280
     1
281
     0
  0
BLOCK_RECORD
  5
578C
102
{ACAD_XDICTIONARY
360
581A
102
}
330
1
100
AcDbSymbolTableRecord
100
AcDbBlockTableRecord
  2
リーマボルト-E CEMH900 M30
340
0
310
2800000020000000200000000100080000000000000400000000000000000000000000000000000000000000000080000080000000808000800000008000800080800000C0C0C000C0DCC000F0CAA6000020400000206000002080000020A0000020C0000020E00000400000004020000040400000406000004080000040A0
310
000040C0000040E00000600000006020000060400000606000006080000060A0000060C0000060E00000800000008020000080400000806000008080000080A0000080C0000080E00000A0000000A0200000A0400000A0600000A0800000A0A00000A0C00000A0E00000C0000000C0200000C0400000C0600000C0800000C0
310
A00000C0C00000C0E00000E0000000E0200000E0400000E0600000E0800000E0A00000E0C00000E0E00040000000400020004000400040006000400080004000A0004000C0004000E00040200000402020004020400040206000402080004020A0004020C0004020E000404000004040200040404000404060004040800040
310
40A0004040C0004040E00040600000406020004060400040606000406080004060A0004060C0004060E00040800000408020004080400040806000408080004080A0004080C0004080E00040A0000040A0200040A0400040A0600040A0800040A0A00040A0C00040A0E00040C0000040C0200040C0400040C0600040C08000
310
40C0A00040C0C00040C0E00040E0000040E0200040E0400040E0600040E0800040E0A00040E0C00040E0E00080000000800020008000400080006000800080008000A0008000C0008000E00080200000802020008020400080206000802080008020A0008020C0008020E00080400000804020008040400080406000804080
310
008040A0008040C0008040E00080600000806020008060400080606000806080008060A0008060C0008060E00080800000808020008080400080806000808080008080A0008080C0008080E00080A0000080A0200080A0400080A0600080A0800080A0A00080A0C00080A0E00080C0000080C0200080C0400080C0600080C0
310
800080C0A00080C0C00080C0E00080E0000080E0200080E0400080E0600080E0800080E0A00080E0C00080E0E000C0000000C0002000C0004000C0006000C0008000C000A000C000C000C000E000C0200000C0202000C0204000C0206000C0208000C020A000C020C000C020E000C0400000C0402000C0404000C0406000C0
310
408000C040A000C040C000C040E000C0600000C0602000C0604000C0606000C0608000C060A000C060C000C060E000C0800000C0802000C0804000C0806000C0808000C080A000C080C000C080E000C0A00000C0A02000C0A04000C0A06000C0A08000C0A0A000C0A0C000C0A0E000C0C00000C0C02000C0C04000C0C06000
310
C0C08000C0C0A000F0FBFF00A4A0A000808080000000FF0000FF000000FFFF00FF000000FF00FF00FFFF0000FFFFFF0000000000000000000000000000000000000000000000000000000000000000000000000000000000000000000000000000000000000000000000000000000000000000000000000000000000000000
310
00000000000000000000000000000000000000000000000000000000000000000000000000000000000000000000000000000000000000000000000000000000000000000000000000000000000000000000000000000000000000000000000000000000000000000000000000000000000000000000000000000000000000
310
00000000000000000000000000000000000000000000000000000000000000000000000000000000000000000000000000000000000000000000000000000000000000000000000000000000000000000000000000000000000000000000000000000000000000000000000000000000000000000000FFFFFFFFFFFFFF0000
310
00000000000000000000000000FFFFFFFF0000000000FFFF000000FF0000000000000000000000000000000000000000FFFF000000FFFFFF000000FF00FFFF00000000000000000000000000FFFF0000FFFF0000FFFFFFFFFFFFFFFF00FFFF00000000000000000000000000FFFFFFFFFFFF0000FFFFFFFF000000FF00FFFF
310
00000000000000000000000000FF000000FFFF0000FFFFFFFF000000FFFFFFFF00000000000000000000000000FF000000FFFF0000FFFFFFFF000000FFFFFFFF00000000000000000000000000FF000000FFFF0000FFFFFFFF000000FF00FFFF00000000000000000000000000FF000000FFFF0000FFFFFFFFFFFFFFFF00FF
310
FF00000000000000000000000000FFFFFFFFFFFF000000FFFFFF000000FF00FFFF00000000000000000000000000FFFF0000FFFF00000000FFFF000000FF0000000000000000000000000000000000000000FFFF0000000000FFFFFFFFFFFFFF000000000000000000000000000000FFFFFFFF000000000000000000000000
310
00000000000000000000000000000000000000000000000000000000000000000000000000000000000000000000000000000000000000000000000000000000000000000000000000000000000000000000000000000000000000000000000000000000000000000000000000000000000000000000000000000000000000
310
00000000000000000000000000000000000000000000000000000000000000000000000000000000000000000000000000000000000000000000000000000000000000000000000000000000000000000000000000000000000000000000000000000000000000000000000000000000000000000000000000000000000000
310
0000000000000000000000000000000000000000000000000000000000000000000000000000000000000000000000000000000000000000
102
{BLKREFS
331
57B9
102
}
 70
     4
280
     1
281
     0
  0
BLOCK_RECORD
  5
59BB
102
{ACAD_XDICTIONARY
360
5A59
102
}
330
1
100
AcDbSymbolTableRecord
100
AcDbBlockTableRecord
  2
ＧＣサイドカバ－- ECEMH900
340
0
310
2800000020000000200000000100080000000000000400000000000000000000000000000000000000000000000080000080000000808000800000008000800080800000C0C0C000C0DCC000F0CAA6000020400000206000002080000020A0000020C0000020E00000400000004020000040400000406000004080000040A0
310
000040C0000040E00000600000006020000060400000606000006080000060A0000060C0000060E00000800000008020000080400000806000008080000080A0000080C0000080E00000A0000000A0200000A0400000A0600000A0800000A0A00000A0C00000A0E00000C0000000C0200000C0400000C0600000C0800000C0
310
A00000C0C00000C0E00000E0000000E0200000E0400000E0600000E0800000E0A00000E0C00000E0E00040000000400020004000400040006000400080004000A0004000C0004000E00040200000402020004020400040206000402080004020A0004020C0004020E000404000004040200040404000404060004040800040
310
40A0004040C0004040E00040600000406020004060400040606000406080004060A0004060C0004060E00040800000408020004080400040806000408080004080A0004080C0004080E00040A0000040A0200040A0400040A0600040A0800040A0A00040A0C00040A0E00040C0000040C0200040C0400040C0600040C08000
310
40C0A00040C0C00040C0E00040E0000040E0200040E0400040E0600040E0800040E0A00040E0C00040E0E00080000000800020008000400080006000800080008000A0008000C0008000E00080200000802020008020400080206000802080008020A0008020C0008020E00080400000804020008040400080406000804080
310
008040A0008040C0008040E00080600000806020008060400080606000806080008060A0008060C0008060E00080800000808020008080400080806000808080008080A0008080C0008080E00080A0000080A0200080A0400080A0600080A0800080A0A00080A0C00080A0E00080C0000080C0200080C0400080C0600080C0
310
800080C0A00080C0C00080C0E00080E0000080E0200080E0400080E0600080E0800080E0A00080E0C00080E0E000C0000000C0002000C0004000C0006000C0008000C000A000C000C000C000E000C0200000C0202000C0204000C0206000C0208000C020A000C020C000C020E000C0400000C0402000C0404000C0406000C0
310
408000C040A000C040C000C040E000C0600000C0602000C0604000C0606000C0608000C060A000C060C000C060E000C0800000C0802000C0804000C0806000C0808000C080A000C080C000C080E000C0A00000C0A02000C0A04000C0A06000C0A08000C0A0A000C0A0C000C0A0E000C0C00000C0C02000C0C04000C0C06000
310
C0C08000C0C0A000F0FBFF00A4A0A000808080000000FF0000FF000000FFFF00FF000000FF00FF00FFFF0000FFFFFF00000000000000000000000000000000000000000000000000000000000000000000000000000000000000000000000000FF000000000000000000000000000000000000000000000000000000000000
310
00FF00000000000000000000000000000000000000000000000000000000000000FF00000000000000000000000000000000000000000000000000000000000000FF00000000000000000000000000000000000000000000000000000000000000FF0000000000000000000000000000000000000000000000000000000000
310
0000FF00000000000000000000000000000000000000000000000000000000000000FF00000000000000000000000000000000000000000000000000000000000000FF00000000000000000000000000000000000000000000000000000000000000FF00000000000000000000000000000000000000000000000000000000
310
000000FF00000000000000000000000000000000000000000000000000000000000000FF00000000000000000000000000000000000000000000000000000000000000FF00000000000000000000000000000000000000000000000000000000000000FF000000000000000000000000000000000000000000000000000000
310
00000000FF00000000000000000000000000000000000000000000000000000000000000FF00000000000000000000000000000000000000000000000000000000000000FF00000000000000000000000000000000000000000000000000000000000000000000000000000000000000000000000000000000000000000000
310
00000000000000000000000000000000000000000000000000000000000000000000000000000000000000000000000000000000000000000000000000000000000000000000000000000000000000000000000000000000000000000000000000000000000000000000000000000000000000000000000000000000000000
310
00000000000000000000000000000000000000000000000000000000000000000000000000000000000000000000000000000000000000000000000000000000000000000000000000000000000000000000000000000000000000000000000000000000000000000000000000000000000000000000000000000000000000
310
0000000000000000000000000000000000000000000000000000000000000000000000000000FFFF000000000000000000000000000000000000000000000000000000000000FFFFFF00000000000000000000000000000000000000000000000000000000FFFFFFFF00000000000000000000000000000000000000000000
310
00000000000000FFFF0000000000000000000000000000000000000000000000000000000000000000000000000000000000000000000000
102
{BLKREFS
331
59EE
102
}
 70
     4
280
     1
281
     0
  0
BLOCK_RECORD
  5
5AAE
102
{ACAD_XDICTIONARY
360
5B40
102
}
330
1
100
AcDbSymbolTableRecord
100
AcDbBlockTableRecord
  2
センタ-E CEMH900
340
0
310
2800000020000000200000000100080000000000000400000000000000000000000000000000000000000000000080000080000000808000800000008000800080800000C0C0C000C0DCC000F0CAA6000020400000206000002080000020A0000020C0000020E00000400000004020000040400000406000004080000040A0
310
000040C0000040E00000600000006020000060400000606000006080000060A0000060C0000060E00000800000008020000080400000806000008080000080A0000080C0000080E00000A0000000A0200000A0400000A0600000A0800000A0A00000A0C00000A0E00000C0000000C0200000C0400000C0600000C0800000C0
310
A00000C0C00000C0E00000E0000000E0200000E0400000E0600000E0800000E0A00000E0C00000E0E00040000000400020004000400040006000400080004000A0004000C0004000E00040200000402020004020400040206000402080004020A0004020C0004020E000404000004040200040404000404060004040800040
310
40A0004040C0004040E00040600000406020004060400040606000406080004060A0004060C0004060E00040800000408020004080400040806000408080004080A0004080C0004080E00040A0000040A0200040A0400040A0600040A0800040A0A00040A0C00040A0E00040C0000040C0200040C0400040C0600040C08000
310
40C0A00040C0C00040C0E00040E0000040E0200040E0400040E0600040E0800040E0A00040E0C00040E0E00080000000800020008000400080006000800080008000A0008000C0008000E00080200000802020008020400080206000802080008020A0008020C0008020E00080400000804020008040400080406000804080
310
008040A0008040C0008040E00080600000806020008060400080606000806080008060A0008060C0008060E00080800000808020008080400080806000808080008080A0008080C0008080E00080A0000080A0200080A0400080A0600080A0800080A0A00080A0C00080A0E00080C0000080C0200080C0400080C0600080C0
310
800080C0A00080C0C00080C0E00080E0000080E0200080E0400080E0600080E0800080E0A00080E0C00080E0E000C0000000C0002000C0004000C0006000C0008000C000A000C000C000C000E000C0200000C0202000C0204000C0206000C0208000C020A000C020C000C020E000C0400000C0402000C0404000C0406000C0
310
408000C040A000C040C000C040E000C0600000C0602000C0604000C0606000C0608000C060A000C060C000C060E000C0800000C0802000C0804000C0806000C0808000C080A000C080C000C080E000C0A00000C0A02000C0A04000C0A06000C0A08000C0A0A000C0A0C000C0A0E000C0C00000C0C02000C0C04000C0C06000
310
C0C08000C0C0A000F0FBFF00A4A0A000808080000000FF0000FF000000FFFF00FF000000FF00FF00FFFF0000FFFFFF000000000000000000000000000000000000000000000000000000000000000000000000000000000000000000000000000000FFFFFFFFFFFFFF00000000000000000000000000000000000000000000
310
00000000FF0000000000FF00000000000000000000000000000000000000000000000000FF0000000000FF00000000000000000000000000000000000000000000000000FF0000000000FF00000000000000000000000000000000000000000000000000FF0000000000FF0000000000000000000000000000000000000000
310
0000000000FF0000000000FF00000000000000000000000000000000000000000000000000FF0000000000FF00000000000000000000000000000000000000000000000000FF0000000000FF00000000000000000000000000000000000000000000000000FF0000000000FF00000000000000000000000000000000000000
310
000000000000FF0000000000FF00000000000000000000000000000000000000000000000000FF0000000000FF00000000000000000000000000000000000000000000000000FF0000000000FF00000000000000000000000000000000000000000000000000FF0000000000FF000000000000000000000000000000000000
310
00000000000000FF0000000000FF000000000000000000000000A4A4A4A4A40000000000000000FF00A4A4A4A4A4000000000000000000000000A4A4A4A4000000000000000000000000A4A4A4A4000000000000000000000000FF0000000000000000000000000000000000FFFF000000000000000000000000FF00000000
310
00000000000000000000000000FFFF000000000000000000000000FF0000000000000000000000000000000000FFFF000000000000000000000000FF0000000000000000000000000000000000FFFF000000000000000000000000FF0000000000000000000000000000000000FFFF000000000000000000000000FF000000
310
0000000000000000000000000000FFFF000000000000000000000000FFFFFF0000FFFFFFFFFFFFFFFFFFFFFFFFFFFFFF000000000000000000000000FFFFFF0000FFFFFFFFFFFFFFFFFFFFFFFFFFFFFF000000000000000000000000FF000000000000000000000000000000000000FF000000000000000000000000FF0000
310
00000000000000000000000000000000FF000000000000000000000000FF000000000000000000000000000000000000FF000000000000000000000000FFFFFFFFFFFF00000000FFFFFFFFFFFFFFFFFFFF0000000000000000000000000000000000FFF9F9F9F9FF0000000000000000000000000000000000000000000000
310
0000000000F90000000000000000000000000000000000000000000000000000000000000000000000000000000000000000000000000000
102
{BLKREFS
331
5ADF
102
}
 70
     4
280
     1
281
     0
  0
BLOCK_RECORD
  5
5FDC
330
1
100
AcDbSymbolTableRecord
100
AcDbBlockTableRecord
  2
*D13
340
0
 70
     0
280
     1
281
     0
  0
BLOCK_RECORD
  5
6007
330
1
100
AcDbSymbolTableRecord
100
AcDbBlockTableRecord
  2
*D14
340
0
 70
     0
280
     1
281
     0
  0
BLOCK_RECORD
  5
601F
330
1
100
AcDbSymbolTableRecord
100
AcDbBlockTableRecord
  2
*D15
340
0
 70
     0
280
     1
281
     0
  0
BLOCK_RECORD
  5
6051
330
1
100
AcDbSymbolTableRecord
100
AcDbBlockTableRecord
  2
*D16
340
0
 70
     0
280
     1
281
     0
  0
BLOCK_RECORD
  5
6097
330
1
100
AcDbSymbolTableRecord
100
AcDbBlockTableRecord
  2
*D17
340
0
 70
     0
280
     1
281
     0
  0
BLOCK_RECORD
  5
6155
330
1
100
AcDbSymbolTableRecord
100
AcDbBlockTableRecord
  2
*D18
340
0
 70
     0
280
     1
281
     0
  0
BLOCK_RECORD
  5
616D
330
1
100
AcDbSymbolTableRecord
100
AcDbBlockTableRecord
  2
*D19
340
0
 70
     0
280
     1
281
     0
  0
BLOCK_RECORD
  5
6185
330
1
100
AcDbSymbolTableRecord
100
AcDbBlockTableRecord
  2
*D20
340
0
 70
     0
280
     1
281
     0
  0
BLOCK_RECORD
  5
62D5
330
1
100
AcDbSymbolTableRecord
100
AcDbBlockTableRecord
  2
*D21
340
0
 70
     0
280
     1
281
     0
  0
BLOCK_RECORD
  5
62F1
330
1
100
AcDbSymbolTableRecord
100
AcDbBlockTableRecord
  2
*D22
340
0
 70
     0
280
     1
281
     0
  0
BLOCK_RECORD
  5
63A0
330
1
100
AcDbSymbolTableRecord
100
AcDbBlockTableRecord
  2
*D23
340
0
 70
     0
280
     1
281
     0
  0
BLOCK_RECORD
  5
63B8
330
1
100
AcDbSymbolTableRecord
100
AcDbBlockTableRecord
  2
*D24
340
0
 70
     0
280
     1
281
     0
  0
BLOCK_RECORD
  5
63D0
330
1
100
AcDbSymbolTableRecord
100
AcDbBlockTableRecord
  2
*D25
340
0
 70
     0
280
     1
281
     0
  0
BLOCK_RECORD
  5
63E8
330
1
100
AcDbSymbolTableRecord
100
AcDbBlockTableRecord
  2
*D26
340
0
 70
     0
280
     1
281
     0
  0
BLOCK_RECORD
  5
8451
330
1
100
AcDbSymbolTableRecord
100
AcDbBlockTableRecord
  2
*D27
340
0
 70
     0
280
     1
281
     0
  0
BLOCK_RECORD
  5
8545
330
1
100
AcDbSymbolTableRecord
100
AcDbBlockTableRecord
  2
*D28
340
0
 70
     0
280
     1
281
     0
  0
BLOCK_RECORD
  5
8573
330
1
100
AcDbSymbolTableRecord
100
AcDbBlockTableRecord
  2
*D29
340
0
 70
     0
280
     1
281
     0
  0
BLOCK_RECORD
  5
86E8
330
1
100
AcDbSymbolTableRecord
100
AcDbBlockTableRecord
  2
GCｻｲﾄﾞｶﾊﾞｰ　CEM900
340
0
310
2800000020000000200000000100080000000000000400000000000000000000000000000000000000000000000080000080000000808000800000008000800080800000C0C0C000C0DCC000F0CAA6000020400000206000002080000020A0000020C0000020E00000400000004020000040400000406000004080000040A0
310
000040C0000040E00000600000006020000060400000606000006080000060A0000060C0000060E00000800000008020000080400000806000008080000080A0000080C0000080E00000A0000000A0200000A0400000A0600000A0800000A0A00000A0C00000A0E00000C0000000C0200000C0400000C0600000C0800000C0
310
A00000C0C00000C0E00000E0000000E0200000E0400000E0600000E0800000E0A00000E0C00000E0E00040000000400020004000400040006000400080004000A0004000C0004000E00040200000402020004020400040206000402080004020A0004020C0004020E000404000004040200040404000404060004040800040
310
40A0004040C0004040E00040600000406020004060400040606000406080004060A0004060C0004060E00040800000408020004080400040806000408080004080A0004080C0004080E00040A0000040A0200040A0400040A0600040A0800040A0A00040A0C00040A0E00040C0000040C0200040C0400040C0600040C08000
310
40C0A00040C0C00040C0E00040E0000040E0200040E0400040E0600040E0800040E0A00040E0C00040E0E00080000000800020008000400080006000800080008000A0008000C0008000E00080200000802020008020400080206000802080008020A0008020C0008020E00080400000804020008040400080406000804080
310
008040A0008040C0008040E00080600000806020008060400080606000806080008060A0008060C0008060E00080800000808020008080400080806000808080008080A0008080C0008080E00080A0000080A0200080A0400080A0600080A0800080A0A00080A0C00080A0E00080C0000080C0200080C0400080C0600080C0
310
800080C0A00080C0C00080C0E00080E0000080E0200080E0400080E0600080E0800080E0A00080E0C00080E0E000C0000000C0002000C0004000C0006000C0008000C000A000C000C000C000E000C0200000C0202000C0204000C0206000C0208000C020A000C020C000C020E000C0400000C0402000C0404000C0406000C0
310
408000C040A000C040C000C040E000C0600000C0602000C0604000C0606000C0608000C060A000C060C000C060E000C0800000C0802000C0804000C0806000C0808000C080A000C080C000C080E000C0A00000C0A02000C0A04000C0A06000C0A08000C0A0A000C0A0C000C0A0E000C0C00000C0C02000C0C04000C0C06000
310
C0C08000C0C0A000F0FBFF00A4A0A000808080000000FF0000FF000000FFFF00FF000000FF00FF00FFFF0000FFFFFF000000000000000000000000000000000000000000000000000000000000000000000000000000FC000000FC0000000000000000FC000000FC0000000000000000000000000000FC000000FC00000000
310
00000000FC000000FC0000000000000000000000000000FCFCFCFCFC0000000000000000FCFCFCFCFC0000000000000000000000000000FC000000FC0000000000000000FC000000FC0000000000000000000000000000FC000000FC0000000000000000FC000000FC0000000000000000000000000000FC000000FC000000
310
0000000000FC000000FC0000000000000000000000000000FC000000FCFCFCFCFCFCFCFCFCFC000000FC0000000000000000000000000000FC00000000000000000000000000000000FC0000000000000000000000000000FC00000000000000000000000000000000FC0000000000000000000000000000FC000000000000
310
00000000000000000000FC0000000000000000000000000000FC00000000000000000000000000000000FC0000000000000000000000000000FC00000000000000000000000000000000FC0000000000000000000000000000FC00000000000000000000000000000000FC0000000000000000000000000000FCFCFCFCFCFC
310
0000000000000000000000FC00000000000000000000000000000000000000FC0000000000000000000000FC000000000000000000000000000000000000FCFC0000000000000000000000FC000000000000000000000000000000000000FC000000000000000000000000FC000000000000000000000000000000000000FC
310
000000000000000000000000FC000000000000000000000000000000000000FC000000000000000000000000FC000000000000000000000000000000000000FC000000000000000000000000FC000000000000000000000000000000000000FC000000000000000000000000FC0000000000000000000000000000FCFCFCFC
310
FCFCFCFCFCFCFCFCFCFCFCFCFCFCFCFC00000000000000000000000000000000FC000000000000000000000000FC000000000000000000000000000000000000FC000000000000000000000000FC000000000000000000000000000000000000FC000000000000000000000000FC0000000000000000000000000000000000
310
00FC000000000000000000000000FC000000000000000000000000000000000000FC000000000000000000000000FC000000000000000000000000000000000000FC000000000000000000000000FC000000000000000000000000000000000000FC000000000000000000000000FC00000000000000000000000000000000
310
0000FCFCFCFCFCFCFCFCFCFCFCFCFCFC00000000000000000000000000000000000000000000000000000000000000000000000000000000
102
{BLKREFS
331
86FC
102
}
 70
     4
280
     1
281
     1
  0
ENDTAB
  0
ENDSEC
  0
SECTION
  2
BLOCKS
  0
BLOCK
  5
20
330
1F
100
AcDbEntity
  8
0
100
AcDbBlockBegin
  2
*Model_Space
 70
     0
 10
0.0
 20
0.0
 30
0.0
  3
*Model_Space
  1

  0
ENDBLK
  5
21
330
1F
100
AcDbEntity
  8
0
100
AcDbBlockEnd
  0
BLOCK
  5
1C
330
1B
100
AcDbEntity
 67
     1
  8
0
100
AcDbBlockBegin
  2
*Paper_Space
 70
     0
 10
0.0
 20
0.0
 30
0.0
  3
*Paper_Space
  1

  0
ENDBLK
  5
1D
330
1B
100
AcDbEntity
 67
     1
  8
0
100
AcDbBlockEnd
  0
BLOCK
  5
24
330
23
100
AcDbEntity
 67
     1
  8
0
100
AcDbBlockBegin
  2
*Paper_Space0
 70
     0
 10
0.0
 20
0.0
 30
0.0
  3
*Paper_Space0
  1

  0
ENDBLK
  5
25
330
23
100
AcDbEntity
 67
     1
  8
0
100
AcDbBlockEnd
  0
BLOCK
  5
6D
330
69
100
AcDbEntity
  8
0
100
AcDbBlockBegin
  2
_Open30
 70
     0
 10
0.0
 20
0.0
 30
0.0
  3
_Open30
  1

  0
LINE
  5
6A
330
69
100
AcDbEntity
  8
0
  6
ByBlock
 62
     0
370
    -2
100
AcDbLine
 10
-1.0
 20
0.26794919
 30
0.0
 11
0.0
 21
0.0
 31
0.0
  0
LINE
  5
6B
330
69
100
AcDbEntity
  8
0
  6
ByBlock
 62
     0
370
    -2
100
AcDbLine
 10
0.0
 20
0.0
 30
0.0
 11
-1.0
 21
-0.26794919
 31
0.0
  0
LINE
  5
6C
330
69
100
AcDbEntity
  8
0
  6
ByBlock
 62
     0
370
    -2
100
AcDbLine
 10
0.0
 20
0.0
 30
0.0
 11
-1.0
 21
0.0
 31
0.0
  0
ENDBLK
  5
6E
330
69
100
AcDbEntity
  8
0
100
AcDbBlockEnd
  0
BLOCK
  5
76
330
74
100
AcDbEntity
  8
0
100
AcDbBlockBegin
  2
GENAXEH
 70
     0
 10
0.0
 20
0.0
 30
0.0
  3
GENAXEH
  1

  0
LINE
  5
75
330
74
100
AcDbEntity
  8
0
100
AcDbLine
 10
-1.0
 20
0.0
 30
0.0
 11
1.0
 21
0.0
 31
0.0
  0
ENDBLK
  5
77
330
74
100
AcDbEntity
  8
0
100
AcDbBlockEnd
  0
BLOCK
  5
3AAF
330
3AAE
100
AcDbEntity
  8
0
100
AcDbBlockBegin
  2
GENDOT
 70
     0
 10
0.0
 20
0.0
 30
0.0
  3
GENDOT
  1

  0
LINE
  5
3AB0
330
3AAE
100
AcDbEntity
  8
0
100
AcDbLine
 10
0.0
 20
0.0
 30
0.0
 11
-1.0
 21
0.0
 31
0.0
  0
LWPOLYLINE
  5
3AB1
330
3AAE
100
AcDbEntity
  8
0
100
AcDbPolyline
 90
        2
 70
     1
 43
0.25
 10
-0.125
 20
0.0
 42
1.0
 10
0.125
 20
0.0
 42
1.0
  0
ENDBLK
  5
3AB2
330
3AAE
100
AcDbEntity
  8
0
100
AcDbBlockEnd
  0
BLOCK
  5
547C
330
547B
100
AcDbEntity
  8
0
100
AcDbBlockBegin
  2
ロッカクアナツキプラグ-E R3／4
 70
     0
 10
0.0
 20
0.0
 30
0.0
  3
ロッカクアナツキプラグ-E R3／4
  1

  0
LINE
  5
547E
330
547B
100
AcDbEntity
  8
AM_4 細線
100
AcDbLine
 10
11.80655700000079
 20
-14.68468500000017
 30
0.0
 11
12.28872500000034
 21
-0.877208999999766
 31
0.0
  0
LINE
  5
547F
330
547B
100
AcDbEntity
  8
AM_4 細線
100
AcDbLine
 10
-12.28872599999977
 20
-0.877208999999766
 30
0.0
 11
-11.80655800000022
 21
-14.68468500000017
 31
0.0
  0
LINE
  5
5480
330
547B
100
AcDbEntity
  8
AM_0 外形線1
100
AcDbLine
 10
12.99246700000003
 20
-14.0
 30
0.0
 11
-12.99246799999946
 21
-14.0
 31
0.0
  0
LINE
  5
5481
330
547B
100
AcDbEntity
  8
AM_0 外形線1
100
AcDbLine
 10
-13.41151699999955
 20
-2.0
 30
0.0
 11
13.41151600000012
 21
-2.0
 31
0.0
  0
LINE
  5
5482
330
547B
100
AcDbEntity
  8
AM_0 外形線1
100
AcDbLine
 10
13.41151600000012
 20
-2.0
 30
0.0
 11
11.41151600000012
 21
0.0
 31
0.0
  0
LINE
  5
5483
330
547B
100
AcDbEntity
  8
AM_0 外形線1
100
AcDbLine
 10
12.99246700000003
 20
-14.0
 30
0.0
 11
13.41151600000012
 21
-2.0
 31
0.0
  0
LINE
  5
5484
330
547B
100
AcDbEntity
  8
AM_0 外形線1
100
AcDbLine
 10
7.796315000000504
 20
-17.0
 30
0.0
 11
12.99246700000003
 21
-14.0
 31
0.0
  0
LINE
  5
5485
330
547B
100
AcDbEntity
  8
AM_0 外形線1
100
AcDbLine
 10
-7.796314999999593
 20
-17.0
 30
0.0
 11
7.796315000000504
 21
-17.0
 31
0.0
  0
LINE
  5
5486
330
547B
100
AcDbEntity
  8
AM_0 外形線1
100
AcDbLine
 10
-12.99246799999946
 20
-14.0
 30
0.0
 11
-7.796314999999593
 21
-17.0
 31
0.0
  0
LINE
  5
5487
330
547B
100
AcDbEntity
  8
AM_0 外形線1
100
AcDbLine
 10
-13.41151699999955
 20
-2.0
 30
0.0
 11
-12.99246799999946
 21
-14.0
 31
0.0
  0
LINE
  5
5488
330
547B
100
AcDbEntity
  8
AM_0 外形線1
100
AcDbLine
 10
-11.41151699999955
 20
0.0
 30
0.0
 11
-13.41151699999955
 21
-2.0
 31
0.0
  0
LINE
  5
5489
330
547B
100
AcDbEntity
  8
AM_7 中心線
100
AcDbLine
 10
0.0
 20
2.297872000000096
 30
0.0
 11
0.0
 21
-26.2127660000001
 31
0.0
  0
LINE
  5
54A8
330
547B
100
AcDbEntity
  8
AM_0 外形線1
100
AcDbLine
 10
-11.41151699999955
 20
0.0
 30
0.0
 11
11.41151600000012
 21
0.0
 31
0.0
  0
ENDBLK
  5
547D
330
547B
100
AcDbEntity
  8
0
100
AcDbBlockEnd
  0
BLOCK
  5
552F
330
552E
100
AcDbEntity
  8
0
100
AcDbBlockBegin
  2
ケースＡ-E CEMH900
 70
     0
 10
0.0
 20
0.0
 30
0.0
  3
ケースＡ-E CEMH900
  1

  0
LINE
  5
5531
330
552E
100
AcDbEntity
  8
AM_0 外形線1
100
AcDbLine
 10
45.99999999999909
 20
-385.5
 30
0.0
 11
216.4999999999991
 21
-385.5
 31
0.0
  0
LINE
  5
5532
330
552E
100
AcDbEntity
  8
AM_0 外形線1
100
AcDbLine
 10
45.99999999999909
 20
385.5
 30
0.0
 11
216.4999999999991
 21
385.5
 31
0.0
  0
LINE
  5
5533
330
552E
100
AcDbEntity
  8
AM_0 外形線1
100
AcDbLine
 10
115.9999999999991
 20
360.0
 30
0.0
 11
258.9999999999991
 21
360.0
 31
0.0
  0
LINE
  5
5534
330
552E
100
AcDbEntity
  8
AM_3 隠れ線
100
AcDbLine
 10
126.4999999999991
 20
345.5999999999999
 30
0.0
 11
249.4999999999991
 21
345.5999999999999
 31
0.0
  0
LINE
  5
5535
330
552E
100
AcDbEntity
  8
AM_7 中心線
100
AcDbLine
 10
113.9999999999991
 20
352.0
 30
0.0
 11
260.9999999999991
 21
352.0
 31
0.0
  0
LINE
  5
5536
330
552E
100
AcDbEntity
  8
AM_0 外形線1
100
AcDbLine
 10
37.99999999999909
 20
-449.0
 30
0.0
 11
37.99999999999909
 21
0.0
 31
0.0
  0
LINE
  5
5537
330
552E
100
AcDbEntity
  8
AM_0 外形線1
100
AcDbLine
 10
0.0
 20
0.0
 30
0.0
 11
0.0
 21
-449.0
 31
0.0
  0
LINE
  5
5538
330
552E
100
AcDbEntity
  8
AM_0 外形線1
100
AcDbLine
 10
1.0
 20
-450.0
 30
0.0
 11
36.99999999999909
 21
-450.0
 31
0.0
  0
LINE
  5
5539
330
552E
100
AcDbEntity
  8
AM_0 外形線1
100
AcDbLine
 10
0.0
 20
-449.0
 30
0.0
 11
1.0
 21
-450.0
 31
0.0
  0
LINE
  5
553A
330
552E
100
AcDbEntity
  8
AM_0 外形線1
100
AcDbLine
 10
36.99999999999909
 20
-450.0
 30
0.0
 11
37.99999999999909
 21
-449.0
 31
0.0
  0
ARC
  5
553B
330
552E
100
AcDbEntity
  8
AM_0 外形線1
100
AcDbCircle
 10
45.99999999999909
 20
-393.5
 30
0.0
 40
8.0
100
AcDbArc
 50
90.0
 51
180.0
  0
LINE
  5
553C
330
552E
100
AcDbEntity
  8
AM_0 外形線1
100
AcDbLine
 10
115.4999999999991
 20
361.5
 30
0.0
 11
-9.0
 21
361.5
 31
0.0
  0
LINE
  5
553D
330
552E
100
AcDbEntity
  8
AM_0 外形線1
100
AcDbLine
 10
0.0
 20
405.0
 30
0.0
 11
37.99999999999909
 21
405.0
 31
0.0
  0
LINE
  5
553E
330
552E
100
AcDbEntity
  8
AM_0 外形線1
100
AcDbLine
 10
37.99999999999909
 20
437.0
 30
0.0
 11
0.0
 21
437.0
 31
0.0
  0
LINE
  5
553F
330
552E
100
AcDbEntity
  8
AM_0 外形線1
100
AcDbLine
 10
1.0
 20
450.0
 30
0.0
 11
36.99999999999909
 21
450.0
 31
0.0
  0
LINE
  5
5540
330
552E
100
AcDbEntity
  8
AM_7 中心線
100
AcDbLine
 10
64.17198599999938
 20
421.0
 30
0.0
 11
-89.16134800000056
 21
421.0
 31
0.0
  0
LINE
  5
5541
330
552E
100
AcDbEntity
  8
AM_0 外形線1
100
AcDbLine
 10
0.0000000000002274
 20
387.1999999999999
 30
0.0
 11
0.0
 21
405.0
 31
0.0
  0
LWPOLYLINE
  5
5542
330
552E
100
AcDbEntity
  8
AM_0 外形線1
100
AcDbPolyline
 90
       73
 70
     0
 43
0.0
 10
2.25
 20
380.0
 10
2.446099999999205
 20
380.0136989999996
 10
2.640707999998994
 20
380.0546920000002
 10
2.832343000000037
 20
380.1226670000001
 10
3.019544999999196
 20
380.217106
 10
3.200890999999501
 20
380.3372920000001
 10
3.375
 20
380.4823080000002
 10
3.540546999998696
 20
380.6510520000001
 10
3.696271999999225
 20
380.8422399999998
 10
3.840989999998781
 20
381.0544150000002
 10
3.97359999999935
 20
381.2859640000001
 10
4.09309199999916
 20
381.5351249999998
 10
4.198556999999708
 20
381.8000000000001
 10
4.289191999999274
 20
382.0785739999997
 10
4.364307999999255
 20
382.368727
 10
4.42333299999882
 20
382.6682510000002
 10
4.465816999999333
 20
382.974866
 10
4.491437999999106
 20
383.286239
 10
4.5
 20
383.5999999999998
 10
4.491437999999106
 20
383.9137600000004
 10
4.465816999999333
 20
384.2251330000004
 10
4.42333299999882
 20
384.5317479999998
 10
4.364307999999255
 20
384.8312719999999
 10
4.289191999999274
 20
385.1214260000002
 10
4.198556999999708
 20
385.4000000000001
 10
4.09309199999916
 20
385.6648749999998
 10
3.97359999999935
 20
385.9140350000001
 10
3.840989999998781
 20
386.1455839999999
 10
3.696271999999225
 20
386.3577600000003
 10
3.540546999998696
 20
386.5489469999998
 10
3.375
 20
386.7176909999998
 10
3.200890999999501
 20
386.8627080000002
 10
3.019544999999196
 20
386.9828929999998
 10
2.832343000000037
 20
387.0773330000002
 10
2.640707999998994
 20
387.1453080000002
 10
2.446099999999205
 20
387.1863010000001
 10
2.25
 20
387.1999999999999
 10
2.053898999998637
 20
387.1863010000001
 10
1.859290999998846
 20
387.1453080000002
 10
1.667656999999961
 20
387.0773330000002
 10
1.480453999998643
 20
386.9828929999998
 10
1.299108999999589
 20
386.8627080000002
 10
1.125
 20
386.7176909999998
 10
0.9594529999994847
 20
386.5489469999998
 10
0.8037279999989548
 20
386.3577600000003
 10
0.6590099999993983
 20
386.1455839999999
 10
0.5263999999988302
 20
385.9140350000001
 10
0.406907999999021
 20
385.6648749999998
 10
0.3014429999993808
 20
385.4000000000001
 10
0.2108069999994768
 20
385.1214260000002
 10
0.1356909999994968
 20
384.8312719999999
 10
0.076666999999361
 20
384.5317479999998
 10
0.0341819999994186
 20
384.2251330000004
 10
0.008561999999074
 20
383.9137600000004
 10
0.0
 20
383.5999999999998
 10
0.008561999999074
 20
383.286239
 10
0.0341819999994186
 20
382.974866
 10
0.076666999999361
 20
382.6682510000002
 10
0.1356909999994968
 20
382.368727
 10
0.2108069999994768
 20
382.0785739999997
 10
0.3014429999993808
 20
381.8000000000001
 10
0.406907999999021
 20
381.5351249999998
 10
0.5263999999988302
 20
381.2859640000001
 10
0.6590099999993983
 20
381.0544150000002
 10
0.8037279999989548
 20
380.8422399999998
 10
0.9594529999994847
 20
380.6510520000001
 10
1.125
 20
380.4823080000002
 10
1.299108999999589
 20
380.3372920000001
 10
1.480453999998643
 20
380.217106
 10
1.667656999999961
 20
380.1226670000001
 10
1.859290999998846
 20
380.0546920000002
 10
2.053898999998637
 20
380.0136989999996
 10
2.25
 20
380.0
  0
LINE
  5
5543
330
552E
100
AcDbEntity
  8
AM_0 外形線1
100
AcDbLine
 10
4.0
 20
387.1999999999999
 30
0.0
 11
0.0
 21
387.1999999999999
 31
0.0
  0
ARC
  5
5544
330
552E
100
AcDbEntity
  8
AM_0 外形線1
100
AcDbCircle
 10
4.0
 20
386.6999999999999
 30
0.0
 40
0.5
100
AcDbArc
 50
0.0
 51
90.0
  0
LINE
  5
5545
330
552E
100
AcDbEntity
  8
AM_0 外形線1
100
AcDbLine
 10
4.5
 20
380.5
 30
0.0
 11
4.5
 21
386.6999999999999
 31
0.0
  0
ARC
  5
5546
330
552E
100
AcDbEntity
  8
AM_0 外形線1
100
AcDbCircle
 10
4.0
 20
380.5
 30
0.0
 40
0.5
100
AcDbArc
 50
270.0
 51
0.0
  0
LINE
  5
5547
330
552E
100
AcDbEntity
  8
AM_0 外形線1
100
AcDbLine
 10
-7.0
 20
380.0
 30
0.0
 11
4.0
 21
380.0
 31
0.0
  0
LINE
  5
5548
330
552E
100
AcDbEntity
  8
AM_0 外形線1
100
AcDbLine
 10
-9.0
 20
378.0
 30
0.0
 11
-7.0
 21
380.0
 31
0.0
  0
LINE
  5
5549
330
552E
100
AcDbEntity
  8
AM_0 外形線1
100
AcDbLine
 10
-9.0
 20
361.5
 30
0.0
 11
-9.0
 21
378.0
 31
0.0
  0
LINE
  5
554A
330
552E
100
AcDbEntity
  8
AM_0 外形線1
100
AcDbLine
 10
0.0
 20
449.0
 30
0.0
 11
1.0
 21
450.0
 31
0.0
  0
LINE
  5
554B
330
552E
100
AcDbEntity
  8
AM_0 外形線1
100
AcDbLine
 10
0.0
 20
437.0
 30
0.0
 11
0.0
 21
449.0
 31
0.0
  0
LINE
  5
554C
330
552E
100
AcDbEntity
  8
AM_0 外形線1
100
AcDbLine
 10
37.99999999999909
 20
393.5
 30
0.0
 11
37.99999999999909
 21
447.5500000000001
 31
0.0
  0
ARC
  5
554D
330
552E
100
AcDbEntity
  8
AM_0 外形線1
100
AcDbCircle
 10
45.99999999999909
 20
393.5
 30
0.0
 40
8.0
100
AcDbArc
 50
180.0
 51
270.0
  0
LINE
  5
554E
330
552E
100
AcDbEntity
  8
AM_4 細線
100
AcDbLine
 10
54.58848299999954
 20
383.5
 30
0.0
 11
54.5186419999991
 21
385.5
 31
0.0
  0
LINE
  5
554F
330
552E
100
AcDbEntity
  8
AM_4 細線
100
AcDbLine
 10
55.00753199999962
 20
371.5
 30
0.0
 11
55.35673999999925
 21
361.5
 31
0.0
  0
LINE
  5
5550
330
552E
100
AcDbEntity
  8
AM_4 細線
100
AcDbLine
 10
80.99246699999913
 20
371.5
 30
0.0
 11
80.64325899999948
 21
361.5
 31
0.0
  0
LINE
  5
5551
330
552E
100
AcDbEntity
  8
AM_4 細線
100
AcDbLine
 10
81.48135799999909
 20
385.5
 30
0.0
 11
81.4115159999992
 21
383.5
 31
0.0
  0
LINE
  5
5552
330
552E
100
AcDbEntity
  8
AM_0 外形線1
100
AcDbLine
 10
55.71127399999932
 20
384.6227910000002
 30
0.0
 11
55.68064199999935
 21
385.5
 31
0.0
  0
LINE
  5
5553
330
552E
100
AcDbEntity
  8
AM_0 外形線1
100
AcDbLine
 10
80.28872499999943
 20
384.6227910000002
 30
0.0
 11
80.31935799999883
 21
385.5
 31
0.0
  0
LINE
  5
5554
330
552E
100
AcDbEntity
  8
AM_0 外形線1
100
AcDbLine
 10
79.8065569999999
 20
370.8153149999998
 30
0.0
 11
79.48125899999921
 21
361.5
 31
0.0
  0
LINE
  5
5555
330
552E
100
AcDbEntity
  8
AM_0 外形線1
100
AcDbLine
 10
56.19344199999885
 20
370.8153149999998
 30
0.0
 11
56.51873999999953
 21
361.5
 31
0.0
  0
LINE
  5
5556
330
552E
100
AcDbEntity
  8
AM_0 外形線1
100
AcDbLine
 10
126.4999999999991
 20
345.5999999999999
 30
0.0
 11
116.9999999999991
 21
345.5999999999999
 31
0.0
  0
ARC
  5
5557
330
552E
100
AcDbEntity
  8
AM_0 外形線1
100
AcDbCircle
 10
115.4999999999991
 20
361.0
 30
0.0
 40
0.5
100
AcDbArc
 50
0.0
 51
90.0
  0
LINE
  5
5558
330
552E
100
AcDbEntity
  8
AM_0 外形線1
100
AcDbLine
 10
115.9999999999991
 20
346.5999999999998
 30
0.0
 11
115.9999999999991
 21
361.0
 31
0.0
  0
LINE
  5
5559
330
552E
100
AcDbEntity
  8
AM_0 外形線1
100
AcDbLine
 10
116.9999999999991
 20
345.5999999999999
 30
0.0
 11
115.9999999999991
 21
346.5999999999998
 31
0.0
  0
LINE
  5
555A
330
552E
100
AcDbEntity
  8
AM_0 外形線1
100
AcDbLine
 10
37.99999999999909
 20
449.0
 30
0.0
 11
37.99999999999909
 21
437.0
 31
0.0
  0
LINE
  5
555B
330
552E
100
AcDbEntity
  8
AM_0 外形線1
100
AcDbLine
 10
36.99999999999909
 20
450.0
 30
0.0
 11
37.99999999999909
 21
449.0
 31
0.0
  0
LINE
  5
555C
330
552E
100
AcDbEntity
  8
AM_0 外形線1
100
AcDbLine
 10
226.9999999999991
 20
-396.0
 30
0.0
 11
226.9999999999991
 21
0.0
 31
0.0
  0
LINE
  5
555D
330
552E
100
AcDbEntity
  8
AM_0 外形線1
100
AcDbLine
 10
216.4999999999991
 20
-385.5
 30
0.0
 11
216.4999999999991
 21
0.0
 31
0.0
  0
LINE
  5
555E
330
552E
100
AcDbEntity
  8
AM_0 外形線1
100
AcDbLine
 10
226.9999999999991
 20
-396.0
 30
0.0
 11
266.9999999999991
 21
-396.0000000000002
 31
0.0
  0
LINE
  5
555F
330
552E
100
AcDbEntity
  8
AM_0 外形線1
100
AcDbLine
 10
216.4999999999991
 20
-385.5
 30
0.0
 11
226.9999999999991
 21
-396.0
 31
0.0
  0
LINE
  5
5560
330
552E
100
AcDbEntity
  8
AM_0 外形線1
100
AcDbLine
 10
249.4999999999991
 20
345.5999999999999
 30
0.0
 11
257.9999999999991
 21
345.5999999999999
 31
0.0
  0
LINE
  5
5561
330
552E
100
AcDbEntity
  8
AM_0 外形線1
100
AcDbLine
 10
226.9999999999991
 20
396.0
 30
0.0
 11
266.9999999999991
 21
396.0
 31
0.0
  0
LINE
  5
5562
330
552E
100
AcDbEntity
  8
AM_0 外形線1
100
AcDbLine
 10
216.4999999999991
 20
385.5
 30
0.0
 11
226.9999999999991
 21
396.0
 31
0.0
  0
LINE
  5
5564
330
552E
100
AcDbEntity
  8
AM_0 外形線1
100
AcDbLine
 10
266.9999999999991
 20
396.0
 30
0.0
 11
266.9999999999991
 21
387.0
 31
0.0
  0
LINE
  5
5565
330
552E
100
AcDbEntity
  8
AM_0 外形線1
100
AcDbLine
 10
266.9999999999991
 20
371.0
 30
0.0
 11
266.9999999999991
 21
361.5
 31
0.0
  0
ARC
  5
5566
330
552E
100
AcDbEntity
  8
AM_0 外形線1
100
AcDbCircle
 10
259.4999999999991
 20
361.0
 30
0.0
 40
0.5
100
AcDbArc
 50
90.0
 51
111.4805560000299
  0
LINE
  5
5567
330
552E
100
AcDbEntity
  8
AM_0 外形線1
100
AcDbLine
 10
258.9999999999991
 20
346.5999999999998
 30
0.0
 11
257.9999999999991
 21
345.5999999999999
 31
0.0
  0
LINE
  5
5568
330
552E
100
AcDbEntity
  8
AM_0 外形線1
100
AcDbLine
 10
258.9999999999991
 20
361.0
 30
0.0
 11
258.9999999999991
 21
346.5999999999998
 31
0.0
  0
ARC
  5
5569
330
552E
100
AcDbEntity
  8
AM_0 外形線1
100
AcDbCircle
 10
259.4999999999991
 20
361.0
 30
0.0
 40
0.5
100
AcDbArc
 50
111.4805560000299
 51
180.0
  0
INSERT
  5
556A
330
552E
100
AcDbEntity
  8
AM_0 外形線1
100
AcDbBlockReference
  2
ロッカクアナツキプラグ-E R3／4
 10
67.99999999999909
 20
385.5
 30
0.0
  0
LINE
  5
55EC
330
552E
100
AcDbEntity
  8
AM_0 外形線1
100
AcDbLine
 10
266.9999999999991
 20
361.5
 30
0.0
 11
259.4999999999991
 21
361.5
 31
0.0
  0
LINE
  5
55ED
330
552E
100
AcDbEntity
  8
AM_0 外形線1
100
AcDbLine
 10
266.9999999999991
 20
0.0
 30
0.0
 11
266.9999999999991
 21
-396.0
 31
0.0
  0
ENDBLK
  5
5530
330
552E
100
AcDbEntity
  8
0
100
AcDbBlockEnd
  0
BLOCK
  5
5668
330
5667
100
AcDbEntity
  8
0
100
AcDbBlockBegin
  2
リジット-E CEMH900
 70
     0
 10
0.0
 20
0.0
 30
0.0
  3
リジット-E CEMH900
  1

  0
LINE
  5
566A
330
5667
100
AcDbEntity
  8
AM_0 外形線1
100
AcDbLine
 10
-38.0
 20
-447.5
 30
0.0
 11
-38.0
 21
-390.444272
 31
0.0
  0
LINE
  5
566B
330
5667
100
AcDbEntity
  8
AM_7 中心線
100
AcDbLine
 10
-55.14775729623398
 20
-421.0
 30
0.0
 11
55.80319099999907
 21
-421.0
 31
0.0
  0
LINE
  5
566C
330
5667
100
AcDbEntity
  8
AM_0 外形線1
100
AcDbLine
 10
-2.5
 20
-450.0
 30
0.0
 11
-35.5
 21
-450.0
 31
0.0
  0
LINE
  5
566D
330
5667
100
AcDbEntity
  8
AM_0 外形線1
100
AcDbLine
 10
-35.5
 20
-450.0
 30
0.0
 11
-38.0
 21
-447.5
 31
0.0
  0
LINE
  5
566E
330
5667
100
AcDbEntity
  8
AM_0 外形線1
100
AcDbLine
 10
0.0
 20
-447.5
 30
0.0
 11
-2.5
 21
-450.0
 31
0.0
  0
LINE
  5
5670
330
5667
100
AcDbEntity
  8
AM_0 外形線1
100
AcDbLine
 10
-466.0
 20
-342.5
 30
0.0
 11
-466.0
 21
342.5
 31
0.0
  0
LINE
  5
5672
330
5667
100
AcDbEntity
  8
AM_0 外形線1
100
AcDbLine
 10
-97.54102000000058
 20
-357.5
 30
0.0
 11
-451.0
 21
-357.5
 31
0.0
  0
ARC
  5
5673
330
5667
100
AcDbEntity
  8
AM_0 外形線1
100
AcDbCircle
 10
-451.0
 20
-342.5
 30
0.0
 40
15.0
100
AcDbArc
 50
180.0
 51
270.0
  0
LINE
  5
5674
330
5667
100
AcDbEntity
  8
AM_3 隠れ線
100
AcDbLine
 10
-466.0
 20
13.25
 30
0.0
 11
-396.0
 21
13.25
 31
0.0
  0
LINE
  5
5675
330
5667
100
AcDbEntity
  8
AM_3 隠れ線
100
AcDbLine
 10
-466.0
 20
15.0
 30
0.0
 11
-412.0
 21
15.0
 31
0.0
  0
LINE
  5
5676
330
5667
100
AcDbEntity
  8
AM_3 隠れ線
100
AcDbLine
 10
-412.0
 20
15.0
 30
0.0
 11
-412.0
 21
0.0
 31
0.0
  0
LINE
  5
5677
330
5667
100
AcDbEntity
  8
AM_3 隠れ線
100
AcDbLine
 10
-410.9896370000005
 20
13.25
 30
0.0
 11
-410.9896370000005
 21
0.0
 31
0.0
  0
LINE
  5
5678
330
5667
100
AcDbEntity
  8
AM_3 隠れ線
100
AcDbLine
 10
-412.0
 20
15.0
 30
0.0
 11
-410.9896370000005
 21
13.25
 31
0.0
  0
LINE
  5
5679
330
5667
100
AcDbEntity
  8
AM_3 隠れ線
100
AcDbLine
 10
-388.3501090000008
 20
0.0
 30
0.0
 11
-396.0
 21
13.25
 31
0.0
  0
LINE
  5
567A
330
5667
100
AcDbEntity
  8
AM_3 隠れ線
100
AcDbLine
 10
-396.0
 20
13.25
 30
0.0
 11
-396.0
 21
0.0
 31
0.0
  0
LINE
  5
567B
330
5667
100
AcDbEntity
  8
AM_0 外形線1
100
AcDbLine
 10
-38.0
 20
-390.444272
 30
0.0
 11
-38.0
 21
0.0
 31
0.0
  0
LINE
  5
567C
330
5667
100
AcDbEntity
  8
AM_0 外形線1
100
AcDbLine
 10
-94.0
 20
-357.5
 30
0.0
 11
-94.0
 21
0.0
 31
0.0
  0
LINE
  5
567D
330
5667
100
AcDbEntity
  8
AM_0 外形線1
100
AcDbLine
 10
-42.42229100000076
 20
-383.288855
 30
0.0
 11
-90.8328160000001
 21
-359.0835919999999
 31
0.0
  0
ARC
  5
567E
330
5667
100
AcDbEntity
  8
AM_0 外形線1
100
AcDbCircle
 10
-97.54102000000058
 20
-372.5
 30
0.0
 40
15.0
100
AcDbArc
 50
63.43494900002375
 51
90.0
  0
ARC
  5
567F
330
5667
100
AcDbEntity
  8
AM_0 外形線1
100
AcDbCircle
 10
-46.0
 20
-390.444272
 30
0.0
 40
8.0
100
AcDbArc
 50
0.0
 51
63.43494900002375
  0
LINE
  5
5680
330
5667
100
AcDbEntity
  8
AM_3 隠れ線
100
AcDbLine
 10
-16.0
 20
13.25
 30
0.0
 11
-86.0
 21
13.25
 31
0.0
  0
LINE
  5
5681
330
5667
100
AcDbEntity
  8
AM_3 隠れ線
100
AcDbLine
 10
-93.64989100000093
 20
0.0
 30
0.0
 11
-86.0
 21
13.25
 31
0.0
  0
LINE
  5
5682
330
5667
100
AcDbEntity
  8
AM_3 隠れ線
100
AcDbLine
 10
-86.0
 20
13.25
 30
0.0
 11
-86.0
 21
0.0
 31
0.0
  0
LINE
  5
5683
330
5667
100
AcDbEntity
  8
AM_3 隠れ線
100
AcDbLine
 10
-16.0
 20
15.0
 30
0.0
 11
-70.0
 21
15.0
 31
0.0
  0
LINE
  5
5684
330
5667
100
AcDbEntity
  8
AM_3 隠れ線
100
AcDbLine
 10
-70.0
 20
15.0
 30
0.0
 11
-70.0
 21
0.0
 31
0.0
  0
LINE
  5
5685
330
5667
100
AcDbEntity
  8
AM_3 隠れ線
100
AcDbLine
 10
-71.01036300000031
 20
13.25
 30
0.0
 11
-71.01036300000031
 21
0.0
 31
0.0
  0
LINE
  5
5686
330
5667
100
AcDbEntity
  8
AM_3 隠れ線
100
AcDbLine
 10
-70.0
 20
15.0
 30
0.0
 11
-71.01036300000031
 21
13.25
 31
0.0
  0
LINE
  5
5687
330
5667
100
AcDbEntity
  8
AM_0 外形線1
100
AcDbLine
 10
-451.0
 20
357.5
 30
0.0
 11
-97.54102000000058
 21
357.5
 31
0.0
  0
ARC
  5
5689
330
5667
100
AcDbEntity
  8
AM_0 外形線1
100
AcDbCircle
 10
-451.0
 20
342.5
 30
0.0
 40
15.0
100
AcDbArc
 50
90.0
 51
180.0
  0
LINE
  5
568A
330
5667
100
AcDbEntity
  8
AM_0 外形線1
100
AcDbLine
 10
-90.8328160000001
 20
359.0835920000004
 30
0.0
 11
-42.42229100000076
 21
383.2888539999999
 31
0.0
  0
ARC
  5
568B
330
5667
100
AcDbEntity
  8
AM_0 外形線1
100
AcDbCircle
 10
-97.54102000000058
 20
372.5
 30
0.0
 40
15.0
100
AcDbArc
 50
270.0
 51
296.5650509999763
  0
LINE
  5
568D
330
5667
100
AcDbEntity
  8
AM_0 外形線1
100
AcDbLine
 10
-38.0
 20
390.4442719999997
 30
0.0
 11
-38.0
 21
447.5
 31
0.0
  0
ARC
  5
568E
330
5667
100
AcDbEntity
  8
AM_0 外形線1
100
AcDbCircle
 10
-46.0
 20
390.4442719999997
 30
0.0
 40
8.0
100
AcDbArc
 50
296.5650509999763
 51
0.0
  0
LINE
  5
568F
330
5667
100
AcDbEntity
  8
AM_0 外形線1
100
AcDbLine
 10
-10.0
 20
380.0
 30
0.0
 11
-10.0
 21
361.5
 31
0.0
  0
LINE
  5
5690
330
5667
100
AcDbEntity
  8
AM_0 外形線1
100
AcDbLine
 10
0.0000000000002274
 20
380.0
 30
0.0
 11
-10.0
 21
380.0
 31
0.0
  0
LINE
  5
5691
330
5667
100
AcDbEntity
  8
AM_0 外形線1
100
AcDbLine
 10
-10.0
 20
361.5
 30
0.0
 11
-16.0
 21
361.5
 31
0.0
  0
LINE
  5
5692
330
5667
100
AcDbEntity
  8
AM_0 外形線1
100
AcDbLine
 10
-35.5
 20
450.0
 30
0.0
 11
-2.5
 21
450.0
 31
0.0
  0
LINE
  5
5693
330
5667
100
AcDbEntity
  8
AM_0 外形線1
100
AcDbLine
 10
-38.0
 20
405.0
 30
0.0
 11
0.0000000000002274
 21
405.0
 31
0.0
  0
LINE
  5
5694
330
5667
100
AcDbEntity
  8
AM_0 外形線1
100
AcDbLine
 10
0.0000000000002274
 20
436.9999999999994
 30
0.0
 11
-38.00000000000023
 21
437.0000000000003
 31
0.0
  0
LINE
  5
5695
330
5667
100
AcDbEntity
  8
AM_0 外形線1
100
AcDbLine
 10
-38.0
 20
447.5
 30
0.0
 11
-35.5
 21
450.0
 31
0.0
  0
LINE
  5
5697
330
5667
100
AcDbEntity
  8
AM_0 外形線1
100
AcDbLine
 10
-2.5
 20
450.0
 30
0.0
 11
0.0
 21
447.5
 31
0.0
  0
LINE
  5
5709
330
5667
100
AcDbEntity
  8
AM_0 外形線1
100
AcDbLine
 10
0.0
 20
-447.5
 30
0.0
 11
0.0
 21
0.0
 31
0.0
  0
LINE
  5
570A
330
5667
100
AcDbEntity
  8
AM_0 外形線1
100
AcDbLine
 10
-16.0
 20
361.5
 30
0.0
 11
-16.0
 21
0.0
 31
0.0
  0
LINE
  5
570B
330
5667
100
AcDbEntity
  8
AM_0 外形線1
100
AcDbLine
 10
0.0
 20
405.0
 30
0.0
 11
0.0000000000002274
 21
380.0
 31
0.0
  0
LINE
  5
570C
330
5667
100
AcDbEntity
  8
AM_0 外形線1
100
AcDbLine
 10
0.0
 20
447.5
 30
0.0
 11
0.0
 21
437.0
 31
0.0
  0
LINE
  5
8852
330
5667
100
AcDbEntity
  8
AM_0 外形線1
100
AcDbLine
 10
-16.0
 20
205.9999999999996
 30
0.0
 11
-466.0
 21
206.0
 31
0.0
  0
ENDBLK
  5
5669
330
5667
100
AcDbEntity
  8
0
100
AcDbBlockEnd
  0
BLOCK
  5
578D
330
578C
100
AcDbEntity
  8
0
100
AcDbBlockBegin
  2
リーマボルト-E CEMH900 M30
 70
     0
 10
0.0
 20
0.0
 30
0.0
  3
リーマボルト-E CEMH900 M30
  1

  0
ARC
  5
578F
330
578C
100
AcDbEntity
  8
AM_0 外形線1
100
AcDbCircle
 10
-95.73417400000016
 20
-19.91452800000024
 30
0.0
 40
11.765826
100
AcDbArc
 50
145.6697989999698
 51
214.3302010000302
  0
LINE
  5
5790
330
578C
100
AcDbEntity
  8
AM_0 外形線1
100
AcDbLine
 10
-83.49999999999909
 20
-26.55000000000018
 30
0.0
 11
-83.49999999999909
 21
26.55000000000018
 31
0.0
  0
LINE
  5
5791
330
578C
100
AcDbEntity
  8
AM_0 外形線1
100
AcDbLine
 10
-107.4999999999991
 20
23.0
 30
0.0
 11
-107.4999999999991
 21
-23.0
 31
0.0
  0
LINE
  5
5792
330
578C
100
AcDbEntity
  8
AM_0 外形線1
100
AcDbLine
 10
-83.49999999999909
 20
-25.05000000000018
 30
0.0
 11
-75.99999999999909
 21
-25.05000000000018
 31
0.0
  0
LINE
  5
5793
330
578C
100
AcDbEntity
  8
AM_0 外形線1
100
AcDbLine
 10
-105.4504069999993
 20
-26.55000000000018
 30
0.0
 11
-83.49999999999909
 21
-26.55000000000018
 31
0.0
  0
LINE
  5
5794
330
578C
100
AcDbEntity
  8
AM_0 外形線1
100
AcDbLine
 10
-107.4999999999991
 20
-23.0
 30
0.0
 11
-105.4504069999993
 21
-26.55000000000018
 31
0.0
  0
LINE
  5
5795
330
578C
100
AcDbEntity
  8
AM_4 細線
100
AcDbLine
 10
-115.9999999999991
 20
15.0
 30
0.0
 11
-107.4999999999991
 21
15.0
 31
0.0
  0
LINE
  5
5796
330
578C
100
AcDbEntity
  8
AM_4 細線
100
AcDbLine
 10
-107.4999999999991
 20
-15.0
 30
0.0
 11
-115.9999999999991
 21
-15.0
 31
0.0
  0
LINE
  5
5797
330
578C
100
AcDbEntity
  8
AM_0 外形線1
100
AcDbLine
 10
-114.9999999999991
 20
-16.0
 30
0.0
 11
-107.4999999999991
 21
-16.0
 31
0.0
  0
LINE
  5
5798
330
578C
100
AcDbEntity
  8
AM_0 外形線1
100
AcDbLine
 10
-107.4999999999991
 20
16.0
 30
0.0
 11
-114.9999999999991
 21
16.0
 31
0.0
  0
LINE
  5
5799
330
578C
100
AcDbEntity
  8
AM_0 外形線1
100
AcDbLine
 10
-114.9999999999991
 20
16.0
 30
0.0
 11
-114.9999999999991
 21
-16.0
 31
0.0
  0
LINE
  5
579A
330
578C
100
AcDbEntity
  8
AM_0 外形線1
100
AcDbLine
 10
-116.9999999999991
 20
-14.0
 30
0.0
 11
-114.9999999999991
 21
-16.0
 31
0.0
  0
LINE
  5
579B
330
578C
100
AcDbEntity
  8
AM_0 外形線1
100
AcDbLine
 10
-116.9999999999991
 20
14.0
 30
0.0
 11
-116.9999999999991
 21
-14.0
 31
0.0
  0
LINE
  5
579C
330
578C
100
AcDbEntity
  8
AM_0 外形線1
100
AcDbLine
 10
-114.9999999999991
 20
16.0
 30
0.0
 11
-116.9999999999991
 21
14.0
 31
0.0
  0
LINE
  5
579D
330
578C
100
AcDbEntity
  8
AM_0 外形線1
100
AcDbLine
 10
-75.99999999999909
 20
5.0
 30
0.0
 11
-83.49999999999909
 21
-5.0
 31
0.0
  0
LINE
  5
579E
330
578C
100
AcDbEntity
  8
AM_0 外形線1
100
AcDbLine
 10
-83.49999999999909
 20
-2.5
 30
0.0
 11
-75.99999999999909
 21
8.0
 31
0.0
  0
LINE
  5
579F
330
578C
100
AcDbEntity
  8
AM_0 外形線1
100
AcDbLine
 10
-75.99999999999909
 20
-15.0
 30
0.0
 11
-74.73205099999995
 21
-15.0
 31
0.0
  0
LINE
  5
57A0
330
578C
100
AcDbEntity
  8
AM_0 外形線1
100
AcDbLine
 10
-75.99999999999909
 20
15.0
 30
0.0
 11
-74.73205099999995
 21
15.0
 31
0.0
  0
LINE
  5
57A1
330
578C
100
AcDbEntity
  8
AM_0 外形線1
100
AcDbLine
 10
-74.99999999999909
 20
-14.84529999999995
 30
0.0
 11
-72.99999999999909
 21
-16.0
 31
0.0
  0
LINE
  5
57A2
330
578C
100
AcDbEntity
  8
AM_0 外形線1
100
AcDbLine
 10
-74.99999999999909
 20
14.84529900000007
 30
0.0
 11
-74.99999999999909
 21
-14.84529999999995
 31
0.0
  0
LINE
  5
57A3
330
578C
100
AcDbEntity
  8
AM_0 外形線1
100
AcDbLine
 10
-72.99999999999909
 20
16.0
 30
0.0
 11
-74.99999999999909
 21
14.84529900000007
 31
0.0
  0
LINE
  5
57A4
330
578C
100
AcDbEntity
  8
AM_0 外形線1
100
AcDbLine
 10
-75.99999999999909
 20
25.05000000000018
 30
0.0
 11
-83.49999999999909
 21
25.05000000000018
 31
0.0
  0
LINE
  5
57A5
330
578C
100
AcDbEntity
  8
AM_0 外形線1
100
AcDbLine
 10
-83.49999999999909
 20
-13.27905599999985
 30
0.0
 11
-105.4504069999993
 21
-13.27905599999985
 31
0.0
  0
LINE
  5
57A6
330
578C
100
AcDbEntity
  8
AM_0 外形線1
100
AcDbLine
 10
-83.49999999999909
 20
13.27905599999985
 30
0.0
 11
-105.4504069999993
 21
13.27905599999985
 31
0.0
  0
ARC
  5
57A7
330
578C
100
AcDbEntity
  8
AM_0 外形線1
100
AcDbCircle
 10
-63.45854299999974
 20
0.0
 30
0.0
 40
44.041458
100
AcDbArc
 50
162.4515210000246
 51
197.5484789999754
  0
ARC
  5
57A8
330
578C
100
AcDbEntity
  8
AM_0 外形線1
100
AcDbCircle
 10
-95.73417400000016
 20
19.91452800000024
 30
0.0
 40
11.765826
100
AcDbArc
 50
145.6697989999698
 51
214.3302010000302
  0
LINE
  5
57A9
330
578C
100
AcDbEntity
  8
AM_0 外形線1
100
AcDbLine
 10
-105.4504069999993
 20
26.55000000000018
 30
0.0
 11
-107.4999999999991
 21
23.0
 31
0.0
  0
LINE
  5
57AA
330
578C
100
AcDbEntity
  8
AM_0 外形線1
100
AcDbLine
 10
-83.49999999999909
 20
26.55000000000018
 30
0.0
 11
-105.4504069999993
 21
26.55000000000018
 31
0.0
  0
LINE
  5
57AB
330
578C
100
AcDbEntity
  8
AM_0 外形線1
100
AcDbLine
 10
-72.99999999999909
 20
16.0
 30
0.0
 11
-72.99999999999909
 21
-16.0
 31
0.0
  0
ARC
  5
57AC
330
578C
100
AcDbEntity
  8
AM_0 外形線1
100
AcDbCircle
 10
7.234174000000165
 20
-19.91452800000024
 30
0.0
 40
11.765826
100
AcDbArc
 50
325.6697989999698
 51
34.33020100003022
  0
LINE
  5
57AD
330
578C
100
AcDbEntity
  8
AM_0 外形線1
100
AcDbLine
 10
19.0
 20
23.0
 30
0.0
 11
19.0
 21
-23.0
 31
0.0
  0
LINE
  5
57AE
330
578C
100
AcDbEntity
  8
AM_0 外形線1
100
AcDbLine
 10
16.95040599999993
 20
-26.55000000000018
 30
0.0
 11
0.0
 21
-26.55000000000018
 31
0.0
  0
LINE
  5
57AF
330
578C
100
AcDbEntity
  8
AM_0 外形線1
100
AcDbLine
 10
19.0
 20
-23.0
 30
0.0
 11
16.95040599999993
 21
-26.55000000000018
 31
0.0
  0
LINE
  5
57B0
330
578C
100
AcDbEntity
  8
AM_0 外形線1
100
AcDbLine
 10
0.0
 20
-13.27905599999985
 30
0.0
 11
16.95040599999993
 21
-13.27905599999985
 31
0.0
  0
LINE
  5
57B1
330
578C
100
AcDbEntity
  8
AM_0 外形線1
100
AcDbLine
 10
0.0
 20
13.27905599999985
 30
0.0
 11
16.95040599999993
 21
13.27905599999985
 31
0.0
  0
LINE
  5
57B2
330
578C
100
AcDbEntity
  8
AM_0 外形線1
100
AcDbLine
 10
0.0
 20
26.55000000000018
 30
0.0
 11
16.95040599999993
 21
26.55000000000018
 31
0.0
  0
LINE
  5
57B3
330
578C
100
AcDbEntity
  8
AM_0 外形線1
100
AcDbLine
 10
-2.0
 20
-16.0
 30
0.0
 11
-2.0
 21
16.0
 31
0.0
  0
ARC
  5
57B4
330
578C
100
AcDbEntity
  8
AM_0 外形線1
100
AcDbCircle
 10
-1.0
 20
-16.0
 30
0.0
 40
1.0
100
AcDbArc
 50
0.0
 51
180.0
  0
ARC
  5
57B5
330
578C
100
AcDbEntity
  8
AM_0 外形線1
100
AcDbCircle
 10
-1.0
 20
16.0
 30
0.0
 40
1.0
100
AcDbArc
 50
180.0
 51
0.0
  0
ARC
  5
57B6
330
578C
100
AcDbEntity
  8
AM_0 外形線1
100
AcDbCircle
 10
-25.0414579999997
 20
0.0
 30
0.0
 40
44.041458
100
AcDbArc
 50
342.4515210000245
 51
17.54847899997544
  0
ARC
  5
57B7
330
578C
100
AcDbEntity
  8
AM_0 外形線1
100
AcDbCircle
 10
7.234174000000165
 20
19.91452800000024
 30
0.0
 40
11.765826
100
AcDbArc
 50
325.6697989999698
 51
34.33020100003022
  0
LINE
  5
57B8
330
578C
100
AcDbEntity
  8
AM_0 外形線1
100
AcDbLine
 10
16.95040599999993
 20
26.55000000000018
 30
0.0
 11
19.0
 21
23.0
 31
0.0
  0
LINE
  5
5816
330
578C
100
AcDbEntity
  8
AM_0 外形線1
100
AcDbLine
 10
-72.9999999999984
 20
16.00000000000045
 30
0.0
 11
-2.0
 21
16.00000000000045
 31
0.0
  0
LINE
  5
5817
330
578C
100
AcDbEntity
  8
AM_0 外形線1
100
AcDbLine
 10
-72.9999999999984
 20
-16.00000000000045
 30
0.0
 11
-2.0
 21
-16.00000000000045
 31
0.0
  0
LINE
  5
5818
330
578C
100
AcDbEntity
  8
AM_0 外形線1
100
AcDbLine
 10
-75.99999999999909
 20
25.05000000000018
 30
0.0
 11
-75.99999999999909
 21
-25.05000000000018
 31
0.0
  0
LINE
  5
5819
330
578C
100
AcDbEntity
  8
AM_0 外形線1
100
AcDbLine
 10
0.0
 20
26.55000000000018
 30
0.0
 11
0.0
 21
-26.55000000000018
 31
0.0
  0
ENDBLK
  5
578E
330
578C
100
AcDbEntity
  8
0
100
AcDbBlockEnd
  0
BLOCK
  5
59BC
330
59BB
100
AcDbEntity
  8
0
100
AcDbBlockBegin
  2
ＧＣサイドカバ－- ECEMH900
 70
     0
 10
0.0
 20
0.0
 30
0.0
  3
ＧＣサイドカバ－- ECEMH900
  1

  0
LINE
  5
59BF
330
59BB
100
AcDbEntity
  8
AM_0 外形線1
100
AcDbLine
 10
0.0000000000004547
 20
-396.0
 30
0.0
 11
28.0
 21
-396.0
 31
0.0
  0
LINE
  5
59C0
330
59BB
100
AcDbEntity
  8
AM_0 外形線1
100
AcDbLine
 10
28.0
 20
-396.0
 30
0.0
 11
28.0
 21
0.0
 31
0.0
  0
LINE
  5
59C1
330
59BB
100
AcDbEntity
  8
AM_4 細線
100
AcDbLine
 10
28.0
 20
372.0
 30
0.0
 11
-23.0
 21
372.0
 31
0.0
  0
LINE
  5
59C2
330
59BB
100
AcDbEntity
  8
AM_4 細線
100
AcDbLine
 10
28.0
 20
386.0
 30
0.0
 11
-23.0
 21
386.0
 31
0.0
  0
LINE
  5
59C3
330
59BB
100
AcDbEntity
  8
AM_0 外形線1
100
AcDbLine
 10
-23.0
 20
371.0
 30
0.0
 11
28.0
 21
371.0
 31
0.0
  0
LINE
  5
59C4
330
59BB
100
AcDbEntity
  8
AM_0 外形線1
100
AcDbLine
 10
28.0
 20
387.0
 30
0.0
 11
-23.0
 21
387.0
 31
0.0
  0
LINE
  5
59C5
330
59BB
100
AcDbEntity
  8
AM_7 中心線
100
AcDbLine
 10
-37.29609899999923
 20
379.0
 30
0.0
 11
48.235815
 21
379.0
 31
0.0
  0
LINE
  5
59C6
330
59BB
100
AcDbEntity
  8
AM_0 外形線1
100
AcDbLine
 10
-30.0
 20
372.0
 30
0.0
 11
-23.0
 21
372.0
 31
0.0
  0
LINE
  5
59C7
330
59BB
100
AcDbEntity
  8
AM_0 外形線1
100
AcDbLine
 10
-34.04145199999948
 20
379.0
 30
0.0
 11
-30.0
 21
372.0
 31
0.0
  0
LINE
  5
59C8
330
59BB
100
AcDbEntity
  8
AM_0 外形線1
100
AcDbLine
 10
-30.0
 20
386.0
 30
0.0
 11
-34.04145199999948
 21
379.0
 31
0.0
  0
LINE
  5
59C9
330
59BB
100
AcDbEntity
  8
AM_0 外形線1
100
AcDbLine
 10
-23.0
 20
386.0
 30
0.0
 11
-30.0
 21
386.0
 31
0.0
  0
LINE
  5
59CA
330
59BB
100
AcDbEntity
  8
AM_0 外形線1
100
AcDbLine
 10
-30.0
 20
386.0
 30
0.0
 11
-30.0
 21
372.0
 31
0.0
  0
LINE
  5
59CB
330
59BB
100
AcDbEntity
  8
AM_0 外形線1
100
AcDbLine
 10
-23.0
 20
387.0
 30
0.0
 11
-23.0
 21
371.0
 31
0.0
  0
LWPOLYLINE
  5
59CC
330
59BB
100
AcDbEntity
  8
AM_0 外形線1
100
AcDbPolyline
 90
       73
 70
     0
 43
0.0
 10
21.0
 20
341.1500000000001
 10
20.96004400000038
 20
341.6860080000001
 10
20.84048100000018
 20
342.217936
 10
20.64222100000006
 20
342.7417370000003
 10
20.36677200000031
 20
343.253424
 10
20.01623200000086
 20
343.7491019999998
 10
19.59326700000019
 20
344.2249999999999
 10
19.10109600000032
 20
344.6774949999999
 10
18.54346600000008
 20
345.1031440000002
 10
17.92462100000011
 20
345.4987070000001
 10
17.24927000000025
 20
345.8611730000002
 10
16.52255200000036
 20
346.1877850000001
 10
15.75
 20
346.476056
 10
14.93749200000002
 20
346.7237930000002
 10
14.09121099999993
 20
346.9291090000002
 10
13.21760000000085
 20
347.0904439999998
 10
12.32330600000023
 20
347.2065670000002
 10
11.41513500000018
 20
347.2765970000001
 10
10.5
 20
347.3000000000001
 10
9.584864000000379
 20
347.2765970000001
 10
8.676694000000678
 20
347.2065670000002
 10
7.782400000000052
 20
347.0904439999998
 10
6.908787999999732
 20
346.9291090000002
 10
6.062507999999978
 20
346.7237930000002
 10
5.25
 20
346.476056
 10
4.477447000000211
 20
346.1877850000001
 10
3.750730000000658
 20
345.8611730000002
 10
3.075378999999883
 20
345.4987070000001
 10
2.456532999999581
 20
345.1031440000002
 10
1.898903000000244
 20
344.6774949999999
 10
1.406732999999803
 20
344.2249999999999
 10
0.9837680000000544
 20
343.7491019999998
 10
0.6332270000002609
 20
343.253424
 10
0.3577789999999368
 20
342.7417370000003
 10
0.1595180000003893
 20
342.217936
 10
0.0399550000001909
 20
341.6860080000001
 10
0.0
 20
341.1500000000001
 10
0.0399550000001909
 20
340.6139920000001
 10
0.1595180000003893
 20
340.0820640000002
 10
0.3577789999999368
 20
339.5582629999999
 10
0.6332270000002609
 20
339.0465760000002
 10
0.9837680000000544
 20
338.550898
 10
1.406732999999803
 20
338.0749999999998
 10
1.898903000000244
 20
337.6225050000003
 10
2.456532999999581
 20
337.196856
 10
3.075378999999883
 20
336.801293
 10
3.750730000000658
 20
336.4388260000001
 10
4.477447000000211
 20
336.1122149999996
 10
5.25
 20
335.8239440000002
 10
6.062507999999978
 20
335.5762070000001
 10
6.908787999999732
 20
335.3708899999997
 10
7.782400000000052
 20
335.2095559999998
 10
8.676694000000678
 20
335.0934320000001
 10
9.584864000000379
 20
335.0234019999998
 10
10.5
 20
335.0
 10
11.41513500000018
 20
335.0234019999998
 10
12.32330600000023
 20
335.0934320000001
 10
13.21760000000085
 20
335.2095559999998
 10
14.09121099999993
 20
335.3708899999997
 10
14.93749200000002
 20
335.5762070000001
 10
15.75
 20
335.8239440000002
 10
16.52255200000036
 20
336.1122149999996
 10
17.24927000000025
 20
336.4388260000001
 10
17.92462100000011
 20
336.801293
 10
18.54346600000008
 20
337.196856
 10
19.10109600000032
 20
337.6225050000003
 10
19.59326700000019
 20
338.0749999999998
 10
20.01623200000086
 20
338.550898
 10
20.36677200000031
 20
339.0465760000002
 10
20.64222100000006
 20
339.5582629999999
 10
20.84048100000018
 20
340.0820640000002
 10
20.96004400000038
 20
340.6139920000001
 10
21.0
 20
341.1500000000001
  0
LINE
  5
59CD
330
59BB
100
AcDbEntity
  8
AM_0 外形線1
100
AcDbLine
 10
-7.0
 20
337.5
 30
0.0
 11
-7.0
 21
361.5
 31
0.0
  0
LINE
  5
59CE
330
59BB
100
AcDbEntity
  8
AM_0 外形線1
100
AcDbLine
 10
0.0
 20
347.3000000000001
 30
0.0
 11
0.0
 21
337.5
 31
0.0
  0
LINE
  5
59CF
330
59BB
100
AcDbEntity
  8
AM_0 外形線1
100
AcDbLine
 10
21.0
 20
337.5
 30
0.0
 11
21.0
 21
347.3000000000001
 31
0.0
  0
LINE
  5
59D0
330
59BB
100
AcDbEntity
  8
AM_0 外形線1
100
AcDbLine
 10
28.0
 20
396.0
 30
0.0
 11
28.0
 21
337.5
 31
0.0
  0
LINE
  5
59D1
330
59BB
100
AcDbEntity
  8
AM_0 外形線1
100
AcDbLine
 10
28.0
 20
337.5
 30
0.0
 11
21.0
 21
337.5
 31
0.0
  0
LINE
  5
59D2
330
59BB
100
AcDbEntity
  8
AM_0 外形線1
100
AcDbLine
 10
0.0
 20
337.5
 30
0.0
 11
-7.0
 21
337.5
 31
0.0
  0
LINE
  5
59D3
330
59BB
100
AcDbEntity
  8
AM_0 外形線1
100
AcDbLine
 10
-7.0
 20
337.5
 30
0.0
 11
-7.0
 21
335.0
 31
0.0
  0
LINE
  5
59D4
330
59BB
100
AcDbEntity
  8
AM_0 外形線1
100
AcDbLine
 10
0.0
 20
337.5
 30
0.0
 11
0.0
 21
335.0
 31
0.0
  0
LINE
  5
59D5
330
59BB
100
AcDbEntity
  8
AM_0 外形線1
100
AcDbLine
 10
21.0
 20
337.5
 30
0.0
 11
21.0
 21
335.0
 31
0.0
  0
LINE
  5
59D6
330
59BB
100
AcDbEntity
  8
AM_0 外形線1
100
AcDbLine
 10
28.0
 20
337.5
 30
0.0
 11
28.0
 21
335.0
 31
0.0
  0
LINE
  5
59D7
330
59BB
100
AcDbEntity
  8
AM_0 外形線1
100
AcDbLine
 10
28.0
 20
370.0
 30
0.0
 11
0.0
 21
370.0
 31
0.0
  0
LINE
  5
59D8
330
59BB
100
AcDbEntity
  8
AM_0 外形線1
100
AcDbLine
 10
28.0
 20
388.0
 30
0.0
 11
0.0
 21
388.0
 31
0.0
  0
LWPOLYLINE
  5
59D9
330
59BB
100
AcDbEntity
  8
AM_0 外形線1
100
AcDbPolyline
 90
       73
 70
     0
 43
0.0
 10
1.550000000000181
 20
361.5
 10
1.685091000000284
 20
361.5097980000002
 10
1.819153999999798
 20
361.5391199999999
 10
1.951169000000844
 20
361.5877409999998
 10
2.08013099999971
 20
361.655291
 10
2.205058000000462
 20
361.7412570000001
 10
2.324999999999818
 20
361.8449839999998
 10
2.439043000000309
 20
361.9656830000004
 10
2.546321000000715
 20
362.1024350000003
 10
2.64601500000026
 20
362.2541999999999
 10
2.737369000000398
 20
362.4198219999998
 10
2.81968500000039
 20
362.5980399999999
 10
2.892339000000901
 20
362.7874999999999
 10
2.954776999999921
 20
362.986758
 10
3.006523000000014
 20
363.1942979999998
 10
3.047185000000353
 20
363.4085410000003
 10
3.076452000000243
 20
363.6278560000002
 10
3.09410200000002
 20
363.8505740000002
 10
3.100000000000362
 20
364.0749999999999
 10
3.09410200000002
 20
364.299426
 10
3.076452000000243
 20
364.522144
 10
3.047185000000353
 20
364.7414589999999
 10
3.006523000000014
 20
364.9557020000001
 10
2.954776999999921
 20
365.1632420000002
 10
2.892339000000901
 20
365.3625000000001
 10
2.81968500000039
 20
365.5519589999999
 10
2.737369000000398
 20
365.7301780000003
 10
2.64601500000026
 20
365.8958000000002
 10
2.546321000000715
 20
366.047564
 10
2.439043000000309
 20
366.1843159999999
 10
2.324999999999818
 20
366.3050149999999
 10
2.205058000000462
 20
366.4087420000001
 10
2.08013099999971
 20
366.4947080000002
 10
1.951169000000844
 20
366.5622589999999
 10
1.819153999999798
 20
366.6108800000002
 10
1.685091000000284
 20
366.6402010000002
 10
1.550000000000181
 20
366.6500000000001
 10
1.41490799999974
 20
366.6402010000002
 10
1.280845000000225
 20
366.6108800000002
 10
1.148830000000089
 20
366.5622589999999
 10
1.019869000000652
 20
366.4947080000002
 10
0.8949410000004718
 20
366.4087420000001
 10
0.7750000000005457
 20
366.3050149999999
 10
0.6609560000006242
 20
366.1843159999999
 10
0.5536789999996472
 20
366.047564
 10
0.4539840000006734
 20
365.8958000000002
 10
0.3626309999999648
 20
365.7301780000003
 10
0.2803140000005442
 20
365.5519589999999
 10
0.2076600000009421
 20
365.3625000000001
 10
0.145223000000442
 20
365.1632420000002
 10
0.0934760000009192
 20
364.9557020000001
 10
0.0528150000000096
 20
364.7414589999999
 10
0.0235480000001189
 20
364.522144
 10
0.005898000000343
 20
364.299426
 10
0.0
 20
364.0749999999999
 10
0.005898000000343
 20
363.8505740000002
 10
0.0235480000001189
 20
363.6278560000002
 10
0.0528150000000096
 20
363.4085410000003
 10
0.0934760000009192
 20
363.1942979999998
 10
0.145223000000442
 20
362.986758
 10
0.2076600000009421
 20
362.7874999999999
 10
0.2803140000005442
 20
362.5980399999999
 10
0.3626309999999648
 20
362.4198219999998
 10
0.4539840000006734
 20
362.2541999999999
 10
0.5536789999996472
 20
362.1024350000003
 10
0.6609560000006242
 20
361.9656830000004
 10
0.7750000000005457
 20
361.8449839999998
 10
0.8949410000004718
 20
361.7412570000001
 10
1.019869000000652
 20
361.655291
 10
1.148830000000089
 20
361.5877409999998
 10
1.280845000000225
 20
361.5391199999999
 10
1.41490799999974
 20
361.5097980000002
 10
1.550000000000181
 20
361.5
  0
LINE
  5
59DA
330
59BB
100
AcDbEntity
  8
AM_0 外形線1
100
AcDbLine
 10
3.100000000000362
 20
366.6500000000001
 30
0.0
 11
3.100000000000362
 21
361.5
 31
0.0
  0
LINE
  5
59DB
330
59BB
100
AcDbEntity
  8
AM_0 外形線1
100
AcDbLine
 10
0.0
 20
366.6500000000001
 30
0.0
 11
3.100000000000362
 21
366.6500000000001
 31
0.0
  0
LINE
  5
59DC
330
59BB
100
AcDbEntity
  8
AM_0 外形線1
100
AcDbLine
 10
21.0
 20
347.3000000000001
 30
0.0
 11
0.0
 21
347.3000000000001
 31
0.0
  0
LINE
  5
59DD
330
59BB
100
AcDbEntity
  8
AM_0 外形線1
100
AcDbLine
 10
32.0
 20
380.0
 30
0.0
 11
28.0
 21
376.5
 31
0.0
  0
LINE
  5
59DE
330
59BB
100
AcDbEntity
  8
AM_0 外形線1
100
AcDbLine
 10
28.0
 20
378.0
 30
0.0
 11
32.0
 21
381.5
 31
0.0
  0
LINE
  5
59DF
330
59BB
100
AcDbEntity
  8
AM_0 外形線1
100
AcDbLine
 10
42.0
 20
389.385898
 30
0.0
 11
42.0
 21
368.6141010000002
 31
0.0
  0
LINE
  5
59E0
330
59BB
100
AcDbEntity
  8
AM_0 外形線1
100
AcDbLine
 10
40.76402700000016
 20
385.921797
 30
0.0
 11
32.0
 21
385.921797
 31
0.0
  0
LINE
  5
59E1
330
59BB
100
AcDbEntity
  8
AM_0 外形線1
100
AcDbLine
 10
40.76402700000016
 20
372.078203
 30
0.0
 11
32.0
 21
372.078203
 31
0.0
  0
LINE
  5
59E2
330
59BB
100
AcDbEntity
  8
AM_0 外形線1
100
AcDbLine
 10
40.76402700000016
 20
365.1500000000002
 30
0.0
 11
32.0
 21
365.1500000000002
 31
0.0
  0
ARC
  5
59E3
330
59BB
100
AcDbEntity
  8
AM_0 外形線1
100
AcDbCircle
 10
36.52753800000029
 20
368.6141010000002
 30
0.0
 40
5.472462999999998
100
AcDbArc
 50
320.7277500000099
 51
39.27224999999017
  0
ARC
  5
59E4
330
59BB
100
AcDbEntity
  8
AM_0 外形線1
100
AcDbCircle
 10
22.0
 20
379.0
 30
0.0
 40
20.0
100
AcDbArc
 50
339.7516619999837
 51
20.24833800001628
  0
ARC
  5
59E5
330
59BB
100
AcDbEntity
  8
AM_0 外形線1
100
AcDbCircle
 10
36.5275360000005
 20
389.385898
 30
0.0
 40
5.472462999999998
100
AcDbArc
 50
320.7277570000183
 51
39.27224299998168
  0
LINE
  5
59E6
330
59BB
100
AcDbEntity
  8
AM_0 外形線1
100
AcDbLine
 10
32.0
 20
392.8499999999999
 30
0.0
 11
40.76402700000016
 21
392.8499999999999
 31
0.0
  0
LINE
  5
59E7
330
59BB
100
AcDbEntity
  8
AM_0 外形線1
100
AcDbLine
 10
32.0
 20
364.9000000000001
 30
0.0
 11
28.0
 21
364.9000000000001
 31
0.0
  0
LINE
  5
59E8
330
59BB
100
AcDbEntity
  8
AM_0 外形線1
100
AcDbLine
 10
32.0
 20
365.1500000000002
 30
0.0
 11
32.0
 21
364.9000000000001
 31
0.0
  0
LINE
  5
59E9
330
59BB
100
AcDbEntity
  8
AM_0 外形線1
100
AcDbLine
 10
32.0
 20
393.0999999999999
 30
0.0
 11
32.0
 21
365.1500000000002
 31
0.0
  0
LINE
  5
59EA
330
59BB
100
AcDbEntity
  8
AM_0 外形線1
100
AcDbLine
 10
28.0
 20
393.0999999999999
 30
0.0
 11
32.0
 21
393.0999999999999
 31
0.0
  0
LINE
  5
59EC
330
59BB
100
AcDbEntity
  8
AM_0 外形線1
100
AcDbLine
 10
3.100000000000362
 20
361.5
 30
0.0
 11
-7.0
 21
361.5
 31
0.0
  0
LINE
  5
59ED
330
59BB
100
AcDbEntity
  8
AM_0 外形線1
100
AcDbLine
 10
0.0
 20
396.0
 30
0.0
 11
28.0
 21
396.0
 31
0.0
  0
LINE
  5
5A55
330
59BB
100
AcDbEntity
  8
AM_0 外形線1
100
AcDbLine
 10
0.0
 20
-396.0000000000002
 30
0.0
 11
0.0
 21
0.0
 31
0.0
  0
LINE
  5
5A56
330
59BB
100
AcDbEntity
  8
AM_0 外形線1
100
AcDbLine
 10
0.0
 20
366.6500000000001
 30
0.0
 11
0.0
 21
371.0
 31
0.0
  0
LINE
  5
5A57
330
59BB
100
AcDbEntity
  8
AM_0 外形線1
100
AcDbLine
 10
0.0
 20
387.0
 30
0.0
 11
0.0
 21
396.0
 31
0.0
  0
LINE
  5
5A58
330
59BB
100
AcDbEntity
  8
AM_7 中心線
100
AcDbLine
 10
-18.59522782402473
 20
-379.0
 30
0.0
 11
38.52374208341736
 21
-379.0000000000002
 31
0.0
  0
ENDBLK
  5
59BD
330
59BB
100
AcDbEntity
  8
0
100
AcDbBlockEnd
  0
BLOCK
  5
5AAF
330
5AAE
100
AcDbEntity
  8
0
100
AcDbBlockBegin
  2
センタ-E CEMH900
 70
     0
 10
0.0
 20
0.0
 30
0.0
  3
センタ-E CEMH900
  1

  0
ARC
  5
5AB1
330
5AAE
100
AcDbEntity
  8
AM_0 外形線1
100
AcDbCircle
 10
171.9999999999991
 20
0.0
 30
0.0
 40
359.65
100
AcDbArc
 50
80.31570999999805
 51
99.68429000000192
  0
LINE
  5
5AB4
330
5AAE
100
AcDbEntity
  8
AM_0 外形線1
100
AcDbLine
 10
0.0
 20
284.8499999999999
 30
0.0
 11
0.0
 21
0.0
 31
0.0
  0
LINE
  5
5AB5
330
5AAE
100
AcDbEntity
  8
AM_3 隠れ線
100
AcDbLine
 10
77.64989099999912
 20
0.0
 30
0.0
 11
69.99999999999909
 21
13.25
 31
0.0
  0
LINE
  5
5AB6
330
5AAE
100
AcDbEntity
  8
AM_3 隠れ線
100
AcDbLine
 10
0.0
 20
13.25
 30
0.0
 11
69.99999999999909
 21
13.25
 31
0.0
  0
LINE
  5
5AB7
330
5AAE
100
AcDbEntity
  8
AM_3 隠れ線
100
AcDbLine
 10
0.0
 20
15.0
 30
0.0
 11
53.99999999999909
 21
15.0
 31
0.0
  0
LINE
  5
5AB8
330
5AAE
100
AcDbEntity
  8
AM_3 隠れ線
100
AcDbLine
 10
69.99999999999909
 20
13.25
 30
0.0
 11
69.99999999999909
 21
0.0
 31
0.0
  0
LINE
  5
5AB9
330
5AAE
100
AcDbEntity
  8
AM_3 隠れ線
100
AcDbLine
 10
53.99999999999909
 20
15.0
 30
0.0
 11
53.99999999999909
 21
0.0
 31
0.0
  0
LINE
  5
5ABA
330
5AAE
100
AcDbEntity
  8
AM_3 隠れ線
100
AcDbLine
 10
55.01036299999942
 20
13.25
 30
0.0
 11
55.01036299999942
 21
0.0
 31
0.0
  0
LINE
  5
5ABB
330
5AAE
100
AcDbEntity
  8
AM_3 隠れ線
100
AcDbLine
 10
53.99999999999909
 20
15.0
 30
0.0
 11
55.01036299999942
 21
13.25
 31
0.0
  0
LINE
  5
5ABC
330
5AAE
100
AcDbEntity
  8
AM_0 外形線1
100
AcDbLine
 10
109.9999999999991
 20
335.0
 30
0.0
 11
2.0
 21
335.0
 31
0.0
  0
LINE
  5
5ABD
330
5AAE
100
AcDbEntity
  8
AM_0 外形線1
100
AcDbLine
 10
0.0
 20
333.0
 30
0.0
 11
0.0
 21
284.8499999999999
 31
0.0
  0
LINE
  5
5ABE
330
5AAE
100
AcDbEntity
  8
AM_0 外形線1
100
AcDbLine
 10
2.0
 20
335.0
 30
0.0
 11
0.0
 21
333.0
 31
0.0
  0
LINE
  5
5ABF
330
5AAE
100
AcDbEntity
  8
AM_0 外形線1
100
AcDbLine
 10
110.4999999999991
 20
353.3527510000003
 30
0.0
 11
110.4999999999991
 21
335.5
 31
0.0
  0
ARC
  5
5AC0
330
5AAE
100
AcDbEntity
  8
AM_0 外形線1
100
AcDbCircle
 10
109.9999999999991
 20
335.5
 30
0.0
 40
0.5
100
AcDbArc
 50
270.0
 51
0.0
  0
LINE
  5
5AC1
330
5AAE
100
AcDbEntity
  8
AM_0 外形線1
100
AcDbLine
 10
111.4999999999991
 20
354.5248539999998
 30
0.0
 11
110.4999999999991
 21
353.3527510000003
 31
0.0
  0
LINE
  5
5AC3
330
5AAE
100
AcDbEntity
  8
AM_0 外形線1
100
AcDbLine
 10
449.9999999999992
 20
-318.0
 30
0.0
 11
449.9999999999992
 21
318.0
 31
0.0
  0
LINE
  5
5AC4
330
5AAE
100
AcDbEntity
  8
AM_0 外形線1
100
AcDbLine
 10
449.9999999999992
 20
156.5
 30
0.0
 11
449.9999999999992
 21
0.0
 31
0.0
  0
LINE
  5
5AC5
330
5AAE
100
AcDbEntity
  8
AM_0 外形線1
100
AcDbLine
 10
316.9999999999991
 20
-333.0
 30
0.0
 11
316.9999999999991
 21
0.0
 31
0.0
  0
LINE
  5
5AC6
330
5AAE
100
AcDbEntity
  8
AM_0 外形線1
100
AcDbLine
 10
310.9999999999991
 20
-335.0
 30
0.0
 11
310.9999999999991
 21
0.0
 31
0.0
  0
LINE
  5
5AC7
330
5AAE
100
AcDbEntity
  8
AM_0 外形線1
100
AcDbLine
 10
316.9999999999991
 20
-333.0
 30
0.0
 11
434.999999999999
 21
-333.0
 31
0.0
  0
LINE
  5
5AC8
330
5AAE
100
AcDbEntity
  8
AM_0 外形線1
100
AcDbLine
 10
310.9999999999991
 20
-335.0
 30
0.0
 11
316.9999999999991
 21
-333.0
 31
0.0
  0
LINE
  5
5AC9
330
5AAE
100
AcDbEntity
  8
AM_0 外形線1
100
AcDbLine
 10
278.9999999999991
 20
-335.0
 30
0.0
 11
310.9999999999991
 21
-335.0
 31
0.0
  0
ARC
  5
5ACA
330
5AAE
100
AcDbEntity
  8
AM_0 外形線1
100
AcDbCircle
 10
434.999999999999
 20
-318.0
 30
0.0
 40
15.0
100
AcDbArc
 50
270.0
 51
0.0
  0
LINE
  5
5ACB
330
5AAE
100
AcDbEntity
  8
AM_3 隠れ線
100
AcDbLine
 10
449.9999999999992
 20
13.25
 30
0.0
 11
379.9999999999991
 21
13.25
 31
0.0
  0
LINE
  5
5ACC
330
5AAE
100
AcDbEntity
  8
AM_3 隠れ線
100
AcDbLine
 10
449.9999999999992
 20
15.0
 30
0.0
 11
395.9999999999991
 21
15.0
 31
0.0
  0
LINE
  5
5ACD
330
5AAE
100
AcDbEntity
  8
AM_3 隠れ線
100
AcDbLine
 10
372.3501089999992
 20
0.0
 30
0.0
 11
379.9999999999991
 21
13.25
 31
0.0
  0
LINE
  5
5ACE
330
5AAE
100
AcDbEntity
  8
AM_3 隠れ線
100
AcDbLine
 10
379.9999999999991
 20
13.25
 30
0.0
 11
379.9999999999991
 21
0.0
 31
0.0
  0
LINE
  5
5ACF
330
5AAE
100
AcDbEntity
  8
AM_3 隠れ線
100
AcDbLine
 10
395.9999999999991
 20
15.0
 30
0.0
 11
395.9999999999991
 21
0.0
 31
0.0
  0
LINE
  5
5AD0
330
5AAE
100
AcDbEntity
  8
AM_3 隠れ線
100
AcDbLine
 10
394.9896369999988
 20
13.25
 30
0.0
 11
394.9896369999988
 21
0.0
 31
0.0
  0
LINE
  5
5AD1
330
5AAE
100
AcDbEntity
  8
AM_3 隠れ線
100
AcDbLine
 10
395.9999999999991
 20
15.0
 30
0.0
 11
394.9896369999988
 21
13.25
 31
0.0
  0
LINE
  5
5AD3
330
5AAE
100
AcDbEntity
  8
AM_0 外形線1
100
AcDbLine
 10
434.999999999999
 20
333.0
 30
0.0
 11
316.9999999999991
 21
333.0
 31
0.0
  0
LINE
  5
5AD4
330
5AAE
100
AcDbEntity
  8
AM_0 外形線1
100
AcDbLine
 10
310.9999999999991
 20
335.0
 30
0.0
 11
233.9999999999991
 21
335.0
 31
0.0
  0
LINE
  5
5AD5
330
5AAE
100
AcDbEntity
  8
AM_0 外形線1
100
AcDbLine
 10
233.4999999999991
 20
335.5
 30
0.0
 11
233.4999999999991
 21
353.3527510000003
 31
0.0
  0
LINE
  5
5AD6
330
5AAE
100
AcDbEntity
  8
AM_7 中心線
100
AcDbLine
 10
171.9999999999991
 20
364.6500000000001
 30
0.0
 11
171.9999999999991
 21
339.0
 31
0.0
  0
ARC
  5
5AD7
330
5AAE
100
AcDbEntity
  8
AM_0 外形線1
100
AcDbCircle
 10
233.9999999999991
 20
335.5
 30
0.0
 40
0.5
100
AcDbArc
 50
180.0
 51
270.0
  0
LINE
  5
5AD8
330
5AAE
100
AcDbEntity
  8
AM_0 外形線1
100
AcDbLine
 10
233.4999999999991
 20
353.3527510000003
 30
0.0
 11
232.4999999999991
 21
354.5248539999998
 31
0.0
  0
LINE
  5
5AD9
330
5AAE
100
AcDbEntity
  8
AM_0 外形線1
100
AcDbLine
 10
316.9999999999991
 20
333.0
 30
0.0
 11
310.9999999999991
 21
335.0
 31
0.0
  0
ARC
  5
5ADA
330
5AAE
100
AcDbEntity
  8
AM_0 外形線1
100
AcDbCircle
 10
434.999999999999
 20
318.0
 30
0.0
 40
15.0
100
AcDbArc
 50
0.0
 51
90.0
  0
LINE
  5
5ADC
330
5AAE
100
AcDbEntity
  8
AM_0 外形線1
100
AcDbLine
 10
0.0
 20
197.5000000000004
 30
0.0
 11
449.9999999999992
 21
197.5000000000004
 31
0.0
  0
ARC
  5
84DD
330
5AAE
100
AcDbEntity
  8
AM_7 中心線
100
AcDbCircle
 10
171.9999999999991
 20
0.0
 30
0.0
 40
352.0003551134573
100
AcDbArc
 50
78.94904711938756
 51
101.1616367783066
  0
ARC
  5
84DE
330
5AAE
100
AcDbEntity
  8
AM_0 外形線1
100
AcDbCircle
 10
171.9999999999991
 20
0.0
 30
0.0
 40
344.0
100
AcDbArc
 50
79.70134784849036
 51
100.2986521515096
  0
ENDBLK
  5
5AB0
330
5AAE
100
AcDbEntity
  8
0
100
AcDbBlockEnd
  0
BLOCK
  5
5FDD
330
5FDC
100
AcDbEntity
  8
0
100
AcDbBlockBegin
  2
*D13
 70
     1
 10
0.0
 20
0.0
 30
0.0
  3
*D13
  1

  0
LINE
  5
5FFC
330
5FDC
100
AcDbEntity
  8
AM_5 寸法線
 62
     3
100
AcDbLine
 10
1587.416129114044
 20
2503.539967572895
 30
0.0
 11
1372.416129114044
 21
2503.539967572895
 31
0.0
  0
LINE
  5
5FFD
330
5FDC
100
AcDbEntity
  8
AM_5 寸法線
 62
     3
100
AcDbLine
 10
1587.416129114044
 20
1788.539967572895
 30
0.0
 11
1372.416129114044
 21
1788.539967572895
 31
0.0
  0
LINE
  5
5FFE
330
5FDC
100
AcDbEntity
  8
AM_5 寸法線
 62
     3
100
AcDbLine
 10
1378.666129114044
 20
2478.539967572895
 30
0.0
 11
1378.666129114044
 21
1813.539967572895
 31
0.0
  0
INSERT
  5
5FFF
330
5FDC
100
AcDbEntity
  8
AM_5 寸法線
 62
     3
100
AcDbBlockReference
  2
_Open30
 10
1378.666129114044
 20
2503.539967572895
 30
0.0
 41
25.0
 42
25.0
 43
25.0
 50
90.0
  0
INSERT
  5
6000
330
5FDC
100
AcDbEntity
  8
AM_5 寸法線
 62
     3
100
AcDbBlockReference
  2
_Open30
 10
1378.666129114044
 20
1788.539967572895
 30
0.0
 41
25.0
 42
25.0
 43
25.0
 50
270.0
  0
MTEXT
  5
6001
330
5FDC
100
AcDbEntity
  8
AM_5 寸法線
 62
     3
100
AcDbMText
 10
1346.166129114044
 20
2146.039967572896
 30
0.0
 40
35.0
 41
0.0
 46
0.0
 71
     5
 72
     1
  1
%%c715
  7
SEISA
 11
0.0000000000000001
 21
1.0
 31
0.0
 73
     1
 44
1.0
  0
POINT
  5
6002
330
5FDC
100
AcDbEntity
  8
Defpoints
 62
     0
100
AcDbPoint
 10
1593.666129114044
 20
2503.539967572895
 30
0.0
  0
POINT
  5
6003
330
5FDC
100
AcDbEntity
  8
Defpoints
 62
     0
100
AcDbPoint
 10
1593.666129114044
 20
1788.539967572895
 30
0.0
  0
POINT
  5
6004
330
5FDC
100
AcDbEntity
  8
Defpoints
 62
     0
100
AcDbPoint
 10
1378.666129114044
 20
1788.539967572895
 30
0.0
  0
ENDBLK
  5
5FDE
330
5FDC
100
AcDbEntity
  8
0
100
AcDbBlockEnd
  0
BLOCK
  5
6008
330
6007
100
AcDbEntity
  8
0
100
AcDbBlockBegin
  2
*D14
 70
     1
 10
0.0
 20
0.0
 30
0.0
  3
*D14
  1

  0
LINE
  5
6014
330
6007
100
AcDbEntity
  8
AM_5 寸法線
 62
     3
100
AcDbLine
 10
1578.666129114044
 20
2152.289967572895
 30
0.0
 11
1578.666129114044
 21
2213.367838572895
 31
0.0
  0
LINE
  5
6015
330
6007
100
AcDbEntity
  8
AM_5 寸法線
 62
     3
100
AcDbLine
 10
2028.666129114045
 20
2152.289967572895
 30
0.0
 11
2028.666129114045
 21
2213.367838572895
 31
0.0
  0
LINE
  5
6016
330
6007
100
AcDbEntity
  8
AM_5 寸法線
 62
     3
100
AcDbLine
 10
1603.666129114044
 20
2207.117838572895
 30
0.0
 11
2003.666129114044
 21
2207.117838572895
 31
0.0
  0
INSERT
  5
6017
330
6007
100
AcDbEntity
  8
AM_5 寸法線
 62
     3
100
AcDbBlockReference
  2
_Open30
 10
1578.666129114044
 20
2207.117838572895
 30
0.0
 41
25.0
 42
25.0
 43
25.0
 50
180.0
  0
INSERT
  5
6018
330
6007
100
AcDbEntity
  8
AM_5 寸法線
 62
     3
100
AcDbBlockReference
  2
_Open30
 10
2028.666129114045
 20
2207.117838572895
 30
0.0
 41
25.0
 42
25.0
 43
25.0
  0
MTEXT
  5
6019
330
6007
100
AcDbEntity
  8
AM_5 寸法線
 62
     3
100
AcDbMText
 10
1803.666129114044
 20
2239.617838572895
 30
0.0
 40
35.0
 41
0.0
 46
0.0
 71
     5
 72
     1
  1
450
  7
SEISA
 73
     1
 44
1.0
  0
POINT
  5
601A
330
6007
100
AcDbEntity
  8
Defpoints
 62
     0
100
AcDbPoint
 10
1578.666129114044
 20
2146.039967572895
 30
0.0
  0
POINT
  5
601B
330
6007
100
AcDbEntity
  8
Defpoints
 62
     0
100
AcDbPoint
 10
2028.666129114045
 20
2146.039967572895
 30
0.0
  0
POINT
  5
601C
330
6007
100
AcDbEntity
  8
Defpoints
 62
     0
100
AcDbPoint
 10
2028.666129114045
 20
2207.117838572895
 30
0.0
  0
ENDBLK
  5
6009
330
6007
100
AcDbEntity
  8
0
100
AcDbBlockEnd
  0
BLOCK
  5
6020
330
601F
100
AcDbEntity
  8
0
100
AcDbBlockBegin
  2
*D15
 70
     1
 10
0.0
 20
0.0
 30
0.0
  3
*D15
  1

  0
LINE
  5
6073
330
601F
100
AcDbEntity
  8
AM_5 寸法線
 62
     3
100
AcDbLine
 10
2060.666129114045
 20
2152.289967572895
 30
0.0
 11
2060.666129114045
 21
2213.367838572895
 31
0.0
  0
LINE
  5
6074
330
601F
100
AcDbEntity
  8
AM_5 寸法線
 62
     3
100
AcDbLine
 10
2028.666129114045
 20
2152.289967572895
 30
0.0
 11
2028.666129114045
 21
2213.367838572895
 31
0.0
  0
LINE
  5
6075
330
601F
100
AcDbEntity
  8
AM_5 寸法線
 62
     3
100
AcDbLine
 10
2085.666129114045
 20
2207.117838572895
 30
0.0
 11
2110.666129114044
 21
2207.117838572895
 31
0.0
  0
LINE
  5
6076
330
601F
100
AcDbEntity
  8
AM_5 寸法線
 62
     3
100
AcDbLine
 10
2003.666129114044
 20
2207.117838572895
 30
0.0
 11
1978.666129114044
 21
2207.117838572895
 31
0.0
  0
MTEXT
  5
6077
330
601F
100
AcDbEntity
  8
AM_5 寸法線
 62
     3
100
AcDbMText
 10
2116.557813687166
 20
2236.753225112778
 30
0.0
 40
35.0
 41
0.0
 46
0.0
 71
     5
 72
     1
  1
32
  7
SEISA
 73
     1
 44
1.0
  0
LINE
  5
6078
330
601F
100
AcDbEntity
  8
AM_5 寸法線
 62
     3
100
AcDbLine
 10
2060.666129114045
 20
2207.117838572895
 30
0.0
 11
2028.666129114045
 21
2207.117838572895
 31
0.0
  0
INSERT
  5
6079
330
601F
100
AcDbEntity
  8
AM_5 寸法線
 62
     3
100
AcDbBlockReference
  2
_Open30
 10
2060.666129114045
 20
2207.117838572895
 30
0.0
 41
25.0
 42
25.0
 43
25.0
 50
180.0
  0
INSERT
  5
607A
330
601F
100
AcDbEntity
  8
AM_5 寸法線
 62
     3
100
AcDbBlockReference
  2
_Open30
 10
2028.666129114045
 20
2207.117838572895
 30
0.0
 41
25.0
 42
25.0
 43
25.0
  0
POINT
  5
607B
330
601F
100
AcDbEntity
  8
Defpoints
 62
     0
100
AcDbPoint
 10
2060.666129114045
 20
2146.039967572895
 30
0.0
  0
POINT
  5
607C
330
601F
100
AcDbEntity
  8
Defpoints
 62
     0
100
AcDbPoint
 10
2028.666129114045
 20
2146.039967572895
 30
0.0
  0
POINT
  5
607D
330
601F
100
AcDbEntity
  8
Defpoints
 62
     0
100
AcDbPoint
 10
2028.666129114045
 20
2207.117838572895
 30
0.0
  0
ENDBLK
  5
6021
330
601F
100
AcDbEntity
  8
0
100
AcDbBlockEnd
  0
BLOCK
  5
6052
330
6051
100
AcDbEntity
  8
0
100
AcDbBlockBegin
  2
*D16
 70
     1
 10
0.0
 20
0.0
 30
0.0
  3
*D16
  1

  0
LINE
  5
605E
330
6051
100
AcDbEntity
  8
AM_5 寸法線
 62
     3
100
AcDbLine
 10
2060.666129114045
 20
2152.289967572895
 30
0.0
 11
2060.666129114045
 21
2213.367838572895
 31
0.0
  0
LINE
  5
605F
330
6051
100
AcDbEntity
  8
AM_5 寸法線
 62
     3
100
AcDbLine
 10
2510.666129114044
 20
2152.289967572895
 30
0.0
 11
2510.666129114044
 21
2213.367838572895
 31
0.0
  0
LINE
  5
6060
330
6051
100
AcDbEntity
  8
AM_5 寸法線
 62
     3
100
AcDbLine
 10
2085.666129114045
 20
2207.117838572895
 30
0.0
 11
2485.666129114044
 21
2207.117838572895
 31
0.0
  0
INSERT
  5
6061
330
6051
100
AcDbEntity
  8
AM_5 寸法線
 62
     3
100
AcDbBlockReference
  2
_Open30
 10
2060.666129114045
 20
2207.117838572895
 30
0.0
 41
25.0
 42
25.0
 43
25.0
 50
180.0
  0
INSERT
  5
6062
330
6051
100
AcDbEntity
  8
AM_5 寸法線
 62
     3
100
AcDbBlockReference
  2
_Open30
 10
2510.666129114044
 20
2207.117838572895
 30
0.0
 41
25.0
 42
25.0
 43
25.0
  0
MTEXT
  5
6063
330
6051
100
AcDbEntity
  8
AM_5 寸法線
 62
     3
100
AcDbMText
 10
2285.666129114044
 20
2239.617838572895
 30
0.0
 40
35.0
 41
0.0
 46
0.0
 71
     5
 72
     1
  1
450
  7
SEISA
 73
     1
 44
1.0
  0
POINT
  5
6064
330
6051
100
AcDbEntity
  8
Defpoints
 62
     0
100
AcDbPoint
 10
2060.666129114045
 20
2146.039967572895
 30
0.0
  0
POINT
  5
6065
330
6051
100
AcDbEntity
  8
Defpoints
 62
     0
100
AcDbPoint
 10
2510.666129114044
 20
2146.039967572895
 30
0.0
  0
POINT
  5
6066
330
6051
100
AcDbEntity
  8
Defpoints
 62
     0
100
AcDbPoint
 10
2510.666129114044
 20
2207.117838572895
 30
0.0
  0
ENDBLK
  5
6053
330
6051
100
AcDbEntity
  8
0
100
AcDbBlockEnd
  0
BLOCK
  5
6098
330
6097
100
AcDbEntity
  8
0
100
AcDbBlockBegin
  2
*D17
 70
     1
 10
0.0
 20
0.0
 30
0.0
  3
*D17
  1

  0
LINE
  5
85B1
330
6097
100
AcDbEntity
  8
AM_5 寸法線
 62
     3
100
AcDbLine
 10
2304.666129114044
 20
2474.789967572895
 30
0.0
 11
2304.666129114044
 21
2382.395505666036
 31
0.0
  0
LINE
  5
85B2
330
6097
100
AcDbEntity
  8
AM_5 寸法線
 62
     3
100
AcDbLine
 10
2294.166129114043
 20
2475.289967572895
 30
0.0
 11
2294.166129114043
 21
2382.395505666036
 31
0.0
  0
LINE
  5
85B3
330
6097
100
AcDbEntity
  8
AM_5 寸法線
 62
     3
100
AcDbLine
 10
2269.166129114043
 20
2388.645505666036
 30
0.0
 11
2244.166129114043
 21
2388.645505666036
 31
0.0
  0
LINE
  5
85B4
330
6097
100
AcDbEntity
  8
AM_5 寸法線
 62
     3
100
AcDbLine
 10
2329.666129114043
 20
2388.645505666036
 30
0.0
 11
2476.166129114044
 21
2388.645505666036
 31
0.0
  0
LINE
  5
85B5
330
6097
100
AcDbEntity
  8
AM_5 寸法線
 62
     3
100
AcDbLine
 10
2294.166129114043
 20
2388.645505666036
 30
0.0
 11
2304.666129114044
 21
2388.645505666036
 31
0.0
  0
INSERT
  5
85B6
330
6097
100
AcDbEntity
  8
AM_5 寸法線
 62
     3
100
AcDbBlockReference
  2
_Open30
 10
2294.166129114043
 20
2388.645505666036
 30
0.0
 41
25.0
 42
25.0
 43
25.0
  0
INSERT
  5
85B7
330
6097
100
AcDbEntity
  8
AM_5 寸法線
 62
     3
100
AcDbBlockReference
  2
_Open30
 10
2304.666129114044
 20
2388.645505666036
 30
0.0
 41
25.0
 42
25.0
 43
25.0
 50
180.0
  0
MTEXT
  5
85B8
330
6097
100
AcDbEntity
  8
AM_5 寸法線
 62
     3
100
AcDbMText
 10
2415.416129114044
 20
2421.145505666036
 30
0.0
 40
35.0
 41
0.0
 46
0.0
 71
     5
 72
     1
  1
10.5
  7
SEISA
 73
     1
 44
1.0
  0
POINT
  5
85B9
330
6097
100
AcDbEntity
  8
Defpoints
 62
     0
100
AcDbPoint
 10
2304.666129114044
 20
2481.039967572895
 30
0.0
  0
POINT
  5
85BA
330
6097
100
AcDbEntity
  8
Defpoints
 62
     0
100
AcDbPoint
 10
2294.166129114043
 20
2481.539967572895
 30
0.0
  0
POINT
  5
85BB
330
6097
100
AcDbEntity
  8
Defpoints
 62
     0
100
AcDbPoint
 10
2294.166129114043
 20
2388.645505666036
 30
0.0
  0
ENDBLK
  5
6099
330
6097
100
AcDbEntity
  8
0
100
AcDbBlockEnd
  0
BLOCK
  5
6156
330
6155
100
AcDbEntity
  8
0
100
AcDbBlockBegin
  2
*D18
 70
     1
 10
0.0
 20
0.0
 30
0.0
  3
*D18
  1

  0
LINE
  5
61ED
330
6155
100
AcDbEntity
  8
AM_5 寸法線
 62
     3
100
AcDbLine
 10
2377.916129114044
 20
2481.039967572895
 30
0.0
 11
2716.916129114043
 21
2481.039967572895
 31
0.0
  0
LINE
  5
61EE
330
6155
100
AcDbEntity
  8
AM_5 寸法線
 62
     3
100
AcDbLine
 10
2377.916129114044
 20
1811.039967572895
 30
0.0
 11
2716.916129114043
 21
1811.039967572895
 31
0.0
  0
LINE
  5
61EF
330
6155
100
AcDbEntity
  8
AM_5 寸法線
 62
     3
100
AcDbLine
 10
2710.666129114043
 20
2456.039967572895
 30
0.0
 11
2710.666129114043
 21
1836.039967572895
 31
0.0
  0
INSERT
  5
61F0
330
6155
100
AcDbEntity
  8
AM_5 寸法線
 62
     3
100
AcDbBlockReference
  2
_Open30
 10
2710.666129114043
 20
2481.039967572895
 30
0.0
 41
25.0
 42
25.0
 43
25.0
 50
90.0
  0
INSERT
  5
61F1
330
6155
100
AcDbEntity
  8
AM_5 寸法線
 62
     3
100
AcDbBlockReference
  2
_Open30
 10
2710.666129114043
 20
1811.039967572895
 30
0.0
 41
25.0
 42
25.0
 43
25.0
 50
270.0
  0
MTEXT
  5
61F2
330
6155
100
AcDbEntity
  8
AM_5 寸法線
 62
     3
100
AcDbMText
 10
2678.166129114043
 20
2146.039967572896
 30
0.0
 40
35.0
 41
0.0
 46
0.0
 71
     5
 72
     1
  1
%%c670
  7
SEISA
 11
0.0000000000000001
 21
1.0
 31
0.0
 73
     1
 44
1.0
  0
POINT
  5
61F3
330
6155
100
AcDbEntity
  8
Defpoints
 62
     0
100
AcDbPoint
 10
2371.666129114044
 20
2481.039967572895
 30
0.0
  0
POINT
  5
61F4
330
6155
100
AcDbEntity
  8
Defpoints
 62
     0
100
AcDbPoint
 10
2371.666129114044
 20
1811.039967572895
 30
0.0
  0
POINT
  5
61F5
330
6155
100
AcDbEntity
  8
Defpoints
 62
     0
100
AcDbPoint
 10
2710.666129114043
 20
1811.039967572895
 30
0.0
  0
ENDBLK
  5
6157
330
6155
100
AcDbEntity
  8
0
100
AcDbBlockEnd
  0
BLOCK
  5
616E
330
616D
100
AcDbEntity
  8
0
100
AcDbBlockBegin
  2
*D19
 70
     1
 10
0.0
 20
0.0
 30
0.0
  3
*D19
  1

  0
LINE
  5
61F6
330
616D
100
AcDbEntity
  8
AM_5 寸法線
 62
     3
100
AcDbLine
 10
2345.916129114044
 20
2542.039967572895
 30
0.0
 11
2796.916129114044
 21
2542.039967572895
 31
0.0
  0
LINE
  5
61F7
330
616D
100
AcDbEntity
  8
AM_5 寸法線
 62
     3
100
AcDbLine
 10
2345.916129114044
 20
1750.039967572895
 30
0.0
 11
2796.916129114044
 21
1750.039967572894
 31
0.0
  0
LINE
  5
61F8
330
616D
100
AcDbEntity
  8
AM_5 寸法線
 62
     3
100
AcDbLine
 10
2790.666129114044
 20
2517.039967572895
 30
0.0
 11
2790.666129114044
 21
1775.039967572894
 31
0.0
  0
INSERT
  5
61F9
330
616D
100
AcDbEntity
  8
AM_5 寸法線
 62
     3
100
AcDbBlockReference
  2
_Open30
 10
2790.666129114044
 20
2542.039967572895
 30
0.0
 41
25.0
 42
25.0
 43
25.0
 50
90.0
  0
INSERT
  5
61FA
330
616D
100
AcDbEntity
  8
AM_5 寸法線
 62
     3
100
AcDbBlockReference
  2
_Open30
 10
2790.666129114044
 20
1750.039967572894
 30
0.0
 41
25.0
 42
25.0
 43
25.0
 50
270.0
  0
MTEXT
  5
61FB
330
616D
100
AcDbEntity
  8
AM_5 寸法線
 62
     3
100
AcDbMText
 10
2758.166129114043
 20
2146.039967572896
 30
0.0
 40
35.0
 41
0.0
 46
0.0
 71
     5
 72
     1
  1
%%c792
  7
SEISA
 11
0.0000000000000001
 21
1.0
 31
0.0
 73
     1
 44
1.0
  0
POINT
  5
61FC
330
616D
100
AcDbEntity
  8
Defpoints
 62
     0
100
AcDbPoint
 10
2339.666129114044
 20
2542.039967572895
 30
0.0
  0
POINT
  5
61FD
330
616D
100
AcDbEntity
  8
Defpoints
 62
     0
100
AcDbPoint
 10
2339.666129114044
 20
1750.039967572895
 30
0.0
  0
POINT
  5
61FE
330
616D
100
AcDbEntity
  8
Defpoints
 62
     0
100
AcDbPoint
 10
2790.666129114044
 20
1750.039967572894
 30
0.0
  0
ENDBLK
  5
616F
330
616D
100
AcDbEntity
  8
0
100
AcDbBlockEnd
  0
BLOCK
  5
6186
330
6185
100
AcDbEntity
  8
0
100
AcDbBlockBegin
  2
*D20
 70
     1
 10
0.0
 20
0.0
 30
0.0
  3
*D20
  1

  0
LINE
  5
61FF
330
6185
100
AcDbEntity
  8
AM_5 寸法線
 62
     3
100
AcDbLine
 10
2087.916129114043
 20
2596.039967572895
 30
0.0
 11
2876.916129114043
 21
2596.039967572895
 31
0.0
  0
LINE
  5
6200
330
6185
100
AcDbEntity
  8
AM_5 寸法線
 62
     3
100
AcDbLine
 10
2087.916129114043
 20
1696.039967572895
 30
0.0
 11
2876.916129114043
 21
1696.039967572894
 31
0.0
  0
LINE
  5
6201
330
6185
100
AcDbEntity
  8
AM_5 寸法線
 62
     3
100
AcDbLine
 10
2870.666129114044
 20
2571.039967572895
 30
0.0
 11
2870.666129114044
 21
1721.039967572895
 31
0.0
  0
INSERT
  5
6202
330
6185
100
AcDbEntity
  8
AM_5 寸法線
 62
     3
100
AcDbBlockReference
  2
_Open30
 10
2870.666129114044
 20
2596.039967572895
 30
0.0
 41
25.0
 42
25.0
 43
25.0
 50
90.0
  0
INSERT
  5
6203
330
6185
100
AcDbEntity
  8
AM_5 寸法線
 62
     3
100
AcDbBlockReference
  2
_Open30
 10
2870.666129114044
 20
1696.039967572894
 30
0.0
 41
25.0
 42
25.0
 43
25.0
 50
270.0
  0
MTEXT
  5
6204
330
6185
100
AcDbEntity
  8
AM_5 寸法線
 62
     3
100
AcDbMText
 10
2838.166129114043
 20
2146.039967572896
 30
0.0
 40
35.0
 41
0.0
 46
0.0
 71
     5
 72
     1
  1
%%c900
  7
SEISA
 11
0.0000000000000001
 21
1.0
 31
0.0
 73
     1
 44
1.0
  0
POINT
  5
6205
330
6185
100
AcDbEntity
  8
Defpoints
 62
     0
100
AcDbPoint
 10
2081.666129114044
 20
2596.039967572895
 30
0.0
  0
POINT
  5
6206
330
6185
100
AcDbEntity
  8
Defpoints
 62
     0
100
AcDbPoint
 10
2081.666129114044
 20
1696.039967572895
 30
0.0
  0
POINT
  5
6207
330
6185
100
AcDbEntity
  8
Defpoints
 62
     0
100
AcDbPoint
 10
2870.666129114044
 20
1696.039967572894
 30
0.0
  0
ENDBLK
  5
6187
330
6185
100
AcDbEntity
  8
0
100
AcDbBlockEnd
  0
BLOCK
  5
62D6
330
62D5
100
AcDbEntity
  8
0
100
AcDbBlockBegin
  2
*D21
 70
     1
 10
0.0
 20
0.0
 30
0.0
  3
*D21
  1

  0
LINE
  5
636C
330
62D5
100
AcDbEntity
  8
AM_5 寸法線
 62
     3
100
AcDbLine
 10
2044.666129114045
 20
1690.789967572895
 30
0.0
 11
2044.666129114045
 21
1593.789967572895
 31
0.0
  0
LINE
  5
636D
330
62D5
100
AcDbEntity
  8
AM_5 寸法線
 62
     3
100
AcDbLine
 10
2006.666129114044
 20
1692.289967572895
 30
0.0
 11
2006.666129114044
 21
1593.789967572895
 31
0.0
  0
LINE
  5
636E
330
62D5
100
AcDbEntity
  8
AM_5 寸法線
 62
     3
100
AcDbLine
 10
2069.666129114045
 20
1600.039967572895
 30
0.0
 11
2094.666129114044
 21
1600.039967572895
 31
0.0
  0
LINE
  5
636F
330
62D5
100
AcDbEntity
  8
AM_5 寸法線
 62
     3
100
AcDbLine
 10
1981.666129114044
 20
1600.039967572895
 30
0.0
 11
1875.666129114044
 21
1600.039967572895
 31
0.0
  0
LINE
  5
6370
330
62D5
100
AcDbEntity
  8
AM_5 寸法線
 62
     3
100
AcDbLine
 10
2044.666129114045
 20
1600.039967572895
 30
0.0
 11
2006.666129114044
 21
1600.039967572895
 31
0.0
  0
INSERT
  5
6371
330
62D5
100
AcDbEntity
  8
AM_5 寸法線
 62
     3
100
AcDbBlockReference
  2
GENDOT
 10
2044.666129114045
 20
1600.039967572895
 30
0.0
 41
25.0
 42
25.0
 43
25.0
 50
180.0
  0
INSERT
  5
6372
330
62D5
100
AcDbEntity
  8
AM_5 寸法線
 62
     3
100
AcDbBlockReference
  2
_Open30
 10
2006.666129114044
 20
1600.039967572895
 30
0.0
 41
25.0
 42
25.0
 43
25.0
  0
MTEXT
  5
6373
330
62D5
100
AcDbEntity
  8
AM_5 寸法線
 62
     3
100
AcDbMText
 10
1916.166129114044
 20
1632.539967572895
 30
0.0
 40
35.0
 41
0.0
 46
0.0
 71
     5
 72
     1
  1
38
  7
SEISA
 73
     1
 44
1.0
  0
POINT
  5
6374
330
62D5
100
AcDbEntity
  8
Defpoints
 62
     0
100
AcDbPoint
 10
2044.666129114045
 20
1697.039967572895
 30
0.0
  0
POINT
  5
6375
330
62D5
100
AcDbEntity
  8
Defpoints
 62
     0
100
AcDbPoint
 10
2006.666129114044
 20
1698.539967572895
 30
0.0
  0
POINT
  5
6376
330
62D5
100
AcDbEntity
  8
Defpoints
 62
     0
100
AcDbPoint
 10
2006.666129114044
 20
1600.039967572895
 30
0.0
  0
ENDBLK
  5
62D7
330
62D5
100
AcDbEntity
  8
0
100
AcDbBlockEnd
  0
BLOCK
  5
62F2
330
62F1
100
AcDbEntity
  8
0
100
AcDbBlockBegin
  2
*D22
 70
     1
 10
0.0
 20
0.0
 30
0.0
  3
*D22
  1

  0
LINE
  5
6382
330
62F1
100
AcDbEntity
  8
AM_5 寸法線
 62
     3
100
AcDbLine
 10
2044.666129114045
 20
1690.789967572895
 30
0.0
 11
2044.666129114045
 21
1593.789967572895
 31
0.0
  0
LINE
  5
6383
330
62F1
100
AcDbEntity
  8
AM_5 寸法線
 62
     3
100
AcDbLine
 10
2082.666129114044
 20
1690.789967572895
 30
0.0
 11
2082.666129114044
 21
1593.789967572895
 31
0.0
  0
LINE
  5
6384
330
62F1
100
AcDbEntity
  8
AM_5 寸法線
 62
     3
100
AcDbLine
 10
2019.666129114044
 20
1600.039967572895
 30
0.0
 11
1994.666129114044
 21
1600.039967572895
 31
0.0
  0
LINE
  5
6385
330
62F1
100
AcDbEntity
  8
AM_5 寸法線
 62
     3
100
AcDbLine
 10
2107.666129114043
 20
1600.039967572895
 30
0.0
 11
2213.666129114043
 21
1600.039967572895
 31
0.0
  0
LINE
  5
6386
330
62F1
100
AcDbEntity
  8
AM_5 寸法線
 62
     3
100
AcDbLine
 10
2044.666129114045
 20
1600.039967572895
 30
0.0
 11
2082.666129114044
 21
1600.039967572895
 31
0.0
  0
INSERT
  5
6387
330
62F1
100
AcDbEntity
  8
AM_5 寸法線
 62
     3
100
AcDbBlockReference
  2
GENDOT
 10
2044.666129114045
 20
1600.039967572895
 30
0.0
 41
25.0
 42
25.0
 43
25.0
  0
INSERT
  5
6388
330
62F1
100
AcDbEntity
  8
AM_5 寸法線
 62
     3
100
AcDbBlockReference
  2
_Open30
 10
2082.666129114044
 20
1600.039967572895
 30
0.0
 41
25.0
 42
25.0
 43
25.0
 50
180.0
  0
MTEXT
  5
6389
330
62F1
100
AcDbEntity
  8
AM_5 寸法線
 62
     3
100
AcDbMText
 10
2173.166129114044
 20
1632.539967572895
 30
0.0
 40
35.0
 41
0.0
 46
0.0
 71
     5
 72
     1
  1
38
  7
SEISA
 73
     1
 44
1.0
  0
POINT
  5
638A
330
62F1
100
AcDbEntity
  8
Defpoints
 62
     0
100
AcDbPoint
 10
2044.666129114045
 20
1697.039967572895
 30
0.0
  0
POINT
  5
638B
330
62F1
100
AcDbEntity
  8
Defpoints
 62
     0
100
AcDbPoint
 10
2082.666129114044
 20
1697.039967572895
 30
0.0
  0
POINT
  5
638C
330
62F1
100
AcDbEntity
  8
Defpoints
 62
     0
100
AcDbPoint
 10
2082.666129114044
 20
1600.039967572895
 30
0.0
  0
ENDBLK
  5
62F3
330
62F1
100
AcDbEntity
  8
0
100
AcDbBlockEnd
  0
BLOCK
  5
63A1
330
63A0
100
AcDbEntity
  8
0
100
AcDbBlockBegin
  2
*D23
 70
     1
 10
0.0
 20
0.0
 30
0.0
  3
*D23
  1

  0
LINE
  5
63AD
330
63A0
100
AcDbEntity
  8
AM_5 寸法線
 62
     3
100
AcDbLine
 10
2044.666129114045
 20
1690.789967572895
 30
0.0
 11
2044.666129114045
 21
1513.789967572895
 31
0.0
  0
LINE
  5
63AE
330
63A0
100
AcDbEntity
  8
AM_5 寸法線
 62
     3
100
AcDbLine
 10
2339.666129114044
 20
1743.789967572895
 30
0.0
 11
2339.666129114044
 21
1513.789967572895
 31
0.0
  0
LINE
  5
63AF
330
63A0
100
AcDbEntity
  8
AM_5 寸法線
 62
     3
100
AcDbLine
 10
2069.666129114045
 20
1520.039967572895
 30
0.0
 11
2314.666129114044
 21
1520.039967572895
 31
0.0
  0
INSERT
  5
63B0
330
63A0
100
AcDbEntity
  8
AM_5 寸法線
 62
     3
100
AcDbBlockReference
  2
_Open30
 10
2044.666129114045
 20
1520.039967572895
 30
0.0
 41
25.0
 42
25.0
 43
25.0
 50
180.0
  0
INSERT
  5
63B1
330
63A0
100
AcDbEntity
  8
AM_5 寸法線
 62
     3
100
AcDbBlockReference
  2
_Open30
 10
2339.666129114044
 20
1520.039967572895
 30
0.0
 41
25.0
 42
25.0
 43
25.0
  0
MTEXT
  5
63B2
330
63A0
100
AcDbEntity
  8
AM_5 寸法線
 62
     3
100
AcDbMText
 10
2192.166129114044
 20
1552.539967572895
 30
0.0
 40
35.0
 41
0.0
 46
0.0
 71
     5
 72
     1
  1
295
  7
SEISA
 73
     1
 44
1.0
  0
POINT
  5
63B3
330
63A0
100
AcDbEntity
  8
Defpoints
 62
     0
100
AcDbPoint
 10
2044.666129114045
 20
1697.039967572895
 30
0.0
  0
POINT
  5
63B4
330
63A0
100
AcDbEntity
  8
Defpoints
 62
     0
100
AcDbPoint
 10
2339.666129114044
 20
1750.039967572895
 30
0.0
  0
POINT
  5
63B5
330
63A0
100
AcDbEntity
  8
Defpoints
 62
     0
100
AcDbPoint
 10
2339.666129114044
 20
1520.039967572895
 30
0.0
  0
ENDBLK
  5
63A2
330
63A0
100
AcDbEntity
  8
0
100
AcDbBlockEnd
  0
BLOCK
  5
63B9
330
63B8
100
AcDbEntity
  8
0
100
AcDbBlockBegin
  2
*D24
 70
     1
 10
0.0
 20
0.0
 30
0.0
  3
*D24
  1

  0
LINE
  5
63C5
330
63B8
100
AcDbEntity
  8
AM_5 寸法線
 62
     3
100
AcDbLine
 10
2044.666129114045
 20
1690.789967572895
 30
0.0
 11
2044.666129114045
 21
1513.789967572895
 31
0.0
  0
LINE
  5
63C6
330
63B8
100
AcDbEntity
  8
AM_5 寸法線
 62
     3
100
AcDbLine
 10
1578.666129114044
 20
1797.289967572895
 30
0.0
 11
1578.666129114044
 21
1513.789967572895
 31
0.0
  0
LINE
  5
63C7
330
63B8
100
AcDbEntity
  8
AM_5 寸法線
 62
     3
100
AcDbLine
 10
2019.666129114044
 20
1520.039967572895
 30
0.0
 11
1603.666129114044
 21
1520.039967572895
 31
0.0
  0
INSERT
  5
63C8
330
63B8
100
AcDbEntity
  8
AM_5 寸法線
 62
     3
100
AcDbBlockReference
  2
_Open30
 10
2044.666129114045
 20
1520.039967572895
 30
0.0
 41
25.0
 42
25.0
 43
25.0
  0
INSERT
  5
63C9
330
63B8
100
AcDbEntity
  8
AM_5 寸法線
 62
     3
100
AcDbBlockReference
  2
_Open30
 10
1578.666129114044
 20
1520.039967572895
 30
0.0
 41
25.0
 42
25.0
 43
25.0
 50
180.0
  0
MTEXT
  5
63CA
330
63B8
100
AcDbEntity
  8
AM_5 寸法線
 62
     3
100
AcDbMText
 10
1811.666129114044
 20
1552.539967572895
 30
0.0
 40
35.0
 41
0.0
 46
0.0
 71
     5
 72
     1
  1
466
  7
SEISA
 73
     1
 44
1.0
  0
POINT
  5
63CB
330
63B8
100
AcDbEntity
  8
Defpoints
 62
     0
100
AcDbPoint
 10
2044.666129114045
 20
1697.039967572895
 30
0.0
  0
POINT
  5
63CC
330
63B8
100
AcDbEntity
  8
Defpoints
 62
     0
100
AcDbPoint
 10
1578.666129114044
 20
1803.539967572895
 30
0.0
  0
POINT
  5
63CD
330
63B8
100
AcDbEntity
  8
Defpoints
 62
     0
100
AcDbPoint
 10
1578.666129114044
 20
1520.039967572895
 30
0.0
  0
ENDBLK
  5
63BA
330
63B8
100
AcDbEntity
  8
0
100
AcDbBlockEnd
  0
BLOCK
  5
63D1
330
63D0
100
AcDbEntity
  8
0
100
AcDbBlockBegin
  2
*D25
 70
     1
 10
0.0
 20
0.0
 30
0.0
  3
*D25
  1

  0
LINE
  5
63DD
330
63D0
100
AcDbEntity
  8
AM_5 寸法線
 62
     3
100
AcDbLine
 10
2339.666129114044
 20
1743.789967572895
 30
0.0
 11
2339.666129114044
 21
1513.789967572895
 31
0.0
  0
LINE
  5
63DE
330
63D0
100
AcDbEntity
  8
AM_5 寸法線
 62
     3
100
AcDbLine
 10
2510.666129114044
 20
1821.789967572895
 30
0.0
 11
2510.666129114044
 21
1513.789967572895
 31
0.0
  0
LINE
  5
63DF
330
63D0
100
AcDbEntity
  8
AM_5 寸法線
 62
     3
100
AcDbLine
 10
2364.666129114044
 20
1520.039967572895
 30
0.0
 11
2485.666129114044
 21
1520.039967572895
 31
0.0
  0
INSERT
  5
63E0
330
63D0
100
AcDbEntity
  8
AM_5 寸法線
 62
     3
100
AcDbBlockReference
  2
_Open30
 10
2339.666129114044
 20
1520.039967572895
 30
0.0
 41
25.0
 42
25.0
 43
25.0
 50
180.0
  0
INSERT
  5
63E1
330
63D0
100
AcDbEntity
  8
AM_5 寸法線
 62
     3
100
AcDbBlockReference
  2
_Open30
 10
2510.666129114044
 20
1520.039967572895
 30
0.0
 41
25.0
 42
25.0
 43
25.0
  0
MTEXT
  5
63E2
330
63D0
100
AcDbEntity
  8
AM_5 寸法線
 62
     3
100
AcDbMText
 10
2425.166129114044
 20
1552.539967572895
 30
0.0
 40
35.0
 41
0.0
 46
0.0
 71
     5
 72
     1
  1
171
  7
SEISA
 73
     1
 44
1.0
  0
POINT
  5
63E3
330
63D0
100
AcDbEntity
  8
Defpoints
 62
     0
100
AcDbPoint
 10
2339.666129114044
 20
1750.039967572895
 30
0.0
  0
POINT
  5
63E4
330
63D0
100
AcDbEntity
  8
Defpoints
 62
     0
100
AcDbPoint
 10
2510.666129114044
 20
1828.039967572895
 30
0.0
  0
POINT
  5
63E5
330
63D0
100
AcDbEntity
  8
Defpoints
 62
     0
100
AcDbPoint
 10
2510.666129114044
 20
1520.039967572895
 30
0.0
  0
ENDBLK
  5
63D2
330
63D0
100
AcDbEntity
  8
0
100
AcDbBlockEnd
  0
BLOCK
  5
63E9
330
63E8
100
AcDbEntity
  8
0
100
AcDbBlockBegin
  2
*D26
 70
     1
 10
0.0
 20
0.0
 30
0.0
  3
*D26
  1

  0
LINE
  5
63F5
330
63E8
100
AcDbEntity
  8
AM_5 寸法線
 62
     3
100
AcDbLine
 10
1578.666129114044
 20
1797.289967572895
 30
0.0
 11
1578.666129114044
 21
1433.789967572895
 31
0.0
  0
LINE
  5
63F6
330
63E8
100
AcDbEntity
  8
AM_5 寸法線
 62
     3
100
AcDbLine
 10
2510.666129114044
 20
1821.789967572895
 30
0.0
 11
2510.666129114044
 21
1433.789967572895
 31
0.0
  0
LINE
  5
63F7
330
63E8
100
AcDbEntity
  8
AM_5 寸法線
 62
     3
100
AcDbLine
 10
1603.666129114044
 20
1440.039967572895
 30
0.0
 11
2485.666129114044
 21
1440.039967572895
 31
0.0
  0
INSERT
  5
63F8
330
63E8
100
AcDbEntity
  8
AM_5 寸法線
 62
     3
100
AcDbBlockReference
  2
_Open30
 10
1578.666129114044
 20
1440.039967572895
 30
0.0
 41
25.0
 42
25.0
 43
25.0
 50
180.0
  0
INSERT
  5
63F9
330
63E8
100
AcDbEntity
  8
AM_5 寸法線
 62
     3
100
AcDbBlockReference
  2
_Open30
 10
2510.666129114044
 20
1440.039967572895
 30
0.0
 41
25.0
 42
25.0
 43
25.0
  0
MTEXT
  5
63FA
330
63E8
100
AcDbEntity
  8
AM_5 寸法線
 62
     3
100
AcDbMText
 10
2044.666129114044
 20
1472.539967572895
 30
0.0
 40
35.0
 41
0.0
 46
0.0
 71
     5
 72
     1
  1
932
  7
SEISA
 73
     1
 44
1.0
  0
POINT
  5
63FB
330
63E8
100
AcDbEntity
  8
Defpoints
 62
     0
100
AcDbPoint
 10
1578.666129114044
 20
1803.539967572895
 30
0.0
  0
POINT
  5
63FC
330
63E8
100
AcDbEntity
  8
Defpoints
 62
     0
100
AcDbPoint
 10
2510.666129114044
 20
1828.039967572895
 30
0.0
  0
POINT
  5
63FD
330
63E8
100
AcDbEntity
  8
Defpoints
 62
     0
100
AcDbPoint
 10
2510.666129114044
 20
1440.039967572895
 30
0.0
  0
ENDBLK
  5
63EA
330
63E8
100
AcDbEntity
  8
0
100
AcDbBlockEnd
  0
BLOCK
  5
8452
330
8451
100
AcDbEntity
  8
0
100
AcDbBlockBegin
  2
*D27
 70
     1
 10
0.0
 20
0.0
 30
0.0
  3
*D27
  1

  0
LINE
  5
8471
330
8451
100
AcDbEntity
  8
AM_5 寸法線
 62
     3
100
AcDbLine
 10
2510.666129114044
 20
2470.289967572895
 30
0.0
 11
2510.666129114044
 21
2639.379721246367
 31
0.0
  0
LINE
  5
8472
330
8451
100
AcDbEntity
  8
AM_5 寸法線
 62
     3
100
AcDbLine
 10
2600.666129114044
 20
2548.289967572895
 30
0.0
 11
2600.666129114044
 21
2639.379721246367
 31
0.0
  0
LINE
  5
8473
330
8451
100
AcDbEntity
  8
AM_5 寸法線
 62
     3
100
AcDbLine
 10
2535.666129114044
 20
2633.129721246367
 30
0.0
 11
2575.666129114044
 21
2633.129721246367
 31
0.0
  0
INSERT
  5
8474
330
8451
100
AcDbEntity
  8
AM_5 寸法線
 62
     3
100
AcDbBlockReference
  2
_Open30
 10
2510.666129114044
 20
2633.129721246367
 30
0.0
 41
25.0
 42
25.0
 43
25.0
 50
180.0
  0
INSERT
  5
8475
330
8451
100
AcDbEntity
  8
AM_5 寸法線
 62
     3
100
AcDbBlockReference
  2
_Open30
 10
2600.666129114044
 20
2633.129721246367
 30
0.0
 41
25.0
 42
25.0
 43
25.0
  0
MTEXT
  5
8476
330
8451
100
AcDbEntity
  8
AM_5 寸法線
 62
     3
100
AcDbMText
 10
2555.666129114044
 20
2665.629721246367
 30
0.0
 40
35.0
 41
0.0
 46
0.0
 71
     5
 72
     1
  1
90
  7
SEISA
 73
     1
 44
1.0
  0
POINT
  5
8477
330
8451
100
AcDbEntity
  8
Defpoints
 62
     0
100
AcDbPoint
 10
2510.666129114044
 20
2464.039967572895
 30
0.0
  0
POINT
  5
8478
330
8451
100
AcDbEntity
  8
Defpoints
 62
     0
100
AcDbPoint
 10
2600.666129114044
 20
2542.039967572895
 30
0.0
  0
POINT
  5
8479
330
8451
100
AcDbEntity
  8
Defpoints
 62
     0
100
AcDbPoint
 10
2600.666129114044
 20
2633.129721246367
 30
0.0
  0
ENDBLK
  5
8453
330
8451
100
AcDbEntity
  8
0
100
AcDbBlockEnd
  0
BLOCK
  5
8546
330
8545
100
AcDbEntity
  8
0
100
AcDbBlockBegin
  2
*D28
 70
     1
 10
0.0
 20
0.0
 30
0.0
  3
*D28
  1

  0
LINE
  5
85A6
330
8545
100
AcDbEntity
  8
AM_5 寸法線
 62
     3
100
AcDbLine
 10
2060.666129114045
 20
2472.789967572895
 30
0.0
 11
2060.666129114045
 21
2382.395505666037
 31
0.0
  0
LINE
  5
85A7
330
8545
100
AcDbEntity
  8
AM_5 寸法線
 62
     3
100
AcDbLine
 10
2171.166129114044
 20
2475.289967572895
 30
0.0
 11
2171.166129114044
 21
2382.395505666037
 31
0.0
  0
LINE
  5
85A8
330
8545
100
AcDbEntity
  8
AM_5 寸法線
 62
     3
100
AcDbLine
 10
2085.666129114045
 20
2388.645505666037
 30
0.0
 11
2146.166129114044
 21
2388.645505666037
 31
0.0
  0
LINE
  5
85A9
330
8545
100
AcDbEntity
  8
AM_5 寸法線
 62
     3
100
AcDbLine
 10
2115.916129114044
 20
2388.645505666037
 30
0.0
 11
2112.54797689572
 21
2277.040235132582
 31
0.0
  0
LINE
  5
85AA
330
8545
100
AcDbEntity
  8
AM_5 寸法線
 62
     3
100
AcDbLine
 10
2112.54797689572
 20
2277.040235132582
 30
0.0
 11
2264.047976895721
 21
2277.040235132582
 31
0.0
  0
MTEXT
  5
85AB
330
8545
100
AcDbEntity
  8
AM_5 寸法線
 62
     3
100
AcDbMText
 10
2188.297976895722
 20
2309.540235132581
 30
0.0
 40
35.0
 41
0.0
 46
0.0
 71
     5
 72
     1
  1
110.5
  7
SEISA
 73
     1
 44
1.0
  0
INSERT
  5
85AC
330
8545
100
AcDbEntity
  8
AM_5 寸法線
 62
     3
100
AcDbBlockReference
  2
_Open30
 10
2060.666129114045
 20
2388.645505666037
 30
0.0
 41
25.0
 42
25.0
 43
25.0
 50
180.0
  0
INSERT
  5
85AD
330
8545
100
AcDbEntity
  8
AM_5 寸法線
 62
     3
100
AcDbBlockReference
  2
_Open30
 10
2171.166129114044
 20
2388.645505666037
 30
0.0
 41
25.0
 42
25.0
 43
25.0
  0
POINT
  5
85AE
330
8545
100
AcDbEntity
  8
Defpoints
 62
     0
100
AcDbPoint
 10
2060.666129114045
 20
2479.039967572895
 30
0.0
  0
POINT
  5
85AF
330
8545
100
AcDbEntity
  8
Defpoints
 62
     0
100
AcDbPoint
 10
2171.166129114044
 20
2481.539967572895
 30
0.0
  0
POINT
  5
85B0
330
8545
100
AcDbEntity
  8
Defpoints
 62
     0
100
AcDbPoint
 10
2171.166129114044
 20
2388.645505666037
 30
0.0
  0
ENDBLK
  5
8547
330
8545
100
AcDbEntity
  8
0
100
AcDbBlockEnd
  0
BLOCK
  5
8574
330
8573
100
AcDbEntity
  8
0
100
AcDbBlockBegin
  2
*D29
 70
     1
 10
0.0
 20
0.0
 30
0.0
  3
*D29
  1

  0
LINE
  5
8593
330
8573
100
AcDbEntity
  8
AM_5 寸法線
 62
     3
100
AcDbLine
 10
2171.166129114044
 20
2475.289967572895
 30
0.0
 11
2171.166129114044
 21
2382.395505666036
 31
0.0
  0
LINE
  5
8594
330
8573
100
AcDbEntity
  8
AM_5 寸法線
 62
     3
100
AcDbLine
 10
2294.166129114044
 20
2475.289967572895
 30
0.0
 11
2294.166129114044
 21
2382.395505666036
 31
0.0
  0
LINE
  5
8595
330
8573
100
AcDbEntity
  8
AM_5 寸法線
 62
     3
100
AcDbLine
 10
2196.166129114044
 20
2388.645505666036
 30
0.0
 11
2269.166129114044
 21
2388.645505666036
 31
0.0
  0
INSERT
  5
8596
330
8573
100
AcDbEntity
  8
AM_5 寸法線
 62
     3
100
AcDbBlockReference
  2
_Open30
 10
2171.166129114044
 20
2388.645505666036
 30
0.0
 41
25.0
 42
25.0
 43
25.0
 50
180.0
  0
INSERT
  5
8597
330
8573
100
AcDbEntity
  8
AM_5 寸法線
 62
     3
100
AcDbBlockReference
  2
_Open30
 10
2294.166129114044
 20
2388.645505666036
 30
0.0
 41
25.0
 42
25.0
 43
25.0
  0
MTEXT
  5
8598
330
8573
100
AcDbEntity
  8
AM_5 寸法線
 62
     3
100
AcDbMText
 10
2232.666129114043
 20
2421.145505666036
 30
0.0
 40
35.0
 41
0.0
 46
0.0
 71
     5
 72
     1
  1
123
  7
SEISA
 73
     1
 44
1.0
  0
POINT
  5
8599
330
8573
100
AcDbEntity
  8
Defpoints
 62
     0
100
AcDbPoint
 10
2171.166129114044
 20
2481.539967572895
 30
0.0
  0
POINT
  5
859A
330
8573
100
AcDbEntity
  8
Defpoints
 62
     0
100
AcDbPoint
 10
2294.166129114044
 20
2481.539967572895
 30
0.0
  0
POINT
  5
859B
330
8573
100
AcDbEntity
  8
Defpoints
 62
     0
100
AcDbPoint
 10
2294.166129114044
 20
2388.645505666036
 30
0.0
  0
ENDBLK
  5
8575
330
8573
100
AcDbEntity
  8
0
100
AcDbBlockEnd
  0
BLOCK
  5
86E9
330
86E8
100
AcDbEntity
  8
0
100
AcDbBlockBegin
  2
GCｻｲﾄﾞｶﾊﾞｰ　CEM900
 70
     0
 10
0.0
 20
0.0
 30
0.0
  3
GCｻｲﾄﾞｶﾊﾞｰ　CEM900
  1

  0
LINE
  5
86EB
330
86E8
100
AcDbEntity
  8
AM_11 想像線
 48
0.1
100
AcDbLine
 10
-35.0
 20
-17.0
 30
0.0
 11
4.303319978661419
 21
-17.0
 31
0.0
  0
LINE
  5
86EC
330
86E8
100
AcDbEntity
  8
AM_11 想像線
 48
0.1
100
AcDbLine
 10
-35.0
 20
-58.5
 30
0.0
 11
-35.0
 21
-34.5
 31
0.0
  0
LINE
  5
86ED
330
86E8
100
AcDbEntity
  8
AM_11 想像線
 48
0.1
100
AcDbLine
 10
-28.0
 20
-48.69999999999982
 30
0.0
 11
-28.0
 21
-58.5
 31
0.0
  0
LINE
  5
86EE
330
86E8
100
AcDbEntity
  8
AM_11 想像線
 48
0.1
100
AcDbLine
 10
-7.0
 20
-58.5
 30
0.0
 11
-7.0
 21
-48.69999999999982
 31
0.0
  0
LINE
  5
86EF
330
86E8
100
AcDbEntity
  8
AM_11 想像線
 48
0.1
100
AcDbLine
 10
0.0
 20
0.0
 30
0.0
 11
0.0
 21
-58.5
 31
0.0
  0
LINE
  5
86F0
330
86E8
100
AcDbEntity
  8
AM_11 想像線
 48
0.1
100
AcDbLine
 10
0.0
 20
-58.5
 30
0.0
 11
-7.0
 21
-58.5
 31
0.0
  0
LINE
  5
86F1
330
86E8
100
AcDbEntity
  8
AM_11 想像線
 48
0.1
100
AcDbLine
 10
-28.0
 20
-58.5
 30
0.0
 11
-35.0
 21
-58.5
 31
0.0
  0
LINE
  5
86F2
330
86E8
100
AcDbEntity
  8
AM_11 想像線
 48
0.1
100
AcDbLine
 10
-35.0
 20
-58.5
 30
0.0
 11
-35.0
 21
-61.0
 31
0.0
  0
LINE
  5
86F3
330
86E8
100
AcDbEntity
  8
AM_11 想像線
 48
0.1
100
AcDbLine
 10
-28.0
 20
-58.5
 30
0.0
 11
-28.0
 21
-61.0
 31
0.0
  0
LINE
  5
86F4
330
86E8
100
AcDbEntity
  8
AM_11 想像線
 48
0.1
100
AcDbLine
 10
-7.0
 20
-58.5
 30
0.0
 11
-7.0
 21
-61.0
 31
0.0
  0
LINE
  5
86F5
330
86E8
100
AcDbEntity
  8
AM_11 想像線
 48
0.1
100
AcDbLine
 10
0.0
 20
-58.5
 30
0.0
 11
0.0
 21
-61.0
 31
0.0
  0
LINE
  5
86F6
330
86E8
100
AcDbEntity
  8
AM_11 想像線
 48
0.1
100
AcDbLine
 10
-24.89999999999965
 20
-29.34999999999991
 30
0.0
 11
-24.89999999999965
 21
-34.5
 31
0.0
  0
LINE
  5
86F7
330
86E8
100
AcDbEntity
  8
AM_11 想像線
 48
0.1
100
AcDbLine
 10
-28.0
 20
-29.34999999999991
 30
0.0
 11
-24.89999999999965
 21
-29.34999999999991
 31
0.0
  0
LINE
  5
86F8
330
86E8
100
AcDbEntity
  8
AM_11 想像線
 48
0.1
100
AcDbLine
 10
-7.0
 20
-48.69999999999982
 30
0.0
 11
-28.0
 21
-48.69999999999982
 31
0.0
  0
LINE
  5
86F9
330
86E8
100
AcDbEntity
  8
AM_11 想像線
 48
0.1
100
AcDbLine
 10
-24.89999999999965
 20
-34.5
 30
0.0
 11
-35.0
 21
-34.5
 31
0.0
  0
LINE
  5
86FA
330
86E8
100
AcDbEntity
  8
AM_11 想像線
 48
0.1
100
AcDbLine
 10
-28.0
 20
0.0
 30
0.0
 11
0.0
 21
0.0
 31
0.0
  0
LINE
  5
86FB
330
86E8
100
AcDbEntity
  8
AM_11 想像線
 48
0.1
100
AcDbLine
 10
-28.0
 20
-29.34999999999991
 30
0.0
 11
-28.0
 21
0.0
 31
0.0
  0
ENDBLK
  5
86EA
330
86E8
100
AcDbEntity
  8
0
100
AcDbBlockEnd
  0
ENDSEC
  0
SECTION
  2
ENTITIES
  0
LINE
  5
4D54
330
1F
100
AcDbEntity
  8
AM_7 中心線
100
AcDbLine
 10
2545.258564935006
 20
2146.039967572895
 30
0.0
 11
1532.384214114044
 21
2146.039967572895
 31
0.0
  0
LINE
  5
4D90
330
1F
100
AcDbEntity
  8
AM_0 外形線1
100
AcDbLine
 10
2024.974639114043
 20
2551.039967572895
 30
0.0
 11
2080.666129114044
 21
2551.039967572895
 31
0.0
  0
LINE
  5
4D91
330
1F
100
AcDbEntity
  8
AM_0 外形線1
100
AcDbLine
 10
2080.666129114044
 20
2583.039967572895
 30
0.0
 11
2024.832795114043
 21
2583.039967572895
 31
0.0
  0
LINE
  5
4D94
330
1F
100
AcDbEntity
  8
AM_0 外形線1
100
AcDbLine
 10
2006.666129114044
 20
2592.089967572895
 30
0.0
 11
2006.666129114044
 21
2541.989967572895
 31
0.0
  0
LINE
  5
4DED
330
1F
100
AcDbEntity
  8
AM_0 外形線1
100
AcDbLine
 10
2082.666129114044
 20
2551.039967572895
 30
0.0
 11
2082.666129114044
 21
2539.539967572895
 31
0.0
  0
LINE
  5
4E49
330
1F
100
AcDbEntity
  8
AM_0 外形線1
100
AcDbLine
 10
2311.666129114044
 20
1750.039967572895
 30
0.0
 11
2311.666129114044
 21
2146.039967572895
 31
0.0
  0
INSERT
  5
556B
102
{ACAD_REACTORS
330
619B
330
62EF
330
630B
330
63B6
330
63CE
102
}
330
1F
100
AcDbEntity
  8
AM_0 外形線1
100
AcDbBlockReference
  2
ケースＡ-E CEMH900
 10
2044.666129114045
 20
2146.039967572895
 30
0.0
  0
INSERT
  5
569A
102
{ACAD_REACTORS
330
5FF2
330
601D
330
6039
330
62EF
330
63CE
330
63FE
102
}
330
1F
100
AcDbEntity
  8
AM_0 外形線1
100
AcDbBlockReference
  2
リジット-E CEMH900
 10
2044.666129114045
 20
2146.039967572895
 30
0.0
  0
INSERT
  5
57B9
330
1F
100
AcDbEntity
  8
AM_0 外形線1
100
AcDbBlockReference
  2
リーマボルト-E CEMH900 M30
 10
2082.666129114044
 20
2567.039967572895
 30
0.0
  0
INSERT
  5
59EE
102
{ACAD_REACTORS
330
60B1
330
6183
330
63B6
330
63E6
102
}
330
1F
100
AcDbEntity
  8
AM_0 外形線1
100
AcDbBlockReference
  2
ＧＣサイドカバ－- ECEMH900
 10
2311.666129114044
 20
2146.039967572895
 30
0.0
  0
INSERT
  5
5ADF
102
{ACAD_REACTORS
330
6039
330
6067
330
60B1
330
616B
330
63E6
330
63FE
330
845E
330
8553
330
8580
102
}
330
1F
100
AcDbEntity
  8
AM_0 外形線1
100
AcDbBlockReference
  2
センタ-E CEMH900
 10
2060.666129114045
 20
2146.039967572895
 30
0.0
  0
DIMENSION
  5
5FDB
102
{ACAD_XDICTIONARY
360
5FE8
102
}
102
{ACAD_REACTORS
330
5FF2
102
}
330
1F
100
AcDbEntity
  8
AM_5 寸法線
100
AcDbDimension
  2
*D13
 10
1378.666129114044
 20
1788.539967572895
 30
0.0
 11
1346.166129114044
 21
2146.039967572896
 31
0.0
 70
    32
  1
%%c<>
 71
     5
 42
715.0
 73
     0
 74
     0
 75
     0
  3
SEISA$0
100
AcDbAlignedDimension
 13
1593.666129114044
 23
2503.539967572895
 33
0.0
 14
1593.666129114044
 24
1788.539967572895
 34
0.0
 50
90.0
100
AcDbRotatedDimension
1001
ACAD_DSTYLE_DIMINSPECT
1070
   396
1000
100%
1070
   395
1000

1070
   394
1070
    33
1070
   393
1070
     0
  0
DIMENSION
  5
6006
102
{ACAD_XDICTIONARY
360
6013
102
}
102
{ACAD_REACTORS
330
601D
102
}
330
1F
100
AcDbEntity
  8
AM_5 寸法線
100
AcDbDimension
  2
*D14
 10
2028.666129114045
 20
2207.117838572895
 30
0.0
 11
1803.666129114044
 21
2239.617838572895
 31
0.0
 70
    32
 71
     5
 42
450.0
 73
     0
 74
     0
 75
     0
  3
SEISA$0
100
AcDbAlignedDimension
 13
1578.666129114044
 23
2146.039967572895
 33
0.0
 14
2028.666129114045
 24
2146.039967572895
 34
0.0
100
AcDbRotatedDimension
  0
DIMENSION
  5
601E
102
{ACAD_XDICTIONARY
360
602D
102
}
102
{ACAD_REACTORS
330
6039
102
}
330
1F
100
AcDbEntity
  8
AM_5 寸法線
100
AcDbDimension
  2
*D15
 10
2028.666129114045
 20
2207.117838572895
 30
0.0
 11
2116.557813687166
 21
2236.753225112778
 31
0.0
 70
   160
 71
     5
 42
32.0
 73
     0
 74
     0
 75
     0
  3
SEISA$0
100
AcDbAlignedDimension
 13
2060.666129114045
 23
2146.039967572895
 33
0.0
 14
2028.666129114045
 24
2146.039967572895
 34
0.0
100
AcDbRotatedDimension
1001
ACAD
1000
DSTYLE
1002
{
1070
   279
1070
     2
1002
}
  0
DIMENSION
  5
6050
102
{ACAD_XDICTIONARY
360
605D
102
}
102
{ACAD_REACTORS
330
6067
102
}
330
1F
100
AcDbEntity
  8
AM_5 寸法線
100
AcDbDimension
  2
*D16
 10
2510.666129114044
 20
2207.117838572895
 30
0.0
 11
2285.666129114044
 21
2239.617838572895
 31
0.0
 70
    32
 71
     5
 42
449.9999999999992
 73
     0
 74
     0
 75
     0
  3
SEISA$0
100
AcDbAlignedDimension
 13
2060.666129114045
 23
2146.039967572895
 33
0.0
 14
2510.666129114044
 24
2146.039967572895
 34
0.0
100
AcDbRotatedDimension
  0
DIMENSION
  5
6096
102
{ACAD_XDICTIONARY
360
60A5
102
}
102
{ACAD_REACTORS
330
60B1
102
}
330
1F
100
AcDbEntity
  8
AM_5 寸法線
100
AcDbDimension
  2
*D17
 10
2294.166129114043
 20
2388.645505666036
 30
0.0
 11
2415.416129114044
 21
2388.645505666036
 31
0.0
 70
   160
 71
     5
 42
10.50000000000045
 73
     0
 74
     0
 75
     0
  3
SEISA$0
100
AcDbAlignedDimension
 13
2304.666129114044
 23
2481.039967572895
 33
0.0
 14
2294.166129114043
 24
2481.539967572895
 34
0.0
100
AcDbRotatedDimension
  0
DIMENSION
  5
6154
102
{ACAD_XDICTIONARY
360
6161
102
}
102
{ACAD_REACTORS
330
616B
102
}
330
1F
100
AcDbEntity
  8
AM_5 寸法線
100
AcDbDimension
  2
*D18
 10
2710.666129114043
 20
1811.039967572895
 30
0.0
 11
2678.166129114043
 21
2146.039967572896
 31
0.0
 70
    32
  1
%%c<>
 71
     5
 42
670.0
 73
     0
 74
     0
 75
     0
  3
SEISA$0
100
AcDbAlignedDimension
 13
2371.666129114044
 23
2481.039967572895
 33
0.0
 14
2371.666129114044
 24
1811.039967572895
 34
0.0
 50
90.0
100
AcDbRotatedDimension
1001
ACAD_DSTYLE_DIMINSPECT
1070
   396
1000
100%
1070
   395
1000

1070
   394
1070
    33
1070
   393
1070
     0
1001
ACAD
1000
DSTYLE
1002
{
1070
   279
1070
     0
1002
}
  0
DIMENSION
  5
616C
102
{ACAD_XDICTIONARY
360
6179
102
}
102
{ACAD_REACTORS
330
6183
102
}
330
1F
100
AcDbEntity
  8
AM_5 寸法線
100
AcDbDimension
  2
*D19
 10
2790.666129114044
 20
1750.039967572894
 30
0.0
 11
2790.666129114043
 21
2146.039967572896
 31
0.0
 70
   160
  1
%%c<>
 71
     5
 42
792.0
 73
     0
 74
     0
 75
     0
  3
SEISA$0
100
AcDbAlignedDimension
 13
2339.666129114044
 23
2542.039967572895
 33
0.0
 14
2339.666129114044
 24
1750.039967572895
 34
0.0
 50
90.0
100
AcDbRotatedDimension
1001
ACAD_DSTYLE_DIMINSPECT
1070
   396
1000
100%
1070
   395
1000

1070
   394
1070
    33
1070
   393
1070
     0
1001
ACAD
1000
DSTYLE
1002
{
1070
   279
1070
     0
1002
}
  0
DIMENSION
  5
6184
102
{ACAD_XDICTIONARY
360
6191
102
}
102
{ACAD_REACTORS
330
619B
102
}
330
1F
100
AcDbEntity
  8
AM_5 寸法線
100
AcDbDimension
  2
*D20
 10
2870.666129114044
 20
1696.039967572894
 30
0.0
 11
2870.666129114043
 21
2146.039967572896
 31
0.0
 70
   160
  1
%%c<>
 71
     5
 42
900.0
 73
     0
 74
     0
 75
     0
  3
SEISA$0
100
AcDbAlignedDimension
 13
2081.666129114044
 23
2596.039967572895
 33
0.0
 14
2081.666129114044
 24
1696.039967572895
 34
0.0
 50
90.0
100
AcDbRotatedDimension
1001
ACAD_DSTYLE_DIMINSPECT
1070
   396
1000
100%
1070
   395
1000

1070
   394
1070
    33
1070
   393
1070
     0
1001
ACAD
1000
DSTYLE
1002
{
1070
   279
1070
     0
1002
}
  0
DIMENSION
  5
62D4
102
{ACAD_XDICTIONARY
360
62E3
102
}
102
{ACAD_REACTORS
330
62EF
102
}
330
1F
100
AcDbEntity
  8
AM_5 寸法線
100
AcDbDimension
  2
*D21
 10
2006.666129114044
 20
1600.039967572895
 30
0.0
 11
1916.166129114044
 21
1632.539967572895
 31
0.0
 70
    32
 71
     5
 42
38.0
 73
     0
 74
     0
 75
     0
  3
SEISA$0
100
AcDbAlignedDimension
 13
2044.666129114045
 23
1697.039967572895
 33
0.0
 14
2006.666129114044
 24
1698.539967572895
 34
0.0
100
AcDbRotatedDimension
1001
ACAD_DSTYLE_DIMINSPECT
1070
   396
1000
100%
1070
   395
1000

1070
   394
1070
    33
1070
   393
1070
     0
1001
ACAD
1000
DSTYLE
1002
{
1070
   173
1070
     1
1070
   342
1005
0
1070
   343
1005
3AAE
1070
   344
1005
69
1002
}
  0
DIMENSION
  5
62F0
102
{ACAD_XDICTIONARY
360
62FF
102
}
102
{ACAD_REACTORS
330
630B
102
}
330
1F
100
AcDbEntity
  8
AM_5 寸法線
100
AcDbDimension
  2
*D22
 10
2082.666129114044
 20
1600.039967572895
 30
0.0
 11
2173.166129114044
 21
1632.539967572895
 31
0.0
 70
    32
 71
     5
 42
37.99999999999909
 73
     0
 74
     0
 75
     0
  3
SEISA$0
100
AcDbAlignedDimension
 13
2044.666129114045
 23
1697.039967572895
 33
0.0
 14
2082.666129114044
 24
1697.039967572895
 34
0.0
100
AcDbRotatedDimension
1001
ACAD_DSTYLE_DIMINSPECT
1070
   396
1000
100%
1070
   395
1000

1070
   394
1070
    33
1070
   393
1070
     0
1001
ACAD
1000
DSTYLE
1002
{
1070
   173
1070
     1
1070
   342
1005
0
1070
   343
1005
3AAE
1070
   344
1005
69
1002
}
  0
DIMENSION
  5
639F
102
{ACAD_XDICTIONARY
360
63AC
102
}
102
{ACAD_REACTORS
330
63B6
102
}
330
1F
100
AcDbEntity
  8
AM_5 寸法線
100
AcDbDimension
  2
*D23
 10
2339.666129114044
 20
1520.039967572895
 30
0.0
 11
2192.166129114044
 21
1552.539967572895
 31
0.0
 70
    32
 71
     5
 42
294.9999999999992
 73
     0
 74
     0
 75
     0
  3
SEISA$0
100
AcDbAlignedDimension
 13
2044.666129114045
 23
1697.039967572895
 33
0.0
 14
2339.666129114044
 24
1750.039967572895
 34
0.0
100
AcDbRotatedDimension
  0
DIMENSION
  5
63B7
102
{ACAD_XDICTIONARY
360
63C4
102
}
102
{ACAD_REACTORS
330
63CE
102
}
330
1F
100
AcDbEntity
  8
AM_5 寸法線
100
AcDbDimension
  2
*D24
 10
1578.666129114044
 20
1520.039967572895
 30
0.0
 11
1811.666129114044
 21
1552.539967572895
 31
0.0
 70
    32
 71
     5
 42
466.0
 73
     0
 74
     0
 75
     0
  3
SEISA$0
100
AcDbAlignedDimension
 13
2044.666129114045
 23
1697.039967572895
 33
0.0
 14
1578.666129114044
 24
1803.539967572895
 34
0.0
100
AcDbRotatedDimension
  0
DIMENSION
  5
63CF
102
{ACAD_XDICTIONARY
360
63DC
102
}
102
{ACAD_REACTORS
330
63E6
102
}
330
1F
100
AcDbEntity
  8
AM_5 寸法線
100
AcDbDimension
  2
*D25
 10
2510.666129114044
 20
1520.039967572895
 30
0.0
 11
2425.166129114044
 21
1552.539967572895
 31
0.0
 70
    32
 71
     5
 42
171.0
 73
     0
 74
     0
 75
     0
  3
SEISA$0
100
AcDbAlignedDimension
 13
2339.666129114044
 23
1750.039967572895
 33
0.0
 14
2510.666129114044
 24
1828.039967572895
 34
0.0
100
AcDbRotatedDimension
  0
DIMENSION
  5
63E7
102
{ACAD_XDICTIONARY
360
63F4
102
}
102
{ACAD_REACTORS
330
63FE
102
}
330
1F
100
AcDbEntity
  8
AM_5 寸法線
100
AcDbDimension
  2
*D26
 10
2510.666129114044
 20
1440.039967572895
 30
0.0
 11
2044.666129114044
 21
1472.539967572895
 31
0.0
 70
    32
 71
     5
 42
931.9999999999991
 73
     0
 74
     0
 75
     0
  3
SEISA$0
100
AcDbAlignedDimension
 13
1578.666129114044
 23
1803.539967572895
 33
0.0
 14
2510.666129114044
 24
1828.039967572895
 34
0.0
100
AcDbRotatedDimension
  0
MTEXT
  5
8417
330
1F
100
AcDbEntity
  8
AM_6 文字
100
AcDbMText
 10
2614.228483440933
 20
1612.011257836197
 30
0.0
 40
35.0
 41
676.8769297533452
 46
172.5405128255809
 71
     1
 72
     5
  1
{\W0.6;TYPE:CEM900/CEMH900\PSHAFT DIA:MAX/MIN \P RIGID SIDE φ510/φ315\P COUPLING CENTER SIDE φ475/φ315}
  7
SEISA
 73
     1
 44
1.0
  0
DIMENSION
  5
8450
102
{ACAD_XDICTIONARY
360
845D
102
}
102
{ACAD_REACTORS
330
845E
102
}
330
1F
100
AcDbEntity
  8
AM_5 寸法線
100
AcDbDimension
  2
*D27
 10
2600.666129114044
 20
2633.129721246367
 30
0.0
 11
2555.666129114044
 21
2665.629721246367
 31
0.0
 70
    32
 71
     5
 42
90.0
 73
     0
 74
     0
 75
     0
  3
SEISA$0
100
AcDbAlignedDimension
 13
2510.666129114044
 23
2464.039967572895
 33
0.0
 14
2600.666129114044
 24
2542.039967572895
 34
0.0
100
AcDbRotatedDimension
1001
ACAD_DSTYLE_DIMINSPECT
1070
   396
1000
100%
1070
   395
1000

1070
   394
1070
    33
1070
   393
1070
     0
  0
DIMENSION
  5
8544
102
{ACAD_XDICTIONARY
360
8552
102
}
102
{ACAD_REACTORS
330
8553
330
8580
102
}
330
1F
100
AcDbEntity
  8
AM_5 寸法線
100
AcDbDimension
  2
*D28
 10
2171.166129114044
 20
2388.645505666037
 30
0.0
 11
2127.547976895721
 21
2277.040235132582
 31
0.0
 70
   160
 71
     5
 42
110.4999999999991
 73
     0
 74
     0
 75
     0
  3
SEISA$0
100
AcDbAlignedDimension
 13
2060.666129114045
 23
2479.039967572895
 33
0.0
 14
2171.166129114044
 24
2481.539967572895
 34
0.0
 50
0.0000000000001132
100
AcDbRotatedDimension
1001
ACAD_DSTYLE_DIMINSPECT
1070
   396
1000
100%
1070
   395
1000

1070
   394
1070
    33
1070
   393
1070
     0
1001
ACAD
1000
DSTYLE
1002
{
1070
   279
1070
     1
1002
}
  0
DIMENSION
  5
8572
102
{ACAD_XDICTIONARY
360
857F
102
}
102
{ACAD_REACTORS
330
8580
102
}
330
1F
100
AcDbEntity
  8
AM_5 寸法線
100
AcDbDimension
  2
*D29
 10
2294.166129114044
 20
2388.645505666036
 30
0.0
 11
2232.666129114043
 21
2421.145505666036
 31
0.0
 70
    32
 71
     5
 42
123.0
 73
     0
 74
     0
 75
     0
  3
SEISA$0
100
AcDbAlignedDimension
 13
2171.166129114044
 23
2481.539967572895
 33
0.0
 14
2294.166129114044
 24
2481.539967572895
 34
0.0
 50
0.0000000000001132
100
AcDbRotatedDimension
1001
ACAD_DSTYLE_DIMINSPECT
1070
   396
1000
100%
1070
   395
1000

1070
   394
1070
    33
1070
   393
1070
     0
  0
INSERT
  5
86FC
330
1F
100
AcDbEntity
  8
AM_11 想像線
100
AcDbBlockReference
  2
GCｻｲﾄﾞｶﾊﾞｰ　CEM900
 10
2600.666129114044
 20
2542.039967572895
 30
0.0
  0
ENDSEC
  0
SECTION
  2
OBJECTS
  0
DICTIONARY
  5
C
330
0
100
AcDbDictionary
281
     1
  3
ACAD_COLOR
350
C5
  3
ACAD_GROUP
350
D
  3
ACAD_LAYOUT
350
1A
  3
ACAD_MATERIAL
350
C4
  3
ACAD_MLEADERSTYLE
350
2D5
  3
ACAD_MLINESTYLE
350
17
  3
ACAD_PLOTSETTINGS
350
19
  3
ACAD_PLOTSTYLENAME
350
E
  3
ACAD_SCALELIST
350
2B3
  3
ACAD_TABLESTYLE
350
121
  3
ACAD_VISUALSTYLE
350
27F
  3
ACDB_RECOMPOSE_DATA
350
2F7
  3
AcDbVariableDictionary
350
34
  3
AcmDictionary
350
49
  3
AMG
350
2B
  3
AMGSNAPSETTINGS
350
1DE
  0
DICTIONARY
  5
BF
330
2
100
AcDbDictionary
280
     1
281
     1
  3
ACAD_LAYERSTATES
360
710A
  3
AMLAYER_GROUPCOLORS
360
C0
  0
DICTIONARY
  5
29F7
330
10
100
AcDbDictionary
280
     1
281
     1
  3
ADSK_XREC_LAYER_RECONCILED
360
29F8
  0
DICTIONARY
  5
29F9
330
81
100
AcDbDictionary
280
     1
281
     1
  3
ADSK_XREC_LAYER_RECONCILED
360
29FA
  0
DICTIONARY
  5
82
330
1F
100
AcDbDictionary
280
     1
281
     1
  3
ACAD_SORTENTS
360
A41
  0
DICTIONARY
  5
54A9
330
547B
100
AcDbDictionary
280
     1
281
     1
  3
ACAD_SORTENTS
360
756D
  0
DICTIONARY
  5
55EE
330
552E
100
AcDbDictionary
280
     1
281
     1
  3
ACAD_SORTENTS
360
7626
  0
DICTIONARY
  5
570D
330
5667
100
AcDbDictionary
280
     1
281
     1
  3
ACAD_SORTENTS
360
8880
  0
DICTIONARY
  5
581A
330
578C
100
AcDbDictionary
280
     1
281
     1
  3
ACAD_SORTENTS
360
877D
  0
DICTIONARY
  5
5A59
330
59BB
100
AcDbDictionary
280
     1
281
     1
  3
ACAD_SORTENTS
360
77B2
  0
DICTIONARY
  5
5B40
330
5AAE
100
AcDbDictionary
280
     1
281
     1
  3
ACAD_SORTENTS
360
8634
  0
DICTIONARY
  5
5FE8
330
5FDB
100
AcDbDictionary
280
     1
281
     1
  3
ACAD_DIMASSOC
360
5FF2
  0
DICTIONARY
  5
6013
330
6006
100
AcDbDictionary
280
     1
281
     1
  3
ACAD_DIMASSOC
360
601D
  0
DICTIONARY
  5
602D
330
601E
100
AcDbDictionary
280
     1
281
     1
  3
ACAD_DIMASSOC
360
6039
  0
DICTIONARY
  5
605D
330
6050
100
AcDbDictionary
280
     1
281
     1
  3
ACAD_DIMASSOC
360
6067
  0
DICTIONARY
  5
60A5
330
6096
100
AcDbDictionary
280
     1
281
     1
  3
ACAD_DIMASSOC
360
60B1
  0
DICTIONARY
  5
6161
330
6154
100
AcDbDictionary
280
     1
281
     1
  3
ACAD_DIMASSOC
360
616B
  0
DICTIONARY
  5
6179
330
616C
100
AcDbDictionary
280
     1
281
     1
  3
ACAD_DIMASSOC
360
6183
  0
DICTIONARY
  5
6191
330
6184
100
AcDbDictionary
280
     1
281
     1
  3
ACAD_DIMASSOC
360
619B
  0
DICTIONARY
  5
62E3
330
62D4
100
AcDbDictionary
280
     1
281
     1
  3
ACAD_DIMASSOC
360
62EF
  0
DICTIONARY
  5
62FF
330
62F0
100
AcDbDictionary
280
     1
281
     1
  3
ACAD_DIMASSOC
360
630B
  0
DICTIONARY
  5
63AC
330
639F
100
AcDbDictionary
280
     1
281
     1
  3
ACAD_DIMASSOC
360
63B6
  0
DICTIONARY
  5
63C4
330
63B7
100
AcDbDictionary
280
     1
281
     1
  3
ACAD_DIMASSOC
360
63CE
  0
DICTIONARY
  5
63DC
330
63CF
100
AcDbDictionary
280
     1
281
     1
  3
ACAD_DIMASSOC
360
63E6
  0
DICTIONARY
  5
63F4
330
63E7
100
AcDbDictionary
280
     1
281
     1
  3
ACAD_DIMASSOC
360
63FE
  0
DICTIONARY
  5
845D
330
8450
100
AcDbDictionary
280
     1
281
     1
  3
ACAD_DIMASSOC
360
845E
  0
DICTIONARY
  5
8552
330
8544
100
AcDbDictionary
280
     1
281
     1
  3
ACAD_DIMASSOC
360
8553
  0
DICTIONARY
  5
857F
330
8572
100
AcDbDictionary
280
     1
281
     1
  3
ACAD_DIMASSOC
360
8580
  0
DICTIONARY
  5
C5
102
{ACAD_REACTORS
330
C
102
}
330
C
100
AcDbDictionary
281
     1
  0
DICTIONARY
  5
D
102
{ACAD_REACTORS
330
C
102
}
330
C
100
AcDbDictionary
281
     1
  0
DICTIONARY
  5
1A
102
{ACAD_REACTORS
330
C
102
}
330
C
100
AcDbDictionary
281
     1
  3
Model
350
22
  3
レイアウト1
350
1E
  3
レイアウト2
350
26
  0
DICTIONARY
  5
C4
102
{ACAD_REACTORS
330
C
102
}
330
C
100
AcDbDictionary
281
     1
  3
ByBlock
350
27D
  3
ByLayer
350
27C
  3
Global
350
27E
  0
DICTIONARY
  5
2D5
102
{ACAD_REACTORS
330
C
102
}
330
C
100
AcDbDictionary
281
     1
  3
Standard
350
2D6
  0
DICTIONARY
  5
17
102
{ACAD_REACTORS
330
C
102
}
330
C
100
AcDbDictionary
281
     1
  3
Standard
350
18
  0
DICTIONARY
  5
19
102
{ACAD_REACTORS
330
C
102
}
330
C
100
AcDbDictionary
281
     1
  3
SEISA基本
350
1C7E
  0
ACDBDICTIONARYWDFLT
  5
E
102
{ACAD_REACTORS
330
C
102
}
330
C
100
AcDbDictionary
281
     1
  3
Normal
350
F
100
AcDbDictionaryWithDefault
340
F
  0
DICTIONARY
  5
2B3
102
{ACAD_REACTORS
330
C
102
}
330
C
100
AcDbDictionary
281
     1
  3
*A1
350
7109
  3
*A2
350
840E
  3
*A3
350
840F
  3
A0
350
2B4
  3
A1
350
2B5
  3
A2
350
2B6
  3
A3
350
2B7
  3
A4
350
2B8
  3
A5
350
2B9
  3
A6
350
2BA
  3
A7
350
2BB
  3
A8
350
2BC
  3
A9
350
2BD
  3
B0
350
2BE
  3
B1
350
2BF
  3
B2
350
2C0
  3
B3
350
2C1
  3
B4
350
2C2
  3
B5
350
2C3
  3
B6
350
2C4
  3
B7
350
2C5
  3
B8
350
2C6
  3
B9
350
2C7
  3
C0
350
2C8
  3
C1
350
2C9
  3
C2
350
2CA
  3
C3
350
2CB
  3
C4
350
2CC
  3
C5
350
2CD
  3
C6
350
2CE
  3
C7
350
2CF
  3
C8
350
2D0
  3
C9
350
2D1
  3
D0
350
2D2
  3
D1
350
2D3
  3
D2
350
2D4
  0
DICTIONARY
  5
121
102
{ACAD_REACTORS
330
C
102
}
330
C
100
AcDbDictionary
281
     1
  3
Standard
350
122
  0
DICTIONARY
  5
27F
102
{ACAD_REACTORS
330
C
102
}
330
C
100
AcDbDictionary
281
     1
  3
2dWireframe
350
285
  3
3D Hidden
350
287
  3
3dWireframe
350
286
  3
Basic
350
284
  3
Brighten
350
28B
  3
ColorChange
350
28F
  3
Conceptual
350
288
  3
Dim
350
28A
  3
Facepattern
350
28E
  3
Flat
350
280
  3
FlatWithEdges
350
281
  3
Gouraud
350
282
  3
GouraudWithEdges
350
283
  3
Linepattern
350
28D
  3
Realistic
350
289
  3
Thicken
350
28C
  0
XRECORD
  5
2F7
102
{ACAD_REACTORS
330
C
102
}
330
C
100
AcDbXrecord
280
     1
 90
        1
330
122
  0
DICTIONARY
  5
34
102
{ACAD_REACTORS
330
C
102
}
330
C
100
AcDbDictionary
281
     1
  3
CANNOSCALE
350
2FA
  3
CMLEADERSTYLE
350
2F8
  3
CTABLESTYLE
350
140
  3
DIMASSOC
350
AC
  3
INDEXCTL
350
35
  3
LAYEREVAL
350
6228
  3
LAYERNOTIFY
350
6229
  3
LIGHTINGUNITS
350
2FB
  3
MSLTSCALE
350
2F9
  0
DICTIONARY
  5
49
102
{ACAD_REACTORS
330
C
102
}
330
C
100
AcDbDictionary
281
     1
  3
AcmBOM
350
161B
  3
AcmStdDictionary
350
4A
  3
AMDTSECTSYM_ARROWCOLOR
350
12B
  0
DICTIONARY
  5
2B
102
{ACAD_REACTORS
330
C
102
}
330
C
100
AcDbDictionary
281
     1
  0
DICTIONARY
  5
1DE
102
{ACAD_REACTORS
330
C
102
}
330
C
100
AcDbDictionary
281
     1
  0
DICTIONARY
  5
710A
102
{ACAD_REACTORS
330
BF
102
}
330
BF
100
AcDbDictionary
281
     1
  0
DICTIONARY
  5
C0
102
{ACAD_REACTORS
330
BF
102
}
330
BF
100
AcDbDictionary
280
     1
281
     1
  0
XRECORD
  5
29F8
102
{ACAD_REACTORS
330
29F7
102
}
330
29F7
100
AcDbXrecord
280
     1
290
     1
  0
XRECORD
  5
29FA
102
{ACAD_REACTORS
330
29F9
102
}
330
29F9
100
AcDbXrecord
280
     1
290
     1
  0
SORTENTSTABLE
  5
A41
102
{ACAD_REACTORS
330
82
102
}
330
82
100
AcDbSortentsTable
330
1F
331
63E7
  5
63E7
331
6154
  5
6154
331
6006
  5
6006
331
59EE
  5
5BC4
331
4D54
  5
4D54
331
8572
  5
8572
331
5FDB
  5
5FDB
331
569A
  5
5BB8
331
4D90
  5
4D94
331
616C
  5
616C
331
601E
  5
601E
331
4D94
  5
4DED
331
6184
  5
6184
331
8450
  5
8450
331
57B9
  5
5BBB
331
62D4
  5
62D4
331
6096
  5
6096
331
4D91
  5
4DBB
331
8544
  5
8544
331
639F
  5
639F
331
62F0
  5
62F0
331
4DED
  5
4E1E
331
6050
  5
6050
331
4E49
  5
4E54
331
556B
  5
5BB5
331
63B7
  5
63B7
331
86FC
  5
86FC
331
5ADF
  5
5BC7
331
8417
  5
8417
331
63CF
  5
63CF
  0
SORTENTSTABLE
  5
756D
102
{ACAD_REACTORS
330
54A9
102
}
330
54A9
100
AcDbSortentsTable
330
547B
  0
SORTENTSTABLE
  5
7626
102
{ACAD_REACTORS
330
55EE
102
}
330
55EE
100
AcDbSortentsTable
330
552E
331
5567
  5
5568
331
5565
  5
5566
331
55EC
  5
5564
331
5569
  5
556A
331
5566
  5
5567
331
5564
  5
5565
331
556A
  5
55EC
331
5568
  5
5569
  0
SORTENTSTABLE
  5
8880
102
{ACAD_REACTORS
330
570D
102
}
330
570D
100
AcDbSortentsTable
330
5667
331
5686
  5
5687
331
568E
  5
568F
331
567C
  5
567D
331
5691
  5
5692
331
5672
  5
5673
331
567F
  5
5680
331
570A
  5
570B
331
5675
  5
5676
331
5694
  5
5695
331
568A
  5
568B
331
5682
  5
5683
331
566B
  5
566C
331
5697
  5
5709
331
5678
  5
5679
331
566E
  5
5670
331
5685
  5
5686
331
568D
  5
568E
331
567B
  5
567C
331
8852
  5
566A
331
5690
  5
5691
331
567E
  5
567F
331
5693
  5
5694
331
5709
  5
570A
331
5674
  5
5675
331
566A
  5
566B
331
5681
  5
5682
331
5689
  5
568A
331
570C
  5
8852
331
5677
  5
5678
331
5684
  5
5685
331
566D
  5
566E
331
567A
  5
567B
331
5670
  5
5672
331
5687
  5
5689
331
568F
  5
5690
331
567D
  5
567E
331
5673
  5
5674
331
5692
  5
5693
331
5680
  5
5681
331
5695
  5
5697
331
570B
  5
570C
331
5676
  5
5677
331
566C
  5
566D
331
5683
  5
5684
331
568B
  5
568D
331
5679
  5
567A
  0
SORTENTSTABLE
  5
877D
102
{ACAD_REACTORS
330
581A
102
}
330
581A
100
AcDbSortentsTable
330
578C
  0
SORTENTSTABLE
  5
77B2
102
{ACAD_REACTORS
330
5A59
102
}
330
5A59
100
AcDbSortentsTable
330
59BB
  0
SORTENTSTABLE
  5
8634
102
{ACAD_REACTORS
330
5B40
102
}
330
5B40
100
AcDbSortentsTable
330
5AAE
331
5ABC
  5
5ABE
331
5AB4
  5
5AB6
331
5AD1
  5
5AD4
331
5AC5
  5
5AC7
331
5AD9
  5
5ADC
331
5AC9
  5
5ACB
331
5ABD
  5
5ABF
331
5AB5
  5
5AB7
331
5ACA
  5
5ACC
331
5AC6
  5
5AC8
331
5ADA
  5
84DD
331
5ABE
  5
5AC0
331
5AB6
  5
5AB8
331
5AD3
  5
5AD5
331
5AC7
  5
5AC9
331
5ACB
  5
5ACD
331
5ABF
  5
5AC1
331
5AB7
  5
5AB9
331
5AD4
  5
5AD6
331
5ACC
  5
5ACE
331
5ADC
  5
84DE
331
5AC0
  5
5AC3
331
5AB8
  5
5ABA
331
84DD
  5
5AB4
331
5AD5
  5
5AD7
331
5ACD
  5
5ACF
331
5AC1
  5
5AC4
331
5AB9
  5
5ABB
331
5AB1
  5
5AB5
331
84DE
  5
5AB1
331
5AD6
  5
5AD8
331
5ACE
  5
5AD0
331
5ABA
  5
5ABC
331
5AD7
  5
5AD9
331
5ACF
  5
5AD1
331
5AC3
  5
5AC5
331
5ABB
  5
5ABD
331
5AD0
  5
5AD3
331
5AC4
  5
5AC6
331
5AD8
  5
5ADA
331
5AC8
  5
5ACA
  0
DIMASSOC
  5
5FF2
102
{ACAD_REACTORS
330
5FE8
102
}
330
5FE8
100
AcDbDimAssoc
330
5FDB
 90
        3
 70
     0
 71
     0
  1
AcDbOsnapPointRef
 72
    13
331
569A
331
5687
 73
     2
 91
        0
 40
0.0
 10
0.0
 20
0.0
 30
2.000000000000000E+50
 75
     0
  1
AcDbOsnapPointRef
 72
     1
331
569A
331
5672
 73
     2
 91
        0
 40
1.0
 10
0.0
 20
0.0
 30
2.000000000000000E+50
 75
     0
  0
DIMASSOC
  5
601D
102
{ACAD_REACTORS
330
6013
102
}
330
6013
100
AcDbDimAssoc
330
6006
 90
        3
 70
     0
 71
     0
  1
AcDbOsnapPointRef
 72
     2
331
569A
331
5670
 73
     2
 91
        0
 40
0.5
 10
0.0
 20
0.0
 30
0.0
 75
     0
  1
AcDbOsnapPointRef
 72
     1
331
569A
331
570A
 73
     2
 91
        0
 40
1.0
 10
0.0
 20
0.0
 30
2.000000000000000E+50
 75
     0
  0
DIMASSOC
  5
6039
102
{ACAD_REACTORS
330
602D
102
}
330
602D
100
AcDbDimAssoc
330
601E
 90
        3
 70
     0
 71
     0
  1
AcDbOsnapPointRef
 72
     1
331
5ADF
331
5AB4
 73
     2
 91
        0
 40
1.0
 10
0.0
 20
0.0
 30
2.000000000000000E+50
 75
     0
  1
AcDbOsnapPointRef
 72
     1
331
569A
331
570A
 73
     2
 91
        0
 40
1.0
 10
0.0
 20
0.0
 30
2.000000000000000E+50
 75
     0
  0
DIMASSOC
  5
6067
102
{ACAD_REACTORS
330
605D
102
}
330
605D
100
AcDbDimAssoc
330
6050
 90
        3
 70
     0
 71
     0
  1
AcDbOsnapPointRef
 72
     1
331
5ADF
331
5AB4
 73
     2
 91
        0
 40
1.0
 10
0.0
 20
0.0
 30
2.000000000000000E+50
 75
     0
  1
AcDbOsnapPointRef
 72
     2
331
5ADF
331
5AC3
 73
     2
 91
        0
 40
0.5
 10
0.0
 20
0.0
 30
0.0
 75
     0
  0
DIMASSOC
  5
60B1
102
{ACAD_REACTORS
330
60A5
102
}
330
60A5
100
AcDbDimAssoc
330
6096
 90
        3
 70
     0
 71
     0
  1
AcDbOsnapPointRef
 72
     1
331
59EE
331
59D3
 73
     2
 91
        0
 40
1.0
 10
0.0
 20
0.0
 30
2.000000000000000E+50
 75
     0
  1
AcDbOsnapPointRef
 72
     6
331
5ADF
331
5AD5
 73
     2
 91
        0
 40
0.0
 10
0.0
 20
0.0
 30
0.0
332
5ADF
332
5AD7
 74
     2
 92
        0
 75
     0
  0
DIMASSOC
  5
616B
102
{ACAD_REACTORS
330
6161
102
}
330
6161
100
AcDbDimAssoc
330
6154
 90
        3
 70
     0
 71
     0
  1
AcDbOsnapPointRef
 72
    13
331
5ADF
331
5AD4
 73
     2
 91
        0
 40
0.0
 10
0.0
 20
0.0
 30
2.000000000000000E+50
 75
     0
  1
AcDbOsnapPointRef
 72
    13
331
5ADF
331
5AC6
 73
     2
 91
        0
 40
0.0
 10
0.0
 20
0.0
 30
2.000000000000000E+50
 75
     0
  0
DIMASSOC
  5
6183
102
{ACAD_REACTORS
330
6179
102
}
330
6179
100
AcDbDimAssoc
330
616C
 90
        3
 70
     0
 71
     0
  1
AcDbOsnapPointRef
 72
    13
331
59EE
331
59D0
 73
     2
 91
        0
 40
0.0
 10
0.0
 20
0.0
 30
2.000000000000000E+50
 75
     0
  1
AcDbOsnapPointRef
 72
     1
331
59EE
331
59BF
 73
     2
 91
        0
 40
1.0
 10
0.0
 20
0.0
 30
2.000000000000000E+50
 75
     0
  0
DIMASSOC
  5
619B
102
{ACAD_REACTORS
330
6191
102
}
330
6191
100
AcDbDimAssoc
330
6184
 90
        3
 70
     0
 71
     0
  1
AcDbOsnapPointRef
 72
     1
331
556B
331
553F
 73
     2
 91
        0
 40
1.0
 10
0.0
 20
0.0
 30
2.000000000000000E+50
 75
     0
  1
AcDbOsnapPointRef
 72
     1
331
556B
331
5538
 73
     2
 91
        0
 40
1.0
 10
0.0
 20
0.0
 30
2.000000000000000E+50
 75
     0
  0
DIMASSOC
  5
62EF
102
{ACAD_REACTORS
330
62E3
102
}
330
62E3
100
AcDbDimAssoc
330
62D4
 90
        3
 70
     0
 71
     0
  1
AcDbOsnapPointRef
 72
     1
331
556B
331
5537
 73
     2
 91
        0
 40
1.0
 10
0.0
 20
0.0
 30
2.000000000000000E+50
 75
     0
  1
AcDbOsnapPointRef
 72
    13
331
569A
331
566A
 73
     2
 91
        0
 40
0.0
 10
0.0
 20
0.0
 30
2.000000000000000E+50
 75
     0
  0
DIMASSOC
  5
630B
102
{ACAD_REACTORS
330
62FF
102
}
330
62FF
100
AcDbDimAssoc
330
62F0
 90
        3
 70
     0
 71
     0
  1
AcDbOsnapPointRef
 72
     1
331
556B
331
5537
 73
     2
 91
        0
 40
1.0
 10
0.0
 20
0.0
 30
2.000000000000000E+50
 75
     0
  1
AcDbOsnapPointRef
 72
    13
331
556B
331
5536
 73
     2
 91
        0
 40
0.0
 10
0.0
 20
0.0
 30
2.000000000000000E+50
 75
     0
  0
DIMASSOC
  5
63B6
102
{ACAD_REACTORS
330
63AC
102
}
330
63AC
100
AcDbDimAssoc
330
639F
 90
        3
 70
     0
 71
     0
  1
AcDbOsnapPointRef
 72
     1
331
556B
331
5537
 73
     2
 91
        0
 40
1.0
 10
0.0
 20
0.0
 30
2.000000000000000E+50
 75
     0
  1
AcDbOsnapPointRef
 72
     1
331
59EE
331
59BF
 73
     2
 91
        0
 40
1.0
 10
0.0
 20
0.0
 30
2.000000000000000E+50
 75
     0
  0
DIMASSOC
  5
63CE
102
{ACAD_REACTORS
330
63C4
102
}
330
63C4
100
AcDbDimAssoc
330
63B7
 90
        3
 70
     0
 71
     0
  1
AcDbOsnapPointRef
 72
     1
331
556B
331
5537
 73
     2
 91
        0
 40
1.0
 10
0.0
 20
0.0
 30
2.000000000000000E+50
 75
     0
  1
AcDbOsnapPointRef
 72
    13
331
569A
331
5670
 73
     2
 91
        0
 40
0.0
 10
0.0
 20
0.0
 30
2.000000000000000E+50
 75
     0
  0
DIMASSOC
  5
63E6
102
{ACAD_REACTORS
330
63DC
102
}
330
63DC
100
AcDbDimAssoc
330
63CF
 90
        3
 70
     0
 71
     0
  1
AcDbOsnapPointRef
 72
     1
331
59EE
331
59BF
 73
     2
 91
        0
 40
1.0
 10
0.0
 20
0.0
 30
2.000000000000000E+50
 75
     0
  1
AcDbOsnapPointRef
 72
    13
331
5ADF
331
5AC3
 73
     2
 91
        0
 40
0.0
 10
0.0
 20
0.0
 30
2.000000000000000E+50
 75
     0
  0
DIMASSOC
  5
63FE
102
{ACAD_REACTORS
330
63F4
102
}
330
63F4
100
AcDbDimAssoc
330
63E7
 90
        3
 70
     0
 71
     0
  1
AcDbOsnapPointRef
 72
    13
331
569A
331
5670
 73
     2
 91
        0
 40
0.0
 10
0.0
 20
0.0
 30
2.000000000000000E+50
 75
     0
  1
AcDbOsnapPointRef
 72
    13
331
5ADF
331
5AC3
 73
     2
 91
        0
 40
0.0
 10
0.0
 20
0.0
 30
2.000000000000000E+50
 75
     0
  0
DIMASSOC
  5
845E
102
{ACAD_REACTORS
330
845D
102
}
330
845D
100
AcDbDimAssoc
330
8450
 90
        1
 70
     0
 71
     0
  1
AcDbOsnapPointRef
 72
    13
331
5ADF
331
5ADA
 73
     0
 91
        0
 40
0.0
 10
0.0
 20
0.0
 30
2.000000000000000E+50
 75
     0
  0
DIMASSOC
  5
8553
102
{ACAD_REACTORS
330
8552
102
}
330
8552
100
AcDbDimAssoc
330
8544
 90
        3
 70
     0
 71
     0
  1
AcDbOsnapPointRef
 72
    13
331
5ADF
331
5ABD
 73
     0
 91
        0
 40
0.0
 10
0.0
 20
0.0
 30
2.000000000000000E+50
 75
     0
  1
AcDbOsnapPointRef
 72
     1
331
5ADF
331
5ABF
 73
     0
 91
        0
 40
0.0
 10
0.0
 20
0.0
 30
2.000000000000000E+50
 75
     0
  0
DIMASSOC
  5
8580
102
{ACAD_REACTORS
330
857F
102
}
330
857F
100
AcDbDimAssoc
330
8572
 90
        2
 70
     0
 71
     0
  1
AcDbOsnapPointRef
 72
    13
331
5ADF
331
5AD5
 73
     0
 91
        0
 40
0.0
 10
0.0
 20
0.0
 30
2.000000000000000E+50
 75
     0
  0
LAYOUT
  5
22
102
{ACAD_REACTORS
330
1A
102
}
330
1A
100
AcDbPlotSettings
  1

  2
KONICA MINOLTA 501 PCL
  4
A4
  6

 40
5.027082920074462
 41
5.027085781097412
 42
5.027069091796875
 43
5.027069091796875
 44
209.9733276367186
 45
296.9259948730469
 46
0.3093697116878928
 47
0.0
 48
0.0
 49
0.0
140
0.0
141
0.0
142
1.0
143
6.621549644375679
 70
 11956
 72
     1
 73
     1
 74
     1
  7
SEISA.ctb
 75
     0
147
0.1510220497779393
 76
     0
 77
     2
 78
   300
148
-1328.39356792718
149
-1363.546154774392
100
AcDbLayout
  1
Model
 70
     1
 71
     0
 10
0.0
 20
0.0
 11
12.0
 21
9.0
 12
0.0
 22
0.0
 32
0.0
 14
0.0
 24
0.0
 34
0.0
 15
0.0
 25
0.0
 35
0.0
146
0.0
 13
0.0
 23
0.0
 33
0.0
 16
1.0
 26
0.0
 36
0.0
 17
0.0
 27
1.0
 37
0.0
 76
     0
330
1F
331
27A
1001
ACAD_PSEXT
1000
KONICA MINOLTA 501 PCL
1000
KONICA MINOLTA 501/421/361PCL
1000
IP_192.168.20.231_(1)
1000

1070
     0
  0
LAYOUT
  5
1E
102
{ACAD_REACTORS
330
1A
102
}
330
1A
100
AcDbPlotSettings
  1

  2
none_device
  4
Letter_(8.50_x_11.00_Inches)
  6

 40
6.349999904632567
 41
6.349999904632567
 42
6.350006103515625
 43
6.350006103515625
 44
215.8999938964844
 45
279.3999938964844
 46
0.0
 47
0.0
 48
0.0
 49
0.0
140
0.0
141
0.0
142
1.0
143
1.0
 70
 15024
 72
     1
 73
     1
 74
     5
  7
SEISA.ctb
 75
    16
147
1.0
 76
     0
 77
     2
 78
   300
148
0.0
149
0.0
100
AcDbLayout
  1
レイアウト1
 70
     1
 71
     1
 10
0.0
 20
0.0
 11
420.0
 21
297.0
 12
0.0
 22
0.0
 32
0.0
 14
1.000000000000000E+20
 24
1.000000000000000E+20
 34
1.000000000000000E+20
 15
-1.000000000000000E+20
 25
-1.000000000000000E+20
 35
-1.000000000000000E+20
146
0.0
 13
0.0
 23
0.0
 33
0.0
 16
1.0
 26
0.0
 36
0.0
 17
0.0
 27
1.0
 37
0.0
 76
     0
330
1B
  0
LAYOUT
  5
26
102
{ACAD_REACTORS
330
1A
102
}
330
1A
100
AcDbPlotSettings
  1

  2
none_device
  4
Letter_(8.50_x_11.00_Inches)
  6

 40
6.349999904632567
 41
6.349999904632567
 42
6.350006103515625
 43
6.350006103515625
 44
215.8999938964844
 45
279.3999938964844
 46
0.0
 47
0.0
 48
0.0
 49
0.0
140
0.0
141
0.0
142
1.0
143
1.0
 70
 15024
 72
     1
 73
     1
 74
     5
  7
SEISA.ctb
 75
    16
147
1.0
 76
     0
 77
     2
 78
   300
148
0.0
149
0.0
100
AcDbLayout
  1
レイアウト2
 70
     1
 71
     2
 10
0.0
 20
0.0
 11
12.0
 21
9.0
 12
0.0
 22
0.0
 32
0.0
 14
0.0
 24
0.0
 34
0.0
 15
0.0
 25
0.0
 35
0.0
146
0.0
 13
0.0
 23
0.0
 33
0.0
 16
1.0
 26
0.0
 36
0.0
 17
0.0
 27
1.0
 37
0.0
 76
     0
330
23
  0
MATERIAL
  5
27D
102
{ACAD_REACTORS
330
C4
102
}
330
C4
100
AcDbMaterial
  1
ByBlock
 73
     1
 78
     1
172
     1
176
     1
270
     1
274
     1
 94
       63
  0
MATERIAL
  5
27C
102
{ACAD_REACTORS
330
C4
102
}
330
C4
100
AcDbMaterial
  1
ByLayer
 73
     1
 78
     1
172
     1
176
     1
270
     1
274
     1
 94
       63
  0
MATERIAL
  5
27E
102
{ACAD_REACTORS
330
C4
102
}
330
C4
100
AcDbMaterial
  1
Global
 73
     1
 78
     1
172
     1
176
     1
270
     1
274
     1
 94
       63
  0
MLEADERSTYLE
  5
2D6
102
{ACAD_REACTORS
330
2D5
102
}
330
2D5
100
AcDbMLeaderStyle
170
     2
171
     1
172
     0
 90
        2
 40
0.0
 41
0.0
173
     1
 91
-1056964608
340
14
 92
       -2
290
     1
 42
2.0
291
     1
 43
0.36
  3
Standard
 44
4.0
300

342
11
174
     1
178
     6
175
     1
176
     0
 93
-1056964608
 45
4.0
292
     0
297
     0
 46
4.0
 94
-1056964608
 47
1.0
 49
1.0
140
1.0
293
     1
141
0.0
294
     1
177
     0
142
1.0
295
     0
296
     0
143
0.125
1001
ACAD_MLEADERVER
1070
     2
  0
MLINESTYLE
  5
18
102
{ACAD_REACTORS
330
17
102
}
330
17
100
AcDbMlineStyle
  2
STANDARD
 70
     0
  3

 62
   256
 51
90.0
 52
90.0
 71
     2
 49
0.5
 62
   256
  6
BYLAYER
 49
-0.5
 62
   256
  6
BYLAYER
  0
PLOTSETTINGS
  5
1C7E
102
{ACAD_REACTORS
330
19
102
}
330
19
100
AcDbPlotSettings
  1
SEISA基本
  2
none_device
  4
Letter_(8.50_x_11.00_Inches)
  6

 40
6.349999904632567
 41
6.349999904632567
 42
6.350006103515625
 43
6.350006103515625
 44
215.8999938964844
 45
279.3999938964844
 46
7.302498226506357
 47
0.0
 48
0.0
 49
0.0
140
0.0
141
0.0
142
1.0
143
1.574803221122935
 70
 11956
 72
     1
 73
     1
 74
     2
  7
SEISA.ctb
 75
     0
147
0.6349999711627054
 76
     0
 77
     2
 78
   300
148
0.0
149
0.0
1001
ACAD_PSEXT
1000
なし
1000
なし
1000
適切ではありません
1000
新しいプロッタ環境設定名を選択しない限り、レイアウトは印刷されません。
1070
     0
  0
ACDBPLACEHOLDER
  5
F
102
{ACAD_REACTORS
330
E
102
}
330
E
  0
SCALE
  5
7109
102
{ACAD_REACTORS
330
2B3
102
}
330
2B3
100
AcDbScale
 70
     0
300
1:3
140
1.0
141
3.0
290
     0
  0
SCALE
  5
840E
102
{ACAD_REACTORS
330
2B3
102
}
330
2B3
100
AcDbScale
 70
     0
300
1:2.5
140
1.0
141
2.5
290
     0
  0
SCALE
  5
840F
102
{ACAD_REACTORS
330
2B3
102
}
330
2B3
100
AcDbScale
 70
     0
300
1:1.5
140
1.0
141
1.5
290
     0
  0
SCALE
  5
2B4
102
{ACAD_REACTORS
330
2B3
102
}
330
2B3
100
AcDbScale
 70
     0
300
1:1
140
1.0
141
1.0
290
     1
  0
SCALE
  5
2B5
102
{ACAD_REACTORS
330
2B3
102
}
330
2B3
100
AcDbScale
 70
     0
300
1:2
140
1.0
141
2.0
290
     0
  0
SCALE
  5
2B6
102
{ACAD_REACTORS
330
2B3
102
}
330
2B3
100
AcDbScale
 70
     0
300
1:4
140
1.0
141
4.0
290
     0
  0
SCALE
  5
2B7
102
{ACAD_REACTORS
330
2B3
102
}
330
2B3
100
AcDbScale
 70
     0
300
1:5
140
1.0
141
5.0
290
     0
  0
SCALE
  5
2B8
102
{ACAD_REACTORS
330
2B3
102
}
330
2B3
100
AcDbScale
 70
     0
300
1:8
140
1.0
141
8.0
290
     0
  0
SCALE
  5
2B9
102
{ACAD_REACTORS
330
2B3
102
}
330
2B3
100
AcDbScale
 70
     0
300
1:10
140
1.0
141
10.0
290
     0
  0
SCALE
  5
2BA
102
{ACAD_REACTORS
330
2B3
102
}
330
2B3
100
AcDbScale
 70
     0
300
1:16
140
1.0
141
16.0
290
     0
  0
SCALE
  5
2BB
102
{ACAD_REACTORS
330
2B3
102
}
330
2B3
100
AcDbScale
 70
     0
300
1:20
140
1.0
141
20.0
290
     0
  0
SCALE
  5
2BC
102
{ACAD_REACTORS
330
2B3
102
}
330
2B3
100
AcDbScale
 70
     0
300
1:30
140
1.0
141
30.0
290
     0
  0
SCALE
  5
2BD
102
{ACAD_REACTORS
330
2B3
102
}
330
2B3
100
AcDbScale
 70
     0
300
1:40
140
1.0
141
40.0
290
     0
  0
SCALE
  5
2BE
102
{ACAD_REACTORS
330
2B3
102
}
330
2B3
100
AcDbScale
 70
     0
300
1:50
140
1.0
141
50.0
290
     0
  0
SCALE
  5
2BF
102
{ACAD_REACTORS
330
2B3
102
}
330
2B3
100
AcDbScale
 70
     0
300
1:100
140
1.0
141
100.0
290
     0
  0
SCALE
  5
2C0
102
{ACAD_REACTORS
330
2B3
102
}
330
2B3
100
AcDbScale
 70
     0
300
2:1
140
2.0
141
1.0
290
     0
  0
SCALE
  5
2C1
102
{ACAD_REACTORS
330
2B3
102
}
330
2B3
100
AcDbScale
 70
     0
300
4:1
140
4.0
141
1.0
290
     0
  0
SCALE
  5
2C2
102
{ACAD_REACTORS
330
2B3
102
}
330
2B3
100
AcDbScale
 70
     0
300
8:1
140
8.0
141
1.0
290
     0
  0
SCALE
  5
2C3
102
{ACAD_REACTORS
330
2B3
102
}
330
2B3
100
AcDbScale
 70
     0
300
10:1
140
10.0
141
1.0
290
     0
  0
SCALE
  5
2C4
102
{ACAD_REACTORS
330
2B3
102
}
330
2B3
100
AcDbScale
 70
     0
300
100:1
140
100.0
141
1.0
290
     0
  0
SCALE
  5
2C5
102
{ACAD_REACTORS
330
2B3
102
}
330
2B3
100
AcDbScale
 70
     0
300
1/128" = 1'-0"
140
0.0078125
141
12.0
290
     0
  0
SCALE
  5
2C6
102
{ACAD_REACTORS
330
2B3
102
}
330
2B3
100
AcDbScale
 70
     0
300
1/64" = 1'-0"
140
0.015625
141
12.0
290
     0
  0
SCALE
  5
2C7
102
{ACAD_REACTORS
330
2B3
102
}
330
2B3
100
AcDbScale
 70
     0
300
1/32" = 1'-0"
140
0.03125
141
12.0
290
     0
  0
SCALE
  5
2C8
102
{ACAD_REACTORS
330
2B3
102
}
330
2B3
100
AcDbScale
 70
     0
300
1/16" = 1'-0"
140
0.0625
141
12.0
290
     0
  0
SCALE
  5
2C9
102
{ACAD_REACTORS
330
2B3
102
}
330
2B3
100
AcDbScale
 70
     0
300
3/32" = 1'-0"
140
0.09375
141
12.0
290
     0
  0
SCALE
  5
2CA
102
{ACAD_REACTORS
330
2B3
102
}
330
2B3
100
AcDbScale
 70
     0
300
1/8" = 1'-0"
140
0.125
141
12.0
290
     0
  0
SCALE
  5
2CB
102
{ACAD_REACTORS
330
2B3
102
}
330
2B3
100
AcDbScale
 70
     0
300
3/16" = 1'-0"
140
0.1875
141
12.0
290
     0
  0
SCALE
  5
2CC
102
{ACAD_REACTORS
330
2B3
102
}
330
2B3
100
AcDbScale
 70
     0
300
1/4" = 1'-0"
140
0.25
141
12.0
290
     0
  0
SCALE
  5
2CD
102
{ACAD_REACTORS
330
2B3
102
}
330
2B3
100
AcDbScale
 70
     0
300
3/8" = 1'-0"
140
0.375
141
12.0
290
     0
  0
SCALE
  5
2CE
102
{ACAD_REACTORS
330
2B3
102
}
330
2B3
100
AcDbScale
 70
     0
300
1/2" = 1'-0"
140
0.5
141
12.0
290
     0
  0
SCALE
  5
2CF
102
{ACAD_REACTORS
330
2B3
102
}
330
2B3
100
AcDbScale
 70
     0
300
3/4" = 1'-0"
140
0.75
141
12.0
290
     0
  0
SCALE
  5
2D0
102
{ACAD_REACTORS
330
2B3
102
}
330
2B3
100
AcDbScale
 70
     0
300
1" = 1'-0"
140
1.0
141
12.0
290
     0
  0
SCALE
  5
2D1
102
{ACAD_REACTORS
330
2B3
102
}
330
2B3
100
AcDbScale
 70
     0
300
1-1/2" = 1'-0"
140
1.5
141
12.0
290
     0
  0
SCALE
  5
2D2
102
{ACAD_REACTORS
330
2B3
102
}
330
2B3
100
AcDbScale
 70
     0
300
3" = 1'-0"
140
3.0
141
12.0
290
     0
  0
SCALE
  5
2D3
102
{ACAD_REACTORS
330
2B3
102
}
330
2B3
100
AcDbScale
 70
     0
300
6" = 1'-0"
140
6.0
141
12.0
290
     0
  0
SCALE
  5
2D4
102
{ACAD_REACTORS
330
2B3
102
}
330
2B3
100
AcDbScale
 70
     0
300
1'-0" = 1'-0"
140
12.0
141
12.0
290
     0
  0
TABLESTYLE
  5
122
102
{ACAD_XDICTIONARY
360
2F5
102
}
102
{ACAD_REACTORS
330
121
102
}
330
121
100
AcDbTableStyle
  3
Standard
 70
     0
 71
     0
 40
1.5
 41
1.5
280
     0
281
     0
  7
STANDARD
140
4.5
170
     2
 62
     0
 63
     7
283
     0
 90
      512
 91
        0
  1

274
    -2
284
     1
 64
     0
275
    -2
285
     1
 65
     0
276
    -2
286
     1
 66
     0
277
    -2
287
     1
 67
     0
278
    -2
288
     1
 68
     0
279
    -2
289
     1
 69
     0
  7
STANDARD
140
6.0
170
     5
 62
     0
 63
     7
283
     0
 90
      512
 91
        0
  1

274
    -2
284
     1
 64
     0
275
    -2
285
     1
 65
     0
276
    -2
286
     1
 66
     0
277
    -2
287
     1
 67
     0
278
    -2
288
     1
 68
     0
279
    -2
289
     1
 69
     0
  7
STANDARD
140
4.5
170
     5
 62
     0
 63
     7
283
     0
 90
      512
 91
        0
  1

274
    -2
284
     1
 64
     0
275
    -2
285
     1
 65
     0
276
    -2
286
     1
 66
     0
277
    -2
287
     1
 67
     0
278
    -2
288
     1
 68
     0
279
    -2
289
     1
 69
     0
  0
VISUALSTYLE
  5
285
102
{ACAD_REACTORS
330
27F
102
}
330
27F
100
AcDbVisualStyle
  2
2dWireframe
 70
     4
 71
     0
 72
     2
 73
     0
 90
        0
 40
-0.6
 41
-30.0
 62
     5
 63
     7
421
 16777215
 74
     1
 91
        4
 64
     7
 65
   257
 75
     1
175
     1
 42
1.0
 92
        0
 66
   257
 43
1.0
 76
     1
 77
     6
 78
     2
 67
     7
 79
     5
170
     0
171
     0
290
     0
174
     0
 93
        1
 44
0.0
173
     0
291
     0
 45
0.0
  0
VISUALSTYLE
  5
287
102
{ACAD_REACTORS
330
27F
102
}
330
27F
100
AcDbVisualStyle
  2
3D Hidden
 70
     6
 71
     1
 72
     2
 73
     2
 90
        0
 40
-0.6
 41
-30.0
 62
     5
 63
     7
421
 16777215
 74
     2
 91
        2
 64
     7
 65
   257
 75
     2
175
     1
 42
40.0
 92
        0
 66
   257
 43
1.0
 76
     1
 77
     6
 78
     2
 67
     7
 79
     3
170
     0
171
     0
290
     0
174
     0
 93
        1
 44
0.0
173
     0
291
     0
 45
0.0
  0
VISUALSTYLE
  5
286
102
{ACAD_REACTORS
330
27F
102
}
330
27F
100
AcDbVisualStyle
  2
3dWireframe
 70
     5
 71
     0
 72
     2
 73
     0
 90
        0
 40
-0.6
 41
-30.0
 62
     5
 63
     7
421
 16777215
 74
     1
 91
        4
 64
     7
 65
   257
 75
     1
175
     1
 42
1.0
 92
        0
 66
   257
 43
1.0
 76
     1
 77
     6
 78
     2
 67
     7
 79
     5
170
     0
171
     0
290
     0
174
     0
 93
        1
 44
0.0
173
     0
291
     0
 45
0.0
  0
VISUALSTYLE
  5
284
102
{ACAD_REACTORS
330
27F
102
}
330
27F
100
AcDbVisualStyle
  2
Basic
 70
     7
 71
     1
 72
     0
 73
     1
 90
        0
 40
-0.6
 41
-30.0
 62
     5
 63
     7
421
 16777215
 74
     0
 91
        4
 64
     7
 65
   257
 75
     1
175
     1
 42
1.0
 92
        8
 66
     7
 43
1.0
 76
     1
 77
     6
 78
     2
 67
     7
 79
     5
170
     0
171
     0
290
     0
174
     0
 93
        1
 44
0.0
173
     0
291
     1
 45
0.0
  0
VISUALSTYLE
  5
28B
102
{ACAD_REACTORS
330
27F
102
}
330
27F
100
AcDbVisualStyle
  2
Brighten
 70
    12
 71
     2
 72
     2
 73
     0
 90
        0
 40
-0.6
 41
-30.0
 62
     5
 63
     7
421
 16777215
 74
     1
 91
        4
 64
     7
 65
   257
 75
     1
175
     1
 42
1.0
 92
        8
 66
     7
 43
1.0
 76
     1
 77
     6
 78
     2
 67
     7
 79
     5
170
     0
171
     0
290
     0
174
     0
 93
        1
 44
50.0
173
     0
291
     1
 45
0.0
  0
VISUALSTYLE
  5
28F
102
{ACAD_REACTORS
330
27F
102
}
330
27F
100
AcDbVisualStyle
  2
ColorChange
 70
    16
 71
     2
 72
     2
 73
     3
 90
        0
 40
-0.6
 41
-30.0
 62
     5
 63
     8
421
  8421504
 74
     1
 91
        4
 64
     7
 65
   257
 75
     1
175
     1
 42
1.0
 92
        8
 66
     8
424
  8421504
 43
1.0
 76
     1
 77
     6
 78
     2
 67
     7
 79
     5
170
     0
171
     0
290
     0
174
     0
 93
        1
 44
0.0
173
     0
291
     1
 45
0.0
  0
VISUALSTYLE
  5
288
102
{ACAD_REACTORS
330
27F
102
}
330
27F
100
AcDbVisualStyle
  2
Conceptual
 70
     9
 71
     3
 72
     2
 73
     0
 90
        0
 40
-0.6
 41
-30.0
 62
     5
 63
     7
421
 16777215
 74
     2
 91
        2
 64
     7
 65
   257
 75
     1
175
     1
 42
40.0
 92
        8
 66
     7
 43
1.0
 76
     1
 77
     6
 78
     2
 67
     7
 79
     3
170
     0
171
     0
290
     0
174
     0
 93
        1
 44
0.0
173
     0
291
     0
 45
0.0
  0
VISUALSTYLE
  5
28A
102
{ACAD_REACTORS
330
27F
102
}
330
27F
100
AcDbVisualStyle
  2
Dim
 70
    11
 71
     2
 72
     2
 73
     0
 90
        0
 40
-0.6
 41
-30.0
 62
     5
 63
     7
421
 16777215
 74
     1
 91
        4
 64
     7
 65
   257
 75
     1
175
     1
 42
1.0
 92
        8
 66
     7
 43
1.0
 76
     1
 77
     6
 78
     2
 67
     7
 79
     5
170
     0
171
     0
290
     0
174
     0
 93
        1
 44
-50.0
173
     0
291
     1
 45
0.0
  0
VISUALSTYLE
  5
28E
102
{ACAD_REACTORS
330
27F
102
}
330
27F
100
AcDbVisualStyle
  2
Facepattern
 70
    15
 71
     2
 72
     2
 73
     0
 90
        0
 40
-0.6
 41
-30.0
 62
     5
 63
     7
421
 16777215
 74
     1
 91
        4
 64
     7
 65
   257
 75
     1
175
     1
 42
1.0
 92
        8
 66
     7
 43
1.0
 76
     1
 77
     6
 78
     2
 67
     7
 79
     5
170
     0
171
     0
290
     0
174
     0
 93
        1
 44
0.0
173
     0
291
     1
 45
0.0
  0
VISUALSTYLE
  5
280
102
{ACAD_REACTORS
330
27F
102
}
330
27F
100
AcDbVisualStyle
  2
Flat
 70
     0
 71
     2
 72
     1
 73
     1
 90
        2
 40
-0.6
 41
30.0
 62
     5
 63
     7
421
 16777215
 74
     0
 91
        4
 64
     7
 65
   257
 75
     1
175
     1
 42
1.0
 92
        8
 66
     7
 43
1.0
 76
     1
 77
     6
 78
     2
 67
     7
 79
     5
170
     0
171
     0
290
     0
174
     0
 93
       13
 44
0.0
173
     0
291
     1
 45
0.0
  0
VISUALSTYLE
  5
281
102
{ACAD_REACTORS
330
27F
102
}
330
27F
100
AcDbVisualStyle
  2
FlatWithEdges
 70
     1
 71
     2
 72
     1
 73
     1
 90
        2
 40
-0.6
 41
30.0
 62
     5
 63
     7
421
 16777215
 74
     1
 91
        4
 64
     7
 65
   257
 75
     1
175
     1
 42
1.0
 92
        0
 66
   257
 43
1.0
 76
     1
 77
     6
 78
     2
 67
     7
 79
     5
170
     0
171
     0
290
     0
174
     0
 93
       13
 44
0.0
173
     0
291
     1
 45
0.0
  0
VISUALSTYLE
  5
282
102
{ACAD_REACTORS
330
27F
102
}
330
27F
100
AcDbVisualStyle
  2
Gouraud
 70
     2
 71
     2
 72
     2
 73
     1
 90
        2
 40
-0.6
 41
30.0
 62
     5
 63
     7
421
 16777215
 74
     0
 91
        4
 64
     7
 65
   257
 75
     1
175
     1
 42
1.0
 92
        0
 66
     7
 43
1.0
 76
     1
 77
     6
 78
     2
 67
     7
 79
     5
170
     0
171
     0
290
     0
174
     0
 93
       13
 44
0.0
173
     0
291
     1
 45
0.0
  0
VISUALSTYLE
  5
283
102
{ACAD_REACTORS
330
27F
102
}
330
27F
100
AcDbVisualStyle
  2
GouraudWithEdges
 70
     3
 71
     2
 72
     2
 73
     1
 90
        2
 40
-0.6
 41
30.0
 62
     5
 63
     7
421
 16777215
 74
     1
 91
        4
 64
     7
 65
   257
 75
     1
175
     1
 42
1.0
 92
        0
 66
   257
 43
1.0
 76
     1
 77
     6
 78
     2
 67
     7
 79
     5
170
     0
171
     0
290
     0
174
     0
 93
       13
 44
0.0
173
     0
291
     1
 45
0.0
  0
VISUALSTYLE
  5
28D
102
{ACAD_REACTORS
330
27F
102
}
330
27F
100
AcDbVisualStyle
  2
Linepattern
 70
    14
 71
     2
 72
     2
 73
     0
 90
        0
 40
-0.6
 41
-30.0
 62
     5
 63
     7
421
 16777215
 74
     1
 91
        4
 64
     7
 65
   257
 75
     7
175
     7
 42
1.0
 92
        8
 66
     7
 43
1.0
 76
     1
 77
     6
 78
     2
 67
     7
 79
     5
170
     0
171
     0
290
     0
174
     0
 93
        1
 44
0.0
173
     0
291
     1
 45
0.0
  0
VISUALSTYLE
  5
289
102
{ACAD_REACTORS
330
27F
102
}
330
27F
100
AcDbVisualStyle
  2
Realistic
 70
     8
 71
     2
 72
     2
 73
     0
 90
        0
 40
-0.6
 41
-30.0
 62
     5
 63
     7
421
 16777215
 74
     1
 91
        0
 64
     7
 65
   257
 75
     1
175
     1
 42
1.0
 92
        8
 66
     8
424
  7895160
 43
1.0
 76
     1
 77
     6
 78
     2
 67
     7
 79
     5
170
     0
171
     0
290
     0
174
     0
 93
       13
 44
0.0
173
     0
291
     0
 45
0.0
  0
VISUALSTYLE
  5
28C
102
{ACAD_REACTORS
330
27F
102
}
330
27F
100
AcDbVisualStyle
  2
Thicken
 70
    13
 71
     2
 72
     2
 73
     0
 90
        0
 40
-0.6
 41
-30.0
 62
     5
 63
     7
421
 16777215
 74
     1
 91
        4
 64
     7
 65
   257
 75
     1
175
     1
 42
1.0
 92
       12
 66
     7
 43
1.0
 76
     1
 77
     6
 78
     2
 67
     7
 79
     5
170
     0
171
     0
290
     0
174
     0
 93
        1
 44
0.0
173
     0
291
     1
 45
0.0
  0
DICTIONARYVAR
  5
2FA
102
{ACAD_REACTORS
330
34
102
}
330
34
100
DictionaryVariables
280
     0
  1
1:10
  0
DICTIONARYVAR
  5
2F8
102
{ACAD_REACTORS
330
34
102
}
330
34
100
DictionaryVariables
280
     0
  1
STANDARD
  0
DICTIONARYVAR
  5
140
102
{ACAD_REACTORS
330
34
102
}
330
34
100
DictionaryVariables
280
     0
  1
STANDARD
  0
DICTIONARYVAR
  5
AC
102
{ACAD_REACTORS
330
34
102
}
330
34
100
DictionaryVariables
280
     0
  1
1
  0
DICTIONARYVAR
  5
35
102
{ACAD_REACTORS
330
34
102
}
330
34
100
DictionaryVariables
280
     0
  1
1
  0
DICTIONARYVAR
  5
6228
102
{ACAD_REACTORS
330
34
102
}
330
34
100
DictionaryVariables
280
     0
  1
1
  0
DICTIONARYVAR
  5
6229
102
{ACAD_REACTORS
330
34
102
}
330
34
100
DictionaryVariables
280
     0
  1
15
  0
DICTIONARYVAR
  5
2FB
102
{ACAD_REACTORS
330
34
102
}
330
34
100
DictionaryVariables
280
     0
  1
0
  0
DICTIONARYVAR
  5
2F9
102
{ACAD_REACTORS
330
34
102
}
330
34
100
DictionaryVariables
280
     0
  1
0
  0
DICTIONARY
  5
161B
102
{ACAD_REACTORS
330
49
102
}
330
49
100
AcDbDictionary
281
     1
  0
DICTIONARY
  5
4A
102
{ACAD_REACTORS
330
49
102
}
330
49
100
AcDbDictionary
281
     1
  0
XRECORD
  5
12B
102
{ACAD_REACTORS
330
49
102
}
330
49
100
AcDbXrecord
280
     1
 90
-1023410169
  0
DICTIONARY
  5
2F5
330
122
100
AcDbDictionary
280
     1
281
     1
  3
ACAD_ROUNDTRIP_2008_TABLESTYLE_CELLSTYLEMAP
360
890F
  0
CELLSTYLEMAP
  5
890F
102
{ACAD_REACTORS
330
2F5
102
}
330
2F5
100
AcDbCellStyleMap
 90
        3
300
CELLSTYLE
  1
TABLEFORMAT_BEGIN
 90
        5
170
     1
 91
        0
 92
    32768
 62
   257
 93
        1
300
CONTENTFORMAT
  1
CONTENTFORMAT_BEGIN
 90
        0
 91
        0
 92
      512
 93
        0
300

 40
0.0
140
1.0
 94
        5
 62
     0
340
11
144
6.0
309
CONTENTFORMAT_END
171
     1
301
MARGIN
  1
CELLMARGIN_BEGIN
 40
1.5
 40
1.5
 40
1.5
 40
1.5
 40
0.18
 40
0.18
309
CELLMARGIN_END
 94
        6
 95
        1
302
GRIDFORMAT
  1
GRIDFORMAT_BEGIN
 90
        0
 91
        1
 62
     0
 92
       -2
340
0
 93
        0
 40
0.045
309
GRIDFORMAT_END
 95
        2
302
GRIDFORMAT
  1
GRIDFORMAT_BEGIN
 90
        0
 91
        1
 62
     0
 92
       -2
340
0
 93
        0
 40
0.045
309
GRIDFORMAT_END
 95
        4
302
GRIDFORMAT
  1
GRIDFORMAT_BEGIN
 90
        0
 91
        1
 62
     0
 92
       -2
340
0
 93
        0
 40
0.045
309
GRIDFORMAT_END
 95
        8
302
GRIDFORMAT
  1
GRIDFORMAT_BEGIN
 90
        0
 91
        1
 62
     0
 92
       -2
340
0
 93
        0
 40
0.045
309
GRIDFORMAT_END
 95
       16
302
GRIDFORMAT
  1
GRIDFORMAT_BEGIN
 90
        0
 91
        1
 62
     0
 92
       -2
340
0
 93
        0
 40
0.045
309
GRIDFORMAT_END
 95
       32
302
GRIDFORMAT
  1
GRIDFORMAT_BEGIN
 90
        0
 91
        1
 62
     0
 92
       -2
340
0
 93
        0
 40
0.045
309
GRIDFORMAT_END
309
TABLEFORMAT_END
  1
CELLSTYLE_BEGIN
 90
        1
 91
        1
300
_TITLE
309
CELLSTYLE_END
300
CELLSTYLE
  1
TABLEFORMAT_BEGIN
 90
        5
170
     1
 91
        0
 92
        0
 62
   257
 93
        1
300
CONTENTFORMAT
  1
CONTENTFORMAT_BEGIN
 90
        0
 91
        0
 92
      512
 93
        0
300

 40
0.0
140
1.0
 94
        5
 62
     0
340
11
144
4.5
309
CONTENTFORMAT_END
171
     1
301
MARGIN
  1
CELLMARGIN_BEGIN
 40
1.5
 40
1.5
 40
1.5
 40
1.5
 40
0.18
 40
0.18
309
CELLMARGIN_END
 94
        6
 95
        1
302
GRIDFORMAT
  1
GRIDFORMAT_BEGIN
 90
        0
 91
        1
 62
     0
 92
       -2
340
0
 93
        0
 40
0.045
309
GRIDFORMAT_END
 95
        2
302
GRIDFORMAT
  1
GRIDFORMAT_BEGIN
 90
        0
 91
        1
 62
     0
 92
       -2
340
0
 93
        0
 40
0.045
309
GRIDFORMAT_END
 95
        4
302
GRIDFORMAT
  1
GRIDFORMAT_BEGIN
 90
        0
 91
        1
 62
     0
 92
       -2
340
0
 93
        0
 40
0.045
309
GRIDFORMAT_END
 95
        8
302
GRIDFORMAT
  1
GRIDFORMAT_BEGIN
 90
        0
 91
        1
 62
     0
 92
       -2
340
0
 93
        0
 40
0.045
309
GRIDFORMAT_END
 95
       16
302
GRIDFORMAT
  1
GRIDFORMAT_BEGIN
 90
        0
 91
        1
 62
     0
 92
       -2
340
0
 93
        0
 40
0.045
309
GRIDFORMAT_END
 95
       32
302
GRIDFORMAT
  1
GRIDFORMAT_BEGIN
 90
        0
 91
        1
 62
     0
 92
       -2
340
0
 93
        0
 40
0.045
309
GRIDFORMAT_END
309
TABLEFORMAT_END
  1
CELLSTYLE_BEGIN
 90
        2
 91
        1
300
_HEADER
309
CELLSTYLE_END
300
CELLSTYLE
  1
TABLEFORMAT_BEGIN
 90
        5
170
     1
 91
        0
 92
        0
 62
   257
 93
        1
300
CONTENTFORMAT
  1
CONTENTFORMAT_BEGIN
 90
        0
 91
        0
 92
      512
 93
        0
300

 40
0.0
140
1.0
 94
        2
 62
     0
340
11
144
4.5
309
CONTENTFORMAT_END
171
     1
301
MARGIN
  1
CELLMARGIN_BEGIN
 40
1.5
 40
1.5
 40
1.5
 40
1.5
 40
0.18
 40
0.18
309
CELLMARGIN_END
 94
        6
 95
        1
302
GRIDFORMAT
  1
GRIDFORMAT_BEGIN
 90
        0
 91
        1
 62
     0
 92
       -2
340
0
 93
        0
 40
0.045
309
GRIDFORMAT_END
 95
        2
302
GRIDFORMAT
  1
GRIDFORMAT_BEGIN
 90
        0
 91
        1
 62
     0
 92
       -2
340
0
 93
        0
 40
0.045
309
GRIDFORMAT_END
 95
        4
302
GRIDFORMAT
  1
GRIDFORMAT_BEGIN
 90
        0
 91
        1
 62
     0
 92
       -2
340
0
 93
        0
 40
0.045
309
GRIDFORMAT_END
 95
        8
302
GRIDFORMAT
  1
GRIDFORMAT_BEGIN
 90
        0
 91
        1
 62
     0
 92
       -2
340
0
 93
        0
 40
0.045
309
GRIDFORMAT_END
 95
       16
302
GRIDFORMAT
  1
GRIDFORMAT_BEGIN
 90
        0
 91
        1
 62
     0
 92
       -2
340
0
 93
        0
 40
0.045
309
GRIDFORMAT_END
 95
       32
302
GRIDFORMAT
  1
GRIDFORMAT_BEGIN
 90
        0
 91
        1
 62
     0
 92
       -2
340
0
 93
        0
 40
0.045
309
GRIDFORMAT_END
309
TABLEFORMAT_END
  1
CELLSTYLE_BEGIN
 90
        3
 91
        2
300
_DATA
309
CELLSTYLE_END
  0
ENDSEC
  0
EOF
