  0
SECTION
  2
HEADER
  9
$ACADVER
  1
AC1021
  9
$ACADMAINTVER
 70
    26
  9
$DWGCODEPAGE
  3
ANSI_932
  9
$LASTSAVEDBY
  1
Htm_Terada
  9
$CUSTOMPROPERTYTAG
  1
AmdtFileType
  9
$CUSTOMPROPERTY
  1
84
  9
$INSBASE
 10
0.0
 20
0.0
 30
0.0
  9
$EXTMIN
 10
1337.543434401052
 20
1418.517830128632
 30
0.0
  9
$EXTMAX
 10
3141.486427107377
 20
2685.216031466155
 30
0.0
  9
$LIMMIN
 10
0.0000019143385543
 20
0.0000036938206449
  9
$LIMMAX
 10
4200.000001914339
 20
2970.000003693821
  9
$ORTHOMODE
 70
     1
  9
$REGENMODE
 70
     1
  9
$FILLMODE
 70
     1
  9
$QTEXTMODE
 70
     0
  9
$MIRRTEXT
 70
     1
  9
$LTSCALE
 40
10.0
  9
$ATTMODE
 70
     1
  9
$TEXTSIZE
 40
25.0
  9
$TRACEWID
 40
1.0
  9
$TEXTSTYLE
  7
SEISA
  9
$CLAYER
  8
AM_0 外形線1
  9
$CELTYPE
  6
ByLayer
  9
$CECOLOR
 62
   256
  9
$CELTSCALE
 40
1.0
  9
$DISPSILH
 70
     0
  9
$DIMSCALE
 40
10.0
  9
$DIMASZ
 40
2.5
  9
$DIMEXO
 40
0.625
  9
$DIMDLI
 40
10.0
  9
$DIMRND
 40
0.0
  9
$DIMDLE
 40
0.0
  9
$DIMEXE
 40
0.625
  9
$DIMTP
 40
0.1
  9
$DIMTM
 40
0.1
  9
$DIMTXT
 40
3.5
  9
$DIMCEN
 40
0.0
  9
$DIMTSZ
 40
0.0
  9
$DIMTOL
 70
     0
  9
$DIMLIM
 70
     0
  9
$DIMTIH
 70
     0
  9
$DIMTOH
 70
     0
  9
$DIMSE1
 70
     0
  9
$DIMSE2
 70
     0
  9
$DIMTAD
 70
     3
  9
$DIMZIN
 70
     8
  9
$DIMBLK
  1
Open30
  9
$DIMASO
 70
     1
  9
$DIMSHO
 70
     1
  9
$DIMPOST
  1

  9
$DIMAPOST
  1
"
  9
$DIMALT
 70
     0
  9
$DIMALTD
 70
     2
  9
$DIMALTF
 40
0.0393701
  9
$DIMLFAC
 40
1.0
  9
$DIMTOFL
 70
     1
  9
$DIMTVP
 40
0.0
  9
$DIMTIX
 70
     0
  9
$DIMSOXD
 70
     0
  9
$DIMSAH
 70
     0
  9
$DIMBLK1
  1

  9
$DIMBLK2
  1

  9
$DIMSTYLE
  2
SEISA
  9
$DIMCLRD
 70
     3
  9
$DIMCLRE
 70
     3
  9
$DIMCLRT
 70
     3
  9
$DIMTFAC
 40
0.71
  9
$DIMGAP
 40
1.5
  9
$DIMJUST
 70
     0
  9
$DIMSD1
 70
     0
  9
$DIMSD2
 70
     0
  9
$DIMTOLJ
 70
     0
  9
$DIMTZIN
 70
     0
  9
$DIMALTZ
 70
     0
  9
$DIMALTTZ
 70
     8
  9
$DIMUPT
 70
     0
  9
$DIMDEC
 70
     2
  9
$DIMTDEC
 70
     2
  9
$DIMALTU
 70
     2
  9
$DIMALTTD
 70
     2
  9
$DIMTXSTY
  7
SEISA
  9
$DIMAUNIT
 70
     0
  9
$DIMADEC
 70
     0
  9
$DIMALTRND
 40
0.0
  9
$DIMAZIN
 70
     2
  9
$DIMDSEP
 70
    46
  9
$DIMATFIT
 70
     3
  9
$DIMFRAC
 70
     0
  9
$DIMLDRBLK
  1
Open30
  9
$DIMLUNIT
 70
     2
  9
$DIMLWD
 70
    -1
  9
$DIMLWE
 70
    -1
  9
$DIMTMOVE
 70
     0
  9
$DIMFXL
 40
1.0
  9
$DIMFXLON
 70
     0
  9
$DIMJOGANG
 40
0.7853981633974483
  9
$DIMTFILL
 70
     0
  9
$DIMTFILLCLR
 70
     0
  9
$DIMARCSYM
 70
     1
  9
$DIMLTYPE
  6

  9
$DIMLTEX1
  6

  9
$DIMLTEX2
  6

  9
$LUNITS
 70
     2
  9
$LUPREC
 70
     2
  9
$SKETCHINC
 40
1.0
  9
$FILLETRAD
 40
1.6
  9
$AUNITS
 70
     0
  9
$AUPREC
 70
     0
  9
$MENU
  1
.
  9
$ELEVATION
 40
0.0
  9
$PELEVATION
 40
0.0
  9
$THICKNESS
 40
0.0
  9
$LIMCHECK
 70
     0
  9
$CHAMFERA
 40
9.999999999999543
  9
$CHAMFERB
 40
9.999999999999316
  9
$CHAMFERC
 40
9.999999999999543
  9
$CHAMFERD
 40
0.7853981633974936
  9
$SKPOLY
 70
     0
  9
$TDCREATE
 40
2454944.693472813
  9
$TDUCREATE
 40
2454944.318472812
  9
$TDUPDATE
 40
2456478.714486030
  9
$TDUUPDATE
 40
2456478.339486030
  9
$TDINDWG
 40
0.3148486227
  9
$TDUSRTIMER
 40
0.3148473495
  9
$USRTIMER
 70
     1
  9
$ANGBASE
 50
0.0
  9
$ANGDIR
 70
     0
  9
$PDMODE
 70
     0
  9
$PDSIZE
 40
0.0
  9
$PLINEWID
 40
0.0
  9
$SPLFRAME
 70
     0
  9
$SPLINETYPE
 70
     6
  9
$SPLINESEGS
 70
     8
  9
$HANDSEED
  5
8405
  9
$SURFTAB1
 70
     6
  9
$SURFTAB2
 70
     6
  9
$SURFTYPE
 70
     6
  9
$SURFU
 70
     6
  9
$SURFV
 70
     6
  9
$UCSBASE
  2

  9
$UCSNAME
  2

  9
$UCSORG
 10
0.0
 20
0.0
 30
0.0
  9
$UCSXDIR
 10
1.0
 20
0.0
 30
0.0
  9
$UCSYDIR
 10
0.0
 20
1.0
 30
0.0
  9
$UCSORTHOREF
  2

  9
$UCSORTHOVIEW
 70
     0
  9
$UCSORGTOP
 10
0.0
 20
0.0
 30
0.0
  9
$UCSORGBOTTOM
 10
0.0
 20
0.0
 30
0.0
  9
$UCSORGLEFT
 10
0.0
 20
0.0
 30
0.0
  9
$UCSORGRIGHT
 10
0.0
 20
0.0
 30
0.0
  9
$UCSORGFRONT
 10
0.0
 20
0.0
 30
0.0
  9
$UCSORGBACK
 10
0.0
 20
0.0
 30
0.0
  9
$PUCSBASE
  2

  9
$PUCSNAME
  2

  9
$PUCSORG
 10
0.0
 20
0.0
 30
0.0
  9
$PUCSXDIR
 10
1.0
 20
0.0
 30
0.0
  9
$PUCSYDIR
 10
0.0
 20
1.0
 30
0.0
  9
$PUCSORTHOREF
  2

  9
$PUCSORTHOVIEW
 70
     0
  9
$PUCSORGTOP
 10
0.0
 20
0.0
 30
0.0
  9
$PUCSORGBOTTOM
 10
0.0
 20
0.0
 30
0.0
  9
$PUCSORGLEFT
 10
0.0
 20
0.0
 30
0.0
  9
$PUCSORGRIGHT
 10
0.0
 20
0.0
 30
0.0
  9
$PUCSORGFRONT
 10
0.0
 20
0.0
 30
0.0
  9
$PUCSORGBACK
 10
0.0
 20
0.0
 30
0.0
  9
$USERI1
 70
     0
  9
$USERI2
 70
     0
  9
$USERI3
 70
     0
  9
$USERI4
 70
     0
  9
$USERI5
 70
     0
  9
$USERR1
 40
0.0
  9
$USERR2
 40
0.0
  9
$USERR3
 40
0.0
  9
$USERR4
 40
0.0
  9
$USERR5
 40
0.0
  9
$WORLDVIEW
 70
     1
  9
$SHADEDGE
 70
     3
  9
$SHADEDIF
 70
    70
  9
$TILEMODE
 70
     1
  9
$MAXACTVP
 70
    64
  9
$PINSBASE
 10
0.0
 20
0.0
 30
0.0
  9
$PLIMCHECK
 70
     0
  9
$PEXTMIN
 10
1.000000000000000E+20
 20
1.000000000000000E+20
 30
1.000000000000000E+20
  9
$PEXTMAX
 10
-1.000000000000000E+20
 20
-1.000000000000000E+20
 30
-1.000000000000000E+20
  9
$PLIMMIN
 10
0.0
 20
0.0
  9
$PLIMMAX
 10
420.0
 20
297.0
  9
$UNITMODE
 70
     0
  9
$VISRETAIN
 70
     1
  9
$PLINEGEN
 70
     0
  9
$PSLTSCALE
 70
     1
  9
$TREEDEPTH
 70
  3020
  9
$CMLSTYLE
  2
Standard
  9
$CMLJUST
 70
     0
  9
$CMLSCALE
 40
20.0
  9
$PROXYGRAPHICS
 70
     1
  9
$MEASUREMENT
 70
     1
  9
$CELWEIGHT
370
    -1
  9
$ENDCAPS
280
     0
  9
$JOINSTYLE
280
     0
  9
$LWDISPLAY
290
     0
  9
$INSUNITS
 70
     4
  9
$HYPERLINKBASE
  1

  9
$STYLESHEET
  1
SEISA.CTB
  9
$XEDIT
290
     1
  9
$CEPSNTYPE
380
     0
  9
$PSTYLEMODE
290
     1
  9
$FINGERPRINTGUID
  2
{3E1031B8-335C-4E5D-88A1-C90761ADD486}
  9
$VERSIONGUID
  2
{B5548536-8943-4B6C-B8F8-AFB1D14177B2}
  9
$EXTNAMES
290
     1
  9
$PSVPSCALE
 40
0.0
  9
$OLESTARTUP
290
     0
  9
$SORTENTS
280
   127
  9
$INDEXCTL
280
     0
  9
$HIDETEXT
280
     0
  9
$XCLIPFRAME
290
     0
  9
$HALOGAP
280
     0
  9
$OBSCOLOR
 70
   257
  9
$OBSLTYPE
280
     0
  9
$INTERSECTIONDISPLAY
280
     0
  9
$INTERSECTIONCOLOR
 70
   257
  9
$DIMASSOC
280
     2
  9
$PROJECTNAME
  1

  9
$CAMERADISPLAY
290
     0
  9
$LENSLENGTH
 40
50.0
  9
$CAMERAHEIGHT
 40
0.0
  9
$STEPSPERSEC
 40
2.0
  9
$STEPSIZE
 40
6.0
  9
$3DDWFPREC
 40
2.0
  9
$PSOLWIDTH
 40
0.25
  9
$PSOLHEIGHT
 40
4.0
  9
$LOFTANG1
 40
1.570796326794896
  9
$LOFTANG2
 40
1.570796326794896
  9
$LOFTMAG1
 40
0.0
  9
$LOFTMAG2
 40
0.0
  9
$LOFTPARAM
 70
     7
  9
$LOFTNORMALS
280
     1
  9
$LATITUDE
 40
37.795
  9
$LONGITUDE
 40
-122.394
  9
$NORTHDIRECTION
 40
0.0
  9
$TIMEZONE
 70
 -8000
  9
$LIGHTGLYPHDISPLAY
280
     1
  9
$TILEMODELIGHTSYNCH
280
     1
  9
$CMATERIAL
347
27C
  9
$SOLIDHIST
280
     1
  9
$SHOWHIST
280
     1
  9
$DWFFRAME
280
     2
  9
$DGNFRAME
280
     0
  9
$REALWORLDSCALE
290
     1
  9
$INTERFERECOLOR
 62
     1
  9
$INTERFEREOBJVS
345
289
  9
$INTERFEREVPVS
346
286
  9
$CSHADOW
280
     0
  9
$SHADOWPLANELOCATION
 40
0.0
  0
ENDSEC
  0
SECTION
  2
CLASSES
  0
CLASS
  1
ACDBDICTIONARYWDFLT
  2
AcDbDictionaryWithDefault
  3
ObjectDBX Classes
 90
        0
 91
        1
280
     0
281
     0
  0
CLASS
  1
AMGSETTINGSOBJ
  2
AmgSettingsObj
  3
"AcadM|Product Description: AutoCAD Mechanical|Company: Autodesk, Inc."
 90
     1024
 91
        2
280
     0
281
     0
  0
CLASS
  1
ACME_DOCUMENT
  2
AcMeDbDoc
  3
AcMeServices
 90
     1024
 91
        1
280
     0
281
     0
  0
CLASS
  1
ACMESCOPE
  2
AcMeScope
  3
AcMeServices
 90
     1024
 91
        1
280
     0
281
     0
  0
CLASS
  1
ACMECOMMANDHISTORY
  2
AcMeCommandHistory
  3
AcMeServices
 90
     1024
 91
        1
280
     0
281
     0
  0
CLASS
  1
DICTIONARYVAR
  2
AcDbDictionaryVar
  3
ObjectDBX Classes
 90
        0
 91
        9
280
     0
281
     0
  0
CLASS
  1
ACIMSYSVARMAN
  2
AcImSysVarManager
  3
AcMeServices
 90
     1024
 91
        5
280
     0
281
     0
  0
CLASS
  1
ACIMREALSYSVAR
  2
AcImRealSysVar
  3
AcMeServices
 90
     1024
 91
        1
280
     0
281
     0
  0
CLASS
  1
ACIMINTSYSVAR
  2
AcImIntSysVar
  3
AcMeServices
 90
     1024
 91
       27
280
     0
281
     0
  0
CLASS
  1
ACMEDRAWINGMAN
  2
AcMeDrawingMan
  3
AcMeServices
 90
     1024
 91
        1
280
     0
281
     0
  0
CLASS
  1
ACMEVIEW
  2
AcMeView
  3
AcMeServices
 90
     1024
 91
        1
280
     0
281
     0
  0
CLASS
  1
ACDBENTITYCACHE
  2
AcMeEntityCache
  3
AcMeServices
 90
     1024
 91
        1
280
     0
281
     0
  0
CLASS
  1
GSMANAGER
  2
AcMeGSManager
  3
AcMeServices
 90
     1024
 91
        1
280
     0
281
     0
  0
CLASS
  1
AMDTINTERNALREACTOR
  2
AmdtInternalReactor
  3
AcMeServices
 90
     1024
 91
        2
280
     0
281
     0
  0
CLASS
  1
ACMESTATEMGR
  2
AcMeStateMgr
  3
AcMeServices
 90
     1024
 91
        1
280
     0
281
     0
  0
CLASS
  1
ACGREFMASTER
  2
AcGrefMaster
  3
AcAttribServices
 90
     1024
 91
        1
280
     0
281
     0
  0
CLASS
  1
ACME_DATABASE
  2
AcMeDbDatabase
  3
AcMeServices
 90
     1024
 91
        1
280
     0
281
     0
  0
CLASS
  1
ACRFINSADJUSTERMGR
  2
AcRfInsAdjusterMgr
  3
AcMeServices
 90
     1024
 91
        1
280
     0
281
     0
  0
CLASS
  1
ACGREFACADMASTER
  2
AcGrefacadMaster
  3
AcGrefServices
 90
     1024
 91
        1
280
     0
281
     0
  0
CLASS
  1
AMIMASTER
  2
AmiMaster
  3
AmiServices
 90
     1024
 91
        1
280
     0
281
     0
  0
CLASS
  1
ACIMSTRSYSVAR
  2
AcImStrSysVar
  3
AcMeServices
 90
     1024
 91
        5
280
     0
281
     0
  0
CLASS
  1
ACMSTANDARDJIS
  2
AcmStandardJIS
  3
"Amdt_StdImp|Product Description: AutoCAD Mechanical|Company: Autodesk, Inc."
 90
     1024
 91
        0
280
     0
281
     0
  0
CLASS
  1
AMGOBJPROPCFG
  2
AmgObjPropCfg
  3
"AmgLay|Product Description: AutoCAD Mechanical|Company: Autodesk, Inc."
 90
     1025
 91
        1
280
     0
281
     0
  0
CLASS
  1
ACMSURFSTANDARDJIS
  2
AcmSurfTextStdJIS
  3
"Amdt_StdImp|Product Description: AutoCAD Mechanical|Company: Autodesk, Inc."
 90
     1024
 91
        0
280
     0
281
     0
  0
CLASS
  1
ACMFCFSTANDARDJIS
  2
AcmFCFStdJIS
  3
"Amdt_StdImp|Product Description: AutoCAD Mechanical|Company: Autodesk, Inc."
 90
     1024
 91
        0
280
     0
281
     0
  0
CLASS
  1
ACMWELDSTANDARDJIS
  2
AcmWeldingStdJIS
  3
"Amdt_StdImp|Product Description: AutoCAD Mechanical|Company: Autodesk, Inc."
 90
     1024
 91
        0
280
     0
281
     0
  0
CLASS
  1
ACMIDSTANDARDJIS
  2
AcmIdStdJIS
  3
"Amdt_StdImp|Product Description: AutoCAD Mechanical|Company: Autodesk, Inc."
 90
     1024
 91
        0
280
     0
281
     0
  0
CLASS
  1
ACMDATUMSTANDARDJIS
  2
AcmDatumStdJIS
  3
"Amdt_StdImp|Product Description: AutoCAD Mechanical|Company: Autodesk, Inc."
 90
     1024
 91
        0
280
     0
281
     0
  0
CLASS
  1
ACMBOMSTANDARDJIS
  2
AcmBOMStdJIS
  3
"Amdt_StdImp|Product Description: AutoCAD Mechanical|Company: Autodesk, Inc."
 90
     1024
 91
        0
280
     0
281
     0
  0
CLASS
  1
ACMDETAILSTANDARDJIS
  2
AmdtDetailSymStdJIS
  3
"Amdt_StdImp|Product Description: AutoCAD Mechanical|Company: Autodesk, Inc."
 90
     1024
 91
        0
280
     0
281
     0
  0
CLASS
  1
ACMSECTIONSTANDARDJIS
  2
AmdtSectionSymStdJIS
  3
"Amdt_StdImp|Product Description: AutoCAD Mechanical|Company: Autodesk, Inc."
 90
     1024
 91
        0
280
     0
281
     0
  0
CLASS
  1
ACMCENTERLINESTANDARDJIS
  2
AmdtCenterLineStdJIS
  3
"Amdt_StdImp|Product Description: AutoCAD Mechanical|Company: Autodesk, Inc."
 90
     1024
 91
        0
280
     0
281
     0
  0
CLASS
  1
ACMTHREADLINESTANDARDJIS
  2
AmdtThreadLineStdJIS
  3
"Amdt_StdImp|Product Description: AutoCAD Mechanical|Company: Autodesk, Inc."
 90
     1024
 91
        0
280
     0
281
     0
  0
CLASS
  1
ACAMGLAYSTD
  2
AcAmgLayStd
  3
"AmgLay|Product Description: AutoCAD Mechanical|Company: Autodesk, Inc."
 90
     1024
 91
        1
280
     0
281
     0
  0
CLASS
  1
ACAMGDIMSTD
  2
AcAmgDimStd
  3
"AmgDim|Product Description: AutoCAD Mechanical|Company: Autodesk, Inc."
 90
     1024
 91
        1
280
     0
281
     0
  0
CLASS
  1
ACAMGTITLESTD
  2
AcAmgTitleStd
  3
"AmgTitle|Product Description: AutoCAD Mechanical|Company: Autodesk, Inc."
 90
     4095
 91
        1
280
     0
281
     0
  0
CLASS
  1
ACMDATADICTIONARY
  2
AcmDataDictionary
  3
"AcmSymBB|Product Description: AutoCAD Mechanical|Company: Autodesk, Inc."
 90
     1024
 91
        1
280
     0
281
     0
  0
CLASS
  1
ACMDATAENTRYBLOCK
  2
AcmDataEntryBlock
  3
AcmSymBB|Product Description: AutoCAD Mechanical|Company: Autodesk, Inc.
 90
     1024
 91
        0
280
     0
281
     0
  0
CLASS
  1
LAYER_INDEX
  2
AcDbLayerIndex
  3
ObjectDBX Classes
 90
        0
 91
        0
280
     0
281
     0
  0
CLASS
  1
IDBUFFER
  2
AcDbIdBuffer
  3
ObjectDBX Classes
 90
        0
 91
        0
280
     0
281
     0
  0
CLASS
  1
ACMNOTESTANDARDJIS
  2
AmdtNoteStdJIS
  3
"Amdt_StdImp|Product Description: AutoCAD Mechanical|Company: Autodesk, Inc."
 90
     1024
 91
        0
280
     0
281
     0
  0
CLASS
  1
ACAMGHOLECHARTSTDJIS
  2
AcAmgHoleChartStdJIS
  3
AmgDim|Product Description: AutoCAD Mechanical|Company: Autodesk, Inc.
 90
     1024
 91
        0
280
     0
281
     0
  0
CLASS
  1
AM_DRAWING_MGR
  2
AcDmDwgMgr
  3
AcMechDwgViewMgmt
 90
     1024
 91
        1
280
     0
281
     0
  0
CLASS
  1
AM_DWG_DOCUMENT
  2
AcDmDwgDocument
  3
AcMechDwgViewMgmt
 90
     1024
 91
        1
280
     0
281
     0
  0
CLASS
  1
AM_DWG_SHEET
  2
AcDmSheet
  3
AcMechDwgViewMgmt
 90
     1024
 91
        2
280
     0
281
     0
  0
CLASS
  1
AM_VIEWDIMPARMAP
  2
AcDmViewDimParMap
  3
AcMechDwgViewMgmt
 90
     1024
 91
        2
280
     0
281
     0
  0
CLASS
  1
AM_DWGMGR_NAME
  2
AcDmDwgMgrName
  3
AcMechDwgViewMgmt
 90
     1024
 91
        1
280
     0
281
     0
  0
CLASS
  1
AMDTMENUSTATEMGR
  2
AmdtMenuStateMgr
  3
McadcomServices
 90
     1024
 91
        1
280
     0
281
     0
  0
CLASS
  1
AMDTMCOMMENUSTATE
  2
AmdtMcomMenuState
  3
McadcomServices
 90
     1024
 91
        1
280
     0
281
     0
  0
CLASS
  1
MAPIAMMOUDLE
  2
MApiAmModule
  3
MApiAmServices
 90
     1024
 91
        1
280
     0
281
     0
  0
CLASS
  1
AMDTADMENUSTATE
  2
AmdtAdMenuState
  3
DesignerServices
 90
     1024
 91
        1
280
     0
281
     0
  0
CLASS
  1
ADAPPL
  2
AcAdAppl
  3
DesignerServices
 90
     1024
 91
        1
280
     0
281
     0
  0
CLASS
  1
DEPMGR
  2
AcAdDepMgr
  3
DesignerServices
 90
     1024
 91
        1
280
     0
281
     0
  0
CLASS
  1
PARAMMGR
  2
AcAdParamMgr
  3
DesignerServices
 90
     1024
 91
        1
280
     0
281
     0
  0
CLASS
  1
PARAMSCOPE
  2
AcAdParamScope
  3
DesignerServices
 90
     1024
 91
        1
280
     0
281
     0
  0
CLASS
  1
NAMEDAPPL
  2
AcAdNamedAppl
  3
DesignerServices
 90
     1024
 91
        1
280
     0
281
     0
  0
CLASS
  1
AMDTDMMENUSTATE
  2
AmdtDmMenuState
  3
AcMechDwgViewMgmt
 90
     1024
 91
        1
280
     0
281
     0
  0
CLASS
  1
AMDTAMMENUSTATE
  2
AmdtAmMenuState
  3
DesignerAssemblies
 90
     1024
 91
        1
280
     0
281
     0
  0
CLASS
  1
ACAMPROJECT
  2
AcAmProject
  3
DesignerAssemblies
 90
     1024
 91
        1
280
     0
281
     0
  0
CLASS
  1
ACAMGRCOMPDEF
  2
AcAmGrCompDef
  3
DesignerAssemblies
 90
     1024
 91
        1
280
     0
281
     0
  0
CLASS
  1
ACCMCONTEXT
  2
AcCmContext
  3
DesignerAssemblies
 90
     1024
 91
        1
280
     0
281
     0
  0
CLASS
  1
ACAMCOMPDEF
  2
AcAmCompDef
  3
DesignerAssemblies
 90
     1024
 91
        1
280
     0
281
     0
  0
CLASS
  1
ACAMCOMPDEFMGR
  2
AcAmCompDefMgr
  3
DesignerAssemblies
 90
     1024
 91
        1
280
     0
281
     0
  0
CLASS
  1
AMCONTEXTMGR
  2
AcAmContextMgr
  3
DesignerAssemblies
 90
     1024
 91
        1
280
     0
281
     0
  0
CLASS
  1
ACAMCONTEXTMODELER
  2
AcAmContextModeler
  3
DesignerAssemblies
 90
     1024
 91
        1
280
     0
281
     0
  0
CLASS
  1
CATALOGSTATE
  2
AcAmCatalogState
  3
DesignerAssemblies
 90
     1024
 91
        1
280
     0
281
     0
  0
CLASS
  1
ACAMGRCOMPDEFSET
  2
AcAmGrCompDefSet
  3
DesignerAssemblies
 90
     1024
 91
        1
280
     0
281
     0
  0
CLASS
  1
AMDTBROWSERDBTAB
  2
AmdtBrowserDbTab
  3
McadcomServices
 90
     1024
 91
        1
280
     0
281
     0
  0
CLASS
  1
CBROWSERAPPOBJECT
  2
CBrowserAppObject
  3
McadcomServices
 90
     1024
 91
        3
280
     0
281
     0
  0
CLASS
  1
DM_PLACEHOLDER
  2
AcDmSelsetPlaceholder
  3
AcMechDwgViewMgmt
 90
     1024
 91
        1
280
     0
281
     0
  0
CLASS
  1
TABLESTYLE
  2
AcDbTableStyle
  3
ObjectDBX Classes
 90
     4095
 91
        1
280
     0
281
     0
  0
CLASS
  1
VAACXREFPANELOBJECT
  2
VaAcXREFPanelObject
  3
VAAC_ADDIN
 90
        0
 91
        0
280
     0
281
     0
  0
CLASS
  1
VAACIMAGEINVENTORY
  2
VaAcImageInventory
  3
VAAC_ADDIN
 90
        0
 91
        0
280
     0
281
     0
  0
CLASS
  1
AMDTNOTETEMPLATEDB
  2
AmdtNoteTemplateDB
  3
AcmSymBB|Product Description: AutoCAD Mechanical|Company: Autodesk, Inc.
 90
     1024
 91
        6
280
     0
281
     0
  0
CLASS
  1
ACAMGFILTERDAT
  2
AcAmgFilterDat
  3
"AcadM|Product Description: AutoCAD Mechanical|Company: Autodesk, Inc."
 90
     1024
 91
        0
280
     0
281
     0
  0
CLASS
  1
MATERIAL
  2
AcDbMaterial
  3
ObjectDBX Classes
 90
     1153
 91
        3
280
     0
281
     0
  0
CLASS
  1
VISUALSTYLE
  2
AcDbVisualStyle
  3
ObjectDBX Classes
 90
     4095
 91
       16
280
     0
281
     0
  0
CLASS
  1
ACRFATTGENMGR
  2
AcRfAttGeneralMgr
  3
AcAttribServices
 90
     1024
 91
        0
280
     0
281
     0
  0
CLASS
  1
ACRFOBJATTMGR
  2
AcRfObjAttGroupMgr
  3
AcAttribServices
 90
     1024
 91
        0
280
     0
281
     0
  0
CLASS
  1
ACRFMCADAPIATTHOLDER
  2
AcRfMCADAPIAttHolder
  3
AcAttribServices
 90
     1024
 91
        0
280
     0
281
     0
  0
CLASS
  1
AMDTSYSATTR
  2
AmdtSystemAttribute
  3
AcAttribServices
 90
     1024
 91
        0
280
     0
281
     0
  0
CLASS
  1
ACMTAPERSTANDARDJIS
  2
AcmTaperStdJIS
  3
"Amdt_StdImp|Product Description: AutoCAD Mechanical|Company: Autodesk, Inc."
 90
     1024
 91
        0
280
     0
281
     0
  0
CLASS
  1
CAMSSTRUCTBTNSTATE
  2
StructBtnState
  3
DesignerAssemblies
 90
     1024
 91
        0
280
     0
281
     0
  0
CLASS
  1
SCALE
  2
AcDbScale
  3
ObjectDBX Classes
 90
     1153
 91
       36
280
     0
281
     0
  0
CLASS
  1
MLEADERSTYLE
  2
AcDbMLeaderStyle
  3
ACDB_MLEADERSTYLE_CLASS
 90
     4095
 91
        1
280
     0
281
     0
  0
CLASS
  1
ACMANOOTATIONVIEWSTANDARDJIS
  2
AmdtAnViewStdJIS
  3
"Amdt_StdImp|Product Description: AutoCAD Mechanical|Company: Autodesk, Inc."
 90
     1024
 91
        0
280
     0
281
     0
  0
CLASS
  1
ACMSURFSTANDARDJIS2003
  2
AcmSurfTextStdJIS2003
  3
"Amdt_StdImp|Product Description: AutoCAD Mechanical|Company: Autodesk, Inc."
 90
     1024
 91
        0
280
     0
281
     0
  0
CLASS
  1
CELLSTYLEMAP
  2
AcDbCellStyleMap
  3
ObjectDBX Classes
 90
     1152
 91
        2
280
     0
281
     0
  0
CLASS
  1
ACMFCFSTANDARDJIS98
  2
AcmFCFStdJIS98
  3
"Amdt_StdImp|Product Description: AutoCAD Mechanical|Company: Autodesk, Inc."
 90
     1024
 91
        0
280
     0
281
     0
  0
CLASS
  1
SORTENTSTABLE
  2
AcDbSortentsTable
  3
ObjectDBX Classes
 90
        0
 91
       10
280
     0
281
     0
  0
CLASS
  1
DIMASSOC
  2
AcDbDimAssoc
  3
"AcDbDimAssoc|Product Desc:     AcDim ARX App For Dimension|Company:          Autodesk, Inc.|WEB Address:      www.autodesk.com"
 90
        0
 91
       17
280
     0
281
     0
  0
CLASS
  1
STDPART2D
  2
AmgStdPart
  3
AmgStdPart|Product Description: AutoCAD Mechanical|Company: Autodesk, Inc.
 90
     4095
 91
        0
280
     0
281
     1
  0
CLASS
  1
ACMDATAENTRYPART
  2
AcmDataEntryPart
  3
AcmSymBB|Product Description: AutoCAD Mechanical|Company: Autodesk, Inc.
 90
     1024
 91
        0
280
     0
281
     0
  0
CLASS
  1
ACMPARTREF
  2
AcmPartRef
  3
"AcmSymBB|Product Description: AutoCAD Mechanical|Company: Autodesk, Inc."
 90
     4095
 91
        0
280
     0
281
     1
  0
CLASS
  1
ACDBSTDPARTRES_LINE
  2
AcDbStdPartRes_Line
  3
AmgStdPart|Product Description: AutoCAD Mechanical|Company: Autodesk, Inc.
 90
     1024
 91
        0
280
     0
281
     0
  0
CLASS
  1
ACMBOM
  2
AcmBom
  3
"AcmSymBB|Product Description: AutoCAD Mechanical|Company: Autodesk, Inc."
 90
     1024
 91
        0
280
     0
281
     0
  0
CLASS
  1
AMDTFORMULAUPDATEDISPATCHER
  2
AmdtFormulaUpdateDispatcher
  3
AcMeServices
 90
     1024
 91
        0
280
     0
281
     0
  0
CLASS
  1
ACMBOMROW
  2
AcmBomRow
  3
"AcmSymBB|Product Description: AutoCAD Mechanical|Company: Autodesk, Inc."
 90
     1024
 91
        0
280
     0
281
     0
  0
CLASS
  1
ACMPARTLIST
  2
AcmPartList
  3
"AcmSymBB|Product Description: AutoCAD Mechanical|Company: Autodesk, Inc."
 90
     4095
 91
        0
280
     0
281
     1
  0
CLASS
  1
ACDBLINERES
  2
AcDbLineRes
  3
AcGrefServices
 90
     1024
 91
        0
280
     0
281
     0
  0
CLASS
  1
ACRFINSADJ
  2
AcRfInsAdjuster
  3
AcMeServices
 90
     1024
 91
        0
280
     0
281
     0
  0
CLASS
  1
ACMSTANDARDISO
  2
AcmStandardISO
  3
"Amdt_StdImp|Product Description: AutoCAD Mechanical|Company: Autodesk, Inc."
 90
     1024
 91
        1
280
     0
281
     0
  0
CLASS
  1
AMDTEDGESTANDARDISO13715
  2
AmdtEdgeStdISO13715
  3
"Amdt_StdImp|Product Description: AutoCAD Mechanical|Company: Autodesk, Inc."
 90
     1024
 91
        1
280
     0
281
     0
  0
CLASS
  1
ACMSURFSTANDARDISO2002
  2
AcmSurfTextStdISO2002
  3
"Amdt_StdImp|Product Description: AutoCAD Mechanical|Company: Autodesk, Inc."
 90
     1024
 91
        1
280
     0
281
     0
  0
CLASS
  1
ACMFCFSTANDARDISO
  2
AcmFCFStdISO
  3
"Amdt_StdImp|Product Description: AutoCAD Mechanical|Company: Autodesk, Inc."
 90
     1024
 91
        1
280
     0
281
     0
  0
CLASS
  1
ACMWELDSTANDARDISO
  2
AcmWeldingStdISO
  3
"Amdt_StdImp|Product Description: AutoCAD Mechanical|Company: Autodesk, Inc."
 90
     1024
 91
        1
280
     0
281
     0
  0
CLASS
  1
ACMIDSTANDARDISO
  2
AcmIdStdISO
  3
"Amdt_StdImp|Product Description: AutoCAD Mechanical|Company: Autodesk, Inc."
 90
     1024
 91
        1
280
     0
281
     0
  0
CLASS
  1
ACMDATUMSTANDARDISO
  2
AcmDatumStdISO
  3
"Amdt_StdImp|Product Description: AutoCAD Mechanical|Company: Autodesk, Inc."
 90
     1024
 91
        1
280
     0
281
     0
  0
CLASS
  1
ACMBOMSTANDARDISO
  2
AcmBOMStdISO
  3
"Amdt_StdImp|Product Description: AutoCAD Mechanical|Company: Autodesk, Inc."
 90
     1024
 91
        1
280
     0
281
     0
  0
CLASS
  1
ACMDETAILSTANDARDISO
  2
AmdtDetailSymStdISO
  3
"Amdt_StdImp|Product Description: AutoCAD Mechanical|Company: Autodesk, Inc."
 90
     1024
 91
        1
280
     0
281
     0
  0
CLASS
  1
ACMSECTIONSTANDARDISO2001
  2
AmdtSectionSymStdISO2001
  3
"Amdt_StdImp|Product Description: AutoCAD Mechanical|Company: Autodesk, Inc."
 90
     1024
 91
        1
280
     0
281
     0
  0
CLASS
  1
ACMCENTERLINESTANDARDISO
  2
AmdtCenterLineStdISO
  3
"Amdt_StdImp|Product Description: AutoCAD Mechanical|Company: Autodesk, Inc."
 90
     1024
 91
        1
280
     0
281
     0
  0
CLASS
  1
ACMTHREADLINESTANDARDISO
  2
AmdtThreadLineStdISO
  3
"Amdt_StdImp|Product Description: AutoCAD Mechanical|Company: Autodesk, Inc."
 90
     1024
 91
        1
280
     0
281
     0
  0
CLASS
  1
ACMNOTESTANDARDISO
  2
AmdtNoteStdISO
  3
"Amdt_StdImp|Product Description: AutoCAD Mechanical|Company: Autodesk, Inc."
 90
     1024
 91
        1
280
     0
281
     0
  0
CLASS
  1
ACMTAPERSTANDARDISO
  2
AcmTaperStdISO
  3
"Amdt_StdImp|Product Description: AutoCAD Mechanical|Company: Autodesk, Inc."
 90
     1024
 91
        1
280
     0
281
     0
  0
CLASS
  1
ACMANOOTATIONVIEWSTANDARDISO
  2
AmdtAnViewStdISO
  3
"Amdt_StdImp|Product Description: AutoCAD Mechanical|Company: Autodesk, Inc."
 90
     1024
 91
        1
280
     0
281
     0
  0
CLASS
  1
ACAMGHOLECHARTSTDISO
  2
AcAmgHoleChartStdISO
  3
AmgDim|Product Description: AutoCAD Mechanical|Company: Autodesk, Inc.
 90
     1024
 91
        1
280
     0
281
     0
  0
CLASS
  1
EXACXREFPANELOBJECT
  2
ExAcXREFPanelObject
  3
EXAC_ESW
 90
     1025
 91
        0
280
     0
281
     0
  0
CLASS
  1
NPOCOLLECTION
  2
AcDbImpNonPersistentObjectsCollection
  3
ObjectDBX Classes
 90
     1153
 91
        0
280
     0
281
     0
  0
CLASS
  1
ACDBSTDPARTRES_ARC
  2
AcDbStdPartRes_Arc
  3
AmgStdPart|Product Description: AutoCAD Mechanical|Company: Autodesk, Inc.
 90
     1024
 91
        0
280
     0
281
     0
  0
CLASS
  1
AMDTNOTE
  2
AmdtNote
  3
"AcmSymBB|Product Description: AutoCAD Mechanical|Company: Autodesk, Inc."
 90
     4095
 91
        0
280
     0
281
     1
  0
CLASS
  1
PLOTSETTINGS
  2
AcDbPlotSettings
  3
ObjectDBX Classes
 90
        0
 91
        1
280
     0
281
     0
  0
CLASS
  1
ACMSTANDARDANSI
  2
AcmStandardANSI
  3
"Amdt_StdImp|Product Description: AutoCAD Mechanical|Company: Autodesk, Inc."
 90
     1024
 91
        0
280
     0
281
     0
  0
CLASS
  1
ACMSURFSTANDARDANSI
  2
AcmSurfTextStdANSI
  3
"Amdt_StdImp|Product Description: AutoCAD Mechanical|Company: Autodesk, Inc."
 90
     1024
 91
        0
280
     0
281
     0
  0
CLASS
  1
ACMFCFSTANDARDANSI
  2
AcmFCFStdANSI
  3
"Amdt_StdImp|Product Description: AutoCAD Mechanical|Company: Autodesk, Inc."
 90
     1024
 91
        0
280
     0
281
     0
  0
CLASS
  1
ACMWELDSTANDARDANSI
  2
AcmWeldingStdANSI
  3
"Amdt_StdImp|Product Description: AutoCAD Mechanical|Company: Autodesk, Inc."
 90
     1024
 91
        0
280
     0
281
     0
  0
CLASS
  1
ACMIDSTANDARDANSI
  2
AcmIdStdANSI
  3
"Amdt_StdImp|Product Description: AutoCAD Mechanical|Company: Autodesk, Inc."
 90
     1024
 91
        0
280
     0
281
     0
  0
CLASS
  1
ACMDATUMSTANDARDANSI
  2
AcmDatumStdANSI
  3
"Amdt_StdImp|Product Description: AutoCAD Mechanical|Company: Autodesk, Inc."
 90
     1024
 91
        0
280
     0
281
     0
  0
CLASS
  1
ACMBOMSTANDARDANSI
  2
AcmBOMStdANSI
  3
"Amdt_StdImp|Product Description: AutoCAD Mechanical|Company: Autodesk, Inc."
 90
     1024
 91
        0
280
     0
281
     0
  0
CLASS
  1
ACMDETAILSTANDARDANSI
  2
AmdtDetailSymStdANSI
  3
"Amdt_StdImp|Product Description: AutoCAD Mechanical|Company: Autodesk, Inc."
 90
     1024
 91
        0
280
     0
281
     0
  0
CLASS
  1
ACMSECTIONSTANDARDANSI
  2
AmdtSectionSymStdANSI
  3
"Amdt_StdImp|Product Description: AutoCAD Mechanical|Company: Autodesk, Inc."
 90
     1024
 91
        0
280
     0
281
     0
  0
CLASS
  1
ACMCENTERLINESTANDARDANSI
  2
AmdtCenterLineStdANSI
  3
"Amdt_StdImp|Product Description: AutoCAD Mechanical|Company: Autodesk, Inc."
 90
     1024
 91
        0
280
     0
281
     0
  0
CLASS
  1
ACMTHREADLINESTANDARDANSI
  2
AmdtThreadLineStdANSI
  3
"Amdt_StdImp|Product Description: AutoCAD Mechanical|Company: Autodesk, Inc."
 90
     1024
 91
        0
280
     0
281
     0
  0
CLASS
  1
ACMNOTESTANDARDANSI
  2
AmdtNoteStdANSI
  3
"Amdt_StdImp|Product Description: AutoCAD Mechanical|Company: Autodesk, Inc."
 90
     1024
 91
        0
280
     0
281
     0
  0
CLASS
  1
ACMTAPERSTANDARDANSI
  2
AcmTaperStdANSI
  3
"Amdt_StdImp|Product Description: AutoCAD Mechanical|Company: Autodesk, Inc."
 90
     1024
 91
        0
280
     0
281
     0
  0
CLASS
  1
ACMANOOTATIONVIEWSTANDARDANSI
  2
AmdtAnViewStdANSI
  3
"Amdt_StdImp|Product Description: AutoCAD Mechanical|Company: Autodesk, Inc."
 90
     1024
 91
        0
280
     0
281
     0
  0
CLASS
  1
ACAMGHOLECHARTSTDANSI
  2
AcAmgHoleChartStdANSI
  3
AmgDim|Product Description: AutoCAD Mechanical|Company: Autodesk, Inc.
 90
     1024
 91
        0
280
     0
281
     0
  0
CLASS
  1
ACMSTANDARDBSI
  2
AcmStandardBSI
  3
"Amdt_StdImp|Product Description: AutoCAD Mechanical|Company: Autodesk, Inc."
 90
     1024
 91
        0
280
     0
281
     0
  0
CLASS
  1
ACMSURFSTANDARDBSI2002
  2
AcmSurfTextStdBSI2002
  3
"Amdt_StdImp|Product Description: AutoCAD Mechanical|Company: Autodesk, Inc."
 90
     1024
 91
        0
280
     0
281
     0
  0
CLASS
  1
ACMFCFSTANDARDBSI
  2
AcmFCFStdBSI
  3
"Amdt_StdImp|Product Description: AutoCAD Mechanical|Company: Autodesk, Inc."
 90
     1024
 91
        0
280
     0
281
     0
  0
CLASS
  1
ACMWELDSTANDARDBSI
  2
AcmWeldingStdBSI
  3
"Amdt_StdImp|Product Description: AutoCAD Mechanical|Company: Autodesk, Inc."
 90
     1024
 91
        0
280
     0
281
     0
  0
CLASS
  1
ACMIDSTANDARDBSI
  2
AcmIdStdBSI
  3
"Amdt_StdImp|Product Description: AutoCAD Mechanical|Company: Autodesk, Inc."
 90
     1024
 91
        0
280
     0
281
     0
  0
CLASS
  1
ACMDATUMSTANDARDBSI
  2
AcmDatumStdBSI
  3
"Amdt_StdImp|Product Description: AutoCAD Mechanical|Company: Autodesk, Inc."
 90
     1024
 91
        0
280
     0
281
     0
  0
CLASS
  1
ACMBOMSTANDARDBSI
  2
AcmBOMStdBSI
  3
"Amdt_StdImp|Product Description: AutoCAD Mechanical|Company: Autodesk, Inc."
 90
     1024
 91
        0
280
     0
281
     0
  0
CLASS
  1
ACMDETAILSTANDARDBSI
  2
AmdtDetailSymStdBSI
  3
"Amdt_StdImp|Product Description: AutoCAD Mechanical|Company: Autodesk, Inc."
 90
     1024
 91
        0
280
     0
281
     0
  0
CLASS
  1
ACMSECTIONSTANDARDBSI2001
  2
AmdtSectionSymStdBSI2001
  3
"Amdt_StdImp|Product Description: AutoCAD Mechanical|Company: Autodesk, Inc."
 90
     1024
 91
        0
280
     0
281
     0
  0
CLASS
  1
ACMCENTERLINESTANDARDBSI
  2
AmdtCenterLineStdBSI
  3
"Amdt_StdImp|Product Description: AutoCAD Mechanical|Company: Autodesk, Inc."
 90
     1024
 91
        0
280
     0
281
     0
  0
CLASS
  1
ACMTHREADLINESTANDARDBSI
  2
AmdtThreadLineStdBSI
  3
"Amdt_StdImp|Product Description: AutoCAD Mechanical|Company: Autodesk, Inc."
 90
     1024
 91
        0
280
     0
281
     0
  0
CLASS
  1
ACMNOTESTANDARDBSI
  2
AmdtNoteStdBSI
  3
"Amdt_StdImp|Product Description: AutoCAD Mechanical|Company: Autodesk, Inc."
 90
     1024
 91
        0
280
     0
281
     0
  0
CLASS
  1
ACMTAPERSTANDARDBSI
  2
AcmTaperStdBSI
  3
"Amdt_StdImp|Product Description: AutoCAD Mechanical|Company: Autodesk, Inc."
 90
     1024
 91
        0
280
     0
281
     0
  0
CLASS
  1
ACMANOOTATIONVIEWSTANDARDBSI
  2
AmdtAnViewStdBSI
  3
"Amdt_StdImp|Product Description: AutoCAD Mechanical|Company: Autodesk, Inc."
 90
     1024
 91
        0
280
     0
281
     0
  0
CLASS
  1
ACAMGHOLECHARTSTDBSI
  2
AcAmgHoleChartStdBSI
  3
AmgDim|Product Description: AutoCAD Mechanical|Company: Autodesk, Inc.
 90
     1024
 91
        0
280
     0
281
     0
  0
CLASS
  1
AMDTEDGESTANDARDJIS
  2
AmdtEdgeStdJIS
  3
"Amdt_StdImp|Product Description: AutoCAD Mechanical|Company: Autodesk, Inc."
 90
     1024
 91
        0
280
     0
281
     0
  0
CLASS
  1
ACDBOPPOLYLINERES
  2
AcDbOpPolylineRes
  3
AcGrefServices
 90
     1024
 91
        0
280
     0
281
     0
  0
CLASS
  1
AMDTACMWBLOCKBOMENTITY
  2
AmdtAcmWblockBomEntity
  3
"AcmSymBB|Product Description: AutoCAD Mechanical|Company: Autodesk, Inc."
 90
     4095
 91
        0
280
     0
281
     1
  0
CLASS
  1
ACMSURFSYM
  2
AcmSurfaceTexture
  3
"AcmSymBB|Product Description: AutoCAD Mechanical|Company: Autodesk, Inc."
 90
     4095
 91
        0
280
     0
281
     1
  0
CLASS
  1
ACDBDIMENSIONRES
  2
AcDbDimensionRes
  3
AcmSymBB|Product Description: AutoCAD Mechanical|Company: Autodesk, Inc.
 90
     1024
 91
        0
280
     0
281
     0
  0
CLASS
  1
ACDBCIRCARCRES
  2
AcDbCircArcRes
  3
AcGrefServices
 90
     1024
 91
        0
280
     0
281
     0
  0
CLASS
  1
ACDB_BLKREFOBJECTCONTEXTDATA_CLASS
  2
AcDbBlkRefObjectContextData
  3
ObjectDBX Classes
 90
     1153
 91
        0
280
     0
281
     0
  0
CLASS
  1
ACMPICKOBJ
  2
AcmPickEnt
  3
"AcmSymBB|Product Description: AutoCAD Mechanical|Company: Autodesk, Inc."
 90
     1024
 91
        0
280
     0
281
     1
  0
CLASS
  1
ACDBELLIPSERES
  2
AcDbEllipseRes
  3
AcGrefServices
 90
     1024
 91
        0
280
     0
281
     0
  0
CLASS
  1
ACMBALLOON
  2
AcmBalloon
  3
"AcmSymBB|Product Description: AutoCAD Mechanical|Company: Autodesk, Inc."
 90
     4095
 91
        0
280
     0
281
     1
  0
ENDSEC
  0
SECTION
  2
TABLES
  0
TABLE
  2
VPORT
  5
8
330
0
100
AcDbSymbolTable
 70
     1
  0
VPORT
  5
27A
330
8
100
AcDbSymbolTableRecord
100
AcDbViewportTableRecord
  2
*Active
 70
     0
 10
0.0
 20
0.0
 11
1.0
 21
1.0
 12
2771.428448403666
 22
2051.822444740438
 13
0.0
 23
0.0
 14
25.0
 24
25.0
 15
100.0
 25
100.0
 16
0.0
 26
0.0
 36
1.0
 17
0.0
 27
0.0
 37
0.0
 40
1411.993950272151
 41
1.753424657534246
 42
50.0
 43
0.0
 44
0.0
 50
0.0
 51
0.0
 71
    16
 72
 20000
 73
     1
 74
     3
 75
     0
 76
     0
 77
     0
 78
     0
281
     0
 65
     0
110
0.0
120
0.0
130
0.0
111
1.0
121
0.0
131
0.0
112
0.0
122
1.0
132
0.0
 79
     0
146
0.0
348
285
 60
     3
 61
     5
292
     1
282
     0
141
0.0
142
0.0
 63
   250
421
  3355443
  0
ENDTAB
  0
TABLE
  2
LTYPE
  5
5
330
0
100
AcDbSymbolTable
 70
    22
  0
LTYPE
  5
14
330
5
100
AcDbSymbolTableRecord
100
AcDbLinetypeTableRecord
  2
ByBlock
 70
     0
  3

 72
    65
 73
     0
 40
0.0
  0
LTYPE
  5
15
330
5
100
AcDbSymbolTableRecord
100
AcDbLinetypeTableRecord
  2
ByLayer
 70
     0
  3

 72
    65
 73
     0
 40
0.0
  0
LTYPE
  5
16
330
5
100
AcDbSymbolTableRecord
100
AcDbLinetypeTableRecord
  2
Continuous
 70
     0
  3
Solid line
 72
    65
 73
     0
 40
0.0
  0
LTYPE
  5
4D
330
5
100
AcDbSymbolTableRecord
100
AcDbLinetypeTableRecord
  2
AM_ISO02W050
 70
     0
  3
__ __ __ __ __ __ __ __ __ __ __ __ __ __ __
 72
    65
 73
     2
 40
7.5
 49
6.0
 74
     0
 49
-1.5
 74
     0
  0
LTYPE
  5
4E
330
5
100
AcDbSymbolTableRecord
100
AcDbLinetypeTableRecord
  2
AM_ISO08W050
 70
     0
  3
____ . ____ . ____ . ____ . ____ . ____ . ____
 72
    65
 73
     4
 40
18.0
 49
12.0
 74
     0
 49
-1.5
 74
     0
 49
3.0
 74
     0
 49
-1.5
 74
     0
  0
LTYPE
  5
4F
330
5
100
AcDbSymbolTableRecord
100
AcDbLinetypeTableRecord
  2
AM_ISO09W050
 70
     0
  3
_____ . . _____ . . _____ . . ____ .. ____
 72
    65
 73
     6
 40
22.5
 49
12.0
 74
     0
 49
-1.5
 74
     0
 49
3.0
 74
     0
 49
-1.5
 74
     0
 49
3.0
 74
     0
 49
-1.5
 74
     0
  0
LTYPE
  5
50
330
5
100
AcDbSymbolTableRecord
100
AcDbLinetypeTableRecord
  2
Amconstr
 70
     0
  3
_______________________
 72
    65
 73
     2
 40
9999.0
 49
9999.0
 74
     0
 49
0.0
 74
     0
  0
LTYPE
  5
51
330
5
100
AcDbSymbolTableRecord
100
AcDbLinetypeTableRecord
  2
AM_ISO08W050x2
 70
     0
  3
__ . __ . __ . __ . __ . __
 72
    65
 73
     4
 40
9.0
 49
6.0
 74
     0
 49
-0.75
 74
     0
 49
1.5
 74
     0
 49
-0.75
 74
     0
  0
LTYPE
  5
52
330
5
100
AcDbSymbolTableRecord
100
AcDbLinetypeTableRecord
  2
AM_ISO02W050x2
 70
     0
  3
 _ _ _ _ _ _ _ _ _ _ _ _
 72
    65
 73
     2
 40
3.75
 49
3.0
 74
     0
 49
-0.75
 74
     0
  0
LTYPE
  5
55
330
5
100
AcDbSymbolTableRecord
100
AcDbLinetypeTableRecord
  2
Amzigzag
 70
     0
  3
/\/-/\/-/\/-/\/-/\/-/\/
 72
    65
 73
     2
 40
11.0001
 49
0.0001
 74
     4
 75
   136
340
23D
 46
0.04
 50
0.0
 44
0.0
 45
0.0
 49
-11.0
 74
     0
  0
LTYPE
  5
65
330
5
100
AcDbSymbolTableRecord
100
AcDbLinetypeTableRecord
  2
CENTER
 70
     0
  3
__ . __
 72
    65
 73
     4
 40
7.0
 49
4.0
 74
     0
 49
-1.0
 74
     0
 49
1.0
 74
     0
 49
-1.0
 74
     0
  0
LTYPE
  5
E0
330
5
100
AcDbSymbolTableRecord
100
AcDbLinetypeTableRecord
  2
HIDDEN
 70
     0
  3
Hidden __ __ __ __ __ __ __ __ __ __ __ __ __ _
 72
    65
 73
     2
 40
9.524999999999996
 49
6.349999999999998
 74
     0
 49
-3.174999999999998
 74
     0
  0
LTYPE
  5
E1
330
5
100
AcDbSymbolTableRecord
100
AcDbLinetypeTableRecord
  2
PHANTOM2
 70
     0
  3
Phantom (.5x) ___ _ _ ___ _ _ ___ _ _ ___ _ _
 72
    65
 73
     6
 40
31.75
 49
15.875
 74
     0
 49
-3.174999999999998
 74
     0
 49
3.174999999999998
 74
     0
 49
-3.174999999999998
 74
     0
 49
3.174999999999998
 74
     0
 49
-3.174999999999998
 74
     0
  0
LTYPE
  5
5A2
330
5
100
AcDbSymbolTableRecord
100
AcDbLinetypeTableRecord
  2
ACJISWELD
 70
     0
  3
_ _ _ _ _
 72
    65
 73
     2
 40
2.0
 49
2.0
 74
     0
 49
-1.0
 74
     0
  0
LTYPE
  5
83F0
330
5
100
AcDbSymbolTableRecord
100
AcDbLinetypeTableRecord
  2
ACISOWELD
 70
     0
  3
_ _ _ _ _
 72
    65
 73
     2
 40
2.0
 49
2.0
 74
     0
 49
-1.0
 74
     0
  0
LTYPE
  5
83F1
330
5
100
AcDbSymbolTableRecord
100
AcDbLinetypeTableRecord
  2
ACISOTGB
 70
     0
  3
__ . . __ . .
 72
    65
 73
     6
 40
9.0
 49
4.0
 74
     0
 49
-1.0
 74
     0
 49
1.0
 74
     0
 49
-1.0
 74
     0
 49
1.0
 74
     0
 49
-1.0
 74
     0
  0
LTYPE
  5
83F2
330
5
100
AcDbSymbolTableRecord
100
AcDbLinetypeTableRecord
  2
ACISOTGL
 70
     0
  3
_ _ _ _ _
 72
    65
 73
     2
 40
3.0
 49
2.0
 74
     0
 49
-1.0
 74
     0
  0
ENDTAB
  0
TABLE
  2
LAYER
  5
2
102
{ACAD_XDICTIONARY
360
BF
102
}
330
0
100
AcDbSymbolTable
 70
    10
  0
LAYER
  5
10
102
{ACAD_XDICTIONARY
360
29F7
102
}
330
2
100
AcDbSymbolTableRecord
100
AcDbLayerTableRecord
  2
0
 70
     0
 62
     7
  6
Continuous
370
    -3
390
F
347
27E
  0
LAYER
  5
81
102
{ACAD_XDICTIONARY
360
29F9
102
}
330
2
100
AcDbSymbolTableRecord
100
AcDbLayerTableRecord
  2
AM_0 外形線1
 70
     0
 62
     7
  6
Continuous
370
    25
390
F
347
27E
  0
LAYER
  5
427
330
2
100
AcDbSymbolTableRecord
100
AcDbLayerTableRecord
  2
Defpoints
 70
     0
 62
     7
  6
Continuous
290
     0
370
    -3
390
F
347
27E
  0
LAYER
  5
3BB1
330
2
100
AcDbSymbolTableRecord
100
AcDbLayerTableRecord
  2
AM_5 寸法線
 70
     0
 62
     3
  6
Continuous
370
    13
390
F
347
27E
1001
AcAecLayerStandard
1000

1000

  0
LAYER
  5
3BB2
330
2
100
AcDbSymbolTableRecord
100
AcDbLayerTableRecord
  2
AM_4 細線
 70
     0
 62
     4
  6
Continuous
370
    13
390
F
347
27E
1001
AcAecLayerStandard
1000

1000

  0
LAYER
  5
3BB3
330
2
100
AcDbSymbolTableRecord
100
AcDbLayerTableRecord
  2
AM_7 中心線
 70
     0
 62
     1
  6
AM_ISO08W050
370
    13
390
F
347
27E
1001
AcAecLayerStandard
1000

1000

  0
LAYER
  5
3BB4
330
2
100
AcDbSymbolTableRecord
100
AcDbLayerTableRecord
  2
AM_3 隠れ線
 70
     0
 62
     8
  6
ACJISWELD
370
    13
390
F
347
27E
1001
AcAecLayerStandard
1000

1000

  0
LAYER
  5
3BB6
330
2
100
AcDbSymbolTableRecord
100
AcDbLayerTableRecord
  2
AM_6 文字
 70
     0
 62
     2
  6
Continuous
370
    13
390
F
347
27E
1001
AcAecLayerStandard
1000

1000

  0
LAYER
  5
8038
330
2
100
AcDbSymbolTableRecord
100
AcDbLayerTableRecord
  2
AM_11 想像線
 70
     0
 62
     5
  6
AM_ISO09W050
370
    13
390
F
347
27E
1001
AcAecLayerStandard
1000

1000

  0
ENDTAB
  0
TABLE
  2
STYLE
  5
3
330
0
100
AcDbSymbolTable
 70
    11
  0
STYLE
  5
11
330
3
100
AcDbSymbolTableRecord
100
AcDbTextStyleTableRecord
  2
STANDARD
 70
     0
 40
0.0
 41
1.0
 50
0.0
 71
     0
 42
25.0
  3
ISOCP.SHX
  4
EXTFONT.SHX
  0
STYLE
  5
23D
330
3
100
AcDbSymbolTableRecord
100
AcDbTextStyleTableRecord
  2

 70
     1
 40
0.0
 41
1.0
 50
0.0
 71
     0
 42
2.5
  3
genltshp.shx
  4

  0
STYLE
  5
5D5
330
3
100
AcDbSymbolTableRecord
100
AcDbTextStyleTableRecord
  2
SEISA
 70
     0
 40
0.0
 41
0.9
 50
0.0
 71
     0
 42
25.0
  3
romans.shx
  4
extfont2.shx
  0
STYLE
  5
83E0
330
3
100
AcDbSymbolTableRecord
100
AcDbTextStyleTableRecord
  2
ACISOTS
 70
     0
 40
1.0
 41
1.0
 50
0.0
 71
     0
 42
25.0
  3
isocp.shx
  4
extfont.shx
  0
STYLE
  5
83EF
330
3
100
AcDbSymbolTableRecord
100
AcDbTextStyleTableRecord
  2
ACISOGDT
 70
     0
 40
0.0
 41
1.0
 50
0.0
 71
     0
 42
25.0
  3
amgdt.shx
  4

  0
ENDTAB
  0
TABLE
  2
VIEW
  5
6
330
0
100
AcDbSymbolTable
 70
     6
  0
VIEW
  5
91B
330
6
100
AcDbSymbolTableRecord
100
AcDbViewTableRecord
  2
AM_VIEW1
 70
     0
 40
1485.0
 10
1435.621923096604
 20
2227.500003693821
 41
2871.243842364532
 11
0.0
 21
0.0
 31
1.0
 12
0.0
 22
0.0
 32
0.0
 42
50.0
 43
0.0
 44
0.0
 50
0.0
 71
    16
281
     0
 72
     0
 73
     0
  0
VIEW
  5
91C
330
6
100
AcDbSymbolTableRecord
100
AcDbViewTableRecord
  2
AM_VIEW2
 70
     0
 40
1485.0
 10
2764.378080732073
 20
2227.500003693821
 41
2871.243842364532
 11
0.0
 21
0.0
 31
1.0
 12
0.0
 22
0.0
 32
0.0
 42
50.0
 43
0.0
 44
0.0
 50
0.0
 71
    16
281
     0
 72
     0
 73
     0
  0
VIEW
  5
91D
330
6
100
AcDbSymbolTableRecord
100
AcDbViewTableRecord
  2
AM_VIEW3
 70
     0
 40
1485.0
 10
1435.621923096604
 20
742.5000036938206
 41
2871.243842364532
 11
0.0
 21
0.0
 31
1.0
 12
0.0
 22
0.0
 32
0.0
 42
50.0
 43
0.0
 44
0.0
 50
0.0
 71
    16
281
     0
 72
     0
 73
     0
  0
VIEW
  5
91E
330
6
100
AcDbSymbolTableRecord
100
AcDbViewTableRecord
  2
AM_VIEW4
 70
     0
 40
1485.0
 10
2764.378080732073
 20
742.5000036938206
 41
2871.243842364532
 11
0.0
 21
0.0
 31
1.0
 12
0.0
 22
0.0
 32
0.0
 42
50.0
 43
0.0
 44
0.0
 50
0.0
 71
    16
281
     0
 72
     0
 73
     0
  0
VIEW
  5
91F
330
6
100
AcDbSymbolTableRecord
100
AcDbViewTableRecord
  2
AM_VIEW5
 70
     0
 40
1485.0
 10
2100.000001914338
 20
1485.000003693821
 41
2871.243842364532
 11
0.0
 21
0.0
 31
1.0
 12
0.0
 22
0.0
 32
0.0
 42
50.0
 43
0.0
 44
0.0
 50
0.0
 71
    16
281
     0
 72
     0
 73
     0
  0
VIEW
  5
920
330
6
100
AcDbSymbolTableRecord
100
AcDbViewTableRecord
  2
AM_VIEW6
 70
     0
 40
2969.9703
 10
2100.000001914338
 20
1485.00000369382
 41
5742.430259852215
 11
0.0
 21
0.0
 31
1.0
 12
0.0
 22
0.0
 32
0.0
 42
50.0
 43
0.0
 44
0.0
 50
0.0
 71
    16
281
     0
 72
     0
 73
     0
  0
ENDTAB
  0
TABLE
  2
UCS
  5
7
330
0
100
AcDbSymbolTable
 70
     0
  0
ENDTAB
  0
TABLE
  2
APPID
  5
9
330
0
100
AcDbSymbolTable
 70
   397
  0
APPID
  5
12
330
9
100
AcDbSymbolTableRecord
100
AcDbRegAppTableRecord
  2
ACAD
 70
     0
  0
APPID
  5
30
330
9
100
AcDbSymbolTableRecord
100
AcDbRegAppTableRecord
  2
MCAD_NO_VIS
 70
     0
  0
APPID
  5
31
330
9
100
AcDbSymbolTableRecord
100
AcDbRegAppTableRecord
  2
ACAD_TEMP_GRAPHIC
 70
     0
  0
APPID
  5
44
330
9
100
AcDbSymbolTableRecord
100
AcDbRegAppTableRecord
  2
ACATTRIBSERVICES
 70
     0
  0
APPID
  5
F6
330
9
100
AcDbSymbolTableRecord
100
AcDbRegAppTableRecord
  2
AD_DRAW
 70
     0
  0
APPID
  5
114
330
9
100
AcDbSymbolTableRecord
100
AcDbRegAppTableRecord
  2
DESIGNERASSEMBLIES
 70
     0
  0
APPID
  5
118
330
9
100
AcDbSymbolTableRecord
100
AcDbRegAppTableRecord
  2
ACADM_DIM_EDIT
 70
     0
  0
APPID
  5
119
330
9
100
AcDbSymbolTableRecord
100
AcDbRegAppTableRecord
  2
AMDT_DM_ADJ
 70
     0
  0
APPID
  5
1AF
330
9
100
AcDbSymbolTableRecord
100
AcDbRegAppTableRecord
  2
ACAD_DSTYLE_DIMARC_LENGTH_SYMBOL
 70
     0
  0
APPID
  5
1B0
330
9
100
AcDbSymbolTableRecord
100
AcDbRegAppTableRecord
  2
ACAD_DSTYLE_DIMJOGGED_JOGANGLE_SYMBOL
 70
     0
  0
APPID
  5
2D7
330
9
100
AcDbSymbolTableRecord
100
AcDbRegAppTableRecord
  2
ACAD_MLEADERVER
 70
     0
  0
APPID
  5
355
330
9
100
AcDbSymbolTableRecord
100
AcDbRegAppTableRecord
  2
AcadAnnoPO
 70
     0
  0
APPID
  5
428
330
9
100
AcDbSymbolTableRecord
100
AcDbRegAppTableRecord
  2
ACAD_DSTYLE_DIMTEXT_FILL
 70
     0
  0
APPID
  5
429
330
9
100
AcDbSymbolTableRecord
100
AcDbRegAppTableRecord
  2
GENIUS_GENSCREG_15
 70
     0
  0
APPID
  5
42A
330
9
100
AcDbSymbolTableRecord
100
AcDbRegAppTableRecord
  2
GENIUS_GENOBJ-N-SDF_13
 70
     0
  0
APPID
  5
42B
330
9
100
AcDbSymbolTableRecord
100
AcDbRegAppTableRecord
  2
GENIUS_GENODEF_13
 70
     0
  0
APPID
  5
42C
330
9
100
AcDbSymbolTableRecord
100
AcDbRegAppTableRecord
  2
ACAD_EXEMPT_FROM_CAD_STANDARDS
 70
     0
  0
APPID
  5
42D
330
9
100
AcDbSymbolTableRecord
100
AcDbRegAppTableRecord
  2
AcAecLayerStandard
 70
     0
  0
APPID
  5
42E
330
9
100
AcDbSymbolTableRecord
100
AcDbRegAppTableRecord
  2
GENIUS_GENOBJ-N-CEN_13
 70
     0
  0
APPID
  5
42F
330
9
100
AcDbSymbolTableRecord
100
AcDbRegAppTableRecord
  2
GENIUS_GENCEN_19
 70
     0
  0
APPID
  5
430
330
9
100
AcDbSymbolTableRecord
100
AcDbRegAppTableRecord
  2
ACAD_DSTYLE_DIMINSPECT
 70
     0
  0
APPID
  5
431
330
9
100
AcDbSymbolTableRecord
100
AcDbRegAppTableRecord
  2
GENIUS_AMGTXT_16
 70
     0
  0
APPID
  5
432
330
9
100
AcDbSymbolTableRecord
100
AcDbRegAppTableRecord
  2
GENIUS_GENFIL_13
 70
     0
  0
APPID
  5
433
330
9
100
AcDbSymbolTableRecord
100
AcDbRegAppTableRecord
  2
GENIUS_GENOLIS_13
 70
     0
  0
APPID
  5
434
330
9
100
AcDbSymbolTableRecord
100
AcDbRegAppTableRecord
  2
GENIUS_GENOBJ-N-CHA_13
 70
     0
  0
APPID
  5
435
330
9
100
AcDbSymbolTableRecord
100
AcDbRegAppTableRecord
  2
GENIUS_GENOENT_13
 70
     0
  0
APPID
  5
436
330
9
100
AcDbSymbolTableRecord
100
AcDbRegAppTableRecord
  2
GENIUS_GENOREF_13
 70
     0
  0
APPID
  5
437
330
9
100
AcDbSymbolTableRecord
100
AcDbRegAppTableRecord
  2
GENIUS_GENOBJ-N-FIL_13
 70
     0
  0
APPID
  5
438
330
9
100
AcDbSymbolTableRecord
100
AcDbRegAppTableRecord
  2
GEVID1208829536
 70
     0
  0
APPID
  5
439
330
9
100
AcDbSymbolTableRecord
100
AcDbRegAppTableRecord
  2
GEVDC
 70
     0
  0
APPID
  5
43A
330
9
100
AcDbSymbolTableRecord
100
AcDbRegAppTableRecord
  2
GEVRADREF
 70
     0
  0
APPID
  5
43B
330
9
100
AcDbSymbolTableRecord
100
AcDbRegAppTableRecord
  2
GENIUS_GENBH_13
 70
     0
  0
APPID
  5
43C
330
9
100
AcDbSymbolTableRecord
100
AcDbRegAppTableRecord
  2
GENIUS_GENOBJ-NBEHI-BHF_13
 70
     0
  0
APPID
  5
43D
330
9
100
AcDbSymbolTableRecord
100
AcDbRegAppTableRecord
  2
GENIUS_GENOBJ-NBEHI-BHB_13
 70
     0
  0
APPID
  5
43E
330
9
100
AcDbSymbolTableRecord
100
AcDbRegAppTableRecord
  2
GEVID1208829537
 70
     0
  0
APPID
  5
43F
330
9
100
AcDbSymbolTableRecord
100
AcDbRegAppTableRecord
  2
ACAD_DSTYLE_DIMJAG
 70
     0
  0
APPID
  5
440
330
9
100
AcDbSymbolTableRecord
100
AcDbRegAppTableRecord
  2
ACAD_DSTYLE_DIMTALN
 70
     0
  0
APPID
  5
441
330
9
100
AcDbSymbolTableRecord
100
AcDbRegAppTableRecord
  2
AMG_2DHIDE
 70
     0
  0
APPID
  5
442
330
9
100
AcDbSymbolTableRecord
100
AcDbRegAppTableRecord
  2
AMG_2DSTRUCT_BTR
 70
     0
  0
APPID
  5
443
330
9
100
AcDbSymbolTableRecord
100
AcDbRegAppTableRecord
  2
GEVID1208845772
 70
     0
  0
APPID
  5
444
330
9
100
AcDbSymbolTableRecord
100
AcDbRegAppTableRecord
  2
GEVID1208845773
 70
     0
  0
APPID
  5
445
330
9
100
AcDbSymbolTableRecord
100
AcDbRegAppTableRecord
  2
ACADM_2DVIEW_IGN_NOTIFY
 70
     0
  0
APPID
  5
446
330
9
100
AcDbSymbolTableRecord
100
AcDbRegAppTableRecord
  2
GEVID1208845774
 70
     0
  0
APPID
  5
447
330
9
100
AcDbSymbolTableRecord
100
AcDbRegAppTableRecord
  2
GEVID1208845775
 70
     0
  0
APPID
  5
448
330
9
100
AcDbSymbolTableRecord
100
AcDbRegAppTableRecord
  2
GEVID1208845776
 70
     0
  0
APPID
  5
449
330
9
100
AcDbSymbolTableRecord
100
AcDbRegAppTableRecord
  2
GEVID1208845777
 70
     0
  0
APPID
  5
44A
330
9
100
AcDbSymbolTableRecord
100
AcDbRegAppTableRecord
  2
GEVCON
 70
     0
  0
APPID
  5
44B
330
9
100
AcDbSymbolTableRecord
100
AcDbRegAppTableRecord
  2
GENIUS_GENOBJ-F-SCPASSM_13
 70
     0
  0
APPID
  5
44C
330
9
100
AcDbSymbolTableRecord
100
AcDbRegAppTableRecord
  2
GEVID1208845778
 70
     0
  0
APPID
  5
44D
330
9
100
AcDbSymbolTableRecord
100
AcDbRegAppTableRecord
  2
GEVID1208845779
 70
     0
  0
APPID
  5
44E
330
9
100
AcDbSymbolTableRecord
100
AcDbRegAppTableRecord
  2
GEVID1208845780
 70
     0
  0
APPID
  5
44F
330
9
100
AcDbSymbolTableRecord
100
AcDbRegAppTableRecord
  2
GEVID1208845781
 70
     0
  0
APPID
  5
450
330
9
100
AcDbSymbolTableRecord
100
AcDbRegAppTableRecord
  2
GEVID1208845782
 70
     0
  0
APPID
  5
451
330
9
100
AcDbSymbolTableRecord
100
AcDbRegAppTableRecord
  2
GEVID1208845783
 70
     0
  0
APPID
  5
452
330
9
100
AcDbSymbolTableRecord
100
AcDbRegAppTableRecord
  2
GEVID1208845784
 70
     0
  0
APPID
  5
453
330
9
100
AcDbSymbolTableRecord
100
AcDbRegAppTableRecord
  2
GEVID1208845785
 70
     0
  0
APPID
  5
454
330
9
100
AcDbSymbolTableRecord
100
AcDbRegAppTableRecord
  2
GEVID1208845787
 70
     0
  0
APPID
  5
455
330
9
100
AcDbSymbolTableRecord
100
AcDbRegAppTableRecord
  2
GEVID1208845788
 70
     0
  0
APPID
  5
456
330
9
100
AcDbSymbolTableRecord
100
AcDbRegAppTableRecord
  2
GEVID1208845789
 70
     0
  0
APPID
  5
457
330
9
100
AcDbSymbolTableRecord
100
AcDbRegAppTableRecord
  2
GEVID1208845790
 70
     0
  0
APPID
  5
458
330
9
100
AcDbSymbolTableRecord
100
AcDbRegAppTableRecord
  2
GEVID1208845791
 70
     0
  0
APPID
  5
459
330
9
100
AcDbSymbolTableRecord
100
AcDbRegAppTableRecord
  2
GEVID1208845792
 70
     0
  0
APPID
  5
45A
330
9
100
AcDbSymbolTableRecord
100
AcDbRegAppTableRecord
  2
GEVID1208845793
 70
     0
  0
APPID
  5
45B
330
9
100
AcDbSymbolTableRecord
100
AcDbRegAppTableRecord
  2
GEVID1208845794
 70
     0
  0
APPID
  5
45C
330
9
100
AcDbSymbolTableRecord
100
AcDbRegAppTableRecord
  2
GEVID1208845795
 70
     0
  0
APPID
  5
45D
330
9
100
AcDbSymbolTableRecord
100
AcDbRegAppTableRecord
  2
GEVID1208845796
 70
     0
  0
APPID
  5
45E
330
9
100
AcDbSymbolTableRecord
100
AcDbRegAppTableRecord
  2
GEVID1208845797
 70
     0
  0
APPID
  5
45F
330
9
100
AcDbSymbolTableRecord
100
AcDbRegAppTableRecord
  2
GEVID1208845798
 70
     0
  0
APPID
  5
460
330
9
100
AcDbSymbolTableRecord
100
AcDbRegAppTableRecord
  2
GEVID1208845799
 70
     0
  0
APPID
  5
461
330
9
100
AcDbSymbolTableRecord
100
AcDbRegAppTableRecord
  2
GEVID1208845800
 70
     0
  0
APPID
  5
462
330
9
100
AcDbSymbolTableRecord
100
AcDbRegAppTableRecord
  2
GEVID1208845801
 70
     0
  0
APPID
  5
463
330
9
100
AcDbSymbolTableRecord
100
AcDbRegAppTableRecord
  2
GEVID1208845802
 70
     0
  0
APPID
  5
464
330
9
100
AcDbSymbolTableRecord
100
AcDbRegAppTableRecord
  2
GENIUS_GENOBJ-N-DIM_13
 70
     0
  0
APPID
  5
465
330
9
100
AcDbSymbolTableRecord
100
AcDbRegAppTableRecord
  2
GENIUS_GENDIM_13
 70
     0
  0
APPID
  5
466
330
9
100
AcDbSymbolTableRecord
100
AcDbRegAppTableRecord
  2
GENIUS_GENDIMSH_14
 70
     0
  0
APPID
  5
467
330
9
100
AcDbSymbolTableRecord
100
AcDbRegAppTableRecord
  2
GEVID1208845803
 70
     0
  0
APPID
  5
468
330
9
100
AcDbSymbolTableRecord
100
AcDbRegAppTableRecord
  2
GEVID1208845804
 70
     0
  0
APPID
  5
469
330
9
100
AcDbSymbolTableRecord
100
AcDbRegAppTableRecord
  2
GEVID1208845805
 70
     0
  0
APPID
  5
46A
330
9
100
AcDbSymbolTableRecord
100
AcDbRegAppTableRecord
  2
GEVID1208845806
 70
     0
  0
APPID
  5
46B
330
9
100
AcDbSymbolTableRecord
100
AcDbRegAppTableRecord
  2
GEVID1208845807
 70
     0
  0
APPID
  5
46C
330
9
100
AcDbSymbolTableRecord
100
AcDbRegAppTableRecord
  2
GEVID1208845808
 70
     0
  0
APPID
  5
46D
330
9
100
AcDbSymbolTableRecord
100
AcDbRegAppTableRecord
  2
GEVID1208845809
 70
     0
  0
APPID
  5
46E
330
9
100
AcDbSymbolTableRecord
100
AcDbRegAppTableRecord
  2
GEVID1208845810
 70
     0
  0
APPID
  5
46F
330
9
100
AcDbSymbolTableRecord
100
AcDbRegAppTableRecord
  2
GEVID1208845811
 70
     0
  0
APPID
  5
470
330
9
100
AcDbSymbolTableRecord
100
AcDbRegAppTableRecord
  2
GEVID1208845813
 70
     0
  0
APPID
  5
471
330
9
100
AcDbSymbolTableRecord
100
AcDbRegAppTableRecord
  2
GEVID1208845814
 70
     0
  0
APPID
  5
472
330
9
100
AcDbSymbolTableRecord
100
AcDbRegAppTableRecord
  2
GEVID1208845815
 70
     0
  0
APPID
  5
473
330
9
100
AcDbSymbolTableRecord
100
AcDbRegAppTableRecord
  2
GEVID1208845816
 70
     0
  0
APPID
  5
474
330
9
100
AcDbSymbolTableRecord
100
AcDbRegAppTableRecord
  2
GEVID1208845817
 70
     0
  0
APPID
  5
475
330
9
100
AcDbSymbolTableRecord
100
AcDbRegAppTableRecord
  2
GEVID1208845818
 70
     0
  0
APPID
  5
476
330
9
100
AcDbSymbolTableRecord
100
AcDbRegAppTableRecord
  2
GEVID1208845819
 70
     0
  0
APPID
  5
477
330
9
100
AcDbSymbolTableRecord
100
AcDbRegAppTableRecord
  2
GEVID1208845820
 70
     0
  0
APPID
  5
478
330
9
100
AcDbSymbolTableRecord
100
AcDbRegAppTableRecord
  2
GENIUS_GENOBJ-F-SHCL_13
 70
     0
  0
APPID
  5
479
330
9
100
AcDbSymbolTableRecord
100
AcDbRegAppTableRecord
  2
GENIUS_GEFMSH_13
 70
     0
  0
APPID
  5
47A
330
9
100
AcDbSymbolTableRecord
100
AcDbRegAppTableRecord
  2
GENIUS_GENOBJ-F-SHCA_13
 70
     0
  0
APPID
  5
47B
330
9
100
AcDbSymbolTableRecord
100
AcDbRegAppTableRecord
  2
GENIUS_GEFSH_13
 70
     0
  0
APPID
  5
47C
330
9
100
AcDbSymbolTableRecord
100
AcDbRegAppTableRecord
  2
GENIUS_GEFSHP_13
 70
     0
  0
APPID
  5
47D
330
9
100
AcDbSymbolTableRecord
100
AcDbRegAppTableRecord
  2
GENIUS_GEFSHP0_13
 70
     0
  0
APPID
  5
47E
330
9
100
AcDbSymbolTableRecord
100
AcDbRegAppTableRecord
  2
GENIUS_GEFSH0_13
 70
     0
  0
APPID
  5
47F
330
9
100
AcDbSymbolTableRecord
100
AcDbRegAppTableRecord
  2
GENIUS_GEFSHP1_13
 70
     0
  0
APPID
  5
480
330
9
100
AcDbSymbolTableRecord
100
AcDbRegAppTableRecord
  2
GENIUS_GEFSH1_13
 70
     0
  0
APPID
  5
481
330
9
100
AcDbSymbolTableRecord
100
AcDbRegAppTableRecord
  2
GEVID1208866337
 70
     0
  0
APPID
  5
482
330
9
100
AcDbSymbolTableRecord
100
AcDbRegAppTableRecord
  2
GEVID1208866338
 70
     0
  0
APPID
  5
483
330
9
100
AcDbSymbolTableRecord
100
AcDbRegAppTableRecord
  2
GEVID1208866339
 70
     0
  0
APPID
  5
484
330
9
100
AcDbSymbolTableRecord
100
AcDbRegAppTableRecord
  2
GEVID1208866340
 70
     0
  0
APPID
  5
485
330
9
100
AcDbSymbolTableRecord
100
AcDbRegAppTableRecord
  2
GEVID1208866341
 70
     0
  0
APPID
  5
486
330
9
100
AcDbSymbolTableRecord
100
AcDbRegAppTableRecord
  2
ACAD_PSEXT
 70
     0
  0
APPID
  5
487
330
9
100
AcDbSymbolTableRecord
100
AcDbRegAppTableRecord
  2
GEVID1208866342
 70
     0
  0
APPID
  5
488
330
9
100
AcDbSymbolTableRecord
100
AcDbRegAppTableRecord
  2
GEVID1208913836
 70
     0
  0
APPID
  5
489
330
9
100
AcDbSymbolTableRecord
100
AcDbRegAppTableRecord
  2
GEVID1208913837
 70
     0
  0
APPID
  5
48A
330
9
100
AcDbSymbolTableRecord
100
AcDbRegAppTableRecord
  2
GEVID1208913838
 70
     0
  0
APPID
  5
48B
330
9
100
AcDbSymbolTableRecord
100
AcDbRegAppTableRecord
  2
GEVID1208913839
 70
     0
  0
APPID
  5
48C
330
9
100
AcDbSymbolTableRecord
100
AcDbRegAppTableRecord
  2
GENIUS_GENDTOL_13
 70
     0
  0
APPID
  5
48D
330
9
100
AcDbSymbolTableRecord
100
AcDbRegAppTableRecord
  2
GEVID1208928889
 70
     0
  0
APPID
  5
48E
330
9
100
AcDbSymbolTableRecord
100
AcDbRegAppTableRecord
  2
GEVID1208928890
 70
     0
  0
APPID
  5
48F
330
9
100
AcDbSymbolTableRecord
100
AcDbRegAppTableRecord
  2
GEVID1208928891
 70
     0
  0
APPID
  5
490
330
9
100
AcDbSymbolTableRecord
100
AcDbRegAppTableRecord
  2
GEVID1208928892
 70
     0
  0
APPID
  5
491
330
9
100
AcDbSymbolTableRecord
100
AcDbRegAppTableRecord
  2
GEVID1208933827
 70
     0
  0
APPID
  5
492
330
9
100
AcDbSymbolTableRecord
100
AcDbRegAppTableRecord
  2
GEVID1208933829
 70
     0
  0
APPID
  5
493
330
9
100
AcDbSymbolTableRecord
100
AcDbRegAppTableRecord
  2
GEVID1208933830
 70
     0
  0
APPID
  5
494
330
9
100
AcDbSymbolTableRecord
100
AcDbRegAppTableRecord
  2
GEVID1208933831
 70
     0
  0
APPID
  5
495
330
9
100
AcDbSymbolTableRecord
100
AcDbRegAppTableRecord
  2
GEVID1208933832
 70
     0
  0
APPID
  5
496
330
9
100
AcDbSymbolTableRecord
100
AcDbRegAppTableRecord
  2
GEVID1208933833
 70
     0
  0
APPID
  5
497
330
9
100
AcDbSymbolTableRecord
100
AcDbRegAppTableRecord
  2
GEVID1208933834
 70
     0
  0
APPID
  5
498
330
9
100
AcDbSymbolTableRecord
100
AcDbRegAppTableRecord
  2
GEVID1208933835
 70
     0
  0
APPID
  5
499
330
9
100
AcDbSymbolTableRecord
100
AcDbRegAppTableRecord
  2
GEVID1208933836
 70
     0
  0
APPID
  5
49A
330
9
100
AcDbSymbolTableRecord
100
AcDbRegAppTableRecord
  2
GEVID1208933837
 70
     0
  0
APPID
  5
49B
330
9
100
AcDbSymbolTableRecord
100
AcDbRegAppTableRecord
  2
GEVID1208933838
 70
     0
  0
APPID
  5
49C
330
9
100
AcDbSymbolTableRecord
100
AcDbRegAppTableRecord
  2
GEVID1208933840
 70
     0
  0
APPID
  5
49D
330
9
100
AcDbSymbolTableRecord
100
AcDbRegAppTableRecord
  2
GEVID1208933842
 70
     0
  0
APPID
  5
49E
330
9
100
AcDbSymbolTableRecord
100
AcDbRegAppTableRecord
  2
GEVID1208933843
 70
     0
  0
APPID
  5
49F
330
9
100
AcDbSymbolTableRecord
100
AcDbRegAppTableRecord
  2
GEVID1208933844
 70
     0
  0
APPID
  5
4A0
330
9
100
AcDbSymbolTableRecord
100
AcDbRegAppTableRecord
  2
GEVID1208933845
 70
     0
  0
APPID
  5
4A1
330
9
100
AcDbSymbolTableRecord
100
AcDbRegAppTableRecord
  2
GEVID1208933846
 70
     0
  0
APPID
  5
4A2
330
9
100
AcDbSymbolTableRecord
100
AcDbRegAppTableRecord
  2
GEVID1208933847
 70
     0
  0
APPID
  5
4A3
330
9
100
AcDbSymbolTableRecord
100
AcDbRegAppTableRecord
  2
GEVID1208933848
 70
     0
  0
APPID
  5
4A4
330
9
100
AcDbSymbolTableRecord
100
AcDbRegAppTableRecord
  2
GEVID1208933849
 70
     0
  0
APPID
  5
4A5
330
9
100
AcDbSymbolTableRecord
100
AcDbRegAppTableRecord
  2
GEVID1208933850
 70
     0
  0
APPID
  5
4A6
330
9
100
AcDbSymbolTableRecord
100
AcDbRegAppTableRecord
  2
GEVID1208933851
 70
     0
  0
APPID
  5
4A7
330
9
100
AcDbSymbolTableRecord
100
AcDbRegAppTableRecord
  2
GEVID1208933852
 70
     0
  0
APPID
  5
4A8
330
9
100
AcDbSymbolTableRecord
100
AcDbRegAppTableRecord
  2
GEVID1208933853
 70
     0
  0
APPID
  5
4A9
330
9
100
AcDbSymbolTableRecord
100
AcDbRegAppTableRecord
  2
GEVID1208933854
 70
     0
  0
APPID
  5
4AA
330
9
100
AcDbSymbolTableRecord
100
AcDbRegAppTableRecord
  2
GEVID1208933855
 70
     0
  0
APPID
  5
4AB
330
9
100
AcDbSymbolTableRecord
100
AcDbRegAppTableRecord
  2
GEVID1208933856
 70
     0
  0
APPID
  5
4AC
330
9
100
AcDbSymbolTableRecord
100
AcDbRegAppTableRecord
  2
GEVID1208933857
 70
     0
  0
APPID
  5
4AD
330
9
100
AcDbSymbolTableRecord
100
AcDbRegAppTableRecord
  2
GEVID1208933858
 70
     0
  0
APPID
  5
4AE
330
9
100
AcDbSymbolTableRecord
100
AcDbRegAppTableRecord
  2
GEVID1208933859
 70
     0
  0
APPID
  5
4AF
330
9
100
AcDbSymbolTableRecord
100
AcDbRegAppTableRecord
  2
GEVID1208933860
 70
     0
  0
APPID
  5
4B0
330
9
100
AcDbSymbolTableRecord
100
AcDbRegAppTableRecord
  2
GEVID1208933861
 70
     0
  0
APPID
  5
4B1
330
9
100
AcDbSymbolTableRecord
100
AcDbRegAppTableRecord
  2
GEVID1208933862
 70
     0
  0
APPID
  5
4B2
330
9
100
AcDbSymbolTableRecord
100
AcDbRegAppTableRecord
  2
GEVID1208933863
 70
     0
  0
APPID
  5
4B3
330
9
100
AcDbSymbolTableRecord
100
AcDbRegAppTableRecord
  2
GEVID1208933864
 70
     0
  0
APPID
  5
4B4
330
9
100
AcDbSymbolTableRecord
100
AcDbRegAppTableRecord
  2
GEVID1208933865
 70
     0
  0
APPID
  5
4B5
330
9
100
AcDbSymbolTableRecord
100
AcDbRegAppTableRecord
  2
GEVID1208933866
 70
     0
  0
APPID
  5
4B6
330
9
100
AcDbSymbolTableRecord
100
AcDbRegAppTableRecord
  2
GEVID1208933867
 70
     0
  0
APPID
  5
4B7
330
9
100
AcDbSymbolTableRecord
100
AcDbRegAppTableRecord
  2
GEVID1208933868
 70
     0
  0
APPID
  5
4B8
330
9
100
AcDbSymbolTableRecord
100
AcDbRegAppTableRecord
  2
GEVID1208933869
 70
     0
  0
APPID
  5
4B9
330
9
100
AcDbSymbolTableRecord
100
AcDbRegAppTableRecord
  2
GEVID1208933870
 70
     0
  0
APPID
  5
4BA
330
9
100
AcDbSymbolTableRecord
100
AcDbRegAppTableRecord
  2
GEVID1208933871
 70
     0
  0
APPID
  5
4BB
330
9
100
AcDbSymbolTableRecord
100
AcDbRegAppTableRecord
  2
GEVID1208933872
 70
     0
  0
APPID
  5
4BC
330
9
100
AcDbSymbolTableRecord
100
AcDbRegAppTableRecord
  2
GEVID1208933873
 70
     0
  0
APPID
  5
4BD
330
9
100
AcDbSymbolTableRecord
100
AcDbRegAppTableRecord
  2
GEVID1208933874
 70
     0
  0
APPID
  5
4BE
330
9
100
AcDbSymbolTableRecord
100
AcDbRegAppTableRecord
  2
GEVID1208933875
 70
     0
  0
APPID
  5
4BF
330
9
100
AcDbSymbolTableRecord
100
AcDbRegAppTableRecord
  2
GEVID1208933876
 70
     0
  0
APPID
  5
4C0
330
9
100
AcDbSymbolTableRecord
100
AcDbRegAppTableRecord
  2
ACAD_DSTYLE_DIMRADIAL_EXTENSION
 70
     0
  0
APPID
  5
4C1
330
9
100
AcDbSymbolTableRecord
100
AcDbRegAppTableRecord
  2
GEVID1208999100
 70
     0
  0
APPID
  5
4C2
330
9
100
AcDbSymbolTableRecord
100
AcDbRegAppTableRecord
  2
GEVID1208999101
 70
     0
  0
APPID
  5
4C3
330
9
100
AcDbSymbolTableRecord
100
AcDbRegAppTableRecord
  2
GEVID1208999102
 70
     0
  0
APPID
  5
4C4
330
9
100
AcDbSymbolTableRecord
100
AcDbRegAppTableRecord
  2
GEVID1208999103
 70
     0
  0
APPID
  5
4C5
330
9
100
AcDbSymbolTableRecord
100
AcDbRegAppTableRecord
  2
GEVID1208999105
 70
     0
  0
APPID
  5
4C6
330
9
100
AcDbSymbolTableRecord
100
AcDbRegAppTableRecord
  2
GEVID1208999106
 70
     0
  0
APPID
  5
4C7
330
9
100
AcDbSymbolTableRecord
100
AcDbRegAppTableRecord
  2
GEVID1208999108
 70
     0
  0
APPID
  5
4C8
330
9
100
AcDbSymbolTableRecord
100
AcDbRegAppTableRecord
  2
GEVID1208999109
 70
     0
  0
APPID
  5
4C9
330
9
100
AcDbSymbolTableRecord
100
AcDbRegAppTableRecord
  2
GEVID1208999110
 70
     0
  0
APPID
  5
4CA
330
9
100
AcDbSymbolTableRecord
100
AcDbRegAppTableRecord
  2
GEVID1208999111
 70
     0
  0
APPID
  5
4CB
330
9
100
AcDbSymbolTableRecord
100
AcDbRegAppTableRecord
  2
GEVID1208999112
 70
     0
  0
APPID
  5
4CC
330
9
100
AcDbSymbolTableRecord
100
AcDbRegAppTableRecord
  2
GEVID1208999113
 70
     0
  0
APPID
  5
4CD
330
9
100
AcDbSymbolTableRecord
100
AcDbRegAppTableRecord
  2
GEVID1208999114
 70
     0
  0
APPID
  5
4CE
330
9
100
AcDbSymbolTableRecord
100
AcDbRegAppTableRecord
  2
GEVID1210218799
 70
     0
  0
APPID
  5
4CF
330
9
100
AcDbSymbolTableRecord
100
AcDbRegAppTableRecord
  2
GEVID1210218800
 70
     0
  0
APPID
  5
4D0
330
9
100
AcDbSymbolTableRecord
100
AcDbRegAppTableRecord
  2
GENIUS_GEFWELD_13
 70
     0
  0
APPID
  5
4D1
330
9
100
AcDbSymbolTableRecord
100
AcDbRegAppTableRecord
  2
GENIUS_GENOBJ-F-WELS_13
 70
     0
  0
APPID
  5
4D2
330
9
100
AcDbSymbolTableRecord
100
AcDbRegAppTableRecord
  2
AcadAnnotative
 70
     0
  0
APPID
  5
4D3
330
9
100
AcDbSymbolTableRecord
100
AcDbRegAppTableRecord
  2
GEVID1210145339
 70
     0
  0
APPID
  5
4D4
330
9
100
AcDbSymbolTableRecord
100
AcDbRegAppTableRecord
  2
ACAD_DSTYLE_DIMBREAK
 70
     0
  0
APPID
  5
4D5
330
9
100
AcDbSymbolTableRecord
100
AcDbRegAppTableRecord
  2
GEVID1210145340
 70
     0
  0
APPID
  5
4D6
330
9
100
AcDbSymbolTableRecord
100
AcDbRegAppTableRecord
  2
GEVID1210145341
 70
     0
  0
APPID
  5
4D7
330
9
100
AcDbSymbolTableRecord
100
AcDbRegAppTableRecord
  2
GEVID1210145342
 70
     0
  0
APPID
  5
4D8
330
9
100
AcDbSymbolTableRecord
100
AcDbRegAppTableRecord
  2
GEVID1210145343
 70
     0
  0
APPID
  5
4D9
330
9
100
AcDbSymbolTableRecord
100
AcDbRegAppTableRecord
  2
GEVID1210145344
 70
     0
  0
APPID
  5
4DA
330
9
100
AcDbSymbolTableRecord
100
AcDbRegAppTableRecord
  2
GEVID1210145345
 70
     0
  0
APPID
  5
4DB
330
9
100
AcDbSymbolTableRecord
100
AcDbRegAppTableRecord
  2
GEVID1210152816
 70
     0
  0
APPID
  5
4DC
330
9
100
AcDbSymbolTableRecord
100
AcDbRegAppTableRecord
  2
GEVID1210153850
 70
     0
  0
APPID
  5
4DD
330
9
100
AcDbSymbolTableRecord
100
AcDbRegAppTableRecord
  2
GEVID1210153851
 70
     0
  0
APPID
  5
4DE
330
9
100
AcDbSymbolTableRecord
100
AcDbRegAppTableRecord
  2
GEVID1210153852
 70
     0
  0
APPID
  5
4DF
330
9
100
AcDbSymbolTableRecord
100
AcDbRegAppTableRecord
  2
GEVID1210549898
 70
     0
  0
APPID
  5
4E0
330
9
100
AcDbSymbolTableRecord
100
AcDbRegAppTableRecord
  2
GEVID1210549899
 70
     0
  0
APPID
  5
4E1
330
9
100
AcDbSymbolTableRecord
100
AcDbRegAppTableRecord
  2
GEVID1210549900
 70
     0
  0
APPID
  5
4E2
330
9
100
AcDbSymbolTableRecord
100
AcDbRegAppTableRecord
  2
GEVID1210549901
 70
     0
  0
APPID
  5
4E3
330
9
100
AcDbSymbolTableRecord
100
AcDbRegAppTableRecord
  2
GEVID1210549902
 70
     0
  0
APPID
  5
4E4
330
9
100
AcDbSymbolTableRecord
100
AcDbRegAppTableRecord
  2
GEVID1210549903
 70
     0
  0
APPID
  5
4E5
330
9
100
AcDbSymbolTableRecord
100
AcDbRegAppTableRecord
  2
GEVID1210549904
 70
     0
  0
APPID
  5
4E6
330
9
100
AcDbSymbolTableRecord
100
AcDbRegAppTableRecord
  2
GEVID1210549905
 70
     0
  0
APPID
  5
4E7
330
9
100
AcDbSymbolTableRecord
100
AcDbRegAppTableRecord
  2
GEVID1210549906
 70
     0
  0
APPID
  5
4E8
330
9
100
AcDbSymbolTableRecord
100
AcDbRegAppTableRecord
  2
GEVID1210549907
 70
     0
  0
APPID
  5
4E9
330
9
100
AcDbSymbolTableRecord
100
AcDbRegAppTableRecord
  2
GEVID1210549908
 70
     0
  0
APPID
  5
4EA
330
9
100
AcDbSymbolTableRecord
100
AcDbRegAppTableRecord
  2
GEVID1210549909
 70
     0
  0
APPID
  5
4EB
330
9
100
AcDbSymbolTableRecord
100
AcDbRegAppTableRecord
  2
GEVID1210549910
 70
     0
  0
APPID
  5
4EC
330
9
100
AcDbSymbolTableRecord
100
AcDbRegAppTableRecord
  2
GEVID1210549911
 70
     0
  0
APPID
  5
4ED
330
9
100
AcDbSymbolTableRecord
100
AcDbRegAppTableRecord
  2
GEVID1210549912
 70
     0
  0
APPID
  5
4EE
330
9
100
AcDbSymbolTableRecord
100
AcDbRegAppTableRecord
  2
GEVID1210549913
 70
     0
  0
APPID
  5
4EF
330
9
100
AcDbSymbolTableRecord
100
AcDbRegAppTableRecord
  2
GEVID1210549914
 70
     0
  0
APPID
  5
4F0
330
9
100
AcDbSymbolTableRecord
100
AcDbRegAppTableRecord
  2
GEVID1210549915
 70
     0
  0
APPID
  5
4F1
330
9
100
AcDbSymbolTableRecord
100
AcDbRegAppTableRecord
  2
GEVID1210549916
 70
     0
  0
APPID
  5
4F2
330
9
100
AcDbSymbolTableRecord
100
AcDbRegAppTableRecord
  2
GEVID1210549917
 70
     0
  0
APPID
  5
4F3
330
9
100
AcDbSymbolTableRecord
100
AcDbRegAppTableRecord
  2
GENIUS_GENOBJ-N-CRS_13
 70
     0
  0
APPID
  5
4F4
330
9
100
AcDbSymbolTableRecord
100
AcDbRegAppTableRecord
  2
GEVID1210549918
 70
     0
  0
APPID
  5
4F5
330
9
100
AcDbSymbolTableRecord
100
AcDbRegAppTableRecord
  2
GENIUS_GENOBJ-N-CRC_13
 70
     0
  0
APPID
  5
4F6
330
9
100
AcDbSymbolTableRecord
100
AcDbRegAppTableRecord
  2
GENIUS_GENCRC_14
 70
     0
  0
APPID
  5
4F7
330
9
100
AcDbSymbolTableRecord
100
AcDbRegAppTableRecord
  2
GEVID1210549919
 70
     0
  0
APPID
  5
4F8
330
9
100
AcDbSymbolTableRecord
100
AcDbRegAppTableRecord
  2
GEVID1210549921
 70
     0
  0
APPID
  5
4F9
330
9
100
AcDbSymbolTableRecord
100
AcDbRegAppTableRecord
  2
GEVID1210549922
 70
     0
  0
APPID
  5
4FA
330
9
100
AcDbSymbolTableRecord
100
AcDbRegAppTableRecord
  2
GEVID1210635173
 70
     0
  0
APPID
  5
4FB
330
9
100
AcDbSymbolTableRecord
100
AcDbRegAppTableRecord
  2
GEVID1210635174
 70
     0
  0
APPID
  5
4FC
330
9
100
AcDbSymbolTableRecord
100
AcDbRegAppTableRecord
  2
GEVID1210635175
 70
     0
  0
APPID
  5
4FD
330
9
100
AcDbSymbolTableRecord
100
AcDbRegAppTableRecord
  2
GEVID1210635176
 70
     0
  0
APPID
  5
4FE
330
9
100
AcDbSymbolTableRecord
100
AcDbRegAppTableRecord
  2
GEVID1210635177
 70
     0
  0
APPID
  5
4FF
330
9
100
AcDbSymbolTableRecord
100
AcDbRegAppTableRecord
  2
GEVID1210635178
 70
     0
  0
APPID
  5
500
330
9
100
AcDbSymbolTableRecord
100
AcDbRegAppTableRecord
  2
GENIUS_GENIUS_GENBHEDTMP_13
 70
     0
  0
APPID
  5
501
330
9
100
AcDbSymbolTableRecord
100
AcDbRegAppTableRecord
  2
GEVID1210635179
 70
     0
  0
APPID
  5
502
330
9
100
AcDbSymbolTableRecord
100
AcDbRegAppTableRecord
  2
GEVID1210635180
 70
     0
  0
APPID
  5
503
330
9
100
AcDbSymbolTableRecord
100
AcDbRegAppTableRecord
  2
GEVID1210635181
 70
     0
  0
APPID
  5
504
330
9
100
AcDbSymbolTableRecord
100
AcDbRegAppTableRecord
  2
GEVID1210635182
 70
     0
  0
APPID
  5
505
330
9
100
AcDbSymbolTableRecord
100
AcDbRegAppTableRecord
  2
GEVID1210635184
 70
     0
  0
APPID
  5
506
330
9
100
AcDbSymbolTableRecord
100
AcDbRegAppTableRecord
  2
GEVID1210635185
 70
     0
  0
APPID
  5
507
330
9
100
AcDbSymbolTableRecord
100
AcDbRegAppTableRecord
  2
GEVID1210635186
 70
     0
  0
APPID
  5
508
330
9
100
AcDbSymbolTableRecord
100
AcDbRegAppTableRecord
  2
GEVID1210635187
 70
     0
  0
APPID
  5
509
330
9
100
AcDbSymbolTableRecord
100
AcDbRegAppTableRecord
  2
GEVID1210635188
 70
     0
  0
APPID
  5
50A
330
9
100
AcDbSymbolTableRecord
100
AcDbRegAppTableRecord
  2
GEVID1210635189
 70
     0
  0
APPID
  5
50B
330
9
100
AcDbSymbolTableRecord
100
AcDbRegAppTableRecord
  2
GEVID1210635190
 70
     0
  0
APPID
  5
50C
330
9
100
AcDbSymbolTableRecord
100
AcDbRegAppTableRecord
  2
GENIUS_GENREC_14
 70
     0
  0
APPID
  5
50D
330
9
100
AcDbSymbolTableRecord
100
AcDbRegAppTableRecord
  2
GENIUS_GENOBJ-N-REC_13
 70
     0
  0
APPID
  5
50E
330
9
100
AcDbSymbolTableRecord
100
AcDbRegAppTableRecord
  2
GEVID1210676655
 70
     0
  0
APPID
  5
50F
330
9
100
AcDbSymbolTableRecord
100
AcDbRegAppTableRecord
  2
GEVID1210676656
 70
     0
  0
APPID
  5
510
330
9
100
AcDbSymbolTableRecord
100
AcDbRegAppTableRecord
  2
GEVID1210676657
 70
     0
  0
APPID
  5
511
330
9
100
AcDbSymbolTableRecord
100
AcDbRegAppTableRecord
  2
GEVID1210676659
 70
     0
  0
APPID
  5
512
330
9
100
AcDbSymbolTableRecord
100
AcDbRegAppTableRecord
  2
GEVID1210676660
 70
     0
  0
APPID
  5
513
330
9
100
AcDbSymbolTableRecord
100
AcDbRegAppTableRecord
  2
GEVID1210676661
 70
     0
  0
APPID
  5
514
330
9
100
AcDbSymbolTableRecord
100
AcDbRegAppTableRecord
  2
GEVID1210676662
 70
     0
  0
APPID
  5
515
330
9
100
AcDbSymbolTableRecord
100
AcDbRegAppTableRecord
  2
GEVID1210721646
 70
     0
  0
APPID
  5
516
330
9
100
AcDbSymbolTableRecord
100
AcDbRegAppTableRecord
  2
GEVID1210721647
 70
     0
  0
APPID
  5
517
330
9
100
AcDbSymbolTableRecord
100
AcDbRegAppTableRecord
  2
GEVID1210721648
 70
     0
  0
APPID
  5
518
330
9
100
AcDbSymbolTableRecord
100
AcDbRegAppTableRecord
  2
GEVID1210721649
 70
     0
  0
APPID
  5
519
330
9
100
AcDbSymbolTableRecord
100
AcDbRegAppTableRecord
  2
GEVID1210721650
 70
     0
  0
APPID
  5
51A
330
9
100
AcDbSymbolTableRecord
100
AcDbRegAppTableRecord
  2
GEVID1210721651
 70
     0
  0
APPID
  5
51B
330
9
100
AcDbSymbolTableRecord
100
AcDbRegAppTableRecord
  2
GEVID1210721652
 70
     0
  0
APPID
  5
51C
330
9
100
AcDbSymbolTableRecord
100
AcDbRegAppTableRecord
  2
GEVID1210721653
 70
     0
  0
APPID
  5
51D
330
9
100
AcDbSymbolTableRecord
100
AcDbRegAppTableRecord
  2
PE_URL
 70
     0
  0
APPID
  5
51E
330
9
100
AcDbSymbolTableRecord
100
AcDbRegAppTableRecord
  2
GEVID1210825555
 70
     0
  0
APPID
  5
51F
330
9
100
AcDbSymbolTableRecord
100
AcDbRegAppTableRecord
  2
GEVID1210825556
 70
     0
  0
APPID
  5
520
330
9
100
AcDbSymbolTableRecord
100
AcDbRegAppTableRecord
  2
GEVID1210825557
 70
     0
  0
APPID
  5
521
330
9
100
AcDbSymbolTableRecord
100
AcDbRegAppTableRecord
  2
GEVID1210825558
 70
     0
  0
APPID
  5
522
330
9
100
AcDbSymbolTableRecord
100
AcDbRegAppTableRecord
  2
GEVID1210825559
 70
     0
  0
APPID
  5
523
330
9
100
AcDbSymbolTableRecord
100
AcDbRegAppTableRecord
  2
GEVID1210825560
 70
     0
  0
APPID
  5
524
330
9
100
AcDbSymbolTableRecord
100
AcDbRegAppTableRecord
  2
GEVID1210825561
 70
     0
  0
APPID
  5
525
330
9
100
AcDbSymbolTableRecord
100
AcDbRegAppTableRecord
  2
GEVID1210825562
 70
     0
  0
APPID
  5
526
330
9
100
AcDbSymbolTableRecord
100
AcDbRegAppTableRecord
  2
GEVID1210825563
 70
     0
  0
APPID
  5
527
330
9
100
AcDbSymbolTableRecord
100
AcDbRegAppTableRecord
  2
GEVID1210825564
 70
     0
  0
APPID
  5
528
330
9
100
AcDbSymbolTableRecord
100
AcDbRegAppTableRecord
  2
GEVID1210825565
 70
     0
  0
APPID
  5
529
330
9
100
AcDbSymbolTableRecord
100
AcDbRegAppTableRecord
  2
GEVID1210825566
 70
     0
  0
APPID
  5
52A
330
9
100
AcDbSymbolTableRecord
100
AcDbRegAppTableRecord
  2
GEVID1210825567
 70
     0
  0
APPID
  5
52B
330
9
100
AcDbSymbolTableRecord
100
AcDbRegAppTableRecord
  2
GENIUS_GENOBJ-N-ZOO_13
 70
     0
  0
APPID
  5
52C
330
9
100
AcDbSymbolTableRecord
100
AcDbRegAppTableRecord
  2
GENIUS_GENZOO_17
 70
     0
  0
APPID
  5
52D
330
9
100
AcDbSymbolTableRecord
100
AcDbRegAppTableRecord
  2
ACADANNOTATIVEDECOMPOSITION
 70
     0
  0
APPID
  5
52E
330
9
100
AcDbSymbolTableRecord
100
AcDbRegAppTableRecord
  2
GENIUS_GENOBJ-N-HTC_13
 70
     0
  0
APPID
  5
52F
330
9
100
AcDbSymbolTableRecord
100
AcDbRegAppTableRecord
  2
GENIUS_GENHATCH_13
 70
     0
  0
APPID
  5
530
330
9
100
AcDbSymbolTableRecord
100
AcDbRegAppTableRecord
  2
GEVID1210896020
 70
     0
  0
APPID
  5
531
330
9
100
AcDbSymbolTableRecord
100
AcDbRegAppTableRecord
  2
GEVID1210896021
 70
     0
  0
APPID
  5
532
330
9
100
AcDbSymbolTableRecord
100
AcDbRegAppTableRecord
  2
GEVID1209083540
 70
     0
  0
APPID
  5
533
330
9
100
AcDbSymbolTableRecord
100
AcDbRegAppTableRecord
  2
GEVMK
 70
     0
  0
APPID
  5
534
330
9
100
AcDbSymbolTableRecord
100
AcDbRegAppTableRecord
  2
GEVID1209083542
 70
     0
  0
APPID
  5
535
330
9
100
AcDbSymbolTableRecord
100
AcDbRegAppTableRecord
  2
GEVID1209083543
 70
     0
  0
APPID
  5
536
330
9
100
AcDbSymbolTableRecord
100
AcDbRegAppTableRecord
  2
GEVID1209083544
 70
     0
  0
APPID
  5
537
330
9
100
AcDbSymbolTableRecord
100
AcDbRegAppTableRecord
  2
GEVID1209083545
 70
     0
  0
APPID
  5
538
330
9
100
AcDbSymbolTableRecord
100
AcDbRegAppTableRecord
  2
GEVID1209083546
 70
     0
  0
APPID
  5
539
330
9
100
AcDbSymbolTableRecord
100
AcDbRegAppTableRecord
  2
GEVID1209083547
 70
     0
  0
APPID
  5
53A
330
9
100
AcDbSymbolTableRecord
100
AcDbRegAppTableRecord
  2
GEVID1209083548
 70
     0
  0
APPID
  5
53B
330
9
100
AcDbSymbolTableRecord
100
AcDbRegAppTableRecord
  2
GEVID1209083549
 70
     0
  0
APPID
  5
53C
330
9
100
AcDbSymbolTableRecord
100
AcDbRegAppTableRecord
  2
GEVID1209083550
 70
     0
  0
APPID
  5
53D
330
9
100
AcDbSymbolTableRecord
100
AcDbRegAppTableRecord
  2
GEVID1209083551
 70
     0
  0
APPID
  5
53E
330
9
100
AcDbSymbolTableRecord
100
AcDbRegAppTableRecord
  2
GEVID1209083552
 70
     0
  0
APPID
  5
53F
330
9
100
AcDbSymbolTableRecord
100
AcDbRegAppTableRecord
  2
GEVID1209083553
 70
     0
  0
APPID
  5
540
330
9
100
AcDbSymbolTableRecord
100
AcDbRegAppTableRecord
  2
GEVID1210896022
 70
     0
  0
APPID
  5
541
330
9
100
AcDbSymbolTableRecord
100
AcDbRegAppTableRecord
  2
GEVID1211508364
 70
     0
  0
APPID
  5
542
330
9
100
AcDbSymbolTableRecord
100
AcDbRegAppTableRecord
  2
GEVID1211414908
 70
     0
  0
APPID
  5
543
330
9
100
AcDbSymbolTableRecord
100
AcDbRegAppTableRecord
  2
GEVID1211414909
 70
     0
  0
APPID
  5
544
330
9
100
AcDbSymbolTableRecord
100
AcDbRegAppTableRecord
  2
GEVID1211508359
 70
     0
  0
APPID
  5
545
330
9
100
AcDbSymbolTableRecord
100
AcDbRegAppTableRecord
  2
GEVID1211508360
 70
     0
  0
APPID
  5
546
330
9
100
AcDbSymbolTableRecord
100
AcDbRegAppTableRecord
  2
GEVID1211508361
 70
     0
  0
APPID
  5
547
330
9
100
AcDbSymbolTableRecord
100
AcDbRegAppTableRecord
  2
GEVID1211508362
 70
     0
  0
APPID
  5
548
330
9
100
AcDbSymbolTableRecord
100
AcDbRegAppTableRecord
  2
GEVID1211508363
 70
     0
  0
APPID
  5
549
330
9
100
AcDbSymbolTableRecord
100
AcDbRegAppTableRecord
  2
GEVID1211878469
 70
     0
  0
APPID
  5
54A
330
9
100
AcDbSymbolTableRecord
100
AcDbRegAppTableRecord
  2
GEVID1212642819
 70
     0
  0
APPID
  5
54B
330
9
100
AcDbSymbolTableRecord
100
AcDbRegAppTableRecord
  2
GEVID1212642820
 70
     0
  0
APPID
  5
54C
330
9
100
AcDbSymbolTableRecord
100
AcDbRegAppTableRecord
  2
GEVID1212642821
 70
     0
  0
APPID
  5
54D
330
9
100
AcDbSymbolTableRecord
100
AcDbRegAppTableRecord
  2
GEVID1212642822
 70
     0
  0
APPID
  5
54E
330
9
100
AcDbSymbolTableRecord
100
AcDbRegAppTableRecord
  2
GEVID1212642823
 70
     0
  0
APPID
  5
54F
330
9
100
AcDbSymbolTableRecord
100
AcDbRegAppTableRecord
  2
GEVID1212642825
 70
     0
  0
APPID
  5
550
330
9
100
AcDbSymbolTableRecord
100
AcDbRegAppTableRecord
  2
GEVID1212642826
 70
     0
  0
APPID
  5
551
330
9
100
AcDbSymbolTableRecord
100
AcDbRegAppTableRecord
  2
GEVID1212642827
 70
     0
  0
APPID
  5
552
330
9
100
AcDbSymbolTableRecord
100
AcDbRegAppTableRecord
  2
GEVID1212642828
 70
     0
  0
APPID
  5
553
330
9
100
AcDbSymbolTableRecord
100
AcDbRegAppTableRecord
  2
GEVID1212642831
 70
     0
  0
APPID
  5
554
330
9
100
AcDbSymbolTableRecord
100
AcDbRegAppTableRecord
  2
GEVID1212642834
 70
     0
  0
APPID
  5
555
330
9
100
AcDbSymbolTableRecord
100
AcDbRegAppTableRecord
  2
GEVID1212642835
 70
     0
  0
APPID
  5
556
330
9
100
AcDbSymbolTableRecord
100
AcDbRegAppTableRecord
  2
GEVID1212642836
 70
     0
  0
APPID
  5
557
330
9
100
AcDbSymbolTableRecord
100
AcDbRegAppTableRecord
  2
GEVID1212642837
 70
     0
  0
APPID
  5
558
330
9
100
AcDbSymbolTableRecord
100
AcDbRegAppTableRecord
  2
GEVID1212642839
 70
     0
  0
APPID
  5
559
330
9
100
AcDbSymbolTableRecord
100
AcDbRegAppTableRecord
  2
GEVID1212642840
 70
     0
  0
APPID
  5
55A
330
9
100
AcDbSymbolTableRecord
100
AcDbRegAppTableRecord
  2
GEVID1212642841
 70
     0
  0
APPID
  5
55B
330
9
100
AcDbSymbolTableRecord
100
AcDbRegAppTableRecord
  2
GEVID1212655312
 70
     0
  0
APPID
  5
55C
330
9
100
AcDbSymbolTableRecord
100
AcDbRegAppTableRecord
  2
GEVID1212655313
 70
     0
  0
APPID
  5
55D
330
9
100
AcDbSymbolTableRecord
100
AcDbRegAppTableRecord
  2
GEVID1212656533
 70
     0
  0
APPID
  5
55E
330
9
100
AcDbSymbolTableRecord
100
AcDbRegAppTableRecord
  2
GEVID1212656534
 70
     0
  0
APPID
  5
55F
330
9
100
AcDbSymbolTableRecord
100
AcDbRegAppTableRecord
  2
GEVID1212656535
 70
     0
  0
APPID
  5
560
330
9
100
AcDbSymbolTableRecord
100
AcDbRegAppTableRecord
  2
GEVID1212656536
 70
     0
  0
APPID
  5
561
330
9
100
AcDbSymbolTableRecord
100
AcDbRegAppTableRecord
  2
GEVID1212656538
 70
     0
  0
APPID
  5
562
330
9
100
AcDbSymbolTableRecord
100
AcDbRegAppTableRecord
  2
GEVID1212656541
 70
     0
  0
APPID
  5
563
330
9
100
AcDbSymbolTableRecord
100
AcDbRegAppTableRecord
  2
GEVID1212656543
 70
     0
  0
APPID
  5
564
330
9
100
AcDbSymbolTableRecord
100
AcDbRegAppTableRecord
  2
GENIUS_GENOBJ-F-PFASSM_13
 70
     0
  0
APPID
  5
565
330
9
100
AcDbSymbolTableRecord
100
AcDbRegAppTableRecord
  2
GEVID1212656544
 70
     0
  0
APPID
  5
566
330
9
100
AcDbSymbolTableRecord
100
AcDbRegAppTableRecord
  2
GEVID1212656545
 70
     0
  0
APPID
  5
567
330
9
100
AcDbSymbolTableRecord
100
AcDbRegAppTableRecord
  2
GEVID1212656546
 70
     0
  0
APPID
  5
568
330
9
100
AcDbSymbolTableRecord
100
AcDbRegAppTableRecord
  2
GEVID1212656547
 70
     0
  0
APPID
  5
569
330
9
100
AcDbSymbolTableRecord
100
AcDbRegAppTableRecord
  2
GEVID1212656548
 70
     0
  0
APPID
  5
56A
330
9
100
AcDbSymbolTableRecord
100
AcDbRegAppTableRecord
  2
GEVID1212656549
 70
     0
  0
APPID
  5
56B
330
9
100
AcDbSymbolTableRecord
100
AcDbRegAppTableRecord
  2
GEVID1212656550
 70
     0
  0
APPID
  5
56C
330
9
100
AcDbSymbolTableRecord
100
AcDbRegAppTableRecord
  2
GEVID1212656552
 70
     0
  0
APPID
  5
56D
330
9
100
AcDbSymbolTableRecord
100
AcDbRegAppTableRecord
  2
GEVID1212656553
 70
     0
  0
APPID
  5
56E
330
9
100
AcDbSymbolTableRecord
100
AcDbRegAppTableRecord
  2
GEVID1212656554
 70
     0
  0
APPID
  5
56F
330
9
100
AcDbSymbolTableRecord
100
AcDbRegAppTableRecord
  2
GEVID1212656555
 70
     0
  0
APPID
  5
570
330
9
100
AcDbSymbolTableRecord
100
AcDbRegAppTableRecord
  2
GEVID1212656556
 70
     0
  0
APPID
  5
571
330
9
100
AcDbSymbolTableRecord
100
AcDbRegAppTableRecord
  2
GEVID1212656557
 70
     0
  0
APPID
  5
572
330
9
100
AcDbSymbolTableRecord
100
AcDbRegAppTableRecord
  2
GEVID1212656559
 70
     0
  0
APPID
  5
573
330
9
100
AcDbSymbolTableRecord
100
AcDbRegAppTableRecord
  2
GEVID1212656560
 70
     0
  0
APPID
  5
574
330
9
100
AcDbSymbolTableRecord
100
AcDbRegAppTableRecord
  2
GEVID1212656561
 70
     0
  0
APPID
  5
575
330
9
100
AcDbSymbolTableRecord
100
AcDbRegAppTableRecord
  2
GEVID1212656562
 70
     0
  0
APPID
  5
576
330
9
100
AcDbSymbolTableRecord
100
AcDbRegAppTableRecord
  2
GEVID1212656563
 70
     0
  0
APPID
  5
577
330
9
100
AcDbSymbolTableRecord
100
AcDbRegAppTableRecord
  2
GEVID1212711781
 70
     0
  0
APPID
  5
578
330
9
100
AcDbSymbolTableRecord
100
AcDbRegAppTableRecord
  2
GEVID1212711782
 70
     0
  0
APPID
  5
579
330
9
100
AcDbSymbolTableRecord
100
AcDbRegAppTableRecord
  2
GEVID1212711783
 70
     0
  0
APPID
  5
57A
330
9
100
AcDbSymbolTableRecord
100
AcDbRegAppTableRecord
  2
GEVID1212711784
 70
     0
  0
APPID
  5
57B
330
9
100
AcDbSymbolTableRecord
100
AcDbRegAppTableRecord
  2
GEVID1212711788
 70
     0
  0
APPID
  5
57C
330
9
100
AcDbSymbolTableRecord
100
AcDbRegAppTableRecord
  2
GEVID1212711789
 70
     0
  0
APPID
  5
57D
330
9
100
AcDbSymbolTableRecord
100
AcDbRegAppTableRecord
  2
GEVID1212711790
 70
     0
  0
APPID
  5
57E
330
9
100
AcDbSymbolTableRecord
100
AcDbRegAppTableRecord
  2
GEVID1212711791
 70
     0
  0
APPID
  5
57F
330
9
100
AcDbSymbolTableRecord
100
AcDbRegAppTableRecord
  2
GEVID1212711792
 70
     0
  0
APPID
  5
580
330
9
100
AcDbSymbolTableRecord
100
AcDbRegAppTableRecord
  2
GEVID1212711793
 70
     0
  0
APPID
  5
581
330
9
100
AcDbSymbolTableRecord
100
AcDbRegAppTableRecord
  2
GEVID1212711794
 70
     0
  0
APPID
  5
582
330
9
100
AcDbSymbolTableRecord
100
AcDbRegAppTableRecord
  2
GEVID1212711795
 70
     0
  0
APPID
  5
583
330
9
100
AcDbSymbolTableRecord
100
AcDbRegAppTableRecord
  2
GEVID1212711797
 70
     0
  0
APPID
  5
584
330
9
100
AcDbSymbolTableRecord
100
AcDbRegAppTableRecord
  2
GEVID1212711798
 70
     0
  0
APPID
  5
585
330
9
100
AcDbSymbolTableRecord
100
AcDbRegAppTableRecord
  2
GEVID1212711799
 70
     0
  0
APPID
  5
586
330
9
100
AcDbSymbolTableRecord
100
AcDbRegAppTableRecord
  2
GEVID1212711800
 70
     0
  0
APPID
  5
587
330
9
100
AcDbSymbolTableRecord
100
AcDbRegAppTableRecord
  2
GEVID1212711801
 70
     0
  0
APPID
  5
588
330
9
100
AcDbSymbolTableRecord
100
AcDbRegAppTableRecord
  2
GEVID1212711802
 70
     0
  0
APPID
  5
589
330
9
100
AcDbSymbolTableRecord
100
AcDbRegAppTableRecord
  2
GEVID1212711803
 70
     0
  0
APPID
  5
58A
330
9
100
AcDbSymbolTableRecord
100
AcDbRegAppTableRecord
  2
GEVID1212711804
 70
     0
  0
APPID
  5
58B
330
9
100
AcDbSymbolTableRecord
100
AcDbRegAppTableRecord
  2
GEVID1212711805
 70
     0
  0
APPID
  5
58C
330
9
100
AcDbSymbolTableRecord
100
AcDbRegAppTableRecord
  2
GEVID1212711806
 70
     0
  0
APPID
  5
58D
330
9
100
AcDbSymbolTableRecord
100
AcDbRegAppTableRecord
  2
GEVID1212711807
 70
     0
  0
APPID
  5
58E
330
9
100
AcDbSymbolTableRecord
100
AcDbRegAppTableRecord
  2
GEVID1212711808
 70
     0
  0
APPID
  5
58F
330
9
100
AcDbSymbolTableRecord
100
AcDbRegAppTableRecord
  2
GEVID1212711809
 70
     0
  0
APPID
  5
590
330
9
100
AcDbSymbolTableRecord
100
AcDbRegAppTableRecord
  2
GEVID1212711810
 70
     0
  0
APPID
  5
591
330
9
100
AcDbSymbolTableRecord
100
AcDbRegAppTableRecord
  2
GEVID1212711811
 70
     0
  0
APPID
  5
90A
330
9
100
AcDbSymbolTableRecord
100
AcDbRegAppTableRecord
  2
GENIUS_GENTRA_14
 70
     0
  0
APPID
  5
919
330
9
100
AcDbSymbolTableRecord
100
AcDbRegAppTableRecord
  2
GENIUS_GENOBJ-N-TIT_13
 70
     0
  0
APPID
  5
91A
330
9
100
AcDbSymbolTableRecord
100
AcDbRegAppTableRecord
  2
GENIUS_GENTITLE_13
 70
     0
  0
APPID
  5
949
330
9
100
AcDbSymbolTableRecord
100
AcDbRegAppTableRecord
  2
GENIUS_GENBLLY_14
 70
     0
  0
APPID
  5
DDD
330
9
100
AcDbSymbolTableRecord
100
AcDbRegAppTableRecord
  2
GEVID1213165152
 70
     0
  0
APPID
  5
12F9
330
9
100
AcDbSymbolTableRecord
100
AcDbRegAppTableRecord
  2
AcDbDynamicBlockTrueName
 70
     0
  0
APPID
  5
12FA
330
9
100
AcDbSymbolTableRecord
100
AcDbRegAppTableRecord
  2
ACDBBLOCKREPETAG
 70
     0
  0
APPID
  5
1C15
330
9
100
AcDbSymbolTableRecord
100
AcDbRegAppTableRecord
  2
GEVID1214872427
 70
     0
  0
APPID
  5
1C2A
330
9
100
AcDbSymbolTableRecord
100
AcDbRegAppTableRecord
  2
GEVID1214872428
 70
     0
  0
APPID
  5
1C2F
330
9
100
AcDbSymbolTableRecord
100
AcDbRegAppTableRecord
  2
GEVID1214872429
 70
     0
  0
APPID
  5
1C33
330
9
100
AcDbSymbolTableRecord
100
AcDbRegAppTableRecord
  2
GEVID1214872430
 70
     0
  0
APPID
  5
1C3F
330
9
100
AcDbSymbolTableRecord
100
AcDbRegAppTableRecord
  2
GEVID1214872432
 70
     0
  0
APPID
  5
1C4E
330
9
100
AcDbSymbolTableRecord
100
AcDbRegAppTableRecord
  2
GEVID1214872433
 70
     0
  0
APPID
  5
20DC
330
9
100
AcDbSymbolTableRecord
100
AcDbRegAppTableRecord
  2
AcDbDynamicBlockGUID
 70
     0
  0
APPID
  5
20FD
330
9
100
AcDbSymbolTableRecord
100
AcDbRegAppTableRecord
  2
GENIUS_GENOBJ-N-REV_13
 70
     0
  0
APPID
  5
20FE
330
9
100
AcDbSymbolTableRecord
100
AcDbRegAppTableRecord
  2
GENIUS_GENOBJ-N-RSSYM_13
 70
     0
  0
APPID
  5
20FF
330
9
100
AcDbSymbolTableRecord
100
AcDbRegAppTableRecord
  2
GENIUS_GENSYMENT_13
 70
     0
  0
APPID
  5
2100
330
9
100
AcDbSymbolTableRecord
100
AcDbRegAppTableRecord
  2
GENIUS_GENSCSYM_13
 70
     0
  0
APPID
  5
551B
330
9
100
AcDbSymbolTableRecord
100
AcDbRegAppTableRecord
  2
GEVID1240362496
 70
     0
  0
APPID
  5
5553
330
9
100
AcDbSymbolTableRecord
100
AcDbRegAppTableRecord
  2
GEVID1240362497
 70
     0
  0
APPID
  5
57F9
330
9
100
AcDbSymbolTableRecord
100
AcDbRegAppTableRecord
  2
GEVID1240362498
 70
     0
  0
APPID
  5
57FE
330
9
100
AcDbSymbolTableRecord
100
AcDbRegAppTableRecord
  2
GEVID1240362499
 70
     0
  0
APPID
  5
5802
330
9
100
AcDbSymbolTableRecord
100
AcDbRegAppTableRecord
  2
GEVID1240362500
 70
     0
  0
ENDTAB
  0
TABLE
  2
DIMSTYLE
  5
A
330
0
100
AcDbSymbolTable
 70
    30
100
AcDbDimStyleTable
 71
     1
340
5AB
  0
DIMSTYLE
105
5AB
330
A
100
AcDbSymbolTableRecord
100
AcDbDimStyleTableRecord
  2
SEISA
 70
     0
  4
"
 40
10.0
 41
2.5
 42
0.625
 43
10.0
 44
0.625
 47
0.1
 48
0.1
 73
     0
 74
     0
 77
     3
 78
     8
 79
     2
 90
     1
140
3.5
141
0.0
143
0.0393701
146
0.71
147
1.5
172
     1
176
     3
177
     3
178
     3
271
     2
272
     2
283
     0
286
     8
340
5D5
341
69
342
69
371
    -1
372
    -1
1001
ACAD_DSTYLE_DIMJAG
1070
   388
1040
1.5
1001
ACAD_DSTYLE_DIMTALN
1070
   392
1070
     1
  0
DIMSTYLE
105
5E9
102
{ACAD_REACTORS
330
58A1
330
58D4
330
58EC
330
5908
330
5964
330
5A48
330
5A69
330
5A81
330
5C19
330
5C35
330
5CB1
330
5CC9
330
5CE1
330
5CF9
330
807D
330
8174
330
81B7
102
}
330
A
100
AcDbSymbolTableRecord
100
AcDbDimStyleTableRecord
  2
SEISA$0
 70
     0
  4
"
 40
10.0
 41
2.5
 42
0.625
 43
10.0
 44
0.625
 47
0.1
 48
0.1
 73
     0
 74
     0
 77
     3
 78
     8
 79
     2
 90
     1
140
3.5
141
0.0
143
0.0393701
146
0.71
147
1.5
172
     1
176
     3
177
     3
178
     3
271
     2
272
     2
283
     0
286
     8
340
5D5
341
69
342
69
371
    -1
372
    -1
  0
DIMSTYLE
105
8039
330
A
100
AcDbSymbolTableRecord
100
AcDbDimStyleTableRecord
  2
STANDARD
 70
     0
340
11
  0
DIMSTYLE
105
83FB
330
A
100
AcDbSymbolTableRecord
100
AcDbDimStyleTableRecord
  2
AM_ISO
 70
     0
  4
"
 41
2.5
 42
1.0
 43
10.0
 44
1.0
 47
0.1
 48
0.1
 73
     0
 74
     0
 77
     1
 78
     8
 79
     2
 90
     1
140
3.5
141
0.0
143
0.0393701
146
0.71
147
1.5
172
     1
176
   256
177
   256
178
     2
271
     2
272
     3
274
     4
283
     0
284
     8
340
11
371
    -1
372
    -1
  0
DIMSTYLE
105
83FC
330
A
100
AcDbSymbolTableRecord
100
AcDbDimStyleTableRecord
  2
AM_ISO$3
 70
     0
  4
"
 41
2.5
 42
1.0
 43
10.0
 44
1.0
 47
0.1
 48
0.1
 73
     0
 77
     1
 78
     8
 79
     2
 90
     1
140
3.5
141
0.0
143
0.0393701
146
0.71
147
1.5
176
   256
177
   256
178
     2
271
     2
272
     3
274
     4
283
     0
284
     8
288
     1
289
     0
340
11
371
    -1
372
    -1
  0
DIMSTYLE
105
83FD
330
A
100
AcDbSymbolTableRecord
100
AcDbDimStyleTableRecord
  2
AM_ISO$4
 70
     0
  4
"
 41
2.5
 42
1.0
 43
10.0
 44
1.0
 47
0.1
 48
0.1
 73
     0
 77
     1
 78
     8
 79
     2
 90
     1
140
3.5
141
0.0
143
0.0393701
146
0.71
147
1.5
176
   256
177
   256
178
     2
271
     2
272
     3
274
     4
283
     0
284
     8
288
     1
289
     0
340
11
371
    -1
372
    -1
  0
DIMSTYLE
105
83FE
330
A
100
AcDbSymbolTableRecord
100
AcDbDimStyleTableRecord
  2
AM_ISO$6
 70
     0
  4
"
 41
2.5
 42
1.0
 43
10.0
 44
1.0
 47
0.1
 48
0.1
 73
     0
 74
     0
 78
     8
 79
     2
 90
     1
140
3.5
141
0.0
143
0.0393701
146
0.71
147
1.5
172
     1
176
   256
177
   256
178
     2
271
     2
272
     3
274
     4
283
     0
284
     8
340
11
371
    -1
372
    -1
  0
DIMSTYLE
105
83FF
330
A
100
AcDbSymbolTableRecord
100
AcDbDimStyleTableRecord
  2
AM_ISO$7
 70
     0
  4
"
 41
2.5
 42
1.0
 43
10.0
 44
1.0
 47
0.1
 48
0.1
 73
     0
 74
     0
 77
     1
 78
     8
 79
     2
 90
     1
140
5.0
141
0.0
143
0.0393701
146
0.71
147
1.5
172
     1
176
   256
177
   256
178
     2
271
     2
272
     3
274
     4
283
     0
284
     8
340
11
371
    -1
372
    -1
  0
DIMSTYLE
105
8400
330
A
100
AcDbSymbolTableRecord
100
AcDbDimStyleTableRecord
  2
AM_ISO$SF
 70
     0
  4
"
 41
2.5
 42
1.0
 43
10.0
 44
1.0
 47
0.1
 48
0.1
 73
     0
 74
     0
 75
     1
 76
     1
 77
     1
 78
     8
 79
     2
 90
     1
140
3.5
141
0.0
143
0.0393701
146
0.71
147
1.5
172
     1
176
   256
177
   256
178
     2
271
     2
272
     3
274
     4
283
     0
284
     8
340
11
371
    -1
372
    -1
  0
DIMSTYLE
105
8401
330
A
100
AcDbSymbolTableRecord
100
AcDbDimStyleTableRecord
  2
AM_ISO$SH
 70
     0
  4
"
 41
2.5
 42
1.0
 43
10.0
 44
1.0
 47
0.1
 48
0.1
 73
     0
 74
     0
 75
     1
 76
     1
 77
     1
 78
     8
 79
     2
 90
     1
140
3.5
141
0.0
143
0.0393701
144
2.0
146
0.71
147
1.5
172
     1
173
     1
176
   256
177
   256
178
     2
271
     2
272
     3
274
     4
283
     0
284
     8
340
11
343
74
371
    -1
372
    -1
  0
ENDTAB
  0
TABLE
  2
BLOCK_RECORD
  5
1
330
0
100
AcDbSymbolTable
 70
    32
  0
BLOCK_RECORD
  5
1F
102
{ACAD_XDICTIONARY
360
82
102
}
330
1
100
AcDbSymbolTableRecord
100
AcDbBlockTableRecord
  2
*Model_Space
340
22
 70
     0
280
     1
281
     0
  0
BLOCK_RECORD
  5
1B
330
1
100
AcDbSymbolTableRecord
100
AcDbBlockTableRecord
  2
*Paper_Space
340
1E
 70
     0
280
     1
281
     0
  0
BLOCK_RECORD
  5
23
330
1
100
AcDbSymbolTableRecord
100
AcDbBlockTableRecord
  2
*Paper_Space0
340
26
 70
     0
280
     1
281
     0
  0
BLOCK_RECORD
  5
69
330
1
100
AcDbSymbolTableRecord
100
AcDbBlockTableRecord
  2
_Open30
340
0
102
{BLKREFS
331
6B0C
331
6B0D
331
6B15
331
6B16
331
6B34
331
6B35
331
6B44
331
6B45
331
6B4D
331
6B4E
331
6B56
331
6B57
331
6B62
331
6B6D
331
6B75
331
6B76
331
6B7E
331
6B7F
331
6B87
331
6B88
331
6B90
331
6B91
331
80A1
331
80A2
331
81DB
331
81DC
331
820F
331
8210
331
8225
331
8226
331
8230
331
8231
102
}
 70
     0
280
     1
281
     0
  0
BLOCK_RECORD
  5
74
330
1
100
AcDbSymbolTableRecord
100
AcDbBlockTableRecord
  2
GENAXEH
340
0
 70
     0
280
     1
281
     0
  0
BLOCK_RECORD
  5
3BAC
330
1
100
AcDbSymbolTableRecord
100
AcDbBlockTableRecord
  2
GENDOT
340
0
102
{BLKREFS
331
6B61
331
6B6C
102
}
 70
     0
280
     1
281
     0
  0
BLOCK_RECORD
  5
4D80
102
{ACAD_XDICTIONARY
360
663F
102
}
330
1
100
AcDbSymbolTableRecord
100
AcDbBlockTableRecord
  2
ロッカクアナツキプラグ-E R3／4
340
0
310
2800000020000000200000000100080000000000000400000000000000000000000000000000000000000000000080000080000000808000800000008000800080800000C0C0C000C0DCC000F0CAA6000020400000206000002080000020A0000020C0000020E00000400000004020000040400000406000004080000040A0
310
000040C0000040E00000600000006020000060400000606000006080000060A0000060C0000060E00000800000008020000080400000806000008080000080A0000080C0000080E00000A0000000A0200000A0400000A0600000A0800000A0A00000A0C00000A0E00000C0000000C0200000C0400000C0600000C0800000C0
310
A00000C0C00000C0E00000E0000000E0200000E0400000E0600000E0800000E0A00000E0C00000E0E00040000000400020004000400040006000400080004000A0004000C0004000E00040200000402020004020400040206000402080004020A0004020C0004020E000404000004040200040404000404060004040800040
310
40A0004040C0004040E00040600000406020004060400040606000406080004060A0004060C0004060E00040800000408020004080400040806000408080004080A0004080C0004080E00040A0000040A0200040A0400040A0600040A0800040A0A00040A0C00040A0E00040C0000040C0200040C0400040C0600040C08000
310
40C0A00040C0C00040C0E00040E0000040E0200040E0400040E0600040E0800040E0A00040E0C00040E0E00080000000800020008000400080006000800080008000A0008000C0008000E00080200000802020008020400080206000802080008020A0008020C0008020E00080400000804020008040400080406000804080
310
008040A0008040C0008040E00080600000806020008060400080606000806080008060A0008060C0008060E00080800000808020008080400080806000808080008080A0008080C0008080E00080A0000080A0200080A0400080A0600080A0800080A0A00080A0C00080A0E00080C0000080C0200080C0400080C0600080C0
310
800080C0A00080C0C00080C0E00080E0000080E0200080E0400080E0600080E0800080E0A00080E0C00080E0E000C0000000C0002000C0004000C0006000C0008000C000A000C000C000C000E000C0200000C0202000C0204000C0206000C0208000C020A000C020C000C020E000C0400000C0402000C0404000C0406000C0
310
408000C040A000C040C000C040E000C0600000C0602000C0604000C0606000C0608000C060A000C060C000C060E000C0800000C0802000C0804000C0806000C0808000C080A000C080C000C080E000C0A00000C0A02000C0A04000C0A06000C0A08000C0A0A000C0A0C000C0A0E000C0C00000C0C02000C0C04000C0C06000
310
C0C08000C0C0A000F0FBFF00A4A0A000808080000000FF0000FF000000FFFF00FF000000FF00FF00FFFF0000FFFFFF00000000000000000000000000000000000000000000000000000000000000000000000000000000000000000000000000F9000000000000000000000000000000000000000000000000000000000000
310
00F900000000000000000000000000000000000000000000000000000000000000F900000000000000000000000000000000000000000000000000000000000000F900000000000000000000000000000000000000000000000000000000000000F90000000000000000000000000000000000000000000000000000000000
310
0000F900000000000000000000000000000000000000000000000000000000000000F900000000000000000000000000000000000000000000000000000000000000F900000000000000000000000000000000000000000000000000000000000000F900000000000000000000000000000000000000000000000000000000
310
000000F900000000000000000000000000000000000000000000FFFFFFFFFFFFFFFFFFFFFFFFFFFFFFFFFFFF000000000000000000000000FFFF000000000000000000F90000000000000000FFFF0000000000000000FFFFFFFFFFFFFFFFFFFFFFFFFFFFFFFFFFFFFFFFFFFFFFFFFFFF000000000000FFFE00000000000000
310
00000000F900000000000000000000FEFF000000000000FFFE0000000000000000000000F900000000000000000000FEFF000000000000FFFE0000000000000000000000F900000000000000000000FEFF000000000000FFFE0000000000000000000000F900000000000000000000FEFF000000000000FFFE000000000000
310
0000000000F900000000000000000000FEFF0000000000FF00FE0000000000000000000000F900000000000000000000FEFF0000000000FFFE000000000000000000000000F90000000000000000000000FEFF00000000FFFE000000000000000000000000F90000000000000000000000FEFF00000000FFFE000000000000
310
000000000000F90000000000000000000000FEFF00000000FFFE000000000000000000000000F90000000000000000000000FEFF00000000FFFE000000000000000000000000F90000000000000000000000FEFF00000000FFFEFFFFFFFFFFFFFFFFFFFFFFFFFFFFFFFFFFFFFFFFFFFFFFFFFEFF0000000000FF0000000000
310
00000000000000F90000000000000000000000FF00000000000000FF0000000000000000000000F900000000000000000000FF0000000000000000000000000000000000000000F900000000000000000000000000000000000000000000000000000000000000F90000000000000000000000000000000000000000000000
310
0000000000000000F90000000000000000000000000000000000000000000000000000000000000000000000000000000000000000000000
102
{BLKREFS
331
4E4C
102
}
 70
     4
280
     1
281
     0
  0
BLOCK_RECORD
  5
4E13
102
{ACAD_XDICTIONARY
360
4ECD
102
}
330
1
100
AcDbSymbolTableRecord
100
AcDbBlockTableRecord
  2
ケースＡ-E CEMH800
340
0
310
2800000020000000200000000100080000000000000400000000000000000000000000000000000000000000000080000080000000808000800000008000800080800000C0C0C000C0DCC000F0CAA6000020400000206000002080000020A0000020C0000020E00000400000004020000040400000406000004080000040A0
310
000040C0000040E00000600000006020000060400000606000006080000060A0000060C0000060E00000800000008020000080400000806000008080000080A0000080C0000080E00000A0000000A0200000A0400000A0600000A0800000A0A00000A0C00000A0E00000C0000000C0200000C0400000C0600000C0800000C0
310
A00000C0C00000C0E00000E0000000E0200000E0400000E0600000E0800000E0A00000E0C00000E0E00040000000400020004000400040006000400080004000A0004000C0004000E00040200000402020004020400040206000402080004020A0004020C0004020E000404000004040200040404000404060004040800040
310
40A0004040C0004040E00040600000406020004060400040606000406080004060A0004060C0004060E00040800000408020004080400040806000408080004080A0004080C0004080E00040A0000040A0200040A0400040A0600040A0800040A0A00040A0C00040A0E00040C0000040C0200040C0400040C0600040C08000
310
40C0A00040C0C00040C0E00040E0000040E0200040E0400040E0600040E0800040E0A00040E0C00040E0E00080000000800020008000400080006000800080008000A0008000C0008000E00080200000802020008020400080206000802080008020A0008020C0008020E00080400000804020008040400080406000804080
310
008040A0008040C0008040E00080600000806020008060400080606000806080008060A0008060C0008060E00080800000808020008080400080806000808080008080A0008080C0008080E00080A0000080A0200080A0400080A0600080A0800080A0A00080A0C00080A0E00080C0000080C0200080C0400080C0600080C0
310
800080C0A00080C0C00080C0E00080E0000080E0200080E0400080E0600080E0800080E0A00080E0C00080E0E000C0000000C0002000C0004000C0006000C0008000C000A000C000C000C000E000C0200000C0202000C0204000C0206000C0208000C020A000C020C000C020E000C0400000C0402000C0404000C0406000C0
310
408000C040A000C040C000C040E000C0600000C0602000C0604000C0606000C0608000C060A000C060C000C060E000C0800000C0802000C0804000C0806000C0808000C080A000C080C000C080E000C0A00000C0A02000C0A04000C0A06000C0A08000C0A0A000C0A0C000C0A0E000C0C00000C0C02000C0C04000C0C06000
310
C0C08000C0C0A000F0FBFF00A4A0A000808080000000FF0000FF000000FFFF00FF000000FF00FF00FFFF0000FFFFFF00000000000000000000000000000000000000000000000000000000000000000000000000000000000000000000FFFF000000000000000000000000000000000000000000000000000000000000FFFF
310
000000000000000000000000000000000000000000000000000000000000FFFFFFFFFFFFFFFFFF0000000000000000000000000000000000000000000000FFFF00000000FFFF000000000000000000000000000000000000000000000000FFFF00000000FFFF000000000000000000000000000000000000000000000000FF
310
FF00000000FFFF000000000000000000000000000000000000000000000000FFFF00000000FFFF000000000000000000000000000000000000000000000000FFFF00000000FFFF000000000000000000000000000000000000000000000000FFFF00000000FFFF000000000000000000000000000000000000000000000000
310
FFFF00000000FFFF000000000000000000000000000000000000000000000000FFFF00000000FFFF000000000000000000000000000000000000000000000000FFFF00000000FFFF000000000000000000000000000000000000000000000000FFFF00000000FFFF0000000000000000000000000000000000000000000000
310
00FFFF00000000FFFF00000000000000000000000000000000000000000000000000000000000000000000000000000000000000000000000000000000000000000000000000000000000000000000000000000000000000000000000000000000000000000000000000000000000000000000000000000000000000000000
310
00000000000000000000000000000000000000000000000000000000000000000000000000000000000000000000000000000000000000000000000000000000000000000000000000000000000000000000000000000000000000000000000000000000000000000000000000000000000000000000000000000000000000
310
0000000000000000000000000000000000000000000000000000000000000000000000FFFFFFFFFFFFFFFF0000000000000000000000000000000000000000000000FFFAFFFFFFFFFFFFFFFF0000000000000000000000000000000000000000F9F9FFFAFFF900000000000000000000000000000000000000000000000000
310
000000FAFFFF0000000000000000000000000000000000000000000000000000000000FA00000000000000000000000000000000000000000000000000000000000000FA000000000000000000000000000000000000000000000000000000000000FA00000000000000000000000000000000000000000000000000000000
310
000000FA00000000000000000000000000000000000000000000000000000000000000000000000000000000000000000000000000000000
102
{BLKREFS
331
4E4D
102
}
 70
     4
280
     1
281
     0
  0
BLOCK_RECORD
  5
4F36
102
{ACAD_XDICTIONARY
360
4FD8
102
}
330
1
100
AcDbSymbolTableRecord
100
AcDbBlockTableRecord
  2
リジット-E CEMH800
340
0
310
2800000020000000200000000100080000000000000400000000000000000000000000000000000000000000000080000080000000808000800000008000800080800000C0C0C000C0DCC000F0CAA6000020400000206000002080000020A0000020C0000020E00000400000004020000040400000406000004080000040A0
310
000040C0000040E00000600000006020000060400000606000006080000060A0000060C0000060E00000800000008020000080400000806000008080000080A0000080C0000080E00000A0000000A0200000A0400000A0600000A0800000A0A00000A0C00000A0E00000C0000000C0200000C0400000C0600000C0800000C0
310
A00000C0C00000C0E00000E0000000E0200000E0400000E0600000E0800000E0A00000E0C00000E0E00040000000400020004000400040006000400080004000A0004000C0004000E00040200000402020004020400040206000402080004020A0004020C0004020E000404000004040200040404000404060004040800040
310
40A0004040C0004040E00040600000406020004060400040606000406080004060A0004060C0004060E00040800000408020004080400040806000408080004080A0004080C0004080E00040A0000040A0200040A0400040A0600040A0800040A0A00040A0C00040A0E00040C0000040C0200040C0400040C0600040C08000
310
40C0A00040C0C00040C0E00040E0000040E0200040E0400040E0600040E0800040E0A00040E0C00040E0E00080000000800020008000400080006000800080008000A0008000C0008000E00080200000802020008020400080206000802080008020A0008020C0008020E00080400000804020008040400080406000804080
310
008040A0008040C0008040E00080600000806020008060400080606000806080008060A0008060C0008060E00080800000808020008080400080806000808080008080A0008080C0008080E00080A0000080A0200080A0400080A0600080A0800080A0A00080A0C00080A0E00080C0000080C0200080C0400080C0600080C0
310
800080C0A00080C0C00080C0E00080E0000080E0200080E0400080E0600080E0800080E0A00080E0C00080E0E000C0000000C0002000C0004000C0006000C0008000C000A000C000C000C000E000C0200000C0202000C0204000C0206000C0208000C020A000C020C000C020E000C0400000C0402000C0404000C0406000C0
310
408000C040A000C040C000C040E000C0600000C0602000C0604000C0606000C0608000C060A000C060C000C060E000C0800000C0802000C0804000C0806000C0808000C080A000C080C000C080E000C0A00000C0A02000C0A04000C0A06000C0A08000C0A0A000C0A0C000C0A0E000C0C00000C0C02000C0C04000C0C06000
310
C0C08000C0C0A000F0FBFF00A4A0A000808080000000FF0000FF000000FFFF00FF000000FF00FF00FFFF0000FFFFFF0000000000000000000000000000000000000000000000000000000000000000000000000000000000000000000000000000000000FFFFFF000000000000000000000000000000000000000000000000
310
0000000000F9F9F9F9F9000000000000000000000000000000000000000000000000000000FF00000000000000000000000000000000000000FFFFFFFFFFFFFFFFFFFFFFFFFF000000000000000000000000000000000000FF0000000000000000000000FFFF000000000000000000000000000000000000FF000000000000
310
0000000000FFFF000000000000000000000000000000000000FF0000000000000000000000FFFF000000000000000000000000000000000000FF0000000000000000000000FFFF000000000000000000000000000000000000FF0000000000000000000000FFFF000000000000000000000000000000000000FF0000000000
310
000000000000FFFF000000000000000000000000000000000000FF0000000000000000000000FFFF000000000000000000000000000000000000FF0000000000000000000000FFFF000000000000000000000000000000000000FF0000000000000000000000FFFF000000000000000000000000000000000000FF00000000
310
00000000000000FFFF000000000000000000000000000000000000FF00A4A400000000000000A4FFFFFF0000000000000000000000000000000000FFA4A4A40000000000000000A4A4A40000000000000000000000000000000000FF00000000000000000000000000FF0000000000000000000000000000000000FF000000
310
00000000000000000000FF0000000000000000000000000000000000FF00000000000000000000000000FF0000000000000000000000000000000000FF00000000000000000000000000FF0000000000000000000000000000000000FFFFFFFFFFFFFFFFFFFFFFFFFFFFFF0000000000000000000000000000000000FFFFFF
310
FFFFFFFFFFFFFFFFFFFFFFFF0000000000000000000000000000000000FF00000000000000000000000000FF0000000000000000000000000000000000FF00000000000000000000000000FF0000000000000000000000000000000000FF00000000000000000000000000FF0000000000000000000000000000000000FF00
310
000000000000000000000000FF000000000000000000000000000000000000FFFFFFFFFFFFFFFFFFFFFFFFFFFFFF0000000000000000000000000000000000000000000000000000000000FFFFFF0000000000000000000000000000000000000000000000000000000000FFFFFF0000000000000000000000000000000000
310
000000000000000000000000FFFFFF0000000000000000000000000000000000000000000000000000000000000000000000000000000000
102
{BLKREFS
331
4F69
102
}
 70
     4
280
     1
281
     0
  0
BLOCK_RECORD
  5
5035
102
{ACAD_XDICTIONARY
360
50C4
102
}
330
1
100
AcDbSymbolTableRecord
100
AcDbBlockTableRecord
  2
センタ-E CEMH800
340
0
310
2800000020000000200000000100080000000000000400000000000000000000000000000000000000000000000080000080000000808000800000008000800080800000C0C0C000C0DCC000F0CAA6000020400000206000002080000020A0000020C0000020E00000400000004020000040400000406000004080000040A0
310
000040C0000040E00000600000006020000060400000606000006080000060A0000060C0000060E00000800000008020000080400000806000008080000080A0000080C0000080E00000A0000000A0200000A0400000A0600000A0800000A0A00000A0C00000A0E00000C0000000C0200000C0400000C0600000C0800000C0
310
A00000C0C00000C0E00000E0000000E0200000E0400000E0600000E0800000E0A00000E0C00000E0E00040000000400020004000400040006000400080004000A0004000C0004000E00040200000402020004020400040206000402080004020A0004020C0004020E000404000004040200040404000404060004040800040
310
40A0004040C0004040E00040600000406020004060400040606000406080004060A0004060C0004060E00040800000408020004080400040806000408080004080A0004080C0004080E00040A0000040A0200040A0400040A0600040A0800040A0A00040A0C00040A0E00040C0000040C0200040C0400040C0600040C08000
310
40C0A00040C0C00040C0E00040E0000040E0200040E0400040E0600040E0800040E0A00040E0C00040E0E00080000000800020008000400080006000800080008000A0008000C0008000E00080200000802020008020400080206000802080008020A0008020C0008020E00080400000804020008040400080406000804080
310
008040A0008040C0008040E00080600000806020008060400080606000806080008060A0008060C0008060E00080800000808020008080400080806000808080008080A0008080C0008080E00080A0000080A0200080A0400080A0600080A0800080A0A00080A0C00080A0E00080C0000080C0200080C0400080C0600080C0
310
800080C0A00080C0C00080C0E00080E0000080E0200080E0400080E0600080E0800080E0A00080E0C00080E0E000C0000000C0002000C0004000C0006000C0008000C000A000C000C000C000E000C0200000C0202000C0204000C0206000C0208000C020A000C020C000C020E000C0400000C0402000C0404000C0406000C0
310
408000C040A000C040C000C040E000C0600000C0602000C0604000C0606000C0608000C060A000C060C000C060E000C0800000C0802000C0804000C0806000C0808000C080A000C080C000C080E000C0A00000C0A02000C0A04000C0A06000C0A08000C0A0A000C0A0C000C0A0E000C0C00000C0C02000C0C04000C0C06000
310
C0C08000C0C0A000F0FBFF00A4A0A000808080000000FF0000FF000000FFFF00FF000000FF00FF00FFFF0000FFFFFF000000000000000000000000000000000000000000000000000000000000000000000000000000000000000000000000000000FFFFFFFFFFFFFF00000000000000000000000000000000000000000000
310
00000000FFFF00000000FF00000000000000000000000000000000000000000000000000FFFF00000000FF00000000000000000000000000000000000000000000000000FFFF00000000FF00000000000000000000000000000000000000000000000000FFFF00000000FF0000000000000000000000000000000000000000
310
0000000000FFFF00000000FF00000000000000000000000000000000000000000000000000FFFF00000000FF00000000000000000000000000000000000000000000000000FFFF00000000FF00000000000000000000000000000000000000000000000000FFFF00000000FF00000000000000000000000000000000000000
310
000000000000FFFF00000000FF00000000000000000000000000000000000000000000000000FFFF00000000FF00000000000000000000000000000000000000000000000000FFFF00000000FF00000000000000000000000000000000000000000000000000FFFF00000000FF000000000000000000000000000000000000
310
00000000000000FFFF00000000FF000000000000000000000000A4A4A4A4A40000000000000000FFFFA4A4A4FFA4000000000000000000000000FF0000000000000000000000000000000000FFFF000000000000000000000000FF0000000000000000000000000000000000FFFF000000000000000000000000FF00000000
310
00000000000000000000000000FFFF000000000000000000000000FF0000000000000000000000000000000000FFFF000000000000000000000000FF0000000000000000000000000000000000FFFF000000000000000000000000FF0000000000000000000000000000000000FFFF000000000000000000000000FFFF0000
310
FFFFFFFFFFFFFFFFFFFFFFFFFFFFFFFF000000000000000000000000FFFF0000FFFFFFFFFFFFFFFFFFFFFFFFFFFFFFFF000000000000000000000000FF000000000000000000000000000000000000FF000000000000000000000000FF000000000000000000000000000000000000FF000000000000000000000000FF0000
310
00000000000000000000000000000000FF000000000000000000000000FF000000000000000000000000000000000000FF000000000000000000000000FFFFFFFFFFFF0000F900FFFFFFFFFFFFFFFFFF000000000000000000000000000000000000FFFFFFF9FFFF0000000000000000000000000000000000000000000000
310
000000000000F900000000000000000000000000000000000000000000000000000000000000000000000000000000000000000000000000
102
{BLKREFS
331
5065
102
}
 70
     4
280
     1
281
     0
  0
BLOCK_RECORD
  5
5205
102
{ACAD_XDICTIONARY
360
52AA
102
}
330
1
100
AcDbSymbolTableRecord
100
AcDbBlockTableRecord
  2
リーマボルト-E CEMH800 M30
340
0
310
2800000020000000200000000100080000000000000400000000000000000000000000000000000000000000000080000080000000808000800000008000800080800000C0C0C000C0DCC000F0CAA6000020400000206000002080000020A0000020C0000020E00000400000004020000040400000406000004080000040A0
310
000040C0000040E00000600000006020000060400000606000006080000060A0000060C0000060E00000800000008020000080400000806000008080000080A0000080C0000080E00000A0000000A0200000A0400000A0600000A0800000A0A00000A0C00000A0E00000C0000000C0200000C0400000C0600000C0800000C0
310
A00000C0C00000C0E00000E0000000E0200000E0400000E0600000E0800000E0A00000E0C00000E0E00040000000400020004000400040006000400080004000A0004000C0004000E00040200000402020004020400040206000402080004020A0004020C0004020E000404000004040200040404000404060004040800040
310
40A0004040C0004040E00040600000406020004060400040606000406080004060A0004060C0004060E00040800000408020004080400040806000408080004080A0004080C0004080E00040A0000040A0200040A0400040A0600040A0800040A0A00040A0C00040A0E00040C0000040C0200040C0400040C0600040C08000
310
40C0A00040C0C00040C0E00040E0000040E0200040E0400040E0600040E0800040E0A00040E0C00040E0E00080000000800020008000400080006000800080008000A0008000C0008000E00080200000802020008020400080206000802080008020A0008020C0008020E00080400000804020008040400080406000804080
310
008040A0008040C0008040E00080600000806020008060400080606000806080008060A0008060C0008060E00080800000808020008080400080806000808080008080A0008080C0008080E00080A0000080A0200080A0400080A0600080A0800080A0A00080A0C00080A0E00080C0000080C0200080C0400080C0600080C0
310
800080C0A00080C0C00080C0E00080E0000080E0200080E0400080E0600080E0800080E0A00080E0C00080E0E000C0000000C0002000C0004000C0006000C0008000C000A000C000C000C000E000C0200000C0202000C0204000C0206000C0208000C020A000C020C000C020E000C0400000C0402000C0404000C0406000C0
310
408000C040A000C040C000C040E000C0600000C0602000C0604000C0606000C0608000C060A000C060C000C060E000C0800000C0802000C0804000C0806000C0808000C080A000C080C000C080E000C0A00000C0A02000C0A04000C0A06000C0A08000C0A0A000C0A0C000C0A0E000C0C00000C0C02000C0C04000C0C06000
310
C0C08000C0C0A000F0FBFF00A4A0A000808080000000FF0000FF000000FFFF00FF000000FF00FF00FFFF0000FFFFFF00000000000000000000000000000000000000000000000000000000000000000000000000000000000000000000000000000000000000000000000000000000000000000000FAFAFAFAFAFAFAFAFAFA
310
FAFAFAFAFAFAFAFAFAFAFAFAFAFAFAFA000000000000000000000000000000000000000000000000000000000000FA00000000000000000000000000000000000000000000000000000000000000FA00000000000000000000000000000000000000000000000000000000000000FA00000000000000000000000000000000
310
000000000000000000000000000000FA00000000000000000000000000000000000000000000000000000000000000FA00000000000000000000000000000000000000000000000000000000000000FA00000000000000000000000000000000000000000000000000000000000000FA000000000000000000000000000000
310
00000000000000000000000000000000FA00000000000000000000000000000000000000000000000000000000000000FA00000000000000000000000000000000000000000000000000000000000000FA000000000000000000000000000000000000000000000000000000000000FAFA0000000000000000000000000000
310
00000000000000000000000000000000FAFA000000000000000000000000000000000000000000000000000000000000FAFA000000000000000000000000000000000000000000000000000000000000FAFA000000000000000000000000000000000000000000000000000000000000FAFA00000000000000000000000000
310
000000000000000000000000000000000000FA00000000000000000000000000000000000000000000000000000000000000FA00000000000000000000000000000000000000000000000000000000000000FA00000000000000000000000000000000000000000000000000000000000000FA000000000000000000000000
310
00000000000000000000000000000000000000FA00000000000000000000000000000000000000000000000000000000000000FA00000000000000000000000000000000000000000000000000000000000000FA00000000000000000000000000000000000000000000000000000000000000FA0000000000000000000000
310
0000000000000000000000000000000000000000FA00000000FFFF00FFFF00000000000000000000000000000000000000000000FA000000FFFFFF00FFFF00000000000000000000000000000000000000000000FA000000FFFFFF00FFFFFAFAFAFAFAFAFAFAFAFAFAFAFAFAFAFAFAFAFAFAFAFAFAFA000000000000000000
310
0000000000000000000000000000000000000000000000000000000000000000000000000000000000000000000000000000000000000000
102
{BLKREFS
331
5231
102
}
 70
     4
280
     1
281
     0
  0
BLOCK_RECORD
  5
532F
102
{ACAD_XDICTIONARY
360
53C9
102
}
330
1
100
AcDbSymbolTableRecord
100
AcDbBlockTableRecord
  2
ＧＣサイドカバ－-E CEMH800
340
0
310
2800000020000000200000000100080000000000000400000000000000000000000000000000000000000000000080000080000000808000800000008000800080800000C0C0C000C0DCC000F0CAA6000020400000206000002080000020A0000020C0000020E00000400000004020000040400000406000004080000040A0
310
000040C0000040E00000600000006020000060400000606000006080000060A0000060C0000060E00000800000008020000080400000806000008080000080A0000080C0000080E00000A0000000A0200000A0400000A0600000A0800000A0A00000A0C00000A0E00000C0000000C0200000C0400000C0600000C0800000C0
310
A00000C0C00000C0E00000E0000000E0200000E0400000E0600000E0800000E0A00000E0C00000E0E00040000000400020004000400040006000400080004000A0004000C0004000E00040200000402020004020400040206000402080004020A0004020C0004020E000404000004040200040404000404060004040800040
310
40A0004040C0004040E00040600000406020004060400040606000406080004060A0004060C0004060E00040800000408020004080400040806000408080004080A0004080C0004080E00040A0000040A0200040A0400040A0600040A0800040A0A00040A0C00040A0E00040C0000040C0200040C0400040C0600040C08000
310
40C0A00040C0C00040C0E00040E0000040E0200040E0400040E0600040E0800040E0A00040E0C00040E0E00080000000800020008000400080006000800080008000A0008000C0008000E00080200000802020008020400080206000802080008020A0008020C0008020E00080400000804020008040400080406000804080
310
008040A0008040C0008040E00080600000806020008060400080606000806080008060A0008060C0008060E00080800000808020008080400080806000808080008080A0008080C0008080E00080A0000080A0200080A0400080A0600080A0800080A0A00080A0C00080A0E00080C0000080C0200080C0400080C0600080C0
310
800080C0A00080C0C00080C0E00080E0000080E0200080E0400080E0600080E0800080E0A00080E0C00080E0E000C0000000C0002000C0004000C0006000C0008000C000A000C000C000C000E000C0200000C0202000C0204000C0206000C0208000C020A000C020C000C020E000C0400000C0402000C0404000C0406000C0
310
408000C040A000C040C000C040E000C0600000C0602000C0604000C0606000C0608000C060A000C060C000C060E000C0800000C0802000C0804000C0806000C0808000C080A000C080C000C080E000C0A00000C0A02000C0A04000C0A06000C0A08000C0A0A000C0A0C000C0A0E000C0C00000C0C02000C0C04000C0C06000
310
C0C08000C0C0A000F0FBFF00A4A0A000808080000000FF0000FF000000FFFF00FF000000FF00FF00FFFF0000FFFFFF00000000000000000000000000000000000000000000000000000000000000000000000000000000000000000000000000FF0000000000000000000000000000000000000000000000000000000000F9
310
F9FFF9000000000000000000000000000000000000000000000000000000000000FF00000000000000000000000000000000000000000000000000000000000000FF00000000000000000000000000000000000000000000000000000000000000FF0000000000000000000000000000000000000000000000000000000000
310
0000FF00000000000000000000000000000000000000000000000000000000000000FF00000000000000000000000000000000000000000000000000000000000000FF00000000000000000000000000000000000000000000000000000000000000FF00000000000000000000000000000000000000000000000000000000
310
000000FF00000000000000000000000000000000000000000000000000000000000000FF00000000000000000000000000000000000000000000000000000000000000FF00000000000000000000000000000000000000000000000000000000000000FF000000000000000000000000000000000000000000000000000000
310
00000000FF00000000000000000000000000000000000000000000000000000000000000FF00000000000000000000000000000000000000000000000000000000000000FF00000000000000000000000000000000000000000000000000000000000000000000000000000000000000000000000000000000000000000000
310
00000000000000000000000000000000000000000000000000000000000000000000000000000000000000000000000000000000000000000000000000000000000000000000000000000000000000000000000000000000000000000000000000000000000000000000000000000000000000000000000000000000000000
310
00000000000000000000000000000000000000000000000000000000000000000000000000000000000000000000000000000000000000000000000000000000000000000000000000000000000000000000000000000000000000000000000000000000000000000000000000000000000000000000000000000000000000
310
0000000000000000000000000000000000000000000000000000000000000000000000000000FFFF000000000000000000000000000000000000000000000000000000000000FFFF0000000000000000000000000000000000000000000000000000000000FFFFFFFF00000000000000000000000000000000000000000000
310
00000000000000FFFF0000000000000000000000000000000000000000000000000000000000000000000000000000000000000000000000
102
{BLKREFS
331
5360
102
}
 70
     4
280
     1
281
     0
  0
BLOCK_RECORD
  5
58A2
330
1
100
AcDbSymbolTableRecord
100
AcDbBlockTableRecord
  2
*D13
340
0
 70
     0
280
     1
281
     0
  0
BLOCK_RECORD
  5
58D5
330
1
100
AcDbSymbolTableRecord
100
AcDbBlockTableRecord
  2
*D14
340
0
 70
     0
280
     1
281
     0
  0
BLOCK_RECORD
  5
58ED
330
1
100
AcDbSymbolTableRecord
100
AcDbBlockTableRecord
  2
*D15
340
0
 70
     0
280
     1
281
     0
  0
BLOCK_RECORD
  5
5909
330
1
100
AcDbSymbolTableRecord
100
AcDbBlockTableRecord
  2
*D16
340
0
 70
     0
280
     1
281
     0
  0
BLOCK_RECORD
  5
5965
330
1
100
AcDbSymbolTableRecord
100
AcDbBlockTableRecord
  2
*D17
340
0
 70
     0
280
     1
281
     0
  0
BLOCK_RECORD
  5
5A49
330
1
100
AcDbSymbolTableRecord
100
AcDbBlockTableRecord
  2
*D18
340
0
 70
     0
280
     1
281
     0
  0
BLOCK_RECORD
  5
5A6A
330
1
100
AcDbSymbolTableRecord
100
AcDbBlockTableRecord
  2
*D19
340
0
 70
     0
280
     1
281
     0
  0
BLOCK_RECORD
  5
5A82
330
1
100
AcDbSymbolTableRecord
100
AcDbBlockTableRecord
  2
*D20
340
0
 70
     0
280
     1
281
     0
  0
BLOCK_RECORD
  5
5C1A
330
1
100
AcDbSymbolTableRecord
100
AcDbBlockTableRecord
  2
*D21
340
0
 70
     0
280
     1
281
     0
  0
BLOCK_RECORD
  5
5C36
330
1
100
AcDbSymbolTableRecord
100
AcDbBlockTableRecord
  2
*D22
340
0
 70
     0
280
     1
281
     0
  0
BLOCK_RECORD
  5
5CB2
330
1
100
AcDbSymbolTableRecord
100
AcDbBlockTableRecord
  2
*D23
340
0
 70
     0
280
     1
281
     0
  0
BLOCK_RECORD
  5
5CCA
330
1
100
AcDbSymbolTableRecord
100
AcDbBlockTableRecord
  2
*D24
340
0
 70
     0
280
     1
281
     0
  0
BLOCK_RECORD
  5
5CE2
330
1
100
AcDbSymbolTableRecord
100
AcDbBlockTableRecord
  2
*D25
340
0
 70
     0
280
     1
281
     0
  0
BLOCK_RECORD
  5
5CFA
330
1
100
AcDbSymbolTableRecord
100
AcDbBlockTableRecord
  2
*D26
340
0
 70
     0
280
     1
281
     0
  0
BLOCK_RECORD
  5
807E
330
1
100
AcDbSymbolTableRecord
100
AcDbBlockTableRecord
  2
*D27
340
0
 70
     0
280
     1
281
     0
  0
BLOCK_RECORD
  5
8175
330
1
100
AcDbSymbolTableRecord
100
AcDbBlockTableRecord
  2
*D28
340
0
 70
     0
280
     1
281
     0
  0
BLOCK_RECORD
  5
81B8
330
1
100
AcDbSymbolTableRecord
100
AcDbBlockTableRecord
  2
*D29
340
0
 70
     0
280
     1
281
     0
  0
BLOCK_RECORD
  5
8340
330
1
100
AcDbSymbolTableRecord
100
AcDbBlockTableRecord
  2
GCｻｲﾄﾞｶﾊﾞｰ　CEM800
340
0
310
2800000020000000200000000100080000000000000400000000000000000000000000000000000000000000000080000080000000808000800000008000800080800000C0C0C000C0DCC000F0CAA6000020400000206000002080000020A0000020C0000020E00000400000004020000040400000406000004080000040A0
310
000040C0000040E00000600000006020000060400000606000006080000060A0000060C0000060E00000800000008020000080400000806000008080000080A0000080C0000080E00000A0000000A0200000A0400000A0600000A0800000A0A00000A0C00000A0E00000C0000000C0200000C0400000C0600000C0800000C0
310
A00000C0C00000C0E00000E0000000E0200000E0400000E0600000E0800000E0A00000E0C00000E0E00040000000400020004000400040006000400080004000A0004000C0004000E00040200000402020004020400040206000402080004020A0004020C0004020E000404000004040200040404000404060004040800040
310
40A0004040C0004040E00040600000406020004060400040606000406080004060A0004060C0004060E00040800000408020004080400040806000408080004080A0004080C0004080E00040A0000040A0200040A0400040A0600040A0800040A0A00040A0C00040A0E00040C0000040C0200040C0400040C0600040C08000
310
40C0A00040C0C00040C0E00040E0000040E0200040E0400040E0600040E0800040E0A00040E0C00040E0E00080000000800020008000400080006000800080008000A0008000C0008000E00080200000802020008020400080206000802080008020A0008020C0008020E00080400000804020008040400080406000804080
310
008040A0008040C0008040E00080600000806020008060400080606000806080008060A0008060C0008060E00080800000808020008080400080806000808080008080A0008080C0008080E00080A0000080A0200080A0400080A0600080A0800080A0A00080A0C00080A0E00080C0000080C0200080C0400080C0600080C0
310
800080C0A00080C0C00080C0E00080E0000080E0200080E0400080E0600080E0800080E0A00080E0C00080E0E000C0000000C0002000C0004000C0006000C0008000C000A000C000C000C000E000C0200000C0202000C0204000C0206000C0208000C020A000C020C000C020E000C0400000C0402000C0404000C0406000C0
310
408000C040A000C040C000C040E000C0600000C0602000C0604000C0606000C0608000C060A000C060C000C060E000C0800000C0802000C0804000C0806000C0808000C080A000C080C000C080E000C0A00000C0A02000C0A04000C0A06000C0A08000C0A0A000C0A0C000C0A0E000C0C00000C0C02000C0C04000C0C06000
310
C0C08000C0C0A000F0FBFF00A4A0A000808080000000FF0000FF000000FFFF00FF000000FF00FF00FFFF0000FFFFFF000000000000000000000000000000000000000000000000000000000000000000000000000000000000FC00FC000000000000FC00FC0000000000000000000000000000000000000000FCFCFC000000
310
000000FCFCFC0000000000000000000000000000000000000000FC00FC000000000000FC00FC0000000000000000000000000000000000000000FC00FC000000000000FC00FC0000000000000000000000000000000000000000FC00FCFCFCFCFCFCFCFC00FC0000000000000000000000000000000000000000FC00000000
310
000000000000FC0000000000000000000000000000000000000000FC00000000000000000000FC0000000000000000000000000000000000000000FC00000000000000000000FC0000000000000000000000000000000000000000FC00000000000000000000FC0000000000000000000000000000000000000000FC000000
310
00000000000000FC0000000000000000000000000000000000000000FC00000000000000000000FC0000000000000000000000000000000000000000FC00000000000000000000FC0000000000000000000000000000000000000000FC00000000000000000000FC0000000000000000000000000000000000000000FC0000
310
0000000000000000FC0000000000000000000000000000000000000000FCFCFCFCFC000000000000FC000000000000000000000000000000000000000000000000FC000000000000FC00000000000000000000000000000000000000000000FCFCFC000000000000FC00000000000000000000000000000000000000000000
310
FC0000000000000000FC00000000000000000000000000000000000000000000FC0000000000000000FC00000000000000000000000000000000000000000000FC0000000000000000FC00000000000000000000000000000000000000000000FC0000000000000000FC000000000000000000000000000000000000000000
310
00FC0000000000000000FC0000000000000000000000000000000000000000FCFCFCFCFCFCFCFCFCFCFCFCFCFC0000000000000000000000000000000000000000FC0000000000000000FC00000000000000000000000000000000000000000000FC0000000000000000FC0000000000000000000000000000000000000000
310
0000FC0000000000000000FC00000000000000000000000000000000000000000000FC0000000000000000FC00000000000000000000000000000000000000000000FC0000000000000000FC00000000000000000000000000000000000000000000FC0000000000000000FC00000000000000000000000000000000000000
310
000000FCFCFCFCFCFCFCFCFCFC00000000000000000000000000000000000000000000000000000000000000000000000000000000000000
102
{BLKREFS
331
8356
102
}
 70
     4
280
     1
281
     1
  0
ENDTAB
  0
ENDSEC
  0
SECTION
  2
BLOCKS
  0
BLOCK
  5
20
330
1F
100
AcDbEntity
  8
0
100
AcDbBlockBegin
  2
*Model_Space
 70
     0
 10
0.0
 20
0.0
 30
0.0
  3
*Model_Space
  1

  0
ENDBLK
  5
21
330
1F
100
AcDbEntity
  8
0
100
AcDbBlockEnd
  0
BLOCK
  5
1C
330
1B
100
AcDbEntity
 67
     1
  8
0
100
AcDbBlockBegin
  2
*Paper_Space
 70
     0
 10
0.0
 20
0.0
 30
0.0
  3
*Paper_Space
  1

  0
ENDBLK
  5
1D
330
1B
100
AcDbEntity
 67
     1
  8
0
100
AcDbBlockEnd
  0
BLOCK
  5
24
330
23
100
AcDbEntity
 67
     1
  8
0
100
AcDbBlockBegin
  2
*Paper_Space0
 70
     0
 10
0.0
 20
0.0
 30
0.0
  3
*Paper_Space0
  1

  0
ENDBLK
  5
25
330
23
100
AcDbEntity
 67
     1
  8
0
100
AcDbBlockEnd
  0
BLOCK
  5
6D
330
69
100
AcDbEntity
  8
0
100
AcDbBlockBegin
  2
_Open30
 70
     0
 10
0.0
 20
0.0
 30
0.0
  3
_Open30
  1

  0
LINE
  5
6A
330
69
100
AcDbEntity
  8
0
  6
ByBlock
 62
     0
370
    -2
100
AcDbLine
 10
-1.0
 20
0.26794919
 30
0.0
 11
0.0
 21
0.0
 31
0.0
  0
LINE
  5
6B
330
69
100
AcDbEntity
  8
0
  6
ByBlock
 62
     0
370
    -2
100
AcDbLine
 10
0.0
 20
0.0
 30
0.0
 11
-1.0
 21
-0.26794919
 31
0.0
  0
LINE
  5
6C
330
69
100
AcDbEntity
  8
0
  6
ByBlock
 62
     0
370
    -2
100
AcDbLine
 10
0.0
 20
0.0
 30
0.0
 11
-1.0
 21
0.0
 31
0.0
  0
ENDBLK
  5
6E
330
69
100
AcDbEntity
  8
0
100
AcDbBlockEnd
  0
BLOCK
  5
76
330
74
100
AcDbEntity
  8
0
100
AcDbBlockBegin
  2
GENAXEH
 70
     0
 10
0.0
 20
0.0
 30
0.0
  3
GENAXEH
  1

  0
LINE
  5
75
330
74
100
AcDbEntity
  8
0
100
AcDbLine
 10
-1.0
 20
0.0
 30
0.0
 11
1.0
 21
0.0
 31
0.0
  0
ENDBLK
  5
77
330
74
100
AcDbEntity
  8
0
100
AcDbBlockEnd
  0
BLOCK
  5
3BAD
330
3BAC
100
AcDbEntity
  8
0
100
AcDbBlockBegin
  2
GENDOT
 70
     0
 10
0.0
 20
0.0
 30
0.0
  3
GENDOT
  1

  0
LINE
  5
3BAE
330
3BAC
100
AcDbEntity
  8
0
100
AcDbLine
 10
0.0
 20
0.0
 30
0.0
 11
-1.0
 21
0.0
 31
0.0
  0
LWPOLYLINE
  5
3BAF
330
3BAC
100
AcDbEntity
  8
0
100
AcDbPolyline
 90
        2
 70
     1
 43
0.25
 10
-0.125
 20
0.0
 42
1.0
 10
0.125
 20
0.0
 42
1.0
  0
ENDBLK
  5
3BB0
330
3BAC
100
AcDbEntity
  8
0
100
AcDbBlockEnd
  0
BLOCK
  5
4D81
330
4D80
100
AcDbEntity
  8
0
100
AcDbBlockBegin
  2
ロッカクアナツキプラグ-E R3／4
 70
     0
 10
0.0
 20
0.0
 30
0.0
  3
ロッカクアナツキプラグ-E R3／4
  1

  0
LINE
  5
4D83
330
4D80
100
AcDbEntity
  8
AM_7 中心線
 48
0.5
100
AcDbLine
 10
0.0
 20
2.297871999999187
 30
0.0
 11
0.0
 21
-26.21276600000056
 31
0.0
  0
LINE
  5
4D84
330
4D80
100
AcDbEntity
  8
AM_0 外形線1
100
AcDbLine
 10
12.99246700000003
 20
-14.0
 30
0.0
 11
-12.99246700000003
 21
-14.0
 31
0.0
  0
LINE
  5
4D85
330
4D80
100
AcDbEntity
  8
AM_0 外形線1
100
AcDbLine
 10
-13.41151700000046
 20
-2.0
 30
0.0
 11
13.41151699999955
 21
-2.0
 31
0.0
  0
LINE
  5
4D86
330
4D80
100
AcDbEntity
  8
AM_0 外形線1
100
AcDbLine
 10
-7.796314999999593
 20
-17.0
 30
0.0
 11
7.796314999999593
 21
-17.0
 31
0.0
  0
LINE
  5
4D87
330
4D80
100
AcDbEntity
  8
AM_4 細線
100
AcDbLine
 10
-12.28872500000034
 20
-0.8772090000002208
 30
0.0
 11
-11.80655800000022
 21
-14.68468600000051
 31
0.0
  0
LINE
  5
4D88
330
4D80
100
AcDbEntity
  8
AM_0 外形線1
100
AcDbLine
 10
-13.41151700000046
 20
-2.0
 30
0.0
 11
-12.99246700000003
 21
-14.0
 31
0.0
  0
LINE
  5
4D89
330
4D80
100
AcDbEntity
  8
AM_0 外形線1
100
AcDbLine
 10
-11.41151700000046
 20
0.0
 30
0.0
 11
-13.41151700000046
 21
-2.0
 31
0.0
  0
LINE
  5
4D8A
330
4D80
100
AcDbEntity
  8
AM_0 外形線1
100
AcDbLine
 10
-12.99246700000003
 20
-14.0
 30
0.0
 11
-7.796314999999593
 21
-17.0
 31
0.0
  0
LINE
  5
4D8B
330
4D80
100
AcDbEntity
  8
AM_4 細線
100
AcDbLine
 10
11.80655800000022
 20
-14.68468600000051
 30
0.0
 11
12.28872500000034
 21
-0.8772090000002208
 31
0.0
  0
LINE
  5
4D8C
330
4D80
100
AcDbEntity
  8
AM_0 外形線1
100
AcDbLine
 10
13.41151699999955
 20
-2.0
 30
0.0
 11
11.41151699999955
 21
0.0
 31
0.0
  0
LINE
  5
4D8D
330
4D80
100
AcDbEntity
  8
AM_0 外形線1
100
AcDbLine
 10
12.99246700000003
 20
-14.0
 30
0.0
 11
13.41151699999955
 21
-2.0
 31
0.0
  0
LINE
  5
4D8E
330
4D80
100
AcDbEntity
  8
AM_0 外形線1
100
AcDbLine
 10
7.796314999999593
 20
-17.0
 30
0.0
 11
12.99246700000003
 21
-14.0
 31
0.0
  0
LINE
  5
663E
330
4D80
100
AcDbEntity
  8
AM_0 外形線1
100
AcDbLine
 10
-11.41151700000046
 20
0.0
 30
0.0
 11
11.41151699999955
 21
0.0
 31
0.0
  0
ENDBLK
  5
4D82
330
4D80
100
AcDbEntity
  8
0
100
AcDbBlockEnd
  0
BLOCK
  5
4E14
330
4E13
100
AcDbEntity
  8
0
100
AcDbBlockBegin
  2
ケースＡ-E CEMH800
 70
     0
 10
0.0
 20
0.0
 30
0.0
  3
ケースＡ-E CEMH800
  1

  0
LINE
  5
4E16
330
4E13
100
AcDbEntity
  8
AM_0 外形線1
100
AcDbLine
 10
0.0
 20
0.0
 30
0.0
 11
0.0
 21
-398.0
 31
0.0
  0
LINE
  5
4E17
330
4E13
100
AcDbEntity
  8
AM_0 外形線1
100
AcDbLine
 10
38.0
 20
-398.0
 30
0.0
 11
38.0
 21
0.0
 31
0.0
  0
LINE
  5
4E18
330
4E13
100
AcDbEntity
  8
AM_0 外形線1
100
AcDbLine
 10
2.0
 20
-400.0
 30
0.0
 11
36.0
 21
-400.0
 31
0.0
  0
LINE
  5
4E19
330
4E13
100
AcDbEntity
  8
AM_0 外形線1
100
AcDbLine
 10
0.0
 20
-398.0
 30
0.0
 11
2.0
 21
-400.0
 31
0.0
  0
LINE
  5
4E1A
330
4E13
100
AcDbEntity
  8
AM_0 外形線1
100
AcDbLine
 10
36.0
 20
-400.0
 30
0.0
 11
38.0
 21
-398.0
 31
0.0
  0
LINE
  5
4E1B
330
4E13
100
AcDbEntity
  8
AM_0 外形線1
100
AcDbLine
 10
219.0
 20
-345.0
 30
0.0
 11
249.0
 21
-345.0
 31
0.0
  0
LINE
  5
4E1C
330
4E13
100
AcDbEntity
  8
AM_0 外形線1
100
AcDbLine
 10
219.0
 20
-345.0
 30
0.0
 11
219.0
 21
0.0
 31
0.0
  0
LINE
  5
4E1D
330
4E13
100
AcDbEntity
  8
AM_0 外形線1
100
AcDbLine
 10
210.0
 20
-336.0
 30
0.0
 11
210.0
 21
0.0
 31
0.0
  0
LINE
  5
4E1E
330
4E13
100
AcDbEntity
  8
AM_0 外形線1
100
AcDbLine
 10
46.0
 20
-336.0
 30
0.0
 11
210.0
 21
-336.0
 31
0.0
  0
ARC
  5
4E1F
330
4E13
100
AcDbEntity
  8
AM_0 外形線1
100
AcDbCircle
 10
46.0
 20
-344.0
 30
0.0
 40
8.0
100
AcDbArc
 50
90.0
 51
180.0
  0
LINE
  5
4E20
330
4E13
100
AcDbEntity
  8
AM_0 外形線1
100
AcDbLine
 10
210.0
 20
-336.0
 30
0.0
 11
219.0
 21
-345.0
 31
0.0
  0
LINE
  5
4E21
330
4E13
100
AcDbEntity
  8
AM_0 外形線1
100
AcDbLine
 10
249.0
 20
-318.8000000000002
 30
0.0
 11
249.0
 21
0.0
 31
0.0
  0
LINE
  5
4E22
330
4E13
100
AcDbEntity
  8
AM_0 外形線1
100
AcDbLine
 10
249.0
 20
-345.0
 30
0.0
 11
249.0
 21
-318.8000000000002
 31
0.0
  0
LINE
  5
4E23
330
4E13
100
AcDbEntity
  8
AM_3 隠れ線
100
AcDbLine
 10
233.5
 20
297.5999999999999
 30
0.0
 11
117.5
 21
297.5999999999999
 31
0.0
  0
LINE
  5
4E24
330
4E13
100
AcDbEntity
  8
AM_7 中心線
100
AcDbLine
 10
106.0
 20
304.0000000000004
 30
0.0
 11
244.0
 21
304.0000000000004
 31
0.0
  0
LINE
  5
4E25
330
4E13
100
AcDbEntity
  8
AM_0 外形線1
100
AcDbLine
 10
219.0
 20
345.0000000000005
 30
0.0
 11
249.0
 21
345.0000000000005
 31
0.0
  0
LINE
  5
4E26
330
4E13
100
AcDbEntity
  8
AM_0 外形線1
100
AcDbLine
 10
108.0
 20
312.0000000000004
 30
0.0
 11
242.0
 21
312.0000000000004
 31
0.0
  0
LINE
  5
4E27
330
4E13
100
AcDbEntity
  8
AM_0 外形線1
100
AcDbLine
 10
0.0
 20
337.2000000000003
 30
0.0
 11
0.0
 21
355.0000000000005
 31
0.0
  0
LINE
  5
4E28
330
4E13
100
AcDbEntity
  8
AM_0 外形線1
100
AcDbLine
 10
210.0
 20
336.0000000000005
 30
0.0
 11
219.0
 21
345.0000000000005
 31
0.0
  0
ARC
  5
4E29
330
4E13
100
AcDbEntity
  8
AM_0 外形線1
100
AcDbCircle
 10
46.0
 20
344.0000000000005
 30
0.0
 40
8.0
100
AcDbArc
 50
180.0
 51
270.0
  0
LINE
  5
4E2A
330
4E13
100
AcDbEntity
  8
AM_0 外形線1
100
AcDbLine
 10
107.0
 20
313.5000000000005
 30
0.0
 11
-9.0
 21
313.5000000000005
 31
0.0
  0
LINE
  5
4E2B
330
4E13
100
AcDbEntity
  8
AM_0 外形線1
100
AcDbLine
 10
46.0
 20
336.0000000000005
 30
0.0
 11
210.0
 21
336.0000000000005
 31
0.0
  0
LINE
  5
4E2C
330
4E13
100
AcDbEntity
  8
AM_0 外形線1
100
AcDbLine
 10
4.0
 20
337.2000000000003
 30
0.0
 11
0.0
 21
337.2000000000003
 31
0.0
  0
ARC
  5
4E2D
330
4E13
100
AcDbEntity
  8
AM_0 外形線1
100
AcDbCircle
 10
4.0
 20
336.7000000000003
 30
0.0
 40
0.5
100
AcDbArc
 50
0.0
 51
90.0
  0
LINE
  5
4E2E
330
4E13
100
AcDbEntity
  8
AM_0 外形線1
100
AcDbLine
 10
4.5
 20
330.5000000000005
 30
0.0
 11
4.5
 21
336.7000000000003
 31
0.0
  0
ARC
  5
4E2F
330
4E13
100
AcDbEntity
  8
AM_0 外形線1
100
AcDbCircle
 10
4.0
 20
330.5000000000005
 30
0.0
 40
0.5
100
AcDbArc
 50
270.0
 51
0.0
  0
LINE
  5
4E30
330
4E13
100
AcDbEntity
  8
AM_0 外形線1
100
AcDbLine
 10
-7.0
 20
330.0000000000005
 30
0.0
 11
4.0
 21
330.0000000000005
 31
0.0
  0
LINE
  5
4E31
330
4E13
100
AcDbEntity
  8
AM_0 外形線1
100
AcDbLine
 10
-9.0
 20
328.0000000000005
 30
0.0
 11
-7.0
 21
330.0000000000005
 31
0.0
  0
LINE
  5
4E32
330
4E13
100
AcDbEntity
  8
AM_0 外形線1
100
AcDbLine
 10
-9.0
 20
313.5000000000005
 30
0.0
 11
-9.0
 21
328.0000000000005
 31
0.0
  0
LINE
  5
4E33
330
4E13
100
AcDbEntity
  8
AM_4 細線
100
AcDbLine
 10
55.00753299999995
 20
322.0000000000005
 30
0.0
 11
55.30435899999975
 21
313.5000000000005
 31
0.0
  0
LINE
  5
4E34
330
4E13
100
AcDbEntity
  8
AM_0 外形線1
100
AcDbLine
 10
56.19344199999978
 20
321.3153139999999
 30
0.0
 11
56.46635900000001
 21
313.5000000000005
 31
0.0
  0
LINE
  5
4E35
330
4E13
100
AcDbEntity
  8
AM_4 細線
100
AcDbLine
 10
80.99246700000003
 20
322.0000000000005
 30
0.0
 11
80.69564100000025
 21
313.5000000000005
 31
0.0
  0
LINE
  5
4E36
330
4E13
100
AcDbEntity
  8
AM_0 外形線1
100
AcDbLine
 10
79.80655800000022
 20
321.3153139999999
 30
0.0
 11
79.53364099999998
 21
313.5000000000005
 31
0.0
  0
LINE
  5
4E37
330
4E13
100
AcDbEntity
  8
AM_0 外形線1
100
AcDbLine
 10
117.5
 20
297.5999999999999
 30
0.0
 11
109.0
 21
297.5999999999999
 31
0.0
  0
ARC
  5
4E38
330
4E13
100
AcDbEntity
  8
AM_0 外形線1
100
AcDbCircle
 10
107.0
 20
312.5000000000004
 30
0.0
 40
1.0
100
AcDbArc
 50
0.0
 51
90.0
  0
LINE
  5
4E39
330
4E13
100
AcDbEntity
  8
AM_0 外形線1
100
AcDbLine
 10
108.0
 20
298.5999999999999
 30
0.0
 11
108.0
 21
312.5000000000004
 31
0.0
  0
LINE
  5
4E3A
330
4E13
100
AcDbEntity
  8
AM_0 外形線1
100
AcDbLine
 10
109.0
 20
297.5999999999999
 30
0.0
 11
108.0
 21
298.5999999999999
 31
0.0
  0
LINE
  5
4E3B
330
4E13
100
AcDbEntity
  8
AM_7 中心線
 48
0.5
100
AcDbLine
 10
68.71985800000039
 20
371.0000000000004
 30
0.0
 11
-89.29432600000017
 21
371.0000000000004
 31
0.0
  0
LINE
  5
4E3E
330
4E13
100
AcDbEntity
  8
AM_0 外形線1
100
AcDbLine
 10
38.0
 20
344.0000000000005
 30
0.0
 11
38.0
 21
398.0000000000004
 31
0.0
  0
LINE
  5
4E3F
330
4E13
100
AcDbEntity
  8
AM_0 外形線1
100
AcDbLine
 10
0.0
 20
387.0000000000004
 30
0.0
 11
0.0
 21
398.0000000000004
 31
0.0
  0
LINE
  5
4E40
330
4E13
100
AcDbEntity
  8
AM_0 外形線1
100
AcDbLine
 10
2.0
 20
400.0000000000004
 30
0.0
 11
36.0
 21
400.0000000000004
 31
0.0
  0
LINE
  5
4E41
330
4E13
100
AcDbEntity
  8
AM_0 外形線1
100
AcDbLine
 10
0.0
 20
398.0000000000004
 30
0.0
 11
2.0
 21
400.0000000000004
 31
0.0
  0
LINE
  5
4E42
330
4E13
100
AcDbEntity
  8
AM_0 外形線1
100
AcDbLine
 10
36.0
 20
400.0000000000004
 30
0.0
 11
38.0
 21
398.0000000000004
 31
0.0
  0
LINE
  5
4E43
330
4E13
100
AcDbEntity
  8
AM_0 外形線1
100
AcDbLine
 10
249.0
 20
345.0000000000005
 30
0.0
 11
249.0
 21
336.0000000000005
 31
0.0
  0
LINE
  5
4E44
330
4E13
100
AcDbEntity
  8
AM_0 外形線1
100
AcDbLine
 10
233.5
 20
297.5999999999999
 30
0.0
 11
241.0
 21
297.5999999999999
 31
0.0
  0
LINE
  5
4E45
330
4E13
100
AcDbEntity
  8
AM_0 外形線1
100
AcDbLine
 10
249.0
 20
313.5000000000005
 30
0.0
 11
243.0
 21
313.5000000000005
 31
0.0
  0
LINE
  5
4E46
330
4E13
100
AcDbEntity
  8
AM_0 外形線1
100
AcDbLine
 10
249.0
 20
324.0000000000005
 30
0.0
 11
249.0
 21
313.5000000000005
 31
0.0
  0
LINE
  5
4E47
330
4E13
100
AcDbEntity
  8
AM_0 外形線1
100
AcDbLine
 10
242.0
 20
298.5999999999999
 30
0.0
 11
241.0
 21
297.5999999999999
 31
0.0
  0
LINE
  5
4E48
330
4E13
100
AcDbEntity
  8
AM_0 外形線1
100
AcDbLine
 10
242.0
 20
312.5000000000004
 30
0.0
 11
242.0
 21
298.5999999999999
 31
0.0
  0
ARC
  5
4E49
330
4E13
100
AcDbEntity
  8
AM_0 外形線1
100
AcDbCircle
 10
243.0
 20
312.5000000000004
 30
0.0
 40
1.0
100
AcDbArc
 50
90.0
 51
180.0
  0
ELLIPSE
  5
4E4A
330
4E13
100
AcDbEntity
  8
AM_0 外形線1
100
AcDbEllipse
 10
2.25
 20
333.6000000000004
 30
0.0
 11
0.0
 21
3.599999999999908
 31
0.0
210
0.0
220
0.0
230
1.0
 40
0.6250000000000158
 41
0.0
 42
6.283185307179585
  0
INSERT
  5
4E4C
330
4E13
100
AcDbEntity
  8
AM_0 外形線1
100
AcDbBlockReference
  2
ロッカクアナツキプラグ-E R3／4
 10
68.0
 20
336.0000000000005
 30
0.0
  0
LINE
  5
4EC7
330
4E13
100
AcDbEntity
  8
AM_0 外形線1
100
AcDbLine
 10
0.0
 20
355.0000000000005
 30
0.0
 11
38.0
 21
355.0000000000005
 31
0.0
  0
LINE
  5
4EC8
330
4E13
100
AcDbEntity
  8
AM_0 外形線1
100
AcDbLine
 10
0.0
 20
387.0000000000004
 30
0.0
 11
38.0
 21
387.0000000000004
 31
0.0
  0
LINE
  5
4EC9
330
4E13
100
AcDbEntity
  8
AM_4 細線
100
AcDbLine
 10
54.58848299999954
 20
334.0000000000005
 30
0.0
 11
54.51864200000001
 21
336.0000000000005
 31
0.0
  0
LINE
  5
4ECA
330
4E13
100
AcDbEntity
  8
AM_0 外形線1
100
AcDbLine
 10
55.71127499999966
 20
335.1227910000002
 30
0.0
 11
55.68064199999935
 21
336.0000000000005
 31
0.0
  0
LINE
  5
4ECB
330
4E13
100
AcDbEntity
  8
AM_4 細線
100
AcDbLine
 10
81.481358
 20
336.0000000000005
 30
0.0
 11
81.41151699999955
 21
334.0000000000005
 31
0.0
  0
LINE
  5
4ECC
330
4E13
100
AcDbEntity
  8
AM_0 外形線1
100
AcDbLine
 10
80.28872500000034
 20
335.1227910000002
 30
0.0
 11
80.31935799999974
 21
336.0000000000005
 31
0.0
  0
ENDBLK
  5
4E15
330
4E13
100
AcDbEntity
  8
0
100
AcDbBlockEnd
  0
BLOCK
  5
4F37
330
4F36
100
AcDbEntity
  8
0
100
AcDbBlockBegin
  2
リジット-E CEMH800
 70
     0
 10
0.0
 20
0.0
 30
0.0
  3
リジット-E CEMH800
  1

  0
LINE
  5
4F39
330
4F36
100
AcDbEntity
  8
AM_0 外形線1
100
AcDbLine
 10
-416.0
 20
-302.5
 30
0.0
 11
-416.0
 21
302.5
 31
0.0
  0
LINE
  5
4F3A
330
4F36
100
AcDbEntity
  8
AM_3 隠れ線
100
AcDbLine
 10
-416.0
 20
13.25
 30
0.0
 11
-346.0
 21
13.25
 31
0.0
  0
LINE
  5
4F3B
330
4F36
100
AcDbEntity
  8
AM_3 隠れ線
100
AcDbLine
 10
-416.0
 20
15.0
 30
0.0
 11
-362.0
 21
15.0
 31
0.0
  0
LINE
  5
4F3C
330
4F36
100
AcDbEntity
  8
AM_3 隠れ線
100
AcDbLine
 10
-360.9896370000006
 20
13.25
 30
0.0
 11
-360.9896370000006
 21
0.0
 31
0.0
  0
LINE
  5
4F3D
330
4F36
100
AcDbEntity
  8
AM_3 隠れ線
100
AcDbLine
 10
-362.0
 20
15.0
 30
0.0
 11
-362.0
 21
0.0
 31
0.0
  0
LINE
  5
4F3E
330
4F36
100
AcDbEntity
  8
AM_3 隠れ線
100
AcDbLine
 10
-346.0
 20
13.25
 30
0.0
 11
-346.0
 21
0.0
 31
0.0
  0
LINE
  5
4F3F
330
4F36
100
AcDbEntity
  8
AM_3 隠れ線
100
AcDbLine
 10
-338.350109
 20
0.0
 30
0.0
 11
-346.0
 21
13.25
 31
0.0
  0
LINE
  5
4F40
330
4F36
100
AcDbEntity
  8
AM_0 外形線1
100
AcDbLine
 10
-38.0
 20
-398.0
 30
0.0
 11
-38.0
 21
0.0
 31
0.0
  0
LINE
  5
4F41
330
4F36
100
AcDbEntity
  8
AM_7 中心線
100
AcDbLine
 10
60.08257272051015
 20
-371.0
 30
0.0
 11
-60.08257272051015
 21
-371.0
 31
0.0
  0
LINE
  5
4F42
330
4F36
100
AcDbEntity
  8
AM_0 外形線1
100
AcDbLine
 10
-2.0
 20
-400.0
 30
0.0
 11
-36.0
 21
-400.0
 31
0.0
  0
LINE
  5
4F43
330
4F36
100
AcDbEntity
  8
AM_0 外形線1
100
AcDbLine
 10
-36.0
 20
-400.0
 30
0.0
 11
-38.0
 21
-398.0
 31
0.0
  0
LINE
  5
4F44
330
4F36
100
AcDbEntity
  8
AM_0 外形線1
100
AcDbLine
 10
0.0
 20
-398.0
 30
0.0
 11
-2.0
 21
-400.0
 31
0.0
  0
LINE
  5
4F46
330
4F36
100
AcDbEntity
  8
AM_3 隠れ線
100
AcDbLine
 10
-16.0
 20
15.0
 30
0.0
 11
-70.0
 21
15.0
 31
0.0
  0
LINE
  5
4F47
330
4F36
100
AcDbEntity
  8
AM_3 隠れ線
100
AcDbLine
 10
-16.0
 20
13.25
 30
0.0
 11
-86.0
 21
13.25
 31
0.0
  0
LINE
  5
4F48
330
4F36
100
AcDbEntity
  8
AM_3 隠れ線
100
AcDbLine
 10
-70.0
 20
15.0
 30
0.0
 11
-71.01036299999941
 21
13.25
 31
0.0
  0
LINE
  5
4F49
330
4F36
100
AcDbEntity
  8
AM_3 隠れ線
100
AcDbLine
 10
-70.0
 20
15.0
 30
0.0
 11
-70.0
 21
0.0
 31
0.0
  0
LINE
  5
4F4A
330
4F36
100
AcDbEntity
  8
AM_3 隠れ線
100
AcDbLine
 10
-71.01036299999941
 20
13.25
 30
0.0
 11
-71.01036299999941
 21
0.0
 31
0.0
  0
LINE
  5
4F4B
330
4F36
100
AcDbEntity
  8
AM_3 隠れ線
100
AcDbLine
 10
-93.64989100000002
 20
0.0
 30
0.0
 11
-86.0
 21
13.25
 31
0.0
  0
LINE
  5
4F4C
330
4F36
100
AcDbEntity
  8
AM_3 隠れ線
100
AcDbLine
 10
-86.0
 20
13.25
 30
0.0
 11
-86.0
 21
0.0
 31
0.0
  0
LINE
  5
4F4D
330
4F36
100
AcDbEntity
  8
AM_0 外形線1
100
AcDbLine
 10
-2.0
 20
330.0000000000005
 30
0.0
 11
0.0
 21
332.0000000000005
 31
0.0
  0
LINE
  5
4F4E
330
4F36
100
AcDbEntity
  8
AM_0 外形線1
100
AcDbLine
 10
-10.0
 20
313.5000000000005
 30
0.0
 11
-10.0
 21
330.0000000000005
 31
0.0
  0
LINE
  5
4F4F
330
4F36
100
AcDbEntity
  8
AM_0 外形線1
100
AcDbLine
 10
-2.0
 20
400.0000000000004
 30
0.0
 11
-36.0
 21
400.0000000000004
 31
0.0
  0
LINE
  5
4F52
330
4F36
100
AcDbEntity
  8
AM_0 外形線1
100
AcDbLine
 10
-38.0
 20
398.0000000000004
 30
0.0
 11
-38.0
 21
340.9442709999999
 31
0.0
  0
LINE
  5
4F53
330
4F36
100
AcDbEntity
  8
AM_0 外形線1
100
AcDbLine
 10
-36.0
 20
400.0000000000004
 30
0.0
 11
-38.0
 21
398.0000000000004
 31
0.0
  0
LINE
  5
4F54
330
4F36
100
AcDbEntity
  8
AM_0 外形線1
100
AcDbLine
 10
0.0
 20
398.0000000000004
 30
0.0
 11
-2.0
 21
400.0000000000004
 31
0.0
  0
LINE
  5
4F55
330
4F36
100
AcDbEntity
  8
AM_3 隠れ線
100
AcDbLine
 10
-338.3501049755296
 20
-0.0000004396010809
 30
0.0
 11
-345.9999959755297
 21
13.24999956039892
 31
0.0
  0
LINE
  5
4F56
330
4F36
100
AcDbEntity
  8
AM_3 隠れ線
100
AcDbLine
 10
-345.9999959755297
 20
13.24999956039892
 30
0.0
 11
-345.9999959755297
 21
-0.0000004396010809
 31
0.0
  0
LINE
  5
4F57
330
4F36
100
AcDbEntity
  8
AM_0 外形線1
100
AcDbLine
 10
-10.0
 20
313.5
 30
0.0
 11
-16.0
 21
313.5
 31
0.0
  0
ARC
  5
4F58
330
4F36
100
AcDbEntity
  8
AM_0 外形線1
100
AcDbCircle
 10
-46.0
 20
340.9442709999999
 30
0.0
 40
8.0
100
AcDbArc
 50
296.5650509999763
 51
0.0
  0
LINE
  5
4F59
330
4F36
100
AcDbEntity
  8
AM_0 外形線1
100
AcDbLine
 10
-71.83281600000009
 20
319.0835920000004
 30
0.0
 11
-42.42229099999986
 21
333.7888539999999
 31
0.0
  0
LINE
  5
4F5A
330
4F36
100
AcDbEntity
  8
AM_0 外形線1
100
AcDbLine
 10
-401.0
 20
317.5
 30
0.0
 11
-78.54101999999966
 21
317.5
 31
0.0
  0
ARC
  5
4F5B
330
4F36
100
AcDbEntity
  8
AM_0 外形線1
100
AcDbCircle
 10
-78.54101999999966
 20
332.5
 30
0.0
 40
15.0
100
AcDbArc
 50
270.0
 51
296.5650509999763
  0
ARC
  5
4F5C
330
4F36
100
AcDbEntity
  8
AM_0 外形線1
100
AcDbCircle
 10
-401.0
 20
302.5
 30
0.0
 40
15.0
100
AcDbArc
 50
90.0
 51
180.0
  0
ARC
  5
4F5D
330
4F36
100
AcDbEntity
  8
AM_0 外形線1
100
AcDbCircle
 10
-401.0
 20
-302.5
 30
0.0
 40
15.0
100
AcDbArc
 50
180.0
 51
270.0
  0
LINE
  5
4F5E
330
4F36
100
AcDbEntity
  8
AM_0 外形線1
100
AcDbLine
 10
-78.54101999999966
 20
-317.5
 30
0.0
 11
-401.0
 21
-317.5
 31
0.0
  0
ARC
  5
4F5F
330
4F36
100
AcDbEntity
  8
AM_0 外形線1
100
AcDbCircle
 10
-46.0
 20
-340.9442719999999
 30
0.0
 40
8.0
100
AcDbArc
 50
0.0
 51
63.43494900002375
  0
LINE
  5
4F60
330
4F36
100
AcDbEntity
  8
AM_0 外形線1
100
AcDbLine
 10
-42.42229099999986
 20
-333.788855
 30
0.0
 11
-71.83281600000009
 21
-319.0835930000001
 31
0.0
  0
ARC
  5
4F61
330
4F36
100
AcDbEntity
  8
AM_0 外形線1
100
AcDbCircle
 10
-78.54101999999966
 20
-332.5
 30
0.0
 40
15.0
100
AcDbArc
 50
63.43494900002375
 51
90.0
  0
LINE
  5
4F62
330
4F36
100
AcDbEntity
  8
AM_0 外形線1
100
AcDbLine
 10
-75.0
 20
-317.5
 30
0.0
 11
-75.0
 21
0.0
 31
0.0
  0
LINE
  5
4F63
330
4F36
100
AcDbEntity
  8
AM_0 外形線1
100
AcDbLine
 10
-16.0
 20
162.5
 30
0.0
 11
-416.0
 21
162.5
 31
0.0
  0
LINE
  5
4F67
330
4F36
100
AcDbEntity
  8
AM_0 外形線1
100
AcDbLine
 10
-38.0
 20
355.0000000000005
 30
0.0
 11
0.0
 21
355.0000000000005
 31
0.0
  0
LINE
  5
4F68
330
4F36
100
AcDbEntity
  8
AM_0 外形線1
100
AcDbLine
 10
-38.0
 20
387.0000000000004
 30
0.0
 11
0.0
 21
387.0000000000004
 31
0.0
  0
LINE
  5
4FD3
330
4F36
100
AcDbEntity
  8
AM_0 外形線1
100
AcDbLine
 10
0.0
 20
-398.0
 30
0.0
 11
0.0
 21
0.0
 31
0.0
  0
LINE
  5
4FD4
330
4F36
100
AcDbEntity
  8
AM_0 外形線1
100
AcDbLine
 10
-2.0
 20
330.0000000000005
 30
0.0
 11
-10.0
 21
330.0000000000005
 31
0.0
  0
LINE
  5
4FD5
330
4F36
100
AcDbEntity
  8
AM_0 外形線1
100
AcDbLine
 10
0.0
 20
332.0000000000005
 30
0.0
 11
0.0
 21
355.0000000000005
 31
0.0
  0
LINE
  5
4FD6
330
4F36
100
AcDbEntity
  8
AM_0 外形線1
100
AcDbLine
 10
0.0
 20
387.0000000000004
 30
0.0
 11
0.0
 21
398.0000000000004
 31
0.0
  0
LINE
  5
4FD7
330
4F36
100
AcDbEntity
  8
AM_0 外形線1
100
AcDbLine
 10
-16.0
 20
313.5
 30
0.0
 11
-16.0
 21
0.0
 31
0.0
  0
ENDBLK
  5
4F38
330
4F36
100
AcDbEntity
  8
0
100
AcDbBlockEnd
  0
BLOCK
  5
5036
330
5035
100
AcDbEntity
  8
0
100
AcDbBlockBegin
  2
センタ-E CEMH800
 70
     0
 10
0.0
 20
0.0
 30
0.0
  3
センタ-E CEMH800
  1

  0
LINE
  5
5038
330
5035
100
AcDbEntity
  8
AM_0 外形線1
100
AcDbLine
 10
400.0
 20
-268.5
 30
0.0
 11
400.0
 21
268.5000000000004
 31
0.0
  0
LINE
  5
5039
330
5035
100
AcDbEntity
  8
AM_0 外形線1
100
AcDbLine
 10
0.0
 20
244.8499999999999
 30
0.0
 11
0.0
 21
0.0
 31
0.0
  0
LINE
  5
503A
330
5035
100
AcDbEntity
  8
AM_3 隠れ線
100
AcDbLine
 10
0.0
 20
15.0
 30
0.0
 11
54.0
 21
15.0
 31
0.0
  0
LINE
  5
503B
330
5035
100
AcDbEntity
  8
AM_3 隠れ線
100
AcDbLine
 10
0.0
 20
13.25
 30
0.0
 11
70.0
 21
13.25
 31
0.0
  0
LINE
  5
503C
330
5035
100
AcDbEntity
  8
AM_3 隠れ線
100
AcDbLine
 10
54.0
 20
15.0
 30
0.0
 11
55.01036299999942
 21
13.25
 31
0.0
  0
LINE
  5
503D
330
5035
100
AcDbEntity
  8
AM_3 隠れ線
100
AcDbLine
 10
55.01036299999942
 20
13.25
 30
0.0
 11
55.01036299999942
 21
0.0
 31
0.0
  0
LINE
  5
503E
330
5035
100
AcDbEntity
  8
AM_3 隠れ線
100
AcDbLine
 10
54.0
 20
15.0
 30
0.0
 11
54.0
 21
0.0
 31
0.0
  0
LINE
  5
503F
330
5035
100
AcDbEntity
  8
AM_3 隠れ線
100
AcDbLine
 10
77.64989100000002
 20
0.0
 30
0.0
 11
70.0
 21
13.25
 31
0.0
  0
LINE
  5
5040
330
5035
100
AcDbEntity
  8
AM_3 隠れ線
100
AcDbLine
 10
70.0
 20
13.25
 30
0.0
 11
70.0
 21
0.0
 31
0.0
  0
LINE
  5
5041
330
5035
100
AcDbEntity
  8
AM_0 外形線1
100
AcDbLine
 10
288.0
 20
-283.5
 30
0.0
 11
288.0
 21
0.0
 31
0.0
  0
LINE
  5
5042
330
5035
100
AcDbEntity
  8
AM_0 外形線1
100
AcDbLine
 10
283.0
 20
-285.0
 30
0.0
 11
283.0
 21
0.0
 31
0.0
  0
LINE
  5
5043
330
5035
100
AcDbEntity
  8
AM_0 外形線1
100
AcDbLine
 10
288.0
 20
-283.5
 30
0.0
 11
385.0
 21
-283.5
 31
0.0
  0
LINE
  5
5044
330
5035
100
AcDbEntity
  8
AM_0 外形線1
100
AcDbLine
 10
283.0
 20
-285.0
 30
0.0
 11
288.0
 21
-283.5
 31
0.0
  0
LINE
  5
5045
330
5035
100
AcDbEntity
  8
AM_0 外形線1
100
AcDbLine
 10
251.0
 20
-285.0
 30
0.0
 11
283.0
 21
-285.0
 31
0.0
  0
ARC
  5
5046
330
5035
100
AcDbEntity
  8
AM_0 外形線1
100
AcDbCircle
 10
385.0
 20
-268.5
 30
0.0
 40
15.0
100
AcDbArc
 50
270.0
 51
0.0
  0
LINE
  5
5047
330
5035
100
AcDbEntity
  8
AM_3 隠れ線
100
AcDbLine
 10
399.9999999999992
 20
13.25
 30
0.0
 11
329.9999999999991
 21
13.25
 31
0.0
  0
LINE
  5
5048
330
5035
100
AcDbEntity
  8
AM_3 隠れ線
100
AcDbLine
 10
399.9999999999992
 20
15.0
 30
0.0
 11
345.9999999999991
 21
15.0
 31
0.0
  0
LINE
  5
5049
330
5035
100
AcDbEntity
  8
AM_3 隠れ線
100
AcDbLine
 10
322.3501089999991
 20
0.0
 30
0.0
 11
329.9999999999991
 21
13.25
 31
0.0
  0
LINE
  5
504A
330
5035
100
AcDbEntity
  8
AM_3 隠れ線
100
AcDbLine
 10
329.9999999999991
 20
13.25
 30
0.0
 11
329.9999999999991
 21
0.0
 31
0.0
  0
LINE
  5
504B
330
5035
100
AcDbEntity
  8
AM_3 隠れ線
100
AcDbLine
 10
345.9999999999991
 20
15.0
 30
0.0
 11
344.9896369999988
 21
13.25
 31
0.0
  0
LINE
  5
504C
330
5035
100
AcDbEntity
  8
AM_3 隠れ線
100
AcDbLine
 10
345.9999999999991
 20
15.0
 30
0.0
 11
345.9999999999991
 21
0.0
 31
0.0
  0
LINE
  5
504D
330
5035
100
AcDbEntity
  8
AM_3 隠れ線
100
AcDbLine
 10
344.9896369999988
 20
13.25
 30
0.0
 11
344.9896369999988
 21
0.0
 31
0.0
  0
ARC
  5
504F
330
5035
100
AcDbEntity
  8
AM_0 外形線1
100
AcDbCircle
 10
159.5
 20
0.0
 30
0.0
 40
311.65
100
AcDbArc
 50
79.46142399999081
 51
100.5385760000092
  0
LINE
  5
5051
330
5035
100
AcDbEntity
  8
AM_0 外形線1
100
AcDbLine
 10
101.0
 20
285.0000000000004
 30
0.0
 11
2.0
 21
285.0000000000004
 31
0.0
  0
LINE
  5
5052
330
5035
100
AcDbEntity
  8
AM_0 外形線1
100
AcDbLine
 10
0.0
 20
283.0000000000005
 30
0.0
 11
0.0
 21
244.8499999999999
 31
0.0
  0
LINE
  5
5053
330
5035
100
AcDbEntity
  8
AM_0 外形線1
100
AcDbLine
 10
2.0
 20
285.0000000000004
 30
0.0
 11
0.0
 21
283.0000000000005
 31
0.0
  0
ARC
  5
5054
330
5035
100
AcDbEntity
  8
AM_0 外形線1
100
AcDbCircle
 10
101.0
 20
285.5000000000004
 30
0.0
 40
0.5
100
AcDbArc
 50
270.0
 51
0.0
  0
LINE
  5
5055
330
5035
100
AcDbEntity
  8
AM_0 外形線1
100
AcDbLine
 10
101.5
 20
305.2053600000004
 30
0.0
 11
101.5
 21
285.5000000000004
 31
0.0
  0
LINE
  5
5056
330
5035
100
AcDbEntity
  8
AM_0 外形線1
100
AcDbLine
 10
102.5
 20
306.3930850000001
 30
0.0
 11
101.5
 21
305.2053600000004
 31
0.0
  0
LINE
  5
5057
330
5035
100
AcDbEntity
  8
AM_7 中心線
100
AcDbLine
 10
159.5
 20
316.6500000000001
 30
0.0
 11
159.5
 21
291.0000000000005
 31
0.0
  0
LINE
  5
5058
330
5035
100
AcDbEntity
  8
AM_0 外形線1
100
AcDbLine
 10
385.0
 20
283.5000000000004
 30
0.0
 11
288.0
 21
283.5000000000004
 31
0.0
  0
LINE
  5
5059
330
5035
100
AcDbEntity
  8
AM_0 外形線1
100
AcDbLine
 10
283.0
 20
285.0000000000004
 30
0.0
 11
218.0
 21
285.0000000000004
 31
0.0
  0
LINE
  5
505A
330
5035
100
AcDbEntity
  8
AM_0 外形線1
100
AcDbLine
 10
217.5
 20
305.2053600000004
 30
0.0
 11
216.5
 21
306.3930850000001
 31
0.0
  0
LINE
  5
505B
330
5035
100
AcDbEntity
  8
AM_0 外形線1
100
AcDbLine
 10
217.5
 20
285.5000000000004
 30
0.0
 11
217.5
 21
305.2053600000004
 31
0.0
  0
ARC
  5
505C
330
5035
100
AcDbEntity
  8
AM_0 外形線1
100
AcDbCircle
 10
218.0
 20
285.5000000000004
 30
0.0
 40
0.5
100
AcDbArc
 50
180.0
 51
270.0
  0
LINE
  5
505D
330
5035
100
AcDbEntity
  8
AM_0 外形線1
100
AcDbLine
 10
288.0
 20
283.5000000000004
 30
0.0
 11
283.0
 21
285.0000000000004
 31
0.0
  0
ARC
  5
505E
330
5035
100
AcDbEntity
  8
AM_0 外形線1
100
AcDbCircle
 10
385.0
 20
268.5000000000004
 30
0.0
 40
15.0
100
AcDbArc
 50
0.0
 51
90.0
  0
LINE
  5
5060
330
5035
100
AcDbEntity
  8
AM_0 外形線1
100
AcDbLine
 10
0.0
 20
152.5
 30
0.0
 11
400.0
 21
152.5
 31
0.0
  0
ARC
  5
810A
330
5035
100
AcDbEntity
  8
AM_7 中心線
100
AcDbCircle
 10
159.5
 20
0.0
 30
0.0
 40
304.0004111839329
100
AcDbArc
 50
77.95406285378587
 51
102.2946473487772
  0
ARC
  5
810B
330
5035
100
AcDbEntity
  8
AM_0 外形線1
100
AcDbCircle
 10
159.5
 20
0.0
 30
0.0
 40
296.0
100
AcDbArc
 50
78.70001158615075
 51
101.2999884138492
  0
ENDBLK
  5
5037
330
5035
100
AcDbEntity
  8
0
100
AcDbBlockEnd
  0
BLOCK
  5
5206
330
5205
100
AcDbEntity
  8
0
100
AcDbBlockBegin
  2
リーマボルト-E CEMH800 M30
 70
     0
 10
0.0
 20
0.0
 30
0.0
  3
リーマボルト-E CEMH800 M30
  1

  0
ARC
  5
5209
330
5205
100
AcDbEntity
  8
AM_0 外形線1
100
AcDbCircle
 10
-95.73417400000016
 20
19.91452799999933
 30
0.0
 40
11.765826
100
AcDbArc
 50
145.6697989999698
 51
214.3302010000302
  0
LINE
  5
520A
330
5205
100
AcDbEntity
  8
AM_0 外形線1
100
AcDbLine
 10
-83.49999999999999
 20
-26.55000000000018
 30
0.0
 11
-83.49999999999999
 21
26.54999999999927
 31
0.0
  0
LINE
  5
520B
330
5205
100
AcDbEntity
  8
AM_0 外形線1
100
AcDbLine
 10
-105.4504070000003
 20
26.54999999999927
 30
0.0
 11
-107.5
 21
23.0
 31
0.0
  0
LINE
  5
520C
330
5205
100
AcDbEntity
  8
AM_0 外形線1
100
AcDbLine
 10
-83.49999999999999
 20
-13.27905700000065
 30
0.0
 11
-105.4504070000003
 21
-13.27905700000065
 31
0.0
  0
LINE
  5
520D
330
5205
100
AcDbEntity
  8
AM_0 外形線1
100
AcDbLine
 10
-83.49999999999999
 20
13.2790559999994
 30
0.0
 11
-105.4504070000003
 21
13.2790559999994
 31
0.0
  0
LINE
  5
520E
330
5205
100
AcDbEntity
  8
AM_0 外形線1
100
AcDbLine
 10
-105.4504070000003
 20
-26.55000000000018
 30
0.0
 11
-83.49999999999999
 21
-26.55000000000018
 31
0.0
  0
LINE
  5
520F
330
5205
100
AcDbEntity
  8
AM_4 細線
100
AcDbLine
 10
-116.0
 20
15.0
 30
0.0
 11
-107.5
 21
15.0
 31
0.0
  0
LINE
  5
5210
330
5205
100
AcDbEntity
  8
AM_4 細線
100
AcDbLine
 10
-107.5
 20
-15.0
 30
0.0
 11
-116.0
 21
-15.0
 31
0.0
  0
LINE
  5
5211
330
5205
100
AcDbEntity
  8
AM_0 外形線1
100
AcDbLine
 10
-115.0
 20
16.0
 30
0.0
 11
-115.0
 21
-16.0
 31
0.0
  0
LINE
  5
5212
330
5205
100
AcDbEntity
  8
AM_0 外形線1
100
AcDbLine
 10
-115.0
 20
-16.0
 30
0.0
 11
-107.5
 21
-16.0
 31
0.0
  0
LINE
  5
5213
330
5205
100
AcDbEntity
  8
AM_0 外形線1
100
AcDbLine
 10
-117.0
 20
-14.0
 30
0.0
 11
-115.0
 21
-16.0
 31
0.0
  0
LINE
  5
5214
330
5205
100
AcDbEntity
  8
AM_0 外形線1
100
AcDbLine
 10
-117.0
 20
14.0
 30
0.0
 11
-117.0
 21
-14.0
 31
0.0
  0
LINE
  5
5215
330
5205
100
AcDbEntity
  8
AM_0 外形線1
100
AcDbLine
 10
-115.0
 20
16.0
 30
0.0
 11
-117.0
 21
14.0
 31
0.0
  0
LINE
  5
5216
330
5205
100
AcDbEntity
  8
AM_0 外形線1
100
AcDbLine
 10
-107.5
 20
16.0
 30
0.0
 11
-115.0
 21
16.0
 31
0.0
  0
ARC
  5
5217
330
5205
100
AcDbEntity
  8
AM_0 外形線1
100
AcDbCircle
 10
-95.73417400000016
 20
-19.91452800000024
 30
0.0
 40
11.765826
100
AcDbArc
 50
145.6697989999698
 51
214.3302010000302
  0
ARC
  5
5218
330
5205
100
AcDbEntity
  8
AM_0 外形線1
100
AcDbCircle
 10
-63.45854200000029
 20
0.0
 30
0.0
 40
44.041458
100
AcDbArc
 50
162.4515210000246
 51
197.5484789999754
  0
LINE
  5
5219
330
5205
100
AcDbEntity
  8
AM_0 外形線1
100
AcDbLine
 10
-107.5
 20
-23.0
 30
0.0
 11
-105.4504070000003
 21
-26.55000000000018
 31
0.0
  0
LINE
  5
521A
330
5205
100
AcDbEntity
  8
AM_0 外形線1
100
AcDbLine
 10
-107.5
 20
23.0
 30
0.0
 11
-107.5
 21
-23.0
 31
0.0
  0
LINE
  5
521B
330
5205
100
AcDbEntity
  8
AM_0 外形線1
100
AcDbLine
 10
-76.0
 20
5.0
 30
0.0
 11
-83.49999999999999
 21
-5.0
 31
0.0
  0
LINE
  5
521C
330
5205
100
AcDbEntity
  8
AM_0 外形線1
100
AcDbLine
 10
-83.49999999999999
 20
-2.5
 30
0.0
 11
-76.0
 21
8.0
 31
0.0
  0
LINE
  5
521D
330
5205
100
AcDbEntity
  8
AM_0 外形線1
100
AcDbLine
 10
-76.0
 20
-15.0
 30
0.0
 11
-74.73205099999995
 21
-15.0
 31
0.0
  0
LINE
  5
521E
330
5205
100
AcDbEntity
  8
AM_0 外形線1
100
AcDbLine
 10
-76.0
 20
15.0
 30
0.0
 11
-74.73205099999995
 21
15.0
 31
0.0
  0
LINE
  5
521F
330
5205
100
AcDbEntity
  8
AM_0 外形線1
100
AcDbLine
 10
-75.0
 20
-14.84529999999995
 30
0.0
 11
-73.0
 21
-16.0
 31
0.0
  0
LINE
  5
5220
330
5205
100
AcDbEntity
  8
AM_0 外形線1
100
AcDbLine
 10
-75.0
 20
14.84529899999961
 30
0.0
 11
-75.0
 21
-14.84529999999995
 31
0.0
  0
LINE
  5
5221
330
5205
100
AcDbEntity
  8
AM_0 外形線1
100
AcDbLine
 10
-73.0
 20
16.0
 30
0.0
 11
-75.0
 21
14.84529899999961
 31
0.0
  0
LINE
  5
5222
330
5205
100
AcDbEntity
  8
AM_0 外形線1
100
AcDbLine
 10
-83.49999999999999
 20
-25.05000000000018
 30
0.0
 11
-76.0
 21
-25.05000000000018
 31
0.0
  0
LINE
  5
5223
330
5205
100
AcDbEntity
  8
AM_0 外形線1
100
AcDbLine
 10
-76.0
 20
25.04999999999927
 30
0.0
 11
-83.49999999999999
 21
25.04999999999927
 31
0.0
  0
LINE
  5
5224
330
5205
100
AcDbEntity
  8
AM_0 外形線1
100
AcDbLine
 10
-73.0
 20
16.0
 30
0.0
 11
-73.0
 21
-16.0
 31
0.0
  0
LINE
  5
5225
330
5205
100
AcDbEntity
  8
AM_0 外形線1
100
AcDbLine
 10
-83.49999999999999
 20
26.54999999999927
 30
0.0
 11
-105.4504070000003
 21
26.54999999999927
 31
0.0
  0
ARC
  5
5226
330
5205
100
AcDbEntity
  8
AM_0 外形線1
100
AcDbCircle
 10
7.234174000000165
 20
19.91452799999933
 30
0.0
 40
11.765826
100
AcDbArc
 50
325.6697989999698
 51
34.33020100003022
  0
LINE
  5
5227
330
5205
100
AcDbEntity
  8
AM_0 外形線1
100
AcDbLine
 10
16.95040700000027
 20
26.54999999999927
 30
0.0
 11
19.0
 21
23.0
 31
0.0
  0
LINE
  5
5228
330
5205
100
AcDbEntity
  8
AM_0 外形線1
100
AcDbLine
 10
-2.5
 20
-16.0
 30
0.0
 11
-2.5
 21
16.0
 31
0.0
  0
ARC
  5
5229
330
5205
100
AcDbEntity
  8
AM_0 外形線1
100
AcDbCircle
 10
7.234174000000165
 20
-19.91452800000024
 30
0.0
 40
11.765826
100
AcDbArc
 50
325.6697989999698
 51
34.33020100003022
  0
ARC
  5
522A
330
5205
100
AcDbEntity
  8
AM_0 外形線1
100
AcDbCircle
 10
-25.0414579999997
 20
0.0
 30
0.0
 40
44.041458
100
AcDbArc
 50
342.4515210000245
 51
17.54847899997544
  0
LINE
  5
522B
330
5205
100
AcDbEntity
  8
AM_0 外形線1
100
AcDbLine
 10
0.0
 20
-13.27905700000065
 30
0.0
 11
16.95040700000027
 21
-13.27905700000065
 31
0.0
  0
LINE
  5
522C
330
5205
100
AcDbEntity
  8
AM_0 外形線1
100
AcDbLine
 10
0.0
 20
13.2790559999994
 30
0.0
 11
16.95040700000027
 21
13.2790559999994
 31
0.0
  0
LINE
  5
522D
330
5205
100
AcDbEntity
  8
AM_0 外形線1
100
AcDbLine
 10
16.95040700000027
 20
-26.55000000000018
 30
0.0
 11
0.0
 21
-26.55000000000018
 31
0.0
  0
LINE
  5
522E
330
5205
100
AcDbEntity
  8
AM_0 外形線1
100
AcDbLine
 10
19.0
 20
-23.0
 30
0.0
 11
16.95040700000027
 21
-26.55000000000018
 31
0.0
  0
LINE
  5
522F
330
5205
100
AcDbEntity
  8
AM_0 外形線1
100
AcDbLine
 10
19.0
 20
23.0
 30
0.0
 11
19.0
 21
-23.0
 31
0.0
  0
LINE
  5
5230
330
5205
100
AcDbEntity
  8
AM_0 外形線1
100
AcDbLine
 10
0.0
 20
26.54999999999927
 30
0.0
 11
16.95040700000027
 21
26.54999999999927
 31
0.0
  0
LINE
  5
52A4
330
5205
100
AcDbEntity
  8
AM_0 外形線1
100
AcDbLine
 10
-73.0
 20
16.0
 30
0.0
 11
-2.5
 21
16.0
 31
0.0
  0
LINE
  5
52A5
330
5205
100
AcDbEntity
  8
AM_0 外形線1
100
AcDbLine
 10
-73.0
 20
-16.0
 30
0.0
 11
-2.5
 21
-16.0
 31
0.0
  0
ARC
  5
52A6
330
5205
100
AcDbEntity
  8
AM_0 外形線1
100
AcDbCircle
 10
-1.25
 20
16.0
 30
0.0
 40
1.25
100
AcDbArc
 50
180.0
 51
0.0
  0
ARC
  5
52A7
330
5205
100
AcDbEntity
  8
AM_0 外形線1
100
AcDbCircle
 10
-1.25
 20
-16.0
 30
0.0
 40
1.25
100
AcDbArc
 50
0.0
 51
180.0
  0
LINE
  5
52A8
330
5205
100
AcDbEntity
  8
AM_0 外形線1
100
AcDbLine
 10
0.0
 20
26.54999999999927
 30
0.0
 11
0.0
 21
-26.55000000000018
 31
0.0
  0
LINE
  5
52A9
330
5205
100
AcDbEntity
  8
AM_0 外形線1
100
AcDbLine
 10
-76.0
 20
25.04999999999927
 30
0.0
 11
-76.0
 21
-25.05000000000018
 31
0.0
  0
ENDBLK
  5
5207
330
5205
100
AcDbEntity
  8
0
100
AcDbBlockEnd
  0
BLOCK
  5
5330
330
532F
100
AcDbEntity
  8
0
100
AcDbBlockBegin
  2
ＧＣサイドカバ－-E CEMH800
 70
     0
 10
0.0
 20
0.0
 30
0.0
  3
ＧＣサイドカバ－-E CEMH800
  1

  0
LINE
  5
5332
330
532F
100
AcDbEntity
  8
AM_7 中心線
 48
0.5
100
AcDbLine
 10
-29.64184399999977
 20
-330.0
 30
0.0
 11
35.60638300000028
 21
-330.0
 31
0.0
  0
LINE
  5
5333
330
532F
100
AcDbEntity
  8
AM_0 外形線1
100
AcDbLine
 10
18.0
 20
-345.0
 30
0.0
 11
18.0
 21
0.0
 31
0.0
  0
LINE
  5
5334
330
532F
100
AcDbEntity
  8
AM_0 外形線1
100
AcDbLine
 10
0.0
 20
-345.0
 30
0.0
 11
18.0
 21
-345.0
 31
0.0
  0
LINE
  5
5335
330
532F
100
AcDbEntity
  8
AM_7 中心線
 48
0.5
100
AcDbLine
 10
-29.64184399999977
 20
330.0000000000005
 30
0.0
 11
35.60638300000028
 21
330.0000000000005
 31
0.0
  0
LINE
  5
5336
330
532F
100
AcDbEntity
  8
AM_0 外形線1
100
AcDbLine
 10
-26.97335399999975
 20
330.0000000000005
 30
0.0
 11
-24.0
 21
324.8499999999999
 31
0.0
  0
LINE
  5
5337
330
532F
100
AcDbEntity
  8
AM_0 外形線1
100
AcDbLine
 10
-24.0
 20
335.1500000000001
 30
0.0
 11
-26.97335399999975
 21
330.0000000000005
 31
0.0
  0
LINE
  5
5338
330
532F
100
AcDbEntity
  8
AM_0 外形線1
100
AcDbLine
 10
29.0
 20
338.2125000000001
 30
0.0
 11
29.0
 21
321.7874999999999
 31
0.0
  0
ARC
  5
5339
330
532F
100
AcDbEntity
  8
AM_0 外形線1
100
AcDbCircle
 10
24.61118700000043
 20
338.207586
 30
0.0
 40
4.388816
100
AcDbArc
 50
321.3277799999667
 51
38.67222000003333
  0
LINE
  5
533A
330
532F
100
AcDbEntity
  8
AM_0 外形線1
100
AcDbLine
 10
21.0
 20
340.8000000000007
 30
0.0
 11
21.0
 21
319.2000000000003
 31
0.0
  0
LINE
  5
533B
330
532F
100
AcDbEntity
  8
AM_0 外形線1
100
AcDbLine
 10
18.0
 20
345.0000000000005
 30
0.0
 11
18.0
 21
318.8000000000006
 31
0.0
  0
LINE
  5
533C
330
532F
100
AcDbEntity
  8
AM_0 外形線1
100
AcDbLine
 10
18.0
 20
335.1500000000001
 30
0.0
 11
-19.0
 21
335.1500000000001
 31
0.0
  0
LINE
  5
533D
330
532F
100
AcDbEntity
  8
AM_0 外形線1
100
AcDbLine
 10
-19.0
 20
324.8499999999999
 30
0.0
 11
18.0
 21
324.8499999999999
 31
0.0
  0
LINE
  5
533E
330
532F
100
AcDbEntity
  8
AM_4 細線
100
AcDbLine
 10
-19.0
 20
336.0000000000005
 30
0.0
 11
18.0
 21
336.0000000000005
 31
0.0
  0
LINE
  5
533F
330
532F
100
AcDbEntity
  8
AM_4 細線
100
AcDbLine
 10
18.0
 20
324.0000000000005
 30
0.0
 11
-19.0
 21
324.0000000000005
 31
0.0
  0
LINE
  5
5340
330
532F
100
AcDbEntity
  8
AM_0 外形線1
100
AcDbLine
 10
18.0
 20
323.0000000000004
 30
0.0
 11
0.0
 21
323.0000000000004
 31
0.0
  0
LINE
  5
5341
330
532F
100
AcDbEntity
  8
AM_0 外形線1
100
AcDbLine
 10
18.0
 20
337.0000000000004
 30
0.0
 11
0.0
 21
337.0000000000004
 31
0.0
  0
LINE
  5
5342
330
532F
100
AcDbEntity
  8
AM_0 外形線1
100
AcDbLine
 10
18.0
 20
287.0000000000004
 30
0.0
 11
13.0
 21
287.0000000000004
 31
0.0
  0
LINE
  5
5343
330
532F
100
AcDbEntity
  8
AM_0 外形線1
100
AcDbLine
 10
-6.0
 20
313.5000000000005
 30
0.0
 11
-6.0
 21
312.5000000000004
 31
0.0
  0
LINE
  5
5344
330
532F
100
AcDbEntity
  8
AM_0 外形線1
100
AcDbLine
 10
-24.0
 20
335.1500000000001
 30
0.0
 11
-24.0
 21
324.8499999999999
 31
0.0
  0
LINE
  5
5345
330
532F
100
AcDbEntity
  8
AM_0 外形線1
100
AcDbLine
 10
-24.0
 20
324.8499999999999
 30
0.0
 11
-19.0
 21
324.8499999999999
 31
0.0
  0
LINE
  5
5346
330
532F
100
AcDbEntity
  8
AM_0 外形線1
100
AcDbLine
 10
-19.0
 20
335.1500000000001
 30
0.0
 11
-24.0
 21
335.1500000000001
 31
0.0
  0
LINE
  5
5347
330
532F
100
AcDbEntity
  8
AM_0 外形線1
100
AcDbLine
 10
-19.0
 20
324.0000000000005
 30
0.0
 11
-19.0
 21
336.0000000000005
 31
0.0
  0
LINE
  5
5348
330
532F
100
AcDbEntity
  8
AM_0 外形線1
100
AcDbLine
 10
-6.0
 20
287.0000000000004
 30
0.0
 11
-6.0
 21
312.5000000000004
 31
0.0
  0
LINE
  5
5349
330
532F
100
AcDbEntity
  8
AM_0 外形線1
100
AcDbLine
 10
-1.0
 20
287.0000000000004
 30
0.0
 11
-6.0
 21
287.0000000000004
 31
0.0
  0
LINE
  5
534A
330
532F
100
AcDbEntity
  8
AM_0 外形線1
100
AcDbLine
 10
-1.0
 20
293.2000000000003
 30
0.0
 11
-1.0
 21
287.0000000000004
 31
0.0
  0
LINE
  5
534B
330
532F
100
AcDbEntity
  8
AM_0 外形線1
100
AcDbLine
 10
13.0
 20
293.2000000000003
 30
0.0
 11
-1.0
 21
293.2000000000003
 31
0.0
  0
LINE
  5
534C
330
532F
100
AcDbEntity
  8
AM_0 外形線1
100
AcDbLine
 10
13.0
 20
287.0000000000004
 30
0.0
 11
13.0
 21
293.2000000000003
 31
0.0
  0
LINE
  5
534D
330
532F
100
AcDbEntity
  8
AM_0 外形線1
100
AcDbLine
 10
-6.0
 20
287.0000000000004
 30
0.0
 11
-6.0
 21
285.0000000000004
 31
0.0
  0
LINE
  5
534E
330
532F
100
AcDbEntity
  8
AM_0 外形線1
100
AcDbLine
 10
-1.0
 20
287.0000000000004
 30
0.0
 11
-1.0
 21
285.0000000000004
 31
0.0
  0
LINE
  5
534F
330
532F
100
AcDbEntity
  8
AM_0 外形線1
100
AcDbLine
 10
13.0
 20
287.0000000000004
 30
0.0
 11
13.0
 21
285.0000000000004
 31
0.0
  0
LINE
  5
5350
330
532F
100
AcDbEntity
  8
AM_0 外形線1
100
AcDbLine
 10
21.0
 20
331.0000000000004
 30
0.0
 11
18.0
 21
327.5000000000005
 31
0.0
  0
LINE
  5
5351
330
532F
100
AcDbEntity
  8
AM_0 外形線1
100
AcDbLine
 10
18.0
 20
329.0000000000004
 30
0.0
 11
21.0
 21
332.5000000000005
 31
0.0
  0
LINE
  5
5352
330
532F
100
AcDbEntity
  8
AM_0 外形線1
100
AcDbLine
 10
28.03768200000013
 20
335.4651719999997
 30
0.0
 11
21.0
 21
335.4651719999997
 31
0.0
  0
LINE
  5
5353
330
532F
100
AcDbEntity
  8
AM_0 外形線1
100
AcDbLine
 10
28.03768200000013
 20
324.534827
 30
0.0
 11
21.0
 21
324.534827
 31
0.0
  0
LINE
  5
5354
330
532F
100
AcDbEntity
  8
AM_0 外形線1
100
AcDbLine
 10
21.0
 20
319.0500000000006
 30
0.0
 11
21.0
 21
319.2000000000003
 31
0.0
  0
LINE
  5
5355
330
532F
100
AcDbEntity
  8
AM_0 外形線1
100
AcDbLine
 10
28.03768200000013
 20
319.0500000000006
 30
0.0
 11
21.0
 21
319.0500000000006
 31
0.0
  0
ARC
  5
5356
330
532F
100
AcDbEntity
  8
AM_0 外形線1
100
AcDbCircle
 10
24.61118700000043
 20
321.7924129999996
 30
0.0
 40
4.388816
100
AcDbArc
 50
321.3277799999667
 51
38.67222000003333
  0
ARC
  5
5357
330
532F
100
AcDbEntity
  8
AM_0 外形線1
100
AcDbCircle
 10
13.0
 20
330.0000000000005
 30
0.0
 40
16.0
100
AcDbArc
 50
340.0272439999787
 51
19.9727560000213
  0
LINE
  5
5358
330
532F
100
AcDbEntity
  8
AM_0 外形線1
100
AcDbLine
 10
21.0
 20
319.2000000000003
 30
0.0
 11
18.0
 21
319.2000000000003
 31
0.0
  0
LINE
  5
5359
330
532F
100
AcDbEntity
  8
AM_0 外形線1
100
AcDbLine
 10
18.0
 20
318.8000000000006
 30
0.0
 11
18.0
 21
287.0000000000004
 31
0.0
  0
LINE
  5
535A
330
532F
100
AcDbEntity
  8
AM_0 外形線1
100
AcDbLine
 10
18.0
 20
287.0000000000004
 30
0.0
 11
18.0
 21
285.0000000000004
 31
0.0
  0
LINE
  5
535B
330
532F
100
AcDbEntity
  8
AM_0 外形線1
100
AcDbLine
 10
21.0
 20
340.9500000000003
 30
0.0
 11
28.03768200000013
 21
340.9500000000003
 31
0.0
  0
LINE
  5
535C
330
532F
100
AcDbEntity
  8
AM_0 外形線1
100
AcDbLine
 10
21.0
 20
340.8000000000007
 30
0.0
 11
21.0
 21
340.9500000000003
 31
0.0
  0
LINE
  5
535D
330
532F
100
AcDbEntity
  8
AM_0 外形線1
100
AcDbLine
 10
18.0
 20
340.8000000000007
 30
0.0
 11
21.0
 21
340.8000000000007
 31
0.0
  0
ELLIPSE
  5
535E
330
532F
100
AcDbEntity
  8
AM_0 外形線1
100
AcDbEllipse
 10
6.0
 20
289.1000000000003
 30
0.0
 11
-7.0
 21
0.0
 31
0.0
210
0.0
220
0.0
230
1.0
 40
0.5857142857142728
 41
0.0
 42
6.283185307179585
  0
LINE
  5
535F
330
532F
100
AcDbEntity
  8
AM_0 外形線1
100
AcDbLine
 10
0.0
 20
345.0000000000005
 30
0.0
 11
18.0
 21
345.0000000000005
 31
0.0
  0
LINE
  5
53C5
330
532F
100
AcDbEntity
  8
AM_0 外形線1
100
AcDbLine
 10
0.0
 20
-345.0
 30
0.0
 11
0.0
 21
0.0
 31
0.0
  0
LINE
  5
53C6
330
532F
100
AcDbEntity
  8
AM_0 外形線1
100
AcDbLine
 10
-6.0
 20
313.5000000000005
 30
0.0
 11
3.100000000000362
 21
313.5000000000005
 31
0.0
  0
LINE
  5
53C8
330
532F
100
AcDbEntity
  8
AM_0 外形線1
100
AcDbLine
 10
0.0
 20
336.0000000000005
 30
0.0
 11
0.0
 21
345.0000000000005
 31
0.0
  0
LINE
  5
607A
330
532F
100
AcDbEntity
  8
AM_0 外形線1
100
AcDbLine
 10
3.100000000000362
 20
318.8000000000006
 30
0.0
 11
3.100000000000362
 21
313.5000000000005
 31
0.0
  0
LINE
  5
607B
330
532F
100
AcDbEntity
  8
AM_0 外形線1
100
AcDbLine
 10
0.0
 20
318.8000000000006
 30
0.0
 11
3.100000000000362
 21
318.8000000000006
 31
0.0
  0
LINE
  5
607C
330
532F
100
AcDbEntity
  8
AM_0 外形線1
100
AcDbLine
 10
0.0
 20
324.0000000000005
 30
0.0
 11
0.0
 21
318.8000000000006
 31
0.0
  0
ELLIPSE
  5
607D
330
532F
100
AcDbEntity
  8
AM_0 外形線1
100
AcDbEllipse
 10
1.550000000000181
 20
316.1500000000005
 30
0.0
 11
0.0
 21
2.650000000000089
 31
0.0
210
0.0
220
0.0
230
1.0
 40
0.584905660377407
 41
0.0
 42
6.283185307179585
  0
ENDBLK
  5
5331
330
532F
100
AcDbEntity
  8
0
100
AcDbBlockEnd
  0
BLOCK
  5
58A3
330
58A2
100
AcDbEntity
  8
0
100
AcDbBlockBegin
  2
*D13
 70
     1
 10
0.0
 20
0.0
 30
0.0
  3
*D13
  1

  0
LINE
  5
6B09
330
58A2
100
AcDbEntity
  8
AM_5 寸法線
 62
     3
100
AcDbLine
 10
1596.293434401052
 20
2457.716030466155
 30
0.0
 11
1381.293434401052
 21
2457.716030466155
 31
0.0
  0
LINE
  5
6B0A
330
58A2
100
AcDbEntity
  8
AM_5 寸法線
 62
     3
100
AcDbLine
 10
1596.293434401052
 20
1822.716030466155
 30
0.0
 11
1381.293434401052
 21
1822.716030466155
 31
0.0
  0
LINE
  5
6B0B
330
58A2
100
AcDbEntity
  8
AM_5 寸法線
 62
     3
100
AcDbLine
 10
1387.543434401052
 20
2432.716030466155
 30
0.0
 11
1387.543434401052
 21
1847.716030466155
 31
0.0
  0
INSERT
  5
6B0C
330
58A2
100
AcDbEntity
  8
AM_5 寸法線
 62
     3
100
AcDbBlockReference
  2
_Open30
 10
1387.543434401052
 20
2457.716030466155
 30
0.0
 41
25.0
 42
25.0
 43
25.0
 50
90.0
  0
INSERT
  5
6B0D
330
58A2
100
AcDbEntity
  8
AM_5 寸法線
 62
     3
100
AcDbBlockReference
  2
_Open30
 10
1387.543434401052
 20
1822.716030466155
 30
0.0
 41
25.0
 42
25.0
 43
25.0
 50
270.0
  0
MTEXT
  5
6B0E
330
58A2
100
AcDbEntity
  8
AM_5 寸法線
 62
     3
100
AcDbMText
 10
1355.043434401052
 20
2140.216030466155
 30
0.0
 40
35.0
 41
0.0
 46
0.0
 71
     5
 72
     1
  1
%%c635
  7
SEISA
 11
0.0000000000000001
 21
1.0
 31
0.0
 73
     1
 44
1.0
  0
POINT
  5
6B0F
330
58A2
100
AcDbEntity
  8
Defpoints
 62
     0
100
AcDbPoint
 10
1602.543434401052
 20
2457.716030466155
 30
0.0
  0
POINT
  5
6B10
330
58A2
100
AcDbEntity
  8
Defpoints
 62
     0
100
AcDbPoint
 10
1602.543434401052
 20
1822.716030466155
 30
0.0
  0
POINT
  5
6B11
330
58A2
100
AcDbEntity
  8
Defpoints
 62
     0
100
AcDbPoint
 10
1387.543434401052
 20
1822.716030466155
 30
0.0
  0
ENDBLK
  5
58A4
330
58A2
100
AcDbEntity
  8
0
100
AcDbBlockEnd
  0
BLOCK
  5
58D6
330
58D5
100
AcDbEntity
  8
0
100
AcDbBlockBegin
  2
*D14
 70
     1
 10
0.0
 20
0.0
 30
0.0
  3
*D14
  1

  0
LINE
  5
6B12
330
58D5
100
AcDbEntity
  8
AM_5 寸法線
 62
     3
100
AcDbLine
 10
1987.543434401052
 20
2146.466030466156
 30
0.0
 11
1987.543434401052
 21
2186.421756467231
 31
0.0
  0
LINE
  5
6B13
330
58D5
100
AcDbEntity
  8
AM_5 寸法線
 62
     3
100
AcDbLine
 10
1587.543434401052
 20
2146.466030466156
 30
0.0
 11
1587.543434401052
 21
2186.421756467231
 31
0.0
  0
LINE
  5
6B14
330
58D5
100
AcDbEntity
  8
AM_5 寸法線
 62
     3
100
AcDbLine
 10
1962.543434401052
 20
2180.171756467231
 30
0.0
 11
1612.543434401052
 21
2180.171756467231
 31
0.0
  0
INSERT
  5
6B15
330
58D5
100
AcDbEntity
  8
AM_5 寸法線
 62
     3
100
AcDbBlockReference
  2
_Open30
 10
1987.543434401052
 20
2180.171756467231
 30
0.0
 41
25.0
 42
25.0
 43
25.0
  0
INSERT
  5
6B16
330
58D5
100
AcDbEntity
  8
AM_5 寸法線
 62
     3
100
AcDbBlockReference
  2
_Open30
 10
1587.543434401052
 20
2180.171756467231
 30
0.0
 41
25.0
 42
25.0
 43
25.0
 50
180.0
  0
MTEXT
  5
6B17
330
58D5
100
AcDbEntity
  8
AM_5 寸法線
 62
     3
100
AcDbMText
 10
1787.543434401052
 20
2212.67175646723
 30
0.0
 40
35.0
 41
0.0
 46
0.0
 71
     5
 72
     1
  1
400
  7
SEISA
 73
     1
 44
1.0
  0
POINT
  5
6B18
330
58D5
100
AcDbEntity
  8
Defpoints
 62
     0
100
AcDbPoint
 10
1987.543434401052
 20
2140.216030466155
 30
0.0
  0
POINT
  5
6B19
330
58D5
100
AcDbEntity
  8
Defpoints
 62
     0
100
AcDbPoint
 10
1587.543434401052
 20
2140.216030466155
 30
0.0
  0
POINT
  5
6B1A
330
58D5
100
AcDbEntity
  8
Defpoints
 62
     0
100
AcDbPoint
 10
1587.543434401052
 20
2180.171756467231
 30
0.0
  0
ENDBLK
  5
58D7
330
58D5
100
AcDbEntity
  8
0
100
AcDbBlockEnd
  0
BLOCK
  5
58EE
330
58ED
100
AcDbEntity
  8
0
100
AcDbBlockBegin
  2
*D15
 70
     1
 10
0.0
 20
0.0
 30
0.0
  3
*D15
  1

  0
LINE
  5
821F
330
58ED
100
AcDbEntity
  8
AM_5 寸法線
 62
     3
100
AcDbLine
 10
2019.543434401052
 20
2146.466030466156
 30
0.0
 11
2019.543434401052
 21
2186.421756467231
 31
0.0
  0
LINE
  5
8220
330
58ED
100
AcDbEntity
  8
AM_5 寸法線
 62
     3
100
AcDbLine
 10
1987.543434401052
 20
2146.466030466156
 30
0.0
 11
1987.543434401052
 21
2186.421756467231
 31
0.0
  0
LINE
  5
8221
330
58ED
100
AcDbEntity
  8
AM_5 寸法線
 62
     3
100
AcDbLine
 10
2044.543434401052
 20
2180.171756467231
 30
0.0
 11
2069.543434401052
 21
2180.171756467231
 31
0.0
  0
LINE
  5
8222
330
58ED
100
AcDbEntity
  8
AM_5 寸法線
 62
     3
100
AcDbLine
 10
1962.543434401052
 20
2180.171756467231
 30
0.0
 11
1937.543434401051
 21
2180.171756467231
 31
0.0
  0
MTEXT
  5
8223
330
58ED
100
AcDbEntity
  8
AM_5 寸法線
 62
     3
100
AcDbMText
 10
1941.697971698867
 20
2217.518986020002
 30
0.0
 40
35.0
 41
0.0
 46
0.0
 71
     5
 72
     1
  1
32
  7
SEISA
 73
     1
 44
1.0
  0
LINE
  5
8224
330
58ED
100
AcDbEntity
  8
AM_5 寸法線
 62
     3
100
AcDbLine
 10
2019.543434401052
 20
2180.171756467231
 30
0.0
 11
1987.543434401052
 21
2180.171756467231
 31
0.0
  0
INSERT
  5
8225
330
58ED
100
AcDbEntity
  8
AM_5 寸法線
 62
     3
100
AcDbBlockReference
  2
_Open30
 10
2019.543434401052
 20
2180.171756467231
 30
0.0
 41
25.0
 42
25.0
 43
25.0
 50
180.0
  0
INSERT
  5
8226
330
58ED
100
AcDbEntity
  8
AM_5 寸法線
 62
     3
100
AcDbBlockReference
  2
_Open30
 10
1987.543434401052
 20
2180.171756467231
 30
0.0
 41
25.0
 42
25.0
 43
25.0
  0
POINT
  5
8227
330
58ED
100
AcDbEntity
  8
Defpoints
 62
     0
100
AcDbPoint
 10
2019.543434401052
 20
2140.216030466155
 30
0.0
  0
POINT
  5
8228
330
58ED
100
AcDbEntity
  8
Defpoints
 62
     0
100
AcDbPoint
 10
1987.543434401052
 20
2140.216030466155
 30
0.0
  0
POINT
  5
8229
330
58ED
100
AcDbEntity
  8
Defpoints
 62
     0
100
AcDbPoint
 10
1987.543434401052
 20
2180.171756467231
 30
0.0
  0
ENDBLK
  5
58EF
330
58ED
100
AcDbEntity
  8
0
100
AcDbBlockEnd
  0
BLOCK
  5
590A
330
5909
100
AcDbEntity
  8
0
100
AcDbBlockBegin
  2
*D16
 70
     1
 10
0.0
 20
0.0
 30
0.0
  3
*D16
  1

  0
LINE
  5
820B
330
5909
100
AcDbEntity
  8
AM_5 寸法線
 62
     3
100
AcDbLine
 10
2019.543434401052
 20
2146.466030466156
 30
0.0
 11
2019.543434401052
 21
2186.421756467231
 31
0.0
  0
LINE
  5
820C
330
5909
100
AcDbEntity
  8
AM_5 寸法線
 62
     3
100
AcDbLine
 10
2419.543434401052
 20
2146.466030466156
 30
0.0
 11
2419.543434401052
 21
2186.421756467231
 31
0.0
  0
LINE
  5
820D
330
5909
100
AcDbEntity
  8
AM_5 寸法線
 62
     3
100
AcDbLine
 10
2044.543434401052
 20
2180.171756467231
 30
0.0
 11
2394.543434401052
 21
2180.171756467231
 31
0.0
  0
MTEXT
  5
820E
330
5909
100
AcDbEntity
  8
AM_5 寸法線
 62
     3
100
AcDbMText
 10
2340.666908997585
 20
2214.49474894759
 30
0.0
 40
35.0
 41
0.0
 46
0.0
 71
     5
 72
     1
  1
400
  7
SEISA
 73
     1
 44
1.0
  0
INSERT
  5
820F
330
5909
100
AcDbEntity
  8
AM_5 寸法線
 62
     3
100
AcDbBlockReference
  2
_Open30
 10
2019.543434401052
 20
2180.171756467231
 30
0.0
 41
25.0
 42
25.0
 43
25.0
 50
180.0
  0
INSERT
  5
8210
330
5909
100
AcDbEntity
  8
AM_5 寸法線
 62
     3
100
AcDbBlockReference
  2
_Open30
 10
2419.543434401052
 20
2180.171756467231
 30
0.0
 41
25.0
 42
25.0
 43
25.0
  0
POINT
  5
8211
330
5909
100
AcDbEntity
  8
Defpoints
 62
     0
100
AcDbPoint
 10
2019.543434401052
 20
2140.216030466155
 30
0.0
  0
POINT
  5
8212
330
5909
100
AcDbEntity
  8
Defpoints
 62
     0
100
AcDbPoint
 10
2419.543434401052
 20
2140.216030466155
 30
0.0
  0
POINT
  5
8213
330
5909
100
AcDbEntity
  8
Defpoints
 62
     0
100
AcDbPoint
 10
2419.543434401052
 20
2180.171756467231
 30
0.0
  0
ENDBLK
  5
590B
330
5909
100
AcDbEntity
  8
0
100
AcDbBlockEnd
  0
BLOCK
  5
5966
330
5965
100
AcDbEntity
  8
0
100
AcDbBlockBegin
  2
*D17
 70
     1
 10
0.0
 20
0.0
 30
0.0
  3
*D17
  1

  0
LINE
  5
6B2F
330
5965
100
AcDbEntity
  8
AM_5 寸法線
 62
     3
100
AcDbLine
 10
2246.543434401052
 20
2418.966030466155
 30
0.0
 11
2246.543434401052
 21
2334.872660869149
 31
0.0
  0
LINE
  5
6B30
330
5965
100
AcDbEntity
  8
AM_5 寸法線
 62
     3
100
AcDbLine
 10
2237.043434401052
 20
2419.466030466156
 30
0.0
 11
2237.043434401052
 21
2334.872660869149
 31
0.0
  0
LINE
  5
6B31
330
5965
100
AcDbEntity
  8
AM_5 寸法線
 62
     3
100
AcDbLine
 10
2212.043434401052
 20
2341.122660869149
 30
0.0
 11
2187.043434401052
 21
2341.122660869149
 31
0.0
  0
LINE
  5
6B32
330
5965
100
AcDbEntity
  8
AM_5 寸法線
 62
     3
100
AcDbLine
 10
2271.543434401052
 20
2341.122660869149
 30
0.0
 11
2392.543434401052
 21
2341.122660869149
 31
0.0
  0
LINE
  5
6B33
330
5965
100
AcDbEntity
  8
AM_5 寸法線
 62
     3
100
AcDbLine
 10
2237.043434401052
 20
2341.122660869149
 30
0.0
 11
2246.543434401052
 21
2341.122660869149
 31
0.0
  0
INSERT
  5
6B34
330
5965
100
AcDbEntity
  8
AM_5 寸法線
 62
     3
100
AcDbBlockReference
  2
_Open30
 10
2237.043434401052
 20
2341.122660869149
 30
0.0
 41
25.0
 42
25.0
 43
25.0
  0
INSERT
  5
6B35
330
5965
100
AcDbEntity
  8
AM_5 寸法線
 62
     3
100
AcDbBlockReference
  2
_Open30
 10
2246.543434401052
 20
2341.122660869149
 30
0.0
 41
25.0
 42
25.0
 43
25.0
 50
180.0
  0
MTEXT
  5
6B36
330
5965
100
AcDbEntity
  8
AM_5 寸法線
 62
     3
100
AcDbMText
 10
2344.543434401052
 20
2373.622660869148
 30
0.0
 40
35.0
 41
0.0
 46
0.0
 71
     5
 72
     1
  1
9.5
  7
SEISA
 73
     1
 44
1.0
  0
POINT
  5
6B37
330
5965
100
AcDbEntity
  8
Defpoints
 62
     0
100
AcDbPoint
 10
2246.543434401052
 20
2425.216030466155
 30
0.0
  0
POINT
  5
6B38
102
{ACAD_REACTORS
330
81C5
102
}
330
5965
100
AcDbEntity
  8
Defpoints
 62
     0
100
AcDbPoint
 10
2237.043434401052
 20
2425.716030466155
 30
0.0
  0
POINT
  5
6B39
330
5965
100
AcDbEntity
  8
Defpoints
 62
     0
100
AcDbPoint
 10
2237.043434401052
 20
2341.122660869149
 30
0.0
  0
ENDBLK
  5
5967
330
5965
100
AcDbEntity
  8
0
100
AcDbBlockEnd
  0
BLOCK
  5
5A4A
330
5A49
100
AcDbEntity
  8
0
100
AcDbBlockBegin
  2
*D18
 70
     1
 10
0.0
 20
0.0
 30
0.0
  3
*D18
  1

  0
LINE
  5
6B41
330
5A49
100
AcDbEntity
  8
AM_5 寸法線
 62
     3
100
AcDbLine
 10
2308.793434401052
 20
2425.216030466155
 30
0.0
 11
2625.793434401052
 21
2425.216030466155
 31
0.0
  0
LINE
  5
6B42
330
5A49
100
AcDbEntity
  8
AM_5 寸法線
 62
     3
100
AcDbLine
 10
2308.793434401052
 20
1855.216030466155
 30
0.0
 11
2625.793434401052
 21
1855.216030466154
 31
0.0
  0
LINE
  5
6B43
330
5A49
100
AcDbEntity
  8
AM_5 寸法線
 62
     3
100
AcDbLine
 10
2619.543434401052
 20
2400.216030466155
 30
0.0
 11
2619.543434401052
 21
1880.216030466154
 31
0.0
  0
INSERT
  5
6B44
330
5A49
100
AcDbEntity
  8
AM_5 寸法線
 62
     3
100
AcDbBlockReference
  2
_Open30
 10
2619.543434401052
 20
2425.216030466155
 30
0.0
 41
25.0
 42
25.0
 43
25.0
 50
90.0
  0
INSERT
  5
6B45
330
5A49
100
AcDbEntity
  8
AM_5 寸法線
 62
     3
100
AcDbBlockReference
  2
_Open30
 10
2619.543434401052
 20
1855.216030466154
 30
0.0
 41
25.0
 42
25.0
 43
25.0
 50
270.0
  0
MTEXT
  5
6B46
330
5A49
100
AcDbEntity
  8
AM_5 寸法線
 62
     3
100
AcDbMText
 10
2587.043434401052
 20
2140.216030466156
 30
0.0
 40
35.0
 41
0.0
 46
0.0
 71
     5
 72
     1
  1
%%c570
  7
SEISA
 11
0.0000000000000001
 21
1.0
 31
0.0
 73
     1
 44
1.0
  0
POINT
  5
6B47
330
5A49
100
AcDbEntity
  8
Defpoints
 62
     0
100
AcDbPoint
 10
2302.543434401052
 20
2425.216030466155
 30
0.0
  0
POINT
  5
6B48
330
5A49
100
AcDbEntity
  8
Defpoints
 62
     0
100
AcDbPoint
 10
2302.543434401052
 20
1855.216030466155
 30
0.0
  0
POINT
  5
6B49
330
5A49
100
AcDbEntity
  8
Defpoints
 62
     0
100
AcDbPoint
 10
2619.543434401052
 20
1855.216030466154
 30
0.0
  0
ENDBLK
  5
5A4B
330
5A49
100
AcDbEntity
  8
0
100
AcDbBlockEnd
  0
BLOCK
  5
5A6B
330
5A6A
100
AcDbEntity
  8
0
100
AcDbBlockBegin
  2
*D19
 70
     1
 10
0.0
 20
0.0
 30
0.0
  3
*D19
  1

  0
LINE
  5
6B4A
330
5A6A
100
AcDbEntity
  8
AM_5 寸法線
 62
     3
100
AcDbLine
 10
2276.793434401052
 20
2485.216030466155
 30
0.0
 11
2705.793434401052
 21
2485.216030466155
 31
0.0
  0
LINE
  5
6B4B
330
5A6A
100
AcDbEntity
  8
AM_5 寸法線
 62
     3
100
AcDbLine
 10
2276.793434401052
 20
1795.216030466155
 30
0.0
 11
2705.793434401052
 21
1795.216030466155
 31
0.0
  0
LINE
  5
6B4C
330
5A6A
100
AcDbEntity
  8
AM_5 寸法線
 62
     3
100
AcDbLine
 10
2699.543434401052
 20
2460.216030466155
 30
0.0
 11
2699.543434401052
 21
1820.216030466155
 31
0.0
  0
INSERT
  5
6B4D
330
5A6A
100
AcDbEntity
  8
AM_5 寸法線
 62
     3
100
AcDbBlockReference
  2
_Open30
 10
2699.543434401052
 20
2485.216030466155
 30
0.0
 41
25.0
 42
25.0
 43
25.0
 50
90.0
  0
INSERT
  5
6B4E
330
5A6A
100
AcDbEntity
  8
AM_5 寸法線
 62
     3
100
AcDbBlockReference
  2
_Open30
 10
2699.543434401052
 20
1795.216030466155
 30
0.0
 41
25.0
 42
25.0
 43
25.0
 50
270.0
  0
MTEXT
  5
6B4F
330
5A6A
100
AcDbEntity
  8
AM_5 寸法線
 62
     3
100
AcDbMText
 10
2667.043434401052
 20
2140.216030466156
 30
0.0
 40
35.0
 41
0.0
 46
0.0
 71
     5
 72
     1
  1
%%c690
  7
SEISA
 11
0.0000000000000001
 21
1.0
 31
0.0
 73
     1
 44
1.0
  0
POINT
  5
6B50
330
5A6A
100
AcDbEntity
  8
Defpoints
 62
     0
100
AcDbPoint
 10
2270.543434401052
 20
2485.216030466155
 30
0.0
  0
POINT
  5
6B51
330
5A6A
100
AcDbEntity
  8
Defpoints
 62
     0
100
AcDbPoint
 10
2270.543434401052
 20
1795.216030466155
 30
0.0
  0
POINT
  5
6B52
330
5A6A
100
AcDbEntity
  8
Defpoints
 62
     0
100
AcDbPoint
 10
2699.543434401052
 20
1795.216030466155
 30
0.0
  0
ENDBLK
  5
5A6C
330
5A6A
100
AcDbEntity
  8
0
100
AcDbBlockEnd
  0
BLOCK
  5
5A83
330
5A82
100
AcDbEntity
  8
0
100
AcDbBlockBegin
  2
*D20
 70
     1
 10
0.0
 20
0.0
 30
0.0
  3
*D20
  1

  0
LINE
  5
6B53
330
5A82
100
AcDbEntity
  8
AM_5 寸法線
 62
     3
100
AcDbLine
 10
2045.793434401052
 20
2540.216030466155
 30
0.0
 11
2785.793434401052
 21
2540.216030466155
 31
0.0
  0
LINE
  5
6B54
330
5A82
100
AcDbEntity
  8
AM_5 寸法線
 62
     3
100
AcDbLine
 10
2045.793434401052
 20
1740.216030466154
 30
0.0
 11
2785.793434401052
 21
1740.216030466154
 31
0.0
  0
LINE
  5
6B55
330
5A82
100
AcDbEntity
  8
AM_5 寸法線
 62
     3
100
AcDbLine
 10
2779.543434401052
 20
2515.216030466155
 30
0.0
 11
2779.543434401052
 21
1765.216030466154
 31
0.0
  0
INSERT
  5
6B56
330
5A82
100
AcDbEntity
  8
AM_5 寸法線
 62
     3
100
AcDbBlockReference
  2
_Open30
 10
2779.543434401052
 20
2540.216030466155
 30
0.0
 41
25.0
 42
25.0
 43
25.0
 50
90.0
  0
INSERT
  5
6B57
330
5A82
100
AcDbEntity
  8
AM_5 寸法線
 62
     3
100
AcDbBlockReference
  2
_Open30
 10
2779.543434401052
 20
1740.216030466154
 30
0.0
 41
25.0
 42
25.0
 43
25.0
 50
270.0
  0
MTEXT
  5
6B58
330
5A82
100
AcDbEntity
  8
AM_5 寸法線
 62
     3
100
AcDbMText
 10
2747.043434401052
 20
2140.216030466156
 30
0.0
 40
35.0
 41
0.0
 46
0.0
 71
     5
 72
     1
  1
%%c800
  7
SEISA
 11
0.0000000000000001
 21
1.0
 31
0.0
 73
     1
 44
1.0
  0
POINT
  5
6B59
330
5A82
100
AcDbEntity
  8
Defpoints
 62
     0
100
AcDbPoint
 10
2039.543434401052
 20
2540.216030466155
 30
0.0
  0
POINT
  5
6B5A
330
5A82
100
AcDbEntity
  8
Defpoints
 62
     0
100
AcDbPoint
 10
2039.543434401052
 20
1740.216030466154
 30
0.0
  0
POINT
  5
6B5B
330
5A82
100
AcDbEntity
  8
Defpoints
 62
     0
100
AcDbPoint
 10
2779.543434401052
 20
1740.216030466154
 30
0.0
  0
ENDBLK
  5
5A84
330
5A82
100
AcDbEntity
  8
0
100
AcDbBlockEnd
  0
BLOCK
  5
5C1B
330
5C1A
100
AcDbEntity
  8
0
100
AcDbBlockBegin
  2
*D21
 70
     1
 10
0.0
 20
0.0
 30
0.0
  3
*D21
  1

  0
LINE
  5
6B5C
330
5C1A
100
AcDbEntity
  8
AM_5 寸法線
 62
     3
100
AcDbLine
 10
2003.543434401052
 20
1735.966030466155
 30
0.0
 11
2003.543434401052
 21
1613.966030466154
 31
0.0
  0
LINE
  5
6B5D
330
5C1A
100
AcDbEntity
  8
AM_5 寸法線
 62
     3
100
AcDbLine
 10
1965.543434401052
 20
1735.966030466155
 30
0.0
 11
1965.543434401052
 21
1613.966030466154
 31
0.0
  0
LINE
  5
6B5E
330
5C1A
100
AcDbEntity
  8
AM_5 寸法線
 62
     3
100
AcDbLine
 10
2028.543434401052
 20
1620.216030466155
 30
0.0
 11
2053.543434401052
 21
1620.216030466155
 31
0.0
  0
LINE
  5
6B5F
330
5C1A
100
AcDbEntity
  8
AM_5 寸法線
 62
     3
100
AcDbLine
 10
1940.543434401052
 20
1620.216030466155
 30
0.0
 11
1834.543434401052
 21
1620.216030466155
 31
0.0
  0
LINE
  5
6B60
330
5C1A
100
AcDbEntity
  8
AM_5 寸法線
 62
     3
100
AcDbLine
 10
2003.543434401052
 20
1620.216030466155
 30
0.0
 11
1965.543434401052
 21
1620.216030466155
 31
0.0
  0
INSERT
  5
6B61
330
5C1A
100
AcDbEntity
  8
AM_5 寸法線
 62
     3
100
AcDbBlockReference
  2
GENDOT
 10
2003.543434401052
 20
1620.216030466155
 30
0.0
 41
25.0
 42
25.0
 43
25.0
 50
180.0
  0
INSERT
  5
6B62
330
5C1A
100
AcDbEntity
  8
AM_5 寸法線
 62
     3
100
AcDbBlockReference
  2
_Open30
 10
1965.543434401052
 20
1620.216030466155
 30
0.0
 41
25.0
 42
25.0
 43
25.0
  0
MTEXT
  5
6B63
330
5C1A
100
AcDbEntity
  8
AM_5 寸法線
 62
     3
100
AcDbMText
 10
1875.043434401051
 20
1652.716030466154
 30
0.0
 40
35.0
 41
0.0
 46
0.0
 71
     5
 72
     1
  1
38
  7
SEISA
 73
     1
 44
1.0
  0
POINT
  5
6B64
330
5C1A
100
AcDbEntity
  8
Defpoints
 62
     0
100
AcDbPoint
 10
2003.543434401052
 20
1742.216030466155
 30
0.0
  0
POINT
  5
6B65
330
5C1A
100
AcDbEntity
  8
Defpoints
 62
     0
100
AcDbPoint
 10
1965.543434401052
 20
1742.216030466155
 30
0.0
  0
POINT
  5
6B66
330
5C1A
100
AcDbEntity
  8
Defpoints
 62
     0
100
AcDbPoint
 10
1965.543434401052
 20
1620.216030466155
 30
0.0
  0
ENDBLK
  5
5C1C
330
5C1A
100
AcDbEntity
  8
0
100
AcDbBlockEnd
  0
BLOCK
  5
5C37
330
5C36
100
AcDbEntity
  8
0
100
AcDbBlockBegin
  2
*D22
 70
     1
 10
0.0
 20
0.0
 30
0.0
  3
*D22
  1

  0
LINE
  5
6B67
330
5C36
100
AcDbEntity
  8
AM_5 寸法線
 62
     3
100
AcDbLine
 10
2003.543434401052
 20
1735.966030466155
 30
0.0
 11
2003.543434401052
 21
1613.966030466154
 31
0.0
  0
LINE
  5
6B68
330
5C36
100
AcDbEntity
  8
AM_5 寸法線
 62
     3
100
AcDbLine
 10
2041.543434401052
 20
1735.966030466155
 30
0.0
 11
2041.543434401052
 21
1613.966030466154
 31
0.0
  0
LINE
  5
6B69
330
5C36
100
AcDbEntity
  8
AM_5 寸法線
 62
     3
100
AcDbLine
 10
1978.543434401052
 20
1620.216030466155
 30
0.0
 11
1953.543434401052
 21
1620.216030466155
 31
0.0
  0
LINE
  5
6B6A
330
5C36
100
AcDbEntity
  8
AM_5 寸法線
 62
     3
100
AcDbLine
 10
2066.543434401052
 20
1620.216030466155
 30
0.0
 11
2172.543434401052
 21
1620.216030466155
 31
0.0
  0
LINE
  5
6B6B
330
5C36
100
AcDbEntity
  8
AM_5 寸法線
 62
     3
100
AcDbLine
 10
2003.543434401052
 20
1620.216030466155
 30
0.0
 11
2041.543434401052
 21
1620.216030466155
 31
0.0
  0
INSERT
  5
6B6C
330
5C36
100
AcDbEntity
  8
AM_5 寸法線
 62
     3
100
AcDbBlockReference
  2
GENDOT
 10
2003.543434401052
 20
1620.216030466155
 30
0.0
 41
25.0
 42
25.0
 43
25.0
  0
INSERT
  5
6B6D
330
5C36
100
AcDbEntity
  8
AM_5 寸法線
 62
     3
100
AcDbBlockReference
  2
_Open30
 10
2041.543434401052
 20
1620.216030466155
 30
0.0
 41
25.0
 42
25.0
 43
25.0
 50
180.0
  0
MTEXT
  5
6B6E
330
5C36
100
AcDbEntity
  8
AM_5 寸法線
 62
     3
100
AcDbMText
 10
2132.043434401052
 20
1652.716030466154
 30
0.0
 40
35.0
 41
0.0
 46
0.0
 71
     5
 72
     1
  1
38
  7
SEISA
 73
     1
 44
1.0
  0
POINT
  5
6B6F
330
5C36
100
AcDbEntity
  8
Defpoints
 62
     0
100
AcDbPoint
 10
2003.543434401052
 20
1742.216030466155
 30
0.0
  0
POINT
  5
6B70
330
5C36
100
AcDbEntity
  8
Defpoints
 62
     0
100
AcDbPoint
 10
2041.543434401052
 20
1742.216030466155
 30
0.0
  0
POINT
  5
6B71
330
5C36
100
AcDbEntity
  8
Defpoints
 62
     0
100
AcDbPoint
 10
2041.543434401052
 20
1620.216030466155
 30
0.0
  0
ENDBLK
  5
5C38
330
5C36
100
AcDbEntity
  8
0
100
AcDbBlockEnd
  0
BLOCK
  5
5CB3
330
5CB2
100
AcDbEntity
  8
0
100
AcDbBlockBegin
  2
*D23
 70
     1
 10
0.0
 20
0.0
 30
0.0
  3
*D23
  1

  0
LINE
  5
6B72
330
5CB2
100
AcDbEntity
  8
AM_5 寸法線
 62
     3
100
AcDbLine
 10
2003.543434401052
 20
1735.966030466155
 30
0.0
 11
2003.543434401052
 21
1533.966030466155
 31
0.0
  0
LINE
  5
6B73
330
5CB2
100
AcDbEntity
  8
AM_5 寸法線
 62
     3
100
AcDbLine
 10
1587.543434401052
 20
1831.466030466154
 30
0.0
 11
1587.543434401052
 21
1533.966030466155
 31
0.0
  0
LINE
  5
6B74
330
5CB2
100
AcDbEntity
  8
AM_5 寸法線
 62
     3
100
AcDbLine
 10
1978.543434401052
 20
1540.216030466155
 30
0.0
 11
1612.543434401052
 21
1540.216030466155
 31
0.0
  0
INSERT
  5
6B75
330
5CB2
100
AcDbEntity
  8
AM_5 寸法線
 62
     3
100
AcDbBlockReference
  2
_Open30
 10
2003.543434401052
 20
1540.216030466155
 30
0.0
 41
25.0
 42
25.0
 43
25.0
  0
INSERT
  5
6B76
330
5CB2
100
AcDbEntity
  8
AM_5 寸法線
 62
     3
100
AcDbBlockReference
  2
_Open30
 10
1587.543434401052
 20
1540.216030466155
 30
0.0
 41
25.0
 42
25.0
 43
25.0
 50
180.0
  0
MTEXT
  5
6B77
330
5CB2
100
AcDbEntity
  8
AM_5 寸法線
 62
     3
100
AcDbMText
 10
1795.543434401052
 20
1572.716030466154
 30
0.0
 40
35.0
 41
0.0
 46
0.0
 71
     5
 72
     1
  1
416
  7
SEISA
 73
     1
 44
1.0
  0
POINT
  5
6B78
330
5CB2
100
AcDbEntity
  8
Defpoints
 62
     0
100
AcDbPoint
 10
2003.543434401052
 20
1742.216030466155
 30
0.0
  0
POINT
  5
6B79
330
5CB2
100
AcDbEntity
  8
Defpoints
 62
     0
100
AcDbPoint
 10
1587.543434401052
 20
1837.716030466155
 30
0.0
  0
POINT
  5
6B7A
330
5CB2
100
AcDbEntity
  8
Defpoints
 62
     0
100
AcDbPoint
 10
1587.543434401052
 20
1540.216030466155
 30
0.0
  0
ENDBLK
  5
5CB4
330
5CB2
100
AcDbEntity
  8
0
100
AcDbBlockEnd
  0
BLOCK
  5
5CCB
330
5CCA
100
AcDbEntity
  8
0
100
AcDbBlockBegin
  2
*D24
 70
     1
 10
0.0
 20
0.0
 30
0.0
  3
*D24
  1

  0
LINE
  5
6B7B
330
5CCA
100
AcDbEntity
  8
AM_5 寸法線
 62
     3
100
AcDbLine
 10
2003.543434401052
 20
1735.966030466155
 30
0.0
 11
2003.543434401052
 21
1533.966030466155
 31
0.0
  0
LINE
  5
6B7C
330
5CCA
100
AcDbEntity
  8
AM_5 寸法線
 62
     3
100
AcDbLine
 10
2270.543434401052
 20
1788.966030466155
 30
0.0
 11
2270.543434401052
 21
1533.966030466155
 31
0.0
  0
LINE
  5
6B7D
330
5CCA
100
AcDbEntity
  8
AM_5 寸法線
 62
     3
100
AcDbLine
 10
2028.543434401052
 20
1540.216030466155
 30
0.0
 11
2245.543434401052
 21
1540.216030466155
 31
0.0
  0
INSERT
  5
6B7E
330
5CCA
100
AcDbEntity
  8
AM_5 寸法線
 62
     3
100
AcDbBlockReference
  2
_Open30
 10
2003.543434401052
 20
1540.216030466155
 30
0.0
 41
25.0
 42
25.0
 43
25.0
 50
180.0
  0
INSERT
  5
6B7F
330
5CCA
100
AcDbEntity
  8
AM_5 寸法線
 62
     3
100
AcDbBlockReference
  2
_Open30
 10
2270.543434401052
 20
1540.216030466155
 30
0.0
 41
25.0
 42
25.0
 43
25.0
  0
MTEXT
  5
6B80
330
5CCA
100
AcDbEntity
  8
AM_5 寸法線
 62
     3
100
AcDbMText
 10
2137.043434401052
 20
1572.716030466154
 30
0.0
 40
35.0
 41
0.0
 46
0.0
 71
     5
 72
     1
  1
267
  7
SEISA
 73
     1
 44
1.0
  0
POINT
  5
6B81
330
5CCA
100
AcDbEntity
  8
Defpoints
 62
     0
100
AcDbPoint
 10
2003.543434401052
 20
1742.216030466155
 30
0.0
  0
POINT
  5
6B82
330
5CCA
100
AcDbEntity
  8
Defpoints
 62
     0
100
AcDbPoint
 10
2270.543434401052
 20
1795.216030466155
 30
0.0
  0
POINT
  5
6B83
330
5CCA
100
AcDbEntity
  8
Defpoints
 62
     0
100
AcDbPoint
 10
2270.543434401052
 20
1540.216030466155
 30
0.0
  0
ENDBLK
  5
5CCC
330
5CCA
100
AcDbEntity
  8
0
100
AcDbBlockEnd
  0
BLOCK
  5
5CE3
330
5CE2
100
AcDbEntity
  8
0
100
AcDbBlockBegin
  2
*D25
 70
     1
 10
0.0
 20
0.0
 30
0.0
  3
*D25
  1

  0
LINE
  5
6B84
330
5CE2
100
AcDbEntity
  8
AM_5 寸法線
 62
     3
100
AcDbLine
 10
2270.543434401052
 20
1788.966030466155
 30
0.0
 11
2270.543434401052
 21
1533.966030466155
 31
0.0
  0
LINE
  5
6B85
330
5CE2
100
AcDbEntity
  8
AM_5 寸法線
 62
     3
100
AcDbLine
 10
2419.543434401052
 20
1865.466030466155
 30
0.0
 11
2419.543434401052
 21
1533.966030466155
 31
0.0
  0
LINE
  5
6B86
330
5CE2
100
AcDbEntity
  8
AM_5 寸法線
 62
     3
100
AcDbLine
 10
2295.543434401052
 20
1540.216030466155
 30
0.0
 11
2394.543434401052
 21
1540.216030466155
 31
0.0
  0
INSERT
  5
6B87
330
5CE2
100
AcDbEntity
  8
AM_5 寸法線
 62
     3
100
AcDbBlockReference
  2
_Open30
 10
2270.543434401052
 20
1540.216030466155
 30
0.0
 41
25.0
 42
25.0
 43
25.0
 50
180.0
  0
INSERT
  5
6B88
330
5CE2
100
AcDbEntity
  8
AM_5 寸法線
 62
     3
100
AcDbBlockReference
  2
_Open30
 10
2419.543434401052
 20
1540.216030466155
 30
0.0
 41
25.0
 42
25.0
 43
25.0
  0
MTEXT
  5
6B89
330
5CE2
100
AcDbEntity
  8
AM_5 寸法線
 62
     3
100
AcDbMText
 10
2345.043434401052
 20
1572.716030466154
 30
0.0
 40
35.0
 41
0.0
 46
0.0
 71
     5
 72
     1
  1
149
  7
SEISA
 73
     1
 44
1.0
  0
POINT
  5
6B8A
330
5CE2
100
AcDbEntity
  8
Defpoints
 62
     0
100
AcDbPoint
 10
2270.543434401052
 20
1795.216030466155
 30
0.0
  0
POINT
  5
6B8B
330
5CE2
100
AcDbEntity
  8
Defpoints
 62
     0
100
AcDbPoint
 10
2419.543434401052
 20
1871.716030466155
 30
0.0
  0
POINT
  5
6B8C
330
5CE2
100
AcDbEntity
  8
Defpoints
 62
     0
100
AcDbPoint
 10
2419.543434401052
 20
1540.216030466155
 30
0.0
  0
ENDBLK
  5
5CE4
330
5CE2
100
AcDbEntity
  8
0
100
AcDbBlockEnd
  0
BLOCK
  5
5CFB
330
5CFA
100
AcDbEntity
  8
0
100
AcDbBlockBegin
  2
*D26
 70
     1
 10
0.0
 20
0.0
 30
0.0
  3
*D26
  1

  0
LINE
  5
6B8D
330
5CFA
100
AcDbEntity
  8
AM_5 寸法線
 62
     3
100
AcDbLine
 10
2419.543434401052
 20
1865.466030466155
 30
0.0
 11
2419.543434401052
 21
1453.966030466155
 31
0.0
  0
LINE
  5
6B8E
330
5CFA
100
AcDbEntity
  8
AM_5 寸法線
 62
     3
100
AcDbLine
 10
1587.543434401052
 20
1831.466030466154
 30
0.0
 11
1587.543434401052
 21
1453.966030466155
 31
0.0
  0
LINE
  5
6B8F
330
5CFA
100
AcDbEntity
  8
AM_5 寸法線
 62
     3
100
AcDbLine
 10
2394.543434401052
 20
1460.216030466155
 30
0.0
 11
1612.543434401052
 21
1460.216030466155
 31
0.0
  0
INSERT
  5
6B90
330
5CFA
100
AcDbEntity
  8
AM_5 寸法線
 62
     3
100
AcDbBlockReference
  2
_Open30
 10
2419.543434401052
 20
1460.216030466155
 30
0.0
 41
25.0
 42
25.0
 43
25.0
  0
INSERT
  5
6B91
330
5CFA
100
AcDbEntity
  8
AM_5 寸法線
 62
     3
100
AcDbBlockReference
  2
_Open30
 10
1587.543434401052
 20
1460.216030466155
 30
0.0
 41
25.0
 42
25.0
 43
25.0
 50
180.0
  0
MTEXT
  5
6B92
330
5CFA
100
AcDbEntity
  8
AM_5 寸法線
 62
     3
100
AcDbMText
 10
2003.543434401052
 20
1492.716030466155
 30
0.0
 40
35.0
 41
0.0
 46
0.0
 71
     5
 72
     1
  1
832
  7
SEISA
 73
     1
 44
1.0
  0
POINT
  5
6B93
330
5CFA
100
AcDbEntity
  8
Defpoints
 62
     0
100
AcDbPoint
 10
2419.543434401052
 20
1871.716030466155
 30
0.0
  0
POINT
  5
6B94
330
5CFA
100
AcDbEntity
  8
Defpoints
 62
     0
100
AcDbPoint
 10
1587.543434401052
 20
1837.716030466155
 30
0.0
  0
POINT
  5
6B95
330
5CFA
100
AcDbEntity
  8
Defpoints
 62
     0
100
AcDbPoint
 10
1587.543434401052
 20
1460.216030466155
 30
0.0
  0
ENDBLK
  5
5CFC
330
5CFA
100
AcDbEntity
  8
0
100
AcDbBlockEnd
  0
BLOCK
  5
807F
330
807E
100
AcDbEntity
  8
0
100
AcDbBlockBegin
  2
*D27
 70
     1
 10
0.0
 20
0.0
 30
0.0
  3
*D27
  1

  0
LINE
  5
809E
330
807E
100
AcDbEntity
  8
AM_5 寸法線
 62
     3
100
AcDbLine
 10
2419.543434401052
 20
2414.966030466155
 30
0.0
 11
2419.543434401052
 21
2641.466031466155
 31
0.0
  0
LINE
  5
809F
330
807E
100
AcDbEntity
  8
AM_5 寸法線
 62
     3
100
AcDbLine
 10
2509.543434401052
 20
2491.466030466155
 30
0.0
 11
2509.543434401052
 21
2641.466031466155
 31
0.0
  0
LINE
  5
80A0
330
807E
100
AcDbEntity
  8
AM_5 寸法線
 62
     3
100
AcDbLine
 10
2444.543434401052
 20
2635.216031466155
 30
0.0
 11
2484.543434401052
 21
2635.216031466155
 31
0.0
  0
INSERT
  5
80A1
330
807E
100
AcDbEntity
  8
AM_5 寸法線
 62
     3
100
AcDbBlockReference
  2
_Open30
 10
2419.543434401052
 20
2635.216031466155
 30
0.0
 41
25.0
 42
25.0
 43
25.0
 50
180.0
  0
INSERT
  5
80A2
330
807E
100
AcDbEntity
  8
AM_5 寸法線
 62
     3
100
AcDbBlockReference
  2
_Open30
 10
2509.543434401052
 20
2635.216031466155
 30
0.0
 41
25.0
 42
25.0
 43
25.0
  0
MTEXT
  5
80A3
330
807E
100
AcDbEntity
  8
AM_5 寸法線
 62
     3
100
AcDbMText
 10
2464.543434401052
 20
2667.716031466155
 30
0.0
 40
35.0
 41
0.0
 46
0.0
 71
     5
 72
     1
  1
90
  7
SEISA
 73
     1
 44
1.0
  0
POINT
  5
80A4
330
807E
100
AcDbEntity
  8
Defpoints
 62
     0
100
AcDbPoint
 10
2419.543434401052
 20
2408.716030466155
 30
0.0
  0
POINT
  5
80A5
330
807E
100
AcDbEntity
  8
Defpoints
 62
     0
100
AcDbPoint
 10
2509.543434401052
 20
2485.216030466155
 30
0.0
  0
POINT
  5
80A6
330
807E
100
AcDbEntity
  8
Defpoints
 62
     0
100
AcDbPoint
 10
2509.543434401052
 20
2635.216031466155
 30
0.0
  0
ENDBLK
  5
8080
330
807E
100
AcDbEntity
  8
0
100
AcDbBlockEnd
  0
BLOCK
  5
8176
330
8175
100
AcDbEntity
  8
0
100
AcDbBlockBegin
  2
*D28
 70
     1
 10
0.0
 20
0.0
 30
0.0
  3
*D28
  1

  0
LINE
  5
822A
330
8175
100
AcDbEntity
  8
AM_5 寸法線
 62
     3
100
AcDbLine
 10
2019.543434401052
 20
2416.966030466155
 30
0.0
 11
2019.543434401052
 21
2334.872660869149
 31
0.0
  0
LINE
  5
822B
330
8175
100
AcDbEntity
  8
AM_5 寸法線
 62
     3
100
AcDbLine
 10
2121.043434401052
 20
2419.466030466156
 30
0.0
 11
2121.043434401052
 21
2334.872660869149
 31
0.0
  0
LINE
  5
822C
330
8175
100
AcDbEntity
  8
AM_5 寸法線
 62
     3
100
AcDbLine
 10
2044.543434401052
 20
2341.122660869149
 30
0.0
 11
2096.043434401052
 21
2341.122660869149
 31
0.0
  0
LINE
  5
822D
330
8175
100
AcDbEntity
  8
AM_5 寸法線
 62
     3
100
AcDbLine
 10
2070.293434401052
 20
2341.122660869149
 30
0.0
 11
2076.665783219364
 21
2229.475073833216
 31
0.0
  0
LINE
  5
822E
330
8175
100
AcDbEntity
  8
AM_5 寸法線
 62
     3
100
AcDbLine
 10
2076.665783219364
 20
2229.475073833216
 30
0.0
 11
2228.165783219364
 21
2229.475073833216
 31
0.0
  0
MTEXT
  5
822F
330
8175
100
AcDbEntity
  8
AM_5 寸法線
 62
     3
100
AcDbMText
 10
2152.415783219364
 20
2261.975073833216
 30
0.0
 40
35.0
 41
0.0
 46
0.0
 71
     5
 72
     1
  1
101.5
  7
SEISA
 73
     1
 44
1.0
  0
INSERT
  5
8230
330
8175
100
AcDbEntity
  8
AM_5 寸法線
 62
     3
100
AcDbBlockReference
  2
_Open30
 10
2019.543434401052
 20
2341.122660869149
 30
0.0
 41
25.0
 42
25.0
 43
25.0
 50
180.0
  0
INSERT
  5
8231
330
8175
100
AcDbEntity
  8
AM_5 寸法線
 62
     3
100
AcDbBlockReference
  2
_Open30
 10
2121.043434401052
 20
2341.122660869149
 30
0.0
 41
25.0
 42
25.0
 43
25.0
  0
POINT
  5
8232
330
8175
100
AcDbEntity
  8
Defpoints
 62
     0
100
AcDbPoint
 10
2019.543434401052
 20
2423.216030466155
 30
0.0
  0
POINT
  5
8233
330
8175
100
AcDbEntity
  8
Defpoints
 62
     0
100
AcDbPoint
 10
2121.043434401052
 20
2425.716030466155
 30
0.0
  0
POINT
  5
8234
330
8175
100
AcDbEntity
  8
Defpoints
 62
     0
100
AcDbPoint
 10
2121.043434401052
 20
2341.122660869149
 30
0.0
  0
ENDBLK
  5
8177
330
8175
100
AcDbEntity
  8
0
100
AcDbBlockEnd
  0
BLOCK
  5
81B9
330
81B8
100
AcDbEntity
  8
0
100
AcDbBlockBegin
  2
*D29
 70
     1
 10
0.0
 20
0.0
 30
0.0
  3
*D29
  1

  0
LINE
  5
81D8
330
81B8
100
AcDbEntity
  8
AM_5 寸法線
 62
     3
100
AcDbLine
 10
2121.043434401052
 20
2419.466030466156
 30
0.0
 11
2121.043434401052
 21
2334.872660869149
 31
0.0
  0
LINE
  5
81D9
330
81B8
100
AcDbEntity
  8
AM_5 寸法線
 62
     3
100
AcDbLine
 10
2237.043434401052
 20
2419.466030466156
 30
0.0
 11
2237.043434401052
 21
2334.872660869149
 31
0.0
  0
LINE
  5
81DA
330
81B8
100
AcDbEntity
  8
AM_5 寸法線
 62
     3
100
AcDbLine
 10
2146.043434401052
 20
2341.122660869149
 30
0.0
 11
2212.043434401052
 21
2341.122660869149
 31
0.0
  0
INSERT
  5
81DB
330
81B8
100
AcDbEntity
  8
AM_5 寸法線
 62
     3
100
AcDbBlockReference
  2
_Open30
 10
2121.043434401052
 20
2341.122660869149
 30
0.0
 41
25.0
 42
25.0
 43
25.0
 50
180.0
  0
INSERT
  5
81DC
330
81B8
100
AcDbEntity
  8
AM_5 寸法線
 62
     3
100
AcDbBlockReference
  2
_Open30
 10
2237.043434401052
 20
2341.122660869149
 30
0.0
 41
25.0
 42
25.0
 43
25.0
  0
MTEXT
  5
81DD
330
81B8
100
AcDbEntity
  8
AM_5 寸法線
 62
     3
100
AcDbMText
 10
2179.043434401052
 20
2373.622660869148
 30
0.0
 40
35.0
 41
0.0
 46
0.0
 71
     5
 72
     1
  1
116
  7
SEISA
 73
     1
 44
1.0
  0
POINT
  5
81DE
330
81B8
100
AcDbEntity
  8
Defpoints
 62
     0
100
AcDbPoint
 10
2121.043434401052
 20
2425.716030466155
 30
0.0
  0
POINT
  5
81DF
330
81B8
100
AcDbEntity
  8
Defpoints
 62
     0
100
AcDbPoint
 10
2237.043434401052
 20
2425.716030466155
 30
0.0
  0
POINT
  5
81E0
330
81B8
100
AcDbEntity
  8
Defpoints
 62
     0
100
AcDbPoint
 10
2237.043434401052
 20
2341.122660869149
 30
0.0
  0
ENDBLK
  5
81BA
330
81B8
100
AcDbEntity
  8
0
100
AcDbBlockEnd
  0
BLOCK
  5
8341
330
8340
100
AcDbEntity
  8
0
100
AcDbBlockBegin
  2
GCｻｲﾄﾞｶﾊﾞｰ　CEM800
 70
     0
 10
0.0
 20
0.0
 30
0.0
  3
GCｻｲﾄﾞｶﾊﾞｰ　CEM800
  1

  0
LINE
  5
8343
330
8340
100
AcDbEntity
  8
AM_11 想像線
 48
0.1
100
AcDbLine
 10
-14.89999999999963
 20
-26.19999999999982
 30
0.0
 11
-14.89999999999963
 21
-31.5
 31
0.0
  0
LINE
  5
8344
330
8340
100
AcDbEntity
  8
AM_11 想像線
 48
0.1
100
AcDbLine
 10
-18.0
 20
-26.19999999999982
 30
0.0
 11
-14.89999999999963
 21
-26.19999999999982
 31
0.0
  0
LINE
  5
8345
330
8340
100
AcDbEntity
  8
AM_11 想像線
 48
0.1
100
AcDbLine
 10
-24.0
 20
-15.0
 30
0.0
 11
5.332741064292348
 21
-15.0
 31
0.0
  0
LINE
  5
8346
330
8340
100
AcDbEntity
  8
AM_11 想像線
 48
0.1
100
AcDbLine
 10
0.0
 20
0.0
 30
0.0
 11
0.0
 21
-26.19999999999982
 31
0.0
  0
LINE
  5
8347
330
8340
100
AcDbEntity
  8
AM_11 想像線
 48
0.1
100
AcDbLine
 10
0.0
 20
-58.0
 30
0.0
 11
-5.0
 21
-58.0
 31
0.0
  0
LINE
  5
8348
330
8340
100
AcDbEntity
  8
AM_11 想像線
 48
0.1
100
AcDbLine
 10
-24.0
 20
-31.5
 30
0.0
 11
-24.0
 21
-32.5
 31
0.0
  0
LINE
  5
8349
330
8340
100
AcDbEntity
  8
AM_11 想像線
 48
0.1
100
AcDbLine
 10
-24.0
 20
-58.0
 30
0.0
 11
-24.0
 21
-32.5
 31
0.0
  0
LINE
  5
834A
330
8340
100
AcDbEntity
  8
AM_11 想像線
 48
0.1
100
AcDbLine
 10
-19.0
 20
-58.0
 30
0.0
 11
-24.0
 21
-58.0
 31
0.0
  0
LINE
  5
834B
330
8340
100
AcDbEntity
  8
AM_11 想像線
 48
0.1
100
AcDbLine
 10
-19.0
 20
-51.80000000000018
 30
0.0
 11
-19.0
 21
-58.0
 31
0.0
  0
LINE
  5
834C
330
8340
100
AcDbEntity
  8
AM_11 想像線
 48
0.1
100
AcDbLine
 10
-5.0
 20
-51.80000000000018
 30
0.0
 11
-19.0
 21
-51.80000000000018
 31
0.0
  0
LINE
  5
834D
330
8340
100
AcDbEntity
  8
AM_11 想像線
 48
0.1
100
AcDbLine
 10
-5.0
 20
-58.0
 30
0.0
 11
-5.0
 21
-51.80000000000018
 31
0.0
  0
LINE
  5
834E
330
8340
100
AcDbEntity
  8
AM_11 想像線
 48
0.1
100
AcDbLine
 10
-24.0
 20
-58.0
 30
0.0
 11
-24.0
 21
-60.0
 31
0.0
  0
LINE
  5
834F
330
8340
100
AcDbEntity
  8
AM_11 想像線
 48
0.1
100
AcDbLine
 10
-19.0
 20
-58.0
 30
0.0
 11
-19.0
 21
-60.0
 31
0.0
  0
LINE
  5
8350
330
8340
100
AcDbEntity
  8
AM_11 想像線
 48
0.1
100
AcDbLine
 10
-5.0
 20
-58.0
 30
0.0
 11
-5.0
 21
-60.0
 31
0.0
  0
LINE
  5
8351
330
8340
100
AcDbEntity
  8
AM_11 想像線
 48
0.1
100
AcDbLine
 10
0.0
 20
-26.19999999999982
 30
0.0
 11
0.0
 21
-58.0
 31
0.0
  0
LINE
  5
8352
330
8340
100
AcDbEntity
  8
AM_11 想像線
 48
0.1
100
AcDbLine
 10
0.0
 20
-58.0
 30
0.0
 11
0.0
 21
-60.0
 31
0.0
  0
LINE
  5
8353
102
{ACAD_REACTORS
330
808B
102
}
330
8340
100
AcDbEntity
  8
AM_11 想像線
 48
0.1
100
AcDbLine
 10
-18.0
 20
0.0
 30
0.0
 11
0.0
 21
0.0
 31
0.0
  0
LINE
  5
8354
330
8340
100
AcDbEntity
  8
AM_11 想像線
 48
0.1
100
AcDbLine
 10
-24.0
 20
-31.5
 30
0.0
 11
-14.89999999999963
 21
-31.5
 31
0.0
  0
LINE
  5
8355
330
8340
100
AcDbEntity
  8
AM_11 想像線
 48
0.1
100
AcDbLine
 10
-18.0
 20
-26.19999999999982
 30
0.0
 11
-18.0
 21
0.0
 31
0.0
  0
ENDBLK
  5
8342
330
8340
100
AcDbEntity
  8
0
100
AcDbBlockEnd
  0
ENDSEC
  0
SECTION
  2
ENTITIES
  0
LINE
  5
44D0
330
1F
100
AcDbEntity
  8
AM_0 外形線1
100
AcDbLine
 10
2003.543434401052
 20
2140.216030466155
 30
0.0
 11
2003.543434401052
 21
1907.716030466154
 31
0.0
  0
LINE
  5
44D2
330
1F
100
AcDbEntity
  8
AM_7 中心線
100
AcDbLine
 10
1559.281875011473
 20
2140.216030466155
 30
0.0
 11
2444.088449017954
 21
2140.216030466155
 31
0.0
  0
LINE
  5
44D6
330
1F
100
AcDbEntity
  8
AM_0 外形線1
100
AcDbLine
 10
2003.543434401052
 20
2140.216030466155
 30
0.0
 11
2003.543434401052
 21
1918.966030466155
 31
0.0
  0
LINE
  5
4507
330
1F
100
AcDbEntity
  8
AM_0 外形線1
100
AcDbLine
 10
2019.543434401052
 20
2384.216030466155
 30
0.0
 11
2019.543434401052
 21
2140.216030466155
 31
0.0
  0
LINE
  5
4508
330
1F
100
AcDbEntity
  8
AM_0 外形線1
100
AcDbLine
 10
1987.543434401052
 20
2384.216030466155
 30
0.0
 11
1987.543434401052
 21
2140.216030466155
 31
0.0
  0
INSERT
  5
4E4D
102
{ACAD_REACTORS
330
5A98
330
5C50
102
}
330
1F
100
AcDbEntity
  8
AM_0 外形線1
100
AcDbBlockReference
  2
ケースＡ-E CEMH800
 10
2003.543434401052
 20
2140.216030466155
 30
0.0
  0
INSERT
  5
4F69
102
{ACAD_REACTORS
330
58B8
330
58EB
330
5907
330
5C34
330
5C50
330
5CC8
330
5CE0
330
5D10
102
}
330
1F
100
AcDbEntity
  8
AM_0 外形線1
100
AcDbBlockReference
  2
リジット-E CEMH800
 10
2003.543434401052
 20
2140.216030466155
 30
0.0
  0
INSERT
  5
5065
102
{ACAD_REACTORS
330
5907
330
591F
330
597F
330
5A5F
330
5CF8
330
5D10
330
808B
330
8183
102
}
330
1F
100
AcDbEntity
  8
AM_0 外形線1
100
AcDbBlockReference
  2
センタ-E CEMH800
 10
2019.543434401052
 20
2140.216030466155
 30
0.0
  0
INSERT
  5
5231
330
1F
100
AcDbEntity
  8
AM_0 外形線1
100
AcDbBlockReference
  2
リーマボルト-E CEMH800 M30
 10
2041.543434401052
 20
2511.216030466155
 30
0.0
  0
INSERT
  5
5360
102
{ACAD_REACTORS
330
597F
330
5A80
330
5CE0
330
5CF8
102
}
330
1F
100
AcDbEntity
  8
AM_0 外形線1
100
AcDbBlockReference
  2
ＧＣサイドカバ－-E CEMH800
 10
2252.543434401052
 20
2140.216030466155
 30
0.0
  0
DIMENSION
  5
58A1
102
{ACAD_XDICTIONARY
360
58AE
102
}
102
{ACAD_REACTORS
330
58B8
102
}
330
1F
100
AcDbEntity
  8
AM_5 寸法線
100
AcDbDimension
  2
*D13
 10
1387.543434401052
 20
1822.716030466155
 30
0.0
 11
1355.043434401052
 21
2140.216030466155
 31
0.0
 70
    32
  1
%%c<>
 71
     5
 42
634.9999999999997
 73
     0
 74
     0
 75
     0
  3
SEISA$0
100
AcDbAlignedDimension
 13
1602.543434401052
 23
2457.716030466155
 33
0.0
 14
1602.543434401052
 24
1822.716030466155
 34
0.0
 50
90.0
100
AcDbRotatedDimension
1001
ACAD_DSTYLE_DIMINSPECT
1070
   396
1000
100%
1070
   395
1000

1070
   394
1070
    33
1070
   393
1070
     0
  0
DIMENSION
  5
58D4
102
{ACAD_XDICTIONARY
360
58E1
102
}
102
{ACAD_REACTORS
330
58EB
102
}
330
1F
100
AcDbEntity
  8
AM_5 寸法線
100
AcDbDimension
  2
*D14
 10
1587.543434401052
 20
2180.171756467231
 30
0.0
 11
1787.543434401052
 21
2212.67175646723
 31
0.0
 70
    32
 71
     5
 42
400.0
 73
     0
 74
     0
 75
     0
  3
SEISA$0
100
AcDbAlignedDimension
 13
1987.543434401052
 23
2140.216030466155
 33
0.0
 14
1587.543434401052
 24
2140.216030466155
 34
0.0
100
AcDbRotatedDimension
  0
DIMENSION
  5
58EC
102
{ACAD_XDICTIONARY
360
58FB
102
}
102
{ACAD_REACTORS
330
5907
102
}
330
1F
100
AcDbEntity
  8
AM_5 寸法線
100
AcDbDimension
  2
*D15
 10
1987.543434401052
 20
2180.171756467231
 30
0.0
 11
1941.697971698867
 21
2217.518986020002
 31
0.0
 70
   160
 71
     5
 42
32.0
 73
     0
 74
     0
 75
     0
  3
SEISA$0
100
AcDbAlignedDimension
 13
2019.543434401052
 23
2140.216030466155
 33
0.0
 14
1987.543434401052
 24
2140.216030466155
 34
0.0
100
AcDbRotatedDimension
1001
ACAD
1000
DSTYLE
1002
{
1070
   279
1070
     2
1002
}
  0
DIMENSION
  5
5908
102
{ACAD_XDICTIONARY
360
5915
102
}
102
{ACAD_REACTORS
330
591F
102
}
330
1F
100
AcDbEntity
  8
AM_5 寸法線
100
AcDbDimension
  2
*D16
 10
2419.543434401052
 20
2180.171756467231
 30
0.0
 11
2340.666908997585
 21
2214.49474894759
 31
0.0
 70
   160
 71
     5
 42
400.0
 73
     0
 74
     0
 75
     0
  3
SEISA$0
100
AcDbAlignedDimension
 13
2019.543434401052
 23
2140.216030466155
 33
0.0
 14
2419.543434401052
 24
2140.216030466155
 34
0.0
100
AcDbRotatedDimension
1001
ACAD
1000
DSTYLE
1002
{
1070
   279
1070
     2
1002
}
  0
DIMENSION
  5
5964
102
{ACAD_XDICTIONARY
360
5973
102
}
102
{ACAD_REACTORS
330
597F
330
81C5
102
}
330
1F
100
AcDbEntity
  8
AM_5 寸法線
100
AcDbDimension
  2
*D17
 10
2237.043434401052
 20
2341.122660869149
 30
0.0
 11
2344.543434401052
 21
2341.122660869149
 31
0.0
 70
   160
 71
     5
 42
9.5
 73
     0
 74
     0
 75
     0
  3
SEISA$0
100
AcDbAlignedDimension
 13
2246.543434401052
 23
2425.216030466155
 33
0.0
 14
2237.043434401052
 24
2425.716030466155
 34
0.0
100
AcDbRotatedDimension
  0
DIMENSION
  5
5A48
102
{ACAD_XDICTIONARY
360
5A55
102
}
102
{ACAD_REACTORS
330
5A5F
102
}
330
1F
100
AcDbEntity
  8
AM_5 寸法線
100
AcDbDimension
  2
*D18
 10
2619.543434401052
 20
1855.216030466154
 30
0.0
 11
2587.043434401052
 21
2140.216030466156
 31
0.0
 70
    32
  1
%%c<>
 71
     5
 42
570.0000000000003
 73
     0
 74
     0
 75
     0
  3
SEISA$0
100
AcDbAlignedDimension
 13
2302.543434401052
 23
2425.216030466155
 33
0.0
 14
2302.543434401052
 24
1855.216030466155
 34
0.0
 50
90.0
100
AcDbRotatedDimension
1001
ACAD_DSTYLE_DIMINSPECT
1070
   396
1000
100%
1070
   395
1000

1070
   394
1070
    33
1070
   393
1070
     0
  0
DIMENSION
  5
5A69
102
{ACAD_XDICTIONARY
360
5A76
102
}
102
{ACAD_REACTORS
330
5A80
102
}
330
1F
100
AcDbEntity
  8
AM_5 寸法線
100
AcDbDimension
  2
*D19
 10
2699.543434401052
 20
1795.216030466155
 30
0.0
 11
2667.043434401052
 21
2140.216030466156
 31
0.0
 70
    32
  1
%%c<>
 71
     5
 42
690.0000000000003
 73
     0
 74
     0
 75
     0
  3
SEISA$0
100
AcDbAlignedDimension
 13
2270.543434401052
 23
2485.216030466155
 33
0.0
 14
2270.543434401052
 24
1795.216030466155
 34
0.0
 50
90.0
100
AcDbRotatedDimension
1001
ACAD_DSTYLE_DIMINSPECT
1070
   396
1000
100%
1070
   395
1000

1070
   394
1070
    33
1070
   393
1070
     0
  0
DIMENSION
  5
5A81
102
{ACAD_XDICTIONARY
360
5A8E
102
}
102
{ACAD_REACTORS
330
5A98
102
}
330
1F
100
AcDbEntity
  8
AM_5 寸法線
100
AcDbDimension
  2
*D20
 10
2779.543434401052
 20
1740.216030466154
 30
0.0
 11
2747.043434401052
 21
2140.216030466156
 31
0.0
 70
    32
  1
%%c<>
 71
     5
 42
800.0000000000005
 73
     0
 74
     0
 75
     0
  3
SEISA$0
100
AcDbAlignedDimension
 13
2039.543434401052
 23
2540.216030466155
 33
0.0
 14
2039.543434401052
 24
1740.216030466154
 34
0.0
 50
90.0
100
AcDbRotatedDimension
1001
ACAD_DSTYLE_DIMINSPECT
1070
   396
1000
100%
1070
   395
1000

1070
   394
1070
    33
1070
   393
1070
     0
  0
DIMENSION
  5
5C19
102
{ACAD_XDICTIONARY
360
5C28
102
}
102
{ACAD_REACTORS
330
5C34
102
}
330
1F
100
AcDbEntity
  8
AM_5 寸法線
100
AcDbDimension
  2
*D21
 10
1965.543434401052
 20
1620.216030466155
 30
0.0
 11
1875.043434401051
 21
1620.216030466155
 31
0.0
 70
   160
 71
     5
 42
38.0
 73
     0
 74
     0
 75
     0
  3
SEISA$0
100
AcDbAlignedDimension
 13
2003.543434401052
 23
1742.216030466155
 33
0.0
 14
1965.543434401052
 24
1742.216030466155
 34
0.0
100
AcDbRotatedDimension
1001
ACAD_DSTYLE_DIMINSPECT
1070
   396
1000
100%
1070
   395
1000

1070
   394
1070
    33
1070
   393
1070
     0
1001
ACAD
1000
DSTYLE
1002
{
1070
   173
1070
     1
1070
   342
1005
0
1070
   343
1005
3BAC
1070
   344
1005
69
1002
}
  0
DIMENSION
  5
5C35
102
{ACAD_XDICTIONARY
360
5C44
102
}
102
{ACAD_REACTORS
330
5C50
102
}
330
1F
100
AcDbEntity
  8
AM_5 寸法線
100
AcDbDimension
  2
*D22
 10
2041.543434401052
 20
1620.216030466155
 30
0.0
 11
2132.043434401052
 21
1652.716030466154
 31
0.0
 70
    32
 71
     5
 42
38.0
 73
     0
 74
     0
 75
     0
  3
SEISA$0
100
AcDbAlignedDimension
 13
2003.543434401052
 23
1742.216030466155
 33
0.0
 14
2041.543434401052
 24
1742.216030466155
 34
0.0
100
AcDbRotatedDimension
1001
ACAD_DSTYLE_DIMINSPECT
1070
   396
1000
100%
1070
   395
1000

1070
   394
1070
    33
1070
   393
1070
     0
1001
ACAD
1000
DSTYLE
1002
{
1070
   173
1070
     1
1070
   342
1005
0
1070
   343
1005
3BAC
1070
   344
1005
69
1002
}
  0
DIMENSION
  5
5CB1
102
{ACAD_XDICTIONARY
360
5CBE
102
}
102
{ACAD_REACTORS
330
5CC8
102
}
330
1F
100
AcDbEntity
  8
AM_5 寸法線
100
AcDbDimension
  2
*D23
 10
1587.543434401052
 20
1540.216030466155
 30
0.0
 11
1795.543434401052
 21
1572.716030466154
 31
0.0
 70
    32
 71
     5
 42
416.0
 73
     0
 74
     0
 75
     0
  3
SEISA$0
100
AcDbAlignedDimension
 13
2003.543434401052
 23
1742.216030466155
 33
0.0
 14
1587.543434401052
 24
1837.716030466155
 34
0.0
100
AcDbRotatedDimension
1001
ACAD
1000
DSTYLE
1002
{
1070
   279
1070
     0
1002
}
  0
DIMENSION
  5
5CC9
102
{ACAD_XDICTIONARY
360
5CD6
102
}
102
{ACAD_REACTORS
330
5CE0
102
}
330
1F
100
AcDbEntity
  8
AM_5 寸法線
100
AcDbDimension
  2
*D24
 10
2270.543434401052
 20
1540.216030466155
 30
0.0
 11
2137.043434401052
 21
1572.716030466154
 31
0.0
 70
    32
 71
     5
 42
267.0
 73
     0
 74
     0
 75
     0
  3
SEISA$0
100
AcDbAlignedDimension
 13
2003.543434401052
 23
1742.216030466155
 33
0.0
 14
2270.543434401052
 24
1795.216030466155
 34
0.0
100
AcDbRotatedDimension
  0
DIMENSION
  5
5CE1
102
{ACAD_XDICTIONARY
360
5CEE
102
}
102
{ACAD_REACTORS
330
5CF8
102
}
330
1F
100
AcDbEntity
  8
AM_5 寸法線
100
AcDbDimension
  2
*D25
 10
2419.543434401052
 20
1540.216030466155
 30
0.0
 11
2345.043434401052
 21
1572.716030466154
 31
0.0
 70
    32
 71
     5
 42
149.0
 73
     0
 74
     0
 75
     0
  3
SEISA$0
100
AcDbAlignedDimension
 13
2270.543434401052
 23
1795.216030466155
 33
0.0
 14
2419.543434401052
 24
1871.716030466155
 34
0.0
100
AcDbRotatedDimension
  0
DIMENSION
  5
5CF9
102
{ACAD_XDICTIONARY
360
5D06
102
}
102
{ACAD_REACTORS
330
5D10
102
}
330
1F
100
AcDbEntity
  8
AM_5 寸法線
100
AcDbDimension
  2
*D26
 10
1587.543434401052
 20
1460.216030466155
 30
0.0
 11
2003.543434401052
 21
1460.216030466155
 31
0.0
 70
   160
 71
     5
 42
832.0
 73
     0
 74
     0
 75
     0
  3
SEISA$0
100
AcDbAlignedDimension
 13
2419.543434401052
 23
1871.716030466155
 33
0.0
 14
1587.543434401052
 24
1837.716030466155
 34
0.0
100
AcDbRotatedDimension
1001
ACAD
1000
DSTYLE
1002
{
1070
   279
1070
     0
1002
}
  0
MTEXT
  5
8044
330
1F
100
AcDbEntity
  8
AM_6 文字
100
AcDbMText
 10
2528.086427107377
 20
1666.851163461965
 30
0.0
 40
35.0
 41
899.3875986813076
 46
85.32329403610701
 71
     1
 72
     5
  1
{\W0.6;TYPE:CEM800/CEMH800\PSHAFT DIA:MAX/MIN \P RIGID SIDE φ450/φ280\P COUPLING CENTER SIDE φ405/φ280}
  7
SEISA
 73
     1
 44
1.0
  0
DIMENSION
  5
807D
102
{ACAD_XDICTIONARY
360
808A
102
}
102
{ACAD_REACTORS
330
808B
102
}
330
1F
100
AcDbEntity
  8
AM_5 寸法線
100
AcDbDimension
  2
*D27
 10
2509.543434401052
 20
2635.216031466155
 30
0.0
 11
2464.543434401052
 21
2667.716031466155
 31
0.0
 70
    32
 71
     5
 42
90.0
 73
     0
 74
     0
 75
     0
  3
SEISA$0
100
AcDbAlignedDimension
 13
2419.543434401052
 23
2408.716030466155
 33
0.0
 14
2509.543434401052
 24
2485.216030466155
 34
0.0
100
AcDbRotatedDimension
1001
ACAD_DSTYLE_DIMINSPECT
1070
   396
1000
100%
1070
   395
1000

1070
   394
1070
    33
1070
   393
1070
     0
  0
DIMENSION
  5
8174
102
{ACAD_XDICTIONARY
360
8182
102
}
102
{ACAD_REACTORS
330
8183
102
}
330
1F
100
AcDbEntity
  8
AM_5 寸法線
100
AcDbDimension
  2
*D28
 10
2121.043434401052
 20
2341.122660869149
 30
0.0
 11
2091.665783219364
 21
2229.475073833216
 31
0.0
 70
   160
 71
     5
 42
101.5
 73
     0
 74
     0
 75
     0
  3
SEISA$0
100
AcDbAlignedDimension
 13
2019.543434401052
 23
2423.216030466155
 33
0.0
 14
2121.043434401052
 24
2425.716030466155
 34
0.0
 50
0.0000000000001132
100
AcDbRotatedDimension
1001
ACAD_DSTYLE_DIMINSPECT
1070
   396
1000
100%
1070
   395
1000

1070
   394
1070
    33
1070
   393
1070
     0
1001
ACAD
1000
DSTYLE
1002
{
1070
   279
1070
     1
1002
}
  0
DIMENSION
  5
81B7
102
{ACAD_XDICTIONARY
360
81C4
102
}
102
{ACAD_REACTORS
330
81C5
102
}
330
1F
100
AcDbEntity
  8
AM_5 寸法線
100
AcDbDimension
  2
*D29
 10
2237.043434401052
 20
2341.122660869149
 30
0.0
 11
2179.043434401052
 21
2373.622660869148
 31
0.0
 70
    32
 71
     5
 42
116.0
 73
     0
 74
     0
 75
     0
  3
SEISA$0
100
AcDbAlignedDimension
 13
2121.043434401052
 23
2425.716030466155
 33
0.0
 14
2237.043434401052
 24
2425.716030466155
 34
0.0
 50
0.0000000000001132
100
AcDbRotatedDimension
1001
ACAD_DSTYLE_DIMINSPECT
1070
   396
1000
100%
1070
   395
1000

1070
   394
1070
    33
1070
   393
1070
     0
  0
INSERT
  5
8356
330
1F
100
AcDbEntity
  8
AM_0 外形線1
100
AcDbBlockReference
  2
GCｻｲﾄﾞｶﾊﾞｰ　CEM800
 10
2509.543434401052
 20
2485.216030466155
 30
0.0
  0
ENDSEC
  0
SECTION
  2
OBJECTS
  0
DICTIONARY
  5
C
330
0
100
AcDbDictionary
281
     1
  3
ACAD_COLOR
350
C5
  3
ACAD_GROUP
350
D
  3
ACAD_LAYOUT
350
1A
  3
ACAD_MATERIAL
350
C4
  3
ACAD_MLEADERSTYLE
350
2D5
  3
ACAD_MLINESTYLE
350
17
  3
ACAD_PLOTSETTINGS
350
19
  3
ACAD_PLOTSTYLENAME
350
E
  3
ACAD_SCALELIST
350
2B3
  3
ACAD_TABLESTYLE
350
121
  3
ACAD_VISUALSTYLE
350
27F
  3
ACDB_RECOMPOSE_DATA
350
2F7
  3
AcDbVariableDictionary
350
34
  3
AcmDictionary
350
49
  3
AMG
350
2B
  3
AMGSNAPSETTINGS
350
1DE
  0
DICTIONARY
  5
BF
330
2
100
AcDbDictionary
280
     1
281
     1
  3
ACAD_LAYERSTATES
360
70DB
  3
AMLAYER_GROUPCOLORS
360
C0
  0
DICTIONARY
  5
29F7
330
10
100
AcDbDictionary
280
     1
281
     1
  3
ADSK_XREC_LAYER_RECONCILED
360
29F8
  0
DICTIONARY
  5
29F9
330
81
100
AcDbDictionary
280
     1
281
     1
  3
ADSK_XREC_LAYER_RECONCILED
360
29FA
  0
DICTIONARY
  5
82
330
1F
100
AcDbDictionary
280
     1
281
     1
  3
ACAD_SORTENTS
360
A41
  0
DICTIONARY
  5
663F
330
4D80
100
AcDbDictionary
280
     1
281
     1
  3
ACAD_SORTENTS
360
799E
  0
DICTIONARY
  5
4ECD
330
4E13
100
AcDbDictionary
280
     1
281
     1
  3
ACAD_SORTENTS
360
78A3
  0
DICTIONARY
  5
4FD8
330
4F36
100
AcDbDictionary
280
     1
281
     1
  3
ACAD_SORTENTS
360
8173
  0
DICTIONARY
  5
50C4
330
5035
100
AcDbDictionary
280
     1
281
     1
  3
ACAD_SORTENTS
360
82AB
  0
DICTIONARY
  5
52AA
330
5205
100
AcDbDictionary
280
     1
281
     1
  3
ACAD_SORTENTS
360
72CF
  0
DICTIONARY
  5
53C9
330
532F
100
AcDbDictionary
280
     1
281
     1
  3
ACAD_SORTENTS
360
763D
  0
DICTIONARY
  5
58AE
330
58A1
100
AcDbDictionary
280
     1
281
     1
  3
ACAD_DIMASSOC
360
58B8
  0
DICTIONARY
  5
58E1
330
58D4
100
AcDbDictionary
280
     1
281
     1
  3
ACAD_DIMASSOC
360
58EB
  0
DICTIONARY
  5
58FB
330
58EC
100
AcDbDictionary
280
     1
281
     1
  3
ACAD_DIMASSOC
360
5907
  0
DICTIONARY
  5
5915
330
5908
100
AcDbDictionary
280
     1
281
     1
  3
ACAD_DIMASSOC
360
591F
  0
DICTIONARY
  5
5973
330
5964
100
AcDbDictionary
280
     1
281
     1
  3
ACAD_DIMASSOC
360
597F
  0
DICTIONARY
  5
5A55
330
5A48
100
AcDbDictionary
280
     1
281
     1
  3
ACAD_DIMASSOC
360
5A5F
  0
DICTIONARY
  5
5A76
330
5A69
100
AcDbDictionary
280
     1
281
     1
  3
ACAD_DIMASSOC
360
5A80
  0
DICTIONARY
  5
5A8E
330
5A81
100
AcDbDictionary
280
     1
281
     1
  3
ACAD_DIMASSOC
360
5A98
  0
DICTIONARY
  5
5C28
330
5C19
100
AcDbDictionary
280
     1
281
     1
  3
ACAD_DIMASSOC
360
5C34
  0
DICTIONARY
  5
5C44
330
5C35
100
AcDbDictionary
280
     1
281
     1
  3
ACAD_DIMASSOC
360
5C50
  0
DICTIONARY
  5
5CBE
330
5CB1
100
AcDbDictionary
280
     1
281
     1
  3
ACAD_DIMASSOC
360
5CC8
  0
DICTIONARY
  5
5CD6
330
5CC9
100
AcDbDictionary
280
     1
281
     1
  3
ACAD_DIMASSOC
360
5CE0
  0
DICTIONARY
  5
5CEE
330
5CE1
100
AcDbDictionary
280
     1
281
     1
  3
ACAD_DIMASSOC
360
5CF8
  0
DICTIONARY
  5
5D06
330
5CF9
100
AcDbDictionary
280
     1
281
     1
  3
ACAD_DIMASSOC
360
5D10
  0
DICTIONARY
  5
808A
330
807D
100
AcDbDictionary
280
     1
281
     1
  3
ACAD_DIMASSOC
360
808B
  0
DICTIONARY
  5
8182
330
8174
100
AcDbDictionary
280
     1
281
     1
  3
ACAD_DIMASSOC
360
8183
  0
DICTIONARY
  5
81C4
330
81B7
100
AcDbDictionary
280
     1
281
     1
  3
ACAD_DIMASSOC
360
81C5
  0
DICTIONARY
  5
C5
102
{ACAD_REACTORS
330
C
102
}
330
C
100
AcDbDictionary
281
     1
  0
DICTIONARY
  5
D
102
{ACAD_REACTORS
330
C
102
}
330
C
100
AcDbDictionary
281
     1
  0
DICTIONARY
  5
1A
102
{ACAD_REACTORS
330
C
102
}
330
C
100
AcDbDictionary
281
     1
  3
Model
350
22
  3
レイアウト1
350
1E
  3
レイアウト2
350
26
  0
DICTIONARY
  5
C4
102
{ACAD_REACTORS
330
C
102
}
330
C
100
AcDbDictionary
281
     1
  3
ByBlock
350
27D
  3
ByLayer
350
27C
  3
Global
350
27E
  0
DICTIONARY
  5
2D5
102
{ACAD_REACTORS
330
C
102
}
330
C
100
AcDbDictionary
281
     1
  3
Standard
350
2D6
  0
DICTIONARY
  5
17
102
{ACAD_REACTORS
330
C
102
}
330
C
100
AcDbDictionary
281
     1
  3
Standard
350
18
  0
DICTIONARY
  5
19
102
{ACAD_REACTORS
330
C
102
}
330
C
100
AcDbDictionary
281
     1
  3
SEISA基本
350
1C7E
  0
ACDBDICTIONARYWDFLT
  5
E
102
{ACAD_REACTORS
330
C
102
}
330
C
100
AcDbDictionary
281
     1
  3
Normal
350
F
100
AcDbDictionaryWithDefault
340
F
  0
DICTIONARY
  5
2B3
102
{ACAD_REACTORS
330
C
102
}
330
C
100
AcDbDictionary
281
     1
  3
*A1
350
70DA
  3
*A2
350
803B
  3
*A3
350
803C
  3
A0
350
2B4
  3
A1
350
2B5
  3
A2
350
2B6
  3
A3
350
2B7
  3
A4
350
2B8
  3
A5
350
2B9
  3
A6
350
2BA
  3
A7
350
2BB
  3
A8
350
2BC
  3
A9
350
2BD
  3
B0
350
2BE
  3
B1
350
2BF
  3
B2
350
2C0
  3
B3
350
2C1
  3
B4
350
2C2
  3
B5
350
2C3
  3
B6
350
2C4
  3
B7
350
2C5
  3
B8
350
2C6
  3
B9
350
2C7
  3
C0
350
2C8
  3
C1
350
2C9
  3
C2
350
2CA
  3
C3
350
2CB
  3
C4
350
2CC
  3
C5
350
2CD
  3
C6
350
2CE
  3
C7
350
2CF
  3
C8
350
2D0
  3
C9
350
2D1
  3
D0
350
2D2
  3
D1
350
2D3
  3
D2
350
2D4
  0
DICTIONARY
  5
121
102
{ACAD_REACTORS
330
C
102
}
330
C
100
AcDbDictionary
281
     1
  3
Standard
350
122
  0
DICTIONARY
  5
27F
102
{ACAD_REACTORS
330
C
102
}
330
C
100
AcDbDictionary
281
     1
  3
2dWireframe
350
285
  3
3D Hidden
350
287
  3
3dWireframe
350
286
  3
Basic
350
284
  3
Brighten
350
28B
  3
ColorChange
350
28F
  3
Conceptual
350
288
  3
Dim
350
28A
  3
Facepattern
350
28E
  3
Flat
350
280
  3
FlatWithEdges
350
281
  3
Gouraud
350
282
  3
GouraudWithEdges
350
283
  3
Linepattern
350
28D
  3
Realistic
350
289
  3
Thicken
350
28C
  0
XRECORD
  5
2F7
102
{ACAD_REACTORS
330
C
102
}
330
C
100
AcDbXrecord
280
     1
 90
        1
330
122
  0
DICTIONARY
  5
34
102
{ACAD_REACTORS
330
C
102
}
330
C
100
AcDbDictionary
281
     1
  3
CANNOSCALE
350
2FA
  3
CMLEADERSTYLE
350
2F8
  3
CTABLESTYLE
350
140
  3
DIMASSOC
350
AC
  3
INDEXCTL
350
35
  3
LAYEREVAL
350
672B
  3
LAYERNOTIFY
350
672C
  3
LIGHTINGUNITS
350
2FB
  3
MSLTSCALE
350
2F9
  0
DICTIONARY
  5
49
102
{ACAD_REACTORS
330
C
102
}
330
C
100
AcDbDictionary
281
     1
  3
AcmBOM
350
161B
  3
AcmStdDictionary
350
4A
  3
AMDTSECTSYM_ARROWCOLOR
350
12B
  0
DICTIONARY
  5
2B
102
{ACAD_REACTORS
330
C
102
}
330
C
100
AcDbDictionary
281
     1
  0
DICTIONARY
  5
1DE
102
{ACAD_REACTORS
330
C
102
}
330
C
100
AcDbDictionary
281
     1
  0
DICTIONARY
  5
70DB
102
{ACAD_REACTORS
330
BF
102
}
330
BF
100
AcDbDictionary
281
     1
  0
DICTIONARY
  5
C0
102
{ACAD_REACTORS
330
BF
102
}
330
BF
100
AcDbDictionary
280
     1
281
     1
  0
XRECORD
  5
29F8
102
{ACAD_REACTORS
330
29F7
102
}
330
29F7
100
AcDbXrecord
280
     1
290
     1
  0
XRECORD
  5
29FA
102
{ACAD_REACTORS
330
29F9
102
}
330
29F9
100
AcDbXrecord
280
     1
290
     1
  0
SORTENTSTABLE
  5
A41
102
{ACAD_REACTORS
330
82
102
}
330
82
100
AcDbSortentsTable
330
1F
331
5231
  5
5494
331
44D6
  5
44D6
331
5CF9
  5
5D19
331
5A48
  5
5A48
331
58EC
  5
58EC
331
58D4
  5
58D4
331
5A81
  5
5A81
331
4507
  5
4507
331
5C35
  5
5CB1
331
5A69
  5
5A69
331
4508
  5
4508
331
5360
  5
54BD
331
5065
  5
53FB
331
44D0
  5
44D0
331
4F69
  5
5360
331
5CE1
  5
5CF9
331
5CC9
  5
5CE1
331
44D2
  5
44D2
331
5908
  5
5908
331
5CB1
  5
5CC9
331
5964
  5
5964
331
8044
  5
8044
331
5C19
  5
5C35
331
58A1
  5
58A1
331
4E4D
  5
5233
  0
SORTENTSTABLE
  5
799E
102
{ACAD_REACTORS
330
663F
102
}
330
663F
100
AcDbSortentsTable
330
4D80
  0
SORTENTSTABLE
  5
78A3
102
{ACAD_REACTORS
330
4ECD
102
}
330
4ECD
100
AcDbSortentsTable
330
4E13
331
4E2C
  5
4E30
331
4E30
  5
4E34
331
4E34
  5
4E38
331
4ECB
  5
4E18
331
4E18
  5
4E1C
331
4E38
  5
4E3E
331
4E1C
  5
4E20
331
4E20
  5
4E24
331
4E4A
  5
4ECB
331
4E40
  5
4E46
331
4E24
  5
4E28
331
4EC7
  5
4E42
331
4E44
  5
4E4A
331
4E2B
  5
4E2F
331
4E2F
  5
4E33
331
4ECA
  5
4E17
331
4E33
  5
4E37
331
4E37
  5
4E3B
331
4E3B
  5
4E41
331
4E1B
  5
4E1F
331
4E49
  5
4ECA
331
4E3F
  5
4E45
331
4E1F
  5
4E23
331
4E43
  5
4E49
331
4E23
  5
4E27
331
4E2A
  5
4E2E
331
4E27
  5
4E2B
331
4E47
  5
4EC8
331
4E2E
  5
4E32
331
4E32
  5
4E36
331
4EC9
  5
4E16
331
4E36
  5
4E3A
331
4E1A
  5
4E1E
331
4E3A
  5
4E40
331
4E1E
  5
4E22
331
4E48
  5
4EC9
331
4E3E
  5
4E44
331
4E17
  5
4E1B
331
4E22
  5
4E26
331
4E4C
  5
4ECC
331
4E42
  5
4E48
331
4E29
  5
4E2D
331
4E26
  5
4E2A
331
4E46
  5
4EC7
331
4E2D
  5
4E31
331
4E31
  5
4E35
331
4EC8
  5
4E43
331
4ECC
  5
4E19
331
4E35
  5
4E39
331
4E19
  5
4E1D
331
4E39
  5
4E3F
331
4E16
  5
4E1A
331
4E1D
  5
4E21
331
4E41
  5
4E47
331
4E21
  5
4E25
331
4E25
  5
4E29
331
4E45
  5
4E4C
331
4E28
  5
4E2C
  0
SORTENTSTABLE
  5
8173
102
{ACAD_REACTORS
330
4FD8
102
}
330
4FD8
100
AcDbSortentsTable
330
4F36
331
4F52
  5
4F53
331
4F4A
  5
4F4B
331
4F5B
  5
4F5C
331
4F46
  5
4F47
331
4F57
  5
4F58
331
4FD5
  5
4FD6
331
4F4F
  5
4F52
331
4F60
  5
4F61
331
4F53
  5
4F54
331
4F4B
  5
4F4C
331
4F5C
  5
4F5D
331
4F47
  5
4F48
331
4F58
  5
4F59
331
4FD6
  5
4FD7
331
4F61
  5
4F62
331
4F54
  5
4F55
331
4F4C
  5
4F4D
331
4F5D
  5
4F5E
331
4F48
  5
4F49
331
4F59
  5
4F5A
331
4FD7
  5
4F46
331
4F68
  5
4FD3
331
4F62
  5
4F63
331
4F55
  5
4F56
331
4FD3
  5
4FD4
331
4F4D
  5
4F4E
331
4F5E
  5
4F5F
331
4F67
  5
4F68
331
4F49
  5
4F4A
331
4F5A
  5
4F5B
331
4F63
  5
4F67
331
4F56
  5
4F57
331
4FD4
  5
4FD5
331
4F4E
  5
4F4F
331
4F5F
  5
4F60
  0
SORTENTSTABLE
  5
82AB
102
{ACAD_REACTORS
330
50C4
102
}
330
50C4
100
AcDbSortentsTable
330
5035
331
5055
  5
5057
331
505A
  5
505C
331
5044
  5
5046
331
503F
  5
5041
331
5049
  5
504B
331
503A
  5
503C
331
5051
  5
5053
331
503B
  5
503D
331
5040
  5
5042
331
505B
  5
505D
331
504A
  5
504C
331
5060
  5
810B
331
5045
  5
5047
331
5056
  5
5058
331
504F
  5
5052
331
5052
  5
5054
331
5057
  5
5059
331
505C
  5
505E
331
5046
  5
5048
331
5041
  5
5043
331
504B
  5
504D
331
503C
  5
503E
331
5053
  5
5055
331
503D
  5
503F
331
5038
  5
503A
331
5042
  5
5044
331
505D
  5
5060
331
810A
  5
5039
331
504C
  5
504F
331
5047
  5
5049
331
5058
  5
505A
331
5039
  5
503B
331
5054
  5
5056
331
5059
  5
505B
331
505E
  5
810A
331
5048
  5
504A
331
5043
  5
5045
331
810B
  5
5038
331
504D
  5
5051
331
503E
  5
5040
  0
SORTENTSTABLE
  5
72CF
102
{ACAD_REACTORS
330
52AA
102
}
330
52AA
100
AcDbSortentsTable
330
5205
  0
SORTENTSTABLE
  5
763D
102
{ACAD_REACTORS
330
53C9
102
}
330
53C9
100
AcDbSortentsTable
330
532F
331
533E
  5
5342
331
5351
  5
5355
331
533D
  5
5341
331
5350
  5
5354
331
533C
  5
5340
331
534F
  5
5353
331
533B
  5
533F
331
534E
  5
5352
331
533A
  5
533E
331
534D
  5
5351
331
5339
  5
533D
331
534C
  5
5350
331
5338
  5
533C
331
534B
  5
534F
331
5337
  5
533B
331
534A
  5
534E
331
5336
  5
533A
331
5349
  5
534D
331
5335
  5
5339
331
5348
  5
534C
331
53C8
  5
607D
331
5334
  5
5338
331
607D
  5
5335
331
5333
  5
5337
331
607C
  5
5334
331
5332
  5
5336
331
607B
  5
5333
331
535F
  5
607A
331
607A
  5
5332
331
535E
  5
53C8
331
535D
  5
53C6
331
535C
  5
53C5
331
535B
  5
535F
331
5347
  5
534B
331
53C6
  5
607C
331
535A
  5
535E
331
53C5
  5
607B
331
5346
  5
534A
331
5359
  5
535D
331
5345
  5
5349
331
5358
  5
535C
331
5344
  5
5348
331
5357
  5
535B
331
5343
  5
5347
331
5356
  5
535A
331
5342
  5
5346
331
5355
  5
5359
331
5341
  5
5345
331
5354
  5
5358
331
5340
  5
5344
331
5353
  5
5357
331
533F
  5
5343
331
5352
  5
5356
  0
DIMASSOC
  5
58B8
102
{ACAD_REACTORS
330
58AE
102
}
330
58AE
100
AcDbDimAssoc
330
58A1
 90
        3
 70
     0
 71
     0
  1
AcDbOsnapPointRef
 72
    13
331
4F69
331
4F5A
 73
     2
 91
        0
 40
0.0
 10
0.0
 20
0.0
 30
2.000000000000000E+50
 75
     0
  1
AcDbOsnapPointRef
 72
     8
331
4F69
331
4F5E
 73
     2
 91
        0
 40
1.0
 10
0.0
 20
0.0
 30
0.0
 75
     1
  1
AcDbOsnapPointRef
 72
    13
331
4F69
331
4F5A
 73
     2
 91
        0
 40
0.0
 10
0.0
 20
0.0
 30
2.000000000000000E+50
 75
     0
  0
DIMASSOC
  5
58EB
102
{ACAD_REACTORS
330
58E1
102
}
330
58E1
100
AcDbDimAssoc
330
58D4
 90
        3
 70
     0
 71
     0
  1
AcDbOsnapPointRef
 72
     1
331
4F69
331
4FD7
 73
     2
 91
        0
 40
1.0
 10
0.0
 20
0.0
 30
2.000000000000000E+50
 75
     0
  1
AcDbOsnapPointRef
 72
     2
331
4F69
331
4F39
 73
     2
 91
        0
 40
0.5
 10
0.0
 20
0.0
 30
0.0
 75
     0
  0
DIMASSOC
  5
5907
102
{ACAD_REACTORS
330
58FB
102
}
330
58FB
100
AcDbDimAssoc
330
58EC
 90
        3
 70
     0
 71
     0
  1
AcDbOsnapPointRef
 72
     1
331
5065
331
5039
 73
     2
 91
        0
 40
1.0
 10
0.0
 20
0.0
 30
2.000000000000000E+50
 75
     0
  1
AcDbOsnapPointRef
 72
     1
331
4F69
331
4FD7
 73
     2
 91
        0
 40
1.0
 10
0.0
 20
0.0
 30
2.000000000000000E+50
 75
     0
  0
DIMASSOC
  5
591F
102
{ACAD_REACTORS
330
5915
102
}
330
5915
100
AcDbDimAssoc
330
5908
 90
        1
 70
     0
 71
     0
  1
AcDbOsnapPointRef
 72
     1
331
5065
331
5039
 73
     2
 91
        0
 40
1.0
 10
0.0
 20
0.0
 30
2.000000000000000E+50
 75
     0
  0
DIMASSOC
  5
597F
102
{ACAD_REACTORS
330
5973
102
}
330
5973
100
AcDbDimAssoc
330
5964
 90
        3
 70
     0
 71
     0
  1
AcDbOsnapPointRef
 72
     1
331
5360
331
534D
 73
     2
 91
        0
 40
1.0
 10
0.0
 20
0.0
 30
2.000000000000000E+50
 75
     0
  1
AcDbOsnapPointRef
 72
    13
331
5065
331
505B
 73
     2
 91
        0
 40
0.0
 10
0.0
 20
0.0
 30
2.000000000000000E+50
 75
     0
  0
DIMASSOC
  5
5A5F
102
{ACAD_REACTORS
330
5A55
102
}
330
5A55
100
AcDbDimAssoc
330
5A48
 90
        3
 70
     0
 71
     0
  1
AcDbOsnapPointRef
 72
    13
331
5065
331
5059
 73
     2
 91
        0
 40
0.0
 10
0.0
 20
0.0
 30
2.000000000000000E+50
 75
     0
  1
AcDbOsnapPointRef
 72
    13
331
5065
331
5042
 73
     2
 91
        0
 40
0.0
 10
0.0
 20
0.0
 30
2.000000000000000E+50
 75
     0
  0
DIMASSOC
  5
5A80
102
{ACAD_REACTORS
330
5A76
102
}
330
5A76
100
AcDbDimAssoc
330
5A69
 90
        3
 70
     0
 71
     0
  1
AcDbOsnapPointRef
 72
    13
331
5360
331
533B
 73
     2
 91
        0
 40
0.0
 10
0.0
 20
0.0
 30
2.000000000000000E+50
 75
     0
  1
AcDbOsnapPointRef
 72
    13
331
5360
331
5333
 73
     2
 91
        0
 40
0.0
 10
0.0
 20
0.0
 30
2.000000000000000E+50
 75
     0
  0
DIMASSOC
  5
5A98
102
{ACAD_REACTORS
330
5A8E
102
}
330
5A8E
100
AcDbDimAssoc
330
5A81
 90
        3
 70
     0
 71
     0
  1
AcDbOsnapPointRef
 72
     1
331
4E4D
331
4E40
 73
     2
 91
        0
 40
1.0
 10
0.0
 20
0.0
 30
2.000000000000000E+50
 75
     0
  1
AcDbOsnapPointRef
 72
     1
331
4E4D
331
4E18
 73
     2
 91
        0
 40
1.0
 10
0.0
 20
0.0
 30
2.000000000000000E+50
 75
     0
  0
DIMASSOC
  5
5C34
102
{ACAD_REACTORS
330
5C28
102
}
330
5C28
100
AcDbDimAssoc
330
5C19
 90
        3
 70
     0
 71
     0
  1
AcDbOsnapPointRef
 72
    13
331
4F69
331
4F44
 73
     2
 91
        0
 40
0.0
 10
0.0
 20
0.0
 30
2.000000000000000E+50
 75
     0
  1
AcDbOsnapPointRef
 72
    13
331
4F69
331
4F40
 73
     2
 91
        0
 40
0.0
 10
0.0
 20
0.0
 30
2.000000000000000E+50
 75
     0
  0
DIMASSOC
  5
5C50
102
{ACAD_REACTORS
330
5C44
102
}
330
5C44
100
AcDbDimAssoc
330
5C35
 90
        3
 70
     0
 71
     0
  1
AcDbOsnapPointRef
 72
    13
331
4F69
331
4F44
 73
     2
 91
        0
 40
0.0
 10
0.0
 20
0.0
 30
2.000000000000000E+50
 75
     0
  1
AcDbOsnapPointRef
 72
    13
331
4E4D
331
4E17
 73
     2
 91
        0
 40
0.0
 10
0.0
 20
0.0
 30
2.000000000000000E+50
 75
     0
  0
DIMASSOC
  5
5CC8
102
{ACAD_REACTORS
330
5CBE
102
}
330
5CBE
100
AcDbDimAssoc
330
5CB1
 90
        3
 70
     0
 71
     0
  1
AcDbOsnapPointRef
 72
    13
331
4F69
331
4F44
 73
     2
 91
        0
 40
0.0
 10
0.0
 20
0.0
 30
2.000000000000000E+50
 75
     0
  1
AcDbOsnapPointRef
 72
    13
331
4F69
331
4F39
 73
     2
 91
        0
 40
0.0
 10
0.0
 20
0.0
 30
2.000000000000000E+50
 75
     0
  0
DIMASSOC
  5
5CE0
102
{ACAD_REACTORS
330
5CD6
102
}
330
5CD6
100
AcDbDimAssoc
330
5CC9
 90
        3
 70
     0
 71
     0
  1
AcDbOsnapPointRef
 72
    13
331
4F69
331
4F44
 73
     2
 91
        0
 40
0.0
 10
0.0
 20
0.0
 30
2.000000000000000E+50
 75
     0
  1
AcDbOsnapPointRef
 72
    13
331
5360
331
5333
 73
     2
 91
        0
 40
0.0
 10
0.0
 20
0.0
 30
2.000000000000000E+50
 75
     0
  0
DIMASSOC
  5
5CF8
102
{ACAD_REACTORS
330
5CEE
102
}
330
5CEE
100
AcDbDimAssoc
330
5CE1
 90
        3
 70
     0
 71
     0
  1
AcDbOsnapPointRef
 72
    13
331
5360
331
5333
 73
     2
 91
        0
 40
0.0
 10
0.0
 20
0.0
 30
2.000000000000000E+50
 75
     0
  1
AcDbOsnapPointRef
 72
    13
331
5065
331
5038
 73
     2
 91
        0
 40
0.0
 10
0.0
 20
0.0
 30
2.000000000000000E+50
 75
     0
  0
DIMASSOC
  5
5D10
102
{ACAD_REACTORS
330
5D06
102
}
330
5D06
100
AcDbDimAssoc
330
5CF9
 90
        3
 70
     0
 71
     0
  1
AcDbOsnapPointRef
 72
    13
331
5065
331
5038
 73
     2
 91
        0
 40
0.0
 10
0.0
 20
0.0
 30
2.000000000000000E+50
 75
     0
  1
AcDbOsnapPointRef
 72
    13
331
4F69
331
4F39
 73
     2
 91
        0
 40
0.0
 10
0.0
 20
0.0
 30
2.000000000000000E+50
 75
     0
  0
DIMASSOC
  5
808B
102
{ACAD_REACTORS
330
808A
102
}
330
808A
100
AcDbDimAssoc
330
807D
 90
        1
 70
     0
 71
     0
  1
AcDbOsnapPointRef
 72
     1
331
5065
331
5038
 73
     0
 91
        0
 40
0.0
 10
0.0
 20
0.0
 30
2.000000000000000E+50
 75
     0
  0
DIMASSOC
  5
8183
102
{ACAD_REACTORS
330
8182
102
}
330
8182
100
AcDbDimAssoc
330
8174
 90
        3
 70
     0
 71
     0
  1
AcDbOsnapPointRef
 72
    13
331
5065
331
5052
 73
     0
 91
        0
 40
0.0
 10
0.0
 20
0.0
 30
2.000000000000000E+50
 75
     0
  1
AcDbOsnapPointRef
 72
     1
331
5065
331
5054
 73
     0
 91
        0
 40
0.0
 10
0.0
 20
0.0
 30
2.000000000000000E+50
 75
     0
  0
DIMASSOC
  5
81C5
102
{ACAD_REACTORS
330
81C4
102
}
330
81C4
100
AcDbDimAssoc
330
81B7
 90
        2
 70
     0
 71
     0
  1
AcDbOsnapPointRef
 72
     4
331
5964
331
6B38
 73
     0
 91
        0
 40
0.0
 10
0.0
 20
0.0
 30
0.0
 75
     0
  0
LAYOUT
  5
22
102
{ACAD_REACTORS
330
1A
102
}
330
1A
100
AcDbPlotSettings
  1

  2
KONICA MINOLTA 501 PCL
  4
A4
  6

 40
5.027082920074462
 41
5.027085781097412
 42
5.027069091796875
 43
5.027069091796875
 44
209.9733276367186
 45
296.9259948730469
 46
-0.0000000000000142
 47
1.067608992353114
 48
0.0
 49
0.0
140
0.0
141
0.0
142
1.0
143
6.336968704162405
 70
 11956
 72
     1
 73
     1
 74
     1
  7
SEISA.ctb
 75
     0
147
0.1578041563221158
 76
     0
 77
     2
 78
   300
148
-1337.365735906374
149
-1418.381665092135
100
AcDbLayout
  1
Model
 70
     1
 71
     0
 10
0.0
 20
0.0
 11
12.0
 21
9.0
 12
0.0
 22
0.0
 32
0.0
 14
0.0
 24
0.0
 34
0.0
 15
0.0
 25
0.0
 35
0.0
146
0.0
 13
0.0
 23
0.0
 33
0.0
 16
1.0
 26
0.0
 36
0.0
 17
0.0
 27
1.0
 37
0.0
 76
     0
330
1F
331
27A
1001
ACAD_PSEXT
1000
KONICA MINOLTA 501 PCL
1000
KONICA MINOLTA 501/421/361PCL
1000
IP_192.168.20.231_(1)
1000

1070
     0
  0
LAYOUT
  5
1E
102
{ACAD_REACTORS
330
1A
102
}
330
1A
100
AcDbPlotSettings
  1

  2
none_device
  4
Letter_(8.50_x_11.00_Inches)
  6

 40
6.349999904632567
 41
6.349999904632567
 42
6.350006103515625
 43
6.350006103515625
 44
215.8999938964844
 45
279.3999938964844
 46
0.0
 47
0.0
 48
0.0
 49
0.0
140
0.0
141
0.0
142
1.0
143
1.0
 70
 15024
 72
     1
 73
     1
 74
     5
  7
SEISA.ctb
 75
    16
147
1.0
 76
     0
 77
     2
 78
   300
148
0.0
149
0.0
100
AcDbLayout
  1
レイアウト1
 70
     1
 71
     1
 10
0.0
 20
0.0
 11
420.0
 21
297.0
 12
0.0
 22
0.0
 32
0.0
 14
1.000000000000000E+20
 24
1.000000000000000E+20
 34
1.000000000000000E+20
 15
-1.000000000000000E+20
 25
-1.000000000000000E+20
 35
-1.000000000000000E+20
146
0.0
 13
0.0
 23
0.0
 33
0.0
 16
1.0
 26
0.0
 36
0.0
 17
0.0
 27
1.0
 37
0.0
 76
     0
330
1B
  0
LAYOUT
  5
26
102
{ACAD_REACTORS
330
1A
102
}
330
1A
100
AcDbPlotSettings
  1

  2
none_device
  4
Letter_(8.50_x_11.00_Inches)
  6

 40
6.349999904632567
 41
6.349999904632567
 42
6.350006103515625
 43
6.350006103515625
 44
215.8999938964844
 45
279.3999938964844
 46
0.0
 47
0.0
 48
0.0
 49
0.0
140
0.0
141
0.0
142
1.0
143
1.0
 70
 15024
 72
     1
 73
     1
 74
     5
  7
SEISA.ctb
 75
    16
147
1.0
 76
     0
 77
     2
 78
   300
148
0.0
149
0.0
100
AcDbLayout
  1
レイアウト2
 70
     1
 71
     2
 10
0.0
 20
0.0
 11
12.0
 21
9.0
 12
0.0
 22
0.0
 32
0.0
 14
0.0
 24
0.0
 34
0.0
 15
0.0
 25
0.0
 35
0.0
146
0.0
 13
0.0
 23
0.0
 33
0.0
 16
1.0
 26
0.0
 36
0.0
 17
0.0
 27
1.0
 37
0.0
 76
     0
330
23
  0
MATERIAL
  5
27D
102
{ACAD_REACTORS
330
C4
102
}
330
C4
100
AcDbMaterial
  1
ByBlock
 73
     1
 78
     1
172
     1
176
     1
270
     1
274
     1
 94
       63
  0
MATERIAL
  5
27C
102
{ACAD_REACTORS
330
C4
102
}
330
C4
100
AcDbMaterial
  1
ByLayer
 73
     1
 78
     1
172
     1
176
     1
270
     1
274
     1
 94
       63
  0
MATERIAL
  5
27E
102
{ACAD_REACTORS
330
C4
102
}
330
C4
100
AcDbMaterial
  1
Global
 73
     1
 78
     1
172
     1
176
     1
270
     1
274
     1
 94
       63
  0
MLEADERSTYLE
  5
2D6
102
{ACAD_REACTORS
330
2D5
102
}
330
2D5
100
AcDbMLeaderStyle
170
     2
171
     1
172
     0
 90
        2
 40
0.0
 41
0.0
173
     1
 91
-1056964608
340
14
 92
       -2
290
     1
 42
2.0
291
     1
 43
0.36
  3
Standard
 44
4.0
300

342
11
174
     1
178
     6
175
     1
176
     0
 93
-1056964608
 45
4.0
292
     0
297
     0
 46
4.0
 94
-1056964608
 47
1.0
 49
1.0
140
1.0
293
     1
141
0.0
294
     1
177
     0
142
1.0
295
     0
296
     0
143
0.125
1001
ACAD_MLEADERVER
1070
     2
  0
MLINESTYLE
  5
18
102
{ACAD_REACTORS
330
17
102
}
330
17
100
AcDbMlineStyle
  2
STANDARD
 70
     0
  3

 62
   256
 51
90.0
 52
90.0
 71
     2
 49
0.5
 62
   256
  6
BYLAYER
 49
-0.5
 62
   256
  6
BYLAYER
  0
PLOTSETTINGS
  5
1C7E
102
{ACAD_REACTORS
330
19
102
}
330
19
100
AcDbPlotSettings
  1
SEISA基本
  2
none_device
  4
Letter_(8.50_x_11.00_Inches)
  6

 40
6.349999904632567
 41
6.349999904632567
 42
6.350006103515625
 43
6.350006103515625
 44
215.8999938964844
 45
279.3999938964844
 46
7.302498226506357
 47
0.0
 48
0.0
 49
0.0
140
0.0
141
0.0
142
1.0
143
1.574803221122935
 70
 11956
 72
     1
 73
     1
 74
     2
  7
SEISA.ctb
 75
     0
147
0.6349999711627054
 76
     0
 77
     2
 78
   300
148
0.0
149
0.0
1001
ACAD_PSEXT
1000
なし
1000
なし
1000
適切ではありません
1000
新しいプロッタ環境設定名を選択しない限り、レイアウトは印刷されません。
1070
     0
  0
ACDBPLACEHOLDER
  5
F
102
{ACAD_REACTORS
330
E
102
}
330
E
  0
SCALE
  5
70DA
102
{ACAD_REACTORS
330
2B3
102
}
330
2B3
100
AcDbScale
 70
     0
300
1:3
140
1.0
141
3.0
290
     0
  0
SCALE
  5
803B
102
{ACAD_REACTORS
330
2B3
102
}
330
2B3
100
AcDbScale
 70
     0
300
1:2.5
140
1.0
141
2.5
290
     0
  0
SCALE
  5
803C
102
{ACAD_REACTORS
330
2B3
102
}
330
2B3
100
AcDbScale
 70
     0
300
1:1.5
140
1.0
141
1.5
290
     0
  0
SCALE
  5
2B4
102
{ACAD_REACTORS
330
2B3
102
}
330
2B3
100
AcDbScale
 70
     0
300
1:1
140
1.0
141
1.0
290
     1
  0
SCALE
  5
2B5
102
{ACAD_REACTORS
330
2B3
102
}
330
2B3
100
AcDbScale
 70
     0
300
1:2
140
1.0
141
2.0
290
     0
  0
SCALE
  5
2B6
102
{ACAD_REACTORS
330
2B3
102
}
330
2B3
100
AcDbScale
 70
     0
300
1:4
140
1.0
141
4.0
290
     0
  0
SCALE
  5
2B7
102
{ACAD_REACTORS
330
2B3
102
}
330
2B3
100
AcDbScale
 70
     0
300
1:5
140
1.0
141
5.0
290
     0
  0
SCALE
  5
2B8
102
{ACAD_REACTORS
330
2B3
102
}
330
2B3
100
AcDbScale
 70
     0
300
1:8
140
1.0
141
8.0
290
     0
  0
SCALE
  5
2B9
102
{ACAD_REACTORS
330
2B3
102
}
330
2B3
100
AcDbScale
 70
     0
300
1:10
140
1.0
141
10.0
290
     0
  0
SCALE
  5
2BA
102
{ACAD_REACTORS
330
2B3
102
}
330
2B3
100
AcDbScale
 70
     0
300
1:16
140
1.0
141
16.0
290
     0
  0
SCALE
  5
2BB
102
{ACAD_REACTORS
330
2B3
102
}
330
2B3
100
AcDbScale
 70
     0
300
1:20
140
1.0
141
20.0
290
     0
  0
SCALE
  5
2BC
102
{ACAD_REACTORS
330
2B3
102
}
330
2B3
100
AcDbScale
 70
     0
300
1:30
140
1.0
141
30.0
290
     0
  0
SCALE
  5
2BD
102
{ACAD_REACTORS
330
2B3
102
}
330
2B3
100
AcDbScale
 70
     0
300
1:40
140
1.0
141
40.0
290
     0
  0
SCALE
  5
2BE
102
{ACAD_REACTORS
330
2B3
102
}
330
2B3
100
AcDbScale
 70
     0
300
1:50
140
1.0
141
50.0
290
     0
  0
SCALE
  5
2BF
102
{ACAD_REACTORS
330
2B3
102
}
330
2B3
100
AcDbScale
 70
     0
300
1:100
140
1.0
141
100.0
290
     0
  0
SCALE
  5
2C0
102
{ACAD_REACTORS
330
2B3
102
}
330
2B3
100
AcDbScale
 70
     0
300
2:1
140
2.0
141
1.0
290
     0
  0
SCALE
  5
2C1
102
{ACAD_REACTORS
330
2B3
102
}
330
2B3
100
AcDbScale
 70
     0
300
4:1
140
4.0
141
1.0
290
     0
  0
SCALE
  5
2C2
102
{ACAD_REACTORS
330
2B3
102
}
330
2B3
100
AcDbScale
 70
     0
300
8:1
140
8.0
141
1.0
290
     0
  0
SCALE
  5
2C3
102
{ACAD_REACTORS
330
2B3
102
}
330
2B3
100
AcDbScale
 70
     0
300
10:1
140
10.0
141
1.0
290
     0
  0
SCALE
  5
2C4
102
{ACAD_REACTORS
330
2B3
102
}
330
2B3
100
AcDbScale
 70
     0
300
100:1
140
100.0
141
1.0
290
     0
  0
SCALE
  5
2C5
102
{ACAD_REACTORS
330
2B3
102
}
330
2B3
100
AcDbScale
 70
     0
300
1/128" = 1'-0"
140
0.0078125
141
12.0
290
     0
  0
SCALE
  5
2C6
102
{ACAD_REACTORS
330
2B3
102
}
330
2B3
100
AcDbScale
 70
     0
300
1/64" = 1'-0"
140
0.015625
141
12.0
290
     0
  0
SCALE
  5
2C7
102
{ACAD_REACTORS
330
2B3
102
}
330
2B3
100
AcDbScale
 70
     0
300
1/32" = 1'-0"
140
0.03125
141
12.0
290
     0
  0
SCALE
  5
2C8
102
{ACAD_REACTORS
330
2B3
102
}
330
2B3
100
AcDbScale
 70
     0
300
1/16" = 1'-0"
140
0.0625
141
12.0
290
     0
  0
SCALE
  5
2C9
102
{ACAD_REACTORS
330
2B3
102
}
330
2B3
100
AcDbScale
 70
     0
300
3/32" = 1'-0"
140
0.09375
141
12.0
290
     0
  0
SCALE
  5
2CA
102
{ACAD_REACTORS
330
2B3
102
}
330
2B3
100
AcDbScale
 70
     0
300
1/8" = 1'-0"
140
0.125
141
12.0
290
     0
  0
SCALE
  5
2CB
102
{ACAD_REACTORS
330
2B3
102
}
330
2B3
100
AcDbScale
 70
     0
300
3/16" = 1'-0"
140
0.1875
141
12.0
290
     0
  0
SCALE
  5
2CC
102
{ACAD_REACTORS
330
2B3
102
}
330
2B3
100
AcDbScale
 70
     0
300
1/4" = 1'-0"
140
0.25
141
12.0
290
     0
  0
SCALE
  5
2CD
102
{ACAD_REACTORS
330
2B3
102
}
330
2B3
100
AcDbScale
 70
     0
300
3/8" = 1'-0"
140
0.375
141
12.0
290
     0
  0
SCALE
  5
2CE
102
{ACAD_REACTORS
330
2B3
102
}
330
2B3
100
AcDbScale
 70
     0
300
1/2" = 1'-0"
140
0.5
141
12.0
290
     0
  0
SCALE
  5
2CF
102
{ACAD_REACTORS
330
2B3
102
}
330
2B3
100
AcDbScale
 70
     0
300
3/4" = 1'-0"
140
0.75
141
12.0
290
     0
  0
SCALE
  5
2D0
102
{ACAD_REACTORS
330
2B3
102
}
330
2B3
100
AcDbScale
 70
     0
300
1" = 1'-0"
140
1.0
141
12.0
290
     0
  0
SCALE
  5
2D1
102
{ACAD_REACTORS
330
2B3
102
}
330
2B3
100
AcDbScale
 70
     0
300
1-1/2" = 1'-0"
140
1.5
141
12.0
290
     0
  0
SCALE
  5
2D2
102
{ACAD_REACTORS
330
2B3
102
}
330
2B3
100
AcDbScale
 70
     0
300
3" = 1'-0"
140
3.0
141
12.0
290
     0
  0
SCALE
  5
2D3
102
{ACAD_REACTORS
330
2B3
102
}
330
2B3
100
AcDbScale
 70
     0
300
6" = 1'-0"
140
6.0
141
12.0
290
     0
  0
SCALE
  5
2D4
102
{ACAD_REACTORS
330
2B3
102
}
330
2B3
100
AcDbScale
 70
     0
300
1'-0" = 1'-0"
140
12.0
141
12.0
290
     0
  0
TABLESTYLE
  5
122
102
{ACAD_XDICTIONARY
360
2F5
102
}
102
{ACAD_REACTORS
330
121
102
}
330
121
100
AcDbTableStyle
  3
Standard
 70
     0
 71
     0
 40
1.5
 41
1.5
280
     0
281
     0
  7
STANDARD
140
4.5
170
     2
 62
     0
 63
     7
283
     0
 90
      512
 91
        0
  1

274
    -2
284
     1
 64
     0
275
    -2
285
     1
 65
     0
276
    -2
286
     1
 66
     0
277
    -2
287
     1
 67
     0
278
    -2
288
     1
 68
     0
279
    -2
289
     1
 69
     0
  7
STANDARD
140
6.0
170
     5
 62
     0
 63
     7
283
     0
 90
      512
 91
        0
  1

274
    -2
284
     1
 64
     0
275
    -2
285
     1
 65
     0
276
    -2
286
     1
 66
     0
277
    -2
287
     1
 67
     0
278
    -2
288
     1
 68
     0
279
    -2
289
     1
 69
     0
  7
STANDARD
140
4.5
170
     5
 62
     0
 63
     7
283
     0
 90
      512
 91
        0
  1

274
    -2
284
     1
 64
     0
275
    -2
285
     1
 65
     0
276
    -2
286
     1
 66
     0
277
    -2
287
     1
 67
     0
278
    -2
288
     1
 68
     0
279
    -2
289
     1
 69
     0
  0
VISUALSTYLE
  5
285
102
{ACAD_REACTORS
330
27F
102
}
330
27F
100
AcDbVisualStyle
  2
2dWireframe
 70
     4
 71
     0
 72
     2
 73
     0
 90
        0
 40
-0.6
 41
-30.0
 62
     5
 63
     7
421
 16777215
 74
     1
 91
        4
 64
     7
 65
   257
 75
     1
175
     1
 42
1.0
 92
        0
 66
   257
 43
1.0
 76
     1
 77
     6
 78
     2
 67
     7
 79
     5
170
     0
171
     0
290
     0
174
     0
 93
        1
 44
0.0
173
     0
291
     0
 45
0.0
  0
VISUALSTYLE
  5
287
102
{ACAD_REACTORS
330
27F
102
}
330
27F
100
AcDbVisualStyle
  2
3D Hidden
 70
     6
 71
     1
 72
     2
 73
     2
 90
        0
 40
-0.6
 41
-30.0
 62
     5
 63
     7
421
 16777215
 74
     2
 91
        2
 64
     7
 65
   257
 75
     2
175
     1
 42
40.0
 92
        0
 66
   257
 43
1.0
 76
     1
 77
     6
 78
     2
 67
     7
 79
     3
170
     0
171
     0
290
     0
174
     0
 93
        1
 44
0.0
173
     0
291
     0
 45
0.0
  0
VISUALSTYLE
  5
286
102
{ACAD_REACTORS
330
27F
102
}
330
27F
100
AcDbVisualStyle
  2
3dWireframe
 70
     5
 71
     0
 72
     2
 73
     0
 90
        0
 40
-0.6
 41
-30.0
 62
     5
 63
     7
421
 16777215
 74
     1
 91
        4
 64
     7
 65
   257
 75
     1
175
     1
 42
1.0
 92
        0
 66
   257
 43
1.0
 76
     1
 77
     6
 78
     2
 67
     7
 79
     5
170
     0
171
     0
290
     0
174
     0
 93
        1
 44
0.0
173
     0
291
     0
 45
0.0
  0
VISUALSTYLE
  5
284
102
{ACAD_REACTORS
330
27F
102
}
330
27F
100
AcDbVisualStyle
  2
Basic
 70
     7
 71
     1
 72
     0
 73
     1
 90
        0
 40
-0.6
 41
-30.0
 62
     5
 63
     7
421
 16777215
 74
     0
 91
        4
 64
     7
 65
   257
 75
     1
175
     1
 42
1.0
 92
        8
 66
     7
 43
1.0
 76
     1
 77
     6
 78
     2
 67
     7
 79
     5
170
     0
171
     0
290
     0
174
     0
 93
        1
 44
0.0
173
     0
291
     1
 45
0.0
  0
VISUALSTYLE
  5
28B
102
{ACAD_REACTORS
330
27F
102
}
330
27F
100
AcDbVisualStyle
  2
Brighten
 70
    12
 71
     2
 72
     2
 73
     0
 90
        0
 40
-0.6
 41
-30.0
 62
     5
 63
     7
421
 16777215
 74
     1
 91
        4
 64
     7
 65
   257
 75
     1
175
     1
 42
1.0
 92
        8
 66
     7
 43
1.0
 76
     1
 77
     6
 78
     2
 67
     7
 79
     5
170
     0
171
     0
290
     0
174
     0
 93
        1
 44
50.0
173
     0
291
     1
 45
0.0
  0
VISUALSTYLE
  5
28F
102
{ACAD_REACTORS
330
27F
102
}
330
27F
100
AcDbVisualStyle
  2
ColorChange
 70
    16
 71
     2
 72
     2
 73
     3
 90
        0
 40
-0.6
 41
-30.0
 62
     5
 63
     8
421
  8421504
 74
     1
 91
        4
 64
     7
 65
   257
 75
     1
175
     1
 42
1.0
 92
        8
 66
     8
424
  8421504
 43
1.0
 76
     1
 77
     6
 78
     2
 67
     7
 79
     5
170
     0
171
     0
290
     0
174
     0
 93
        1
 44
0.0
173
     0
291
     1
 45
0.0
  0
VISUALSTYLE
  5
288
102
{ACAD_REACTORS
330
27F
102
}
330
27F
100
AcDbVisualStyle
  2
Conceptual
 70
     9
 71
     3
 72
     2
 73
     0
 90
        0
 40
-0.6
 41
-30.0
 62
     5
 63
     7
421
 16777215
 74
     2
 91
        2
 64
     7
 65
   257
 75
     1
175
     1
 42
40.0
 92
        8
 66
     7
 43
1.0
 76
     1
 77
     6
 78
     2
 67
     7
 79
     3
170
     0
171
     0
290
     0
174
     0
 93
        1
 44
0.0
173
     0
291
     0
 45
0.0
  0
VISUALSTYLE
  5
28A
102
{ACAD_REACTORS
330
27F
102
}
330
27F
100
AcDbVisualStyle
  2
Dim
 70
    11
 71
     2
 72
     2
 73
     0
 90
        0
 40
-0.6
 41
-30.0
 62
     5
 63
     7
421
 16777215
 74
     1
 91
        4
 64
     7
 65
   257
 75
     1
175
     1
 42
1.0
 92
        8
 66
     7
 43
1.0
 76
     1
 77
     6
 78
     2
 67
     7
 79
     5
170
     0
171
     0
290
     0
174
     0
 93
        1
 44
-50.0
173
     0
291
     1
 45
0.0
  0
VISUALSTYLE
  5
28E
102
{ACAD_REACTORS
330
27F
102
}
330
27F
100
AcDbVisualStyle
  2
Facepattern
 70
    15
 71
     2
 72
     2
 73
     0
 90
        0
 40
-0.6
 41
-30.0
 62
     5
 63
     7
421
 16777215
 74
     1
 91
        4
 64
     7
 65
   257
 75
     1
175
     1
 42
1.0
 92
        8
 66
     7
 43
1.0
 76
     1
 77
     6
 78
     2
 67
     7
 79
     5
170
     0
171
     0
290
     0
174
     0
 93
        1
 44
0.0
173
     0
291
     1
 45
0.0
  0
VISUALSTYLE
  5
280
102
{ACAD_REACTORS
330
27F
102
}
330
27F
100
AcDbVisualStyle
  2
Flat
 70
     0
 71
     2
 72
     1
 73
     1
 90
        2
 40
-0.6
 41
30.0
 62
     5
 63
     7
421
 16777215
 74
     0
 91
        4
 64
     7
 65
   257
 75
     1
175
     1
 42
1.0
 92
        8
 66
     7
 43
1.0
 76
     1
 77
     6
 78
     2
 67
     7
 79
     5
170
     0
171
     0
290
     0
174
     0
 93
       13
 44
0.0
173
     0
291
     1
 45
0.0
  0
VISUALSTYLE
  5
281
102
{ACAD_REACTORS
330
27F
102
}
330
27F
100
AcDbVisualStyle
  2
FlatWithEdges
 70
     1
 71
     2
 72
     1
 73
     1
 90
        2
 40
-0.6
 41
30.0
 62
     5
 63
     7
421
 16777215
 74
     1
 91
        4
 64
     7
 65
   257
 75
     1
175
     1
 42
1.0
 92
        0
 66
   257
 43
1.0
 76
     1
 77
     6
 78
     2
 67
     7
 79
     5
170
     0
171
     0
290
     0
174
     0
 93
       13
 44
0.0
173
     0
291
     1
 45
0.0
  0
VISUALSTYLE
  5
282
102
{ACAD_REACTORS
330
27F
102
}
330
27F
100
AcDbVisualStyle
  2
Gouraud
 70
     2
 71
     2
 72
     2
 73
     1
 90
        2
 40
-0.6
 41
30.0
 62
     5
 63
     7
421
 16777215
 74
     0
 91
        4
 64
     7
 65
   257
 75
     1
175
     1
 42
1.0
 92
        0
 66
     7
 43
1.0
 76
     1
 77
     6
 78
     2
 67
     7
 79
     5
170
     0
171
     0
290
     0
174
     0
 93
       13
 44
0.0
173
     0
291
     1
 45
0.0
  0
VISUALSTYLE
  5
283
102
{ACAD_REACTORS
330
27F
102
}
330
27F
100
AcDbVisualStyle
  2
GouraudWithEdges
 70
     3
 71
     2
 72
     2
 73
     1
 90
        2
 40
-0.6
 41
30.0
 62
     5
 63
     7
421
 16777215
 74
     1
 91
        4
 64
     7
 65
   257
 75
     1
175
     1
 42
1.0
 92
        0
 66
   257
 43
1.0
 76
     1
 77
     6
 78
     2
 67
     7
 79
     5
170
     0
171
     0
290
     0
174
     0
 93
       13
 44
0.0
173
     0
291
     1
 45
0.0
  0
VISUALSTYLE
  5
28D
102
{ACAD_REACTORS
330
27F
102
}
330
27F
100
AcDbVisualStyle
  2
Linepattern
 70
    14
 71
     2
 72
     2
 73
     0
 90
        0
 40
-0.6
 41
-30.0
 62
     5
 63
     7
421
 16777215
 74
     1
 91
        4
 64
     7
 65
   257
 75
     7
175
     7
 42
1.0
 92
        8
 66
     7
 43
1.0
 76
     1
 77
     6
 78
     2
 67
     7
 79
     5
170
     0
171
     0
290
     0
174
     0
 93
        1
 44
0.0
173
     0
291
     1
 45
0.0
  0
VISUALSTYLE
  5
289
102
{ACAD_REACTORS
330
27F
102
}
330
27F
100
AcDbVisualStyle
  2
Realistic
 70
     8
 71
     2
 72
     2
 73
     0
 90
        0
 40
-0.6
 41
-30.0
 62
     5
 63
     7
421
 16777215
 74
     1
 91
        0
 64
     7
 65
   257
 75
     1
175
     1
 42
1.0
 92
        8
 66
     8
424
  7895160
 43
1.0
 76
     1
 77
     6
 78
     2
 67
     7
 79
     5
170
     0
171
     0
290
     0
174
     0
 93
       13
 44
0.0
173
     0
291
     0
 45
0.0
  0
VISUALSTYLE
  5
28C
102
{ACAD_REACTORS
330
27F
102
}
330
27F
100
AcDbVisualStyle
  2
Thicken
 70
    13
 71
     2
 72
     2
 73
     0
 90
        0
 40
-0.6
 41
-30.0
 62
     5
 63
     7
421
 16777215
 74
     1
 91
        4
 64
     7
 65
   257
 75
     1
175
     1
 42
1.0
 92
       12
 66
     7
 43
1.0
 76
     1
 77
     6
 78
     2
 67
     7
 79
     5
170
     0
171
     0
290
     0
174
     0
 93
        1
 44
0.0
173
     0
291
     1
 45
0.0
  0
DICTIONARYVAR
  5
2FA
102
{ACAD_REACTORS
330
34
102
}
330
34
100
DictionaryVariables
280
     0
  1
1:10
  0
DICTIONARYVAR
  5
2F8
102
{ACAD_REACTORS
330
34
102
}
330
34
100
DictionaryVariables
280
     0
  1
STANDARD
  0
DICTIONARYVAR
  5
140
102
{ACAD_REACTORS
330
34
102
}
330
34
100
DictionaryVariables
280
     0
  1
STANDARD
  0
DICTIONARYVAR
  5
AC
102
{ACAD_REACTORS
330
34
102
}
330
34
100
DictionaryVariables
280
     0
  1
1
  0
DICTIONARYVAR
  5
35
102
{ACAD_REACTORS
330
34
102
}
330
34
100
DictionaryVariables
280
     0
  1
1
  0
DICTIONARYVAR
  5
672B
102
{ACAD_REACTORS
330
34
102
}
330
34
100
DictionaryVariables
280
     0
  1
1
  0
DICTIONARYVAR
  5
672C
102
{ACAD_REACTORS
330
34
102
}
330
34
100
DictionaryVariables
280
     0
  1
15
  0
DICTIONARYVAR
  5
2FB
102
{ACAD_REACTORS
330
34
102
}
330
34
100
DictionaryVariables
280
     0
  1
0
  0
DICTIONARYVAR
  5
2F9
102
{ACAD_REACTORS
330
34
102
}
330
34
100
DictionaryVariables
280
     0
  1
0
  0
DICTIONARY
  5
161B
102
{ACAD_REACTORS
330
49
102
}
330
49
100
AcDbDictionary
281
     1
  0
DICTIONARY
  5
4A
102
{ACAD_REACTORS
330
49
102
}
330
49
100
AcDbDictionary
281
     1
  0
XRECORD
  5
12B
102
{ACAD_REACTORS
330
49
102
}
330
49
100
AcDbXrecord
280
     1
 90
-1023410169
  0
DICTIONARY
  5
2F5
330
122
100
AcDbDictionary
280
     1
281
     1
  3
ACAD_ROUNDTRIP_2008_TABLESTYLE_CELLSTYLEMAP
360
8404
  0
CELLSTYLEMAP
  5
8404
102
{ACAD_REACTORS
330
2F5
102
}
330
2F5
100
AcDbCellStyleMap
 90
        3
300
CELLSTYLE
  1
TABLEFORMAT_BEGIN
 90
        5
170
     1
 91
        0
 92
    32768
 62
   257
 93
        1
300
CONTENTFORMAT
  1
CONTENTFORMAT_BEGIN
 90
        0
 91
        0
 92
      512
 93
        0
300

 40
0.0
140
1.0
 94
        5
 62
     0
340
11
144
6.0
309
CONTENTFORMAT_END
171
     1
301
MARGIN
  1
CELLMARGIN_BEGIN
 40
1.5
 40
1.5
 40
1.5
 40
1.5
 40
0.18
 40
0.18
309
CELLMARGIN_END
 94
        6
 95
        1
302
GRIDFORMAT
  1
GRIDFORMAT_BEGIN
 90
        0
 91
        1
 62
     0
 92
       -2
340
0
 93
        0
 40
0.045
309
GRIDFORMAT_END
 95
        2
302
GRIDFORMAT
  1
GRIDFORMAT_BEGIN
 90
        0
 91
        1
 62
     0
 92
       -2
340
0
 93
        0
 40
0.045
309
GRIDFORMAT_END
 95
        4
302
GRIDFORMAT
  1
GRIDFORMAT_BEGIN
 90
        0
 91
        1
 62
     0
 92
       -2
340
0
 93
        0
 40
0.045
309
GRIDFORMAT_END
 95
        8
302
GRIDFORMAT
  1
GRIDFORMAT_BEGIN
 90
        0
 91
        1
 62
     0
 92
       -2
340
0
 93
        0
 40
0.045
309
GRIDFORMAT_END
 95
       16
302
GRIDFORMAT
  1
GRIDFORMAT_BEGIN
 90
        0
 91
        1
 62
     0
 92
       -2
340
0
 93
        0
 40
0.045
309
GRIDFORMAT_END
 95
       32
302
GRIDFORMAT
  1
GRIDFORMAT_BEGIN
 90
        0
 91
        1
 62
     0
 92
       -2
340
0
 93
        0
 40
0.045
309
GRIDFORMAT_END
309
TABLEFORMAT_END
  1
CELLSTYLE_BEGIN
 90
        1
 91
        1
300
_TITLE
309
CELLSTYLE_END
300
CELLSTYLE
  1
TABLEFORMAT_BEGIN
 90
        5
170
     1
 91
        0
 92
        0
 62
   257
 93
        1
300
CONTENTFORMAT
  1
CONTENTFORMAT_BEGIN
 90
        0
 91
        0
 92
      512
 93
        0
300

 40
0.0
140
1.0
 94
        5
 62
     0
340
11
144
4.5
309
CONTENTFORMAT_END
171
     1
301
MARGIN
  1
CELLMARGIN_BEGIN
 40
1.5
 40
1.5
 40
1.5
 40
1.5
 40
0.18
 40
0.18
309
CELLMARGIN_END
 94
        6
 95
        1
302
GRIDFORMAT
  1
GRIDFORMAT_BEGIN
 90
        0
 91
        1
 62
     0
 92
       -2
340
0
 93
        0
 40
0.045
309
GRIDFORMAT_END
 95
        2
302
GRIDFORMAT
  1
GRIDFORMAT_BEGIN
 90
        0
 91
        1
 62
     0
 92
       -2
340
0
 93
        0
 40
0.045
309
GRIDFORMAT_END
 95
        4
302
GRIDFORMAT
  1
GRIDFORMAT_BEGIN
 90
        0
 91
        1
 62
     0
 92
       -2
340
0
 93
        0
 40
0.045
309
GRIDFORMAT_END
 95
        8
302
GRIDFORMAT
  1
GRIDFORMAT_BEGIN
 90
        0
 91
        1
 62
     0
 92
       -2
340
0
 93
        0
 40
0.045
309
GRIDFORMAT_END
 95
       16
302
GRIDFORMAT
  1
GRIDFORMAT_BEGIN
 90
        0
 91
        1
 62
     0
 92
       -2
340
0
 93
        0
 40
0.045
309
GRIDFORMAT_END
 95
       32
302
GRIDFORMAT
  1
GRIDFORMAT_BEGIN
 90
        0
 91
        1
 62
     0
 92
       -2
340
0
 93
        0
 40
0.045
309
GRIDFORMAT_END
309
TABLEFORMAT_END
  1
CELLSTYLE_BEGIN
 90
        2
 91
        1
300
_HEADER
309
CELLSTYLE_END
300
CELLSTYLE
  1
TABLEFORMAT_BEGIN
 90
        5
170
     1
 91
        0
 92
        0
 62
   257
 93
        1
300
CONTENTFORMAT
  1
CONTENTFORMAT_BEGIN
 90
        0
 91
        0
 92
      512
 93
        0
300

 40
0.0
140
1.0
 94
        2
 62
     0
340
11
144
4.5
309
CONTENTFORMAT_END
171
     1
301
MARGIN
  1
CELLMARGIN_BEGIN
 40
1.5
 40
1.5
 40
1.5
 40
1.5
 40
0.18
 40
0.18
309
CELLMARGIN_END
 94
        6
 95
        1
302
GRIDFORMAT
  1
GRIDFORMAT_BEGIN
 90
        0
 91
        1
 62
     0
 92
       -2
340
0
 93
        0
 40
0.045
309
GRIDFORMAT_END
 95
        2
302
GRIDFORMAT
  1
GRIDFORMAT_BEGIN
 90
        0
 91
        1
 62
     0
 92
       -2
340
0
 93
        0
 40
0.045
309
GRIDFORMAT_END
 95
        4
302
GRIDFORMAT
  1
GRIDFORMAT_BEGIN
 90
        0
 91
        1
 62
     0
 92
       -2
340
0
 93
        0
 40
0.045
309
GRIDFORMAT_END
 95
        8
302
GRIDFORMAT
  1
GRIDFORMAT_BEGIN
 90
        0
 91
        1
 62
     0
 92
       -2
340
0
 93
        0
 40
0.045
309
GRIDFORMAT_END
 95
       16
302
GRIDFORMAT
  1
GRIDFORMAT_BEGIN
 90
        0
 91
        1
 62
     0
 92
       -2
340
0
 93
        0
 40
0.045
309
GRIDFORMAT_END
 95
       32
302
GRIDFORMAT
  1
GRIDFORMAT_BEGIN
 90
        0
 91
        1
 62
     0
 92
       -2
340
0
 93
        0
 40
0.045
309
GRIDFORMAT_END
309
TABLEFORMAT_END
  1
CELLSTYLE_BEGIN
 90
        3
 91
        2
300
_DATA
309
CELLSTYLE_END
  0
ENDSEC
  0
EOF
