  0
SECTION
  2
HEADER
  9
$ACADVER
  1
AC1021
  9
$ACADMAINTVER
 70
    26
  9
$DWGCODEPAGE
  3
ANSI_932
  9
$LASTSAVEDBY
  1
Htm_Terada
  9
$CUSTOMPROPERTYTAG
  1
AmdtFileType
  9
$CUSTOMPROPERTY
  1
84
  9
$INSBASE
 10
0.0
 20
0.0
 30
0.0
  9
$EXTMIN
 10
1424.69824734164
 20
1495.912550665888
 30
0.0
  9
$EXTMAX
 10
3069.020469345701
 20
2618.804425295172
 30
0.0
  9
$LIMMIN
 10
0.0000019143385543
 20
0.0000036938206449
  9
$LIMMAX
 10
4200.000001914339
 20
2970.000003693821
  9
$ORTHOMODE
 70
     1
  9
$REGENMODE
 70
     1
  9
$FILLMODE
 70
     1
  9
$QTEXTMODE
 70
     0
  9
$MIRRTEXT
 70
     1
  9
$LTSCALE
 40
10.0
  9
$ATTMODE
 70
     1
  9
$TEXTSIZE
 40
25.0
  9
$TRACEWID
 40
1.0
  9
$TEXTSTYLE
  7
SEISA
  9
$CLAYER
  8
AM_11 想像線
  9
$CELTYPE
  6
ByLayer
  9
$CECOLOR
 62
   256
  9
$CELTSCALE
 40
1.0
  9
$DISPSILH
 70
     0
  9
$DIMSCALE
 40
10.0
  9
$DIMASZ
 40
2.5
  9
$DIMEXO
 40
0.625
  9
$DIMDLI
 40
10.0
  9
$DIMRND
 40
0.0
  9
$DIMDLE
 40
0.0
  9
$DIMEXE
 40
0.625
  9
$DIMTP
 40
0.1
  9
$DIMTM
 40
0.1
  9
$DIMTXT
 40
3.5
  9
$DIMCEN
 40
0.0
  9
$DIMTSZ
 40
0.0
  9
$DIMTOL
 70
     0
  9
$DIMLIM
 70
     0
  9
$DIMTIH
 70
     0
  9
$DIMTOH
 70
     0
  9
$DIMSE1
 70
     0
  9
$DIMSE2
 70
     0
  9
$DIMTAD
 70
     3
  9
$DIMZIN
 70
     8
  9
$DIMBLK
  1
Open30
  9
$DIMASO
 70
     1
  9
$DIMSHO
 70
     1
  9
$DIMPOST
  1

  9
$DIMAPOST
  1
"
  9
$DIMALT
 70
     0
  9
$DIMALTD
 70
     2
  9
$DIMALTF
 40
0.0393701
  9
$DIMLFAC
 40
1.0
  9
$DIMTOFL
 70
     1
  9
$DIMTVP
 40
0.0
  9
$DIMTIX
 70
     0
  9
$DIMSOXD
 70
     0
  9
$DIMSAH
 70
     0
  9
$DIMBLK1
  1

  9
$DIMBLK2
  1

  9
$DIMSTYLE
  2
SEISA
  9
$DIMCLRD
 70
     3
  9
$DIMCLRE
 70
     3
  9
$DIMCLRT
 70
     3
  9
$DIMTFAC
 40
0.71
  9
$DIMGAP
 40
1.5
  9
$DIMJUST
 70
     0
  9
$DIMSD1
 70
     0
  9
$DIMSD2
 70
     0
  9
$DIMTOLJ
 70
     0
  9
$DIMTZIN
 70
     0
  9
$DIMALTZ
 70
     0
  9
$DIMALTTZ
 70
     8
  9
$DIMUPT
 70
     0
  9
$DIMDEC
 70
     2
  9
$DIMTDEC
 70
     2
  9
$DIMALTU
 70
     2
  9
$DIMALTTD
 70
     2
  9
$DIMTXSTY
  7
SEISA
  9
$DIMAUNIT
 70
     0
  9
$DIMADEC
 70
     0
  9
$DIMALTRND
 40
0.0
  9
$DIMAZIN
 70
     2
  9
$DIMDSEP
 70
    46
  9
$DIMATFIT
 70
     3
  9
$DIMFRAC
 70
     0
  9
$DIMLDRBLK
  1
Open30
  9
$DIMLUNIT
 70
     2
  9
$DIMLWD
 70
    -1
  9
$DIMLWE
 70
    -1
  9
$DIMTMOVE
 70
     0
  9
$DIMFXL
 40
1.0
  9
$DIMFXLON
 70
     0
  9
$DIMJOGANG
 40
0.7853981633974483
  9
$DIMTFILL
 70
     0
  9
$DIMTFILLCLR
 70
     0
  9
$DIMARCSYM
 70
     1
  9
$DIMLTYPE
  6

  9
$DIMLTEX1
  6

  9
$DIMLTEX2
  6

  9
$LUNITS
 70
     2
  9
$LUPREC
 70
     2
  9
$SKETCHINC
 40
1.0
  9
$FILLETRAD
 40
1.6
  9
$AUNITS
 70
     0
  9
$AUPREC
 70
     0
  9
$MENU
  1
.
  9
$ELEVATION
 40
0.0
  9
$PELEVATION
 40
0.0
  9
$THICKNESS
 40
0.0
  9
$LIMCHECK
 70
     0
  9
$CHAMFERA
 40
10.0
  9
$CHAMFERB
 40
9.999999999999543
  9
$CHAMFERC
 40
10.0
  9
$CHAMFERD
 40
0.7853981633974257
  9
$SKPOLY
 70
     0
  9
$TDCREATE
 40
2454944.520629491
  9
$TDUCREATE
 40
2454944.145629491
  9
$TDUPDATE
 40
2456478.714765625
  9
$TDUUPDATE
 40
2456478.339765625
  9
$TDINDWG
 40
0.4687645023
  9
$TDUSRTIMER
 40
0.4687636111
  9
$USRTIMER
 70
     1
  9
$ANGBASE
 50
0.0
  9
$ANGDIR
 70
     0
  9
$PDMODE
 70
     0
  9
$PDSIZE
 40
0.0
  9
$PLINEWID
 40
0.0
  9
$SPLFRAME
 70
     0
  9
$SPLINETYPE
 70
     6
  9
$SPLINESEGS
 70
     8
  9
$HANDSEED
  5
7E44
  9
$SURFTAB1
 70
     6
  9
$SURFTAB2
 70
     6
  9
$SURFTYPE
 70
     6
  9
$SURFU
 70
     6
  9
$SURFV
 70
     6
  9
$UCSBASE
  2

  9
$UCSNAME
  2

  9
$UCSORG
 10
0.0
 20
0.0
 30
0.0
  9
$UCSXDIR
 10
1.0
 20
0.0
 30
0.0
  9
$UCSYDIR
 10
0.0
 20
1.0
 30
0.0
  9
$UCSORTHOREF
  2

  9
$UCSORTHOVIEW
 70
     0
  9
$UCSORGTOP
 10
0.0
 20
0.0
 30
0.0
  9
$UCSORGBOTTOM
 10
0.0
 20
0.0
 30
0.0
  9
$UCSORGLEFT
 10
0.0
 20
0.0
 30
0.0
  9
$UCSORGRIGHT
 10
0.0
 20
0.0
 30
0.0
  9
$UCSORGFRONT
 10
0.0
 20
0.0
 30
0.0
  9
$UCSORGBACK
 10
0.0
 20
0.0
 30
0.0
  9
$PUCSBASE
  2

  9
$PUCSNAME
  2

  9
$PUCSORG
 10
0.0
 20
0.0
 30
0.0
  9
$PUCSXDIR
 10
1.0
 20
0.0
 30
0.0
  9
$PUCSYDIR
 10
0.0
 20
1.0
 30
0.0
  9
$PUCSORTHOREF
  2

  9
$PUCSORTHOVIEW
 70
     0
  9
$PUCSORGTOP
 10
0.0
 20
0.0
 30
0.0
  9
$PUCSORGBOTTOM
 10
0.0
 20
0.0
 30
0.0
  9
$PUCSORGLEFT
 10
0.0
 20
0.0
 30
0.0
  9
$PUCSORGRIGHT
 10
0.0
 20
0.0
 30
0.0
  9
$PUCSORGFRONT
 10
0.0
 20
0.0
 30
0.0
  9
$PUCSORGBACK
 10
0.0
 20
0.0
 30
0.0
  9
$USERI1
 70
     0
  9
$USERI2
 70
     0
  9
$USERI3
 70
     0
  9
$USERI4
 70
     0
  9
$USERI5
 70
     0
  9
$USERR1
 40
0.0
  9
$USERR2
 40
0.0
  9
$USERR3
 40
0.0
  9
$USERR4
 40
0.0
  9
$USERR5
 40
0.0
  9
$WORLDVIEW
 70
     1
  9
$SHADEDGE
 70
     3
  9
$SHADEDIF
 70
    70
  9
$TILEMODE
 70
     1
  9
$MAXACTVP
 70
    64
  9
$PINSBASE
 10
0.0
 20
0.0
 30
0.0
  9
$PLIMCHECK
 70
     0
  9
$PEXTMIN
 10
1.000000000000000E+20
 20
1.000000000000000E+20
 30
1.000000000000000E+20
  9
$PEXTMAX
 10
-1.000000000000000E+20
 20
-1.000000000000000E+20
 30
-1.000000000000000E+20
  9
$PLIMMIN
 10
0.0
 20
0.0
  9
$PLIMMAX
 10
420.0
 20
297.0
  9
$UNITMODE
 70
     0
  9
$VISRETAIN
 70
     1
  9
$PLINEGEN
 70
     0
  9
$PSLTSCALE
 70
     1
  9
$TREEDEPTH
 70
  3020
  9
$CMLSTYLE
  2
Standard
  9
$CMLJUST
 70
     0
  9
$CMLSCALE
 40
20.0
  9
$PROXYGRAPHICS
 70
     1
  9
$MEASUREMENT
 70
     1
  9
$CELWEIGHT
370
    -1
  9
$ENDCAPS
280
     0
  9
$JOINSTYLE
280
     0
  9
$LWDISPLAY
290
     0
  9
$INSUNITS
 70
     4
  9
$HYPERLINKBASE
  1

  9
$STYLESHEET
  1
SEISA.CTB
  9
$XEDIT
290
     1
  9
$CEPSNTYPE
380
     0
  9
$PSTYLEMODE
290
     1
  9
$FINGERPRINTGUID
  2
{39BF771B-2944-4C32-9A22-E0A1A8A0907E}
  9
$VERSIONGUID
  2
{1C8C1248-5A73-4564-A7F8-CE7641D1B45D}
  9
$EXTNAMES
290
     1
  9
$PSVPSCALE
 40
0.0
  9
$OLESTARTUP
290
     0
  9
$SORTENTS
280
   127
  9
$INDEXCTL
280
     0
  9
$HIDETEXT
280
     0
  9
$XCLIPFRAME
290
     0
  9
$HALOGAP
280
     0
  9
$OBSCOLOR
 70
   257
  9
$OBSLTYPE
280
     0
  9
$INTERSECTIONDISPLAY
280
     0
  9
$INTERSECTIONCOLOR
 70
   257
  9
$DIMASSOC
280
     2
  9
$PROJECTNAME
  1

  9
$CAMERADISPLAY
290
     0
  9
$LENSLENGTH
 40
50.0
  9
$CAMERAHEIGHT
 40
0.0
  9
$STEPSPERSEC
 40
2.0
  9
$STEPSIZE
 40
6.0
  9
$3DDWFPREC
 40
2.0
  9
$PSOLWIDTH
 40
0.25
  9
$PSOLHEIGHT
 40
4.0
  9
$LOFTANG1
 40
1.570796326794896
  9
$LOFTANG2
 40
1.570796326794896
  9
$LOFTMAG1
 40
0.0
  9
$LOFTMAG2
 40
0.0
  9
$LOFTPARAM
 70
     7
  9
$LOFTNORMALS
280
     1
  9
$LATITUDE
 40
37.795
  9
$LONGITUDE
 40
-122.394
  9
$NORTHDIRECTION
 40
0.0
  9
$TIMEZONE
 70
 -8000
  9
$LIGHTGLYPHDISPLAY
280
     1
  9
$TILEMODELIGHTSYNCH
280
     1
  9
$CMATERIAL
347
27C
  9
$SOLIDHIST
280
     1
  9
$SHOWHIST
280
     1
  9
$DWFFRAME
280
     2
  9
$DGNFRAME
280
     0
  9
$REALWORLDSCALE
290
     1
  9
$INTERFERECOLOR
 62
     1
  9
$INTERFEREOBJVS
345
289
  9
$INTERFEREVPVS
346
286
  9
$CSHADOW
280
     0
  9
$SHADOWPLANELOCATION
 40
0.0
  0
ENDSEC
  0
SECTION
  2
CLASSES
  0
CLASS
  1
ACDBDICTIONARYWDFLT
  2
AcDbDictionaryWithDefault
  3
ObjectDBX Classes
 90
        0
 91
        1
280
     0
281
     0
  0
CLASS
  1
AMGSETTINGSOBJ
  2
AmgSettingsObj
  3
"AcadM|Product Description: AutoCAD Mechanical|Company: Autodesk, Inc."
 90
     1024
 91
        2
280
     0
281
     0
  0
CLASS
  1
ACME_DOCUMENT
  2
AcMeDbDoc
  3
AcMeServices
 90
     1024
 91
        1
280
     0
281
     0
  0
CLASS
  1
ACMESCOPE
  2
AcMeScope
  3
AcMeServices
 90
     1024
 91
        1
280
     0
281
     0
  0
CLASS
  1
ACMECOMMANDHISTORY
  2
AcMeCommandHistory
  3
AcMeServices
 90
     1024
 91
        1
280
     0
281
     0
  0
CLASS
  1
DICTIONARYVAR
  2
AcDbDictionaryVar
  3
ObjectDBX Classes
 90
        0
 91
        9
280
     0
281
     0
  0
CLASS
  1
ACIMSYSVARMAN
  2
AcImSysVarManager
  3
AcMeServices
 90
     1024
 91
        5
280
     0
281
     0
  0
CLASS
  1
ACIMREALSYSVAR
  2
AcImRealSysVar
  3
AcMeServices
 90
     1024
 91
        1
280
     0
281
     0
  0
CLASS
  1
ACIMINTSYSVAR
  2
AcImIntSysVar
  3
AcMeServices
 90
     1024
 91
       27
280
     0
281
     0
  0
CLASS
  1
ACMEDRAWINGMAN
  2
AcMeDrawingMan
  3
AcMeServices
 90
     1024
 91
        1
280
     0
281
     0
  0
CLASS
  1
ACMEVIEW
  2
AcMeView
  3
AcMeServices
 90
     1024
 91
        1
280
     0
281
     0
  0
CLASS
  1
ACDBENTITYCACHE
  2
AcMeEntityCache
  3
AcMeServices
 90
     1024
 91
        1
280
     0
281
     0
  0
CLASS
  1
GSMANAGER
  2
AcMeGSManager
  3
AcMeServices
 90
     1024
 91
        1
280
     0
281
     0
  0
CLASS
  1
AMDTINTERNALREACTOR
  2
AmdtInternalReactor
  3
AcMeServices
 90
     1024
 91
        2
280
     0
281
     0
  0
CLASS
  1
ACMESTATEMGR
  2
AcMeStateMgr
  3
AcMeServices
 90
     1024
 91
        1
280
     0
281
     0
  0
CLASS
  1
ACGREFMASTER
  2
AcGrefMaster
  3
AcAttribServices
 90
     1024
 91
        1
280
     0
281
     0
  0
CLASS
  1
ACME_DATABASE
  2
AcMeDbDatabase
  3
AcMeServices
 90
     1024
 91
        1
280
     0
281
     0
  0
CLASS
  1
ACRFINSADJUSTERMGR
  2
AcRfInsAdjusterMgr
  3
AcMeServices
 90
     1024
 91
        1
280
     0
281
     0
  0
CLASS
  1
ACGREFACADMASTER
  2
AcGrefacadMaster
  3
AcGrefServices
 90
     1024
 91
        1
280
     0
281
     0
  0
CLASS
  1
AMIMASTER
  2
AmiMaster
  3
AmiServices
 90
     1024
 91
        1
280
     0
281
     0
  0
CLASS
  1
ACIMSTRSYSVAR
  2
AcImStrSysVar
  3
AcMeServices
 90
     1024
 91
        5
280
     0
281
     0
  0
CLASS
  1
ACMSTANDARDJIS
  2
AcmStandardJIS
  3
"Amdt_StdImp|Product Description: AutoCAD Mechanical|Company: Autodesk, Inc."
 90
     1024
 91
        0
280
     0
281
     0
  0
CLASS
  1
AMGOBJPROPCFG
  2
AmgObjPropCfg
  3
"AmgLay|Product Description: AutoCAD Mechanical|Company: Autodesk, Inc."
 90
     1025
 91
        1
280
     0
281
     0
  0
CLASS
  1
ACMSURFSTANDARDJIS
  2
AcmSurfTextStdJIS
  3
"Amdt_StdImp|Product Description: AutoCAD Mechanical|Company: Autodesk, Inc."
 90
     1024
 91
        0
280
     0
281
     0
  0
CLASS
  1
ACMFCFSTANDARDJIS
  2
AcmFCFStdJIS
  3
"Amdt_StdImp|Product Description: AutoCAD Mechanical|Company: Autodesk, Inc."
 90
     1024
 91
        0
280
     0
281
     0
  0
CLASS
  1
ACMWELDSTANDARDJIS
  2
AcmWeldingStdJIS
  3
"Amdt_StdImp|Product Description: AutoCAD Mechanical|Company: Autodesk, Inc."
 90
     1024
 91
        0
280
     0
281
     0
  0
CLASS
  1
ACMIDSTANDARDJIS
  2
AcmIdStdJIS
  3
"Amdt_StdImp|Product Description: AutoCAD Mechanical|Company: Autodesk, Inc."
 90
     1024
 91
        0
280
     0
281
     0
  0
CLASS
  1
ACMDATUMSTANDARDJIS
  2
AcmDatumStdJIS
  3
"Amdt_StdImp|Product Description: AutoCAD Mechanical|Company: Autodesk, Inc."
 90
     1024
 91
        0
280
     0
281
     0
  0
CLASS
  1
ACMBOMSTANDARDJIS
  2
AcmBOMStdJIS
  3
"Amdt_StdImp|Product Description: AutoCAD Mechanical|Company: Autodesk, Inc."
 90
     1024
 91
        0
280
     0
281
     0
  0
CLASS
  1
ACMDETAILSTANDARDJIS
  2
AmdtDetailSymStdJIS
  3
"Amdt_StdImp|Product Description: AutoCAD Mechanical|Company: Autodesk, Inc."
 90
     1024
 91
        0
280
     0
281
     0
  0
CLASS
  1
ACMSECTIONSTANDARDJIS
  2
AmdtSectionSymStdJIS
  3
"Amdt_StdImp|Product Description: AutoCAD Mechanical|Company: Autodesk, Inc."
 90
     1024
 91
        0
280
     0
281
     0
  0
CLASS
  1
ACMCENTERLINESTANDARDJIS
  2
AmdtCenterLineStdJIS
  3
"Amdt_StdImp|Product Description: AutoCAD Mechanical|Company: Autodesk, Inc."
 90
     1024
 91
        0
280
     0
281
     0
  0
CLASS
  1
ACMTHREADLINESTANDARDJIS
  2
AmdtThreadLineStdJIS
  3
"Amdt_StdImp|Product Description: AutoCAD Mechanical|Company: Autodesk, Inc."
 90
     1024
 91
        0
280
     0
281
     0
  0
CLASS
  1
ACAMGLAYSTD
  2
AcAmgLayStd
  3
"AmgLay|Product Description: AutoCAD Mechanical|Company: Autodesk, Inc."
 90
     1024
 91
        1
280
     0
281
     0
  0
CLASS
  1
ACAMGDIMSTD
  2
AcAmgDimStd
  3
"AmgDim|Product Description: AutoCAD Mechanical|Company: Autodesk, Inc."
 90
     1024
 91
        1
280
     0
281
     0
  0
CLASS
  1
ACAMGTITLESTD
  2
AcAmgTitleStd
  3
"AmgTitle|Product Description: AutoCAD Mechanical|Company: Autodesk, Inc."
 90
     4095
 91
        1
280
     0
281
     0
  0
CLASS
  1
ACMDATADICTIONARY
  2
AcmDataDictionary
  3
"AcmSymBB|Product Description: AutoCAD Mechanical|Company: Autodesk, Inc."
 90
     1024
 91
        1
280
     0
281
     0
  0
CLASS
  1
ACMDATAENTRYBLOCK
  2
AcmDataEntryBlock
  3
AcmSymBB|Product Description: AutoCAD Mechanical|Company: Autodesk, Inc.
 90
     1024
 91
        0
280
     0
281
     0
  0
CLASS
  1
LAYER_INDEX
  2
AcDbLayerIndex
  3
ObjectDBX Classes
 90
        0
 91
        0
280
     0
281
     0
  0
CLASS
  1
IDBUFFER
  2
AcDbIdBuffer
  3
ObjectDBX Classes
 90
        0
 91
        0
280
     0
281
     0
  0
CLASS
  1
ACMNOTESTANDARDJIS
  2
AmdtNoteStdJIS
  3
"Amdt_StdImp|Product Description: AutoCAD Mechanical|Company: Autodesk, Inc."
 90
     1024
 91
        0
280
     0
281
     0
  0
CLASS
  1
ACAMGHOLECHARTSTDJIS
  2
AcAmgHoleChartStdJIS
  3
AmgDim|Product Description: AutoCAD Mechanical|Company: Autodesk, Inc.
 90
     1024
 91
        0
280
     0
281
     0
  0
CLASS
  1
AM_DRAWING_MGR
  2
AcDmDwgMgr
  3
AcMechDwgViewMgmt
 90
     1024
 91
        1
280
     0
281
     0
  0
CLASS
  1
AM_DWG_DOCUMENT
  2
AcDmDwgDocument
  3
AcMechDwgViewMgmt
 90
     1024
 91
        1
280
     0
281
     0
  0
CLASS
  1
AM_DWG_SHEET
  2
AcDmSheet
  3
AcMechDwgViewMgmt
 90
     1024
 91
        2
280
     0
281
     0
  0
CLASS
  1
AM_VIEWDIMPARMAP
  2
AcDmViewDimParMap
  3
AcMechDwgViewMgmt
 90
     1024
 91
        2
280
     0
281
     0
  0
CLASS
  1
AM_DWGMGR_NAME
  2
AcDmDwgMgrName
  3
AcMechDwgViewMgmt
 90
     1024
 91
        1
280
     0
281
     0
  0
CLASS
  1
AMDTMENUSTATEMGR
  2
AmdtMenuStateMgr
  3
McadcomServices
 90
     1024
 91
        1
280
     0
281
     0
  0
CLASS
  1
AMDTMCOMMENUSTATE
  2
AmdtMcomMenuState
  3
McadcomServices
 90
     1024
 91
        1
280
     0
281
     0
  0
CLASS
  1
MAPIAMMOUDLE
  2
MApiAmModule
  3
MApiAmServices
 90
     1024
 91
        1
280
     0
281
     0
  0
CLASS
  1
AMDTADMENUSTATE
  2
AmdtAdMenuState
  3
DesignerServices
 90
     1024
 91
        1
280
     0
281
     0
  0
CLASS
  1
ADAPPL
  2
AcAdAppl
  3
DesignerServices
 90
     1024
 91
        1
280
     0
281
     0
  0
CLASS
  1
DEPMGR
  2
AcAdDepMgr
  3
DesignerServices
 90
     1024
 91
        1
280
     0
281
     0
  0
CLASS
  1
PARAMMGR
  2
AcAdParamMgr
  3
DesignerServices
 90
     1024
 91
        1
280
     0
281
     0
  0
CLASS
  1
PARAMSCOPE
  2
AcAdParamScope
  3
DesignerServices
 90
     1024
 91
        1
280
     0
281
     0
  0
CLASS
  1
NAMEDAPPL
  2
AcAdNamedAppl
  3
DesignerServices
 90
     1024
 91
        1
280
     0
281
     0
  0
CLASS
  1
AMDTDMMENUSTATE
  2
AmdtDmMenuState
  3
AcMechDwgViewMgmt
 90
     1024
 91
        1
280
     0
281
     0
  0
CLASS
  1
AMDTAMMENUSTATE
  2
AmdtAmMenuState
  3
DesignerAssemblies
 90
     1024
 91
        1
280
     0
281
     0
  0
CLASS
  1
ACAMPROJECT
  2
AcAmProject
  3
DesignerAssemblies
 90
     1024
 91
        1
280
     0
281
     0
  0
CLASS
  1
ACAMGRCOMPDEF
  2
AcAmGrCompDef
  3
DesignerAssemblies
 90
     1024
 91
        1
280
     0
281
     0
  0
CLASS
  1
ACCMCONTEXT
  2
AcCmContext
  3
DesignerAssemblies
 90
     1024
 91
        1
280
     0
281
     0
  0
CLASS
  1
ACAMCOMPDEF
  2
AcAmCompDef
  3
DesignerAssemblies
 90
     1024
 91
        1
280
     0
281
     0
  0
CLASS
  1
ACAMCOMPDEFMGR
  2
AcAmCompDefMgr
  3
DesignerAssemblies
 90
     1024
 91
        1
280
     0
281
     0
  0
CLASS
  1
AMCONTEXTMGR
  2
AcAmContextMgr
  3
DesignerAssemblies
 90
     1024
 91
        1
280
     0
281
     0
  0
CLASS
  1
ACAMCONTEXTMODELER
  2
AcAmContextModeler
  3
DesignerAssemblies
 90
     1024
 91
        1
280
     0
281
     0
  0
CLASS
  1
CATALOGSTATE
  2
AcAmCatalogState
  3
DesignerAssemblies
 90
     1024
 91
        1
280
     0
281
     0
  0
CLASS
  1
ACAMGRCOMPDEFSET
  2
AcAmGrCompDefSet
  3
DesignerAssemblies
 90
     1024
 91
        1
280
     0
281
     0
  0
CLASS
  1
AMDTBROWSERDBTAB
  2
AmdtBrowserDbTab
  3
McadcomServices
 90
     1024
 91
        1
280
     0
281
     0
  0
CLASS
  1
CBROWSERAPPOBJECT
  2
CBrowserAppObject
  3
McadcomServices
 90
     1024
 91
        3
280
     0
281
     0
  0
CLASS
  1
DM_PLACEHOLDER
  2
AcDmSelsetPlaceholder
  3
AcMechDwgViewMgmt
 90
     1024
 91
        1
280
     0
281
     0
  0
CLASS
  1
TABLESTYLE
  2
AcDbTableStyle
  3
ObjectDBX Classes
 90
     4095
 91
        1
280
     0
281
     0
  0
CLASS
  1
VAACXREFPANELOBJECT
  2
VaAcXREFPanelObject
  3
VAAC_ADDIN
 90
        0
 91
        0
280
     0
281
     0
  0
CLASS
  1
VAACIMAGEINVENTORY
  2
VaAcImageInventory
  3
VAAC_ADDIN
 90
        0
 91
        0
280
     0
281
     0
  0
CLASS
  1
AMDTNOTETEMPLATEDB
  2
AmdtNoteTemplateDB
  3
AcmSymBB|Product Description: AutoCAD Mechanical|Company: Autodesk, Inc.
 90
     1024
 91
        6
280
     0
281
     0
  0
CLASS
  1
ACAMGFILTERDAT
  2
AcAmgFilterDat
  3
"AcadM|Product Description: AutoCAD Mechanical|Company: Autodesk, Inc."
 90
     1024
 91
        0
280
     0
281
     0
  0
CLASS
  1
MATERIAL
  2
AcDbMaterial
  3
ObjectDBX Classes
 90
     1153
 91
        3
280
     0
281
     0
  0
CLASS
  1
VISUALSTYLE
  2
AcDbVisualStyle
  3
ObjectDBX Classes
 90
     4095
 91
       16
280
     0
281
     0
  0
CLASS
  1
ACRFATTGENMGR
  2
AcRfAttGeneralMgr
  3
AcAttribServices
 90
     1024
 91
        0
280
     0
281
     0
  0
CLASS
  1
ACRFOBJATTMGR
  2
AcRfObjAttGroupMgr
  3
AcAttribServices
 90
     1024
 91
        0
280
     0
281
     0
  0
CLASS
  1
ACRFMCADAPIATTHOLDER
  2
AcRfMCADAPIAttHolder
  3
AcAttribServices
 90
     1024
 91
        0
280
     0
281
     0
  0
CLASS
  1
AMDTSYSATTR
  2
AmdtSystemAttribute
  3
AcAttribServices
 90
     1024
 91
        0
280
     0
281
     0
  0
CLASS
  1
ACMTAPERSTANDARDJIS
  2
AcmTaperStdJIS
  3
"Amdt_StdImp|Product Description: AutoCAD Mechanical|Company: Autodesk, Inc."
 90
     1024
 91
        0
280
     0
281
     0
  0
CLASS
  1
CAMSSTRUCTBTNSTATE
  2
StructBtnState
  3
DesignerAssemblies
 90
     1024
 91
        0
280
     0
281
     0
  0
CLASS
  1
SCALE
  2
AcDbScale
  3
ObjectDBX Classes
 90
     1153
 91
       36
280
     0
281
     0
  0
CLASS
  1
MLEADERSTYLE
  2
AcDbMLeaderStyle
  3
ACDB_MLEADERSTYLE_CLASS
 90
     4095
 91
        1
280
     0
281
     0
  0
CLASS
  1
ACMANOOTATIONVIEWSTANDARDJIS
  2
AmdtAnViewStdJIS
  3
"Amdt_StdImp|Product Description: AutoCAD Mechanical|Company: Autodesk, Inc."
 90
     1024
 91
        0
280
     0
281
     0
  0
CLASS
  1
ACMSURFSTANDARDJIS2003
  2
AcmSurfTextStdJIS2003
  3
"Amdt_StdImp|Product Description: AutoCAD Mechanical|Company: Autodesk, Inc."
 90
     1024
 91
        0
280
     0
281
     0
  0
CLASS
  1
CELLSTYLEMAP
  2
AcDbCellStyleMap
  3
ObjectDBX Classes
 90
     1152
 91
        2
280
     0
281
     0
  0
CLASS
  1
ACMFCFSTANDARDJIS98
  2
AcmFCFStdJIS98
  3
"Amdt_StdImp|Product Description: AutoCAD Mechanical|Company: Autodesk, Inc."
 90
     1024
 91
        0
280
     0
281
     0
  0
CLASS
  1
SORTENTSTABLE
  2
AcDbSortentsTable
  3
ObjectDBX Classes
 90
        0
 91
       10
280
     0
281
     0
  0
CLASS
  1
DIMASSOC
  2
AcDbDimAssoc
  3
"AcDbDimAssoc|Product Desc:     AcDim ARX App For Dimension|Company:          Autodesk, Inc.|WEB Address:      www.autodesk.com"
 90
        0
 91
       17
280
     0
281
     0
  0
CLASS
  1
STDPART2D
  2
AmgStdPart
  3
AmgStdPart|Product Description: AutoCAD Mechanical|Company: Autodesk, Inc.
 90
     4095
 91
        0
280
     0
281
     1
  0
CLASS
  1
ACMDATAENTRYPART
  2
AcmDataEntryPart
  3
AcmSymBB|Product Description: AutoCAD Mechanical|Company: Autodesk, Inc.
 90
     1024
 91
        0
280
     0
281
     0
  0
CLASS
  1
ACMPARTREF
  2
AcmPartRef
  3
"AcmSymBB|Product Description: AutoCAD Mechanical|Company: Autodesk, Inc."
 90
     4095
 91
        0
280
     0
281
     1
  0
CLASS
  1
ACDBSTDPARTRES_LINE
  2
AcDbStdPartRes_Line
  3
AmgStdPart|Product Description: AutoCAD Mechanical|Company: Autodesk, Inc.
 90
     1024
 91
        0
280
     0
281
     0
  0
CLASS
  1
ACMBOM
  2
AcmBom
  3
"AcmSymBB|Product Description: AutoCAD Mechanical|Company: Autodesk, Inc."
 90
     1024
 91
        0
280
     0
281
     0
  0
CLASS
  1
AMDTFORMULAUPDATEDISPATCHER
  2
AmdtFormulaUpdateDispatcher
  3
AcMeServices
 90
     1024
 91
        0
280
     0
281
     0
  0
CLASS
  1
ACMBOMROW
  2
AcmBomRow
  3
"AcmSymBB|Product Description: AutoCAD Mechanical|Company: Autodesk, Inc."
 90
     1024
 91
        0
280
     0
281
     0
  0
CLASS
  1
ACMPARTLIST
  2
AcmPartList
  3
"AcmSymBB|Product Description: AutoCAD Mechanical|Company: Autodesk, Inc."
 90
     4095
 91
        0
280
     0
281
     1
  0
CLASS
  1
ACDBLINERES
  2
AcDbLineRes
  3
AcGrefServices
 90
     1024
 91
        0
280
     0
281
     0
  0
CLASS
  1
ACRFINSADJ
  2
AcRfInsAdjuster
  3
AcMeServices
 90
     1024
 91
        0
280
     0
281
     0
  0
CLASS
  1
ACMSTANDARDISO
  2
AcmStandardISO
  3
"Amdt_StdImp|Product Description: AutoCAD Mechanical|Company: Autodesk, Inc."
 90
     1024
 91
        1
280
     0
281
     0
  0
CLASS
  1
AMDTEDGESTANDARDISO13715
  2
AmdtEdgeStdISO13715
  3
"Amdt_StdImp|Product Description: AutoCAD Mechanical|Company: Autodesk, Inc."
 90
     1024
 91
        1
280
     0
281
     0
  0
CLASS
  1
ACMSURFSTANDARDISO2002
  2
AcmSurfTextStdISO2002
  3
"Amdt_StdImp|Product Description: AutoCAD Mechanical|Company: Autodesk, Inc."
 90
     1024
 91
        1
280
     0
281
     0
  0
CLASS
  1
ACMFCFSTANDARDISO
  2
AcmFCFStdISO
  3
"Amdt_StdImp|Product Description: AutoCAD Mechanical|Company: Autodesk, Inc."
 90
     1024
 91
        1
280
     0
281
     0
  0
CLASS
  1
ACMWELDSTANDARDISO
  2
AcmWeldingStdISO
  3
"Amdt_StdImp|Product Description: AutoCAD Mechanical|Company: Autodesk, Inc."
 90
     1024
 91
        1
280
     0
281
     0
  0
CLASS
  1
ACMIDSTANDARDISO
  2
AcmIdStdISO
  3
"Amdt_StdImp|Product Description: AutoCAD Mechanical|Company: Autodesk, Inc."
 90
     1024
 91
        1
280
     0
281
     0
  0
CLASS
  1
ACMDATUMSTANDARDISO
  2
AcmDatumStdISO
  3
"Amdt_StdImp|Product Description: AutoCAD Mechanical|Company: Autodesk, Inc."
 90
     1024
 91
        1
280
     0
281
     0
  0
CLASS
  1
ACMBOMSTANDARDISO
  2
AcmBOMStdISO
  3
"Amdt_StdImp|Product Description: AutoCAD Mechanical|Company: Autodesk, Inc."
 90
     1024
 91
        1
280
     0
281
     0
  0
CLASS
  1
ACMDETAILSTANDARDISO
  2
AmdtDetailSymStdISO
  3
"Amdt_StdImp|Product Description: AutoCAD Mechanical|Company: Autodesk, Inc."
 90
     1024
 91
        1
280
     0
281
     0
  0
CLASS
  1
ACMSECTIONSTANDARDISO2001
  2
AmdtSectionSymStdISO2001
  3
"Amdt_StdImp|Product Description: AutoCAD Mechanical|Company: Autodesk, Inc."
 90
     1024
 91
        1
280
     0
281
     0
  0
CLASS
  1
ACMCENTERLINESTANDARDISO
  2
AmdtCenterLineStdISO
  3
"Amdt_StdImp|Product Description: AutoCAD Mechanical|Company: Autodesk, Inc."
 90
     1024
 91
        1
280
     0
281
     0
  0
CLASS
  1
ACMTHREADLINESTANDARDISO
  2
AmdtThreadLineStdISO
  3
"Amdt_StdImp|Product Description: AutoCAD Mechanical|Company: Autodesk, Inc."
 90
     1024
 91
        1
280
     0
281
     0
  0
CLASS
  1
ACMNOTESTANDARDISO
  2
AmdtNoteStdISO
  3
"Amdt_StdImp|Product Description: AutoCAD Mechanical|Company: Autodesk, Inc."
 90
     1024
 91
        1
280
     0
281
     0
  0
CLASS
  1
ACMTAPERSTANDARDISO
  2
AcmTaperStdISO
  3
"Amdt_StdImp|Product Description: AutoCAD Mechanical|Company: Autodesk, Inc."
 90
     1024
 91
        1
280
     0
281
     0
  0
CLASS
  1
ACMANOOTATIONVIEWSTANDARDISO
  2
AmdtAnViewStdISO
  3
"Amdt_StdImp|Product Description: AutoCAD Mechanical|Company: Autodesk, Inc."
 90
     1024
 91
        1
280
     0
281
     0
  0
CLASS
  1
ACAMGHOLECHARTSTDISO
  2
AcAmgHoleChartStdISO
  3
AmgDim|Product Description: AutoCAD Mechanical|Company: Autodesk, Inc.
 90
     1024
 91
        1
280
     0
281
     0
  0
CLASS
  1
EXACXREFPANELOBJECT
  2
ExAcXREFPanelObject
  3
EXAC_ESW
 90
     1025
 91
        0
280
     0
281
     0
  0
CLASS
  1
NPOCOLLECTION
  2
AcDbImpNonPersistentObjectsCollection
  3
ObjectDBX Classes
 90
     1153
 91
        0
280
     0
281
     0
  0
CLASS
  1
ACDBSTDPARTRES_ARC
  2
AcDbStdPartRes_Arc
  3
AmgStdPart|Product Description: AutoCAD Mechanical|Company: Autodesk, Inc.
 90
     1024
 91
        0
280
     0
281
     0
  0
CLASS
  1
AMDTNOTE
  2
AmdtNote
  3
"AcmSymBB|Product Description: AutoCAD Mechanical|Company: Autodesk, Inc."
 90
     4095
 91
        0
280
     0
281
     1
  0
CLASS
  1
PLOTSETTINGS
  2
AcDbPlotSettings
  3
ObjectDBX Classes
 90
        0
 91
        1
280
     0
281
     0
  0
CLASS
  1
ACMSTANDARDANSI
  2
AcmStandardANSI
  3
"Amdt_StdImp|Product Description: AutoCAD Mechanical|Company: Autodesk, Inc."
 90
     1024
 91
        0
280
     0
281
     0
  0
CLASS
  1
ACMSURFSTANDARDANSI
  2
AcmSurfTextStdANSI
  3
"Amdt_StdImp|Product Description: AutoCAD Mechanical|Company: Autodesk, Inc."
 90
     1024
 91
        0
280
     0
281
     0
  0
CLASS
  1
ACMFCFSTANDARDANSI
  2
AcmFCFStdANSI
  3
"Amdt_StdImp|Product Description: AutoCAD Mechanical|Company: Autodesk, Inc."
 90
     1024
 91
        0
280
     0
281
     0
  0
CLASS
  1
ACMWELDSTANDARDANSI
  2
AcmWeldingStdANSI
  3
"Amdt_StdImp|Product Description: AutoCAD Mechanical|Company: Autodesk, Inc."
 90
     1024
 91
        0
280
     0
281
     0
  0
CLASS
  1
ACMIDSTANDARDANSI
  2
AcmIdStdANSI
  3
"Amdt_StdImp|Product Description: AutoCAD Mechanical|Company: Autodesk, Inc."
 90
     1024
 91
        0
280
     0
281
     0
  0
CLASS
  1
ACMDATUMSTANDARDANSI
  2
AcmDatumStdANSI
  3
"Amdt_StdImp|Product Description: AutoCAD Mechanical|Company: Autodesk, Inc."
 90
     1024
 91
        0
280
     0
281
     0
  0
CLASS
  1
ACMBOMSTANDARDANSI
  2
AcmBOMStdANSI
  3
"Amdt_StdImp|Product Description: AutoCAD Mechanical|Company: Autodesk, Inc."
 90
     1024
 91
        0
280
     0
281
     0
  0
CLASS
  1
ACMDETAILSTANDARDANSI
  2
AmdtDetailSymStdANSI
  3
"Amdt_StdImp|Product Description: AutoCAD Mechanical|Company: Autodesk, Inc."
 90
     1024
 91
        0
280
     0
281
     0
  0
CLASS
  1
ACMSECTIONSTANDARDANSI
  2
AmdtSectionSymStdANSI
  3
"Amdt_StdImp|Product Description: AutoCAD Mechanical|Company: Autodesk, Inc."
 90
     1024
 91
        0
280
     0
281
     0
  0
CLASS
  1
ACMCENTERLINESTANDARDANSI
  2
AmdtCenterLineStdANSI
  3
"Amdt_StdImp|Product Description: AutoCAD Mechanical|Company: Autodesk, Inc."
 90
     1024
 91
        0
280
     0
281
     0
  0
CLASS
  1
ACMTHREADLINESTANDARDANSI
  2
AmdtThreadLineStdANSI
  3
"Amdt_StdImp|Product Description: AutoCAD Mechanical|Company: Autodesk, Inc."
 90
     1024
 91
        0
280
     0
281
     0
  0
CLASS
  1
ACMNOTESTANDARDANSI
  2
AmdtNoteStdANSI
  3
"Amdt_StdImp|Product Description: AutoCAD Mechanical|Company: Autodesk, Inc."
 90
     1024
 91
        0
280
     0
281
     0
  0
CLASS
  1
ACMTAPERSTANDARDANSI
  2
AcmTaperStdANSI
  3
"Amdt_StdImp|Product Description: AutoCAD Mechanical|Company: Autodesk, Inc."
 90
     1024
 91
        0
280
     0
281
     0
  0
CLASS
  1
ACMANOOTATIONVIEWSTANDARDANSI
  2
AmdtAnViewStdANSI
  3
"Amdt_StdImp|Product Description: AutoCAD Mechanical|Company: Autodesk, Inc."
 90
     1024
 91
        0
280
     0
281
     0
  0
CLASS
  1
ACAMGHOLECHARTSTDANSI
  2
AcAmgHoleChartStdANSI
  3
AmgDim|Product Description: AutoCAD Mechanical|Company: Autodesk, Inc.
 90
     1024
 91
        0
280
     0
281
     0
  0
CLASS
  1
ACMSTANDARDBSI
  2
AcmStandardBSI
  3
"Amdt_StdImp|Product Description: AutoCAD Mechanical|Company: Autodesk, Inc."
 90
     1024
 91
        0
280
     0
281
     0
  0
CLASS
  1
ACMSURFSTANDARDBSI2002
  2
AcmSurfTextStdBSI2002
  3
"Amdt_StdImp|Product Description: AutoCAD Mechanical|Company: Autodesk, Inc."
 90
     1024
 91
        0
280
     0
281
     0
  0
CLASS
  1
ACMFCFSTANDARDBSI
  2
AcmFCFStdBSI
  3
"Amdt_StdImp|Product Description: AutoCAD Mechanical|Company: Autodesk, Inc."
 90
     1024
 91
        0
280
     0
281
     0
  0
CLASS
  1
ACMWELDSTANDARDBSI
  2
AcmWeldingStdBSI
  3
"Amdt_StdImp|Product Description: AutoCAD Mechanical|Company: Autodesk, Inc."
 90
     1024
 91
        0
280
     0
281
     0
  0
CLASS
  1
ACMIDSTANDARDBSI
  2
AcmIdStdBSI
  3
"Amdt_StdImp|Product Description: AutoCAD Mechanical|Company: Autodesk, Inc."
 90
     1024
 91
        0
280
     0
281
     0
  0
CLASS
  1
ACMDATUMSTANDARDBSI
  2
AcmDatumStdBSI
  3
"Amdt_StdImp|Product Description: AutoCAD Mechanical|Company: Autodesk, Inc."
 90
     1024
 91
        0
280
     0
281
     0
  0
CLASS
  1
ACMBOMSTANDARDBSI
  2
AcmBOMStdBSI
  3
"Amdt_StdImp|Product Description: AutoCAD Mechanical|Company: Autodesk, Inc."
 90
     1024
 91
        0
280
     0
281
     0
  0
CLASS
  1
ACMDETAILSTANDARDBSI
  2
AmdtDetailSymStdBSI
  3
"Amdt_StdImp|Product Description: AutoCAD Mechanical|Company: Autodesk, Inc."
 90
     1024
 91
        0
280
     0
281
     0
  0
CLASS
  1
ACMSECTIONSTANDARDBSI2001
  2
AmdtSectionSymStdBSI2001
  3
"Amdt_StdImp|Product Description: AutoCAD Mechanical|Company: Autodesk, Inc."
 90
     1024
 91
        0
280
     0
281
     0
  0
CLASS
  1
ACMCENTERLINESTANDARDBSI
  2
AmdtCenterLineStdBSI
  3
"Amdt_StdImp|Product Description: AutoCAD Mechanical|Company: Autodesk, Inc."
 90
     1024
 91
        0
280
     0
281
     0
  0
CLASS
  1
ACMTHREADLINESTANDARDBSI
  2
AmdtThreadLineStdBSI
  3
"Amdt_StdImp|Product Description: AutoCAD Mechanical|Company: Autodesk, Inc."
 90
     1024
 91
        0
280
     0
281
     0
  0
CLASS
  1
ACMNOTESTANDARDBSI
  2
AmdtNoteStdBSI
  3
"Amdt_StdImp|Product Description: AutoCAD Mechanical|Company: Autodesk, Inc."
 90
     1024
 91
        0
280
     0
281
     0
  0
CLASS
  1
ACMTAPERSTANDARDBSI
  2
AcmTaperStdBSI
  3
"Amdt_StdImp|Product Description: AutoCAD Mechanical|Company: Autodesk, Inc."
 90
     1024
 91
        0
280
     0
281
     0
  0
CLASS
  1
ACMANOOTATIONVIEWSTANDARDBSI
  2
AmdtAnViewStdBSI
  3
"Amdt_StdImp|Product Description: AutoCAD Mechanical|Company: Autodesk, Inc."
 90
     1024
 91
        0
280
     0
281
     0
  0
CLASS
  1
ACAMGHOLECHARTSTDBSI
  2
AcAmgHoleChartStdBSI
  3
AmgDim|Product Description: AutoCAD Mechanical|Company: Autodesk, Inc.
 90
     1024
 91
        0
280
     0
281
     0
  0
CLASS
  1
AMDTEDGESTANDARDJIS
  2
AmdtEdgeStdJIS
  3
"Amdt_StdImp|Product Description: AutoCAD Mechanical|Company: Autodesk, Inc."
 90
     1024
 91
        0
280
     0
281
     0
  0
CLASS
  1
ACDBOPPOLYLINERES
  2
AcDbOpPolylineRes
  3
AcGrefServices
 90
     1024
 91
        0
280
     0
281
     0
  0
CLASS
  1
AMDTACMWBLOCKBOMENTITY
  2
AmdtAcmWblockBomEntity
  3
"AcmSymBB|Product Description: AutoCAD Mechanical|Company: Autodesk, Inc."
 90
     4095
 91
        0
280
     0
281
     1
  0
CLASS
  1
ACMSURFSYM
  2
AcmSurfaceTexture
  3
"AcmSymBB|Product Description: AutoCAD Mechanical|Company: Autodesk, Inc."
 90
     4095
 91
        0
280
     0
281
     1
  0
CLASS
  1
ACDBDIMENSIONRES
  2
AcDbDimensionRes
  3
AcmSymBB|Product Description: AutoCAD Mechanical|Company: Autodesk, Inc.
 90
     1024
 91
        0
280
     0
281
     0
  0
CLASS
  1
ACDBCIRCARCRES
  2
AcDbCircArcRes
  3
AcGrefServices
 90
     1024
 91
        0
280
     0
281
     0
  0
CLASS
  1
ACDB_BLKREFOBJECTCONTEXTDATA_CLASS
  2
AcDbBlkRefObjectContextData
  3
ObjectDBX Classes
 90
     1153
 91
        0
280
     0
281
     0
  0
CLASS
  1
ACMPICKOBJ
  2
AcmPickEnt
  3
"AcmSymBB|Product Description: AutoCAD Mechanical|Company: Autodesk, Inc."
 90
     1024
 91
        0
280
     0
281
     1
  0
CLASS
  1
ACMBALLOON
  2
AcmBalloon
  3
"AcmSymBB|Product Description: AutoCAD Mechanical|Company: Autodesk, Inc."
 90
     4095
 91
        0
280
     0
281
     1
  0
ENDSEC
  0
SECTION
  2
TABLES
  0
TABLE
  2
VPORT
  5
8
330
0
100
AcDbSymbolTable
 70
     1
  0
VPORT
  5
27A
330
8
100
AcDbSymbolTableRecord
100
AcDbViewportTableRecord
  2
*Active
 70
     0
 10
0.0
 20
0.0
 11
1.0
 21
1.0
 12
2704.695083843247
 22
2057.373973677565
 13
0.0
 23
0.0
 14
25.0
 24
25.0
 15
100.0
 25
100.0
 16
0.0
 26
0.0
 36
1.0
 17
0.0
 27
0.0
 37
0.0
 40
1287.11861922243
 41
1.71137026239067
 42
50.0
 43
0.0
 44
0.0
 50
0.0
 51
0.0
 71
    16
 72
 20000
 73
     1
 74
     3
 75
     0
 76
     0
 77
     0
 78
     0
281
     0
 65
     0
110
0.0
120
0.0
130
0.0
111
1.0
121
0.0
131
0.0
112
0.0
122
1.0
132
0.0
 79
     0
146
0.0
348
285
 60
     3
 61
     5
292
     1
282
     0
141
0.0
142
0.0
 63
   250
421
  3355443
  0
ENDTAB
  0
TABLE
  2
LTYPE
  5
5
330
0
100
AcDbSymbolTable
 70
    22
  0
LTYPE
  5
14
330
5
100
AcDbSymbolTableRecord
100
AcDbLinetypeTableRecord
  2
ByBlock
 70
     0
  3

 72
    65
 73
     0
 40
0.0
  0
LTYPE
  5
15
330
5
100
AcDbSymbolTableRecord
100
AcDbLinetypeTableRecord
  2
ByLayer
 70
     0
  3

 72
    65
 73
     0
 40
0.0
  0
LTYPE
  5
16
330
5
100
AcDbSymbolTableRecord
100
AcDbLinetypeTableRecord
  2
Continuous
 70
     0
  3
Solid line
 72
    65
 73
     0
 40
0.0
  0
LTYPE
  5
4D
330
5
100
AcDbSymbolTableRecord
100
AcDbLinetypeTableRecord
  2
AM_ISO02W050
 70
     0
  3
__ __ __ __ __ __ __ __ __ __ __ __ __ __ __
 72
    65
 73
     2
 40
7.5
 49
6.0
 74
     0
 49
-1.5
 74
     0
  0
LTYPE
  5
4E
330
5
100
AcDbSymbolTableRecord
100
AcDbLinetypeTableRecord
  2
AM_ISO08W050
 70
     0
  3
____ . ____ . ____ . ____ . ____ . ____ . ____
 72
    65
 73
     4
 40
18.0
 49
12.0
 74
     0
 49
-1.5
 74
     0
 49
3.0
 74
     0
 49
-1.5
 74
     0
  0
LTYPE
  5
4F
330
5
100
AcDbSymbolTableRecord
100
AcDbLinetypeTableRecord
  2
AM_ISO09W050
 70
     0
  3
_____ . . _____ . . _____ . . ____ .. ____
 72
    65
 73
     6
 40
22.5
 49
12.0
 74
     0
 49
-1.5
 74
     0
 49
3.0
 74
     0
 49
-1.5
 74
     0
 49
3.0
 74
     0
 49
-1.5
 74
     0
  0
LTYPE
  5
50
330
5
100
AcDbSymbolTableRecord
100
AcDbLinetypeTableRecord
  2
Amconstr
 70
     0
  3
_______________________
 72
    65
 73
     2
 40
9999.0
 49
9999.0
 74
     0
 49
0.0
 74
     0
  0
LTYPE
  5
51
330
5
100
AcDbSymbolTableRecord
100
AcDbLinetypeTableRecord
  2
AM_ISO08W050x2
 70
     0
  3
__ . __ . __ . __ . __ . __
 72
    65
 73
     4
 40
9.0
 49
6.0
 74
     0
 49
-0.75
 74
     0
 49
1.5
 74
     0
 49
-0.75
 74
     0
  0
LTYPE
  5
52
330
5
100
AcDbSymbolTableRecord
100
AcDbLinetypeTableRecord
  2
AM_ISO02W050x2
 70
     0
  3
 _ _ _ _ _ _ _ _ _ _ _ _
 72
    65
 73
     2
 40
3.75
 49
3.0
 74
     0
 49
-0.75
 74
     0
  0
LTYPE
  5
55
330
5
100
AcDbSymbolTableRecord
100
AcDbLinetypeTableRecord
  2
Amzigzag
 70
     0
  3
/\/-/\/-/\/-/\/-/\/-/\/
 72
    65
 73
     2
 40
11.0001
 49
0.0001
 74
     4
 75
   136
340
23D
 46
0.04
 50
0.0
 44
0.0
 45
0.0
 49
-11.0
 74
     0
  0
LTYPE
  5
65
330
5
100
AcDbSymbolTableRecord
100
AcDbLinetypeTableRecord
  2
CENTER
 70
     0
  3
__ . __
 72
    65
 73
     4
 40
7.0
 49
4.0
 74
     0
 49
-1.0
 74
     0
 49
1.0
 74
     0
 49
-1.0
 74
     0
  0
LTYPE
  5
E0
330
5
100
AcDbSymbolTableRecord
100
AcDbLinetypeTableRecord
  2
HIDDEN
 70
     0
  3
Hidden __ __ __ __ __ __ __ __ __ __ __ __ __ _
 72
    65
 73
     2
 40
9.524999999999996
 49
6.349999999999998
 74
     0
 49
-3.174999999999998
 74
     0
  0
LTYPE
  5
E1
330
5
100
AcDbSymbolTableRecord
100
AcDbLinetypeTableRecord
  2
PHANTOM2
 70
     0
  3
Phantom (.5x) ___ _ _ ___ _ _ ___ _ _ ___ _ _
 72
    65
 73
     6
 40
31.75
 49
15.875
 74
     0
 49
-3.174999999999998
 74
     0
 49
3.174999999999998
 74
     0
 49
-3.174999999999998
 74
     0
 49
3.174999999999998
 74
     0
 49
-3.174999999999998
 74
     0
  0
LTYPE
  5
5A2
330
5
100
AcDbSymbolTableRecord
100
AcDbLinetypeTableRecord
  2
ACJISWELD
 70
     0
  3
_ _ _ _ _
 72
    65
 73
     2
 40
2.0
 49
2.0
 74
     0
 49
-1.0
 74
     0
  0
LTYPE
  5
7E2F
330
5
100
AcDbSymbolTableRecord
100
AcDbLinetypeTableRecord
  2
ACISOWELD
 70
     0
  3
_ _ _ _ _
 72
    65
 73
     2
 40
2.0
 49
2.0
 74
     0
 49
-1.0
 74
     0
  0
LTYPE
  5
7E30
330
5
100
AcDbSymbolTableRecord
100
AcDbLinetypeTableRecord
  2
ACISOTGB
 70
     0
  3
__ . . __ . .
 72
    65
 73
     6
 40
9.0
 49
4.0
 74
     0
 49
-1.0
 74
     0
 49
1.0
 74
     0
 49
-1.0
 74
     0
 49
1.0
 74
     0
 49
-1.0
 74
     0
  0
LTYPE
  5
7E31
330
5
100
AcDbSymbolTableRecord
100
AcDbLinetypeTableRecord
  2
ACISOTGL
 70
     0
  3
_ _ _ _ _
 72
    65
 73
     2
 40
3.0
 49
2.0
 74
     0
 49
-1.0
 74
     0
  0
ENDTAB
  0
TABLE
  2
LAYER
  5
2
102
{ACAD_XDICTIONARY
360
BF
102
}
330
0
100
AcDbSymbolTable
 70
    10
  0
LAYER
  5
10
102
{ACAD_XDICTIONARY
360
29F7
102
}
330
2
100
AcDbSymbolTableRecord
100
AcDbLayerTableRecord
  2
0
 70
     0
 62
     7
  6
Continuous
370
    -3
390
F
347
27E
  0
LAYER
  5
81
102
{ACAD_XDICTIONARY
360
29F9
102
}
330
2
100
AcDbSymbolTableRecord
100
AcDbLayerTableRecord
  2
AM_0 外形線1
 70
     0
 62
     7
  6
Continuous
370
    25
390
F
347
27E
  0
LAYER
  5
427
330
2
100
AcDbSymbolTableRecord
100
AcDbLayerTableRecord
  2
Defpoints
 70
     0
 62
     7
  6
Continuous
290
     0
370
    -3
390
F
347
27E
  0
LAYER
  5
2CB0
330
2
100
AcDbSymbolTableRecord
100
AcDbLayerTableRecord
  2
AM_5 寸法線
 70
     0
 62
     3
  6
Continuous
370
    13
390
F
347
27E
1001
AcAecLayerStandard
1000

1000

  0
LAYER
  5
2CB1
330
2
100
AcDbSymbolTableRecord
100
AcDbLayerTableRecord
  2
AM_4 細線
 70
     0
 62
     4
  6
Continuous
370
    13
390
F
347
27E
1001
AcAecLayerStandard
1000

1000

  0
LAYER
  5
2CB2
330
2
100
AcDbSymbolTableRecord
100
AcDbLayerTableRecord
  2
AM_7 中心線
 70
     0
 62
     1
  6
AM_ISO08W050
370
    13
390
F
347
27E
1001
AcAecLayerStandard
1000

1000

  0
LAYER
  5
2CB3
330
2
100
AcDbSymbolTableRecord
100
AcDbLayerTableRecord
  2
AM_3 隠れ線
 70
     0
 62
     8
  6
ACJISWELD
370
    13
390
F
347
27E
1001
AcAecLayerStandard
1000

1000

  0
LAYER
  5
2CB5
330
2
100
AcDbSymbolTableRecord
100
AcDbLayerTableRecord
  2
AM_6 文字
 70
     0
 62
     2
  6
Continuous
370
    13
390
F
347
27E
1001
AcAecLayerStandard
1000

1000

  0
LAYER
  5
7A81
330
2
100
AcDbSymbolTableRecord
100
AcDbLayerTableRecord
  2
AM_11 想像線
 70
     0
 62
     5
  6
AM_ISO09W050
370
    13
390
F
347
27E
1001
AcAecLayerStandard
1000

1000

  0
ENDTAB
  0
TABLE
  2
STYLE
  5
3
330
0
100
AcDbSymbolTable
 70
    11
  0
STYLE
  5
11
330
3
100
AcDbSymbolTableRecord
100
AcDbTextStyleTableRecord
  2
STANDARD
 70
     0
 40
0.0
 41
1.0
 50
0.0
 71
     0
 42
25.0
  3
ISOCP.SHX
  4
EXTFONT.SHX
  0
STYLE
  5
23D
330
3
100
AcDbSymbolTableRecord
100
AcDbTextStyleTableRecord
  2

 70
     1
 40
0.0
 41
1.0
 50
0.0
 71
     0
 42
2.5
  3
genltshp.shx
  4

  0
STYLE
  5
5D5
330
3
100
AcDbSymbolTableRecord
100
AcDbTextStyleTableRecord
  2
SEISA
 70
     0
 40
0.0
 41
0.9
 50
0.0
 71
     0
 42
25.0
  3
romans.shx
  4
extfont2.shx
  0
STYLE
  5
7E1F
330
3
100
AcDbSymbolTableRecord
100
AcDbTextStyleTableRecord
  2
ACISOTS
 70
     0
 40
1.0
 41
1.0
 50
0.0
 71
     0
 42
25.0
  3
isocp.shx
  4
extfont.shx
  0
STYLE
  5
7E2E
330
3
100
AcDbSymbolTableRecord
100
AcDbTextStyleTableRecord
  2
ACISOGDT
 70
     0
 40
0.0
 41
1.0
 50
0.0
 71
     0
 42
25.0
  3
amgdt.shx
  4

  0
ENDTAB
  0
TABLE
  2
VIEW
  5
6
330
0
100
AcDbSymbolTable
 70
     6
  0
VIEW
  5
91B
330
6
100
AcDbSymbolTableRecord
100
AcDbViewTableRecord
  2
AM_VIEW1
 70
     0
 40
1485.0
 10
1435.621923096604
 20
2227.500003693821
 41
2871.243842364532
 11
0.0
 21
0.0
 31
1.0
 12
0.0
 22
0.0
 32
0.0
 42
50.0
 43
0.0
 44
0.0
 50
0.0
 71
    16
281
     0
 72
     0
 73
     0
  0
VIEW
  5
91C
330
6
100
AcDbSymbolTableRecord
100
AcDbViewTableRecord
  2
AM_VIEW2
 70
     0
 40
1485.0
 10
2764.378080732073
 20
2227.500003693821
 41
2871.243842364532
 11
0.0
 21
0.0
 31
1.0
 12
0.0
 22
0.0
 32
0.0
 42
50.0
 43
0.0
 44
0.0
 50
0.0
 71
    16
281
     0
 72
     0
 73
     0
  0
VIEW
  5
91D
330
6
100
AcDbSymbolTableRecord
100
AcDbViewTableRecord
  2
AM_VIEW3
 70
     0
 40
1485.0
 10
1435.621923096604
 20
742.5000036938206
 41
2871.243842364532
 11
0.0
 21
0.0
 31
1.0
 12
0.0
 22
0.0
 32
0.0
 42
50.0
 43
0.0
 44
0.0
 50
0.0
 71
    16
281
     0
 72
     0
 73
     0
  0
VIEW
  5
91E
330
6
100
AcDbSymbolTableRecord
100
AcDbViewTableRecord
  2
AM_VIEW4
 70
     0
 40
1485.0
 10
2764.378080732073
 20
742.5000036938206
 41
2871.243842364532
 11
0.0
 21
0.0
 31
1.0
 12
0.0
 22
0.0
 32
0.0
 42
50.0
 43
0.0
 44
0.0
 50
0.0
 71
    16
281
     0
 72
     0
 73
     0
  0
VIEW
  5
91F
330
6
100
AcDbSymbolTableRecord
100
AcDbViewTableRecord
  2
AM_VIEW5
 70
     0
 40
1485.0
 10
2100.000001914338
 20
1485.000003693821
 41
2871.243842364532
 11
0.0
 21
0.0
 31
1.0
 12
0.0
 22
0.0
 32
0.0
 42
50.0
 43
0.0
 44
0.0
 50
0.0
 71
    16
281
     0
 72
     0
 73
     0
  0
VIEW
  5
920
330
6
100
AcDbSymbolTableRecord
100
AcDbViewTableRecord
  2
AM_VIEW6
 70
     0
 40
2969.9703
 10
2100.000001914338
 20
1485.00000369382
 41
5742.430259852215
 11
0.0
 21
0.0
 31
1.0
 12
0.0
 22
0.0
 32
0.0
 42
50.0
 43
0.0
 44
0.0
 50
0.0
 71
    16
281
     0
 72
     0
 73
     0
  0
ENDTAB
  0
TABLE
  2
UCS
  5
7
330
0
100
AcDbSymbolTable
 70
     0
  0
ENDTAB
  0
TABLE
  2
APPID
  5
9
330
0
100
AcDbSymbolTable
 70
   396
  0
APPID
  5
12
330
9
100
AcDbSymbolTableRecord
100
AcDbRegAppTableRecord
  2
ACAD
 70
     0
  0
APPID
  5
30
330
9
100
AcDbSymbolTableRecord
100
AcDbRegAppTableRecord
  2
MCAD_NO_VIS
 70
     0
  0
APPID
  5
31
330
9
100
AcDbSymbolTableRecord
100
AcDbRegAppTableRecord
  2
ACAD_TEMP_GRAPHIC
 70
     0
  0
APPID
  5
44
330
9
100
AcDbSymbolTableRecord
100
AcDbRegAppTableRecord
  2
ACATTRIBSERVICES
 70
     0
  0
APPID
  5
F6
330
9
100
AcDbSymbolTableRecord
100
AcDbRegAppTableRecord
  2
AD_DRAW
 70
     0
  0
APPID
  5
114
330
9
100
AcDbSymbolTableRecord
100
AcDbRegAppTableRecord
  2
DESIGNERASSEMBLIES
 70
     0
  0
APPID
  5
118
330
9
100
AcDbSymbolTableRecord
100
AcDbRegAppTableRecord
  2
ACADM_DIM_EDIT
 70
     0
  0
APPID
  5
119
330
9
100
AcDbSymbolTableRecord
100
AcDbRegAppTableRecord
  2
AMDT_DM_ADJ
 70
     0
  0
APPID
  5
1AF
330
9
100
AcDbSymbolTableRecord
100
AcDbRegAppTableRecord
  2
ACAD_DSTYLE_DIMARC_LENGTH_SYMBOL
 70
     0
  0
APPID
  5
1B0
330
9
100
AcDbSymbolTableRecord
100
AcDbRegAppTableRecord
  2
ACAD_DSTYLE_DIMJOGGED_JOGANGLE_SYMBOL
 70
     0
  0
APPID
  5
2D7
330
9
100
AcDbSymbolTableRecord
100
AcDbRegAppTableRecord
  2
ACAD_MLEADERVER
 70
     0
  0
APPID
  5
355
330
9
100
AcDbSymbolTableRecord
100
AcDbRegAppTableRecord
  2
AcadAnnoPO
 70
     0
  0
APPID
  5
428
330
9
100
AcDbSymbolTableRecord
100
AcDbRegAppTableRecord
  2
ACAD_DSTYLE_DIMTEXT_FILL
 70
     0
  0
APPID
  5
429
330
9
100
AcDbSymbolTableRecord
100
AcDbRegAppTableRecord
  2
GENIUS_GENSCREG_15
 70
     0
  0
APPID
  5
42A
330
9
100
AcDbSymbolTableRecord
100
AcDbRegAppTableRecord
  2
GENIUS_GENOBJ-N-SDF_13
 70
     0
  0
APPID
  5
42B
330
9
100
AcDbSymbolTableRecord
100
AcDbRegAppTableRecord
  2
GENIUS_GENODEF_13
 70
     0
  0
APPID
  5
42C
330
9
100
AcDbSymbolTableRecord
100
AcDbRegAppTableRecord
  2
ACAD_EXEMPT_FROM_CAD_STANDARDS
 70
     0
  0
APPID
  5
42D
330
9
100
AcDbSymbolTableRecord
100
AcDbRegAppTableRecord
  2
AcAecLayerStandard
 70
     0
  0
APPID
  5
42E
330
9
100
AcDbSymbolTableRecord
100
AcDbRegAppTableRecord
  2
GENIUS_GENOBJ-N-CEN_13
 70
     0
  0
APPID
  5
42F
330
9
100
AcDbSymbolTableRecord
100
AcDbRegAppTableRecord
  2
GENIUS_GENCEN_19
 70
     0
  0
APPID
  5
430
330
9
100
AcDbSymbolTableRecord
100
AcDbRegAppTableRecord
  2
ACAD_DSTYLE_DIMINSPECT
 70
     0
  0
APPID
  5
431
330
9
100
AcDbSymbolTableRecord
100
AcDbRegAppTableRecord
  2
GENIUS_AMGTXT_16
 70
     0
  0
APPID
  5
432
330
9
100
AcDbSymbolTableRecord
100
AcDbRegAppTableRecord
  2
GENIUS_GENFIL_13
 70
     0
  0
APPID
  5
433
330
9
100
AcDbSymbolTableRecord
100
AcDbRegAppTableRecord
  2
GENIUS_GENOLIS_13
 70
     0
  0
APPID
  5
434
330
9
100
AcDbSymbolTableRecord
100
AcDbRegAppTableRecord
  2
GENIUS_GENOBJ-N-CHA_13
 70
     0
  0
APPID
  5
435
330
9
100
AcDbSymbolTableRecord
100
AcDbRegAppTableRecord
  2
GENIUS_GENOENT_13
 70
     0
  0
APPID
  5
436
330
9
100
AcDbSymbolTableRecord
100
AcDbRegAppTableRecord
  2
GENIUS_GENOREF_13
 70
     0
  0
APPID
  5
437
330
9
100
AcDbSymbolTableRecord
100
AcDbRegAppTableRecord
  2
GENIUS_GENOBJ-N-FIL_13
 70
     0
  0
APPID
  5
438
330
9
100
AcDbSymbolTableRecord
100
AcDbRegAppTableRecord
  2
GEVID1208829536
 70
     0
  0
APPID
  5
439
330
9
100
AcDbSymbolTableRecord
100
AcDbRegAppTableRecord
  2
GEVDC
 70
     0
  0
APPID
  5
43A
330
9
100
AcDbSymbolTableRecord
100
AcDbRegAppTableRecord
  2
GEVRADREF
 70
     0
  0
APPID
  5
43B
330
9
100
AcDbSymbolTableRecord
100
AcDbRegAppTableRecord
  2
GENIUS_GENBH_13
 70
     0
  0
APPID
  5
43C
330
9
100
AcDbSymbolTableRecord
100
AcDbRegAppTableRecord
  2
GENIUS_GENOBJ-NBEHI-BHF_13
 70
     0
  0
APPID
  5
43D
330
9
100
AcDbSymbolTableRecord
100
AcDbRegAppTableRecord
  2
GENIUS_GENOBJ-NBEHI-BHB_13
 70
     0
  0
APPID
  5
43E
330
9
100
AcDbSymbolTableRecord
100
AcDbRegAppTableRecord
  2
GEVID1208829537
 70
     0
  0
APPID
  5
43F
330
9
100
AcDbSymbolTableRecord
100
AcDbRegAppTableRecord
  2
ACAD_DSTYLE_DIMJAG
 70
     0
  0
APPID
  5
440
330
9
100
AcDbSymbolTableRecord
100
AcDbRegAppTableRecord
  2
ACAD_DSTYLE_DIMTALN
 70
     0
  0
APPID
  5
441
330
9
100
AcDbSymbolTableRecord
100
AcDbRegAppTableRecord
  2
AMG_2DHIDE
 70
     0
  0
APPID
  5
442
330
9
100
AcDbSymbolTableRecord
100
AcDbRegAppTableRecord
  2
AMG_2DSTRUCT_BTR
 70
     0
  0
APPID
  5
443
330
9
100
AcDbSymbolTableRecord
100
AcDbRegAppTableRecord
  2
GEVID1208845772
 70
     0
  0
APPID
  5
444
330
9
100
AcDbSymbolTableRecord
100
AcDbRegAppTableRecord
  2
GEVID1208845773
 70
     0
  0
APPID
  5
445
330
9
100
AcDbSymbolTableRecord
100
AcDbRegAppTableRecord
  2
ACADM_2DVIEW_IGN_NOTIFY
 70
     0
  0
APPID
  5
446
330
9
100
AcDbSymbolTableRecord
100
AcDbRegAppTableRecord
  2
GEVID1208845774
 70
     0
  0
APPID
  5
447
330
9
100
AcDbSymbolTableRecord
100
AcDbRegAppTableRecord
  2
GEVID1208845775
 70
     0
  0
APPID
  5
448
330
9
100
AcDbSymbolTableRecord
100
AcDbRegAppTableRecord
  2
GEVID1208845776
 70
     0
  0
APPID
  5
449
330
9
100
AcDbSymbolTableRecord
100
AcDbRegAppTableRecord
  2
GEVID1208845777
 70
     0
  0
APPID
  5
44A
330
9
100
AcDbSymbolTableRecord
100
AcDbRegAppTableRecord
  2
GEVCON
 70
     0
  0
APPID
  5
44B
330
9
100
AcDbSymbolTableRecord
100
AcDbRegAppTableRecord
  2
GENIUS_GENOBJ-F-SCPASSM_13
 70
     0
  0
APPID
  5
44C
330
9
100
AcDbSymbolTableRecord
100
AcDbRegAppTableRecord
  2
GEVID1208845778
 70
     0
  0
APPID
  5
44D
330
9
100
AcDbSymbolTableRecord
100
AcDbRegAppTableRecord
  2
GEVID1208845779
 70
     0
  0
APPID
  5
44E
330
9
100
AcDbSymbolTableRecord
100
AcDbRegAppTableRecord
  2
GEVID1208845780
 70
     0
  0
APPID
  5
44F
330
9
100
AcDbSymbolTableRecord
100
AcDbRegAppTableRecord
  2
GEVID1208845781
 70
     0
  0
APPID
  5
450
330
9
100
AcDbSymbolTableRecord
100
AcDbRegAppTableRecord
  2
GEVID1208845782
 70
     0
  0
APPID
  5
451
330
9
100
AcDbSymbolTableRecord
100
AcDbRegAppTableRecord
  2
GEVID1208845783
 70
     0
  0
APPID
  5
452
330
9
100
AcDbSymbolTableRecord
100
AcDbRegAppTableRecord
  2
GEVID1208845784
 70
     0
  0
APPID
  5
453
330
9
100
AcDbSymbolTableRecord
100
AcDbRegAppTableRecord
  2
GEVID1208845785
 70
     0
  0
APPID
  5
454
330
9
100
AcDbSymbolTableRecord
100
AcDbRegAppTableRecord
  2
GEVID1208845787
 70
     0
  0
APPID
  5
455
330
9
100
AcDbSymbolTableRecord
100
AcDbRegAppTableRecord
  2
GEVID1208845788
 70
     0
  0
APPID
  5
456
330
9
100
AcDbSymbolTableRecord
100
AcDbRegAppTableRecord
  2
GEVID1208845789
 70
     0
  0
APPID
  5
457
330
9
100
AcDbSymbolTableRecord
100
AcDbRegAppTableRecord
  2
GEVID1208845790
 70
     0
  0
APPID
  5
458
330
9
100
AcDbSymbolTableRecord
100
AcDbRegAppTableRecord
  2
GEVID1208845791
 70
     0
  0
APPID
  5
459
330
9
100
AcDbSymbolTableRecord
100
AcDbRegAppTableRecord
  2
GEVID1208845792
 70
     0
  0
APPID
  5
45A
330
9
100
AcDbSymbolTableRecord
100
AcDbRegAppTableRecord
  2
GEVID1208845793
 70
     0
  0
APPID
  5
45B
330
9
100
AcDbSymbolTableRecord
100
AcDbRegAppTableRecord
  2
GEVID1208845794
 70
     0
  0
APPID
  5
45C
330
9
100
AcDbSymbolTableRecord
100
AcDbRegAppTableRecord
  2
GEVID1208845795
 70
     0
  0
APPID
  5
45D
330
9
100
AcDbSymbolTableRecord
100
AcDbRegAppTableRecord
  2
GEVID1208845796
 70
     0
  0
APPID
  5
45E
330
9
100
AcDbSymbolTableRecord
100
AcDbRegAppTableRecord
  2
GEVID1208845797
 70
     0
  0
APPID
  5
45F
330
9
100
AcDbSymbolTableRecord
100
AcDbRegAppTableRecord
  2
GEVID1208845798
 70
     0
  0
APPID
  5
460
330
9
100
AcDbSymbolTableRecord
100
AcDbRegAppTableRecord
  2
GEVID1208845799
 70
     0
  0
APPID
  5
461
330
9
100
AcDbSymbolTableRecord
100
AcDbRegAppTableRecord
  2
GEVID1208845800
 70
     0
  0
APPID
  5
462
330
9
100
AcDbSymbolTableRecord
100
AcDbRegAppTableRecord
  2
GEVID1208845801
 70
     0
  0
APPID
  5
463
330
9
100
AcDbSymbolTableRecord
100
AcDbRegAppTableRecord
  2
GEVID1208845802
 70
     0
  0
APPID
  5
464
330
9
100
AcDbSymbolTableRecord
100
AcDbRegAppTableRecord
  2
GENIUS_GENOBJ-N-DIM_13
 70
     0
  0
APPID
  5
465
330
9
100
AcDbSymbolTableRecord
100
AcDbRegAppTableRecord
  2
GENIUS_GENDIM_13
 70
     0
  0
APPID
  5
466
330
9
100
AcDbSymbolTableRecord
100
AcDbRegAppTableRecord
  2
GENIUS_GENDIMSH_14
 70
     0
  0
APPID
  5
467
330
9
100
AcDbSymbolTableRecord
100
AcDbRegAppTableRecord
  2
GEVID1208845803
 70
     0
  0
APPID
  5
468
330
9
100
AcDbSymbolTableRecord
100
AcDbRegAppTableRecord
  2
GEVID1208845804
 70
     0
  0
APPID
  5
469
330
9
100
AcDbSymbolTableRecord
100
AcDbRegAppTableRecord
  2
GEVID1208845805
 70
     0
  0
APPID
  5
46A
330
9
100
AcDbSymbolTableRecord
100
AcDbRegAppTableRecord
  2
GEVID1208845806
 70
     0
  0
APPID
  5
46B
330
9
100
AcDbSymbolTableRecord
100
AcDbRegAppTableRecord
  2
GEVID1208845807
 70
     0
  0
APPID
  5
46C
330
9
100
AcDbSymbolTableRecord
100
AcDbRegAppTableRecord
  2
GEVID1208845808
 70
     0
  0
APPID
  5
46D
330
9
100
AcDbSymbolTableRecord
100
AcDbRegAppTableRecord
  2
GEVID1208845809
 70
     0
  0
APPID
  5
46E
330
9
100
AcDbSymbolTableRecord
100
AcDbRegAppTableRecord
  2
GEVID1208845810
 70
     0
  0
APPID
  5
46F
330
9
100
AcDbSymbolTableRecord
100
AcDbRegAppTableRecord
  2
GEVID1208845811
 70
     0
  0
APPID
  5
470
330
9
100
AcDbSymbolTableRecord
100
AcDbRegAppTableRecord
  2
GEVID1208845813
 70
     0
  0
APPID
  5
471
330
9
100
AcDbSymbolTableRecord
100
AcDbRegAppTableRecord
  2
GEVID1208845814
 70
     0
  0
APPID
  5
472
330
9
100
AcDbSymbolTableRecord
100
AcDbRegAppTableRecord
  2
GEVID1208845815
 70
     0
  0
APPID
  5
473
330
9
100
AcDbSymbolTableRecord
100
AcDbRegAppTableRecord
  2
GEVID1208845816
 70
     0
  0
APPID
  5
474
330
9
100
AcDbSymbolTableRecord
100
AcDbRegAppTableRecord
  2
GEVID1208845817
 70
     0
  0
APPID
  5
475
330
9
100
AcDbSymbolTableRecord
100
AcDbRegAppTableRecord
  2
GEVID1208845818
 70
     0
  0
APPID
  5
476
330
9
100
AcDbSymbolTableRecord
100
AcDbRegAppTableRecord
  2
GEVID1208845819
 70
     0
  0
APPID
  5
477
330
9
100
AcDbSymbolTableRecord
100
AcDbRegAppTableRecord
  2
GEVID1208845820
 70
     0
  0
APPID
  5
478
330
9
100
AcDbSymbolTableRecord
100
AcDbRegAppTableRecord
  2
GENIUS_GENOBJ-F-SHCL_13
 70
     0
  0
APPID
  5
479
330
9
100
AcDbSymbolTableRecord
100
AcDbRegAppTableRecord
  2
GENIUS_GEFMSH_13
 70
     0
  0
APPID
  5
47A
330
9
100
AcDbSymbolTableRecord
100
AcDbRegAppTableRecord
  2
GENIUS_GENOBJ-F-SHCA_13
 70
     0
  0
APPID
  5
47B
330
9
100
AcDbSymbolTableRecord
100
AcDbRegAppTableRecord
  2
GENIUS_GEFSH_13
 70
     0
  0
APPID
  5
47C
330
9
100
AcDbSymbolTableRecord
100
AcDbRegAppTableRecord
  2
GENIUS_GEFSHP_13
 70
     0
  0
APPID
  5
47D
330
9
100
AcDbSymbolTableRecord
100
AcDbRegAppTableRecord
  2
GENIUS_GEFSHP0_13
 70
     0
  0
APPID
  5
47E
330
9
100
AcDbSymbolTableRecord
100
AcDbRegAppTableRecord
  2
GENIUS_GEFSH0_13
 70
     0
  0
APPID
  5
47F
330
9
100
AcDbSymbolTableRecord
100
AcDbRegAppTableRecord
  2
GENIUS_GEFSHP1_13
 70
     0
  0
APPID
  5
480
330
9
100
AcDbSymbolTableRecord
100
AcDbRegAppTableRecord
  2
GENIUS_GEFSH1_13
 70
     0
  0
APPID
  5
481
330
9
100
AcDbSymbolTableRecord
100
AcDbRegAppTableRecord
  2
GEVID1208866337
 70
     0
  0
APPID
  5
482
330
9
100
AcDbSymbolTableRecord
100
AcDbRegAppTableRecord
  2
GEVID1208866338
 70
     0
  0
APPID
  5
483
330
9
100
AcDbSymbolTableRecord
100
AcDbRegAppTableRecord
  2
GEVID1208866339
 70
     0
  0
APPID
  5
484
330
9
100
AcDbSymbolTableRecord
100
AcDbRegAppTableRecord
  2
GEVID1208866340
 70
     0
  0
APPID
  5
485
330
9
100
AcDbSymbolTableRecord
100
AcDbRegAppTableRecord
  2
GEVID1208866341
 70
     0
  0
APPID
  5
486
330
9
100
AcDbSymbolTableRecord
100
AcDbRegAppTableRecord
  2
ACAD_PSEXT
 70
     0
  0
APPID
  5
487
330
9
100
AcDbSymbolTableRecord
100
AcDbRegAppTableRecord
  2
GEVID1208866342
 70
     0
  0
APPID
  5
488
330
9
100
AcDbSymbolTableRecord
100
AcDbRegAppTableRecord
  2
GEVID1208913836
 70
     0
  0
APPID
  5
489
330
9
100
AcDbSymbolTableRecord
100
AcDbRegAppTableRecord
  2
GEVID1208913837
 70
     0
  0
APPID
  5
48A
330
9
100
AcDbSymbolTableRecord
100
AcDbRegAppTableRecord
  2
GEVID1208913838
 70
     0
  0
APPID
  5
48B
330
9
100
AcDbSymbolTableRecord
100
AcDbRegAppTableRecord
  2
GEVID1208913839
 70
     0
  0
APPID
  5
48C
330
9
100
AcDbSymbolTableRecord
100
AcDbRegAppTableRecord
  2
GENIUS_GENDTOL_13
 70
     0
  0
APPID
  5
48D
330
9
100
AcDbSymbolTableRecord
100
AcDbRegAppTableRecord
  2
GEVID1208928889
 70
     0
  0
APPID
  5
48E
330
9
100
AcDbSymbolTableRecord
100
AcDbRegAppTableRecord
  2
GEVID1208928890
 70
     0
  0
APPID
  5
48F
330
9
100
AcDbSymbolTableRecord
100
AcDbRegAppTableRecord
  2
GEVID1208928891
 70
     0
  0
APPID
  5
490
330
9
100
AcDbSymbolTableRecord
100
AcDbRegAppTableRecord
  2
GEVID1208928892
 70
     0
  0
APPID
  5
491
330
9
100
AcDbSymbolTableRecord
100
AcDbRegAppTableRecord
  2
GEVID1208933827
 70
     0
  0
APPID
  5
492
330
9
100
AcDbSymbolTableRecord
100
AcDbRegAppTableRecord
  2
GEVID1208933829
 70
     0
  0
APPID
  5
493
330
9
100
AcDbSymbolTableRecord
100
AcDbRegAppTableRecord
  2
GEVID1208933830
 70
     0
  0
APPID
  5
494
330
9
100
AcDbSymbolTableRecord
100
AcDbRegAppTableRecord
  2
GEVID1208933831
 70
     0
  0
APPID
  5
495
330
9
100
AcDbSymbolTableRecord
100
AcDbRegAppTableRecord
  2
GEVID1208933832
 70
     0
  0
APPID
  5
496
330
9
100
AcDbSymbolTableRecord
100
AcDbRegAppTableRecord
  2
GEVID1208933833
 70
     0
  0
APPID
  5
497
330
9
100
AcDbSymbolTableRecord
100
AcDbRegAppTableRecord
  2
GEVID1208933834
 70
     0
  0
APPID
  5
498
330
9
100
AcDbSymbolTableRecord
100
AcDbRegAppTableRecord
  2
GEVID1208933835
 70
     0
  0
APPID
  5
499
330
9
100
AcDbSymbolTableRecord
100
AcDbRegAppTableRecord
  2
GEVID1208933836
 70
     0
  0
APPID
  5
49A
330
9
100
AcDbSymbolTableRecord
100
AcDbRegAppTableRecord
  2
GEVID1208933837
 70
     0
  0
APPID
  5
49B
330
9
100
AcDbSymbolTableRecord
100
AcDbRegAppTableRecord
  2
GEVID1208933838
 70
     0
  0
APPID
  5
49C
330
9
100
AcDbSymbolTableRecord
100
AcDbRegAppTableRecord
  2
GEVID1208933840
 70
     0
  0
APPID
  5
49D
330
9
100
AcDbSymbolTableRecord
100
AcDbRegAppTableRecord
  2
GEVID1208933842
 70
     0
  0
APPID
  5
49E
330
9
100
AcDbSymbolTableRecord
100
AcDbRegAppTableRecord
  2
GEVID1208933843
 70
     0
  0
APPID
  5
49F
330
9
100
AcDbSymbolTableRecord
100
AcDbRegAppTableRecord
  2
GEVID1208933844
 70
     0
  0
APPID
  5
4A0
330
9
100
AcDbSymbolTableRecord
100
AcDbRegAppTableRecord
  2
GEVID1208933845
 70
     0
  0
APPID
  5
4A1
330
9
100
AcDbSymbolTableRecord
100
AcDbRegAppTableRecord
  2
GEVID1208933846
 70
     0
  0
APPID
  5
4A2
330
9
100
AcDbSymbolTableRecord
100
AcDbRegAppTableRecord
  2
GEVID1208933847
 70
     0
  0
APPID
  5
4A3
330
9
100
AcDbSymbolTableRecord
100
AcDbRegAppTableRecord
  2
GEVID1208933848
 70
     0
  0
APPID
  5
4A4
330
9
100
AcDbSymbolTableRecord
100
AcDbRegAppTableRecord
  2
GEVID1208933849
 70
     0
  0
APPID
  5
4A5
330
9
100
AcDbSymbolTableRecord
100
AcDbRegAppTableRecord
  2
GEVID1208933850
 70
     0
  0
APPID
  5
4A6
330
9
100
AcDbSymbolTableRecord
100
AcDbRegAppTableRecord
  2
GEVID1208933851
 70
     0
  0
APPID
  5
4A7
330
9
100
AcDbSymbolTableRecord
100
AcDbRegAppTableRecord
  2
GEVID1208933852
 70
     0
  0
APPID
  5
4A8
330
9
100
AcDbSymbolTableRecord
100
AcDbRegAppTableRecord
  2
GEVID1208933853
 70
     0
  0
APPID
  5
4A9
330
9
100
AcDbSymbolTableRecord
100
AcDbRegAppTableRecord
  2
GEVID1208933854
 70
     0
  0
APPID
  5
4AA
330
9
100
AcDbSymbolTableRecord
100
AcDbRegAppTableRecord
  2
GEVID1208933855
 70
     0
  0
APPID
  5
4AB
330
9
100
AcDbSymbolTableRecord
100
AcDbRegAppTableRecord
  2
GEVID1208933856
 70
     0
  0
APPID
  5
4AC
330
9
100
AcDbSymbolTableRecord
100
AcDbRegAppTableRecord
  2
GEVID1208933857
 70
     0
  0
APPID
  5
4AD
330
9
100
AcDbSymbolTableRecord
100
AcDbRegAppTableRecord
  2
GEVID1208933858
 70
     0
  0
APPID
  5
4AE
330
9
100
AcDbSymbolTableRecord
100
AcDbRegAppTableRecord
  2
GEVID1208933859
 70
     0
  0
APPID
  5
4AF
330
9
100
AcDbSymbolTableRecord
100
AcDbRegAppTableRecord
  2
GEVID1208933860
 70
     0
  0
APPID
  5
4B0
330
9
100
AcDbSymbolTableRecord
100
AcDbRegAppTableRecord
  2
GEVID1208933861
 70
     0
  0
APPID
  5
4B1
330
9
100
AcDbSymbolTableRecord
100
AcDbRegAppTableRecord
  2
GEVID1208933862
 70
     0
  0
APPID
  5
4B2
330
9
100
AcDbSymbolTableRecord
100
AcDbRegAppTableRecord
  2
GEVID1208933863
 70
     0
  0
APPID
  5
4B3
330
9
100
AcDbSymbolTableRecord
100
AcDbRegAppTableRecord
  2
GEVID1208933864
 70
     0
  0
APPID
  5
4B4
330
9
100
AcDbSymbolTableRecord
100
AcDbRegAppTableRecord
  2
GEVID1208933865
 70
     0
  0
APPID
  5
4B5
330
9
100
AcDbSymbolTableRecord
100
AcDbRegAppTableRecord
  2
GEVID1208933866
 70
     0
  0
APPID
  5
4B6
330
9
100
AcDbSymbolTableRecord
100
AcDbRegAppTableRecord
  2
GEVID1208933867
 70
     0
  0
APPID
  5
4B7
330
9
100
AcDbSymbolTableRecord
100
AcDbRegAppTableRecord
  2
GEVID1208933868
 70
     0
  0
APPID
  5
4B8
330
9
100
AcDbSymbolTableRecord
100
AcDbRegAppTableRecord
  2
GEVID1208933869
 70
     0
  0
APPID
  5
4B9
330
9
100
AcDbSymbolTableRecord
100
AcDbRegAppTableRecord
  2
GEVID1208933870
 70
     0
  0
APPID
  5
4BA
330
9
100
AcDbSymbolTableRecord
100
AcDbRegAppTableRecord
  2
GEVID1208933871
 70
     0
  0
APPID
  5
4BB
330
9
100
AcDbSymbolTableRecord
100
AcDbRegAppTableRecord
  2
GEVID1208933872
 70
     0
  0
APPID
  5
4BC
330
9
100
AcDbSymbolTableRecord
100
AcDbRegAppTableRecord
  2
GEVID1208933873
 70
     0
  0
APPID
  5
4BD
330
9
100
AcDbSymbolTableRecord
100
AcDbRegAppTableRecord
  2
GEVID1208933874
 70
     0
  0
APPID
  5
4BE
330
9
100
AcDbSymbolTableRecord
100
AcDbRegAppTableRecord
  2
GEVID1208933875
 70
     0
  0
APPID
  5
4BF
330
9
100
AcDbSymbolTableRecord
100
AcDbRegAppTableRecord
  2
GEVID1208933876
 70
     0
  0
APPID
  5
4C0
330
9
100
AcDbSymbolTableRecord
100
AcDbRegAppTableRecord
  2
ACAD_DSTYLE_DIMRADIAL_EXTENSION
 70
     0
  0
APPID
  5
4C1
330
9
100
AcDbSymbolTableRecord
100
AcDbRegAppTableRecord
  2
GEVID1208999100
 70
     0
  0
APPID
  5
4C2
330
9
100
AcDbSymbolTableRecord
100
AcDbRegAppTableRecord
  2
GEVID1208999101
 70
     0
  0
APPID
  5
4C3
330
9
100
AcDbSymbolTableRecord
100
AcDbRegAppTableRecord
  2
GEVID1208999102
 70
     0
  0
APPID
  5
4C4
330
9
100
AcDbSymbolTableRecord
100
AcDbRegAppTableRecord
  2
GEVID1208999103
 70
     0
  0
APPID
  5
4C5
330
9
100
AcDbSymbolTableRecord
100
AcDbRegAppTableRecord
  2
GEVID1208999105
 70
     0
  0
APPID
  5
4C6
330
9
100
AcDbSymbolTableRecord
100
AcDbRegAppTableRecord
  2
GEVID1208999106
 70
     0
  0
APPID
  5
4C7
330
9
100
AcDbSymbolTableRecord
100
AcDbRegAppTableRecord
  2
GEVID1208999108
 70
     0
  0
APPID
  5
4C8
330
9
100
AcDbSymbolTableRecord
100
AcDbRegAppTableRecord
  2
GEVID1208999109
 70
     0
  0
APPID
  5
4C9
330
9
100
AcDbSymbolTableRecord
100
AcDbRegAppTableRecord
  2
GEVID1208999110
 70
     0
  0
APPID
  5
4CA
330
9
100
AcDbSymbolTableRecord
100
AcDbRegAppTableRecord
  2
GEVID1208999111
 70
     0
  0
APPID
  5
4CB
330
9
100
AcDbSymbolTableRecord
100
AcDbRegAppTableRecord
  2
GEVID1208999112
 70
     0
  0
APPID
  5
4CC
330
9
100
AcDbSymbolTableRecord
100
AcDbRegAppTableRecord
  2
GEVID1208999113
 70
     0
  0
APPID
  5
4CD
330
9
100
AcDbSymbolTableRecord
100
AcDbRegAppTableRecord
  2
GEVID1208999114
 70
     0
  0
APPID
  5
4CE
330
9
100
AcDbSymbolTableRecord
100
AcDbRegAppTableRecord
  2
GEVID1210218799
 70
     0
  0
APPID
  5
4CF
330
9
100
AcDbSymbolTableRecord
100
AcDbRegAppTableRecord
  2
GEVID1210218800
 70
     0
  0
APPID
  5
4D0
330
9
100
AcDbSymbolTableRecord
100
AcDbRegAppTableRecord
  2
GENIUS_GEFWELD_13
 70
     0
  0
APPID
  5
4D1
330
9
100
AcDbSymbolTableRecord
100
AcDbRegAppTableRecord
  2
GENIUS_GENOBJ-F-WELS_13
 70
     0
  0
APPID
  5
4D2
330
9
100
AcDbSymbolTableRecord
100
AcDbRegAppTableRecord
  2
AcadAnnotative
 70
     0
  0
APPID
  5
4D3
330
9
100
AcDbSymbolTableRecord
100
AcDbRegAppTableRecord
  2
GEVID1210145339
 70
     0
  0
APPID
  5
4D4
330
9
100
AcDbSymbolTableRecord
100
AcDbRegAppTableRecord
  2
ACAD_DSTYLE_DIMBREAK
 70
     0
  0
APPID
  5
4D5
330
9
100
AcDbSymbolTableRecord
100
AcDbRegAppTableRecord
  2
GEVID1210145340
 70
     0
  0
APPID
  5
4D6
330
9
100
AcDbSymbolTableRecord
100
AcDbRegAppTableRecord
  2
GEVID1210145341
 70
     0
  0
APPID
  5
4D7
330
9
100
AcDbSymbolTableRecord
100
AcDbRegAppTableRecord
  2
GEVID1210145342
 70
     0
  0
APPID
  5
4D8
330
9
100
AcDbSymbolTableRecord
100
AcDbRegAppTableRecord
  2
GEVID1210145343
 70
     0
  0
APPID
  5
4D9
330
9
100
AcDbSymbolTableRecord
100
AcDbRegAppTableRecord
  2
GEVID1210145344
 70
     0
  0
APPID
  5
4DA
330
9
100
AcDbSymbolTableRecord
100
AcDbRegAppTableRecord
  2
GEVID1210145345
 70
     0
  0
APPID
  5
4DB
330
9
100
AcDbSymbolTableRecord
100
AcDbRegAppTableRecord
  2
GEVID1210152816
 70
     0
  0
APPID
  5
4DC
330
9
100
AcDbSymbolTableRecord
100
AcDbRegAppTableRecord
  2
GEVID1210153850
 70
     0
  0
APPID
  5
4DD
330
9
100
AcDbSymbolTableRecord
100
AcDbRegAppTableRecord
  2
GEVID1210153851
 70
     0
  0
APPID
  5
4DE
330
9
100
AcDbSymbolTableRecord
100
AcDbRegAppTableRecord
  2
GEVID1210153852
 70
     0
  0
APPID
  5
4DF
330
9
100
AcDbSymbolTableRecord
100
AcDbRegAppTableRecord
  2
GEVID1210549898
 70
     0
  0
APPID
  5
4E0
330
9
100
AcDbSymbolTableRecord
100
AcDbRegAppTableRecord
  2
GEVID1210549899
 70
     0
  0
APPID
  5
4E1
330
9
100
AcDbSymbolTableRecord
100
AcDbRegAppTableRecord
  2
GEVID1210549900
 70
     0
  0
APPID
  5
4E2
330
9
100
AcDbSymbolTableRecord
100
AcDbRegAppTableRecord
  2
GEVID1210549901
 70
     0
  0
APPID
  5
4E3
330
9
100
AcDbSymbolTableRecord
100
AcDbRegAppTableRecord
  2
GEVID1210549902
 70
     0
  0
APPID
  5
4E4
330
9
100
AcDbSymbolTableRecord
100
AcDbRegAppTableRecord
  2
GEVID1210549903
 70
     0
  0
APPID
  5
4E5
330
9
100
AcDbSymbolTableRecord
100
AcDbRegAppTableRecord
  2
GEVID1210549904
 70
     0
  0
APPID
  5
4E6
330
9
100
AcDbSymbolTableRecord
100
AcDbRegAppTableRecord
  2
GEVID1210549905
 70
     0
  0
APPID
  5
4E7
330
9
100
AcDbSymbolTableRecord
100
AcDbRegAppTableRecord
  2
GEVID1210549906
 70
     0
  0
APPID
  5
4E8
330
9
100
AcDbSymbolTableRecord
100
AcDbRegAppTableRecord
  2
GEVID1210549907
 70
     0
  0
APPID
  5
4E9
330
9
100
AcDbSymbolTableRecord
100
AcDbRegAppTableRecord
  2
GEVID1210549908
 70
     0
  0
APPID
  5
4EA
330
9
100
AcDbSymbolTableRecord
100
AcDbRegAppTableRecord
  2
GEVID1210549909
 70
     0
  0
APPID
  5
4EB
330
9
100
AcDbSymbolTableRecord
100
AcDbRegAppTableRecord
  2
GEVID1210549910
 70
     0
  0
APPID
  5
4EC
330
9
100
AcDbSymbolTableRecord
100
AcDbRegAppTableRecord
  2
GEVID1210549911
 70
     0
  0
APPID
  5
4ED
330
9
100
AcDbSymbolTableRecord
100
AcDbRegAppTableRecord
  2
GEVID1210549912
 70
     0
  0
APPID
  5
4EE
330
9
100
AcDbSymbolTableRecord
100
AcDbRegAppTableRecord
  2
GEVID1210549913
 70
     0
  0
APPID
  5
4EF
330
9
100
AcDbSymbolTableRecord
100
AcDbRegAppTableRecord
  2
GEVID1210549914
 70
     0
  0
APPID
  5
4F0
330
9
100
AcDbSymbolTableRecord
100
AcDbRegAppTableRecord
  2
GEVID1210549915
 70
     0
  0
APPID
  5
4F1
330
9
100
AcDbSymbolTableRecord
100
AcDbRegAppTableRecord
  2
GEVID1210549916
 70
     0
  0
APPID
  5
4F2
330
9
100
AcDbSymbolTableRecord
100
AcDbRegAppTableRecord
  2
GEVID1210549917
 70
     0
  0
APPID
  5
4F3
330
9
100
AcDbSymbolTableRecord
100
AcDbRegAppTableRecord
  2
GENIUS_GENOBJ-N-CRS_13
 70
     0
  0
APPID
  5
4F4
330
9
100
AcDbSymbolTableRecord
100
AcDbRegAppTableRecord
  2
GEVID1210549918
 70
     0
  0
APPID
  5
4F5
330
9
100
AcDbSymbolTableRecord
100
AcDbRegAppTableRecord
  2
GENIUS_GENOBJ-N-CRC_13
 70
     0
  0
APPID
  5
4F6
330
9
100
AcDbSymbolTableRecord
100
AcDbRegAppTableRecord
  2
GENIUS_GENCRC_14
 70
     0
  0
APPID
  5
4F7
330
9
100
AcDbSymbolTableRecord
100
AcDbRegAppTableRecord
  2
GEVID1210549919
 70
     0
  0
APPID
  5
4F8
330
9
100
AcDbSymbolTableRecord
100
AcDbRegAppTableRecord
  2
GEVID1210549921
 70
     0
  0
APPID
  5
4F9
330
9
100
AcDbSymbolTableRecord
100
AcDbRegAppTableRecord
  2
GEVID1210549922
 70
     0
  0
APPID
  5
4FA
330
9
100
AcDbSymbolTableRecord
100
AcDbRegAppTableRecord
  2
GEVID1210635173
 70
     0
  0
APPID
  5
4FB
330
9
100
AcDbSymbolTableRecord
100
AcDbRegAppTableRecord
  2
GEVID1210635174
 70
     0
  0
APPID
  5
4FC
330
9
100
AcDbSymbolTableRecord
100
AcDbRegAppTableRecord
  2
GEVID1210635175
 70
     0
  0
APPID
  5
4FD
330
9
100
AcDbSymbolTableRecord
100
AcDbRegAppTableRecord
  2
GEVID1210635176
 70
     0
  0
APPID
  5
4FE
330
9
100
AcDbSymbolTableRecord
100
AcDbRegAppTableRecord
  2
GEVID1210635177
 70
     0
  0
APPID
  5
4FF
330
9
100
AcDbSymbolTableRecord
100
AcDbRegAppTableRecord
  2
GEVID1210635178
 70
     0
  0
APPID
  5
500
330
9
100
AcDbSymbolTableRecord
100
AcDbRegAppTableRecord
  2
GENIUS_GENIUS_GENBHEDTMP_13
 70
     0
  0
APPID
  5
501
330
9
100
AcDbSymbolTableRecord
100
AcDbRegAppTableRecord
  2
GEVID1210635179
 70
     0
  0
APPID
  5
502
330
9
100
AcDbSymbolTableRecord
100
AcDbRegAppTableRecord
  2
GEVID1210635180
 70
     0
  0
APPID
  5
503
330
9
100
AcDbSymbolTableRecord
100
AcDbRegAppTableRecord
  2
GEVID1210635181
 70
     0
  0
APPID
  5
504
330
9
100
AcDbSymbolTableRecord
100
AcDbRegAppTableRecord
  2
GEVID1210635182
 70
     0
  0
APPID
  5
505
330
9
100
AcDbSymbolTableRecord
100
AcDbRegAppTableRecord
  2
GEVID1210635184
 70
     0
  0
APPID
  5
506
330
9
100
AcDbSymbolTableRecord
100
AcDbRegAppTableRecord
  2
GEVID1210635185
 70
     0
  0
APPID
  5
507
330
9
100
AcDbSymbolTableRecord
100
AcDbRegAppTableRecord
  2
GEVID1210635186
 70
     0
  0
APPID
  5
508
330
9
100
AcDbSymbolTableRecord
100
AcDbRegAppTableRecord
  2
GEVID1210635187
 70
     0
  0
APPID
  5
509
330
9
100
AcDbSymbolTableRecord
100
AcDbRegAppTableRecord
  2
GEVID1210635188
 70
     0
  0
APPID
  5
50A
330
9
100
AcDbSymbolTableRecord
100
AcDbRegAppTableRecord
  2
GEVID1210635189
 70
     0
  0
APPID
  5
50B
330
9
100
AcDbSymbolTableRecord
100
AcDbRegAppTableRecord
  2
GEVID1210635190
 70
     0
  0
APPID
  5
50C
330
9
100
AcDbSymbolTableRecord
100
AcDbRegAppTableRecord
  2
GENIUS_GENREC_14
 70
     0
  0
APPID
  5
50D
330
9
100
AcDbSymbolTableRecord
100
AcDbRegAppTableRecord
  2
GENIUS_GENOBJ-N-REC_13
 70
     0
  0
APPID
  5
50E
330
9
100
AcDbSymbolTableRecord
100
AcDbRegAppTableRecord
  2
GEVID1210676655
 70
     0
  0
APPID
  5
50F
330
9
100
AcDbSymbolTableRecord
100
AcDbRegAppTableRecord
  2
GEVID1210676656
 70
     0
  0
APPID
  5
510
330
9
100
AcDbSymbolTableRecord
100
AcDbRegAppTableRecord
  2
GEVID1210676657
 70
     0
  0
APPID
  5
511
330
9
100
AcDbSymbolTableRecord
100
AcDbRegAppTableRecord
  2
GEVID1210676659
 70
     0
  0
APPID
  5
512
330
9
100
AcDbSymbolTableRecord
100
AcDbRegAppTableRecord
  2
GEVID1210676660
 70
     0
  0
APPID
  5
513
330
9
100
AcDbSymbolTableRecord
100
AcDbRegAppTableRecord
  2
GEVID1210676661
 70
     0
  0
APPID
  5
514
330
9
100
AcDbSymbolTableRecord
100
AcDbRegAppTableRecord
  2
GEVID1210676662
 70
     0
  0
APPID
  5
515
330
9
100
AcDbSymbolTableRecord
100
AcDbRegAppTableRecord
  2
GEVID1210721646
 70
     0
  0
APPID
  5
516
330
9
100
AcDbSymbolTableRecord
100
AcDbRegAppTableRecord
  2
GEVID1210721647
 70
     0
  0
APPID
  5
517
330
9
100
AcDbSymbolTableRecord
100
AcDbRegAppTableRecord
  2
GEVID1210721648
 70
     0
  0
APPID
  5
518
330
9
100
AcDbSymbolTableRecord
100
AcDbRegAppTableRecord
  2
GEVID1210721649
 70
     0
  0
APPID
  5
519
330
9
100
AcDbSymbolTableRecord
100
AcDbRegAppTableRecord
  2
GEVID1210721650
 70
     0
  0
APPID
  5
51A
330
9
100
AcDbSymbolTableRecord
100
AcDbRegAppTableRecord
  2
GEVID1210721651
 70
     0
  0
APPID
  5
51B
330
9
100
AcDbSymbolTableRecord
100
AcDbRegAppTableRecord
  2
GEVID1210721652
 70
     0
  0
APPID
  5
51C
330
9
100
AcDbSymbolTableRecord
100
AcDbRegAppTableRecord
  2
GEVID1210721653
 70
     0
  0
APPID
  5
51D
330
9
100
AcDbSymbolTableRecord
100
AcDbRegAppTableRecord
  2
PE_URL
 70
     0
  0
APPID
  5
51E
330
9
100
AcDbSymbolTableRecord
100
AcDbRegAppTableRecord
  2
GEVID1210825555
 70
     0
  0
APPID
  5
51F
330
9
100
AcDbSymbolTableRecord
100
AcDbRegAppTableRecord
  2
GEVID1210825556
 70
     0
  0
APPID
  5
520
330
9
100
AcDbSymbolTableRecord
100
AcDbRegAppTableRecord
  2
GEVID1210825557
 70
     0
  0
APPID
  5
521
330
9
100
AcDbSymbolTableRecord
100
AcDbRegAppTableRecord
  2
GEVID1210825558
 70
     0
  0
APPID
  5
522
330
9
100
AcDbSymbolTableRecord
100
AcDbRegAppTableRecord
  2
GEVID1210825559
 70
     0
  0
APPID
  5
523
330
9
100
AcDbSymbolTableRecord
100
AcDbRegAppTableRecord
  2
GEVID1210825560
 70
     0
  0
APPID
  5
524
330
9
100
AcDbSymbolTableRecord
100
AcDbRegAppTableRecord
  2
GEVID1210825561
 70
     0
  0
APPID
  5
525
330
9
100
AcDbSymbolTableRecord
100
AcDbRegAppTableRecord
  2
GEVID1210825562
 70
     0
  0
APPID
  5
526
330
9
100
AcDbSymbolTableRecord
100
AcDbRegAppTableRecord
  2
GEVID1210825563
 70
     0
  0
APPID
  5
527
330
9
100
AcDbSymbolTableRecord
100
AcDbRegAppTableRecord
  2
GEVID1210825564
 70
     0
  0
APPID
  5
528
330
9
100
AcDbSymbolTableRecord
100
AcDbRegAppTableRecord
  2
GEVID1210825565
 70
     0
  0
APPID
  5
529
330
9
100
AcDbSymbolTableRecord
100
AcDbRegAppTableRecord
  2
GEVID1210825566
 70
     0
  0
APPID
  5
52A
330
9
100
AcDbSymbolTableRecord
100
AcDbRegAppTableRecord
  2
GEVID1210825567
 70
     0
  0
APPID
  5
52B
330
9
100
AcDbSymbolTableRecord
100
AcDbRegAppTableRecord
  2
GENIUS_GENOBJ-N-ZOO_13
 70
     0
  0
APPID
  5
52C
330
9
100
AcDbSymbolTableRecord
100
AcDbRegAppTableRecord
  2
GENIUS_GENZOO_17
 70
     0
  0
APPID
  5
52D
330
9
100
AcDbSymbolTableRecord
100
AcDbRegAppTableRecord
  2
ACADANNOTATIVEDECOMPOSITION
 70
     0
  0
APPID
  5
52E
330
9
100
AcDbSymbolTableRecord
100
AcDbRegAppTableRecord
  2
GENIUS_GENOBJ-N-HTC_13
 70
     0
  0
APPID
  5
52F
330
9
100
AcDbSymbolTableRecord
100
AcDbRegAppTableRecord
  2
GENIUS_GENHATCH_13
 70
     0
  0
APPID
  5
530
330
9
100
AcDbSymbolTableRecord
100
AcDbRegAppTableRecord
  2
GEVID1210896020
 70
     0
  0
APPID
  5
531
330
9
100
AcDbSymbolTableRecord
100
AcDbRegAppTableRecord
  2
GEVID1210896021
 70
     0
  0
APPID
  5
532
330
9
100
AcDbSymbolTableRecord
100
AcDbRegAppTableRecord
  2
GEVID1209083540
 70
     0
  0
APPID
  5
533
330
9
100
AcDbSymbolTableRecord
100
AcDbRegAppTableRecord
  2
GEVMK
 70
     0
  0
APPID
  5
534
330
9
100
AcDbSymbolTableRecord
100
AcDbRegAppTableRecord
  2
GEVID1209083542
 70
     0
  0
APPID
  5
535
330
9
100
AcDbSymbolTableRecord
100
AcDbRegAppTableRecord
  2
GEVID1209083543
 70
     0
  0
APPID
  5
536
330
9
100
AcDbSymbolTableRecord
100
AcDbRegAppTableRecord
  2
GEVID1209083544
 70
     0
  0
APPID
  5
537
330
9
100
AcDbSymbolTableRecord
100
AcDbRegAppTableRecord
  2
GEVID1209083545
 70
     0
  0
APPID
  5
538
330
9
100
AcDbSymbolTableRecord
100
AcDbRegAppTableRecord
  2
GEVID1209083546
 70
     0
  0
APPID
  5
539
330
9
100
AcDbSymbolTableRecord
100
AcDbRegAppTableRecord
  2
GEVID1209083547
 70
     0
  0
APPID
  5
53A
330
9
100
AcDbSymbolTableRecord
100
AcDbRegAppTableRecord
  2
GEVID1209083548
 70
     0
  0
APPID
  5
53B
330
9
100
AcDbSymbolTableRecord
100
AcDbRegAppTableRecord
  2
GEVID1209083549
 70
     0
  0
APPID
  5
53C
330
9
100
AcDbSymbolTableRecord
100
AcDbRegAppTableRecord
  2
GEVID1209083550
 70
     0
  0
APPID
  5
53D
330
9
100
AcDbSymbolTableRecord
100
AcDbRegAppTableRecord
  2
GEVID1209083551
 70
     0
  0
APPID
  5
53E
330
9
100
AcDbSymbolTableRecord
100
AcDbRegAppTableRecord
  2
GEVID1209083552
 70
     0
  0
APPID
  5
53F
330
9
100
AcDbSymbolTableRecord
100
AcDbRegAppTableRecord
  2
GEVID1209083553
 70
     0
  0
APPID
  5
540
330
9
100
AcDbSymbolTableRecord
100
AcDbRegAppTableRecord
  2
GEVID1210896022
 70
     0
  0
APPID
  5
541
330
9
100
AcDbSymbolTableRecord
100
AcDbRegAppTableRecord
  2
GEVID1211508364
 70
     0
  0
APPID
  5
542
330
9
100
AcDbSymbolTableRecord
100
AcDbRegAppTableRecord
  2
GEVID1211414908
 70
     0
  0
APPID
  5
543
330
9
100
AcDbSymbolTableRecord
100
AcDbRegAppTableRecord
  2
GEVID1211414909
 70
     0
  0
APPID
  5
544
330
9
100
AcDbSymbolTableRecord
100
AcDbRegAppTableRecord
  2
GEVID1211508359
 70
     0
  0
APPID
  5
545
330
9
100
AcDbSymbolTableRecord
100
AcDbRegAppTableRecord
  2
GEVID1211508360
 70
     0
  0
APPID
  5
546
330
9
100
AcDbSymbolTableRecord
100
AcDbRegAppTableRecord
  2
GEVID1211508361
 70
     0
  0
APPID
  5
547
330
9
100
AcDbSymbolTableRecord
100
AcDbRegAppTableRecord
  2
GEVID1211508362
 70
     0
  0
APPID
  5
548
330
9
100
AcDbSymbolTableRecord
100
AcDbRegAppTableRecord
  2
GEVID1211508363
 70
     0
  0
APPID
  5
549
330
9
100
AcDbSymbolTableRecord
100
AcDbRegAppTableRecord
  2
GEVID1211878469
 70
     0
  0
APPID
  5
54A
330
9
100
AcDbSymbolTableRecord
100
AcDbRegAppTableRecord
  2
GEVID1212642819
 70
     0
  0
APPID
  5
54B
330
9
100
AcDbSymbolTableRecord
100
AcDbRegAppTableRecord
  2
GEVID1212642820
 70
     0
  0
APPID
  5
54C
330
9
100
AcDbSymbolTableRecord
100
AcDbRegAppTableRecord
  2
GEVID1212642821
 70
     0
  0
APPID
  5
54D
330
9
100
AcDbSymbolTableRecord
100
AcDbRegAppTableRecord
  2
GEVID1212642822
 70
     0
  0
APPID
  5
54E
330
9
100
AcDbSymbolTableRecord
100
AcDbRegAppTableRecord
  2
GEVID1212642823
 70
     0
  0
APPID
  5
54F
330
9
100
AcDbSymbolTableRecord
100
AcDbRegAppTableRecord
  2
GEVID1212642825
 70
     0
  0
APPID
  5
550
330
9
100
AcDbSymbolTableRecord
100
AcDbRegAppTableRecord
  2
GEVID1212642826
 70
     0
  0
APPID
  5
551
330
9
100
AcDbSymbolTableRecord
100
AcDbRegAppTableRecord
  2
GEVID1212642827
 70
     0
  0
APPID
  5
552
330
9
100
AcDbSymbolTableRecord
100
AcDbRegAppTableRecord
  2
GEVID1212642828
 70
     0
  0
APPID
  5
553
330
9
100
AcDbSymbolTableRecord
100
AcDbRegAppTableRecord
  2
GEVID1212642831
 70
     0
  0
APPID
  5
554
330
9
100
AcDbSymbolTableRecord
100
AcDbRegAppTableRecord
  2
GEVID1212642834
 70
     0
  0
APPID
  5
555
330
9
100
AcDbSymbolTableRecord
100
AcDbRegAppTableRecord
  2
GEVID1212642835
 70
     0
  0
APPID
  5
556
330
9
100
AcDbSymbolTableRecord
100
AcDbRegAppTableRecord
  2
GEVID1212642836
 70
     0
  0
APPID
  5
557
330
9
100
AcDbSymbolTableRecord
100
AcDbRegAppTableRecord
  2
GEVID1212642837
 70
     0
  0
APPID
  5
558
330
9
100
AcDbSymbolTableRecord
100
AcDbRegAppTableRecord
  2
GEVID1212642839
 70
     0
  0
APPID
  5
559
330
9
100
AcDbSymbolTableRecord
100
AcDbRegAppTableRecord
  2
GEVID1212642840
 70
     0
  0
APPID
  5
55A
330
9
100
AcDbSymbolTableRecord
100
AcDbRegAppTableRecord
  2
GEVID1212642841
 70
     0
  0
APPID
  5
55B
330
9
100
AcDbSymbolTableRecord
100
AcDbRegAppTableRecord
  2
GEVID1212655312
 70
     0
  0
APPID
  5
55C
330
9
100
AcDbSymbolTableRecord
100
AcDbRegAppTableRecord
  2
GEVID1212655313
 70
     0
  0
APPID
  5
55D
330
9
100
AcDbSymbolTableRecord
100
AcDbRegAppTableRecord
  2
GEVID1212656533
 70
     0
  0
APPID
  5
55E
330
9
100
AcDbSymbolTableRecord
100
AcDbRegAppTableRecord
  2
GEVID1212656534
 70
     0
  0
APPID
  5
55F
330
9
100
AcDbSymbolTableRecord
100
AcDbRegAppTableRecord
  2
GEVID1212656535
 70
     0
  0
APPID
  5
560
330
9
100
AcDbSymbolTableRecord
100
AcDbRegAppTableRecord
  2
GEVID1212656536
 70
     0
  0
APPID
  5
561
330
9
100
AcDbSymbolTableRecord
100
AcDbRegAppTableRecord
  2
GEVID1212656538
 70
     0
  0
APPID
  5
562
330
9
100
AcDbSymbolTableRecord
100
AcDbRegAppTableRecord
  2
GEVID1212656541
 70
     0
  0
APPID
  5
563
330
9
100
AcDbSymbolTableRecord
100
AcDbRegAppTableRecord
  2
GEVID1212656543
 70
     0
  0
APPID
  5
564
330
9
100
AcDbSymbolTableRecord
100
AcDbRegAppTableRecord
  2
GENIUS_GENOBJ-F-PFASSM_13
 70
     0
  0
APPID
  5
565
330
9
100
AcDbSymbolTableRecord
100
AcDbRegAppTableRecord
  2
GEVID1212656544
 70
     0
  0
APPID
  5
566
330
9
100
AcDbSymbolTableRecord
100
AcDbRegAppTableRecord
  2
GEVID1212656545
 70
     0
  0
APPID
  5
567
330
9
100
AcDbSymbolTableRecord
100
AcDbRegAppTableRecord
  2
GEVID1212656546
 70
     0
  0
APPID
  5
568
330
9
100
AcDbSymbolTableRecord
100
AcDbRegAppTableRecord
  2
GEVID1212656547
 70
     0
  0
APPID
  5
569
330
9
100
AcDbSymbolTableRecord
100
AcDbRegAppTableRecord
  2
GEVID1212656548
 70
     0
  0
APPID
  5
56A
330
9
100
AcDbSymbolTableRecord
100
AcDbRegAppTableRecord
  2
GEVID1212656549
 70
     0
  0
APPID
  5
56B
330
9
100
AcDbSymbolTableRecord
100
AcDbRegAppTableRecord
  2
GEVID1212656550
 70
     0
  0
APPID
  5
56C
330
9
100
AcDbSymbolTableRecord
100
AcDbRegAppTableRecord
  2
GEVID1212656552
 70
     0
  0
APPID
  5
56D
330
9
100
AcDbSymbolTableRecord
100
AcDbRegAppTableRecord
  2
GEVID1212656553
 70
     0
  0
APPID
  5
56E
330
9
100
AcDbSymbolTableRecord
100
AcDbRegAppTableRecord
  2
GEVID1212656554
 70
     0
  0
APPID
  5
56F
330
9
100
AcDbSymbolTableRecord
100
AcDbRegAppTableRecord
  2
GEVID1212656555
 70
     0
  0
APPID
  5
570
330
9
100
AcDbSymbolTableRecord
100
AcDbRegAppTableRecord
  2
GEVID1212656556
 70
     0
  0
APPID
  5
571
330
9
100
AcDbSymbolTableRecord
100
AcDbRegAppTableRecord
  2
GEVID1212656557
 70
     0
  0
APPID
  5
572
330
9
100
AcDbSymbolTableRecord
100
AcDbRegAppTableRecord
  2
GEVID1212656559
 70
     0
  0
APPID
  5
573
330
9
100
AcDbSymbolTableRecord
100
AcDbRegAppTableRecord
  2
GEVID1212656560
 70
     0
  0
APPID
  5
574
330
9
100
AcDbSymbolTableRecord
100
AcDbRegAppTableRecord
  2
GEVID1212656561
 70
     0
  0
APPID
  5
575
330
9
100
AcDbSymbolTableRecord
100
AcDbRegAppTableRecord
  2
GEVID1212656562
 70
     0
  0
APPID
  5
576
330
9
100
AcDbSymbolTableRecord
100
AcDbRegAppTableRecord
  2
GEVID1212656563
 70
     0
  0
APPID
  5
577
330
9
100
AcDbSymbolTableRecord
100
AcDbRegAppTableRecord
  2
GEVID1212711781
 70
     0
  0
APPID
  5
578
330
9
100
AcDbSymbolTableRecord
100
AcDbRegAppTableRecord
  2
GEVID1212711782
 70
     0
  0
APPID
  5
579
330
9
100
AcDbSymbolTableRecord
100
AcDbRegAppTableRecord
  2
GEVID1212711783
 70
     0
  0
APPID
  5
57A
330
9
100
AcDbSymbolTableRecord
100
AcDbRegAppTableRecord
  2
GEVID1212711784
 70
     0
  0
APPID
  5
57B
330
9
100
AcDbSymbolTableRecord
100
AcDbRegAppTableRecord
  2
GEVID1212711788
 70
     0
  0
APPID
  5
57C
330
9
100
AcDbSymbolTableRecord
100
AcDbRegAppTableRecord
  2
GEVID1212711789
 70
     0
  0
APPID
  5
57D
330
9
100
AcDbSymbolTableRecord
100
AcDbRegAppTableRecord
  2
GEVID1212711790
 70
     0
  0
APPID
  5
57E
330
9
100
AcDbSymbolTableRecord
100
AcDbRegAppTableRecord
  2
GEVID1212711791
 70
     0
  0
APPID
  5
57F
330
9
100
AcDbSymbolTableRecord
100
AcDbRegAppTableRecord
  2
GEVID1212711792
 70
     0
  0
APPID
  5
580
330
9
100
AcDbSymbolTableRecord
100
AcDbRegAppTableRecord
  2
GEVID1212711793
 70
     0
  0
APPID
  5
581
330
9
100
AcDbSymbolTableRecord
100
AcDbRegAppTableRecord
  2
GEVID1212711794
 70
     0
  0
APPID
  5
582
330
9
100
AcDbSymbolTableRecord
100
AcDbRegAppTableRecord
  2
GEVID1212711795
 70
     0
  0
APPID
  5
583
330
9
100
AcDbSymbolTableRecord
100
AcDbRegAppTableRecord
  2
GEVID1212711797
 70
     0
  0
APPID
  5
584
330
9
100
AcDbSymbolTableRecord
100
AcDbRegAppTableRecord
  2
GEVID1212711798
 70
     0
  0
APPID
  5
585
330
9
100
AcDbSymbolTableRecord
100
AcDbRegAppTableRecord
  2
GEVID1212711799
 70
     0
  0
APPID
  5
586
330
9
100
AcDbSymbolTableRecord
100
AcDbRegAppTableRecord
  2
GEVID1212711800
 70
     0
  0
APPID
  5
587
330
9
100
AcDbSymbolTableRecord
100
AcDbRegAppTableRecord
  2
GEVID1212711801
 70
     0
  0
APPID
  5
588
330
9
100
AcDbSymbolTableRecord
100
AcDbRegAppTableRecord
  2
GEVID1212711802
 70
     0
  0
APPID
  5
589
330
9
100
AcDbSymbolTableRecord
100
AcDbRegAppTableRecord
  2
GEVID1212711803
 70
     0
  0
APPID
  5
58A
330
9
100
AcDbSymbolTableRecord
100
AcDbRegAppTableRecord
  2
GEVID1212711804
 70
     0
  0
APPID
  5
58B
330
9
100
AcDbSymbolTableRecord
100
AcDbRegAppTableRecord
  2
GEVID1212711805
 70
     0
  0
APPID
  5
58C
330
9
100
AcDbSymbolTableRecord
100
AcDbRegAppTableRecord
  2
GEVID1212711806
 70
     0
  0
APPID
  5
58D
330
9
100
AcDbSymbolTableRecord
100
AcDbRegAppTableRecord
  2
GEVID1212711807
 70
     0
  0
APPID
  5
58E
330
9
100
AcDbSymbolTableRecord
100
AcDbRegAppTableRecord
  2
GEVID1212711808
 70
     0
  0
APPID
  5
58F
330
9
100
AcDbSymbolTableRecord
100
AcDbRegAppTableRecord
  2
GEVID1212711809
 70
     0
  0
APPID
  5
590
330
9
100
AcDbSymbolTableRecord
100
AcDbRegAppTableRecord
  2
GEVID1212711810
 70
     0
  0
APPID
  5
591
330
9
100
AcDbSymbolTableRecord
100
AcDbRegAppTableRecord
  2
GEVID1212711811
 70
     0
  0
APPID
  5
90A
330
9
100
AcDbSymbolTableRecord
100
AcDbRegAppTableRecord
  2
GENIUS_GENTRA_14
 70
     0
  0
APPID
  5
919
330
9
100
AcDbSymbolTableRecord
100
AcDbRegAppTableRecord
  2
GENIUS_GENOBJ-N-TIT_13
 70
     0
  0
APPID
  5
91A
330
9
100
AcDbSymbolTableRecord
100
AcDbRegAppTableRecord
  2
GENIUS_GENTITLE_13
 70
     0
  0
APPID
  5
949
330
9
100
AcDbSymbolTableRecord
100
AcDbRegAppTableRecord
  2
GENIUS_GENBLLY_14
 70
     0
  0
APPID
  5
DDD
330
9
100
AcDbSymbolTableRecord
100
AcDbRegAppTableRecord
  2
GEVID1213165152
 70
     0
  0
APPID
  5
12F9
330
9
100
AcDbSymbolTableRecord
100
AcDbRegAppTableRecord
  2
AcDbDynamicBlockTrueName
 70
     0
  0
APPID
  5
12FA
330
9
100
AcDbSymbolTableRecord
100
AcDbRegAppTableRecord
  2
ACDBBLOCKREPETAG
 70
     0
  0
APPID
  5
1C15
330
9
100
AcDbSymbolTableRecord
100
AcDbRegAppTableRecord
  2
GEVID1214872427
 70
     0
  0
APPID
  5
1C2A
330
9
100
AcDbSymbolTableRecord
100
AcDbRegAppTableRecord
  2
GEVID1214872428
 70
     0
  0
APPID
  5
1C2F
330
9
100
AcDbSymbolTableRecord
100
AcDbRegAppTableRecord
  2
GEVID1214872429
 70
     0
  0
APPID
  5
1C33
330
9
100
AcDbSymbolTableRecord
100
AcDbRegAppTableRecord
  2
GEVID1214872430
 70
     0
  0
APPID
  5
1C3F
330
9
100
AcDbSymbolTableRecord
100
AcDbRegAppTableRecord
  2
GEVID1214872432
 70
     0
  0
APPID
  5
1C4E
330
9
100
AcDbSymbolTableRecord
100
AcDbRegAppTableRecord
  2
GEVID1214872433
 70
     0
  0
APPID
  5
20DC
330
9
100
AcDbSymbolTableRecord
100
AcDbRegAppTableRecord
  2
AcDbDynamicBlockGUID
 70
     0
  0
APPID
  5
20FD
330
9
100
AcDbSymbolTableRecord
100
AcDbRegAppTableRecord
  2
GENIUS_GENOBJ-N-REV_13
 70
     0
  0
APPID
  5
20FE
330
9
100
AcDbSymbolTableRecord
100
AcDbRegAppTableRecord
  2
GENIUS_GENOBJ-N-RSSYM_13
 70
     0
  0
APPID
  5
20FF
330
9
100
AcDbSymbolTableRecord
100
AcDbRegAppTableRecord
  2
GENIUS_GENSYMENT_13
 70
     0
  0
APPID
  5
2100
330
9
100
AcDbSymbolTableRecord
100
AcDbRegAppTableRecord
  2
GENIUS_GENSCSYM_13
 70
     0
  0
APPID
  5
54E0
330
9
100
AcDbSymbolTableRecord
100
AcDbRegAppTableRecord
  2
GEVID1240362492
 70
     0
  0
APPID
  5
54E5
330
9
100
AcDbSymbolTableRecord
100
AcDbRegAppTableRecord
  2
GEVID1240362493
 70
     0
  0
APPID
  5
5D55
330
9
100
AcDbSymbolTableRecord
100
AcDbRegAppTableRecord
  2
GEVID1240362494
 70
     0
  0
APPID
  5
5D61
330
9
100
AcDbSymbolTableRecord
100
AcDbRegAppTableRecord
  2
GEVID1240362495
 70
     0
  0
ENDTAB
  0
TABLE
  2
DIMSTYLE
  5
A
330
0
100
AcDbSymbolTable
 70
    30
100
AcDbDimStyleTable
 71
     1
340
5AB
  0
DIMSTYLE
105
5AB
330
A
100
AcDbSymbolTableRecord
100
AcDbDimStyleTableRecord
  2
SEISA
 70
     0
  4
"
 40
10.0
 41
2.5
 42
0.625
 43
10.0
 44
0.625
 47
0.1
 48
0.1
 73
     0
 74
     0
 77
     3
 78
     8
 79
     2
 90
     1
140
3.5
141
0.0
143
0.0393701
146
0.71
147
1.5
172
     1
176
     3
177
     3
178
     3
271
     2
272
     2
283
     0
286
     8
340
5D5
341
69
342
69
371
    -1
372
    -1
1001
ACAD_DSTYLE_DIMJAG
1070
   388
1040
1.5
1001
ACAD_DSTYLE_DIMTALN
1070
   392
1070
     1
  0
DIMSTYLE
105
5E9
102
{ACAD_REACTORS
330
552D
330
5560
330
5578
330
5594
330
5677
330
568F
330
56A7
330
574F
330
576B
330
5787
330
579F
330
57C0
330
57D8
330
5A69
330
7A57
330
7B9D
330
7BCB
102
}
330
A
100
AcDbSymbolTableRecord
100
AcDbDimStyleTableRecord
  2
SEISA$0
 70
     0
  4
"
 40
10.0
 41
2.5
 42
0.625
 43
10.0
 44
0.625
 47
0.1
 48
0.1
 73
     0
 74
     0
 77
     3
 78
     8
 79
     2
 90
     1
140
3.5
141
0.0
143
0.0393701
146
0.71
147
1.5
172
     1
176
     3
177
     3
178
     3
271
     2
272
     2
283
     0
286
     8
340
5D5
341
69
342
69
371
    -1
372
    -1
  0
DIMSTYLE
105
7A08
330
A
100
AcDbSymbolTableRecord
100
AcDbDimStyleTableRecord
  2
STANDARD
 70
     0
340
11
  0
DIMSTYLE
105
7E3A
330
A
100
AcDbSymbolTableRecord
100
AcDbDimStyleTableRecord
  2
AM_ISO
 70
     0
  4
"
 41
2.5
 42
1.0
 43
10.0
 44
1.0
 47
0.1
 48
0.1
 73
     0
 74
     0
 77
     1
 78
     8
 79
     2
 90
     1
140
3.5
141
0.0
143
0.0393701
146
0.71
147
1.5
172
     1
176
   256
177
   256
178
     2
271
     2
272
     3
274
     4
283
     0
284
     8
340
11
371
    -1
372
    -1
  0
DIMSTYLE
105
7E3B
330
A
100
AcDbSymbolTableRecord
100
AcDbDimStyleTableRecord
  2
AM_ISO$3
 70
     0
  4
"
 41
2.5
 42
1.0
 43
10.0
 44
1.0
 47
0.1
 48
0.1
 73
     0
 77
     1
 78
     8
 79
     2
 90
     1
140
3.5
141
0.0
143
0.0393701
146
0.71
147
1.5
176
   256
177
   256
178
     2
271
     2
272
     3
274
     4
283
     0
284
     8
288
     1
289
     0
340
11
371
    -1
372
    -1
  0
DIMSTYLE
105
7E3C
330
A
100
AcDbSymbolTableRecord
100
AcDbDimStyleTableRecord
  2
AM_ISO$4
 70
     0
  4
"
 41
2.5
 42
1.0
 43
10.0
 44
1.0
 47
0.1
 48
0.1
 73
     0
 77
     1
 78
     8
 79
     2
 90
     1
140
3.5
141
0.0
143
0.0393701
146
0.71
147
1.5
176
   256
177
   256
178
     2
271
     2
272
     3
274
     4
283
     0
284
     8
288
     1
289
     0
340
11
371
    -1
372
    -1
  0
DIMSTYLE
105
7E3D
330
A
100
AcDbSymbolTableRecord
100
AcDbDimStyleTableRecord
  2
AM_ISO$6
 70
     0
  4
"
 41
2.5
 42
1.0
 43
10.0
 44
1.0
 47
0.1
 48
0.1
 73
     0
 74
     0
 78
     8
 79
     2
 90
     1
140
3.5
141
0.0
143
0.0393701
146
0.71
147
1.5
172
     1
176
   256
177
   256
178
     2
271
     2
272
     3
274
     4
283
     0
284
     8
340
11
371
    -1
372
    -1
  0
DIMSTYLE
105
7E3E
330
A
100
AcDbSymbolTableRecord
100
AcDbDimStyleTableRecord
  2
AM_ISO$7
 70
     0
  4
"
 41
2.5
 42
1.0
 43
10.0
 44
1.0
 47
0.1
 48
0.1
 73
     0
 74
     0
 77
     1
 78
     8
 79
     2
 90
     1
140
5.0
141
0.0
143
0.0393701
146
0.71
147
1.5
172
     1
176
   256
177
   256
178
     2
271
     2
272
     3
274
     4
283
     0
284
     8
340
11
371
    -1
372
    -1
  0
DIMSTYLE
105
7E3F
330
A
100
AcDbSymbolTableRecord
100
AcDbDimStyleTableRecord
  2
AM_ISO$SF
 70
     0
  4
"
 41
2.5
 42
1.0
 43
10.0
 44
1.0
 47
0.1
 48
0.1
 73
     0
 74
     0
 75
     1
 76
     1
 77
     1
 78
     8
 79
     2
 90
     1
140
3.5
141
0.0
143
0.0393701
146
0.71
147
1.5
172
     1
176
   256
177
   256
178
     2
271
     2
272
     3
274
     4
283
     0
284
     8
340
11
371
    -1
372
    -1
  0
DIMSTYLE
105
7E40
330
A
100
AcDbSymbolTableRecord
100
AcDbDimStyleTableRecord
  2
AM_ISO$SH
 70
     0
  4
"
 41
2.5
 42
1.0
 43
10.0
 44
1.0
 47
0.1
 48
0.1
 73
     0
 74
     0
 75
     1
 76
     1
 77
     1
 78
     8
 79
     2
 90
     1
140
3.5
141
0.0
143
0.0393701
144
2.0
146
0.71
147
1.5
172
     1
173
     1
176
   256
177
   256
178
     2
271
     2
272
     3
274
     4
283
     0
284
     8
340
11
343
74
371
    -1
372
    -1
  0
ENDTAB
  0
TABLE
  2
BLOCK_RECORD
  5
1
330
0
100
AcDbSymbolTable
 70
    32
  0
BLOCK_RECORD
  5
1F
102
{ACAD_XDICTIONARY
360
82
102
}
330
1
100
AcDbSymbolTableRecord
100
AcDbBlockTableRecord
  2
*Model_Space
340
22
 70
     0
280
     1
281
     0
  0
BLOCK_RECORD
  5
1B
330
1
100
AcDbSymbolTableRecord
100
AcDbBlockTableRecord
  2
*Paper_Space
340
1E
 70
     0
280
     1
281
     0
  0
BLOCK_RECORD
  5
23
330
1
100
AcDbSymbolTableRecord
100
AcDbBlockTableRecord
  2
*Paper_Space0
340
26
 70
     0
280
     1
281
     0
  0
BLOCK_RECORD
  5
69
330
1
100
AcDbSymbolTableRecord
100
AcDbBlockTableRecord
  2
_Open30
340
0
102
{BLKREFS
331
6194
331
6195
331
619D
331
619E
331
61BA
331
61BB
331
61C3
331
61C4
331
61CC
331
61CD
331
61D8
331
61E3
331
61EB
331
61EC
331
61F4
331
61F5
331
61FD
331
61FE
331
6206
331
6207
331
7A7B
331
7A7C
331
7C29
331
7C2A
331
7C33
331
7C34
331
7C46
331
7C47
331
7C5C
331
7C5D
331
7C72
331
7C73
102
}
 70
     0
280
     1
281
     0
  0
BLOCK_RECORD
  5
74
330
1
100
AcDbSymbolTableRecord
100
AcDbBlockTableRecord
  2
GENAXEH
340
0
 70
     0
280
     1
281
     0
  0
BLOCK_RECORD
  5
2CA9
330
1
100
AcDbSymbolTableRecord
100
AcDbBlockTableRecord
  2
GENDOT
340
0
102
{BLKREFS
331
61D7
331
61E2
102
}
 70
     0
280
     1
281
     0
  0
BLOCK_RECORD
  5
4A10
102
{ACAD_XDICTIONARY
360
4A44
102
}
330
1
100
AcDbSymbolTableRecord
100
AcDbBlockTableRecord
  2
ロッカクアナツキプラグ-E R3／4
340
0
310
2800000020000000200000000100080000000000000400000000000000000000000000000000000000000000000080000080000000808000800000008000800080800000C0C0C000C0DCC000F0CAA6000020400000206000002080000020A0000020C0000020E00000400000004020000040400000406000004080000040A0
310
000040C0000040E00000600000006020000060400000606000006080000060A0000060C0000060E00000800000008020000080400000806000008080000080A0000080C0000080E00000A0000000A0200000A0400000A0600000A0800000A0A00000A0C00000A0E00000C0000000C0200000C0400000C0600000C0800000C0
310
A00000C0C00000C0E00000E0000000E0200000E0400000E0600000E0800000E0A00000E0C00000E0E00040000000400020004000400040006000400080004000A0004000C0004000E00040200000402020004020400040206000402080004020A0004020C0004020E000404000004040200040404000404060004040800040
310
40A0004040C0004040E00040600000406020004060400040606000406080004060A0004060C0004060E00040800000408020004080400040806000408080004080A0004080C0004080E00040A0000040A0200040A0400040A0600040A0800040A0A00040A0C00040A0E00040C0000040C0200040C0400040C0600040C08000
310
40C0A00040C0C00040C0E00040E0000040E0200040E0400040E0600040E0800040E0A00040E0C00040E0E00080000000800020008000400080006000800080008000A0008000C0008000E00080200000802020008020400080206000802080008020A0008020C0008020E00080400000804020008040400080406000804080
310
008040A0008040C0008040E00080600000806020008060400080606000806080008060A0008060C0008060E00080800000808020008080400080806000808080008080A0008080C0008080E00080A0000080A0200080A0400080A0600080A0800080A0A00080A0C00080A0E00080C0000080C0200080C0400080C0600080C0
310
800080C0A00080C0C00080C0E00080E0000080E0200080E0400080E0600080E0800080E0A00080E0C00080E0E000C0000000C0002000C0004000C0006000C0008000C000A000C000C000C000E000C0200000C0202000C0204000C0206000C0208000C020A000C020C000C020E000C0400000C0402000C0404000C0406000C0
310
408000C040A000C040C000C040E000C0600000C0602000C0604000C0606000C0608000C060A000C060C000C060E000C0800000C0802000C0804000C0806000C0808000C080A000C080C000C080E000C0A00000C0A02000C0A04000C0A06000C0A08000C0A0A000C0A0C000C0A0E000C0C00000C0C02000C0C04000C0C06000
310
C0C08000C0C0A000F0FBFF00A4A0A000808080000000FF0000FF000000FFFF00FF000000FF00FF00FFFF0000FFFFFF00000000000000000000000000000000000000000000000000000000000000000000000000000000000000000000000000F9000000000000000000000000000000000000000000000000000000000000
310
00F900000000000000000000000000000000000000000000000000000000000000F900000000000000000000000000000000000000000000000000000000000000F900000000000000000000000000000000000000000000000000000000000000F90000000000000000000000000000000000000000FE0000000000000000
310
0000F90000000000000000000000000000000000000000FE00000000000000000000F90000000000000000000000000000000000000000FE00000000000000000000F90000000000000000000000000000000000000000FE00000000000000000000F90000000000000000000000000000000000000000FE00FFFFFFFFFFFF
310
FFFFFFF9FFFFFFFFFFFFFFFF000000000000000000000000FEFF000000000000000000F90000000000000000FFFF0000000000000000FFFFFEFFFFFFFFFFFFFFFFFFFFF9FFFFFFFFFFFFFFFFFFFFFEFF000000000000FF00FE00000000000000000000F900000000000000000000FE00000000000000FF00FE000000000000
310
00000000F900000000000000000000FE00000000000000FF00FE00000000000000000000F900000000000000000000FE00000000000000FFFE0000000000000000000000F900000000000000000000FE00000000000000FFFE0000000000000000000000F900000000000000000000FE00000000000000FFFE000000000000
310
0000000000F900000000000000000000FE00000000000000FFFE0000000000000000000000F900000000000000000000FE00000000000000FFFE0000000000000000000000F900000000000000000000FE00000000000000FFFE0000000000000000000000F900000000000000000000FE00000000000000FFFE0000000000
310
000000000000F900000000000000000000FE00000000000000FFFE0000000000000000000000F900000000000000000000FE00000000000000FFFEFFFFFFFFFFFFFFFFFFFFFFF9FFFFFFFFFFFFFFFFFFFFFEFF000000000000FFFE0000000000000000000000F900000000000000000000FE00000000000000FF00FF000000
310
00000000000000F9000000000000000000FFFE0000000000000000000000000000000000000000F900000000000000000000000000000000000000000000000000000000000000F900000000000000000000000000000000000000000000000000000000000000F90000000000000000000000000000000000000000000000
310
0000000000000000F90000000000000000000000000000000000000000000000000000000000000000000000000000000000000000000000
102
{BLKREFS
331
4B01
102
}
 70
     4
280
     1
281
     0
  0
BLOCK_RECORD
  5
4AC9
102
{ACAD_XDICTIONARY
360
4B9F
102
}
330
1
100
AcDbSymbolTableRecord
100
AcDbBlockTableRecord
  2
ケースＡ-E CEMH710
340
0
310
2800000020000000200000000100080000000000000400000000000000000000000000000000000000000000000080000080000000808000800000008000800080800000C0C0C000C0DCC000F0CAA6000020400000206000002080000020A0000020C0000020E00000400000004020000040400000406000004080000040A0
310
000040C0000040E00000600000006020000060400000606000006080000060A0000060C0000060E00000800000008020000080400000806000008080000080A0000080C0000080E00000A0000000A0200000A0400000A0600000A0800000A0A00000A0C00000A0E00000C0000000C0200000C0400000C0600000C0800000C0
310
A00000C0C00000C0E00000E0000000E0200000E0400000E0600000E0800000E0A00000E0C00000E0E00040000000400020004000400040006000400080004000A0004000C0004000E00040200000402020004020400040206000402080004020A0004020C0004020E000404000004040200040404000404060004040800040
310
40A0004040C0004040E00040600000406020004060400040606000406080004060A0004060C0004060E00040800000408020004080400040806000408080004080A0004080C0004080E00040A0000040A0200040A0400040A0600040A0800040A0A00040A0C00040A0E00040C0000040C0200040C0400040C0600040C08000
310
40C0A00040C0C00040C0E00040E0000040E0200040E0400040E0600040E0800040E0A00040E0C00040E0E00080000000800020008000400080006000800080008000A0008000C0008000E00080200000802020008020400080206000802080008020A0008020C0008020E00080400000804020008040400080406000804080
310
008040A0008040C0008040E00080600000806020008060400080606000806080008060A0008060C0008060E00080800000808020008080400080806000808080008080A0008080C0008080E00080A0000080A0200080A0400080A0600080A0800080A0A00080A0C00080A0E00080C0000080C0200080C0400080C0600080C0
310
800080C0A00080C0C00080C0E00080E0000080E0200080E0400080E0600080E0800080E0A00080E0C00080E0E000C0000000C0002000C0004000C0006000C0008000C000A000C000C000C000E000C0200000C0202000C0204000C0206000C0208000C020A000C020C000C020E000C0400000C0402000C0404000C0406000C0
310
408000C040A000C040C000C040E000C0600000C0602000C0604000C0606000C0608000C060A000C060C000C060E000C0800000C0802000C0804000C0806000C0808000C080A000C080C000C080E000C0A00000C0A02000C0A04000C0A06000C0A08000C0A0A000C0A0C000C0A0E000C0C00000C0C02000C0C04000C0C06000
310
C0C08000C0C0A000F0FBFF00A4A0A000808080000000FF0000FF000000FFFF00FF000000FF00FF00FFFF0000FFFFFF000000000000000000000000000000000000000000000000000000000000000000000000000000000000000000000000000000000000000000000000000000000000000000FFFFFAFAFAFAFAFAFAFAFA
310
FAFAFAFAFAFAFAFAFAFAFAFAFAFAFAFA0000000000FFFF0000000000000000000000000000000000000000000000FA000000000000FFFFFFFFFFFFFFFFFF00000000000000000000000000000000FA000000000000FFFF0000000000FF0000000000000000000000000000000000FA000000000000FFFF0000000000FF0000
310
000000000000000000000000000000FA000000000000FFFF0000000000FF0000000000000000000000000000000000FA000000000000FFFF0000000000FF0000000000000000000000000000000000FA000000000000FFFF0000000000FF0000000000000000000000000000000000FA000000000000FFFF0000000000FF00
310
00000000000000000000000000000000FA000000000000FFFF0000000000FF0000000000000000000000000000000000FA000000000000FFFF0000000000FF0000000000000000000000000000000000FA000000000000FFFF0000000000FF00000000000000000000000000000000FAFA000000000000FFFF0000000000FF
310
00000000000000000000000000000000FAFA000000000000FFFF0000000000FF000000000000000000000000000000FAFAFA000000000000FFFF0000000000FF000000000000000000000000000000FAFAFA0000000000000000000000000000000000000000000000000000000000FAFAFA00000000000000000000000000
310
0000000000000000000000000000000000FAFA00000000000000000000000000000000000000000000000000000000000000FA00000000000000000000000000000000000000000000000000000000000000FA00000000000000000000000000000000000000000000000000000000000000FA000000000000000000000000
310
00000000000000000000000000000000000000FA00000000000000000000000000000000000000000000000000000000000000FA00000000000000000000000000000000000000000000000000000000000000FA00000000000000000000FFA4A4A4FF00000000000000000000000000000000FA000000000000FFFFFFFEFF
310
F9F9F9FF00000000000000000000000000000000FA0000000000FFFFFFFFFFFFFFFFFFFF00000000000000000000000000000000FA000000F9F9FFFFFFF900000000000000000000000000000000000000000000FA000000000000FFFFFAFAFAFAFAFAFAFAFAFAFAFAFAFAFAFAFAFAFAFAFAFAFAFAFA000000000000000000
310
0000000000000000000000000000000000000000000000000000000000000000000000000000000000000000000000000000000000000000
102
{BLKREFS
331
4B05
102
}
 70
     4
280
     1
281
     0
  0
BLOCK_RECORD
  5
4C10
102
{ACAD_XDICTIONARY
360
4CAA
102
}
330
1
100
AcDbSymbolTableRecord
100
AcDbBlockTableRecord
  2
リジット-E CEMH710
340
0
310
2800000020000000200000000100080000000000000400000000000000000000000000000000000000000000000080000080000000808000800000008000800080800000C0C0C000C0DCC000F0CAA6000020400000206000002080000020A0000020C0000020E00000400000004020000040400000406000004080000040A0
310
000040C0000040E00000600000006020000060400000606000006080000060A0000060C0000060E00000800000008020000080400000806000008080000080A0000080C0000080E00000A0000000A0200000A0400000A0600000A0800000A0A00000A0C00000A0E00000C0000000C0200000C0400000C0600000C0800000C0
310
A00000C0C00000C0E00000E0000000E0200000E0400000E0600000E0800000E0A00000E0C00000E0E00040000000400020004000400040006000400080004000A0004000C0004000E00040200000402020004020400040206000402080004020A0004020C0004020E000404000004040200040404000404060004040800040
310
40A0004040C0004040E00040600000406020004060400040606000406080004060A0004060C0004060E00040800000408020004080400040806000408080004080A0004080C0004080E00040A0000040A0200040A0400040A0600040A0800040A0A00040A0C00040A0E00040C0000040C0200040C0400040C0600040C08000
310
40C0A00040C0C00040C0E00040E0000040E0200040E0400040E0600040E0800040E0A00040E0C00040E0E00080000000800020008000400080006000800080008000A0008000C0008000E00080200000802020008020400080206000802080008020A0008020C0008020E00080400000804020008040400080406000804080
310
008040A0008040C0008040E00080600000806020008060400080606000806080008060A0008060C0008060E00080800000808020008080400080806000808080008080A0008080C0008080E00080A0000080A0200080A0400080A0600080A0800080A0A00080A0C00080A0E00080C0000080C0200080C0400080C0600080C0
310
800080C0A00080C0C00080C0E00080E0000080E0200080E0400080E0600080E0800080E0A00080E0C00080E0E000C0000000C0002000C0004000C0006000C0008000C000A000C000C000C000E000C0200000C0202000C0204000C0206000C0208000C020A000C020C000C020E000C0400000C0402000C0404000C0406000C0
310
408000C040A000C040C000C040E000C0600000C0602000C0604000C0606000C0608000C060A000C060C000C060E000C0800000C0802000C0804000C0806000C0808000C080A000C080C000C080E000C0A00000C0A02000C0A04000C0A06000C0A08000C0A0A000C0A0C000C0A0E000C0C00000C0C02000C0C04000C0C06000
310
C0C08000C0C0A000F0FBFF00A4A0A000808080000000FF0000FF000000FFFF00FF000000FF00FF00FFFF0000FFFFFF0000000000000000000000000000000000000000000000000000000000000000000000000000000000000000000000000000000000FFFFFF000000000000000000000000000000000000000000000000
310
00000000F9FFF9F9F9F9000000000000000000000000000000000000000000000000000000FF00000000000000000000000000000000000000FFFFFFFFFFFFFFFFFFFFFFFFFF000000000000000000000000000000000000FF0000000000000000000000FFFF000000000000000000000000000000000000FF000000000000
310
0000000000FFFF000000000000000000000000000000000000FF0000000000000000000000FFFF000000000000000000000000000000000000FF0000000000000000000000FFFF000000000000000000000000000000000000FF0000000000000000000000FFFF000000000000000000000000000000000000FF0000000000
310
000000000000FFFF000000000000000000000000000000000000FF0000000000000000000000FFFF000000000000000000000000000000000000FF0000000000000000000000FFFF000000000000000000000000000000000000FF0000000000000000000000FFFF000000000000000000000000000000000000FF00000000
310
00000000000000FFFF000000000000000000000000000000000000FF0000000000000000000000FFFF000000000000000000000000000000000000FFA4A4A400000000000000A4A4A4A40000000000000000000000000000000000FF00000000000000000000000000FF0000000000000000000000000000000000FF000000
310
00000000000000000000FF0000000000000000000000000000000000FF00000000000000000000000000FF0000000000000000000000000000000000FF00000000000000000000000000FF0000000000000000000000000000000000FF00000000000000000000000000FF0000000000000000000000000000000000FFFFFF
310
FFFFFFFFFFFFFFFFFFFFFFFF0000000000000000000000000000000000FFFFFFFFFFFFFFFFFFFFFFFFFFFFFF0000000000000000000000000000000000FF00000000000000000000000000FF0000000000000000000000000000000000FF00000000000000000000000000FF0000000000000000000000000000000000FF00
310
000000000000000000000000FF000000000000000000000000000000000000FFFFFFFFFFFFFFFFFFFFFFFFFFFFFF0000000000000000000000000000000000000000000000000000000000FF00000000000000000000000000000000000000000000000000000000000000FF00000000000000000000000000000000000000
310
000000000000000000000000FFFFFF0000000000000000000000000000000000000000000000000000000000000000000000000000000000
102
{BLKREFS
331
4E7B
102
}
 70
     4
280
     1
281
     0
  0
BLOCK_RECORD
  5
4D07
102
{ACAD_XDICTIONARY
360
4DA3
102
}
330
1
100
AcDbSymbolTableRecord
100
AcDbBlockTableRecord
  2
センタ-E CEMH710
340
0
310
2800000020000000200000000100080000000000000400000000000000000000000000000000000000000000000080000080000000808000800000008000800080800000C0C0C000C0DCC000F0CAA6000020400000206000002080000020A0000020C0000020E00000400000004020000040400000406000004080000040A0
310
000040C0000040E00000600000006020000060400000606000006080000060A0000060C0000060E00000800000008020000080400000806000008080000080A0000080C0000080E00000A0000000A0200000A0400000A0600000A0800000A0A00000A0C00000A0E00000C0000000C0200000C0400000C0600000C0800000C0
310
A00000C0C00000C0E00000E0000000E0200000E0400000E0600000E0800000E0A00000E0C00000E0E00040000000400020004000400040006000400080004000A0004000C0004000E00040200000402020004020400040206000402080004020A0004020C0004020E000404000004040200040404000404060004040800040
310
40A0004040C0004040E00040600000406020004060400040606000406080004060A0004060C0004060E00040800000408020004080400040806000408080004080A0004080C0004080E00040A0000040A0200040A0400040A0600040A0800040A0A00040A0C00040A0E00040C0000040C0200040C0400040C0600040C08000
310
40C0A00040C0C00040C0E00040E0000040E0200040E0400040E0600040E0800040E0A00040E0C00040E0E00080000000800020008000400080006000800080008000A0008000C0008000E00080200000802020008020400080206000802080008020A0008020C0008020E00080400000804020008040400080406000804080
310
008040A0008040C0008040E00080600000806020008060400080606000806080008060A0008060C0008060E00080800000808020008080400080806000808080008080A0008080C0008080E00080A0000080A0200080A0400080A0600080A0800080A0A00080A0C00080A0E00080C0000080C0200080C0400080C0600080C0
310
800080C0A00080C0C00080C0E00080E0000080E0200080E0400080E0600080E0800080E0A00080E0C00080E0E000C0000000C0002000C0004000C0006000C0008000C000A000C000C000C000E000C0200000C0202000C0204000C0206000C0208000C020A000C020C000C020E000C0400000C0402000C0404000C0406000C0
310
408000C040A000C040C000C040E000C0600000C0602000C0604000C0606000C0608000C060A000C060C000C060E000C0800000C0802000C0804000C0806000C0808000C080A000C080C000C080E000C0A00000C0A02000C0A04000C0A06000C0A08000C0A0A000C0A0C000C0A0E000C0C00000C0C02000C0C04000C0C06000
310
C0C08000C0C0A000F0FBFF00A4A0A000808080000000FF0000FF000000FFFF00FF000000FF00FF00FFFF0000FFFFFF000000000000000000000000000000000000000000000000000000000000000000000000000000000000000000000000000000FFFFFFFFFFFFFF00000000000000000000000000000000000000000000
310
0000000000FF00000000FF0000000000000000000000000000000000000000000000000000FF00000000FF0000000000000000000000000000000000000000000000000000FF00000000FF0000000000000000000000000000000000000000000000000000FF00000000FF0000000000000000000000000000000000000000
310
000000000000FF00000000FF0000000000000000000000000000000000000000000000000000FF00000000FF0000000000000000000000000000000000000000000000000000FF00000000FF0000000000000000000000000000000000000000000000000000FF00000000FF00000000000000000000000000000000000000
310
00000000000000FF00000000FF0000000000000000000000000000000000000000000000000000FF00000000FF0000000000000000000000000000000000000000000000000000FF00000000FF0000000000000000000000000000000000000000000000000000FF00000000FF000000000000000000000000000000000000
310
0000000000000000FF00000000FF000000000000000000000000A4A4A4A4A4000000000000000000FFA4A4A4FFA4000000000000000000000000FF0000000000000000000000000000000000FFFF000000000000000000000000FF0000000000000000000000000000000000FFFF000000000000000000000000FF00000000
310
00000000000000000000000000FFFF000000000000000000000000FF0000000000000000000000000000000000FFFF000000000000000000000000FF0000000000000000000000000000000000FFFF000000000000000000000000FF0000000000000000000000000000000000FFFF000000000000000000000000FF000000
310
0000000000000000000000000000FFFF000000000000000000000000FFFFFF0000FFFFFFFFFFFFFFFFFFFFFFFFFFFFFF000000000000000000000000FF000000000000000000000000000000000000FF000000000000000000000000FF000000000000000000000000000000000000FF000000000000000000000000FF0000
310
00000000000000000000000000000000FF000000000000000000000000FF000000000000000000000000000000000000FF000000000000000000000000FFFFFFFFFFFFFFFFF9FFFFFFFFFFFFFFFFFFFF000000000000000000000000000000000000FFF9F9F9F9FFF900000000000000000000000000000000000000000000
310
000000000000F900000000000000000000000000000000000000000000000000000000000000000000000000000000000000000000000000
102
{BLKREFS
331
4D36
102
}
 70
     4
280
     1
281
     0
  0
BLOCK_RECORD
  5
4F8E
102
{ACAD_XDICTIONARY
360
5025
102
}
330
1
100
AcDbSymbolTableRecord
100
AcDbBlockTableRecord
  2
リーマボルト-E CEMH710 M24
340
0
310
2800000020000000200000000100080000000000000400000000000000000000000000000000000000000000000080000080000000808000800000008000800080800000C0C0C000C0DCC000F0CAA6000020400000206000002080000020A0000020C0000020E00000400000004020000040400000406000004080000040A0
310
000040C0000040E00000600000006020000060400000606000006080000060A0000060C0000060E00000800000008020000080400000806000008080000080A0000080C0000080E00000A0000000A0200000A0400000A0600000A0800000A0A00000A0C00000A0E00000C0000000C0200000C0400000C0600000C0800000C0
310
A00000C0C00000C0E00000E0000000E0200000E0400000E0600000E0800000E0A00000E0C00000E0E00040000000400020004000400040006000400080004000A0004000C0004000E00040200000402020004020400040206000402080004020A0004020C0004020E000404000004040200040404000404060004040800040
310
40A0004040C0004040E00040600000406020004060400040606000406080004060A0004060C0004060E00040800000408020004080400040806000408080004080A0004080C0004080E00040A0000040A0200040A0400040A0600040A0800040A0A00040A0C00040A0E00040C0000040C0200040C0400040C0600040C08000
310
40C0A00040C0C00040C0E00040E0000040E0200040E0400040E0600040E0800040E0A00040E0C00040E0E00080000000800020008000400080006000800080008000A0008000C0008000E00080200000802020008020400080206000802080008020A0008020C0008020E00080400000804020008040400080406000804080
310
008040A0008040C0008040E00080600000806020008060400080606000806080008060A0008060C0008060E00080800000808020008080400080806000808080008080A0008080C0008080E00080A0000080A0200080A0400080A0600080A0800080A0A00080A0C00080A0E00080C0000080C0200080C0400080C0600080C0
310
800080C0A00080C0C00080C0E00080E0000080E0200080E0400080E0600080E0800080E0A00080E0C00080E0E000C0000000C0002000C0004000C0006000C0008000C000A000C000C000C000E000C0200000C0202000C0204000C0206000C0208000C020A000C020C000C020E000C0400000C0402000C0404000C0406000C0
310
408000C040A000C040C000C040E000C0600000C0602000C0604000C0606000C0608000C060A000C060C000C060E000C0800000C0802000C0804000C0806000C0808000C080A000C080C000C080E000C0A00000C0A02000C0A04000C0A06000C0A08000C0A0A000C0A0C000C0A0E000C0C00000C0C02000C0C04000C0C06000
310
C0C08000C0C0A000F0FBFF00A4A0A000808080000000FF0000FF000000FFFF00FF000000FF00FF00FFFF0000FFFFFF0000000000000000000000000000000000000000000000000000000000000000000000000000000000000000000000000000000000000000000000000000000000000000000000000000000000000000
310
00000000000000000000000000000000000000000000000000000000000000000000000000000000000000000000000000000000000000000000000000000000000000000000000000000000000000000000000000000000000000000000000000000000000000000000000000000000000000000000000000000000000000
310
00000000000000000000000000000000000000000000000000000000000000000000000000000000000000000000000000000000000000000000000000000000000000000000000000000000000000000000000000000000000000000000000000000000000000000000000000000000000000000000FFFFFFFFFF00000000
310
00000000000000000000000000FFFFFFFF000000000000FF000000FFFFFF000000000000000000000000000000000000FFFF000000FFFFFF000000FF00FFFF00000000000000000000000000FFFF0000FFFF0000FFFEFEFFFFFFFFFF00FFFF00000000000000000000000000FFFFFFFFFFFF0000FFFF00FF000000FF00FFFF
310
00000000000000000000000000FF000000FFFF0000FFFF00FF000000FF00FFFF00000000000000000000000000FF000000FFFF0000FFFF00FF000000FFFFFFFF00000000000000000000000000FF000000FFFF0000FFFF00FF000000FF00FFFF00000000000000000000000000FF000000FFFF0000FFFEFEFFFFFFFFFF00FF
310
FF00000000000000000000000000FFFFFFFFFFFF000000FFFFFF000000FF00FFFF00000000000000000000000000FFFF0000FFFF0000000000FF000000FFFFFF000000000000000000000000000000000000FFFF0000000000FFFFFFFFFF0000000000000000000000000000000000FFFFFFFF000000000000000000000000
310
00000000000000000000000000000000000000000000000000000000000000000000000000000000000000000000000000000000000000000000000000000000000000000000000000000000000000000000000000000000000000000000000000000000000000000000000000000000000000000000000000000000000000
310
00000000000000000000000000000000000000000000000000000000000000000000000000000000000000000000000000000000000000000000000000000000000000000000000000000000000000000000000000000000000000000000000000000000000000000000000000000000000000000000000000000000000000
310
0000000000000000000000000000000000000000000000000000000000000000000000000000000000000000000000000000000000000000
102
{BLKREFS
331
4FBE
102
}
 70
     4
280
     1
281
     0
  0
BLOCK_RECORD
  5
50BA
102
{ACAD_XDICTIONARY
360
5190
102
}
330
1
100
AcDbSymbolTableRecord
100
AcDbBlockTableRecord
  2
ＧＣサイドカバ－-E CEMH710
340
0
310
2800000020000000200000000100080000000000000400000000000000000000000000000000000000000000000080000080000000808000800000008000800080800000C0C0C000C0DCC000F0CAA6000020400000206000002080000020A0000020C0000020E00000400000004020000040400000406000004080000040A0
310
000040C0000040E00000600000006020000060400000606000006080000060A0000060C0000060E00000800000008020000080400000806000008080000080A0000080C0000080E00000A0000000A0200000A0400000A0600000A0800000A0A00000A0C00000A0E00000C0000000C0200000C0400000C0600000C0800000C0
310
A00000C0C00000C0E00000E0000000E0200000E0400000E0600000E0800000E0A00000E0C00000E0E00040000000400020004000400040006000400080004000A0004000C0004000E00040200000402020004020400040206000402080004020A0004020C0004020E000404000004040200040404000404060004040800040
310
40A0004040C0004040E00040600000406020004060400040606000406080004060A0004060C0004060E00040800000408020004080400040806000408080004080A0004080C0004080E00040A0000040A0200040A0400040A0600040A0800040A0A00040A0C00040A0E00040C0000040C0200040C0400040C0600040C08000
310
40C0A00040C0C00040C0E00040E0000040E0200040E0400040E0600040E0800040E0A00040E0C00040E0E00080000000800020008000400080006000800080008000A0008000C0008000E00080200000802020008020400080206000802080008020A0008020C0008020E00080400000804020008040400080406000804080
310
008040A0008040C0008040E00080600000806020008060400080606000806080008060A0008060C0008060E00080800000808020008080400080806000808080008080A0008080C0008080E00080A0000080A0200080A0400080A0600080A0800080A0A00080A0C00080A0E00080C0000080C0200080C0400080C0600080C0
310
800080C0A00080C0C00080C0E00080E0000080E0200080E0400080E0600080E0800080E0A00080E0C00080E0E000C0000000C0002000C0004000C0006000C0008000C000A000C000C000C000E000C0200000C0202000C0204000C0206000C0208000C020A000C020C000C020E000C0400000C0402000C0404000C0406000C0
310
408000C040A000C040C000C040E000C0600000C0602000C0604000C0606000C0608000C060A000C060C000C060E000C0800000C0802000C0804000C0806000C0808000C080A000C080C000C080E000C0A00000C0A02000C0A04000C0A06000C0A08000C0A0A000C0A0C000C0A0E000C0C00000C0C02000C0C04000C0C06000
310
C0C08000C0C0A000F0FBFF00A4A0A000808080000000FF0000FF000000FFFF00FF000000FF00FF00FFFF0000FFFFFF0000000000000000000000000000000000000000000000000000000000000000000000000000000000000000000000FFFF00000000000000000000000000000000000000000000000000000000000000
310
FF00000000000000000000000000000000000000000000000000000000000000FF00000000000000000000000000000000000000000000000000000000000000FF00000000000000000000000000000000000000000000000000000000000000FF000000000000000000000000000000000000000000000000000000000000
310
00FF00000000000000000000000000000000000000000000000000000000000000FF00000000000000000000000000000000000000000000000000000000000000FF00000000000000000000000000000000000000000000000000000000000000FF0000000000000000000000000000000000000000000000000000000000
310
0000FF00000000000000000000000000000000000000000000000000000000000000FF00000000000000000000000000000000000000000000000000000000000000FF00000000000000000000000000000000000000000000000000000000000000FF00000000000000000000000000000000000000000000000000000000
310
000000FF00000000000000000000000000000000000000000000000000000000000000FF00000000000000000000000000000000000000000000000000000000000000FF0000000000000000000000000000000000000000000000000000000000000000000000000000000000000000000000000000000000000000000000
310
00000000000000000000000000000000000000000000000000000000000000000000000000000000000000000000000000000000000000000000000000000000000000000000000000000000000000000000000000000000000000000000000000000000000000000000000000000000000000000000000000000000000000
310
0000000000000000000000000000000000000000000000000000000000000000000000000000000000000000000000000000000000000000000000000000000000FAFAFAFAFAFAFAFAFAFA0000000000000000000000000000000000000000000000FAFAFAFAFAFAFAFA000000000000000000000000000000000000000000
310
00000000FAFA0000FA00FA00000000000000000000000000000000000000000000000000FAFFFF000000000000000000000000000000000000000000000000000000000000FFFF00000000000000000000000000000000000000000000000000000000FFFEFEFF000000000000000000000000000000000000000000000000
310
000000000000FFFF000000000000000000000000000000000000000000000000000000000000000000000000000000000000000000000000
102
{BLKREFS
331
50F3
102
}
 70
     4
280
     1
281
     0
  0
BLOCK_RECORD
  5
552E
330
1
100
AcDbSymbolTableRecord
100
AcDbBlockTableRecord
  2
*D13
340
0
 70
     0
280
     1
281
     0
  0
BLOCK_RECORD
  5
5561
330
1
100
AcDbSymbolTableRecord
100
AcDbBlockTableRecord
  2
*D14
340
0
 70
     0
280
     1
281
     0
  0
BLOCK_RECORD
  5
5579
330
1
100
AcDbSymbolTableRecord
100
AcDbBlockTableRecord
  2
*D15
340
0
 70
     0
280
     1
281
     0
  0
BLOCK_RECORD
  5
5595
330
1
100
AcDbSymbolTableRecord
100
AcDbBlockTableRecord
  2
*D16
340
0
 70
     0
280
     1
281
     0
  0
BLOCK_RECORD
  5
5678
330
1
100
AcDbSymbolTableRecord
100
AcDbBlockTableRecord
  2
*D17
340
0
 70
     0
280
     1
281
     0
  0
BLOCK_RECORD
  5
5690
330
1
100
AcDbSymbolTableRecord
100
AcDbBlockTableRecord
  2
*D18
340
0
 70
     0
280
     1
281
     0
  0
BLOCK_RECORD
  5
56A8
330
1
100
AcDbSymbolTableRecord
100
AcDbBlockTableRecord
  2
*D19
340
0
 70
     0
280
     1
281
     0
  0
BLOCK_RECORD
  5
5750
330
1
100
AcDbSymbolTableRecord
100
AcDbBlockTableRecord
  2
*D20
340
0
 70
     0
280
     1
281
     0
  0
BLOCK_RECORD
  5
576C
330
1
100
AcDbSymbolTableRecord
100
AcDbBlockTableRecord
  2
*D21
340
0
 70
     0
280
     1
281
     0
  0
BLOCK_RECORD
  5
5788
330
1
100
AcDbSymbolTableRecord
100
AcDbBlockTableRecord
  2
*D22
340
0
 70
     0
280
     1
281
     0
  0
BLOCK_RECORD
  5
57A0
330
1
100
AcDbSymbolTableRecord
100
AcDbBlockTableRecord
  2
*D23
340
0
 70
     0
280
     1
281
     0
  0
BLOCK_RECORD
  5
57C1
330
1
100
AcDbSymbolTableRecord
100
AcDbBlockTableRecord
  2
*D24
340
0
 70
     0
280
     1
281
     0
  0
BLOCK_RECORD
  5
57D9
330
1
100
AcDbSymbolTableRecord
100
AcDbBlockTableRecord
  2
*D25
340
0
 70
     0
280
     1
281
     0
  0
BLOCK_RECORD
  5
5A6A
330
1
100
AcDbSymbolTableRecord
100
AcDbBlockTableRecord
  2
*D26
340
0
 70
     0
280
     1
281
     0
  0
BLOCK_RECORD
  5
7A58
330
1
100
AcDbSymbolTableRecord
100
AcDbBlockTableRecord
  2
*D27
340
0
 70
     0
280
     1
281
     0
  0
BLOCK_RECORD
  5
7B9E
330
1
100
AcDbSymbolTableRecord
100
AcDbBlockTableRecord
  2
*D28
340
0
 70
     0
280
     1
281
     0
  0
BLOCK_RECORD
  5
7BCC
330
1
100
AcDbSymbolTableRecord
100
AcDbBlockTableRecord
  2
*D29
340
0
 70
     0
280
     1
281
     0
  0
BLOCK_RECORD
  5
7D80
330
1
100
AcDbSymbolTableRecord
100
AcDbBlockTableRecord
  2
GCｻｲﾄﾞｶﾊﾞｰ　CEM710
340
0
310
2800000020000000200000000100080000000000000400000000000000000000000000000000000000000000000080000080000000808000800000008000800080800000C0C0C000C0DCC000F0CAA6000020400000206000002080000020A0000020C0000020E00000400000004020000040400000406000004080000040A0
310
000040C0000040E00000600000006020000060400000606000006080000060A0000060C0000060E00000800000008020000080400000806000008080000080A0000080C0000080E00000A0000000A0200000A0400000A0600000A0800000A0A00000A0C00000A0E00000C0000000C0200000C0400000C0600000C0800000C0
310
A00000C0C00000C0E00000E0000000E0200000E0400000E0600000E0800000E0A00000E0C00000E0E00040000000400020004000400040006000400080004000A0004000C0004000E00040200000402020004020400040206000402080004020A0004020C0004020E000404000004040200040404000404060004040800040
310
40A0004040C0004040E00040600000406020004060400040606000406080004060A0004060C0004060E00040800000408020004080400040806000408080004080A0004080C0004080E00040A0000040A0200040A0400040A0600040A0800040A0A00040A0C00040A0E00040C0000040C0200040C0400040C0600040C08000
310
40C0A00040C0C00040C0E00040E0000040E0200040E0400040E0600040E0800040E0A00040E0C00040E0E00080000000800020008000400080006000800080008000A0008000C0008000E00080200000802020008020400080206000802080008020A0008020C0008020E00080400000804020008040400080406000804080
310
008040A0008040C0008040E00080600000806020008060400080606000806080008060A0008060C0008060E00080800000808020008080400080806000808080008080A0008080C0008080E00080A0000080A0200080A0400080A0600080A0800080A0A00080A0C00080A0E00080C0000080C0200080C0400080C0600080C0
310
800080C0A00080C0C00080C0E00080E0000080E0200080E0400080E0600080E0800080E0A00080E0C00080E0E000C0000000C0002000C0004000C0006000C0008000C000A000C000C000C000E000C0200000C0202000C0204000C0206000C0208000C020A000C020C000C020E000C0400000C0402000C0404000C0406000C0
310
408000C040A000C040C000C040E000C0600000C0602000C0604000C0606000C0608000C060A000C060C000C060E000C0800000C0802000C0804000C0806000C0808000C080A000C080C000C080E000C0A00000C0A02000C0A04000C0A06000C0A08000C0A0A000C0A0C000C0A0E000C0C00000C0C02000C0C04000C0C06000
310
C0C08000C0C0A000F0FBFF00A4A0A000808080000000FF0000FF000000FFFF00FF000000FF00FF00FFFF0000FFFFFF000000000000000000000000000000000000000000000000000000000000000000000000000000000000FC00FC000000000000FC0000FC00000000000000000000000000000000000000FCFCFC000000
310
000000FCFCFCFC00000000000000000000000000000000000000FC00FC000000000000FC0000FC00000000000000000000000000000000000000FC00FC000000000000FC0000FC00000000000000000000000000000000000000FC00FC000000000000FC0000FC00000000000000000000000000000000000000FC00FCFCFC
310
FCFCFCFCFC0000FC00000000000000000000000000000000000000FC0000000000000000000000FC00000000000000000000000000000000000000FC0000000000000000000000FC00000000000000000000000000000000000000FC0000000000000000000000FC00000000000000000000000000000000000000FC000000
310
0000000000000000FC00000000000000000000000000000000000000FC0000000000000000000000FC00000000000000000000000000000000000000FC0000000000000000000000FC00000000000000000000000000000000000000FC0000000000000000000000FC00000000000000000000000000000000000000FC0000
310
000000000000000000FC00000000000000000000000000000000000000FCFCFCFC0000000000000000FC00000000000000000000000000000000000000000000FC0000000000000000FC0000000000000000000000000000000000000000FCFCFC0000000000000000FC0000000000000000000000000000000000000000FC
310
00000000000000000000FC0000000000000000000000000000000000000000FC00000000000000000000FC0000000000000000000000000000000000000000FC00000000000000000000FC0000000000000000000000000000000000000000FC00000000000000000000FC0000000000000000000000000000000000000000
310
FC00000000000000000000FC00000000000000000000000000000000000000FCFCFCFCFCFCFCFCFCFCFCFCFCFC00000000000000000000000000000000000000FC00000000000000000000FC0000000000000000000000000000000000000000FC00000000000000000000FC00000000000000000000000000000000000000
310
00FC00000000000000000000FC0000000000000000000000000000000000000000FC00000000000000000000FC0000000000000000000000000000000000000000FC00000000000000000000FC0000000000000000000000000000000000000000FC00000000000000000000FC000000000000000000000000000000000000
310
0000FCFCFCFCFCFCFCFCFCFCFCFC000000000000000000000000000000000000000000000000000000000000000000000000000000000000
102
{BLKREFS
331
7D95
102
}
 70
     4
280
     1
281
     1
  0
ENDTAB
  0
ENDSEC
  0
SECTION
  2
BLOCKS
  0
BLOCK
  5
20
330
1F
100
AcDbEntity
  8
0
100
AcDbBlockBegin
  2
*Model_Space
 70
     0
 10
0.0
 20
0.0
 30
0.0
  3
*Model_Space
  1

  0
ENDBLK
  5
21
330
1F
100
AcDbEntity
  8
0
100
AcDbBlockEnd
  0
BLOCK
  5
1C
330
1B
100
AcDbEntity
 67
     1
  8
0
100
AcDbBlockBegin
  2
*Paper_Space
 70
     0
 10
0.0
 20
0.0
 30
0.0
  3
*Paper_Space
  1

  0
ENDBLK
  5
1D
330
1B
100
AcDbEntity
 67
     1
  8
0
100
AcDbBlockEnd
  0
BLOCK
  5
24
330
23
100
AcDbEntity
 67
     1
  8
0
100
AcDbBlockBegin
  2
*Paper_Space0
 70
     0
 10
0.0
 20
0.0
 30
0.0
  3
*Paper_Space0
  1

  0
ENDBLK
  5
25
330
23
100
AcDbEntity
 67
     1
  8
0
100
AcDbBlockEnd
  0
BLOCK
  5
6D
330
69
100
AcDbEntity
  8
0
100
AcDbBlockBegin
  2
_Open30
 70
     0
 10
0.0
 20
0.0
 30
0.0
  3
_Open30
  1

  0
LINE
  5
6A
330
69
100
AcDbEntity
  8
0
  6
ByBlock
 62
     0
370
    -2
100
AcDbLine
 10
-1.0
 20
0.26794919
 30
0.0
 11
0.0
 21
0.0
 31
0.0
  0
LINE
  5
6B
330
69
100
AcDbEntity
  8
0
  6
ByBlock
 62
     0
370
    -2
100
AcDbLine
 10
0.0
 20
0.0
 30
0.0
 11
-1.0
 21
-0.26794919
 31
0.0
  0
LINE
  5
6C
330
69
100
AcDbEntity
  8
0
  6
ByBlock
 62
     0
370
    -2
100
AcDbLine
 10
0.0
 20
0.0
 30
0.0
 11
-1.0
 21
0.0
 31
0.0
  0
ENDBLK
  5
6E
330
69
100
AcDbEntity
  8
0
100
AcDbBlockEnd
  0
BLOCK
  5
76
330
74
100
AcDbEntity
  8
0
100
AcDbBlockBegin
  2
GENAXEH
 70
     0
 10
0.0
 20
0.0
 30
0.0
  3
GENAXEH
  1

  0
LINE
  5
75
330
74
100
AcDbEntity
  8
0
100
AcDbLine
 10
-1.0
 20
0.0
 30
0.0
 11
1.0
 21
0.0
 31
0.0
  0
ENDBLK
  5
77
330
74
100
AcDbEntity
  8
0
100
AcDbBlockEnd
  0
BLOCK
  5
2CAA
330
2CA9
100
AcDbEntity
  8
0
100
AcDbBlockBegin
  2
GENDOT
 70
     0
 10
0.0
 20
0.0
 30
0.0
  3
GENDOT
  1

  0
LINE
  5
2CAB
330
2CA9
100
AcDbEntity
  8
0
100
AcDbLine
 10
0.0
 20
0.0
 30
0.0
 11
-1.0
 21
0.0
 31
0.0
  0
LWPOLYLINE
  5
2CAC
330
2CA9
100
AcDbEntity
  8
0
100
AcDbPolyline
 90
        2
 70
     1
 43
0.25
 10
-0.125
 20
0.0
 42
1.0
 10
0.125
 20
0.0
 42
1.0
  0
ENDBLK
  5
2CAD
330
2CA9
100
AcDbEntity
  8
0
100
AcDbBlockEnd
  0
BLOCK
  5
4A11
330
4A10
100
AcDbEntity
  8
0
100
AcDbBlockBegin
  2
ロッカクアナツキプラグ-E R3／4
 70
     0
 10
0.0
 20
0.0
 30
0.0
  3
ロッカクアナツキプラグ-E R3／4
  1

  0
LINE
  5
4A13
330
4A10
100
AcDbEntity
  8
AM_0 外形線1
100
AcDbLine
 10
7.796314999999593
 20
-16.99999500692365
 30
0.0
 11
-7.796314999999593
 21
-16.99999500692365
 31
0.0
  0
LINE
  5
4A14
330
4A10
100
AcDbEntity
  8
AM_0 外形線1
100
AcDbLine
 10
-12.99246700000003
 20
-13.99999500692365
 30
0.0
 11
12.99246800000037
 21
-13.99999500692365
 31
0.0
  0
LINE
  5
4A15
330
4A10
100
AcDbEntity
  8
AM_0 外形線1
100
AcDbLine
 10
-13.41151600000012
 20
-1.999995006923654
 30
0.0
 11
13.41151700000046
 21
-1.999995006923654
 31
0.0
  0
LINE
  5
4A16
330
4A10
100
AcDbEntity
  8
AM_0 外形線1
100
AcDbLine
 10
-7.796314999999593
 20
-16.99999500692365
 30
0.0
 11
-12.99246700000003
 21
-13.99999500692365
 31
0.0
  0
LINE
  5
4A17
330
4A10
100
AcDbEntity
  8
AM_0 外形線1
100
AcDbLine
 10
-12.99246700000003
 20
-13.99999500692365
 30
0.0
 11
-13.4115164285713
 21
-1.999995006923654
 31
0.0
  0
LINE
  5
4A18
330
4A10
100
AcDbEntity
  8
AM_0 外形線1
100
AcDbLine
 10
-13.41151600000012
 20
-1.999995006923654
 30
0.0
 11
-11.41151600000012
 21
0.0000049930763453
 31
0.0
  0
LINE
  5
4A19
330
4A10
100
AcDbEntity
  8
AM_7 中心線
  6
CENTER
100
AcDbLine
 10
0.0
 20
4.127664993075994
 30
0.0
 11
0.0
 21
-25.60283200692402
 31
0.0
  0
LINE
  5
4A1B
330
4A10
100
AcDbEntity
  8
AM_0 外形線1
100
AcDbLine
 10
12.99246800000037
 20
-13.99999500692365
 30
0.0
 11
7.796314999999593
 21
-16.99999500692365
 31
0.0
  0
LINE
  5
4A1C
330
4A10
100
AcDbEntity
  8
AM_0 外形線1
100
AcDbLine
 10
11.41151700000046
 20
0.0000049930763453
 30
0.0
 11
13.41151700000046
 21
-1.999995006923654
 31
0.0
  0
LINE
  5
4A1D
330
4A10
100
AcDbEntity
  8
AM_4 細線
100
AcDbLine
 10
11.80655800000022
 20
-14.68468000692382
 30
0.0
 11
12.2887261515516
 21
-0.8772041584738872
 31
0.0
  0
LINE
  5
4A42
330
4A10
100
AcDbEntity
  8
AM_0 外形線1
100
AcDbLine
 10
-11.41151600000012
 20
0.0000049930763453
 30
0.0
 11
11.41151700000046
 21
0.0000049930763453
 31
0.0
  0
LINE
  5
4A43
330
4A10
100
AcDbEntity
  8
AM_4 細線
100
AcDbLine
 10
-11.80655705497247
 20
-14.68468048861905
 30
0.0
 11
-12.28872500000034
 21
-0.8772040069238753
 31
0.0
  0
ENDBLK
  5
4A12
330
4A10
100
AcDbEntity
  8
0
100
AcDbBlockEnd
  0
BLOCK
  5
4ACA
330
4AC9
100
AcDbEntity
  8
0
100
AcDbBlockBegin
  2
ケースＡ-E CEMH710
 70
     0
 10
0.0
 20
0.0
 30
0.0
  3
ケースＡ-E CEMH710
  1

  0
LINE
  5
4ACD
330
4AC9
100
AcDbEntity
  8
AM_0 外形線1
100
AcDbLine
 10
185.0
 20
-302.0
 30
0.0
 11
185.0
 21
0.0
 31
0.0
  0
LINE
  5
4ACE
330
4AC9
100
AcDbEntity
  8
AM_0 外形線1
100
AcDbLine
 10
194.0
 20
-311.0
 30
0.0
 11
194.0
 21
0.0
 31
0.0
  0
LINE
  5
4ACF
330
4AC9
100
AcDbEntity
  8
AM_0 外形線1
100
AcDbLine
 10
0.0
 20
0.0
 30
0.0
 11
0.0
 21
-354.0
 31
0.0
  0
LINE
  5
4AD0
330
4AC9
100
AcDbEntity
  8
AM_0 外形線1
100
AcDbLine
 10
30.0
 20
-354.0
 30
0.0
 11
30.0
 21
0.0
 31
0.0
  0
LINE
  5
4AD1
330
4AC9
100
AcDbEntity
  8
AM_0 外形線1
100
AcDbLine
 10
38.0
 20
-302.0
 30
0.0
 11
185.0
 21
-302.0
 31
0.0
  0
ARC
  5
4AD2
330
4AC9
100
AcDbEntity
  8
AM_0 外形線1
100
AcDbCircle
 10
38.0
 20
-310.0
 30
0.0
 40
8.0
100
AcDbArc
 50
90.0
 51
180.0
  0
LINE
  5
4AD3
330
4AC9
100
AcDbEntity
  8
AM_0 外形線1
100
AcDbLine
 10
1.0
 20
-355.0
 30
0.0
 11
29.0
 21
-355.0
 31
0.0
  0
LINE
  5
4AD4
330
4AC9
100
AcDbEntity
  8
AM_0 外形線1
100
AcDbLine
 10
0.0
 20
-354.0
 30
0.0
 11
1.0
 21
-355.0
 31
0.0
  0
LINE
  5
4AD5
330
4AC9
100
AcDbEntity
  8
AM_0 外形線1
100
AcDbLine
 10
29.0
 20
-355.0
 30
0.0
 11
30.0
 21
-354.0
 31
0.0
  0
LINE
  5
4AD6
330
4AC9
100
AcDbEntity
  8
AM_0 外形線1
100
AcDbLine
 10
194.0
 20
-311.0
 30
0.0
 11
185.0
 21
-302.0
 31
0.0
  0
LINE
  5
4AD7
330
4AC9
100
AcDbEntity
  8
AM_0 外形線1
100
AcDbLine
 10
220.8999999999996
 20
-311.0
 30
0.0
 11
194.0
 21
-311.0
 31
0.0
  0
LINE
  5
4AD8
330
4AC9
100
AcDbEntity
  8
AM_0 外形線1
100
AcDbLine
 10
99.50000000000001
 20
281.5
 30
0.0
 11
-7.0
 21
281.5
 31
0.0
  0
LINE
  5
4AD9
330
4AC9
100
AcDbEntity
  8
AM_0 外形線1
100
AcDbLine
 10
38.0
 20
302.0
 30
0.0
 11
185.0
 21
302.0
 31
0.0
  0
LINE
  5
4ADA
330
4AC9
100
AcDbEntity
  8
AM_0 外形線1
100
AcDbLine
 10
30.0
 20
310.0
 30
0.0
 11
30.0
 21
354.0
 31
0.0
  0
LINE
  5
4ADC
330
4AC9
100
AcDbEntity
  8
AM_7 中心線
  6
CENTER
100
AcDbLine
 10
-70.35460899999998
 20
332.5
 30
0.0
 11
54.80851100000018
 21
332.5
 31
0.0
  0
LINE
  5
4ADD
330
4AC9
100
AcDbEntity
  8
AM_0 外形線1
100
AcDbLine
 10
-7.0
 20
294.0
 30
0.0
 11
-6.0
 21
295.0
 31
0.0
  0
LINE
  5
4ADE
330
4AC9
100
AcDbEntity
  8
AM_0 外形線1
100
AcDbLine
 10
0.0
 20
302.1999999999998
 30
0.0
 11
0.0
 21
319.5
 31
0.0
  0
LINE
  5
4ADF
330
4AC9
100
AcDbEntity
  8
AM_0 外形線1
100
AcDbLine
 10
0.0
 20
302.1999999999998
 30
0.0
 11
4.5
 21
302.1999999999998
 31
0.0
  0
LINE
  5
4AE0
330
4AC9
100
AcDbEntity
  8
AM_0 外形線1
100
AcDbLine
 10
4.5
 20
302.1999999999998
 30
0.0
 11
4.5
 21
295.0
 31
0.0
  0
LINE
  5
4AE1
330
4AC9
100
AcDbEntity
  8
AM_0 外形線1
100
AcDbLine
 10
-6.0
 20
295.0
 30
0.0
 11
4.5
 21
295.0
 31
0.0
  0
LWPOLYLINE
  5
4AE2
330
4AC9
100
AcDbEntity
  8
AM_0 外形線1
100
AcDbPolyline
 90
       73
 70
     0
 43
0.0
 10
2.25
 20
295.0
 10
2.446101000000453
 20
295.0136990000001
 10
2.640709000000241
 20
295.0546919999997
 10
2.832343000000037
 20
295.1226669999996
 10
3.019546000000444
 20
295.2171069999999
 10
3.200892000000748
 20
295.3372919999997
 10
3.375
 20
295.482309
 10
3.540547000000514
 20
295.651053
 10
3.696273000000473
 20
295.8422399999999
 10
3.84099100000003
 20
296.0544159999999
 10
3.97360000000026
 20
296.285965
 10
4.093093000000408
 20
296.5351249999999
 10
4.198558000000048
 20
296.8000000000002
 10
4.289193000000523
 20
297.0785739999996
 10
4.364309000000503
 20
297.3687280000003
 10
4.423334000000068
 20
297.6682519999999
 10
4.465818000000581
 20
297.9748669999999
 10
4.491439000000355
 20
298.2862399999994
 10
4.5
 20
298.5999999999999
 10
4.491439000000355
 20
298.9137609999998
 10
4.465818000000581
 20
299.2251340000003
 10
4.423334000000068
 20
299.5317489999998
 10
4.364309000000503
 20
299.8312729999998
 10
4.289193000000523
 20
300.1214259999997
 10
4.198558000000048
 20
300.3999999999996
 10
4.093093000000408
 20
300.664875
 10
3.97360000000026
 20
300.9140360000001
 10
3.84099100000003
 20
301.1455849999998
 10
3.696273000000473
 20
301.3577599999999
 10
3.540547000000514
 20
301.5489479999997
 10
3.375
 20
301.7176919999997
 10
3.200892000000748
 20
301.8627079999997
 10
3.019546000000444
 20
301.9828939999998
 10
2.832343000000037
 20
302.0773329999997
 10
2.640709000000241
 20
302.1453079999997
 10
2.446101000000453
 20
302.1863009999997
 10
2.25
 20
302.1999999999998
 10
2.053899999999885
 20
302.1863009999997
 10
1.859292000000094
 20
302.1453079999997
 10
1.6676580000003
 20
302.0773329999997
 10
1.480454999999891
 20
301.9828939999998
 10
1.299109000000497
 20
301.8627079999997
 10
1.125
 20
301.7176919999997
 10
0.9594530000003942
 20
301.5489479999997
 10
0.8037280000007742
 20
301.3577599999999
 10
0.6590100000003078
 20
301.1455849999998
 10
0.5264000000006491
 20
300.9140360000001
 10
0.4069079999999305
 20
300.664875
 10
0.3014430000002903
 20
300.3999999999996
 10
0.2108079999998154
 20
300.1214259999997
 10
0.1356919999998354
 20
299.8312729999998
 10
0.0766670000002705
 20
299.5317489999998
 10
0.0341829999997572
 20
299.2251340000003
 10
0.0085619999999835
 20
298.9137609999998
 10
0.0
 20
298.5999999999999
 10
0.0085619999999835
 20
298.2862399999994
 10
0.0341829999997572
 20
297.9748669999999
 10
0.0766670000002705
 20
297.6682519999999
 10
0.1356919999998354
 20
297.3687280000003
 10
0.2108079999998154
 20
297.0785739999996
 10
0.3014430000002903
 20
296.8000000000002
 10
0.4069079999999305
 20
296.5351249999999
 10
0.5264000000006491
 20
296.285965
 10
0.6590100000003078
 20
296.0544159999999
 10
0.8037280000007742
 20
295.8422399999999
 10
0.9594530000003942
 20
295.651053
 10
1.125
 20
295.482309
 10
1.299109000000497
 20
295.3372919999997
 10
1.480454999999891
 20
295.2171069999999
 10
1.6676580000003
 20
295.1226669999996
 10
1.859292000000094
 20
295.0546919999997
 10
2.053899999999885
 20
295.0136990000001
 10
2.25
 20
295.0
  0
LINE
  5
4AE3
330
4AC9
100
AcDbEntity
  8
AM_0 外形線1
100
AcDbLine
 10
-7.0
 20
281.5
 30
0.0
 11
-7.0
 21
294.0
 31
0.0
  0
LINE
  5
4AE4
330
4AC9
100
AcDbEntity
  8
AM_0 外形線1
100
AcDbLine
 10
47.71127499999964
 20
301.1227909999998
 30
0.0
 11
47.68064200000025
 21
302.0
 31
0.0
  0
ARC
  5
4AE5
330
4AC9
100
AcDbEntity
  8
AM_0 外形線1
100
AcDbCircle
 10
38.0
 20
310.0
 30
0.0
 40
8.0
100
AcDbArc
 50
180.0
 51
270.0
  0
LINE
  5
4AE6
330
4AC9
100
AcDbEntity
  8
AM_0 外形線1
100
AcDbLine
 10
47.00753299999997
 20
288.0
 30
0.0
 11
47.23451800000019
 21
281.5
 31
0.0
  0
LINE
  5
4AE8
330
4AC9
100
AcDbEntity
  8
AM_0 外形線1
100
AcDbLine
 10
1.0
 20
355.0
 30
0.0
 11
29.0
 21
355.0
 31
0.0
  0
LINE
  5
4AE9
330
4AC9
100
AcDbEntity
  8
AM_0 外形線1
100
AcDbLine
 10
0.0
 20
345.5
 30
0.0
 11
0.0
 21
354.0
 31
0.0
  0
LINE
  5
4AEA
330
4AC9
100
AcDbEntity
  8
AM_0 外形線1
100
AcDbLine
 10
0.0
 20
354.0
 30
0.0
 11
1.0
 21
355.0
 31
0.0
  0
LINE
  5
4AEB
330
4AC9
100
AcDbEntity
  8
AM_0 外形線1
100
AcDbLine
 10
29.0
 20
355.0
 30
0.0
 11
30.0
 21
354.0
 31
0.0
  0
LINE
  5
4AEC
330
4AC9
100
AcDbEntity
  8
AM_0 外形線1
100
AcDbLine
 10
100.0
 20
280.0
 30
0.0
 11
217.0
 21
280.0
 31
0.0
  0
LINE
  5
4AED
330
4AC9
100
AcDbEntity
  8
AM_7 中心線
  6
CENTER
100
AcDbLine
 10
98.0
 20
272.0
 30
0.0
 11
219.0
 21
272.0
 31
0.0
  0
LINE
  5
4AEE
330
4AC9
100
AcDbEntity
  8
AM_3 隠れ線
100
AcDbLine
 10
209.5
 20
265.5999999999999
 30
0.0
 11
108.5
 21
265.5999999999999
 31
0.0
  0
LINE
  5
4AEF
330
4AC9
100
AcDbEntity
  8
AM_0 外形線1
100
AcDbLine
 10
100.0
 20
266.5999999999999
 30
0.0
 11
100.0
 21
281.0
 31
0.0
  0
LINE
  5
4AF0
330
4AC9
100
AcDbEntity
  8
AM_0 外形線1
100
AcDbLine
 10
108.5
 20
265.5999999999999
 30
0.0
 11
101.0
 21
265.5999999999999
 31
0.0
  0
LINE
  5
4AF1
330
4AC9
100
AcDbEntity
  8
AM_0 外形線1
100
AcDbLine
 10
101.0
 20
265.5999999999999
 30
0.0
 11
100.0
 21
266.5999999999999
 31
0.0
  0
ARC
  5
4AF2
330
4AC9
100
AcDbEntity
  8
AM_0 外形線1
100
AcDbCircle
 10
99.50000000000001
 20
281.0
 30
0.0
 40
0.5
100
AcDbArc
 50
0.0
 51
90.0
  0
LINE
  5
4AF3
330
4AC9
100
AcDbEntity
  8
AM_0 外形線1
100
AcDbLine
 10
73.41151700000046
 20
300.0
 30
0.0
 11
72.99246800000037
 21
288.0
 31
0.0
  0
LINE
  5
4AF4
330
4AC9
100
AcDbEntity
  8
AM_0 外形線1
100
AcDbLine
 10
73.48135900000034
 20
302.0
 30
0.0
 11
73.41151700000046
 21
300.0
 31
0.0
  0
LINE
  5
4AF5
330
4AC9
100
AcDbEntity
  8
AM_0 外形線1
100
AcDbLine
 10
71.80655800000022
 20
287.3153149999998
 30
0.0
 11
71.60348299999987
 21
281.5
 31
0.0
  0
LINE
  5
4AF6
330
4AC9
100
AcDbEntity
  8
AM_0 外形線1
100
AcDbLine
 10
72.99246800000037
 20
288.0
 30
0.0
 11
72.76548300000012
 21
281.5
 31
0.0
  0
LINE
  5
4AF7
330
4AC9
100
AcDbEntity
  8
AM_0 外形線1
100
AcDbLine
 10
217.0
 20
281.0
 30
0.0
 11
217.0
 21
266.5999999999999
 31
0.0
  0
LINE
  5
4AF8
330
4AC9
100
AcDbEntity
  8
AM_0 外形線1
100
AcDbLine
 10
217.0
 20
266.5999999999999
 30
0.0
 11
216.0
 21
265.5999999999999
 31
0.0
  0
LINE
  5
4AF9
330
4AC9
100
AcDbEntity
  8
AM_0 外形線1
100
AcDbLine
 10
209.5
 20
265.5999999999999
 30
0.0
 11
216.0
 21
265.5999999999999
 31
0.0
  0
LINE
  5
4AFA
330
4AC9
100
AcDbEntity
  8
AM_0 外形線1
100
AcDbLine
 10
220.8999999999996
 20
291.5
 30
0.0
 11
220.8999999999996
 21
286.8000000000002
 31
0.0
  0
LINE
  5
4AFB
330
4AC9
100
AcDbEntity
  8
AM_0 外形線1
100
AcDbLine
 10
220.8999999999996
 20
311.0
 30
0.0
 11
220.8999999999996
 21
303.5
 31
0.0
  0
ARC
  5
4AFC
330
4AC9
100
AcDbEntity
  8
AM_0 外形線1
100
AcDbCircle
 10
217.5
 20
281.0
 30
0.0
 40
0.5
100
AcDbArc
 50
90.0
 51
180.0
  0
LINE
  5
4AFE
330
4AC9
100
AcDbEntity
  8
AM_0 外形線1
100
AcDbLine
 10
220.8999999999996
 20
286.8000000000002
 30
0.0
 11
220.8999999999996
 21
281.5
 31
0.0
  0
LINE
  5
4AFF
330
4AC9
100
AcDbEntity
  8
AM_0 外形線1
100
AcDbLine
 10
194.0
 20
311.0
 30
0.0
 11
185.0
 21
302.0
 31
0.0
  0
LINE
  5
4B00
330
4AC9
100
AcDbEntity
  8
AM_0 外形線1
100
AcDbLine
 10
220.8999999999996
 20
311.0
 30
0.0
 11
194.0
 21
311.0
 31
0.0
  0
INSERT
  5
4B01
330
4AC9
100
AcDbEntity
  8
AM_0 外形線1
100
AcDbBlockReference
  2
ロッカクアナツキプラグ-E R3／4
 10
60.0
 20
301.9999950069236
 30
0.0
  0
LINE
  5
4B02
330
4AC9
100
AcDbEntity
  8
AM_0 外形線1
100
AcDbLine
 10
48.39510300000075
 20
281.5405289999999
 30
0.0
 11
48.19344294502752
 21
287.3153145183047
 31
0.0
  0
LINE
  5
4B03
330
4AC9
100
AcDbEntity
  8
AM_0 外形線1
100
AcDbLine
 10
46.58848358588965
 20
299.9999995858898
 30
0.0
 11
46.518642
 21
302.0
 31
0.0
  0
LINE
  5
4B04
330
4AC9
100
AcDbEntity
  8
AM_0 外形線1
100
AcDbLine
 10
72.28872615155069
 20
301.1227908484493
 30
0.0
 11
72.31935900000006
 21
302.0
 31
0.0
  0
LINE
  5
4B9B
330
4AC9
100
AcDbEntity
  8
AM_0 外形線1
100
AcDbLine
 10
0.0
 20
319.5
 30
0.0
 11
30.0
 21
319.5
 31
0.0
  0
LINE
  5
4B9C
330
4AC9
100
AcDbEntity
  8
AM_0 外形線1
100
AcDbLine
 10
0.0
 20
345.5
 30
0.0
 11
30.0
 21
345.5
 31
0.0
  0
LINE
  5
4B9D
330
4AC9
100
AcDbEntity
  8
AM_0 外形線1
100
AcDbLine
 10
220.8999999999996
 20
281.5
 30
0.0
 11
217.5
 21
281.5
 31
0.0
  0
LINE
  5
4B9E
330
4AC9
100
AcDbEntity
  8
AM_0 外形線1
100
AcDbLine
 10
220.8999999999996
 20
-311.0
 30
0.0
 11
220.8999999999996
 21
0.0
 31
0.0
  0
ENDBLK
  5
4ACB
330
4AC9
100
AcDbEntity
  8
0
100
AcDbBlockEnd
  0
BLOCK
  5
4C11
330
4C10
100
AcDbEntity
  8
0
100
AcDbBlockBegin
  2
リジット-E CEMH710
 70
     0
 10
0.0
 20
0.0
 30
0.0
  3
リジット-E CEMH710
  1

  0
LINE
  5
4C13
330
4C10
100
AcDbEntity
  8
AM_0 外形線1
100
AcDbLine
 10
-69.0
 20
-282.5
 30
0.0
 11
-69.0
 21
0.0
 31
0.0
  0
LINE
  5
4C14
330
4C10
100
AcDbEntity
  8
AM_0 外形線1
100
AcDbLine
 10
-30.0
 20
-306.9442720000002
 30
0.0
 11
-30.0
 21
0.0
 31
0.0
  0
LINE
  5
4C15
330
4C10
100
AcDbEntity
  8
AM_0 外形線1
100
AcDbLine
 10
-72.54101900000023
 20
-282.5
 30
0.0
 11
-354.0
 21
-282.5
 31
0.0
  0
LINE
  5
4C16
330
4C10
100
AcDbEntity
  8
AM_0 外形線1
100
AcDbLine
 10
-2.0
 20
-355.0
 30
0.0
 11
-28.0
 21
-355.0
 31
0.0
  0
LINE
  5
4C17
330
4C10
100
AcDbEntity
  8
AM_7 中心線
  6
CENTER
100
AcDbLine
 10
-60.32074407602157
 20
-332.5
 30
0.0
 11
60.32074407602157
 21
-332.5
 31
0.0
  0
ARC
  5
4C18
330
4C10
100
AcDbEntity
  8
AM_0 外形線1
100
AcDbCircle
 10
-38.0
 20
-306.9442720000002
 30
0.0
 40
8.0
100
AcDbArc
 50
0.0
 51
63.43494899996549
  0
LINE
  5
4C19
330
4C10
100
AcDbEntity
  8
AM_0 外形線1
100
AcDbLine
 10
-28.0
 20
-355.0
 30
0.0
 11
-30.0
 21
-353.0
 31
0.0
  0
LINE
  5
4C1A
330
4C10
100
AcDbEntity
  8
AM_0 外形線1
100
AcDbLine
 10
-30.0
 20
-353.0
 30
0.0
 11
-30.0
 21
-306.9442720000002
 31
0.0
  0
LINE
  5
4C1B
330
4C10
100
AcDbEntity
  8
AM_0 外形線1
100
AcDbLine
 10
-34.42229099999986
 20
-299.7888540000001
 30
0.0
 11
-65.83281499999976
 21
-284.0835919999999
 31
0.0
  0
ARC
  5
4C1C
330
4C10
100
AcDbEntity
  8
AM_0 外形線1
100
AcDbCircle
 10
-72.54101900000023
 20
-297.5
 30
0.0
 40
15.0
100
AcDbArc
 50
63.43494899996549
 51
90.0
  0
LINE
  5
4C1D
330
4C10
100
AcDbEntity
  8
AM_0 外形線1
100
AcDbLine
 10
0.0
 20
-353.0
 30
0.0
 11
-2.0
 21
-355.0
 31
0.0
  0
LINE
  5
4C1E
330
4C10
100
AcDbEntity
  8
AM_0 外形線1
100
AcDbLine
 10
-354.0
 20
282.5
 30
0.0
 11
-72.54101900000023
 21
282.5
 31
0.0
  0
LINE
  5
4C1F
330
4C10
100
AcDbEntity
  8
AM_0 外形線1
100
AcDbLine
 10
-14.0
 20
281.5
 30
0.0
 11
-14.0
 21
0.0
 31
0.0
  0
LINE
  5
4C20
330
4C10
100
AcDbEntity
  8
AM_3 隠れ線
100
AcDbLine
 10
-14.0
 20
12.0
 30
0.0
 11
-56.0
 21
12.0
 31
0.0
  0
LINE
  5
4C21
330
4C10
100
AcDbEntity
  8
AM_3 隠れ線
100
AcDbLine
 10
-14.0
 20
10.5
 30
0.0
 11
-76.0
 21
10.5
 31
0.0
  0
LINE
  5
4C22
330
4C10
100
AcDbEntity
  8
AM_3 隠れ線
100
AcDbLine
 10
-76.0
 20
0.0
 30
0.0
 11
-76.0
 21
10.5
 31
0.0
  0
LINE
  5
4C23
330
4C10
100
AcDbEntity
  8
AM_3 隠れ線
100
AcDbLine
 10
-76.0
 20
10.5
 30
0.0
 11
-82.0621769999998
 21
0.0
 31
0.0
  0
LINE
  5
4C24
330
4C10
100
AcDbEntity
  8
AM_3 隠れ線
100
AcDbLine
 10
-56.0
 20
12.0
 30
0.0
 11
-56.86602499999935
 21
10.5
 31
0.0
  0
LINE
  5
4C25
330
4C10
100
AcDbEntity
  8
AM_3 隠れ線
100
AcDbLine
 10
-56.0
 20
12.0
 30
0.0
 11
-56.0
 21
0.0
 31
0.0
  0
LINE
  5
4C26
330
4C10
100
AcDbEntity
  8
AM_3 隠れ線
100
AcDbLine
 10
-56.86602499999935
 20
10.5
 30
0.0
 11
-56.86602499999935
 21
0.0
 31
0.0
  0
LINE
  5
4C27
330
4C10
100
AcDbEntity
  8
AM_0 外形線1
100
AcDbLine
 10
-30.0
 20
306.9442719999997
 30
0.0
 11
-30.0
 21
353.0
 31
0.0
  0
LINE
  5
4C28
330
4C10
100
AcDbEntity
  8
AM_0 外形線1
100
AcDbLine
 10
-65.83281499999976
 20
284.0835919999999
 30
0.0
 11
-34.42229099999986
 21
299.7888549999998
 31
0.0
  0
ARC
  5
4C29
330
4C10
100
AcDbEntity
  8
AM_0 外形線1
100
AcDbCircle
 10
-72.54101900000023
 20
297.5
 30
0.0
 40
15.0
100
AcDbArc
 50
270.0
 51
296.5650510000346
  0
ARC
  5
4C2A
330
4C10
100
AcDbEntity
  8
AM_0 外形線1
100
AcDbCircle
 10
-38.0
 20
306.9442719999997
 30
0.0
 40
8.0
100
AcDbArc
 50
296.5650510000346
 51
0.0
  0
LINE
  5
4C2C
330
4C10
100
AcDbEntity
  8
AM_0 外形線1
100
AcDbLine
 10
0.0
 20
295.0
 30
0.0
 11
-8.0
 21
295.0
 31
0.0
  0
LINE
  5
4C2D
330
4C10
100
AcDbEntity
  8
AM_0 外形線1
100
AcDbLine
 10
0.0
 20
319.4999999999995
 30
0.0
 11
0.0
 21
295.0
 31
0.0
  0
LINE
  5
4C2E
330
4C10
100
AcDbEntity
  8
AM_0 外形線1
100
AcDbLine
 10
-8.0
 20
281.5
 30
0.0
 11
-14.0
 21
281.5
 31
0.0
  0
LINE
  5
4C2F
330
4C10
100
AcDbEntity
  8
AM_0 外形線1
100
AcDbLine
 10
-8.0
 20
295.0
 30
0.0
 11
-8.0
 21
281.5
 31
0.0
  0
LINE
  5
4C30
330
4C10
100
AcDbEntity
  8
AM_0 外形線1
100
AcDbLine
 10
-28.0
 20
355.0
 30
0.0
 11
-2.0
 21
355.0
 31
0.0
  0
LINE
  5
4C31
330
4C10
100
AcDbEntity
  8
AM_0 外形線1
100
AcDbLine
 10
-30.0
 20
353.0
 30
0.0
 11
-28.0
 21
355.0
 31
0.0
  0
LINE
  5
4C32
330
4C10
100
AcDbEntity
  8
AM_0 外形線1
100
AcDbLine
 10
-2.0
 20
355.0
 30
0.0
 11
0.0
 21
353.0
 31
0.0
  0
LINE
  5
4C33
330
4C10
100
AcDbEntity
  8
AM_0 外形線1
100
AcDbLine
 10
-369.0
 20
-267.5
 30
0.0
 11
-369.0
 21
267.5
 31
0.0
  0
ARC
  5
4C34
330
4C10
100
AcDbEntity
  8
AM_0 外形線1
100
AcDbCircle
 10
-354.0
 20
267.5
 30
0.0
 40
15.0
100
AcDbArc
 50
90.0
 51
180.0
  0
ARC
  5
4C35
330
4C10
100
AcDbEntity
  8
AM_0 外形線1
100
AcDbCircle
 10
-354.0
 20
-267.5
 30
0.0
 40
15.0
100
AcDbArc
 50
180.0
 51
270.0
  0
LINE
  5
4C36
330
4C10
100
AcDbEntity
  8
AM_3 隠れ線
100
AcDbLine
 10
-369.0
 20
12.0
 30
0.0
 11
-327.0
 21
12.0
 31
0.0
  0
LINE
  5
4C37
330
4C10
100
AcDbEntity
  8
AM_3 隠れ線
100
AcDbLine
 10
-369.0
 20
10.5
 30
0.0
 11
-307.0
 21
10.5
 31
0.0
  0
LINE
  5
4C38
330
4C10
100
AcDbEntity
  8
AM_3 隠れ線
100
AcDbLine
 10
-327.0
 20
12.0
 30
0.0
 11
-326.1339739999994
 21
10.5
 31
0.0
  0
LINE
  5
4C39
330
4C10
100
AcDbEntity
  8
AM_3 隠れ線
100
AcDbLine
 10
-326.1339739999994
 20
10.5
 30
0.0
 11
-326.1339739999994
 21
0.0
 31
0.0
  0
LINE
  5
4C3A
330
4C10
100
AcDbEntity
  8
AM_3 隠れ線
100
AcDbLine
 10
-327.0
 20
12.0
 30
0.0
 11
-327.0
 21
0.0
 31
0.0
  0
LINE
  5
4C3B
330
4C10
100
AcDbEntity
  8
AM_3 隠れ線
100
AcDbLine
 10
-307.0
 20
0.0
 30
0.0
 11
-307.0
 21
10.5
 31
0.0
  0
LINE
  5
4C3C
330
4C10
100
AcDbEntity
  8
AM_3 隠れ線
100
AcDbLine
 10
-307.0
 20
10.5
 30
0.0
 11
-300.9378219999998
 21
0.0
 31
0.0
  0
LINE
  5
4C3D
330
4C10
100
AcDbEntity
  8
AM_0 外形線1
100
AcDbLine
 10
-14.0
 20
162.5
 30
0.0
 11
-369.0
 21
162.5
 31
0.0
  0
LINE
  5
4CA6
330
4C10
100
AcDbEntity
  8
AM_0 外形線1
100
AcDbLine
 10
0.0
 20
-353.0
 30
0.0
 11
0.0
 21
0.0
 31
0.0
  0
LINE
  5
4CA7
330
4C10
100
AcDbEntity
  8
AM_0 外形線1
100
AcDbLine
 10
0.0
 20
353.0
 30
0.0
 11
0.0
 21
345.5
 31
0.0
  0
LINE
  5
4CA8
330
4C10
100
AcDbEntity
  8
AM_0 外形線1
100
AcDbLine
 10
0.0
 20
345.5
 30
0.0
 11
-30.0
 21
345.5
 31
0.0
  0
LINE
  5
4CA9
330
4C10
100
AcDbEntity
  8
AM_0 外形線1
100
AcDbLine
 10
0.0
 20
319.5
 30
0.0
 11
-30.0
 21
319.5
 31
0.0
  0
ENDBLK
  5
4C12
330
4C10
100
AcDbEntity
  8
0
100
AcDbBlockEnd
  0
BLOCK
  5
4D08
330
4D07
100
AcDbEntity
  8
0
100
AcDbBlockBegin
  2
センタ-E CEMH710
 70
     0
 10
0.0
 20
0.0
 30
0.0
  3
センタ-E CEMH710
  1

  0
LINE
  5
4D0A
330
4D07
100
AcDbEntity
  8
AM_0 外形線1
100
AcDbLine
 10
261.0
 20
-253.5
 30
0.0
 11
261.0
 21
0.0
 31
0.0
  0
LINE
  5
4D0B
330
4D07
100
AcDbEntity
  8
AM_0 外形線1
100
AcDbLine
 10
256.0
 20
-255.0
 30
0.0
 11
256.0
 21
0.0
 31
0.0
  0
LINE
  5
4D0C
330
4D07
100
AcDbEntity
  8
AM_0 外形線1
100
AcDbLine
 10
355.0
 20
-238.5
 30
0.0
 11
355.0
 21
238.5
 31
0.0
  0
ARC
  5
4D0D
330
4D07
100
AcDbEntity
  8
AM_0 外形線1
100
AcDbCircle
 10
340.0
 20
-238.5
 30
0.0
 40
15.0
100
AcDbArc
 50
270.0
 51
0.0
  0
LINE
  5
4D0E
330
4D07
100
AcDbEntity
  8
AM_0 外形線1
100
AcDbLine
 10
261.0
 20
-253.5
 30
0.0
 11
340.0
 21
-253.5
 31
0.0
  0
LINE
  5
4D0F
330
4D07
100
AcDbEntity
  8
AM_0 外形線1
100
AcDbLine
 10
228.0
 20
-255.0
 30
0.0
 11
256.0
 21
-255.0
 31
0.0
  0
LINE
  5
4D10
330
4D07
100
AcDbEntity
  8
AM_0 外形線1
100
AcDbLine
 10
256.0
 20
-255.0
 30
0.0
 11
261.0
 21
-253.5
 31
0.0
  0
LINE
  5
4D11
330
4D07
100
AcDbEntity
  8
AM_0 外形線1
100
AcDbLine
 10
256.0
 20
255.0
 30
0.0
 11
196.0
 21
255.0
 31
0.0
  0
LINE
  5
4D12
330
4D07
100
AcDbEntity
  8
AM_0 外形線1
100
AcDbLine
 10
0.0
 20
253.0
 30
0.0
 11
0.0
 21
0.0
 31
0.0
  0
LINE
  5
4D13
330
4D07
100
AcDbEntity
  8
AM_3 隠れ線
100
AcDbLine
 10
0.0
 20
10.5
 30
0.0
 11
62.0
 21
10.5
 31
0.0
  0
LINE
  5
4D14
330
4D07
100
AcDbEntity
  8
AM_3 隠れ線
100
AcDbLine
 10
0.0
 20
12.0
 30
0.0
 11
42.0
 21
12.0
 31
0.0
  0
LINE
  5
4D15
330
4D07
100
AcDbEntity
  8
AM_3 隠れ線
100
AcDbLine
 10
42.0
 20
12.0
 30
0.0
 11
42.8660260000006
 21
10.5
 31
0.0
  0
LINE
  5
4D16
330
4D07
100
AcDbEntity
  8
AM_3 隠れ線
100
AcDbLine
 10
42.8660260000006
 20
10.5
 30
0.0
 11
42.8660260000006
 21
0.0
 31
0.0
  0
LINE
  5
4D17
330
4D07
100
AcDbEntity
  8
AM_3 隠れ線
100
AcDbLine
 10
42.0
 20
12.0
 30
0.0
 11
42.0
 21
0.0
 31
0.0
  0
LINE
  5
4D18
330
4D07
100
AcDbEntity
  8
AM_3 隠れ線
100
AcDbLine
 10
62.0
 20
0.0
 30
0.0
 11
62.0
 21
10.5
 31
0.0
  0
LINE
  5
4D19
330
4D07
100
AcDbEntity
  8
AM_3 隠れ線
100
AcDbLine
 10
62.0
 20
10.5
 30
0.0
 11
68.06217800000013
 21
0.0
 31
0.0
  0
LINE
  5
4D1A
330
4D07
100
AcDbEntity
  8
AM_0 外形線1
100
AcDbLine
 10
94.0
 20
255.0
 30
0.0
 11
2.0
 21
255.0
 31
0.0
  0
LINE
  5
4D1B
330
4D07
100
AcDbEntity
  8
AM_0 外形線1
100
AcDbLine
 10
2.0
 20
255.0
 30
0.0
 11
0.0
 21
253.0
 31
0.0
  0
ARC
  5
4D1D
330
4D07
100
AcDbEntity
  8
AM_0 外形線1
100
AcDbCircle
 10
145.0
 20
0.0
 30
0.0
 40
279.65
100
AcDbArc
 50
79.80452699997055
 51
100.1954729999735
  0
LINE
  5
4D1F
330
4D07
100
AcDbEntity
  8
AM_0 外形線1
100
AcDbLine
 10
95.5
 20
275.234214
 30
0.0
 11
94.50000000000001
 21
274.0524909999999
 31
0.0
  0
ARC
  5
4D20
330
4D07
100
AcDbEntity
  8
AM_0 外形線1
100
AcDbCircle
 10
94.0
 20
255.5
 30
0.0
 40
0.5
100
AcDbArc
 50
270.0
 51
0.0
  0
LINE
  5
4D21
330
4D07
100
AcDbEntity
  8
AM_0 外形線1
100
AcDbLine
 10
94.50000000000001
 20
274.0524909999999
 30
0.0
 11
94.50000000000001
 21
255.5
 31
0.0
  0
LINE
  5
4D22
330
4D07
100
AcDbEntity
  8
AM_0 外形線1
100
AcDbLine
 10
195.5
 20
274.0524909999999
 30
0.0
 11
194.5
 21
275.234214
 31
0.0
  0
LINE
  5
4D23
330
4D07
100
AcDbEntity
  8
AM_7 中心線
  6
CENTER
100
AcDbLine
 10
145.0
 20
284.6499999999996
 30
0.0
 11
145.0
 21
259.0
 31
0.0
  0
ARC
  5
4D24
330
4D07
100
AcDbEntity
  8
AM_0 外形線1
100
AcDbCircle
 10
196.0
 20
255.5
 30
0.0
 40
0.5
100
AcDbArc
 50
180.0
 51
270.0
  0
LINE
  5
4D25
330
4D07
100
AcDbEntity
  8
AM_0 外形線1
100
AcDbLine
 10
195.5
 20
255.5
 30
0.0
 11
195.5
 21
274.0524909999999
 31
0.0
  0
LINE
  5
4D26
330
4D07
100
AcDbEntity
  8
AM_3 隠れ線
100
AcDbLine
 10
355.0
 20
10.5
 30
0.0
 11
293.0
 21
10.5
 31
0.0
  0
LINE
  5
4D27
330
4D07
100
AcDbEntity
  8
AM_3 隠れ線
100
AcDbLine
 10
293.0
 20
0.0
 30
0.0
 11
293.0
 21
10.5
 31
0.0
  0
LINE
  5
4D28
330
4D07
100
AcDbEntity
  8
AM_3 隠れ線
100
AcDbLine
 10
293.0
 20
10.5
 30
0.0
 11
286.9378230000002
 21
0.0
 31
0.0
  0
LINE
  5
4D29
330
4D07
100
AcDbEntity
  8
AM_3 隠れ線
100
AcDbLine
 10
355.0
 20
12.0
 30
0.0
 11
313.0
 21
12.0
 31
0.0
  0
LINE
  5
4D2A
330
4D07
100
AcDbEntity
  8
AM_3 隠れ線
100
AcDbLine
 10
313.0
 20
12.0
 30
0.0
 11
312.1339750000006
 21
10.5
 31
0.0
  0
LINE
  5
4D2B
330
4D07
100
AcDbEntity
  8
AM_3 隠れ線
100
AcDbLine
 10
313.0
 20
12.0
 30
0.0
 11
313.0
 21
0.0
 31
0.0
  0
LINE
  5
4D2C
330
4D07
100
AcDbEntity
  8
AM_3 隠れ線
100
AcDbLine
 10
312.1339750000006
 20
10.5
 30
0.0
 11
312.1339750000006
 21
0.0
 31
0.0
  0
LINE
  5
4D2D
330
4D07
100
AcDbEntity
  8
AM_0 外形線1
100
AcDbLine
 10
340.0
 20
253.5
 30
0.0
 11
261.0
 21
253.5
 31
0.0
  0
LINE
  5
4D2E
330
4D07
100
AcDbEntity
  8
AM_0 外形線1
100
AcDbLine
 10
261.0
 20
253.5
 30
0.0
 11
256.0
 21
255.0
 31
0.0
  0
ARC
  5
4D2F
330
4D07
100
AcDbEntity
  8
AM_0 外形線1
100
AcDbCircle
 10
340.0
 20
238.5
 30
0.0
 40
15.0
100
AcDbArc
 50
0.0
 51
90.0
  0
LINE
  5
4D31
330
4D07
100
AcDbEntity
  8
AM_0 外形線1
100
AcDbLine
 10
0.0
 20
152.5
 30
0.0
 11
354.9999999999995
 21
152.5
 31
0.0
  0
ARC
  5
7B9A
330
4D07
100
AcDbEntity
  8
AM_7 中心線
100
AcDbCircle
 10
145.0
 20
0.0
 30
0.0
 40
271.8249999999998
100
AcDbArc
 50
78.40740309207991
 51
101.5086611493459
  0
ARC
  5
7B9B
330
4D07
100
AcDbEntity
  8
AM_0 外形線1
100
AcDbCircle
 10
145.0
 20
0.0
 30
0.0
 40
264.0
100
AcDbArc
 50
78.97204712647668
 51
101.0279528735233
  0
ENDBLK
  5
4D09
330
4D07
100
AcDbEntity
  8
0
100
AcDbBlockEnd
  0
BLOCK
  5
4F8F
330
4F8E
100
AcDbEntity
  8
0
100
AcDbBlockBegin
  2
リーマボルト-E CEMH710 M24
 70
     0
 10
0.0
 20
0.0
 30
0.0
  3
リーマボルト-E CEMH710 M24
  1

  0
LINE
  5
4F91
330
4F8E
100
AcDbEntity
  8
AM_0 外形線1
100
AcDbLine
 10
-60.0
 20
3.933333999999831
 30
0.0
 11
-65.89999999999964
 21
-1.966666000000259
 31
0.0
  0
LINE
  5
4F92
330
4F8E
100
AcDbEntity
  8
AM_0 外形線1
100
AcDbLine
 10
15.0
 20
18.0
 30
0.0
 11
15.0
 21
-18.0
 31
0.0
  0
ARC
  5
4F93
330
4F8E
100
AcDbEntity
  8
AM_0 外形線1
100
AcDbCircle
 10
-19.21212699999978
 20
0.0
 30
0.0
 40
34.212127
100
AcDbArc
 50
342.3163709999824
 51
17.68362900001755
  0
LINE
  5
4F94
330
4F8E
100
AcDbEntity
  8
AM_0 外形線1
100
AcDbLine
 10
-59.0
 20
11.84529999999995
 30
0.0
 11
-59.0
 21
-11.84529900000052
 31
0.0
  0
LINE
  5
4F95
330
4F8E
100
AcDbEntity
  8
AM_0 外形線1
100
AcDbLine
 10
-2.5
 20
-13.0
 30
0.0
 11
-2.5
 21
13.0
 31
0.0
  0
LINE
  5
4F96
330
4F8E
100
AcDbEntity
  8
AM_0 外形線1
100
AcDbLine
 10
-57.0
 20
13.0
 30
0.0
 11
-57.0
 21
-13.0
 31
0.0
  0
LINE
  5
4F97
330
4F8E
100
AcDbEntity
  8
AM_0 外形線1
100
AcDbLine
 10
-65.89999999999964
 20
-20.80000000000018
 30
0.0
 11
-65.89999999999964
 21
20.80000000000018
 31
0.0
  0
LINE
  5
4F98
330
4F8E
100
AcDbEntity
  8
AM_0 外形線1
100
AcDbLine
 10
-84.89999999999964
 20
18.0
 30
0.0
 11
-84.89999999999964
 21
-18.0
 31
0.0
  0
LINE
  5
4F99
330
4F8E
100
AcDbEntity
  8
AM_0 外形線1
100
AcDbLine
 10
-93.0
 20
10.0
 30
0.0
 11
-93.0
 21
-10.0
 31
0.0
  0
LINE
  5
4F9A
330
4F8E
100
AcDbEntity
  8
AM_0 外形線1
100
AcDbLine
 10
-91.0
 20
12.0
 30
0.0
 11
-91.0
 21
-12.0
 31
0.0
  0
ARC
  5
4F9B
330
4F8E
100
AcDbEntity
  8
AM_0 外形線1
100
AcDbCircle
 10
-50.68787199999952
 20
0.0
 30
0.0
 40
34.212127
100
AcDbArc
 50
162.3163709999824
 51
197.6836290000175
  0
LINE
  5
4F9C
330
4F8E
100
AcDbEntity
  8
AM_0 外形線1
100
AcDbLine
 10
-93.0
 20
-10.0
 30
0.0
 11
-91.0
 21
-12.0
 31
0.0
  0
LINE
  5
4F9D
330
4F8E
100
AcDbEntity
  8
AM_0 外形線1
100
AcDbLine
 10
-59.0
 20
-11.84529900000052
 30
0.0
 11
-57.0
 21
-13.0
 31
0.0
  0
LINE
  5
4F9E
330
4F8E
100
AcDbEntity
  8
AM_0 外形線1
100
AcDbLine
 10
-60.0
 20
-17.0
 30
0.0
 11
-65.89999999999964
 21
-17.0
 31
0.0
  0
LINE
  5
4F9F
330
4F8E
100
AcDbEntity
  8
AM_0 外形線1
100
AcDbLine
 10
-83.28341899999941
 20
-20.80000000000018
 30
0.0
 11
-65.89999999999964
 21
-20.80000000000018
 31
0.0
  0
LINE
  5
4FA0
330
4F8E
100
AcDbEntity
  8
AM_0 外形線1
100
AcDbLine
 10
-65.89999999999964
 20
-10.3923050000003
 30
0.0
 11
-83.28341899999941
 21
-10.3923050000003
 31
0.0
  0
LINE
  5
4FA1
330
4F8E
100
AcDbEntity
  8
AM_0 外形線1
100
AcDbLine
 10
-59.0
 20
-11.84529900000052
 30
0.0
 11
-60.0
 21
-11.84529900000052
 31
0.0
  0
LINE
  5
4FA2
330
4F8E
100
AcDbEntity
  8
AM_0 外形線1
100
AcDbLine
 10
-91.0
 20
-12.0
 30
0.0
 11
-84.89999999999964
 21
-12.0
 31
0.0
  0
LINE
  5
4FA3
330
4F8E
100
AcDbEntity
  8
AM_4 細線
100
AcDbLine
 10
-92.0
 20
-11.0
 30
0.0
 11
-84.89999999999964
 21
-11.0
 31
0.0
  0
LINE
  5
4FA4
330
4F8E
100
AcDbEntity
  8
AM_0 外形線1
100
AcDbLine
 10
-84.89999999999964
 20
-18.0
 30
0.0
 11
-83.28341899999941
 21
-20.80000000000018
 31
0.0
  0
ARC
  5
4FA5
330
4F8E
100
AcDbEntity
  8
AM_0 外形線1
100
AcDbCircle
 10
-75.71599699999933
 20
-15.59615200000007
 30
0.0
 40
9.184001999999999
100
AcDbArc
 50
145.4850749999978
 51
214.5149250000021
  0
LINE
  5
4FA6
330
4F8E
100
AcDbEntity
  8
AM_0 外形線1
100
AcDbLine
 10
13.38342000000011
 20
-20.80000000000018
 30
0.0
 11
0.0
 21
-20.80000000000018
 31
0.0
  0
LINE
  5
4FA7
330
4F8E
100
AcDbEntity
  8
AM_0 外形線1
100
AcDbLine
 10
0.0
 20
-10.3923050000003
 30
0.0
 11
13.38342000000011
 21
-10.3923050000003
 31
0.0
  0
ARC
  5
4FA8
330
4F8E
100
AcDbEntity
  8
AM_0 外形線1
100
AcDbCircle
 10
-1.0
 20
-13.0
 30
0.0
 40
1.0
100
AcDbArc
 50
0.0
 51
90.0
  0
LINE
  5
4FA9
330
4F8E
100
AcDbEntity
  8
AM_0 外形線1
100
AcDbLine
 10
-1.0
 20
-12.0
 30
0.0
 11
-1.5
 21
-12.0
 31
0.0
  0
ARC
  5
4FAA
330
4F8E
100
AcDbEntity
  8
AM_0 外形線1
100
AcDbCircle
 10
-1.5
 20
-13.0
 30
0.0
 40
1.0
100
AcDbArc
 50
90.0
 51
180.0
  0
LINE
  5
4FAB
330
4F8E
100
AcDbEntity
  8
AM_0 外形線1
100
AcDbLine
 10
15.0
 20
-18.0
 30
0.0
 11
13.38342000000011
 21
-20.80000000000018
 31
0.0
  0
ARC
  5
4FAC
330
4F8E
100
AcDbEntity
  8
AM_0 外形線1
100
AcDbCircle
 10
5.815998000000034
 20
-15.59615200000007
 30
0.0
 40
9.184001999999999
100
AcDbArc
 50
325.4850749999978
 51
34.51492500000219
  0
LINE
  5
4FAD
330
4F8E
100
AcDbEntity
  8
AM_0 外形線1
100
AcDbLine
 10
-91.0
 20
12.0
 30
0.0
 11
-93.0
 21
10.0
 31
0.0
  0
LINE
  5
4FAE
330
4F8E
100
AcDbEntity
  8
AM_0 外形線1
100
AcDbLine
 10
-57.0
 20
13.0
 30
0.0
 11
-59.0
 21
11.84529999999995
 31
0.0
  0
LINE
  5
4FAF
330
4F8E
100
AcDbEntity
  8
AM_0 外形線1
100
AcDbLine
 10
-65.89999999999964
 20
17.0
 30
0.0
 11
-60.0
 21
17.0
 31
0.0
  0
LINE
  5
4FB0
330
4F8E
100
AcDbEntity
  8
AM_0 外形線1
100
AcDbLine
 10
-65.89999999999964
 20
20.80000000000018
 30
0.0
 11
-83.28341899999941
 21
20.80000000000018
 31
0.0
  0
LINE
  5
4FB1
330
4F8E
100
AcDbEntity
  8
AM_0 外形線1
100
AcDbLine
 10
-65.89999999999964
 20
10.3923050000003
 30
0.0
 11
-83.28341899999941
 21
10.3923050000003
 31
0.0
  0
LINE
  5
4FB2
330
4F8E
100
AcDbEntity
  8
AM_0 外形線1
100
AcDbLine
 10
-59.0
 20
11.84529999999995
 30
0.0
 11
-60.0
 21
11.84529999999995
 31
0.0
  0
LINE
  5
4FB3
330
4F8E
100
AcDbEntity
  8
AM_0 外形線1
100
AcDbLine
 10
-84.89999999999964
 20
12.0
 30
0.0
 11
-91.0
 21
12.0
 31
0.0
  0
LINE
  5
4FB4
330
4F8E
100
AcDbEntity
  8
AM_4 細線
100
AcDbLine
 10
-92.0
 20
11.0
 30
0.0
 11
-84.89999999999964
 21
11.0
 31
0.0
  0
LINE
  5
4FB5
330
4F8E
100
AcDbEntity
  8
AM_0 外形線1
100
AcDbLine
 10
-83.28341899999941
 20
20.80000000000018
 30
0.0
 11
-84.89999999999964
 21
18.0
 31
0.0
  0
ARC
  5
4FB6
330
4F8E
100
AcDbEntity
  8
AM_0 外形線1
100
AcDbCircle
 10
-75.71599699999933
 20
15.59615299999996
 30
0.0
 40
9.184001999999999
100
AcDbArc
 50
145.4850749999978
 51
214.5149250000021
  0
LINE
  5
4FB7
330
4F8E
100
AcDbEntity
  8
AM_0 外形線1
100
AcDbLine
 10
0.0
 20
20.80000000000018
 30
0.0
 11
13.38342000000011
 21
20.80000000000018
 31
0.0
  0
LINE
  5
4FB8
330
4F8E
100
AcDbEntity
  8
AM_0 外形線1
100
AcDbLine
 10
0.0
 20
10.3923050000003
 30
0.0
 11
13.38342000000011
 21
10.3923050000003
 31
0.0
  0
ARC
  5
4FB9
330
4F8E
100
AcDbEntity
  8
AM_0 外形線1
100
AcDbCircle
 10
-1.0
 20
13.0
 30
0.0
 40
1.0
100
AcDbArc
 50
270.0
 51
0.0
  0
LINE
  5
4FBA
330
4F8E
100
AcDbEntity
  8
AM_0 外形線1
100
AcDbLine
 10
-1.0
 20
12.0
 30
0.0
 11
-1.5
 21
12.0
 31
0.0
  0
ARC
  5
4FBB
330
4F8E
100
AcDbEntity
  8
AM_0 外形線1
100
AcDbCircle
 10
-1.5
 20
13.0
 30
0.0
 40
1.0
100
AcDbArc
 50
180.0
 51
270.0
  0
LINE
  5
4FBC
330
4F8E
100
AcDbEntity
  8
AM_0 外形線1
100
AcDbLine
 10
13.38342000000011
 20
20.80000000000018
 30
0.0
 11
15.0
 21
18.0
 31
0.0
  0
ARC
  5
4FBD
330
4F8E
100
AcDbEntity
  8
AM_0 外形線1
100
AcDbCircle
 10
5.815998000000034
 20
15.59615299999996
 30
0.0
 40
9.184001999999999
100
AcDbArc
 50
325.4850749999978
 51
34.51492500000219
  0
LINE
  5
5021
330
4F8E
100
AcDbEntity
  8
AM_0 外形線1
100
AcDbLine
 10
-60.0
 20
17.0
 30
0.0
 11
-60.0
 21
-17.0
 31
0.0
  0
LINE
  5
5022
330
4F8E
100
AcDbEntity
  8
AM_0 外形線1
100
AcDbLine
 10
-57.0
 20
13.0
 30
0.0
 11
-2.5
 21
13.0
 31
0.0
  0
LINE
  5
5023
330
4F8E
100
AcDbEntity
  8
AM_0 外形線1
100
AcDbLine
 10
-57.0
 20
-13.0
 30
0.0
 11
-2.5
 21
-13.0
 31
0.0
  0
LINE
  5
5024
330
4F8E
100
AcDbEntity
  8
AM_0 外形線1
100
AcDbLine
 10
0.0
 20
20.80000000000018
 30
0.0
 11
0.0
 21
-20.80000000000018
 31
0.0
  0
LINE
  5
65EE
330
4F8E
100
AcDbEntity
  8
AM_0 外形線1
100
AcDbLine
 10
-65.89999999999964
 20
-3.933332999999946
 30
0.0
 11
-60.0
 21
1.966666999999688
 31
0.0
  0
ENDBLK
  5
4F90
330
4F8E
100
AcDbEntity
  8
0
100
AcDbBlockEnd
  0
BLOCK
  5
50BB
330
50BA
100
AcDbEntity
  8
0
100
AcDbBlockBegin
  2
ＧＣサイドカバ－-E CEMH710
 70
     0
 10
0.0
 20
0.0
 30
0.0
  3
ＧＣサイドカバ－-E CEMH710
  1

  0
LINE
  5
50BD
330
50BA
100
AcDbEntity
  8
AM_0 外形線1
100
AcDbLine
 10
21.10000000000036
 20
-302.0
 30
0.0
 11
21.10000000000036
 21
0.0
 31
0.0
  0
LINE
  5
50BF
330
50BA
100
AcDbEntity
  8
AM_0 外形線1
100
AcDbLine
 10
21.10000000000036
 20
-302.0
 30
0.0
 11
21.10000000000036
 21
-311.0
 31
0.0
  0
LINE
  5
50C0
330
50BA
100
AcDbEntity
  8
AM_0 外形線1
100
AcDbLine
 10
21.10000000000036
 20
-311.0
 30
0.0
 11
0.0
 21
-311.0
 31
0.0
  0
LINE
  5
50C1
330
50BA
100
AcDbEntity
  8
AM_0 外形線1
100
AcDbLine
 10
0.0
 20
290.5
 30
0.0
 11
21.10000000000036
 21
290.5
 31
0.0
  0
LINE
  5
50C2
330
50BA
100
AcDbEntity
  8
AM_0 外形線1
100
AcDbLine
 10
21.10000000000036
 20
304.5
 30
0.0
 11
0.0
 21
304.5
 31
0.0
  0
LINE
  5
50C3
330
50BA
100
AcDbEntity
  8
AM_0 外形線1
100
AcDbLine
 10
21.10000000000036
 20
311.0
 30
0.0
 11
0.0
 21
311.0
 31
0.0
  0
LINE
  5
50C4
330
50BA
100
AcDbEntity
  8
AM_0 外形線1
100
AcDbLine
 10
16.10000000000036
 20
263.1999999999998
 30
0.0
 11
2.100000000000362
 21
263.1999999999998
 31
0.0
  0
LWPOLYLINE
  5
50C5
330
50BA
100
AcDbEntity
  8
AM_0 外形線1
100
AcDbPolyline
 90
       73
 70
     0
 43
0.0
 10
2.100000000000362
 20
259.0999999999999
 10
2.126638000000639
 20
258.7426619999996
 10
2.206346000000849
 20
258.3880429999999
 10
2.338520000001153
 20
258.0388419999999
 10
2.522152000000459
 20
257.697718
 10
2.755846000000019
 20
257.3672649999998
 10
3.037823000000571
 20
257.0500000000002
 10
3.365936000000147
 20
256.748337
 10
3.7376890000005
 20
256.4645709999995
 10
4.150253000000701
 20
256.2008619999997
 10
4.600487000000612
 20
255.959218
 10
5.084965000000011
 20
255.7414769999996
 10
5.600000000000363
 20
255.5492960000001
 10
6.141673000000082
 20
255.3841379999999
 10
6.705859000000599
 20
255.2472600000001
 10
7.288267000000812
 20
255.1397040000002
 10
7.884463000000321
 20
255.0622880000001
 10
8.489910000000236
 20
255.0156019999999
 10
9.100000000000363
 20
255.0
 10
9.710091000000828
 20
255.0156019999999
 10
10.31553800000074
 20
255.0622880000001
 10
10.91173400000116
 20
255.1397040000002
 10
11.49414100000103
 20
255.2472600000001
 10
12.05832800000098
 20
255.3841379999999
 10
12.60000000000036
 20
255.5492960000001
 10
13.11503500000071
 20
255.7414769999996
 10
13.59951400000045
 20
255.959218
 10
14.04974800000036
 20
256.2008619999997
 10
14.46231200000056
 20
256.4645709999995
 10
14.83406500000092
 20
256.748337
 10
15.16217800000049
 20
257.0500000000002
 10
15.44415500000105
 20
257.3672649999998
 10
15.6778490000006
 20
257.697718
 10
15.86148100000082
 20
258.0388419999999
 10
15.99365500000021
 20
258.3880429999999
 10
16.07336300000042
 20
258.7426619999996
 10
16.10000000000036
 20
259.0999999999999
 10
16.07336300000042
 20
259.4573389999996
 10
15.99365500000021
 20
259.8119580000002
 10
15.86148100000082
 20
260.161158
 10
15.6778490000006
 20
260.5022829999998
 10
15.44415500000105
 20
260.832735
 10
15.16217800000049
 20
261.1499999999996
 10
14.83406500000092
 20
261.4516639999997
 10
14.46231200000056
 20
261.7354289999998
 10
14.04974800000036
 20
261.9991380000001
 10
13.59951400000045
 20
262.2407819999998
 10
13.11503500000071
 20
262.4585239999997
 10
12.60000000000036
 20
262.6507039999997
 10
12.05832800000098
 20
262.8158619999999
 10
11.49414100000103
 20
262.9527399999997
 10
10.91173400000116
 20
263.0602959999996
 10
10.31553800000074
 20
263.1377119999998
 10
9.710091000000828
 20
263.1843979999999
 10
9.100000000000363
 20
263.1999999999998
 10
8.489910000000236
 20
263.1843979999999
 10
7.884463000000321
 20
263.1377119999998
 10
7.288267000000812
 20
263.0602959999996
 10
6.705859000000599
 20
262.9527399999997
 10
6.141673000000082
 20
262.8158619999999
 10
5.600000000000363
 20
262.6507039999997
 10
5.084965000000011
 20
262.4585239999997
 10
4.600487000000612
 20
262.2407819999998
 10
4.150253000000701
 20
261.9991380000001
 10
3.7376890000005
 20
261.7354289999998
 10
3.365936000000147
 20
261.4516639999997
 10
3.037823000000571
 20
261.1499999999996
 10
2.755846000000019
 20
260.832735
 10
2.522152000000459
 20
260.5022829999998
 10
2.338520000001153
 20
260.161158
 10
2.206346000000849
 20
259.8119580000002
 10
2.126638000000639
 20
259.4573389999996
 10
2.100000000000362
 20
259.0999999999999
  0
LINE
  5
50C6
330
50BA
100
AcDbEntity
  8
AM_0 外形線1
100
AcDbLine
 10
21.10000000000036
 20
291.5
 30
0.0
 11
-19.0
 21
291.5
 31
0.0
  0
LINE
  5
50C7
330
50BA
100
AcDbEntity
  8
AM_0 外形線1
100
AcDbLine
 10
-19.0
 20
303.5
 30
0.0
 11
21.10000000000036
 21
303.5
 31
0.0
  0
LINE
  5
50C8
330
50BA
100
AcDbEntity
  8
AM_7 中心線
100
AcDbLine
 10
34.42978800000037
 20
297.5
 30
0.0
 11
-36.2652479999997
 21
297.5
 31
0.0
  0
LINE
  5
50C9
330
50BA
100
AcDbEntity
  8
AM_4 細線
100
AcDbLine
 10
21.10000000000036
 20
302.6499999999996
 30
0.0
 11
-19.0
 21
302.6499999999996
 31
0.0
  0
LINE
  5
50CA
330
50BA
100
AcDbEntity
  8
AM_4 細線
100
AcDbLine
 10
21.10000000000036
 20
292.3499999999999
 30
0.0
 11
-19.0
 21
292.3499999999999
 31
0.0
  0
LINE
  5
50CC
330
50BA
100
AcDbEntity
  8
AM_0 外形線1
100
AcDbLine
 10
-2.899999999999636
 20
257.0
 30
0.0
 11
-2.899999999999636
 21
281.5
 31
0.0
  0
LINE
  5
50CD
330
50BA
100
AcDbEntity
  8
AM_0 外形線1
100
AcDbLine
 10
2.100000000000362
 20
257.0
 30
0.0
 11
2.100000000000362
 21
255.0
 31
0.0
  0
LINE
  5
50CE
330
50BA
100
AcDbEntity
  8
AM_0 外形線1
100
AcDbLine
 10
-2.899999999999636
 20
257.0
 30
0.0
 11
-2.899999999999636
 21
255.0
 31
0.0
  0
LINE
  5
50CF
330
50BA
100
AcDbEntity
  8
AM_0 外形線1
100
AcDbLine
 10
2.100000000000362
 20
263.1999999999998
 30
0.0
 11
2.100000000000362
 21
257.0
 31
0.0
  0
LINE
  5
50D0
330
50BA
100
AcDbEntity
  8
AM_0 外形線1
100
AcDbLine
 10
2.100000000000362
 20
257.0
 30
0.0
 11
-2.899999999999636
 21
257.0
 31
0.0
  0
LINE
  5
50D1
330
50BA
100
AcDbEntity
  8
AM_0 外形線1
100
AcDbLine
 10
0.0
 20
286.8000000000002
 30
0.0
 11
3.100000000000362
 21
286.8000000000002
 31
0.0
  0
LINE
  5
50D2
330
50BA
100
AcDbEntity
  8
AM_0 外形線1
100
AcDbLine
 10
3.100000000000362
 20
286.8000000000002
 30
0.0
 11
3.100000000000362
 21
281.5
 31
0.0
  0
LWPOLYLINE
  5
50D3
330
50BA
100
AcDbEntity
  8
AM_0 外形線1
100
AcDbPolyline
 90
       73
 70
     0
 43
0.0
 10
1.550000000000181
 20
281.5
 10
1.685092000000621
 20
281.510084
 10
1.819155000001045
 20
281.5402599999998
 10
1.951170000000274
 20
281.5902969999998
 10
2.080132000000958
 20
281.659815
 10
2.2050590000008
 20
281.7482849999997
 10
2.325000000000727
 20
281.8550329999998
 10
2.439044000000648
 20
281.9792469999998
 10
2.546321000000715
 20
282.1199820000002
 10
2.646016000000598
 20
282.276167
 10
2.737369000000398
 20
282.4466130000001
 10
2.819686000000728
 20
282.6300229999997
 10
2.89234000000033
 20
282.8249999999998
 10
2.954778000001168
 20
283.0300619999998
 10
3.006524000000353
 20
283.2436469999998
 10
3.047185000000353
 20
283.4641299999999
 10
3.076452000001153
 20
283.6898329999999
 10
3.09410200000093
 20
283.9190369999997
 10
3.100000000000362
 20
284.1499999999996
 10
3.09410200000093
 20
284.3809629999996
 10
3.076452000001153
 20
284.6101680000002
 10
3.047185000000353
 20
284.8358709999997
 10
3.006524000000353
 20
285.0563539999998
 10
2.954778000001168
 20
285.2699389999998
 10
2.89234000000033
 20
285.4749999999999
 10
2.819686000000728
 20
285.6699779999999
 10
2.737369000000398
 20
285.8533870000001
 10
2.646016000000598
 20
286.0238330000002
 10
2.546321000000715
 20
286.180018
 10
2.439044000000648
 20
286.320753
 10
2.325000000000727
 20
286.4449679999998
 10
2.2050590000008
 20
286.5517159999999
 10
2.080132000000958
 20
286.6401859999996
 10
1.951170000000274
 20
286.7097039999999
 10
1.819155000001045
 20
286.7597409999998
 10
1.685092000000621
 20
286.7899159999997
 10
1.550000000000181
 20
286.8000000000002
 10
1.414909000000989
 20
286.7899159999997
 10
1.280846000000564
 20
286.7597409999998
 10
1.148831000000427
 20
286.7097039999999
 10
1.019869000000652
 20
286.6401859999996
 10
0.8949420000008101
 20
286.5517159999999
 10
0.7750000000005457
 20
286.4449679999998
 10
0.6609570000000531
 20
286.320753
 10
0.5536800000008954
 20
286.180018
 10
0.4539850000001026
 20
286.0238330000002
 10
0.3626320000003034
 20
285.8533870000001
 10
0.2803149999999732
 20
285.6699779999999
 10
0.2076610000003711
 20
285.4749999999999
 10
0.145223000000442
 20
285.2699389999998
 10
0.0934770000003482
 20
285.0563539999998
 10
0.0528150000009191
 20
284.8358709999997
 10
0.0235480000010284
 20
284.6101680000002
 10
0.0058990000006816
 20
284.3809629999996
 10
0.0
 20
284.1499999999996
 10
0.0058990000006816
 20
283.9190369999997
 10
0.0235480000010284
 20
283.6898329999999
 10
0.0528150000009191
 20
283.4641299999999
 10
0.0934770000003482
 20
283.2436469999998
 10
0.145223000000442
 20
283.0300619999998
 10
0.2076610000003711
 20
282.8249999999998
 10
0.2803149999999732
 20
282.6300229999997
 10
0.3626320000003034
 20
282.4466130000001
 10
0.4539850000001026
 20
282.276167
 10
0.5536800000008954
 20
282.1199820000002
 10
0.6609570000000531
 20
281.9792469999998
 10
0.7750000000005457
 20
281.8550329999998
 10
0.8949420000008101
 20
281.7482849999997
 10
1.019869000000652
 20
281.659815
 10
1.148831000000427
 20
281.5902969999998
 10
1.280846000000564
 20
281.5402599999998
 10
1.414909000000989
 20
281.510084
 10
1.550000000000181
 20
281.5
  0
LINE
  5
50D4
330
50BA
100
AcDbEntity
  8
AM_0 外形線1
100
AcDbLine
 10
-19.0
 20
291.5
 30
0.0
 11
-19.0
 21
303.5
 31
0.0
  0
LINE
  5
50D5
330
50BA
100
AcDbEntity
  8
AM_0 外形線1
100
AcDbLine
 10
-24.0
 20
303.5
 30
0.0
 11
-24.0
 21
291.5
 31
0.0
  0
LINE
  5
50D6
330
50BA
100
AcDbEntity
  8
AM_0 外形線1
100
AcDbLine
 10
-32.97335299999941
 20
297.5
 30
0.0
 11
-30.0
 21
292.3499999999999
 31
0.0
  0
LINE
  5
50D7
330
50BA
100
AcDbEntity
  8
AM_0 外形線1
100
AcDbLine
 10
-30.0
 20
292.3499999999999
 30
0.0
 11
-19.0
 21
292.3499999999999
 31
0.0
  0
LINE
  5
50D8
330
50BA
100
AcDbEntity
  8
AM_0 外形線1
100
AcDbLine
 10
-30.0
 20
302.6499999999996
 30
0.0
 11
-30.0
 21
292.3499999999999
 31
0.0
  0
LINE
  5
50D9
330
50BA
100
AcDbEntity
  8
AM_0 外形線1
100
AcDbLine
 10
-19.0
 20
302.6499999999996
 30
0.0
 11
-30.0
 21
302.6499999999996
 31
0.0
  0
LINE
  5
50DA
330
50BA
100
AcDbEntity
  8
AM_0 外形線1
100
AcDbLine
 10
-30.0
 20
302.6499999999996
 30
0.0
 11
-32.97335299999941
 21
297.5
 31
0.0
  0
LINE
  5
50DB
330
50BA
100
AcDbEntity
  8
AM_4 細線
100
AcDbLine
 10
-19.0
 20
303.5
 30
0.0
 11
-24.0
 21
303.5
 31
0.0
  0
LINE
  5
50DC
330
50BA
100
AcDbEntity
  8
AM_4 細線
100
AcDbLine
 10
-24.0
 20
291.5
 30
0.0
 11
-19.0
 21
291.5
 31
0.0
  0
LINE
  5
50DD
330
50BA
100
AcDbEntity
  8
AM_0 外形線1
100
AcDbLine
 10
21.10000000000036
 20
302.0
 30
0.0
 11
21.10000000000036
 21
257.0
 31
0.0
  0
LINE
  5
50DE
330
50BA
100
AcDbEntity
  8
AM_0 外形線1
100
AcDbLine
 10
21.10000000000036
 20
257.0
 30
0.0
 11
21.10000000000036
 21
255.0
 31
0.0
  0
LINE
  5
50DF
330
50BA
100
AcDbEntity
  8
AM_0 外形線1
100
AcDbLine
 10
16.10000000000036
 20
257.0
 30
0.0
 11
16.10000000000036
 21
255.0
 31
0.0
  0
LINE
  5
50E0
330
50BA
100
AcDbEntity
  8
AM_0 外形線1
100
AcDbLine
 10
16.10000000000036
 20
257.0
 30
0.0
 11
16.10000000000036
 21
263.1999999999998
 31
0.0
  0
LINE
  5
50E1
330
50BA
100
AcDbEntity
  8
AM_0 外形線1
100
AcDbLine
 10
21.10000000000036
 20
257.0
 30
0.0
 11
16.10000000000036
 21
257.0
 31
0.0
  0
LINE
  5
50E2
330
50BA
100
AcDbEntity
  8
AM_0 外形線1
100
AcDbLine
 10
24.10000000000037
 20
308.3000000000002
 30
0.0
 11
24.10000000000037
 21
286.6999999999998
 31
0.0
  0
LINE
  5
50E3
330
50BA
100
AcDbEntity
  8
AM_0 外形線1
100
AcDbLine
 10
24.10000000000037
 20
286.6999999999998
 30
0.0
 11
21.10000000000036
 21
286.6999999999998
 31
0.0
  0
ARC
  5
50E4
330
50BA
100
AcDbEntity
  8
AM_0 外形線1
100
AcDbCircle
 10
16.10000000000036
 20
297.5
 30
0.0
 40
16.0
100
AcDbArc
 50
340.027244000012
 51
19.97275599998791
  0
ARC
  5
50E5
330
50BA
100
AcDbEntity
  8
AM_0 外形線1
100
AcDbCircle
 10
27.75461100000029
 20
289.292414
 30
0.0
 40
4.354998
100
AcDbArc
 50
320.9707970000018
 51
39.0292029999982
  0
LINE
  5
50E6
330
50BA
100
AcDbEntity
  8
AM_0 外形線1
100
AcDbLine
 10
31.13768300000084
 20
286.5500000000002
 30
0.0
 11
24.10000000000037
 21
286.5500000000002
 31
0.0
  0
LINE
  5
50E7
330
50BA
100
AcDbEntity
  8
AM_0 外形線1
100
AcDbLine
 10
24.10000000000037
 20
286.5500000000002
 30
0.0
 11
24.10000000000037
 21
286.6999999999998
 31
0.0
  0
LINE
  5
50E8
330
50BA
100
AcDbEntity
  8
AM_0 外形線1
100
AcDbLine
 10
32.10000000000036
 20
305.996721
 30
0.0
 11
32.10000000000036
 21
289.0032799999999
 31
0.0
  0
LINE
  5
50E9
330
50BA
100
AcDbEntity
  8
AM_0 外形線1
100
AcDbLine
 10
31.13768300000084
 20
292.0348279999998
 30
0.0
 11
24.10000000000037
 21
292.0348279999998
 31
0.0
  0
LINE
  5
50EA
330
50BA
100
AcDbEntity
  8
AM_0 外形線1
100
AcDbLine
 10
21.10000000000036
 20
308.3000000000002
 30
0.0
 11
24.10000000000037
 21
308.3000000000002
 31
0.0
  0
LINE
  5
50EB
330
50BA
100
AcDbEntity
  8
AM_0 外形線1
100
AcDbLine
 10
24.10000000000037
 20
308.3000000000002
 30
0.0
 11
24.10000000000037
 21
308.4499999999998
 31
0.0
  0
LINE
  5
50EC
330
50BA
100
AcDbEntity
  8
AM_0 外形線1
100
AcDbLine
 10
24.10000000000037
 20
308.4499999999998
 30
0.0
 11
31.13768300000084
 21
308.4499999999998
 31
0.0
  0
ARC
  5
50ED
330
50BA
100
AcDbEntity
  8
AM_0 外形線1
100
AcDbCircle
 10
27.75461100000029
 20
305.7075859999995
 30
0.0
 40
4.354998
100
AcDbArc
 50
320.9707970000018
 51
39.0292029999982
  0
LINE
  5
50EE
330
50BA
100
AcDbEntity
  8
AM_0 外形線1
100
AcDbLine
 10
31.13768300000084
 20
302.9651730000001
 30
0.0
 11
24.10000000000037
 21
302.9651730000001
 31
0.0
  0
LINE
  5
50EF
330
50BA
100
AcDbEntity
  8
AM_0 外形線1
100
AcDbLine
 10
21.10000000000036
 20
302.0
 30
0.0
 11
21.10000000000036
 21
311.0
 31
0.0
  0
LINE
  5
50F0
330
50BA
100
AcDbEntity
  8
AM_0 外形線1
100
AcDbLine
 10
21.10000000000036
 20
296.5
 30
0.0
 11
24.10000000000037
 21
299.5
 31
0.0
  0
LINE
  5
50F1
330
50BA
100
AcDbEntity
  8
AM_0 外形線1
100
AcDbLine
 10
24.10000000000037
 20
298.5
 30
0.0
 11
21.10000000000036
 21
295.5
 31
0.0
  0
LINE
  5
50F2
330
50BA
100
AcDbEntity
  8
AM_0 外形線1
100
AcDbLine
 10
3.100000000000362
 20
281.5
 30
0.0
 11
-2.899999999999636
 21
281.5
 31
0.0
  0
LINE
  5
518C
330
50BA
100
AcDbEntity
  8
AM_0 外形線1
100
AcDbLine
 10
0.0
 20
-311.0
 30
0.0
 11
0.0
 21
0.0
 31
0.0
  0
LINE
  5
518D
330
50BA
100
AcDbEntity
  8
AM_0 外形線1
100
AcDbLine
 10
0.0
 20
303.5
 30
0.0
 11
0.0
 21
311.0
 31
0.0
  0
LINE
  5
518E
330
50BA
100
AcDbEntity
  8
AM_0 外形線1
100
AcDbLine
 10
0.0
 20
291.5
 30
0.0
 11
0.0
 21
286.8000000000002
 31
0.0
  0
LINE
  5
518F
330
50BA
100
AcDbEntity
  8
AM_7 中心線
100
AcDbLine
 10
29.11131953321819
 20
-297.5
 30
0.0
 11
-20.20650018323067
 21
-297.5
 31
0.0
  0
ENDBLK
  5
50BC
330
50BA
100
AcDbEntity
  8
0
100
AcDbBlockEnd
  0
BLOCK
  5
552F
330
552E
100
AcDbEntity
  8
0
100
AcDbBlockBegin
  2
*D13
 70
     1
 10
0.0
 20
0.0
 30
0.0
  3
*D13
  1

  0
LINE
  5
6191
330
552E
100
AcDbEntity
  8
AM_5 寸法線
 62
     3
100
AcDbLine
 10
1643.448247341641
 20
2468.932788862379
 30
0.0
 11
1468.448247341641
 21
2468.932788862379
 31
0.0
  0
LINE
  5
6192
330
552E
100
AcDbEntity
  8
AM_5 寸法線
 62
     3
100
AcDbLine
 10
1643.448247341641
 20
1903.932788862379
 30
0.0
 11
1468.448247341641
 21
1903.93278886238
 31
0.0
  0
LINE
  5
6193
330
552E
100
AcDbEntity
  8
AM_5 寸法線
 62
     3
100
AcDbLine
 10
1474.698247341641
 20
2443.93278886238
 30
0.0
 11
1474.698247341641
 21
1928.93278886238
 31
0.0
  0
INSERT
  5
6194
330
552E
100
AcDbEntity
  8
AM_5 寸法線
 62
     3
100
AcDbBlockReference
  2
_Open30
 10
1474.698247341641
 20
2468.932788862379
 30
0.0
 41
25.0
 42
25.0
 43
25.0
 50
90.0
  0
INSERT
  5
6195
330
552E
100
AcDbEntity
  8
AM_5 寸法線
 62
     3
100
AcDbBlockReference
  2
_Open30
 10
1474.698247341641
 20
1903.93278886238
 30
0.0
 41
25.0
 42
25.0
 43
25.0
 50
270.0
  0
MTEXT
  5
6196
330
552E
100
AcDbEntity
  8
AM_5 寸法線
 62
     3
100
AcDbMText
 10
1442.19824734164
 20
2186.43278886238
 30
0.0
 40
35.0
 41
0.0
 46
0.0
 71
     5
 72
     1
  1
%%c565
  7
SEISA
 11
0.0000000000000001
 21
1.0
 31
0.0
 73
     1
 44
1.0
  0
POINT
  5
6197
330
552E
100
AcDbEntity
  8
Defpoints
 62
     0
100
AcDbPoint
 10
1649.698247341641
 20
2468.932788862379
 30
0.0
  0
POINT
  5
6198
330
552E
100
AcDbEntity
  8
Defpoints
 62
     0
100
AcDbPoint
 10
1649.698247341641
 20
1903.932788862379
 30
0.0
  0
POINT
  5
6199
330
552E
100
AcDbEntity
  8
Defpoints
 62
     0
100
AcDbPoint
 10
1474.698247341641
 20
1903.93278886238
 30
0.0
  0
ENDBLK
  5
5530
330
552E
100
AcDbEntity
  8
0
100
AcDbBlockEnd
  0
BLOCK
  5
5562
330
5561
100
AcDbEntity
  8
0
100
AcDbBlockBegin
  2
*D14
 70
     1
 10
0.0
 20
0.0
 30
0.0
  3
*D14
  1

  0
LINE
  5
619A
330
5561
100
AcDbEntity
  8
AM_5 寸法線
 62
     3
100
AcDbLine
 10
1989.698247341641
 20
2192.682788862379
 30
0.0
 11
1989.698247341641
 21
2244.64831286238
 31
0.0
  0
LINE
  5
619B
330
5561
100
AcDbEntity
  8
AM_5 寸法線
 62
     3
100
AcDbLine
 10
1634.698247341641
 20
2192.682788862379
 30
0.0
 11
1634.698247341641
 21
2244.64831286238
 31
0.0
  0
LINE
  5
619C
330
5561
100
AcDbEntity
  8
AM_5 寸法線
 62
     3
100
AcDbLine
 10
1964.698247341641
 20
2238.39831286238
 30
0.0
 11
1659.698247341641
 21
2238.39831286238
 31
0.0
  0
INSERT
  5
619D
330
5561
100
AcDbEntity
  8
AM_5 寸法線
 62
     3
100
AcDbBlockReference
  2
_Open30
 10
1989.698247341641
 20
2238.39831286238
 30
0.0
 41
25.0
 42
25.0
 43
25.0
  0
INSERT
  5
619E
330
5561
100
AcDbEntity
  8
AM_5 寸法線
 62
     3
100
AcDbBlockReference
  2
_Open30
 10
1634.698247341641
 20
2238.39831286238
 30
0.0
 41
25.0
 42
25.0
 43
25.0
 50
180.0
  0
MTEXT
  5
619F
330
5561
100
AcDbEntity
  8
AM_5 寸法線
 62
     3
100
AcDbMText
 10
1812.198247341641
 20
2270.89831286238
 30
0.0
 40
35.0
 41
0.0
 46
0.0
 71
     5
 72
     1
  1
355
  7
SEISA
 73
     1
 44
1.0
  0
POINT
  5
61A0
330
5561
100
AcDbEntity
  8
Defpoints
 62
     0
100
AcDbPoint
 10
1989.698247341641
 20
2186.432788862379
 30
0.0
  0
POINT
  5
61A1
330
5561
100
AcDbEntity
  8
Defpoints
 62
     0
100
AcDbPoint
 10
1634.698247341641
 20
2186.432788862379
 30
0.0
  0
POINT
  5
61A2
330
5561
100
AcDbEntity
  8
Defpoints
 62
     0
100
AcDbPoint
 10
1634.698247341641
 20
2238.39831286238
 30
0.0
  0
ENDBLK
  5
5563
330
5561
100
AcDbEntity
  8
0
100
AcDbBlockEnd
  0
BLOCK
  5
557A
330
5579
100
AcDbEntity
  8
0
100
AcDbBlockBegin
  2
*D15
 70
     1
 10
0.0
 20
0.0
 30
0.0
  3
*D15
  1

  0
LINE
  5
7C56
330
5579
100
AcDbEntity
  8
AM_5 寸法線
 62
     3
100
AcDbLine
 10
2017.698247341641
 20
2192.682788862379
 30
0.0
 11
2017.698247341641
 21
2244.64831286238
 31
0.0
  0
LINE
  5
7C57
330
5579
100
AcDbEntity
  8
AM_5 寸法線
 62
     3
100
AcDbLine
 10
1989.698247341641
 20
2192.682788862379
 30
0.0
 11
1989.698247341641
 21
2244.64831286238
 31
0.0
  0
LINE
  5
7C58
330
5579
100
AcDbEntity
  8
AM_5 寸法線
 62
     3
100
AcDbLine
 10
2042.698247341641
 20
2238.39831286238
 30
0.0
 11
2067.698247341641
 21
2238.39831286238
 31
0.0
  0
LINE
  5
7C59
330
5579
100
AcDbEntity
  8
AM_5 寸法線
 62
     3
100
AcDbLine
 10
1964.69824734164
 20
2238.39831286238
 30
0.0
 11
1939.698247341641
 21
2238.39831286238
 31
0.0
  0
MTEXT
  5
7C5A
330
5579
100
AcDbEntity
  8
AM_5 寸法線
 62
     3
100
AcDbMText
 10
1956.979685640817
 20
2270.916191656684
 30
0.0
 40
35.0
 41
0.0
 46
0.0
 71
     5
 72
     1
  1
28
  7
SEISA
 73
     1
 44
1.0
  0
LINE
  5
7C5B
330
5579
100
AcDbEntity
  8
AM_5 寸法線
 62
     3
100
AcDbLine
 10
2017.698247341641
 20
2238.39831286238
 30
0.0
 11
1989.698247341641
 21
2238.39831286238
 31
0.0
  0
INSERT
  5
7C5C
330
5579
100
AcDbEntity
  8
AM_5 寸法線
 62
     3
100
AcDbBlockReference
  2
_Open30
 10
2017.698247341641
 20
2238.39831286238
 30
0.0
 41
25.0
 42
25.0
 43
25.0
 50
180.0
  0
INSERT
  5
7C5D
330
5579
100
AcDbEntity
  8
AM_5 寸法線
 62
     3
100
AcDbBlockReference
  2
_Open30
 10
1989.698247341641
 20
2238.39831286238
 30
0.0
 41
25.0
 42
25.0
 43
25.0
  0
POINT
  5
7C5E
330
5579
100
AcDbEntity
  8
Defpoints
 62
     0
100
AcDbPoint
 10
2017.698247341641
 20
2186.432788862379
 30
0.0
  0
POINT
  5
7C5F
330
5579
100
AcDbEntity
  8
Defpoints
 62
     0
100
AcDbPoint
 10
1989.698247341641
 20
2186.432788862379
 30
0.0
  0
POINT
  5
7C60
330
5579
100
AcDbEntity
  8
Defpoints
 62
     0
100
AcDbPoint
 10
1989.698247341641
 20
2238.39831286238
 30
0.0
  0
ENDBLK
  5
557B
330
5579
100
AcDbEntity
  8
0
100
AcDbBlockEnd
  0
BLOCK
  5
5596
330
5595
100
AcDbEntity
  8
0
100
AcDbBlockBegin
  2
*D16
 70
     1
 10
0.0
 20
0.0
 30
0.0
  3
*D16
  1

  0
LINE
  5
7C42
330
5595
100
AcDbEntity
  8
AM_5 寸法線
 62
     3
100
AcDbLine
 10
2017.698247341641
 20
2192.682788862379
 30
0.0
 11
2017.698247341641
 21
2244.64831286238
 31
0.0
  0
LINE
  5
7C43
330
5595
100
AcDbEntity
  8
AM_5 寸法線
 62
     3
100
AcDbLine
 10
2372.698247341641
 20
2192.682788862379
 30
0.0
 11
2372.698247341641
 21
2244.64831286238
 31
0.0
  0
LINE
  5
7C44
330
5595
100
AcDbEntity
  8
AM_5 寸法線
 62
     3
100
AcDbLine
 10
2042.698247341641
 20
2238.39831286238
 30
0.0
 11
2347.698247341641
 21
2238.39831286238
 31
0.0
  0
MTEXT
  5
7C45
330
5595
100
AcDbEntity
  8
AM_5 寸法線
 62
     3
100
AcDbMText
 10
2293.085276563842
 20
2262.172128175043
 30
0.0
 40
35.0
 41
0.0
 46
0.0
 71
     5
 72
     1
  1
355
  7
SEISA
 73
     1
 44
1.0
  0
INSERT
  5
7C46
330
5595
100
AcDbEntity
  8
AM_5 寸法線
 62
     3
100
AcDbBlockReference
  2
_Open30
 10
2017.698247341641
 20
2238.39831286238
 30
0.0
 41
25.0
 42
25.0
 43
25.0
 50
180.0
  0
INSERT
  5
7C47
330
5595
100
AcDbEntity
  8
AM_5 寸法線
 62
     3
100
AcDbBlockReference
  2
_Open30
 10
2372.698247341641
 20
2238.39831286238
 30
0.0
 41
25.0
 42
25.0
 43
25.0
  0
POINT
  5
7C48
330
5595
100
AcDbEntity
  8
Defpoints
 62
     0
100
AcDbPoint
 10
2017.698247341641
 20
2186.432788862379
 30
0.0
  0
POINT
  5
7C49
330
5595
100
AcDbEntity
  8
Defpoints
 62
     0
100
AcDbPoint
 10
2372.698247341641
 20
2186.432788862379
 30
0.0
  0
POINT
  5
7C4A
330
5595
100
AcDbEntity
  8
Defpoints
 62
     0
100
AcDbPoint
 10
2372.698247341641
 20
2238.39831286238
 30
0.0
  0
ENDBLK
  5
5597
330
5595
100
AcDbEntity
  8
0
100
AcDbBlockEnd
  0
BLOCK
  5
5679
330
5678
100
AcDbEntity
  8
0
100
AcDbBlockBegin
  2
*D17
 70
     1
 10
0.0
 20
0.0
 30
0.0
  3
*D17
  1

  0
LINE
  5
61B7
330
5678
100
AcDbEntity
  8
AM_5 寸法線
 62
     3
100
AcDbLine
 10
2279.948247341641
 20
2441.432788862381
 30
0.0
 11
2538.948247341641
 21
2441.432788862381
 31
0.0
  0
LINE
  5
61B8
330
5678
100
AcDbEntity
  8
AM_5 寸法線
 62
     3
100
AcDbLine
 10
2279.948247341641
 20
1931.432788862379
 30
0.0
 11
2538.948247341641
 21
1931.432788862379
 31
0.0
  0
LINE
  5
61B9
330
5678
100
AcDbEntity
  8
AM_5 寸法線
 62
     3
100
AcDbLine
 10
2532.698247341641
 20
2416.43278886238
 30
0.0
 11
2532.698247341641
 21
1956.432788862379
 31
0.0
  0
INSERT
  5
61BA
330
5678
100
AcDbEntity
  8
AM_5 寸法線
 62
     3
100
AcDbBlockReference
  2
_Open30
 10
2532.698247341641
 20
2441.432788862381
 30
0.0
 41
25.0
 42
25.0
 43
25.0
 50
90.0
  0
INSERT
  5
61BB
330
5678
100
AcDbEntity
  8
AM_5 寸法線
 62
     3
100
AcDbBlockReference
  2
_Open30
 10
2532.698247341641
 20
1931.432788862379
 30
0.0
 41
25.0
 42
25.0
 43
25.0
 50
270.0
  0
MTEXT
  5
61BC
330
5678
100
AcDbEntity
  8
AM_5 寸法線
 62
     3
100
AcDbMText
 10
2500.198247341641
 20
2186.43278886238
 30
0.0
 40
35.0
 41
0.0
 46
0.0
 71
     5
 72
     1
  1
%%c510
  7
SEISA
 11
0.0000000000000001
 21
1.0
 31
0.0
 73
     1
 44
1.0
  0
POINT
  5
61BD
330
5678
100
AcDbEntity
  8
Defpoints
 62
     0
100
AcDbPoint
 10
2273.698247341641
 20
2441.432788862381
 30
0.0
  0
POINT
  5
61BE
330
5678
100
AcDbEntity
  8
Defpoints
 62
     0
100
AcDbPoint
 10
2273.698247341641
 20
1931.432788862379
 30
0.0
  0
POINT
  5
61BF
330
5678
100
AcDbEntity
  8
Defpoints
 62
     0
100
AcDbPoint
 10
2532.698247341641
 20
1931.432788862379
 30
0.0
  0
ENDBLK
  5
567A
330
5678
100
AcDbEntity
  8
0
100
AcDbBlockEnd
  0
BLOCK
  5
5691
330
5690
100
AcDbEntity
  8
0
100
AcDbBlockBegin
  2
*D18
 70
     1
 10
0.0
 20
0.0
 30
0.0
  3
*D18
  1

  0
LINE
  5
61C0
330
5690
100
AcDbEntity
  8
AM_5 寸法線
 62
     3
100
AcDbLine
 10
2251.948247341641
 20
2497.432788862381
 30
0.0
 11
2618.948247341642
 21
2497.432788862381
 31
0.0
  0
LINE
  5
61C1
330
5690
100
AcDbEntity
  8
AM_5 寸法線
 62
     3
100
AcDbLine
 10
2251.948247341641
 20
1875.432788862379
 30
0.0
 11
2618.948247341642
 21
1875.432788862379
 31
0.0
  0
LINE
  5
61C2
330
5690
100
AcDbEntity
  8
AM_5 寸法線
 62
     3
100
AcDbLine
 10
2612.698247341642
 20
2472.432788862379
 30
0.0
 11
2612.698247341642
 21
1900.432788862379
 31
0.0
  0
INSERT
  5
61C3
330
5690
100
AcDbEntity
  8
AM_5 寸法線
 62
     3
100
AcDbBlockReference
  2
_Open30
 10
2612.698247341642
 20
2497.432788862381
 30
0.0
 41
25.0
 42
25.0
 43
25.0
 50
90.0
  0
INSERT
  5
61C4
330
5690
100
AcDbEntity
  8
AM_5 寸法線
 62
     3
100
AcDbBlockReference
  2
_Open30
 10
2612.698247341642
 20
1875.432788862379
 30
0.0
 41
25.0
 42
25.0
 43
25.0
 50
270.0
  0
MTEXT
  5
61C5
330
5690
100
AcDbEntity
  8
AM_5 寸法線
 62
     3
100
AcDbMText
 10
2580.198247341642
 20
2186.43278886238
 30
0.0
 40
35.0
 41
0.0
 46
0.0
 71
     5
 72
     1
  1
%%c622
  7
SEISA
 11
0.0000000000000001
 21
1.0
 31
0.0
 73
     1
 44
1.0
  0
POINT
  5
61C6
330
5690
100
AcDbEntity
  8
Defpoints
 62
     0
100
AcDbPoint
 10
2245.698247341641
 20
2497.432788862381
 30
0.0
  0
POINT
  5
61C7
330
5690
100
AcDbEntity
  8
Defpoints
 62
     0
100
AcDbPoint
 10
2245.698247341641
 20
1875.432788862379
 30
0.0
  0
POINT
  5
61C8
330
5690
100
AcDbEntity
  8
Defpoints
 62
     0
100
AcDbPoint
 10
2612.698247341642
 20
1875.432788862379
 30
0.0
  0
ENDBLK
  5
5692
330
5690
100
AcDbEntity
  8
0
100
AcDbBlockEnd
  0
BLOCK
  5
56A9
330
56A8
100
AcDbEntity
  8
0
100
AcDbBlockBegin
  2
*D19
 70
     1
 10
0.0
 20
0.0
 30
0.0
  3
*D19
  1

  0
LINE
  5
61C9
330
56A8
100
AcDbEntity
  8
AM_5 寸法線
 62
     3
100
AcDbLine
 10
2038.948247341641
 20
2541.43278886238
 30
0.0
 11
2698.948247341642
 21
2541.43278886238
 31
0.0
  0
LINE
  5
61CA
330
56A8
100
AcDbEntity
  8
AM_5 寸法線
 62
     3
100
AcDbLine
 10
2038.948247341641
 20
1831.432788862379
 30
0.0
 11
2698.948247341642
 21
1831.432788862379
 31
0.0
  0
LINE
  5
61CB
330
56A8
100
AcDbEntity
  8
AM_5 寸法線
 62
     3
100
AcDbLine
 10
2692.698247341642
 20
2516.43278886238
 30
0.0
 11
2692.698247341642
 21
1856.432788862379
 31
0.0
  0
INSERT
  5
61CC
330
56A8
100
AcDbEntity
  8
AM_5 寸法線
 62
     3
100
AcDbBlockReference
  2
_Open30
 10
2692.698247341642
 20
2541.43278886238
 30
0.0
 41
25.0
 42
25.0
 43
25.0
 50
90.0
  0
INSERT
  5
61CD
330
56A8
100
AcDbEntity
  8
AM_5 寸法線
 62
     3
100
AcDbBlockReference
  2
_Open30
 10
2692.698247341642
 20
1831.432788862379
 30
0.0
 41
25.0
 42
25.0
 43
25.0
 50
270.0
  0
MTEXT
  5
61CE
330
56A8
100
AcDbEntity
  8
AM_5 寸法線
 62
     3
100
AcDbMText
 10
2660.198247341641
 20
2186.43278886238
 30
0.0
 40
35.0
 41
0.0
 46
0.0
 71
     5
 72
     1
  1
%%c710
  7
SEISA
 11
0.0000000000000001
 21
1.0
 31
0.0
 73
     1
 44
1.0
  0
POINT
  5
61CF
330
56A8
100
AcDbEntity
  8
Defpoints
 62
     0
100
AcDbPoint
 10
2032.698247341641
 20
2541.43278886238
 30
0.0
  0
POINT
  5
61D0
330
56A8
100
AcDbEntity
  8
Defpoints
 62
     0
100
AcDbPoint
 10
2032.698247341641
 20
1831.432788862379
 30
0.0
  0
POINT
  5
61D1
330
56A8
100
AcDbEntity
  8
Defpoints
 62
     0
100
AcDbPoint
 10
2692.698247341642
 20
1831.432788862379
 30
0.0
  0
ENDBLK
  5
56AA
330
56A8
100
AcDbEntity
  8
0
100
AcDbBlockEnd
  0
BLOCK
  5
5751
330
5750
100
AcDbEntity
  8
0
100
AcDbBlockBegin
  2
*D20
 70
     1
 10
0.0
 20
0.0
 30
0.0
  3
*D20
  1

  0
LINE
  5
61D2
330
5750
100
AcDbEntity
  8
AM_5 寸法線
 62
     3
100
AcDbLine
 10
2003.698247341641
 20
1826.182788862379
 30
0.0
 11
2003.698247341641
 21
1729.182788862379
 31
0.0
  0
LINE
  5
61D3
330
5750
100
AcDbEntity
  8
AM_5 寸法線
 62
     3
100
AcDbLine
 10
1973.698247341641
 20
1827.182788862379
 30
0.0
 11
1973.698247341641
 21
1729.182788862379
 31
0.0
  0
LINE
  5
61D4
330
5750
100
AcDbEntity
  8
AM_5 寸法線
 62
     3
100
AcDbLine
 10
2028.698247341641
 20
1735.432788862379
 30
0.0
 11
2053.698247341641
 21
1735.432788862379
 31
0.0
  0
LINE
  5
61D5
330
5750
100
AcDbEntity
  8
AM_5 寸法線
 62
     3
100
AcDbLine
 10
1948.698247341641
 20
1735.432788862379
 30
0.0
 11
1842.698247341641
 21
1735.432788862379
 31
0.0
  0
LINE
  5
61D6
330
5750
100
AcDbEntity
  8
AM_5 寸法線
 62
     3
100
AcDbLine
 10
2003.698247341641
 20
1735.432788862379
 30
0.0
 11
1973.698247341641
 21
1735.432788862379
 31
0.0
  0
INSERT
  5
61D7
330
5750
100
AcDbEntity
  8
AM_5 寸法線
 62
     3
100
AcDbBlockReference
  2
GENDOT
 10
2003.698247341641
 20
1735.432788862379
 30
0.0
 41
25.0
 42
25.0
 43
25.0
 50
180.0
  0
INSERT
  5
61D8
330
5750
100
AcDbEntity
  8
AM_5 寸法線
 62
     3
100
AcDbBlockReference
  2
_Open30
 10
1973.698247341641
 20
1735.432788862379
 30
0.0
 41
25.0
 42
25.0
 43
25.0
  0
MTEXT
  5
61D9
330
5750
100
AcDbEntity
  8
AM_5 寸法線
 62
     3
100
AcDbMText
 10
1883.198247341641
 20
1767.932788862379
 30
0.0
 40
35.0
 41
0.0
 46
0.0
 71
     5
 72
     1
  1
30
  7
SEISA
 73
     1
 44
1.0
  0
POINT
  5
61DA
330
5750
100
AcDbEntity
  8
Defpoints
 62
     0
100
AcDbPoint
 10
2003.698247341641
 20
1832.432788862379
 30
0.0
  0
POINT
  5
61DB
330
5750
100
AcDbEntity
  8
Defpoints
 62
     0
100
AcDbPoint
 10
1973.698247341641
 20
1833.432788862379
 30
0.0
  0
POINT
  5
61DC
330
5750
100
AcDbEntity
  8
Defpoints
 62
     0
100
AcDbPoint
 10
1973.698247341641
 20
1735.432788862379
 30
0.0
  0
ENDBLK
  5
5752
330
5750
100
AcDbEntity
  8
0
100
AcDbBlockEnd
  0
BLOCK
  5
576D
330
576C
100
AcDbEntity
  8
0
100
AcDbBlockBegin
  2
*D21
 70
     1
 10
0.0
 20
0.0
 30
0.0
  3
*D21
  1

  0
LINE
  5
61DD
330
576C
100
AcDbEntity
  8
AM_5 寸法線
 62
     3
100
AcDbLine
 10
2003.698247341641
 20
1826.182788862379
 30
0.0
 11
2003.698247341641
 21
1729.182788862379
 31
0.0
  0
LINE
  5
61DE
330
576C
100
AcDbEntity
  8
AM_5 寸法線
 62
     3
100
AcDbLine
 10
2033.698247341641
 20
1826.182788862379
 30
0.0
 11
2033.698247341641
 21
1729.182788862379
 31
0.0
  0
LINE
  5
61DF
330
576C
100
AcDbEntity
  8
AM_5 寸法線
 62
     3
100
AcDbLine
 10
1978.698247341641
 20
1735.432788862379
 30
0.0
 11
1953.698247341641
 21
1735.432788862379
 31
0.0
  0
LINE
  5
61E0
330
576C
100
AcDbEntity
  8
AM_5 寸法線
 62
     3
100
AcDbLine
 10
2058.698247341641
 20
1735.432788862379
 30
0.0
 11
2164.698247341641
 21
1735.432788862379
 31
0.0
  0
LINE
  5
61E1
330
576C
100
AcDbEntity
  8
AM_5 寸法線
 62
     3
100
AcDbLine
 10
2003.698247341641
 20
1735.432788862379
 30
0.0
 11
2033.698247341641
 21
1735.432788862379
 31
0.0
  0
INSERT
  5
61E2
330
576C
100
AcDbEntity
  8
AM_5 寸法線
 62
     3
100
AcDbBlockReference
  2
GENDOT
 10
2003.698247341641
 20
1735.432788862379
 30
0.0
 41
25.0
 42
25.0
 43
25.0
  0
INSERT
  5
61E3
330
576C
100
AcDbEntity
  8
AM_5 寸法線
 62
     3
100
AcDbBlockReference
  2
_Open30
 10
2033.698247341641
 20
1735.432788862379
 30
0.0
 41
25.0
 42
25.0
 43
25.0
 50
180.0
  0
MTEXT
  5
61E4
330
576C
100
AcDbEntity
  8
AM_5 寸法線
 62
     3
100
AcDbMText
 10
2124.198247341641
 20
1767.932788862379
 30
0.0
 40
35.0
 41
0.0
 46
0.0
 71
     5
 72
     1
  1
30
  7
SEISA
 73
     1
 44
1.0
  0
POINT
  5
61E5
330
576C
100
AcDbEntity
  8
Defpoints
 62
     0
100
AcDbPoint
 10
2003.698247341641
 20
1832.432788862379
 30
0.0
  0
POINT
  5
61E6
330
576C
100
AcDbEntity
  8
Defpoints
 62
     0
100
AcDbPoint
 10
2033.698247341641
 20
1832.432788862379
 30
0.0
  0
POINT
  5
61E7
330
576C
100
AcDbEntity
  8
Defpoints
 62
     0
100
AcDbPoint
 10
2033.698247341641
 20
1735.432788862379
 30
0.0
  0
ENDBLK
  5
576E
330
576C
100
AcDbEntity
  8
0
100
AcDbBlockEnd
  0
BLOCK
  5
5789
330
5788
100
AcDbEntity
  8
0
100
AcDbBlockBegin
  2
*D22
 70
     1
 10
0.0
 20
0.0
 30
0.0
  3
*D22
  1

  0
LINE
  5
61E8
330
5788
100
AcDbEntity
  8
AM_5 寸法線
 62
     3
100
AcDbLine
 10
2003.698247341641
 20
1826.182788862379
 30
0.0
 11
2003.698247341641
 21
1649.182788862379
 31
0.0
  0
LINE
  5
61E9
330
5788
100
AcDbEntity
  8
AM_5 寸法線
 62
     3
100
AcDbLine
 10
2245.698247341641
 20
1869.182788862379
 30
0.0
 11
2245.698247341641
 21
1649.182788862379
 31
0.0
  0
LINE
  5
61EA
330
5788
100
AcDbEntity
  8
AM_5 寸法線
 62
     3
100
AcDbLine
 10
2028.698247341641
 20
1655.432788862379
 30
0.0
 11
2220.698247341641
 21
1655.432788862379
 31
0.0
  0
INSERT
  5
61EB
330
5788
100
AcDbEntity
  8
AM_5 寸法線
 62
     3
100
AcDbBlockReference
  2
_Open30
 10
2003.698247341641
 20
1655.432788862379
 30
0.0
 41
25.0
 42
25.0
 43
25.0
 50
180.0
  0
INSERT
  5
61EC
330
5788
100
AcDbEntity
  8
AM_5 寸法線
 62
     3
100
AcDbBlockReference
  2
_Open30
 10
2245.698247341641
 20
1655.432788862379
 30
0.0
 41
25.0
 42
25.0
 43
25.0
  0
MTEXT
  5
61ED
330
5788
100
AcDbEntity
  8
AM_5 寸法線
 62
     3
100
AcDbMText
 10
2124.698247341641
 20
1687.932788862379
 30
0.0
 40
35.0
 41
0.0
 46
0.0
 71
     5
 72
     1
  1
242
  7
SEISA
 73
     1
 44
1.0
  0
POINT
  5
61EE
330
5788
100
AcDbEntity
  8
Defpoints
 62
     0
100
AcDbPoint
 10
2003.698247341641
 20
1832.432788862379
 30
0.0
  0
POINT
  5
61EF
330
5788
100
AcDbEntity
  8
Defpoints
 62
     0
100
AcDbPoint
 10
2245.698247341641
 20
1875.432788862379
 30
0.0
  0
POINT
  5
61F0
330
5788
100
AcDbEntity
  8
Defpoints
 62
     0
100
AcDbPoint
 10
2245.698247341641
 20
1655.432788862379
 30
0.0
  0
ENDBLK
  5
578A
330
5788
100
AcDbEntity
  8
0
100
AcDbBlockEnd
  0
BLOCK
  5
57A1
330
57A0
100
AcDbEntity
  8
0
100
AcDbBlockBegin
  2
*D23
 70
     1
 10
0.0
 20
0.0
 30
0.0
  3
*D23
  1

  0
LINE
  5
61F1
330
57A0
100
AcDbEntity
  8
AM_5 寸法線
 62
     3
100
AcDbLine
 10
2372.698247341641
 20
1941.682788862379
 30
0.0
 11
2372.698247341641
 21
1649.182788862379
 31
0.0
  0
LINE
  5
61F2
330
57A0
100
AcDbEntity
  8
AM_5 寸法線
 62
     3
100
AcDbLine
 10
2245.698247341641
 20
1869.182788862379
 30
0.0
 11
2245.698247341641
 21
1649.182788862379
 31
0.0
  0
LINE
  5
61F3
330
57A0
100
AcDbEntity
  8
AM_5 寸法線
 62
     3
100
AcDbLine
 10
2347.698247341641
 20
1655.432788862379
 30
0.0
 11
2270.698247341641
 21
1655.432788862379
 31
0.0
  0
INSERT
  5
61F4
330
57A0
100
AcDbEntity
  8
AM_5 寸法線
 62
     3
100
AcDbBlockReference
  2
_Open30
 10
2372.698247341641
 20
1655.432788862379
 30
0.0
 41
25.0
 42
25.0
 43
25.0
  0
INSERT
  5
61F5
330
57A0
100
AcDbEntity
  8
AM_5 寸法線
 62
     3
100
AcDbBlockReference
  2
_Open30
 10
2245.698247341641
 20
1655.432788862379
 30
0.0
 41
25.0
 42
25.0
 43
25.0
 50
180.0
  0
MTEXT
  5
61F6
330
57A0
100
AcDbEntity
  8
AM_5 寸法線
 62
     3
100
AcDbMText
 10
2309.198247341641
 20
1687.932788862379
 30
0.0
 40
35.0
 41
0.0
 46
0.0
 71
     5
 72
     1
  1
127
  7
SEISA
 73
     1
 44
1.0
  0
POINT
  5
61F7
330
57A0
100
AcDbEntity
  8
Defpoints
 62
     0
100
AcDbPoint
 10
2372.698247341641
 20
1947.932788862379
 30
0.0
  0
POINT
  5
61F8
330
57A0
100
AcDbEntity
  8
Defpoints
 62
     0
100
AcDbPoint
 10
2245.698247341641
 20
1875.432788862379
 30
0.0
  0
POINT
  5
61F9
330
57A0
100
AcDbEntity
  8
Defpoints
 62
     0
100
AcDbPoint
 10
2245.698247341641
 20
1655.432788862379
 30
0.0
  0
ENDBLK
  5
57A2
330
57A0
100
AcDbEntity
  8
0
100
AcDbBlockEnd
  0
BLOCK
  5
57C2
330
57C1
100
AcDbEntity
  8
0
100
AcDbBlockBegin
  2
*D24
 70
     1
 10
0.0
 20
0.0
 30
0.0
  3
*D24
  1

  0
LINE
  5
61FA
330
57C1
100
AcDbEntity
  8
AM_5 寸法線
 62
     3
100
AcDbLine
 10
2003.698247341641
 20
1826.182788862379
 30
0.0
 11
2003.698247341641
 21
1649.182788862379
 31
0.0
  0
LINE
  5
61FB
330
57C1
100
AcDbEntity
  8
AM_5 寸法線
 62
     3
100
AcDbLine
 10
1634.698247341641
 20
1912.682788862379
 30
0.0
 11
1634.698247341641
 21
1649.182788862379
 31
0.0
  0
LINE
  5
61FC
330
57C1
100
AcDbEntity
  8
AM_5 寸法線
 62
     3
100
AcDbLine
 10
1978.698247341641
 20
1655.432788862379
 30
0.0
 11
1659.698247341641
 21
1655.432788862379
 31
0.0
  0
INSERT
  5
61FD
330
57C1
100
AcDbEntity
  8
AM_5 寸法線
 62
     3
100
AcDbBlockReference
  2
_Open30
 10
2003.698247341641
 20
1655.432788862379
 30
0.0
 41
25.0
 42
25.0
 43
25.0
  0
INSERT
  5
61FE
330
57C1
100
AcDbEntity
  8
AM_5 寸法線
 62
     3
100
AcDbBlockReference
  2
_Open30
 10
1634.698247341641
 20
1655.432788862379
 30
0.0
 41
25.0
 42
25.0
 43
25.0
 50
180.0
  0
MTEXT
  5
61FF
330
57C1
100
AcDbEntity
  8
AM_5 寸法線
 62
     3
100
AcDbMText
 10
1819.198247341641
 20
1687.932788862379
 30
0.0
 40
35.0
 41
0.0
 46
0.0
 71
     5
 72
     1
  1
369
  7
SEISA
 73
     1
 44
1.0
  0
POINT
  5
6200
330
57C1
100
AcDbEntity
  8
Defpoints
 62
     0
100
AcDbPoint
 10
2003.698247341641
 20
1832.432788862379
 30
0.0
  0
POINT
  5
6201
330
57C1
100
AcDbEntity
  8
Defpoints
 62
     0
100
AcDbPoint
 10
1634.698247341641
 20
1918.932788862379
 30
0.0
  0
POINT
  5
6202
330
57C1
100
AcDbEntity
  8
Defpoints
 62
     0
100
AcDbPoint
 10
1634.698247341641
 20
1655.432788862379
 30
0.0
  0
ENDBLK
  5
57C3
330
57C1
100
AcDbEntity
  8
0
100
AcDbBlockEnd
  0
BLOCK
  5
57DA
330
57D9
100
AcDbEntity
  8
0
100
AcDbBlockBegin
  2
*D25
 70
     1
 10
0.0
 20
0.0
 30
0.0
  3
*D25
  1

  0
LINE
  5
6203
330
57D9
100
AcDbEntity
  8
AM_5 寸法線
 62
     3
100
AcDbLine
 10
2372.698247341641
 20
1941.682788862379
 30
0.0
 11
2372.698247341641
 21
1569.182788862379
 31
0.0
  0
LINE
  5
6204
330
57D9
100
AcDbEntity
  8
AM_5 寸法線
 62
     3
100
AcDbLine
 10
1634.698247341641
 20
1912.682788862379
 30
0.0
 11
1634.698247341641
 21
1569.182788862379
 31
0.0
  0
LINE
  5
6205
330
57D9
100
AcDbEntity
  8
AM_5 寸法線
 62
     3
100
AcDbLine
 10
2347.698247341641
 20
1575.432788862379
 30
0.0
 11
1659.698247341641
 21
1575.432788862379
 31
0.0
  0
INSERT
  5
6206
330
57D9
100
AcDbEntity
  8
AM_5 寸法線
 62
     3
100
AcDbBlockReference
  2
_Open30
 10
2372.698247341641
 20
1575.432788862379
 30
0.0
 41
25.0
 42
25.0
 43
25.0
  0
INSERT
  5
6207
330
57D9
100
AcDbEntity
  8
AM_5 寸法線
 62
     3
100
AcDbBlockReference
  2
_Open30
 10
1634.698247341641
 20
1575.432788862379
 30
0.0
 41
25.0
 42
25.0
 43
25.0
 50
180.0
  0
MTEXT
  5
6208
330
57D9
100
AcDbEntity
  8
AM_5 寸法線
 62
     3
100
AcDbMText
 10
2003.698247341641
 20
1607.932788862379
 30
0.0
 40
35.0
 41
0.0
 46
0.0
 71
     5
 72
     1
  1
738
  7
SEISA
 73
     1
 44
1.0
  0
POINT
  5
6209
330
57D9
100
AcDbEntity
  8
Defpoints
 62
     0
100
AcDbPoint
 10
2372.698247341641
 20
1947.932788862379
 30
0.0
  0
POINT
  5
620A
330
57D9
100
AcDbEntity
  8
Defpoints
 62
     0
100
AcDbPoint
 10
1634.698247341641
 20
1918.932788862379
 30
0.0
  0
POINT
  5
620B
330
57D9
100
AcDbEntity
  8
Defpoints
 62
     0
100
AcDbPoint
 10
1634.698247341641
 20
1575.432788862379
 30
0.0
  0
ENDBLK
  5
57DB
330
57D9
100
AcDbEntity
  8
0
100
AcDbBlockEnd
  0
BLOCK
  5
5A6B
330
5A6A
100
AcDbEntity
  8
0
100
AcDbBlockBegin
  2
*D26
 70
     1
 10
0.0
 20
0.0
 30
0.0
  3
*D26
  1

  0
LINE
  5
7C2E
330
5A6A
100
AcDbEntity
  8
AM_5 寸法線
 62
     3
100
AcDbLine
 10
2221.698247341641
 20
2435.18278886238
 30
0.0
 11
2221.698247341641
 21
2363.966177277859
 31
0.0
  0
LINE
  5
7C2F
330
5A6A
100
AcDbEntity
  8
AM_5 寸法線
 62
     3
100
AcDbLine
 10
2213.198247341641
 20
2435.68278886238
 30
0.0
 11
2213.198247341641
 21
2363.966177277859
 31
0.0
  0
LINE
  5
7C30
330
5A6A
100
AcDbEntity
  8
AM_5 寸法線
 62
     3
100
AcDbLine
 10
2188.198247341641
 20
2370.21617727786
 30
0.0
 11
2163.198247341641
 21
2370.21617727786
 31
0.0
  0
LINE
  5
7C31
330
5A6A
100
AcDbEntity
  8
AM_5 寸法線
 62
     3
100
AcDbLine
 10
2246.698247341641
 20
2370.21617727786
 30
0.0
 11
2367.698247341641
 21
2370.21617727786
 31
0.0
  0
LINE
  5
7C32
330
5A6A
100
AcDbEntity
  8
AM_5 寸法線
 62
     3
100
AcDbLine
 10
2213.198247341641
 20
2370.21617727786
 30
0.0
 11
2221.698247341641
 21
2370.21617727786
 31
0.0
  0
INSERT
  5
7C33
330
5A6A
100
AcDbEntity
  8
AM_5 寸法線
 62
     3
100
AcDbBlockReference
  2
_Open30
 10
2213.198247341641
 20
2370.21617727786
 30
0.0
 41
25.0
 42
25.0
 43
25.0
  0
INSERT
  5
7C34
330
5A6A
100
AcDbEntity
  8
AM_5 寸法線
 62
     3
100
AcDbBlockReference
  2
_Open30
 10
2221.698247341641
 20
2370.21617727786
 30
0.0
 41
25.0
 42
25.0
 43
25.0
 50
180.0
  0
MTEXT
  5
7C35
330
5A6A
100
AcDbEntity
  8
AM_5 寸法線
 62
     3
100
AcDbMText
 10
2319.698247341641
 20
2402.71617727786
 30
0.0
 40
35.0
 41
0.0
 46
0.0
 71
     5
 72
     1
  1
8.5
  7
SEISA
 73
     1
 44
1.0
  0
POINT
  5
7C36
330
5A6A
100
AcDbEntity
  8
Defpoints
 62
     0
100
AcDbPoint
 10
2221.698247341641
 20
2441.432788862381
 30
0.0
  0
POINT
  5
7C37
330
5A6A
100
AcDbEntity
  8
Defpoints
 62
     0
100
AcDbPoint
 10
2213.198247341641
 20
2441.932788862379
 30
0.0
  0
POINT
  5
7C38
330
5A6A
100
AcDbEntity
  8
Defpoints
 62
     0
100
AcDbPoint
 10
2213.198247341641
 20
2370.21617727786
 30
0.0
  0
ENDBLK
  5
5A6C
330
5A6A
100
AcDbEntity
  8
0
100
AcDbBlockEnd
  0
BLOCK
  5
7A59
330
7A58
100
AcDbEntity
  8
0
100
AcDbBlockBegin
  2
*D27
 70
     1
 10
0.0
 20
0.0
 30
0.0
  3
*D27
  1

  0
LINE
  5
7A78
330
7A58
100
AcDbEntity
  8
AM_5 寸法線
 62
     3
100
AcDbLine
 10
2372.698247341641
 20
2431.18278886238
 30
0.0
 11
2372.698247341641
 21
2575.054425295171
 31
0.0
  0
LINE
  5
7A79
330
7A58
100
AcDbEntity
  8
AM_5 寸法線
 62
     3
100
AcDbLine
 10
2462.698247341641
 20
2503.682788862379
 30
0.0
 11
2462.698247341641
 21
2575.054425295171
 31
0.0
  0
LINE
  5
7A7A
330
7A58
100
AcDbEntity
  8
AM_5 寸法線
 62
     3
100
AcDbLine
 10
2397.698247341641
 20
2568.804425295172
 30
0.0
 11
2437.698247341641
 21
2568.804425295172
 31
0.0
  0
INSERT
  5
7A7B
330
7A58
100
AcDbEntity
  8
AM_5 寸法線
 62
     3
100
AcDbBlockReference
  2
_Open30
 10
2372.698247341641
 20
2568.804425295172
 30
0.0
 41
25.0
 42
25.0
 43
25.0
 50
180.0
  0
INSERT
  5
7A7C
330
7A58
100
AcDbEntity
  8
AM_5 寸法線
 62
     3
100
AcDbBlockReference
  2
_Open30
 10
2462.698247341641
 20
2568.804425295172
 30
0.0
 41
25.0
 42
25.0
 43
25.0
  0
MTEXT
  5
7A7D
330
7A58
100
AcDbEntity
  8
AM_5 寸法線
 62
     3
100
AcDbMText
 10
2417.698247341641
 20
2601.304425295172
 30
0.0
 40
35.0
 41
0.0
 46
0.0
 71
     5
 72
     1
  1
90
  7
SEISA
 73
     1
 44
1.0
  0
POINT
  5
7A7E
330
7A58
100
AcDbEntity
  8
Defpoints
 62
     0
100
AcDbPoint
 10
2372.698247341641
 20
2424.932788862379
 30
0.0
  0
POINT
  5
7A7F
330
7A58
100
AcDbEntity
  8
Defpoints
 62
     0
100
AcDbPoint
 10
2462.698247341641
 20
2497.432788862381
 30
0.0
  0
POINT
  5
7A80
330
7A58
100
AcDbEntity
  8
Defpoints
 62
     0
100
AcDbPoint
 10
2462.698247341641
 20
2568.804425295172
 30
0.0
  0
ENDBLK
  5
7A5A
330
7A58
100
AcDbEntity
  8
0
100
AcDbBlockEnd
  0
BLOCK
  5
7B9F
330
7B9E
100
AcDbEntity
  8
0
100
AcDbBlockBegin
  2
*D28
 70
     1
 10
0.0
 20
0.0
 30
0.0
  3
*D28
  1

  0
LINE
  5
7C6C
330
7B9E
100
AcDbEntity
  8
AM_5 寸法線
 62
     3
100
AcDbLine
 10
2017.698247341641
 20
2433.182788862379
 30
0.0
 11
2017.698247341641
 21
2363.966177277861
 31
0.0
  0
LINE
  5
7C6D
330
7B9E
100
AcDbEntity
  8
AM_5 寸法線
 62
     3
100
AcDbLine
 10
2112.198247341641
 20
2435.68278886238
 30
0.0
 11
2112.198247341641
 21
2363.966177277861
 31
0.0
  0
LINE
  5
7C6E
330
7B9E
100
AcDbEntity
  8
AM_5 寸法線
 62
     3
100
AcDbLine
 10
2042.698247341641
 20
2370.216177277861
 30
0.0
 11
2087.198247341641
 21
2370.216177277861
 31
0.0
  0
LINE
  5
7C6F
330
7B9E
100
AcDbEntity
  8
AM_5 寸法線
 62
     3
100
AcDbLine
 10
2064.948247341641
 20
2370.216177277861
 30
0.0
 11
2083.064627530687
 21
2270.361959465954
 31
0.0
  0
LINE
  5
7C70
330
7B9E
100
AcDbEntity
  8
AM_5 寸法線
 62
     3
100
AcDbLine
 10
2083.064627530687
 20
2270.361959465954
 30
0.0
 11
2209.064627530687
 21
2270.361959465954
 31
0.0
  0
MTEXT
  5
7C71
330
7B9E
100
AcDbEntity
  8
AM_5 寸法線
 62
     3
100
AcDbMText
 10
2146.064627530687
 20
2302.861959465954
 30
0.0
 40
35.0
 41
0.0
 46
0.0
 71
     5
 72
     1
  1
94.5
  7
SEISA
 73
     1
 44
1.0
  0
INSERT
  5
7C72
330
7B9E
100
AcDbEntity
  8
AM_5 寸法線
 62
     3
100
AcDbBlockReference
  2
_Open30
 10
2017.698247341641
 20
2370.216177277861
 30
0.0
 41
25.0
 42
25.0
 43
25.0
 50
180.0
  0
INSERT
  5
7C73
330
7B9E
100
AcDbEntity
  8
AM_5 寸法線
 62
     3
100
AcDbBlockReference
  2
_Open30
 10
2112.198247341641
 20
2370.216177277861
 30
0.0
 41
25.0
 42
25.0
 43
25.0
  0
POINT
  5
7C74
330
7B9E
100
AcDbEntity
  8
Defpoints
 62
     0
100
AcDbPoint
 10
2017.698247341641
 20
2439.432788862379
 30
0.0
  0
POINT
  5
7C75
330
7B9E
100
AcDbEntity
  8
Defpoints
 62
     0
100
AcDbPoint
 10
2112.198247341641
 20
2441.932788862379
 30
0.0
  0
POINT
  5
7C76
330
7B9E
100
AcDbEntity
  8
Defpoints
 62
     0
100
AcDbPoint
 10
2112.198247341641
 20
2370.216177277861
 30
0.0
  0
ENDBLK
  5
7BA0
330
7B9E
100
AcDbEntity
  8
0
100
AcDbBlockEnd
  0
BLOCK
  5
7BCD
330
7BCC
100
AcDbEntity
  8
0
100
AcDbBlockBegin
  2
*D29
 70
     1
 10
0.0
 20
0.0
 30
0.0
  3
*D29
  1

  0
LINE
  5
7C25
330
7BCC
100
AcDbEntity
  8
AM_5 寸法線
 62
     3
100
AcDbLine
 10
2112.198247341641
 20
2435.68278886238
 30
0.0
 11
2112.198247341641
 21
2363.966177277859
 31
0.0
  0
LINE
  5
7C26
330
7BCC
100
AcDbEntity
  8
AM_5 寸法線
 62
     3
100
AcDbLine
 10
2213.198247341641
 20
2435.68278886238
 30
0.0
 11
2213.198247341641
 21
2363.966177277859
 31
0.0
  0
LINE
  5
7C27
330
7BCC
100
AcDbEntity
  8
AM_5 寸法線
 62
     3
100
AcDbLine
 10
2137.198247341641
 20
2370.21617727786
 30
0.0
 11
2188.198247341641
 21
2370.21617727786
 31
0.0
  0
MTEXT
  5
7C28
330
7BCC
100
AcDbEntity
  8
AM_5 寸法線
 62
     3
100
AcDbMText
 10
2159.595248995088
 20
2398.088468201271
 30
0.0
 40
35.0
 41
0.0
 46
0.0
 71
     5
 72
     1
  1
101
  7
SEISA
 73
     1
 44
1.0
  0
INSERT
  5
7C29
330
7BCC
100
AcDbEntity
  8
AM_5 寸法線
 62
     3
100
AcDbBlockReference
  2
_Open30
 10
2112.198247341641
 20
2370.21617727786
 30
0.0
 41
25.0
 42
25.0
 43
25.0
 50
180.0
  0
INSERT
  5
7C2A
330
7BCC
100
AcDbEntity
  8
AM_5 寸法線
 62
     3
100
AcDbBlockReference
  2
_Open30
 10
2213.198247341641
 20
2370.21617727786
 30
0.0
 41
25.0
 42
25.0
 43
25.0
  0
POINT
  5
7C2B
330
7BCC
100
AcDbEntity
  8
Defpoints
 62
     0
100
AcDbPoint
 10
2112.198247341641
 20
2441.932788862379
 30
0.0
  0
POINT
  5
7C2C
330
7BCC
100
AcDbEntity
  8
Defpoints
 62
     0
100
AcDbPoint
 10
2213.198247341641
 20
2441.932788862379
 30
0.0
  0
POINT
  5
7C2D
330
7BCC
100
AcDbEntity
  8
Defpoints
 62
     0
100
AcDbPoint
 10
2213.198247341641
 20
2370.21617727786
 30
0.0
  0
ENDBLK
  5
7BCE
330
7BCC
100
AcDbEntity
  8
0
100
AcDbBlockEnd
  0
BLOCK
  5
7D81
330
7D80
100
AcDbEntity
  8
0
100
AcDbBlockBegin
  2
GCｻｲﾄﾞｶﾊﾞｰ　CEM710
 70
     0
 10
0.0
 20
0.0
 30
0.0
  3
GCｻｲﾄﾞｶﾊﾞｰ　CEM710
  1

  0
LINE
  5
7D83
330
7D80
100
AcDbEntity
  8
AM_11 想像線
 48
0.1
100
AcDbLine
 10
0.0
 20
0.0
 30
0.0
 11
-21.10000000000036
 21
0.0
 31
0.0
  0
LINE
  5
7D84
330
7D80
100
AcDbEntity
  8
AM_11 想像線
 48
0.1
100
AcDbLine
 10
-5.0
 20
-47.80000000000018
 30
0.0
 11
-19.0
 21
-47.80000000000018
 31
0.0
  0
LINE
  5
7D85
330
7D80
100
AcDbEntity
  8
AM_11 想像線
 48
0.1
100
AcDbLine
 10
3.345712376637493
 20
-13.5
 30
0.0
 11
-24.0
 21
-13.5
 31
0.0
  0
LINE
  5
7D86
330
7D80
100
AcDbEntity
  8
AM_11 想像線
 48
0.1
100
AcDbLine
 10
-24.0
 20
-54.0
 30
0.0
 11
-24.0
 21
-29.5
 31
0.0
  0
LINE
  5
7D87
330
7D80
100
AcDbEntity
  8
AM_11 想像線
 48
0.1
100
AcDbLine
 10
-19.0
 20
-54.0
 30
0.0
 11
-19.0
 21
-56.0
 31
0.0
  0
LINE
  5
7D88
330
7D80
100
AcDbEntity
  8
AM_11 想像線
 48
0.1
100
AcDbLine
 10
-24.0
 20
-54.0
 30
0.0
 11
-24.0
 21
-56.0
 31
0.0
  0
LINE
  5
7D89
330
7D80
100
AcDbEntity
  8
AM_11 想像線
 48
0.1
100
AcDbLine
 10
-19.0
 20
-47.80000000000018
 30
0.0
 11
-19.0
 21
-54.0
 31
0.0
  0
LINE
  5
7D8A
330
7D80
100
AcDbEntity
  8
AM_11 想像線
 48
0.1
100
AcDbLine
 10
-19.0
 20
-54.0
 30
0.0
 11
-24.0
 21
-54.0
 31
0.0
  0
LINE
  5
7D8B
330
7D80
100
AcDbEntity
  8
AM_11 想像線
 48
0.1
100
AcDbLine
 10
-21.10000000000036
 20
-24.19999999999982
 30
0.0
 11
-18.0
 21
-24.19999999999982
 31
0.0
  0
LINE
  5
7D8C
330
7D80
100
AcDbEntity
  8
AM_11 想像線
 48
0.1
100
AcDbLine
 10
-18.0
 20
-24.19999999999982
 30
0.0
 11
-18.0
 21
-29.5
 31
0.0
  0
LINE
  5
7D8D
330
7D80
100
AcDbEntity
  8
AM_11 想像線
 48
0.1
100
AcDbLine
 10
0.0
 20
-9.0
 30
0.0
 11
0.0
 21
-54.0
 31
0.0
  0
LINE
  5
7D8E
330
7D80
100
AcDbEntity
  8
AM_11 想像線
 48
0.1
100
AcDbLine
 10
0.0
 20
-54.0
 30
0.0
 11
0.0
 21
-56.0
 31
0.0
  0
LINE
  5
7D8F
330
7D80
100
AcDbEntity
  8
AM_11 想像線
 48
0.1
100
AcDbLine
 10
-5.0
 20
-54.0
 30
0.0
 11
-5.0
 21
-56.0
 31
0.0
  0
LINE
  5
7D90
330
7D80
100
AcDbEntity
  8
AM_11 想像線
 48
0.1
100
AcDbLine
 10
-5.0
 20
-54.0
 30
0.0
 11
-5.0
 21
-47.80000000000018
 31
0.0
  0
LINE
  5
7D91
330
7D80
100
AcDbEntity
  8
AM_11 想像線
 48
0.1
100
AcDbLine
 10
0.0
 20
-54.0
 30
0.0
 11
-5.0
 21
-54.0
 31
0.0
  0
LINE
  5
7D92
102
{ACAD_REACTORS
330
7A65
102
}
330
7D80
100
AcDbEntity
  8
AM_11 想像線
 48
0.1
100
AcDbLine
 10
0.0
 20
-9.0
 30
0.0
 11
0.0
 21
0.0
 31
0.0
  0
LINE
  5
7D93
330
7D80
100
AcDbEntity
  8
AM_11 想像線
 48
0.1
100
AcDbLine
 10
-18.0
 20
-29.5
 30
0.0
 11
-24.0
 21
-29.5
 31
0.0
  0
LINE
  5
7D94
330
7D80
100
AcDbEntity
  8
AM_11 想像線
 48
0.1
100
AcDbLine
 10
-21.10000000000036
 20
0.0
 30
0.0
 11
-21.10000000000036
 21
-24.19999999999982
 31
0.0
  0
ENDBLK
  5
7D82
330
7D80
100
AcDbEntity
  8
0
100
AcDbBlockEnd
  0
ENDSEC
  0
SECTION
  2
ENTITIES
  0
LINE
  5
4432
330
1F
100
AcDbEntity
  8
AM_0 外形線1
100
AcDbLine
 10
2224.598247341641
 20
1875.432788862379
 30
0.0
 11
2224.598247341641
 21
2186.432788862379
 31
0.0
  0
LINE
  5
447B
330
1F
100
AcDbEntity
  8
AM_7 中心線
100
AcDbLine
 10
2386.904637284117
 20
2186.432788862379
 30
0.0
 11
1604.162061341641
 21
2186.432788862379
 31
0.0
  0
INSERT
  5
4B05
102
{ACAD_REACTORS
330
56BE
330
576A
330
5786
330
579E
330
57D7
102
}
330
1F
100
AcDbEntity
  8
AM_0 外形線1
100
AcDbBlockReference
  2
ケースＡ-E CEMH710
 10
2003.698247341641
 20
2186.432788862379
 30
0.0
  0
LINE
  5
4B16
330
1F
100
AcDbEntity
  8
AM_0 外形線1
100
AcDbLine
 10
1976.698247341641
 20
2505.932788862379
 30
0.0
 11
2003.698247341641
 21
2505.932788862379
 31
0.0
  0
LINE
  5
4B22
330
1F
100
AcDbEntity
  8
AM_0 外形線1
100
AcDbLine
 10
1976.698247341641
 20
2531.932788862379
 30
0.0
 11
2003.698247341641
 21
2531.932788862379
 31
0.0
  0
INSERT
  5
4D36
102
{ACAD_REACTORS
330
5593
330
55AB
330
568E
330
57B6
330
57EF
330
5A84
330
7A65
330
7BAC
330
7BD9
102
}
330
1F
100
AcDbEntity
  8
AM_0 外形線1
100
AcDbBlockReference
  2
センタ-E CEMH710
 10
2017.698247341641
 20
2186.432788862379
 30
0.0
  0
INSERT
  5
4E7B
102
{ACAD_REACTORS
330
5544
330
5577
330
5593
330
576A
330
57D7
330
57EF
102
}
330
1F
100
AcDbEntity
  8
AM_0 外形線1
100
AcDbBlockReference
  2
リジット-E CEMH710
 10
2003.698247341641
 20
2186.432788862379
 30
0.0
  0
INSERT
  5
4FBE
330
1F
100
AcDbEntity
  8
AM_0 外形線1
100
AcDbBlockReference
  2
リーマボルト-E CEMH710 M24
 10
2033.698247341641
 20
2518.932788862379
 30
0.0
  0
INSERT
  5
50F3
102
{ACAD_REACTORS
330
56A6
330
579E
330
57B6
330
5A84
102
}
330
1F
100
AcDbEntity
  8
AM_0 外形線1
100
AcDbBlockReference
  2
ＧＣサイドカバ－-E CEMH710
 10
2224.598247341641
 20
2186.432788862379
 30
0.0
  0
DIMENSION
  5
552D
102
{ACAD_XDICTIONARY
360
553A
102
}
102
{ACAD_REACTORS
330
5544
102
}
330
1F
100
AcDbEntity
  8
AM_5 寸法線
100
AcDbDimension
  2
*D13
 10
1474.698247341641
 20
1903.93278886238
 30
0.0
 11
1442.19824734164
 21
2186.43278886238
 31
0.0
 70
    32
  1
%%c<>
 71
     5
 42
564.9999999999997
 73
     0
 74
     0
 75
     0
  3
SEISA$0
100
AcDbAlignedDimension
 13
1649.698247341641
 23
2468.932788862379
 33
0.0
 14
1649.698247341641
 24
1903.932788862379
 34
0.0
 50
90.0
100
AcDbRotatedDimension
1001
ACAD_DSTYLE_DIMINSPECT
1070
   396
1000
100%
1070
   395
1000

1070
   394
1070
    33
1070
   393
1070
     0
  0
DIMENSION
  5
5560
102
{ACAD_XDICTIONARY
360
556D
102
}
102
{ACAD_REACTORS
330
5577
102
}
330
1F
100
AcDbEntity
  8
AM_5 寸法線
100
AcDbDimension
  2
*D14
 10
1634.698247341641
 20
2238.39831286238
 30
0.0
 11
1812.198247341641
 21
2270.89831286238
 31
0.0
 70
    32
 71
     5
 42
355.0
 73
     0
 74
     0
 75
     0
  3
SEISA$0
100
AcDbAlignedDimension
 13
1989.698247341641
 23
2186.432788862379
 33
0.0
 14
1634.698247341641
 24
2186.432788862379
 34
0.0
100
AcDbRotatedDimension
  0
DIMENSION
  5
5578
102
{ACAD_XDICTIONARY
360
5587
102
}
102
{ACAD_REACTORS
330
5593
102
}
330
1F
100
AcDbEntity
  8
AM_5 寸法線
100
AcDbDimension
  2
*D15
 10
1989.698247341641
 20
2238.39831286238
 30
0.0
 11
1956.979685640817
 21
2270.916191656684
 31
0.0
 70
   160
 71
     5
 42
28.00000000000023
 73
     0
 74
     0
 75
     0
  3
SEISA$0
100
AcDbAlignedDimension
 13
2017.698247341641
 23
2186.432788862379
 33
0.0
 14
1989.698247341641
 24
2186.432788862379
 34
0.0
100
AcDbRotatedDimension
1001
ACAD
1000
DSTYLE
1002
{
1070
   279
1070
     2
1002
}
  0
DIMENSION
  5
5594
102
{ACAD_XDICTIONARY
360
55A1
102
}
102
{ACAD_REACTORS
330
55AB
102
}
330
1F
100
AcDbEntity
  8
AM_5 寸法線
100
AcDbDimension
  2
*D16
 10
2372.698247341641
 20
2238.39831286238
 30
0.0
 11
2293.085276563842
 21
2229.672128175043
 31
0.0
 70
   160
 71
     5
 42
354.9999999999995
 73
     0
 74
     0
 75
     0
  3
SEISA$0
100
AcDbAlignedDimension
 13
2017.698247341641
 23
2186.432788862379
 33
0.0
 14
2372.698247341641
 24
2186.432788862379
 34
0.0
100
AcDbRotatedDimension
1001
ACAD
1000
DSTYLE
1002
{
1070
   279
1070
     1
1002
}
  0
DIMENSION
  5
5677
102
{ACAD_XDICTIONARY
360
5684
102
}
102
{ACAD_REACTORS
330
568E
102
}
330
1F
100
AcDbEntity
  8
AM_5 寸法線
100
AcDbDimension
  2
*D17
 10
2532.698247341641
 20
1931.432788862379
 30
0.0
 11
2500.198247341641
 21
2186.43278886238
 31
0.0
 70
    32
  1
%%c<>
 71
     5
 42
510.0
 73
     0
 74
     0
 75
     0
  3
SEISA$0
100
AcDbAlignedDimension
 13
2273.698247341641
 23
2441.432788862381
 33
0.0
 14
2273.698247341641
 24
1931.432788862379
 34
0.0
 50
90.0
100
AcDbRotatedDimension
1001
ACAD_DSTYLE_DIMINSPECT
1070
   396
1000
100%
1070
   395
1000

1070
   394
1070
    33
1070
   393
1070
     0
1001
ACAD
1000
DSTYLE
1002
{
1070
   279
1070
     0
1002
}
  0
DIMENSION
  5
568F
102
{ACAD_XDICTIONARY
360
569C
102
}
102
{ACAD_REACTORS
330
56A6
102
}
330
1F
100
AcDbEntity
  8
AM_5 寸法線
100
AcDbDimension
  2
*D18
 10
2612.698247341642
 20
1875.432788862379
 30
0.0
 11
2612.698247341641
 21
2186.43278886238
 31
0.0
 70
   160
  1
%%c<>
 71
     5
 42
622.0
 73
     0
 74
     0
 75
     0
  3
SEISA$0
100
AcDbAlignedDimension
 13
2245.698247341641
 23
2497.432788862381
 33
0.0
 14
2245.698247341641
 24
1875.432788862379
 34
0.0
 50
90.0
100
AcDbRotatedDimension
1001
ACAD_DSTYLE_DIMINSPECT
1070
   396
1000
100%
1070
   395
1000

1070
   394
1070
    33
1070
   393
1070
     0
1001
ACAD
1000
DSTYLE
1002
{
1070
   279
1070
     0
1002
}
  0
DIMENSION
  5
56A7
102
{ACAD_XDICTIONARY
360
56B4
102
}
102
{ACAD_REACTORS
330
56BE
102
}
330
1F
100
AcDbEntity
  8
AM_5 寸法線
100
AcDbDimension
  2
*D19
 10
2692.698247341642
 20
1831.432788862379
 30
0.0
 11
2692.698247341641
 21
2186.43278886238
 31
0.0
 70
   160
  1
%%c<>
 71
     5
 42
710.0
 73
     0
 74
     0
 75
     0
  3
SEISA$0
100
AcDbAlignedDimension
 13
2032.698247341641
 23
2541.43278886238
 33
0.0
 14
2032.698247341641
 24
1831.432788862379
 34
0.0
 50
90.0
100
AcDbRotatedDimension
1001
ACAD_DSTYLE_DIMINSPECT
1070
   396
1000
100%
1070
   395
1000

1070
   394
1070
    33
1070
   393
1070
     0
1001
ACAD
1000
DSTYLE
1002
{
1070
   279
1070
     0
1002
}
  0
DIMENSION
  5
574F
102
{ACAD_XDICTIONARY
360
575E
102
}
102
{ACAD_REACTORS
330
576A
102
}
330
1F
100
AcDbEntity
  8
AM_5 寸法線
100
AcDbDimension
  2
*D20
 10
1973.698247341641
 20
1735.432788862379
 30
0.0
 11
1883.198247341641
 21
1767.932788862379
 31
0.0
 70
    32
 71
     5
 42
30.0
 73
     0
 74
     0
 75
     0
  3
SEISA$0
100
AcDbAlignedDimension
 13
2003.698247341641
 23
1832.432788862379
 33
0.0
 14
1973.698247341641
 24
1833.432788862379
 34
0.0
100
AcDbRotatedDimension
1001
ACAD_DSTYLE_DIMINSPECT
1070
   396
1000
100%
1070
   395
1000

1070
   394
1070
    33
1070
   393
1070
     0
1001
ACAD
1000
DSTYLE
1002
{
1070
   173
1070
     1
1070
   342
1005
0
1070
   343
1005
2CA9
1070
   344
1005
69
1002
}
  0
DIMENSION
  5
576B
102
{ACAD_XDICTIONARY
360
577A
102
}
102
{ACAD_REACTORS
330
5786
102
}
330
1F
100
AcDbEntity
  8
AM_5 寸法線
100
AcDbDimension
  2
*D21
 10
2033.698247341641
 20
1735.432788862379
 30
0.0
 11
2124.198247341641
 21
1767.932788862379
 31
0.0
 70
    32
 71
     5
 42
30.0
 73
     0
 74
     0
 75
     0
  3
SEISA$0
100
AcDbAlignedDimension
 13
2003.698247341641
 23
1832.432788862379
 33
0.0
 14
2033.698247341641
 24
1832.432788862379
 34
0.0
100
AcDbRotatedDimension
1001
ACAD_DSTYLE_DIMINSPECT
1070
   396
1000
100%
1070
   395
1000

1070
   394
1070
    33
1070
   393
1070
     0
1001
ACAD
1000
DSTYLE
1002
{
1070
   173
1070
     1
1070
   342
1005
0
1070
   343
1005
2CA9
1070
   344
1005
69
1002
}
  0
DIMENSION
  5
5787
102
{ACAD_XDICTIONARY
360
5794
102
}
102
{ACAD_REACTORS
330
579E
102
}
330
1F
100
AcDbEntity
  8
AM_5 寸法線
100
AcDbDimension
  2
*D22
 10
2245.698247341641
 20
1655.432788862379
 30
0.0
 11
2124.698247341641
 21
1687.932788862379
 31
0.0
 70
    32
 71
     5
 42
242.0
 73
     0
 74
     0
 75
     0
  3
SEISA$0
100
AcDbAlignedDimension
 13
2003.698247341641
 23
1832.432788862379
 33
0.0
 14
2245.698247341641
 24
1875.432788862379
 34
0.0
100
AcDbRotatedDimension
  0
DIMENSION
  5
579F
102
{ACAD_XDICTIONARY
360
57AC
102
}
102
{ACAD_REACTORS
330
57B6
102
}
330
1F
100
AcDbEntity
  8
AM_5 寸法線
100
AcDbDimension
  2
*D23
 10
2245.698247341641
 20
1655.432788862379
 30
0.0
 11
2309.198247341641
 21
1687.932788862379
 31
0.0
 70
    32
 71
     5
 42
127.0
 73
     0
 74
     0
 75
     0
  3
SEISA$0
100
AcDbAlignedDimension
 13
2372.698247341641
 23
1947.932788862379
 33
0.0
 14
2245.698247341641
 24
1875.432788862379
 34
0.0
100
AcDbRotatedDimension
  0
DIMENSION
  5
57C0
102
{ACAD_XDICTIONARY
360
57CD
102
}
102
{ACAD_REACTORS
330
57D7
102
}
330
1F
100
AcDbEntity
  8
AM_5 寸法線
100
AcDbDimension
  2
*D24
 10
1634.698247341641
 20
1655.432788862379
 30
0.0
 11
1819.198247341641
 21
1687.932788862379
 31
0.0
 70
    32
 71
     5
 42
369.0
 73
     0
 74
     0
 75
     0
  3
SEISA$0
100
AcDbAlignedDimension
 13
2003.698247341641
 23
1832.432788862379
 33
0.0
 14
1634.698247341641
 24
1918.932788862379
 34
0.0
100
AcDbRotatedDimension
  0
DIMENSION
  5
57D8
102
{ACAD_XDICTIONARY
360
57E5
102
}
102
{ACAD_REACTORS
330
57EF
102
}
330
1F
100
AcDbEntity
  8
AM_5 寸法線
100
AcDbDimension
  2
*D25
 10
1634.698247341641
 20
1575.432788862379
 30
0.0
 11
2003.698247341641
 21
1607.932788862379
 31
0.0
 70
    32
 71
     5
 42
738.0
 73
     0
 74
     0
 75
     0
  3
SEISA$0
100
AcDbAlignedDimension
 13
2372.698247341641
 23
1947.932788862379
 33
0.0
 14
1634.698247341641
 24
1918.932788862379
 34
0.0
100
AcDbRotatedDimension
  0
DIMENSION
  5
5A69
102
{ACAD_XDICTIONARY
360
5A78
102
}
102
{ACAD_REACTORS
330
5A84
102
}
330
1F
100
AcDbEntity
  8
AM_5 寸法線
100
AcDbDimension
  2
*D26
 10
2213.198247341641
 20
2370.21617727786
 30
0.0
 11
2319.698247341641
 21
2370.21617727786
 31
0.0
 70
   160
 71
     5
 42
8.5
 73
     0
 74
     0
 75
     0
  3
SEISA$0
100
AcDbAlignedDimension
 13
2221.698247341641
 23
2441.432788862381
 33
0.0
 14
2213.198247341641
 24
2441.932788862379
 34
0.0
100
AcDbRotatedDimension
  0
MTEXT
  5
7A13
330
1F
100
AcDbEntity
  8
AM_6 文字
100
AcDbMText
 10
2455.620469345701
 20
1744.245883999221
 30
0.0
 40
35.0
 41
904.8075921615533
 46
109.5580157211914
 71
     1
 72
     5
  1
{\W0.6;TYPE:CEM710/CEMH710\PSHAFT DIA:MAX/MIN \P RIGID SIDE φ400/φ250\P COUPLING CENTER SIDE φ360/φ250}
  7
SEISA
 73
     1
 44
1.0
  0
DIMENSION
  5
7A57
102
{ACAD_XDICTIONARY
360
7A64
102
}
102
{ACAD_REACTORS
330
7A65
102
}
330
1F
100
AcDbEntity
  8
AM_5 寸法線
100
AcDbDimension
  2
*D27
 10
2462.698247341641
 20
2568.804425295172
 30
0.0
 11
2417.698247341641
 21
2601.304425295172
 31
0.0
 70
    32
 71
     5
 42
90.0
 73
     0
 74
     0
 75
     0
  3
SEISA$0
100
AcDbAlignedDimension
 13
2372.698247341641
 23
2424.932788862379
 33
0.0
 14
2462.698247341641
 24
2497.432788862381
 34
0.0
100
AcDbRotatedDimension
1001
ACAD_DSTYLE_DIMINSPECT
1070
   396
1000
100%
1070
   395
1000

1070
   394
1070
    33
1070
   393
1070
     0
  0
ARC
  5
7B72
330
1F
100
AcDbEntity
  8
AM_7 中心線
100
AcDbCircle
 10
2162.698247341641
 20
2186.432788862379
 30
0.0
 40
271.8249999999998
100
AcDbArc
 50
77.7144411139529
 51
77.76396175194
  0
DIMENSION
  5
7B9D
102
{ACAD_XDICTIONARY
360
7BAB
102
}
102
{ACAD_REACTORS
330
7BAC
102
}
330
1F
100
AcDbEntity
  8
AM_5 寸法線
100
AcDbDimension
  2
*D28
 10
2112.198247341641
 20
2370.216177277861
 30
0.0
 11
2098.064627530687
 21
2270.361959465954
 31
0.0
 70
   160
 71
     5
 42
94.50000000000001
 73
     0
 74
     0
 75
     0
  3
SEISA$0
100
AcDbAlignedDimension
 13
2017.698247341641
 23
2439.432788862379
 33
0.0
 14
2112.198247341641
 24
2441.932788862379
 34
0.0
 50
0.0000000000001132
100
AcDbRotatedDimension
1001
ACAD_DSTYLE_DIMINSPECT
1070
   396
1000
100%
1070
   395
1000

1070
   394
1070
    33
1070
   393
1070
     0
1001
ACAD
1000
DSTYLE
1002
{
1070
   279
1070
     1
1002
}
  0
DIMENSION
  5
7BCB
102
{ACAD_XDICTIONARY
360
7BD8
102
}
102
{ACAD_REACTORS
330
7BD9
102
}
330
1F
100
AcDbEntity
  8
AM_5 寸法線
100
AcDbDimension
  2
*D29
 10
2213.198247341641
 20
2370.21617727786
 30
0.0
 11
2159.595248995088
 21
2365.58846820127
 31
0.0
 70
   160
 71
     5
 42
101.0
 73
     0
 74
     0
 75
     0
  3
SEISA$0
100
AcDbAlignedDimension
 13
2112.198247341641
 23
2441.932788862379
 33
0.0
 14
2213.198247341641
 24
2441.932788862379
 34
0.0
 50
0.0000000000001132
100
AcDbRotatedDimension
1001
ACAD_DSTYLE_DIMINSPECT
1070
   396
1000
100%
1070
   395
1000

1070
   394
1070
    33
1070
   393
1070
     0
1001
ACAD
1000
DSTYLE
1002
{
1070
   279
1070
     1
1002
}
  0
INSERT
  5
7D95
330
1F
100
AcDbEntity
  8
AM_11 想像線
100
AcDbBlockReference
  2
GCｻｲﾄﾞｶﾊﾞｰ　CEM710
 10
2462.698247341641
 20
2497.432788862381
 30
0.0
  0
ENDSEC
  0
SECTION
  2
OBJECTS
  0
DICTIONARY
  5
C
330
0
100
AcDbDictionary
281
     1
  3
ACAD_COLOR
350
C5
  3
ACAD_GROUP
350
D
  3
ACAD_LAYOUT
350
1A
  3
ACAD_MATERIAL
350
C4
  3
ACAD_MLEADERSTYLE
350
2D5
  3
ACAD_MLINESTYLE
350
17
  3
ACAD_PLOTSETTINGS
350
19
  3
ACAD_PLOTSTYLENAME
350
E
  3
ACAD_SCALELIST
350
2B3
  3
ACAD_TABLESTYLE
350
121
  3
ACAD_VISUALSTYLE
350
27F
  3
ACDB_RECOMPOSE_DATA
350
2F7
  3
AcDbVariableDictionary
350
34
  3
AcmDictionary
350
49
  3
AMG
350
2B
  3
AMGSNAPSETTINGS
350
1DE
  0
DICTIONARY
  5
BF
330
2
100
AcDbDictionary
280
     1
281
     1
  3
ACAD_LAYERSTATES
360
6B74
  3
AMLAYER_GROUPCOLORS
360
C0
  0
DICTIONARY
  5
29F7
330
10
100
AcDbDictionary
280
     1
281
     1
  3
ADSK_XREC_LAYER_RECONCILED
360
29F8
  0
DICTIONARY
  5
29F9
330
81
100
AcDbDictionary
280
     1
281
     1
  3
ADSK_XREC_LAYER_RECONCILED
360
29FA
  0
DICTIONARY
  5
82
330
1F
100
AcDbDictionary
280
     1
281
     1
  3
ACAD_SORTENTS
360
A41
  0
DICTIONARY
  5
4A44
330
4A10
100
AcDbDictionary
280
     1
281
     1
  3
ACAD_SORTENTS
360
6E03
  0
DICTIONARY
  5
4B9F
330
4AC9
100
AcDbDictionary
280
     1
281
     1
  3
ACAD_SORTENTS
360
6FAE
  0
DICTIONARY
  5
4CAA
330
4C10
100
AcDbDictionary
280
     1
281
     1
  3
ACAD_SORTENTS
360
7AED
  0
DICTIONARY
  5
4DA3
330
4D07
100
AcDbDictionary
280
     1
281
     1
  3
ACAD_SORTENTS
360
7CEB
  0
DICTIONARY
  5
5025
330
4F8E
100
AcDbDictionary
280
     1
281
     1
  3
ACAD_SORTENTS
360
6D07
  0
DICTIONARY
  5
5190
330
50BA
100
AcDbDictionary
280
     1
281
     1
  3
ACAD_SORTENTS
360
71BD
  0
DICTIONARY
  5
553A
330
552D
100
AcDbDictionary
280
     1
281
     1
  3
ACAD_DIMASSOC
360
5544
  0
DICTIONARY
  5
556D
330
5560
100
AcDbDictionary
280
     1
281
     1
  3
ACAD_DIMASSOC
360
5577
  0
DICTIONARY
  5
5587
330
5578
100
AcDbDictionary
280
     1
281
     1
  3
ACAD_DIMASSOC
360
5593
  0
DICTIONARY
  5
55A1
330
5594
100
AcDbDictionary
280
     1
281
     1
  3
ACAD_DIMASSOC
360
55AB
  0
DICTIONARY
  5
5684
330
5677
100
AcDbDictionary
280
     1
281
     1
  3
ACAD_DIMASSOC
360
568E
  0
DICTIONARY
  5
569C
330
568F
100
AcDbDictionary
280
     1
281
     1
  3
ACAD_DIMASSOC
360
56A6
  0
DICTIONARY
  5
56B4
330
56A7
100
AcDbDictionary
280
     1
281
     1
  3
ACAD_DIMASSOC
360
56BE
  0
DICTIONARY
  5
575E
330
574F
100
AcDbDictionary
280
     1
281
     1
  3
ACAD_DIMASSOC
360
576A
  0
DICTIONARY
  5
577A
330
576B
100
AcDbDictionary
280
     1
281
     1
  3
ACAD_DIMASSOC
360
5786
  0
DICTIONARY
  5
5794
330
5787
100
AcDbDictionary
280
     1
281
     1
  3
ACAD_DIMASSOC
360
579E
  0
DICTIONARY
  5
57AC
330
579F
100
AcDbDictionary
280
     1
281
     1
  3
ACAD_DIMASSOC
360
57B6
  0
DICTIONARY
  5
57CD
330
57C0
100
AcDbDictionary
280
     1
281
     1
  3
ACAD_DIMASSOC
360
57D7
  0
DICTIONARY
  5
57E5
330
57D8
100
AcDbDictionary
280
     1
281
     1
  3
ACAD_DIMASSOC
360
57EF
  0
DICTIONARY
  5
5A78
330
5A69
100
AcDbDictionary
280
     1
281
     1
  3
ACAD_DIMASSOC
360
5A84
  0
DICTIONARY
  5
7A64
330
7A57
100
AcDbDictionary
280
     1
281
     1
  3
ACAD_DIMASSOC
360
7A65
  0
DICTIONARY
  5
7BAB
330
7B9D
100
AcDbDictionary
280
     1
281
     1
  3
ACAD_DIMASSOC
360
7BAC
  0
DICTIONARY
  5
7BD8
330
7BCB
100
AcDbDictionary
280
     1
281
     1
  3
ACAD_DIMASSOC
360
7BD9
  0
DICTIONARY
  5
C5
102
{ACAD_REACTORS
330
C
102
}
330
C
100
AcDbDictionary
281
     1
  0
DICTIONARY
  5
D
102
{ACAD_REACTORS
330
C
102
}
330
C
100
AcDbDictionary
281
     1
  0
DICTIONARY
  5
1A
102
{ACAD_REACTORS
330
C
102
}
330
C
100
AcDbDictionary
281
     1
  3
Model
350
22
  3
レイアウト1
350
1E
  3
レイアウト2
350
26
  0
DICTIONARY
  5
C4
102
{ACAD_REACTORS
330
C
102
}
330
C
100
AcDbDictionary
281
     1
  3
ByBlock
350
27D
  3
ByLayer
350
27C
  3
Global
350
27E
  0
DICTIONARY
  5
2D5
102
{ACAD_REACTORS
330
C
102
}
330
C
100
AcDbDictionary
281
     1
  3
Standard
350
2D6
  0
DICTIONARY
  5
17
102
{ACAD_REACTORS
330
C
102
}
330
C
100
AcDbDictionary
281
     1
  3
Standard
350
18
  0
DICTIONARY
  5
19
102
{ACAD_REACTORS
330
C
102
}
330
C
100
AcDbDictionary
281
     1
  3
SEISA基本
350
1C7E
  0
ACDBDICTIONARYWDFLT
  5
E
102
{ACAD_REACTORS
330
C
102
}
330
C
100
AcDbDictionary
281
     1
  3
Normal
350
F
100
AcDbDictionaryWithDefault
340
F
  0
DICTIONARY
  5
2B3
102
{ACAD_REACTORS
330
C
102
}
330
C
100
AcDbDictionary
281
     1
  3
*A1
350
6B73
  3
*A2
350
7A0A
  3
*A3
350
7A0B
  3
A0
350
2B4
  3
A1
350
2B5
  3
A2
350
2B6
  3
A3
350
2B7
  3
A4
350
2B8
  3
A5
350
2B9
  3
A6
350
2BA
  3
A7
350
2BB
  3
A8
350
2BC
  3
A9
350
2BD
  3
B0
350
2BE
  3
B1
350
2BF
  3
B2
350
2C0
  3
B3
350
2C1
  3
B4
350
2C2
  3
B5
350
2C3
  3
B6
350
2C4
  3
B7
350
2C5
  3
B8
350
2C6
  3
B9
350
2C7
  3
C0
350
2C8
  3
C1
350
2C9
  3
C2
350
2CA
  3
C3
350
2CB
  3
C4
350
2CC
  3
C5
350
2CD
  3
C6
350
2CE
  3
C7
350
2CF
  3
C8
350
2D0
  3
C9
350
2D1
  3
D0
350
2D2
  3
D1
350
2D3
  3
D2
350
2D4
  0
DICTIONARY
  5
121
102
{ACAD_REACTORS
330
C
102
}
330
C
100
AcDbDictionary
281
     1
  3
Standard
350
122
  0
DICTIONARY
  5
27F
102
{ACAD_REACTORS
330
C
102
}
330
C
100
AcDbDictionary
281
     1
  3
2dWireframe
350
285
  3
3D Hidden
350
287
  3
3dWireframe
350
286
  3
Basic
350
284
  3
Brighten
350
28B
  3
ColorChange
350
28F
  3
Conceptual
350
288
  3
Dim
350
28A
  3
Facepattern
350
28E
  3
Flat
350
280
  3
FlatWithEdges
350
281
  3
Gouraud
350
282
  3
GouraudWithEdges
350
283
  3
Linepattern
350
28D
  3
Realistic
350
289
  3
Thicken
350
28C
  0
XRECORD
  5
2F7
102
{ACAD_REACTORS
330
C
102
}
330
C
100
AcDbXrecord
280
     1
 90
        1
330
122
  0
DICTIONARY
  5
34
102
{ACAD_REACTORS
330
C
102
}
330
C
100
AcDbDictionary
281
     1
  3
CANNOSCALE
350
2FA
  3
CMLEADERSTYLE
350
2F8
  3
CTABLESTYLE
350
140
  3
DIMASSOC
350
AC
  3
INDEXCTL
350
35
  3
LAYEREVAL
350
6706
  3
LAYERNOTIFY
350
6707
  3
LIGHTINGUNITS
350
2FB
  3
MSLTSCALE
350
2F9
  0
DICTIONARY
  5
49
102
{ACAD_REACTORS
330
C
102
}
330
C
100
AcDbDictionary
281
     1
  3
AcmBOM
350
161B
  3
AcmStdDictionary
350
4A
  3
AMDTSECTSYM_ARROWCOLOR
350
12B
  0
DICTIONARY
  5
2B
102
{ACAD_REACTORS
330
C
102
}
330
C
100
AcDbDictionary
281
     1
  0
DICTIONARY
  5
1DE
102
{ACAD_REACTORS
330
C
102
}
330
C
100
AcDbDictionary
281
     1
  0
DICTIONARY
  5
6B74
102
{ACAD_REACTORS
330
BF
102
}
330
BF
100
AcDbDictionary
281
     1
  0
DICTIONARY
  5
C0
102
{ACAD_REACTORS
330
BF
102
}
330
BF
100
AcDbDictionary
280
     1
281
     1
  0
XRECORD
  5
29F8
102
{ACAD_REACTORS
330
29F7
102
}
330
29F7
100
AcDbXrecord
280
     1
290
     1
  0
XRECORD
  5
29FA
102
{ACAD_REACTORS
330
29F9
102
}
330
29F9
100
AcDbXrecord
280
     1
290
     1
  0
SORTENTSTABLE
  5
A41
102
{ACAD_REACTORS
330
82
102
}
330
82
100
AcDbSortentsTable
330
1F
331
576B
  5
57C0
331
50F3
  5
53B5
331
4D36
  5
533D
331
4E7B
  5
5373
331
4FBE
  5
5398
331
5578
  5
568F
331
5787
  5
57D8
331
4B22
  5
50F3
331
5594
  5
56A7
331
56A7
  5
5787
331
5560
  5
5677
331
552D
  5
5594
331
5A69
  5
5B00
331
568F
  5
576B
331
57D8
  5
5971
331
7A13
  5
7A13
331
4432
  5
4457
331
447B
  5
449A
331
5677
  5
574F
331
57C0
  5
5814
331
4B16
  5
4FBE
331
574F
  5
579F
331
4B05
  5
4E7B
331
579F
  5
57F8
  0
SORTENTSTABLE
  5
6E03
102
{ACAD_REACTORS
330
4A44
102
}
330
4A44
100
AcDbSortentsTable
330
4A10
331
4A1D
  5
4A42
331
4A1B
  5
4A1C
331
4A43
  5
4A1B
331
4A1C
  5
4A1D
331
4A42
  5
4A43
  0
SORTENTSTABLE
  5
6FAE
102
{ACAD_REACTORS
330
4B9F
102
}
330
4B9F
100
AcDbSortentsTable
330
4AC9
331
4AF7
  5
4AF9
331
4AE2
  5
4AE3
331
4AFB
  5
4AFE
331
4ADD
  5
4ADE
331
4AF2
  5
4AF4
331
4AED
  5
4AEF
331
4AE8
  5
4AEA
331
4B03
  5
4B9C
331
4AE3
  5
4AE4
331
4AFC
  5
4AFF
331
4ADE
  5
4ADF
331
4AF3
  5
4AF5
331
4AEE
  5
4AF0
331
4B04
  5
4B9D
331
4AE9
  5
4AEB
331
4AE4
  5
4AE5
331
4ADF
  5
4AE0
331
4AF4
  5
4AF6
331
4B9B
  5
4ADC
331
4AF8
  5
4AFA
331
4AEF
  5
4AF1
331
4AEA
  5
4AEC
331
4B00
  5
4B03
331
4AE5
  5
4AE6
331
4AFE
  5
4B01
331
4AE0
  5
4AE1
331
4AF5
  5
4AF7
331
4AF9
  5
4AFB
331
4AF0
  5
4AF2
331
4B9C
  5
4AE9
331
4AEB
  5
4AED
331
4AE6
  5
4AE8
331
4B01
  5
4B04
331
4AFF
  5
4B02
331
4AE1
  5
4AE2
331
4AF6
  5
4AF8
331
4AFA
  5
4AFC
331
4B9D
  5
4B00
331
4ADC
  5
4ADD
331
4AF1
  5
4AF3
331
4AEC
  5
4AEE
331
4B02
  5
4B9B
  0
SORTENTSTABLE
  5
7AED
102
{ACAD_REACTORS
330
4CAA
102
}
330
4CAA
100
AcDbSortentsTable
330
4C10
  0
SORTENTSTABLE
  5
7CEB
102
{ACAD_REACTORS
330
4DA3
102
}
330
4DA3
100
AcDbSortentsTable
330
4D07
331
4D2C
  5
4D2E
331
4D0E
  5
4D10
331
4D13
  5
4D15
331
4D31
  5
7B9B
331
7B9A
  5
4D0B
331
4D18
  5
4D1A
331
4D1D
  5
4D20
331
4D22
  5
4D24
331
4D27
  5
4D29
331
4D28
  5
4D2A
331
4D0A
  5
4D0C
331
4D2D
  5
4D2F
331
4D0F
  5
4D11
331
4D14
  5
4D16
331
7B9B
  5
4D0A
331
4D19
  5
4D1B
331
4D23
  5
4D25
331
4D0B
  5
4D0D
331
4D29
  5
4D2B
331
4D2E
  5
4D31
331
4D10
  5
4D12
331
4D15
  5
4D17
331
4D1A
  5
4D1D
331
4D1F
  5
4D21
331
4D24
  5
4D26
331
4D2A
  5
4D2C
331
4D0C
  5
4D0E
331
4D2F
  5
7B9A
331
4D11
  5
4D13
331
4D16
  5
4D18
331
4D1B
  5
4D1F
331
4D20
  5
4D22
331
4D25
  5
4D27
331
4D0D
  5
4D0F
331
4D2B
  5
4D2D
331
4D12
  5
4D14
331
4D17
  5
4D19
331
4D21
  5
4D23
331
4D26
  5
4D28
  0
SORTENTSTABLE
  5
6D07
102
{ACAD_REACTORS
330
5025
102
}
330
5025
100
AcDbSortentsTable
330
4F8E
331
4FAC
  5
4FAD
331
4F98
  5
4F99
331
4FB5
  5
4FB6
331
4FA1
  5
4FA2
331
4F91
  5
4F92
331
65EE
  5
4F91
331
4FAE
  5
4FAF
331
4F9A
  5
4F9B
331
4FB7
  5
4FB8
331
4FA3
  5
4FA4
331
4F93
  5
4F94
331
4FB9
  5
4FBA
331
4FB0
  5
4FB1
331
4F9C
  5
4F9D
331
4FA5
  5
4FA6
331
5022
  5
5023
331
4F95
  5
4F96
331
4FBB
  5
4FBC
331
4FA9
  5
4FAA
331
4F9E
  5
4F9F
331
4FB2
  5
4FB3
331
4FA7
  5
4FA8
331
5024
  5
65EE
331
4F97
  5
4F98
331
4FBD
  5
5021
331
4FAB
  5
4FAC
331
4FA0
  5
4FA1
331
4FB4
  5
4FB5
331
4F99
  5
4F9A
331
4FAD
  5
4FAE
331
4FA2
  5
4FA3
331
4FB6
  5
4FB7
331
4F92
  5
4F93
331
4FB8
  5
4FB9
331
4FAF
  5
4FB0
331
4F9B
  5
4F9C
331
4FA4
  5
4FA5
331
5021
  5
5022
331
4FA8
  5
4FA9
331
4FBA
  5
4FBB
331
4F94
  5
4F95
331
4FB1
  5
4FB2
331
4F9D
  5
4F9E
331
4FA6
  5
4FA7
331
5023
  5
5024
331
4FAA
  5
4FAB
331
4FBC
  5
4FBD
331
4F96
  5
4F97
331
4FB3
  5
4FB4
331
4F9F
  5
4FA0
  0
SORTENTSTABLE
  5
71BD
102
{ACAD_REACTORS
330
5190
102
}
330
5190
100
AcDbSortentsTable
330
50BA
  0
DIMASSOC
  5
5544
102
{ACAD_REACTORS
330
553A
102
}
330
553A
100
AcDbDimAssoc
330
552D
 90
        3
 70
     0
 71
     0
  1
AcDbOsnapPointRef
 72
    13
331
4E7B
331
4C1E
 73
     2
 91
        0
 40
0.0
 10
0.0
 20
0.0
 30
2.000000000000000E+50
 75
     0
  1
AcDbOsnapPointRef
 72
     8
331
4E7B
331
4C15
 73
     2
 91
        0
 40
1.0
 10
0.0
 20
0.0
 30
0.0
 75
     1
  1
AcDbOsnapPointRef
 72
    13
331
4E7B
331
4C1E
 73
     2
 91
        0
 40
0.0
 10
0.0
 20
0.0
 30
2.000000000000000E+50
 75
     0
  0
DIMASSOC
  5
5577
102
{ACAD_REACTORS
330
556D
102
}
330
556D
100
AcDbDimAssoc
330
5560
 90
        3
 70
     0
 71
     0
  1
AcDbOsnapPointRef
 72
     1
331
4E7B
331
4C1F
 73
     2
 91
        0
 40
1.0
 10
0.0
 20
0.0
 30
2.000000000000000E+50
 75
     0
  1
AcDbOsnapPointRef
 72
     2
331
4E7B
331
4C33
 73
     2
 91
        0
 40
0.5
 10
0.0
 20
0.0
 30
0.0
 75
     0
  0
DIMASSOC
  5
5593
102
{ACAD_REACTORS
330
5587
102
}
330
5587
100
AcDbDimAssoc
330
5578
 90
        3
 70
     0
 71
     0
  1
AcDbOsnapPointRef
 72
     1
331
4D36
331
4D12
 73
     2
 91
        0
 40
1.0
 10
0.0
 20
0.0
 30
2.000000000000000E+50
 75
     0
  1
AcDbOsnapPointRef
 72
     8
331
4E7B
331
4C1F
 73
     2
 91
        0
 40
1.0
 10
0.0
 20
0.0
 30
0.0
 75
     1
  1
AcDbOsnapPointRef
 72
     1
331
4D36
331
4D12
 73
     2
 91
        0
 40
1.0
 10
0.0
 20
0.0
 30
2.000000000000000E+50
 75
     0
  0
DIMASSOC
  5
55AB
102
{ACAD_REACTORS
330
55A1
102
}
330
55A1
100
AcDbDimAssoc
330
5594
 90
        3
 70
     0
 71
     0
  1
AcDbOsnapPointRef
 72
     1
331
4D36
331
4D12
 73
     2
 91
        0
 40
1.0
 10
0.0
 20
0.0
 30
2.000000000000000E+50
 75
     0
  1
AcDbOsnapPointRef
 72
     8
331
4D36
331
4D0C
 73
     2
 91
        0
 40
0.5
 10
0.0
 20
0.0
 30
0.0
 75
     1
  1
AcDbOsnapPointRef
 72
     1
331
4D36
331
4D12
 73
     2
 91
        0
 40
1.0
 10
0.0
 20
0.0
 30
2.000000000000000E+50
 75
     0
  0
DIMASSOC
  5
568E
102
{ACAD_REACTORS
330
5684
102
}
330
5684
100
AcDbDimAssoc
330
5677
 90
        3
 70
     0
 71
     0
  1
AcDbOsnapPointRef
 72
    13
331
4D36
331
4D11
 73
     2
 91
        0
 40
0.0
 10
0.0
 20
0.0
 30
2.000000000000000E+50
 75
     0
  1
AcDbOsnapPointRef
 72
    13
331
4D36
331
4D0B
 73
     2
 91
        0
 40
0.0
 10
0.0
 20
0.0
 30
2.000000000000000E+50
 75
     0
  0
DIMASSOC
  5
56A6
102
{ACAD_REACTORS
330
569C
102
}
330
569C
100
AcDbDimAssoc
330
568F
 90
        3
 70
     0
 71
     0
  1
AcDbOsnapPointRef
 72
    13
331
50F3
331
50C3
 73
     2
 91
        0
 40
0.0
 10
0.0
 20
0.0
 30
2.000000000000000E+50
 75
     0
  1
AcDbOsnapPointRef
 72
     1
331
50F3
331
50BF
 73
     2
 91
        0
 40
1.0
 10
0.0
 20
0.0
 30
2.000000000000000E+50
 75
     0
  0
DIMASSOC
  5
56BE
102
{ACAD_REACTORS
330
56B4
102
}
330
56B4
100
AcDbDimAssoc
330
56A7
 90
        3
 70
     0
 71
     0
  1
AcDbOsnapPointRef
 72
     1
331
4B05
331
4AE8
 73
     2
 91
        0
 40
1.0
 10
0.0
 20
0.0
 30
2.000000000000000E+50
 75
     0
  1
AcDbOsnapPointRef
 72
     1
331
4B05
331
4AD3
 73
     2
 91
        0
 40
1.0
 10
0.0
 20
0.0
 30
2.000000000000000E+50
 75
     0
  0
DIMASSOC
  5
576A
102
{ACAD_REACTORS
330
575E
102
}
330
575E
100
AcDbDimAssoc
330
574F
 90
        3
 70
     0
 71
     0
  1
AcDbOsnapPointRef
 72
     1
331
4B05
331
4ACF
 73
     2
 91
        0
 40
1.0
 10
0.0
 20
0.0
 30
2.000000000000000E+50
 75
     0
  1
AcDbOsnapPointRef
 72
     1
331
4E7B
331
4C19
 73
     2
 91
        0
 40
0.9999999999999998
 10
0.0
 20
0.0
 30
2.000000000000000E+50
 75
     0
  0
DIMASSOC
  5
5786
102
{ACAD_REACTORS
330
577A
102
}
330
577A
100
AcDbDimAssoc
330
576B
 90
        3
 70
     0
 71
     0
  1
AcDbOsnapPointRef
 72
     1
331
4B05
331
4ACF
 73
     2
 91
        0
 40
1.0
 10
0.0
 20
0.0
 30
2.000000000000000E+50
 75
     0
  1
AcDbOsnapPointRef
 72
    13
331
4B05
331
4AD0
 73
     2
 91
        0
 40
0.0
 10
0.0
 20
0.0
 30
2.000000000000000E+50
 75
     0
  0
DIMASSOC
  5
579E
102
{ACAD_REACTORS
330
5794
102
}
330
5794
100
AcDbDimAssoc
330
5787
 90
        3
 70
     0
 71
     0
  1
AcDbOsnapPointRef
 72
     1
331
4B05
331
4ACF
 73
     2
 91
        0
 40
1.0
 10
0.0
 20
0.0
 30
2.000000000000000E+50
 75
     0
  1
AcDbOsnapPointRef
 72
     1
331
50F3
331
50BF
 73
     2
 91
        0
 40
1.0
 10
0.0
 20
0.0
 30
2.000000000000000E+50
 75
     0
  0
DIMASSOC
  5
57B6
102
{ACAD_REACTORS
330
57AC
102
}
330
57AC
100
AcDbDimAssoc
330
579F
 90
        3
 70
     0
 71
     0
  1
AcDbOsnapPointRef
 72
    13
331
4D36
331
4D0C
 73
     2
 91
        0
 40
0.0
 10
0.0
 20
0.0
 30
2.000000000000000E+50
 75
     0
  1
AcDbOsnapPointRef
 72
     1
331
50F3
331
50BF
 73
     2
 91
        0
 40
1.0
 10
0.0
 20
0.0
 30
2.000000000000000E+50
 75
     0
  0
DIMASSOC
  5
57D7
102
{ACAD_REACTORS
330
57CD
102
}
330
57CD
100
AcDbDimAssoc
330
57C0
 90
        3
 70
     0
 71
     0
  1
AcDbOsnapPointRef
 72
     1
331
4B05
331
4ACF
 73
     2
 91
        0
 40
1.0
 10
0.0
 20
0.0
 30
2.000000000000000E+50
 75
     0
  1
AcDbOsnapPointRef
 72
    13
331
4E7B
331
4C33
 73
     2
 91
        0
 40
0.0
 10
0.0
 20
0.0
 30
2.000000000000000E+50
 75
     0
  0
DIMASSOC
  5
57EF
102
{ACAD_REACTORS
330
57E5
102
}
330
57E5
100
AcDbDimAssoc
330
57D8
 90
        3
 70
     0
 71
     0
  1
AcDbOsnapPointRef
 72
    13
331
4D36
331
4D0C
 73
     2
 91
        0
 40
0.0
 10
0.0
 20
0.0
 30
2.000000000000000E+50
 75
     0
  1
AcDbOsnapPointRef
 72
    13
331
4E7B
331
4C33
 73
     2
 91
        0
 40
0.0
 10
0.0
 20
0.0
 30
2.000000000000000E+50
 75
     0
  0
DIMASSOC
  5
5A84
102
{ACAD_REACTORS
330
5A78
102
}
330
5A78
100
AcDbDimAssoc
330
5A69
 90
        3
 70
     0
 71
     0
  1
AcDbOsnapPointRef
 72
     1
331
50F3
331
50CE
 73
     2
 91
        0
 40
1.0
 10
0.0
 20
0.0
 30
2.000000000000000E+50
 75
     0
  1
AcDbOsnapPointRef
 72
    13
331
4D36
331
4D24
 73
     2
 91
        0
 40
3.141592653589792
 10
0.0
 20
0.0
 30
2.000000000000000E+50
 75
     0
  0
DIMASSOC
  5
7A65
102
{ACAD_REACTORS
330
7A64
102
}
330
7A64
100
AcDbDimAssoc
330
7A57
 90
        1
 70
     0
 71
     0
  1
AcDbOsnapPointRef
 72
     1
331
4D36
331
4D0C
 73
     0
 91
        0
 40
0.0
 10
0.0
 20
0.0
 30
2.000000000000000E+50
 75
     0
  0
DIMASSOC
  5
7BAC
102
{ACAD_REACTORS
330
7BAB
102
}
330
7BAB
100
AcDbDimAssoc
330
7B9D
 90
        3
 70
     0
 71
     0
  1
AcDbOsnapPointRef
 72
    13
331
4D36
331
4D12
 73
     0
 91
        0
 40
0.0
 10
0.0
 20
0.0
 30
2.000000000000000E+50
 75
     0
  1
AcDbOsnapPointRef
 72
     1
331
4D36
331
4D20
 73
     0
 91
        0
 40
0.0
 10
0.0
 20
0.0
 30
2.000000000000000E+50
 75
     0
  0
DIMASSOC
  5
7BD9
102
{ACAD_REACTORS
330
7BD8
102
}
330
7BD8
100
AcDbDimAssoc
330
7BCB
 90
        1
 70
     0
 71
     0
  1
AcDbOsnapPointRef
 72
     1
331
4D36
331
4D21
 73
     0
 91
        0
 40
0.0
 10
0.0
 20
0.0
 30
2.000000000000000E+50
 75
     0
  0
LAYOUT
  5
22
102
{ACAD_REACTORS
330
1A
102
}
330
1A
100
AcDbPlotSettings
  1

  2
KONICA MINOLTA 501 PCL
  4
A4
  6

 40
5.027082920074462
 41
5.027085781097412
 42
5.027069091796875
 43
5.027069091796875
 44
209.9733276367186
 45
296.9259948730469
 46
2.027476926217119
 47
0.0
 48
0.0
 49
0.0
140
0.0
141
0.0
142
1.0
143
5.733538176624558
 70
 11956
 72
     1
 73
     1
 74
     1
  7
SEISA.ctb
 75
     0
147
0.1744123731619973
 76
     0
 77
     2
 78
   300
148
-1424.523939132839
149
-1495.87647719407
100
AcDbLayout
  1
Model
 70
     1
 71
     0
 10
0.0
 20
0.0
 11
12.0
 21
9.0
 12
0.0
 22
0.0
 32
0.0
 14
0.0
 24
0.0
 34
0.0
 15
0.0
 25
0.0
 35
0.0
146
0.0
 13
0.0
 23
0.0
 33
0.0
 16
1.0
 26
0.0
 36
0.0
 17
0.0
 27
1.0
 37
0.0
 76
     0
330
1F
331
27A
1001
ACAD_PSEXT
1000
KONICA MINOLTA 501 PCL
1000
KONICA MINOLTA 501/421/361PCL
1000
IP_192.168.20.231_(1)
1000

1070
     0
  0
LAYOUT
  5
1E
102
{ACAD_REACTORS
330
1A
102
}
330
1A
100
AcDbPlotSettings
  1

  2
none_device
  4
Letter_(8.50_x_11.00_Inches)
  6

 40
6.349999904632567
 41
6.349999904632567
 42
6.350006103515625
 43
6.350006103515625
 44
215.8999938964844
 45
279.3999938964844
 46
0.0
 47
0.0
 48
0.0
 49
0.0
140
0.0
141
0.0
142
1.0
143
1.0
 70
 15024
 72
     1
 73
     1
 74
     5
  7
SEISA.ctb
 75
    16
147
1.0
 76
     0
 77
     2
 78
   300
148
0.0
149
0.0
100
AcDbLayout
  1
レイアウト1
 70
     1
 71
     1
 10
0.0
 20
0.0
 11
420.0
 21
297.0
 12
0.0
 22
0.0
 32
0.0
 14
1.000000000000000E+20
 24
1.000000000000000E+20
 34
1.000000000000000E+20
 15
-1.000000000000000E+20
 25
-1.000000000000000E+20
 35
-1.000000000000000E+20
146
0.0
 13
0.0
 23
0.0
 33
0.0
 16
1.0
 26
0.0
 36
0.0
 17
0.0
 27
1.0
 37
0.0
 76
     0
330
1B
  0
LAYOUT
  5
26
102
{ACAD_REACTORS
330
1A
102
}
330
1A
100
AcDbPlotSettings
  1

  2
none_device
  4
Letter_(8.50_x_11.00_Inches)
  6

 40
6.349999904632567
 41
6.349999904632567
 42
6.350006103515625
 43
6.350006103515625
 44
215.8999938964844
 45
279.3999938964844
 46
0.0
 47
0.0
 48
0.0
 49
0.0
140
0.0
141
0.0
142
1.0
143
1.0
 70
 15024
 72
     1
 73
     1
 74
     5
  7
SEISA.ctb
 75
    16
147
1.0
 76
     0
 77
     2
 78
   300
148
0.0
149
0.0
100
AcDbLayout
  1
レイアウト2
 70
     1
 71
     2
 10
0.0
 20
0.0
 11
12.0
 21
9.0
 12
0.0
 22
0.0
 32
0.0
 14
0.0
 24
0.0
 34
0.0
 15
0.0
 25
0.0
 35
0.0
146
0.0
 13
0.0
 23
0.0
 33
0.0
 16
1.0
 26
0.0
 36
0.0
 17
0.0
 27
1.0
 37
0.0
 76
     0
330
23
  0
MATERIAL
  5
27D
102
{ACAD_REACTORS
330
C4
102
}
330
C4
100
AcDbMaterial
  1
ByBlock
 73
     1
 78
     1
172
     1
176
     1
270
     1
274
     1
 94
       63
  0
MATERIAL
  5
27C
102
{ACAD_REACTORS
330
C4
102
}
330
C4
100
AcDbMaterial
  1
ByLayer
 73
     1
 78
     1
172
     1
176
     1
270
     1
274
     1
 94
       63
  0
MATERIAL
  5
27E
102
{ACAD_REACTORS
330
C4
102
}
330
C4
100
AcDbMaterial
  1
Global
 73
     1
 78
     1
172
     1
176
     1
270
     1
274
     1
 94
       63
  0
MLEADERSTYLE
  5
2D6
102
{ACAD_REACTORS
330
2D5
102
}
330
2D5
100
AcDbMLeaderStyle
170
     2
171
     1
172
     0
 90
        2
 40
0.0
 41
0.0
173
     1
 91
-1056964608
340
14
 92
       -2
290
     1
 42
2.0
291
     1
 43
0.36
  3
Standard
 44
4.0
300

342
11
174
     1
178
     6
175
     1
176
     0
 93
-1056964608
 45
4.0
292
     0
297
     0
 46
4.0
 94
-1056964608
 47
1.0
 49
1.0
140
1.0
293
     1
141
0.0
294
     1
177
     0
142
1.0
295
     0
296
     0
143
0.125
1001
ACAD_MLEADERVER
1070
     2
  0
MLINESTYLE
  5
18
102
{ACAD_REACTORS
330
17
102
}
330
17
100
AcDbMlineStyle
  2
STANDARD
 70
     0
  3

 62
   256
 51
90.0
 52
90.0
 71
     2
 49
0.5
 62
   256
  6
BYLAYER
 49
-0.5
 62
   256
  6
BYLAYER
  0
PLOTSETTINGS
  5
1C7E
102
{ACAD_REACTORS
330
19
102
}
330
19
100
AcDbPlotSettings
  1
SEISA基本
  2
none_device
  4
Letter_(8.50_x_11.00_Inches)
  6

 40
6.349999904632567
 41
6.349999904632567
 42
6.350006103515625
 43
6.350006103515625
 44
215.8999938964844
 45
279.3999938964844
 46
7.302498226506357
 47
0.0
 48
0.0
 49
0.0
140
0.0
141
0.0
142
1.0
143
1.574803221122935
 70
 11956
 72
     1
 73
     1
 74
     2
  7
SEISA.ctb
 75
     0
147
0.6349999711627054
 76
     0
 77
     2
 78
   300
148
0.0
149
0.0
1001
ACAD_PSEXT
1000
なし
1000
なし
1000
適切ではありません
1000
新しいプロッタ環境設定名を選択しない限り、レイアウトは印刷されません。
1070
     0
  0
ACDBPLACEHOLDER
  5
F
102
{ACAD_REACTORS
330
E
102
}
330
E
  0
SCALE
  5
6B73
102
{ACAD_REACTORS
330
2B3
102
}
330
2B3
100
AcDbScale
 70
     0
300
1:3
140
1.0
141
3.0
290
     0
  0
SCALE
  5
7A0A
102
{ACAD_REACTORS
330
2B3
102
}
330
2B3
100
AcDbScale
 70
     0
300
1:2.5
140
1.0
141
2.5
290
     0
  0
SCALE
  5
7A0B
102
{ACAD_REACTORS
330
2B3
102
}
330
2B3
100
AcDbScale
 70
     0
300
1:1.5
140
1.0
141
1.5
290
     0
  0
SCALE
  5
2B4
102
{ACAD_REACTORS
330
2B3
102
}
330
2B3
100
AcDbScale
 70
     0
300
1:1
140
1.0
141
1.0
290
     1
  0
SCALE
  5
2B5
102
{ACAD_REACTORS
330
2B3
102
}
330
2B3
100
AcDbScale
 70
     0
300
1:2
140
1.0
141
2.0
290
     0
  0
SCALE
  5
2B6
102
{ACAD_REACTORS
330
2B3
102
}
330
2B3
100
AcDbScale
 70
     0
300
1:4
140
1.0
141
4.0
290
     0
  0
SCALE
  5
2B7
102
{ACAD_REACTORS
330
2B3
102
}
330
2B3
100
AcDbScale
 70
     0
300
1:5
140
1.0
141
5.0
290
     0
  0
SCALE
  5
2B8
102
{ACAD_REACTORS
330
2B3
102
}
330
2B3
100
AcDbScale
 70
     0
300
1:8
140
1.0
141
8.0
290
     0
  0
SCALE
  5
2B9
102
{ACAD_REACTORS
330
2B3
102
}
330
2B3
100
AcDbScale
 70
     0
300
1:10
140
1.0
141
10.0
290
     0
  0
SCALE
  5
2BA
102
{ACAD_REACTORS
330
2B3
102
}
330
2B3
100
AcDbScale
 70
     0
300
1:16
140
1.0
141
16.0
290
     0
  0
SCALE
  5
2BB
102
{ACAD_REACTORS
330
2B3
102
}
330
2B3
100
AcDbScale
 70
     0
300
1:20
140
1.0
141
20.0
290
     0
  0
SCALE
  5
2BC
102
{ACAD_REACTORS
330
2B3
102
}
330
2B3
100
AcDbScale
 70
     0
300
1:30
140
1.0
141
30.0
290
     0
  0
SCALE
  5
2BD
102
{ACAD_REACTORS
330
2B3
102
}
330
2B3
100
AcDbScale
 70
     0
300
1:40
140
1.0
141
40.0
290
     0
  0
SCALE
  5
2BE
102
{ACAD_REACTORS
330
2B3
102
}
330
2B3
100
AcDbScale
 70
     0
300
1:50
140
1.0
141
50.0
290
     0
  0
SCALE
  5
2BF
102
{ACAD_REACTORS
330
2B3
102
}
330
2B3
100
AcDbScale
 70
     0
300
1:100
140
1.0
141
100.0
290
     0
  0
SCALE
  5
2C0
102
{ACAD_REACTORS
330
2B3
102
}
330
2B3
100
AcDbScale
 70
     0
300
2:1
140
2.0
141
1.0
290
     0
  0
SCALE
  5
2C1
102
{ACAD_REACTORS
330
2B3
102
}
330
2B3
100
AcDbScale
 70
     0
300
4:1
140
4.0
141
1.0
290
     0
  0
SCALE
  5
2C2
102
{ACAD_REACTORS
330
2B3
102
}
330
2B3
100
AcDbScale
 70
     0
300
8:1
140
8.0
141
1.0
290
     0
  0
SCALE
  5
2C3
102
{ACAD_REACTORS
330
2B3
102
}
330
2B3
100
AcDbScale
 70
     0
300
10:1
140
10.0
141
1.0
290
     0
  0
SCALE
  5
2C4
102
{ACAD_REACTORS
330
2B3
102
}
330
2B3
100
AcDbScale
 70
     0
300
100:1
140
100.0
141
1.0
290
     0
  0
SCALE
  5
2C5
102
{ACAD_REACTORS
330
2B3
102
}
330
2B3
100
AcDbScale
 70
     0
300
1/128" = 1'-0"
140
0.0078125
141
12.0
290
     0
  0
SCALE
  5
2C6
102
{ACAD_REACTORS
330
2B3
102
}
330
2B3
100
AcDbScale
 70
     0
300
1/64" = 1'-0"
140
0.015625
141
12.0
290
     0
  0
SCALE
  5
2C7
102
{ACAD_REACTORS
330
2B3
102
}
330
2B3
100
AcDbScale
 70
     0
300
1/32" = 1'-0"
140
0.03125
141
12.0
290
     0
  0
SCALE
  5
2C8
102
{ACAD_REACTORS
330
2B3
102
}
330
2B3
100
AcDbScale
 70
     0
300
1/16" = 1'-0"
140
0.0625
141
12.0
290
     0
  0
SCALE
  5
2C9
102
{ACAD_REACTORS
330
2B3
102
}
330
2B3
100
AcDbScale
 70
     0
300
3/32" = 1'-0"
140
0.09375
141
12.0
290
     0
  0
SCALE
  5
2CA
102
{ACAD_REACTORS
330
2B3
102
}
330
2B3
100
AcDbScale
 70
     0
300
1/8" = 1'-0"
140
0.125
141
12.0
290
     0
  0
SCALE
  5
2CB
102
{ACAD_REACTORS
330
2B3
102
}
330
2B3
100
AcDbScale
 70
     0
300
3/16" = 1'-0"
140
0.1875
141
12.0
290
     0
  0
SCALE
  5
2CC
102
{ACAD_REACTORS
330
2B3
102
}
330
2B3
100
AcDbScale
 70
     0
300
1/4" = 1'-0"
140
0.25
141
12.0
290
     0
  0
SCALE
  5
2CD
102
{ACAD_REACTORS
330
2B3
102
}
330
2B3
100
AcDbScale
 70
     0
300
3/8" = 1'-0"
140
0.375
141
12.0
290
     0
  0
SCALE
  5
2CE
102
{ACAD_REACTORS
330
2B3
102
}
330
2B3
100
AcDbScale
 70
     0
300
1/2" = 1'-0"
140
0.5
141
12.0
290
     0
  0
SCALE
  5
2CF
102
{ACAD_REACTORS
330
2B3
102
}
330
2B3
100
AcDbScale
 70
     0
300
3/4" = 1'-0"
140
0.75
141
12.0
290
     0
  0
SCALE
  5
2D0
102
{ACAD_REACTORS
330
2B3
102
}
330
2B3
100
AcDbScale
 70
     0
300
1" = 1'-0"
140
1.0
141
12.0
290
     0
  0
SCALE
  5
2D1
102
{ACAD_REACTORS
330
2B3
102
}
330
2B3
100
AcDbScale
 70
     0
300
1-1/2" = 1'-0"
140
1.5
141
12.0
290
     0
  0
SCALE
  5
2D2
102
{ACAD_REACTORS
330
2B3
102
}
330
2B3
100
AcDbScale
 70
     0
300
3" = 1'-0"
140
3.0
141
12.0
290
     0
  0
SCALE
  5
2D3
102
{ACAD_REACTORS
330
2B3
102
}
330
2B3
100
AcDbScale
 70
     0
300
6" = 1'-0"
140
6.0
141
12.0
290
     0
  0
SCALE
  5
2D4
102
{ACAD_REACTORS
330
2B3
102
}
330
2B3
100
AcDbScale
 70
     0
300
1'-0" = 1'-0"
140
12.0
141
12.0
290
     0
  0
TABLESTYLE
  5
122
102
{ACAD_XDICTIONARY
360
2F5
102
}
102
{ACAD_REACTORS
330
121
102
}
330
121
100
AcDbTableStyle
  3
Standard
 70
     0
 71
     0
 40
1.5
 41
1.5
280
     0
281
     0
  7
STANDARD
140
4.5
170
     2
 62
     0
 63
     7
283
     0
 90
      512
 91
        0
  1

274
    -2
284
     1
 64
     0
275
    -2
285
     1
 65
     0
276
    -2
286
     1
 66
     0
277
    -2
287
     1
 67
     0
278
    -2
288
     1
 68
     0
279
    -2
289
     1
 69
     0
  7
STANDARD
140
6.0
170
     5
 62
     0
 63
     7
283
     0
 90
      512
 91
        0
  1

274
    -2
284
     1
 64
     0
275
    -2
285
     1
 65
     0
276
    -2
286
     1
 66
     0
277
    -2
287
     1
 67
     0
278
    -2
288
     1
 68
     0
279
    -2
289
     1
 69
     0
  7
STANDARD
140
4.5
170
     5
 62
     0
 63
     7
283
     0
 90
      512
 91
        0
  1

274
    -2
284
     1
 64
     0
275
    -2
285
     1
 65
     0
276
    -2
286
     1
 66
     0
277
    -2
287
     1
 67
     0
278
    -2
288
     1
 68
     0
279
    -2
289
     1
 69
     0
  0
VISUALSTYLE
  5
285
102
{ACAD_REACTORS
330
27F
102
}
330
27F
100
AcDbVisualStyle
  2
2dWireframe
 70
     4
 71
     0
 72
     2
 73
     0
 90
        0
 40
-0.6
 41
-30.0
 62
     5
 63
     7
421
 16777215
 74
     1
 91
        4
 64
     7
 65
   257
 75
     1
175
     1
 42
1.0
 92
        0
 66
   257
 43
1.0
 76
     1
 77
     6
 78
     2
 67
     7
 79
     5
170
     0
171
     0
290
     0
174
     0
 93
        1
 44
0.0
173
     0
291
     0
 45
0.0
  0
VISUALSTYLE
  5
287
102
{ACAD_REACTORS
330
27F
102
}
330
27F
100
AcDbVisualStyle
  2
3D Hidden
 70
     6
 71
     1
 72
     2
 73
     2
 90
        0
 40
-0.6
 41
-30.0
 62
     5
 63
     7
421
 16777215
 74
     2
 91
        2
 64
     7
 65
   257
 75
     2
175
     1
 42
40.0
 92
        0
 66
   257
 43
1.0
 76
     1
 77
     6
 78
     2
 67
     7
 79
     3
170
     0
171
     0
290
     0
174
     0
 93
        1
 44
0.0
173
     0
291
     0
 45
0.0
  0
VISUALSTYLE
  5
286
102
{ACAD_REACTORS
330
27F
102
}
330
27F
100
AcDbVisualStyle
  2
3dWireframe
 70
     5
 71
     0
 72
     2
 73
     0
 90
        0
 40
-0.6
 41
-30.0
 62
     5
 63
     7
421
 16777215
 74
     1
 91
        4
 64
     7
 65
   257
 75
     1
175
     1
 42
1.0
 92
        0
 66
   257
 43
1.0
 76
     1
 77
     6
 78
     2
 67
     7
 79
     5
170
     0
171
     0
290
     0
174
     0
 93
        1
 44
0.0
173
     0
291
     0
 45
0.0
  0
VISUALSTYLE
  5
284
102
{ACAD_REACTORS
330
27F
102
}
330
27F
100
AcDbVisualStyle
  2
Basic
 70
     7
 71
     1
 72
     0
 73
     1
 90
        0
 40
-0.6
 41
-30.0
 62
     5
 63
     7
421
 16777215
 74
     0
 91
        4
 64
     7
 65
   257
 75
     1
175
     1
 42
1.0
 92
        8
 66
     7
 43
1.0
 76
     1
 77
     6
 78
     2
 67
     7
 79
     5
170
     0
171
     0
290
     0
174
     0
 93
        1
 44
0.0
173
     0
291
     1
 45
0.0
  0
VISUALSTYLE
  5
28B
102
{ACAD_REACTORS
330
27F
102
}
330
27F
100
AcDbVisualStyle
  2
Brighten
 70
    12
 71
     2
 72
     2
 73
     0
 90
        0
 40
-0.6
 41
-30.0
 62
     5
 63
     7
421
 16777215
 74
     1
 91
        4
 64
     7
 65
   257
 75
     1
175
     1
 42
1.0
 92
        8
 66
     7
 43
1.0
 76
     1
 77
     6
 78
     2
 67
     7
 79
     5
170
     0
171
     0
290
     0
174
     0
 93
        1
 44
50.0
173
     0
291
     1
 45
0.0
  0
VISUALSTYLE
  5
28F
102
{ACAD_REACTORS
330
27F
102
}
330
27F
100
AcDbVisualStyle
  2
ColorChange
 70
    16
 71
     2
 72
     2
 73
     3
 90
        0
 40
-0.6
 41
-30.0
 62
     5
 63
     8
421
  8421504
 74
     1
 91
        4
 64
     7
 65
   257
 75
     1
175
     1
 42
1.0
 92
        8
 66
     8
424
  8421504
 43
1.0
 76
     1
 77
     6
 78
     2
 67
     7
 79
     5
170
     0
171
     0
290
     0
174
     0
 93
        1
 44
0.0
173
     0
291
     1
 45
0.0
  0
VISUALSTYLE
  5
288
102
{ACAD_REACTORS
330
27F
102
}
330
27F
100
AcDbVisualStyle
  2
Conceptual
 70
     9
 71
     3
 72
     2
 73
     0
 90
        0
 40
-0.6
 41
-30.0
 62
     5
 63
     7
421
 16777215
 74
     2
 91
        2
 64
     7
 65
   257
 75
     1
175
     1
 42
40.0
 92
        8
 66
     7
 43
1.0
 76
     1
 77
     6
 78
     2
 67
     7
 79
     3
170
     0
171
     0
290
     0
174
     0
 93
        1
 44
0.0
173
     0
291
     0
 45
0.0
  0
VISUALSTYLE
  5
28A
102
{ACAD_REACTORS
330
27F
102
}
330
27F
100
AcDbVisualStyle
  2
Dim
 70
    11
 71
     2
 72
     2
 73
     0
 90
        0
 40
-0.6
 41
-30.0
 62
     5
 63
     7
421
 16777215
 74
     1
 91
        4
 64
     7
 65
   257
 75
     1
175
     1
 42
1.0
 92
        8
 66
     7
 43
1.0
 76
     1
 77
     6
 78
     2
 67
     7
 79
     5
170
     0
171
     0
290
     0
174
     0
 93
        1
 44
-50.0
173
     0
291
     1
 45
0.0
  0
VISUALSTYLE
  5
28E
102
{ACAD_REACTORS
330
27F
102
}
330
27F
100
AcDbVisualStyle
  2
Facepattern
 70
    15
 71
     2
 72
     2
 73
     0
 90
        0
 40
-0.6
 41
-30.0
 62
     5
 63
     7
421
 16777215
 74
     1
 91
        4
 64
     7
 65
   257
 75
     1
175
     1
 42
1.0
 92
        8
 66
     7
 43
1.0
 76
     1
 77
     6
 78
     2
 67
     7
 79
     5
170
     0
171
     0
290
     0
174
     0
 93
        1
 44
0.0
173
     0
291
     1
 45
0.0
  0
VISUALSTYLE
  5
280
102
{ACAD_REACTORS
330
27F
102
}
330
27F
100
AcDbVisualStyle
  2
Flat
 70
     0
 71
     2
 72
     1
 73
     1
 90
        2
 40
-0.6
 41
30.0
 62
     5
 63
     7
421
 16777215
 74
     0
 91
        4
 64
     7
 65
   257
 75
     1
175
     1
 42
1.0
 92
        8
 66
     7
 43
1.0
 76
     1
 77
     6
 78
     2
 67
     7
 79
     5
170
     0
171
     0
290
     0
174
     0
 93
       13
 44
0.0
173
     0
291
     1
 45
0.0
  0
VISUALSTYLE
  5
281
102
{ACAD_REACTORS
330
27F
102
}
330
27F
100
AcDbVisualStyle
  2
FlatWithEdges
 70
     1
 71
     2
 72
     1
 73
     1
 90
        2
 40
-0.6
 41
30.0
 62
     5
 63
     7
421
 16777215
 74
     1
 91
        4
 64
     7
 65
   257
 75
     1
175
     1
 42
1.0
 92
        0
 66
   257
 43
1.0
 76
     1
 77
     6
 78
     2
 67
     7
 79
     5
170
     0
171
     0
290
     0
174
     0
 93
       13
 44
0.0
173
     0
291
     1
 45
0.0
  0
VISUALSTYLE
  5
282
102
{ACAD_REACTORS
330
27F
102
}
330
27F
100
AcDbVisualStyle
  2
Gouraud
 70
     2
 71
     2
 72
     2
 73
     1
 90
        2
 40
-0.6
 41
30.0
 62
     5
 63
     7
421
 16777215
 74
     0
 91
        4
 64
     7
 65
   257
 75
     1
175
     1
 42
1.0
 92
        0
 66
     7
 43
1.0
 76
     1
 77
     6
 78
     2
 67
     7
 79
     5
170
     0
171
     0
290
     0
174
     0
 93
       13
 44
0.0
173
     0
291
     1
 45
0.0
  0
VISUALSTYLE
  5
283
102
{ACAD_REACTORS
330
27F
102
}
330
27F
100
AcDbVisualStyle
  2
GouraudWithEdges
 70
     3
 71
     2
 72
     2
 73
     1
 90
        2
 40
-0.6
 41
30.0
 62
     5
 63
     7
421
 16777215
 74
     1
 91
        4
 64
     7
 65
   257
 75
     1
175
     1
 42
1.0
 92
        0
 66
   257
 43
1.0
 76
     1
 77
     6
 78
     2
 67
     7
 79
     5
170
     0
171
     0
290
     0
174
     0
 93
       13
 44
0.0
173
     0
291
     1
 45
0.0
  0
VISUALSTYLE
  5
28D
102
{ACAD_REACTORS
330
27F
102
}
330
27F
100
AcDbVisualStyle
  2
Linepattern
 70
    14
 71
     2
 72
     2
 73
     0
 90
        0
 40
-0.6
 41
-30.0
 62
     5
 63
     7
421
 16777215
 74
     1
 91
        4
 64
     7
 65
   257
 75
     7
175
     7
 42
1.0
 92
        8
 66
     7
 43
1.0
 76
     1
 77
     6
 78
     2
 67
     7
 79
     5
170
     0
171
     0
290
     0
174
     0
 93
        1
 44
0.0
173
     0
291
     1
 45
0.0
  0
VISUALSTYLE
  5
289
102
{ACAD_REACTORS
330
27F
102
}
330
27F
100
AcDbVisualStyle
  2
Realistic
 70
     8
 71
     2
 72
     2
 73
     0
 90
        0
 40
-0.6
 41
-30.0
 62
     5
 63
     7
421
 16777215
 74
     1
 91
        0
 64
     7
 65
   257
 75
     1
175
     1
 42
1.0
 92
        8
 66
     8
424
  7895160
 43
1.0
 76
     1
 77
     6
 78
     2
 67
     7
 79
     5
170
     0
171
     0
290
     0
174
     0
 93
       13
 44
0.0
173
     0
291
     0
 45
0.0
  0
VISUALSTYLE
  5
28C
102
{ACAD_REACTORS
330
27F
102
}
330
27F
100
AcDbVisualStyle
  2
Thicken
 70
    13
 71
     2
 72
     2
 73
     0
 90
        0
 40
-0.6
 41
-30.0
 62
     5
 63
     7
421
 16777215
 74
     1
 91
        4
 64
     7
 65
   257
 75
     1
175
     1
 42
1.0
 92
       12
 66
     7
 43
1.0
 76
     1
 77
     6
 78
     2
 67
     7
 79
     5
170
     0
171
     0
290
     0
174
     0
 93
        1
 44
0.0
173
     0
291
     1
 45
0.0
  0
DICTIONARYVAR
  5
2FA
102
{ACAD_REACTORS
330
34
102
}
330
34
100
DictionaryVariables
280
     0
  1
1:10
  0
DICTIONARYVAR
  5
2F8
102
{ACAD_REACTORS
330
34
102
}
330
34
100
DictionaryVariables
280
     0
  1
STANDARD
  0
DICTIONARYVAR
  5
140
102
{ACAD_REACTORS
330
34
102
}
330
34
100
DictionaryVariables
280
     0
  1
STANDARD
  0
DICTIONARYVAR
  5
AC
102
{ACAD_REACTORS
330
34
102
}
330
34
100
DictionaryVariables
280
     0
  1
1
  0
DICTIONARYVAR
  5
35
102
{ACAD_REACTORS
330
34
102
}
330
34
100
DictionaryVariables
280
     0
  1
1
  0
DICTIONARYVAR
  5
6706
102
{ACAD_REACTORS
330
34
102
}
330
34
100
DictionaryVariables
280
     0
  1
1
  0
DICTIONARYVAR
  5
6707
102
{ACAD_REACTORS
330
34
102
}
330
34
100
DictionaryVariables
280
     0
  1
15
  0
DICTIONARYVAR
  5
2FB
102
{ACAD_REACTORS
330
34
102
}
330
34
100
DictionaryVariables
280
     0
  1
0
  0
DICTIONARYVAR
  5
2F9
102
{ACAD_REACTORS
330
34
102
}
330
34
100
DictionaryVariables
280
     0
  1
0
  0
DICTIONARY
  5
161B
102
{ACAD_REACTORS
330
49
102
}
330
49
100
AcDbDictionary
281
     1
  0
DICTIONARY
  5
4A
102
{ACAD_REACTORS
330
49
102
}
330
49
100
AcDbDictionary
281
     1
  0
XRECORD
  5
12B
102
{ACAD_REACTORS
330
49
102
}
330
49
100
AcDbXrecord
280
     1
 90
-1023410169
  0
DICTIONARY
  5
2F5
330
122
100
AcDbDictionary
280
     1
281
     1
  3
ACAD_ROUNDTRIP_2008_TABLESTYLE_CELLSTYLEMAP
360
7E43
  0
CELLSTYLEMAP
  5
7E43
102
{ACAD_REACTORS
330
2F5
102
}
330
2F5
100
AcDbCellStyleMap
 90
        3
300
CELLSTYLE
  1
TABLEFORMAT_BEGIN
 90
        5
170
     1
 91
        0
 92
    32768
 62
   257
 93
        1
300
CONTENTFORMAT
  1
CONTENTFORMAT_BEGIN
 90
        0
 91
        0
 92
      512
 93
        0
300

 40
0.0
140
1.0
 94
        5
 62
     0
340
11
144
6.0
309
CONTENTFORMAT_END
171
     1
301
MARGIN
  1
CELLMARGIN_BEGIN
 40
1.5
 40
1.5
 40
1.5
 40
1.5
 40
0.18
 40
0.18
309
CELLMARGIN_END
 94
        6
 95
        1
302
GRIDFORMAT
  1
GRIDFORMAT_BEGIN
 90
        0
 91
        1
 62
     0
 92
       -2
340
0
 93
        0
 40
0.045
309
GRIDFORMAT_END
 95
        2
302
GRIDFORMAT
  1
GRIDFORMAT_BEGIN
 90
        0
 91
        1
 62
     0
 92
       -2
340
0
 93
        0
 40
0.045
309
GRIDFORMAT_END
 95
        4
302
GRIDFORMAT
  1
GRIDFORMAT_BEGIN
 90
        0
 91
        1
 62
     0
 92
       -2
340
0
 93
        0
 40
0.045
309
GRIDFORMAT_END
 95
        8
302
GRIDFORMAT
  1
GRIDFORMAT_BEGIN
 90
        0
 91
        1
 62
     0
 92
       -2
340
0
 93
        0
 40
0.045
309
GRIDFORMAT_END
 95
       16
302
GRIDFORMAT
  1
GRIDFORMAT_BEGIN
 90
        0
 91
        1
 62
     0
 92
       -2
340
0
 93
        0
 40
0.045
309
GRIDFORMAT_END
 95
       32
302
GRIDFORMAT
  1
GRIDFORMAT_BEGIN
 90
        0
 91
        1
 62
     0
 92
       -2
340
0
 93
        0
 40
0.045
309
GRIDFORMAT_END
309
TABLEFORMAT_END
  1
CELLSTYLE_BEGIN
 90
        1
 91
        1
300
_TITLE
309
CELLSTYLE_END
300
CELLSTYLE
  1
TABLEFORMAT_BEGIN
 90
        5
170
     1
 91
        0
 92
        0
 62
   257
 93
        1
300
CONTENTFORMAT
  1
CONTENTFORMAT_BEGIN
 90
        0
 91
        0
 92
      512
 93
        0
300

 40
0.0
140
1.0
 94
        5
 62
     0
340
11
144
4.5
309
CONTENTFORMAT_END
171
     1
301
MARGIN
  1
CELLMARGIN_BEGIN
 40
1.5
 40
1.5
 40
1.5
 40
1.5
 40
0.18
 40
0.18
309
CELLMARGIN_END
 94
        6
 95
        1
302
GRIDFORMAT
  1
GRIDFORMAT_BEGIN
 90
        0
 91
        1
 62
     0
 92
       -2
340
0
 93
        0
 40
0.045
309
GRIDFORMAT_END
 95
        2
302
GRIDFORMAT
  1
GRIDFORMAT_BEGIN
 90
        0
 91
        1
 62
     0
 92
       -2
340
0
 93
        0
 40
0.045
309
GRIDFORMAT_END
 95
        4
302
GRIDFORMAT
  1
GRIDFORMAT_BEGIN
 90
        0
 91
        1
 62
     0
 92
       -2
340
0
 93
        0
 40
0.045
309
GRIDFORMAT_END
 95
        8
302
GRIDFORMAT
  1
GRIDFORMAT_BEGIN
 90
        0
 91
        1
 62
     0
 92
       -2
340
0
 93
        0
 40
0.045
309
GRIDFORMAT_END
 95
       16
302
GRIDFORMAT
  1
GRIDFORMAT_BEGIN
 90
        0
 91
        1
 62
     0
 92
       -2
340
0
 93
        0
 40
0.045
309
GRIDFORMAT_END
 95
       32
302
GRIDFORMAT
  1
GRIDFORMAT_BEGIN
 90
        0
 91
        1
 62
     0
 92
       -2
340
0
 93
        0
 40
0.045
309
GRIDFORMAT_END
309
TABLEFORMAT_END
  1
CELLSTYLE_BEGIN
 90
        2
 91
        1
300
_HEADER
309
CELLSTYLE_END
300
CELLSTYLE
  1
TABLEFORMAT_BEGIN
 90
        5
170
     1
 91
        0
 92
        0
 62
   257
 93
        1
300
CONTENTFORMAT
  1
CONTENTFORMAT_BEGIN
 90
        0
 91
        0
 92
      512
 93
        0
300

 40
0.0
140
1.0
 94
        2
 62
     0
340
11
144
4.5
309
CONTENTFORMAT_END
171
     1
301
MARGIN
  1
CELLMARGIN_BEGIN
 40
1.5
 40
1.5
 40
1.5
 40
1.5
 40
0.18
 40
0.18
309
CELLMARGIN_END
 94
        6
 95
        1
302
GRIDFORMAT
  1
GRIDFORMAT_BEGIN
 90
        0
 91
        1
 62
     0
 92
       -2
340
0
 93
        0
 40
0.045
309
GRIDFORMAT_END
 95
        2
302
GRIDFORMAT
  1
GRIDFORMAT_BEGIN
 90
        0
 91
        1
 62
     0
 92
       -2
340
0
 93
        0
 40
0.045
309
GRIDFORMAT_END
 95
        4
302
GRIDFORMAT
  1
GRIDFORMAT_BEGIN
 90
        0
 91
        1
 62
     0
 92
       -2
340
0
 93
        0
 40
0.045
309
GRIDFORMAT_END
 95
        8
302
GRIDFORMAT
  1
GRIDFORMAT_BEGIN
 90
        0
 91
        1
 62
     0
 92
       -2
340
0
 93
        0
 40
0.045
309
GRIDFORMAT_END
 95
       16
302
GRIDFORMAT
  1
GRIDFORMAT_BEGIN
 90
        0
 91
        1
 62
     0
 92
       -2
340
0
 93
        0
 40
0.045
309
GRIDFORMAT_END
 95
       32
302
GRIDFORMAT
  1
GRIDFORMAT_BEGIN
 90
        0
 91
        1
 62
     0
 92
       -2
340
0
 93
        0
 40
0.045
309
GRIDFORMAT_END
309
TABLEFORMAT_END
  1
CELLSTYLE_BEGIN
 90
        3
 91
        2
300
_DATA
309
CELLSTYLE_END
  0
ENDSEC
  0
EOF
