  0
SECTION
  2
HEADER
  9
$ACADVER
  1
AC1021
  9
$ACADMAINTVER
 70
    26
  9
$DWGCODEPAGE
  3
ANSI_932
  9
$AUTHOR
  1
技術部_日野
  9
$LASTSAVEDBY
  1
Htm_Terada
  9
$INSBASE
 10
0.0
 20
0.0
 30
0.0
  9
$EXTMIN
 10
-666.3871028616836
 20
1450.088262352801
 30
0.0
  9
$EXTMAX
 10
874.8702144874224
 20
2452.75076305087
 30
0.0
  9
$LIMMIN
 10
-2100.697940451453
 20
0.6340418765466893
  9
$LIMMAX
 10
2099.302059548547
 20
2970.634041876547
  9
$ORTHOMODE
 70
     1
  9
$REGENMODE
 70
     1
  9
$FILLMODE
 70
     1
  9
$QTEXTMODE
 70
     0
  9
$MIRRTEXT
 70
     0
  9
$LTSCALE
 40
10.0
  9
$ATTMODE
 70
     1
  9
$TEXTSIZE
 40
25.0
  9
$TRACEWID
 40
0.05
  9
$TEXTSTYLE
  7
SEISA
  9
$CLAYER
  8
AM_4 細線
  9
$CELTYPE
  6
BYLAYER
  9
$CECOLOR
 62
   256
  9
$CELTSCALE
 40
1.0
  9
$DISPSILH
 70
     0
  9
$DIMSCALE
 40
1.0
  9
$DIMASZ
 40
2.5
  9
$DIMEXO
 40
0.625
  9
$DIMDLI
 40
10.0
  9
$DIMRND
 40
0.0
  9
$DIMDLE
 40
0.0
  9
$DIMEXE
 40
0.625
  9
$DIMTP
 40
0.1
  9
$DIMTM
 40
0.1
  9
$DIMTXT
 40
3.5
  9
$DIMCEN
 40
0.0
  9
$DIMTSZ
 40
0.0
  9
$DIMTOL
 70
     0
  9
$DIMLIM
 70
     0
  9
$DIMTIH
 70
     0
  9
$DIMTOH
 70
     0
  9
$DIMSE1
 70
     0
  9
$DIMSE2
 70
     0
  9
$DIMTAD
 70
     3
  9
$DIMZIN
 70
     8
  9
$DIMBLK
  1
Open30
  9
$DIMASO
 70
     1
  9
$DIMSHO
 70
     0
  9
$DIMPOST
  1

  9
$DIMAPOST
  1
"
  9
$DIMALT
 70
     0
  9
$DIMALTD
 70
     2
  9
$DIMALTF
 40
0.0393701
  9
$DIMLFAC
 40
1.0
  9
$DIMTOFL
 70
     1
  9
$DIMTVP
 40
0.0
  9
$DIMTIX
 70
     0
  9
$DIMSOXD
 70
     0
  9
$DIMSAH
 70
     0
  9
$DIMBLK1
  1

  9
$DIMBLK2
  1

  9
$DIMSTYLE
  2
SEISA
  9
$DIMCLRD
 70
     3
  9
$DIMCLRE
 70
     3
  9
$DIMCLRT
 70
     3
  9
$DIMTFAC
 40
0.71
  9
$DIMGAP
 40
1.5
  9
$DIMJUST
 70
     0
  9
$DIMSD1
 70
     0
  9
$DIMSD2
 70
     0
  9
$DIMTOLJ
 70
     0
  9
$DIMTZIN
 70
     0
  9
$DIMALTZ
 70
     0
  9
$DIMALTTZ
 70
     8
  9
$DIMUPT
 70
     0
  9
$DIMDEC
 70
     2
  9
$DIMTDEC
 70
     3
  9
$DIMALTU
 70
     2
  9
$DIMALTTD
 70
     2
  9
$DIMTXSTY
  7
SEISA
  9
$DIMAUNIT
 70
     0
  9
$DIMADEC
 70
     0
  9
$DIMALTRND
 40
0.0
  9
$DIMAZIN
 70
     2
  9
$DIMDSEP
 70
    46
  9
$DIMATFIT
 70
     3
  9
$DIMFRAC
 70
     0
  9
$DIMLDRBLK
  1
Open30
  9
$DIMLUNIT
 70
     2
  9
$DIMLWD
 70
    -1
  9
$DIMLWE
 70
    -1
  9
$DIMTMOVE
 70
     0
  9
$DIMFXL
 40
1.0
  9
$DIMFXLON
 70
     0
  9
$DIMJOGANG
 40
0.7853981633974483
  9
$DIMTFILL
 70
     0
  9
$DIMTFILLCLR
 70
     0
  9
$DIMARCSYM
 70
     1
  9
$DIMLTYPE
  6

  9
$DIMLTEX1
  6

  9
$DIMLTEX2
  6

  9
$LUNITS
 70
     2
  9
$LUPREC
 70
     2
  9
$SKETCHINC
 40
0.1
  9
$FILLETRAD
 40
2.5
  9
$AUNITS
 70
     0
  9
$AUPREC
 70
     3
  9
$MENU
  1
ACAD
  9
$ELEVATION
 40
0.0
  9
$PELEVATION
 40
0.0
  9
$THICKNESS
 40
0.0
  9
$LIMCHECK
 70
     0
  9
$CHAMFERA
 40
2.5
  9
$CHAMFERB
 40
2.5
  9
$CHAMFERC
 40
0.0
  9
$CHAMFERD
 40
0.0
  9
$SKPOLY
 70
     0
  9
$TDCREATE
 40
2450570.407364005
  9
$TDUCREATE
 40
2450570.032364005
  9
$TDUPDATE
 40
2456478.715075046
  9
$TDUUPDATE
 40
2456478.340075046
  9
$TDINDWG
 40
1.7514648958
  9
$TDUSRTIMER
 40
1.7514641667
  9
$USRTIMER
 70
     1
  9
$ANGBASE
 50
0.0
  9
$ANGDIR
 70
     0
  9
$PDMODE
 70
     0
  9
$PDSIZE
 40
0.0
  9
$PLINEWID
 40
0.0
  9
$SPLFRAME
 70
     0
  9
$SPLINETYPE
 70
     6
  9
$SPLINESEGS
 70
     8
  9
$HANDSEED
  5
D754
  9
$SURFTAB1
 70
     6
  9
$SURFTAB2
 70
     6
  9
$SURFTYPE
 70
     6
  9
$SURFU
 70
     6
  9
$SURFV
 70
     6
  9
$UCSBASE
  2

  9
$UCSNAME
  2

  9
$UCSORG
 10
0.0
 20
0.0
 30
0.0
  9
$UCSXDIR
 10
1.0
 20
0.0
 30
0.0
  9
$UCSYDIR
 10
0.0
 20
1.0
 30
0.0
  9
$UCSORTHOREF
  2

  9
$UCSORTHOVIEW
 70
     0
  9
$UCSORGTOP
 10
0.0
 20
0.0
 30
0.0
  9
$UCSORGBOTTOM
 10
0.0
 20
0.0
 30
0.0
  9
$UCSORGLEFT
 10
0.0
 20
0.0
 30
0.0
  9
$UCSORGRIGHT
 10
0.0
 20
0.0
 30
0.0
  9
$UCSORGFRONT
 10
0.0
 20
0.0
 30
0.0
  9
$UCSORGBACK
 10
0.0
 20
0.0
 30
0.0
  9
$PUCSBASE
  2

  9
$PUCSNAME
  2

  9
$PUCSORG
 10
0.0
 20
0.0
 30
0.0
  9
$PUCSXDIR
 10
1.0
 20
0.0
 30
0.0
  9
$PUCSYDIR
 10
0.0
 20
1.0
 30
0.0
  9
$PUCSORTHOREF
  2

  9
$PUCSORTHOVIEW
 70
     0
  9
$PUCSORGTOP
 10
0.0
 20
0.0
 30
0.0
  9
$PUCSORGBOTTOM
 10
0.0
 20
0.0
 30
0.0
  9
$PUCSORGLEFT
 10
0.0
 20
0.0
 30
0.0
  9
$PUCSORGRIGHT
 10
0.0
 20
0.0
 30
0.0
  9
$PUCSORGFRONT
 10
0.0
 20
0.0
 30
0.0
  9
$PUCSORGBACK
 10
0.0
 20
0.0
 30
0.0
  9
$USERI1
 70
     0
  9
$USERI2
 70
     0
  9
$USERI3
 70
     0
  9
$USERI4
 70
     0
  9
$USERI5
 70
     0
  9
$USERR1
 40
25.4
  9
$USERR2
 40
1.0
  9
$USERR3
 40
111111111111111.0
  9
$USERR4
 40
9.0
  9
$USERR5
 40
1122112.0
  9
$WORLDVIEW
 70
     1
  9
$SHADEDGE
 70
     3
  9
$SHADEDIF
 70
    70
  9
$TILEMODE
 70
     1
  9
$MAXACTVP
 70
    16
  9
$PINSBASE
 10
0.0
 20
0.0
 30
0.0
  9
$PLIMCHECK
 70
     0
  9
$PEXTMIN
 10
1.12308328358207
 20
0.7804166500962629
 30
0.0
  9
$PEXTMAX
 10
10.10774955223864
 20
7.023749850866361
 30
0.0
  9
$PLIMMIN
 10
-0.2312499519408218
 20
-0.2312499894870548
  9
$PLIMMAX
 10
11.4620827502153
 20
8.035416452903447
  9
$UNITMODE
 70
     0
  9
$VISRETAIN
 70
     0
  9
$PLINEGEN
 70
     0
  9
$PSLTSCALE
 70
     0
  9
$TREEDEPTH
 70
  3020
  9
$CMLSTYLE
  2
STANDARD
  9
$CMLJUST
 70
     0
  9
$CMLSCALE
 40
1.0
  9
$PROXYGRAPHICS
 70
     1
  9
$MEASUREMENT
 70
     1
  9
$CELWEIGHT
370
    -1
  9
$ENDCAPS
280
     0
  9
$JOINSTYLE
280
     0
  9
$LWDISPLAY
290
     0
  9
$INSUNITS
 70
     4
  9
$HYPERLINKBASE
  1

  9
$STYLESHEET
  1
SEISA.CTB
  9
$XEDIT
290
     1
  9
$CEPSNTYPE
380
     0
  9
$PSTYLEMODE
290
     1
  9
$FINGERPRINTGUID
  2
{6A3D63E2-4DC2-11D5-AB86-003005066AB5}
  9
$VERSIONGUID
  2
{8951B2F8-5FA3-4097-BE6B-371B70234D62}
  9
$EXTNAMES
290
     1
  9
$PSVPSCALE
 40
0.0
  9
$OLESTARTUP
290
     0
  9
$SORTENTS
280
    96
  9
$INDEXCTL
280
     0
  9
$HIDETEXT
280
     0
  9
$XCLIPFRAME
290
     0
  9
$HALOGAP
280
     0
  9
$OBSCOLOR
 70
   257
  9
$OBSLTYPE
280
     0
  9
$INTERSECTIONDISPLAY
280
     0
  9
$INTERSECTIONCOLOR
 70
   257
  9
$DIMASSOC
280
     2
  9
$PROJECTNAME
  1

  9
$CAMERADISPLAY
290
     0
  9
$LENSLENGTH
 40
50.0
  9
$CAMERAHEIGHT
 40
0.0
  9
$STEPSPERSEC
 40
2.0
  9
$STEPSIZE
 40
6.0
  9
$3DDWFPREC
 40
2.0
  9
$PSOLWIDTH
 40
0.25
  9
$PSOLHEIGHT
 40
4.0
  9
$LOFTANG1
 40
1.570796326794896
  9
$LOFTANG2
 40
1.570796326794896
  9
$LOFTMAG1
 40
0.0
  9
$LOFTMAG2
 40
0.0
  9
$LOFTPARAM
 70
     7
  9
$LOFTNORMALS
280
     1
  9
$LATITUDE
 40
37.795
  9
$LONGITUDE
 40
-122.394
  9
$NORTHDIRECTION
 40
0.0
  9
$TIMEZONE
 70
 -8000
  9
$LIGHTGLYPHDISPLAY
280
     1
  9
$TILEMODELIGHTSYNCH
280
     1
  9
$CMATERIAL
347
CDC5
  9
$SOLIDHIST
280
     1
  9
$SHOWHIST
280
     1
  9
$DWFFRAME
280
     2
  9
$DGNFRAME
280
     0
  9
$REALWORLDSCALE
290
     1
  9
$INTERFERECOLOR
 62
     1
  9
$INTERFEREOBJVS
345
CDE7
  9
$INTERFEREVPVS
346
CDE4
  9
$CSHADOW
280
     0
  9
$SHADOWPLANELOCATION
 40
0.0
  0
ENDSEC
  0
SECTION
  2
CLASSES
  0
CLASS
  1
ACDBDICTIONARYWDFLT
  2
AcDbDictionaryWithDefault
  3
ObjectDBX Classes
 90
        0
 91
        1
280
     0
281
     0
  0
CLASS
  1
DICTIONARYVAR
  2
AcDbDictionaryVar
  3
ObjectDBX Classes
 90
        0
 91
        8
280
     0
281
     0
  0
CLASS
  1
TABLESTYLE
  2
AcDbTableStyle
  3
ObjectDBX Classes
 90
     4095
 91
        1
280
     0
281
     0
  0
CLASS
  1
SORTENTSTABLE
  2
AcDbSortentsTable
  3
ObjectDBX Classes
 90
        0
 91
        5
280
     0
281
     0
  0
CLASS
  1
MATERIAL
  2
AcDbMaterial
  3
ObjectDBX Classes
 90
     1153
 91
        3
280
     0
281
     0
  0
CLASS
  1
VISUALSTYLE
  2
AcDbVisualStyle
  3
ObjectDBX Classes
 90
     4095
 91
       16
280
     0
281
     0
  0
CLASS
  1
SCALE
  2
AcDbScale
  3
ObjectDBX Classes
 90
     1153
 91
       36
280
     0
281
     0
  0
CLASS
  1
MLEADERSTYLE
  2
AcDbMLeaderStyle
  3
ACDB_MLEADERSTYLE_CLASS
 90
     4095
 91
        1
280
     0
281
     0
  0
CLASS
  1
ACME_DOCUMENT
  2
AcMeDbDoc
  3
AcMeServices
 90
     1024
 91
        1
280
     0
281
     0
  0
CLASS
  1
AMGSETTINGSOBJ
  2
AmgSettingsObj
  3
"AcadM|Product Description: AutoCAD Mechanical|Company: Autodesk, Inc."
 90
     1024
 91
        2
280
     0
281
     0
  0
CLASS
  1
ACMESCOPE
  2
AcMeScope
  3
AcMeServices
 90
     1024
 91
        1
280
     0
281
     0
  0
CLASS
  1
ACMECOMMANDHISTORY
  2
AcMeCommandHistory
  3
AcMeServices
 90
     1024
 91
        1
280
     0
281
     0
  0
CLASS
  1
ACIMSYSVARMAN
  2
AcImSysVarManager
  3
AcMeServices
 90
     1024
 91
        5
280
     0
281
     0
  0
CLASS
  1
ACIMINTSYSVAR
  2
AcImIntSysVar
  3
AcMeServices
 90
     1024
 91
       27
280
     0
281
     0
  0
CLASS
  1
ACMEDRAWINGMAN
  2
AcMeDrawingMan
  3
AcMeServices
 90
     1024
 91
        1
280
     0
281
     0
  0
CLASS
  1
ACMEVIEW
  2
AcMeView
  3
AcMeServices
 90
     1024
 91
        1
280
     0
281
     0
  0
CLASS
  1
ACDBENTITYCACHE
  2
AcMeEntityCache
  3
AcMeServices
 90
     1024
 91
        1
280
     0
281
     0
  0
CLASS
  1
GSMANAGER
  2
AcMeGSManager
  3
AcMeServices
 90
     1024
 91
        1
280
     0
281
     0
  0
CLASS
  1
AMDTINTERNALREACTOR
  2
AmdtInternalReactor
  3
AcMeServices
 90
     1024
 91
        2
280
     0
281
     0
  0
CLASS
  1
ACMESTATEMGR
  2
AcMeStateMgr
  3
AcMeServices
 90
     1024
 91
        1
280
     0
281
     0
  0
CLASS
  1
ACGREFMASTER
  2
AcGrefMaster
  3
AcAttribServices
 90
     1024
 91
        1
280
     0
281
     0
  0
CLASS
  1
AM_DRAWING_MGR
  2
AcDmDwgMgr
  3
AcMechDwgViewMgmt
 90
     1024
 91
        1
280
     0
281
     0
  0
CLASS
  1
AM_DWG_DOCUMENT
  2
AcDmDwgDocument
  3
AcMechDwgViewMgmt
 90
     1024
 91
        1
280
     0
281
     0
  0
CLASS
  1
AM_DWG_SHEET
  2
AcDmSheet
  3
AcMechDwgViewMgmt
 90
     1024
 91
        1
280
     0
281
     0
  0
CLASS
  1
AM_VIEWDIMPARMAP
  2
AcDmViewDimParMap
  3
AcMechDwgViewMgmt
 90
     1024
 91
        1
280
     0
281
     0
  0
CLASS
  1
ACIMREALSYSVAR
  2
AcImRealSysVar
  3
AcMeServices
 90
     1024
 91
        1
280
     0
281
     0
  0
CLASS
  1
AM_DWGMGR_NAME
  2
AcDmDwgMgrName
  3
AcMechDwgViewMgmt
 90
     1024
 91
        1
280
     0
281
     0
  0
CLASS
  1
ACME_DATABASE
  2
AcMeDbDatabase
  3
AcMeServices
 90
     1024
 91
        1
280
     0
281
     0
  0
CLASS
  1
ACRFINSADJUSTERMGR
  2
AcRfInsAdjusterMgr
  3
AcMeServices
 90
     1024
 91
        1
280
     0
281
     0
  0
CLASS
  1
ACGREFACADMASTER
  2
AcGrefacadMaster
  3
AcGrefServices
 90
     1024
 91
        1
280
     0
281
     0
  0
CLASS
  1
AMDTMENUSTATEMGR
  2
AmdtMenuStateMgr
  3
McadcomServices
 90
     1024
 91
        1
280
     0
281
     0
  0
CLASS
  1
AMDTMCOMMENUSTATE
  2
AmdtMcomMenuState
  3
McadcomServices
 90
     1024
 91
        1
280
     0
281
     0
  0
CLASS
  1
AMIMASTER
  2
AmiMaster
  3
AmiServices
 90
     1024
 91
        1
280
     0
281
     0
  0
CLASS
  1
MAPIAMMOUDLE
  2
MApiAmModule
  3
MApiAmServices
 90
     1024
 91
        1
280
     0
281
     0
  0
CLASS
  1
ACIMSTRSYSVAR
  2
AcImStrSysVar
  3
AcMeServices
 90
     1024
 91
        5
280
     0
281
     0
  0
CLASS
  1
AMDTADMENUSTATE
  2
AmdtAdMenuState
  3
DesignerServices
 90
     1024
 91
        1
280
     0
281
     0
  0
CLASS
  1
ADAPPL
  2
AcAdAppl
  3
DesignerServices
 90
     1024
 91
        1
280
     0
281
     0
  0
CLASS
  1
DEPMGR
  2
AcAdDepMgr
  3
DesignerServices
 90
     1024
 91
        1
280
     0
281
     0
  0
CLASS
  1
PARAMMGR
  2
AcAdParamMgr
  3
DesignerServices
 90
     1024
 91
        1
280
     0
281
     0
  0
CLASS
  1
PARAMSCOPE
  2
AcAdParamScope
  3
DesignerServices
 90
     1024
 91
        1
280
     0
281
     0
  0
CLASS
  1
NAMEDAPPL
  2
AcAdNamedAppl
  3
DesignerServices
 90
     1024
 91
        1
280
     0
281
     0
  0
CLASS
  1
AMDTDMMENUSTATE
  2
AmdtDmMenuState
  3
AcMechDwgViewMgmt
 90
     1024
 91
        1
280
     0
281
     0
  0
CLASS
  1
AMDTAMMENUSTATE
  2
AmdtAmMenuState
  3
DesignerAssemblies
 90
     1024
 91
        1
280
     0
281
     0
  0
CLASS
  1
ACAMPROJECT
  2
AcAmProject
  3
DesignerAssemblies
 90
     1024
 91
        1
280
     0
281
     0
  0
CLASS
  1
ACAMGRCOMPDEF
  2
AcAmGrCompDef
  3
DesignerAssemblies
 90
     1024
 91
        1
280
     0
281
     0
  0
CLASS
  1
ACCMCONTEXT
  2
AcCmContext
  3
DesignerAssemblies
 90
     1024
 91
        1
280
     0
281
     0
  0
CLASS
  1
ACAMCOMPDEF
  2
AcAmCompDef
  3
DesignerAssemblies
 90
     1024
 91
        1
280
     0
281
     0
  0
CLASS
  1
ACAMCOMPDEFMGR
  2
AcAmCompDefMgr
  3
DesignerAssemblies
 90
     1024
 91
        1
280
     0
281
     0
  0
CLASS
  1
AMCONTEXTMGR
  2
AcAmContextMgr
  3
DesignerAssemblies
 90
     1024
 91
        1
280
     0
281
     0
  0
CLASS
  1
ACAMCONTEXTMODELER
  2
AcAmContextModeler
  3
DesignerAssemblies
 90
     1024
 91
        1
280
     0
281
     0
  0
CLASS
  1
ACMDATADICTIONARY
  2
AcmDataDictionary
  3
"AcmSymBB|Product Description: AutoCAD Mechanical|Company: Autodesk, Inc."
 90
     1024
 91
        1
280
     0
281
     0
  0
CLASS
  1
CATALOGSTATE
  2
AcAmCatalogState
  3
DesignerAssemblies
 90
     1024
 91
        1
280
     0
281
     0
  0
CLASS
  1
ACAMGRCOMPDEFSET
  2
AcAmGrCompDefSet
  3
DesignerAssemblies
 90
     1024
 91
        1
280
     0
281
     0
  0
CLASS
  1
AMDTBROWSERDBTAB
  2
AmdtBrowserDbTab
  3
McadcomServices
 90
     1024
 91
        1
280
     0
281
     0
  0
CLASS
  1
CBROWSERAPPOBJECT
  2
CBrowserAppObject
  3
McadcomServices
 90
     1024
 91
        3
280
     0
281
     0
  0
CLASS
  1
DM_PLACEHOLDER
  2
AcDmSelsetPlaceholder
  3
AcMechDwgViewMgmt
 90
     1024
 91
        1
280
     0
281
     0
  0
CLASS
  1
ACMSTANDARDANSI
  2
AcmStandardANSI
  3
"Amdt_StdImp|Product Description: AutoCAD Mechanical|Company: Autodesk, Inc."
 90
     1024
 91
        0
280
     0
281
     0
  0
CLASS
  1
AMGOBJPROPCFG
  2
AmgObjPropCfg
  3
"AmgLay|Product Description: AutoCAD Mechanical|Company: Autodesk, Inc."
 90
     1025
 91
        1
280
     0
281
     0
  0
CLASS
  1
ACMSURFSTANDARDANSI
  2
AcmSurfTextStdANSI
  3
"Amdt_StdImp|Product Description: AutoCAD Mechanical|Company: Autodesk, Inc."
 90
     1024
 91
        0
280
     0
281
     0
  0
CLASS
  1
ACMFCFSTANDARDANSI
  2
AcmFCFStdANSI
  3
"Amdt_StdImp|Product Description: AutoCAD Mechanical|Company: Autodesk, Inc."
 90
     1024
 91
        0
280
     0
281
     0
  0
CLASS
  1
ACMWELDSTANDARDANSI
  2
AcmWeldingStdANSI
  3
"Amdt_StdImp|Product Description: AutoCAD Mechanical|Company: Autodesk, Inc."
 90
     1024
 91
        0
280
     0
281
     0
  0
CLASS
  1
ACMIDSTANDARDANSI
  2
AcmIdStdANSI
  3
"Amdt_StdImp|Product Description: AutoCAD Mechanical|Company: Autodesk, Inc."
 90
     1024
 91
        0
280
     0
281
     0
  0
CLASS
  1
ACMDATUMSTANDARDANSI
  2
AcmDatumStdANSI
  3
"Amdt_StdImp|Product Description: AutoCAD Mechanical|Company: Autodesk, Inc."
 90
     1024
 91
        0
280
     0
281
     0
  0
CLASS
  1
ACMBOMSTANDARDANSI
  2
AcmBOMStdANSI
  3
"Amdt_StdImp|Product Description: AutoCAD Mechanical|Company: Autodesk, Inc."
 90
     1024
 91
        0
280
     0
281
     0
  0
CLASS
  1
ACMDETAILSTANDARDANSI
  2
AmdtDetailSymStdANSI
  3
"Amdt_StdImp|Product Description: AutoCAD Mechanical|Company: Autodesk, Inc."
 90
     1024
 91
        0
280
     0
281
     0
  0
CLASS
  1
ACMSECTIONSTANDARDANSI
  2
AmdtSectionSymStdANSI
  3
"Amdt_StdImp|Product Description: AutoCAD Mechanical|Company: Autodesk, Inc."
 90
     1024
 91
        0
280
     0
281
     0
  0
CLASS
  1
ACMCENTERLINESTANDARDANSI
  2
AmdtCenterLineStdANSI
  3
"Amdt_StdImp|Product Description: AutoCAD Mechanical|Company: Autodesk, Inc."
 90
     1024
 91
        0
280
     0
281
     0
  0
CLASS
  1
ACMTHREADLINESTANDARDANSI
  2
AmdtThreadLineStdANSI
  3
"Amdt_StdImp|Product Description: AutoCAD Mechanical|Company: Autodesk, Inc."
 90
     1024
 91
        0
280
     0
281
     0
  0
CLASS
  1
ACMNOTESTANDARDANSI
  2
AmdtNoteStdANSI
  3
"Amdt_StdImp|Product Description: AutoCAD Mechanical|Company: Autodesk, Inc."
 90
     1024
 91
        0
280
     0
281
     0
  0
CLASS
  1
ACMTAPERSTANDARDANSI
  2
AcmTaperStdANSI
  3
"Amdt_StdImp|Product Description: AutoCAD Mechanical|Company: Autodesk, Inc."
 90
     1024
 91
        0
280
     0
281
     0
  0
CLASS
  1
ACMANOOTATIONVIEWSTANDARDANSI
  2
AmdtAnViewStdANSI
  3
"Amdt_StdImp|Product Description: AutoCAD Mechanical|Company: Autodesk, Inc."
 90
     1024
 91
        0
280
     0
281
     0
  0
CLASS
  1
AMDTNOTETEMPLATEDB
  2
AmdtNoteTemplateDB
  3
AcmSymBB|Product Description: AutoCAD Mechanical|Company: Autodesk, Inc.
 90
     1024
 91
        6
280
     0
281
     0
  0
CLASS
  1
ACAMGLAYSTD
  2
AcAmgLayStd
  3
"AmgLay|Product Description: AutoCAD Mechanical|Company: Autodesk, Inc."
 90
     1024
 91
        1
280
     0
281
     0
  0
CLASS
  1
ACAMGDIMSTD
  2
AcAmgDimStd
  3
"AmgDim|Product Description: AutoCAD Mechanical|Company: Autodesk, Inc."
 90
     1024
 91
        1
280
     0
281
     0
  0
CLASS
  1
ACAMGHOLECHARTSTDANSI
  2
AcAmgHoleChartStdANSI
  3
AmgDim|Product Description: AutoCAD Mechanical|Company: Autodesk, Inc.
 90
     1024
 91
        0
280
     0
281
     0
  0
CLASS
  1
ACAMGTITLESTD
  2
AcAmgTitleStd
  3
"AmgTitle|Product Description: AutoCAD Mechanical|Company: Autodesk, Inc."
 90
     4095
 91
        1
280
     0
281
     0
  0
CLASS
  1
ACAMGFILTERDAT
  2
AcAmgFilterDat
  3
"AcadM|Product Description: AutoCAD Mechanical|Company: Autodesk, Inc."
 90
     1024
 91
        0
280
     0
281
     0
  0
CLASS
  1
CAMSSTRUCTBTNSTATE
  2
StructBtnState
  3
DesignerAssemblies
 90
     1024
 91
        0
280
     0
281
     0
  0
CLASS
  1
CELLSTYLEMAP
  2
AcDbCellStyleMap
  3
ObjectDBX Classes
 90
     1152
 91
        2
280
     0
281
     0
  0
CLASS
  1
ACMSTANDARDJIS
  2
AcmStandardJIS
  3
"Amdt_StdImp|Product Description: AutoCAD Mechanical|Company: Autodesk, Inc."
 90
     1024
 91
        0
280
     0
281
     0
  0
CLASS
  1
ACMSURFSTANDARDJIS
  2
AcmSurfTextStdJIS
  3
"Amdt_StdImp|Product Description: AutoCAD Mechanical|Company: Autodesk, Inc."
 90
     1024
 91
        0
280
     0
281
     0
  0
CLASS
  1
ACMSURFSTANDARDJIS2003
  2
AcmSurfTextStdJIS2003
  3
"Amdt_StdImp|Product Description: AutoCAD Mechanical|Company: Autodesk, Inc."
 90
     1024
 91
        0
280
     0
281
     0
  0
CLASS
  1
ACMFCFSTANDARDJIS98
  2
AcmFCFStdJIS98
  3
"Amdt_StdImp|Product Description: AutoCAD Mechanical|Company: Autodesk, Inc."
 90
     1024
 91
        0
280
     0
281
     0
  0
CLASS
  1
ACMWELDSTANDARDJIS
  2
AcmWeldingStdJIS
  3
"Amdt_StdImp|Product Description: AutoCAD Mechanical|Company: Autodesk, Inc."
 90
     1024
 91
        0
280
     0
281
     0
  0
CLASS
  1
ACMIDSTANDARDJIS
  2
AcmIdStdJIS
  3
"Amdt_StdImp|Product Description: AutoCAD Mechanical|Company: Autodesk, Inc."
 90
     1024
 91
        0
280
     0
281
     0
  0
CLASS
  1
ACMDATUMSTANDARDJIS
  2
AcmDatumStdJIS
  3
"Amdt_StdImp|Product Description: AutoCAD Mechanical|Company: Autodesk, Inc."
 90
     1024
 91
        0
280
     0
281
     0
  0
CLASS
  1
ACMBOMSTANDARDJIS
  2
AcmBOMStdJIS
  3
"Amdt_StdImp|Product Description: AutoCAD Mechanical|Company: Autodesk, Inc."
 90
     1024
 91
        0
280
     0
281
     0
  0
CLASS
  1
ACMDETAILSTANDARDJIS
  2
AmdtDetailSymStdJIS
  3
"Amdt_StdImp|Product Description: AutoCAD Mechanical|Company: Autodesk, Inc."
 90
     1024
 91
        0
280
     0
281
     0
  0
CLASS
  1
ACMSECTIONSTANDARDJIS
  2
AmdtSectionSymStdJIS
  3
"Amdt_StdImp|Product Description: AutoCAD Mechanical|Company: Autodesk, Inc."
 90
     1024
 91
        0
280
     0
281
     0
  0
CLASS
  1
ACMCENTERLINESTANDARDJIS
  2
AmdtCenterLineStdJIS
  3
"Amdt_StdImp|Product Description: AutoCAD Mechanical|Company: Autodesk, Inc."
 90
     1024
 91
        0
280
     0
281
     0
  0
CLASS
  1
ACMTHREADLINESTANDARDJIS
  2
AmdtThreadLineStdJIS
  3
"Amdt_StdImp|Product Description: AutoCAD Mechanical|Company: Autodesk, Inc."
 90
     1024
 91
        0
280
     0
281
     0
  0
CLASS
  1
ACMNOTESTANDARDJIS
  2
AmdtNoteStdJIS
  3
"Amdt_StdImp|Product Description: AutoCAD Mechanical|Company: Autodesk, Inc."
 90
     1024
 91
        0
280
     0
281
     0
  0
CLASS
  1
ACMTAPERSTANDARDJIS
  2
AcmTaperStdJIS
  3
"Amdt_StdImp|Product Description: AutoCAD Mechanical|Company: Autodesk, Inc."
 90
     1024
 91
        0
280
     0
281
     0
  0
CLASS
  1
ACMANOOTATIONVIEWSTANDARDJIS
  2
AmdtAnViewStdJIS
  3
"Amdt_StdImp|Product Description: AutoCAD Mechanical|Company: Autodesk, Inc."
 90
     1024
 91
        0
280
     0
281
     0
  0
CLASS
  1
ACAMGHOLECHARTSTDJIS
  2
AcAmgHoleChartStdJIS
  3
AmgDim|Product Description: AutoCAD Mechanical|Company: Autodesk, Inc.
 90
     1024
 91
        0
280
     0
281
     0
  0
CLASS
  1
ACMDATAENTRYBLOCK
  2
AcmDataEntryBlock
  3
AcmSymBB|Product Description: AutoCAD Mechanical|Company: Autodesk, Inc.
 90
     1024
 91
        0
280
     0
281
     0
  0
CLASS
  1
ACMFCFSTANDARDJIS
  2
AcmFCFStdJIS
  3
"Amdt_StdImp|Product Description: AutoCAD Mechanical|Company: Autodesk, Inc."
 90
     1024
 91
        0
280
     0
281
     0
  0
CLASS
  1
DIMASSOC
  2
AcDbDimAssoc
  3
"AcDbDimAssoc|Product Desc:     AcDim ARX App For Dimension|Company:          Autodesk, Inc.|WEB Address:      www.autodesk.com"
 90
        0
 91
        3
280
     0
281
     0
  0
CLASS
  1
ACMSTANDARDISO
  2
AcmStandardISO
  3
"Amdt_StdImp|Product Description: AutoCAD Mechanical|Company: Autodesk, Inc."
 90
     1024
 91
        1
280
     0
281
     0
  0
CLASS
  1
AMDTEDGESTANDARDISO13715
  2
AmdtEdgeStdISO13715
  3
"Amdt_StdImp|Product Description: AutoCAD Mechanical|Company: Autodesk, Inc."
 90
     1024
 91
        1
280
     0
281
     0
  0
CLASS
  1
ACMSURFSTANDARDISO2002
  2
AcmSurfTextStdISO2002
  3
"Amdt_StdImp|Product Description: AutoCAD Mechanical|Company: Autodesk, Inc."
 90
     1024
 91
        1
280
     0
281
     0
  0
CLASS
  1
ACMFCFSTANDARDISO
  2
AcmFCFStdISO
  3
"Amdt_StdImp|Product Description: AutoCAD Mechanical|Company: Autodesk, Inc."
 90
     1024
 91
        1
280
     0
281
     0
  0
CLASS
  1
ACMWELDSTANDARDISO
  2
AcmWeldingStdISO
  3
"Amdt_StdImp|Product Description: AutoCAD Mechanical|Company: Autodesk, Inc."
 90
     1024
 91
        1
280
     0
281
     0
  0
CLASS
  1
ACMIDSTANDARDISO
  2
AcmIdStdISO
  3
"Amdt_StdImp|Product Description: AutoCAD Mechanical|Company: Autodesk, Inc."
 90
     1024
 91
        1
280
     0
281
     0
  0
CLASS
  1
ACMDATUMSTANDARDISO
  2
AcmDatumStdISO
  3
"Amdt_StdImp|Product Description: AutoCAD Mechanical|Company: Autodesk, Inc."
 90
     1024
 91
        1
280
     0
281
     0
  0
CLASS
  1
ACMBOMSTANDARDISO
  2
AcmBOMStdISO
  3
"Amdt_StdImp|Product Description: AutoCAD Mechanical|Company: Autodesk, Inc."
 90
     1024
 91
        1
280
     0
281
     0
  0
CLASS
  1
ACMDETAILSTANDARDISO
  2
AmdtDetailSymStdISO
  3
"Amdt_StdImp|Product Description: AutoCAD Mechanical|Company: Autodesk, Inc."
 90
     1024
 91
        1
280
     0
281
     0
  0
CLASS
  1
ACMSECTIONSTANDARDISO2001
  2
AmdtSectionSymStdISO2001
  3
"Amdt_StdImp|Product Description: AutoCAD Mechanical|Company: Autodesk, Inc."
 90
     1024
 91
        1
280
     0
281
     0
  0
CLASS
  1
ACMCENTERLINESTANDARDISO
  2
AmdtCenterLineStdISO
  3
"Amdt_StdImp|Product Description: AutoCAD Mechanical|Company: Autodesk, Inc."
 90
     1024
 91
        1
280
     0
281
     0
  0
CLASS
  1
ACMTHREADLINESTANDARDISO
  2
AmdtThreadLineStdISO
  3
"Amdt_StdImp|Product Description: AutoCAD Mechanical|Company: Autodesk, Inc."
 90
     1024
 91
        1
280
     0
281
     0
  0
CLASS
  1
ACMNOTESTANDARDISO
  2
AmdtNoteStdISO
  3
"Amdt_StdImp|Product Description: AutoCAD Mechanical|Company: Autodesk, Inc."
 90
     1024
 91
        1
280
     0
281
     0
  0
CLASS
  1
ACMTAPERSTANDARDISO
  2
AcmTaperStdISO
  3
"Amdt_StdImp|Product Description: AutoCAD Mechanical|Company: Autodesk, Inc."
 90
     1024
 91
        1
280
     0
281
     0
  0
CLASS
  1
ACMANOOTATIONVIEWSTANDARDISO
  2
AmdtAnViewStdISO
  3
"Amdt_StdImp|Product Description: AutoCAD Mechanical|Company: Autodesk, Inc."
 90
     1024
 91
        1
280
     0
281
     0
  0
CLASS
  1
ACAMGHOLECHARTSTDISO
  2
AcAmgHoleChartStdISO
  3
AmgDim|Product Description: AutoCAD Mechanical|Company: Autodesk, Inc.
 90
     1024
 91
        1
280
     0
281
     0
  0
ENDSEC
  0
SECTION
  2
TABLES
  0
TABLE
  2
VPORT
  5
8
330
0
100
AcDbSymbolTable
 70
     1
  0
VPORT
  5
CDC3
330
8
100
AcDbSymbolTableRecord
100
AcDbViewportTableRecord
  2
*Active
 70
     0
 10
0.0
 20
0.0
 11
1.0
 21
1.0
 12
509.9943326975335
 22
1951.509293474591
 13
0.0
 23
0.0
 14
2.5
 24
2.5
 15
10.0
 25
10.0
 16
0.0
 26
0.0
 36
1.0
 17
0.0
 27
0.0
 37
0.0
 40
1206.375935290683
 41
1.672727272727272
 42
50.0
 43
0.0
 44
0.0
 50
0.0
 51
0.0
 71
     0
 72
   100
 73
     1
 74
     0
 75
     0
 76
     0
 77
     0
 78
     0
281
     0
 65
     0
110
0.0
120
0.0
130
0.0
111
1.0
121
0.0
131
0.0
112
0.0
122
1.0
132
0.0
 79
     0
146
0.0
348
CDE3
 60
     3
 61
     5
292
     1
282
     1
141
0.0
142
0.0
 63
   250
421
  3355443
  0
ENDTAB
  0
TABLE
  2
LTYPE
  5
5
330
0
100
AcDbSymbolTable
 70
    20
  0
LTYPE
  5
12
330
5
100
AcDbSymbolTableRecord
100
AcDbLinetypeTableRecord
  2
BYBLOCK
 70
     0
  3

 72
    65
 73
     0
 40
0.0
  0
LTYPE
  5
13
330
5
100
AcDbSymbolTableRecord
100
AcDbLinetypeTableRecord
  2
BYLAYER
 70
     0
  3

 72
    65
 73
     0
 40
0.0
  0
LTYPE
  5
14
330
5
100
AcDbSymbolTableRecord
100
AcDbLinetypeTableRecord
  2
CONTINUOUS
 70
     0
  3
Solid line
 72
    65
 73
     0
 40
0.0
  0
LTYPE
  5
22
330
5
100
AcDbSymbolTableRecord
100
AcDbLinetypeTableRecord
  2
CENTER
 70
     0
  3
__ . __
 72
    65
 73
     4
 40
7.0
 49
4.0
 74
     0
 49
-1.0
 74
     0
 49
1.0
 74
     0
 49
-1.0
 74
     0
  0
LTYPE
  5
24
330
5
100
AcDbSymbolTableRecord
100
AcDbLinetypeTableRecord
  2
HIDDEN
 70
     0
  3
Hidden __ __ __ __ __ __ __ __ __ __ __ __ __ _
 72
    65
 73
     2
 40
9.524999999999996
 49
6.349999999999998
 74
     0
 49
-3.174999999999998
 74
     0
  0
LTYPE
  5
CE4B
330
5
100
AcDbSymbolTableRecord
100
AcDbLinetypeTableRecord
  2
PHANTOM2
 70
     0
  3
Phantom (.5x) ___ _ _ ___ _ _ ___ _ _ ___ _ _
 72
    65
 73
     6
 40
1.25
 49
0.625
 74
     0
 49
-0.125
 74
     0
 49
0.125
 74
     0
 49
-0.125
 74
     0
 49
0.125
 74
     0
 49
-0.125
 74
     0
  0
LTYPE
  5
CE83
330
5
100
AcDbSymbolTableRecord
100
AcDbLinetypeTableRecord
  2
Amconstr
 70
     0
  3
_______________________
 72
    65
 73
     2
 40
9999.0
 49
9999.0
 74
     0
 49
0.0
 74
     0
  0
LTYPE
  5
CF9B
330
5
100
AcDbSymbolTableRecord
100
AcDbLinetypeTableRecord
  2
AM_ISO02W050
 70
     0
  3
__ __ __ __ __ __ __ __ __ __ __ __ __ __ __
 72
    65
 73
     2
 40
7.5
 49
6.0
 74
     0
 49
-1.5
 74
     0
  0
LTYPE
  5
CF9C
330
5
100
AcDbSymbolTableRecord
100
AcDbLinetypeTableRecord
  2
AM_ISO08W050
 70
     0
  3
____ . ____ . ____ . ____ . ____ . ____ . ____
 72
    65
 73
     4
 40
18.0
 49
12.0
 74
     0
 49
-1.5
 74
     0
 49
3.0
 74
     0
 49
-1.5
 74
     0
  0
LTYPE
  5
CF9D
330
5
100
AcDbSymbolTableRecord
100
AcDbLinetypeTableRecord
  2
AM_ISO09W050
 70
     0
  3
_____ . . _____ . . _____ . . ____ .. ____
 72
    65
 73
     6
 40
22.5
 49
12.0
 74
     0
 49
-1.5
 74
     0
 49
3.0
 74
     0
 49
-1.5
 74
     0
 49
3.0
 74
     0
 49
-1.5
 74
     0
  0
LTYPE
  5
CF9E
330
5
100
AcDbSymbolTableRecord
100
AcDbLinetypeTableRecord
  2
AM_ISO08W050x2
 70
     0
  3
__ . __ . __ . __ . __ . __
 72
    65
 73
     4
 40
9.0
 49
6.0
 74
     0
 49
-0.75
 74
     0
 49
1.5
 74
     0
 49
-0.75
 74
     0
  0
LTYPE
  5
CF9F
330
5
100
AcDbSymbolTableRecord
100
AcDbLinetypeTableRecord
  2
AM_ISO02W050x2
 70
     0
  3
 _ _ _ _ _ _ _ _ _ _ _ _
 72
    65
 73
     2
 40
3.75
 49
3.0
 74
     0
 49
-0.75
 74
     0
  0
LTYPE
  5
CFA0
330
5
100
AcDbSymbolTableRecord
100
AcDbLinetypeTableRecord
  2
Amzigzag
 70
     0
  3
/\/-/\/-/\/-/\/-/\/-/\/
 72
    65
 73
     2
 40
11.0001
 49
0.0001
 74
     4
 75
   136
340
CE87
 46
0.04
 50
0.0
 44
0.0
 45
0.0
 49
-11.0
 74
     0
  0
LTYPE
  5
CFA3
330
5
100
AcDbSymbolTableRecord
100
AcDbLinetypeTableRecord
  2
ACJISWELD
 70
     0
  3
_ _ _ _ _
 72
    65
 73
     2
 40
2.0
 49
2.0
 74
     0
 49
-1.0
 74
     0
  0
LTYPE
  5
D73F
330
5
100
AcDbSymbolTableRecord
100
AcDbLinetypeTableRecord
  2
ACISOWELD
 70
     0
  3
_ _ _ _ _
 72
    65
 73
     2
 40
2.0
 49
2.0
 74
     0
 49
-1.0
 74
     0
  0
LTYPE
  5
D740
330
5
100
AcDbSymbolTableRecord
100
AcDbLinetypeTableRecord
  2
ACISOTGB
 70
     0
  3
__ . . __ . .
 72
    65
 73
     6
 40
9.0
 49
4.0
 74
     0
 49
-1.0
 74
     0
 49
1.0
 74
     0
 49
-1.0
 74
     0
 49
1.0
 74
     0
 49
-1.0
 74
     0
  0
LTYPE
  5
D741
330
5
100
AcDbSymbolTableRecord
100
AcDbLinetypeTableRecord
  2
ACISOTGL
 70
     0
  3
_ _ _ _ _
 72
    65
 73
     2
 40
3.0
 49
2.0
 74
     0
 49
-1.0
 74
     0
  0
ENDTAB
  0
TABLE
  2
LAYER
  5
2
102
{ACAD_XDICTIONARY
360
C003
102
}
330
0
100
AcDbSymbolTable
 70
    13
  0
LAYER
  5
F
102
{ACAD_XDICTIONARY
360
CEBE
102
}
330
2
100
AcDbSymbolTableRecord
100
AcDbLayerTableRecord
  2
0
 70
     0
 62
     3
  6
CONTINUOUS
370
    13
390
28B
347
CDD5
  0
LAYER
  5
2B0
102
{ACAD_XDICTIONARY
360
CEC0
102
}
330
2
100
AcDbSymbolTableRecord
100
AcDbLayerTableRecord
  2
図面枠(太線)
 70
     0
 62
    40
  6
CONTINUOUS
370
    25
390
28B
347
CDD5
  0
LAYER
  5
AC5
330
2
100
AcDbSymbolTableRecord
100
AcDbLayerTableRecord
  2
Defpoints
 70
     0
 62
     7
  6
CONTINUOUS
290
     0
370
    25
390
28B
347
CDD5
  0
LAYER
  5
AD7
102
{ACAD_XDICTIONARY
360
CED2
102
}
330
2
100
AcDbSymbolTableRecord
100
AcDbLayerTableRecord
  2
断面､詳細
 70
     0
 62
     3
  6
CONTINUOUS
370
    13
390
28B
347
CDD5
  0
LAYER
  5
AD8
102
{ACAD_XDICTIONARY
360
CED4
102
}
330
2
100
AcDbSymbolTableRecord
100
AcDbLayerTableRecord
  2
中心線
 70
     0
 62
     1
  6
CENTER
370
    13
390
28B
347
CDD5
  0
LAYER
  5
CFA4
102
{ACAD_XDICTIONARY
360
CFA5
102
}
330
2
100
AcDbSymbolTableRecord
100
AcDbLayerTableRecord
  2
AM_0 外形線1
 70
     0
 62
     7
  6
CONTINUOUS
370
    25
390
28B
347
CDD5
  0
LAYER
  5
CFA8
330
2
100
AcDbSymbolTableRecord
100
AcDbLayerTableRecord
  2
AM_6 文字
 70
     0
 62
     2
  6
CONTINUOUS
370
    13
390
28B
347
CDD5
1001
AcAecLayerStandard
1000

1000

  0
LAYER
  5
CFA9
330
2
100
AcDbSymbolTableRecord
100
AcDbLayerTableRecord
  2
AM_11 想像線
 70
     0
 62
     5
  6
AM_ISO09W050
370
    13
390
28B
347
CDD5
1001
AcAecLayerStandard
1000

1000

  0
LAYER
  5
D227
330
2
100
AcDbSymbolTableRecord
100
AcDbLayerTableRecord
  2
AM_3 隠れ線
 70
     0
 62
     8
  6
ACJISWELD
370
    13
390
28B
347
CDD5
1001
AcAecLayerStandard
1000

1000

  0
LAYER
  5
D228
330
2
100
AcDbSymbolTableRecord
100
AcDbLayerTableRecord
  2
AM_5 寸法線
 70
     0
 62
     3
  6
CONTINUOUS
370
    13
390
28B
347
CDD5
1001
AcAecLayerStandard
1000

1000

  0
LAYER
  5
D22A
330
2
100
AcDbSymbolTableRecord
100
AcDbLayerTableRecord
  2
AM_7 中心線
 70
     0
 62
     1
  6
AM_ISO08W050
370
    13
390
28B
347
CDD5
1001
AcAecLayerStandard
1000

1000

  0
LAYER
  5
D533
330
2
100
AcDbSymbolTableRecord
100
AcDbLayerTableRecord
  2
AM_4 細線
 70
     0
 62
     4
  6
CONTINUOUS
370
    13
390
28B
347
CDD5
1001
AcAecLayerStandard
1000

1000

  0
ENDTAB
  0
TABLE
  2
STYLE
  5
3
330
0
100
AcDbSymbolTable
 70
    11
  0
STYLE
  5
10
330
3
100
AcDbSymbolTableRecord
100
AcDbTextStyleTableRecord
  2
STANDARD
 70
     0
 40
0.0
 41
1.0
 50
0.0
 71
     0
 42
25.0
  3
ISOCP.SHX
  4
EXTFONT.SHX
  0
STYLE
  5
306
330
3
100
AcDbSymbolTableRecord
100
AcDbTextStyleTableRecord
  2
SEISA
 70
     0
 40
0.0
 41
0.9
 50
0.0
 71
     0
 42
25.0
  3
romans.shx
  4
extfont2.shx
  0
STYLE
  5
CE87
330
3
100
AcDbSymbolTableRecord
100
AcDbTextStyleTableRecord
  2

 70
     1
 40
0.0
 41
1.0
 50
0.0
 71
     0
 42
3.174999999999998
  3
genltshp.shx
  4

  0
STYLE
  5
D72F
330
3
100
AcDbSymbolTableRecord
100
AcDbTextStyleTableRecord
  2
ACISOTS
 70
     0
 40
1.0
 41
1.0
 50
0.0
 71
     0
 42
25.0
  3
isocp.shx
  4
extfont.shx
  0
STYLE
  5
D73E
330
3
100
AcDbSymbolTableRecord
100
AcDbTextStyleTableRecord
  2
ACISOGDT
 70
     0
 40
0.0
 41
1.0
 50
0.0
 71
     0
 42
25.0
  3
amgdt.shx
  4

  0
ENDTAB
  0
TABLE
  2
VIEW
  5
6
330
0
100
AcDbSymbolTable
 70
     0
  0
ENDTAB
  0
TABLE
  2
UCS
  5
7
330
0
100
AcDbSymbolTable
 70
     0
  0
ENDTAB
  0
TABLE
  2
APPID
  5
9
330
0
100
AcDbSymbolTable
 70
   392
  0
APPID
  5
11
330
9
100
AcDbSymbolTableRecord
100
AcDbRegAppTableRecord
  2
ACAD
 70
     0
  0
APPID
  5
C24A
330
9
100
AcDbSymbolTableRecord
100
AcDbRegAppTableRecord
  2
ACAD_PSEXT
 70
     0
  0
APPID
  5
CE12
330
9
100
AcDbSymbolTableRecord
100
AcDbRegAppTableRecord
  2
ACAD_MLEADERVER
 70
     0
  0
APPID
  5
CE1E
330
9
100
AcDbSymbolTableRecord
100
AcDbRegAppTableRecord
  2
MCAD_NO_VIS
 70
     0
  0
APPID
  5
CE1F
330
9
100
AcDbSymbolTableRecord
100
AcDbRegAppTableRecord
  2
ACAD_TEMP_GRAPHIC
 70
     0
  0
APPID
  5
CE4D
330
9
100
AcDbSymbolTableRecord
100
AcDbRegAppTableRecord
  2
AD_DRAW
 70
     0
  0
APPID
  5
CE50
330
9
100
AcDbSymbolTableRecord
100
AcDbRegAppTableRecord
  2
ACATTRIBSERVICES
 70
     0
  0
APPID
  5
CE71
330
9
100
AcDbSymbolTableRecord
100
AcDbRegAppTableRecord
  2
DESIGNERASSEMBLIES
 70
     0
  0
APPID
  5
CE77
330
9
100
AcDbSymbolTableRecord
100
AcDbRegAppTableRecord
  2
ACADM_DIM_EDIT
 70
     0
  0
APPID
  5
CE78
330
9
100
AcDbSymbolTableRecord
100
AcDbRegAppTableRecord
  2
AMDT_DM_ADJ
 70
     0
  0
APPID
  5
CEB3
330
9
100
AcDbSymbolTableRecord
100
AcDbRegAppTableRecord
  2
GENIUS_GENSCREG_15
 70
     0
  0
APPID
  5
CEB4
330
9
100
AcDbSymbolTableRecord
100
AcDbRegAppTableRecord
  2
GENIUS_GENODEF_13
 70
     0
  0
APPID
  5
CEB5
330
9
100
AcDbSymbolTableRecord
100
AcDbRegAppTableRecord
  2
GENIUS_GENOBJ-N-SDF_13
 70
     0
  0
APPID
  5
CFB6
330
9
100
AcDbSymbolTableRecord
100
AcDbRegAppTableRecord
  2
ACAD_DSTYLE_DIMJOGGED_JOGANGLE_SYMBOL
 70
     0
  0
APPID
  5
CFB7
330
9
100
AcDbSymbolTableRecord
100
AcDbRegAppTableRecord
  2
AcAecLayerStandard
 70
     0
  0
APPID
  5
CFB8
330
9
100
AcDbSymbolTableRecord
100
AcDbRegAppTableRecord
  2
ACAD_DSTYLE_DIMJAG
 70
     0
  0
APPID
  5
CFB9
330
9
100
AcDbSymbolTableRecord
100
AcDbRegAppTableRecord
  2
ACAD_DSTYLE_DIMTALN
 70
     0
  0
APPID
  5
CFE5
330
9
100
AcDbSymbolTableRecord
100
AcDbRegAppTableRecord
  2
ACAD_EXEMPT_FROM_CAD_STANDARDS
 70
     0
  0
APPID
  5
CFEC
330
9
100
AcDbSymbolTableRecord
100
AcDbRegAppTableRecord
  2
ACAD_DSTYLE_DIMARC_LENGTH_SYMBOL
 70
     0
  0
APPID
  5
CFED
330
9
100
AcDbSymbolTableRecord
100
AcDbRegAppTableRecord
  2
AcadAnnoPO
 70
     0
  0
APPID
  5
CFEE
330
9
100
AcDbSymbolTableRecord
100
AcDbRegAppTableRecord
  2
ACAD_DSTYLE_DIMTEXT_FILL
 70
     0
  0
APPID
  5
CFEF
330
9
100
AcDbSymbolTableRecord
100
AcDbRegAppTableRecord
  2
GENIUS_GENOBJ-N-CEN_13
 70
     0
  0
APPID
  5
CFF0
330
9
100
AcDbSymbolTableRecord
100
AcDbRegAppTableRecord
  2
GENIUS_GENCEN_19
 70
     0
  0
APPID
  5
CFF1
330
9
100
AcDbSymbolTableRecord
100
AcDbRegAppTableRecord
  2
ACAD_DSTYLE_DIMINSPECT
 70
     0
  0
APPID
  5
CFF2
330
9
100
AcDbSymbolTableRecord
100
AcDbRegAppTableRecord
  2
GENIUS_AMGTXT_16
 70
     0
  0
APPID
  5
CFF3
330
9
100
AcDbSymbolTableRecord
100
AcDbRegAppTableRecord
  2
GENIUS_GENFIL_13
 70
     0
  0
APPID
  5
CFF4
330
9
100
AcDbSymbolTableRecord
100
AcDbRegAppTableRecord
  2
GENIUS_GENOLIS_13
 70
     0
  0
APPID
  5
CFF5
330
9
100
AcDbSymbolTableRecord
100
AcDbRegAppTableRecord
  2
GENIUS_GENOBJ-N-CHA_13
 70
     0
  0
APPID
  5
CFF6
330
9
100
AcDbSymbolTableRecord
100
AcDbRegAppTableRecord
  2
GENIUS_GENOENT_13
 70
     0
  0
APPID
  5
CFF7
330
9
100
AcDbSymbolTableRecord
100
AcDbRegAppTableRecord
  2
GENIUS_GENOREF_13
 70
     0
  0
APPID
  5
CFF8
330
9
100
AcDbSymbolTableRecord
100
AcDbRegAppTableRecord
  2
GENIUS_GENOBJ-N-FIL_13
 70
     0
  0
APPID
  5
CFF9
330
9
100
AcDbSymbolTableRecord
100
AcDbRegAppTableRecord
  2
GEVID1208829536
 70
     0
  0
APPID
  5
CFFA
330
9
100
AcDbSymbolTableRecord
100
AcDbRegAppTableRecord
  2
GEVDC
 70
     0
  0
APPID
  5
CFFB
330
9
100
AcDbSymbolTableRecord
100
AcDbRegAppTableRecord
  2
GEVRADREF
 70
     0
  0
APPID
  5
CFFC
330
9
100
AcDbSymbolTableRecord
100
AcDbRegAppTableRecord
  2
GENIUS_GENBH_13
 70
     0
  0
APPID
  5
CFFD
330
9
100
AcDbSymbolTableRecord
100
AcDbRegAppTableRecord
  2
GENIUS_GENOBJ-NBEHI-BHF_13
 70
     0
  0
APPID
  5
CFFE
330
9
100
AcDbSymbolTableRecord
100
AcDbRegAppTableRecord
  2
GENIUS_GENOBJ-NBEHI-BHB_13
 70
     0
  0
APPID
  5
CFFF
330
9
100
AcDbSymbolTableRecord
100
AcDbRegAppTableRecord
  2
GEVID1208829537
 70
     0
  0
APPID
  5
D000
330
9
100
AcDbSymbolTableRecord
100
AcDbRegAppTableRecord
  2
AMG_2DHIDE
 70
     0
  0
APPID
  5
D001
330
9
100
AcDbSymbolTableRecord
100
AcDbRegAppTableRecord
  2
AMG_2DSTRUCT_BTR
 70
     0
  0
APPID
  5
D002
330
9
100
AcDbSymbolTableRecord
100
AcDbRegAppTableRecord
  2
GEVID1208845772
 70
     0
  0
APPID
  5
D003
330
9
100
AcDbSymbolTableRecord
100
AcDbRegAppTableRecord
  2
GEVID1208845773
 70
     0
  0
APPID
  5
D004
330
9
100
AcDbSymbolTableRecord
100
AcDbRegAppTableRecord
  2
ACADM_2DVIEW_IGN_NOTIFY
 70
     0
  0
APPID
  5
D005
330
9
100
AcDbSymbolTableRecord
100
AcDbRegAppTableRecord
  2
GEVID1208845774
 70
     0
  0
APPID
  5
D006
330
9
100
AcDbSymbolTableRecord
100
AcDbRegAppTableRecord
  2
GEVID1208845775
 70
     0
  0
APPID
  5
D007
330
9
100
AcDbSymbolTableRecord
100
AcDbRegAppTableRecord
  2
GEVID1208845776
 70
     0
  0
APPID
  5
D008
330
9
100
AcDbSymbolTableRecord
100
AcDbRegAppTableRecord
  2
GEVID1208845777
 70
     0
  0
APPID
  5
D009
330
9
100
AcDbSymbolTableRecord
100
AcDbRegAppTableRecord
  2
GEVCON
 70
     0
  0
APPID
  5
D00A
330
9
100
AcDbSymbolTableRecord
100
AcDbRegAppTableRecord
  2
GENIUS_GENOBJ-F-SCPASSM_13
 70
     0
  0
APPID
  5
D00B
330
9
100
AcDbSymbolTableRecord
100
AcDbRegAppTableRecord
  2
GEVID1208845778
 70
     0
  0
APPID
  5
D00C
330
9
100
AcDbSymbolTableRecord
100
AcDbRegAppTableRecord
  2
GEVID1208845779
 70
     0
  0
APPID
  5
D00D
330
9
100
AcDbSymbolTableRecord
100
AcDbRegAppTableRecord
  2
GEVID1208845780
 70
     0
  0
APPID
  5
D00E
330
9
100
AcDbSymbolTableRecord
100
AcDbRegAppTableRecord
  2
GEVID1208845781
 70
     0
  0
APPID
  5
D00F
330
9
100
AcDbSymbolTableRecord
100
AcDbRegAppTableRecord
  2
GEVID1208845782
 70
     0
  0
APPID
  5
D010
330
9
100
AcDbSymbolTableRecord
100
AcDbRegAppTableRecord
  2
GEVID1208845783
 70
     0
  0
APPID
  5
D011
330
9
100
AcDbSymbolTableRecord
100
AcDbRegAppTableRecord
  2
GEVID1208845784
 70
     0
  0
APPID
  5
D012
330
9
100
AcDbSymbolTableRecord
100
AcDbRegAppTableRecord
  2
GEVID1208845785
 70
     0
  0
APPID
  5
D013
330
9
100
AcDbSymbolTableRecord
100
AcDbRegAppTableRecord
  2
GEVID1208845787
 70
     0
  0
APPID
  5
D014
330
9
100
AcDbSymbolTableRecord
100
AcDbRegAppTableRecord
  2
GEVID1208845788
 70
     0
  0
APPID
  5
D015
330
9
100
AcDbSymbolTableRecord
100
AcDbRegAppTableRecord
  2
GEVID1208845789
 70
     0
  0
APPID
  5
D016
330
9
100
AcDbSymbolTableRecord
100
AcDbRegAppTableRecord
  2
GEVID1208845790
 70
     0
  0
APPID
  5
D017
330
9
100
AcDbSymbolTableRecord
100
AcDbRegAppTableRecord
  2
GEVID1208845791
 70
     0
  0
APPID
  5
D018
330
9
100
AcDbSymbolTableRecord
100
AcDbRegAppTableRecord
  2
GEVID1208845792
 70
     0
  0
APPID
  5
D019
330
9
100
AcDbSymbolTableRecord
100
AcDbRegAppTableRecord
  2
GEVID1208845793
 70
     0
  0
APPID
  5
D01A
330
9
100
AcDbSymbolTableRecord
100
AcDbRegAppTableRecord
  2
GEVID1208845794
 70
     0
  0
APPID
  5
D01B
330
9
100
AcDbSymbolTableRecord
100
AcDbRegAppTableRecord
  2
GEVID1208845795
 70
     0
  0
APPID
  5
D01C
330
9
100
AcDbSymbolTableRecord
100
AcDbRegAppTableRecord
  2
GEVID1208845796
 70
     0
  0
APPID
  5
D01D
330
9
100
AcDbSymbolTableRecord
100
AcDbRegAppTableRecord
  2
GEVID1208845797
 70
     0
  0
APPID
  5
D01E
330
9
100
AcDbSymbolTableRecord
100
AcDbRegAppTableRecord
  2
GEVID1208845798
 70
     0
  0
APPID
  5
D01F
330
9
100
AcDbSymbolTableRecord
100
AcDbRegAppTableRecord
  2
GEVID1208845799
 70
     0
  0
APPID
  5
D020
330
9
100
AcDbSymbolTableRecord
100
AcDbRegAppTableRecord
  2
GEVID1208845800
 70
     0
  0
APPID
  5
D021
330
9
100
AcDbSymbolTableRecord
100
AcDbRegAppTableRecord
  2
GEVID1208845801
 70
     0
  0
APPID
  5
D022
330
9
100
AcDbSymbolTableRecord
100
AcDbRegAppTableRecord
  2
GEVID1208845802
 70
     0
  0
APPID
  5
D023
330
9
100
AcDbSymbolTableRecord
100
AcDbRegAppTableRecord
  2
GENIUS_GENOBJ-N-DIM_13
 70
     0
  0
APPID
  5
D024
330
9
100
AcDbSymbolTableRecord
100
AcDbRegAppTableRecord
  2
GENIUS_GENDIM_13
 70
     0
  0
APPID
  5
D025
330
9
100
AcDbSymbolTableRecord
100
AcDbRegAppTableRecord
  2
GENIUS_GENDIMSH_14
 70
     0
  0
APPID
  5
D026
330
9
100
AcDbSymbolTableRecord
100
AcDbRegAppTableRecord
  2
GEVID1208845803
 70
     0
  0
APPID
  5
D027
330
9
100
AcDbSymbolTableRecord
100
AcDbRegAppTableRecord
  2
GEVID1208845804
 70
     0
  0
APPID
  5
D028
330
9
100
AcDbSymbolTableRecord
100
AcDbRegAppTableRecord
  2
GEVID1208845805
 70
     0
  0
APPID
  5
D029
330
9
100
AcDbSymbolTableRecord
100
AcDbRegAppTableRecord
  2
GEVID1208845806
 70
     0
  0
APPID
  5
D02A
330
9
100
AcDbSymbolTableRecord
100
AcDbRegAppTableRecord
  2
GEVID1208845807
 70
     0
  0
APPID
  5
D02B
330
9
100
AcDbSymbolTableRecord
100
AcDbRegAppTableRecord
  2
GEVID1208845808
 70
     0
  0
APPID
  5
D02C
330
9
100
AcDbSymbolTableRecord
100
AcDbRegAppTableRecord
  2
GEVID1208845809
 70
     0
  0
APPID
  5
D02D
330
9
100
AcDbSymbolTableRecord
100
AcDbRegAppTableRecord
  2
GEVID1208845810
 70
     0
  0
APPID
  5
D02E
330
9
100
AcDbSymbolTableRecord
100
AcDbRegAppTableRecord
  2
GEVID1208845811
 70
     0
  0
APPID
  5
D02F
330
9
100
AcDbSymbolTableRecord
100
AcDbRegAppTableRecord
  2
GEVID1208845813
 70
     0
  0
APPID
  5
D030
330
9
100
AcDbSymbolTableRecord
100
AcDbRegAppTableRecord
  2
GEVID1208845814
 70
     0
  0
APPID
  5
D031
330
9
100
AcDbSymbolTableRecord
100
AcDbRegAppTableRecord
  2
GEVID1208845815
 70
     0
  0
APPID
  5
D032
330
9
100
AcDbSymbolTableRecord
100
AcDbRegAppTableRecord
  2
GEVID1208845816
 70
     0
  0
APPID
  5
D033
330
9
100
AcDbSymbolTableRecord
100
AcDbRegAppTableRecord
  2
GEVID1208845817
 70
     0
  0
APPID
  5
D034
330
9
100
AcDbSymbolTableRecord
100
AcDbRegAppTableRecord
  2
GEVID1208845818
 70
     0
  0
APPID
  5
D035
330
9
100
AcDbSymbolTableRecord
100
AcDbRegAppTableRecord
  2
GEVID1208845819
 70
     0
  0
APPID
  5
D036
330
9
100
AcDbSymbolTableRecord
100
AcDbRegAppTableRecord
  2
GEVID1208845820
 70
     0
  0
APPID
  5
D037
330
9
100
AcDbSymbolTableRecord
100
AcDbRegAppTableRecord
  2
GENIUS_GENOBJ-F-SHCL_13
 70
     0
  0
APPID
  5
D038
330
9
100
AcDbSymbolTableRecord
100
AcDbRegAppTableRecord
  2
GENIUS_GEFMSH_13
 70
     0
  0
APPID
  5
D039
330
9
100
AcDbSymbolTableRecord
100
AcDbRegAppTableRecord
  2
GENIUS_GENOBJ-F-SHCA_13
 70
     0
  0
APPID
  5
D03A
330
9
100
AcDbSymbolTableRecord
100
AcDbRegAppTableRecord
  2
GENIUS_GEFSH_13
 70
     0
  0
APPID
  5
D03B
330
9
100
AcDbSymbolTableRecord
100
AcDbRegAppTableRecord
  2
GENIUS_GEFSHP_13
 70
     0
  0
APPID
  5
D03C
330
9
100
AcDbSymbolTableRecord
100
AcDbRegAppTableRecord
  2
GENIUS_GEFSHP0_13
 70
     0
  0
APPID
  5
D03D
330
9
100
AcDbSymbolTableRecord
100
AcDbRegAppTableRecord
  2
GENIUS_GEFSH0_13
 70
     0
  0
APPID
  5
D03E
330
9
100
AcDbSymbolTableRecord
100
AcDbRegAppTableRecord
  2
GENIUS_GEFSHP1_13
 70
     0
  0
APPID
  5
D03F
330
9
100
AcDbSymbolTableRecord
100
AcDbRegAppTableRecord
  2
GENIUS_GEFSH1_13
 70
     0
  0
APPID
  5
D040
330
9
100
AcDbSymbolTableRecord
100
AcDbRegAppTableRecord
  2
GEVID1208866337
 70
     0
  0
APPID
  5
D041
330
9
100
AcDbSymbolTableRecord
100
AcDbRegAppTableRecord
  2
GEVID1208866338
 70
     0
  0
APPID
  5
D042
330
9
100
AcDbSymbolTableRecord
100
AcDbRegAppTableRecord
  2
GEVID1208866339
 70
     0
  0
APPID
  5
D043
330
9
100
AcDbSymbolTableRecord
100
AcDbRegAppTableRecord
  2
GEVID1208866340
 70
     0
  0
APPID
  5
D044
330
9
100
AcDbSymbolTableRecord
100
AcDbRegAppTableRecord
  2
GEVID1208866341
 70
     0
  0
APPID
  5
D045
330
9
100
AcDbSymbolTableRecord
100
AcDbRegAppTableRecord
  2
GEVID1208866342
 70
     0
  0
APPID
  5
D046
330
9
100
AcDbSymbolTableRecord
100
AcDbRegAppTableRecord
  2
GEVID1208913836
 70
     0
  0
APPID
  5
D047
330
9
100
AcDbSymbolTableRecord
100
AcDbRegAppTableRecord
  2
GEVID1208913837
 70
     0
  0
APPID
  5
D048
330
9
100
AcDbSymbolTableRecord
100
AcDbRegAppTableRecord
  2
GEVID1208913838
 70
     0
  0
APPID
  5
D049
330
9
100
AcDbSymbolTableRecord
100
AcDbRegAppTableRecord
  2
GEVID1208913839
 70
     0
  0
APPID
  5
D04A
330
9
100
AcDbSymbolTableRecord
100
AcDbRegAppTableRecord
  2
GENIUS_GENDTOL_13
 70
     0
  0
APPID
  5
D04B
330
9
100
AcDbSymbolTableRecord
100
AcDbRegAppTableRecord
  2
GEVID1208928889
 70
     0
  0
APPID
  5
D04C
330
9
100
AcDbSymbolTableRecord
100
AcDbRegAppTableRecord
  2
GEVID1208928890
 70
     0
  0
APPID
  5
D04D
330
9
100
AcDbSymbolTableRecord
100
AcDbRegAppTableRecord
  2
GEVID1208928891
 70
     0
  0
APPID
  5
D04E
330
9
100
AcDbSymbolTableRecord
100
AcDbRegAppTableRecord
  2
GEVID1208928892
 70
     0
  0
APPID
  5
D04F
330
9
100
AcDbSymbolTableRecord
100
AcDbRegAppTableRecord
  2
GEVID1208933827
 70
     0
  0
APPID
  5
D050
330
9
100
AcDbSymbolTableRecord
100
AcDbRegAppTableRecord
  2
GEVID1208933829
 70
     0
  0
APPID
  5
D051
330
9
100
AcDbSymbolTableRecord
100
AcDbRegAppTableRecord
  2
GEVID1208933830
 70
     0
  0
APPID
  5
D052
330
9
100
AcDbSymbolTableRecord
100
AcDbRegAppTableRecord
  2
GEVID1208933831
 70
     0
  0
APPID
  5
D053
330
9
100
AcDbSymbolTableRecord
100
AcDbRegAppTableRecord
  2
GEVID1208933832
 70
     0
  0
APPID
  5
D054
330
9
100
AcDbSymbolTableRecord
100
AcDbRegAppTableRecord
  2
GEVID1208933833
 70
     0
  0
APPID
  5
D055
330
9
100
AcDbSymbolTableRecord
100
AcDbRegAppTableRecord
  2
GEVID1208933834
 70
     0
  0
APPID
  5
D056
330
9
100
AcDbSymbolTableRecord
100
AcDbRegAppTableRecord
  2
GEVID1208933835
 70
     0
  0
APPID
  5
D057
330
9
100
AcDbSymbolTableRecord
100
AcDbRegAppTableRecord
  2
GEVID1208933836
 70
     0
  0
APPID
  5
D058
330
9
100
AcDbSymbolTableRecord
100
AcDbRegAppTableRecord
  2
GEVID1208933837
 70
     0
  0
APPID
  5
D059
330
9
100
AcDbSymbolTableRecord
100
AcDbRegAppTableRecord
  2
GEVID1208933838
 70
     0
  0
APPID
  5
D05A
330
9
100
AcDbSymbolTableRecord
100
AcDbRegAppTableRecord
  2
GEVID1208933840
 70
     0
  0
APPID
  5
D05B
330
9
100
AcDbSymbolTableRecord
100
AcDbRegAppTableRecord
  2
GEVID1208933842
 70
     0
  0
APPID
  5
D05C
330
9
100
AcDbSymbolTableRecord
100
AcDbRegAppTableRecord
  2
GEVID1208933843
 70
     0
  0
APPID
  5
D05D
330
9
100
AcDbSymbolTableRecord
100
AcDbRegAppTableRecord
  2
GEVID1208933844
 70
     0
  0
APPID
  5
D05E
330
9
100
AcDbSymbolTableRecord
100
AcDbRegAppTableRecord
  2
GEVID1208933845
 70
     0
  0
APPID
  5
D05F
330
9
100
AcDbSymbolTableRecord
100
AcDbRegAppTableRecord
  2
GEVID1208933846
 70
     0
  0
APPID
  5
D060
330
9
100
AcDbSymbolTableRecord
100
AcDbRegAppTableRecord
  2
GEVID1208933847
 70
     0
  0
APPID
  5
D061
330
9
100
AcDbSymbolTableRecord
100
AcDbRegAppTableRecord
  2
GEVID1208933848
 70
     0
  0
APPID
  5
D062
330
9
100
AcDbSymbolTableRecord
100
AcDbRegAppTableRecord
  2
GEVID1208933849
 70
     0
  0
APPID
  5
D063
330
9
100
AcDbSymbolTableRecord
100
AcDbRegAppTableRecord
  2
GEVID1208933850
 70
     0
  0
APPID
  5
D064
330
9
100
AcDbSymbolTableRecord
100
AcDbRegAppTableRecord
  2
GEVID1208933851
 70
     0
  0
APPID
  5
D065
330
9
100
AcDbSymbolTableRecord
100
AcDbRegAppTableRecord
  2
GEVID1208933852
 70
     0
  0
APPID
  5
D066
330
9
100
AcDbSymbolTableRecord
100
AcDbRegAppTableRecord
  2
GEVID1208933853
 70
     0
  0
APPID
  5
D067
330
9
100
AcDbSymbolTableRecord
100
AcDbRegAppTableRecord
  2
GEVID1208933854
 70
     0
  0
APPID
  5
D068
330
9
100
AcDbSymbolTableRecord
100
AcDbRegAppTableRecord
  2
GEVID1208933855
 70
     0
  0
APPID
  5
D069
330
9
100
AcDbSymbolTableRecord
100
AcDbRegAppTableRecord
  2
GEVID1208933856
 70
     0
  0
APPID
  5
D06A
330
9
100
AcDbSymbolTableRecord
100
AcDbRegAppTableRecord
  2
GEVID1208933857
 70
     0
  0
APPID
  5
D06B
330
9
100
AcDbSymbolTableRecord
100
AcDbRegAppTableRecord
  2
GEVID1208933858
 70
     0
  0
APPID
  5
D06C
330
9
100
AcDbSymbolTableRecord
100
AcDbRegAppTableRecord
  2
GEVID1208933859
 70
     0
  0
APPID
  5
D06D
330
9
100
AcDbSymbolTableRecord
100
AcDbRegAppTableRecord
  2
GEVID1208933860
 70
     0
  0
APPID
  5
D06E
330
9
100
AcDbSymbolTableRecord
100
AcDbRegAppTableRecord
  2
GEVID1208933861
 70
     0
  0
APPID
  5
D06F
330
9
100
AcDbSymbolTableRecord
100
AcDbRegAppTableRecord
  2
GEVID1208933862
 70
     0
  0
APPID
  5
D070
330
9
100
AcDbSymbolTableRecord
100
AcDbRegAppTableRecord
  2
GEVID1208933863
 70
     0
  0
APPID
  5
D071
330
9
100
AcDbSymbolTableRecord
100
AcDbRegAppTableRecord
  2
GEVID1208933864
 70
     0
  0
APPID
  5
D072
330
9
100
AcDbSymbolTableRecord
100
AcDbRegAppTableRecord
  2
GEVID1208933865
 70
     0
  0
APPID
  5
D073
330
9
100
AcDbSymbolTableRecord
100
AcDbRegAppTableRecord
  2
GEVID1208933866
 70
     0
  0
APPID
  5
D074
330
9
100
AcDbSymbolTableRecord
100
AcDbRegAppTableRecord
  2
GEVID1208933867
 70
     0
  0
APPID
  5
D075
330
9
100
AcDbSymbolTableRecord
100
AcDbRegAppTableRecord
  2
GEVID1208933868
 70
     0
  0
APPID
  5
D076
330
9
100
AcDbSymbolTableRecord
100
AcDbRegAppTableRecord
  2
GEVID1208933869
 70
     0
  0
APPID
  5
D077
330
9
100
AcDbSymbolTableRecord
100
AcDbRegAppTableRecord
  2
GEVID1208933870
 70
     0
  0
APPID
  5
D078
330
9
100
AcDbSymbolTableRecord
100
AcDbRegAppTableRecord
  2
GEVID1208933871
 70
     0
  0
APPID
  5
D079
330
9
100
AcDbSymbolTableRecord
100
AcDbRegAppTableRecord
  2
GEVID1208933872
 70
     0
  0
APPID
  5
D07A
330
9
100
AcDbSymbolTableRecord
100
AcDbRegAppTableRecord
  2
GEVID1208933873
 70
     0
  0
APPID
  5
D07B
330
9
100
AcDbSymbolTableRecord
100
AcDbRegAppTableRecord
  2
GEVID1208933874
 70
     0
  0
APPID
  5
D07C
330
9
100
AcDbSymbolTableRecord
100
AcDbRegAppTableRecord
  2
GEVID1208933875
 70
     0
  0
APPID
  5
D07D
330
9
100
AcDbSymbolTableRecord
100
AcDbRegAppTableRecord
  2
GEVID1208933876
 70
     0
  0
APPID
  5
D07E
330
9
100
AcDbSymbolTableRecord
100
AcDbRegAppTableRecord
  2
ACAD_DSTYLE_DIMRADIAL_EXTENSION
 70
     0
  0
APPID
  5
D07F
330
9
100
AcDbSymbolTableRecord
100
AcDbRegAppTableRecord
  2
GEVID1208999100
 70
     0
  0
APPID
  5
D080
330
9
100
AcDbSymbolTableRecord
100
AcDbRegAppTableRecord
  2
GEVID1208999101
 70
     0
  0
APPID
  5
D081
330
9
100
AcDbSymbolTableRecord
100
AcDbRegAppTableRecord
  2
GEVID1208999102
 70
     0
  0
APPID
  5
D082
330
9
100
AcDbSymbolTableRecord
100
AcDbRegAppTableRecord
  2
GEVID1208999103
 70
     0
  0
APPID
  5
D083
330
9
100
AcDbSymbolTableRecord
100
AcDbRegAppTableRecord
  2
GEVID1208999105
 70
     0
  0
APPID
  5
D084
330
9
100
AcDbSymbolTableRecord
100
AcDbRegAppTableRecord
  2
GEVID1208999106
 70
     0
  0
APPID
  5
D085
330
9
100
AcDbSymbolTableRecord
100
AcDbRegAppTableRecord
  2
GEVID1208999108
 70
     0
  0
APPID
  5
D086
330
9
100
AcDbSymbolTableRecord
100
AcDbRegAppTableRecord
  2
GEVID1208999109
 70
     0
  0
APPID
  5
D087
330
9
100
AcDbSymbolTableRecord
100
AcDbRegAppTableRecord
  2
GEVID1208999110
 70
     0
  0
APPID
  5
D088
330
9
100
AcDbSymbolTableRecord
100
AcDbRegAppTableRecord
  2
GEVID1208999111
 70
     0
  0
APPID
  5
D089
330
9
100
AcDbSymbolTableRecord
100
AcDbRegAppTableRecord
  2
GEVID1208999112
 70
     0
  0
APPID
  5
D08A
330
9
100
AcDbSymbolTableRecord
100
AcDbRegAppTableRecord
  2
GEVID1208999113
 70
     0
  0
APPID
  5
D08B
330
9
100
AcDbSymbolTableRecord
100
AcDbRegAppTableRecord
  2
GEVID1208999114
 70
     0
  0
APPID
  5
D08C
330
9
100
AcDbSymbolTableRecord
100
AcDbRegAppTableRecord
  2
GEVID1210218799
 70
     0
  0
APPID
  5
D08D
330
9
100
AcDbSymbolTableRecord
100
AcDbRegAppTableRecord
  2
GEVID1210218800
 70
     0
  0
APPID
  5
D08E
330
9
100
AcDbSymbolTableRecord
100
AcDbRegAppTableRecord
  2
GENIUS_GEFWELD_13
 70
     0
  0
APPID
  5
D08F
330
9
100
AcDbSymbolTableRecord
100
AcDbRegAppTableRecord
  2
GENIUS_GENOBJ-F-WELS_13
 70
     0
  0
APPID
  5
D090
330
9
100
AcDbSymbolTableRecord
100
AcDbRegAppTableRecord
  2
AcadAnnotative
 70
     0
  0
APPID
  5
D091
330
9
100
AcDbSymbolTableRecord
100
AcDbRegAppTableRecord
  2
GEVID1210145339
 70
     0
  0
APPID
  5
D092
330
9
100
AcDbSymbolTableRecord
100
AcDbRegAppTableRecord
  2
ACAD_DSTYLE_DIMBREAK
 70
     0
  0
APPID
  5
D093
330
9
100
AcDbSymbolTableRecord
100
AcDbRegAppTableRecord
  2
GEVID1210145340
 70
     0
  0
APPID
  5
D094
330
9
100
AcDbSymbolTableRecord
100
AcDbRegAppTableRecord
  2
GEVID1210145341
 70
     0
  0
APPID
  5
D095
330
9
100
AcDbSymbolTableRecord
100
AcDbRegAppTableRecord
  2
GEVID1210145342
 70
     0
  0
APPID
  5
D096
330
9
100
AcDbSymbolTableRecord
100
AcDbRegAppTableRecord
  2
GEVID1210145343
 70
     0
  0
APPID
  5
D097
330
9
100
AcDbSymbolTableRecord
100
AcDbRegAppTableRecord
  2
GEVID1210145344
 70
     0
  0
APPID
  5
D098
330
9
100
AcDbSymbolTableRecord
100
AcDbRegAppTableRecord
  2
GEVID1210145345
 70
     0
  0
APPID
  5
D099
330
9
100
AcDbSymbolTableRecord
100
AcDbRegAppTableRecord
  2
GEVID1210152816
 70
     0
  0
APPID
  5
D09A
330
9
100
AcDbSymbolTableRecord
100
AcDbRegAppTableRecord
  2
GEVID1210153850
 70
     0
  0
APPID
  5
D09B
330
9
100
AcDbSymbolTableRecord
100
AcDbRegAppTableRecord
  2
GEVID1210153851
 70
     0
  0
APPID
  5
D09C
330
9
100
AcDbSymbolTableRecord
100
AcDbRegAppTableRecord
  2
GEVID1210153852
 70
     0
  0
APPID
  5
D09D
330
9
100
AcDbSymbolTableRecord
100
AcDbRegAppTableRecord
  2
GEVID1210549898
 70
     0
  0
APPID
  5
D09E
330
9
100
AcDbSymbolTableRecord
100
AcDbRegAppTableRecord
  2
GEVID1210549899
 70
     0
  0
APPID
  5
D09F
330
9
100
AcDbSymbolTableRecord
100
AcDbRegAppTableRecord
  2
GEVID1210549900
 70
     0
  0
APPID
  5
D0A0
330
9
100
AcDbSymbolTableRecord
100
AcDbRegAppTableRecord
  2
GEVID1210549901
 70
     0
  0
APPID
  5
D0A1
330
9
100
AcDbSymbolTableRecord
100
AcDbRegAppTableRecord
  2
GEVID1210549902
 70
     0
  0
APPID
  5
D0A2
330
9
100
AcDbSymbolTableRecord
100
AcDbRegAppTableRecord
  2
GEVID1210549903
 70
     0
  0
APPID
  5
D0A3
330
9
100
AcDbSymbolTableRecord
100
AcDbRegAppTableRecord
  2
GEVID1210549904
 70
     0
  0
APPID
  5
D0A4
330
9
100
AcDbSymbolTableRecord
100
AcDbRegAppTableRecord
  2
GEVID1210549905
 70
     0
  0
APPID
  5
D0A5
330
9
100
AcDbSymbolTableRecord
100
AcDbRegAppTableRecord
  2
GEVID1210549906
 70
     0
  0
APPID
  5
D0A6
330
9
100
AcDbSymbolTableRecord
100
AcDbRegAppTableRecord
  2
GEVID1210549907
 70
     0
  0
APPID
  5
D0A7
330
9
100
AcDbSymbolTableRecord
100
AcDbRegAppTableRecord
  2
GEVID1210549908
 70
     0
  0
APPID
  5
D0A8
330
9
100
AcDbSymbolTableRecord
100
AcDbRegAppTableRecord
  2
GEVID1210549909
 70
     0
  0
APPID
  5
D0A9
330
9
100
AcDbSymbolTableRecord
100
AcDbRegAppTableRecord
  2
GEVID1210549910
 70
     0
  0
APPID
  5
D0AA
330
9
100
AcDbSymbolTableRecord
100
AcDbRegAppTableRecord
  2
GEVID1210549911
 70
     0
  0
APPID
  5
D0AB
330
9
100
AcDbSymbolTableRecord
100
AcDbRegAppTableRecord
  2
GEVID1210549912
 70
     0
  0
APPID
  5
D0AC
330
9
100
AcDbSymbolTableRecord
100
AcDbRegAppTableRecord
  2
GEVID1210549913
 70
     0
  0
APPID
  5
D0AD
330
9
100
AcDbSymbolTableRecord
100
AcDbRegAppTableRecord
  2
GEVID1210549914
 70
     0
  0
APPID
  5
D0AE
330
9
100
AcDbSymbolTableRecord
100
AcDbRegAppTableRecord
  2
GEVID1210549915
 70
     0
  0
APPID
  5
D0AF
330
9
100
AcDbSymbolTableRecord
100
AcDbRegAppTableRecord
  2
GEVID1210549916
 70
     0
  0
APPID
  5
D0B0
330
9
100
AcDbSymbolTableRecord
100
AcDbRegAppTableRecord
  2
GEVID1210549917
 70
     0
  0
APPID
  5
D0B1
330
9
100
AcDbSymbolTableRecord
100
AcDbRegAppTableRecord
  2
GENIUS_GENOBJ-N-CRS_13
 70
     0
  0
APPID
  5
D0B2
330
9
100
AcDbSymbolTableRecord
100
AcDbRegAppTableRecord
  2
GEVID1210549918
 70
     0
  0
APPID
  5
D0B3
330
9
100
AcDbSymbolTableRecord
100
AcDbRegAppTableRecord
  2
GENIUS_GENOBJ-N-CRC_13
 70
     0
  0
APPID
  5
D0B4
330
9
100
AcDbSymbolTableRecord
100
AcDbRegAppTableRecord
  2
GENIUS_GENCRC_14
 70
     0
  0
APPID
  5
D0B5
330
9
100
AcDbSymbolTableRecord
100
AcDbRegAppTableRecord
  2
GEVID1210549919
 70
     0
  0
APPID
  5
D0B6
330
9
100
AcDbSymbolTableRecord
100
AcDbRegAppTableRecord
  2
GEVID1210549921
 70
     0
  0
APPID
  5
D0B7
330
9
100
AcDbSymbolTableRecord
100
AcDbRegAppTableRecord
  2
GEVID1210549922
 70
     0
  0
APPID
  5
D0B8
330
9
100
AcDbSymbolTableRecord
100
AcDbRegAppTableRecord
  2
GEVID1210635173
 70
     0
  0
APPID
  5
D0B9
330
9
100
AcDbSymbolTableRecord
100
AcDbRegAppTableRecord
  2
GEVID1210635174
 70
     0
  0
APPID
  5
D0BA
330
9
100
AcDbSymbolTableRecord
100
AcDbRegAppTableRecord
  2
GEVID1210635175
 70
     0
  0
APPID
  5
D0BB
330
9
100
AcDbSymbolTableRecord
100
AcDbRegAppTableRecord
  2
GEVID1210635176
 70
     0
  0
APPID
  5
D0BC
330
9
100
AcDbSymbolTableRecord
100
AcDbRegAppTableRecord
  2
GEVID1210635177
 70
     0
  0
APPID
  5
D0BD
330
9
100
AcDbSymbolTableRecord
100
AcDbRegAppTableRecord
  2
GEVID1210635178
 70
     0
  0
APPID
  5
D0BE
330
9
100
AcDbSymbolTableRecord
100
AcDbRegAppTableRecord
  2
GENIUS_GENIUS_GENBHEDTMP_13
 70
     0
  0
APPID
  5
D0BF
330
9
100
AcDbSymbolTableRecord
100
AcDbRegAppTableRecord
  2
GEVID1210635179
 70
     0
  0
APPID
  5
D0C0
330
9
100
AcDbSymbolTableRecord
100
AcDbRegAppTableRecord
  2
GEVID1210635180
 70
     0
  0
APPID
  5
D0C1
330
9
100
AcDbSymbolTableRecord
100
AcDbRegAppTableRecord
  2
GEVID1210635181
 70
     0
  0
APPID
  5
D0C2
330
9
100
AcDbSymbolTableRecord
100
AcDbRegAppTableRecord
  2
GEVID1210635182
 70
     0
  0
APPID
  5
D0C3
330
9
100
AcDbSymbolTableRecord
100
AcDbRegAppTableRecord
  2
GEVID1210635184
 70
     0
  0
APPID
  5
D0C4
330
9
100
AcDbSymbolTableRecord
100
AcDbRegAppTableRecord
  2
GEVID1210635185
 70
     0
  0
APPID
  5
D0C5
330
9
100
AcDbSymbolTableRecord
100
AcDbRegAppTableRecord
  2
GEVID1210635186
 70
     0
  0
APPID
  5
D0C6
330
9
100
AcDbSymbolTableRecord
100
AcDbRegAppTableRecord
  2
GEVID1210635187
 70
     0
  0
APPID
  5
D0C7
330
9
100
AcDbSymbolTableRecord
100
AcDbRegAppTableRecord
  2
GEVID1210635188
 70
     0
  0
APPID
  5
D0C8
330
9
100
AcDbSymbolTableRecord
100
AcDbRegAppTableRecord
  2
GEVID1210635189
 70
     0
  0
APPID
  5
D0C9
330
9
100
AcDbSymbolTableRecord
100
AcDbRegAppTableRecord
  2
GEVID1210635190
 70
     0
  0
APPID
  5
D0CA
330
9
100
AcDbSymbolTableRecord
100
AcDbRegAppTableRecord
  2
GENIUS_GENREC_14
 70
     0
  0
APPID
  5
D0CB
330
9
100
AcDbSymbolTableRecord
100
AcDbRegAppTableRecord
  2
GENIUS_GENOBJ-N-REC_13
 70
     0
  0
APPID
  5
D0CC
330
9
100
AcDbSymbolTableRecord
100
AcDbRegAppTableRecord
  2
GEVID1210676655
 70
     0
  0
APPID
  5
D0CD
330
9
100
AcDbSymbolTableRecord
100
AcDbRegAppTableRecord
  2
GEVID1210676656
 70
     0
  0
APPID
  5
D0CE
330
9
100
AcDbSymbolTableRecord
100
AcDbRegAppTableRecord
  2
GEVID1210676657
 70
     0
  0
APPID
  5
D0CF
330
9
100
AcDbSymbolTableRecord
100
AcDbRegAppTableRecord
  2
GEVID1210676659
 70
     0
  0
APPID
  5
D0D0
330
9
100
AcDbSymbolTableRecord
100
AcDbRegAppTableRecord
  2
GEVID1210676660
 70
     0
  0
APPID
  5
D0D1
330
9
100
AcDbSymbolTableRecord
100
AcDbRegAppTableRecord
  2
GEVID1210676661
 70
     0
  0
APPID
  5
D0D2
330
9
100
AcDbSymbolTableRecord
100
AcDbRegAppTableRecord
  2
GEVID1210676662
 70
     0
  0
APPID
  5
D0D3
330
9
100
AcDbSymbolTableRecord
100
AcDbRegAppTableRecord
  2
GEVID1210721646
 70
     0
  0
APPID
  5
D0D4
330
9
100
AcDbSymbolTableRecord
100
AcDbRegAppTableRecord
  2
GEVID1210721647
 70
     0
  0
APPID
  5
D0D5
330
9
100
AcDbSymbolTableRecord
100
AcDbRegAppTableRecord
  2
GEVID1210721648
 70
     0
  0
APPID
  5
D0D6
330
9
100
AcDbSymbolTableRecord
100
AcDbRegAppTableRecord
  2
GEVID1210721649
 70
     0
  0
APPID
  5
D0D7
330
9
100
AcDbSymbolTableRecord
100
AcDbRegAppTableRecord
  2
GEVID1210721650
 70
     0
  0
APPID
  5
D0D8
330
9
100
AcDbSymbolTableRecord
100
AcDbRegAppTableRecord
  2
GEVID1210721651
 70
     0
  0
APPID
  5
D0D9
330
9
100
AcDbSymbolTableRecord
100
AcDbRegAppTableRecord
  2
GEVID1210721652
 70
     0
  0
APPID
  5
D0DA
330
9
100
AcDbSymbolTableRecord
100
AcDbRegAppTableRecord
  2
GEVID1210721653
 70
     0
  0
APPID
  5
D0DB
330
9
100
AcDbSymbolTableRecord
100
AcDbRegAppTableRecord
  2
PE_URL
 70
     0
  0
APPID
  5
D0DC
330
9
100
AcDbSymbolTableRecord
100
AcDbRegAppTableRecord
  2
GEVID1210825555
 70
     0
  0
APPID
  5
D0DD
330
9
100
AcDbSymbolTableRecord
100
AcDbRegAppTableRecord
  2
GEVID1210825556
 70
     0
  0
APPID
  5
D0DE
330
9
100
AcDbSymbolTableRecord
100
AcDbRegAppTableRecord
  2
GEVID1210825557
 70
     0
  0
APPID
  5
D0DF
330
9
100
AcDbSymbolTableRecord
100
AcDbRegAppTableRecord
  2
GEVID1210825558
 70
     0
  0
APPID
  5
D0E0
330
9
100
AcDbSymbolTableRecord
100
AcDbRegAppTableRecord
  2
GEVID1210825559
 70
     0
  0
APPID
  5
D0E1
330
9
100
AcDbSymbolTableRecord
100
AcDbRegAppTableRecord
  2
GEVID1210825560
 70
     0
  0
APPID
  5
D0E2
330
9
100
AcDbSymbolTableRecord
100
AcDbRegAppTableRecord
  2
GEVID1210825561
 70
     0
  0
APPID
  5
D0E3
330
9
100
AcDbSymbolTableRecord
100
AcDbRegAppTableRecord
  2
GEVID1210825562
 70
     0
  0
APPID
  5
D0E4
330
9
100
AcDbSymbolTableRecord
100
AcDbRegAppTableRecord
  2
GEVID1210825563
 70
     0
  0
APPID
  5
D0E5
330
9
100
AcDbSymbolTableRecord
100
AcDbRegAppTableRecord
  2
GEVID1210825564
 70
     0
  0
APPID
  5
D0E6
330
9
100
AcDbSymbolTableRecord
100
AcDbRegAppTableRecord
  2
GEVID1210825565
 70
     0
  0
APPID
  5
D0E7
330
9
100
AcDbSymbolTableRecord
100
AcDbRegAppTableRecord
  2
GEVID1210825566
 70
     0
  0
APPID
  5
D0E8
330
9
100
AcDbSymbolTableRecord
100
AcDbRegAppTableRecord
  2
GEVID1210825567
 70
     0
  0
APPID
  5
D0E9
330
9
100
AcDbSymbolTableRecord
100
AcDbRegAppTableRecord
  2
GENIUS_GENOBJ-N-ZOO_13
 70
     0
  0
APPID
  5
D0EA
330
9
100
AcDbSymbolTableRecord
100
AcDbRegAppTableRecord
  2
GENIUS_GENZOO_17
 70
     0
  0
APPID
  5
D0EB
330
9
100
AcDbSymbolTableRecord
100
AcDbRegAppTableRecord
  2
ACADANNOTATIVEDECOMPOSITION
 70
     0
  0
APPID
  5
D0EC
330
9
100
AcDbSymbolTableRecord
100
AcDbRegAppTableRecord
  2
GENIUS_GENOBJ-N-HTC_13
 70
     0
  0
APPID
  5
D0ED
330
9
100
AcDbSymbolTableRecord
100
AcDbRegAppTableRecord
  2
GENIUS_GENHATCH_13
 70
     0
  0
APPID
  5
D0EE
330
9
100
AcDbSymbolTableRecord
100
AcDbRegAppTableRecord
  2
GEVID1210896020
 70
     0
  0
APPID
  5
D0EF
330
9
100
AcDbSymbolTableRecord
100
AcDbRegAppTableRecord
  2
GEVID1210896021
 70
     0
  0
APPID
  5
D0F0
330
9
100
AcDbSymbolTableRecord
100
AcDbRegAppTableRecord
  2
GEVID1209083540
 70
     0
  0
APPID
  5
D0F1
330
9
100
AcDbSymbolTableRecord
100
AcDbRegAppTableRecord
  2
GEVMK
 70
     0
  0
APPID
  5
D0F2
330
9
100
AcDbSymbolTableRecord
100
AcDbRegAppTableRecord
  2
GEVID1209083542
 70
     0
  0
APPID
  5
D0F3
330
9
100
AcDbSymbolTableRecord
100
AcDbRegAppTableRecord
  2
GEVID1209083543
 70
     0
  0
APPID
  5
D0F4
330
9
100
AcDbSymbolTableRecord
100
AcDbRegAppTableRecord
  2
GEVID1209083544
 70
     0
  0
APPID
  5
D0F5
330
9
100
AcDbSymbolTableRecord
100
AcDbRegAppTableRecord
  2
GEVID1209083545
 70
     0
  0
APPID
  5
D0F6
330
9
100
AcDbSymbolTableRecord
100
AcDbRegAppTableRecord
  2
GEVID1209083546
 70
     0
  0
APPID
  5
D0F7
330
9
100
AcDbSymbolTableRecord
100
AcDbRegAppTableRecord
  2
GEVID1209083547
 70
     0
  0
APPID
  5
D0F8
330
9
100
AcDbSymbolTableRecord
100
AcDbRegAppTableRecord
  2
GEVID1209083548
 70
     0
  0
APPID
  5
D0F9
330
9
100
AcDbSymbolTableRecord
100
AcDbRegAppTableRecord
  2
GEVID1209083549
 70
     0
  0
APPID
  5
D0FA
330
9
100
AcDbSymbolTableRecord
100
AcDbRegAppTableRecord
  2
GEVID1209083550
 70
     0
  0
APPID
  5
D0FB
330
9
100
AcDbSymbolTableRecord
100
AcDbRegAppTableRecord
  2
GEVID1209083551
 70
     0
  0
APPID
  5
D0FC
330
9
100
AcDbSymbolTableRecord
100
AcDbRegAppTableRecord
  2
GEVID1209083552
 70
     0
  0
APPID
  5
D0FD
330
9
100
AcDbSymbolTableRecord
100
AcDbRegAppTableRecord
  2
GEVID1209083553
 70
     0
  0
APPID
  5
D0FE
330
9
100
AcDbSymbolTableRecord
100
AcDbRegAppTableRecord
  2
GEVID1210896022
 70
     0
  0
APPID
  5
D0FF
330
9
100
AcDbSymbolTableRecord
100
AcDbRegAppTableRecord
  2
GEVID1211508364
 70
     0
  0
APPID
  5
D100
330
9
100
AcDbSymbolTableRecord
100
AcDbRegAppTableRecord
  2
GEVID1211414908
 70
     0
  0
APPID
  5
D101
330
9
100
AcDbSymbolTableRecord
100
AcDbRegAppTableRecord
  2
GEVID1211414909
 70
     0
  0
APPID
  5
D102
330
9
100
AcDbSymbolTableRecord
100
AcDbRegAppTableRecord
  2
GEVID1211508359
 70
     0
  0
APPID
  5
D103
330
9
100
AcDbSymbolTableRecord
100
AcDbRegAppTableRecord
  2
GEVID1211508360
 70
     0
  0
APPID
  5
D104
330
9
100
AcDbSymbolTableRecord
100
AcDbRegAppTableRecord
  2
GEVID1211508361
 70
     0
  0
APPID
  5
D105
330
9
100
AcDbSymbolTableRecord
100
AcDbRegAppTableRecord
  2
GEVID1211508362
 70
     0
  0
APPID
  5
D106
330
9
100
AcDbSymbolTableRecord
100
AcDbRegAppTableRecord
  2
GEVID1211508363
 70
     0
  0
APPID
  5
D107
330
9
100
AcDbSymbolTableRecord
100
AcDbRegAppTableRecord
  2
GEVID1211878469
 70
     0
  0
APPID
  5
D108
330
9
100
AcDbSymbolTableRecord
100
AcDbRegAppTableRecord
  2
GEVID1212642819
 70
     0
  0
APPID
  5
D109
330
9
100
AcDbSymbolTableRecord
100
AcDbRegAppTableRecord
  2
GEVID1212642820
 70
     0
  0
APPID
  5
D10A
330
9
100
AcDbSymbolTableRecord
100
AcDbRegAppTableRecord
  2
GEVID1212642821
 70
     0
  0
APPID
  5
D10B
330
9
100
AcDbSymbolTableRecord
100
AcDbRegAppTableRecord
  2
GEVID1212642822
 70
     0
  0
APPID
  5
D10C
330
9
100
AcDbSymbolTableRecord
100
AcDbRegAppTableRecord
  2
GEVID1212642823
 70
     0
  0
APPID
  5
D10D
330
9
100
AcDbSymbolTableRecord
100
AcDbRegAppTableRecord
  2
GEVID1212642825
 70
     0
  0
APPID
  5
D10E
330
9
100
AcDbSymbolTableRecord
100
AcDbRegAppTableRecord
  2
GEVID1212642826
 70
     0
  0
APPID
  5
D10F
330
9
100
AcDbSymbolTableRecord
100
AcDbRegAppTableRecord
  2
GEVID1212642827
 70
     0
  0
APPID
  5
D110
330
9
100
AcDbSymbolTableRecord
100
AcDbRegAppTableRecord
  2
GEVID1212642828
 70
     0
  0
APPID
  5
D111
330
9
100
AcDbSymbolTableRecord
100
AcDbRegAppTableRecord
  2
GEVID1212642831
 70
     0
  0
APPID
  5
D112
330
9
100
AcDbSymbolTableRecord
100
AcDbRegAppTableRecord
  2
GEVID1212642834
 70
     0
  0
APPID
  5
D113
330
9
100
AcDbSymbolTableRecord
100
AcDbRegAppTableRecord
  2
GEVID1212642835
 70
     0
  0
APPID
  5
D114
330
9
100
AcDbSymbolTableRecord
100
AcDbRegAppTableRecord
  2
GEVID1212642836
 70
     0
  0
APPID
  5
D115
330
9
100
AcDbSymbolTableRecord
100
AcDbRegAppTableRecord
  2
GEVID1212642837
 70
     0
  0
APPID
  5
D116
330
9
100
AcDbSymbolTableRecord
100
AcDbRegAppTableRecord
  2
GEVID1212642839
 70
     0
  0
APPID
  5
D117
330
9
100
AcDbSymbolTableRecord
100
AcDbRegAppTableRecord
  2
GEVID1212642840
 70
     0
  0
APPID
  5
D118
330
9
100
AcDbSymbolTableRecord
100
AcDbRegAppTableRecord
  2
GEVID1212642841
 70
     0
  0
APPID
  5
D119
330
9
100
AcDbSymbolTableRecord
100
AcDbRegAppTableRecord
  2
GEVID1212655312
 70
     0
  0
APPID
  5
D11A
330
9
100
AcDbSymbolTableRecord
100
AcDbRegAppTableRecord
  2
GEVID1212655313
 70
     0
  0
APPID
  5
D11B
330
9
100
AcDbSymbolTableRecord
100
AcDbRegAppTableRecord
  2
GEVID1212656533
 70
     0
  0
APPID
  5
D11C
330
9
100
AcDbSymbolTableRecord
100
AcDbRegAppTableRecord
  2
GEVID1212656534
 70
     0
  0
APPID
  5
D11D
330
9
100
AcDbSymbolTableRecord
100
AcDbRegAppTableRecord
  2
GEVID1212656535
 70
     0
  0
APPID
  5
D11E
330
9
100
AcDbSymbolTableRecord
100
AcDbRegAppTableRecord
  2
GEVID1212656536
 70
     0
  0
APPID
  5
D11F
330
9
100
AcDbSymbolTableRecord
100
AcDbRegAppTableRecord
  2
GEVID1212656538
 70
     0
  0
APPID
  5
D120
330
9
100
AcDbSymbolTableRecord
100
AcDbRegAppTableRecord
  2
GEVID1212656541
 70
     0
  0
APPID
  5
D121
330
9
100
AcDbSymbolTableRecord
100
AcDbRegAppTableRecord
  2
GEVID1212656543
 70
     0
  0
APPID
  5
D122
330
9
100
AcDbSymbolTableRecord
100
AcDbRegAppTableRecord
  2
GENIUS_GENOBJ-F-PFASSM_13
 70
     0
  0
APPID
  5
D123
330
9
100
AcDbSymbolTableRecord
100
AcDbRegAppTableRecord
  2
GEVID1212656544
 70
     0
  0
APPID
  5
D124
330
9
100
AcDbSymbolTableRecord
100
AcDbRegAppTableRecord
  2
GEVID1212656545
 70
     0
  0
APPID
  5
D125
330
9
100
AcDbSymbolTableRecord
100
AcDbRegAppTableRecord
  2
GEVID1212656546
 70
     0
  0
APPID
  5
D126
330
9
100
AcDbSymbolTableRecord
100
AcDbRegAppTableRecord
  2
GEVID1212656547
 70
     0
  0
APPID
  5
D127
330
9
100
AcDbSymbolTableRecord
100
AcDbRegAppTableRecord
  2
GEVID1212656548
 70
     0
  0
APPID
  5
D128
330
9
100
AcDbSymbolTableRecord
100
AcDbRegAppTableRecord
  2
GEVID1212656549
 70
     0
  0
APPID
  5
D129
330
9
100
AcDbSymbolTableRecord
100
AcDbRegAppTableRecord
  2
GEVID1212656550
 70
     0
  0
APPID
  5
D12A
330
9
100
AcDbSymbolTableRecord
100
AcDbRegAppTableRecord
  2
GEVID1212656552
 70
     0
  0
APPID
  5
D12B
330
9
100
AcDbSymbolTableRecord
100
AcDbRegAppTableRecord
  2
GEVID1212656553
 70
     0
  0
APPID
  5
D12C
330
9
100
AcDbSymbolTableRecord
100
AcDbRegAppTableRecord
  2
GEVID1212656554
 70
     0
  0
APPID
  5
D12D
330
9
100
AcDbSymbolTableRecord
100
AcDbRegAppTableRecord
  2
GEVID1212656555
 70
     0
  0
APPID
  5
D12E
330
9
100
AcDbSymbolTableRecord
100
AcDbRegAppTableRecord
  2
GEVID1212656556
 70
     0
  0
APPID
  5
D12F
330
9
100
AcDbSymbolTableRecord
100
AcDbRegAppTableRecord
  2
GEVID1212656557
 70
     0
  0
APPID
  5
D130
330
9
100
AcDbSymbolTableRecord
100
AcDbRegAppTableRecord
  2
GEVID1212656559
 70
     0
  0
APPID
  5
D131
330
9
100
AcDbSymbolTableRecord
100
AcDbRegAppTableRecord
  2
GEVID1212656560
 70
     0
  0
APPID
  5
D132
330
9
100
AcDbSymbolTableRecord
100
AcDbRegAppTableRecord
  2
GEVID1212656561
 70
     0
  0
APPID
  5
D133
330
9
100
AcDbSymbolTableRecord
100
AcDbRegAppTableRecord
  2
GEVID1212656562
 70
     0
  0
APPID
  5
D134
330
9
100
AcDbSymbolTableRecord
100
AcDbRegAppTableRecord
  2
GEVID1212656563
 70
     0
  0
APPID
  5
D135
330
9
100
AcDbSymbolTableRecord
100
AcDbRegAppTableRecord
  2
GEVID1212711781
 70
     0
  0
APPID
  5
D136
330
9
100
AcDbSymbolTableRecord
100
AcDbRegAppTableRecord
  2
GEVID1212711782
 70
     0
  0
APPID
  5
D137
330
9
100
AcDbSymbolTableRecord
100
AcDbRegAppTableRecord
  2
GEVID1212711783
 70
     0
  0
APPID
  5
D138
330
9
100
AcDbSymbolTableRecord
100
AcDbRegAppTableRecord
  2
GEVID1212711784
 70
     0
  0
APPID
  5
D139
330
9
100
AcDbSymbolTableRecord
100
AcDbRegAppTableRecord
  2
GEVID1212711788
 70
     0
  0
APPID
  5
D13A
330
9
100
AcDbSymbolTableRecord
100
AcDbRegAppTableRecord
  2
GEVID1212711789
 70
     0
  0
APPID
  5
D13B
330
9
100
AcDbSymbolTableRecord
100
AcDbRegAppTableRecord
  2
GEVID1212711790
 70
     0
  0
APPID
  5
D13C
330
9
100
AcDbSymbolTableRecord
100
AcDbRegAppTableRecord
  2
GEVID1212711791
 70
     0
  0
APPID
  5
D13D
330
9
100
AcDbSymbolTableRecord
100
AcDbRegAppTableRecord
  2
GEVID1212711792
 70
     0
  0
APPID
  5
D13E
330
9
100
AcDbSymbolTableRecord
100
AcDbRegAppTableRecord
  2
GEVID1212711793
 70
     0
  0
APPID
  5
D13F
330
9
100
AcDbSymbolTableRecord
100
AcDbRegAppTableRecord
  2
GEVID1212711794
 70
     0
  0
APPID
  5
D140
330
9
100
AcDbSymbolTableRecord
100
AcDbRegAppTableRecord
  2
GEVID1212711795
 70
     0
  0
APPID
  5
D141
330
9
100
AcDbSymbolTableRecord
100
AcDbRegAppTableRecord
  2
GEVID1212711797
 70
     0
  0
APPID
  5
D142
330
9
100
AcDbSymbolTableRecord
100
AcDbRegAppTableRecord
  2
GEVID1212711798
 70
     0
  0
APPID
  5
D143
330
9
100
AcDbSymbolTableRecord
100
AcDbRegAppTableRecord
  2
GEVID1212711799
 70
     0
  0
APPID
  5
D144
330
9
100
AcDbSymbolTableRecord
100
AcDbRegAppTableRecord
  2
GEVID1212711800
 70
     0
  0
APPID
  5
D145
330
9
100
AcDbSymbolTableRecord
100
AcDbRegAppTableRecord
  2
GEVID1212711801
 70
     0
  0
APPID
  5
D146
330
9
100
AcDbSymbolTableRecord
100
AcDbRegAppTableRecord
  2
GEVID1212711802
 70
     0
  0
APPID
  5
D147
330
9
100
AcDbSymbolTableRecord
100
AcDbRegAppTableRecord
  2
GEVID1212711803
 70
     0
  0
APPID
  5
D148
330
9
100
AcDbSymbolTableRecord
100
AcDbRegAppTableRecord
  2
GEVID1212711804
 70
     0
  0
APPID
  5
D149
330
9
100
AcDbSymbolTableRecord
100
AcDbRegAppTableRecord
  2
GEVID1212711805
 70
     0
  0
APPID
  5
D14A
330
9
100
AcDbSymbolTableRecord
100
AcDbRegAppTableRecord
  2
GEVID1212711806
 70
     0
  0
APPID
  5
D14B
330
9
100
AcDbSymbolTableRecord
100
AcDbRegAppTableRecord
  2
GEVID1212711807
 70
     0
  0
APPID
  5
D14C
330
9
100
AcDbSymbolTableRecord
100
AcDbRegAppTableRecord
  2
GEVID1212711808
 70
     0
  0
APPID
  5
D14D
330
9
100
AcDbSymbolTableRecord
100
AcDbRegAppTableRecord
  2
GEVID1212711809
 70
     0
  0
APPID
  5
D14E
330
9
100
AcDbSymbolTableRecord
100
AcDbRegAppTableRecord
  2
GEVID1212711810
 70
     0
  0
APPID
  5
D14F
330
9
100
AcDbSymbolTableRecord
100
AcDbRegAppTableRecord
  2
GEVID1212711811
 70
     0
  0
APPID
  5
D150
330
9
100
AcDbSymbolTableRecord
100
AcDbRegAppTableRecord
  2
GENIUS_GENTRA_14
 70
     0
  0
APPID
  5
D151
330
9
100
AcDbSymbolTableRecord
100
AcDbRegAppTableRecord
  2
GENIUS_GENOBJ-N-TIT_13
 70
     0
  0
APPID
  5
D152
330
9
100
AcDbSymbolTableRecord
100
AcDbRegAppTableRecord
  2
GENIUS_GENTITLE_13
 70
     0
  0
APPID
  5
D153
330
9
100
AcDbSymbolTableRecord
100
AcDbRegAppTableRecord
  2
GENIUS_GENBLLY_14
 70
     0
  0
APPID
  5
D154
330
9
100
AcDbSymbolTableRecord
100
AcDbRegAppTableRecord
  2
GEVID1213165152
 70
     0
  0
APPID
  5
D155
330
9
100
AcDbSymbolTableRecord
100
AcDbRegAppTableRecord
  2
AcDbDynamicBlockTrueName
 70
     0
  0
APPID
  5
D156
330
9
100
AcDbSymbolTableRecord
100
AcDbRegAppTableRecord
  2
ACDBBLOCKREPETAG
 70
     0
  0
APPID
  5
D157
330
9
100
AcDbSymbolTableRecord
100
AcDbRegAppTableRecord
  2
GEVID1214872427
 70
     0
  0
APPID
  5
D158
330
9
100
AcDbSymbolTableRecord
100
AcDbRegAppTableRecord
  2
GEVID1214872428
 70
     0
  0
APPID
  5
D159
330
9
100
AcDbSymbolTableRecord
100
AcDbRegAppTableRecord
  2
GEVID1214872429
 70
     0
  0
APPID
  5
D15A
330
9
100
AcDbSymbolTableRecord
100
AcDbRegAppTableRecord
  2
GEVID1214872430
 70
     0
  0
APPID
  5
D15B
330
9
100
AcDbSymbolTableRecord
100
AcDbRegAppTableRecord
  2
GEVID1214872432
 70
     0
  0
APPID
  5
D15C
330
9
100
AcDbSymbolTableRecord
100
AcDbRegAppTableRecord
  2
GEVID1214872433
 70
     0
  0
APPID
  5
D15D
330
9
100
AcDbSymbolTableRecord
100
AcDbRegAppTableRecord
  2
AcDbDynamicBlockGUID
 70
     0
  0
APPID
  5
D15E
330
9
100
AcDbSymbolTableRecord
100
AcDbRegAppTableRecord
  2
GENIUS_GENOBJ-N-REV_13
 70
     0
  0
APPID
  5
D15F
330
9
100
AcDbSymbolTableRecord
100
AcDbRegAppTableRecord
  2
GENIUS_GENOBJ-N-RSSYM_13
 70
     0
  0
APPID
  5
D160
330
9
100
AcDbSymbolTableRecord
100
AcDbRegAppTableRecord
  2
GENIUS_GENSYMENT_13
 70
     0
  0
APPID
  5
D161
330
9
100
AcDbSymbolTableRecord
100
AcDbRegAppTableRecord
  2
GENIUS_GENSCSYM_13
 70
     0
  0
ENDTAB
  0
TABLE
  2
DIMSTYLE
  5
A
330
0
100
AcDbSymbolTable
 70
    31
100
AcDbDimStyleTable
 71
     3
340
CFAD
340
AE0
340
250
  0
DIMSTYLE
105
250
330
A
100
AcDbSymbolTableRecord
100
AcDbDimStyleTableRecord
  2
STANDARD
 70
     0
340
10
  0
DIMSTYLE
105
AE0
102
{ACAD_REACTORS
330
ADB2
330
ADB1
330
ADB0
330
AEBB
330
AF3B
330
AF3A
330
AF39
330
AECD
330
AECC
330
AEC8
330
AEC9
330
AF8C
330
BB8A
330
AF84
330
D3B4
330
D49A
330
D470
102
}
330
A
100
AcDbSymbolTableRecord
100
AcDbDimStyleTableRecord
  2
ISO-25
 70
     0
 40
10.0
 41
2.5
 42
0.625
 43
10.0
 44
1.25
 73
     0
 74
     0
 77
     3
 78
     8
 79
     2
140
3.5
141
2.5
143
0.03937007874016
147
1.0
171
     3
172
     1
176
   256
177
   256
178
   256
179
     3
271
     3
272
     3
274
     3
283
     0
284
     8
289
     1
340
306
341
322
342
322
371
    -1
372
    -1
  0
DIMSTYLE
105
CFAD
330
A
100
AcDbSymbolTableRecord
100
AcDbDimStyleTableRecord
  2
SEISA
 70
     0
  4
"
 41
2.5
 42
0.625
 43
10.0
 44
0.625
 47
0.1
 48
0.1
 73
     0
 74
     0
 77
     3
 78
     8
 79
     2
 90
     1
140
3.5
141
0.0
143
0.0393701
146
0.71
147
1.5
172
     1
176
     3
177
     3
178
     3
271
     2
272
     3
283
     0
286
     8
340
306
341
322
342
322
371
    -1
372
    -1
1001
ACAD_DSTYLE_DIMJAG
1070
   388
1040
1.5
1001
ACAD_DSTYLE_DIMTALN
1070
   392
1070
     1
  0
DIMSTYLE
105
D74A
330
A
100
AcDbSymbolTableRecord
100
AcDbDimStyleTableRecord
  2
AM_ISO
 70
     0
  4
"
 41
2.5
 42
1.0
 43
10.0
 44
1.0
 47
0.1
 48
0.1
 73
     0
 74
     0
 77
     1
 78
     8
 79
     2
 90
     1
140
3.5
141
0.0
143
0.0393701
146
0.71
147
1.5
172
     1
176
   256
177
   256
178
     2
271
     2
272
     3
274
     4
283
     0
284
     8
340
10
371
    -1
372
    -1
  0
DIMSTYLE
105
D74B
330
A
100
AcDbSymbolTableRecord
100
AcDbDimStyleTableRecord
  2
AM_ISO$3
 70
     0
  4
"
 41
2.5
 42
1.0
 43
10.0
 44
1.0
 47
0.1
 48
0.1
 73
     0
 77
     1
 78
     8
 79
     2
 90
     1
140
3.5
141
0.0
143
0.0393701
146
0.71
147
1.5
176
   256
177
   256
178
     2
271
     2
272
     3
274
     4
283
     0
284
     8
288
     1
289
     0
340
10
371
    -1
372
    -1
  0
DIMSTYLE
105
D74C
330
A
100
AcDbSymbolTableRecord
100
AcDbDimStyleTableRecord
  2
AM_ISO$4
 70
     0
  4
"
 41
2.5
 42
1.0
 43
10.0
 44
1.0
 47
0.1
 48
0.1
 73
     0
 77
     1
 78
     8
 79
     2
 90
     1
140
3.5
141
0.0
143
0.0393701
146
0.71
147
1.5
176
   256
177
   256
178
     2
271
     2
272
     3
274
     4
283
     0
284
     8
288
     1
289
     0
340
10
371
    -1
372
    -1
  0
DIMSTYLE
105
D74D
330
A
100
AcDbSymbolTableRecord
100
AcDbDimStyleTableRecord
  2
AM_ISO$6
 70
     0
  4
"
 41
2.5
 42
1.0
 43
10.0
 44
1.0
 47
0.1
 48
0.1
 73
     0
 74
     0
 78
     8
 79
     2
 90
     1
140
3.5
141
0.0
143
0.0393701
146
0.71
147
1.5
172
     1
176
   256
177
   256
178
     2
271
     2
272
     3
274
     4
283
     0
284
     8
340
10
371
    -1
372
    -1
  0
DIMSTYLE
105
D74E
330
A
100
AcDbSymbolTableRecord
100
AcDbDimStyleTableRecord
  2
AM_ISO$7
 70
     0
  4
"
 41
2.5
 42
1.0
 43
10.0
 44
1.0
 47
0.1
 48
0.1
 73
     0
 74
     0
 77
     1
 78
     8
 79
     2
 90
     1
140
5.0
141
0.0
143
0.0393701
146
0.71
147
1.5
172
     1
176
   256
177
   256
178
     2
271
     2
272
     3
274
     4
283
     0
284
     8
340
10
371
    -1
372
    -1
  0
DIMSTYLE
105
D74F
330
A
100
AcDbSymbolTableRecord
100
AcDbDimStyleTableRecord
  2
AM_ISO$SF
 70
     0
  4
"
 41
2.5
 42
1.0
 43
10.0
 44
1.0
 47
0.1
 48
0.1
 73
     0
 74
     0
 75
     1
 76
     1
 77
     1
 78
     8
 79
     2
 90
     1
140
3.5
141
0.0
143
0.0393701
146
0.71
147
1.5
172
     1
176
   256
177
   256
178
     2
271
     2
272
     3
274
     4
283
     0
284
     8
340
10
371
    -1
372
    -1
  0
DIMSTYLE
105
D750
330
A
100
AcDbSymbolTableRecord
100
AcDbDimStyleTableRecord
  2
AM_ISO$SH
 70
     0
  4
"
 41
2.5
 42
1.0
 43
10.0
 44
1.0
 47
0.1
 48
0.1
 73
     0
 74
     0
 75
     1
 76
     1
 77
     1
 78
     8
 79
     2
 90
     1
140
3.5
141
0.0
143
0.0393701
144
2.0
146
0.71
147
1.5
172
     1
173
     1
176
   256
177
   256
178
     2
271
     2
272
     3
274
     4
283
     0
284
     8
340
10
343
CEAC
371
    -1
372
    -1
  0
ENDTAB
  0
TABLE
  2
BLOCK_RECORD
  5
1
330
0
100
AcDbSymbolTable
 70
    26
  0
BLOCK_RECORD
  5
18
102
{ACAD_XDICTIONARY
360
CB39
102
}
330
1
100
AcDbSymbolTableRecord
100
AcDbBlockTableRecord
  2
*MODEL_SPACE
340
28E
 70
     0
280
     1
281
     0
  0
BLOCK_RECORD
  5
15
330
1
100
AcDbSymbolTableRecord
100
AcDbBlockTableRecord
  2
*PAPER_SPACE
340
28F
 70
     0
280
     1
281
     0
  0
BLOCK_RECORD
  5
322
330
1
100
AcDbSymbolTableRecord
100
AcDbBlockTableRecord
  2
_Open30
340
0
102
{BLKREFS
331
D2CB
331
D2CC
331
D2D4
331
D2D5
331
D2DD
331
D2DE
331
D2E6
331
D2E7
331
D336
331
D337
331
D33F
331
D340
331
D348
331
D349
331
D354
331
D355
331
D3EA
331
D3EB
331
D3F3
331
D3F4
331
D40B
331
D40C
331
D441
331
D44C
331
D46A
331
D46B
331
D519
331
D51A
331
D522
331
D523
331
D546
331
D547
102
}
 70
     0
280
     1
281
     0
  0
BLOCK_RECORD
  5
2F48
330
1
100
AcDbSymbolTableRecord
100
AcDbBlockTableRecord
  2
_DotSmall
340
0
102
{BLKREFS
331
D442
331
D44B
102
}
 70
     0
280
     1
281
     0
  0
BLOCK_RECORD
  5
B114
330
1
100
AcDbSymbolTableRecord
100
AcDbBlockTableRecord
  2
*D2
340
0
 70
     0
280
     1
281
     0
  0
BLOCK_RECORD
  5
B121
330
1
100
AcDbSymbolTableRecord
100
AcDbBlockTableRecord
  2
*D3
340
0
 70
     0
280
     1
281
     0
  0
BLOCK_RECORD
  5
B12E
330
1
100
AcDbSymbolTableRecord
100
AcDbBlockTableRecord
  2
*D4
340
0
 70
     0
280
     1
281
     0
  0
BLOCK_RECORD
  5
B13B
330
1
100
AcDbSymbolTableRecord
100
AcDbBlockTableRecord
  2
*D5
340
0
 70
     0
280
     1
281
     0
  0
BLOCK_RECORD
  5
B148
330
1
100
AcDbSymbolTableRecord
100
AcDbBlockTableRecord
  2
*D6
340
0
 70
     0
280
     1
281
     0
  0
BLOCK_RECORD
  5
B155
330
1
100
AcDbSymbolTableRecord
100
AcDbBlockTableRecord
  2
*D7
340
0
 70
     0
280
     1
281
     0
  0
BLOCK_RECORD
  5
B17C
330
1
100
AcDbSymbolTableRecord
100
AcDbBlockTableRecord
  2
*D8
340
0
 70
     0
280
     1
281
     0
  0
BLOCK_RECORD
  5
B189
330
1
100
AcDbSymbolTableRecord
100
AcDbBlockTableRecord
  2
*D9
340
0
 70
     0
280
     1
281
     0
  0
BLOCK_RECORD
  5
B1A0
330
1
100
AcDbSymbolTableRecord
100
AcDbBlockTableRecord
  2
*D10
340
0
 70
     0
280
     1
281
     0
  0
BLOCK_RECORD
  5
B1AD
330
1
100
AcDbSymbolTableRecord
100
AcDbBlockTableRecord
  2
*D11
340
0
 70
     0
280
     1
281
     0
  0
BLOCK_RECORD
  5
B1BA
330
1
100
AcDbSymbolTableRecord
100
AcDbBlockTableRecord
  2
*D12
340
0
 70
     0
280
     1
281
     0
  0
BLOCK_RECORD
  5
B1C7
330
1
100
AcDbSymbolTableRecord
100
AcDbBlockTableRecord
  2
*D13
340
0
 70
     0
280
     1
281
     0
  0
BLOCK_RECORD
  5
B1D4
330
1
100
AcDbSymbolTableRecord
100
AcDbBlockTableRecord
  2
*D14
340
0
 70
     0
280
     1
281
     0
  0
BLOCK_RECORD
  5
BB8B
330
1
100
AcDbSymbolTableRecord
100
AcDbBlockTableRecord
  2
*D15
340
0
 70
     0
280
     1
281
     0
  0
BLOCK_RECORD
  5
CEAC
330
1
100
AcDbSymbolTableRecord
100
AcDbBlockTableRecord
  2
GENAXEH
340
0
 70
     0
280
     1
281
     0
  0
BLOCK_RECORD
  5
D3B5
330
1
100
AcDbSymbolTableRecord
100
AcDbBlockTableRecord
  2
*D20
340
0
 70
     0
280
     1
281
     0
  0
BLOCK_RECORD
  5
D471
330
1
100
AcDbSymbolTableRecord
100
AcDbBlockTableRecord
  2
*D21
340
0
 70
     0
280
     1
281
     0
  0
BLOCK_RECORD
  5
D49B
330
1
100
AcDbSymbolTableRecord
100
AcDbBlockTableRecord
  2
*D22
340
0
 70
     0
280
     1
281
     0
  0
BLOCK_RECORD
  5
D647
102
{ACAD_XDICTIONARY
360
D69F
102
}
330
1
100
AcDbSymbolTableRecord
100
AcDbBlockTableRecord
  2
GCｻｲﾄﾞｶﾊﾞｰ　CEM630
340
0
310
2800000020000000200000000100080000000000000400000000000000000000000000000000000000000000000080000080000000808000800000008000800080800000C0C0C000C0DCC000F0CAA6000020400000206000002080000020A0000020C0000020E00000400000004020000040400000406000004080000040A0
310
000040C0000040E00000600000006020000060400000606000006080000060A0000060C0000060E00000800000008020000080400000806000008080000080A0000080C0000080E00000A0000000A0200000A0400000A0600000A0800000A0A00000A0C00000A0E00000C0000000C0200000C0400000C0600000C0800000C0
310
A00000C0C00000C0E00000E0000000E0200000E0400000E0600000E0800000E0A00000E0C00000E0E00040000000400020004000400040006000400080004000A0004000C0004000E00040200000402020004020400040206000402080004020A0004020C0004020E000404000004040200040404000404060004040800040
310
40A0004040C0004040E00040600000406020004060400040606000406080004060A0004060C0004060E00040800000408020004080400040806000408080004080A0004080C0004080E00040A0000040A0200040A0400040A0600040A0800040A0A00040A0C00040A0E00040C0000040C0200040C0400040C0600040C08000
310
40C0A00040C0C00040C0E00040E0000040E0200040E0400040E0600040E0800040E0A00040E0C00040E0E00080000000800020008000400080006000800080008000A0008000C0008000E00080200000802020008020400080206000802080008020A0008020C0008020E00080400000804020008040400080406000804080
310
008040A0008040C0008040E00080600000806020008060400080606000806080008060A0008060C0008060E00080800000808020008080400080806000808080008080A0008080C0008080E00080A0000080A0200080A0400080A0600080A0800080A0A00080A0C00080A0E00080C0000080C0200080C0400080C0600080C0
310
800080C0A00080C0C00080C0E00080E0000080E0200080E0400080E0600080E0800080E0A00080E0C00080E0E000C0000000C0002000C0004000C0006000C0008000C000A000C000C000C000E000C0200000C0202000C0204000C0206000C0208000C020A000C020C000C020E000C0400000C0402000C0404000C0406000C0
310
408000C040A000C040C000C040E000C0600000C0602000C0604000C0606000C0608000C060A000C060C000C060E000C0800000C0802000C0804000C0806000C0808000C080A000C080C000C080E000C0A00000C0A02000C0A04000C0A06000C0A08000C0A0A000C0A0C000C0A0E000C0C00000C0C02000C0C04000C0C06000
310
C0C08000C0C0A000F0FBFF00A4A0A000808080000000FF0000FF000000FFFF00FF000000FF00FF00FFFF0000FFFFFF00000000000000000000000000000000000000000000000000000000000000000000000000000000FC0000FC0000000000000000FC0000FC00000000000000000000000000000000FC0000FC00000000
310
00000000FC0000FC00000000000000000000000000000000FCFCFCFC0000000000000000FCFCFCFC00000000000000000000000000000000FC0000FC0000000000000000FC0000FC00000000000000000000000000000000FC0000FC0000000000000000FC0000FC00000000000000000000000000000000FC0000FC000000
310
0000000000FC0000FC00000000000000000000000000000000FC0000FCFCFCFCFCFCFCFCFCFC0000FC00000000000000000000000000000000FC0000000000000000000000000000FC00000000000000000000000000000000FC0000000000000000000000000000FC00000000000000000000000000000000FC0000000000
310
000000000000000000FC00000000000000000000000000000000FC0000000000000000000000000000FC00000000000000000000000000000000FC0000000000000000000000000000FC00000000000000000000000000000000FC0000000000000000000000000000FC00000000000000000000000000000000FCFCFCFCFC
310
FCFC0000000000000000FC00000000000000000000000000000000000000000000FC0000000000000000FC00000000000000000000000000000000000000000000FC0000000000000000FC0000000000000000000000000000000000000000FCFCFC0000000000000000FC0000000000000000000000000000000000000000
310
FC00000000000000000000FC0000000000000000000000000000000000000000FC00000000000000000000FC0000000000000000000000000000000000000000FC00000000000000000000FC0000000000000000000000000000000000000000FC00000000000000000000FC00000000000000000000000000000000000000
310
00FC00000000000000000000FC00000000000000000000000000000000FCFCFCFCFCFCFCFCFCFCFCFCFCFCFCFCFCFC000000000000000000000000000000000000FC00000000000000000000FC0000000000000000000000000000000000000000FC00000000000000000000FC000000000000000000000000000000000000
310
0000FC00000000000000000000FC0000000000000000000000000000000000000000FC00000000000000000000FC0000000000000000000000000000000000000000FC00000000000000000000FC0000000000000000000000000000000000000000FC00000000000000000000FC0000000000000000000000000000000000
310
000000FCFCFCFCFCFCFCFCFCFCFCFC0000000000000000000000000000000000000000000000000000000000000000000000000000000000
102
{BLKREFS
331
D65D
102
}
 70
     4
280
     1
281
     1
  0
ENDTAB
  0
ENDSEC
  0
SECTION
  2
BLOCKS
  0
BLOCK
  5
4F
330
18
100
AcDbEntity
  8
0
100
AcDbBlockBegin
  2
*MODEL_SPACE
 70
     0
 10
0.0
 20
0.0
 30
0.0
  3
*MODEL_SPACE
  1

  0
ENDBLK
  5
50
330
18
100
AcDbEntity
  8
0
100
AcDbBlockEnd
  0
BLOCK
  5
4D
330
15
100
AcDbEntity
 67
     1
  8
0
100
AcDbBlockBegin
  2
*PAPER_SPACE
 70
     0
 10
0.0
 20
0.0
 30
0.0
  3
*PAPER_SPACE
  1

  0
ENDBLK
  5
4E
330
15
100
AcDbEntity
 67
     1
  8
0
100
AcDbBlockEnd
  0
BLOCK
  5
D183
330
322
100
AcDbEntity
  8
0
100
AcDbBlockBegin
  2
_Open30
 70
     0
 10
0.0
 20
0.0
 30
0.0
  3
_Open30
  1

  0
LINE
  5
D184
330
322
100
AcDbEntity
  8
0
  6
ByBlock
 62
     0
370
    -2
100
AcDbLine
 10
-1.0
 20
0.26794919
 30
0.0
 11
0.0
 21
0.0
 31
0.0
  0
LINE
  5
D185
330
322
100
AcDbEntity
  8
0
  6
ByBlock
 62
     0
370
    -2
100
AcDbLine
 10
0.0
 20
0.0
 30
0.0
 11
-1.0
 21
-0.26794919
 31
0.0
  0
LINE
  5
D186
330
322
100
AcDbEntity
  8
0
  6
ByBlock
 62
     0
370
    -2
100
AcDbLine
 10
0.0
 20
0.0
 30
0.0
 11
-1.0
 21
0.0
 31
0.0
  0
ENDBLK
  5
D187
330
322
100
AcDbEntity
  8
0
100
AcDbBlockEnd
  0
BLOCK
  5
2F4A
330
2F48
100
AcDbEntity
  8
0
100
AcDbBlockBegin
  2
_DotSmall
 70
     0
 10
0.0
 20
0.0
 30
0.0
  3
_DotSmall
  1

  0
LWPOLYLINE
  5
2F49
330
2F48
100
AcDbEntity
  8
中心線
 62
     0
100
AcDbPolyline
 90
        2
 70
     1
 43
0.5
 10
-0.0625
 20
0.0
 42
1.0
 10
0.0625
 20
0.0
 42
1.0
  0
ENDBLK
  5
2F4B
330
2F48
100
AcDbEntity
  8
0
100
AcDbBlockEnd
  0
BLOCK
  5
B11F
330
B114
100
AcDbEntity
  8
0
100
AcDbBlockBegin
  2
*D2
 70
     1
 10
0.0
 20
0.0
 30
0.0
  3
*D2
  1

  0
LINE
  5
D2C8
330
B114
100
AcDbEntity
  8
AM_5 寸法線
100
AcDbLine
 10
-461.3871028616832
 20
1814.544604688718
 30
0.0
 11
-461.3871028616832
 21
1503.294604688718
 31
0.0
  0
LINE
  5
D2C9
330
B114
100
AcDbEntity
  8
AM_5 寸法線
100
AcDbLine
 10
196.6128971383168
 20
1837.044604688718
 30
0.0
 11
196.6128971383168
 21
1503.294604688718
 31
0.0
  0
LINE
  5
D2CA
330
B114
100
AcDbEntity
  8
AM_5 寸法線
100
AcDbLine
 10
-436.3871028616832
 20
1515.794604688718
 30
0.0
 11
171.6128971383168
 21
1515.794604688718
 31
0.0
  0
INSERT
  5
D2CB
330
B114
100
AcDbEntity
  8
AM_5 寸法線
100
AcDbBlockReference
  2
_Open30
 10
-461.3871028616832
 20
1515.794604688718
 30
0.0
 41
25.0
 42
25.0
 43
25.0
 50
180.0
  0
INSERT
  5
D2CC
330
B114
100
AcDbEntity
  8
AM_5 寸法線
100
AcDbBlockReference
  2
_Open30
 10
196.6128971383168
 20
1515.794604688718
 30
0.0
 41
25.0
 42
25.0
 43
25.0
  0
MTEXT
  5
D2CD
330
B114
100
AcDbEntity
  8
AM_5 寸法線
100
AcDbMText
 10
-132.3871028616831
 20
1543.294604688718
 30
0.0
 40
35.0
 41
0.0
 46
0.0
 71
     5
 72
     1
  1
658
  7
SEISA
 73
     1
 44
1.0
  0
POINT
  5
D2CE
330
B114
100
AcDbEntity
  8
Defpoints
 62
     0
100
AcDbPoint
 10
-461.3871028616832
 20
1820.794604688718
 30
0.0
  0
POINT
  5
D2CF
330
B114
100
AcDbEntity
  8
Defpoints
 62
     0
100
AcDbPoint
 10
196.6128971383168
 20
1843.294604688718
 30
0.0
  0
POINT
  5
D2D0
330
B114
100
AcDbEntity
  8
Defpoints
 62
     0
100
AcDbPoint
 10
196.6128971383168
 20
1515.794604688718
 30
0.0
  0
ENDBLK
  5
B120
330
B114
100
AcDbEntity
  8
0
100
AcDbBlockEnd
  0
BLOCK
  5
B12C
330
B121
100
AcDbEntity
  8
0
100
AcDbBlockBegin
  2
*D3
 70
     1
 10
0.0
 20
0.0
 30
0.0
  3
*D3
  1

  0
LINE
  5
D2D1
330
B121
100
AcDbEntity
  8
AM_5 寸法線
100
AcDbLine
 10
-461.3871028616832
 20
1749.544604688718
 30
0.0
 11
-461.3871028616832
 21
1575.294604688718
 31
0.0
  0
LINE
  5
D2D2
330
B121
100
AcDbEntity
  8
AM_5 寸法線
100
AcDbLine
 10
-132.3871028616831
 20
1749.544604688718
 30
0.0
 11
-132.3871028616831
 21
1575.294604688718
 31
0.0
  0
LINE
  5
D2D3
330
B121
100
AcDbEntity
  8
AM_5 寸法線
100
AcDbLine
 10
-436.3871028616832
 20
1587.794604688717
 30
0.0
 11
-157.3871028616831
 21
1587.794604688717
 31
0.0
  0
INSERT
  5
D2D4
330
B121
100
AcDbEntity
  8
AM_5 寸法線
100
AcDbBlockReference
  2
_Open30
 10
-461.3871028616832
 20
1587.794604688717
 30
0.0
 41
25.0
 42
25.0
 43
25.0
 50
180.0
  0
INSERT
  5
D2D5
330
B121
100
AcDbEntity
  8
AM_5 寸法線
100
AcDbBlockReference
  2
_Open30
 10
-132.3871028616831
 20
1587.794604688717
 30
0.0
 41
25.0
 42
25.0
 43
25.0
  0
MTEXT
  5
D2D6
330
B121
100
AcDbEntity
  8
AM_5 寸法線
100
AcDbMText
 10
-296.8871028616831
 20
1615.294604688718
 30
0.0
 40
35.0
 41
0.0
 46
0.0
 71
     5
 72
     1
  1
329
  7
SEISA
 73
     1
 44
1.0
  0
POINT
  5
D2D7
330
B121
100
AcDbEntity
  8
Defpoints
 62
     0
100
AcDbPoint
 10
-461.3871028616832
 20
1755.794604688718
 30
0.0
  0
POINT
  5
D2D8
330
B121
100
AcDbEntity
  8
Defpoints
 62
     0
100
AcDbPoint
 10
-132.3871028616831
 20
1755.794604688718
 30
0.0
  0
POINT
  5
D2D9
330
B121
100
AcDbEntity
  8
Defpoints
 62
     0
100
AcDbPoint
 10
-132.3871028616831
 20
1587.794604688717
 30
0.0
  0
ENDBLK
  5
B12D
330
B121
100
AcDbEntity
  8
0
100
AcDbBlockEnd
  0
BLOCK
  5
B139
330
B12E
100
AcDbEntity
  8
0
100
AcDbBlockBegin
  2
*D4
 70
     1
 10
0.0
 20
0.0
 30
0.0
  3
*D4
  1

  0
LINE
  5
D2DA
330
B12E
100
AcDbEntity
  8
AM_5 寸法線
100
AcDbLine
 10
-461.3871028616832
 20
2127.102611688718
 30
0.0
 11
-461.3871028616832
 21
2133.352611688718
 31
0.0
  0
LINE
  5
D2DB
330
B12E
100
AcDbEntity
  8
AM_5 寸法線
100
AcDbLine
 10
-146.3871028616831
 20
2127.102611688718
 30
0.0
 11
-146.3871028616831
 21
2133.352611688718
 31
0.0
  0
LINE
  5
D2DC
330
B12E
100
AcDbEntity
  8
AM_5 寸法線
100
AcDbLine
 10
-436.3871028616832
 20
2120.852611688718
 30
0.0
 11
-171.3871028616831
 21
2120.852611688718
 31
0.0
  0
INSERT
  5
D2DD
330
B12E
100
AcDbEntity
  8
AM_5 寸法線
100
AcDbBlockReference
  2
_Open30
 10
-461.3871028616832
 20
2120.852611688718
 30
0.0
 41
25.0
 42
25.0
 43
25.0
 50
180.0
  0
INSERT
  5
D2DE
330
B12E
100
AcDbEntity
  8
AM_5 寸法線
100
AcDbBlockReference
  2
_Open30
 10
-146.3871028616831
 20
2120.852611688718
 30
0.0
 41
25.0
 42
25.0
 43
25.0
  0
MTEXT
  5
D2DF
330
B12E
100
AcDbEntity
  8
AM_5 寸法線
100
AcDbMText
 10
-303.8871028616832
 20
2148.352611688718
 30
0.0
 40
35.0
 41
0.0
 46
0.0
 71
     5
 72
     1
  1
315
  7
SEISA
 73
     1
 44
1.0
  0
POINT
  5
D2E0
330
B12E
100
AcDbEntity
  8
Defpoints
 62
     0
100
AcDbPoint
 10
-461.3871028616832
 20
2120.852611688718
 30
0.0
  0
POINT
  5
D2E1
330
B12E
100
AcDbEntity
  8
Defpoints
 62
     0
100
AcDbPoint
 10
-146.3871028616831
 20
2120.852611688718
 30
0.0
  0
POINT
  5
D2E2
330
B12E
100
AcDbEntity
  8
Defpoints
 62
     0
100
AcDbPoint
 10
-146.3871028616831
 20
2120.852611688718
 30
0.0
  0
ENDBLK
  5
B13A
330
B12E
100
AcDbEntity
  8
0
100
AcDbBlockEnd
  0
BLOCK
  5
B146
330
B13B
100
AcDbEntity
  8
0
100
AcDbBlockBegin
  2
*D5
 70
     1
 10
0.0
 20
0.0
 30
0.0
  3
*D5
  1

  0
LINE
  5
D2E3
330
B13B
100
AcDbEntity
  8
AM_5 寸法線
100
AcDbLine
 10
-467.6371028616832
 20
1820.794604688718
 30
0.0
 11
-633.8871028616832
 21
1820.794604688718
 31
0.0
  0
LINE
  5
D2E4
330
B13B
100
AcDbEntity
  8
AM_5 寸法線
100
AcDbLine
 10
-467.6371028616832
 20
2320.794604688718
 30
0.0
 11
-633.8871028616831
 21
2320.794604688718
 31
0.0
  0
LINE
  5
D2E5
330
B13B
100
AcDbEntity
  8
AM_5 寸法線
100
AcDbLine
 10
-621.3871028616832
 20
1845.794604688718
 30
0.0
 11
-621.3871028616832
 21
2295.794604688718
 31
0.0
  0
INSERT
  5
D2E6
330
B13B
100
AcDbEntity
  8
AM_5 寸法線
100
AcDbBlockReference
  2
_Open30
 10
-621.3871028616832
 20
1820.794604688718
 30
0.0
 41
25.0
 42
25.0
 43
25.0
 50
270.0
  0
INSERT
  5
D2E7
330
B13B
100
AcDbEntity
  8
AM_5 寸法線
100
AcDbBlockReference
  2
_Open30
 10
-621.3871028616831
 20
2320.794604688718
 30
0.0
 41
25.0
 42
25.0
 43
25.0
 50
90.0
  0
MTEXT
  5
D2E8
330
B13B
100
AcDbEntity
  8
AM_5 寸法線
100
AcDbMText
 10
-648.8871028616836
 20
2070.794604688718
 30
0.0
 40
35.0
 41
0.0
 46
0.0
 71
     5
 72
     1
  1
%%C500
  7
SEISA
 11
0.0000000000000001
 21
1.0
 31
0.0
 73
     1
 44
1.0
  0
POINT
  5
D2E9
330
B13B
100
AcDbEntity
  8
Defpoints
 62
     0
100
AcDbPoint
 10
-461.3871028616832
 20
1820.794604688718
 30
0.0
  0
POINT
  5
D2EA
330
B13B
100
AcDbEntity
  8
Defpoints
 62
     0
100
AcDbPoint
 10
-461.3871028616832
 20
2320.794604688718
 30
0.0
  0
POINT
  5
D2EB
330
B13B
100
AcDbEntity
  8
Defpoints
 62
     0
100
AcDbPoint
 10
-621.3871028616831
 20
2320.794604688718
 30
0.0
  0
ENDBLK
  5
B147
330
B13B
100
AcDbEntity
  8
0
100
AcDbBlockEnd
  0
BLOCK
  5
B153
330
B148
100
AcDbEntity
  8
0
100
AcDbBlockBegin
  2
*D6
 70
     1
 10
0.0
 20
0.0
 30
0.0
  3
*D6
  1

  0
LINE
  5
D446
330
B148
100
AcDbEntity
  8
AM_5 寸法線
100
AcDbLine
 10
-132.3871028616831
 20
1750.544604688718
 30
0.0
 11
-132.3871028616831
 21
1647.294604688718
 31
0.0
  0
LINE
  5
D447
330
B148
100
AcDbEntity
  8
AM_5 寸法線
100
AcDbLine
 10
-102.3871028616831
 20
1749.544604688718
 30
0.0
 11
-102.3871028616831
 21
1647.294604688718
 31
0.0
  0
LINE
  5
D448
330
B148
100
AcDbEntity
  8
AM_5 寸法線
100
AcDbLine
 10
-132.3871028616831
 20
1659.794604688717
 30
0.0
 11
-157.3871028616831
 21
1659.794604688717
 31
0.0
  0
LINE
  5
D449
330
B148
100
AcDbEntity
  8
AM_5 寸法線
100
AcDbLine
 10
-77.38710286168316
 20
1659.794604688717
 30
0.0
 11
18.61289713831684
 21
1659.794604688717
 31
0.0
  0
LINE
  5
D44A
330
B148
100
AcDbEntity
  8
AM_5 寸法線
100
AcDbLine
 10
-132.3871028616831
 20
1659.794604688717
 30
0.0
 11
-102.3871028616831
 21
1659.794604688717
 31
0.0
  0
INSERT
  5
D44B
330
B148
100
AcDbEntity
  8
AM_5 寸法線
100
AcDbBlockReference
  2
_DotSmall
 10
-132.3871028616831
 20
1659.794604688717
 30
0.0
 41
25.0
 42
25.0
 43
25.0
  0
INSERT
  5
D44C
330
B148
100
AcDbEntity
  8
AM_5 寸法線
100
AcDbBlockReference
  2
_Open30
 10
-102.3871028616831
 20
1659.794604688717
 30
0.0
 41
25.0
 42
25.0
 43
25.0
 50
180.0
  0
MTEXT
  5
D44D
330
B148
100
AcDbEntity
  8
AM_5 寸法線
100
AcDbMText
 10
-16.88710286168316
 20
1687.294604688717
 30
0.0
 40
35.0
 41
0.0
 46
0.0
 71
     5
 72
     1
  1
30
  7
SEISA
 73
     1
 44
1.0
  0
POINT
  5
D44E
330
B148
100
AcDbEntity
  8
Defpoints
 62
     0
100
AcDbPoint
 10
-132.3871028616831
 20
1756.794604688718
 30
0.0
  0
POINT
  5
D44F
330
B148
100
AcDbEntity
  8
Defpoints
 62
     0
100
AcDbPoint
 10
-102.3871028616831
 20
1755.794604688718
 30
0.0
  0
POINT
  5
D450
330
B148
100
AcDbEntity
  8
Defpoints
 62
     0
100
AcDbPoint
 10
-102.3871028616831
 20
1659.794604688717
 30
0.0
  0
ENDBLK
  5
B154
330
B148
100
AcDbEntity
  8
0
100
AcDbBlockEnd
  0
BLOCK
  5
B160
330
B155
100
AcDbEntity
  8
0
100
AcDbBlockBegin
  2
*D7
 70
     1
 10
0.0
 20
0.0
 30
0.0
  3
*D7
  1

  0
LINE
  5
D43B
330
B155
100
AcDbEntity
  8
AM_5 寸法線
100
AcDbLine
 10
-162.3871028616831
 20
1751.544604688717
 30
0.0
 11
-162.3871028616831
 21
1647.294604688718
 31
0.0
  0
LINE
  5
D43C
330
B155
100
AcDbEntity
  8
AM_5 寸法線
100
AcDbLine
 10
-132.3871028616831
 20
1750.544604688718
 30
0.0
 11
-132.3871028616831
 21
1647.294604688718
 31
0.0
  0
LINE
  5
D43D
330
B155
100
AcDbEntity
  8
AM_5 寸法線
100
AcDbLine
 10
-187.387102861683
 20
1659.794604688717
 30
0.0
 11
-212.3871028616832
 21
1659.794604688717
 31
0.0
  0
LINE
  5
D43E
330
B155
100
AcDbEntity
  8
AM_5 寸法線
100
AcDbLine
 10
-132.3871028616831
 20
1659.794604688717
 30
0.0
 11
-107.3871028616831
 21
1659.794604688717
 31
0.0
  0
MTEXT
  5
D43F
330
B155
100
AcDbEntity
  8
AM_5 寸法線
100
AcDbMText
 10
-224.0084926464187
 20
1689.634345770262
 30
0.0
 40
35.0
 41
0.0
 46
0.0
 71
     5
 72
     1
  1
30
  7
SEISA
 73
     1
 44
1.0
  0
LINE
  5
D440
330
B155
100
AcDbEntity
  8
AM_5 寸法線
100
AcDbLine
 10
-162.3871028616831
 20
1659.794604688717
 30
0.0
 11
-132.3871028616831
 21
1659.794604688717
 31
0.0
  0
INSERT
  5
D441
330
B155
100
AcDbEntity
  8
AM_5 寸法線
100
AcDbBlockReference
  2
_Open30
 10
-162.3871028616831
 20
1659.794604688717
 30
0.0
 41
25.0
 42
25.0
 43
25.0
  0
INSERT
  5
D442
330
B155
100
AcDbEntity
  8
AM_5 寸法線
100
AcDbBlockReference
  2
_DotSmall
 10
-132.3871028616831
 20
1659.794604688717
 30
0.0
 41
25.0
 42
25.0
 43
25.0
 50
180.0
  0
POINT
  5
D443
330
B155
100
AcDbEntity
  8
Defpoints
 62
     0
100
AcDbPoint
 10
-162.3871028616831
 20
1757.794604688718
 30
0.0
  0
POINT
  5
D444
330
B155
100
AcDbEntity
  8
Defpoints
 62
     0
100
AcDbPoint
 10
-132.3871028616831
 20
1756.794604688718
 30
0.0
  0
POINT
  5
D445
330
B155
100
AcDbEntity
  8
Defpoints
 62
     0
100
AcDbPoint
 10
-132.3871028616831
 20
1659.794604688717
 30
0.0
  0
ENDBLK
  5
B161
330
B155
100
AcDbEntity
  8
0
100
AcDbBlockEnd
  0
BLOCK
  5
B187
330
B17C
100
AcDbEntity
  8
0
100
AcDbBlockBegin
  2
*D8
 70
     1
 10
0.0
 20
0.0
 30
0.0
  3
*D8
  1

  0
LINE
  5
D467
330
B17C
100
AcDbEntity
  8
AM_5 寸法線
100
AcDbLine
 10
-132.3871028616831
 20
1751.544604688717
 30
0.0
 11
-132.3871028616831
 21
1575.294604688718
 31
0.0
  0
LINE
  5
D468
330
B17C
100
AcDbEntity
  8
AM_5 寸法線
100
AcDbLine
 10
80.61289713831682
 20
1792.544604688718
 30
0.0
 11
80.61289713831682
 21
1575.294604688718
 31
0.0
  0
LINE
  5
D469
330
B17C
100
AcDbEntity
  8
AM_5 寸法線
100
AcDbLine
 10
-107.3871028616831
 20
1587.794604688717
 30
0.0
 11
55.61289713831683
 21
1587.794604688717
 31
0.0
  0
INSERT
  5
D46A
330
B17C
100
AcDbEntity
  8
AM_5 寸法線
100
AcDbBlockReference
  2
_Open30
 10
-132.3871028616831
 20
1587.794604688717
 30
0.0
 41
25.0
 42
25.0
 43
25.0
 50
180.0
  0
INSERT
  5
D46B
330
B17C
100
AcDbEntity
  8
AM_5 寸法線
100
AcDbBlockReference
  2
_Open30
 10
80.61289713831682
 20
1587.794604688717
 30
0.0
 41
25.0
 42
25.0
 43
25.0
  0
MTEXT
  5
D46C
330
B17C
100
AcDbEntity
  8
AM_5 寸法線
100
AcDbMText
 10
-25.88710286168317
 20
1615.294604688718
 30
0.0
 40
35.0
 41
0.0
 46
0.0
 71
     5
 72
     1
  1
213
  7
SEISA
 73
     1
 44
1.0
  0
POINT
  5
D46D
330
B17C
100
AcDbEntity
  8
Defpoints
 62
     0
100
AcDbPoint
 10
-132.3871028616831
 20
1757.794604688718
 30
0.0
  0
POINT
  5
D46E
330
B17C
100
AcDbEntity
  8
Defpoints
 62
     0
100
AcDbPoint
 10
80.61289713831682
 20
1798.794604688717
 30
0.0
  0
POINT
  5
D46F
330
B17C
100
AcDbEntity
  8
Defpoints
 62
     0
100
AcDbPoint
 10
80.61289713831682
 20
1587.794604688717
 30
0.0
  0
ENDBLK
  5
B188
330
B17C
100
AcDbEntity
  8
0
100
AcDbBlockEnd
  0
BLOCK
  5
B194
330
B189
100
AcDbEntity
  8
0
100
AcDbBlockBegin
  2
*D9
 70
     1
 10
0.0
 20
0.0
 30
0.0
  3
*D9
  1

  0
LINE
  5
D408
330
B189
100
AcDbEntity
  8
AM_5 寸法線
100
AcDbLine
 10
80.61289713831682
 20
1792.544604688718
 30
0.0
 11
80.61289713831682
 21
1575.294604688718
 31
0.0
  0
LINE
  5
D409
330
B189
100
AcDbEntity
  8
AM_5 寸法線
100
AcDbLine
 10
196.6128971383168
 20
1868.544604688718
 30
0.0
 11
196.6128971383168
 21
1575.294604688718
 31
0.0
  0
LINE
  5
D40A
330
B189
100
AcDbEntity
  8
AM_5 寸法線
100
AcDbLine
 10
105.6128971383168
 20
1587.794604688717
 30
0.0
 11
171.6128971383168
 21
1587.794604688717
 31
0.0
  0
INSERT
  5
D40B
330
B189
100
AcDbEntity
  8
AM_5 寸法線
100
AcDbBlockReference
  2
_Open30
 10
80.61289713831682
 20
1587.794604688717
 30
0.0
 41
25.0
 42
25.0
 43
25.0
 50
180.0
  0
INSERT
  5
D40C
330
B189
100
AcDbEntity
  8
AM_5 寸法線
100
AcDbBlockReference
  2
_Open30
 10
196.6128971383168
 20
1587.794604688717
 30
0.0
 41
25.0
 42
25.0
 43
25.0
  0
MTEXT
  5
D40D
330
B189
100
AcDbEntity
  8
AM_5 寸法線
100
AcDbMText
 10
138.6128971383168
 20
1615.294604688718
 30
0.0
 40
35.0
 41
0.0
 46
0.0
 71
     5
 72
     1
  1
116
  7
SEISA
 73
     1
 44
1.0
  0
POINT
  5
D40E
330
B189
100
AcDbEntity
  8
Defpoints
 62
     0
100
AcDbPoint
 10
80.61289713831682
 20
1798.794604688717
 30
0.0
  0
POINT
  5
D40F
330
B189
100
AcDbEntity
  8
Defpoints
 62
     0
100
AcDbPoint
 10
196.6128971383168
 20
1874.794604688718
 30
0.0
  0
POINT
  5
D410
330
B189
100
AcDbEntity
  8
Defpoints
 62
     0
100
AcDbPoint
 10
196.6128971383168
 20
1587.794604688717
 30
0.0
  0
ENDBLK
  5
B195
330
B189
100
AcDbEntity
  8
0
100
AcDbBlockEnd
  0
BLOCK
  5
B1AB
330
B1A0
100
AcDbEntity
  8
0
100
AcDbBlockBegin
  2
*D10
 70
     1
 10
0.0
 20
0.0
 30
0.0
  3
*D10
  1

  0
LINE
  5
D3E7
330
B1A0
100
AcDbEntity
  8
AM_5 寸法線
100
AcDbLine
 10
114.8628971383168
 20
1843.294604688718
 30
0.0
 11
369.1128971383167
 21
1843.294604688718
 31
0.0
  0
LINE
  5
D3E8
330
B1A0
100
AcDbEntity
  8
AM_5 寸法線
100
AcDbLine
 10
114.8628971383168
 20
2298.294604688718
 30
0.0
 11
369.1128971383168
 21
2298.294604688718
 31
0.0
  0
LINE
  5
D3E9
330
B1A0
100
AcDbEntity
  8
AM_5 寸法線
100
AcDbLine
 10
356.6128971383167
 20
1868.294604688718
 30
0.0
 11
356.6128971383168
 21
2273.294604688718
 31
0.0
  0
INSERT
  5
D3EA
330
B1A0
100
AcDbEntity
  8
AM_5 寸法線
100
AcDbBlockReference
  2
_Open30
 10
356.6128971383167
 20
1843.294604688718
 30
0.0
 41
25.0
 42
25.0
 43
25.0
 50
270.0
  0
INSERT
  5
D3EB
330
B1A0
100
AcDbEntity
  8
AM_5 寸法線
100
AcDbBlockReference
  2
_Open30
 10
356.6128971383168
 20
2298.294604688718
 30
0.0
 41
25.0
 42
25.0
 43
25.0
 50
90.0
  0
MTEXT
  5
D3EC
330
B1A0
100
AcDbEntity
  8
AM_5 寸法線
100
AcDbMText
 10
329.1128971383165
 20
2070.794604688718
 30
0.0
 40
35.0
 41
0.0
 46
0.0
 71
     5
 72
     1
  1
%%C455
  7
SEISA
 11
0.0000000000000001
 21
1.0
 31
0.0
 73
     1
 44
1.0
  0
POINT
  5
D3ED
330
B1A0
100
AcDbEntity
  8
Defpoints
 62
     0
100
AcDbPoint
 10
108.6128971383168
 20
1843.294604688718
 30
0.0
  0
POINT
  5
D3EE
330
B1A0
100
AcDbEntity
  8
Defpoints
 62
     0
100
AcDbPoint
 10
108.6128971383168
 20
2298.294604688718
 30
0.0
  0
POINT
  5
D3EF
330
B1A0
100
AcDbEntity
  8
Defpoints
 62
     0
100
AcDbPoint
 10
356.6128971383168
 20
2298.294604688718
 30
0.0
  0
ENDBLK
  5
B1AC
330
B1A0
100
AcDbEntity
  8
0
100
AcDbBlockEnd
  0
BLOCK
  5
B1B8
330
B1AD
100
AcDbEntity
  8
0
100
AcDbBlockBegin
  2
*D11
 70
     1
 10
0.0
 20
0.0
 30
0.0
  3
*D11
  1

  0
LINE
  5
D333
330
B1AD
100
AcDbEntity
  8
AM_5 寸法線
100
AcDbLine
 10
86.86289713831682
 20
1798.794604688717
 30
0.0
 11
441.1128971383166
 21
1798.794604688717
 31
0.0
  0
LINE
  5
D334
330
B1AD
100
AcDbEntity
  8
AM_5 寸法線
100
AcDbLine
 10
67.29200113831668
 20
2342.794604688718
 30
0.0
 11
441.1128971383168
 21
2342.794604688718
 31
0.0
  0
LINE
  5
D335
330
B1AD
100
AcDbEntity
  8
AM_5 寸法線
100
AcDbLine
 10
428.6128971383166
 20
1823.794604688718
 30
0.0
 11
428.6128971383168
 21
2317.794604688718
 31
0.0
  0
INSERT
  5
D336
330
B1AD
100
AcDbEntity
  8
AM_5 寸法線
100
AcDbBlockReference
  2
_Open30
 10
428.6128971383166
 20
1798.794604688717
 30
0.0
 41
25.0
 42
25.0
 43
25.0
 50
270.0
  0
INSERT
  5
D337
330
B1AD
100
AcDbEntity
  8
AM_5 寸法線
100
AcDbBlockReference
  2
_Open30
 10
428.6128971383168
 20
2342.794604688718
 30
0.0
 41
25.0
 42
25.0
 43
25.0
 50
90.0
  0
MTEXT
  5
D338
330
B1AD
100
AcDbEntity
  8
AM_5 寸法線
100
AcDbMText
 10
401.1128971383163
 20
2070.794604688718
 30
0.0
 40
35.0
 41
0.0
 46
0.0
 71
     5
 72
     1
  1
%%C544
  7
SEISA
 11
0.0000000000000001
 21
1.0
 31
0.0
 73
     1
 44
1.0
  0
POINT
  5
D339
330
B1AD
100
AcDbEntity
  8
Defpoints
 62
     0
100
AcDbPoint
 10
80.61289713831682
 20
1798.794604688717
 30
0.0
  0
POINT
  5
D33A
330
B1AD
100
AcDbEntity
  8
Defpoints
 62
     0
100
AcDbPoint
 10
61.04200113831666
 20
2342.794604688718
 30
0.0
  0
POINT
  5
D33B
330
B1AD
100
AcDbEntity
  8
Defpoints
 62
     0
100
AcDbPoint
 10
428.6128971383168
 20
2342.794604688718
 30
0.0
  0
ENDBLK
  5
B1B9
330
B1AD
100
AcDbEntity
  8
0
100
AcDbBlockEnd
  0
BLOCK
  5
B1C5
330
B1BA
100
AcDbEntity
  8
0
100
AcDbBlockBegin
  2
*D12
 70
     1
 10
0.0
 20
0.0
 30
0.0
  3
*D12
  1

  0
LINE
  5
D33C
330
B1BA
100
AcDbEntity
  8
AM_5 寸法線
100
AcDbLine
 10
-96.13710286168316
 20
1755.794604688718
 30
0.0
 11
513.1128971383166
 21
1755.794604688717
 31
0.0
  0
LINE
  5
D33D
330
B1BA
100
AcDbEntity
  8
AM_5 寸法線
100
AcDbLine
 10
-97.13710286168316
 20
2385.794604688718
 30
0.0
 11
513.1128971383168
 21
2385.794604688718
 31
0.0
  0
LINE
  5
D33E
330
B1BA
100
AcDbEntity
  8
AM_5 寸法線
100
AcDbLine
 10
500.6128971383167
 20
1780.794604688718
 30
0.0
 11
500.6128971383168
 21
2360.794604688718
 31
0.0
  0
INSERT
  5
D33F
330
B1BA
100
AcDbEntity
  8
AM_5 寸法線
100
AcDbBlockReference
  2
_Open30
 10
500.6128971383167
 20
1755.794604688718
 30
0.0
 41
25.0
 42
25.0
 43
25.0
 50
270.0
  0
INSERT
  5
D340
330
B1BA
100
AcDbEntity
  8
AM_5 寸法線
100
AcDbBlockReference
  2
_Open30
 10
500.6128971383168
 20
2385.794604688718
 30
0.0
 41
25.0
 42
25.0
 43
25.0
 50
90.0
  0
MTEXT
  5
D341
330
B1BA
100
AcDbEntity
  8
AM_5 寸法線
100
AcDbMText
 10
473.1128971383163
 20
2070.794604688718
 30
0.0
 40
35.0
 41
0.0
 46
0.0
 71
     5
 72
     1
  1
%%C630
  7
SEISA
 11
0.0000000000000001
 21
1.0
 31
0.0
 73
     1
 44
1.0
  0
POINT
  5
D342
330
B1BA
100
AcDbEntity
  8
Defpoints
 62
     0
100
AcDbPoint
 10
-102.3871028616831
 20
1755.794604688718
 30
0.0
  0
POINT
  5
D343
330
B1BA
100
AcDbEntity
  8
Defpoints
 62
     0
100
AcDbPoint
 10
-103.3871028616831
 20
2385.794604688718
 30
0.0
  0
POINT
  5
D344
330
B1BA
100
AcDbEntity
  8
Defpoints
 62
     0
100
AcDbPoint
 10
500.6128971383168
 20
2385.794604688718
 30
0.0
  0
ENDBLK
  5
B1C6
330
B1BA
100
AcDbEntity
  8
0
100
AcDbBlockEnd
  0
BLOCK
  5
B1D2
330
B1C7
100
AcDbEntity
  8
0
100
AcDbBlockBegin
  2
*D13
 70
     1
 10
0.0
 20
0.0
 30
0.0
  3
*D13
  1

  0
LINE
  5
D345
330
B1C7
100
AcDbEntity
  8
AM_5 寸法線
100
AcDbLine
 10
-118.3871028616831
 20
2114.602611688718
 30
0.0
 11
-118.3871028616831
 21
2108.292841414513
 31
0.0
  0
LINE
  5
D346
330
B1C7
100
AcDbEntity
  8
AM_5 寸法線
100
AcDbLine
 10
196.6128971383168
 20
2114.602611688718
 30
0.0
 11
196.6128971383168
 21
2108.292841414513
 31
0.0
  0
LINE
  5
D347
330
B1C7
100
AcDbEntity
  8
AM_5 寸法線
100
AcDbLine
 10
-93.38710286168316
 20
2120.792841414512
 30
0.0
 11
171.6128971383168
 21
2120.792841414512
 31
0.0
  0
INSERT
  5
D348
330
B1C7
100
AcDbEntity
  8
AM_5 寸法線
100
AcDbBlockReference
  2
_Open30
 10
-118.3871028616831
 20
2120.792841414512
 30
0.0
 41
25.0
 42
25.0
 43
25.0
 50
180.0
  0
INSERT
  5
D349
330
B1C7
100
AcDbEntity
  8
AM_5 寸法線
100
AcDbBlockReference
  2
_Open30
 10
196.6128971383168
 20
2120.792841414512
 30
0.0
 41
25.0
 42
25.0
 43
25.0
  0
MTEXT
  5
D34A
330
B1C7
100
AcDbEntity
  8
AM_5 寸法線
100
AcDbMText
 10
110.5830528184106
 20
2148.292841414513
 30
0.0
 40
35.0
 41
0.0
 46
0.0
 71
     5
 72
     1
  1
315
  7
SEISA
 73
     1
 44
1.0
  0
POINT
  5
D34B
330
B1C7
100
AcDbEntity
  8
Defpoints
 62
     0
100
AcDbPoint
 10
-118.3871028616831
 20
2120.852611688718
 30
0.0
  0
POINT
  5
D34C
330
B1C7
100
AcDbEntity
  8
Defpoints
 62
     0
100
AcDbPoint
 10
196.6128971383168
 20
2120.852611688718
 30
0.0
  0
POINT
  5
D34D
330
B1C7
100
AcDbEntity
  8
Defpoints
 62
     0
100
AcDbPoint
 10
196.6128971383168
 20
2120.792841414512
 30
0.0
  0
ENDBLK
  5
B1D3
330
B1C7
100
AcDbEntity
  8
0
100
AcDbBlockEnd
  0
BLOCK
  5
B1DF
330
B1D4
100
AcDbEntity
  8
0
100
AcDbBlockBegin
  2
*D14
 70
     1
 10
0.0
 20
0.0
 30
0.0
  3
*D14
  1

  0
LINE
  5
D34E
330
B1D4
100
AcDbEntity
  8
AM_5 寸法線
100
AcDbLine
 10
-146.3871028616831
 20
2127.102611688718
 30
0.0
 11
-146.3871028616831
 21
2133.352611688718
 31
0.0
  0
LINE
  5
D34F
330
B1D4
100
AcDbEntity
  8
AM_5 寸法線
100
AcDbLine
 10
-118.3871028616831
 20
2127.102611688718
 30
0.0
 11
-118.3871028616831
 21
2133.352611688718
 31
0.0
  0
LINE
  5
D350
330
B1D4
100
AcDbEntity
  8
AM_5 寸法線
100
AcDbLine
 10
-171.3871028616831
 20
2120.852611688718
 30
0.0
 11
-196.3871028616831
 21
2120.852611688718
 31
0.0
  0
LINE
  5
D351
330
B1D4
100
AcDbEntity
  8
AM_5 寸法線
100
AcDbLine
 10
-93.38710286168316
 20
2120.852611688718
 30
0.0
 11
-68.38710286168316
 21
2120.852611688718
 31
0.0
  0
MTEXT
  5
D352
330
B1D4
100
AcDbEntity
  8
AM_5 寸法線
100
AcDbMText
 10
-71.33287713073331
 20
2148.352611688718
 30
0.0
 40
35.0
 41
0.0
 46
0.0
 71
     5
 72
     1
  1
28
  7
SEISA
 73
     1
 44
1.0
  0
LINE
  5
D353
330
B1D4
100
AcDbEntity
  8
AM_5 寸法線
100
AcDbLine
 10
-146.3871028616831
 20
2120.852611688718
 30
0.0
 11
-118.3871028616831
 21
2120.852611688718
 31
0.0
  0
INSERT
  5
D354
330
B1D4
100
AcDbEntity
  8
AM_5 寸法線
100
AcDbBlockReference
  2
_Open30
 10
-146.3871028616831
 20
2120.852611688718
 30
0.0
 41
25.0
 42
25.0
 43
25.0
  0
INSERT
  5
D355
330
B1D4
100
AcDbEntity
  8
AM_5 寸法線
100
AcDbBlockReference
  2
_Open30
 10
-118.3871028616831
 20
2120.852611688718
 30
0.0
 41
25.0
 42
25.0
 43
25.0
 50
180.0
  0
POINT
  5
D356
330
B1D4
100
AcDbEntity
  8
Defpoints
 62
     0
100
AcDbPoint
 10
-146.3871028616831
 20
2120.852611688718
 30
0.0
  0
POINT
  5
D357
330
B1D4
100
AcDbEntity
  8
Defpoints
 62
     0
100
AcDbPoint
 10
-118.3871028616831
 20
2120.852611688718
 30
0.0
  0
POINT
  5
D358
330
B1D4
100
AcDbEntity
  8
Defpoints
 62
     0
100
AcDbPoint
 10
-118.3871028616831
 20
2120.852611688718
 30
0.0
  0
ENDBLK
  5
B1E0
330
B1D4
100
AcDbEntity
  8
0
100
AcDbBlockEnd
  0
BLOCK
  5
BB97
330
BB8B
100
AcDbEntity
  8
0
100
AcDbBlockBegin
  2
*D15
 70
     1
 10
0.0
 20
0.0
 30
0.0
  3
*D15
  1

  0
LINE
  5
D540
330
BB8B
100
AcDbEntity
  8
AM_5 寸法線
100
AcDbLine
 10
48.61289713831684
 20
2292.544604688718
 30
0.0
 11
48.61289713831683
 21
2217.907637048174
 31
0.0
  0
LINE
  5
D541
330
BB8B
100
AcDbEntity
  8
AM_5 寸法線
100
AcDbLine
 10
56.61289713831684
 20
2292.044604688718
 30
0.0
 11
56.61289713831683
 21
2217.907637048174
 31
0.0
  0
LINE
  5
D542
330
BB8B
100
AcDbEntity
  8
AM_5 寸法線
100
AcDbLine
 10
23.61289713831683
 20
2230.407637048175
 30
0.0
 11
-1.387102861683166
 21
2230.407637048175
 31
0.0
  0
LINE
  5
D543
330
BB8B
100
AcDbEntity
  8
AM_5 寸法線
100
AcDbLine
 10
81.61289713831683
 20
2230.407637048175
 30
0.0
 11
106.6128971383168
 21
2230.407637048175
 31
0.0
  0
MTEXT
  5
D544
330
BB8B
100
AcDbEntity
  8
AM_5 寸法線
100
AcDbMText
 10
101.4510025175486
 20
2258.605687231535
 30
0.0
 40
35.0
 41
0.0
 46
0.0
 71
     5
 72
     1
  1
8
  7
SEISA
 73
     1
 44
1.0
  0
LINE
  5
D545
330
BB8B
100
AcDbEntity
  8
AM_5 寸法線
100
AcDbLine
 10
48.61289713831683
 20
2230.407637048175
 30
0.0
 11
56.61289713831683
 21
2230.407637048175
 31
0.0
  0
INSERT
  5
D546
330
BB8B
100
AcDbEntity
  8
AM_5 寸法線
100
AcDbBlockReference
  2
_Open30
 10
48.61289713831683
 20
2230.407637048175
 30
0.0
 41
25.0
 42
25.0
 43
25.0
  0
INSERT
  5
D547
330
BB8B
100
AcDbEntity
  8
AM_5 寸法線
100
AcDbBlockReference
  2
_Open30
 10
56.61289713831683
 20
2230.407637048175
 30
0.0
 41
25.0
 42
25.0
 43
25.0
 50
180.0
  0
POINT
  5
D548
330
BB8B
100
AcDbEntity
  8
Defpoints
 62
     0
100
AcDbPoint
 10
48.61289713831684
 20
2298.794604688718
 30
0.0
  0
POINT
  5
D549
330
BB8B
100
AcDbEntity
  8
Defpoints
 62
     0
100
AcDbPoint
 10
56.61289713831684
 20
2298.294604688718
 30
0.0
  0
POINT
  5
D54A
330
BB8B
100
AcDbEntity
  8
Defpoints
 62
     0
100
AcDbPoint
 10
56.61289713831683
 20
2230.407637048175
 30
0.0
  0
ENDBLK
  5
BB98
330
BB8B
100
AcDbEntity
  8
0
100
AcDbBlockEnd
  0
BLOCK
  5
D18F
330
CEAC
100
AcDbEntity
  8
0
100
AcDbBlockBegin
  2
GENAXEH
 70
     0
 10
0.0
 20
0.0
 30
0.0
  3
GENAXEH
  1

  0
LINE
  5
D190
330
CEAC
100
AcDbEntity
  8
0
100
AcDbLine
 10
-1.0
 20
0.0
 30
0.0
 11
1.0
 21
0.0
 31
0.0
  0
ENDBLK
  5
D191
330
CEAC
100
AcDbEntity
  8
0
100
AcDbBlockEnd
  0
BLOCK
  5
D3B6
330
D3B5
100
AcDbEntity
  8
0
100
AcDbBlockBegin
  2
*D20
 70
     1
 10
0.0
 20
0.0
 30
0.0
  3
*D20
  1

  0
LINE
  5
D3F0
330
D3B5
100
AcDbEntity
  8
AM_5 寸法線
100
AcDbLine
 10
196.6128971383168
 20
2297.044604688718
 30
0.0
 11
196.6128971383168
 21
2420.25076305087
 31
0.0
  0
LINE
  5
D3F1
330
D3B5
100
AcDbEntity
  8
AM_5 寸法線
100
AcDbLine
 10
276.6128971383168
 20
2349.044604688718
 30
0.0
 11
276.6128971383168
 21
2420.25076305087
 31
0.0
  0
LINE
  5
D3F2
330
D3B5
100
AcDbEntity
  8
AM_5 寸法線
100
AcDbLine
 10
221.6128971383168
 20
2407.75076305087
 30
0.0
 11
251.6128971383168
 21
2407.75076305087
 31
0.0
  0
INSERT
  5
D3F3
330
D3B5
100
AcDbEntity
  8
AM_5 寸法線
100
AcDbBlockReference
  2
_Open30
 10
196.6128971383168
 20
2407.75076305087
 30
0.0
 41
25.0
 42
25.0
 43
25.0
 50
180.0
  0
INSERT
  5
D3F4
330
D3B5
100
AcDbEntity
  8
AM_5 寸法線
100
AcDbBlockReference
  2
_Open30
 10
276.6128971383168
 20
2407.75076305087
 30
0.0
 41
25.0
 42
25.0
 43
25.0
  0
MTEXT
  5
D3F5
330
D3B5
100
AcDbEntity
  8
AM_5 寸法線
100
AcDbMText
 10
236.6128971383168
 20
2435.25076305087
 30
0.0
 40
35.0
 41
0.0
 46
0.0
 71
     5
 72
     1
  1
80
  7
SEISA
 73
     1
 44
1.0
  0
POINT
  5
D3F6
330
D3B5
100
AcDbEntity
  8
Defpoints
 62
     0
100
AcDbPoint
 10
196.6128971383168
 20
2290.794604688718
 30
0.0
  0
POINT
  5
D3F7
330
D3B5
100
AcDbEntity
  8
Defpoints
 62
     0
100
AcDbPoint
 10
276.6128971383168
 20
2342.794604688718
 30
0.0
  0
POINT
  5
D3F8
330
D3B5
100
AcDbEntity
  8
Defpoints
 62
     0
100
AcDbPoint
 10
276.6128971383168
 20
2407.75076305087
 30
0.0
  0
ENDBLK
  5
D3B7
330
D3B5
100
AcDbEntity
  8
0
100
AcDbBlockEnd
  0
BLOCK
  5
D472
330
D471
100
AcDbEntity
  8
0
100
AcDbBlockBegin
  2
*D21
 70
     1
 10
0.0
 20
0.0
 30
0.0
  3
*D21
  1

  0
LINE
  5
D516
330
D471
100
AcDbEntity
  8
AM_5 寸法線
100
AcDbLine
 10
-118.3871028616831
 20
2290.044604688718
 30
0.0
 11
-118.3871028616831
 21
2217.907637048174
 31
0.0
  0
LINE
  5
D517
330
D471
100
AcDbEntity
  8
AM_5 寸法線
100
AcDbLine
 10
-41.38710286168315
 20
2291.544604688718
 30
0.0
 11
-41.38710286168318
 21
2217.907637048174
 31
0.0
  0
LINE
  5
D518
330
D471
100
AcDbEntity
  8
AM_5 寸法線
100
AcDbLine
 10
-93.38710286168316
 20
2230.407637048175
 30
0.0
 11
-66.38710286168316
 21
2230.407637048175
 31
0.0
  0
INSERT
  5
D519
330
D471
100
AcDbEntity
  8
AM_5 寸法線
100
AcDbBlockReference
  2
_Open30
 10
-118.3871028616831
 20
2230.407637048175
 30
0.0
 41
25.0
 42
25.0
 43
25.0
 50
180.0
  0
INSERT
  5
D51A
330
D471
100
AcDbEntity
  8
AM_5 寸法線
100
AcDbBlockReference
  2
_Open30
 10
-41.38710286168318
 20
2230.407637048175
 30
0.0
 41
25.0
 42
25.0
 43
25.0
  0
MTEXT
  5
D51B
330
D471
100
AcDbEntity
  8
AM_5 寸法線
100
AcDbMText
 10
-79.88710286168316
 20
2257.907637048174
 30
0.0
 40
35.0
 41
0.0
 46
0.0
 71
     5
 72
     1
  1
77
  7
SEISA
 73
     1
 44
1.0
  0
POINT
  5
D51C
330
D471
100
AcDbEntity
  8
Defpoints
 62
     0
100
AcDbPoint
 10
-118.3871028616831
 20
2296.294604688718
 30
0.0
  0
POINT
  5
D51D
330
D471
100
AcDbEntity
  8
Defpoints
 62
     0
100
AcDbPoint
 10
-41.38710286168315
 20
2297.794604688718
 30
0.0
  0
POINT
  5
D51E
330
D471
100
AcDbEntity
  8
Defpoints
 62
     0
100
AcDbPoint
 10
-41.38710286168318
 20
2230.407637048175
 30
0.0
  0
ENDBLK
  5
D473
330
D471
100
AcDbEntity
  8
0
100
AcDbBlockEnd
  0
BLOCK
  5
D49C
330
D49B
100
AcDbEntity
  8
0
100
AcDbBlockBegin
  2
*D22
 70
     1
 10
0.0
 20
0.0
 30
0.0
  3
*D22
  1

  0
LINE
  5
D51F
330
D49B
100
AcDbEntity
  8
AM_5 寸法線
100
AcDbLine
 10
-41.38710286168315
 20
2291.544604688718
 30
0.0
 11
-41.38710286168318
 21
2217.907637048174
 31
0.0
  0
LINE
  5
D520
330
D49B
100
AcDbEntity
  8
AM_5 寸法線
100
AcDbLine
 10
48.61292765962073
 20
2292.539080164091
 30
0.0
 11
48.61292765962073
 21
2217.907637048174
 31
0.0
  0
LINE
  5
D521
330
D49B
100
AcDbEntity
  8
AM_5 寸法線
100
AcDbLine
 10
-16.38710286168317
 20
2230.407637048175
 30
0.0
 11
23.61292765962073
 21
2230.407637048175
 31
0.0
  0
INSERT
  5
D522
330
D49B
100
AcDbEntity
  8
AM_5 寸法線
100
AcDbBlockReference
  2
_Open30
 10
-41.38710286168318
 20
2230.407637048175
 30
0.0
 41
25.0
 42
25.0
 43
25.0
 50
180.0
  0
INSERT
  5
D523
330
D49B
100
AcDbEntity
  8
AM_5 寸法線
100
AcDbBlockReference
  2
_Open30
 10
48.61292765962073
 20
2230.407637048175
 30
0.0
 41
25.0
 42
25.0
 43
25.0
  0
MTEXT
  5
D524
330
D49B
100
AcDbEntity
  8
AM_5 寸法線
100
AcDbMText
 10
3.612912398968783
 20
2257.907637048174
 30
0.0
 40
35.0
 41
0.0
 46
0.0
 71
     5
 72
     1
  1
90
  7
SEISA
 73
     1
 44
1.0
  0
POINT
  5
D525
330
D49B
100
AcDbEntity
  8
Defpoints
 62
     0
100
AcDbPoint
 10
-41.38710286168315
 20
2297.794604688718
 30
0.0
  0
POINT
  5
D526
330
D49B
100
AcDbEntity
  8
Defpoints
 62
     0
100
AcDbPoint
 10
48.61292765962073
 20
2298.789080164092
 30
0.0
  0
POINT
  5
D527
330
D49B
100
AcDbEntity
  8
Defpoints
 62
     0
100
AcDbPoint
 10
48.61292765962073
 20
2230.407637048175
 30
0.0
  0
ENDBLK
  5
D49D
330
D49B
100
AcDbEntity
  8
0
100
AcDbBlockEnd
  0
BLOCK
  5
D648
330
D647
100
AcDbEntity
  8
0
100
AcDbBlockBegin
  2
GCｻｲﾄﾞｶﾊﾞｰ　CEM630
 70
     0
 10
0.0
 20
0.0
 30
0.0
  3
GCｻｲﾄﾞｶﾊﾞｰ　CEM630
  1

  0
LINE
  5
D64A
330
D647
100
AcDbEntity
  8
AM_11 想像線
 48
0.09
100
AcDbLine
 10
3.292141460933634
 20
-11.0
 30
0.0
 11
-24.0
 21
-11.0
 31
0.0
  0
LINE
  5
D64B
330
D647
100
AcDbEntity
  8
AM_11 想像線
 48
0.09
100
AcDbLine
 10
-18.0
 20
0.0
 30
0.0
 11
0.0
 21
0.0
 31
0.0
  0
LINE
  5
D64C
330
D647
100
AcDbEntity
  8
AM_11 想像線
 48
0.09
100
AcDbLine
 10
0.0
 20
-11.0
 30
0.0
 11
0.0
 21
-42.5
 31
0.0
  0
LINE
  5
D64D
330
D647
100
AcDbEntity
  8
AM_11 想像線
 48
0.09
100
AcDbLine
 10
0.0
 20
-42.5
 30
0.0
 11
-5.0
 21
-42.5
 31
0.0
  0
LINE
  5
D64E
330
D647
100
AcDbEntity
  8
AM_11 想像線
 48
0.09
100
AcDbLine
 10
-18.0
 20
-19.20000000000027
 30
0.0
 11
-18.0
 21
0.0
 31
0.0
  0
LINE
  5
D64F
330
D647
100
AcDbEntity
  8
AM_11 想像線
 48
0.09
100
AcDbLine
 10
-14.89999999999963
 20
-19.20000000000027
 30
0.0
 11
-18.0
 21
-19.20000000000027
 31
0.0
  0
LINE
  5
D650
330
D647
100
AcDbEntity
  8
AM_11 想像線
 48
0.09
100
AcDbLine
 10
-14.89999999999963
 20
-24.5
 30
0.0
 11
-14.89999999999963
 21
-19.20000000000027
 31
0.0
  0
LINE
  5
D651
330
D647
100
AcDbEntity
  8
AM_11 想像線
 48
0.09
100
AcDbLine
 10
-18.0
 20
-24.5
 30
0.0
 11
-14.89999999999963
 21
-24.5
 31
0.0
  0
LINE
  5
D652
330
D647
100
AcDbEntity
  8
AM_11 想像線
 48
0.09
100
AcDbLine
 10
-24.0
 20
-24.5
 30
0.0
 11
-18.0
 21
-24.5
 31
0.0
  0
LINE
  5
D653
330
D647
100
AcDbEntity
  8
AM_11 想像線
 48
0.09
100
AcDbLine
 10
-24.0
 20
-42.5
 30
0.0
 11
-24.0
 21
-24.63912565115561
 31
0.0
  0
LINE
  5
D654
330
D647
100
AcDbEntity
  8
AM_11 想像線
 48
0.09
100
AcDbLine
 10
-19.0
 20
-42.5
 30
0.0
 11
-24.0
 21
-42.5
 31
0.0
  0
LINE
  5
D655
330
D647
100
AcDbEntity
  8
AM_11 想像線
 48
0.09
100
AcDbLine
 10
-19.0
 20
-36.30000000000018
 30
0.0
 11
-19.0
 21
-42.5
 31
0.0
  0
LINE
  5
D656
330
D647
100
AcDbEntity
  8
AM_11 想像線
 48
0.09
100
AcDbLine
 10
-5.0
 20
-36.30000000000018
 30
0.0
 11
-19.0
 21
-36.30000000000018
 31
0.0
  0
LINE
  5
D657
330
D647
100
AcDbEntity
  8
AM_11 想像線
 48
0.09
100
AcDbLine
 10
-5.0
 20
-42.5
 30
0.0
 11
-5.0
 21
-36.30000000000018
 31
0.0
  0
LINE
  5
D658
330
D647
100
AcDbEntity
  8
AM_11 想像線
 48
0.09
100
AcDbLine
 10
-24.0
 20
-42.5
 30
0.0
 11
-24.0
 21
-44.5
 31
0.0
  0
LINE
  5
D659
330
D647
100
AcDbEntity
  8
AM_11 想像線
 48
0.09
100
AcDbLine
 10
-19.0
 20
-42.5
 30
0.0
 11
-19.0
 21
-44.5
 31
0.0
  0
LINE
  5
D65A
330
D647
100
AcDbEntity
  8
AM_11 想像線
 48
0.09
100
AcDbLine
 10
-5.0
 20
-42.5
 30
0.0
 11
-5.0
 21
-44.5
 31
0.0
  0
LINE
  5
D65B
330
D647
100
AcDbEntity
  8
AM_11 想像線
 48
0.09
100
AcDbLine
 10
0.0
 20
-42.5
 30
0.0
 11
0.0
 21
-44.5
 31
0.0
  0
LINE
  5
D65C
330
D647
100
AcDbEntity
  8
AM_11 想像線
 48
0.09
100
AcDbLine
 10
0.0
 20
0.0
 30
0.0
 11
0.0
 21
-11.0
 31
0.0
  0
ENDBLK
  5
D649
330
D647
100
AcDbEntity
  8
0
100
AcDbBlockEnd
  0
ENDSEC
  0
SECTION
  2
ENTITIES
  0
MTEXT
  5
6336
330
18
100
AcDbEntity
  8
AM_5 寸法線
100
AcDbMText
 10
-1619.333067122171
 20
837.5484887435803
 30
0.0
 40
17.5
 41
0.0
 46
0.0
 71
     9
 72
     1
  1

  7
SEISA
 73
     1
 44
1.0
  0
MTEXT
  5
7E43
330
18
100
AcDbEntity
  8
AM_5 寸法線
100
AcDbMText
 10
603.4662267840431
 20
1303.028751871216
 30
0.0
 40
17.5
 41
0.0
 46
0.0
 71
     9
 72
     1
  1

  7
SEISA
 73
     1
 44
1.0
  0
LINE
  5
8363
330
18
100
AcDbEntity
  8
AM_7 中心線
100
AcDbLine
 10
240.3770103868119
 20
2070.794604688718
 30
0.0
 11
-516.6697526134429
 21
2070.794604688718
 31
0.0
  0
MTEXT
  5
8EAD
330
18
100
AcDbEntity
  8
AM_5 寸法線
100
AcDbMText
 10
-3884.629978734935
 20
1906.640573136431
 30
0.0
 40
17.5
 41
0.0
 46
0.0
 71
     9
 72
     1
  1

  7
SEISA
 73
     1
 44
1.0
  0
LINE
  5
ADAC
330
18
100
AcDbEntity
  8
AM_0 外形線1
100
AcDbLine
 10
-455.3871028616831
 20
1820.794604688718
 30
0.0
 11
-195.9281228616828
 21
1820.794604688718
 31
0.0
  0
LINE
  5
ADAD
330
18
100
AcDbEntity
  8
AM_0 外形線1
100
AcDbLine
 10
-195.9281228616828
 20
2320.794604688718
 30
0.0
 11
-455.3871028616831
 21
2320.794604688718
 31
0.0
  0
DIMENSION
  5
ADB0
330
18
100
AcDbEntity
  8
AM_5 寸法線
100
AcDbDimension
  2
*D2
 10
196.6128971383168
 20
1515.794604688718
 30
0.0
 11
-132.3871028616831
 21
1543.294604688718
 31
0.0
 70
    32
 71
     5
 42
658.0
 73
     0
 74
     0
 75
     0
  3
ISO-25
100
AcDbAlignedDimension
 13
-461.3871028616832
 23
1820.794604688718
 33
0.0
 14
196.6128971383168
 24
1843.294604688718
 34
0.0
100
AcDbRotatedDimension
1001
ACAD
1000
DSTYLE
1002
{
1070
   271
1070
     6
1002
}
  0
DIMENSION
  5
ADB1
330
18
100
AcDbEntity
  8
AM_5 寸法線
100
AcDbDimension
  2
*D3
 10
-132.3871028616831
 20
1587.794604688717
 30
0.0
 11
-296.8871028616831
 21
1615.294604688718
 31
0.0
 70
    32
 71
     5
 42
329.0
 73
     0
 74
     0
 75
     0
  3
ISO-25
100
AcDbAlignedDimension
 13
-461.3871028616832
 23
1755.794604688718
 33
0.0
 14
-132.3871028616831
 24
1755.794604688718
 34
0.0
100
AcDbRotatedDimension
1001
ACAD
1000
DSTYLE
1002
{
1070
   271
1070
     6
1002
}
  0
DIMENSION
  5
ADB2
330
18
100
AcDbEntity
  8
AM_5 寸法線
100
AcDbDimension
  2
*D4
 10
-146.3871028616831
 20
2120.852611688718
 30
0.0
 11
-303.8871028616832
 21
2148.352611688718
 31
0.0
 70
    32
 71
     5
 42
315.0
 73
     0
 74
     0
 75
     0
  3
ISO-25
100
AcDbAlignedDimension
 13
-461.3871028616832
 23
2120.852611688718
 33
0.0
 14
-146.3871028616831
 24
2120.852611688718
 34
0.0
100
AcDbRotatedDimension
1001
ACAD
1000
DSTYLE
1002
{
1070
   271
1070
     6
1002
}
  0
LINE
  5
AEB9
330
18
100
AcDbEntity
  8
AM_0 外形線1
100
AcDbLine
 10
-461.3871028616832
 20
2314.794604688718
 30
0.0
 11
-461.3871028616832
 21
1826.794604688718
 31
0.0
  0
DIMENSION
  5
AEBB
330
18
100
AcDbEntity
  8
AM_5 寸法線
100
AcDbDimension
  2
*D5
 10
-621.3871028616831
 20
2320.794604688718
 30
0.0
 11
-648.8871028616836
 21
2070.794604688718
 31
0.0
 70
    32
  1
%%C<>
 71
     5
 42
500.0
 73
     0
 74
     0
 75
     0
  3
ISO-25
100
AcDbAlignedDimension
 13
-461.3871028616832
 23
1820.794604688718
 33
0.0
 14
-461.3871028616832
 24
2320.794604688718
 34
0.0
 50
90.0
100
AcDbRotatedDimension
1001
ACAD
1000
DSTYLE
1002
{
1070
   271
1070
     6
1002
}
  0
ARC
  5
AEC3
330
18
100
AcDbEntity
  8
AM_0 外形線1
100
AcDbCircle
 10
-455.3871028616831
 20
2314.794604688718
 30
0.0
 40
6.0
100
AcDbArc
 50
90.0
 51
180.0
  0
DIMENSION
  5
AEC8
330
18
100
AcDbEntity
  8
AM_5 寸法線
100
AcDbDimension
  2
*D6
 10
-102.3871028616831
 20
1659.794604688717
 30
0.0
 11
-16.88710286168316
 21
1687.294604688717
 31
0.0
 70
    32
 71
     5
 42
30.0
 73
     0
 74
     0
 75
     0
  3
ISO-25
100
AcDbAlignedDimension
 13
-132.3871028616831
 23
1756.794604688718
 33
0.0
 14
-102.3871028616831
 24
1755.794604688718
 34
0.0
100
AcDbRotatedDimension
1001
ACAD
1000
DSTYLE
1002
{
1070
   173
1070
     1
1070
   271
1070
     6
1070
   342
1005
0
1070
   343
1005
2F48
1070
   344
1005
322
1002
}
  0
DIMENSION
  5
AEC9
330
18
100
AcDbEntity
  8
AM_5 寸法線
100
AcDbDimension
  2
*D7
 10
-132.3871028616831
 20
1659.794604688717
 30
0.0
 11
-224.0084926464187
 21
1662.134345770262
 31
0.0
 70
   160
 71
     5
 42
30.0
 73
     0
 74
     0
 75
     0
  3
ISO-25
100
AcDbAlignedDimension
 13
-162.3871028616831
 23
1757.794604688718
 33
0.0
 14
-132.3871028616831
 24
1756.794604688718
 34
0.0
100
AcDbRotatedDimension
1001
ACAD
1000
DSTYLE
1002
{
1070
   173
1070
     1
1070
   271
1070
     6
1070
   279
1070
     1
1070
   342
1005
0
1070
   343
1005
322
1070
   344
1005
2F48
1002
}
  0
DIMENSION
  5
AECC
330
18
100
AcDbEntity
  8
AM_5 寸法線
100
AcDbDimension
  2
*D8
 10
80.61289713831682
 20
1587.794604688717
 30
0.0
 11
-25.88710286168317
 21
1615.294604688718
 31
0.0
 70
    32
 71
     5
 42
213.0
 73
     0
 74
     0
 75
     0
  3
ISO-25
100
AcDbAlignedDimension
 13
-132.3871028616831
 23
1757.794604688718
 33
0.0
 14
80.61289713831682
 24
1798.794604688717
 34
0.0
100
AcDbRotatedDimension
1001
ACAD
1000
DSTYLE
1002
{
1070
   271
1070
     6
1002
}
  0
DIMENSION
  5
AECD
330
18
100
AcDbEntity
  8
AM_5 寸法線
100
AcDbDimension
  2
*D9
 10
196.6128971383168
 20
1587.794604688717
 30
0.0
 11
138.6128971383168
 21
1615.294604688718
 31
0.0
 70
    32
 71
     5
 42
116.0
 73
     0
 74
     0
 75
     0
  3
ISO-25
100
AcDbAlignedDimension
 13
80.61289713831682
 23
1798.794604688717
 33
0.0
 14
196.6128971383168
 24
1874.794604688718
 34
0.0
100
AcDbRotatedDimension
1001
ACAD
1000
DSTYLE
1002
{
1070
   271
1070
     6
1002
}
  0
DIMENSION
  5
AF39
330
18
100
AcDbEntity
  8
AM_5 寸法線
100
AcDbDimension
  2
*D10
 10
356.6128971383168
 20
2298.294604688718
 30
0.0
 11
329.1128971383165
 21
2070.794604688718
 31
0.0
 70
    32
  1
%%C<>
 71
     5
 42
455.0
 73
     0
 74
     0
 75
     0
  3
ISO-25
100
AcDbAlignedDimension
 13
108.6128971383168
 23
1843.294604688718
 33
0.0
 14
108.6128971383168
 24
2298.294604688718
 34
0.0
 50
90.0
100
AcDbRotatedDimension
1001
ACAD
1000
DSTYLE
1002
{
1070
    40
1040
10.0
1070
   271
1070
     6
1002
}
  0
DIMENSION
  5
AF3A
330
18
100
AcDbEntity
  8
AM_5 寸法線
100
AcDbDimension
  2
*D11
 10
428.6128971383168
 20
2342.794604688718
 30
0.0
 11
401.1128971383163
 21
2070.794604688718
 31
0.0
 70
    32
  1
%%C<>
 71
     5
 42
544.0
 73
     0
 74
     0
 75
     0
  3
ISO-25
100
AcDbAlignedDimension
 13
80.61289713831682
 23
1798.794604688717
 33
0.0
 14
61.04200113831666
 24
2342.794604688718
 34
0.0
 50
90.0
100
AcDbRotatedDimension
1001
ACAD
1000
DSTYLE
1002
{
1070
   271
1070
     6
1002
}
  0
DIMENSION
  5
AF3B
330
18
100
AcDbEntity
  8
AM_5 寸法線
100
AcDbDimension
  2
*D12
 10
500.6128971383168
 20
2385.794604688718
 30
0.0
 11
473.1128971383163
 21
2070.794604688718
 31
0.0
 70
    32
  1
%%C<>
 71
     5
 42
630.0
 73
     0
 74
     0
 75
     0
  3
ISO-25
100
AcDbAlignedDimension
 13
-102.3871028616831
 23
1755.794604688718
 33
0.0
 14
-103.3871028616831
 24
2385.794604688718
 34
0.0
 50
90.0
100
AcDbRotatedDimension
1001
ACAD
1000
DSTYLE
1002
{
1070
   271
1070
     6
1002
}
  0
LINE
  5
AF3C
330
18
100
AcDbEntity
  8
AM_0 外形線1
100
AcDbLine
 10
-146.3871028616831
 20
2288.294604688718
 30
0.0
 11
-146.3871028616831
 21
2070.794604688718
 31
0.0
  0
LINE
  5
AF3E
102
{ACAD_REACTORS
330
D47E
102
}
330
18
100
AcDbEntity
  8
AM_0 外形線1
100
AcDbLine
 10
-118.3871028616831
 20
2296.294604688718
 30
0.0
 11
-118.3871028616831
 21
2070.794604688718
 31
0.0
  0
LINE
  5
AF42
102
{ACAD_REACTORS
330
D3C2
102
}
330
18
100
AcDbEntity
  8
AM_0 外形線1
100
AcDbLine
 10
196.6128971383168
 20
1850.794604688718
 30
0.0
 11
196.6128971383168
 21
2290.794604688718
 31
0.0
  0
LINE
  5
AF45
330
18
100
AcDbEntity
  8
AM_0 外形線1
100
AcDbLine
 10
37.61289713831685
 20
1798.794604688717
 30
0.0
 11
68.09693913831688
 21
1798.794604688717
 31
0.0
  0
LINE
  5
AF46
330
18
100
AcDbEntity
  8
AM_0 外形線1
100
AcDbLine
 10
-162.3871028616831
 20
1802.086400688718
 30
0.0
 11
-162.3871028616831
 21
2070.794604688718
 31
0.0
  0
LINE
  5
AF47
330
18
100
AcDbEntity
  8
AM_0 外形線1
100
AcDbLine
 10
-192.387102861683
 20
1820.794604688718
 30
0.0
 11
-192.387102861683
 21
2070.794604688718
 31
0.0
  0
LINE
  5
AF48
330
18
100
AcDbEntity
  8
AM_0 外形線1
100
AcDbLine
 10
37.61289713831685
 20
1798.794604688717
 30
0.0
 11
37.61289713831685
 21
2070.794604688718
 31
0.0
  0
LINE
  5
AF49
330
18
100
AcDbEntity
  8
AM_0 外形線1
100
AcDbLine
 10
30.61289713831684
 20
1805.794604688718
 30
0.0
 11
30.61289713831684
 21
2070.794604688718
 31
0.0
  0
LINE
  5
AF4A
330
18
100
AcDbEntity
  8
AM_0 外形線1
100
AcDbLine
 10
-102.3871028616831
 20
1756.794604688718
 30
0.0
 11
-102.3871028616831
 21
2070.794604688718
 31
0.0
  0
LINE
  5
AF4B
330
18
100
AcDbEntity
  8
AM_0 外形線1
100
AcDbLine
 10
-132.3871028616831
 20
2070.794604688718
 30
0.0
 11
-132.3871028616831
 21
1756.794604688718
 31
0.0
  0
LINE
  5
AF4C
330
18
100
AcDbEntity
  8
AM_0 外形線1
100
AcDbLine
 10
-96.38710286168317
 20
1805.794604688718
 30
0.0
 11
30.61289713831684
 21
1805.794604688718
 31
0.0
  0
ARC
  5
AF4D
330
18
100
AcDbEntity
  8
AM_0 外形線1
100
AcDbCircle
 10
-195.9281228616828
 20
1805.794604688718
 30
0.0
 40
15.0
100
AcDbArc
 50
63.43494899999026
 51
90.0
  0
LINE
  5
AF4E
330
18
100
AcDbEntity
  8
AM_7 中心線
100
AcDbLine
 10
-88.30756064298659
 20
1777.294604688718
 30
0.0
 11
-176.0583596970955
 21
1777.294604688718
 31
0.0
  0
LINE
  5
AF4F
330
18
100
AcDbEntity
  8
AM_0 外形線1
100
AcDbLine
 10
-160.3871028616831
 20
1755.794604688718
 30
0.0
 11
-134.3871028616831
 21
1755.794604688718
 31
0.0
  0
LINE
  5
AF50
330
18
100
AcDbEntity
  8
AM_0 外形線1
100
AcDbLine
 10
-162.3871028616831
 20
1802.086400688718
 30
0.0
 11
-162.3871028616831
 21
1757.794604688718
 31
0.0
  0
LINE
  5
AF51
330
18
100
AcDbEntity
  8
AM_0 外形線1
100
AcDbLine
 10
-162.3871028616831
 20
1757.794604688718
 30
0.0
 11
-160.3871028616831
 21
1755.794604688718
 31
0.0
  0
LINE
  5
AF52
330
18
100
AcDbEntity
  8
AM_0 外形線1
100
AcDbLine
 10
-189.2199188616832
 20
1819.211012688718
 30
0.0
 11
-165.7038218616835
 21
1807.452964688718
 31
0.0
  0
ARC
  5
AF53
330
18
100
AcDbEntity
  8
AM_0 外形線1
100
AcDbCircle
 10
-168.3871028616831
 20
1802.086400688718
 30
0.0
 40
6.0
100
AcDbArc
 50
0.0
 51
63.43494899999026
  0
LINE
  5
AF54
330
18
100
AcDbEntity
  8
AM_0 外形線1
100
AcDbLine
 10
-131.3871028616831
 20
1755.794604688718
 30
0.0
 11
-103.3871028616831
 21
1755.794604688718
 31
0.0
  0
LINE
  5
AF55
330
18
100
AcDbEntity
  8
AM_0 外形線1
100
AcDbLine
 10
-134.3871028616831
 20
1755.794604688718
 30
0.0
 11
-132.3871028616831
 21
1757.794604688718
 31
0.0
  0
LINE
  5
AF56
330
18
100
AcDbEntity
  8
AM_0 外形線1
100
AcDbLine
 10
-132.3973708616831
 20
1757.802837688718
 30
0.0
 11
-132.3871028616831
 21
1757.794604688718
 31
0.0
  0
LINE
  5
AF57
330
18
100
AcDbEntity
  8
AM_0 外形線1
100
AcDbLine
 10
-132.3871028616831
 20
1756.794604688718
 30
0.0
 11
-131.3871028616831
 21
1755.794604688718
 31
0.0
  0
LINE
  5
AF58
330
18
100
AcDbEntity
  8
AM_0 外形線1
100
AcDbLine
 10
-103.3871028616831
 20
1755.794604688718
 30
0.0
 11
-102.3871028616831
 21
1756.794604688718
 31
0.0
  0
ARC
  5
AF5A
330
18
100
AcDbEntity
  8
AM_0 外形線1
100
AcDbCircle
 10
-96.38710286168317
 20
1799.794604688718
 30
0.0
 40
6.0
100
AcDbArc
 50
90.0
 51
180.0
  0
LINE
  5
AF5B
330
18
100
AcDbEntity
  8
AM_0 外形線1
100
AcDbLine
 10
30.61289713831684
 20
1805.794604688718
 30
0.0
 11
37.61289713831685
 21
1798.794604688717
 31
0.0
  0
LINE
  5
AF5C
330
18
100
AcDbEntity
  8
AM_3 隠れ線
100
AcDbLine
 10
-118.3871028616831
 20
2082.794604688718
 30
0.0
 11
-72.38710286168316
 21
2082.794604688718
 31
0.0
  0
LINE
  5
AF5D
330
18
100
AcDbEntity
  8
AM_3 隠れ線
100
AcDbLine
 10
-118.3871028616831
 20
2081.294604688718
 30
0.0
 11
-56.38710286168316
 21
2081.294604688718
 31
0.0
  0
LINE
  5
AF5E
330
18
100
AcDbEntity
  8
AM_3 隠れ線
100
AcDbLine
 10
-146.3871028616831
 20
2082.794604688718
 30
0.0
 11
-192.387102861683
 21
2082.794604688718
 31
0.0
  0
LINE
  5
AF5F
330
18
100
AcDbEntity
  8
AM_3 隠れ線
100
AcDbLine
 10
-146.3871028616831
 20
2081.294604688718
 30
0.0
 11
-208.3871028616832
 21
2081.294604688718
 31
0.0
  0
LINE
  5
AF60
330
18
100
AcDbEntity
  8
AM_3 隠れ線
100
AcDbLine
 10
-192.387102861683
 20
2082.794604688718
 30
0.0
 11
-193.2531288616828
 21
2081.294604688718
 31
0.0
  0
LINE
  5
AF61
330
18
100
AcDbEntity
  8
AM_3 隠れ線
100
AcDbLine
 10
-192.387102861683
 20
2082.794604688718
 30
0.0
 11
-192.387102861683
 21
2070.794604688718
 31
0.0
  0
LINE
  5
AF62
330
18
100
AcDbEntity
  8
AM_3 隠れ線
100
AcDbLine
 10
-193.2531288616828
 20
2081.294604688718
 30
0.0
 11
-193.2531288616828
 21
2070.794604688718
 31
0.0
  0
LINE
  5
AF63
330
18
100
AcDbEntity
  8
AM_3 隠れ線
100
AcDbLine
 10
-208.3871028616832
 20
2081.294604688718
 30
0.0
 11
-214.4492808616833
 21
2070.794604688718
 31
0.0
  0
LINE
  5
AF64
330
18
100
AcDbEntity
  8
AM_3 隠れ線
100
AcDbLine
 10
-208.3871028616832
 20
2081.294604688718
 30
0.0
 11
-208.3871028616832
 21
2070.794604688718
 31
0.0
  0
LINE
  5
AF65
330
18
100
AcDbEntity
  8
AM_3 隠れ線
100
AcDbLine
 10
-56.38710286168316
 20
2081.294604688718
 30
0.0
 11
-50.32492586168337
 21
2070.794604688718
 31
0.0
  0
LINE
  5
AF66
330
18
100
AcDbEntity
  8
AM_3 隠れ線
100
AcDbLine
 10
-72.38710286168316
 20
2082.794604688718
 30
0.0
 11
-71.52107786168291
 21
2081.294604688718
 31
0.0
  0
LINE
  5
AF67
330
18
100
AcDbEntity
  8
AM_3 隠れ線
100
AcDbLine
 10
-71.52107786168291
 20
2081.294604688718
 30
0.0
 11
-71.52107786168291
 21
2070.794604688718
 31
0.0
  0
LINE
  5
AF68
330
18
100
AcDbEntity
  8
AM_3 隠れ線
100
AcDbLine
 10
-72.38710286168316
 20
2082.794604688718
 30
0.0
 11
-72.38710286168316
 21
2070.794604688718
 31
0.0
  0
LINE
  5
AF69
330
18
100
AcDbEntity
  8
AM_3 隠れ線
100
AcDbLine
 10
-56.38710286168316
 20
2081.294604688718
 30
0.0
 11
-56.38710286168316
 21
2070.794604688718
 31
0.0
  0
LINE
  5
AF6A
330
18
100
AcDbEntity
  8
AM_0 外形線1
100
AcDbLine
 10
80.61289713831682
 20
1809.794604688718
 30
0.0
 11
80.61289713831682
 21
2070.794604688718
 31
0.0
  0
LINE
  5
AF6B
330
18
100
AcDbEntity
  8
AM_0 外形線1
100
AcDbLine
 10
62.61289713831684
 20
2070.794604688718
 30
0.0
 11
62.61289713831684
 21
1798.794604688717
 31
0.0
  0
LINE
  5
AF6C
330
18
100
AcDbEntity
  8
AM_0 外形線1
100
AcDbLine
 10
113.6128971383168
 20
1844.794604688718
 30
0.0
 11
113.6128971383168
 21
2070.794604688718
 31
0.0
  0
LINE
  5
AF6D
330
18
100
AcDbEntity
  8
AM_0 外形線1
100
AcDbLine
 10
108.6128971383168
 20
1843.294604688718
 30
0.0
 11
108.6128971383168
 21
2070.794604688718
 31
0.0
  0
LINE
  5
AF6F
330
18
100
AcDbEntity
  8
AM_0 外形線1
100
AcDbLine
 10
113.6128971383168
 20
1844.794604688718
 30
0.0
 11
190.6128971383168
 21
1844.794604688718
 31
0.0
  0
LINE
  5
AF70
330
18
100
AcDbEntity
  8
AM_0 外形線1
100
AcDbLine
 10
68.09693913831688
 20
1798.794604688717
 30
0.0
 11
80.61289713831682
 21
1798.794604688717
 31
0.0
  0
LINE
  5
AF71
330
18
100
AcDbEntity
  8
AM_0 外形線1
100
AcDbLine
 10
80.61289713831682
 20
1798.794604688717
 30
0.0
 11
80.61289713831682
 21
1809.794604688718
 31
0.0
  0
LINE
  5
AF72
330
18
100
AcDbEntity
  8
AM_0 外形線1
100
AcDbLine
 10
108.6128971383168
 20
1843.294604688718
 30
0.0
 11
113.6128971383168
 21
1844.794604688718
 31
0.0
  0
LINE
  5
AF73
330
18
100
AcDbEntity
  8
AM_0 外形線1
100
AcDbLine
 10
80.61289713831682
 20
1843.294604688718
 30
0.0
 11
108.6128971383168
 21
1843.294604688718
 31
0.0
  0
ARC
  5
AF77
330
18
100
AcDbEntity
  8
AM_0 外形線1
100
AcDbCircle
 10
190.6128971383168
 20
1850.794604688718
 30
0.0
 40
6.0
100
AcDbArc
 50
270.0
 51
0.0
  0
LINE
  5
AF78
330
18
100
AcDbEntity
  8
AM_3 隠れ線
100
AcDbLine
 10
-41.38710286168315
 20
2305.994604688718
 30
0.0
 11
48.61289713831684
 21
2305.994604688718
 31
0.0
  0
LINE
  5
AF79
330
18
100
AcDbEntity
  8
AM_7 中心線
100
AcDbLine
 10
98.62176213831663
 20
2331.794604688718
 30
0.0
 11
38.13949213831711
 21
2331.794604688718
 31
0.0
  0
LINE
  5
AF7B
330
18
100
AcDbEntity
  8
AM_7 中心線
100
AcDbLine
 10
-51.38710286168316
 20
2310.794604688718
 30
0.0
 11
57.61289713831684
 21
2310.794604688718
 31
0.0
  0
ARC
  5
AF7C
330
18
100
AcDbEntity
  8
AM_0 外形線1
100
AcDbCircle
 10
3.612897138316838
 20
2070.794604688718
 30
0.0
 40
245.75
100
AcDbArc
 50
79.56742400000663
 51
100.4325759999934
  0
LINE
  5
AF7D
330
18
100
AcDbEntity
  8
AM_0 外形線1
100
AcDbLine
 10
42.61289713831684
 20
2327.544604688718
 30
0.0
 11
48.11289713831683
 21
2327.544604688718
 31
0.0
  0
LINE
  5
AF7E
330
18
100
AcDbEntity
  8
AM_0 外形線1
100
AcDbLine
 10
48.11289713831683
 20
2336.044604688717
 30
0.0
 11
42.61289713831684
 21
2336.044604688717
 31
0.0
  0
LINE
  5
AF7F
330
18
100
AcDbEntity
  8
AM_0 外形線1
100
AcDbLine
 10
37.61289713831685
 20
2342.794604688718
 30
0.0
 11
80.61289713831682
 21
2342.794604688718
 31
0.0
  0
LINE
  5
AF83
330
18
100
AcDbEntity
  8
AM_0 外形線1
100
AcDbLine
 10
-49.38710286168316
 20
2316.794604688718
 30
0.0
 11
55.61289713831683
 21
2316.794604688718
 31
0.0
  0
DIMENSION
  5
AF84
330
18
100
AcDbEntity
  8
AM_5 寸法線
100
AcDbDimension
  2
*D13
 10
196.6128971383168
 20
2120.792841414512
 30
0.0
 11
110.5830528184106
 21
2120.792841414512
 31
0.0
 70
   160
 71
     5
 42
315.0
 73
     0
 74
     0
 75
     0
  3
ISO-25
100
AcDbAlignedDimension
 13
-118.3871028616831
 23
2120.852611688718
 33
0.0
 14
196.6128971383168
 24
2120.852611688718
 34
0.0
100
AcDbRotatedDimension
1001
ACAD
1000
DSTYLE
1002
{
1070
   271
1070
     6
1002
}
  0
DIMENSION
  5
AF8C
330
18
100
AcDbEntity
  8
AM_5 寸法線
100
AcDbDimension
  2
*D14
 10
-118.3871028616831
 20
2120.852611688718
 30
0.0
 11
-71.33287713073331
 21
2120.852611688718
 31
0.0
 70
   160
 71
     5
 42
28.0
 73
     0
 74
     0
 75
     0
  3
ISO-25
100
AcDbAlignedDimension
 13
-146.3871028616831
 23
2120.852611688718
 33
0.0
 14
-118.3871028616831
 24
2120.852611688718
 34
0.0
100
AcDbRotatedDimension
1001
ACAD
1000
DSTYLE
1002
{
1070
   271
1070
     6
1070
   279
1070
     1
1002
}
  0
LINE
  5
AF93
330
18
100
AcDbEntity
  8
AM_0 外形線1
100
AcDbLine
 10
-85.86846186168259
 20
2335.794604688718
 30
0.0
 11
-85.79861986168362
 21
2333.794604688718
 31
0.0
  0
LINE
  5
AF94
330
18
100
AcDbEntity
  8
AM_7 中心線
100
AcDbLine
 10
-82.38710286168316
 20
2364.294604688718
 30
0.0
 11
-200.3871028616832
 21
2364.294604688718
 31
0.0
  0
LINE
  5
AF95
330
18
100
AcDbEntity
  8
AM_0 外形線1
100
AcDbLine
 10
-41.88710286168315
 20
2297.294604688718
 30
0.0
 11
-117.3871028616831
 21
2297.294604688718
 31
0.0
  0
LINE
  5
AF96
330
18
100
AcDbEntity
  8
AM_0 外形線1
100
AcDbLine
 10
-49.88710286168316
 20
2318.294604688718
 30
0.0
 11
-139.3871028616831
 21
2318.294604688718
 31
0.0
  0
LINE
  5
AF97
330
18
100
AcDbEntity
  8
AM_0 外形線1
100
AcDbLine
 10
-96.38710286168317
 20
2335.794604688718
 30
0.0
 11
30.61289713831684
 21
2335.794604688718
 31
0.0
  0
ARC
  5
AF9A
330
18
100
AcDbEntity
  8
AM_0 外形線1
100
AcDbCircle
 10
-178.1031008616828
 20
2379.890757688718
 30
0.0
 40
9.184001999999999
100
AcDbArc
 50
145.4850750000131
 51
214.5149249999867
  0
LINE
  5
AF9B
330
18
100
AcDbEntity
  8
AM_0 外形線1
100
AcDbLine
 10
-168.2871028616828
 20
2343.494604688718
 30
0.0
 11
-168.2871028616828
 21
2385.094604688718
 31
0.0
  0
LINE
  5
AF9C
330
18
100
AcDbEntity
  8
AM_0 外形線1
100
AcDbLine
 10
-187.2871028616828
 20
2382.294604688718
 30
0.0
 11
-187.2871028616828
 21
2346.294604688718
 31
0.0
  0
LINE
  5
AF9D
330
18
100
AcDbEntity
  8
AM_0 外形線1
100
AcDbLine
 10
-162.3871028616831
 20
2381.294604688718
 30
0.0
 11
-162.3871028616831
 21
2347.294604688718
 31
0.0
  0
LINE
  5
AF9E
330
18
100
AcDbEntity
  8
AM_0 外形線1
100
AcDbLine
 10
-159.3871028616831
 20
2377.294604688718
 30
0.0
 11
-159.3871028616831
 21
2351.294604688717
 31
0.0
  0
LINE
  5
AF9F
330
18
100
AcDbEntity
  8
AM_0 外形線1
100
AcDbLine
 10
-104.8871028616831
 20
2351.294604688717
 30
0.0
 11
-104.8871028616831
 21
2377.294604688718
 31
0.0
  0
LINE
  5
AFA0
330
18
100
AcDbEntity
  8
AM_0 外形線1
100
AcDbLine
 10
-159.3871028616831
 20
2377.294604688718
 30
0.0
 11
-161.3871028616831
 21
2376.139904688718
 31
0.0
  0
ARC
  5
AFA1
330
18
100
AcDbEntity
  8
AM_0 外形線1
100
AcDbCircle
 10
-103.8871028616831
 20
2377.294604688718
 30
0.0
 40
1.0
100
AcDbArc
 50
180.0
 51
270.0
  0
ARC
  5
AFA2
330
18
100
AcDbEntity
  8
AM_0 外形線1
100
AcDbCircle
 10
-103.3871028616831
 20
2377.294604688718
 30
0.0
 40
1.0
100
AcDbArc
 50
270.0
 51
0.0
  0
ARC
  5
AFA3
330
18
100
AcDbEntity
  8
AM_0 外形線1
100
AcDbCircle
 10
-96.57110586168348
 20
2379.890757688718
 30
0.0
 40
9.184001999999999
100
AcDbArc
 50
325.4850750000132
 51
34.51492499998675
  0
LINE
  5
AFA4
330
18
100
AcDbEntity
  8
AM_0 外形線1
100
AcDbLine
 10
-102.3871028616831
 20
2341.794604688718
 30
0.0
 11
-102.3871028616831
 21
2385.094604688718
 31
0.0
  0
LINE
  5
AFA5
330
18
100
AcDbEntity
  8
AM_0 外形線1
100
AcDbLine
 10
-87.38710286168316
 20
2382.294604688718
 30
0.0
 11
-87.38710286168316
 21
2346.294604688718
 31
0.0
  0
LINE
  5
AFAB
330
18
100
AcDbEntity
  8
AM_0 外形線1
100
AcDbLine
 10
-161.8871028616831
 20
2351.294604688717
 30
0.0
 11
-102.3871028616831
 21
2351.294604688717
 31
0.0
  0
LINE
  5
AFAC
330
18
100
AcDbEntity
  8
AM_0 外形線1
100
AcDbLine
 10
-165.7038218616835
 20
2334.136245688718
 30
0.0
 11
-189.2199188616832
 21
2322.378196688718
 31
0.0
  0
ARC
  5
AFAD
330
18
100
AcDbEntity
  8
AM_0 外形線1
100
AcDbCircle
 10
-195.9281228616828
 20
2335.794604688718
 30
0.0
 40
15.0
100
AcDbArc
 50
270.0
 51
296.5650510000098
  0
LINE
  5
AFBD
330
18
100
AcDbEntity
  8
AM_0 外形線1
100
AcDbLine
 10
-168.2871028616828
 20
2353.902299688718
 30
0.0
 11
-185.6705228616829
 21
2353.902299688718
 31
0.0
  0
LINE
  5
AFBE
330
18
100
AcDbEntity
  8
AM_0 外形線1
100
AcDbLine
 10
-168.2871028616828
 20
2374.686909688718
 30
0.0
 11
-185.6705228616829
 21
2374.686909688718
 31
0.0
  0
LINE
  5
AFBF
330
18
100
AcDbEntity
  8
AM_0 外形線1
100
AcDbLine
 10
-185.6705228616829
 20
2343.494604688718
 30
0.0
 11
-168.2871028616828
 21
2343.494604688718
 31
0.0
  0
LINE
  5
AFC0
330
18
100
AcDbEntity
  8
AM_0 外形線1
100
AcDbLine
 10
-193.3871028616831
 20
2376.294604688718
 30
0.0
 11
-193.3871028616831
 21
2352.294604688718
 31
0.0
  0
LINE
  5
AFC1
330
18
100
AcDbEntity
  8
AM_0 外形線1
100
AcDbLine
 10
-193.3871028616831
 20
2352.294604688718
 30
0.0
 11
-187.2871028616828
 21
2352.294604688718
 31
0.0
  0
LINE
  5
AFC2
330
18
100
AcDbEntity
  8
AM_0 外形線1
100
AcDbLine
 10
-195.3871028616831
 20
2354.294604688718
 30
0.0
 11
-193.3871028616831
 21
2352.294604688718
 31
0.0
  0
LINE
  5
AFC3
330
18
100
AcDbEntity
  8
AM_0 外形線1
100
AcDbLine
 10
-195.3871028616831
 20
2374.294604688718
 30
0.0
 11
-195.3871028616831
 21
2354.294604688718
 31
0.0
  0
LINE
  5
AFC4
330
18
100
AcDbEntity
  8
AM_0 外形線1
100
AcDbLine
 10
-193.3871028616831
 20
2376.294604688718
 30
0.0
 11
-195.3871028616831
 21
2374.294604688718
 31
0.0
  0
LINE
  5
AFC5
330
18
100
AcDbEntity
  8
AM_0 外形線1
100
AcDbLine
 10
-187.2871028616828
 20
2376.294604688718
 30
0.0
 11
-193.3871028616831
 21
2376.294604688718
 31
0.0
  0
ARC
  5
AFC6
330
18
100
AcDbEntity
  8
AM_0 外形線1
100
AcDbCircle
 10
-178.1031008616828
 20
2348.698452688717
 30
0.0
 40
9.184001999999999
100
AcDbArc
 50
145.4850750000131
 51
214.5149249999867
  0
ARC
  5
AFC7
330
18
100
AcDbEntity
  8
AM_0 外形線1
100
AcDbCircle
 10
-153.074975861683
 20
2364.294604688718
 30
0.0
 40
34.212127
100
AcDbArc
 50
162.3163709999948
 51
197.6836290000051
  0
LINE
  5
AFC8
330
18
100
AcDbEntity
  8
AM_0 外形線1
100
AcDbLine
 10
-187.2871028616828
 20
2346.294604688718
 30
0.0
 11
-185.6705228616829
 21
2343.494604688718
 31
0.0
  0
LINE
  5
AFC9
330
18
100
AcDbEntity
  8
AM_4 細線
100
AcDbLine
 10
-194.3871028616831
 20
2353.294604688718
 30
0.0
 11
-187.2871028616828
 21
2353.294604688718
 31
0.0
  0
LINE
  5
AFCA
330
18
100
AcDbEntity
  8
AM_4 細線
100
AcDbLine
 10
-194.3871028616831
 20
2375.294604688718
 30
0.0
 11
-187.2871028616828
 21
2375.294604688718
 31
0.0
  0
ARC
  5
AFCB
330
18
100
AcDbEntity
  8
AM_0 外形線1
100
AcDbCircle
 10
-168.3871028616831
 20
2339.502808688718
 30
0.0
 40
6.0
100
AcDbArc
 50
296.5650510000098
 51
0.0
  0
LINE
  5
AFCC
330
18
100
AcDbEntity
  8
AM_0 外形線1
100
AcDbLine
 10
-162.3871028616831
 20
2347.294604688718
 30
0.0
 11
-162.3871028616831
 21
2339.502808688718
 31
0.0
  0
LINE
  5
AFCD
330
18
100
AcDbEntity
  8
AM_0 外形線1
100
AcDbLine
 10
-161.8871028616831
 20
2351.294604688717
 30
0.0
 11
-162.3871028616831
 21
2350.794604688718
 31
0.0
  0
LINE
  5
AFCE
330
18
100
AcDbEntity
  8
AM_0 外形線1
100
AcDbLine
 10
-161.3871028616831
 20
2352.449305688718
 30
0.0
 11
-162.3871028616831
 21
2352.449305688718
 31
0.0
  0
LINE
  5
AFCF
330
18
100
AcDbEntity
  8
AM_0 外形線1
100
AcDbLine
 10
-161.3871028616831
 20
2376.139904688718
 30
0.0
 11
-162.3871028616831
 21
2376.139904688718
 31
0.0
  0
LINE
  5
AFD0
330
18
100
AcDbEntity
  8
AM_0 外形線1
100
AcDbLine
 10
-162.3871028616831
 20
2366.261271688718
 30
0.0
 11
-168.2871028616828
 21
2360.361271688717
 31
0.0
  0
LINE
  5
AFD1
330
18
100
AcDbEntity
  8
AM_0 外形線1
100
AcDbLine
 10
-162.3871028616831
 20
2368.227938688718
 30
0.0
 11
-168.2871028616828
 21
2362.327938688718
 31
0.0
  0
LINE
  5
AFD2
330
18
100
AcDbEntity
  8
AM_0 外形線1
100
AcDbLine
 10
-162.3871028616831
 20
2347.294604688718
 30
0.0
 11
-168.2871028616828
 21
2347.294604688718
 31
0.0
  0
LINE
  5
AFD3
330
18
100
AcDbEntity
  8
AM_0 外形線1
100
AcDbLine
 10
-161.3871028616831
 20
2352.449305688718
 30
0.0
 11
-159.3871028616831
 21
2351.294604688717
 31
0.0
  0
LINE
  5
AFD4
330
18
100
AcDbEntity
  8
AM_0 外形線1
100
AcDbLine
 10
-161.3871028616831
 20
2376.139904688718
 30
0.0
 11
-161.3871028616831
 21
2352.449305688718
 31
0.0
  0
LINE
  5
AFD5
330
18
100
AcDbEntity
  8
AM_0 外形線1
100
AcDbLine
 10
-139.3871028616831
 20
2329.794604688718
 30
0.0
 11
-138.3871028616831
 21
2330.794604688718
 31
0.0
  0
LINE
  5
AFD8
330
18
100
AcDbEntity
  8
AM_0 外形線1
100
AcDbLine
 10
-146.3871028616831
 20
2318.294604688718
 30
0.0
 11
-146.3871028616831
 21
2298.294604688718
 31
0.0
  0
LINE
  5
AFDF
330
18
100
AcDbEntity
  8
AM_0 外形線1
100
AcDbLine
 10
-146.3871028616831
 20
2288.294604688718
 30
0.0
 11
-146.3871028616831
 21
2298.294604688718
 31
0.0
  0
LINE
  5
AFE7
330
18
100
AcDbEntity
  8
AM_0 外形線1
100
AcDbLine
 10
-139.3871028616831
 20
2318.294604688718
 30
0.0
 11
-146.3871028616831
 21
2318.294604688718
 31
0.0
  0
LINE
  5
AFE8
330
18
100
AcDbEntity
  8
AM_0 外形線1
100
AcDbLine
 10
-139.3871028616831
 20
2318.294604688718
 30
0.0
 11
-139.3871028616831
 21
2329.794604688718
 31
0.0
  0
LINE
  5
AFEA
330
18
100
AcDbEntity
  8
AM_0 外形線1
100
AcDbLine
 10
-117.3871028616831
 20
2297.294604688718
 30
0.0
 11
-118.3871028616831
 21
2296.294604688718
 31
0.0
  0
LWPOLYLINE
  5
AFEC
330
18
100
AcDbEntity
  8
AM_0 外形線1
100
AcDbPolyline
 90
       73
 70
     0
 43
0.0
 10
-130.1371028616831
 20
2330.794604688718
 10
-129.941002861683
 20
2330.808303688717
 10
-129.7463948616832
 20
2330.849296688718
 10
-129.5547608616834
 20
2330.917271688718
 10
-129.367557861683
 20
2331.011711688718
 10
-129.1862118616827
 20
2331.131896688718
 10
-129.0121028616831
 20
2331.276913688718
 10
-128.8465558616826
 20
2331.445657688718
 10
-128.690830861683
 20
2331.636844688718
 10
-128.5461128616825
 20
2331.849020688718
 10
-128.4135028616829
 20
2332.080569688718
 10
-128.2940108616831
 20
2332.329729688717
 10
-128.1885458616834
 20
2332.594604688718
 10
-128.097910861683
 20
2332.873179688718
 10
-128.022794861683
 20
2333.163332688718
 10
-127.9637698616834
 20
2333.462856688719
 10
-127.9212858616829
 20
2333.769471688718
 10
-127.8956648616831
 20
2334.080844688718
 10
-127.8871028616831
 20
2334.394604688718
 10
-127.8956648616831
 20
2334.708365688718
 10
-127.9212858616829
 20
2335.019738688718
 10
-127.9637698616834
 20
2335.326353688718
 10
-128.022794861683
 20
2335.625877688718
 10
-128.097910861683
 20
2335.916030688718
 10
-128.1885458616834
 20
2336.194604688718
 10
-128.2940108616831
 20
2336.459479688718
 10
-128.4135028616829
 20
2336.708640688718
 10
-128.5461128616825
 20
2336.940189688718
 10
-128.690830861683
 20
2337.152364688718
 10
-128.8465558616826
 20
2337.343552688718
 10
-129.0121028616831
 20
2337.512296688718
 10
-129.1862118616827
 20
2337.657312688718
 10
-129.367557861683
 20
2337.777498688718
 10
-129.5547608616834
 20
2337.871937688718
 10
-129.7463948616832
 20
2337.939912688717
 10
-129.941002861683
 20
2337.980905688718
 10
-130.1371028616831
 20
2337.994604688718
 10
-130.3332038616827
 20
2337.980905688718
 10
-130.5278118616834
 20
2337.939912688717
 10
-130.7194458616832
 20
2337.871937688718
 10
-130.9066488616827
 20
2337.777498688718
 10
-131.0879938616835
 20
2337.657312688718
 10
-131.2621028616831
 20
2337.512296688718
 10
-131.4276498616827
 20
2337.343552688718
 10
-131.5833758616827
 20
2337.152364688718
 10
-131.7280938616832
 20
2336.940189688718
 10
-131.8607028616834
 20
2336.708640688718
 10
-131.9801948616832
 20
2336.459479688718
 10
-132.0856608616832
 20
2336.194604688718
 10
-132.1762958616828
 20
2335.916030688718
 10
-132.2514118616836
 20
2335.625877688718
 10
-132.3104358616829
 20
2335.326353688718
 10
-132.3529208616828
 20
2335.019738688718
 10
-132.3785408616831
 20
2334.708365688718
 10
-132.3871028616831
 20
2334.394604688718
 10
-132.3785408616831
 20
2334.080844688718
 10
-132.3529208616828
 20
2333.769471688718
 10
-132.3104358616829
 20
2333.462856688719
 10
-132.2514118616836
 20
2333.163332688718
 10
-132.1762958616828
 20
2332.873179688718
 10
-132.0856608616832
 20
2332.594604688718
 10
-131.9801948616832
 20
2332.329729688717
 10
-131.8607028616834
 20
2332.080569688718
 10
-131.7280938616832
 20
2331.849020688718
 10
-131.5833758616827
 20
2331.636844688718
 10
-131.4276498616827
 20
2331.445657688718
 10
-131.2621028616831
 20
2331.276913688718
 10
-131.0879938616835
 20
2331.131896688718
 10
-130.9066488616827
 20
2331.011711688718
 10
-130.7194458616832
 20
2330.917271688718
 10
-130.5278118616834
 20
2330.849296688718
 10
-130.3332038616827
 20
2330.808303688717
 10
-130.1371028616831
 20
2330.794604688718
  0
LINE
  5
AFED
330
18
100
AcDbEntity
  8
AM_0 外形線1
100
AcDbLine
 10
-132.3871028616831
 20
2337.994604688718
 30
0.0
 11
-132.3871028616831
 21
2330.794604688718
 31
0.0
  0
LINE
  5
AFEE
330
18
100
AcDbEntity
  8
AM_0 外形線1
100
AcDbLine
 10
-132.3871028616831
 20
2337.994604688718
 30
0.0
 11
-132.3871028616831
 21
2351.294604688717
 31
0.0
  0
LINE
  5
AFEF
330
18
100
AcDbEntity
  8
AM_0 外形線1
100
AcDbLine
 10
-128.3871028616831
 20
2337.994604688718
 30
0.0
 11
-132.3871028616831
 21
2337.994604688718
 31
0.0
  0
ARC
  5
AFF0
330
18
100
AcDbEntity
  8
AM_0 外形線1
100
AcDbCircle
 10
-128.3871028616831
 20
2337.494604688718
 30
0.0
 40
0.5
100
AcDbArc
 50
0.0
 51
90.0
  0
LINE
  5
AFF1
330
18
100
AcDbEntity
  8
AM_0 外形線1
100
AcDbLine
 10
-127.8871028616831
 20
2331.294604688718
 30
0.0
 11
-127.8871028616831
 21
2337.494604688718
 31
0.0
  0
ARC
  5
AFF2
330
18
100
AcDbEntity
  8
AM_0 外形線1
100
AcDbCircle
 10
-128.3871028616831
 20
2331.294604688718
 30
0.0
 40
0.5
100
AcDbArc
 50
270.0
 51
0.0
  0
LINE
  5
AFF3
330
18
100
AcDbEntity
  8
AM_0 外形線1
100
AcDbLine
 10
-138.3871028616831
 20
2330.794604688718
 30
0.0
 11
-128.3871028616831
 21
2330.794604688718
 31
0.0
  0
ARC
  5
AFF4
330
18
100
AcDbEntity
  8
AM_0 外形線1
100
AcDbCircle
 10
-96.38710286168317
 20
2341.794604688718
 30
0.0
 40
6.0
100
AcDbArc
 50
180.0
 51
270.0
  0
ARC
  5
AFF5
330
18
100
AcDbEntity
  8
AM_0 外形線1
100
AcDbCircle
 10
-103.8871028616831
 20
2351.294604688717
 30
0.0
 40
1.0
100
AcDbArc
 50
90.0
 51
180.0
  0
LINE
  5
AFF6
330
18
100
AcDbEntity
  8
AM_0 外形線1
100
AcDbLine
 10
-103.3871028616831
 20
2352.294604688718
 30
0.0
 11
-103.8871028616831
 21
2352.294604688718
 31
0.0
  0
ARC
  5
AFF7
330
18
100
AcDbEntity
  8
AM_0 外形線1
100
AcDbCircle
 10
-103.3871028616831
 20
2351.294604688717
 30
0.0
 40
1.0
100
AcDbArc
 50
0.0
 51
90.0
  0
LINE
  5
AFF8
330
18
100
AcDbEntity
  8
AM_0 外形線1
100
AcDbLine
 10
-103.3871028616831
 20
2376.294604688718
 30
0.0
 11
-103.8871028616831
 21
2376.294604688718
 31
0.0
  0
ARC
  5
AFF9
330
18
100
AcDbEntity
  8
AM_0 外形線1
100
AcDbCircle
 10
-96.57110586168348
 20
2348.698452688717
 30
0.0
 40
9.184001999999999
100
AcDbArc
 50
325.4850750000132
 51
34.51492499998675
  0
ARC
  5
AFFA
330
18
100
AcDbEntity
  8
AM_0 外形線1
100
AcDbCircle
 10
-121.5992308616833
 20
2364.294604688718
 30
0.0
 40
34.212127
100
AcDbArc
 50
342.3163709999949
 51
17.68362900000514
  0
LINE
  5
AFFB
330
18
100
AcDbEntity
  8
AM_0 外形線1
100
AcDbLine
 10
-102.3871028616831
 20
2353.902299688718
 30
0.0
 11
-89.00368386168336
 21
2353.902299688718
 31
0.0
  0
LINE
  5
AFFC
330
18
100
AcDbEntity
  8
AM_0 外形線1
100
AcDbLine
 10
-102.3871028616831
 20
2374.686909688718
 30
0.0
 11
-89.00368386168336
 21
2374.686909688718
 31
0.0
  0
LINE
  5
AFFD
330
18
100
AcDbEntity
  8
AM_0 外形線1
100
AcDbLine
 10
-89.00368386168336
 20
2343.494604688718
 30
0.0
 11
-102.3871028616831
 21
2343.494604688718
 31
0.0
  0
LINE
  5
AFFE
330
18
100
AcDbEntity
  8
AM_0 外形線1
100
AcDbLine
 10
-87.38710286168316
 20
2346.294604688718
 30
0.0
 11
-89.00368386168336
 21
2343.494604688718
 31
0.0
  0
LINE
  5
B001
330
18
100
AcDbEntity
  8
AM_0 外形線1
100
AcDbLine
 10
-134.3871028616831
 20
2385.794604688718
 30
0.0
 11
-160.3871028616831
 21
2385.794604688718
 31
0.0
  0
LINE
  5
B002
330
18
100
AcDbEntity
  8
AM_0 外形線1
100
AcDbLine
 10
-161.8871028616831
 20
2377.294604688718
 30
0.0
 11
-102.3871028616831
 21
2377.294604688718
 31
0.0
  0
LINE
  5
B003
330
18
100
AcDbEntity
  8
AM_0 外形線1
100
AcDbLine
 10
-168.2871028616828
 20
2385.094604688718
 30
0.0
 11
-185.6705228616829
 21
2385.094604688718
 31
0.0
  0
LINE
  5
B004
330
18
100
AcDbEntity
  8
AM_0 外形線1
100
AcDbLine
 10
-185.6705228616829
 20
2385.094604688718
 30
0.0
 11
-187.2871028616828
 21
2382.294604688718
 31
0.0
  0
LINE
  5
B005
330
18
100
AcDbEntity
  8
AM_0 外形線1
100
AcDbLine
 10
-162.3871028616831
 20
2383.794604688718
 30
0.0
 11
-162.3871028616831
 21
2381.294604688718
 31
0.0
  0
LINE
  5
B006
330
18
100
AcDbEntity
  8
AM_0 外形線1
100
AcDbLine
 10
-160.3871028616831
 20
2385.794604688718
 30
0.0
 11
-162.3871028616831
 21
2383.794604688718
 31
0.0
  0
LINE
  5
B007
330
18
100
AcDbEntity
  8
AM_0 外形線1
100
AcDbLine
 10
-161.8871028616831
 20
2377.294604688718
 30
0.0
 11
-162.3871028616831
 21
2377.794604688718
 31
0.0
  0
LINE
  5
B008
330
18
100
AcDbEntity
  8
AM_0 外形線1
100
AcDbLine
 10
-168.2871028616828
 20
2381.294604688718
 30
0.0
 11
-162.3871028616831
 21
2381.294604688718
 31
0.0
  0
LINE
  5
B00A
330
18
100
AcDbEntity
  8
AM_0 外形線1
100
AcDbLine
 10
-131.3871028616831
 20
2385.794604688718
 30
0.0
 11
-103.3871028616831
 21
2385.794604688718
 31
0.0
  0
LINE
  5
B00C
330
18
100
AcDbEntity
  8
AM_0 外形線1
100
AcDbLine
 10
-132.3871028616831
 20
2383.794604688718
 30
0.0
 11
-134.3871028616831
 21
2385.794604688718
 31
0.0
  0
LINE
  5
B00D
330
18
100
AcDbEntity
  8
AM_0 外形線1
100
AcDbLine
 10
-132.3871028616831
 20
2384.794604688718
 30
0.0
 11
-131.3871028616831
 21
2385.794604688718
 31
0.0
  0
LINE
  5
B00E
330
18
100
AcDbEntity
  8
AM_0 外形線1
100
AcDbLine
 10
-132.3871028616831
 20
2377.294604688718
 30
0.0
 11
-132.3871028616831
 21
2384.794604688718
 31
0.0
  0
LINE
  5
B00F
330
18
100
AcDbEntity
  8
AM_0 外形線1
100
AcDbLine
 10
-89.00368386168336
 20
2385.094604688718
 30
0.0
 11
-87.38710286168316
 21
2382.294604688718
 31
0.0
  0
LINE
  5
B010
330
18
100
AcDbEntity
  8
AM_0 外形線1
100
AcDbLine
 10
-102.3871028616831
 20
2385.094604688718
 30
0.0
 11
-89.00368386168336
 21
2385.094604688718
 31
0.0
  0
LINE
  5
B011
330
18
100
AcDbEntity
  8
AM_0 外形線1
100
AcDbLine
 10
-103.3871028616831
 20
2385.794604688718
 30
0.0
 11
-102.3871028616831
 21
2384.794604688718
 31
0.0
  0
LINE
  5
B014
330
18
100
AcDbEntity
  8
AM_0 外形線1
100
AcDbLine
 10
-60.09837786168281
 20
2334.917396688718
 30
0.0
 11
-60.58054586168328
 21
2321.109919688718
 31
0.0
  0
LINE
  5
B015
330
18
100
AcDbEntity
  8
AM_0 外形線1
100
AcDbLine
 10
-84.19366086168338
 20
2321.109919688718
 30
0.0
 11
-84.67582886168292
 21
2334.917396688718
 31
0.0
  0
LINE
  5
B016
330
18
100
AcDbEntity
  8
AM_7 中心線
100
AcDbLine
 10
-72.38710286168316
 20
2338.482548688718
 30
0.0
 11
-72.38710286168316
 21
2313.404533688718
 31
0.0
  0
LINE
  5
B017
330
18
100
AcDbEntity
  8
AM_0 外形線1
100
AcDbLine
 10
-59.39463586168312
 20
2321.794604688718
 30
0.0
 11
-58.97558686168303
 21
2333.794604688718
 31
0.0
  0
LINE
  5
B018
330
18
100
AcDbEntity
  8
AM_0 外形線1
100
AcDbLine
 10
-85.79861986168362
 20
2333.794604688718
 30
0.0
 11
-85.37957086168352
 21
2321.794604688718
 31
0.0
  0
LINE
  5
B019
330
18
100
AcDbEntity
  8
AM_0 外形線1
100
AcDbLine
 10
-59.39463586168312
 20
2321.794604688718
 30
0.0
 11
-59.51685886168342
 21
2318.294604688718
 31
0.0
  0
LINE
  5
B01A
330
18
100
AcDbEntity
  8
AM_0 外形線1
100
AcDbLine
 10
-85.37957086168352
 20
2321.794604688718
 30
0.0
 11
-85.25734786168323
 21
2318.294604688718
 31
0.0
  0
LINE
  5
B01B
330
18
100
AcDbEntity
  8
AM_0 外形線1
100
AcDbLine
 10
-60.58054586168328
 20
2321.109919688718
 30
0.0
 11
-60.67885886168277
 21
2318.294604688718
 31
0.0
  0
LINE
  5
B01C
330
18
100
AcDbEntity
  8
AM_0 外形線1
100
AcDbLine
 10
-84.19366086168338
 20
2321.109919688718
 30
0.0
 11
-84.09534786168297
 21
2318.294604688718
 31
0.0
  0
LINE
  5
B01D
330
18
100
AcDbEntity
  8
AM_0 外形線1
100
AcDbLine
 10
-59.39463586168312
 20
2321.794604688718
 30
0.0
 11
-85.37957086168352
 21
2321.794604688718
 31
0.0
  0
LINE
  5
B01E
330
18
100
AcDbEntity
  8
AM_0 外形線1
100
AcDbLine
 10
-64.59078786168356
 20
2318.794604688718
 30
0.0
 11
-59.39463586168312
 21
2321.794604688718
 31
0.0
  0
LINE
  5
B01F
330
18
100
AcDbEntity
  8
AM_0 外形線1
100
AcDbLine
 10
-80.18341786168276
 20
2318.794604688718
 30
0.0
 11
-64.59078786168356
 21
2318.794604688718
 31
0.0
  0
LINE
  5
B020
330
18
100
AcDbEntity
  8
AM_0 外形線1
100
AcDbLine
 10
-85.37957086168352
 20
2321.794604688718
 30
0.0
 11
-80.18341786168276
 21
2318.794604688718
 31
0.0
  0
LINE
  5
B021
330
18
100
AcDbEntity
  8
AM_0 外形線1
100
AcDbLine
 10
-41.38710286168315
 20
2305.994604688718
 30
0.0
 11
-48.88710286168316
 21
2305.994604688718
 31
0.0
  0
ARC
  5
B022
102
{ACAD_REACTORS
330
D47E
330
D4A8
102
}
330
18
100
AcDbEntity
  8
AM_0 外形線1
100
AcDbCircle
 10
-41.88710286168315
 20
2297.794604688718
 30
0.0
 40
0.5
100
AcDbArc
 50
270.0
 51
0.0
  0
LINE
  5
B023
330
18
100
AcDbEntity
  8
AM_0 外形線1
100
AcDbLine
 10
-41.38710286168315
 20
2311.889436688718
 30
0.0
 11
-41.38710286168315
 21
2297.794604688718
 31
0.0
  0
LINE
  5
B024
330
18
100
AcDbEntity
  8
AM_0 外形線1
100
AcDbLine
 10
-40.88710286168315
 20
2312.482032688718
 30
0.0
 11
-41.38710286168315
 21
2311.889436688718
 31
0.0
  0
ARC
  5
B025
330
18
100
AcDbEntity
  8
AM_0 外形線1
100
AcDbCircle
 10
-49.88710286168316
 20
2317.794604688718
 30
0.0
 40
0.5
100
AcDbArc
 50
0.0
 51
90.0
  0
LINE
  5
B026
330
18
100
AcDbEntity
  8
AM_0 外形線1
100
AcDbLine
 10
-49.38710286168316
 20
2306.494604688718
 30
0.0
 11
-49.38710286168316
 21
2317.794604688718
 31
0.0
  0
LINE
  5
B027
330
18
100
AcDbEntity
  8
AM_0 外形線1
100
AcDbLine
 10
-48.88710286168316
 20
2305.994604688718
 30
0.0
 11
-49.38710286168316
 21
2306.494604688718
 31
0.0
  0
LINE
  5
B029
330
18
100
AcDbEntity
  8
AM_0 外形線1
100
AcDbLine
 10
-58.97558686168303
 20
2333.794604688718
 30
0.0
 11
-58.90574486168316
 21
2335.794604688718
 31
0.0
  0
LINE
  5
B02A
330
18
100
AcDbEntity
  8
AM_0 外形線1
100
AcDbLine
 10
-84.67582886168292
 20
2334.917396688718
 30
0.0
 11
-84.70646186168323
 21
2335.794604688718
 31
0.0
  0
LINE
  5
B02B
330
18
100
AcDbEntity
  8
AM_0 外形線1
100
AcDbLine
 10
-60.09837786168281
 20
2334.917396688718
 30
0.0
 11
-60.06774486168342
 21
2335.794604688718
 31
0.0
  0
LINE
  5
B02C
330
18
100
AcDbEntity
  8
AM_0 外形線1
100
AcDbLine
 10
-58.97558686168303
 20
2333.794604688718
 30
0.0
 11
-85.79861986168362
 21
2333.794604688718
 31
0.0
  0
LINE
  5
B02D
330
18
100
AcDbEntity
  8
AM_0 外形線1
100
AcDbLine
 10
-58.97558686168303
 20
2333.794604688718
 30
0.0
 11
-60.97558686168303
 21
2335.794604688718
 31
0.0
  0
LINE
  5
B02E
330
18
100
AcDbEntity
  8
AM_0 外形線1
100
AcDbLine
 10
-83.79861986168362
 20
2335.794604688718
 30
0.0
 11
-85.79861986168362
 21
2333.794604688718
 31
0.0
  0
LINE
  5
B02F
330
18
100
AcDbEntity
  8
AM_0 外形線1
100
AcDbLine
 10
42.61289713831684
 20
2336.044604688717
 30
0.0
 11
42.61289713831684
 21
2327.544604688718
 31
0.0
  0
LINE
  5
B030
330
18
100
AcDbEntity
  8
AM_0 外形線1
100
AcDbLine
 10
40.15915813831725
 20
2331.794604688718
 30
0.0
 11
42.61289713831684
 21
2327.544604688718
 31
0.0
  0
LINE
  5
B031
330
18
100
AcDbEntity
  8
AM_7 中心線
100
AcDbLine
 10
3.612897138316838
 20
2321.544604688718
 30
0.0
 11
3.612897138316838
 21
2299.794604688718
 31
0.0
  0
LINE
  5
B032
330
18
100
AcDbEntity
  8
AM_0 外形線1
100
AcDbLine
 10
42.61289713831684
 20
2336.044604688717
 30
0.0
 11
40.15915813831725
 21
2331.794604688718
 31
0.0
  0
LINE
  5
B033
330
18
100
AcDbEntity
  8
AM_0 外形線1
100
AcDbLine
 10
30.61289713831684
 20
2335.794604688718
 30
0.0
 11
37.61289713831685
 21
2342.794604688718
 31
0.0
  0
LINE
  5
B037
330
18
100
AcDbEntity
  8
AM_0 外形線1
100
AcDbLine
 10
190.6128971383168
 20
2296.794604688718
 30
0.0
 11
113.6128971383168
 21
2296.794604688718
 31
0.0
  0
LINE
  5
B03A
330
18
100
AcDbEntity
  8
AM_0 外形線1
100
AcDbLine
 10
113.6128971383168
 20
2296.794604688718
 30
0.0
 11
108.6128971383168
 21
2298.294604688718
 31
0.0
  0
LINE
  5
B03C
330
18
100
AcDbEntity
  8
AM_0 外形線1
100
AcDbLine
 10
83.11289713831682
 20
2332.294604688718
 30
0.0
 11
80.61289713831682
 21
2329.794604688718
 31
0.0
  0
LINE
  5
B03D
330
18
100
AcDbEntity
  8
AM_0 外形線1
100
AcDbLine
 10
90.11289713831684
 20
2339.379125688718
 30
0.0
 11
90.11289713831684
 21
2324.210084688718
 31
0.0
  0
ARC
  5
B03E
330
18
100
AcDbEntity
  8
AM_0 外形線1
100
AcDbCircle
 10
76.11289713831684
 20
2331.794604688718
 30
0.0
 40
14.0
100
AcDbArc
 50
339.5453489999973
 51
20.4546510000027
  0
LINE
  5
B03F
330
18
100
AcDbEntity
  8
AM_0 外形線1
100
AcDbLine
 10
83.11289713831682
 20
2341.044604688718
 30
0.0
 11
83.11289713831682
 21
2322.544604688718
 31
0.0
  0
LINE
  5
B040
330
18
100
AcDbEntity
  8
AM_0 外形線1
100
AcDbLine
 10
48.11289713831683
 20
2336.794604688718
 30
0.0
 11
48.11289713831683
 21
2326.794604688718
 31
0.0
  0
LINE
  5
B041
330
18
100
AcDbEntity
  8
AM_0 外形線1
100
AcDbLine
 10
80.61289713831682
 20
2331.794604688718
 30
0.0
 11
80.61289713831682
 21
2300.294604688718
 31
0.0
  0
LINE
  5
B043
330
18
100
AcDbEntity
  8
AM_0 外形線1
100
AcDbLine
 10
48.11289713831683
 20
2327.544604688718
 30
0.0
 11
80.61289713831682
 21
2327.544604688718
 31
0.0
  0
LINE
  5
B044
330
18
100
AcDbEntity
  8
AM_0 外形線1
100
AcDbLine
 10
108.6128971383168
 20
2298.294604688718
 30
0.0
 11
49.11289713831684
 21
2298.294604688718
 31
0.0
  0
LINE
  5
B045
330
18
100
AcDbEntity
  8
AM_0 外形線1
100
AcDbLine
 10
80.61289713831682
 20
2326.294604688718
 30
0.0
 11
62.61289713831684
 21
2326.294604688718
 31
0.0
  0
LINE
  5
B046
330
18
100
AcDbEntity
  8
AM_0 外形線1
100
AcDbLine
 10
48.11289713831683
 20
2326.794604688718
 30
0.0
 11
80.61289713831682
 21
2326.794604688718
 31
0.0
  0
LINE
  5
B047
330
18
100
AcDbEntity
  8
AM_0 外形線1
100
AcDbLine
 10
80.61289713831682
 20
2300.294604688718
 30
0.0
 11
75.61289713831683
 21
2300.294604688718
 31
0.0
  0
LINE
  5
B048
330
18
100
AcDbEntity
  8
AM_0 外形線1
100
AcDbLine
 10
48.61289713831684
 20
2305.994604688718
 30
0.0
 11
55.11289713831684
 21
2305.994604688718
 31
0.0
  0
LWPOLYLINE
  5
B049
330
18
100
AcDbEntity
  8
AM_0 外形線1
100
AcDbPolyline
 90
       73
 70
     0
 43
0.0
 10
64.16289713831702
 20
2323.594604688718
 10
64.02780513831658
 20
2323.584520688718
 10
63.89374213831708
 20
2323.554345688718
 10
63.76172713831691
 20
2323.504308688718
 10
63.63276513831714
 20
2323.434790688718
 10
63.50783813831731
 20
2323.346320688719
 10
63.38789713831648
 20
2323.239572688718
 10
63.27385313831655
 20
2323.115357688718
 10
63.1665761383174
 20
2322.974622688717
 10
63.0668811383166
 20
2322.818437688717
 10
62.97552813831679
 20
2322.647991688718
 10
62.89321113831647
 20
2322.464582688718
 10
62.82055713831687
 20
2322.269604688719
 10
62.75812013831636
 20
2322.064543688718
 10
62.70637313831684
 20
2321.850958688718
 10
62.66571213831685
 20
2321.630475688718
 10
62.63644513831696
 20
2321.404772688717
 10
62.61879513831718
 20
2321.175567688718
 10
62.61289713831684
 20
2320.944604688718
 10
62.61879513831718
 20
2320.713642688718
 10
62.63644513831696
 20
2320.484437688718
 10
62.66571213831685
 20
2320.258734688718
 10
62.70637313831684
 20
2320.038251688718
 10
62.75812013831636
 20
2319.824666688718
 10
62.82055713831687
 20
2319.619604688718
 10
62.89321113831647
 20
2319.424627688718
 10
62.97552813831679
 20
2319.241217688718
 10
63.0668811383166
 20
2319.070771688718
 10
63.1665761383174
 20
2318.914587688718
 10
63.27385313831655
 20
2318.773851688717
 10
63.38789713831648
 20
2318.649637688718
 10
63.50783813831731
 20
2318.542889688718
 10
63.63276513831714
 20
2318.454419688718
 10
63.76172713831691
 20
2318.384901688718
 10
63.89374213831708
 20
2318.334864688718
 10
64.02780513831658
 20
2318.304688688718
 10
64.16289713831702
 20
2318.294604688718
 10
64.29798813831713
 20
2318.304688688718
 10
64.43205113831663
 20
2318.334864688718
 10
64.56406613831679
 20
2318.384901688718
 10
64.69302813831744
 20
2318.454419688718
 10
64.81795513831639
 20
2318.542889688718
 10
64.93789713831666
 20
2318.649637688718
 10
65.05194013831715
 20
2318.773851688717
 10
65.15921713831722
 20
2318.914587688718
 10
65.2589121383171
 20
2319.070771688718
 10
65.35026613831724
 20
2319.241217688718
 10
65.43258213831723
 20
2319.424627688718
 10
65.50523613831683
 20
2319.619604688718
 10
65.56767413831676
 20
2319.824666688718
 10
65.61942013831686
 20
2320.038251688718
 10
65.66008213831718
 20
2320.258734688718
 10
65.68934913831708
 20
2320.484437688718
 10
65.70699813831652
 20
2320.713642688718
 10
65.71289713831721
 20
2320.944604688718
 10
65.70699813831652
 20
2321.175567688718
 10
65.68934913831708
 20
2321.404772688717
 10
65.66008213831718
 20
2321.630475688718
 10
65.61942013831686
 20
2321.850958688718
 10
65.56767413831676
 20
2322.064543688718
 10
65.50523613831683
 20
2322.269604688719
 10
65.43258213831723
 20
2322.464582688718
 10
65.35026613831724
 20
2322.647991688718
 10
65.2589121383171
 20
2322.818437688717
 10
65.15921713831722
 20
2322.974622688717
 10
65.05194013831715
 20
2323.115357688718
 10
64.93789713831666
 20
2323.239572688718
 10
64.81795513831639
 20
2323.346320688719
 10
64.69302813831744
 20
2323.434790688718
 10
64.56406613831679
 20
2323.504308688718
 10
64.43205113831663
 20
2323.554345688718
 10
64.29798813831713
 20
2323.584520688718
 10
64.16289713831702
 20
2323.594604688718
  0
LWPOLYLINE
  5
B04A
330
18
100
AcDbEntity
  8
AM_0 外形線1
100
AcDbPolyline
 90
       73
 70
     0
 43
0.0
 10
61.61289713831684
 20
2302.394604688718
 10
61.63953413831677
 20
2302.037266688718
 10
61.71924213831697
 20
2301.682647688718
 10
61.85141613831729
 20
2301.333446688718
 10
62.0350481383166
 20
2300.992322688718
 10
62.26874213831706
 20
2300.661869688718
 10
62.5507191383167
 20
2300.344604688717
 10
62.87883213831719
 20
2300.042941688718
 10
63.25058613831696
 20
2299.759175688718
 10
63.66314913831684
 20
2299.495466688718
 10
64.11338313831675
 20
2299.253822688718
 10
64.59786213831647
 20
2299.036081688718
 10
65.11289713831684
 20
2298.843900688718
 10
65.65456913831714
 20
2298.678742688718
 10
66.21875613831708
 20
2298.541865688718
 10
66.80116313831695
 20
2298.434308688718
 10
67.39735913831646
 20
2298.356893688718
 10
68.00280613831636
 20
2298.310206688718
 10
68.61289713831684
 20
2298.294604688718
 10
69.22298713831697
 20
2298.310206688718
 10
69.82843413831687
 20
2298.356893688718
 10
70.4246301383173
 20
2298.434308688718
 10
71.00703813831659
 20
2298.541865688718
 10
71.57122413831712
 20
2298.678742688718
 10
72.11289713831684
 20
2298.843900688718
 10
72.62793213831717
 20
2299.036081688718
 10
73.1124101383175
 20
2299.253822688718
 10
73.56264413831741
 20
2299.495466688718
 10
73.9752081383167
 20
2299.759175688718
 10
74.34696113831705
 20
2300.042941688718
 10
74.67507413831661
 20
2300.344604688717
 10
74.95705113831718
 20
2300.661869688718
 10
75.19074513831674
 20
2300.992322688718
 10
75.37437713831696
 20
2301.333446688718
 10
75.50655113831727
 20
2301.682647688718
 10
75.58625913831747
 20
2302.037266688718
 10
75.61289713831683
 20
2302.394604688718
 10
75.58625913831747
 20
2302.751943688718
 10
75.50655113831727
 20
2303.106562688718
 10
75.37437713831696
 20
2303.455762688718
 10
75.19074513831674
 20
2303.796887688718
 10
74.95705113831718
 20
2304.127339688718
 10
74.67507413831661
 20
2304.444604688718
 10
74.34696113831705
 20
2304.746268688718
 10
73.9752081383167
 20
2305.030033688717
 10
73.56264413831741
 20
2305.293742688718
 10
73.1124101383175
 20
2305.535387688717
 10
72.62793213831717
 20
2305.753128688718
 10
72.11289713831684
 20
2305.945308688718
 10
71.57122413831712
 20
2306.110466688718
 10
71.00703813831659
 20
2306.247344688718
 10
70.4246301383173
 20
2306.354900688718
 10
69.82843413831687
 20
2306.432316688718
 10
69.22298713831697
 20
2306.479003688718
 10
68.61289713831684
 20
2306.494604688718
 10
68.00280613831636
 20
2306.479003688718
 10
67.39735913831646
 20
2306.432316688718
 10
66.80116313831695
 20
2306.354900688718
 10
66.21875613831708
 20
2306.247344688718
 10
65.65456913831714
 20
2306.110466688718
 10
65.11289713831684
 20
2305.945308688718
 10
64.59786213831647
 20
2305.753128688718
 10
64.11338313831675
 20
2305.535387688717
 10
63.66314913831684
 20
2305.293742688718
 10
63.25058613831696
 20
2305.030033688717
 10
62.87883213831719
 20
2304.746268688718
 10
62.5507191383167
 20
2304.444604688718
 10
62.26874213831706
 20
2304.127339688718
 10
62.0350481383166
 20
2303.796887688718
 10
61.85141613831729
 20
2303.455762688718
 10
61.71924213831697
 20
2303.106562688718
 10
61.63953413831677
 20
2302.751943688718
 10
61.61289713831684
 20
2302.394604688718
  0
LINE
  5
B04B
330
18
100
AcDbEntity
  8
AM_0 外形線1
100
AcDbLine
 10
48.61289713831684
 20
2311.889436688718
 30
0.0
 11
48.11289713831683
 21
2312.482032688718
 31
0.0
  0
LINE
  5
B04C
330
18
100
AcDbEntity
  8
AM_0 外形線1
100
AcDbLine
 10
48.61289713831684
 20
2298.794604688718
 30
0.0
 11
48.61289713831684
 21
2311.889436688718
 31
0.0
  0
ARC
  5
B04D
102
{ACAD_REACTORS
330
D4A8
102
}
330
18
100
AcDbEntity
  8
AM_0 外形線1
100
AcDbCircle
 10
49.11289713831684
 20
2298.794604688718
 30
0.0
 40
0.5
100
AcDbArc
 50
180.0
 51
270.0
  0
LINE
  5
B04E
330
18
100
AcDbEntity
  8
AM_0 外形線1
100
AcDbLine
 10
62.61289713831684
 20
2323.594604688718
 30
0.0
 11
62.61289713831684
 21
2327.544604688718
 31
0.0
  0
LINE
  5
B04F
330
18
100
AcDbEntity
  8
AM_0 外形線1
100
AcDbLine
 10
65.71289713831721
 20
2323.594604688718
 30
0.0
 11
62.61289713831684
 21
2323.594604688718
 31
0.0
  0
LINE
  5
B050
330
18
100
AcDbEntity
  8
AM_0 外形線1
100
AcDbLine
 10
65.71289713831721
 20
2318.294604688718
 30
0.0
 11
65.71289713831721
 21
2323.594604688718
 31
0.0
  0
LINE
  5
B051
330
18
100
AcDbEntity
  8
AM_0 外形線1
100
AcDbLine
 10
62.61289713831684
 20
2318.294604688718
 30
0.0
 11
65.71289713831721
 21
2318.294604688718
 31
0.0
  0
LINE
  5
B052
330
18
100
AcDbEntity
  8
AM_0 外形線1
100
AcDbLine
 10
56.11289713831684
 20
2318.294604688718
 30
0.0
 11
62.61289713831684
 21
2318.294604688718
 31
0.0
  0
LINE
  5
B053
330
18
100
AcDbEntity
  8
AM_0 外形線1
100
AcDbLine
 10
55.61289713831683
 20
2306.494604688718
 30
0.0
 11
55.11289713831684
 21
2305.994604688718
 31
0.0
  0
LINE
  5
B054
330
18
100
AcDbEntity
  8
AM_0 外形線1
100
AcDbLine
 10
55.61289713831683
 20
2317.794604688718
 30
0.0
 11
55.61289713831683
 21
2306.494604688718
 31
0.0
  0
ARC
  5
B055
330
18
100
AcDbEntity
  8
AM_0 外形線1
100
AcDbCircle
 10
56.11289713831684
 20
2317.794604688718
 30
0.0
 40
0.5
100
AcDbArc
 50
90.0
 51
180.0
  0
ARC
  5
B056
330
18
100
AcDbEntity
  8
AM_0 外形線1
100
AcDbCircle
 10
56.11289713831684
 20
2317.794604688718
 30
0.0
 40
0.5
100
AcDbArc
 50
0.0
 51
90.0
  0
LINE
  5
B057
330
18
100
AcDbEntity
  8
AM_0 外形線1
100
AcDbLine
 10
56.61289713831684
 20
2300.294604688718
 30
0.0
 11
56.61289713831684
 21
2317.794604688718
 31
0.0
  0
LINE
  5
B058
330
18
100
AcDbEntity
  8
AM_0 外形線1
100
AcDbLine
 10
61.61289713831684
 20
2300.294604688718
 30
0.0
 11
56.61289713831684
 21
2300.294604688718
 31
0.0
  0
LINE
  5
B059
330
18
100
AcDbEntity
  8
AM_0 外形線1
100
AcDbLine
 10
61.61289713831684
 20
2306.494604688718
 30
0.0
 11
61.61289713831684
 21
2300.294604688718
 31
0.0
  0
LINE
  5
B05A
330
18
100
AcDbEntity
  8
AM_0 外形線1
100
AcDbLine
 10
75.61289713831683
 20
2306.494604688718
 30
0.0
 11
61.61289713831684
 21
2306.494604688718
 31
0.0
  0
LINE
  5
B05B
330
18
100
AcDbEntity
  8
AM_0 外形線1
100
AcDbLine
 10
75.61289713831683
 20
2300.294604688718
 30
0.0
 11
75.61289713831683
 21
2306.494604688718
 31
0.0
  0
LINE
  5
B05C
330
18
100
AcDbEntity
  8
AM_0 外形線1
100
AcDbLine
 10
62.61289713831684
 20
2323.594604688718
 30
0.0
 11
62.61289713831684
 21
2318.294604688718
 31
0.0
  0
LINE
  5
B05D
330
18
100
AcDbEntity
  8
AM_0 外形線1
100
AcDbLine
 10
56.61289713831684
 20
2300.294604688718
 30
0.0
 11
56.61289713831684
 21
2298.294604688718
 31
0.0
  0
LINE
  5
B05E
330
18
100
AcDbEntity
  8
AM_0 外形線1
100
AcDbLine
 10
61.61289713831684
 20
2300.294604688718
 30
0.0
 11
61.61289713831684
 21
2298.294604688718
 31
0.0
  0
LINE
  5
B05F
330
18
100
AcDbEntity
  8
AM_0 外形線1
100
AcDbLine
 10
75.61289713831683
 20
2300.294604688718
 30
0.0
 11
75.61289713831683
 21
2298.294604688718
 31
0.0
  0
LINE
  5
B060
330
18
100
AcDbEntity
  8
AM_0 外形線1
100
AcDbLine
 10
83.11289713831682
 20
2326.902082688718
 30
0.0
 11
89.23018413831689
 21
2326.902082688718
 31
0.0
  0
LINE
  5
B061
330
18
100
AcDbEntity
  8
AM_0 外形線1
100
AcDbLine
 10
83.11289713831682
 20
2321.994604688718
 30
0.0
 11
83.11289713831682
 21
2322.544604688718
 31
0.0
  0
LINE
  5
B062
330
18
100
AcDbEntity
  8
AM_0 外形線1
100
AcDbLine
 10
83.35637813831636
 20
2321.994604688718
 30
0.0
 11
83.11289713831682
 21
2321.994604688718
 31
0.0
  0
LINE
  5
B063
330
18
100
AcDbEntity
  8
AM_0 外形線1
100
AcDbLine
 10
89.23018413831689
 20
2321.994604688718
 30
0.0
 11
83.35637813831636
 21
2321.994604688718
 31
0.0
  0
ARC
  5
B064
330
18
100
AcDbEntity
  8
AM_0 外形線1
100
AcDbCircle
 10
86.29328113831707
 20
2324.448343688718
 30
0.0
 40
3.827039
100
AcDbArc
 50
320.121744999991
 51
39.87825500000901
  0
LINE
  5
B065
330
18
100
AcDbEntity
  8
AM_0 外形線1
100
AcDbLine
 10
83.11289713831682
 20
2322.544604688718
 30
0.0
 11
80.61289713831682
 21
2322.544604688718
 31
0.0
  0
LINE
  5
B066
330
18
100
AcDbEntity
  8
AM_0 外形線1
100
AcDbLine
 10
80.61289713831682
 20
2300.294604688718
 30
0.0
 11
80.61289713831682
 21
2298.294604688718
 31
0.0
  0
LINE
  5
B067
330
18
100
AcDbEntity
  8
AM_0 外形線1
100
AcDbLine
 10
80.61289713831682
 20
2336.044604688717
 30
0.0
 11
48.11289713831683
 21
2336.044604688717
 31
0.0
  0
LINE
  5
B068
330
18
100
AcDbEntity
  8
AM_0 外形線1
100
AcDbLine
 10
80.61289713831682
 20
2337.294604688718
 30
0.0
 11
62.61289713831684
 21
2337.294604688718
 31
0.0
  0
LINE
  5
B069
330
18
100
AcDbEntity
  8
AM_0 外形線1
100
AcDbLine
 10
80.61289713831682
 20
2336.794604688718
 30
0.0
 11
48.11289713831683
 21
2336.794604688718
 31
0.0
  0
LINE
  5
B06A
330
18
100
AcDbEntity
  8
AM_0 外形線1
100
AcDbLine
 10
62.61289713831684
 20
2336.044604688717
 30
0.0
 11
62.61289713831684
 21
2342.794604688718
 31
0.0
  0
LINE
  5
B06C
330
18
100
AcDbEntity
  8
AM_0 外形線1
100
AcDbLine
 10
80.61289713831682
 20
2331.294604688718
 30
0.0
 11
83.11289713831682
 21
2333.794604688718
 31
0.0
  0
LINE
  5
B06D
330
18
100
AcDbEntity
  8
AM_0 外形線1
100
AcDbLine
 10
83.11289713831682
 20
2336.687127688718
 30
0.0
 11
89.23018413831689
 21
2336.687127688718
 31
0.0
  0
ARC
  5
B06E
330
18
100
AcDbEntity
  8
AM_0 外形線1
100
AcDbCircle
 10
86.29328113831707
 20
2339.140866688717
 30
0.0
 40
3.827039
100
AcDbArc
 50
320.121744999991
 51
39.87825500000901
  0
LINE
  5
B06F
330
18
100
AcDbEntity
  8
AM_0 外形線1
100
AcDbLine
 10
83.11289713831682
 20
2341.594604688718
 30
0.0
 11
89.23018413831689
 21
2341.594604688718
 31
0.0
  0
LINE
  5
B070
330
18
100
AcDbEntity
  8
AM_0 外形線1
100
AcDbLine
 10
83.11289713831682
 20
2341.044604688718
 30
0.0
 11
83.11289713831682
 21
2341.594604688718
 31
0.0
  0
LINE
  5
B071
330
18
100
AcDbEntity
  8
AM_0 外形線1
100
AcDbLine
 10
80.61289713831682
 20
2341.044604688718
 30
0.0
 11
83.11289713831682
 21
2341.044604688718
 31
0.0
  0
LINE
  5
B072
330
18
100
AcDbEntity
  8
AM_0 外形線1
100
AcDbLine
 10
80.61289713831682
 20
2342.794604688718
 30
0.0
 11
80.61289713831682
 21
2331.794604688718
 31
0.0
  0
ARC
  5
B073
330
18
100
AcDbEntity
  8
AM_0 外形線1
100
AcDbCircle
 10
190.6128971383168
 20
2290.794604688718
 30
0.0
 40
6.0
100
AcDbArc
 50
0.0
 51
90.0
  0
DIMENSION
  5
BB8A
330
18
100
AcDbEntity
  8
AM_5 寸法線
100
AcDbDimension
  2
*D15
 10
56.61289713831683
 20
2230.407637048175
 30
0.0
 11
101.4510025175486
 21
2258.605687231535
 31
0.0
 70
   160
 71
     5
 42
8.0
 73
     0
 74
     0
 75
     0
  3
ISO-25
100
AcDbAlignedDimension
 13
48.61289713831684
 23
2298.794604688718
 33
0.0
 14
56.61289713831684
 24
2298.294604688718
 34
0.0
100
AcDbRotatedDimension
1001
ACAD
1000
DSTYLE
1002
{
1070
   271
1070
     6
1070
   279
1070
     2
1002
}
  0
LINE
  5
BCFD
330
18
100
AcDbEntity
  8
AM_0 外形線1
100
AcDbLine
 10
196.6128971383168
 20
2208.294604688717
 30
0.0
 11
-118.3871028616831
 21
2208.294604688719
 31
0.0
  0
LINE
  5
BD0D
330
18
100
AcDbEntity
  8
AM_0 外形線1
100
AcDbLine
 10
-146.3871028616831
 20
2208.294604688718
 30
0.0
 11
-461.3871028616832
 21
2208.294604688718
 31
0.0
  0
LINE
  5
BE89
330
18
100
AcDbEntity
  8
AM_5 寸法線
100
AcDbLine
 10
-212.3871028616832
 20
1659.794604688717
 30
0.0
 11
-264.9001701477009
 21
1659.794604688717
 31
0.0
  0
ARC
  5
BFFA
330
18
100
AcDbEntity
  8
AM_0 外形線1
100
AcDbCircle
 10
-455.3871028616831
 20
1826.794604688718
 30
0.0
 40
6.0
100
AcDbArc
 50
180.0
 51
270.0
  0
TEXT
  5
CB1C
330
18
100
AcDbEntity
  8
断面､詳細
100
AcDbText
 10
-16694.11007934117
 20
-19322.32323639526
 30
0.0
 40
416.6666666666667
  1

 41
0.9
  7
SEISA
100
AcDbText
  0
MTEXT
  5
CB24
330
18
100
AcDbEntity
  8
AM_5 寸法線
100
AcDbMText
 10
2279.890809014659
 20
3872.715649284743
 30
0.0
 40
35.0
 41
0.0
 46
0.0
 71
     7
 72
     1
  1

  7
SEISA
 73
     1
 44
1.0
  0
MTEXT
  5
CFE3
330
18
100
AcDbEntity
  8
AM_6 文字
100
AcDbMText
 10
260.4702144874222
 20
1698.421595686133
 30
0.0
 40
35.0
 41
843.618069251107
 46
224.2831942528344
 71
     1
 72
     5
  1
{\W0.6;TYPE:CEM630/CEMH630\PSHAFT DIA:MAX/MIN \P RIGID SIDE φ355/φ224\P COUPLING CENTER SIDE φ325/φ224}
  7
SEISA
 73
     1
 44
1.0
  0
DIMENSION
  5
D3B4
102
{ACAD_XDICTIONARY
360
D3C1
102
}
102
{ACAD_REACTORS
330
D3C2
102
}
330
18
100
AcDbEntity
  8
AM_5 寸法線
100
AcDbDimension
  2
*D20
 10
276.6128971383168
 20
2407.75076305087
 30
0.0
 11
236.6128971383168
 21
2435.25076305087
 31
0.0
 70
    32
 71
     5
 42
80.0
 73
     0
 74
     0
 75
     0
  3
ISO-25
100
AcDbAlignedDimension
 13
196.6128971383168
 23
2290.794604688718
 33
0.0
 14
276.6128971383168
 24
2342.794604688718
 34
0.0
100
AcDbRotatedDimension
1001
ACAD_DSTYLE_DIMINSPECT
1070
   396
1000
100%
1070
   395
1000

1070
   394
1070
    33
1070
   393
1070
     0
1001
ACAD
1000
DSTYLE
1002
{
1070
   271
1070
     6
1002
}
  0
ARC
  5
D404
330
18
100
AcDbEntity
  8
AM_7 中心線
100
AcDbCircle
 10
3.612897138316866
 20
2070.794604688718
 30
0.0
 40
239.875
100
AcDbArc
 50
77.97289801913592
 51
102.2554647930118
  0
ARC
  5
D405
330
18
100
AcDbEntity
  8
AM_0 外形線1
100
AcDbCircle
 10
3.612897138316866
 20
2070.794604688718
 30
0.0
 40
234.0
100
AcDbArc
 50
78.91251078902938
 51
101.0874892109706
  0
DIMENSION
  5
D470
102
{ACAD_XDICTIONARY
360
D47D
102
}
102
{ACAD_REACTORS
330
D47E
102
}
330
18
100
AcDbEntity
  8
AM_5 寸法線
100
AcDbDimension
  2
*D21
 10
-41.38710286168318
 20
2230.407637048175
 30
0.0
 11
-79.88710286168316
 21
2257.907637048174
 31
0.0
 70
    32
 71
     5
 42
77.0
 73
     0
 74
     0
 75
     0
  3
ISO-25
100
AcDbAlignedDimension
 13
-118.3871028616831
 23
2296.294604688718
 33
0.0
 14
-41.38710286168315
 24
2297.794604688718
 34
0.0
 50
0.0000000000001132
100
AcDbRotatedDimension
1001
ACAD_DSTYLE_DIMINSPECT
1070
   396
1000
100%
1070
   395
1000

1070
   394
1070
    33
1070
   393
1070
     0
1001
ACAD
1000
DSTYLE
1002
{
1070
   271
1070
     6
1070
   279
1070
     2
1002
}
  0
DIMENSION
  5
D49A
102
{ACAD_XDICTIONARY
360
D4A7
102
}
102
{ACAD_REACTORS
330
D4A8
102
}
330
18
100
AcDbEntity
  8
AM_5 寸法線
100
AcDbDimension
  2
*D22
 10
48.61292765962073
 20
2230.407637048175
 30
0.0
 11
3.612912398968783
 21
2257.907637048174
 31
0.0
 70
    32
 71
     5
 42
90.0000305213039
 73
     0
 74
     0
 75
     0
  3
ISO-25
100
AcDbAlignedDimension
 13
-41.38710286168315
 23
2297.794604688718
 33
0.0
 14
48.61292765962073
 24
2298.789080164092
 34
0.0
 50
0.0000000000001132
100
AcDbRotatedDimension
1001
ACAD_DSTYLE_DIMINSPECT
1070
   396
1000
100%
1070
   395
1000

1070
   394
1070
    33
1070
   393
1070
     0
1001
ACAD
1000
DSTYLE
1002
{
1070
   271
1070
     0
1070
   279
1070
     2
1002
}
  0
INSERT
  5
D65D
330
18
100
AcDbEntity
  8
AM_4 細線
100
AcDbBlockReference
  2
GCｻｲﾄﾞｶﾊﾞｰ　CEM630
 10
276.6128971383168
 20
2342.794604688718
 30
0.0
  0
VIEWPORT
  5
2BA
330
15
100
AcDbEntity
 67
     1
  8
0
100
AcDbViewport
 10
5.615416399137242
 20
3.902083231708196
 30
0.0
 40
14.90560945389522
 41
8.746133096049151
 68
     1
 69
     1
 12
5.615416399137242
 22
3.902083231708196
 13
0.0
 23
0.0
 14
10.0
 24
10.0
 15
10.0
 25
10.0
 16
0.0
 26
0.0
 36
1.0
 17
0.0
 27
0.0
 37
0.0
 42
50.0
 43
0.0
 44
0.0
 45
8.746133096049151
 50
0.0
 51
0.0
 72
   100
 90
    32800
  1

281
     0
 71
     1
 74
     0
110
0.0
120
0.0
130
0.0
111
1.0
121
0.0
131
0.0
112
0.0
122
1.0
132
0.0
 79
     0
146
0.0
170
     0
 61
     5
348
CDE3
292
     1
282
     1
141
0.0
142
0.0
 63
   250
421
  3355443
1001
GENIUS_GENODEF_13
1002
{
1000
HIER
1070
     0
1002
}
1002
{
1000
MANEDIT
1070
     0
1002
}
1002
{
1000
NOSEL
1070
     0
1002
}
1002
{
1000
BEHIND
1070
     0
1002
}
1002
{
1000
OTHER
1070
     0
1002
}
1002
{
1000
REACTOR
1002
}
1001
GENIUS_GENOBJ-N-SDF_13
1002
{
1000
OWNER
1000
GEN
1002
}
1001
GENIUS_GENSCREG_15
1000
PF
1040
1.0
1000
DF
1040
1.0
1000
MIN
1011
-1.837388327810367
1021
-0.4709833163163797
1031
0.0
1000
MAX
1011
13.06822112608485
1021
8.275149779732771
1031
0.0
1000
FLAGS
1070
     2
  0
VIEWPORT
  5
2BC
330
15
100
AcDbEntity
 67
     1
  8
図面枠(太線)
100
AcDbViewport
 10
5.615416417910358
 20
3.902083250481312
 30
0.0
 40
8.984666268656575
 41
6.243333200770099
 68
     2
 69
     2
 12
425.4930627244785
 22
297.0000041492955
 13
0.0
 23
0.0
 14
10.0
 24
10.0
 15
10.0
 25
10.0
 16
0.0
 26
0.0
 36
1.0
 17
0.0
 27
0.0
 37
0.0
 42
50.0
 43
0.0
 44
0.0
 45
603.2515653422467
 50
0.0
 51
0.0
 72
   100
 90
    32768
  1

281
     0
 71
     1
 74
     0
110
0.0
120
0.0
130
0.0
111
1.0
121
0.0
131
0.0
112
0.0
122
1.0
132
0.0
 79
     0
146
0.0
170
     0
 61
     5
348
CDE3
292
     1
282
     1
141
0.0
142
0.0
 63
   250
421
  3355443
1001
GENIUS_GENOBJ-N-SDF_13
1002
{
1000
OWNER
1000
GEN
1002
}
1001
GENIUS_GENODEF_13
1002
{
1000
HIER
1070
     0
1002
}
1002
{
1000
MANEDIT
1070
     0
1002
}
1002
{
1000
NOSEL
1070
     0
1002
}
1002
{
1000
BEHIND
1070
     0
1002
}
1002
{
1000
OTHER
1070
     0
1002
}
1002
{
1000
REACTOR
1002
}
1001
GENIUS_GENSCREG_15
1000
PF
1040
0.0
1000
DF
1040
0.0
1000
MIN
1011
1.12308328358207
1021
0.7804166500962629
1031
0.0
1000
MAX
1011
10.10774955223864
1021
7.023749850866361
1031
0.0
1000
FLAGS
1070
     2
  0
ENDSEC
  0
SECTION
  2
OBJECTS
  0
DICTIONARY
  5
C
330
0
100
AcDbDictionary
281
     1
  3
ACAD_COLOR
350
C241
  3
ACAD_GROUP
350
D
  3
ACAD_LAYOUT
350
28C
  3
ACAD_MATERIAL
350
C240
  3
ACAD_MLEADERSTYLE
350
CE10
  3
ACAD_MLINESTYLE
350
E
  3
ACAD_PLOTSETTINGS
350
28D
  3
ACAD_PLOTSTYLENAME
350
28A
  3
ACAD_SCALELIST
350
CDEE
  3
ACAD_TABLESTYLE
350
C242
  3
ACAD_VISUALSTYLE
350
CDDD
  3
AcadDim
350
BBE3
  3
ACDB_RECOMPOSE_DATA
350
CEDF
  3
AcDbVariableDictionary
350
29E
  3
AcmDictionary
350
CE72
  3
AMG
350
CE19
  3
AMGSNAPSETTINGS
350
CEB6
  0
DICTIONARY
  5
C003
330
2
100
AcDbDictionary
280
     1
281
     1
  3
ACAD_LAYERFILTERS
360
C004
  3
ACAD_LAYERSTATES
360
CFBD
  3
AMLAYER_GROUPCOLORS
360
D21E
  0
DICTIONARY
  5
CEBE
330
F
100
AcDbDictionary
280
     1
281
     1
  3
ADSK_XREC_LAYER_RECONCILED
360
CEBF
  0
DICTIONARY
  5
CEC0
330
2B0
100
AcDbDictionary
280
     1
281
     1
  3
ADSK_XREC_LAYER_RECONCILED
360
CEC1
  0
DICTIONARY
  5
CED2
330
AD7
100
AcDbDictionary
280
     1
281
     1
  3
ADSK_XREC_LAYER_RECONCILED
360
CED3
  0
DICTIONARY
  5
CED4
330
AD8
100
AcDbDictionary
280
     1
281
     1
  3
ADSK_XREC_LAYER_RECONCILED
360
CED5
  0
DICTIONARY
  5
CFA5
330
CFA4
100
AcDbDictionary
280
     1
281
     1
  0
DICTIONARY
  5
CB39
330
18
100
AcDbDictionary
280
     1
281
     1
  3
ACAD_SORTENTS
360
CB3A
  0
DICTIONARY
  5
D69F
330
D647
100
AcDbDictionary
280
     1
281
     1
  3
ACAD_SORTENTS
360
D6A0
  0
DICTIONARY
  5
D3C1
330
D3B4
100
AcDbDictionary
280
     1
281
     1
  3
ACAD_DIMASSOC
360
D3C2
  0
DICTIONARY
  5
D47D
330
D470
100
AcDbDictionary
280
     1
281
     1
  3
ACAD_DIMASSOC
360
D47E
  0
DICTIONARY
  5
D4A7
330
D49A
100
AcDbDictionary
280
     1
281
     1
  3
ACAD_DIMASSOC
360
D4A8
  0
DICTIONARY
  5
C241
102
{ACAD_REACTORS
330
C
102
}
330
C
100
AcDbDictionary
281
     1
  0
DICTIONARY
  5
D
102
{ACAD_REACTORS
330
C
102
}
330
C
100
AcDbDictionary
281
     1
  3
*A1
350
7C2E
  3
*A10
350
CADF
  3
*A11
350
CAC0
  3
*A12
350
CAD4
  3
*A13
350
CAE3
  3
*A14
350
CAF4
  3
*A15
350
CAF5
  3
*A16
350
CABA
  3
*A17
350
CAD0
  3
*A18
350
CAE4
  3
*A19
350
CAC8
  3
*A2
350
CADA
  3
*A20
350
CABB
  3
*A21
350
CAF7
  3
*A22
350
CABD
  3
*A23
350
CAC2
  3
*A24
350
CAD6
  3
*A25
350
CAE8
  3
*A26
350
CACF
  3
*A27
350
CAC3
  3
*A28
350
CABF
  3
*A29
350
CAC5
  3
*A3
350
CAB8
  3
*A30
350
CADC
  3
*A31
350
CAEC
  3
*A32
350
CAD5
  3
*A33
350
CACA
  3
*A34
350
CAC7
  3
*A35
350
CACC
  3
*A36
350
CAE1
  3
*A37
350
CAF0
  3
*A38
350
CADB
  3
*A39
350
CAD1
  3
*A4
350
CACE
  3
*A40
350
CAD3
  3
*A41
350
CAE6
  3
*A42
350
CAF3
  3
*A43
350
CAE0
  3
*A44
350
CAD7
  3
*A45
350
CAD9
  3
*A46
350
CAEA
  3
*A47
350
CAF6
  3
*A48
350
CAE5
  3
*A49
350
CADD
  3
*A5
350
CADE
  3
*A50
350
CAEE
  3
*A51
350
CABE
  3
*A52
350
CAE9
  3
*A53
350
CAE2
  3
*A54
350
CABC
  3
*A55
350
CAC6
  3
*A56
350
CAED
  3
*A57
350
CAE7
  3
*A58
350
CAC4
  3
*A59
350
CACD
  3
*A6
350
CAF1
  3
*A60
350
CAEB
  3
*A61
350
CACB
  3
*A62
350
CAB9
  3
*A63
350
CAEF
  3
*A64
350
CAD2
  3
*A65
350
CAC1
  3
*A7
350
CAF2
  3
*A8
350
CAD8
  3
*A9
350
CAC9
  0
DICTIONARY
  5
28C
102
{ACAD_REACTORS
330
C
102
}
330
C
100
AcDbDictionary
281
     1
  3
Model
350
28E
  3
ﾚｲｱｳﾄ1
350
28F
  0
DICTIONARY
  5
C240
102
{ACAD_REACTORS
330
C
102
}
330
C
100
AcDbDictionary
281
     1
  3
ByBlock
350
CDCD
  3
ByLayer
350
CDC5
  3
Global
350
CDD5
  0
DICTIONARY
  5
CE10
102
{ACAD_REACTORS
330
C
102
}
330
C
100
AcDbDictionary
281
     1
  3
Standard
350
CE11
  0
DICTIONARY
  5
E
102
{ACAD_REACTORS
330
C
102
}
330
C
100
AcDbDictionary
281
     1
  3
STANDARD
350
1B
  0
DICTIONARY
  5
28D
102
{ACAD_REACTORS
330
C
102
}
330
C
100
AcDbDictionary
281
     1
  0
ACDBDICTIONARYWDFLT
  5
28A
102
{ACAD_REACTORS
330
C
102
}
330
C
100
AcDbDictionary
281
     1
  3
Normal
350
28B
100
AcDbDictionaryWithDefault
340
28B
  0
DICTIONARY
  5
CDEE
102
{ACAD_REACTORS
330
C
102
}
330
C
100
AcDbDictionary
281
     1
  3
*A1
350
CFBA
  3
*A2
350
CFBB
  3
*A3
350
CFBC
  3
A0
350
CDEF
  3
A1
350
CDF0
  3
A2
350
CDF1
  3
A3
350
CDF2
  3
A4
350
CDF3
  3
A5
350
CDF4
  3
A6
350
CDF5
  3
A7
350
CDF6
  3
A8
350
CDF7
  3
A9
350
CDF8
  3
B0
350
CDF9
  3
B1
350
CDFA
  3
B2
350
CDFB
  3
B3
350
CDFC
  3
B4
350
CDFD
  3
B5
350
CDFE
  3
B6
350
CDFF
  3
B7
350
CE00
  3
B8
350
CE01
  3
B9
350
CE02
  3
C0
350
CE03
  3
C1
350
CE04
  3
C2
350
CE05
  3
C3
350
CE06
  3
C4
350
CE07
  3
C5
350
CE08
  3
C6
350
CE09
  3
C7
350
CE0A
  3
C8
350
CE0B
  3
C9
350
CE0C
  3
D0
350
CE0D
  3
D1
350
CE0E
  3
D2
350
CE0F
  0
DICTIONARY
  5
C242
102
{ACAD_REACTORS
330
C
102
}
330
C
100
AcDbDictionary
281
     1
  3
Standard
350
C243
  0
DICTIONARY
  5
CDDD
102
{ACAD_REACTORS
330
C
102
}
330
C
100
AcDbDictionary
281
     1
  3
2dWireframe
350
CDE3
  3
3D Hidden
350
CDE5
  3
3dWireframe
350
CDE4
  3
Basic
350
CDE2
  3
Brighten
350
CDE9
  3
ColorChange
350
CDED
  3
Conceptual
350
CDE6
  3
Dim
350
CDE8
  3
Facepattern
350
CDEC
  3
Flat
350
CDDE
  3
FlatWithEdges
350
CDDF
  3
Gouraud
350
CDE0
  3
GouraudWithEdges
350
CDE1
  3
Linepattern
350
CDEB
  3
Realistic
350
CDE7
  3
Thicken
350
CDEA
  0
XRECORD
  5
BBE3
102
{ACAD_REACTORS
330
C
102
}
330
C
100
AcDbXrecord
280
     1
 90
   990106
  3

 60
     0
 61
     0
 62
     1
 63
     3
 64
     0
 65
     0
 66
     0
 67
     3
 68
     1
 69
     0
 70
     0
 71
     0
 72
     0
 40
0.0
170
     0
  0
XRECORD
  5
CEDF
102
{ACAD_REACTORS
330
C
102
}
330
C
100
AcDbXrecord
280
     1
 90
        1
330
C243
  0
DICTIONARY
  5
29E
102
{ACAD_REACTORS
330
C
102
}
330
C
100
AcDbDictionary
281
     1
  3
CANNOSCALE
350
CEE2
  3
CMLEADERSTYLE
350
CEE0
  3
CTABLESTYLE
350
CD5C
  3
DIMASSOC
350
CD5D
  3
LIGHTINGUNITS
350
CEE3
  3
MSLTSCALE
350
CEE1
  3
PROJECTNAME
350
CD5E
  3
SORTENTS
350
29F
  0
DICTIONARY
  5
CE72
102
{ACAD_REACTORS
330
C
102
}
330
C
100
AcDbDictionary
281
     1
  3
AcmStdDictionary
350
CE7D
  3
AMDTSECTSYM_ARROWCOLOR
350
CE9E
  0
DICTIONARY
  5
CE19
102
{ACAD_REACTORS
330
C
102
}
330
C
100
AcDbDictionary
281
     1
  0
DICTIONARY
  5
CEB6
102
{ACAD_REACTORS
330
C
102
}
330
C
100
AcDbDictionary
281
     1
  0
DICTIONARY
  5
C004
102
{ACAD_REACTORS
330
C003
102
}
330
C003
100
AcDbDictionary
280
     1
281
     1
  3
50
360
C005
  0
DICTIONARY
  5
CFBD
102
{ACAD_REACTORS
330
C003
102
}
330
C003
100
AcDbDictionary
281
     1
  0
DICTIONARY
  5
D21E
102
{ACAD_REACTORS
330
C003
102
}
330
C003
100
AcDbDictionary
280
     1
281
     1
  0
XRECORD
  5
CEBF
102
{ACAD_REACTORS
330
CEBE
102
}
330
CEBE
100
AcDbXrecord
280
     1
290
     1
  0
XRECORD
  5
CEC1
102
{ACAD_REACTORS
330
CEC0
102
}
330
CEC0
100
AcDbXrecord
280
     1
290
     1
  0
XRECORD
  5
CED3
102
{ACAD_REACTORS
330
CED2
102
}
330
CED2
100
AcDbXrecord
280
     1
290
     1
  0
XRECORD
  5
CED5
102
{ACAD_REACTORS
330
CED4
102
}
330
CED4
100
AcDbXrecord
280
     1
290
     1
  0
SORTENTSTABLE
  5
CB3A
102
{ACAD_REACTORS
330
CB39
102
}
330
CB39
100
AcDbSortentsTable
330
18
331
B00D
  5
B00D
331
B044
  5
B044
331
B015
  5
B015
331
B04C
  5
B04C
331
B01D
  5
B01D
331
B054
  5
B054
331
B05C
  5
B05C
331
B025
  5
B025
331
AF7D
  5
AF7D
331
AFD4
  5
AFD4
331
AF46
  5
AF46
331
AF4E
  5
AF4E
331
AF95
  5
AF95
331
AF56
  5
AF56
331
AF9D
  5
AF9D
331
AFEC
  5
AFEC
331
AF5E
  5
AF5E
331
AFA5
  5
AFA5
331
AF8C
  5
AF8C
331
AF84
  5
AF84
331
D3B4
  5
D403
331
B064
  5
B064
331
B02D
  5
B02D
331
B06C
  5
B06C
331
B03D
  5
B03D
331
AFAD
  5
AFAD
331
AFF4
  5
AFF4
331
AF66
  5
AF66
331
AFBD
  5
AFBD
331
AFFC
  5
AFFC
331
B004
  5
B004
331
AFC5
  5
AFC5
331
AFCD
  5
AFCD
331
AECD
  5
AECD
331
B00E
  5
B00E
331
B045
  5
B045
331
B04D
  5
B04D
331
B016
  5
B016
331
B01E
  5
B01E
331
B055
  5
B055
331
B026
  5
B026
331
B05D
  5
B05D
331
AFD5
  5
AFD5
331
AF47
  5
AF47
331
AF7E
  5
AF7E
331
AF96
  5
AF96
331
AF4F
  5
AF4F
331
AF9E
  5
AF9E
331
AF57
  5
AF57
331
AF5F
  5
AF5F
331
AFED
  5
AFED
331
CB1C
  5
CB1C
331
B065
  5
B065
331
B06D
  5
B06D
331
CB24
  5
CB24
331
B02E
  5
B02E
331
D404
  5
D405
331
B03E
  5
B03E
331
AFF5
  5
AFF5
331
AF67
  5
AF67
331
AFFD
  5
AFFD
331
AF6F
  5
AF6F
331
AFBE
  5
AFBE
331
AFC6
  5
AFC6
331
B005
  5
B005
331
AF77
  5
AF77
331
AFCE
  5
AFCE
331
AF3E
  5
AF3E
331
B00F
  5
B00F
331
B046
  5
B046
331
BCFD
  5
BCFD
331
BD0D
  5
BD0D
331
B017
  5
B017
331
B04E
  5
B04E
331
B01F
  5
B01F
331
B056
  5
B056
331
B05E
  5
B05E
331
B027
  5
B027
331
AF7F
  5
AF7F
331
AF48
  5
AF48
331
AF50
  5
AF50
331
AF97
  5
AF97
331
AF58
  5
AF58
331
AF9F
  5
AF9F
331
AFEE
  5
AFEE
331
B066
  5
B066
331
B02F
  5
B02F
331
B06E
  5
B06E
331
D405
  5
D406
331
B037
  5
B037
331
B03F
  5
B03F
331
AF60
  5
AF60
331
AFF6
  5
AFF6
331
AF68
  5
AF68
331
AF70
  5
AF70
331
AFBF
  5
AFBF
331
AFFE
  5
AFFE
331
B006
  5
B006
331
AFC7
  5
AFC7
331
AFCF
  5
AFCF
331
B008
  5
B008
331
B010
  5
B010
331
B047
  5
B047
331
B04F
  5
B04F
331
B018
  5
B018
331
B020
  5
B020
331
B057
  5
B057
331
B05F
  5
B05F
331
AF78
  5
AF78
331
AF49
  5
AF49
331
AFDF
  5
AFDF
331
AF51
  5
AF51
331
AFA0
  5
AFA0
331
AFE7
  5
AFE7
331
AFEF
  5
AFEF
331
B067
  5
B067
331
B06F
  5
B06F
331
B030
  5
B030
331
AF61
  5
AF61
331
AFF7
  5
AFF7
331
AF69
  5
AF69
331
AFC0
  5
AFC0
331
AF71
  5
AF71
331
AFC8
  5
AFC8
331
B007
  5
B007
331
ADB0
  5
ADB0
331
AEC8
  5
AEC8
331
B040
  5
B040
331
B011
  5
B011
331
B048
  5
B048
331
B019
  5
B019
331
B050
  5
B050
331
B021
  5
B021
331
B058
  5
B058
331
AF79
  5
AF79
331
AFD0
  5
AFD0
331
AF42
  5
AF42
331
AF4A
  5
AF4A
331
7E43
  5
7E43
331
AFD8
  5
AFD8
331
AF52
  5
AF52
331
8363
  5
8363
331
AFE8
  5
AFE8
331
AF5A
  5
AF5A
331
AFA1
  5
AFA1
331
B060
  5
B060
331
B029
  5
B029
331
B068
  5
B068
331
B031
  5
B031
331
B070
  5
B070
331
AFF0
  5
AFF0
331
AF62
  5
AF62
331
AFF8
  5
AFF8
331
AEC3
  5
AEC3
331
AF6A
  5
AF6A
331
AF72
  5
AF72
331
AFC1
  5
AFC1
331
CFE3
  5
CFE3
331
AFC9
  5
AFC9
331
ADB1
  5
ADB1
331
AEB9
  5
AEB9
331
AF39
  5
AF39
331
AEC9
  5
AEC9
331
B00A
  5
B00A
331
B041
  5
B041
331
B049
  5
B049
331
B051
  5
B051
331
B01A
  5
B01A
331
B022
  5
B022
331
B059
  5
B059
331
AFD1
  5
AFD1
331
AF4B
  5
AF4B
331
AF9A
  5
AF9A
331
AF53
  5
AF53
331
AF5B
  5
AF5B
331
AFA2
  5
AFA2
331
B061
  5
B061
331
B02A
  5
B02A
331
B069
  5
B069
331
B071
  5
B071
331
B032
  5
B032
331
B03A
  5
B03A
331
AF63
  5
AF63
331
ADAC
  5
ADAC
331
AFF1
  5
AFF1
331
AFF9
  5
AFF9
331
AF6B
  5
AF6B
331
AFC2
  5
AFC2
331
B001
  5
B001
331
AF73
  5
AF73
331
AFCA
  5
AFCA
331
ADB2
  5
ADB2
331
AF3A
  5
AF3A
331
B04A
  5
B04A
331
BE89
  5
BE89
331
B01B
  5
B01B
331
B052
  5
B052
331
B05A
  5
B05A
331
B023
  5
B023
331
AF7B
  5
AF7B
331
AFD2
  5
AFD2
331
AF4C
  5
AF4C
331
AF93
  5
AF93
331
AF54
  5
AF54
331
AF9B
  5
AF9B
331
AFEA
  5
AFEA
331
8EAD
  5
8EAD
331
AF5C
  5
AF5C
331
AFA3
  5
AFA3
331
BB8A
  5
BB8A
331
B062
  5
B062
331
B02B
  5
B02B
331
B06A
  5
B06A
331
B033
  5
B033
331
B072
  5
B072
331
AFAB
  5
AFAB
331
AFF2
  5
AFF2
331
ADAD
  5
ADAD
331
AF64
  5
AF64
331
AF6C
  5
AF6C
331
AFFA
  5
AFFA
331
AFC3
  5
AFC3
331
B002
  5
B002
331
AFCB
  5
AFCB
331
AEBB
  5
AEBB
331
AF3B
  5
AF3B
331
B00C
  5
B00C
331
B043
  5
B043
331
B04B
  5
B04B
331
B014
  5
B014
331
B053
  5
B053
331
B01C
  5
B01C
331
B024
  5
B024
331
B05B
  5
B05B
331
BFFA
  5
BFFA
331
AFD3
  5
AFD3
331
6336
  5
6336
331
AF45
  5
AF45
331
AF7C
  5
AF7C
331
AF4D
  5
AF4D
331
AF94
  5
AF94
331
AF9C
  5
AF9C
331
AF55
  5
AF55
331
AF5D
  5
AF5D
331
AFA4
  5
AFA4
331
AF83
  5
AF83
331
B063
  5
B063
331
B02C
  5
B02C
331
B073
  5
B073
331
B03C
  5
B03C
331
AFF3
  5
AFF3
331
AF65
  5
AF65
331
AFAC
  5
AFAC
331
AFFB
  5
AFFB
331
AF6D
  5
AF6D
331
AFC4
  5
AFC4
331
B003
  5
B003
331
AFCC
  5
AFCC
331
AF3C
  5
AF3C
331
AECC
  5
AECC
  0
SORTENTSTABLE
  5
D6A0
102
{ACAD_REACTORS
330
D69F
102
}
330
D69F
100
AcDbSortentsTable
330
D647
  0
DIMASSOC
  5
D3C2
102
{ACAD_REACTORS
330
D3C1
102
}
330
D3C1
100
AcDbDimAssoc
330
D3B4
 90
        1
 70
     0
 71
     0
  1
AcDbOsnapPointRef
 72
     1
331
AF42
 73
     0
 91
        0
 40
0.0
 10
0.0
 20
0.0
 30
2.000000000000000E+50
 75
     0
  0
DIMASSOC
  5
D47E
102
{ACAD_REACTORS
330
D47D
102
}
330
D47D
100
AcDbDimAssoc
330
D470
 90
        3
 70
     0
 71
     0
  1
AcDbOsnapPointRef
 72
    13
331
AF3E
 73
     0
 91
        0
 40
0.0
 10
0.0
 20
0.0
 30
2.000000000000000E+50
 75
     0
  1
AcDbOsnapPointRef
 72
     1
331
B022
 73
     0
 91
        0
 40
0.0
 10
0.0
 20
0.0
 30
2.000000000000000E+50
 75
     0
  0
DIMASSOC
  5
D4A8
102
{ACAD_REACTORS
330
D4A7
102
}
330
D4A7
100
AcDbDimAssoc
330
D49A
 90
        3
 70
     0
 71
     0
  1
AcDbOsnapPointRef
 72
     1
331
B022
 73
     0
 91
        0
 40
0.0
 10
0.0
 20
0.0
 30
2.000000000000000E+50
 75
     0
  1
AcDbOsnapPointRef
 72
     8
331
B04D
 73
     0
 91
        0
 40
3.152641927668715
 10
0.0
 20
0.0
 30
0.0
 75
     1
  1
AcDbOsnapPointRef
 72
     1
331
B022
 73
     0
 91
        0
 40
0.0
 10
0.0
 20
0.0
 30
2.000000000000000E+50
 75
     0
  0
GROUP
  5
7C2E
102
{ACAD_REACTORS
330
D
102
}
330
D
100
AcDbGroup
300

 70
     1
 71
     1
  0
GROUP
  5
CADF
102
{ACAD_REACTORS
330
D
102
}
330
D
100
AcDbGroup
300

 70
     1
 71
     1
  0
GROUP
  5
CAC0
102
{ACAD_REACTORS
330
D
102
}
330
D
100
AcDbGroup
300

 70
     1
 71
     1
  0
GROUP
  5
CAD4
102
{ACAD_REACTORS
330
D
102
}
330
D
100
AcDbGroup
300

 70
     1
 71
     1
  0
GROUP
  5
CAE3
102
{ACAD_REACTORS
330
D
102
}
330
D
100
AcDbGroup
300

 70
     1
 71
     1
  0
GROUP
  5
CAF4
102
{ACAD_REACTORS
330
D
102
}
330
D
100
AcDbGroup
300

 70
     1
 71
     1
  0
GROUP
  5
CAF5
102
{ACAD_REACTORS
330
D
102
}
330
D
100
AcDbGroup
300

 70
     1
 71
     1
  0
GROUP
  5
CABA
102
{ACAD_REACTORS
330
D
102
}
330
D
100
AcDbGroup
300

 70
     1
 71
     1
  0
GROUP
  5
CAD0
102
{ACAD_REACTORS
330
D
102
}
330
D
100
AcDbGroup
300

 70
     1
 71
     1
  0
GROUP
  5
CAE4
102
{ACAD_REACTORS
330
D
102
}
330
D
100
AcDbGroup
300

 70
     1
 71
     1
  0
GROUP
  5
CAC8
102
{ACAD_REACTORS
330
D
102
}
330
D
100
AcDbGroup
300

 70
     1
 71
     1
  0
GROUP
  5
CADA
102
{ACAD_REACTORS
330
D
102
}
330
D
100
AcDbGroup
300

 70
     1
 71
     1
  0
GROUP
  5
CABB
102
{ACAD_REACTORS
330
D
102
}
330
D
100
AcDbGroup
300

 70
     1
 71
     1
  0
GROUP
  5
CAF7
102
{ACAD_REACTORS
330
D
102
}
330
D
100
AcDbGroup
300

 70
     1
 71
     1
  0
GROUP
  5
CABD
102
{ACAD_REACTORS
330
D
102
}
330
D
100
AcDbGroup
300

 70
     1
 71
     1
  0
GROUP
  5
CAC2
102
{ACAD_REACTORS
330
D
102
}
330
D
100
AcDbGroup
300

 70
     1
 71
     1
  0
GROUP
  5
CAD6
102
{ACAD_REACTORS
330
D
102
}
330
D
100
AcDbGroup
300

 70
     1
 71
     1
  0
GROUP
  5
CAE8
102
{ACAD_REACTORS
330
D
102
}
330
D
100
AcDbGroup
300

 70
     1
 71
     1
  0
GROUP
  5
CACF
102
{ACAD_REACTORS
330
D
102
}
330
D
100
AcDbGroup
300

 70
     1
 71
     1
  0
GROUP
  5
CAC3
102
{ACAD_REACTORS
330
D
102
}
330
D
100
AcDbGroup
300

 70
     1
 71
     1
  0
GROUP
  5
CABF
102
{ACAD_REACTORS
330
D
102
}
330
D
100
AcDbGroup
300

 70
     1
 71
     1
  0
GROUP
  5
CAC5
102
{ACAD_REACTORS
330
D
102
}
330
D
100
AcDbGroup
300

 70
     1
 71
     1
  0
GROUP
  5
CAB8
102
{ACAD_REACTORS
330
D
102
}
330
D
100
AcDbGroup
300

 70
     1
 71
     1
  0
GROUP
  5
CADC
102
{ACAD_REACTORS
330
D
102
}
330
D
100
AcDbGroup
300

 70
     1
 71
     1
  0
GROUP
  5
CAEC
102
{ACAD_REACTORS
330
D
102
}
330
D
100
AcDbGroup
300

 70
     1
 71
     1
  0
GROUP
  5
CAD5
102
{ACAD_REACTORS
330
D
102
}
330
D
100
AcDbGroup
300

 70
     1
 71
     1
  0
GROUP
  5
CACA
102
{ACAD_REACTORS
330
D
102
}
330
D
100
AcDbGroup
300

 70
     1
 71
     1
  0
GROUP
  5
CAC7
102
{ACAD_REACTORS
330
D
102
}
330
D
100
AcDbGroup
300

 70
     1
 71
     1
  0
GROUP
  5
CACC
102
{ACAD_REACTORS
330
D
102
}
330
D
100
AcDbGroup
300

 70
     1
 71
     1
  0
GROUP
  5
CAE1
102
{ACAD_REACTORS
330
D
102
}
330
D
100
AcDbGroup
300

 70
     1
 71
     1
  0
GROUP
  5
CAF0
102
{ACAD_REACTORS
330
D
102
}
330
D
100
AcDbGroup
300

 70
     1
 71
     1
  0
GROUP
  5
CADB
102
{ACAD_REACTORS
330
D
102
}
330
D
100
AcDbGroup
300

 70
     1
 71
     1
  0
GROUP
  5
CAD1
102
{ACAD_REACTORS
330
D
102
}
330
D
100
AcDbGroup
300

 70
     1
 71
     1
  0
GROUP
  5
CACE
102
{ACAD_REACTORS
330
D
102
}
330
D
100
AcDbGroup
300

 70
     1
 71
     1
  0
GROUP
  5
CAD3
102
{ACAD_REACTORS
330
D
102
}
330
D
100
AcDbGroup
300

 70
     1
 71
     1
  0
GROUP
  5
CAE6
102
{ACAD_REACTORS
330
D
102
}
330
D
100
AcDbGroup
300

 70
     1
 71
     1
  0
GROUP
  5
CAF3
102
{ACAD_REACTORS
330
D
102
}
330
D
100
AcDbGroup
300

 70
     1
 71
     1
  0
GROUP
  5
CAE0
102
{ACAD_REACTORS
330
D
102
}
330
D
100
AcDbGroup
300

 70
     1
 71
     1
  0
GROUP
  5
CAD7
102
{ACAD_REACTORS
330
D
102
}
330
D
100
AcDbGroup
300

 70
     1
 71
     1
  0
GROUP
  5
CAD9
102
{ACAD_REACTORS
330
D
102
}
330
D
100
AcDbGroup
300

 70
     1
 71
     1
  0
GROUP
  5
CAEA
102
{ACAD_REACTORS
330
D
102
}
330
D
100
AcDbGroup
300

 70
     1
 71
     1
  0
GROUP
  5
CAF6
102
{ACAD_REACTORS
330
D
102
}
330
D
100
AcDbGroup
300

 70
     1
 71
     1
  0
GROUP
  5
CAE5
102
{ACAD_REACTORS
330
D
102
}
330
D
100
AcDbGroup
300

 70
     1
 71
     1
  0
GROUP
  5
CADD
102
{ACAD_REACTORS
330
D
102
}
330
D
100
AcDbGroup
300

 70
     1
 71
     1
  0
GROUP
  5
CADE
102
{ACAD_REACTORS
330
D
102
}
330
D
100
AcDbGroup
300

 70
     1
 71
     1
  0
GROUP
  5
CAEE
102
{ACAD_REACTORS
330
D
102
}
330
D
100
AcDbGroup
300

 70
     1
 71
     1
  0
GROUP
  5
CABE
102
{ACAD_REACTORS
330
D
102
}
330
D
100
AcDbGroup
300

 70
     1
 71
     1
  0
GROUP
  5
CAE9
102
{ACAD_REACTORS
330
D
102
}
330
D
100
AcDbGroup
300

 70
     1
 71
     1
  0
GROUP
  5
CAE2
102
{ACAD_REACTORS
330
D
102
}
330
D
100
AcDbGroup
300

 70
     1
 71
     1
  0
GROUP
  5
CABC
102
{ACAD_REACTORS
330
D
102
}
330
D
100
AcDbGroup
300

 70
     1
 71
     1
  0
GROUP
  5
CAC6
102
{ACAD_REACTORS
330
D
102
}
330
D
100
AcDbGroup
300

 70
     1
 71
     1
  0
GROUP
  5
CAED
102
{ACAD_REACTORS
330
D
102
}
330
D
100
AcDbGroup
300

 70
     1
 71
     1
  0
GROUP
  5
CAE7
102
{ACAD_REACTORS
330
D
102
}
330
D
100
AcDbGroup
300

 70
     1
 71
     1
  0
GROUP
  5
CAC4
102
{ACAD_REACTORS
330
D
102
}
330
D
100
AcDbGroup
300

 70
     1
 71
     1
  0
GROUP
  5
CACD
102
{ACAD_REACTORS
330
D
102
}
330
D
100
AcDbGroup
300

 70
     1
 71
     1
  0
GROUP
  5
CAF1
102
{ACAD_REACTORS
330
D
102
}
330
D
100
AcDbGroup
300

 70
     1
 71
     1
  0
GROUP
  5
CAEB
102
{ACAD_REACTORS
330
D
102
}
330
D
100
AcDbGroup
300

 70
     1
 71
     1
  0
GROUP
  5
CACB
102
{ACAD_REACTORS
330
D
102
}
330
D
100
AcDbGroup
300

 70
     1
 71
     1
  0
GROUP
  5
CAB9
102
{ACAD_REACTORS
330
D
102
}
330
D
100
AcDbGroup
300

 70
     1
 71
     1
  0
GROUP
  5
CAEF
102
{ACAD_REACTORS
330
D
102
}
330
D
100
AcDbGroup
300

 70
     1
 71
     1
  0
GROUP
  5
CAD2
102
{ACAD_REACTORS
330
D
102
}
330
D
100
AcDbGroup
300

 70
     1
 71
     1
  0
GROUP
  5
CAC1
102
{ACAD_REACTORS
330
D
102
}
330
D
100
AcDbGroup
300

 70
     1
 71
     1
  0
GROUP
  5
CAF2
102
{ACAD_REACTORS
330
D
102
}
330
D
100
AcDbGroup
300

 70
     1
 71
     1
  0
GROUP
  5
CAD8
102
{ACAD_REACTORS
330
D
102
}
330
D
100
AcDbGroup
300

 70
     1
 71
     1
  0
GROUP
  5
CAC9
102
{ACAD_REACTORS
330
D
102
}
330
D
100
AcDbGroup
300

 70
     1
 71
     1
  0
LAYOUT
  5
28E
102
{ACAD_REACTORS
330
28C
102
}
330
28C
100
AcDbPlotSettings
  1

  2
KONICA MINOLTA 501 PCL
  4
A4
  6

 40
5.027082920074462
 41
5.027085781097412
 42
5.027069091796875
 43
5.027069091796875
 44
209.9733276367186
 45
296.9259948730469
 46
6.646806399628857
 47
0.0
 48
-2517.608488813301
 49
-302.9801866558801
140
-154.2024796111691
141
1509.573954990258
142
1.0
143
5.373865607296433
 70
 11956
 72
     1
 73
     1
 74
     1
  7
SEISA.ctb
 75
     0
147
0.1860857849966023
 76
     0
 77
     2
 78
   300
148
666.5609661123871
149
-1450.058946719203
100
AcDbLayout
  1
Model
 70
     1
 71
     0
 10
0.0
 20
0.0
 11
12.0
 21
9.0
 12
0.0
 22
0.0
 32
0.0
 14
0.0
 24
0.0
 34
0.0
 15
0.0
 25
0.0
 35
0.0
146
0.0
 13
0.0
 23
0.0
 33
0.0
 16
1.0
 26
0.0
 36
0.0
 17
0.0
 27
1.0
 37
0.0
 76
     0
330
18
331
CDC3
1001
ACAD_PSEXT
1000
KONICA MINOLTA 501 PCL
1000
KONICA MINOLTA 501/421/361PCL
1000
IP_192.168.20.231_(1)
1000

1070
     0
  0
LAYOUT
  5
28F
102
{ACAD_REACTORS
330
28C
102
}
330
28C
100
AcDbPlotSettings
  1

  2
EPSON LP-8300S
  4
A4
  6

 40
5.873749732971191
 41
5.873747825622557
 42
5.873748779296875
 43
5.873748779296875
 44
209.9733276367186
 45
297.0106506347656
 46
0.0
 47
0.0
 48
0.0
 49
0.0
140
0.0
141
0.0
142
1.0
143
1.0
 70
   688
 72
     0
 73
     1
 74
     5
  7
SEISA.ctb
 75
    16
147
1.0
 76
     0
 77
     2
 78
   300
148
0.0
149
0.0
100
AcDbLayout
  1
ﾚｲｱｳﾄ1
 70
     0
 71
     1
 10
-0.2312499519408218
 20
-0.2312499894870548
 11
11.4620827502153
 21
8.035416452903447
 12
0.0
 22
0.0
 32
0.0
 14
1.12308328358207
 24
0.7804166500962629
 34
0.0
 15
10.10774955223864
 25
7.023749850866361
 35
0.0
146
0.0
 13
0.0
 23
0.0
 33
0.0
 16
1.0
 26
0.0
 36
0.0
 17
0.0
 27
1.0
 37
0.0
 76
     0
330
15
331
2BA
  0
MATERIAL
  5
CDCD
102
{ACAD_XDICTIONARY
360
CDCE
102
}
102
{ACAD_REACTORS
330
C240
102
}
330
C240
100
AcDbMaterial
  1
ByBlock
 72
     0
 43
0.0008202099737533
 43
0.0
 43
0.0
 43
0.0
 43
0.0
 43
0.0008202099737533
 43
0.0
 43
0.0
 43
0.0
 43
0.0
 43
1.0
 43
0.0
 43
0.0
 43
0.0
 43
0.0
 43
1.0
 77
     0
 47
0.0008202099737533
 47
0.0
 47
0.0
 47
0.0
 47
0.0
 47
0.0008202099737533
 47
0.0
 47
0.0
 47
0.0
 47
0.0
 47
1.0
 47
0.0
 47
0.0
 47
0.0
 47
0.0
 47
1.0
171
     0
 49
0.0008202099737533
 49
0.0
 49
0.0
 49
0.0
 49
0.0
 49
0.0008202099737533
 49
0.0
 49
0.0
 49
0.0
 49
0.0
 49
1.0
 49
0.0
 49
0.0
 49
0.0
 49
0.0
 49
1.0
175
     0
142
0.0008202099737533
142
0.0
142
0.0
142
0.0
142
0.0
142
0.0008202099737533
142
0.0
142
0.0
142
0.0
142
0.0
142
1.0
142
0.0
142
0.0
142
0.0
142
0.0
142
1.0
179
     0
144
0.0008202099737533
144
0.0
144
0.0
144
0.0
144
0.0
144
0.0008202099737533
144
0.0
144
0.0
144
0.0
144
0.0
144
1.0
144
0.0
144
0.0
144
0.0
144
0.0
144
1.0
147
0.0008202099737533
147
0.0
147
0.0
147
0.0
147
0.0
147
0.0008202099737533
147
0.0
147
0.0
147
0.0
147
0.0
147
1.0
147
0.0
147
0.0
147
0.0
147
0.0
147
1.0
  0
MATERIAL
  5
CDC5
102
{ACAD_XDICTIONARY
360
CDC6
102
}
102
{ACAD_REACTORS
330
C240
102
}
330
C240
100
AcDbMaterial
  1
ByLayer
 72
     0
 43
0.0008202099737533
 43
0.0
 43
0.0
 43
0.0
 43
0.0
 43
0.0008202099737533
 43
0.0
 43
0.0
 43
0.0
 43
0.0
 43
1.0
 43
0.0
 43
0.0
 43
0.0
 43
0.0
 43
1.0
 77
     0
 47
0.0008202099737533
 47
0.0
 47
0.0
 47
0.0
 47
0.0
 47
0.0008202099737533
 47
0.0
 47
0.0
 47
0.0
 47
0.0
 47
1.0
 47
0.0
 47
0.0
 47
0.0
 47
0.0
 47
1.0
171
     0
 49
0.0008202099737533
 49
0.0
 49
0.0
 49
0.0
 49
0.0
 49
0.0008202099737533
 49
0.0
 49
0.0
 49
0.0
 49
0.0
 49
1.0
 49
0.0
 49
0.0
 49
0.0
 49
0.0
 49
1.0
175
     0
142
0.0008202099737533
142
0.0
142
0.0
142
0.0
142
0.0
142
0.0008202099737533
142
0.0
142
0.0
142
0.0
142
0.0
142
1.0
142
0.0
142
0.0
142
0.0
142
0.0
142
1.0
179
     0
144
0.0008202099737533
144
0.0
144
0.0
144
0.0
144
0.0
144
0.0008202099737533
144
0.0
144
0.0
144
0.0
144
0.0
144
1.0
144
0.0
144
0.0
144
0.0
144
0.0
144
1.0
147
0.0008202099737533
147
0.0
147
0.0
147
0.0
147
0.0
147
0.0008202099737533
147
0.0
147
0.0
147
0.0
147
0.0
147
1.0
147
0.0
147
0.0
147
0.0
147
0.0
147
1.0
  0
MATERIAL
  5
CDD5
102
{ACAD_XDICTIONARY
360
CDD6
102
}
102
{ACAD_REACTORS
330
C240
102
}
330
C240
100
AcDbMaterial
  1
Global
 72
     0
 43
0.0008202099737533
 43
0.0
 43
0.0
 43
0.0
 43
0.0
 43
0.0008202099737533
 43
0.0
 43
0.0
 43
0.0
 43
0.0
 43
1.0
 43
0.0
 43
0.0
 43
0.0
 43
0.0
 43
1.0
 77
     0
 47
0.0008202099737533
 47
0.0
 47
0.0
 47
0.0
 47
0.0
 47
0.0008202099737533
 47
0.0
 47
0.0
 47
0.0
 47
0.0
 47
1.0
 47
0.0
 47
0.0
 47
0.0
 47
0.0
 47
1.0
171
     0
 49
0.0008202099737533
 49
0.0
 49
0.0
 49
0.0
 49
0.0
 49
0.0008202099737533
 49
0.0
 49
0.0
 49
0.0
 49
0.0
 49
1.0
 49
0.0
 49
0.0
 49
0.0
 49
0.0
 49
1.0
175
     0
142
0.0008202099737533
142
0.0
142
0.0
142
0.0
142
0.0
142
0.0008202099737533
142
0.0
142
0.0
142
0.0
142
0.0
142
1.0
142
0.0
142
0.0
142
0.0
142
0.0
142
1.0
179
     0
144
0.0008202099737533
144
0.0
144
0.0
144
0.0
144
0.0
144
0.0008202099737533
144
0.0
144
0.0
144
0.0
144
0.0
144
1.0
144
0.0
144
0.0
144
0.0
144
0.0
144
1.0
147
0.0008202099737533
147
0.0
147
0.0
147
0.0
147
0.0
147
0.0008202099737533
147
0.0
147
0.0
147
0.0
147
0.0
147
1.0
147
0.0
147
0.0
147
0.0
147
0.0
147
1.0
  0
MLEADERSTYLE
  5
CE11
102
{ACAD_REACTORS
330
CE10
102
}
330
CE10
100
AcDbMLeaderStyle
170
     2
171
     1
172
     0
 90
        2
 40
0.0
 41
0.0
173
     1
 91
-1056964608
340
12
 92
       -2
290
     1
 42
0.09
291
     1
 43
0.36
  3
Standard
 44
0.18
300

342
10
174
     1
178
     6
175
     1
176
     0
 93
-1056964608
 45
0.18
292
     0
297
     0
 46
0.18
 94
-1056964608
 47
1.0
 49
1.0
140
1.0
293
     1
141
0.0
294
     1
177
     0
142
1.0
295
     0
296
     0
143
0.125
1001
ACAD_MLEADERVER
1070
     2
  0
MLINESTYLE
  5
1B
102
{ACAD_REACTORS
330
E
102
}
330
E
100
AcDbMlineStyle
  2
STANDARD
 70
     0
  3

 62
     0
 51
90.0
 52
90.0
 71
     2
 49
0.5
 62
   256
  6
BYLAYER
 49
-0.5
 62
   256
  6
BYLAYER
  0
ACDBPLACEHOLDER
  5
28B
102
{ACAD_REACTORS
330
28A
102
}
330
28A
  0
SCALE
  5
CFBA
102
{ACAD_REACTORS
330
CDEE
102
}
330
CDEE
100
AcDbScale
 70
     0
300
1:3
140
1.0
141
3.0
290
     0
  0
SCALE
  5
CFBB
102
{ACAD_REACTORS
330
CDEE
102
}
330
CDEE
100
AcDbScale
 70
     0
300
1:2.5
140
1.0
141
2.5
290
     0
  0
SCALE
  5
CFBC
102
{ACAD_REACTORS
330
CDEE
102
}
330
CDEE
100
AcDbScale
 70
     0
300
1:1.5
140
1.0
141
1.5
290
     0
  0
SCALE
  5
CDEF
102
{ACAD_REACTORS
330
CDEE
102
}
330
CDEE
100
AcDbScale
 70
     0
300
1:1
140
1.0
141
1.0
290
     1
  0
SCALE
  5
CDF0
102
{ACAD_REACTORS
330
CDEE
102
}
330
CDEE
100
AcDbScale
 70
     0
300
1:2
140
1.0
141
2.0
290
     0
  0
SCALE
  5
CDF1
102
{ACAD_REACTORS
330
CDEE
102
}
330
CDEE
100
AcDbScale
 70
     0
300
1:4
140
1.0
141
4.0
290
     0
  0
SCALE
  5
CDF2
102
{ACAD_REACTORS
330
CDEE
102
}
330
CDEE
100
AcDbScale
 70
     0
300
1:5
140
1.0
141
5.0
290
     0
  0
SCALE
  5
CDF3
102
{ACAD_REACTORS
330
CDEE
102
}
330
CDEE
100
AcDbScale
 70
     0
300
1:8
140
1.0
141
8.0
290
     0
  0
SCALE
  5
CDF4
102
{ACAD_REACTORS
330
CDEE
102
}
330
CDEE
100
AcDbScale
 70
     0
300
1:10
140
1.0
141
10.0
290
     0
  0
SCALE
  5
CDF5
102
{ACAD_REACTORS
330
CDEE
102
}
330
CDEE
100
AcDbScale
 70
     0
300
1:16
140
1.0
141
16.0
290
     0
  0
SCALE
  5
CDF6
102
{ACAD_REACTORS
330
CDEE
102
}
330
CDEE
100
AcDbScale
 70
     0
300
1:20
140
1.0
141
20.0
290
     0
  0
SCALE
  5
CDF7
102
{ACAD_REACTORS
330
CDEE
102
}
330
CDEE
100
AcDbScale
 70
     0
300
1:30
140
1.0
141
30.0
290
     0
  0
SCALE
  5
CDF8
102
{ACAD_REACTORS
330
CDEE
102
}
330
CDEE
100
AcDbScale
 70
     0
300
1:40
140
1.0
141
40.0
290
     0
  0
SCALE
  5
CDF9
102
{ACAD_REACTORS
330
CDEE
102
}
330
CDEE
100
AcDbScale
 70
     0
300
1:50
140
1.0
141
50.0
290
     0
  0
SCALE
  5
CDFA
102
{ACAD_REACTORS
330
CDEE
102
}
330
CDEE
100
AcDbScale
 70
     0
300
1:100
140
1.0
141
100.0
290
     0
  0
SCALE
  5
CDFB
102
{ACAD_REACTORS
330
CDEE
102
}
330
CDEE
100
AcDbScale
 70
     0
300
2:1
140
2.0
141
1.0
290
     0
  0
SCALE
  5
CDFC
102
{ACAD_REACTORS
330
CDEE
102
}
330
CDEE
100
AcDbScale
 70
     0
300
4:1
140
4.0
141
1.0
290
     0
  0
SCALE
  5
CDFD
102
{ACAD_REACTORS
330
CDEE
102
}
330
CDEE
100
AcDbScale
 70
     0
300
8:1
140
8.0
141
1.0
290
     0
  0
SCALE
  5
CDFE
102
{ACAD_REACTORS
330
CDEE
102
}
330
CDEE
100
AcDbScale
 70
     0
300
10:1
140
10.0
141
1.0
290
     0
  0
SCALE
  5
CDFF
102
{ACAD_REACTORS
330
CDEE
102
}
330
CDEE
100
AcDbScale
 70
     0
300
100:1
140
100.0
141
1.0
290
     0
  0
SCALE
  5
CE00
102
{ACAD_REACTORS
330
CDEE
102
}
330
CDEE
100
AcDbScale
 70
     0
300
1/128" = 1'-0"
140
0.0078125
141
12.0
290
     0
  0
SCALE
  5
CE01
102
{ACAD_REACTORS
330
CDEE
102
}
330
CDEE
100
AcDbScale
 70
     0
300
1/64" = 1'-0"
140
0.015625
141
12.0
290
     0
  0
SCALE
  5
CE02
102
{ACAD_REACTORS
330
CDEE
102
}
330
CDEE
100
AcDbScale
 70
     0
300
1/32" = 1'-0"
140
0.03125
141
12.0
290
     0
  0
SCALE
  5
CE03
102
{ACAD_REACTORS
330
CDEE
102
}
330
CDEE
100
AcDbScale
 70
     0
300
1/16" = 1'-0"
140
0.0625
141
12.0
290
     0
  0
SCALE
  5
CE04
102
{ACAD_REACTORS
330
CDEE
102
}
330
CDEE
100
AcDbScale
 70
     0
300
3/32" = 1'-0"
140
0.09375
141
12.0
290
     0
  0
SCALE
  5
CE05
102
{ACAD_REACTORS
330
CDEE
102
}
330
CDEE
100
AcDbScale
 70
     0
300
1/8" = 1'-0"
140
0.125
141
12.0
290
     0
  0
SCALE
  5
CE06
102
{ACAD_REACTORS
330
CDEE
102
}
330
CDEE
100
AcDbScale
 70
     0
300
3/16" = 1'-0"
140
0.1875
141
12.0
290
     0
  0
SCALE
  5
CE07
102
{ACAD_REACTORS
330
CDEE
102
}
330
CDEE
100
AcDbScale
 70
     0
300
1/4" = 1'-0"
140
0.25
141
12.0
290
     0
  0
SCALE
  5
CE08
102
{ACAD_REACTORS
330
CDEE
102
}
330
CDEE
100
AcDbScale
 70
     0
300
3/8" = 1'-0"
140
0.375
141
12.0
290
     0
  0
SCALE
  5
CE09
102
{ACAD_REACTORS
330
CDEE
102
}
330
CDEE
100
AcDbScale
 70
     0
300
1/2" = 1'-0"
140
0.5
141
12.0
290
     0
  0
SCALE
  5
CE0A
102
{ACAD_REACTORS
330
CDEE
102
}
330
CDEE
100
AcDbScale
 70
     0
300
3/4" = 1'-0"
140
0.75
141
12.0
290
     0
  0
SCALE
  5
CE0B
102
{ACAD_REACTORS
330
CDEE
102
}
330
CDEE
100
AcDbScale
 70
     0
300
1" = 1'-0"
140
1.0
141
12.0
290
     0
  0
SCALE
  5
CE0C
102
{ACAD_REACTORS
330
CDEE
102
}
330
CDEE
100
AcDbScale
 70
     0
300
1-1/2" = 1'-0"
140
1.5
141
12.0
290
     0
  0
SCALE
  5
CE0D
102
{ACAD_REACTORS
330
CDEE
102
}
330
CDEE
100
AcDbScale
 70
     0
300
3" = 1'-0"
140
3.0
141
12.0
290
     0
  0
SCALE
  5
CE0E
102
{ACAD_REACTORS
330
CDEE
102
}
330
CDEE
100
AcDbScale
 70
     0
300
6" = 1'-0"
140
6.0
141
12.0
290
     0
  0
SCALE
  5
CE0F
102
{ACAD_REACTORS
330
CDEE
102
}
330
CDEE
100
AcDbScale
 70
     0
300
1'-0" = 1'-0"
140
12.0
141
12.0
290
     0
  0
TABLESTYLE
  5
C243
102
{ACAD_XDICTIONARY
360
CEDD
102
}
102
{ACAD_REACTORS
330
C242
102
}
330
C242
100
AcDbTableStyle
  3
Standard
 70
     0
 71
     0
 40
0.06
 41
0.06
280
     0
281
     0
  7
STANDARD
140
0.18
170
     2
 62
     0
 63
     7
283
     0
 90
        4
 91
        0
  1

274
    -2
284
     1
 64
     0
275
    -2
285
     1
 65
     0
276
    -2
286
     1
 66
     0
277
    -2
287
     1
 67
     0
278
    -2
288
     1
 68
     0
279
    -2
289
     1
 69
     0
  7
STANDARD
140
0.25
170
     5
 62
     0
 63
     7
283
     0
 90
        4
 91
        0
  1

274
    -2
284
     1
 64
     0
275
    -2
285
     1
 65
     0
276
    -2
286
     1
 66
     0
277
    -2
287
     1
 67
     0
278
    -2
288
     1
 68
     0
279
    -2
289
     1
 69
     0
  7
STANDARD
140
0.18
170
     5
 62
     0
 63
     7
283
     0
 90
        4
 91
        0
  1

274
    -2
284
     1
 64
     0
275
    -2
285
     1
 65
     0
276
    -2
286
     1
 66
     0
277
    -2
287
     1
 67
     0
278
    -2
288
     1
 68
     0
279
    -2
289
     1
 69
     0
  0
VISUALSTYLE
  5
CDE3
102
{ACAD_REACTORS
330
CDDD
102
}
330
CDDD
100
AcDbVisualStyle
  2
2dWireframe
 70
     4
 71
     0
 72
     2
 73
     0
 90
        0
 40
-0.6
 41
-30.0
 62
     5
 63
     7
421
 16777215
 74
     1
 91
        4
 64
     7
 65
   257
 75
     1
175
     1
 42
1.0
 92
        0
 66
   257
 43
1.0
 76
     1
 77
     6
 78
     2
 67
     7
 79
     5
170
     0
171
     0
290
     0
174
     0
 93
        1
 44
0.0
173
     0
291
     0
 45
0.0
  0
VISUALSTYLE
  5
CDE5
102
{ACAD_REACTORS
330
CDDD
102
}
330
CDDD
100
AcDbVisualStyle
  2
3D Hidden
 70
     6
 71
     1
 72
     2
 73
     2
 90
        0
 40
-0.6
 41
-30.0
 62
     5
 63
     7
421
 16777215
 74
     2
 91
        2
 64
     7
 65
   257
 75
     2
175
     1
 42
40.0
 92
        0
 66
   257
 43
1.0
 76
     1
 77
     6
 78
     2
 67
     7
 79
     3
170
     0
171
     0
290
     0
174
     0
 93
        1
 44
0.0
173
     0
291
     0
 45
0.0
  0
VISUALSTYLE
  5
CDE4
102
{ACAD_REACTORS
330
CDDD
102
}
330
CDDD
100
AcDbVisualStyle
  2
3dWireframe
 70
     5
 71
     0
 72
     2
 73
     0
 90
        0
 40
-0.6
 41
-30.0
 62
     5
 63
     7
421
 16777215
 74
     1
 91
        4
 64
     7
 65
   257
 75
     1
175
     1
 42
1.0
 92
        0
 66
   257
 43
1.0
 76
     1
 77
     6
 78
     2
 67
     7
 79
     5
170
     0
171
     0
290
     0
174
     0
 93
        1
 44
0.0
173
     0
291
     0
 45
0.0
  0
VISUALSTYLE
  5
CDE2
102
{ACAD_REACTORS
330
CDDD
102
}
330
CDDD
100
AcDbVisualStyle
  2
Basic
 70
     7
 71
     1
 72
     0
 73
     1
 90
        0
 40
-0.6
 41
-30.0
 62
     5
 63
     7
421
 16777215
 74
     0
 91
        4
 64
     7
 65
   257
 75
     1
175
     1
 42
1.0
 92
        8
 66
     7
 43
1.0
 76
     1
 77
     6
 78
     2
 67
     7
 79
     5
170
     0
171
     0
290
     0
174
     0
 93
        1
 44
0.0
173
     0
291
     1
 45
0.0
  0
VISUALSTYLE
  5
CDE9
102
{ACAD_REACTORS
330
CDDD
102
}
330
CDDD
100
AcDbVisualStyle
  2
Brighten
 70
    12
 71
     2
 72
     2
 73
     0
 90
        0
 40
-0.6
 41
-30.0
 62
     5
 63
     7
421
 16777215
 74
     1
 91
        4
 64
     7
 65
   257
 75
     1
175
     1
 42
1.0
 92
        8
 66
     7
 43
1.0
 76
     1
 77
     6
 78
     2
 67
     7
 79
     5
170
     0
171
     0
290
     0
174
     0
 93
        1
 44
50.0
173
     0
291
     1
 45
0.0
  0
VISUALSTYLE
  5
CDED
102
{ACAD_REACTORS
330
CDDD
102
}
330
CDDD
100
AcDbVisualStyle
  2
ColorChange
 70
    16
 71
     2
 72
     2
 73
     3
 90
        0
 40
-0.6
 41
-30.0
 62
     5
 63
     8
421
  8421504
 74
     1
 91
        4
 64
     7
 65
   257
 75
     1
175
     1
 42
1.0
 92
        8
 66
     8
424
  8421504
 43
1.0
 76
     1
 77
     6
 78
     2
 67
     7
 79
     5
170
     0
171
     0
290
     0
174
     0
 93
        1
 44
0.0
173
     0
291
     1
 45
0.0
  0
VISUALSTYLE
  5
CDE6
102
{ACAD_REACTORS
330
CDDD
102
}
330
CDDD
100
AcDbVisualStyle
  2
Conceptual
 70
     9
 71
     3
 72
     2
 73
     0
 90
        0
 40
-0.6
 41
-30.0
 62
     5
 63
     7
421
 16777215
 74
     2
 91
        2
 64
     7
 65
   257
 75
     1
175
     1
 42
40.0
 92
        8
 66
     7
 43
1.0
 76
     1
 77
     6
 78
     2
 67
     7
 79
     3
170
     0
171
     0
290
     0
174
     0
 93
        1
 44
0.0
173
     0
291
     0
 45
0.0
  0
VISUALSTYLE
  5
CDE8
102
{ACAD_REACTORS
330
CDDD
102
}
330
CDDD
100
AcDbVisualStyle
  2
Dim
 70
    11
 71
     2
 72
     2
 73
     0
 90
        0
 40
-0.6
 41
-30.0
 62
     5
 63
     7
421
 16777215
 74
     1
 91
        4
 64
     7
 65
   257
 75
     1
175
     1
 42
1.0
 92
        8
 66
     7
 43
1.0
 76
     1
 77
     6
 78
     2
 67
     7
 79
     5
170
     0
171
     0
290
     0
174
     0
 93
        1
 44
-50.0
173
     0
291
     1
 45
0.0
  0
VISUALSTYLE
  5
CDEC
102
{ACAD_REACTORS
330
CDDD
102
}
330
CDDD
100
AcDbVisualStyle
  2
Facepattern
 70
    15
 71
     2
 72
     2
 73
     0
 90
        0
 40
-0.6
 41
-30.0
 62
     5
 63
     7
421
 16777215
 74
     1
 91
        4
 64
     7
 65
   257
 75
     1
175
     1
 42
1.0
 92
        8
 66
     7
 43
1.0
 76
     1
 77
     6
 78
     2
 67
     7
 79
     5
170
     0
171
     0
290
     0
174
     0
 93
        1
 44
0.0
173
     0
291
     1
 45
0.0
  0
VISUALSTYLE
  5
CDDE
102
{ACAD_REACTORS
330
CDDD
102
}
330
CDDD
100
AcDbVisualStyle
  2
Flat
 70
     0
 71
     2
 72
     1
 73
     1
 90
        2
 40
-0.6
 41
30.0
 62
     5
 63
     7
421
 16777215
 74
     0
 91
        4
 64
     7
 65
   257
 75
     1
175
     1
 42
1.0
 92
        8
 66
     7
 43
1.0
 76
     1
 77
     6
 78
     2
 67
     7
 79
     5
170
     0
171
     0
290
     0
174
     0
 93
       13
 44
0.0
173
     0
291
     1
 45
0.0
  0
VISUALSTYLE
  5
CDDF
102
{ACAD_REACTORS
330
CDDD
102
}
330
CDDD
100
AcDbVisualStyle
  2
FlatWithEdges
 70
     1
 71
     2
 72
     1
 73
     1
 90
        2
 40
-0.6
 41
30.0
 62
     5
 63
     7
421
 16777215
 74
     1
 91
        4
 64
     7
 65
   257
 75
     1
175
     1
 42
1.0
 92
        0
 66
   257
 43
1.0
 76
     1
 77
     6
 78
     2
 67
     7
 79
     5
170
     0
171
     0
290
     0
174
     0
 93
       13
 44
0.0
173
     0
291
     1
 45
0.0
  0
VISUALSTYLE
  5
CDE0
102
{ACAD_REACTORS
330
CDDD
102
}
330
CDDD
100
AcDbVisualStyle
  2
Gouraud
 70
     2
 71
     2
 72
     2
 73
     1
 90
        2
 40
-0.6
 41
30.0
 62
     5
 63
     7
421
 16777215
 74
     0
 91
        4
 64
     7
 65
   257
 75
     1
175
     1
 42
1.0
 92
        0
 66
     7
 43
1.0
 76
     1
 77
     6
 78
     2
 67
     7
 79
     5
170
     0
171
     0
290
     0
174
     0
 93
       13
 44
0.0
173
     0
291
     1
 45
0.0
  0
VISUALSTYLE
  5
CDE1
102
{ACAD_REACTORS
330
CDDD
102
}
330
CDDD
100
AcDbVisualStyle
  2
GouraudWithEdges
 70
     3
 71
     2
 72
     2
 73
     1
 90
        2
 40
-0.6
 41
30.0
 62
     5
 63
     7
421
 16777215
 74
     1
 91
        4
 64
     7
 65
   257
 75
     1
175
     1
 42
1.0
 92
        0
 66
   257
 43
1.0
 76
     1
 77
     6
 78
     2
 67
     7
 79
     5
170
     0
171
     0
290
     0
174
     0
 93
       13
 44
0.0
173
     0
291
     1
 45
0.0
  0
VISUALSTYLE
  5
CDEB
102
{ACAD_REACTORS
330
CDDD
102
}
330
CDDD
100
AcDbVisualStyle
  2
Linepattern
 70
    14
 71
     2
 72
     2
 73
     0
 90
        0
 40
-0.6
 41
-30.0
 62
     5
 63
     7
421
 16777215
 74
     1
 91
        4
 64
     7
 65
   257
 75
     7
175
     7
 42
1.0
 92
        8
 66
     7
 43
1.0
 76
     1
 77
     6
 78
     2
 67
     7
 79
     5
170
     0
171
     0
290
     0
174
     0
 93
        1
 44
0.0
173
     0
291
     1
 45
0.0
  0
VISUALSTYLE
  5
CDE7
102
{ACAD_REACTORS
330
CDDD
102
}
330
CDDD
100
AcDbVisualStyle
  2
Realistic
 70
     8
 71
     2
 72
     2
 73
     0
 90
        0
 40
-0.6
 41
-30.0
 62
     5
 63
     7
421
 16777215
 74
     1
 91
        0
 64
     7
 65
   257
 75
     1
175
     1
 42
1.0
 92
        8
 66
     8
424
  7895160
 43
1.0
 76
     1
 77
     6
 78
     2
 67
     7
 79
     5
170
     0
171
     0
290
     0
174
     0
 93
       13
 44
0.0
173
     0
291
     0
 45
0.0
  0
VISUALSTYLE
  5
CDEA
102
{ACAD_REACTORS
330
CDDD
102
}
330
CDDD
100
AcDbVisualStyle
  2
Thicken
 70
    13
 71
     2
 72
     2
 73
     0
 90
        0
 40
-0.6
 41
-30.0
 62
     5
 63
     7
421
 16777215
 74
     1
 91
        4
 64
     7
 65
   257
 75
     1
175
     1
 42
1.0
 92
       12
 66
     7
 43
1.0
 76
     1
 77
     6
 78
     2
 67
     7
 79
     5
170
     0
171
     0
290
     0
174
     0
 93
        1
 44
0.0
173
     0
291
     1
 45
0.0
  0
DICTIONARYVAR
  5
CEE2
102
{ACAD_REACTORS
330
29E
102
}
330
29E
100
DictionaryVariables
280
     0
  1
1:1
  0
DICTIONARYVAR
  5
CEE0
102
{ACAD_REACTORS
330
29E
102
}
330
29E
100
DictionaryVariables
280
     0
  1
STANDARD
  0
DICTIONARYVAR
  5
CD5C
102
{ACAD_REACTORS
330
29E
102
}
330
29E
100
DictionaryVariables
280
     0
  1
STANDARD
  0
DICTIONARYVAR
  5
CD5D
102
{ACAD_REACTORS
330
29E
102
}
330
29E
100
DictionaryVariables
280
     0
  1
1
  0
DICTIONARYVAR
  5
CEE3
102
{ACAD_REACTORS
330
29E
102
}
330
29E
100
DictionaryVariables
280
     0
  1
0
  0
DICTIONARYVAR
  5
CEE1
102
{ACAD_REACTORS
330
29E
102
}
330
29E
100
DictionaryVariables
280
     0
  1
0
  0
DICTIONARYVAR
  5
CD5E
102
{ACAD_REACTORS
330
29E
102
}
330
29E
100
DictionaryVariables
280
     0
  1

  0
DICTIONARYVAR
  5
29F
102
{ACAD_REACTORS
330
29E
102
}
330
29E
100
DictionaryVariables
280
     0
  1
96
  0
DICTIONARY
  5
CE7D
102
{ACAD_REACTORS
330
CE72
102
}
330
CE72
100
AcDbDictionary
281
     1
  0
XRECORD
  5
CE9E
102
{ACAD_REACTORS
330
CE72
102
}
330
CE72
100
AcDbXrecord
280
     1
 90
-1023410169
  0
XRECORD
  5
C005
102
{ACAD_REACTORS
330
C004
102
}
330
C004
100
AcDbXrecord
280
     1
  1
50
  1
*-50
  1
*
  1
*
 70
     0
  1
*
  1
*
  0
DICTIONARY
  5
CDCE
330
CDCD
100
AcDbDictionary
280
     1
281
     1
  3
BUMPTILE
360
CDD0
  3
DIFFUSETILE
360
CDCF
  3
OPACITYTILE
360
CDD3
  3
REFLECTIONTILE
360
CDD2
  3
REFRACTIONTILE
360
CDD4
  3
SPECULARTILE
360
CDD1
  0
DICTIONARY
  5
CDC6
330
CDC5
100
AcDbDictionary
280
     1
281
     1
  3
BUMPTILE
360
CDC8
  3
DIFFUSETILE
360
CDC7
  3
OPACITYTILE
360
CDCB
  3
REFLECTIONTILE
360
CDCA
  3
REFRACTIONTILE
360
CDCC
  3
SPECULARTILE
360
CDC9
  0
DICTIONARY
  5
CDD6
330
CDD5
100
AcDbDictionary
280
     1
281
     1
  3
BUMPTILE
360
CDD8
  3
DIFFUSETILE
360
CDD7
  3
OPACITYTILE
360
CDDB
  3
REFLECTIONTILE
360
CDDA
  3
REFRACTIONTILE
360
CDDC
  3
SPECULARTILE
360
CDD9
  0
DICTIONARY
  5
CEDD
330
C243
100
AcDbDictionary
280
     1
281
     1
  3
ACAD_ROUNDTRIP_2008_TABLESTYLE_CELLSTYLEMAP
360
D753
  0
XRECORD
  5
CDD0
102
{ACAD_REACTORS
330
CDCE
102
}
330
CDCE
100
AcDbXrecord
280
     1
270
     1
271
     1
  0
XRECORD
  5
CDCF
102
{ACAD_REACTORS
330
CDCE
102
}
330
CDCE
100
AcDbXrecord
280
     1
270
     1
271
     1
  0
XRECORD
  5
CDD3
102
{ACAD_REACTORS
330
CDCE
102
}
330
CDCE
100
AcDbXrecord
280
     1
270
     1
271
     1
  0
XRECORD
  5
CDD2
102
{ACAD_REACTORS
330
CDCE
102
}
330
CDCE
100
AcDbXrecord
280
     1
270
     1
271
     1
  0
XRECORD
  5
CDD4
102
{ACAD_REACTORS
330
CDCE
102
}
330
CDCE
100
AcDbXrecord
280
     1
270
     1
271
     1
  0
XRECORD
  5
CDD1
102
{ACAD_REACTORS
330
CDCE
102
}
330
CDCE
100
AcDbXrecord
280
     1
270
     1
271
     1
  0
XRECORD
  5
CDC8
102
{ACAD_REACTORS
330
CDC6
102
}
330
CDC6
100
AcDbXrecord
280
     1
270
     1
271
     1
  0
XRECORD
  5
CDC7
102
{ACAD_REACTORS
330
CDC6
102
}
330
CDC6
100
AcDbXrecord
280
     1
270
     1
271
     1
  0
XRECORD
  5
CDCB
102
{ACAD_REACTORS
330
CDC6
102
}
330
CDC6
100
AcDbXrecord
280
     1
270
     1
271
     1
  0
XRECORD
  5
CDCA
102
{ACAD_REACTORS
330
CDC6
102
}
330
CDC6
100
AcDbXrecord
280
     1
270
     1
271
     1
  0
XRECORD
  5
CDCC
102
{ACAD_REACTORS
330
CDC6
102
}
330
CDC6
100
AcDbXrecord
280
     1
270
     1
271
     1
  0
XRECORD
  5
CDC9
102
{ACAD_REACTORS
330
CDC6
102
}
330
CDC6
100
AcDbXrecord
280
     1
270
     1
271
     1
  0
XRECORD
  5
CDD8
102
{ACAD_REACTORS
330
CDD6
102
}
330
CDD6
100
AcDbXrecord
280
     1
270
     1
271
     1
  0
XRECORD
  5
CDD7
102
{ACAD_REACTORS
330
CDD6
102
}
330
CDD6
100
AcDbXrecord
280
     1
270
     1
271
     1
  0
XRECORD
  5
CDDB
102
{ACAD_REACTORS
330
CDD6
102
}
330
CDD6
100
AcDbXrecord
280
     1
270
     1
271
     1
  0
XRECORD
  5
CDDA
102
{ACAD_REACTORS
330
CDD6
102
}
330
CDD6
100
AcDbXrecord
280
     1
270
     1
271
     1
  0
XRECORD
  5
CDDC
102
{ACAD_REACTORS
330
CDD6
102
}
330
CDD6
100
AcDbXrecord
280
     1
270
     1
271
     1
  0
XRECORD
  5
CDD9
102
{ACAD_REACTORS
330
CDD6
102
}
330
CDD6
100
AcDbXrecord
280
     1
270
     1
271
     1
  0
CELLSTYLEMAP
  5
D753
102
{ACAD_REACTORS
330
CEDD
102
}
330
CEDD
100
AcDbCellStyleMap
 90
        3
300
CELLSTYLE
  1
TABLEFORMAT_BEGIN
 90
        5
170
     1
 91
        0
 92
    32768
 62
   257
 93
        1
300
CONTENTFORMAT
  1
CONTENTFORMAT_BEGIN
 90
        0
 91
        0
 92
        4
 93
        0
300

 40
0.0
140
1.0
 94
        5
 62
     0
340
10
144
0.25
309
CONTENTFORMAT_END
171
     1
301
MARGIN
  1
CELLMARGIN_BEGIN
 40
0.06
 40
0.06
 40
0.06
 40
0.06
 40
0.18
 40
0.18
309
CELLMARGIN_END
 94
        6
 95
        1
302
GRIDFORMAT
  1
GRIDFORMAT_BEGIN
 90
        0
 91
        1
 62
     0
 92
       -2
340
0
 93
        0
 40
0.045
309
GRIDFORMAT_END
 95
        2
302
GRIDFORMAT
  1
GRIDFORMAT_BEGIN
 90
        0
 91
        1
 62
     0
 92
       -2
340
0
 93
        0
 40
0.045
309
GRIDFORMAT_END
 95
        4
302
GRIDFORMAT
  1
GRIDFORMAT_BEGIN
 90
        0
 91
        1
 62
     0
 92
       -2
340
0
 93
        0
 40
0.045
309
GRIDFORMAT_END
 95
        8
302
GRIDFORMAT
  1
GRIDFORMAT_BEGIN
 90
        0
 91
        1
 62
     0
 92
       -2
340
0
 93
        0
 40
0.045
309
GRIDFORMAT_END
 95
       16
302
GRIDFORMAT
  1
GRIDFORMAT_BEGIN
 90
        0
 91
        1
 62
     0
 92
       -2
340
0
 93
        0
 40
0.045
309
GRIDFORMAT_END
 95
       32
302
GRIDFORMAT
  1
GRIDFORMAT_BEGIN
 90
        0
 91
        1
 62
     0
 92
       -2
340
0
 93
        0
 40
0.045
309
GRIDFORMAT_END
309
TABLEFORMAT_END
  1
CELLSTYLE_BEGIN
 90
        1
 91
        1
300
_TITLE
309
CELLSTYLE_END
300
CELLSTYLE
  1
TABLEFORMAT_BEGIN
 90
        5
170
     1
 91
        0
 92
        0
 62
   257
 93
        1
300
CONTENTFORMAT
  1
CONTENTFORMAT_BEGIN
 90
        0
 91
        0
 92
        4
 93
        0
300

 40
0.0
140
1.0
 94
        5
 62
     0
340
10
144
0.18
309
CONTENTFORMAT_END
171
     1
301
MARGIN
  1
CELLMARGIN_BEGIN
 40
0.06
 40
0.06
 40
0.06
 40
0.06
 40
0.18
 40
0.18
309
CELLMARGIN_END
 94
        6
 95
        1
302
GRIDFORMAT
  1
GRIDFORMAT_BEGIN
 90
        0
 91
        1
 62
     0
 92
       -2
340
0
 93
        0
 40
0.045
309
GRIDFORMAT_END
 95
        2
302
GRIDFORMAT
  1
GRIDFORMAT_BEGIN
 90
        0
 91
        1
 62
     0
 92
       -2
340
0
 93
        0
 40
0.045
309
GRIDFORMAT_END
 95
        4
302
GRIDFORMAT
  1
GRIDFORMAT_BEGIN
 90
        0
 91
        1
 62
     0
 92
       -2
340
0
 93
        0
 40
0.045
309
GRIDFORMAT_END
 95
        8
302
GRIDFORMAT
  1
GRIDFORMAT_BEGIN
 90
        0
 91
        1
 62
     0
 92
       -2
340
0
 93
        0
 40
0.045
309
GRIDFORMAT_END
 95
       16
302
GRIDFORMAT
  1
GRIDFORMAT_BEGIN
 90
        0
 91
        1
 62
     0
 92
       -2
340
0
 93
        0
 40
0.045
309
GRIDFORMAT_END
 95
       32
302
GRIDFORMAT
  1
GRIDFORMAT_BEGIN
 90
        0
 91
        1
 62
     0
 92
       -2
340
0
 93
        0
 40
0.045
309
GRIDFORMAT_END
309
TABLEFORMAT_END
  1
CELLSTYLE_BEGIN
 90
        2
 91
        1
300
_HEADER
309
CELLSTYLE_END
300
CELLSTYLE
  1
TABLEFORMAT_BEGIN
 90
        5
170
     1
 91
        0
 92
        0
 62
   257
 93
        1
300
CONTENTFORMAT
  1
CONTENTFORMAT_BEGIN
 90
        0
 91
        0
 92
        4
 93
        0
300

 40
0.0
140
1.0
 94
        2
 62
     0
340
10
144
0.18
309
CONTENTFORMAT_END
171
     1
301
MARGIN
  1
CELLMARGIN_BEGIN
 40
0.06
 40
0.06
 40
0.06
 40
0.06
 40
0.18
 40
0.18
309
CELLMARGIN_END
 94
        6
 95
        1
302
GRIDFORMAT
  1
GRIDFORMAT_BEGIN
 90
        0
 91
        1
 62
     0
 92
       -2
340
0
 93
        0
 40
0.045
309
GRIDFORMAT_END
 95
        2
302
GRIDFORMAT
  1
GRIDFORMAT_BEGIN
 90
        0
 91
        1
 62
     0
 92
       -2
340
0
 93
        0
 40
0.045
309
GRIDFORMAT_END
 95
        4
302
GRIDFORMAT
  1
GRIDFORMAT_BEGIN
 90
        0
 91
        1
 62
     0
 92
       -2
340
0
 93
        0
 40
0.045
309
GRIDFORMAT_END
 95
        8
302
GRIDFORMAT
  1
GRIDFORMAT_BEGIN
 90
        0
 91
        1
 62
     0
 92
       -2
340
0
 93
        0
 40
0.045
309
GRIDFORMAT_END
 95
       16
302
GRIDFORMAT
  1
GRIDFORMAT_BEGIN
 90
        0
 91
        1
 62
     0
 92
       -2
340
0
 93
        0
 40
0.045
309
GRIDFORMAT_END
 95
       32
302
GRIDFORMAT
  1
GRIDFORMAT_BEGIN
 90
        0
 91
        1
 62
     0
 92
       -2
340
0
 93
        0
 40
0.045
309
GRIDFORMAT_END
309
TABLEFORMAT_END
  1
CELLSTYLE_BEGIN
 90
        3
 91
        2
300
_DATA
309
CELLSTYLE_END
  0
ENDSEC
  0
EOF
