  0
SECTION
  2
HEADER
  9
$ACADVER
  1
AC1021
  9
$ACADMAINTVER
 70
    26
  9
$DWGCODEPAGE
  3
ANSI_932
  9
$LASTSAVEDBY
  1
Htm_Terada
  9
$CUSTOMPROPERTYTAG
  1
AmdtFileType
  9
$CUSTOMPROPERTY
  1
84
  9
$INSBASE
 10
0.0
 20
0.0
 30
0.0
  9
$EXTMIN
 10
-168.0000000000002
 20
-35.66890120521701
 30
0.0
  9
$EXTMAX
 10
1129.518389764114
 20
848.6298566842803
 30
0.0
  9
$LIMMIN
 10
0.0000015314708435
 20
0.0000029550565159
  9
$LIMMAX
 10
3360.000001531471
 20
2376.000002955057
  9
$ORTHOMODE
 70
     1
  9
$REGENMODE
 70
     1
  9
$FILLMODE
 70
     1
  9
$QTEXTMODE
 70
     0
  9
$MIRRTEXT
 70
     1
  9
$LTSCALE
 40
8.0
  9
$ATTMODE
 70
     1
  9
$TEXTSIZE
 40
25.0
  9
$TRACEWID
 40
1.0
  9
$TEXTSTYLE
  7
SEISA
  9
$CLAYER
  8
AM_0 外形線1
  9
$CELTYPE
  6
ByLayer
  9
$CECOLOR
 62
   256
  9
$CELTSCALE
 40
1.0
  9
$DISPSILH
 70
     0
  9
$DIMSCALE
 40
8.0
  9
$DIMASZ
 40
2.5
  9
$DIMEXO
 40
0.625
  9
$DIMDLI
 40
10.0
  9
$DIMRND
 40
0.0
  9
$DIMDLE
 40
0.0
  9
$DIMEXE
 40
0.625
  9
$DIMTP
 40
0.1
  9
$DIMTM
 40
0.1
  9
$DIMTXT
 40
3.5
  9
$DIMCEN
 40
0.0
  9
$DIMTSZ
 40
0.0
  9
$DIMTOL
 70
     0
  9
$DIMLIM
 70
     0
  9
$DIMTIH
 70
     0
  9
$DIMTOH
 70
     0
  9
$DIMSE1
 70
     0
  9
$DIMSE2
 70
     0
  9
$DIMTAD
 70
     3
  9
$DIMZIN
 70
     8
  9
$DIMBLK
  1
Open30
  9
$DIMASO
 70
     1
  9
$DIMSHO
 70
     1
  9
$DIMPOST
  1

  9
$DIMAPOST
  1
"
  9
$DIMALT
 70
     0
  9
$DIMALTD
 70
     2
  9
$DIMALTF
 40
0.0393701
  9
$DIMLFAC
 40
1.0
  9
$DIMTOFL
 70
     1
  9
$DIMTVP
 40
0.0
  9
$DIMTIX
 70
     0
  9
$DIMSOXD
 70
     0
  9
$DIMSAH
 70
     0
  9
$DIMBLK1
  1

  9
$DIMBLK2
  1

  9
$DIMSTYLE
  2
SEISA
  9
$DIMCLRD
 70
     3
  9
$DIMCLRE
 70
     3
  9
$DIMCLRT
 70
     3
  9
$DIMTFAC
 40
0.71
  9
$DIMGAP
 40
1.5
  9
$DIMJUST
 70
     0
  9
$DIMSD1
 70
     0
  9
$DIMSD2
 70
     0
  9
$DIMTOLJ
 70
     0
  9
$DIMTZIN
 70
     0
  9
$DIMALTZ
 70
     0
  9
$DIMALTTZ
 70
     8
  9
$DIMUPT
 70
     0
  9
$DIMDEC
 70
     2
  9
$DIMTDEC
 70
     2
  9
$DIMALTU
 70
     2
  9
$DIMALTTD
 70
     2
  9
$DIMTXSTY
  7
SEISA
  9
$DIMAUNIT
 70
     0
  9
$DIMADEC
 70
     0
  9
$DIMALTRND
 40
0.0
  9
$DIMAZIN
 70
     2
  9
$DIMDSEP
 70
    46
  9
$DIMATFIT
 70
     3
  9
$DIMFRAC
 70
     0
  9
$DIMLDRBLK
  1
Open30
  9
$DIMLUNIT
 70
     2
  9
$DIMLWD
 70
    -1
  9
$DIMLWE
 70
    -1
  9
$DIMTMOVE
 70
     0
  9
$DIMFXL
 40
1.0
  9
$DIMFXLON
 70
     0
  9
$DIMJOGANG
 40
0.7853981633974483
  9
$DIMTFILL
 70
     0
  9
$DIMTFILLCLR
 70
     0
  9
$DIMARCSYM
 70
     1
  9
$DIMLTYPE
  6

  9
$DIMLTEX1
  6

  9
$DIMLTEX2
  6

  9
$LUNITS
 70
     2
  9
$LUPREC
 70
     2
  9
$SKETCHINC
 40
1.0
  9
$FILLETRAD
 40
1.6
  9
$AUNITS
 70
     0
  9
$AUPREC
 70
     0
  9
$MENU
  1
.
  9
$ELEVATION
 40
0.0
  9
$PELEVATION
 40
0.0
  9
$THICKNESS
 40
0.0
  9
$LIMCHECK
 70
     0
  9
$CHAMFERA
 40
8.0
  9
$CHAMFERB
 40
8.0
  9
$CHAMFERC
 40
8.0
  9
$CHAMFERD
 40
0.7853981633974483
  9
$SKPOLY
 70
     0
  9
$TDCREATE
 40
2454943.585026817
  9
$TDUCREATE
 40
2454943.210026817
  9
$TDUPDATE
 40
2456478.715457350
  9
$TDUUPDATE
 40
2456478.340457350
  9
$TDINDWG
 40
0.3968289931
  9
$TDUSRTIMER
 40
0.3968280903
  9
$USRTIMER
 70
     1
  9
$ANGBASE
 50
0.0
  9
$ANGDIR
 70
     0
  9
$PDMODE
 70
     0
  9
$PDSIZE
 40
0.0
  9
$PLINEWID
 40
0.0
  9
$SPLFRAME
 70
     0
  9
$SPLINETYPE
 70
     6
  9
$SPLINESEGS
 70
     8
  9
$HANDSEED
  5
6F7C
  9
$SURFTAB1
 70
     6
  9
$SURFTAB2
 70
     6
  9
$SURFTYPE
 70
     6
  9
$SURFU
 70
     6
  9
$SURFV
 70
     6
  9
$UCSBASE
  2

  9
$UCSNAME
  2

  9
$UCSORG
 10
0.0
 20
0.0
 30
0.0
  9
$UCSXDIR
 10
1.0
 20
0.0
 30
0.0
  9
$UCSYDIR
 10
0.0
 20
1.0
 30
0.0
  9
$UCSORTHOREF
  2

  9
$UCSORTHOVIEW
 70
     0
  9
$UCSORGTOP
 10
0.0
 20
0.0
 30
0.0
  9
$UCSORGBOTTOM
 10
0.0
 20
0.0
 30
0.0
  9
$UCSORGLEFT
 10
0.0
 20
0.0
 30
0.0
  9
$UCSORGRIGHT
 10
0.0
 20
0.0
 30
0.0
  9
$UCSORGFRONT
 10
0.0
 20
0.0
 30
0.0
  9
$UCSORGBACK
 10
0.0
 20
0.0
 30
0.0
  9
$PUCSBASE
  2

  9
$PUCSNAME
  2

  9
$PUCSORG
 10
0.0
 20
0.0
 30
0.0
  9
$PUCSXDIR
 10
1.0
 20
0.0
 30
0.0
  9
$PUCSYDIR
 10
0.0
 20
1.0
 30
0.0
  9
$PUCSORTHOREF
  2

  9
$PUCSORTHOVIEW
 70
     0
  9
$PUCSORGTOP
 10
0.0
 20
0.0
 30
0.0
  9
$PUCSORGBOTTOM
 10
0.0
 20
0.0
 30
0.0
  9
$PUCSORGLEFT
 10
0.0
 20
0.0
 30
0.0
  9
$PUCSORGRIGHT
 10
0.0
 20
0.0
 30
0.0
  9
$PUCSORGFRONT
 10
0.0
 20
0.0
 30
0.0
  9
$PUCSORGBACK
 10
0.0
 20
0.0
 30
0.0
  9
$USERI1
 70
     0
  9
$USERI2
 70
     0
  9
$USERI3
 70
     0
  9
$USERI4
 70
     0
  9
$USERI5
 70
     0
  9
$USERR1
 40
0.0
  9
$USERR2
 40
0.0
  9
$USERR3
 40
0.0
  9
$USERR4
 40
0.0
  9
$USERR5
 40
0.0
  9
$WORLDVIEW
 70
     1
  9
$SHADEDGE
 70
     3
  9
$SHADEDIF
 70
    70
  9
$TILEMODE
 70
     1
  9
$MAXACTVP
 70
    64
  9
$PINSBASE
 10
0.0
 20
0.0
 30
0.0
  9
$PLIMCHECK
 70
     0
  9
$PEXTMIN
 10
1.000000000000000E+20
 20
1.000000000000000E+20
 30
1.000000000000000E+20
  9
$PEXTMAX
 10
-1.000000000000000E+20
 20
-1.000000000000000E+20
 30
-1.000000000000000E+20
  9
$PLIMMIN
 10
0.0
 20
0.0
  9
$PLIMMAX
 10
420.0
 20
297.0
  9
$UNITMODE
 70
     0
  9
$VISRETAIN
 70
     1
  9
$PLINEGEN
 70
     0
  9
$PSLTSCALE
 70
     1
  9
$TREEDEPTH
 70
  3020
  9
$CMLSTYLE
  2
Standard
  9
$CMLJUST
 70
     0
  9
$CMLSCALE
 40
20.0
  9
$PROXYGRAPHICS
 70
     1
  9
$MEASUREMENT
 70
     1
  9
$CELWEIGHT
370
    -1
  9
$ENDCAPS
280
     0
  9
$JOINSTYLE
280
     0
  9
$LWDISPLAY
290
     0
  9
$INSUNITS
 70
     4
  9
$HYPERLINKBASE
  1

  9
$STYLESHEET
  1
SEISA.CTB
  9
$XEDIT
290
     1
  9
$CEPSNTYPE
380
     0
  9
$PSTYLEMODE
290
     1
  9
$FINGERPRINTGUID
  2
{2B4E28C6-F429-4F52-95B2-09B0F25DBBD1}
  9
$VERSIONGUID
  2
{42DFFF31-0FA7-4D5B-B88C-6E658427BEAC}
  9
$EXTNAMES
290
     1
  9
$PSVPSCALE
 40
0.0
  9
$OLESTARTUP
290
     0
  9
$SORTENTS
280
   127
  9
$INDEXCTL
280
     0
  9
$HIDETEXT
280
     0
  9
$XCLIPFRAME
290
     0
  9
$HALOGAP
280
     0
  9
$OBSCOLOR
 70
   257
  9
$OBSLTYPE
280
     0
  9
$INTERSECTIONDISPLAY
280
     0
  9
$INTERSECTIONCOLOR
 70
   257
  9
$DIMASSOC
280
     2
  9
$PROJECTNAME
  1

  9
$CAMERADISPLAY
290
     0
  9
$LENSLENGTH
 40
50.0
  9
$CAMERAHEIGHT
 40
0.0
  9
$STEPSPERSEC
 40
2.0
  9
$STEPSIZE
 40
6.0
  9
$3DDWFPREC
 40
2.0
  9
$PSOLWIDTH
 40
0.25
  9
$PSOLHEIGHT
 40
4.0
  9
$LOFTANG1
 40
1.570796326794896
  9
$LOFTANG2
 40
1.570796326794896
  9
$LOFTMAG1
 40
0.0
  9
$LOFTMAG2
 40
0.0
  9
$LOFTPARAM
 70
     7
  9
$LOFTNORMALS
280
     1
  9
$LATITUDE
 40
37.795
  9
$LONGITUDE
 40
-122.394
  9
$NORTHDIRECTION
 40
0.0
  9
$TIMEZONE
 70
 -8000
  9
$LIGHTGLYPHDISPLAY
280
     1
  9
$TILEMODELIGHTSYNCH
280
     1
  9
$CMATERIAL
347
27C
  9
$SOLIDHIST
280
     1
  9
$SHOWHIST
280
     1
  9
$DWFFRAME
280
     2
  9
$DGNFRAME
280
     0
  9
$REALWORLDSCALE
290
     1
  9
$INTERFERECOLOR
 62
     1
  9
$INTERFEREOBJVS
345
289
  9
$INTERFEREVPVS
346
286
  9
$CSHADOW
280
     0
  9
$SHADOWPLANELOCATION
 40
0.0
  0
ENDSEC
  0
SECTION
  2
CLASSES
  0
CLASS
  1
ACDBDICTIONARYWDFLT
  2
AcDbDictionaryWithDefault
  3
ObjectDBX Classes
 90
        0
 91
        1
280
     0
281
     0
  0
CLASS
  1
AMGSETTINGSOBJ
  2
AmgSettingsObj
  3
"AcadM|Product Description: AutoCAD Mechanical|Company: Autodesk, Inc."
 90
     1024
 91
        2
280
     0
281
     0
  0
CLASS
  1
ACME_DOCUMENT
  2
AcMeDbDoc
  3
AcMeServices
 90
     1024
 91
        1
280
     0
281
     0
  0
CLASS
  1
ACMESCOPE
  2
AcMeScope
  3
AcMeServices
 90
     1024
 91
        1
280
     0
281
     0
  0
CLASS
  1
ACMECOMMANDHISTORY
  2
AcMeCommandHistory
  3
AcMeServices
 90
     1024
 91
        1
280
     0
281
     0
  0
CLASS
  1
DICTIONARYVAR
  2
AcDbDictionaryVar
  3
ObjectDBX Classes
 90
        0
 91
        9
280
     0
281
     0
  0
CLASS
  1
ACIMSYSVARMAN
  2
AcImSysVarManager
  3
AcMeServices
 90
     1024
 91
        5
280
     0
281
     0
  0
CLASS
  1
ACIMREALSYSVAR
  2
AcImRealSysVar
  3
AcMeServices
 90
     1024
 91
        1
280
     0
281
     0
  0
CLASS
  1
ACIMINTSYSVAR
  2
AcImIntSysVar
  3
AcMeServices
 90
     1024
 91
       27
280
     0
281
     0
  0
CLASS
  1
ACMEDRAWINGMAN
  2
AcMeDrawingMan
  3
AcMeServices
 90
     1024
 91
        1
280
     0
281
     0
  0
CLASS
  1
ACMEVIEW
  2
AcMeView
  3
AcMeServices
 90
     1024
 91
        1
280
     0
281
     0
  0
CLASS
  1
ACDBENTITYCACHE
  2
AcMeEntityCache
  3
AcMeServices
 90
     1024
 91
        1
280
     0
281
     0
  0
CLASS
  1
GSMANAGER
  2
AcMeGSManager
  3
AcMeServices
 90
     1024
 91
        1
280
     0
281
     0
  0
CLASS
  1
AMDTINTERNALREACTOR
  2
AmdtInternalReactor
  3
AcMeServices
 90
     1024
 91
        2
280
     0
281
     0
  0
CLASS
  1
ACMESTATEMGR
  2
AcMeStateMgr
  3
AcMeServices
 90
     1024
 91
        1
280
     0
281
     0
  0
CLASS
  1
ACGREFMASTER
  2
AcGrefMaster
  3
AcAttribServices
 90
     1024
 91
        1
280
     0
281
     0
  0
CLASS
  1
ACME_DATABASE
  2
AcMeDbDatabase
  3
AcMeServices
 90
     1024
 91
        1
280
     0
281
     0
  0
CLASS
  1
ACRFINSADJUSTERMGR
  2
AcRfInsAdjusterMgr
  3
AcMeServices
 90
     1024
 91
        1
280
     0
281
     0
  0
CLASS
  1
ACGREFACADMASTER
  2
AcGrefacadMaster
  3
AcGrefServices
 90
     1024
 91
        1
280
     0
281
     0
  0
CLASS
  1
AMIMASTER
  2
AmiMaster
  3
AmiServices
 90
     1024
 91
        1
280
     0
281
     0
  0
CLASS
  1
ACIMSTRSYSVAR
  2
AcImStrSysVar
  3
AcMeServices
 90
     1024
 91
        5
280
     0
281
     0
  0
CLASS
  1
ACMSTANDARDJIS
  2
AcmStandardJIS
  3
"Amdt_StdImp|Product Description: AutoCAD Mechanical|Company: Autodesk, Inc."
 90
     1024
 91
        0
280
     0
281
     0
  0
CLASS
  1
AMGOBJPROPCFG
  2
AmgObjPropCfg
  3
"AmgLay|Product Description: AutoCAD Mechanical|Company: Autodesk, Inc."
 90
     1025
 91
        1
280
     0
281
     0
  0
CLASS
  1
ACMSURFSTANDARDJIS
  2
AcmSurfTextStdJIS
  3
"Amdt_StdImp|Product Description: AutoCAD Mechanical|Company: Autodesk, Inc."
 90
     1024
 91
        0
280
     0
281
     0
  0
CLASS
  1
ACMFCFSTANDARDJIS
  2
AcmFCFStdJIS
  3
"Amdt_StdImp|Product Description: AutoCAD Mechanical|Company: Autodesk, Inc."
 90
     1024
 91
        0
280
     0
281
     0
  0
CLASS
  1
ACMWELDSTANDARDJIS
  2
AcmWeldingStdJIS
  3
"Amdt_StdImp|Product Description: AutoCAD Mechanical|Company: Autodesk, Inc."
 90
     1024
 91
        0
280
     0
281
     0
  0
CLASS
  1
ACMIDSTANDARDJIS
  2
AcmIdStdJIS
  3
"Amdt_StdImp|Product Description: AutoCAD Mechanical|Company: Autodesk, Inc."
 90
     1024
 91
        0
280
     0
281
     0
  0
CLASS
  1
ACMDATUMSTANDARDJIS
  2
AcmDatumStdJIS
  3
"Amdt_StdImp|Product Description: AutoCAD Mechanical|Company: Autodesk, Inc."
 90
     1024
 91
        0
280
     0
281
     0
  0
CLASS
  1
ACMBOMSTANDARDJIS
  2
AcmBOMStdJIS
  3
"Amdt_StdImp|Product Description: AutoCAD Mechanical|Company: Autodesk, Inc."
 90
     1024
 91
        0
280
     0
281
     0
  0
CLASS
  1
ACMDETAILSTANDARDJIS
  2
AmdtDetailSymStdJIS
  3
"Amdt_StdImp|Product Description: AutoCAD Mechanical|Company: Autodesk, Inc."
 90
     1024
 91
        0
280
     0
281
     0
  0
CLASS
  1
ACMSECTIONSTANDARDJIS
  2
AmdtSectionSymStdJIS
  3
"Amdt_StdImp|Product Description: AutoCAD Mechanical|Company: Autodesk, Inc."
 90
     1024
 91
        0
280
     0
281
     0
  0
CLASS
  1
ACMCENTERLINESTANDARDJIS
  2
AmdtCenterLineStdJIS
  3
"Amdt_StdImp|Product Description: AutoCAD Mechanical|Company: Autodesk, Inc."
 90
     1024
 91
        0
280
     0
281
     0
  0
CLASS
  1
ACMTHREADLINESTANDARDJIS
  2
AmdtThreadLineStdJIS
  3
"Amdt_StdImp|Product Description: AutoCAD Mechanical|Company: Autodesk, Inc."
 90
     1024
 91
        0
280
     0
281
     0
  0
CLASS
  1
ACAMGLAYSTD
  2
AcAmgLayStd
  3
"AmgLay|Product Description: AutoCAD Mechanical|Company: Autodesk, Inc."
 90
     1024
 91
        1
280
     0
281
     0
  0
CLASS
  1
ACAMGDIMSTD
  2
AcAmgDimStd
  3
"AmgDim|Product Description: AutoCAD Mechanical|Company: Autodesk, Inc."
 90
     1024
 91
        1
280
     0
281
     0
  0
CLASS
  1
ACAMGTITLESTD
  2
AcAmgTitleStd
  3
"AmgTitle|Product Description: AutoCAD Mechanical|Company: Autodesk, Inc."
 90
     4095
 91
        1
280
     0
281
     0
  0
CLASS
  1
ACMDATADICTIONARY
  2
AcmDataDictionary
  3
"AcmSymBB|Product Description: AutoCAD Mechanical|Company: Autodesk, Inc."
 90
     1024
 91
        1
280
     0
281
     0
  0
CLASS
  1
ACMDATAENTRYBLOCK
  2
AcmDataEntryBlock
  3
AcmSymBB|Product Description: AutoCAD Mechanical|Company: Autodesk, Inc.
 90
     1024
 91
        0
280
     0
281
     0
  0
CLASS
  1
LAYER_INDEX
  2
AcDbLayerIndex
  3
ObjectDBX Classes
 90
        0
 91
        0
280
     0
281
     0
  0
CLASS
  1
IDBUFFER
  2
AcDbIdBuffer
  3
ObjectDBX Classes
 90
        0
 91
        0
280
     0
281
     0
  0
CLASS
  1
ACMNOTESTANDARDJIS
  2
AmdtNoteStdJIS
  3
"Amdt_StdImp|Product Description: AutoCAD Mechanical|Company: Autodesk, Inc."
 90
     1024
 91
        0
280
     0
281
     0
  0
CLASS
  1
ACAMGHOLECHARTSTDJIS
  2
AcAmgHoleChartStdJIS
  3
AmgDim|Product Description: AutoCAD Mechanical|Company: Autodesk, Inc.
 90
     1024
 91
        0
280
     0
281
     0
  0
CLASS
  1
AM_DRAWING_MGR
  2
AcDmDwgMgr
  3
AcMechDwgViewMgmt
 90
     1024
 91
        1
280
     0
281
     0
  0
CLASS
  1
AM_DWG_DOCUMENT
  2
AcDmDwgDocument
  3
AcMechDwgViewMgmt
 90
     1024
 91
        1
280
     0
281
     0
  0
CLASS
  1
AM_DWG_SHEET
  2
AcDmSheet
  3
AcMechDwgViewMgmt
 90
     1024
 91
        2
280
     0
281
     0
  0
CLASS
  1
AM_VIEWDIMPARMAP
  2
AcDmViewDimParMap
  3
AcMechDwgViewMgmt
 90
     1024
 91
        2
280
     0
281
     0
  0
CLASS
  1
AM_DWGMGR_NAME
  2
AcDmDwgMgrName
  3
AcMechDwgViewMgmt
 90
     1024
 91
        1
280
     0
281
     0
  0
CLASS
  1
AMDTMENUSTATEMGR
  2
AmdtMenuStateMgr
  3
McadcomServices
 90
     1024
 91
        1
280
     0
281
     0
  0
CLASS
  1
AMDTMCOMMENUSTATE
  2
AmdtMcomMenuState
  3
McadcomServices
 90
     1024
 91
        1
280
     0
281
     0
  0
CLASS
  1
MAPIAMMOUDLE
  2
MApiAmModule
  3
MApiAmServices
 90
     1024
 91
        1
280
     0
281
     0
  0
CLASS
  1
AMDTADMENUSTATE
  2
AmdtAdMenuState
  3
DesignerServices
 90
     1024
 91
        1
280
     0
281
     0
  0
CLASS
  1
ADAPPL
  2
AcAdAppl
  3
DesignerServices
 90
     1024
 91
        1
280
     0
281
     0
  0
CLASS
  1
DEPMGR
  2
AcAdDepMgr
  3
DesignerServices
 90
     1024
 91
        1
280
     0
281
     0
  0
CLASS
  1
PARAMMGR
  2
AcAdParamMgr
  3
DesignerServices
 90
     1024
 91
        1
280
     0
281
     0
  0
CLASS
  1
PARAMSCOPE
  2
AcAdParamScope
  3
DesignerServices
 90
     1024
 91
        1
280
     0
281
     0
  0
CLASS
  1
NAMEDAPPL
  2
AcAdNamedAppl
  3
DesignerServices
 90
     1024
 91
        1
280
     0
281
     0
  0
CLASS
  1
AMDTDMMENUSTATE
  2
AmdtDmMenuState
  3
AcMechDwgViewMgmt
 90
     1024
 91
        1
280
     0
281
     0
  0
CLASS
  1
AMDTAMMENUSTATE
  2
AmdtAmMenuState
  3
DesignerAssemblies
 90
     1024
 91
        1
280
     0
281
     0
  0
CLASS
  1
ACAMPROJECT
  2
AcAmProject
  3
DesignerAssemblies
 90
     1024
 91
        1
280
     0
281
     0
  0
CLASS
  1
ACAMGRCOMPDEF
  2
AcAmGrCompDef
  3
DesignerAssemblies
 90
     1024
 91
        1
280
     0
281
     0
  0
CLASS
  1
ACCMCONTEXT
  2
AcCmContext
  3
DesignerAssemblies
 90
     1024
 91
        1
280
     0
281
     0
  0
CLASS
  1
ACAMCOMPDEF
  2
AcAmCompDef
  3
DesignerAssemblies
 90
     1024
 91
        1
280
     0
281
     0
  0
CLASS
  1
ACAMCOMPDEFMGR
  2
AcAmCompDefMgr
  3
DesignerAssemblies
 90
     1024
 91
        1
280
     0
281
     0
  0
CLASS
  1
AMCONTEXTMGR
  2
AcAmContextMgr
  3
DesignerAssemblies
 90
     1024
 91
        1
280
     0
281
     0
  0
CLASS
  1
ACAMCONTEXTMODELER
  2
AcAmContextModeler
  3
DesignerAssemblies
 90
     1024
 91
        1
280
     0
281
     0
  0
CLASS
  1
CATALOGSTATE
  2
AcAmCatalogState
  3
DesignerAssemblies
 90
     1024
 91
        1
280
     0
281
     0
  0
CLASS
  1
ACAMGRCOMPDEFSET
  2
AcAmGrCompDefSet
  3
DesignerAssemblies
 90
     1024
 91
        1
280
     0
281
     0
  0
CLASS
  1
AMDTBROWSERDBTAB
  2
AmdtBrowserDbTab
  3
McadcomServices
 90
     1024
 91
        1
280
     0
281
     0
  0
CLASS
  1
CBROWSERAPPOBJECT
  2
CBrowserAppObject
  3
McadcomServices
 90
     1024
 91
        3
280
     0
281
     0
  0
CLASS
  1
DM_PLACEHOLDER
  2
AcDmSelsetPlaceholder
  3
AcMechDwgViewMgmt
 90
     1024
 91
        1
280
     0
281
     0
  0
CLASS
  1
TABLESTYLE
  2
AcDbTableStyle
  3
ObjectDBX Classes
 90
     4095
 91
        1
280
     0
281
     0
  0
CLASS
  1
VAACXREFPANELOBJECT
  2
VaAcXREFPanelObject
  3
VAAC_ADDIN
 90
        0
 91
        0
280
     0
281
     0
  0
CLASS
  1
VAACIMAGEINVENTORY
  2
VaAcImageInventory
  3
VAAC_ADDIN
 90
        0
 91
        0
280
     0
281
     0
  0
CLASS
  1
AMDTNOTETEMPLATEDB
  2
AmdtNoteTemplateDB
  3
AcmSymBB|Product Description: AutoCAD Mechanical|Company: Autodesk, Inc.
 90
     1024
 91
        6
280
     0
281
     0
  0
CLASS
  1
ACAMGFILTERDAT
  2
AcAmgFilterDat
  3
"AcadM|Product Description: AutoCAD Mechanical|Company: Autodesk, Inc."
 90
     1024
 91
        0
280
     0
281
     0
  0
CLASS
  1
MATERIAL
  2
AcDbMaterial
  3
ObjectDBX Classes
 90
     1153
 91
        3
280
     0
281
     0
  0
CLASS
  1
VISUALSTYLE
  2
AcDbVisualStyle
  3
ObjectDBX Classes
 90
     4095
 91
       16
280
     0
281
     0
  0
CLASS
  1
ACRFATTGENMGR
  2
AcRfAttGeneralMgr
  3
AcAttribServices
 90
     1024
 91
        0
280
     0
281
     0
  0
CLASS
  1
ACRFOBJATTMGR
  2
AcRfObjAttGroupMgr
  3
AcAttribServices
 90
     1024
 91
        0
280
     0
281
     0
  0
CLASS
  1
ACRFMCADAPIATTHOLDER
  2
AcRfMCADAPIAttHolder
  3
AcAttribServices
 90
     1024
 91
        0
280
     0
281
     0
  0
CLASS
  1
AMDTSYSATTR
  2
AmdtSystemAttribute
  3
AcAttribServices
 90
     1024
 91
        0
280
     0
281
     0
  0
CLASS
  1
ACMTAPERSTANDARDJIS
  2
AcmTaperStdJIS
  3
"Amdt_StdImp|Product Description: AutoCAD Mechanical|Company: Autodesk, Inc."
 90
     1024
 91
        0
280
     0
281
     0
  0
CLASS
  1
CAMSSTRUCTBTNSTATE
  2
StructBtnState
  3
DesignerAssemblies
 90
     1024
 91
        0
280
     0
281
     0
  0
CLASS
  1
SCALE
  2
AcDbScale
  3
ObjectDBX Classes
 90
     1153
 91
       36
280
     0
281
     0
  0
CLASS
  1
MLEADERSTYLE
  2
AcDbMLeaderStyle
  3
ACDB_MLEADERSTYLE_CLASS
 90
     4095
 91
        1
280
     0
281
     0
  0
CLASS
  1
ACMANOOTATIONVIEWSTANDARDJIS
  2
AmdtAnViewStdJIS
  3
"Amdt_StdImp|Product Description: AutoCAD Mechanical|Company: Autodesk, Inc."
 90
     1024
 91
        0
280
     0
281
     0
  0
CLASS
  1
ACMSURFSTANDARDJIS2003
  2
AcmSurfTextStdJIS2003
  3
"Amdt_StdImp|Product Description: AutoCAD Mechanical|Company: Autodesk, Inc."
 90
     1024
 91
        0
280
     0
281
     0
  0
CLASS
  1
CELLSTYLEMAP
  2
AcDbCellStyleMap
  3
ObjectDBX Classes
 90
     1152
 91
        2
280
     0
281
     0
  0
CLASS
  1
ACMFCFSTANDARDJIS98
  2
AcmFCFStdJIS98
  3
"Amdt_StdImp|Product Description: AutoCAD Mechanical|Company: Autodesk, Inc."
 90
     1024
 91
        0
280
     0
281
     0
  0
CLASS
  1
SORTENTSTABLE
  2
AcDbSortentsTable
  3
ObjectDBX Classes
 90
        0
 91
        9
280
     0
281
     0
  0
CLASS
  1
DIMASSOC
  2
AcDbDimAssoc
  3
"AcDbDimAssoc|Product Desc:     AcDim ARX App For Dimension|Company:          Autodesk, Inc.|WEB Address:      www.autodesk.com"
 90
        0
 91
       15
280
     0
281
     0
  0
CLASS
  1
STDPART2D
  2
AmgStdPart
  3
AmgStdPart|Product Description: AutoCAD Mechanical|Company: Autodesk, Inc.
 90
     4095
 91
        0
280
     0
281
     1
  0
CLASS
  1
ACMDATAENTRYPART
  2
AcmDataEntryPart
  3
AcmSymBB|Product Description: AutoCAD Mechanical|Company: Autodesk, Inc.
 90
     1024
 91
        0
280
     0
281
     0
  0
CLASS
  1
ACMPARTREF
  2
AcmPartRef
  3
"AcmSymBB|Product Description: AutoCAD Mechanical|Company: Autodesk, Inc."
 90
     4095
 91
        0
280
     0
281
     1
  0
CLASS
  1
ACDBSTDPARTRES_LINE
  2
AcDbStdPartRes_Line
  3
AmgStdPart|Product Description: AutoCAD Mechanical|Company: Autodesk, Inc.
 90
     1024
 91
        0
280
     0
281
     0
  0
CLASS
  1
ACMBOM
  2
AcmBom
  3
"AcmSymBB|Product Description: AutoCAD Mechanical|Company: Autodesk, Inc."
 90
     1024
 91
        0
280
     0
281
     0
  0
CLASS
  1
AMDTFORMULAUPDATEDISPATCHER
  2
AmdtFormulaUpdateDispatcher
  3
AcMeServices
 90
     1024
 91
        0
280
     0
281
     0
  0
CLASS
  1
ACMBOMROW
  2
AcmBomRow
  3
"AcmSymBB|Product Description: AutoCAD Mechanical|Company: Autodesk, Inc."
 90
     1024
 91
        0
280
     0
281
     0
  0
CLASS
  1
ACMPARTLIST
  2
AcmPartList
  3
"AcmSymBB|Product Description: AutoCAD Mechanical|Company: Autodesk, Inc."
 90
     4095
 91
        0
280
     0
281
     1
  0
CLASS
  1
ACDBLINERES
  2
AcDbLineRes
  3
AcGrefServices
 90
     1024
 91
        0
280
     0
281
     0
  0
CLASS
  1
ACRFINSADJ
  2
AcRfInsAdjuster
  3
AcMeServices
 90
     1024
 91
        0
280
     0
281
     0
  0
CLASS
  1
ACMSTANDARDISO
  2
AcmStandardISO
  3
"Amdt_StdImp|Product Description: AutoCAD Mechanical|Company: Autodesk, Inc."
 90
     1024
 91
        1
280
     0
281
     0
  0
CLASS
  1
AMDTEDGESTANDARDISO13715
  2
AmdtEdgeStdISO13715
  3
"Amdt_StdImp|Product Description: AutoCAD Mechanical|Company: Autodesk, Inc."
 90
     1024
 91
        1
280
     0
281
     0
  0
CLASS
  1
ACMSURFSTANDARDISO2002
  2
AcmSurfTextStdISO2002
  3
"Amdt_StdImp|Product Description: AutoCAD Mechanical|Company: Autodesk, Inc."
 90
     1024
 91
        1
280
     0
281
     0
  0
CLASS
  1
ACMFCFSTANDARDISO
  2
AcmFCFStdISO
  3
"Amdt_StdImp|Product Description: AutoCAD Mechanical|Company: Autodesk, Inc."
 90
     1024
 91
        1
280
     0
281
     0
  0
CLASS
  1
ACMWELDSTANDARDISO
  2
AcmWeldingStdISO
  3
"Amdt_StdImp|Product Description: AutoCAD Mechanical|Company: Autodesk, Inc."
 90
     1024
 91
        1
280
     0
281
     0
  0
CLASS
  1
ACMIDSTANDARDISO
  2
AcmIdStdISO
  3
"Amdt_StdImp|Product Description: AutoCAD Mechanical|Company: Autodesk, Inc."
 90
     1024
 91
        1
280
     0
281
     0
  0
CLASS
  1
ACMDATUMSTANDARDISO
  2
AcmDatumStdISO
  3
"Amdt_StdImp|Product Description: AutoCAD Mechanical|Company: Autodesk, Inc."
 90
     1024
 91
        1
280
     0
281
     0
  0
CLASS
  1
ACMBOMSTANDARDISO
  2
AcmBOMStdISO
  3
"Amdt_StdImp|Product Description: AutoCAD Mechanical|Company: Autodesk, Inc."
 90
     1024
 91
        1
280
     0
281
     0
  0
CLASS
  1
ACMDETAILSTANDARDISO
  2
AmdtDetailSymStdISO
  3
"Amdt_StdImp|Product Description: AutoCAD Mechanical|Company: Autodesk, Inc."
 90
     1024
 91
        1
280
     0
281
     0
  0
CLASS
  1
ACMSECTIONSTANDARDISO2001
  2
AmdtSectionSymStdISO2001
  3
"Amdt_StdImp|Product Description: AutoCAD Mechanical|Company: Autodesk, Inc."
 90
     1024
 91
        1
280
     0
281
     0
  0
CLASS
  1
ACMCENTERLINESTANDARDISO
  2
AmdtCenterLineStdISO
  3
"Amdt_StdImp|Product Description: AutoCAD Mechanical|Company: Autodesk, Inc."
 90
     1024
 91
        1
280
     0
281
     0
  0
CLASS
  1
ACMTHREADLINESTANDARDISO
  2
AmdtThreadLineStdISO
  3
"Amdt_StdImp|Product Description: AutoCAD Mechanical|Company: Autodesk, Inc."
 90
     1024
 91
        1
280
     0
281
     0
  0
CLASS
  1
ACMNOTESTANDARDISO
  2
AmdtNoteStdISO
  3
"Amdt_StdImp|Product Description: AutoCAD Mechanical|Company: Autodesk, Inc."
 90
     1024
 91
        1
280
     0
281
     0
  0
CLASS
  1
ACMTAPERSTANDARDISO
  2
AcmTaperStdISO
  3
"Amdt_StdImp|Product Description: AutoCAD Mechanical|Company: Autodesk, Inc."
 90
     1024
 91
        1
280
     0
281
     0
  0
CLASS
  1
ACMANOOTATIONVIEWSTANDARDISO
  2
AmdtAnViewStdISO
  3
"Amdt_StdImp|Product Description: AutoCAD Mechanical|Company: Autodesk, Inc."
 90
     1024
 91
        1
280
     0
281
     0
  0
CLASS
  1
ACAMGHOLECHARTSTDISO
  2
AcAmgHoleChartStdISO
  3
AmgDim|Product Description: AutoCAD Mechanical|Company: Autodesk, Inc.
 90
     1024
 91
        1
280
     0
281
     0
  0
CLASS
  1
EXACXREFPANELOBJECT
  2
ExAcXREFPanelObject
  3
EXAC_ESW
 90
     1025
 91
        0
280
     0
281
     0
  0
CLASS
  1
NPOCOLLECTION
  2
AcDbImpNonPersistentObjectsCollection
  3
ObjectDBX Classes
 90
     1153
 91
        0
280
     0
281
     0
  0
CLASS
  1
ACDBSTDPARTRES_ARC
  2
AcDbStdPartRes_Arc
  3
AmgStdPart|Product Description: AutoCAD Mechanical|Company: Autodesk, Inc.
 90
     1024
 91
        0
280
     0
281
     0
  0
CLASS
  1
AMDTNOTE
  2
AmdtNote
  3
"AcmSymBB|Product Description: AutoCAD Mechanical|Company: Autodesk, Inc."
 90
     4095
 91
        0
280
     0
281
     1
  0
CLASS
  1
PLOTSETTINGS
  2
AcDbPlotSettings
  3
ObjectDBX Classes
 90
        0
 91
        1
280
     0
281
     0
  0
CLASS
  1
ACMSTANDARDANSI
  2
AcmStandardANSI
  3
"Amdt_StdImp|Product Description: AutoCAD Mechanical|Company: Autodesk, Inc."
 90
     1024
 91
        0
280
     0
281
     0
  0
CLASS
  1
ACMSURFSTANDARDANSI
  2
AcmSurfTextStdANSI
  3
"Amdt_StdImp|Product Description: AutoCAD Mechanical|Company: Autodesk, Inc."
 90
     1024
 91
        0
280
     0
281
     0
  0
CLASS
  1
ACMFCFSTANDARDANSI
  2
AcmFCFStdANSI
  3
"Amdt_StdImp|Product Description: AutoCAD Mechanical|Company: Autodesk, Inc."
 90
     1024
 91
        0
280
     0
281
     0
  0
CLASS
  1
ACMWELDSTANDARDANSI
  2
AcmWeldingStdANSI
  3
"Amdt_StdImp|Product Description: AutoCAD Mechanical|Company: Autodesk, Inc."
 90
     1024
 91
        0
280
     0
281
     0
  0
CLASS
  1
ACMIDSTANDARDANSI
  2
AcmIdStdANSI
  3
"Amdt_StdImp|Product Description: AutoCAD Mechanical|Company: Autodesk, Inc."
 90
     1024
 91
        0
280
     0
281
     0
  0
CLASS
  1
ACMDATUMSTANDARDANSI
  2
AcmDatumStdANSI
  3
"Amdt_StdImp|Product Description: AutoCAD Mechanical|Company: Autodesk, Inc."
 90
     1024
 91
        0
280
     0
281
     0
  0
CLASS
  1
ACMBOMSTANDARDANSI
  2
AcmBOMStdANSI
  3
"Amdt_StdImp|Product Description: AutoCAD Mechanical|Company: Autodesk, Inc."
 90
     1024
 91
        0
280
     0
281
     0
  0
CLASS
  1
ACMDETAILSTANDARDANSI
  2
AmdtDetailSymStdANSI
  3
"Amdt_StdImp|Product Description: AutoCAD Mechanical|Company: Autodesk, Inc."
 90
     1024
 91
        0
280
     0
281
     0
  0
CLASS
  1
ACMSECTIONSTANDARDANSI
  2
AmdtSectionSymStdANSI
  3
"Amdt_StdImp|Product Description: AutoCAD Mechanical|Company: Autodesk, Inc."
 90
     1024
 91
        0
280
     0
281
     0
  0
CLASS
  1
ACMCENTERLINESTANDARDANSI
  2
AmdtCenterLineStdANSI
  3
"Amdt_StdImp|Product Description: AutoCAD Mechanical|Company: Autodesk, Inc."
 90
     1024
 91
        0
280
     0
281
     0
  0
CLASS
  1
ACMTHREADLINESTANDARDANSI
  2
AmdtThreadLineStdANSI
  3
"Amdt_StdImp|Product Description: AutoCAD Mechanical|Company: Autodesk, Inc."
 90
     1024
 91
        0
280
     0
281
     0
  0
CLASS
  1
ACMNOTESTANDARDANSI
  2
AmdtNoteStdANSI
  3
"Amdt_StdImp|Product Description: AutoCAD Mechanical|Company: Autodesk, Inc."
 90
     1024
 91
        0
280
     0
281
     0
  0
CLASS
  1
ACMTAPERSTANDARDANSI
  2
AcmTaperStdANSI
  3
"Amdt_StdImp|Product Description: AutoCAD Mechanical|Company: Autodesk, Inc."
 90
     1024
 91
        0
280
     0
281
     0
  0
CLASS
  1
ACMANOOTATIONVIEWSTANDARDANSI
  2
AmdtAnViewStdANSI
  3
"Amdt_StdImp|Product Description: AutoCAD Mechanical|Company: Autodesk, Inc."
 90
     1024
 91
        0
280
     0
281
     0
  0
CLASS
  1
ACAMGHOLECHARTSTDANSI
  2
AcAmgHoleChartStdANSI
  3
AmgDim|Product Description: AutoCAD Mechanical|Company: Autodesk, Inc.
 90
     1024
 91
        0
280
     0
281
     0
  0
CLASS
  1
ACMSTANDARDBSI
  2
AcmStandardBSI
  3
"Amdt_StdImp|Product Description: AutoCAD Mechanical|Company: Autodesk, Inc."
 90
     1024
 91
        0
280
     0
281
     0
  0
CLASS
  1
ACMSURFSTANDARDBSI2002
  2
AcmSurfTextStdBSI2002
  3
"Amdt_StdImp|Product Description: AutoCAD Mechanical|Company: Autodesk, Inc."
 90
     1024
 91
        0
280
     0
281
     0
  0
CLASS
  1
ACMFCFSTANDARDBSI
  2
AcmFCFStdBSI
  3
"Amdt_StdImp|Product Description: AutoCAD Mechanical|Company: Autodesk, Inc."
 90
     1024
 91
        0
280
     0
281
     0
  0
CLASS
  1
ACMWELDSTANDARDBSI
  2
AcmWeldingStdBSI
  3
"Amdt_StdImp|Product Description: AutoCAD Mechanical|Company: Autodesk, Inc."
 90
     1024
 91
        0
280
     0
281
     0
  0
CLASS
  1
ACMIDSTANDARDBSI
  2
AcmIdStdBSI
  3
"Amdt_StdImp|Product Description: AutoCAD Mechanical|Company: Autodesk, Inc."
 90
     1024
 91
        0
280
     0
281
     0
  0
CLASS
  1
ACMDATUMSTANDARDBSI
  2
AcmDatumStdBSI
  3
"Amdt_StdImp|Product Description: AutoCAD Mechanical|Company: Autodesk, Inc."
 90
     1024
 91
        0
280
     0
281
     0
  0
CLASS
  1
ACMBOMSTANDARDBSI
  2
AcmBOMStdBSI
  3
"Amdt_StdImp|Product Description: AutoCAD Mechanical|Company: Autodesk, Inc."
 90
     1024
 91
        0
280
     0
281
     0
  0
CLASS
  1
ACMDETAILSTANDARDBSI
  2
AmdtDetailSymStdBSI
  3
"Amdt_StdImp|Product Description: AutoCAD Mechanical|Company: Autodesk, Inc."
 90
     1024
 91
        0
280
     0
281
     0
  0
CLASS
  1
ACMSECTIONSTANDARDBSI2001
  2
AmdtSectionSymStdBSI2001
  3
"Amdt_StdImp|Product Description: AutoCAD Mechanical|Company: Autodesk, Inc."
 90
     1024
 91
        0
280
     0
281
     0
  0
CLASS
  1
ACMCENTERLINESTANDARDBSI
  2
AmdtCenterLineStdBSI
  3
"Amdt_StdImp|Product Description: AutoCAD Mechanical|Company: Autodesk, Inc."
 90
     1024
 91
        0
280
     0
281
     0
  0
CLASS
  1
ACMTHREADLINESTANDARDBSI
  2
AmdtThreadLineStdBSI
  3
"Amdt_StdImp|Product Description: AutoCAD Mechanical|Company: Autodesk, Inc."
 90
     1024
 91
        0
280
     0
281
     0
  0
CLASS
  1
ACMNOTESTANDARDBSI
  2
AmdtNoteStdBSI
  3
"Amdt_StdImp|Product Description: AutoCAD Mechanical|Company: Autodesk, Inc."
 90
     1024
 91
        0
280
     0
281
     0
  0
CLASS
  1
ACMTAPERSTANDARDBSI
  2
AcmTaperStdBSI
  3
"Amdt_StdImp|Product Description: AutoCAD Mechanical|Company: Autodesk, Inc."
 90
     1024
 91
        0
280
     0
281
     0
  0
CLASS
  1
ACMANOOTATIONVIEWSTANDARDBSI
  2
AmdtAnViewStdBSI
  3
"Amdt_StdImp|Product Description: AutoCAD Mechanical|Company: Autodesk, Inc."
 90
     1024
 91
        0
280
     0
281
     0
  0
CLASS
  1
ACAMGHOLECHARTSTDBSI
  2
AcAmgHoleChartStdBSI
  3
AmgDim|Product Description: AutoCAD Mechanical|Company: Autodesk, Inc.
 90
     1024
 91
        0
280
     0
281
     0
  0
CLASS
  1
AMDTEDGESTANDARDJIS
  2
AmdtEdgeStdJIS
  3
"Amdt_StdImp|Product Description: AutoCAD Mechanical|Company: Autodesk, Inc."
 90
     1024
 91
        0
280
     0
281
     0
  0
CLASS
  1
ACDBOPPOLYLINERES
  2
AcDbOpPolylineRes
  3
AcGrefServices
 90
     1024
 91
        0
280
     0
281
     0
  0
CLASS
  1
AMDTACMWBLOCKBOMENTITY
  2
AmdtAcmWblockBomEntity
  3
"AcmSymBB|Product Description: AutoCAD Mechanical|Company: Autodesk, Inc."
 90
     4095
 91
        0
280
     0
281
     1
  0
CLASS
  1
ACMSURFSYM
  2
AcmSurfaceTexture
  3
"AcmSymBB|Product Description: AutoCAD Mechanical|Company: Autodesk, Inc."
 90
     4095
 91
        0
280
     0
281
     1
  0
CLASS
  1
ACDBDIMENSIONRES
  2
AcDbDimensionRes
  3
AcmSymBB|Product Description: AutoCAD Mechanical|Company: Autodesk, Inc.
 90
     1024
 91
        0
280
     0
281
     0
  0
CLASS
  1
ACDBCIRCARCRES
  2
AcDbCircArcRes
  3
AcGrefServices
 90
     1024
 91
        0
280
     0
281
     0
  0
CLASS
  1
ACDB_BLKREFOBJECTCONTEXTDATA_CLASS
  2
AcDbBlkRefObjectContextData
  3
ObjectDBX Classes
 90
     1153
 91
        0
280
     0
281
     0
  0
CLASS
  1
ACMPICKOBJ
  2
AcmPickEnt
  3
"AcmSymBB|Product Description: AutoCAD Mechanical|Company: Autodesk, Inc."
 90
     1024
 91
        0
280
     0
281
     1
  0
CLASS
  1
ACMBALLOON
  2
AcmBalloon
  3
"AcmSymBB|Product Description: AutoCAD Mechanical|Company: Autodesk, Inc."
 90
     4095
 91
        0
280
     0
281
     1
  0
ENDSEC
  0
SECTION
  2
TABLES
  0
TABLE
  2
VPORT
  5
8
330
0
100
AcDbSymbolTable
 70
     1
  0
VPORT
  5
27A
330
8
100
AcDbSymbolTableRecord
100
AcDbViewportTableRecord
  2
*Active
 70
     0
 10
0.0
 20
0.0
 11
1.0
 21
1.0
 12
805.1085309723008
 22
406.4330368756072
 13
0.0
 23
0.0
 14
20.0
 24
20.0
 15
80.0
 25
80.0
 16
0.0
 26
0.0
 36
1.0
 17
0.0
 27
0.0
 37
0.0
 40
1015.539578759061
 41
1.638814016172506
 42
50.0
 43
0.0
 44
0.0
 50
0.0
 51
0.0
 71
    16
 72
 20000
 73
     1
 74
     3
 75
     0
 76
     0
 77
     0
 78
     0
281
     0
 65
     0
110
0.0
120
0.0
130
0.0
111
1.0
121
0.0
131
0.0
112
0.0
122
1.0
132
0.0
 79
     0
146
0.0
348
285
 60
     3
 61
     5
292
     1
282
     0
141
0.0
142
0.0
 63
   250
421
  3355443
  0
ENDTAB
  0
TABLE
  2
LTYPE
  5
5
330
0
100
AcDbSymbolTable
 70
    22
  0
LTYPE
  5
14
330
5
100
AcDbSymbolTableRecord
100
AcDbLinetypeTableRecord
  2
ByBlock
 70
     0
  3

 72
    65
 73
     0
 40
0.0
  0
LTYPE
  5
15
330
5
100
AcDbSymbolTableRecord
100
AcDbLinetypeTableRecord
  2
ByLayer
 70
     0
  3

 72
    65
 73
     0
 40
0.0
  0
LTYPE
  5
16
330
5
100
AcDbSymbolTableRecord
100
AcDbLinetypeTableRecord
  2
Continuous
 70
     0
  3
Solid line
 72
    65
 73
     0
 40
0.0
  0
LTYPE
  5
4D
330
5
100
AcDbSymbolTableRecord
100
AcDbLinetypeTableRecord
  2
AM_ISO02W050
 70
     0
  3
__ __ __ __ __ __ __ __ __ __ __ __ __ __ __
 72
    65
 73
     2
 40
7.5
 49
6.0
 74
     0
 49
-1.5
 74
     0
  0
LTYPE
  5
4E
330
5
100
AcDbSymbolTableRecord
100
AcDbLinetypeTableRecord
  2
AM_ISO08W050
 70
     0
  3
____ . ____ . ____ . ____ . ____ . ____ . ____
 72
    65
 73
     4
 40
18.0
 49
12.0
 74
     0
 49
-1.5
 74
     0
 49
3.0
 74
     0
 49
-1.5
 74
     0
  0
LTYPE
  5
4F
330
5
100
AcDbSymbolTableRecord
100
AcDbLinetypeTableRecord
  2
AM_ISO09W050
 70
     0
  3
_____ . . _____ . . _____ . . ____ .. ____
 72
    65
 73
     6
 40
22.5
 49
12.0
 74
     0
 49
-1.5
 74
     0
 49
3.0
 74
     0
 49
-1.5
 74
     0
 49
3.0
 74
     0
 49
-1.5
 74
     0
  0
LTYPE
  5
50
330
5
100
AcDbSymbolTableRecord
100
AcDbLinetypeTableRecord
  2
Amconstr
 70
     0
  3
_______________________
 72
    65
 73
     2
 40
9999.0
 49
9999.0
 74
     0
 49
0.0
 74
     0
  0
LTYPE
  5
51
330
5
100
AcDbSymbolTableRecord
100
AcDbLinetypeTableRecord
  2
AM_ISO08W050x2
 70
     0
  3
__ . __ . __ . __ . __ . __
 72
    65
 73
     4
 40
9.0
 49
6.0
 74
     0
 49
-0.75
 74
     0
 49
1.5
 74
     0
 49
-0.75
 74
     0
  0
LTYPE
  5
52
330
5
100
AcDbSymbolTableRecord
100
AcDbLinetypeTableRecord
  2
AM_ISO02W050x2
 70
     0
  3
 _ _ _ _ _ _ _ _ _ _ _ _
 72
    65
 73
     2
 40
3.75
 49
3.0
 74
     0
 49
-0.75
 74
     0
  0
LTYPE
  5
55
330
5
100
AcDbSymbolTableRecord
100
AcDbLinetypeTableRecord
  2
Amzigzag
 70
     0
  3
/\/-/\/-/\/-/\/-/\/-/\/
 72
    65
 73
     2
 40
11.0001
 49
0.0001
 74
     4
 75
   136
340
23D
 46
0.04
 50
0.0
 44
0.0
 45
0.0
 49
-11.0
 74
     0
  0
LTYPE
  5
65
330
5
100
AcDbSymbolTableRecord
100
AcDbLinetypeTableRecord
  2
CENTER
 70
     0
  3
__ . __
 72
    65
 73
     4
 40
7.0
 49
4.0
 74
     0
 49
-1.0
 74
     0
 49
1.0
 74
     0
 49
-1.0
 74
     0
  0
LTYPE
  5
E0
330
5
100
AcDbSymbolTableRecord
100
AcDbLinetypeTableRecord
  2
HIDDEN
 70
     0
  3
Hidden __ __ __ __ __ __ __ __ __ __ __ __ __ _
 72
    65
 73
     2
 40
9.524999999999996
 49
6.349999999999998
 74
     0
 49
-3.174999999999998
 74
     0
  0
LTYPE
  5
E1
330
5
100
AcDbSymbolTableRecord
100
AcDbLinetypeTableRecord
  2
PHANTOM2
 70
     0
  3
Phantom (.5x) ___ _ _ ___ _ _ ___ _ _ ___ _ _
 72
    65
 73
     6
 40
31.75
 49
15.875
 74
     0
 49
-3.174999999999998
 74
     0
 49
3.174999999999998
 74
     0
 49
-3.174999999999998
 74
     0
 49
3.174999999999998
 74
     0
 49
-3.174999999999998
 74
     0
  0
LTYPE
  5
5A2
330
5
100
AcDbSymbolTableRecord
100
AcDbLinetypeTableRecord
  2
ACJISWELD
 70
     0
  3
_ _ _ _ _
 72
    65
 73
     2
 40
2.0
 49
2.0
 74
     0
 49
-1.0
 74
     0
  0
LTYPE
  5
6F67
330
5
100
AcDbSymbolTableRecord
100
AcDbLinetypeTableRecord
  2
ACISOWELD
 70
     0
  3
_ _ _ _ _
 72
    65
 73
     2
 40
2.0
 49
2.0
 74
     0
 49
-1.0
 74
     0
  0
LTYPE
  5
6F68
330
5
100
AcDbSymbolTableRecord
100
AcDbLinetypeTableRecord
  2
ACISOTGB
 70
     0
  3
__ . . __ . .
 72
    65
 73
     6
 40
9.0
 49
4.0
 74
     0
 49
-1.0
 74
     0
 49
1.0
 74
     0
 49
-1.0
 74
     0
 49
1.0
 74
     0
 49
-1.0
 74
     0
  0
LTYPE
  5
6F69
330
5
100
AcDbSymbolTableRecord
100
AcDbLinetypeTableRecord
  2
ACISOTGL
 70
     0
  3
_ _ _ _ _
 72
    65
 73
     2
 40
3.0
 49
2.0
 74
     0
 49
-1.0
 74
     0
  0
ENDTAB
  0
TABLE
  2
LAYER
  5
2
102
{ACAD_XDICTIONARY
360
BF
102
}
330
0
100
AcDbSymbolTable
 70
    11
  0
LAYER
  5
10
102
{ACAD_XDICTIONARY
360
29F7
102
}
330
2
100
AcDbSymbolTableRecord
100
AcDbLayerTableRecord
  2
0
 70
     0
 62
     7
  6
Continuous
370
    -3
390
F
347
27E
  0
LAYER
  5
81
102
{ACAD_XDICTIONARY
360
29F9
102
}
330
2
100
AcDbSymbolTableRecord
100
AcDbLayerTableRecord
  2
AM_0 外形線1
 70
     0
 62
     7
  6
Continuous
370
    25
390
F
347
27E
  0
LAYER
  5
427
330
2
100
AcDbSymbolTableRecord
100
AcDbLayerTableRecord
  2
Defpoints
 70
     0
 62
     7
  6
Continuous
290
     0
370
    -3
390
F
347
27E
  0
LAYER
  5
2DE0
102
{ACAD_XDICTIONARY
360
2DE1
102
}
330
2
100
AcDbSymbolTableRecord
100
AcDbLayerTableRecord
  2
002
 70
     0
 62
     7
  6
Continuous
370
    -3
390
F
347
27E
  0
LAYER
  5
399C
330
2
100
AcDbSymbolTableRecord
100
AcDbLayerTableRecord
  2
AM_5 寸法線
 70
     0
 62
     3
  6
Continuous
370
    13
390
F
347
27E
1001
AcAecLayerStandard
1000

1000

  0
LAYER
  5
399D
330
2
100
AcDbSymbolTableRecord
100
AcDbLayerTableRecord
  2
AM_4 細線
 70
     0
 62
     4
  6
Continuous
370
    13
390
F
347
27E
1001
AcAecLayerStandard
1000

1000

  0
LAYER
  5
399E
330
2
100
AcDbSymbolTableRecord
100
AcDbLayerTableRecord
  2
AM_7 中心線
 70
     0
 62
     1
  6
AM_ISO08W050
370
    13
390
F
347
27E
1001
AcAecLayerStandard
1000

1000

  0
LAYER
  5
399F
330
2
100
AcDbSymbolTableRecord
100
AcDbLayerTableRecord
  2
AM_3 隠れ線
 70
     0
 62
     8
  6
ACJISWELD
370
    13
390
F
347
27E
1001
AcAecLayerStandard
1000

1000

  0
LAYER
  5
39A1
330
2
100
AcDbSymbolTableRecord
100
AcDbLayerTableRecord
  2
AM_6 文字
 70
     0
 62
     2
  6
Continuous
370
    13
390
F
347
27E
1001
AcAecLayerStandard
1000

1000

  0
LAYER
  5
6B53
330
2
100
AcDbSymbolTableRecord
100
AcDbLayerTableRecord
  2
AM_11 想像線
 70
     0
 62
     5
  6
AM_ISO09W050
370
    13
390
F
347
27E
1001
AcAecLayerStandard
1000

1000

  0
ENDTAB
  0
TABLE
  2
STYLE
  5
3
330
0
100
AcDbSymbolTable
 70
    11
  0
STYLE
  5
11
330
3
100
AcDbSymbolTableRecord
100
AcDbTextStyleTableRecord
  2
STANDARD
 70
     0
 40
0.0
 41
1.0
 50
0.0
 71
     0
 42
25.0
  3
ISOCP.SHX
  4
EXTFONT.SHX
  0
STYLE
  5
23D
330
3
100
AcDbSymbolTableRecord
100
AcDbTextStyleTableRecord
  2

 70
     1
 40
0.0
 41
1.0
 50
0.0
 71
     0
 42
2.5
  3
genltshp.shx
  4

  0
STYLE
  5
5D5
330
3
100
AcDbSymbolTableRecord
100
AcDbTextStyleTableRecord
  2
SEISA
 70
     0
 40
0.0
 41
0.9
 50
0.0
 71
     0
 42
25.0
  3
romans.shx
  4
extfont2.shx
  0
STYLE
  5
6F57
330
3
100
AcDbSymbolTableRecord
100
AcDbTextStyleTableRecord
  2
ACISOTS
 70
     0
 40
1.0
 41
1.0
 50
0.0
 71
     0
 42
25.0
  3
isocp.shx
  4
extfont.shx
  0
STYLE
  5
6F66
330
3
100
AcDbSymbolTableRecord
100
AcDbTextStyleTableRecord
  2
ACISOGDT
 70
     0
 40
0.0
 41
1.0
 50
0.0
 71
     0
 42
25.0
  3
amgdt.shx
  4

  0
ENDTAB
  0
TABLE
  2
VIEW
  5
6
330
0
100
AcDbSymbolTable
 70
     6
  0
VIEW
  5
91B
330
6
100
AcDbSymbolTableRecord
100
AcDbViewTableRecord
  2
AM_VIEW1
 70
     0
 40
1188.0
 10
1148.497538477283
 20
1782.000002955057
 41
2296.995073891626
 11
0.0
 21
0.0
 31
1.0
 12
0.0
 22
0.0
 32
0.0
 42
50.0
 43
0.0
 44
0.0
 50
0.0
 71
    16
281
     0
 72
     0
 73
     0
  0
VIEW
  5
91C
330
6
100
AcDbSymbolTableRecord
100
AcDbViewTableRecord
  2
AM_VIEW2
 70
     0
 40
1188.0
 10
2211.502464585658
 20
1782.000002955057
 41
2296.995073891626
 11
0.0
 21
0.0
 31
1.0
 12
0.0
 22
0.0
 32
0.0
 42
50.0
 43
0.0
 44
0.0
 50
0.0
 71
    16
281
     0
 72
     0
 73
     0
  0
VIEW
  5
91D
330
6
100
AcDbSymbolTableRecord
100
AcDbViewTableRecord
  2
AM_VIEW3
 70
     0
 40
1188.0
 10
1148.497538477283
 20
594.0000029550566
 41
2296.995073891626
 11
0.0
 21
0.0
 31
1.0
 12
0.0
 22
0.0
 32
0.0
 42
50.0
 43
0.0
 44
0.0
 50
0.0
 71
    16
281
     0
 72
     0
 73
     0
  0
VIEW
  5
91E
330
6
100
AcDbSymbolTableRecord
100
AcDbViewTableRecord
  2
AM_VIEW4
 70
     0
 40
1188.0
 10
2211.502464585658
 20
594.0000029550566
 41
2296.995073891626
 11
0.0
 21
0.0
 31
1.0
 12
0.0
 22
0.0
 32
0.0
 42
50.0
 43
0.0
 44
0.0
 50
0.0
 71
    16
281
     0
 72
     0
 73
     0
  0
VIEW
  5
91F
330
6
100
AcDbSymbolTableRecord
100
AcDbViewTableRecord
  2
AM_VIEW5
 70
     0
 40
1188.0
 10
1680.000001531471
 20
1188.000002955057
 41
2296.995073891626
 11
0.0
 21
0.0
 31
1.0
 12
0.0
 22
0.0
 32
0.0
 42
50.0
 43
0.0
 44
0.0
 50
0.0
 71
    16
281
     0
 72
     0
 73
     0
  0
VIEW
  5
920
330
6
100
AcDbSymbolTableRecord
100
AcDbViewTableRecord
  2
AM_VIEW6
 70
     0
 40
2375.97624
 10
1680.000001531471
 20
1188.000002955057
 41
4593.944207881775
 11
0.0
 21
0.0
 31
1.0
 12
0.0
 22
0.0
 32
0.0
 42
50.0
 43
0.0
 44
0.0
 50
0.0
 71
    16
281
     0
 72
     0
 73
     0
  0
ENDTAB
  0
TABLE
  2
UCS
  5
7
330
0
100
AcDbSymbolTable
 70
     0
  0
ENDTAB
  0
TABLE
  2
APPID
  5
9
330
0
100
AcDbSymbolTable
 70
   396
  0
APPID
  5
12
330
9
100
AcDbSymbolTableRecord
100
AcDbRegAppTableRecord
  2
ACAD
 70
     0
  0
APPID
  5
30
330
9
100
AcDbSymbolTableRecord
100
AcDbRegAppTableRecord
  2
MCAD_NO_VIS
 70
     0
  0
APPID
  5
31
330
9
100
AcDbSymbolTableRecord
100
AcDbRegAppTableRecord
  2
ACAD_TEMP_GRAPHIC
 70
     0
  0
APPID
  5
44
330
9
100
AcDbSymbolTableRecord
100
AcDbRegAppTableRecord
  2
ACATTRIBSERVICES
 70
     0
  0
APPID
  5
F6
330
9
100
AcDbSymbolTableRecord
100
AcDbRegAppTableRecord
  2
AD_DRAW
 70
     0
  0
APPID
  5
114
330
9
100
AcDbSymbolTableRecord
100
AcDbRegAppTableRecord
  2
DESIGNERASSEMBLIES
 70
     0
  0
APPID
  5
118
330
9
100
AcDbSymbolTableRecord
100
AcDbRegAppTableRecord
  2
ACADM_DIM_EDIT
 70
     0
  0
APPID
  5
119
330
9
100
AcDbSymbolTableRecord
100
AcDbRegAppTableRecord
  2
AMDT_DM_ADJ
 70
     0
  0
APPID
  5
1AF
330
9
100
AcDbSymbolTableRecord
100
AcDbRegAppTableRecord
  2
ACAD_DSTYLE_DIMARC_LENGTH_SYMBOL
 70
     0
  0
APPID
  5
1B0
330
9
100
AcDbSymbolTableRecord
100
AcDbRegAppTableRecord
  2
ACAD_DSTYLE_DIMJOGGED_JOGANGLE_SYMBOL
 70
     0
  0
APPID
  5
2D7
330
9
100
AcDbSymbolTableRecord
100
AcDbRegAppTableRecord
  2
ACAD_MLEADERVER
 70
     0
  0
APPID
  5
355
330
9
100
AcDbSymbolTableRecord
100
AcDbRegAppTableRecord
  2
AcadAnnoPO
 70
     0
  0
APPID
  5
428
330
9
100
AcDbSymbolTableRecord
100
AcDbRegAppTableRecord
  2
ACAD_DSTYLE_DIMTEXT_FILL
 70
     0
  0
APPID
  5
429
330
9
100
AcDbSymbolTableRecord
100
AcDbRegAppTableRecord
  2
GENIUS_GENSCREG_15
 70
     0
  0
APPID
  5
42A
330
9
100
AcDbSymbolTableRecord
100
AcDbRegAppTableRecord
  2
GENIUS_GENOBJ-N-SDF_13
 70
     0
  0
APPID
  5
42B
330
9
100
AcDbSymbolTableRecord
100
AcDbRegAppTableRecord
  2
GENIUS_GENODEF_13
 70
     0
  0
APPID
  5
42C
330
9
100
AcDbSymbolTableRecord
100
AcDbRegAppTableRecord
  2
ACAD_EXEMPT_FROM_CAD_STANDARDS
 70
     0
  0
APPID
  5
42D
330
9
100
AcDbSymbolTableRecord
100
AcDbRegAppTableRecord
  2
AcAecLayerStandard
 70
     0
  0
APPID
  5
42E
330
9
100
AcDbSymbolTableRecord
100
AcDbRegAppTableRecord
  2
GENIUS_GENOBJ-N-CEN_13
 70
     0
  0
APPID
  5
42F
330
9
100
AcDbSymbolTableRecord
100
AcDbRegAppTableRecord
  2
GENIUS_GENCEN_19
 70
     0
  0
APPID
  5
430
330
9
100
AcDbSymbolTableRecord
100
AcDbRegAppTableRecord
  2
ACAD_DSTYLE_DIMINSPECT
 70
     0
  0
APPID
  5
431
330
9
100
AcDbSymbolTableRecord
100
AcDbRegAppTableRecord
  2
GENIUS_AMGTXT_16
 70
     0
  0
APPID
  5
432
330
9
100
AcDbSymbolTableRecord
100
AcDbRegAppTableRecord
  2
GENIUS_GENFIL_13
 70
     0
  0
APPID
  5
433
330
9
100
AcDbSymbolTableRecord
100
AcDbRegAppTableRecord
  2
GENIUS_GENOLIS_13
 70
     0
  0
APPID
  5
434
330
9
100
AcDbSymbolTableRecord
100
AcDbRegAppTableRecord
  2
GENIUS_GENOBJ-N-CHA_13
 70
     0
  0
APPID
  5
435
330
9
100
AcDbSymbolTableRecord
100
AcDbRegAppTableRecord
  2
GENIUS_GENOENT_13
 70
     0
  0
APPID
  5
436
330
9
100
AcDbSymbolTableRecord
100
AcDbRegAppTableRecord
  2
GENIUS_GENOREF_13
 70
     0
  0
APPID
  5
437
330
9
100
AcDbSymbolTableRecord
100
AcDbRegAppTableRecord
  2
GENIUS_GENOBJ-N-FIL_13
 70
     0
  0
APPID
  5
438
330
9
100
AcDbSymbolTableRecord
100
AcDbRegAppTableRecord
  2
GEVID1208829536
 70
     0
  0
APPID
  5
439
330
9
100
AcDbSymbolTableRecord
100
AcDbRegAppTableRecord
  2
GEVDC
 70
     0
  0
APPID
  5
43A
330
9
100
AcDbSymbolTableRecord
100
AcDbRegAppTableRecord
  2
GEVRADREF
 70
     0
  0
APPID
  5
43B
330
9
100
AcDbSymbolTableRecord
100
AcDbRegAppTableRecord
  2
GENIUS_GENBH_13
 70
     0
  0
APPID
  5
43C
330
9
100
AcDbSymbolTableRecord
100
AcDbRegAppTableRecord
  2
GENIUS_GENOBJ-NBEHI-BHF_13
 70
     0
  0
APPID
  5
43D
330
9
100
AcDbSymbolTableRecord
100
AcDbRegAppTableRecord
  2
GENIUS_GENOBJ-NBEHI-BHB_13
 70
     0
  0
APPID
  5
43E
330
9
100
AcDbSymbolTableRecord
100
AcDbRegAppTableRecord
  2
GEVID1208829537
 70
     0
  0
APPID
  5
43F
330
9
100
AcDbSymbolTableRecord
100
AcDbRegAppTableRecord
  2
ACAD_DSTYLE_DIMJAG
 70
     0
  0
APPID
  5
440
330
9
100
AcDbSymbolTableRecord
100
AcDbRegAppTableRecord
  2
ACAD_DSTYLE_DIMTALN
 70
     0
  0
APPID
  5
441
330
9
100
AcDbSymbolTableRecord
100
AcDbRegAppTableRecord
  2
AMG_2DHIDE
 70
     0
  0
APPID
  5
442
330
9
100
AcDbSymbolTableRecord
100
AcDbRegAppTableRecord
  2
AMG_2DSTRUCT_BTR
 70
     0
  0
APPID
  5
443
330
9
100
AcDbSymbolTableRecord
100
AcDbRegAppTableRecord
  2
GEVID1208845772
 70
     0
  0
APPID
  5
444
330
9
100
AcDbSymbolTableRecord
100
AcDbRegAppTableRecord
  2
GEVID1208845773
 70
     0
  0
APPID
  5
445
330
9
100
AcDbSymbolTableRecord
100
AcDbRegAppTableRecord
  2
ACADM_2DVIEW_IGN_NOTIFY
 70
     0
  0
APPID
  5
446
330
9
100
AcDbSymbolTableRecord
100
AcDbRegAppTableRecord
  2
GEVID1208845774
 70
     0
  0
APPID
  5
447
330
9
100
AcDbSymbolTableRecord
100
AcDbRegAppTableRecord
  2
GEVID1208845775
 70
     0
  0
APPID
  5
448
330
9
100
AcDbSymbolTableRecord
100
AcDbRegAppTableRecord
  2
GEVID1208845776
 70
     0
  0
APPID
  5
449
330
9
100
AcDbSymbolTableRecord
100
AcDbRegAppTableRecord
  2
GEVID1208845777
 70
     0
  0
APPID
  5
44A
330
9
100
AcDbSymbolTableRecord
100
AcDbRegAppTableRecord
  2
GEVCON
 70
     0
  0
APPID
  5
44B
330
9
100
AcDbSymbolTableRecord
100
AcDbRegAppTableRecord
  2
GENIUS_GENOBJ-F-SCPASSM_13
 70
     0
  0
APPID
  5
44C
330
9
100
AcDbSymbolTableRecord
100
AcDbRegAppTableRecord
  2
GEVID1208845778
 70
     0
  0
APPID
  5
44D
330
9
100
AcDbSymbolTableRecord
100
AcDbRegAppTableRecord
  2
GEVID1208845779
 70
     0
  0
APPID
  5
44E
330
9
100
AcDbSymbolTableRecord
100
AcDbRegAppTableRecord
  2
GEVID1208845780
 70
     0
  0
APPID
  5
44F
330
9
100
AcDbSymbolTableRecord
100
AcDbRegAppTableRecord
  2
GEVID1208845781
 70
     0
  0
APPID
  5
450
330
9
100
AcDbSymbolTableRecord
100
AcDbRegAppTableRecord
  2
GEVID1208845782
 70
     0
  0
APPID
  5
451
330
9
100
AcDbSymbolTableRecord
100
AcDbRegAppTableRecord
  2
GEVID1208845783
 70
     0
  0
APPID
  5
452
330
9
100
AcDbSymbolTableRecord
100
AcDbRegAppTableRecord
  2
GEVID1208845784
 70
     0
  0
APPID
  5
453
330
9
100
AcDbSymbolTableRecord
100
AcDbRegAppTableRecord
  2
GEVID1208845785
 70
     0
  0
APPID
  5
454
330
9
100
AcDbSymbolTableRecord
100
AcDbRegAppTableRecord
  2
GEVID1208845787
 70
     0
  0
APPID
  5
455
330
9
100
AcDbSymbolTableRecord
100
AcDbRegAppTableRecord
  2
GEVID1208845788
 70
     0
  0
APPID
  5
456
330
9
100
AcDbSymbolTableRecord
100
AcDbRegAppTableRecord
  2
GEVID1208845789
 70
     0
  0
APPID
  5
457
330
9
100
AcDbSymbolTableRecord
100
AcDbRegAppTableRecord
  2
GEVID1208845790
 70
     0
  0
APPID
  5
458
330
9
100
AcDbSymbolTableRecord
100
AcDbRegAppTableRecord
  2
GEVID1208845791
 70
     0
  0
APPID
  5
459
330
9
100
AcDbSymbolTableRecord
100
AcDbRegAppTableRecord
  2
GEVID1208845792
 70
     0
  0
APPID
  5
45A
330
9
100
AcDbSymbolTableRecord
100
AcDbRegAppTableRecord
  2
GEVID1208845793
 70
     0
  0
APPID
  5
45B
330
9
100
AcDbSymbolTableRecord
100
AcDbRegAppTableRecord
  2
GEVID1208845794
 70
     0
  0
APPID
  5
45C
330
9
100
AcDbSymbolTableRecord
100
AcDbRegAppTableRecord
  2
GEVID1208845795
 70
     0
  0
APPID
  5
45D
330
9
100
AcDbSymbolTableRecord
100
AcDbRegAppTableRecord
  2
GEVID1208845796
 70
     0
  0
APPID
  5
45E
330
9
100
AcDbSymbolTableRecord
100
AcDbRegAppTableRecord
  2
GEVID1208845797
 70
     0
  0
APPID
  5
45F
330
9
100
AcDbSymbolTableRecord
100
AcDbRegAppTableRecord
  2
GEVID1208845798
 70
     0
  0
APPID
  5
460
330
9
100
AcDbSymbolTableRecord
100
AcDbRegAppTableRecord
  2
GEVID1208845799
 70
     0
  0
APPID
  5
461
330
9
100
AcDbSymbolTableRecord
100
AcDbRegAppTableRecord
  2
GEVID1208845800
 70
     0
  0
APPID
  5
462
330
9
100
AcDbSymbolTableRecord
100
AcDbRegAppTableRecord
  2
GEVID1208845801
 70
     0
  0
APPID
  5
463
330
9
100
AcDbSymbolTableRecord
100
AcDbRegAppTableRecord
  2
GEVID1208845802
 70
     0
  0
APPID
  5
464
330
9
100
AcDbSymbolTableRecord
100
AcDbRegAppTableRecord
  2
GENIUS_GENOBJ-N-DIM_13
 70
     0
  0
APPID
  5
465
330
9
100
AcDbSymbolTableRecord
100
AcDbRegAppTableRecord
  2
GENIUS_GENDIM_13
 70
     0
  0
APPID
  5
466
330
9
100
AcDbSymbolTableRecord
100
AcDbRegAppTableRecord
  2
GENIUS_GENDIMSH_14
 70
     0
  0
APPID
  5
467
330
9
100
AcDbSymbolTableRecord
100
AcDbRegAppTableRecord
  2
GEVID1208845803
 70
     0
  0
APPID
  5
468
330
9
100
AcDbSymbolTableRecord
100
AcDbRegAppTableRecord
  2
GEVID1208845804
 70
     0
  0
APPID
  5
469
330
9
100
AcDbSymbolTableRecord
100
AcDbRegAppTableRecord
  2
GEVID1208845805
 70
     0
  0
APPID
  5
46A
330
9
100
AcDbSymbolTableRecord
100
AcDbRegAppTableRecord
  2
GEVID1208845806
 70
     0
  0
APPID
  5
46B
330
9
100
AcDbSymbolTableRecord
100
AcDbRegAppTableRecord
  2
GEVID1208845807
 70
     0
  0
APPID
  5
46C
330
9
100
AcDbSymbolTableRecord
100
AcDbRegAppTableRecord
  2
GEVID1208845808
 70
     0
  0
APPID
  5
46D
330
9
100
AcDbSymbolTableRecord
100
AcDbRegAppTableRecord
  2
GEVID1208845809
 70
     0
  0
APPID
  5
46E
330
9
100
AcDbSymbolTableRecord
100
AcDbRegAppTableRecord
  2
GEVID1208845810
 70
     0
  0
APPID
  5
46F
330
9
100
AcDbSymbolTableRecord
100
AcDbRegAppTableRecord
  2
GEVID1208845811
 70
     0
  0
APPID
  5
470
330
9
100
AcDbSymbolTableRecord
100
AcDbRegAppTableRecord
  2
GEVID1208845813
 70
     0
  0
APPID
  5
471
330
9
100
AcDbSymbolTableRecord
100
AcDbRegAppTableRecord
  2
GEVID1208845814
 70
     0
  0
APPID
  5
472
330
9
100
AcDbSymbolTableRecord
100
AcDbRegAppTableRecord
  2
GEVID1208845815
 70
     0
  0
APPID
  5
473
330
9
100
AcDbSymbolTableRecord
100
AcDbRegAppTableRecord
  2
GEVID1208845816
 70
     0
  0
APPID
  5
474
330
9
100
AcDbSymbolTableRecord
100
AcDbRegAppTableRecord
  2
GEVID1208845817
 70
     0
  0
APPID
  5
475
330
9
100
AcDbSymbolTableRecord
100
AcDbRegAppTableRecord
  2
GEVID1208845818
 70
     0
  0
APPID
  5
476
330
9
100
AcDbSymbolTableRecord
100
AcDbRegAppTableRecord
  2
GEVID1208845819
 70
     0
  0
APPID
  5
477
330
9
100
AcDbSymbolTableRecord
100
AcDbRegAppTableRecord
  2
GEVID1208845820
 70
     0
  0
APPID
  5
478
330
9
100
AcDbSymbolTableRecord
100
AcDbRegAppTableRecord
  2
GENIUS_GENOBJ-F-SHCL_13
 70
     0
  0
APPID
  5
479
330
9
100
AcDbSymbolTableRecord
100
AcDbRegAppTableRecord
  2
GENIUS_GEFMSH_13
 70
     0
  0
APPID
  5
47A
330
9
100
AcDbSymbolTableRecord
100
AcDbRegAppTableRecord
  2
GENIUS_GENOBJ-F-SHCA_13
 70
     0
  0
APPID
  5
47B
330
9
100
AcDbSymbolTableRecord
100
AcDbRegAppTableRecord
  2
GENIUS_GEFSH_13
 70
     0
  0
APPID
  5
47C
330
9
100
AcDbSymbolTableRecord
100
AcDbRegAppTableRecord
  2
GENIUS_GEFSHP_13
 70
     0
  0
APPID
  5
47D
330
9
100
AcDbSymbolTableRecord
100
AcDbRegAppTableRecord
  2
GENIUS_GEFSHP0_13
 70
     0
  0
APPID
  5
47E
330
9
100
AcDbSymbolTableRecord
100
AcDbRegAppTableRecord
  2
GENIUS_GEFSH0_13
 70
     0
  0
APPID
  5
47F
330
9
100
AcDbSymbolTableRecord
100
AcDbRegAppTableRecord
  2
GENIUS_GEFSHP1_13
 70
     0
  0
APPID
  5
480
330
9
100
AcDbSymbolTableRecord
100
AcDbRegAppTableRecord
  2
GENIUS_GEFSH1_13
 70
     0
  0
APPID
  5
481
330
9
100
AcDbSymbolTableRecord
100
AcDbRegAppTableRecord
  2
GEVID1208866337
 70
     0
  0
APPID
  5
482
330
9
100
AcDbSymbolTableRecord
100
AcDbRegAppTableRecord
  2
GEVID1208866338
 70
     0
  0
APPID
  5
483
330
9
100
AcDbSymbolTableRecord
100
AcDbRegAppTableRecord
  2
GEVID1208866339
 70
     0
  0
APPID
  5
484
330
9
100
AcDbSymbolTableRecord
100
AcDbRegAppTableRecord
  2
GEVID1208866340
 70
     0
  0
APPID
  5
485
330
9
100
AcDbSymbolTableRecord
100
AcDbRegAppTableRecord
  2
GEVID1208866341
 70
     0
  0
APPID
  5
486
330
9
100
AcDbSymbolTableRecord
100
AcDbRegAppTableRecord
  2
ACAD_PSEXT
 70
     0
  0
APPID
  5
487
330
9
100
AcDbSymbolTableRecord
100
AcDbRegAppTableRecord
  2
GEVID1208866342
 70
     0
  0
APPID
  5
488
330
9
100
AcDbSymbolTableRecord
100
AcDbRegAppTableRecord
  2
GEVID1208913836
 70
     0
  0
APPID
  5
489
330
9
100
AcDbSymbolTableRecord
100
AcDbRegAppTableRecord
  2
GEVID1208913837
 70
     0
  0
APPID
  5
48A
330
9
100
AcDbSymbolTableRecord
100
AcDbRegAppTableRecord
  2
GEVID1208913838
 70
     0
  0
APPID
  5
48B
330
9
100
AcDbSymbolTableRecord
100
AcDbRegAppTableRecord
  2
GEVID1208913839
 70
     0
  0
APPID
  5
48C
330
9
100
AcDbSymbolTableRecord
100
AcDbRegAppTableRecord
  2
GENIUS_GENDTOL_13
 70
     0
  0
APPID
  5
48D
330
9
100
AcDbSymbolTableRecord
100
AcDbRegAppTableRecord
  2
GEVID1208928889
 70
     0
  0
APPID
  5
48E
330
9
100
AcDbSymbolTableRecord
100
AcDbRegAppTableRecord
  2
GEVID1208928890
 70
     0
  0
APPID
  5
48F
330
9
100
AcDbSymbolTableRecord
100
AcDbRegAppTableRecord
  2
GEVID1208928891
 70
     0
  0
APPID
  5
490
330
9
100
AcDbSymbolTableRecord
100
AcDbRegAppTableRecord
  2
GEVID1208928892
 70
     0
  0
APPID
  5
491
330
9
100
AcDbSymbolTableRecord
100
AcDbRegAppTableRecord
  2
GEVID1208933827
 70
     0
  0
APPID
  5
492
330
9
100
AcDbSymbolTableRecord
100
AcDbRegAppTableRecord
  2
GEVID1208933829
 70
     0
  0
APPID
  5
493
330
9
100
AcDbSymbolTableRecord
100
AcDbRegAppTableRecord
  2
GEVID1208933830
 70
     0
  0
APPID
  5
494
330
9
100
AcDbSymbolTableRecord
100
AcDbRegAppTableRecord
  2
GEVID1208933831
 70
     0
  0
APPID
  5
495
330
9
100
AcDbSymbolTableRecord
100
AcDbRegAppTableRecord
  2
GEVID1208933832
 70
     0
  0
APPID
  5
496
330
9
100
AcDbSymbolTableRecord
100
AcDbRegAppTableRecord
  2
GEVID1208933833
 70
     0
  0
APPID
  5
497
330
9
100
AcDbSymbolTableRecord
100
AcDbRegAppTableRecord
  2
GEVID1208933834
 70
     0
  0
APPID
  5
498
330
9
100
AcDbSymbolTableRecord
100
AcDbRegAppTableRecord
  2
GEVID1208933835
 70
     0
  0
APPID
  5
499
330
9
100
AcDbSymbolTableRecord
100
AcDbRegAppTableRecord
  2
GEVID1208933836
 70
     0
  0
APPID
  5
49A
330
9
100
AcDbSymbolTableRecord
100
AcDbRegAppTableRecord
  2
GEVID1208933837
 70
     0
  0
APPID
  5
49B
330
9
100
AcDbSymbolTableRecord
100
AcDbRegAppTableRecord
  2
GEVID1208933838
 70
     0
  0
APPID
  5
49C
330
9
100
AcDbSymbolTableRecord
100
AcDbRegAppTableRecord
  2
GEVID1208933840
 70
     0
  0
APPID
  5
49D
330
9
100
AcDbSymbolTableRecord
100
AcDbRegAppTableRecord
  2
GEVID1208933842
 70
     0
  0
APPID
  5
49E
330
9
100
AcDbSymbolTableRecord
100
AcDbRegAppTableRecord
  2
GEVID1208933843
 70
     0
  0
APPID
  5
49F
330
9
100
AcDbSymbolTableRecord
100
AcDbRegAppTableRecord
  2
GEVID1208933844
 70
     0
  0
APPID
  5
4A0
330
9
100
AcDbSymbolTableRecord
100
AcDbRegAppTableRecord
  2
GEVID1208933845
 70
     0
  0
APPID
  5
4A1
330
9
100
AcDbSymbolTableRecord
100
AcDbRegAppTableRecord
  2
GEVID1208933846
 70
     0
  0
APPID
  5
4A2
330
9
100
AcDbSymbolTableRecord
100
AcDbRegAppTableRecord
  2
GEVID1208933847
 70
     0
  0
APPID
  5
4A3
330
9
100
AcDbSymbolTableRecord
100
AcDbRegAppTableRecord
  2
GEVID1208933848
 70
     0
  0
APPID
  5
4A4
330
9
100
AcDbSymbolTableRecord
100
AcDbRegAppTableRecord
  2
GEVID1208933849
 70
     0
  0
APPID
  5
4A5
330
9
100
AcDbSymbolTableRecord
100
AcDbRegAppTableRecord
  2
GEVID1208933850
 70
     0
  0
APPID
  5
4A6
330
9
100
AcDbSymbolTableRecord
100
AcDbRegAppTableRecord
  2
GEVID1208933851
 70
     0
  0
APPID
  5
4A7
330
9
100
AcDbSymbolTableRecord
100
AcDbRegAppTableRecord
  2
GEVID1208933852
 70
     0
  0
APPID
  5
4A8
330
9
100
AcDbSymbolTableRecord
100
AcDbRegAppTableRecord
  2
GEVID1208933853
 70
     0
  0
APPID
  5
4A9
330
9
100
AcDbSymbolTableRecord
100
AcDbRegAppTableRecord
  2
GEVID1208933854
 70
     0
  0
APPID
  5
4AA
330
9
100
AcDbSymbolTableRecord
100
AcDbRegAppTableRecord
  2
GEVID1208933855
 70
     0
  0
APPID
  5
4AB
330
9
100
AcDbSymbolTableRecord
100
AcDbRegAppTableRecord
  2
GEVID1208933856
 70
     0
  0
APPID
  5
4AC
330
9
100
AcDbSymbolTableRecord
100
AcDbRegAppTableRecord
  2
GEVID1208933857
 70
     0
  0
APPID
  5
4AD
330
9
100
AcDbSymbolTableRecord
100
AcDbRegAppTableRecord
  2
GEVID1208933858
 70
     0
  0
APPID
  5
4AE
330
9
100
AcDbSymbolTableRecord
100
AcDbRegAppTableRecord
  2
GEVID1208933859
 70
     0
  0
APPID
  5
4AF
330
9
100
AcDbSymbolTableRecord
100
AcDbRegAppTableRecord
  2
GEVID1208933860
 70
     0
  0
APPID
  5
4B0
330
9
100
AcDbSymbolTableRecord
100
AcDbRegAppTableRecord
  2
GEVID1208933861
 70
     0
  0
APPID
  5
4B1
330
9
100
AcDbSymbolTableRecord
100
AcDbRegAppTableRecord
  2
GEVID1208933862
 70
     0
  0
APPID
  5
4B2
330
9
100
AcDbSymbolTableRecord
100
AcDbRegAppTableRecord
  2
GEVID1208933863
 70
     0
  0
APPID
  5
4B3
330
9
100
AcDbSymbolTableRecord
100
AcDbRegAppTableRecord
  2
GEVID1208933864
 70
     0
  0
APPID
  5
4B4
330
9
100
AcDbSymbolTableRecord
100
AcDbRegAppTableRecord
  2
GEVID1208933865
 70
     0
  0
APPID
  5
4B5
330
9
100
AcDbSymbolTableRecord
100
AcDbRegAppTableRecord
  2
GEVID1208933866
 70
     0
  0
APPID
  5
4B6
330
9
100
AcDbSymbolTableRecord
100
AcDbRegAppTableRecord
  2
GEVID1208933867
 70
     0
  0
APPID
  5
4B7
330
9
100
AcDbSymbolTableRecord
100
AcDbRegAppTableRecord
  2
GEVID1208933868
 70
     0
  0
APPID
  5
4B8
330
9
100
AcDbSymbolTableRecord
100
AcDbRegAppTableRecord
  2
GEVID1208933869
 70
     0
  0
APPID
  5
4B9
330
9
100
AcDbSymbolTableRecord
100
AcDbRegAppTableRecord
  2
GEVID1208933870
 70
     0
  0
APPID
  5
4BA
330
9
100
AcDbSymbolTableRecord
100
AcDbRegAppTableRecord
  2
GEVID1208933871
 70
     0
  0
APPID
  5
4BB
330
9
100
AcDbSymbolTableRecord
100
AcDbRegAppTableRecord
  2
GEVID1208933872
 70
     0
  0
APPID
  5
4BC
330
9
100
AcDbSymbolTableRecord
100
AcDbRegAppTableRecord
  2
GEVID1208933873
 70
     0
  0
APPID
  5
4BD
330
9
100
AcDbSymbolTableRecord
100
AcDbRegAppTableRecord
  2
GEVID1208933874
 70
     0
  0
APPID
  5
4BE
330
9
100
AcDbSymbolTableRecord
100
AcDbRegAppTableRecord
  2
GEVID1208933875
 70
     0
  0
APPID
  5
4BF
330
9
100
AcDbSymbolTableRecord
100
AcDbRegAppTableRecord
  2
GEVID1208933876
 70
     0
  0
APPID
  5
4C0
330
9
100
AcDbSymbolTableRecord
100
AcDbRegAppTableRecord
  2
ACAD_DSTYLE_DIMRADIAL_EXTENSION
 70
     0
  0
APPID
  5
4C1
330
9
100
AcDbSymbolTableRecord
100
AcDbRegAppTableRecord
  2
GEVID1208999100
 70
     0
  0
APPID
  5
4C2
330
9
100
AcDbSymbolTableRecord
100
AcDbRegAppTableRecord
  2
GEVID1208999101
 70
     0
  0
APPID
  5
4C3
330
9
100
AcDbSymbolTableRecord
100
AcDbRegAppTableRecord
  2
GEVID1208999102
 70
     0
  0
APPID
  5
4C4
330
9
100
AcDbSymbolTableRecord
100
AcDbRegAppTableRecord
  2
GEVID1208999103
 70
     0
  0
APPID
  5
4C5
330
9
100
AcDbSymbolTableRecord
100
AcDbRegAppTableRecord
  2
GEVID1208999105
 70
     0
  0
APPID
  5
4C6
330
9
100
AcDbSymbolTableRecord
100
AcDbRegAppTableRecord
  2
GEVID1208999106
 70
     0
  0
APPID
  5
4C7
330
9
100
AcDbSymbolTableRecord
100
AcDbRegAppTableRecord
  2
GEVID1208999108
 70
     0
  0
APPID
  5
4C8
330
9
100
AcDbSymbolTableRecord
100
AcDbRegAppTableRecord
  2
GEVID1208999109
 70
     0
  0
APPID
  5
4C9
330
9
100
AcDbSymbolTableRecord
100
AcDbRegAppTableRecord
  2
GEVID1208999110
 70
     0
  0
APPID
  5
4CA
330
9
100
AcDbSymbolTableRecord
100
AcDbRegAppTableRecord
  2
GEVID1208999111
 70
     0
  0
APPID
  5
4CB
330
9
100
AcDbSymbolTableRecord
100
AcDbRegAppTableRecord
  2
GEVID1208999112
 70
     0
  0
APPID
  5
4CC
330
9
100
AcDbSymbolTableRecord
100
AcDbRegAppTableRecord
  2
GEVID1208999113
 70
     0
  0
APPID
  5
4CD
330
9
100
AcDbSymbolTableRecord
100
AcDbRegAppTableRecord
  2
GEVID1208999114
 70
     0
  0
APPID
  5
4CE
330
9
100
AcDbSymbolTableRecord
100
AcDbRegAppTableRecord
  2
GEVID1210218799
 70
     0
  0
APPID
  5
4CF
330
9
100
AcDbSymbolTableRecord
100
AcDbRegAppTableRecord
  2
GEVID1210218800
 70
     0
  0
APPID
  5
4D0
330
9
100
AcDbSymbolTableRecord
100
AcDbRegAppTableRecord
  2
GENIUS_GEFWELD_13
 70
     0
  0
APPID
  5
4D1
330
9
100
AcDbSymbolTableRecord
100
AcDbRegAppTableRecord
  2
GENIUS_GENOBJ-F-WELS_13
 70
     0
  0
APPID
  5
4D2
330
9
100
AcDbSymbolTableRecord
100
AcDbRegAppTableRecord
  2
AcadAnnotative
 70
     0
  0
APPID
  5
4D3
330
9
100
AcDbSymbolTableRecord
100
AcDbRegAppTableRecord
  2
GEVID1210145339
 70
     0
  0
APPID
  5
4D4
330
9
100
AcDbSymbolTableRecord
100
AcDbRegAppTableRecord
  2
ACAD_DSTYLE_DIMBREAK
 70
     0
  0
APPID
  5
4D5
330
9
100
AcDbSymbolTableRecord
100
AcDbRegAppTableRecord
  2
GEVID1210145340
 70
     0
  0
APPID
  5
4D6
330
9
100
AcDbSymbolTableRecord
100
AcDbRegAppTableRecord
  2
GEVID1210145341
 70
     0
  0
APPID
  5
4D7
330
9
100
AcDbSymbolTableRecord
100
AcDbRegAppTableRecord
  2
GEVID1210145342
 70
     0
  0
APPID
  5
4D8
330
9
100
AcDbSymbolTableRecord
100
AcDbRegAppTableRecord
  2
GEVID1210145343
 70
     0
  0
APPID
  5
4D9
330
9
100
AcDbSymbolTableRecord
100
AcDbRegAppTableRecord
  2
GEVID1210145344
 70
     0
  0
APPID
  5
4DA
330
9
100
AcDbSymbolTableRecord
100
AcDbRegAppTableRecord
  2
GEVID1210145345
 70
     0
  0
APPID
  5
4DB
330
9
100
AcDbSymbolTableRecord
100
AcDbRegAppTableRecord
  2
GEVID1210152816
 70
     0
  0
APPID
  5
4DC
330
9
100
AcDbSymbolTableRecord
100
AcDbRegAppTableRecord
  2
GEVID1210153850
 70
     0
  0
APPID
  5
4DD
330
9
100
AcDbSymbolTableRecord
100
AcDbRegAppTableRecord
  2
GEVID1210153851
 70
     0
  0
APPID
  5
4DE
330
9
100
AcDbSymbolTableRecord
100
AcDbRegAppTableRecord
  2
GEVID1210153852
 70
     0
  0
APPID
  5
4DF
330
9
100
AcDbSymbolTableRecord
100
AcDbRegAppTableRecord
  2
GEVID1210549898
 70
     0
  0
APPID
  5
4E0
330
9
100
AcDbSymbolTableRecord
100
AcDbRegAppTableRecord
  2
GEVID1210549899
 70
     0
  0
APPID
  5
4E1
330
9
100
AcDbSymbolTableRecord
100
AcDbRegAppTableRecord
  2
GEVID1210549900
 70
     0
  0
APPID
  5
4E2
330
9
100
AcDbSymbolTableRecord
100
AcDbRegAppTableRecord
  2
GEVID1210549901
 70
     0
  0
APPID
  5
4E3
330
9
100
AcDbSymbolTableRecord
100
AcDbRegAppTableRecord
  2
GEVID1210549902
 70
     0
  0
APPID
  5
4E4
330
9
100
AcDbSymbolTableRecord
100
AcDbRegAppTableRecord
  2
GEVID1210549903
 70
     0
  0
APPID
  5
4E5
330
9
100
AcDbSymbolTableRecord
100
AcDbRegAppTableRecord
  2
GEVID1210549904
 70
     0
  0
APPID
  5
4E6
330
9
100
AcDbSymbolTableRecord
100
AcDbRegAppTableRecord
  2
GEVID1210549905
 70
     0
  0
APPID
  5
4E7
330
9
100
AcDbSymbolTableRecord
100
AcDbRegAppTableRecord
  2
GEVID1210549906
 70
     0
  0
APPID
  5
4E8
330
9
100
AcDbSymbolTableRecord
100
AcDbRegAppTableRecord
  2
GEVID1210549907
 70
     0
  0
APPID
  5
4E9
330
9
100
AcDbSymbolTableRecord
100
AcDbRegAppTableRecord
  2
GEVID1210549908
 70
     0
  0
APPID
  5
4EA
330
9
100
AcDbSymbolTableRecord
100
AcDbRegAppTableRecord
  2
GEVID1210549909
 70
     0
  0
APPID
  5
4EB
330
9
100
AcDbSymbolTableRecord
100
AcDbRegAppTableRecord
  2
GEVID1210549910
 70
     0
  0
APPID
  5
4EC
330
9
100
AcDbSymbolTableRecord
100
AcDbRegAppTableRecord
  2
GEVID1210549911
 70
     0
  0
APPID
  5
4ED
330
9
100
AcDbSymbolTableRecord
100
AcDbRegAppTableRecord
  2
GEVID1210549912
 70
     0
  0
APPID
  5
4EE
330
9
100
AcDbSymbolTableRecord
100
AcDbRegAppTableRecord
  2
GEVID1210549913
 70
     0
  0
APPID
  5
4EF
330
9
100
AcDbSymbolTableRecord
100
AcDbRegAppTableRecord
  2
GEVID1210549914
 70
     0
  0
APPID
  5
4F0
330
9
100
AcDbSymbolTableRecord
100
AcDbRegAppTableRecord
  2
GEVID1210549915
 70
     0
  0
APPID
  5
4F1
330
9
100
AcDbSymbolTableRecord
100
AcDbRegAppTableRecord
  2
GEVID1210549916
 70
     0
  0
APPID
  5
4F2
330
9
100
AcDbSymbolTableRecord
100
AcDbRegAppTableRecord
  2
GEVID1210549917
 70
     0
  0
APPID
  5
4F3
330
9
100
AcDbSymbolTableRecord
100
AcDbRegAppTableRecord
  2
GENIUS_GENOBJ-N-CRS_13
 70
     0
  0
APPID
  5
4F4
330
9
100
AcDbSymbolTableRecord
100
AcDbRegAppTableRecord
  2
GEVID1210549918
 70
     0
  0
APPID
  5
4F5
330
9
100
AcDbSymbolTableRecord
100
AcDbRegAppTableRecord
  2
GENIUS_GENOBJ-N-CRC_13
 70
     0
  0
APPID
  5
4F6
330
9
100
AcDbSymbolTableRecord
100
AcDbRegAppTableRecord
  2
GENIUS_GENCRC_14
 70
     0
  0
APPID
  5
4F7
330
9
100
AcDbSymbolTableRecord
100
AcDbRegAppTableRecord
  2
GEVID1210549919
 70
     0
  0
APPID
  5
4F8
330
9
100
AcDbSymbolTableRecord
100
AcDbRegAppTableRecord
  2
GEVID1210549921
 70
     0
  0
APPID
  5
4F9
330
9
100
AcDbSymbolTableRecord
100
AcDbRegAppTableRecord
  2
GEVID1210549922
 70
     0
  0
APPID
  5
4FA
330
9
100
AcDbSymbolTableRecord
100
AcDbRegAppTableRecord
  2
GEVID1210635173
 70
     0
  0
APPID
  5
4FB
330
9
100
AcDbSymbolTableRecord
100
AcDbRegAppTableRecord
  2
GEVID1210635174
 70
     0
  0
APPID
  5
4FC
330
9
100
AcDbSymbolTableRecord
100
AcDbRegAppTableRecord
  2
GEVID1210635175
 70
     0
  0
APPID
  5
4FD
330
9
100
AcDbSymbolTableRecord
100
AcDbRegAppTableRecord
  2
GEVID1210635176
 70
     0
  0
APPID
  5
4FE
330
9
100
AcDbSymbolTableRecord
100
AcDbRegAppTableRecord
  2
GEVID1210635177
 70
     0
  0
APPID
  5
4FF
330
9
100
AcDbSymbolTableRecord
100
AcDbRegAppTableRecord
  2
GEVID1210635178
 70
     0
  0
APPID
  5
500
330
9
100
AcDbSymbolTableRecord
100
AcDbRegAppTableRecord
  2
GENIUS_GENIUS_GENBHEDTMP_13
 70
     0
  0
APPID
  5
501
330
9
100
AcDbSymbolTableRecord
100
AcDbRegAppTableRecord
  2
GEVID1210635179
 70
     0
  0
APPID
  5
502
330
9
100
AcDbSymbolTableRecord
100
AcDbRegAppTableRecord
  2
GEVID1210635180
 70
     0
  0
APPID
  5
503
330
9
100
AcDbSymbolTableRecord
100
AcDbRegAppTableRecord
  2
GEVID1210635181
 70
     0
  0
APPID
  5
504
330
9
100
AcDbSymbolTableRecord
100
AcDbRegAppTableRecord
  2
GEVID1210635182
 70
     0
  0
APPID
  5
505
330
9
100
AcDbSymbolTableRecord
100
AcDbRegAppTableRecord
  2
GEVID1210635184
 70
     0
  0
APPID
  5
506
330
9
100
AcDbSymbolTableRecord
100
AcDbRegAppTableRecord
  2
GEVID1210635185
 70
     0
  0
APPID
  5
507
330
9
100
AcDbSymbolTableRecord
100
AcDbRegAppTableRecord
  2
GEVID1210635186
 70
     0
  0
APPID
  5
508
330
9
100
AcDbSymbolTableRecord
100
AcDbRegAppTableRecord
  2
GEVID1210635187
 70
     0
  0
APPID
  5
509
330
9
100
AcDbSymbolTableRecord
100
AcDbRegAppTableRecord
  2
GEVID1210635188
 70
     0
  0
APPID
  5
50A
330
9
100
AcDbSymbolTableRecord
100
AcDbRegAppTableRecord
  2
GEVID1210635189
 70
     0
  0
APPID
  5
50B
330
9
100
AcDbSymbolTableRecord
100
AcDbRegAppTableRecord
  2
GEVID1210635190
 70
     0
  0
APPID
  5
50C
330
9
100
AcDbSymbolTableRecord
100
AcDbRegAppTableRecord
  2
GENIUS_GENREC_14
 70
     0
  0
APPID
  5
50D
330
9
100
AcDbSymbolTableRecord
100
AcDbRegAppTableRecord
  2
GENIUS_GENOBJ-N-REC_13
 70
     0
  0
APPID
  5
50E
330
9
100
AcDbSymbolTableRecord
100
AcDbRegAppTableRecord
  2
GEVID1210676655
 70
     0
  0
APPID
  5
50F
330
9
100
AcDbSymbolTableRecord
100
AcDbRegAppTableRecord
  2
GEVID1210676656
 70
     0
  0
APPID
  5
510
330
9
100
AcDbSymbolTableRecord
100
AcDbRegAppTableRecord
  2
GEVID1210676657
 70
     0
  0
APPID
  5
511
330
9
100
AcDbSymbolTableRecord
100
AcDbRegAppTableRecord
  2
GEVID1210676659
 70
     0
  0
APPID
  5
512
330
9
100
AcDbSymbolTableRecord
100
AcDbRegAppTableRecord
  2
GEVID1210676660
 70
     0
  0
APPID
  5
513
330
9
100
AcDbSymbolTableRecord
100
AcDbRegAppTableRecord
  2
GEVID1210676661
 70
     0
  0
APPID
  5
514
330
9
100
AcDbSymbolTableRecord
100
AcDbRegAppTableRecord
  2
GEVID1210676662
 70
     0
  0
APPID
  5
515
330
9
100
AcDbSymbolTableRecord
100
AcDbRegAppTableRecord
  2
GEVID1210721646
 70
     0
  0
APPID
  5
516
330
9
100
AcDbSymbolTableRecord
100
AcDbRegAppTableRecord
  2
GEVID1210721647
 70
     0
  0
APPID
  5
517
330
9
100
AcDbSymbolTableRecord
100
AcDbRegAppTableRecord
  2
GEVID1210721648
 70
     0
  0
APPID
  5
518
330
9
100
AcDbSymbolTableRecord
100
AcDbRegAppTableRecord
  2
GEVID1210721649
 70
     0
  0
APPID
  5
519
330
9
100
AcDbSymbolTableRecord
100
AcDbRegAppTableRecord
  2
GEVID1210721650
 70
     0
  0
APPID
  5
51A
330
9
100
AcDbSymbolTableRecord
100
AcDbRegAppTableRecord
  2
GEVID1210721651
 70
     0
  0
APPID
  5
51B
330
9
100
AcDbSymbolTableRecord
100
AcDbRegAppTableRecord
  2
GEVID1210721652
 70
     0
  0
APPID
  5
51C
330
9
100
AcDbSymbolTableRecord
100
AcDbRegAppTableRecord
  2
GEVID1210721653
 70
     0
  0
APPID
  5
51D
330
9
100
AcDbSymbolTableRecord
100
AcDbRegAppTableRecord
  2
PE_URL
 70
     0
  0
APPID
  5
51E
330
9
100
AcDbSymbolTableRecord
100
AcDbRegAppTableRecord
  2
GEVID1210825555
 70
     0
  0
APPID
  5
51F
330
9
100
AcDbSymbolTableRecord
100
AcDbRegAppTableRecord
  2
GEVID1210825556
 70
     0
  0
APPID
  5
520
330
9
100
AcDbSymbolTableRecord
100
AcDbRegAppTableRecord
  2
GEVID1210825557
 70
     0
  0
APPID
  5
521
330
9
100
AcDbSymbolTableRecord
100
AcDbRegAppTableRecord
  2
GEVID1210825558
 70
     0
  0
APPID
  5
522
330
9
100
AcDbSymbolTableRecord
100
AcDbRegAppTableRecord
  2
GEVID1210825559
 70
     0
  0
APPID
  5
523
330
9
100
AcDbSymbolTableRecord
100
AcDbRegAppTableRecord
  2
GEVID1210825560
 70
     0
  0
APPID
  5
524
330
9
100
AcDbSymbolTableRecord
100
AcDbRegAppTableRecord
  2
GEVID1210825561
 70
     0
  0
APPID
  5
525
330
9
100
AcDbSymbolTableRecord
100
AcDbRegAppTableRecord
  2
GEVID1210825562
 70
     0
  0
APPID
  5
526
330
9
100
AcDbSymbolTableRecord
100
AcDbRegAppTableRecord
  2
GEVID1210825563
 70
     0
  0
APPID
  5
527
330
9
100
AcDbSymbolTableRecord
100
AcDbRegAppTableRecord
  2
GEVID1210825564
 70
     0
  0
APPID
  5
528
330
9
100
AcDbSymbolTableRecord
100
AcDbRegAppTableRecord
  2
GEVID1210825565
 70
     0
  0
APPID
  5
529
330
9
100
AcDbSymbolTableRecord
100
AcDbRegAppTableRecord
  2
GEVID1210825566
 70
     0
  0
APPID
  5
52A
330
9
100
AcDbSymbolTableRecord
100
AcDbRegAppTableRecord
  2
GEVID1210825567
 70
     0
  0
APPID
  5
52B
330
9
100
AcDbSymbolTableRecord
100
AcDbRegAppTableRecord
  2
GENIUS_GENOBJ-N-ZOO_13
 70
     0
  0
APPID
  5
52C
330
9
100
AcDbSymbolTableRecord
100
AcDbRegAppTableRecord
  2
GENIUS_GENZOO_17
 70
     0
  0
APPID
  5
52D
330
9
100
AcDbSymbolTableRecord
100
AcDbRegAppTableRecord
  2
ACADANNOTATIVEDECOMPOSITION
 70
     0
  0
APPID
  5
52E
330
9
100
AcDbSymbolTableRecord
100
AcDbRegAppTableRecord
  2
GENIUS_GENOBJ-N-HTC_13
 70
     0
  0
APPID
  5
52F
330
9
100
AcDbSymbolTableRecord
100
AcDbRegAppTableRecord
  2
GENIUS_GENHATCH_13
 70
     0
  0
APPID
  5
530
330
9
100
AcDbSymbolTableRecord
100
AcDbRegAppTableRecord
  2
GEVID1210896020
 70
     0
  0
APPID
  5
531
330
9
100
AcDbSymbolTableRecord
100
AcDbRegAppTableRecord
  2
GEVID1210896021
 70
     0
  0
APPID
  5
532
330
9
100
AcDbSymbolTableRecord
100
AcDbRegAppTableRecord
  2
GEVID1209083540
 70
     0
  0
APPID
  5
533
330
9
100
AcDbSymbolTableRecord
100
AcDbRegAppTableRecord
  2
GEVMK
 70
     0
  0
APPID
  5
534
330
9
100
AcDbSymbolTableRecord
100
AcDbRegAppTableRecord
  2
GEVID1209083542
 70
     0
  0
APPID
  5
535
330
9
100
AcDbSymbolTableRecord
100
AcDbRegAppTableRecord
  2
GEVID1209083543
 70
     0
  0
APPID
  5
536
330
9
100
AcDbSymbolTableRecord
100
AcDbRegAppTableRecord
  2
GEVID1209083544
 70
     0
  0
APPID
  5
537
330
9
100
AcDbSymbolTableRecord
100
AcDbRegAppTableRecord
  2
GEVID1209083545
 70
     0
  0
APPID
  5
538
330
9
100
AcDbSymbolTableRecord
100
AcDbRegAppTableRecord
  2
GEVID1209083546
 70
     0
  0
APPID
  5
539
330
9
100
AcDbSymbolTableRecord
100
AcDbRegAppTableRecord
  2
GEVID1209083547
 70
     0
  0
APPID
  5
53A
330
9
100
AcDbSymbolTableRecord
100
AcDbRegAppTableRecord
  2
GEVID1209083548
 70
     0
  0
APPID
  5
53B
330
9
100
AcDbSymbolTableRecord
100
AcDbRegAppTableRecord
  2
GEVID1209083549
 70
     0
  0
APPID
  5
53C
330
9
100
AcDbSymbolTableRecord
100
AcDbRegAppTableRecord
  2
GEVID1209083550
 70
     0
  0
APPID
  5
53D
330
9
100
AcDbSymbolTableRecord
100
AcDbRegAppTableRecord
  2
GEVID1209083551
 70
     0
  0
APPID
  5
53E
330
9
100
AcDbSymbolTableRecord
100
AcDbRegAppTableRecord
  2
GEVID1209083552
 70
     0
  0
APPID
  5
53F
330
9
100
AcDbSymbolTableRecord
100
AcDbRegAppTableRecord
  2
GEVID1209083553
 70
     0
  0
APPID
  5
540
330
9
100
AcDbSymbolTableRecord
100
AcDbRegAppTableRecord
  2
GEVID1210896022
 70
     0
  0
APPID
  5
541
330
9
100
AcDbSymbolTableRecord
100
AcDbRegAppTableRecord
  2
GEVID1211508364
 70
     0
  0
APPID
  5
542
330
9
100
AcDbSymbolTableRecord
100
AcDbRegAppTableRecord
  2
GEVID1211414908
 70
     0
  0
APPID
  5
543
330
9
100
AcDbSymbolTableRecord
100
AcDbRegAppTableRecord
  2
GEVID1211414909
 70
     0
  0
APPID
  5
544
330
9
100
AcDbSymbolTableRecord
100
AcDbRegAppTableRecord
  2
GEVID1211508359
 70
     0
  0
APPID
  5
545
330
9
100
AcDbSymbolTableRecord
100
AcDbRegAppTableRecord
  2
GEVID1211508360
 70
     0
  0
APPID
  5
546
330
9
100
AcDbSymbolTableRecord
100
AcDbRegAppTableRecord
  2
GEVID1211508361
 70
     0
  0
APPID
  5
547
330
9
100
AcDbSymbolTableRecord
100
AcDbRegAppTableRecord
  2
GEVID1211508362
 70
     0
  0
APPID
  5
548
330
9
100
AcDbSymbolTableRecord
100
AcDbRegAppTableRecord
  2
GEVID1211508363
 70
     0
  0
APPID
  5
549
330
9
100
AcDbSymbolTableRecord
100
AcDbRegAppTableRecord
  2
GEVID1211878469
 70
     0
  0
APPID
  5
54A
330
9
100
AcDbSymbolTableRecord
100
AcDbRegAppTableRecord
  2
GEVID1212642819
 70
     0
  0
APPID
  5
54B
330
9
100
AcDbSymbolTableRecord
100
AcDbRegAppTableRecord
  2
GEVID1212642820
 70
     0
  0
APPID
  5
54C
330
9
100
AcDbSymbolTableRecord
100
AcDbRegAppTableRecord
  2
GEVID1212642821
 70
     0
  0
APPID
  5
54D
330
9
100
AcDbSymbolTableRecord
100
AcDbRegAppTableRecord
  2
GEVID1212642822
 70
     0
  0
APPID
  5
54E
330
9
100
AcDbSymbolTableRecord
100
AcDbRegAppTableRecord
  2
GEVID1212642823
 70
     0
  0
APPID
  5
54F
330
9
100
AcDbSymbolTableRecord
100
AcDbRegAppTableRecord
  2
GEVID1212642825
 70
     0
  0
APPID
  5
550
330
9
100
AcDbSymbolTableRecord
100
AcDbRegAppTableRecord
  2
GEVID1212642826
 70
     0
  0
APPID
  5
551
330
9
100
AcDbSymbolTableRecord
100
AcDbRegAppTableRecord
  2
GEVID1212642827
 70
     0
  0
APPID
  5
552
330
9
100
AcDbSymbolTableRecord
100
AcDbRegAppTableRecord
  2
GEVID1212642828
 70
     0
  0
APPID
  5
553
330
9
100
AcDbSymbolTableRecord
100
AcDbRegAppTableRecord
  2
GEVID1212642831
 70
     0
  0
APPID
  5
554
330
9
100
AcDbSymbolTableRecord
100
AcDbRegAppTableRecord
  2
GEVID1212642834
 70
     0
  0
APPID
  5
555
330
9
100
AcDbSymbolTableRecord
100
AcDbRegAppTableRecord
  2
GEVID1212642835
 70
     0
  0
APPID
  5
556
330
9
100
AcDbSymbolTableRecord
100
AcDbRegAppTableRecord
  2
GEVID1212642836
 70
     0
  0
APPID
  5
557
330
9
100
AcDbSymbolTableRecord
100
AcDbRegAppTableRecord
  2
GEVID1212642837
 70
     0
  0
APPID
  5
558
330
9
100
AcDbSymbolTableRecord
100
AcDbRegAppTableRecord
  2
GEVID1212642839
 70
     0
  0
APPID
  5
559
330
9
100
AcDbSymbolTableRecord
100
AcDbRegAppTableRecord
  2
GEVID1212642840
 70
     0
  0
APPID
  5
55A
330
9
100
AcDbSymbolTableRecord
100
AcDbRegAppTableRecord
  2
GEVID1212642841
 70
     0
  0
APPID
  5
55B
330
9
100
AcDbSymbolTableRecord
100
AcDbRegAppTableRecord
  2
GEVID1212655312
 70
     0
  0
APPID
  5
55C
330
9
100
AcDbSymbolTableRecord
100
AcDbRegAppTableRecord
  2
GEVID1212655313
 70
     0
  0
APPID
  5
55D
330
9
100
AcDbSymbolTableRecord
100
AcDbRegAppTableRecord
  2
GEVID1212656533
 70
     0
  0
APPID
  5
55E
330
9
100
AcDbSymbolTableRecord
100
AcDbRegAppTableRecord
  2
GEVID1212656534
 70
     0
  0
APPID
  5
55F
330
9
100
AcDbSymbolTableRecord
100
AcDbRegAppTableRecord
  2
GEVID1212656535
 70
     0
  0
APPID
  5
560
330
9
100
AcDbSymbolTableRecord
100
AcDbRegAppTableRecord
  2
GEVID1212656536
 70
     0
  0
APPID
  5
561
330
9
100
AcDbSymbolTableRecord
100
AcDbRegAppTableRecord
  2
GEVID1212656538
 70
     0
  0
APPID
  5
562
330
9
100
AcDbSymbolTableRecord
100
AcDbRegAppTableRecord
  2
GEVID1212656541
 70
     0
  0
APPID
  5
563
330
9
100
AcDbSymbolTableRecord
100
AcDbRegAppTableRecord
  2
GEVID1212656543
 70
     0
  0
APPID
  5
564
330
9
100
AcDbSymbolTableRecord
100
AcDbRegAppTableRecord
  2
GENIUS_GENOBJ-F-PFASSM_13
 70
     0
  0
APPID
  5
565
330
9
100
AcDbSymbolTableRecord
100
AcDbRegAppTableRecord
  2
GEVID1212656544
 70
     0
  0
APPID
  5
566
330
9
100
AcDbSymbolTableRecord
100
AcDbRegAppTableRecord
  2
GEVID1212656545
 70
     0
  0
APPID
  5
567
330
9
100
AcDbSymbolTableRecord
100
AcDbRegAppTableRecord
  2
GEVID1212656546
 70
     0
  0
APPID
  5
568
330
9
100
AcDbSymbolTableRecord
100
AcDbRegAppTableRecord
  2
GEVID1212656547
 70
     0
  0
APPID
  5
569
330
9
100
AcDbSymbolTableRecord
100
AcDbRegAppTableRecord
  2
GEVID1212656548
 70
     0
  0
APPID
  5
56A
330
9
100
AcDbSymbolTableRecord
100
AcDbRegAppTableRecord
  2
GEVID1212656549
 70
     0
  0
APPID
  5
56B
330
9
100
AcDbSymbolTableRecord
100
AcDbRegAppTableRecord
  2
GEVID1212656550
 70
     0
  0
APPID
  5
56C
330
9
100
AcDbSymbolTableRecord
100
AcDbRegAppTableRecord
  2
GEVID1212656552
 70
     0
  0
APPID
  5
56D
330
9
100
AcDbSymbolTableRecord
100
AcDbRegAppTableRecord
  2
GEVID1212656553
 70
     0
  0
APPID
  5
56E
330
9
100
AcDbSymbolTableRecord
100
AcDbRegAppTableRecord
  2
GEVID1212656554
 70
     0
  0
APPID
  5
56F
330
9
100
AcDbSymbolTableRecord
100
AcDbRegAppTableRecord
  2
GEVID1212656555
 70
     0
  0
APPID
  5
570
330
9
100
AcDbSymbolTableRecord
100
AcDbRegAppTableRecord
  2
GEVID1212656556
 70
     0
  0
APPID
  5
571
330
9
100
AcDbSymbolTableRecord
100
AcDbRegAppTableRecord
  2
GEVID1212656557
 70
     0
  0
APPID
  5
572
330
9
100
AcDbSymbolTableRecord
100
AcDbRegAppTableRecord
  2
GEVID1212656559
 70
     0
  0
APPID
  5
573
330
9
100
AcDbSymbolTableRecord
100
AcDbRegAppTableRecord
  2
GEVID1212656560
 70
     0
  0
APPID
  5
574
330
9
100
AcDbSymbolTableRecord
100
AcDbRegAppTableRecord
  2
GEVID1212656561
 70
     0
  0
APPID
  5
575
330
9
100
AcDbSymbolTableRecord
100
AcDbRegAppTableRecord
  2
GEVID1212656562
 70
     0
  0
APPID
  5
576
330
9
100
AcDbSymbolTableRecord
100
AcDbRegAppTableRecord
  2
GEVID1212656563
 70
     0
  0
APPID
  5
577
330
9
100
AcDbSymbolTableRecord
100
AcDbRegAppTableRecord
  2
GEVID1212711781
 70
     0
  0
APPID
  5
578
330
9
100
AcDbSymbolTableRecord
100
AcDbRegAppTableRecord
  2
GEVID1212711782
 70
     0
  0
APPID
  5
579
330
9
100
AcDbSymbolTableRecord
100
AcDbRegAppTableRecord
  2
GEVID1212711783
 70
     0
  0
APPID
  5
57A
330
9
100
AcDbSymbolTableRecord
100
AcDbRegAppTableRecord
  2
GEVID1212711784
 70
     0
  0
APPID
  5
57B
330
9
100
AcDbSymbolTableRecord
100
AcDbRegAppTableRecord
  2
GEVID1212711788
 70
     0
  0
APPID
  5
57C
330
9
100
AcDbSymbolTableRecord
100
AcDbRegAppTableRecord
  2
GEVID1212711789
 70
     0
  0
APPID
  5
57D
330
9
100
AcDbSymbolTableRecord
100
AcDbRegAppTableRecord
  2
GEVID1212711790
 70
     0
  0
APPID
  5
57E
330
9
100
AcDbSymbolTableRecord
100
AcDbRegAppTableRecord
  2
GEVID1212711791
 70
     0
  0
APPID
  5
57F
330
9
100
AcDbSymbolTableRecord
100
AcDbRegAppTableRecord
  2
GEVID1212711792
 70
     0
  0
APPID
  5
580
330
9
100
AcDbSymbolTableRecord
100
AcDbRegAppTableRecord
  2
GEVID1212711793
 70
     0
  0
APPID
  5
581
330
9
100
AcDbSymbolTableRecord
100
AcDbRegAppTableRecord
  2
GEVID1212711794
 70
     0
  0
APPID
  5
582
330
9
100
AcDbSymbolTableRecord
100
AcDbRegAppTableRecord
  2
GEVID1212711795
 70
     0
  0
APPID
  5
583
330
9
100
AcDbSymbolTableRecord
100
AcDbRegAppTableRecord
  2
GEVID1212711797
 70
     0
  0
APPID
  5
584
330
9
100
AcDbSymbolTableRecord
100
AcDbRegAppTableRecord
  2
GEVID1212711798
 70
     0
  0
APPID
  5
585
330
9
100
AcDbSymbolTableRecord
100
AcDbRegAppTableRecord
  2
GEVID1212711799
 70
     0
  0
APPID
  5
586
330
9
100
AcDbSymbolTableRecord
100
AcDbRegAppTableRecord
  2
GEVID1212711800
 70
     0
  0
APPID
  5
587
330
9
100
AcDbSymbolTableRecord
100
AcDbRegAppTableRecord
  2
GEVID1212711801
 70
     0
  0
APPID
  5
588
330
9
100
AcDbSymbolTableRecord
100
AcDbRegAppTableRecord
  2
GEVID1212711802
 70
     0
  0
APPID
  5
589
330
9
100
AcDbSymbolTableRecord
100
AcDbRegAppTableRecord
  2
GEVID1212711803
 70
     0
  0
APPID
  5
58A
330
9
100
AcDbSymbolTableRecord
100
AcDbRegAppTableRecord
  2
GEVID1212711804
 70
     0
  0
APPID
  5
58B
330
9
100
AcDbSymbolTableRecord
100
AcDbRegAppTableRecord
  2
GEVID1212711805
 70
     0
  0
APPID
  5
58C
330
9
100
AcDbSymbolTableRecord
100
AcDbRegAppTableRecord
  2
GEVID1212711806
 70
     0
  0
APPID
  5
58D
330
9
100
AcDbSymbolTableRecord
100
AcDbRegAppTableRecord
  2
GEVID1212711807
 70
     0
  0
APPID
  5
58E
330
9
100
AcDbSymbolTableRecord
100
AcDbRegAppTableRecord
  2
GEVID1212711808
 70
     0
  0
APPID
  5
58F
330
9
100
AcDbSymbolTableRecord
100
AcDbRegAppTableRecord
  2
GEVID1212711809
 70
     0
  0
APPID
  5
590
330
9
100
AcDbSymbolTableRecord
100
AcDbRegAppTableRecord
  2
GEVID1212711810
 70
     0
  0
APPID
  5
591
330
9
100
AcDbSymbolTableRecord
100
AcDbRegAppTableRecord
  2
GEVID1212711811
 70
     0
  0
APPID
  5
90A
330
9
100
AcDbSymbolTableRecord
100
AcDbRegAppTableRecord
  2
GENIUS_GENTRA_14
 70
     0
  0
APPID
  5
919
330
9
100
AcDbSymbolTableRecord
100
AcDbRegAppTableRecord
  2
GENIUS_GENOBJ-N-TIT_13
 70
     0
  0
APPID
  5
91A
330
9
100
AcDbSymbolTableRecord
100
AcDbRegAppTableRecord
  2
GENIUS_GENTITLE_13
 70
     0
  0
APPID
  5
949
330
9
100
AcDbSymbolTableRecord
100
AcDbRegAppTableRecord
  2
GENIUS_GENBLLY_14
 70
     0
  0
APPID
  5
DDD
330
9
100
AcDbSymbolTableRecord
100
AcDbRegAppTableRecord
  2
GEVID1213165152
 70
     0
  0
APPID
  5
12F9
330
9
100
AcDbSymbolTableRecord
100
AcDbRegAppTableRecord
  2
AcDbDynamicBlockTrueName
 70
     0
  0
APPID
  5
12FA
330
9
100
AcDbSymbolTableRecord
100
AcDbRegAppTableRecord
  2
ACDBBLOCKREPETAG
 70
     0
  0
APPID
  5
1C15
330
9
100
AcDbSymbolTableRecord
100
AcDbRegAppTableRecord
  2
GEVID1214872427
 70
     0
  0
APPID
  5
1C2A
330
9
100
AcDbSymbolTableRecord
100
AcDbRegAppTableRecord
  2
GEVID1214872428
 70
     0
  0
APPID
  5
1C2F
330
9
100
AcDbSymbolTableRecord
100
AcDbRegAppTableRecord
  2
GEVID1214872429
 70
     0
  0
APPID
  5
1C33
330
9
100
AcDbSymbolTableRecord
100
AcDbRegAppTableRecord
  2
GEVID1214872430
 70
     0
  0
APPID
  5
1C3F
330
9
100
AcDbSymbolTableRecord
100
AcDbRegAppTableRecord
  2
GEVID1214872432
 70
     0
  0
APPID
  5
1C4E
330
9
100
AcDbSymbolTableRecord
100
AcDbRegAppTableRecord
  2
GEVID1214872433
 70
     0
  0
APPID
  5
20DC
330
9
100
AcDbSymbolTableRecord
100
AcDbRegAppTableRecord
  2
AcDbDynamicBlockGUID
 70
     0
  0
APPID
  5
20FD
330
9
100
AcDbSymbolTableRecord
100
AcDbRegAppTableRecord
  2
GENIUS_GENOBJ-N-REV_13
 70
     0
  0
APPID
  5
20FE
330
9
100
AcDbSymbolTableRecord
100
AcDbRegAppTableRecord
  2
GENIUS_GENOBJ-N-RSSYM_13
 70
     0
  0
APPID
  5
20FF
330
9
100
AcDbSymbolTableRecord
100
AcDbRegAppTableRecord
  2
GENIUS_GENSYMENT_13
 70
     0
  0
APPID
  5
2100
330
9
100
AcDbSymbolTableRecord
100
AcDbRegAppTableRecord
  2
GENIUS_GENSCSYM_13
 70
     0
  0
APPID
  5
54D1
330
9
100
AcDbSymbolTableRecord
100
AcDbRegAppTableRecord
  2
GEVID1240277465
 70
     0
  0
APPID
  5
54D5
330
9
100
AcDbSymbolTableRecord
100
AcDbRegAppTableRecord
  2
GEVID1240277466
 70
     0
  0
APPID
  5
5DA0
330
9
100
AcDbSymbolTableRecord
100
AcDbRegAppTableRecord
  2
GEVID1240277467
 70
     0
  0
APPID
  5
5DA4
330
9
100
AcDbSymbolTableRecord
100
AcDbRegAppTableRecord
  2
GEVID1240277468
 70
     0
  0
ENDTAB
  0
TABLE
  2
DIMSTYLE
  5
A
330
0
100
AcDbSymbolTable
 70
    29
100
AcDbDimStyleTable
 71
     1
340
5AB
  0
DIMSTYLE
105
5AB
330
A
100
AcDbSymbolTableRecord
100
AcDbDimStyleTableRecord
  2
SEISA
 70
     0
  4
"
 40
8.0
 41
2.5
 42
0.625
 43
10.0
 44
0.625
 47
0.1
 48
0.1
 73
     0
 74
     0
 77
     3
 78
     8
 79
     2
 90
     1
140
3.5
141
0.0
143
0.0393701
146
0.71
147
1.5
172
     1
176
     3
177
     3
178
     3
271
     2
272
     2
283
     0
286
     8
340
5D5
341
69
342
69
371
    -1
372
    -1
1001
ACAD_DSTYLE_DIMJAG
1070
   388
1040
1.5
1001
ACAD_DSTYLE_DIMTALN
1070
   392
1070
     1
  0
DIMSTYLE
105
5E9
102
{ACAD_REACTORS
330
5529
330
5554
330
556C
330
559E
330
55DA
330
55F2
330
578A
330
5612
330
5900
330
591C
330
5938
330
5950
330
5968
330
5980
330
6BA7
330
6C27
330
6C51
102
}
330
A
100
AcDbSymbolTableRecord
100
AcDbDimStyleTableRecord
  2
SEISA$0
 70
     0
  4
"
 40
8.0
 41
2.5
 42
0.625
 43
10.0
 44
0.625
 47
0.1
 48
0.1
 73
     0
 74
     0
 77
     3
 78
     8
 79
     2
 90
     1
140
3.5
141
0.0
143
0.0393701
146
0.71
147
1.5
172
     1
176
     3
177
     3
178
     3
271
     2
272
     2
283
     0
286
     8
340
5D5
341
69
342
69
371
    -1
372
    -1
  0
DIMSTYLE
105
6F72
330
A
100
AcDbSymbolTableRecord
100
AcDbDimStyleTableRecord
  2
AM_ISO
 70
     0
  4
"
 41
2.5
 42
1.0
 43
10.0
 44
1.0
 47
0.1
 48
0.1
 73
     0
 74
     0
 77
     1
 78
     8
 79
     2
 90
     1
140
3.5
141
0.0
143
0.0393701
146
0.71
147
1.5
172
     1
176
   256
177
   256
178
     2
271
     2
272
     3
274
     4
283
     0
284
     8
340
11
371
    -1
372
    -1
  0
DIMSTYLE
105
6F73
330
A
100
AcDbSymbolTableRecord
100
AcDbDimStyleTableRecord
  2
AM_ISO$3
 70
     0
  4
"
 41
2.5
 42
1.0
 43
10.0
 44
1.0
 47
0.1
 48
0.1
 73
     0
 77
     1
 78
     8
 79
     2
 90
     1
140
3.5
141
0.0
143
0.0393701
146
0.71
147
1.5
176
   256
177
   256
178
     2
271
     2
272
     3
274
     4
283
     0
284
     8
288
     1
289
     0
340
11
371
    -1
372
    -1
  0
DIMSTYLE
105
6F74
330
A
100
AcDbSymbolTableRecord
100
AcDbDimStyleTableRecord
  2
AM_ISO$4
 70
     0
  4
"
 41
2.5
 42
1.0
 43
10.0
 44
1.0
 47
0.1
 48
0.1
 73
     0
 77
     1
 78
     8
 79
     2
 90
     1
140
3.5
141
0.0
143
0.0393701
146
0.71
147
1.5
176
   256
177
   256
178
     2
271
     2
272
     3
274
     4
283
     0
284
     8
288
     1
289
     0
340
11
371
    -1
372
    -1
  0
DIMSTYLE
105
6F75
330
A
100
AcDbSymbolTableRecord
100
AcDbDimStyleTableRecord
  2
AM_ISO$6
 70
     0
  4
"
 41
2.5
 42
1.0
 43
10.0
 44
1.0
 47
0.1
 48
0.1
 73
     0
 74
     0
 78
     8
 79
     2
 90
     1
140
3.5
141
0.0
143
0.0393701
146
0.71
147
1.5
172
     1
176
   256
177
   256
178
     2
271
     2
272
     3
274
     4
283
     0
284
     8
340
11
371
    -1
372
    -1
  0
DIMSTYLE
105
6F76
330
A
100
AcDbSymbolTableRecord
100
AcDbDimStyleTableRecord
  2
AM_ISO$7
 70
     0
  4
"
 41
2.5
 42
1.0
 43
10.0
 44
1.0
 47
0.1
 48
0.1
 73
     0
 74
     0
 77
     1
 78
     8
 79
     2
 90
     1
140
5.0
141
0.0
143
0.0393701
146
0.71
147
1.5
172
     1
176
   256
177
   256
178
     2
271
     2
272
     3
274
     4
283
     0
284
     8
340
11
371
    -1
372
    -1
  0
DIMSTYLE
105
6F77
330
A
100
AcDbSymbolTableRecord
100
AcDbDimStyleTableRecord
  2
AM_ISO$SF
 70
     0
  4
"
 41
2.5
 42
1.0
 43
10.0
 44
1.0
 47
0.1
 48
0.1
 73
     0
 74
     0
 75
     1
 76
     1
 77
     1
 78
     8
 79
     2
 90
     1
140
3.5
141
0.0
143
0.0393701
146
0.71
147
1.5
172
     1
176
   256
177
   256
178
     2
271
     2
272
     3
274
     4
283
     0
284
     8
340
11
371
    -1
372
    -1
  0
DIMSTYLE
105
6F78
330
A
100
AcDbSymbolTableRecord
100
AcDbDimStyleTableRecord
  2
AM_ISO$SH
 70
     0
  4
"
 41
2.5
 42
1.0
 43
10.0
 44
1.0
 47
0.1
 48
0.1
 73
     0
 74
     0
 75
     1
 76
     1
 77
     1
 78
     8
 79
     2
 90
     1
140
3.5
141
0.0
143
0.0393701
144
2.0
146
0.71
147
1.5
172
     1
173
     1
176
   256
177
   256
178
     2
271
     2
272
     3
274
     4
283
     0
284
     8
340
11
343
74
371
    -1
372
    -1
  0
ENDTAB
  0
TABLE
  2
BLOCK_RECORD
  5
1
330
0
100
AcDbSymbolTable
 70
    32
  0
BLOCK_RECORD
  5
1F
102
{ACAD_XDICTIONARY
360
82
102
}
330
1
100
AcDbSymbolTableRecord
100
AcDbBlockTableRecord
  2
*Model_Space
340
22
 70
     0
280
     1
281
     0
  0
BLOCK_RECORD
  5
1B
330
1
100
AcDbSymbolTableRecord
100
AcDbBlockTableRecord
  2
*Paper_Space
340
1E
 70
     0
280
     1
281
     0
  0
BLOCK_RECORD
  5
23
330
1
100
AcDbSymbolTableRecord
100
AcDbBlockTableRecord
  2
*Paper_Space0
340
26
 70
     0
280
     1
281
     0
  0
BLOCK_RECORD
  5
69
330
1
100
AcDbSymbolTableRecord
100
AcDbBlockTableRecord
  2
_Open30
340
0
102
{BLKREFS
331
6C90
331
6C91
331
6C99
331
6C9A
331
6CA5
331
6CA6
331
6CAD
331
6CAE
331
6CB6
331
6CB7
331
6CBF
331
6CC0
331
6CC8
331
6CC9
331
6CD4
331
6CD5
331
6CEA
331
6CF2
331
6CF3
331
6CFB
331
6CFC
331
6D04
331
6D05
331
6D0D
331
6D0E
331
6D16
331
6D17
331
6D1F
331
6D20
331
6D29
331
6D2A
331
6DE7
102
}
 70
     0
280
     1
281
     0
  0
BLOCK_RECORD
  5
74
330
1
100
AcDbSymbolTableRecord
100
AcDbBlockTableRecord
  2
GENAXEH
340
0
 70
     0
280
     1
281
     0
  0
BLOCK_RECORD
  5
3704
102
{ACAD_XDICTIONARY
360
3705
102
}
330
1
100
AcDbSymbolTableRecord
100
AcDbBlockTableRecord
  2
ロッカクアナツキプラグ R1／2
340
0
310
2800000020000000200000000100080000000000000400000000000000000000000000000000000000000000000080000080000000808000800000008000800080800000C0C0C000C0DCC000F0CAA6000020400000206000002080000020A0000020C0000020E00000400000004020000040400000406000004080000040A0
310
000040C0000040E00000600000006020000060400000606000006080000060A0000060C0000060E00000800000008020000080400000806000008080000080A0000080C0000080E00000A0000000A0200000A0400000A0600000A0800000A0A00000A0C00000A0E00000C0000000C0200000C0400000C0600000C0800000C0
310
A00000C0C00000C0E00000E0000000E0200000E0400000E0600000E0800000E0A00000E0C00000E0E00040000000400020004000400040006000400080004000A0004000C0004000E00040200000402020004020400040206000402080004020A0004020C0004020E000404000004040200040404000404060004040800040
310
40A0004040C0004040E00040600000406020004060400040606000406080004060A0004060C0004060E00040800000408020004080400040806000408080004080A0004080C0004080E00040A0000040A0200040A0400040A0600040A0800040A0A00040A0C00040A0E00040C0000040C0200040C0400040C0600040C08000
310
40C0A00040C0C00040C0E00040E0000040E0200040E0400040E0600040E0800040E0A00040E0C00040E0E00080000000800020008000400080006000800080008000A0008000C0008000E00080200000802020008020400080206000802080008020A0008020C0008020E00080400000804020008040400080406000804080
310
008040A0008040C0008040E00080600000806020008060400080606000806080008060A0008060C0008060E00080800000808020008080400080806000808080008080A0008080C0008080E00080A0000080A0200080A0400080A0600080A0800080A0A00080A0C00080A0E00080C0000080C0200080C0400080C0600080C0
310
800080C0A00080C0C00080C0E00080E0000080E0200080E0400080E0600080E0800080E0A00080E0C00080E0E000C0000000C0002000C0004000C0006000C0008000C000A000C000C000C000E000C0200000C0202000C0204000C0206000C0208000C020A000C020C000C020E000C0400000C0402000C0404000C0406000C0
310
408000C040A000C040C000C040E000C0600000C0602000C0604000C0606000C0608000C060A000C060C000C060E000C0800000C0802000C0804000C0806000C0808000C080A000C080C000C080E000C0A00000C0A02000C0A04000C0A06000C0A08000C0A0A000C0A0C000C0A0E000C0C00000C0C02000C0C04000C0C06000
310
C0C08000C0C0A000F0FBFF00A4A0A000808080000000FF0000FF000000FFFF00FF000000FF00FF00FFFF0000FFFFFF0000000000000000000000000000000000000000000000000000000000000000000000000000000000000000000000000000000000000000000000000000000000000000000000000000000000000000
310
0000000000000000000000000000000000000000000000000000000000000000000000000000000000000000000000000000000000000000000000000000000000000000000000000000000000000000000000000000000000000000000000000000000000000000000000000000000000000000000000FFFFFFFFFFFFFFFF
310
FFFFFFFFFFFFFFFFFFFFFFFF00000000000000000000FEFF0000000000000000000000000000000000000000FFFF000000000000FFFFFEFFFFFFFFFFFFFFFFFFFFFFFFFFFFFFFFFFFFFFFFFFFFFEFFFF00000000FF00FE00000000000000000000000000000000000000000000FE00FF00000000FF00FE0000000000000000
310
0000000000000000000000000000FE00FF00000000FF00FE00000000000000000000000000000000000000000000FE00FF00000000FF00FE00000000000000000000000000000000000000000000FE00FF00000000FF00FE00000000000000000000000000000000000000000000FE00FF00000000FF00FE00000000000000
310
000000000000000000000000000000FE00FF00000000FF00FE00000000000000000000000000000000000000000000FE00FF000000FF0000FE00000000000000000000000000000000000000000000FE0000FF0000FF00FE000000000000000000000000000000000000000000000000FE00FF0000FF00FE00000000000000
310
0000000000000000000000000000000000FE00FF0000FF00FE000000000000000000000000000000000000000000000000FE00FF0000FF00FE000000000000000000000000000000000000000000000000FE00FF0000FF00FE000000000000000000000000000000000000000000000000FE00FF0000FF00FE000000000000
310
000000000000000000000000000000000000FE00FF0000FFFFFEFFFFFFFFFFFFFFFFFFFFFFFFFFFFFFFFFFFFFFFFFFFFFFFFFEFFFF000000FFFE000000000000000000000000000000000000000000000000FEFF0000000000FE000000000000000000000000000000000000000000000000FF000000000000000000000000
310
00000000000000000000000000000000000000000000000000000000000000000000000000000000000000000000000000000000000000000000000000000000000000000000000000000000000000000000000000000000000000000000000000000000000000000000000000000000000000000000000000000000000000
310
0000000000000000000000000000000000000000000000000000000000000000000000000000000000000000000000000000000000000000
102
{BLKREFS
331
4C73
102
}
 70
     4
280
     1
281
     0
  0
BLOCK_RECORD
  5
3997
330
1
100
AcDbSymbolTableRecord
100
AcDbBlockTableRecord
  2
GENDOT
340
0
102
{BLKREFS
331
6CE9
331
6DE6
102
}
 70
     0
280
     1
281
     0
  0
BLOCK_RECORD
  5
4C36
102
{ACAD_XDICTIONARY
360
4CFF
102
}
330
1
100
AcDbSymbolTableRecord
100
AcDbBlockTableRecord
  2
ケースＡ CEMH560
340
0
310
2800000020000000200000000100080000000000000400000000000000000000000000000000000000000000000080000080000000808000800000008000800080800000C0C0C000C0DCC000F0CAA6000020400000206000002080000020A0000020C0000020E00000400000004020000040400000406000004080000040A0
310
000040C0000040E00000600000006020000060400000606000006080000060A0000060C0000060E00000800000008020000080400000806000008080000080A0000080C0000080E00000A0000000A0200000A0400000A0600000A0800000A0A00000A0C00000A0E00000C0000000C0200000C0400000C0600000C0800000C0
310
A00000C0C00000C0E00000E0000000E0200000E0400000E0600000E0800000E0A00000E0C00000E0E00040000000400020004000400040006000400080004000A0004000C0004000E00040200000402020004020400040206000402080004020A0004020C0004020E000404000004040200040404000404060004040800040
310
40A0004040C0004040E00040600000406020004060400040606000406080004060A0004060C0004060E00040800000408020004080400040806000408080004080A0004080C0004080E00040A0000040A0200040A0400040A0600040A0800040A0A00040A0C00040A0E00040C0000040C0200040C0400040C0600040C08000
310
40C0A00040C0C00040C0E00040E0000040E0200040E0400040E0600040E0800040E0A00040E0C00040E0E00080000000800020008000400080006000800080008000A0008000C0008000E00080200000802020008020400080206000802080008020A0008020C0008020E00080400000804020008040400080406000804080
310
008040A0008040C0008040E00080600000806020008060400080606000806080008060A0008060C0008060E00080800000808020008080400080806000808080008080A0008080C0008080E00080A0000080A0200080A0400080A0600080A0800080A0A00080A0C00080A0E00080C0000080C0200080C0400080C0600080C0
310
800080C0A00080C0C00080C0E00080E0000080E0200080E0400080E0600080E0800080E0A00080E0C00080E0E000C0000000C0002000C0004000C0006000C0008000C000A000C000C000C000E000C0200000C0202000C0204000C0206000C0208000C020A000C020C000C020E000C0400000C0402000C0404000C0406000C0
310
408000C040A000C040C000C040E000C0600000C0602000C0604000C0606000C0608000C060A000C060C000C060E000C0800000C0802000C0804000C0806000C0808000C080A000C080C000C080E000C0A00000C0A02000C0A04000C0A06000C0A08000C0A0A000C0A0C000C0A0E000C0C00000C0C02000C0C04000C0C06000
310
C0C08000C0C0A000F0FBFF00A4A0A000808080000000FF0000FF000000FFFF00FF000000FF00FF00FFFF0000FFFFFF00000000000000000000000000000000000000000000000000000000000000000000000000000000000000000000FFFF000000000000000000000000000000000000000000000000000000000000FFFF
310
000000000000000000000000000000000000000000000000000000000000FFFF00000000FFFFFF0000000000000000000000000000000000000000000000FFFFFFFFFFFFFF00FF0000000000000000000000000000000000000000000000FFFF00000000FF00FF0000000000000000000000000000000000000000000000FF
310
FF00000000FF00FF0000000000000000000000000000000000000000000000FFFF00000000FF00FF0000000000000000000000000000000000000000000000FFFF00000000FF00FF0000000000000000000000000000000000000000000000FFFF00000000FF00FF0000000000000000000000000000000000000000000000
310
FFFF00000000FF00FF0000000000000000000000000000000000000000000000FFFF00000000FF00FF0000000000000000000000000000000000000000000000FFFF00000000FF00FF0000000000000000000000000000000000000000000000FFFF00000000FF00FF00000000000000000000000000000000000000000000
310
00000000000000000000000000000000000000000000000000000000000000000000000000000000000000000000000000000000000000000000000000000000000000000000000000000000000000000000000000000000000000000000000000000000000000000000000000000000000000000000000000000000000000
310
00000000000000000000000000000000000000000000000000000000000000000000000000000000000000000000000000000000000000000000000000000000000000000000000000000000000000000000000000000000000000000000000000000000000000000000000000000000000000000000000000000000000000
310
000000FFFFFFF9FFFFFFFFFF0000000000000000000000000000000000000000000000FAFFFFFFFFFFFFFFFF0000000000000000000000000000000000000000F9F9FFFAFAF900000000000000000000000000000000000000000000000000000000FFFFFA0000000000000000000000000000000000000000000000000000
310
000000000000FA00000000000000000000000000000000000000000000000000000000000000FA00000000000000000000000000000000000000000000000000000000000000FA0000000000000000000000000000000000000000000000000000000000000000FA0000000000000000000000000000000000000000000000
310
0000000000000000FA0000000000000000000000000000000000000000000000000000000000000000000000000000000000000000000000
102
{BLKREFS
331
4C74
102
}
 70
     4
280
     1
281
     0
  0
BLOCK_RECORD
  5
4EB3
102
{ACAD_XDICTIONARY
360
4F53
102
}
330
1
100
AcDbSymbolTableRecord
100
AcDbBlockTableRecord
  2
リーマボルト CEMH560 M24
340
0
310
2800000020000000200000000100080000000000000400000000000000000000000000000000000000000000000080000080000000808000800000008000800080800000C0C0C000C0DCC000F0CAA6000020400000206000002080000020A0000020C0000020E00000400000004020000040400000406000004080000040A0
310
000040C0000040E00000600000006020000060400000606000006080000060A0000060C0000060E00000800000008020000080400000806000008080000080A0000080C0000080E00000A0000000A0200000A0400000A0600000A0800000A0A00000A0C00000A0E00000C0000000C0200000C0400000C0600000C0800000C0
310
A00000C0C00000C0E00000E0000000E0200000E0400000E0600000E0800000E0A00000E0C00000E0E00040000000400020004000400040006000400080004000A0004000C0004000E00040200000402020004020400040206000402080004020A0004020C0004020E000404000004040200040404000404060004040800040
310
40A0004040C0004040E00040600000406020004060400040606000406080004060A0004060C0004060E00040800000408020004080400040806000408080004080A0004080C0004080E00040A0000040A0200040A0400040A0600040A0800040A0A00040A0C00040A0E00040C0000040C0200040C0400040C0600040C08000
310
40C0A00040C0C00040C0E00040E0000040E0200040E0400040E0600040E0800040E0A00040E0C00040E0E00080000000800020008000400080006000800080008000A0008000C0008000E00080200000802020008020400080206000802080008020A0008020C0008020E00080400000804020008040400080406000804080
310
008040A0008040C0008040E00080600000806020008060400080606000806080008060A0008060C0008060E00080800000808020008080400080806000808080008080A0008080C0008080E00080A0000080A0200080A0400080A0600080A0800080A0A00080A0C00080A0E00080C0000080C0200080C0400080C0600080C0
310
800080C0A00080C0C00080C0E00080E0000080E0200080E0400080E0600080E0800080E0A00080E0C00080E0E000C0000000C0002000C0004000C0006000C0008000C000A000C000C000C000E000C0200000C0202000C0204000C0206000C0208000C020A000C020C000C020E000C0400000C0402000C0404000C0406000C0
310
408000C040A000C040C000C040E000C0600000C0602000C0604000C0606000C0608000C060A000C060C000C060E000C0800000C0802000C0804000C0806000C0808000C080A000C080C000C080E000C0A00000C0A02000C0A04000C0A06000C0A08000C0A0A000C0A0C000C0A0E000C0C00000C0C02000C0C04000C0C06000
310
C0C08000C0C0A000F0FBFF00A4A0A000808080000000FF0000FF000000FFFF00FF000000FF00FF00FFFF0000FFFFFF0000000000000000000000000000000000000000000000000000000000000000000000000000000000000000000000000000000000000000000000000000000000000000000000000000000000000000
310
00000000000000000000000000000000000000000000000000000000000000000000000000000000000000000000000000000000000000000000000000000000000000000000000000000000000000000000000000000000000000000000000000000000000000000000000000000000000000000000000000000000000000
310
00000000000000000000000000000000000000000000000000000000000000000000000000000000000000000000000000000000000000000000000000000000000000000000000000000000000000000000000000000000000000000000000000000000000000000000000000000000000000000000FFFFFFFFFF00000000
310
00000000000000000000000000FFFFFFFF000000000000FF000000FFFFFF000000000000000000000000000000000000FFFF000000FFFFFF000000FF00FFFF00000000000000000000000000FFFF0000FFFF0000FFFFFEFFFFFFFFFF00FFFF00000000000000000000000000FFFFFFFFFFFF0000FFFF00FF000000FF00FFFF
310
00000000000000000000000000FF000000FFFF0000FFFF00FF000000FFFFFFFF00000000000000000000000000FF000000FFFF0000FFFF00FF000000FFFFFFFF00000000000000000000000000FF000000FFFF0000FFFF00FF000000FF00FFFF00000000000000000000000000FF000000FFFF0000FFFFFEFFFFFFFFFF00FF
310
FF00000000000000000000000000FFFFFFFFFFFF000000FFFFFF000000FF00FFFF00000000000000000000000000FFFF0000FFFF0000000000FF000000FFFFFF000000000000000000000000000000000000FFFF0000000000FFFFFFFFFF0000000000000000000000000000000000FFFFFFFF000000000000000000000000
310
00000000000000000000000000000000000000000000000000000000000000000000000000000000000000000000000000000000000000000000000000000000000000000000000000000000000000000000000000000000000000000000000000000000000000000000000000000000000000000000000000000000000000
310
00000000000000000000000000000000000000000000000000000000000000000000000000000000000000000000000000000000000000000000000000000000000000000000000000000000000000000000000000000000000000000000000000000000000000000000000000000000000000000000000000000000000000
310
0000000000000000000000000000000000000000000000000000000000000000000000000000000000000000000000000000000000000000
102
{BLKREFS
331
4EE6
102
}
 70
     4
280
     1
281
     0
  0
BLOCK_RECORD
  5
5058
102
{ACAD_XDICTIONARY
360
6210
102
}
330
1
100
AcDbSymbolTableRecord
100
AcDbBlockTableRecord
  2
センタ CEMH560
340
0
310
2800000020000000200000000100080000000000000400000000000000000000000000000000000000000000000080000080000000808000800000008000800080800000C0C0C000C0DCC000F0CAA6000020400000206000002080000020A0000020C0000020E00000400000004020000040400000406000004080000040A0
310
000040C0000040E00000600000006020000060400000606000006080000060A0000060C0000060E00000800000008020000080400000806000008080000080A0000080C0000080E00000A0000000A0200000A0400000A0600000A0800000A0A00000A0C00000A0E00000C0000000C0200000C0400000C0600000C0800000C0
310
A00000C0C00000C0E00000E0000000E0200000E0400000E0600000E0800000E0A00000E0C00000E0E00040000000400020004000400040006000400080004000A0004000C0004000E00040200000402020004020400040206000402080004020A0004020C0004020E000404000004040200040404000404060004040800040
310
40A0004040C0004040E00040600000406020004060400040606000406080004060A0004060C0004060E00040800000408020004080400040806000408080004080A0004080C0004080E00040A0000040A0200040A0400040A0600040A0800040A0A00040A0C00040A0E00040C0000040C0200040C0400040C0600040C08000
310
40C0A00040C0C00040C0E00040E0000040E0200040E0400040E0600040E0800040E0A00040E0C00040E0E00080000000800020008000400080006000800080008000A0008000C0008000E00080200000802020008020400080206000802080008020A0008020C0008020E00080400000804020008040400080406000804080
310
008040A0008040C0008040E00080600000806020008060400080606000806080008060A0008060C0008060E00080800000808020008080400080806000808080008080A0008080C0008080E00080A0000080A0200080A0400080A0600080A0800080A0A00080A0C00080A0E00080C0000080C0200080C0400080C0600080C0
310
800080C0A00080C0C00080C0E00080E0000080E0200080E0400080E0600080E0800080E0A00080E0C00080E0E000C0000000C0002000C0004000C0006000C0008000C000A000C000C000C000E000C0200000C0202000C0204000C0206000C0208000C020A000C020C000C020E000C0400000C0402000C0404000C0406000C0
310
408000C040A000C040C000C040E000C0600000C0602000C0604000C0606000C0608000C060A000C060C000C060E000C0800000C0802000C0804000C0806000C0808000C080A000C080C000C080E000C0A00000C0A02000C0A04000C0A06000C0A08000C0A0A000C0A0C000C0A0E000C0C00000C0C02000C0C04000C0C06000
310
C0C08000C0C0A000F0FBFF00A4A0A000808080000000FF0000FF000000FFFF00FF000000FF00FF00FFFF0000FFFFFF00000000000000000000000000000000000000000000000000000000000000000000000000000000000000000000000000000000FFFFFFFFFFFF00000000000000000000000000000000000000000000
310
0000000000FF00000000FF0000000000000000000000000000000000000000000000000000FF00000000FF0000000000000000000000000000000000000000000000000000FF00000000FF0000000000000000000000000000000000000000000000000000FF00000000FF0000000000000000000000000000000000000000
310
000000000000FF00000000FF0000000000000000000000000000000000000000000000000000FF00000000FF0000000000000000000000000000000000000000000000000000FF00000000FF0000000000000000000000000000000000000000000000000000FF00000000FF00000000000000000000000000000000000000
310
00000000000000FF00000000FF0000000000000000000000000000000000000000000000000000FF00000000FF0000000000000000000000000000000000000000000000000000FF00000000FF0000000000000000000000000000000000000000000000000000FF00000000FF000000000000000000000000000000000000
310
0000000000000000FF00000000FF000000000000000000000000A4A4A4A4A4A40000000000000000FF000000FFFF000000000000000000000000A4A4A4A4A400000000000000000000000000FFFF000000000000000000000000FF0000000000000000000000000000000000FFFF000000000000000000000000FF00000000
310
00000000000000000000000000FFFF000000000000000000000000FF0000000000000000000000000000000000FFFF000000000000000000000000FF0000000000000000000000000000000000FFFF000000000000000000000000FF0000000000000000000000000000000000FFFF000000000000000000000000FF000000
310
0000000000000000000000000000FFFF000000000000000000000000FFFFFFFFFFFFFFFFFFFFFFFFFFFFFFFFFFFFFFFF000000000000000000000000FFFFFFFFFFFFFFFFFFFFFFFFFFFFFFFFFFFFFFFF000000000000000000000000FF000000000000000000000000000000000000FF000000000000000000000000FF0000
310
00000000000000000000000000000000FF000000000000000000000000FF000000000000000000000000000000000000FF000000000000000000000000FFFFFFFFFFFFFFFFF9FFFFFFFFFFFFFFFFFFFFFF0000000000000000000000000000000000FFFFFFF9FFFFFF00000000000000000000000000000000000000000000
310
000000000000F900000000000000000000000000000000000000000000000000000000000000000000000000000000000000000000000000
102
{BLKREFS
331
507F
102
}
 70
     4
280
     1
281
     0
  0
BLOCK_RECORD
  5
510B
102
{ACAD_XDICTIONARY
360
5211
102
}
330
1
100
AcDbSymbolTableRecord
100
AcDbBlockTableRecord
  2
ＧＣサイドカバ－ CEMH560
340
0
310
2800000020000000200000000100080000000000000400000000000000000000000000000000000000000000000080000080000000808000800000008000800080800000C0C0C000C0DCC000F0CAA6000020400000206000002080000020A0000020C0000020E00000400000004020000040400000406000004080000040A0
310
000040C0000040E00000600000006020000060400000606000006080000060A0000060C0000060E00000800000008020000080400000806000008080000080A0000080C0000080E00000A0000000A0200000A0400000A0600000A0800000A0A00000A0C00000A0E00000C0000000C0200000C0400000C0600000C0800000C0
310
A00000C0C00000C0E00000E0000000E0200000E0400000E0600000E0800000E0A00000E0C00000E0E00040000000400020004000400040006000400080004000A0004000C0004000E00040200000402020004020400040206000402080004020A0004020C0004020E000404000004040200040404000404060004040800040
310
40A0004040C0004040E00040600000406020004060400040606000406080004060A0004060C0004060E00040800000408020004080400040806000408080004080A0004080C0004080E00040A0000040A0200040A0400040A0600040A0800040A0A00040A0C00040A0E00040C0000040C0200040C0400040C0600040C08000
310
40C0A00040C0C00040C0E00040E0000040E0200040E0400040E0600040E0800040E0A00040E0C00040E0E00080000000800020008000400080006000800080008000A0008000C0008000E00080200000802020008020400080206000802080008020A0008020C0008020E00080400000804020008040400080406000804080
310
008040A0008040C0008040E00080600000806020008060400080606000806080008060A0008060C0008060E00080800000808020008080400080806000808080008080A0008080C0008080E00080A0000080A0200080A0400080A0600080A0800080A0A00080A0C00080A0E00080C0000080C0200080C0400080C0600080C0
310
800080C0A00080C0C00080C0E00080E0000080E0200080E0400080E0600080E0800080E0A00080E0C00080E0E000C0000000C0002000C0004000C0006000C0008000C000A000C000C000C000E000C0200000C0202000C0204000C0206000C0208000C020A000C020C000C020E000C0400000C0402000C0404000C0406000C0
310
408000C040A000C040C000C040E000C0600000C0602000C0604000C0606000C0608000C060A000C060C000C060E000C0800000C0802000C0804000C0806000C0808000C080A000C080C000C080E000C0A00000C0A02000C0A04000C0A06000C0A08000C0A0A000C0A0C000C0A0E000C0C00000C0C02000C0C04000C0C06000
310
C0C08000C0C0A000F0FBFF00A4A0A000808080000000FF0000FF000000FFFF00FF000000FF00FF00FFFF0000FFFFFF000000000000000000000000000000000000000000000000000000000000000000000000000000000000000000000000FA000000FA000000000000000000000000000000000000000000000000000000
310
FAFAFAFAFA000000000000000000000000000000000000000000000000000000FAFAFAFAFA000000000000000000000000000000000000000000000000000000FA000000FA000000000000000000000000000000000000000000000000000000FA000000FA0000000000000000000000000000000000000000000000000000
310
00FA000000FA000000000000000000000000000000000000000000000000000000FA000000FA000000000000000000000000000000000000000000000000000000FA000000FA0000000000000000000000000000000000000000000000000000FFFF000000FA00000000000000000000000000000000000000000000000000
310
0000FF000000FA000000000000000000000000000000000000000000000000000000FF000000FA000000000000000000000000000000000000000000000000000000FF000000FA000000000000000000000000000000000000000000000000000000FF00000000000000000000000000000000000000000000000000000000
310
000000FF00000000000000000000000000000000000000000000000000000000000000FF00000000000000000000000000000000000000000000000000000000000000FF00000000000000000000000000000000000000000000000000000000000000FF000000000000000000000000000000000000000000000000000000
310
00000000FF00000000000000000000000000000000000000000000000000000000000000FF000000000000000000000000000000000000000000000000000000000000000000000000000000000000000000000000000000000000000000000000000000000000000000000000000000000000000000000000000000000000
310
00000000000000000000000000000000000000000000000000000000000000000000000000000000000000000000000000000000000000000000000000000000000000000000000000000000000000000000000000000000000000000000000000000000000000000000000000000000000000000000000000000000000000
310
000000FAFAFAFAFAFAFA000000000000000000000000000000000000000000000000000000FAFAFAFAFA000000000000000000000000000000000000000000000000000000FFFF0000000000000000000000000000000000000000000000000000000000FFFFFFF90000000000000000000000000000000000000000000000
310
000000000000FFFF000000000000000000000000000000000000000000000000000000000000000000000000000000000000000000000000
102
{BLKREFS
331
5148
102
}
 70
     4
280
     1
281
     0
  0
BLOCK_RECORD
  5
552A
330
1
100
AcDbSymbolTableRecord
100
AcDbBlockTableRecord
  2
*D12
340
0
 70
     0
280
     1
281
     0
  0
BLOCK_RECORD
  5
5555
330
1
100
AcDbSymbolTableRecord
100
AcDbBlockTableRecord
  2
*D13
340
0
 70
     0
280
     1
281
     0
  0
BLOCK_RECORD
  5
556D
330
1
100
AcDbSymbolTableRecord
100
AcDbBlockTableRecord
  2
*D14
340
0
 70
     0
280
     1
281
     0
  0
BLOCK_RECORD
  5
559F
330
1
100
AcDbSymbolTableRecord
100
AcDbBlockTableRecord
  2
*D15
340
0
 70
     0
280
     1
281
     0
  0
BLOCK_RECORD
  5
55DB
330
1
100
AcDbSymbolTableRecord
100
AcDbBlockTableRecord
  2
*D16
340
0
 70
     0
280
     1
281
     0
  0
BLOCK_RECORD
  5
55F3
330
1
100
AcDbSymbolTableRecord
100
AcDbBlockTableRecord
  2
*D17
340
0
 70
     0
280
     1
281
     0
  0
BLOCK_RECORD
  5
5613
330
1
100
AcDbSymbolTableRecord
100
AcDbBlockTableRecord
  2
*D18
340
0
 70
     0
280
     1
281
     0
  0
BLOCK_RECORD
  5
578B
330
1
100
AcDbSymbolTableRecord
100
AcDbBlockTableRecord
  2
*D19
340
0
 70
     0
280
     1
281
     0
  0
BLOCK_RECORD
  5
5901
330
1
100
AcDbSymbolTableRecord
100
AcDbBlockTableRecord
  2
*D20
340
0
 70
     0
280
     1
281
     0
  0
BLOCK_RECORD
  5
591D
330
1
100
AcDbSymbolTableRecord
100
AcDbBlockTableRecord
  2
*D21
340
0
 70
     0
280
     1
281
     0
  0
BLOCK_RECORD
  5
5939
330
1
100
AcDbSymbolTableRecord
100
AcDbBlockTableRecord
  2
*D22
340
0
 70
     0
280
     1
281
     0
  0
BLOCK_RECORD
  5
5951
330
1
100
AcDbSymbolTableRecord
100
AcDbBlockTableRecord
  2
*D23
340
0
 70
     0
280
     1
281
     0
  0
BLOCK_RECORD
  5
5969
330
1
100
AcDbSymbolTableRecord
100
AcDbBlockTableRecord
  2
*D24
340
0
 70
     0
280
     1
281
     0
  0
BLOCK_RECORD
  5
5981
330
1
100
AcDbSymbolTableRecord
100
AcDbBlockTableRecord
  2
*D25
340
0
 70
     0
280
     1
281
     0
  0
BLOCK_RECORD
  5
6BA8
330
1
100
AcDbSymbolTableRecord
100
AcDbBlockTableRecord
  2
*D26
340
0
 70
     0
280
     1
281
     0
  0
BLOCK_RECORD
  5
6C28
330
1
100
AcDbSymbolTableRecord
100
AcDbBlockTableRecord
  2
*D27
340
0
 70
     0
280
     1
281
     0
  0
BLOCK_RECORD
  5
6C52
330
1
100
AcDbSymbolTableRecord
100
AcDbBlockTableRecord
  2
*D28
340
0
 70
     0
280
     1
281
     0
  0
BLOCK_RECORD
  5
6E89
330
1
100
AcDbSymbolTableRecord
100
AcDbBlockTableRecord
  2
ﾘｼﾞｯﾄ CEM560
340
0
310
2800000020000000200000000100080000000000000400000000000000000000000000000000000000000000000080000080000000808000800000008000800080800000C0C0C000C0DCC000F0CAA6000020400000206000002080000020A0000020C0000020E00000400000004020000040400000406000004080000040A0
310
000040C0000040E00000600000006020000060400000606000006080000060A0000060C0000060E00000800000008020000080400000806000008080000080A0000080C0000080E00000A0000000A0200000A0400000A0600000A0800000A0A00000A0C00000A0E00000C0000000C0200000C0400000C0600000C0800000C0
310
A00000C0C00000C0E00000E0000000E0200000E0400000E0600000E0800000E0A00000E0C00000E0E00040000000400020004000400040006000400080004000A0004000C0004000E00040200000402020004020400040206000402080004020A0004020C0004020E000404000004040200040404000404060004040800040
310
40A0004040C0004040E00040600000406020004060400040606000406080004060A0004060C0004060E00040800000408020004080400040806000408080004080A0004080C0004080E00040A0000040A0200040A0400040A0600040A0800040A0A00040A0C00040A0E00040C0000040C0200040C0400040C0600040C08000
310
40C0A00040C0C00040C0E00040E0000040E0200040E0400040E0600040E0800040E0A00040E0C00040E0E00080000000800020008000400080006000800080008000A0008000C0008000E00080200000802020008020400080206000802080008020A0008020C0008020E00080400000804020008040400080406000804080
310
008040A0008040C0008040E00080600000806020008060400080606000806080008060A0008060C0008060E00080800000808020008080400080806000808080008080A0008080C0008080E00080A0000080A0200080A0400080A0600080A0800080A0A00080A0C00080A0E00080C0000080C0200080C0400080C0600080C0
310
800080C0A00080C0C00080C0E00080E0000080E0200080E0400080E0600080E0800080E0A00080E0C00080E0E000C0000000C0002000C0004000C0006000C0008000C000A000C000C000C000E000C0200000C0202000C0204000C0206000C0208000C020A000C020C000C020E000C0400000C0402000C0404000C0406000C0
310
408000C040A000C040C000C040E000C0600000C0602000C0604000C0606000C0608000C060A000C060C000C060E000C0800000C0802000C0804000C0806000C0808000C080A000C080C000C080E000C0A00000C0A02000C0A04000C0A06000C0A08000C0A0A000C0A0C000C0A0E000C0C00000C0C02000C0C04000C0C06000
310
C0C08000C0C0A000F0FBFF00A4A0A000808080000000FF0000FF000000FFFF00FF000000FF00FF00FFFF0000FFFFFF000000000000000000000000000000000000000000000000000000000000000000000000000000000000000000000000000000000000FFFF000000000000000000000000000000000000000000000000
310
000000000000FF00000000000000000000000000000000000000000000000000000000000000FF00000000000000000000000000000000000000000000000000000000000000FF00000000000000000000000000000000000000FFFFFFFFFFFFFFFFFFFFFFFFFF00000000000000000000000000000000000000FF00000000
310
000000000000FFFF00000000000000000000000000000000000000FF00000000000000000000FFFF00000000000000000000000000000000000000FF00000000000000000000FFFF00000000000000000000000000000000000000FF00000000000000000000FFFF00000000000000000000000000000000000000FF000000
310
00000000000000FFFF00000000000000000000000000000000000000FF00000000000000000000FFFF00000000000000000000000000000000000000FF00000000000000000000FFFF00000000000000000000000000000000000000FF00000000000000000000FFFF00000000000000000000000000000000000000FF0000
310
0000000000000000FFFF00000000000000000000000000000000000000FF00000000000000000000FFFF00000000000000000000000000000000000000FF0000000000000000A4A4A4A4A4000000000000000000000000000000000000FF000000000000000000000000FF000000000000000000000000000000000000FF00
310
0000000000000000000000FF000000000000000000000000000000000000FF000000000000000000000000FF000000000000000000000000000000000000FF000000000000000000000000FF000000000000000000000000000000000000FFFFFFFFFFFFFFFFFFFFFFFFFFFF000000000000000000000000000000000000FF
310
000000000000000000000000FF000000000000000000000000000000000000FF000000000000000000000000FF000000000000000000000000000000000000FF000000000000000000000000FF000000000000000000000000000000000000FF000000000000000000000000FF000000000000000000000000000000000000
310
FFFFFFFFFFFFFFFFFFFFFFFF00FF000000000000000000000000000000000000000000000000000000000000FFFF000000000000000000000000000000000000000000000000000000000000FFFF000000000000000000000000000000000000000000000000000000000000FFFF0000000000000000000000000000000000
310
00000000000000000000000000FFFF0000000000000000000000000000000000000000000000000000000000000000000000000000000000
102
{BLKREFS
331
6EAF
102
}
 70
     4
280
     1
281
     1
  0
BLOCK_RECORD
  5
6EB0
330
1
100
AcDbSymbolTableRecord
100
AcDbBlockTableRecord
  2
GCｻｲﾄﾞｶﾊﾞｰ CEM560
340
0
310
2800000020000000200000000100080000000000000400000000000000000000000000000000000000000000000080000080000000808000800000008000800080800000C0C0C000C0DCC000F0CAA6000020400000206000002080000020A0000020C0000020E00000400000004020000040400000406000004080000040A0
310
000040C0000040E00000600000006020000060400000606000006080000060A0000060C0000060E00000800000008020000080400000806000008080000080A0000080C0000080E00000A0000000A0200000A0400000A0600000A0800000A0A00000A0C00000A0E00000C0000000C0200000C0400000C0600000C0800000C0
310
A00000C0C00000C0E00000E0000000E0200000E0400000E0600000E0800000E0A00000E0C00000E0E00040000000400020004000400040006000400080004000A0004000C0004000E00040200000402020004020400040206000402080004020A0004020C0004020E000404000004040200040404000404060004040800040
310
40A0004040C0004040E00040600000406020004060400040606000406080004060A0004060C0004060E00040800000408020004080400040806000408080004080A0004080C0004080E00040A0000040A0200040A0400040A0600040A0800040A0A00040A0C00040A0E00040C0000040C0200040C0400040C0600040C08000
310
40C0A00040C0C00040C0E00040E0000040E0200040E0400040E0600040E0800040E0A00040E0C00040E0E00080000000800020008000400080006000800080008000A0008000C0008000E00080200000802020008020400080206000802080008020A0008020C0008020E00080400000804020008040400080406000804080
310
008040A0008040C0008040E00080600000806020008060400080606000806080008060A0008060C0008060E00080800000808020008080400080806000808080008080A0008080C0008080E00080A0000080A0200080A0400080A0600080A0800080A0A00080A0C00080A0E00080C0000080C0200080C0400080C0600080C0
310
800080C0A00080C0C00080C0E00080E0000080E0200080E0400080E0600080E0800080E0A00080E0C00080E0E000C0000000C0002000C0004000C0006000C0008000C000A000C000C000C000E000C0200000C0202000C0204000C0206000C0208000C020A000C020C000C020E000C0400000C0402000C0404000C0406000C0
310
408000C040A000C040C000C040E000C0600000C0602000C0604000C0606000C0608000C060A000C060C000C060E000C0800000C0802000C0804000C0806000C0808000C080A000C080C000C080E000C0A00000C0A02000C0A04000C0A06000C0A08000C0A0A000C0A0C000C0A0E000C0C00000C0C02000C0C04000C0C06000
310
C0C08000C0C0A000F0FBFF00A4A0A000808080000000FF0000FF000000FFFF00FF000000FF00FF00FFFF0000FFFFFF00000000000000000000000000000000000000000000000000000000000000000000000000000000FC0000FC000000000000FC0000FC000000000000000000000000000000000000FCFCFCFC00000000
310
0000FCFCFCFC000000000000000000000000000000000000FC0000FC000000000000FC0000FC000000000000000000000000000000000000FC0000FC000000000000FC0000FC000000000000000000000000000000000000FC0000FC000000000000FC0000FC000000000000000000000000000000000000FC0000FCFCFCFC
310
FCFCFCFC0000FC000000000000000000000000000000000000FC000000000000000000000000FC000000000000000000000000000000000000FC000000000000000000000000FC000000000000000000000000000000000000FC000000000000000000000000FC000000000000000000000000000000000000FC0000000000
310
00000000000000FC000000000000000000000000000000000000FC000000000000000000000000FC000000000000000000000000000000000000FC000000000000000000000000FC000000000000000000000000000000000000FC000000000000000000000000FC000000000000000000000000000000000000FCFCFCFCFC
310
FC00000000000000FC0000000000000000000000000000000000000000000000FC00000000000000FC0000000000000000000000000000000000000000000000FC00000000000000FC000000000000000000000000000000000000000000FCFCFC00000000000000FC000000000000000000000000000000000000000000FC
310
000000000000000000FC000000000000000000000000000000000000000000FC000000000000000000FC000000000000000000000000000000000000000000FC000000000000000000FC000000000000000000000000000000000000000000FC000000000000000000FC000000000000000000000000000000000000FCFCFC
310
FCFCFCFCFCFCFCFCFCFCFCFCFCFCFC0000000000000000000000000000000000FC000000000000000000FC000000000000000000000000000000000000000000FC000000000000000000FC000000000000000000000000000000000000000000FC000000000000000000FC0000000000000000000000000000000000000000
310
00FC000000000000000000FC000000000000000000000000000000000000000000FC000000000000000000FC000000000000000000000000000000000000000000FC000000000000000000FC000000000000000000000000000000000000000000FC000000000000000000FC00000000000000000000000000000000000000
310
0000FCFCFCFCFCFCFCFCFCFCFC00000000000000000000000000000000000000000000000000000000000000000000000000000000000000
102
{BLKREFS
331
6ECC
102
}
 70
     4
280
     1
281
     1
  0
ENDTAB
  0
ENDSEC
  0
SECTION
  2
BLOCKS
  0
BLOCK
  5
20
330
1F
100
AcDbEntity
  8
0
100
AcDbBlockBegin
  2
*Model_Space
 70
     0
 10
0.0
 20
0.0
 30
0.0
  3
*Model_Space
  1

  0
ENDBLK
  5
21
330
1F
100
AcDbEntity
  8
0
100
AcDbBlockEnd
  0
BLOCK
  5
1C
330
1B
100
AcDbEntity
 67
     1
  8
0
100
AcDbBlockBegin
  2
*Paper_Space
 70
     0
 10
0.0
 20
0.0
 30
0.0
  3
*Paper_Space
  1

  0
ENDBLK
  5
1D
330
1B
100
AcDbEntity
 67
     1
  8
0
100
AcDbBlockEnd
  0
BLOCK
  5
24
330
23
100
AcDbEntity
 67
     1
  8
0
100
AcDbBlockBegin
  2
*Paper_Space0
 70
     0
 10
0.0
 20
0.0
 30
0.0
  3
*Paper_Space0
  1

  0
ENDBLK
  5
25
330
23
100
AcDbEntity
 67
     1
  8
0
100
AcDbBlockEnd
  0
BLOCK
  5
6D
330
69
100
AcDbEntity
  8
0
100
AcDbBlockBegin
  2
_Open30
 70
     0
 10
0.0
 20
0.0
 30
0.0
  3
_Open30
  1

  0
LINE
  5
6A
330
69
100
AcDbEntity
  8
0
  6
ByBlock
 62
     0
370
    -2
100
AcDbLine
 10
-1.0
 20
0.26794919
 30
0.0
 11
0.0
 21
0.0
 31
0.0
  0
LINE
  5
6B
330
69
100
AcDbEntity
  8
0
  6
ByBlock
 62
     0
370
    -2
100
AcDbLine
 10
0.0
 20
0.0
 30
0.0
 11
-1.0
 21
-0.26794919
 31
0.0
  0
LINE
  5
6C
330
69
100
AcDbEntity
  8
0
  6
ByBlock
 62
     0
370
    -2
100
AcDbLine
 10
0.0
 20
0.0
 30
0.0
 11
-1.0
 21
0.0
 31
0.0
  0
ENDBLK
  5
6E
330
69
100
AcDbEntity
  8
0
100
AcDbBlockEnd
  0
BLOCK
  5
76
330
74
100
AcDbEntity
  8
0
100
AcDbBlockBegin
  2
GENAXEH
 70
     0
 10
0.0
 20
0.0
 30
0.0
  3
GENAXEH
  1

  0
LINE
  5
75
330
74
100
AcDbEntity
  8
0
100
AcDbLine
 10
-1.0
 20
0.0
 30
0.0
 11
1.0
 21
0.0
 31
0.0
  0
ENDBLK
  5
77
330
74
100
AcDbEntity
  8
0
100
AcDbBlockEnd
  0
BLOCK
  5
3707
330
3704
100
AcDbEntity
  8
0
100
AcDbBlockBegin
  2
ロッカクアナツキプラグ R1／2
 70
     0
 10
0.0
 20
0.0
 30
0.0
  3
ロッカクアナツキプラグ R1／2
  1

  0
LINE
  5
4B91
330
3704
100
AcDbEntity
  8
AM_0 外形線1
100
AcDbLine
 10
10.26238800000101
 20
-13.0
 30
0.0
 11
-10.26238799999919
 21
-13.0
 31
0.0
  0
LINE
  5
4B92
330
3704
100
AcDbEntity
  8
AM_0 外形線1
100
AcDbLine
 10
-10.66397699999925
 20
-1.5
 30
0.0
 11
10.66397700000016
 21
-1.5
 31
0.0
  0
LINE
  5
4B93
330
3704
100
AcDbEntity
  8
AM_0 外形線1
100
AcDbLine
 10
-6.798286999999617
 20
-15.0
 30
0.0
 11
6.798286000000188
 21
-15.0
 31
0.0
  0
LINE
  5
4B94
330
3704
100
AcDbEntity
  8
AM_0 外形線1
100
AcDbLine
 10
-10.26238799999919
 20
-13.0
 30
0.0
 11
-6.798286999999617
 21
-15.0
 31
0.0
  0
LINE
  5
4B95
330
3704
100
AcDbEntity
  8
AM_0 外形線1
100
AcDbLine
 10
-10.66397699999925
 20
-1.5
 30
0.0
 11
-10.26238799999919
 21
-13.0
 31
0.0
  0
LINE
  5
4B96
330
3704
100
AcDbEntity
  8
AM_0 外形線1
100
AcDbLine
 10
-9.163976999999247
 20
0.0
 30
0.0
 11
-10.66397699999925
 21
-1.5
 31
0.0
  0
LINE
  5
4B97
330
3704
100
AcDbEntity
  8
AM_4 細線
100
AcDbLine
 10
9.541185000000039
 20
-0.3772089999999935
 30
0.0
 11
9.076478000000859
 21
-13.68468499999994
 31
0.0
  0
LINE
  5
4B98
330
3704
100
AcDbEntity
  8
AM_4 細線
100
AcDbLine
 10
-9.07647899999938
 20
-13.68468499999994
 30
0.0
 11
-9.54118599999947
 21
-0.3772089999999935
 31
0.0
  0
LINE
  5
4B99
330
3704
100
AcDbEntity
  8
AM_0 外形線1
100
AcDbLine
 10
10.66397700000016
 20
-1.5
 30
0.0
 11
9.163977000000159
 21
0.0
 31
0.0
  0
LINE
  5
4B9A
330
3704
100
AcDbEntity
  8
AM_0 外形線1
100
AcDbLine
 10
10.26238800000101
 20
-13.0
 30
0.0
 11
10.66397700000016
 21
-1.5
 31
0.0
  0
LINE
  5
4B9B
330
3704
100
AcDbEntity
  8
AM_0 外形線1
100
AcDbLine
 10
6.798286000000188
 20
-15.0
 30
0.0
 11
10.26238800000101
 21
-13.0
 31
0.0
  0
LINE
  5
4BAD
330
3704
100
AcDbEntity
  8
AM_7 中心線
100
AcDbLine
 10
0.0
 20
4.289023999999925
 30
0.0
 11
0.0
 21
-23.11534099999994
 31
0.0
  0
LINE
  5
4BB9
330
3704
100
AcDbEntity
  8
AM_0 外形線1
100
AcDbLine
 10
-9.163976999999247
 20
0.0
 30
0.0
 11
9.163977000000159
 21
0.0
 31
0.0
  0
ENDBLK
  5
3715
330
3704
100
AcDbEntity
  8
0
100
AcDbBlockEnd
  0
BLOCK
  5
3998
330
3997
100
AcDbEntity
  8
0
100
AcDbBlockBegin
  2
GENDOT
 70
     0
 10
0.0
 20
0.0
 30
0.0
  3
GENDOT
  1

  0
LINE
  5
3999
330
3997
100
AcDbEntity
  8
0
100
AcDbLine
 10
0.0
 20
0.0
 30
0.0
 11
-1.0
 21
0.0
 31
0.0
  0
LWPOLYLINE
  5
399A
330
3997
100
AcDbEntity
  8
0
100
AcDbPolyline
 90
        2
 70
     1
 43
0.25
 10
-0.125
 20
0.0
 42
1.0
 10
0.125
 20
0.0
 42
1.0
  0
ENDBLK
  5
399B
330
3997
100
AcDbEntity
  8
0
100
AcDbBlockEnd
  0
BLOCK
  5
4C37
330
4C36
100
AcDbEntity
  8
0
100
AcDbBlockBegin
  2
ケースＡ CEMH560
 70
     0
 10
0.0
 20
0.0
 30
0.0
  3
ケースＡ CEMH560
  1

  0
LINE
  5
4C39
330
4C36
100
AcDbEntity
  8
AM_0 外形線1
100
AcDbLine
 10
-7.0
 20
224.0
 30
0.0
 11
-6.0
 21
225.0
 31
0.0
  0
LINE
  5
4C3A
330
4C36
100
AcDbEntity
  8
AM_0 外形線1
100
AcDbLine
 10
78.5
 20
211.5
 30
0.0
 11
-7.0
 21
211.5
 31
0.0
  0
LINE
  5
4C3B
330
4C36
100
AcDbEntity
  8
AM_7 中心線
100
AcDbLine
 10
50.0
 20
257.5
 30
0.0
 11
-68.0
 21
257.5
 31
0.0
  0
LINE
  5
4C3E
330
4C36
100
AcDbEntity
  8
AM_0 外形線1
100
AcDbLine
 10
-7.0
 20
211.5
 30
0.0
 11
-7.0
 21
224.0
 31
0.0
  0
LINE
  5
4C3F
330
4C36
100
AcDbEntity
  8
AM_0 外形線1
100
AcDbLine
 10
30.0
 20
-279.0
 30
0.0
 11
30.0
 21
0.0
 31
0.0
  0
LINE
  5
4C40
330
4C36
100
AcDbEntity
  8
AM_0 外形線1
100
AcDbLine
 10
0.0
 20
0.0
 30
0.0
 11
0.0
 21
-279.0
 31
0.0
  0
LINE
  5
4C41
330
4C36
100
AcDbEntity
  8
AM_0 外形線1
100
AcDbLine
 10
1.0
 20
-280.0
 30
0.0
 11
29.0
 21
-280.0
 31
0.0
  0
LINE
  5
4C42
330
4C36
100
AcDbEntity
  8
AM_0 外形線1
100
AcDbLine
 10
0.0
 20
-279.0
 30
0.0
 11
1.0
 21
-280.0
 31
0.0
  0
LINE
  5
4C43
330
4C36
100
AcDbEntity
  8
AM_0 外形線1
100
AcDbLine
 10
29.0
 20
-280.0
 30
0.0
 11
30.0
 21
-279.0
 31
0.0
  0
LINE
  5
4C44
330
4C36
100
AcDbEntity
  8
AM_0 外形線1
100
AcDbLine
 10
139.0
 20
0.0
 30
0.0
 11
139.0
 21
-229.0
 31
0.0
  0
LINE
  5
4C45
330
4C36
100
AcDbEntity
  8
AM_0 外形線1
100
AcDbLine
 10
146.0
 20
-236.0
 30
0.0
 11
146.0
 21
0.0
 31
0.0
  0
LINE
  5
4C46
330
4C36
100
AcDbEntity
  8
AM_0 外形線1
100
AcDbLine
 10
171.0
 20
-236.0
 30
0.0
 11
171.0
 21
0.0
 31
0.0
  0
LINE
  5
4C47
330
4C36
100
AcDbEntity
  8
AM_0 外形線1
100
AcDbLine
 10
36.0
 20
-229.0
 30
0.0
 11
139.0
 21
-229.0
 31
0.0
  0
ARC
  5
4C48
330
4C36
100
AcDbEntity
  8
AM_0 外形線1
100
AcDbCircle
 10
36.0
 20
-235.0
 30
0.0
 40
6.0
100
AcDbArc
 50
90.0
 51
180.0
  0
LINE
  5
4C49
330
4C36
100
AcDbEntity
  8
AM_0 外形線1
100
AcDbLine
 10
139.0
 20
-229.0
 30
0.0
 11
146.0
 21
-236.0
 31
0.0
  0
LINE
  5
4C4A
330
4C36
100
AcDbEntity
  8
AM_0 外形線1
100
AcDbLine
 10
146.0
 20
-236.0
 30
0.0
 11
171.0
 21
-236.0
 31
0.0
  0
LINE
  5
4C4B
330
4C36
100
AcDbEntity
  8
AM_0 外形線1
100
AcDbLine
 10
36.0
 20
229.0
 30
0.0
 11
139.0
 21
229.0
 31
0.0
  0
LINE
  5
4C4C
330
4C36
100
AcDbEntity
  8
AM_3 隠れ線
100
AcDbLine
 10
160.5
 20
199.2
 30
0.0
 11
85.5
 21
199.2
 31
0.0
  0
LINE
  5
4C4D
330
4C36
100
AcDbEntity
  8
AM_7 中心線
100
AcDbLine
 10
77.0
 20
204.0
 30
0.0
 11
168.0
 21
204.0
 31
0.0
  0
LINE
  5
4C4E
330
4C36
100
AcDbEntity
  8
AM_0 外形線1
100
AcDbLine
 10
79.0
 20
210.0
 30
0.0
 11
166.0
 21
210.0
 31
0.0
  0
LINE
  5
4C4F
330
4C36
100
AcDbEntity
  8
AM_0 外形線1
100
AcDbLine
 10
0.0
 20
232.2
 30
0.0
 11
0.0
 21
244.5
 31
0.0
  0
LINE
  5
4C50
330
4C36
100
AcDbEntity
  8
AM_0 外形線1
100
AcDbLine
 10
30.0
 20
235.0
 30
0.0
 11
30.0
 21
279.0
 31
0.0
  0
LWPOLYLINE
  5
4C51
330
4C36
100
AcDbEntity
  8
AM_0 外形線1
100
AcDbPolyline
 90
       73
 70
     0
 43
0.0
 10
2.25
 20
225.0
 10
2.446100000000114
 20
225.0136990000001
 10
2.640708000000813
 20
225.0546919999999
 10
2.832343000000037
 20
225.1226669999998
 10
3.019545000000106
 20
225.2171069999999
 10
3.20089100000041
 20
225.3372919999999
 10
3.375
 20
225.482309
 10
3.540547000000514
 20
225.6510529999998
 10
3.696272000001043
 20
225.84224
 10
3.8409900000006
 20
226.0544159999999
 10
3.97360000000026
 20
226.285965
 10
4.093092000000978
 20
226.5351249999999
 10
4.198557000000618
 20
226.8
 10
4.289192000000183
 20
227.0785739999999
 10
4.364308000000163
 20
227.368727
 10
4.423333000000639
 20
227.668251
 10
4.465817000000241
 20
227.974867
 10
4.491438000000925
 20
228.2862389999998
 10
4.5
 20
228.6
 10
4.491438000000925
 20
228.9137609999998
 10
4.465817000000241
 20
229.2251329999999
 10
4.423333000000639
 20
229.531749
 10
4.364308000000163
 20
229.831273
 10
4.289192000000183
 20
230.1214259999999
 10
4.198557000000618
 20
230.3999999999998
 10
4.093092000000978
 20
230.6648749999999
 10
3.97360000000026
 20
230.914035
 10
3.8409900000006
 20
231.1455839999999
 10
3.696272000001043
 20
231.3577599999999
 10
3.540547000000514
 20
231.5489469999998
 10
3.375
 20
231.7176910000001
 10
3.20089100000041
 20
231.8627079999999
 10
3.019545000000106
 20
231.9828929999999
 10
2.832343000000037
 20
232.077333
 10
2.640708000000813
 20
232.1453079999999
 10
2.446100000000114
 20
232.1863009999999
 10
2.25
 20
232.2
 10
2.053899000000455
 20
232.1863009999999
 10
1.859291000000666
 20
232.1453079999999
 10
1.667656999999961
 20
232.077333
 10
1.480454000000463
 20
231.9828929999999
 10
1.299109000000497
 20
231.8627079999999
 10
1.125
 20
231.7176910000001
 10
0.9594530000003942
 20
231.5489469999998
 10
0.8037280000007742
 20
231.3577599999999
 10
0.6590100000003078
 20
231.1455839999999
 10
0.5264000000006491
 20
230.914035
 10
0.4069080000008399
 20
230.6648749999999
 10
0.3014430000002903
 20
230.3999999999998
 10
0.2108070000003863
 20
230.1214259999999
 10
0.1356910000004063
 20
229.831273
 10
0.0766670000002705
 20
229.531749
 10
0.0341820000003281
 20
229.2251329999999
 10
0.008562000000893
 20
228.9137609999998
 10
0.0
 20
228.6
 10
0.008562000000893
 20
228.2862389999998
 10
0.0341820000003281
 20
227.974867
 10
0.0766670000002705
 20
227.668251
 10
0.1356910000004063
 20
227.368727
 10
0.2108070000003863
 20
227.0785739999999
 10
0.3014430000002903
 20
226.8
 10
0.4069080000008399
 20
226.5351249999999
 10
0.5264000000006491
 20
226.285965
 10
0.6590100000003078
 20
226.0544159999999
 10
0.8037280000007742
 20
225.84224
 10
0.9594530000003942
 20
225.6510529999998
 10
1.125
 20
225.482309
 10
1.299109000000497
 20
225.3372919999999
 10
1.480454000000463
 20
225.2171069999999
 10
1.667656999999961
 20
225.1226669999998
 10
1.859291000000666
 20
225.0546919999999
 10
2.053899000000455
 20
225.0136990000001
 10
2.25
 20
225.0
  0
LINE
  5
4C52
330
4C36
100
AcDbEntity
  8
AM_0 外形線1
100
AcDbLine
 10
4.0
 20
232.2
 30
0.0
 11
0.0
 21
232.2
 31
0.0
  0
ARC
  5
4C53
330
4C36
100
AcDbEntity
  8
AM_0 外形線1
100
AcDbCircle
 10
4.0
 20
231.7000000000001
 30
0.0
 40
0.5
100
AcDbArc
 50
0.0
 51
90.0
  0
LINE
  5
4C54
330
4C36
100
AcDbEntity
  8
AM_0 外形線1
100
AcDbLine
 10
4.5
 20
225.5
 30
0.0
 11
4.5
 21
231.7000000000001
 31
0.0
  0
ARC
  5
4C55
330
4C36
100
AcDbEntity
  8
AM_0 外形線1
100
AcDbCircle
 10
4.0
 20
225.5
 30
0.0
 40
0.5
100
AcDbArc
 50
270.0
 51
0.0
  0
LINE
  5
4C56
330
4C36
100
AcDbEntity
  8
AM_0 外形線1
100
AcDbLine
 10
-6.0
 20
225.0
 30
0.0
 11
4.0
 21
225.0
 31
0.0
  0
ARC
  5
4C57
330
4C36
100
AcDbEntity
  8
AM_0 外形線1
100
AcDbCircle
 10
36.0
 20
235.0
 30
0.0
 40
6.0
100
AcDbArc
 50
180.0
 51
270.0
  0
LINE
  5
4C58
330
4C36
100
AcDbEntity
  8
AM_0 外形線1
100
AcDbLine
 10
79.0
 20
199.7
 30
0.0
 11
79.0
 21
211.0
 31
0.0
  0
LINE
  5
4C59
330
4C36
100
AcDbEntity
  8
AM_0 外形線1
100
AcDbLine
 10
85.5
 20
199.2
 30
0.0
 11
79.5
 21
199.2
 31
0.0
  0
LINE
  5
4C5A
330
4C36
100
AcDbEntity
  8
AM_0 外形線1
100
AcDbLine
 10
79.5
 20
199.2
 30
0.0
 11
79.0
 21
199.7
 31
0.0
  0
LINE
  5
4C5B
330
4C36
100
AcDbEntity
  8
AM_0 外形線1
100
AcDbLine
 10
45.92352100000062
 20
215.315315
 30
0.0
 11
46.05675500000052
 21
211.5
 31
0.0
  0
LINE
  5
4C5C
330
4C36
100
AcDbEntity
  8
AM_0 外形線1
100
AcDbLine
 10
45.45881400000054
 20
228.622791
 30
0.0
 11
45.44564200000059
 21
229.0
 31
0.0
  0
LINE
  5
4C5D
330
4C36
100
AcDbEntity
  8
AM_0 外形線1
100
AcDbLine
 10
65.26238800000101
 20
216.0
 30
0.0
 11
65.10524400000031
 21
211.5
 31
0.0
  0
LINE
  5
4C5E
330
4C36
100
AcDbEntity
  8
AM_0 外形線1
100
AcDbLine
 10
65.66397700000016
 20
227.5
 30
0.0
 11
65.71635800000058
 21
229.0
 31
0.0
  0
LINE
  5
4C5F
330
4C36
100
AcDbEntity
  8
AM_0 外形線1
100
AcDbLine
 10
44.33602300000075
 20
227.5
 30
0.0
 11
44.28364200000032
 21
229.0
 31
0.0
  0
LINE
  5
4C60
330
4C36
100
AcDbEntity
  8
AM_0 外形線1
100
AcDbLine
 10
44.73761200000081
 20
216.0
 30
0.0
 11
44.89475500000025
 21
211.5
 31
0.0
  0
LINE
  5
4C61
330
4C36
100
AcDbEntity
  8
AM_0 外形線1
100
AcDbLine
 10
63.94324400000005
 20
211.5
 30
0.0
 11
64.07647800000086
 21
215.315315
 31
0.0
  0
LINE
  5
4C62
330
4C36
100
AcDbEntity
  8
AM_0 外形線1
100
AcDbLine
 10
64.55435800000032
 20
229.0
 30
0.0
 11
64.54118500000004
 21
228.622791
 31
0.0
  0
ARC
  5
4C63
330
4C36
100
AcDbEntity
  8
AM_0 外形線1
100
AcDbCircle
 10
78.5
 20
211.0
 30
0.0
 40
0.5
100
AcDbArc
 50
0.0
 51
90.0
  0
LINE
  5
4C64
330
4C36
100
AcDbEntity
  8
AM_0 外形線1
100
AcDbLine
 10
0.0
 20
270.5
 30
0.0
 11
0.0
 21
279.0
 31
0.0
  0
LINE
  5
4C65
330
4C36
100
AcDbEntity
  8
AM_0 外形線1
100
AcDbLine
 10
1.0
 20
280.0
 30
0.0
 11
29.0
 21
280.0
 31
0.0
  0
LINE
  5
4C66
330
4C36
100
AcDbEntity
  8
AM_0 外形線1
100
AcDbLine
 10
0.0
 20
279.0
 30
0.0
 11
1.0
 21
280.0
 31
0.0
  0
LINE
  5
4C67
330
4C36
100
AcDbEntity
  8
AM_0 外形線1
100
AcDbLine
 10
29.0
 20
280.0
 30
0.0
 11
30.0
 21
279.0
 31
0.0
  0
LINE
  5
4C68
330
4C36
100
AcDbEntity
  8
AM_0 外形線1
100
AcDbLine
 10
146.0
 20
236.0
 30
0.0
 11
139.0
 21
229.0
 31
0.0
  0
LINE
  5
4C69
330
4C36
100
AcDbEntity
  8
AM_0 外形線1
100
AcDbLine
 10
166.0
 20
211.0
 30
0.0
 11
166.0
 21
199.7
 31
0.0
  0
LINE
  5
4C6A
330
4C36
100
AcDbEntity
  8
AM_0 外形線1
100
AcDbLine
 10
160.5
 20
199.2
 30
0.0
 11
165.5
 21
199.2
 31
0.0
  0
LINE
  5
4C6B
330
4C36
100
AcDbEntity
  8
AM_0 外形線1
100
AcDbLine
 10
166.0
 20
199.7
 30
0.0
 11
165.5
 21
199.2
 31
0.0
  0
ARC
  5
4C6C
330
4C36
100
AcDbEntity
  8
AM_0 外形線1
100
AcDbCircle
 10
166.5
 20
211.0
 30
0.0
 40
0.5
100
AcDbArc
 50
90.0
 51
180.0
  0
LINE
  5
4C6D
330
4C36
100
AcDbEntity
  8
AM_0 外形線1
100
AcDbLine
 10
171.0
 20
236.0
 30
0.0
 11
146.0
 21
236.0
 31
0.0
  0
LINE
  5
4C6E
330
4C36
100
AcDbEntity
  8
AM_0 外形線1
100
AcDbLine
 10
171.0
 20
216.8
 30
0.0
 11
171.0
 21
211.5
 31
0.0
  0
LINE
  5
4C6F
330
4C36
100
AcDbEntity
  8
AM_0 外形線1
100
AcDbLine
 10
171.0
 20
236.0
 30
0.0
 11
171.0
 21
230.0
 31
0.0
  0
LINE
  5
4C70
330
4C36
100
AcDbEntity
  8
AM_0 外形線1
100
AcDbLine
 10
171.0
 20
220.0
 30
0.0
 11
171.0
 21
216.8
 31
0.0
  0
LINE
  5
4C71
330
4C36
100
AcDbEntity
  8
AM_0 外形線1
100
AcDbLine
 10
171.0
 20
211.5
 30
0.0
 11
166.5
 21
211.5
 31
0.0
  0
INSERT
  5
4C73
330
4C36
100
AcDbEntity
  8
AM_0 外形線1
100
AcDbBlockReference
  2
ロッカクアナツキプラグ R1／2
 10
55.0
 20
229.0
 30
0.0
  0
LINE
  5
4CFD
330
4C36
100
AcDbEntity
  8
AM_0 外形線1
100
AcDbLine
 10
0.0
 20
244.5
 30
0.0
 11
30.0
 21
244.5
 31
0.0
  0
LINE
  5
4CFE
330
4C36
100
AcDbEntity
  8
AM_0 外形線1
100
AcDbLine
 10
0.0
 20
270.5
 30
0.0
 11
30.0
 21
270.5
 31
0.0
  0
ENDBLK
  5
4C38
330
4C36
100
AcDbEntity
  8
0
100
AcDbBlockEnd
  0
BLOCK
  5
4EB4
330
4EB3
100
AcDbEntity
  8
0
100
AcDbBlockBegin
  2
リーマボルト CEMH560 M24
 70
     0
 10
0.0
 20
0.0
 30
0.0
  3
リーマボルト CEMH560 M24
  1

  0
LINE
  5
4EB6
330
4EB3
100
AcDbEntity
  8
AM_4 細線
100
AcDbLine
 10
-84.89999999999964
 20
10.0
 30
0.0
 11
-93.0
 21
10.0
 31
0.0
  0
LINE
  5
4EB7
330
4EB3
100
AcDbEntity
  8
AM_4 細線
100
AcDbLine
 10
-84.89999999999964
 20
-10.0
 30
0.0
 11
-93.0
 21
-10.0
 31
0.0
  0
LINE
  5
4EB8
330
4EB3
100
AcDbEntity
  8
AM_0 外形線1
100
AcDbLine
 10
-91.0
 20
-12.0
 30
0.0
 11
-84.89999999999964
 21
-12.0
 31
0.0
  0
LINE
  5
4EB9
330
4EB3
100
AcDbEntity
  8
AM_0 外形線1
100
AcDbLine
 10
-84.89999999999964
 20
12.0
 30
0.0
 11
-91.0
 21
12.0
 31
0.0
  0
LINE
  5
4EBA
330
4EB3
100
AcDbEntity
  8
AM_0 外形線1
100
AcDbLine
 10
-91.0
 20
12.0
 30
0.0
 11
-91.0
 21
-12.0
 31
0.0
  0
LINE
  5
4EBB
330
4EB3
100
AcDbEntity
  8
AM_0 外形線1
100
AcDbLine
 10
-93.0
 20
-10.0
 30
0.0
 11
-91.0
 21
-12.0
 31
0.0
  0
LINE
  5
4EBC
330
4EB3
100
AcDbEntity
  8
AM_0 外形線1
100
AcDbLine
 10
-93.0
 20
10.0
 30
0.0
 11
-93.0
 21
-10.0
 31
0.0
  0
ARC
  5
4EBD
330
4EB3
100
AcDbEntity
  8
AM_0 外形線1
100
AcDbCircle
 10
-75.71599799999967
 20
15.59615199999984
 30
0.0
 40
9.184001999999999
100
AcDbArc
 50
145.4850750000266
 51
214.5149249999733
  0
LINE
  5
4EBE
330
4EB3
100
AcDbEntity
  8
AM_0 外形線1
100
AcDbLine
 10
-65.89999999999964
 20
-20.79999999999996
 30
0.0
 11
-65.89999999999964
 21
20.79999999999996
 31
0.0
  0
LINE
  5
4EBF
330
4EB3
100
AcDbEntity
  8
AM_0 外形線1
100
AcDbLine
 10
-84.89999999999964
 20
18.0
 30
0.0
 11
-84.89999999999964
 21
-18.0
 31
0.0
  0
LINE
  5
4EC0
330
4EB3
100
AcDbEntity
  8
AM_0 外形線1
100
AcDbLine
 10
-65.89999999999964
 20
-1.966666999999915
 30
0.0
 11
-60.0
 21
3.933332999999946
 31
0.0
  0
LINE
  5
4EC1
330
4EB3
100
AcDbEntity
  8
AM_0 外形線1
100
AcDbLine
 10
-65.89999999999964
 20
-3.933332999999946
 30
0.0
 11
-60.0
 21
1.966666999999915
 31
0.0
  0
LINE
  5
4EC2
330
4EB3
100
AcDbEntity
  8
AM_0 外形線1
100
AcDbLine
 10
-60.0
 20
-17.0
 30
0.0
 11
-65.89999999999964
 21
-17.0
 31
0.0
  0
LINE
  5
4EC3
330
4EB3
100
AcDbEntity
  8
AM_0 外形線1
100
AcDbLine
 10
-65.89999999999964
 20
-10.39230500000008
 30
0.0
 11
-83.28341899999941
 21
-10.39230500000008
 31
0.0
  0
LINE
  5
4EC4
330
4EB3
100
AcDbEntity
  8
AM_0 外形線1
100
AcDbLine
 10
-65.89999999999964
 20
10.39230499999985
 30
0.0
 11
-83.28341899999941
 21
10.39230499999985
 31
0.0
  0
ARC
  5
4EC5
330
4EB3
100
AcDbEntity
  8
AM_0 外形線1
100
AcDbCircle
 10
-75.71599799999967
 20
-15.59615200000007
 30
0.0
 40
9.184001999999999
100
AcDbArc
 50
145.4850750000266
 51
214.5149249999733
  0
ARC
  5
4EC6
330
4EB3
100
AcDbEntity
  8
AM_0 外形線1
100
AcDbCircle
 10
-50.68787299999986
 20
0.0
 30
0.0
 40
34.212127
100
AcDbArc
 50
162.3163709999824
 51
197.6836290000175
  0
LINE
  5
4EC7
330
4EB3
100
AcDbEntity
  8
AM_0 外形線1
100
AcDbLine
 10
-83.28341899999941
 20
-20.79999999999996
 30
0.0
 11
-65.89999999999964
 21
-20.79999999999996
 31
0.0
  0
LINE
  5
4EC8
330
4EB3
100
AcDbEntity
  8
AM_0 外形線1
100
AcDbLine
 10
-84.89999999999964
 20
-18.0
 30
0.0
 11
-83.28341899999941
 21
-20.79999999999996
 31
0.0
  0
LINE
  5
4EC9
330
4EB3
100
AcDbEntity
  8
AM_4 細線
100
AcDbLine
 10
-59.0
 20
-10.0
 30
0.0
 11
-60.0
 21
-10.0
 31
0.0
  0
LINE
  5
4ECA
330
4EB3
100
AcDbEntity
  8
AM_4 細線
100
AcDbLine
 10
-60.0
 20
10.0
 30
0.0
 11
-59.0
 21
10.0
 31
0.0
  0
LINE
  5
4ECB
330
4EB3
100
AcDbEntity
  8
AM_0 外形線1
100
AcDbLine
 10
-58.73205099999903
 20
-12.0
 30
0.0
 11
-60.0
 21
-12.0
 31
0.0
  0
LINE
  5
4ECC
330
4EB3
100
AcDbEntity
  8
AM_0 外形線1
100
AcDbLine
 10
-58.73205099999903
 20
12.0
 30
0.0
 11
-60.0
 21
12.0
 31
0.0
  0
LINE
  5
4ECD
330
4EB3
100
AcDbEntity
  8
AM_0 外形線1
100
AcDbLine
 10
-59.0
 20
-11.84529900000007
 30
0.0
 11
-57.0
 21
-13.0
 31
0.0
  0
LINE
  5
4ECE
330
4EB3
100
AcDbEntity
  8
AM_0 外形線1
100
AcDbLine
 10
-59.0
 20
11.84529900000007
 30
0.0
 11
-59.0
 21
-11.84529900000007
 31
0.0
  0
LINE
  5
4ECF
330
4EB3
100
AcDbEntity
  8
AM_0 外形線1
100
AcDbLine
 10
-57.0
 20
13.0
 30
0.0
 11
-59.0
 21
11.84529900000007
 31
0.0
  0
LINE
  5
4ED0
330
4EB3
100
AcDbEntity
  8
AM_0 外形線1
100
AcDbLine
 10
-57.0
 20
13.0
 30
0.0
 11
-57.0
 21
-13.0
 31
0.0
  0
LINE
  5
4ED1
330
4EB3
100
AcDbEntity
  8
AM_0 外形線1
100
AcDbLine
 10
-65.89999999999964
 20
17.0
 30
0.0
 11
-60.0
 21
17.0
 31
0.0
  0
LINE
  5
4ED2
330
4EB3
100
AcDbEntity
  8
AM_0 外形線1
100
AcDbLine
 10
-83.28341899999941
 20
20.79999999999996
 30
0.0
 11
-84.89999999999964
 21
18.0
 31
0.0
  0
LINE
  5
4ED3
330
4EB3
100
AcDbEntity
  8
AM_0 外形線1
100
AcDbLine
 10
-65.89999999999964
 20
20.79999999999996
 30
0.0
 11
-83.28341899999941
 21
20.79999999999996
 31
0.0
  0
LINE
  5
4ED4
330
4EB3
100
AcDbEntity
  8
AM_0 外形線1
100
AcDbLine
 10
0.0
 20
-10.39230500000008
 30
0.0
 11
13.38341900000068
 21
-10.39230500000008
 31
0.0
  0
LINE
  5
4ED5
330
4EB3
100
AcDbEntity
  8
AM_0 外形線1
100
AcDbLine
 10
0.0
 20
10.39230499999985
 30
0.0
 11
13.38341900000068
 21
10.39230499999985
 31
0.0
  0
LINE
  5
4ED6
330
4EB3
100
AcDbEntity
  8
AM_0 外形線1
100
AcDbLine
 10
13.38341900000068
 20
-20.79999999999996
 30
0.0
 11
0.0
 21
-20.79999999999996
 31
0.0
  0
LINE
  5
4ED7
330
4EB3
100
AcDbEntity
  8
AM_0 外形線1
100
AcDbLine
 10
0.0
 20
20.79999999999996
 30
0.0
 11
13.38341900000068
 21
20.79999999999996
 31
0.0
  0
LINE
  5
4ED8
330
4EB3
100
AcDbEntity
  8
AM_0 外形線1
100
AcDbLine
 10
-2.5
 20
-13.0
 30
0.0
 11
-2.5
 21
13.0
 31
0.0
  0
ARC
  5
4ED9
330
4EB3
100
AcDbEntity
  8
AM_0 外形線1
100
AcDbCircle
 10
-1.5
 20
-13.0
 30
0.0
 40
1.0
100
AcDbArc
 50
90.0
 51
180.0
  0
LINE
  5
4EDA
330
4EB3
100
AcDbEntity
  8
AM_0 外形線1
100
AcDbLine
 10
-1.0
 20
-12.0
 30
0.0
 11
-1.5
 21
-12.0
 31
0.0
  0
ARC
  5
4EDB
330
4EB3
100
AcDbEntity
  8
AM_0 外形線1
100
AcDbCircle
 10
-1.0
 20
-13.0
 30
0.0
 40
1.0
100
AcDbArc
 50
0.0
 51
90.0
  0
ARC
  5
4EDC
330
4EB3
100
AcDbEntity
  8
AM_0 外形線1
100
AcDbCircle
 10
-1.5
 20
13.0
 30
0.0
 40
1.0
100
AcDbArc
 50
180.0
 51
270.0
  0
LINE
  5
4EDD
330
4EB3
100
AcDbEntity
  8
AM_0 外形線1
100
AcDbLine
 10
-1.0
 20
12.0
 30
0.0
 11
-1.5
 21
12.0
 31
0.0
  0
ARC
  5
4EDE
330
4EB3
100
AcDbEntity
  8
AM_0 外形線1
100
AcDbCircle
 10
-1.0
 20
13.0
 30
0.0
 40
1.0
100
AcDbArc
 50
270.0
 51
0.0
  0
ARC
  5
4EDF
330
4EB3
100
AcDbEntity
  8
AM_0 外形線1
100
AcDbCircle
 10
5.815997000000606
 20
15.59615199999984
 30
0.0
 40
9.184001999999999
100
AcDbArc
 50
325.4850750000267
 51
34.51492499997333
  0
LINE
  5
4EE0
330
4EB3
100
AcDbEntity
  8
AM_0 外形線1
100
AcDbLine
 10
15.0
 20
18.0
 30
0.0
 11
15.0
 21
-18.0
 31
0.0
  0
ARC
  5
4EE1
330
4EB3
100
AcDbEntity
  8
AM_0 外形線1
100
AcDbCircle
 10
5.815997000000606
 20
-15.59615200000007
 30
0.0
 40
9.184001999999999
100
AcDbArc
 50
325.4850750000267
 51
34.51492499997333
  0
ARC
  5
4EE2
330
4EB3
100
AcDbEntity
  8
AM_0 外形線1
100
AcDbCircle
 10
-19.21212799999921
 20
0.0
 30
0.0
 40
34.212127
100
AcDbArc
 50
342.3163709999824
 51
17.68362900001755
  0
LINE
  5
4EE3
330
4EB3
100
AcDbEntity
  8
AM_0 外形線1
100
AcDbLine
 10
15.0
 20
-18.0
 30
0.0
 11
13.38341900000068
 21
-20.79999999999996
 31
0.0
  0
LINE
  5
4EE4
330
4EB3
100
AcDbEntity
  8
AM_0 外形線1
100
AcDbLine
 10
13.38341900000068
 20
20.79999999999996
 30
0.0
 11
15.0
 21
18.0
 31
0.0
  0
LINE
  5
4EE5
330
4EB3
100
AcDbEntity
  8
AM_0 外形線1
100
AcDbLine
 10
-92.99999999999954
 20
10.00000000000068
 30
0.0
 11
-90.99999999999957
 21
12.00000000000068
 31
0.0
  0
LINE
  5
4F4F
330
4EB3
100
AcDbEntity
  8
AM_0 外形線1
100
AcDbLine
 10
-57.0
 20
13.0
 30
0.0
 11
-2.5
 21
13.0
 31
0.0
  0
LINE
  5
4F50
330
4EB3
100
AcDbEntity
  8
AM_0 外形線1
100
AcDbLine
 10
-57.0
 20
-12.99999999999954
 30
0.0
 11
-2.5
 21
-12.99999999999954
 31
0.0
  0
LINE
  5
4F51
330
4EB3
100
AcDbEntity
  8
AM_0 外形線1
100
AcDbLine
 10
-60.0
 20
17.0
 30
0.0
 11
-60.0
 21
-17.0
 31
0.0
  0
LINE
  5
4F52
330
4EB3
100
AcDbEntity
  8
AM_0 外形線1
100
AcDbLine
 10
0.0
 20
20.79999999999996
 30
0.0
 11
0.0
 21
-20.79999999999996
 31
0.0
  0
ENDBLK
  5
4EB5
330
4EB3
100
AcDbEntity
  8
0
100
AcDbBlockEnd
  0
BLOCK
  5
5059
330
5058
100
AcDbEntity
  8
0
100
AcDbBlockBegin
  2
センタ CEMH560
 70
     0
 10
0.0
 20
0.0
 30
0.0
  3
センタ CEMH560
  1

  0
LINE
  5
505B
330
5058
100
AcDbEntity
  8
AM_0 外形線1
100
AcDbLine
 10
0.0
 20
163.25
 30
0.0
 11
0.0
 21
0.0
 31
0.0
  0
LINE
  5
505C
330
5058
100
AcDbEntity
  8
AM_0 外形線1
100
AcDbLine
 10
265.0
 20
-185.5
 30
0.0
 11
265.0
 21
185.5
 31
0.0
  0
LINE
  5
505D
330
5058
100
AcDbEntity
  8
AM_0 外形線1
100
AcDbLine
 10
176.0
 20
-192.5
 30
0.0
 11
198.0
 21
-192.5
 31
0.0
  0
LINE
  5
505E
330
5058
100
AcDbEntity
  8
AM_3 隠れ線
100
AcDbLine
 10
0.0
 20
10.5
 30
0.0
 11
62.0
 21
10.5
 31
0.0
  0
LINE
  5
505F
330
5058
100
AcDbEntity
  8
AM_3 隠れ線
100
AcDbLine
 10
0.0
 20
12.0
 30
0.0
 11
46.0
 21
12.0
 31
0.0
  0
LINE
  5
5060
330
5058
100
AcDbEntity
  8
AM_3 隠れ線
100
AcDbLine
 10
46.0
 20
12.0
 30
0.0
 11
46.86602500000025
 21
10.5
 31
0.0
  0
LINE
  5
5061
330
5058
100
AcDbEntity
  8
AM_3 隠れ線
100
AcDbLine
 10
46.86602500000025
 20
10.5
 30
0.0
 11
46.86602500000025
 21
0.0
 31
0.0
  0
LINE
  5
5062
330
5058
100
AcDbEntity
  8
AM_3 隠れ線
100
AcDbLine
 10
46.0
 20
12.0
 30
0.0
 11
46.0
 21
0.0
 31
0.0
  0
LINE
  5
5063
330
5058
100
AcDbEntity
  8
AM_3 隠れ線
100
AcDbLine
 10
62.0
 20
10.5
 30
0.0
 11
62.0
 21
0.0
 31
0.0
  0
LINE
  5
5064
330
5058
100
AcDbEntity
  8
AM_3 隠れ線
100
AcDbLine
 10
62.0
 20
10.5
 30
0.0
 11
68.06217800000013
 21
0.0
 31
0.0
  0
LINE
  5
5065
330
5058
100
AcDbEntity
  8
AM_0 外形線1
100
AcDbLine
 10
201.0
 20
-191.5
 30
0.0
 11
201.0
 21
0.0
 31
0.0
  0
LINE
  5
5066
330
5058
100
AcDbEntity
  8
AM_0 外形線1
100
AcDbLine
 10
198.0
 20
-192.5
 30
0.0
 11
198.0
 21
0.0
 31
0.0
  0
LINE
  5
5067
330
5058
100
AcDbEntity
  8
AM_0 外形線1
100
AcDbLine
 10
201.0
 20
-191.5
 30
0.0
 11
259.0
 21
-191.5
 31
0.0
  0
LINE
  5
5068
330
5058
100
AcDbEntity
  8
AM_0 外形線1
100
AcDbLine
 10
198.0
 20
-192.5
 30
0.0
 11
201.0
 21
-191.5
 31
0.0
  0
ARC
  5
5069
330
5058
100
AcDbEntity
  8
AM_0 外形線1
100
AcDbCircle
 10
259.0
 20
-185.5
 30
0.0
 40
6.0
100
AcDbArc
 50
270.0
 51
0.0
  0
LINE
  5
506A
330
5058
100
AcDbEntity
  8
AM_0 外形線1
100
AcDbLine
 10
198.0
 20
192.5
 30
0.0
 11
150.0
 21
192.5
 31
0.0
  0
LINE
  5
506B
330
5058
100
AcDbEntity
  8
AM_0 外形線1
100
AcDbLine
 10
0.0
 20
189.5
 30
0.0
 11
0.0
 21
163.25
 31
0.0
  0
ARC
  5
506D
330
5058
100
AcDbEntity
  8
AM_0 外形線1
100
AcDbCircle
 10
112.0
 20
0.0
 30
0.0
 40
209.75
100
AcDbArc
 50
79.83983199998673
 51
100.1601680000133
  0
LINE
  5
506F
330
5058
100
AcDbEntity
  8
AM_0 外形線1
100
AcDbLine
 10
74.0
 20
190.5
 30
0.0
 11
1.0
 21
190.5
 31
0.0
  0
LINE
  5
5070
330
5058
100
AcDbEntity
  8
AM_0 外形線1
100
AcDbLine
 10
1.0
 20
190.5
 30
0.0
 11
0.0
 21
189.5
 31
0.0
  0
LINE
  5
5071
330
5058
100
AcDbEntity
  8
AM_0 外形線1
100
AcDbLine
 10
74.5
 20
205.8705709999999
 30
0.0
 11
74.5
 21
191.0
 31
0.0
  0
ARC
  5
5072
330
5058
100
AcDbEntity
  8
AM_0 外形線1
100
AcDbCircle
 10
74.0
 20
191.0
 30
0.0
 40
0.5
100
AcDbArc
 50
270.0
 51
0.0
  0
LINE
  5
5073
330
5058
100
AcDbEntity
  8
AM_0 外形線1
100
AcDbLine
 10
75.0
 20
206.460801
 30
0.0
 11
74.5
 21
205.8705709999999
 31
0.0
  0
LINE
  5
5074
330
5058
100
AcDbEntity
  8
AM_7 中心線
100
AcDbLine
 10
112.0
 20
214.75
 30
0.0
 11
112.0
 21
193.0
 31
0.0
  0
LINE
  5
5075
330
5058
100
AcDbEntity
  8
AM_0 外形線1
100
AcDbLine
 10
149.5
 20
193.0
 30
0.0
 11
149.5
 21
205.8705709999999
 31
0.0
  0
ARC
  5
5076
330
5058
100
AcDbEntity
  8
AM_0 外形線1
100
AcDbCircle
 10
150.0
 20
193.0
 30
0.0
 40
0.5
100
AcDbArc
 50
180.0
 51
270.0
  0
LINE
  5
5077
330
5058
100
AcDbEntity
  8
AM_0 外形線1
100
AcDbLine
 10
149.5
 20
205.8705709999999
 30
0.0
 11
149.0
 21
206.460801
 31
0.0
  0
LINE
  5
5078
330
5058
100
AcDbEntity
  8
AM_0 外形線1
100
AcDbLine
 10
259.0
 20
191.5
 30
0.0
 11
201.0
 21
191.5
 31
0.0
  0
LINE
  5
5079
330
5058
100
AcDbEntity
  8
AM_0 外形線1
100
AcDbLine
 10
201.0
 20
191.5
 30
0.0
 11
198.0
 21
192.5
 31
0.0
  0
ARC
  5
507A
330
5058
100
AcDbEntity
  8
AM_0 外形線1
100
AcDbCircle
 10
259.0
 20
185.5
 30
0.0
 40
6.0
100
AcDbArc
 50
0.0
 51
90.0
  0
LINE
  5
507B
330
5058
100
AcDbEntity
  8
002
100
AcDbLine
 10
265.0
 20
117.5
 30
0.0
 11
0.0
 21
117.5000000000002
 31
0.0
  0
ARC
  5
6C11
330
5058
100
AcDbEntity
  8
AM_7 中心線
100
AcDbCircle
 10
112.0
 20
-0.0000000000002274
 30
0.0
 40
204.0000000000004
100
AcDbArc
 50
78.42349056369319
 51
101.6247036282113
  0
ARC
  5
6C12
330
5058
100
AcDbEntity
  8
AM_0 外形線1
100
AcDbCircle
 10
112.0
 20
-0.0000000000002274
 30
0.0
 40
198.0000000000002
100
AcDbArc
 50
79.08258268418602
 51
100.9174173158172
  0
ENDBLK
  5
505A
330
5058
100
AcDbEntity
  8
0
100
AcDbBlockEnd
  0
BLOCK
  5
510C
330
510B
100
AcDbEntity
  8
0
100
AcDbBlockBegin
  2
ＧＣサイドカバ－ CEMH560
 70
     0
 10
0.0
 20
0.0
 30
0.0
  3
ＧＣサイドカバ－ CEMH560
  1

  0
LINE
  5
5111
330
510B
100
AcDbEntity
  8
AM_0 外形線1
100
AcDbLine
 10
16.0
 20
-236.0
 30
0.0
 11
16.0
 21
0.0
 31
0.0
  0
LINE
  5
5112
330
510B
100
AcDbEntity
  8
AM_0 外形線1
100
AcDbLine
 10
0.0000000000002274
 20
-236.0000000000002
 30
0.0
 11
16.0
 21
-236.0
 31
0.0
  0
LINE
  5
5113
330
510B
100
AcDbEntity
  8
AM_7 中心線
100
AcDbLine
 10
32.03741700000046
 20
225.0
 30
0.0
 11
-24.59055499999977
 21
225.0
 31
0.0
  0
LINE
  5
5114
330
510B
100
AcDbEntity
  8
AM_0 外形線1
100
AcDbLine
 10
24.66193400000066
 20
215.2000000000001
 30
0.0
 11
18.5
 21
215.2000000000001
 31
0.0
  0
LINE
  5
5115
330
510B
100
AcDbEntity
  8
AM_0 外形線1
100
AcDbLine
 10
18.5
 20
234.7999999999999
 30
0.0
 11
24.66193400000066
 21
234.7999999999999
 31
0.0
  0
LINE
  5
5116
330
510B
100
AcDbEntity
  8
AM_0 外形線1
100
AcDbLine
 10
18.5
 20
220.107477
 30
0.0
 11
24.66193400000066
 21
220.107477
 31
0.0
  0
LINE
  5
5117
330
510B
100
AcDbEntity
  8
AM_0 外形線1
100
AcDbLine
 10
24.66193400000066
 20
229.892523
 30
0.0
 11
18.5
 21
229.892523
 31
0.0
  0
LINE
  5
5119
330
510B
100
AcDbEntity
  8
AM_0 外形線1
100
AcDbLine
 10
-4.0
 20
194.5
 30
0.0
 11
-4.0
 21
211.4999999999995
 31
0.0
  0
LINE
  5
511A
330
510B
100
AcDbEntity
  8
AM_0 外形線1
100
AcDbLine
 10
16.0
 20
216.8
 30
0.0
 11
16.0
 21
194.5
 31
0.0
  0
LWPOLYLINE
  5
511B
330
510B
100
AcDbEntity
  8
AM_0 外形線1
100
AcDbPolyline
 90
       73
 70
     0
 43
0.0
 10
11.60000000000036
 20
196.0499999999999
 10
11.57869000000028
 20
196.3594029999999
 10
11.51492300000063
 20
196.666451
 10
11.40918400000009
 20
196.9688080000001
 10
11.26227800000015
 20
197.2641719999999
 10
11.07532300000093
 20
197.550295
 10
10.84974200000033
 20
197.825
 10
10.58725100000083
 20
198.086196
 10
10.28984900000068
 20
198.3318959999999
 10
9.959797999999862
 20
198.5602289999999
 10
9.599610000000213
 20
198.769458
 10
9.212027999999918
 20
198.9579900000001
 10
8.800000000000181
 20
199.1243899999999
 10
8.36666200000036
 20
199.2673929999998
 10
7.915313000000423
 20
199.3859089999998
 10
7.449386000000231
 20
199.4790369999998
 10
6.972430000000712
 20
199.5460679999998
 10
6.488072000000101
 20
199.586491
 10
6.0
 20
199.5999999999999
 10
5.511927999999898
 20
199.586491
 10
5.027570000000196
 20
199.5460679999998
 10
4.550613000000339
 20
199.4790369999998
 10
4.084687000000484
 20
199.3859089999998
 10
3.633338000000549
 20
199.2673929999998
 10
3.200000000000727
 20
199.1243899999999
 10
2.787972000000081
 20
198.9579900000001
 10
2.400389000000358
 20
198.769458
 10
2.040202000000134
 20
198.5602289999999
 10
1.710151000000223
 20
198.3318959999999
 10
1.412748000000646
 20
198.086196
 10
1.150258000000575
 20
197.825
 10
0.9246760000005451
 20
197.550295
 10
0.7377210000004199
 20
197.2641719999999
 10
0.5908150000004753
 20
196.9688080000001
 10
0.4850760000008451
 20
196.666451
 10
0.4213090000002923
 20
196.3594029999999
 10
0.4000000000005457
 20
196.0499999999999
 10
0.4213090000002923
 20
195.7405969999997
 10
0.4850760000008451
 20
195.4335490000001
 10
0.5908150000004753
 20
195.131192
 10
0.7377210000004199
 20
194.8358289999998
 10
0.9246760000005451
 20
194.5497049999999
 10
1.150258000000575
 20
194.2749999999998
 10
1.412748000000646
 20
194.0138039999999
 10
1.710151000000223
 20
193.7681039999997
 10
2.040202000000134
 20
193.5397709999999
 10
2.400389000000358
 20
193.3305419999999
 10
2.787972000000081
 20
193.14201
 10
3.200000000000727
 20
192.9756099999999
 10
3.633338000000549
 20
192.832607
 10
4.084687000000484
 20
192.714091
 10
4.550613000000339
 20
192.6209629999998
 10
5.027570000000196
 20
192.553932
 10
5.511927999999898
 20
192.5135089999999
 10
6.0
 20
192.5
 10
6.488072000000101
 20
192.5135089999999
 10
6.972430000000712
 20
192.553932
 10
7.449386000000231
 20
192.6209629999998
 10
7.915313000000423
 20
192.714091
 10
8.36666200000036
 20
192.832607
 10
8.800000000000181
 20
192.9756099999999
 10
9.212027999999918
 20
193.14201
 10
9.599610000000213
 20
193.3305419999999
 10
9.959797999999862
 20
193.5397709999999
 10
10.28984900000068
 20
193.7681039999997
 10
10.58725100000083
 20
194.0138039999999
 10
10.84974200000033
 20
194.2749999999998
 10
11.07532300000093
 20
194.5497049999999
 10
11.26227800000015
 20
194.8358289999998
 10
11.40918400000009
 20
195.131192
 10
11.51492300000063
 20
195.4335490000001
 10
11.57869000000028
 20
195.7405969999997
 10
11.60000000000036
 20
196.0499999999999
  0
LINE
  5
511C
330
510B
100
AcDbEntity
  8
AM_0 外形線1
100
AcDbLine
 10
-4.0
 20
194.0
 30
0.0
 11
-4.0
 21
194.5
 31
0.0
  0
LINE
  5
511D
330
510B
100
AcDbEntity
  8
AM_0 外形線1
100
AcDbLine
 10
0.4000000000005457
 20
194.0
 30
0.0
 11
-4.0
 21
194.0
 31
0.0
  0
LINE
  5
511E
330
510B
100
AcDbEntity
  8
AM_0 外形線1
100
AcDbLine
 10
0.4000000000005457
 20
194.5
 30
0.0
 11
0.4000000000005457
 21
194.0
 31
0.0
  0
LINE
  5
511F
330
510B
100
AcDbEntity
  8
AM_0 外形線1
100
AcDbLine
 10
0.4000000000005457
 20
199.0999999999999
 30
0.0
 11
0.4000000000005457
 21
194.5
 31
0.0
  0
ARC
  5
5120
330
510B
100
AcDbEntity
  8
AM_0 外形線1
100
AcDbCircle
 10
0.9000000000005455
 20
199.0999999999999
 30
0.0
 40
0.5
100
AcDbArc
 50
90.0
 51
180.0
  0
LINE
  5
5121
330
510B
100
AcDbEntity
  8
AM_0 外形線1
100
AcDbLine
 10
11.10000000000036
 20
199.5999999999999
 30
0.0
 11
0.9000000000005455
 21
199.5999999999999
 31
0.0
  0
ARC
  5
5122
330
510B
100
AcDbEntity
  8
AM_0 外形線1
100
AcDbCircle
 10
11.10000000000036
 20
199.0999999999999
 30
0.0
 40
0.5
100
AcDbArc
 50
0.0
 51
90.0
  0
LINE
  5
5123
330
510B
100
AcDbEntity
  8
AM_0 外形線1
100
AcDbLine
 10
11.60000000000036
 20
194.0
 30
0.0
 11
11.60000000000036
 21
199.0999999999999
 31
0.0
  0
LINE
  5
5124
330
510B
100
AcDbEntity
  8
AM_0 外形線1
100
AcDbLine
 10
12.10000000000036
 20
194.0
 30
0.0
 11
11.60000000000036
 21
194.0
 31
0.0
  0
LINE
  5
5125
330
510B
100
AcDbEntity
  8
AM_0 外形線1
100
AcDbLine
 10
16.0
 20
194.0
 30
0.0
 11
12.10000000000036
 21
194.0
 31
0.0
  0
LINE
  5
5126
330
510B
100
AcDbEntity
  8
AM_0 外形線1
100
AcDbLine
 10
16.0
 20
194.5
 30
0.0
 11
16.0
 21
194.0
 31
0.0
  0
LINE
  5
5127
330
510B
100
AcDbEntity
  8
AM_0 外形線1
100
AcDbLine
 10
-4.0
 20
194.0
 30
0.0
 11
-4.0
 21
192.5
 31
0.0
  0
LINE
  5
5128
330
510B
100
AcDbEntity
  8
AM_0 外形線1
100
AcDbLine
 10
0.4000000000005457
 20
194.0
 30
0.0
 11
0.4000000000005457
 21
192.5
 31
0.0
  0
LINE
  5
5129
330
510B
100
AcDbEntity
  8
AM_0 外形線1
100
AcDbLine
 10
11.60000000000036
 20
194.0
 30
0.0
 11
11.60000000000036
 21
192.5
 31
0.0
  0
LINE
  5
512A
330
510B
100
AcDbEntity
  8
AM_0 外形線1
100
AcDbLine
 10
16.0
 20
194.0
 30
0.0
 11
16.0
 21
192.5
 31
0.0
  0
LINE
  5
512B
330
510B
100
AcDbEntity
  8
AM_0 外形線1
100
AcDbLine
 10
16.0
 20
220.75
 30
0.0
 11
-16.5
 21
220.75
 31
0.0
  0
LINE
  5
512C
330
510B
100
AcDbEntity
  8
AM_0 外形線1
100
AcDbLine
 10
16.0
 20
229.25
 30
0.0
 11
-16.5
 21
229.25
 31
0.0
  0
LINE
  5
512D
330
510B
100
AcDbEntity
  8
AM_4 細線
100
AcDbLine
 10
-16.5
 20
220.0
 30
0.0
 11
16.0
 21
220.0
 31
0.0
  0
LINE
  5
512E
330
510B
100
AcDbEntity
  8
AM_4 細線
100
AcDbLine
 10
-16.5
 20
230.0
 30
0.0
 11
16.0
 21
230.0
 31
0.0
  0
LINE
  5
512F
330
510B
100
AcDbEntity
  8
AM_0 外形線1
100
AcDbLine
 10
-16.5
 20
229.25
 30
0.0
 11
-20.0
 21
229.25
 31
0.0
  0
LINE
  5
5130
330
510B
100
AcDbEntity
  8
AM_0 外形線1
100
AcDbLine
 10
-16.5
 20
220.0
 30
0.0
 11
-16.5
 21
230.0
 31
0.0
  0
LINE
  5
5131
330
510B
100
AcDbEntity
  8
AM_0 外形線1
100
AcDbLine
 10
-20.0
 20
220.75
 30
0.0
 11
-16.5
 21
220.75
 31
0.0
  0
LINE
  5
5132
330
510B
100
AcDbEntity
  8
AM_0 外形線1
100
AcDbLine
 10
-20.0
 20
220.75
 30
0.0
 11
-20.0
 21
229.25
 31
0.0
  0
LINE
  5
5133
330
510B
100
AcDbEntity
  8
AM_0 外形線1
100
AcDbLine
 10
-22.45373899999959
 20
225.0
 30
0.0
 11
-20.0
 21
220.75
 31
0.0
  0
LINE
  5
5134
330
510B
100
AcDbEntity
  8
AM_0 外形線1
100
AcDbLine
 10
-20.0
 20
229.25
 30
0.0
 11
-22.45373899999959
 21
225.0
 31
0.0
  0
LWPOLYLINE
  5
5135
330
510B
100
AcDbEntity
  8
AM_0 外形線1
100
AcDbPolyline
 90
       73
 70
     0
 43
0.0
 10
1.550000000000181
 20
211.5
 10
1.685091000000284
 20
211.510084
 10
1.819154000000708
 20
211.5402589999999
 10
1.951168999999936
 20
211.5902969999997
 10
2.080131000000618
 20
211.659815
 10
2.205058000000462
 20
211.748284
 10
2.325000000000727
 20
211.8550330000001
 10
2.439043000000309
 20
211.9792469999997
 10
2.546320999999806
 20
212.1199819999999
 10
2.64601500000026
 20
212.276167
 10
2.737369000000398
 20
212.4466129999998
 10
2.81968500000039
 20
212.6300219999998
 10
2.892338999999991
 20
212.825
 10
2.95477700000083
 20
213.0300619999998
 10
3.006523000000014
 20
213.2436469999998
 10
3.047185000000353
 20
213.4641299999998
 10
3.076452000000243
 20
213.689832
 10
3.09410200000093
 20
213.9190369999999
 10
3.100000000000362
 20
214.1499999999999
 10
3.09410200000093
 20
214.3809629999998
 10
3.076452000000243
 20
214.6101679999999
 10
3.047185000000353
 20
214.8358699999999
 10
3.006523000000014
 20
215.0563529999999
 10
2.95477700000083
 20
215.2699379999999
 10
2.892338999999991
 20
215.4749999999999
 10
2.81968500000039
 20
215.6699779999999
 10
2.737369000000398
 20
215.8533869999999
 10
2.64601500000026
 20
216.023833
 10
2.546320999999806
 20
216.180018
 10
2.439043000000309
 20
216.320753
 10
2.325000000000727
 20
216.4449669999999
 10
2.205058000000462
 20
216.5517159999999
 10
2.080131000000618
 20
216.640185
 10
1.951168999999936
 20
216.709703
 10
1.819154000000708
 20
216.7597410000001
 10
1.685091000000284
 20
216.789916
 10
1.550000000000181
 20
216.8
 10
1.414908000000649
 20
216.789916
 10
1.280845000000225
 20
216.7597410000001
 10
1.148830000000089
 20
216.709703
 10
1.019869000000652
 20
216.640185
 10
0.8949410000004718
 20
216.5517159999999
 10
0.7750000000005457
 20
216.4449669999999
 10
0.6609560000006242
 20
216.320753
 10
0.5536790000005567
 20
216.180018
 10
0.4539840000006734
 20
216.023833
 10
0.3626309999999648
 20
215.8533869999999
 10
0.2803140000005442
 20
215.6699779999999
 10
0.2076600000000326
 20
215.4749999999999
 10
0.145223000000442
 20
215.2699379999999
 10
0.0934760000000097
 20
215.0563529999999
 10
0.0528150000009191
 20
214.8358699999999
 10
0.0235480000010284
 20
214.6101679999999
 10
0.005898000000343
 20
214.3809629999998
 10
0.0
 20
214.1499999999999
 10
0.005898000000343
 20
213.9190369999999
 10
0.0235480000010284
 20
213.689832
 10
0.0528150000009191
 20
213.4641299999998
 10
0.0934760000000097
 20
213.2436469999998
 10
0.145223000000442
 20
213.0300619999998
 10
0.2076600000000326
 20
212.825
 10
0.2803140000005442
 20
212.6300219999998
 10
0.3626309999999648
 20
212.4466129999998
 10
0.4539840000006734
 20
212.276167
 10
0.5536790000005567
 20
212.1199819999999
 10
0.6609560000006242
 20
211.9792469999997
 10
0.7750000000005457
 20
211.8550330000001
 10
0.8949410000004718
 20
211.748284
 10
1.019869000000652
 20
211.659815
 10
1.148830000000089
 20
211.5902969999997
 10
1.280845000000225
 20
211.5402589999999
 10
1.414908000000649
 20
211.510084
 10
1.550000000000181
 20
211.5
  0
LINE
  5
5136
330
510B
100
AcDbEntity
  8
AM_0 外形線1
100
AcDbLine
 10
16.0
 20
223.25
 30
0.0
 11
18.5
 21
225.75
 31
0.0
  0
LINE
  5
5137
330
510B
100
AcDbEntity
  8
AM_0 外形線1
100
AcDbLine
 10
18.5
 20
226.75
 30
0.0
 11
16.0
 21
224.25
 31
0.0
  0
LINE
  5
5138
330
510B
100
AcDbEntity
  8
AM_0 外形線1
100
AcDbLine
 10
18.5
 20
215.2000000000001
 30
0.0
 11
18.5
 21
234.7999999999999
 31
0.0
  0
LINE
  5
5139
330
510B
100
AcDbEntity
  8
AM_0 外形線1
100
AcDbLine
 10
15.0
 20
236.0
 30
0.0
 11
0.0
 21
236.0
 31
0.0
  0
LINE
  5
513A
330
510B
100
AcDbEntity
  8
AM_0 外形線1
100
AcDbLine
 10
16.0
 20
235.0
 30
0.0
 11
15.0
 21
236.0
 31
0.0
  0
LINE
  5
513B
330
510B
100
AcDbEntity
  8
AM_0 外形線1
100
AcDbLine
 10
16.0
 20
216.8
 30
0.0
 11
16.0
 21
235.0
 31
0.0
  0
LINE
  5
513C
330
510B
100
AcDbEntity
  8
AM_0 外形線1
100
AcDbLine
 10
0.0
 20
216.8
 30
0.0
 11
3.100000000000362
 21
216.8
 31
0.0
  0
LINE
  5
513D
330
510B
100
AcDbEntity
  8
AM_0 外形線1
100
AcDbLine
 10
16.0
 20
219.5
 30
0.0
 11
0.0
 21
219.5
 31
0.0
  0
LINE
  5
513E
330
510B
100
AcDbEntity
  8
AM_0 外形線1
100
AcDbLine
 10
16.0
 20
230.5
 30
0.0
 11
0.0
 21
230.5
 31
0.0
  0
LINE
  5
513F
330
510B
100
AcDbEntity
  8
AM_0 外形線1
100
AcDbLine
 10
18.5
 20
217.0999999999999
 30
0.0
 11
16.0
 21
217.0999999999999
 31
0.0
  0
LINE
  5
5140
330
510B
100
AcDbEntity
  8
AM_0 外形線1
100
AcDbLine
 10
18.5
 20
232.8999999999999
 30
0.0
 11
16.0
 21
232.8999999999999
 31
0.0
  0
LINE
  5
5141
330
510B
100
AcDbEntity
  8
AM_0 外形線1
100
AcDbLine
 10
3.100000000000362
 20
211.5
 30
0.0
 11
3.100000000000362
 21
216.8
 31
0.0
  0
LINE
  5
5142
330
510B
100
AcDbEntity
  8
AM_0 外形線1
100
AcDbLine
 10
3.100000000000362
 20
211.5
 30
0.0
 11
-4.000000000000227
 21
211.4999999999997
 31
0.0
  0
LINE
  5
5144
330
510B
100
AcDbEntity
  8
AM_0 外形線1
100
AcDbLine
 10
25.5
 20
232.342523
 30
0.0
 11
25.5
 21
217.6499999999998
 31
0.0
  0
ARC
  5
5145
330
510B
100
AcDbEntity
  8
AM_0 外形線1
100
AcDbCircle
 10
21.48887400000058
 20
232.3462609999999
 30
0.0
 40
4.011127
100
AcDbArc
 50
322.2850879999938
 51
37.71491200000614
  0
ARC
  5
5146
330
510B
100
AcDbEntity
  8
AM_0 外形線1
100
AcDbCircle
 10
10.80000000000018
 20
225.0
 30
0.0
 40
14.7
100
AcDbArc
 50
340.5596879999958
 51
19.44031200000416
  0
ARC
  5
5147
330
510B
100
AcDbEntity
  8
AM_0 外形線1
100
AcDbCircle
 10
21.48887400000058
 20
217.6537389999999
 30
0.0
 40
4.011127
100
AcDbArc
 50
322.2850879999938
 51
37.71491200000614
  0
LINE
  5
520D
330
510B
100
AcDbEntity
  8
AM_0 外形線1
100
AcDbLine
 10
0.0
 20
216.8
 30
0.0
 11
0.0
 21
220.0
 31
0.0
  0
LINE
  5
520E
330
510B
100
AcDbEntity
  8
AM_0 外形線1
100
AcDbLine
 10
0.0
 20
230.0
 30
0.0
 11
0.0
 21
236.0
 31
0.0
  0
LINE
  5
520F
330
510B
100
AcDbEntity
  8
AM_0 外形線1
100
AcDbLine
 10
0.0
 20
0.0
 30
0.0
 11
0.0
 21
-236.0
 31
0.0
  0
LINE
  5
5210
330
510B
100
AcDbEntity
  8
AM_7 中心線
100
AcDbLine
 10
23.97149474356047
 20
-225.0000000000004
 30
0.0
 11
-13.47496710751125
 21
-225.0000000000004
 31
0.0
  0
ENDBLK
  5
510D
330
510B
100
AcDbEntity
  8
0
100
AcDbBlockEnd
  0
BLOCK
  5
552B
330
552A
100
AcDbEntity
  8
0
100
AcDbBlockBegin
  2
*D12
 70
     1
 10
0.0
 20
0.0
 30
0.0
  3
*D12
  1

  0
LINE
  5
6C8D
330
552A
100
AcDbEntity
  8
AM_5 寸法線
 62
     3
100
AcDbLine
 10
0.9999999999999998
 20
719.0
 30
0.0
 11
-133.0000000000001
 21
719.0
 31
0.0
  0
LINE
  5
6C8E
330
552A
100
AcDbEntity
  8
AM_5 寸法線
 62
     3
100
AcDbLine
 10
1.0
 20
289.0
 30
0.0
 11
-133.0000000000002
 21
289.0
 31
0.0
  0
LINE
  5
6C8F
330
552A
100
AcDbEntity
  8
AM_5 寸法線
 62
     3
100
AcDbLine
 10
-128.0000000000001
 20
699.0
 30
0.0
 11
-128.0000000000002
 21
309.0000000000001
 31
0.0
  0
INSERT
  5
6C90
330
552A
100
AcDbEntity
  8
AM_5 寸法線
 62
     3
100
AcDbBlockReference
  2
_Open30
 10
-128.0000000000001
 20
719.0
 30
0.0
 41
20.0
 42
20.0
 43
20.0
 50
90.0
  0
INSERT
  5
6C91
330
552A
100
AcDbEntity
  8
AM_5 寸法線
 62
     3
100
AcDbBlockReference
  2
_Open30
 10
-128.0000000000002
 20
289.0
 30
0.0
 41
20.0
 42
20.0
 43
20.0
 50
270.0
  0
MTEXT
  5
6C92
330
552A
100
AcDbEntity
  8
AM_5 寸法線
 62
     3
100
AcDbMText
 10
-154.0000000000002
 20
504.0
 30
0.0
 40
28.0
 41
0.0
 46
0.0
 71
     5
 72
     1
  1
%%c430
  7
SEISA
 11
0.0000000000000001
 21
1.0
 31
0.0
 73
     1
 44
1.0
  0
POINT
  5
6C93
330
552A
100
AcDbEntity
  8
Defpoints
 62
     0
100
AcDbPoint
 10
6.0
 20
719.0
 30
0.0
  0
POINT
  5
6C94
330
552A
100
AcDbEntity
  8
Defpoints
 62
     0
100
AcDbPoint
 10
6.0
 20
289.0
 30
0.0
  0
POINT
  5
6C95
330
552A
100
AcDbEntity
  8
Defpoints
 62
     0
100
AcDbPoint
 10
-128.0000000000002
 20
289.0
 30
0.0
  0
ENDBLK
  5
552C
330
552A
100
AcDbEntity
  8
0
100
AcDbBlockEnd
  0
BLOCK
  5
5556
330
5555
100
AcDbEntity
  8
0
100
AcDbBlockBegin
  2
*D13
 70
     1
 10
0.0
 20
0.0
 30
0.0
  3
*D13
  1

  0
LINE
  5
6C96
330
5555
100
AcDbEntity
  8
AM_5 寸法線
 62
     3
100
AcDbLine
 10
265.0
 20
509.0
 30
0.0
 11
265.0
 21
541.7475209999999
 31
0.0
  0
LINE
  5
6C97
330
5555
100
AcDbEntity
  8
AM_5 寸法線
 62
     3
100
AcDbLine
 10
0.0000000000000003
 20
509.0
 30
0.0
 11
0.0000000000000023
 21
541.7475209999999
 31
0.0
  0
LINE
  5
6C98
330
5555
100
AcDbEntity
  8
AM_5 寸法線
 62
     3
100
AcDbLine
 10
245.0
 20
536.7475209999996
 30
0.0
 11
20.0
 21
536.7475209999996
 31
0.0
  0
INSERT
  5
6C99
330
5555
100
AcDbEntity
  8
AM_5 寸法線
 62
     3
100
AcDbBlockReference
  2
_Open30
 10
265.0
 20
536.7475209999996
 30
0.0
 41
20.0
 42
20.0
 43
20.0
  0
INSERT
  5
6C9A
330
5555
100
AcDbEntity
  8
AM_5 寸法線
 62
     3
100
AcDbBlockReference
  2
_Open30
 10
0.000000000000002
 20
536.7475209999996
 30
0.0
 41
20.0
 42
20.0
 43
20.0
 50
180.0
  0
MTEXT
  5
6C9B
330
5555
100
AcDbEntity
  8
AM_5 寸法線
 62
     3
100
AcDbMText
 10
132.5
 20
562.7475209999999
 30
0.0
 40
28.0
 41
0.0
 46
0.0
 71
     5
 72
     1
  1
265
  7
SEISA
 73
     1
 44
1.0
  0
POINT
  5
6C9C
330
5555
100
AcDbEntity
  8
Defpoints
 62
     0
100
AcDbPoint
 10
265.0
 20
504.0
 30
0.0
  0
POINT
  5
6C9D
330
5555
100
AcDbEntity
  8
Defpoints
 62
     0
100
AcDbPoint
 10
0.0
 20
504.0
 30
0.0
  0
POINT
  5
6C9E
330
5555
100
AcDbEntity
  8
Defpoints
 62
     0
100
AcDbPoint
 10
0.000000000000002
 20
536.7475209999996
 30
0.0
  0
ENDBLK
  5
5557
330
5555
100
AcDbEntity
  8
0
100
AcDbBlockEnd
  0
BLOCK
  5
556E
330
556D
100
AcDbEntity
  8
0
100
AcDbBlockBegin
  2
*D14
 70
     1
 10
0.0
 20
0.0
 30
0.0
  3
*D14
  1

  0
LINE
  5
6C9F
330
556D
100
AcDbEntity
  8
AM_5 寸法線
 62
     3
100
AcDbLine
 10
265.0
 20
509.0
 30
0.0
 11
265.0
 21
541.7475209999999
 31
0.0
  0
LINE
  5
6CA0
330
556D
100
AcDbEntity
  8
AM_5 寸法線
 62
     3
100
AcDbLine
 10
287.0
 20
509.0
 30
0.0
 11
287.0
 21
541.7475209999999
 31
0.0
  0
LINE
  5
6CA1
330
556D
100
AcDbEntity
  8
AM_5 寸法線
 62
     3
100
AcDbLine
 10
245.0
 20
536.7475209999996
 30
0.0
 11
225.0
 21
536.7475209999996
 31
0.0
  0
LINE
  5
6CA2
330
556D
100
AcDbEntity
  8
AM_5 寸法線
 62
     3
100
AcDbLine
 10
307.0
 20
536.7475209999996
 30
0.0
 11
327.0
 21
536.7475209999996
 31
0.0
  0
MTEXT
  5
6CA3
330
556D
100
AcDbEntity
  8
AM_5 寸法線
 62
     3
100
AcDbMText
 10
329.2979785898897
 20
562.8901355530221
 30
0.0
 40
28.0
 41
0.0
 46
0.0
 71
     5
 72
     1
  1
22
  7
SEISA
 73
     1
 44
1.0
  0
LINE
  5
6CA4
330
556D
100
AcDbEntity
  8
AM_5 寸法線
 62
     3
100
AcDbLine
 10
265.0
 20
536.7475209999996
 30
0.0
 11
287.0
 21
536.7475209999996
 31
0.0
  0
INSERT
  5
6CA5
330
556D
100
AcDbEntity
  8
AM_5 寸法線
 62
     3
100
AcDbBlockReference
  2
_Open30
 10
265.0
 20
536.7475209999996
 30
0.0
 41
20.0
 42
20.0
 43
20.0
  0
INSERT
  5
6CA6
330
556D
100
AcDbEntity
  8
AM_5 寸法線
 62
     3
100
AcDbBlockReference
  2
_Open30
 10
287.0
 20
536.7475209999996
 30
0.0
 41
20.0
 42
20.0
 43
20.0
 50
180.0
  0
POINT
  5
6CA7
330
556D
100
AcDbEntity
  8
Defpoints
 62
     0
100
AcDbPoint
 10
265.0
 20
504.0
 30
0.0
  0
POINT
  5
6CA8
330
556D
100
AcDbEntity
  8
Defpoints
 62
     0
100
AcDbPoint
 10
287.0
 20
504.0
 30
0.0
  0
POINT
  5
6CA9
330
556D
100
AcDbEntity
  8
Defpoints
 62
     0
100
AcDbPoint
 10
287.0
 20
536.7475209999996
 30
0.0
  0
ENDBLK
  5
556F
330
556D
100
AcDbEntity
  8
0
100
AcDbBlockEnd
  0
BLOCK
  5
55A0
330
559F
100
AcDbEntity
  8
0
100
AcDbBlockBegin
  2
*D15
 70
     1
 10
0.0
 20
0.0
 30
0.0
  3
*D15
  1

  0
LINE
  5
6CAA
330
559F
100
AcDbEntity
  8
AM_5 寸法線
 62
     3
100
AcDbLine
 10
287.0
 20
509.0
 30
0.0
 11
287.0
 21
541.7475209999999
 31
0.0
  0
LINE
  5
6CAB
330
559F
100
AcDbEntity
  8
AM_5 寸法線
 62
     3
100
AcDbLine
 10
552.0
 20
509.0
 30
0.0
 11
552.0
 21
541.7475209999999
 31
0.0
  0
LINE
  5
6CAC
330
559F
100
AcDbEntity
  8
AM_5 寸法線
 62
     3
100
AcDbLine
 10
307.0
 20
536.7475209999996
 30
0.0
 11
532.0
 21
536.7475209999996
 31
0.0
  0
INSERT
  5
6CAD
330
559F
100
AcDbEntity
  8
AM_5 寸法線
 62
     3
100
AcDbBlockReference
  2
_Open30
 10
287.0
 20
536.7475209999996
 30
0.0
 41
20.0
 42
20.0
 43
20.0
 50
180.0
  0
INSERT
  5
6CAE
330
559F
100
AcDbEntity
  8
AM_5 寸法線
 62
     3
100
AcDbBlockReference
  2
_Open30
 10
552.0
 20
536.7475209999996
 30
0.0
 41
20.0
 42
20.0
 43
20.0
  0
MTEXT
  5
6CAF
330
559F
100
AcDbEntity
  8
AM_5 寸法線
 62
     3
100
AcDbMText
 10
419.5
 20
562.7475209999999
 30
0.0
 40
28.0
 41
0.0
 46
0.0
 71
     5
 72
     1
  1
265
  7
SEISA
 73
     1
 44
1.0
  0
POINT
  5
6CB0
330
559F
100
AcDbEntity
  8
Defpoints
 62
     0
100
AcDbPoint
 10
287.0
 20
504.0
 30
0.0
  0
POINT
  5
6CB1
330
559F
100
AcDbEntity
  8
Defpoints
 62
     0
100
AcDbPoint
 10
552.0
 20
504.0
 30
0.0
  0
POINT
  5
6CB2
330
559F
100
AcDbEntity
  8
Defpoints
 62
     0
100
AcDbPoint
 10
552.0
 20
536.7475209999996
 30
0.0
  0
ENDBLK
  5
55A1
330
559F
100
AcDbEntity
  8
0
100
AcDbBlockEnd
  0
BLOCK
  5
55DC
330
55DB
100
AcDbEntity
  8
0
100
AcDbBlockBegin
  2
*D16
 70
     1
 10
0.0
 20
0.0
 30
0.0
  3
*D16
  1

  0
LINE
  5
6CB3
330
55DB
100
AcDbEntity
  8
AM_5 寸法線
 62
     3
100
AcDbLine
 10
490.0
 20
696.4999999999998
 30
0.0
 11
684.9999999999997
 21
696.4999999999998
 31
0.0
  0
LINE
  5
6CB4
330
55DB
100
AcDbEntity
  8
AM_5 寸法線
 62
     3
100
AcDbLine
 10
490.0
 20
311.5
 30
0.0
 11
684.9999999999997
 21
311.4999999999999
 31
0.0
  0
LINE
  5
6CB5
330
55DB
100
AcDbEntity
  8
AM_5 寸法線
 62
     3
100
AcDbLine
 10
679.9999999999998
 20
676.5
 30
0.0
 11
679.9999999999998
 21
331.4999999999999
 31
0.0
  0
INSERT
  5
6CB6
330
55DB
100
AcDbEntity
  8
AM_5 寸法線
 62
     3
100
AcDbBlockReference
  2
_Open30
 10
679.9999999999998
 20
696.4999999999998
 30
0.0
 41
20.0
 42
20.0
 43
20.0
 50
90.0
  0
INSERT
  5
6CB7
330
55DB
100
AcDbEntity
  8
AM_5 寸法線
 62
     3
100
AcDbBlockReference
  2
_Open30
 10
679.9999999999998
 20
311.4999999999999
 30
0.0
 41
20.0
 42
20.0
 43
20.0
 50
270.0
  0
MTEXT
  5
6CB8
330
55DB
100
AcDbEntity
  8
AM_5 寸法線
 62
     3
100
AcDbMText
 10
653.9999999999996
 20
504.0
 30
0.0
 40
28.0
 41
0.0
 46
0.0
 71
     5
 72
     1
  1
%%c385
  7
SEISA
 11
0.0000000000000001
 21
1.0
 31
0.0
 73
     1
 44
1.0
  0
POINT
  5
6CB9
330
55DB
100
AcDbEntity
  8
Defpoints
 62
     0
100
AcDbPoint
 10
485.0
 20
696.4999999999998
 30
0.0
  0
POINT
  5
6CBA
330
55DB
100
AcDbEntity
  8
Defpoints
 62
     0
100
AcDbPoint
 10
485.0
 20
311.5
 30
0.0
  0
POINT
  5
6CBB
330
55DB
100
AcDbEntity
  8
Defpoints
 62
     0
100
AcDbPoint
 10
679.9999999999998
 20
311.4999999999999
 30
0.0
  0
ENDBLK
  5
55DD
330
55DB
100
AcDbEntity
  8
0
100
AcDbBlockEnd
  0
BLOCK
  5
55F4
330
55F3
100
AcDbEntity
  8
0
100
AcDbBlockBegin
  2
*D17
 70
     1
 10
0.0
 20
0.0
 30
0.0
  3
*D17
  1

  0
LINE
  5
6CBC
330
55F3
100
AcDbEntity
  8
AM_5 寸法線
 62
     3
100
AcDbLine
 10
467.0
 20
740.0
 30
0.0
 11
749.0
 21
740.0
 31
0.0
  0
LINE
  5
6CBD
330
55F3
100
AcDbEntity
  8
AM_5 寸法線
 62
     3
100
AcDbLine
 10
468.0
 20
268.0
 30
0.0
 11
749.0
 21
267.9999999999999
 31
0.0
  0
LINE
  5
6CBE
330
55F3
100
AcDbEntity
  8
AM_5 寸法線
 62
     3
100
AcDbLine
 10
744.0
 20
720.0
 30
0.0
 11
744.0
 21
287.9999999999999
 31
0.0
  0
INSERT
  5
6CBF
330
55F3
100
AcDbEntity
  8
AM_5 寸法線
 62
     3
100
AcDbBlockReference
  2
_Open30
 10
744.0
 20
740.0
 30
0.0
 41
20.0
 42
20.0
 43
20.0
 50
90.0
  0
INSERT
  5
6CC0
330
55F3
100
AcDbEntity
  8
AM_5 寸法線
 62
     3
100
AcDbBlockReference
  2
_Open30
 10
744.0
 20
267.9999999999999
 30
0.0
 41
20.0
 42
20.0
 43
20.0
 50
270.0
  0
MTEXT
  5
6CC1
330
55F3
100
AcDbEntity
  8
AM_5 寸法線
 62
     3
100
AcDbMText
 10
717.9999999999997
 20
504.0
 30
0.0
 40
28.0
 41
0.0
 46
0.0
 71
     5
 72
     1
  1
%%c472
  7
SEISA
 11
0.0000000000000001
 21
1.0
 31
0.0
 73
     1
 44
1.0
  0
POINT
  5
6CC2
330
55F3
100
AcDbEntity
  8
Defpoints
 62
     0
100
AcDbPoint
 10
462.0
 20
740.0
 30
0.0
  0
POINT
  5
6CC3
330
55F3
100
AcDbEntity
  8
Defpoints
 62
     0
100
AcDbPoint
 10
463.0
 20
268.0
 30
0.0
  0
POINT
  5
6CC4
330
55F3
100
AcDbEntity
  8
Defpoints
 62
     0
100
AcDbPoint
 10
744.0
 20
267.9999999999999
 30
0.0
  0
ENDBLK
  5
55F5
330
55F3
100
AcDbEntity
  8
0
100
AcDbBlockEnd
  0
BLOCK
  5
5614
330
5613
100
AcDbEntity
  8
0
100
AcDbBlockBegin
  2
*D18
 70
     1
 10
0.0
 20
0.0
 30
0.0
  3
*D18
  1

  0
LINE
  5
6CC5
330
5613
100
AcDbEntity
  8
AM_5 寸法線
 62
     3
100
AcDbLine
 10
310.0
 20
784.0
 30
0.0
 11
813.0000000000004
 21
783.9999999999997
 31
0.0
  0
LINE
  5
6CC6
330
5613
100
AcDbEntity
  8
AM_5 寸法線
 62
     3
100
AcDbLine
 10
309.9999999999998
 20
224.0
 30
0.0
 11
813.0
 21
223.9999999999998
 31
0.0
  0
LINE
  5
6CC7
330
5613
100
AcDbEntity
  8
AM_5 寸法線
 62
     3
100
AcDbLine
 10
808.0000000000001
 20
763.9999999999997
 30
0.0
 11
808.0
 21
243.9999999999999
 31
0.0
  0
INSERT
  5
6CC8
330
5613
100
AcDbEntity
  8
AM_5 寸法線
 62
     3
100
AcDbBlockReference
  2
_Open30
 10
808.0000000000001
 20
783.9999999999997
 30
0.0
 41
20.0
 42
20.0
 43
20.0
 50
90.0
  0
INSERT
  5
6CC9
330
5613
100
AcDbEntity
  8
AM_5 寸法線
 62
     3
100
AcDbBlockReference
  2
_Open30
 10
808.0
 20
223.9999999999998
 30
0.0
 41
20.0
 42
20.0
 43
20.0
 50
270.0
  0
MTEXT
  5
6CCA
330
5613
100
AcDbEntity
  8
AM_5 寸法線
 62
     3
100
AcDbMText
 10
782.0
 20
504.0
 30
0.0
 40
28.0
 41
0.0
 46
0.0
 71
     5
 72
     1
  1
%%c560
  7
SEISA
 11
0.0000000000000001
 21
1.0
 31
0.0
 73
     1
 44
1.0
  0
POINT
  5
6CCB
330
5613
100
AcDbEntity
  8
Defpoints
 62
     0
100
AcDbPoint
 10
305.0
 20
784.0
 30
0.0
  0
POINT
  5
6CCC
330
5613
100
AcDbEntity
  8
Defpoints
 62
     0
100
AcDbPoint
 10
304.9999999999998
 20
224.0
 30
0.0
  0
POINT
  5
6CCD
330
5613
100
AcDbEntity
  8
Defpoints
 62
     0
100
AcDbPoint
 10
808.0
 20
223.9999999999998
 30
0.0
  0
ENDBLK
  5
5615
330
5613
100
AcDbEntity
  8
0
100
AcDbBlockEnd
  0
BLOCK
  5
578C
330
578B
100
AcDbEntity
  8
0
100
AcDbBlockBegin
  2
*D19
 70
     1
 10
0.0
 20
0.0
 30
0.0
  3
*D19
  1

  0
LINE
  5
6CCE
330
578B
100
AcDbEntity
  8
AM_5 寸法線
 62
     3
100
AcDbLine
 10
443.0
 20
691.5
 30
0.0
 11
443.0
 21
646.7049117527101
 31
0.0
  0
LINE
  5
6CCF
330
578B
100
AcDbEntity
  8
AM_5 寸法線
 62
     3
100
AcDbLine
 10
436.5
 20
692.0
 30
0.0
 11
436.5
 21
646.7049117527101
 31
0.0
  0
LINE
  5
6CD0
330
578B
100
AcDbEntity
  8
AM_5 寸法線
 62
     3
100
AcDbLine
 10
463.0
 20
651.7049117527101
 30
0.0
 11
483.0
 21
651.7049117527101
 31
0.0
  0
LINE
  5
6CD1
330
578B
100
AcDbEntity
  8
AM_5 寸法線
 62
     3
100
AcDbLine
 10
416.5
 20
651.7049117527101
 30
0.0
 11
396.5
 21
651.7049117527101
 31
0.0
  0
MTEXT
  5
6CD2
330
578B
100
AcDbEntity
  8
AM_5 寸法線
 62
     3
100
AcDbMText
 10
489.0490795738005
 20
673.8999999999996
 30
0.0
 40
28.0
 41
0.0
 46
0.0
 71
     5
 72
     1
  1
6.5
  7
SEISA
 73
     1
 44
1.0
  0
LINE
  5
6CD3
330
578B
100
AcDbEntity
  8
AM_5 寸法線
 62
     3
100
AcDbLine
 10
443.0
 20
651.7049117527101
 30
0.0
 11
436.5
 21
651.7049117527101
 31
0.0
  0
INSERT
  5
6CD4
330
578B
100
AcDbEntity
  8
AM_5 寸法線
 62
     3
100
AcDbBlockReference
  2
_Open30
 10
443.0
 20
651.7049117527101
 30
0.0
 41
20.0
 42
20.0
 43
20.0
 50
180.0
  0
INSERT
  5
6CD5
330
578B
100
AcDbEntity
  8
AM_5 寸法線
 62
     3
100
AcDbBlockReference
  2
_Open30
 10
436.5
 20
651.7049117527101
 30
0.0
 41
20.0
 42
20.0
 43
20.0
  0
POINT
  5
6CD6
330
578B
100
AcDbEntity
  8
Defpoints
 62
     0
100
AcDbPoint
 10
443.0
 20
696.4999999999998
 30
0.0
  0
POINT
  5
6CD7
330
578B
100
AcDbEntity
  8
Defpoints
 62
     0
100
AcDbPoint
 10
436.5
 20
697.0
 30
0.0
  0
POINT
  5
6CD8
330
578B
100
AcDbEntity
  8
Defpoints
 62
     0
100
AcDbPoint
 10
436.5
 20
651.7049117527101
 30
0.0
  0
ENDBLK
  5
578D
330
578B
100
AcDbEntity
  8
0
100
AcDbBlockEnd
  0
BLOCK
  5
5902
330
5901
100
AcDbEntity
  8
0
100
AcDbBlockBegin
  2
*D20
 70
     1
 10
0.0
 20
0.0
 30
0.0
  3
*D20
  1

  0
LINE
  5
6DE1
330
5901
100
AcDbEntity
  8
AM_5 寸法線
 62
     3
100
AcDbLine
 10
276.0
 20
220.0
 30
0.0
 11
276.0
 21
123.0
 31
0.0
  0
LINE
  5
6DE2
330
5901
100
AcDbEntity
  8
AM_5 寸法線
 62
     3
100
AcDbLine
 10
246.0
 20
220.0
 30
0.0
 11
246.0
 21
123.0
 31
0.0
  0
LINE
  5
6DE3
330
5901
100
AcDbEntity
  8
AM_5 寸法線
 62
     3
100
AcDbLine
 10
296.0
 20
128.0
 30
0.0
 11
316.0
 21
128.0
 31
0.0
  0
LINE
  5
6DE4
330
5901
100
AcDbEntity
  8
AM_5 寸法線
 62
     3
100
AcDbLine
 10
226.0
 20
128.0
 30
0.0
 11
141.2
 21
128.0
 31
0.0
  0
LINE
  5
6DE5
330
5901
100
AcDbEntity
  8
AM_5 寸法線
 62
     3
100
AcDbLine
 10
276.0
 20
128.0
 30
0.0
 11
246.0
 21
128.0
 31
0.0
  0
INSERT
  5
6DE6
330
5901
100
AcDbEntity
  8
AM_5 寸法線
 62
     3
100
AcDbBlockReference
  2
GENDOT
 10
276.0
 20
128.0
 30
0.0
 41
20.0
 42
20.0
 43
20.0
 50
180.0
  0
INSERT
  5
6DE7
330
5901
100
AcDbEntity
  8
AM_5 寸法線
 62
     3
100
AcDbBlockReference
  2
_Open30
 10
246.0
 20
128.0
 30
0.0
 41
20.0
 42
20.0
 43
20.0
  0
MTEXT
  5
6DE8
330
5901
100
AcDbEntity
  8
AM_5 寸法線
 62
     3
100
AcDbMText
 10
173.6
 20
154.0
 30
0.0
 40
28.0
 41
0.0
 46
0.0
 71
     5
 72
     1
  1
30
  7
SEISA
 73
     1
 44
1.0
  0
POINT
  5
6DE9
330
5901
100
AcDbEntity
  8
Defpoints
 62
     0
100
AcDbPoint
 10
276.0
 20
225.0
 30
0.0
  0
POINT
  5
6DEA
330
5901
100
AcDbEntity
  8
Defpoints
 62
     0
100
AcDbPoint
 10
246.0
 20
225.0
 30
0.0
  0
POINT
  5
6DEB
330
5901
100
AcDbEntity
  8
Defpoints
 62
     0
100
AcDbPoint
 10
246.0
 20
128.0
 30
0.0
  0
ENDBLK
  5
5903
330
5901
100
AcDbEntity
  8
0
100
AcDbBlockEnd
  0
BLOCK
  5
591E
330
591D
100
AcDbEntity
  8
0
100
AcDbBlockBegin
  2
*D21
 70
     1
 10
0.0
 20
0.0
 30
0.0
  3
*D21
  1

  0
LINE
  5
6CE4
330
591D
100
AcDbEntity
  8
AM_5 寸法線
 62
     3
100
AcDbLine
 10
276.0
 20
220.0
 30
0.0
 11
276.0
 21
123.0
 31
0.0
  0
LINE
  5
6CE5
330
591D
100
AcDbEntity
  8
AM_5 寸法線
 62
     3
100
AcDbLine
 10
306.0
 20
220.0
 30
0.0
 11
306.0
 21
123.0
 31
0.0
  0
LINE
  5
6CE6
330
591D
100
AcDbEntity
  8
AM_5 寸法線
 62
     3
100
AcDbLine
 10
256.0
 20
128.0
 30
0.0
 11
236.0
 21
128.0
 31
0.0
  0
LINE
  5
6CE7
330
591D
100
AcDbEntity
  8
AM_5 寸法線
 62
     3
100
AcDbLine
 10
326.0
 20
128.0
 30
0.0
 11
410.8
 21
128.0
 31
0.0
  0
LINE
  5
6CE8
330
591D
100
AcDbEntity
  8
AM_5 寸法線
 62
     3
100
AcDbLine
 10
276.0
 20
128.0
 30
0.0
 11
306.0
 21
128.0
 31
0.0
  0
INSERT
  5
6CE9
330
591D
100
AcDbEntity
  8
AM_5 寸法線
 62
     3
100
AcDbBlockReference
  2
GENDOT
 10
276.0
 20
128.0
 30
0.0
 41
20.0
 42
20.0
 43
20.0
  0
INSERT
  5
6CEA
330
591D
100
AcDbEntity
  8
AM_5 寸法線
 62
     3
100
AcDbBlockReference
  2
_Open30
 10
306.0
 20
128.0
 30
0.0
 41
20.0
 42
20.0
 43
20.0
 50
180.0
  0
MTEXT
  5
6CEB
330
591D
100
AcDbEntity
  8
AM_5 寸法線
 62
     3
100
AcDbMText
 10
378.4
 20
154.0
 30
0.0
 40
28.0
 41
0.0
 46
0.0
 71
     5
 72
     1
  1
30
  7
SEISA
 73
     1
 44
1.0
  0
POINT
  5
6CEC
330
591D
100
AcDbEntity
  8
Defpoints
 62
     0
100
AcDbPoint
 10
276.0
 20
225.0
 30
0.0
  0
POINT
  5
6CED
330
591D
100
AcDbEntity
  8
Defpoints
 62
     0
100
AcDbPoint
 10
306.0
 20
225.0
 30
0.0
  0
POINT
  5
6CEE
330
591D
100
AcDbEntity
  8
Defpoints
 62
     0
100
AcDbPoint
 10
306.0
 20
128.0
 30
0.0
  0
ENDBLK
  5
591F
330
591D
100
AcDbEntity
  8
0
100
AcDbBlockEnd
  0
BLOCK
  5
593A
330
5939
100
AcDbEntity
  8
0
100
AcDbBlockBegin
  2
*D22
 70
     1
 10
0.0
 20
0.0
 30
0.0
  3
*D22
  1

  0
LINE
  5
6CEF
330
5939
100
AcDbEntity
  8
AM_5 寸法線
 62
     3
100
AcDbLine
 10
276.0
 20
220.0
 30
0.0
 11
276.0
 21
59.0
 31
0.0
  0
LINE
  5
6CF0
330
5939
100
AcDbEntity
  8
AM_5 寸法線
 62
     3
100
AcDbLine
 10
-0.0000000000000003
 20
290.0
 30
0.0
 11
-0.0000000000000145
 21
59.0
 31
0.0
  0
LINE
  5
6CF1
330
5939
100
AcDbEntity
  8
AM_5 寸法線
 62
     3
100
AcDbLine
 10
256.0
 20
64.0
 30
0.0
 11
19.99999999999998
 21
64.0
 31
0.0
  0
INSERT
  5
6CF2
330
5939
100
AcDbEntity
  8
AM_5 寸法線
 62
     3
100
AcDbBlockReference
  2
_Open30
 10
276.0
 20
64.0
 30
0.0
 41
20.0
 42
20.0
 43
20.0
  0
INSERT
  5
6CF3
330
5939
100
AcDbEntity
  8
AM_5 寸法線
 62
     3
100
AcDbBlockReference
  2
_Open30
 10
-0.0000000000000141
 20
64.0
 30
0.0
 41
20.0
 42
20.0
 43
20.0
 50
180.0
  0
MTEXT
  5
6CF4
330
5939
100
AcDbEntity
  8
AM_5 寸法線
 62
     3
100
AcDbMText
 10
138.0
 20
90.0
 30
0.0
 40
28.0
 41
0.0
 46
0.0
 71
     5
 72
     1
  1
276
  7
SEISA
 73
     1
 44
1.0
  0
POINT
  5
6CF5
330
5939
100
AcDbEntity
  8
Defpoints
 62
     0
100
AcDbPoint
 10
276.0
 20
225.0
 30
0.0
  0
POINT
  5
6CF6
330
5939
100
AcDbEntity
  8
Defpoints
 62
     0
100
AcDbPoint
 10
0.0
 20
295.0
 30
0.0
  0
POINT
  5
6CF7
330
5939
100
AcDbEntity
  8
Defpoints
 62
     0
100
AcDbPoint
 10
-0.0000000000000141
 20
64.0
 30
0.0
  0
ENDBLK
  5
593B
330
5939
100
AcDbEntity
  8
0
100
AcDbBlockEnd
  0
BLOCK
  5
5952
330
5951
100
AcDbEntity
  8
0
100
AcDbBlockBegin
  2
*D23
 70
     1
 10
0.0
 20
0.0
 30
0.0
  3
*D23
  1

  0
LINE
  5
6CF8
330
5951
100
AcDbEntity
  8
AM_5 寸法線
 62
     3
100
AcDbLine
 10
276.0
 20
220.0
 30
0.0
 11
276.0
 21
59.0
 31
0.0
  0
LINE
  5
6CF9
330
5951
100
AcDbEntity
  8
AM_5 寸法線
 62
     3
100
AcDbLine
 10
463.0
 20
263.0
 30
0.0
 11
463.0
 21
59.0
 31
0.0
  0
LINE
  5
6CFA
330
5951
100
AcDbEntity
  8
AM_5 寸法線
 62
     3
100
AcDbLine
 10
296.0
 20
64.0
 30
0.0
 11
443.0
 21
64.0
 31
0.0
  0
INSERT
  5
6CFB
330
5951
100
AcDbEntity
  8
AM_5 寸法線
 62
     3
100
AcDbBlockReference
  2
_Open30
 10
276.0
 20
64.0
 30
0.0
 41
20.0
 42
20.0
 43
20.0
 50
180.0
  0
INSERT
  5
6CFC
330
5951
100
AcDbEntity
  8
AM_5 寸法線
 62
     3
100
AcDbBlockReference
  2
_Open30
 10
463.0
 20
64.0
 30
0.0
 41
20.0
 42
20.0
 43
20.0
  0
MTEXT
  5
6CFD
330
5951
100
AcDbEntity
  8
AM_5 寸法線
 62
     3
100
AcDbMText
 10
369.5
 20
90.0
 30
0.0
 40
28.0
 41
0.0
 46
0.0
 71
     5
 72
     1
  1
187
  7
SEISA
 73
     1
 44
1.0
  0
POINT
  5
6CFE
330
5951
100
AcDbEntity
  8
Defpoints
 62
     0
100
AcDbPoint
 10
276.0
 20
225.0
 30
0.0
  0
POINT
  5
6CFF
330
5951
100
AcDbEntity
  8
Defpoints
 62
     0
100
AcDbPoint
 10
463.0
 20
268.0
 30
0.0
  0
POINT
  5
6D00
330
5951
100
AcDbEntity
  8
Defpoints
 62
     0
100
AcDbPoint
 10
463.0
 20
64.0
 30
0.0
  0
ENDBLK
  5
5953
330
5951
100
AcDbEntity
  8
0
100
AcDbBlockEnd
  0
BLOCK
  5
596A
330
5969
100
AcDbEntity
  8
0
100
AcDbBlockBegin
  2
*D24
 70
     1
 10
0.0
 20
0.0
 30
0.0
  3
*D24
  1

  0
LINE
  5
6D01
330
5969
100
AcDbEntity
  8
AM_5 寸法線
 62
     3
100
AcDbLine
 10
463.0
 20
263.0
 30
0.0
 11
463.0
 21
59.0
 31
0.0
  0
LINE
  5
6D02
330
5969
100
AcDbEntity
  8
AM_5 寸法線
 62
     3
100
AcDbLine
 10
552.0
 20
313.5
 30
0.0
 11
552.0
 21
59.0
 31
0.0
  0
LINE
  5
6D03
330
5969
100
AcDbEntity
  8
AM_5 寸法線
 62
     3
100
AcDbLine
 10
483.0
 20
64.0
 30
0.0
 11
532.0
 21
64.0
 31
0.0
  0
INSERT
  5
6D04
330
5969
100
AcDbEntity
  8
AM_5 寸法線
 62
     3
100
AcDbBlockReference
  2
_Open30
 10
463.0
 20
64.0
 30
0.0
 41
20.0
 42
20.0
 43
20.0
 50
180.0
  0
INSERT
  5
6D05
330
5969
100
AcDbEntity
  8
AM_5 寸法線
 62
     3
100
AcDbBlockReference
  2
_Open30
 10
552.0
 20
64.0
 30
0.0
 41
20.0
 42
20.0
 43
20.0
  0
MTEXT
  5
6D06
330
5969
100
AcDbEntity
  8
AM_5 寸法線
 62
     3
100
AcDbMText
 10
507.5
 20
90.0
 30
0.0
 40
28.0
 41
0.0
 46
0.0
 71
     5
 72
     1
  1
89
  7
SEISA
 73
     1
 44
1.0
  0
POINT
  5
6D07
330
5969
100
AcDbEntity
  8
Defpoints
 62
     0
100
AcDbPoint
 10
463.0
 20
268.0
 30
0.0
  0
POINT
  5
6D08
330
5969
100
AcDbEntity
  8
Defpoints
 62
     0
100
AcDbPoint
 10
552.0
 20
318.5
 30
0.0
  0
POINT
  5
6D09
330
5969
100
AcDbEntity
  8
Defpoints
 62
     0
100
AcDbPoint
 10
552.0
 20
64.0
 30
0.0
  0
ENDBLK
  5
596B
330
5969
100
AcDbEntity
  8
0
100
AcDbBlockEnd
  0
BLOCK
  5
5982
330
5981
100
AcDbEntity
  8
0
100
AcDbBlockBegin
  2
*D25
 70
     1
 10
0.0
 20
0.0
 30
0.0
  3
*D25
  1

  0
LINE
  5
6D0A
330
5981
100
AcDbEntity
  8
AM_5 寸法線
 62
     3
100
AcDbLine
 10
-0.0000000000000003
 20
290.0
 30
0.0
 11
-0.0000000000000184
 21
-5.0
 31
0.0
  0
LINE
  5
6D0B
330
5981
100
AcDbEntity
  8
AM_5 寸法線
 62
     3
100
AcDbLine
 10
552.0
 20
313.5
 30
0.0
 11
552.0
 21
-5.0
 31
0.0
  0
LINE
  5
6D0C
330
5981
100
AcDbEntity
  8
AM_5 寸法線
 62
     3
100
AcDbLine
 10
19.99999999999998
 20
0.0
 30
0.0
 11
532.0
 21
0.0
 31
0.0
  0
INSERT
  5
6D0D
330
5981
100
AcDbEntity
  8
AM_5 寸法線
 62
     3
100
AcDbBlockReference
  2
_Open30
 10
-0.0000000000000181
 20
0.0
 30
0.0
 41
20.0
 42
20.0
 43
20.0
 50
180.0
  0
INSERT
  5
6D0E
330
5981
100
AcDbEntity
  8
AM_5 寸法線
 62
     3
100
AcDbBlockReference
  2
_Open30
 10
552.0
 20
0.0
 30
0.0
 41
20.0
 42
20.0
 43
20.0
  0
MTEXT
  5
6D0F
330
5981
100
AcDbEntity
  8
AM_5 寸法線
 62
     3
100
AcDbMText
 10
276.0
 20
26.0
 30
0.0
 40
28.0
 41
0.0
 46
0.0
 71
     5
 72
     1
  1
552
  7
SEISA
 73
     1
 44
1.0
  0
POINT
  5
6D10
330
5981
100
AcDbEntity
  8
Defpoints
 62
     0
100
AcDbPoint
 10
0.0
 20
295.0
 30
0.0
  0
POINT
  5
6D11
330
5981
100
AcDbEntity
  8
Defpoints
 62
     0
100
AcDbPoint
 10
552.0
 20
318.5
 30
0.0
  0
POINT
  5
6D12
330
5981
100
AcDbEntity
  8
Defpoints
 62
     0
100
AcDbPoint
 10
552.0
 20
0.0
 30
0.0
  0
ENDBLK
  5
5983
330
5981
100
AcDbEntity
  8
0
100
AcDbBlockEnd
  0
BLOCK
  5
6BA9
330
6BA8
100
AcDbEntity
  8
0
100
AcDbBlockBegin
  2
*D26
 70
     1
 10
0.0
 20
0.0
 30
0.0
  3
*D26
  1

  0
LINE
  5
6D13
330
6BA8
100
AcDbEntity
  8
AM_5 寸法線
 62
     3
100
AcDbLine
 10
552.0
 20
694.5
 30
0.0
 11
552.0
 21
813.6298566842803
 31
0.0
  0
LINE
  5
6D14
330
6BA8
100
AcDbEntity
  8
AM_5 寸法線
 62
     3
100
AcDbLine
 10
632.0
 20
744.0
 30
0.0
 11
632.0
 21
813.6298566842803
 31
0.0
  0
LINE
  5
6D15
330
6BA8
100
AcDbEntity
  8
AM_5 寸法線
 62
     3
100
AcDbLine
 10
572.0
 20
808.6298566842804
 30
0.0
 11
612.0
 21
808.6298566842804
 31
0.0
  0
INSERT
  5
6D16
330
6BA8
100
AcDbEntity
  8
AM_5 寸法線
 62
     3
100
AcDbBlockReference
  2
_Open30
 10
552.0
 20
808.6298566842804
 30
0.0
 41
20.0
 42
20.0
 43
20.0
 50
180.0
  0
INSERT
  5
6D17
330
6BA8
100
AcDbEntity
  8
AM_5 寸法線
 62
     3
100
AcDbBlockReference
  2
_Open30
 10
632.0
 20
808.6298566842804
 30
0.0
 41
20.0
 42
20.0
 43
20.0
  0
MTEXT
  5
6D18
330
6BA8
100
AcDbEntity
  8
AM_5 寸法線
 62
     3
100
AcDbMText
 10
592.0
 20
834.6298566842804
 30
0.0
 40
28.0
 41
0.0
 46
0.0
 71
     5
 72
     1
  1
80
  7
SEISA
 73
     1
 44
1.0
  0
POINT
  5
6D19
330
6BA8
100
AcDbEntity
  8
Defpoints
 62
     0
100
AcDbPoint
 10
552.0
 20
689.5
 30
0.0
  0
POINT
  5
6D1A
330
6BA8
100
AcDbEntity
  8
Defpoints
 62
     0
100
AcDbPoint
 10
632.0
 20
739.0
 30
0.0
  0
POINT
  5
6D1B
330
6BA8
100
AcDbEntity
  8
Defpoints
 62
     0
100
AcDbPoint
 10
632.0
 20
808.6298566842804
 30
0.0
  0
ENDBLK
  5
6BAA
330
6BA8
100
AcDbEntity
  8
0
100
AcDbBlockEnd
  0
BLOCK
  5
6C29
330
6C28
100
AcDbEntity
  8
0
100
AcDbBlockBegin
  2
*D27
 70
     1
 10
0.0
 20
0.0
 30
0.0
  3
*D27
  1

  0
LINE
  5
6D1C
330
6C28
100
AcDbEntity
  8
AM_5 寸法線
 62
     3
100
AcDbLine
 10
361.5
 20
690.0
 30
0.0
 11
361.5
 21
646.704911752712
 31
0.0
  0
LINE
  5
6D1D
330
6C28
100
AcDbEntity
  8
AM_5 寸法線
 62
     3
100
AcDbLine
 10
436.5
 20
692.0
 30
0.0
 11
436.5
 21
646.704911752712
 31
0.0
  0
LINE
  5
6D1E
330
6C28
100
AcDbEntity
  8
AM_5 寸法線
 62
     3
100
AcDbLine
 10
381.5
 20
651.7049117527123
 30
0.0
 11
416.5
 21
651.7049117527123
 31
0.0
  0
INSERT
  5
6D1F
330
6C28
100
AcDbEntity
  8
AM_5 寸法線
 62
     3
100
AcDbBlockReference
  2
_Open30
 10
361.5
 20
651.7049117527123
 30
0.0
 41
20.0
 42
20.0
 43
20.0
 50
180.0
  0
INSERT
  5
6D20
330
6C28
100
AcDbEntity
  8
AM_5 寸法線
 62
     3
100
AcDbBlockReference
  2
_Open30
 10
436.5
 20
651.7049117527123
 30
0.0
 41
20.0
 42
20.0
 43
20.0
  0
MTEXT
  5
6D21
330
6C28
100
AcDbEntity
  8
AM_5 寸法線
 62
     3
100
AcDbMText
 10
399.0
 20
677.7049117527123
 30
0.0
 40
28.0
 41
0.0
 46
0.0
 71
     5
 72
     1
  1
75
  7
SEISA
 73
     1
 44
1.0
  0
POINT
  5
6D22
330
6C28
100
AcDbEntity
  8
Defpoints
 62
     0
100
AcDbPoint
 10
361.5
 20
695.0
 30
0.0
  0
POINT
  5
6D23
330
6C28
100
AcDbEntity
  8
Defpoints
 62
     0
100
AcDbPoint
 10
436.5
 20
697.0
 30
0.0
  0
POINT
  5
6D24
330
6C28
100
AcDbEntity
  8
Defpoints
 62
     0
100
AcDbPoint
 10
436.5
 20
651.7049117527123
 30
0.0
  0
ENDBLK
  5
6C2A
330
6C28
100
AcDbEntity
  8
0
100
AcDbBlockEnd
  0
BLOCK
  5
6C53
330
6C52
100
AcDbEntity
  8
0
100
AcDbBlockBegin
  2
*D28
 70
     1
 10
0.0
 20
0.0
 30
0.0
  3
*D28
  1

  0
LINE
  5
6D25
330
6C52
100
AcDbEntity
  8
AM_5 寸法線
 62
     3
100
AcDbLine
 10
361.5
 20
690.0
 30
0.0
 11
361.5
 21
646.6828678269759
 31
0.0
  0
LINE
  5
6D26
330
6C52
100
AcDbEntity
  8
AM_5 寸法線
 62
     3
100
AcDbLine
 10
287.0
 20
688.4999999999998
 30
0.0
 11
287.0
 21
646.6828678269759
 31
0.0
  0
LINE
  5
6D27
330
6C52
100
AcDbEntity
  8
AM_5 寸法線
 62
     3
100
AcDbLine
 10
341.5
 20
651.682867826976
 30
0.0
 11
307.0
 21
651.682867826976
 31
0.0
  0
LINE
  5
6D28
330
6C52
100
AcDbEntity
  8
AM_5 寸法線
 62
     3
100
AcDbLine
 10
287.0
 20
651.682867826976
 30
0.0
 11
166.2
 21
651.682867826976
 31
0.0
  0
INSERT
  5
6D29
330
6C52
100
AcDbEntity
  8
AM_5 寸法線
 62
     3
100
AcDbBlockReference
  2
_Open30
 10
361.5
 20
651.682867826976
 30
0.0
 41
20.0
 42
20.0
 43
20.0
  0
INSERT
  5
6D2A
330
6C52
100
AcDbEntity
  8
AM_5 寸法線
 62
     3
100
AcDbBlockReference
  2
_Open30
 10
287.0
 20
651.682867826976
 30
0.0
 41
20.0
 42
20.0
 43
20.0
 50
180.0
  0
MTEXT
  5
6D2B
330
6C52
100
AcDbEntity
  8
AM_5 寸法線
 62
     3
100
AcDbMText
 10
216.6
 20
677.682867826976
 30
0.0
 40
28.0
 41
0.0
 46
0.0
 71
     5
 72
     1
  1
74.5
  7
SEISA
 73
     1
 44
1.0
  0
POINT
  5
6D2C
330
6C52
100
AcDbEntity
  8
Defpoints
 62
     0
100
AcDbPoint
 10
361.5
 20
695.0
 30
0.0
  0
POINT
  5
6D2D
330
6C52
100
AcDbEntity
  8
Defpoints
 62
     0
100
AcDbPoint
 10
287.0
 20
693.5
 30
0.0
  0
POINT
  5
6D2E
330
6C52
100
AcDbEntity
  8
Defpoints
 62
     0
100
AcDbPoint
 10
287.0
 20
651.682867826976
 30
0.0
  0
ENDBLK
  5
6C54
330
6C52
100
AcDbEntity
  8
0
100
AcDbBlockEnd
  0
BLOCK
  5
6E8A
330
6E89
100
AcDbEntity
  8
0
100
AcDbBlockBegin
  2
ﾘｼﾞｯﾄ CEM560
 70
     0
 10
0.0
 20
0.0
 30
0.0
  3
ﾘｼﾞｯﾄ CEM560
  1

  0
LINE
  5
6E8C
330
6E89
100
AcDbEntity
  8
AM_0 外形線1
100
AcDbLine
 10
-7.0
 20
-53.0
 30
0.0
 11
-0.0000000000002274
 21
-53.0
 31
0.0
  0
LINE
  5
6E8D
330
6E89
100
AcDbEntity
  8
AM_0 外形線1
100
AcDbLine
 10
-28.0
 20
2.0
 30
0.0
 11
-2.0
 21
2.0
 31
0.0
  0
LINE
  5
6E8E
330
6E89
100
AcDbEntity
  8
AM_0 外形線1
100
AcDbLine
 10
-30.0
 20
-557.0
 30
0.0
 11
-30.0
 21
-510.708204
 31
0.0
  0
LINE
  5
6E8F
330
6E89
100
AcDbEntity
  8
AM_0 外形線1
100
AcDbLine
 10
-11.0
 20
-66.49999999999977
 30
0.0
 11
-11.0
 21
-278.0
 31
0.0
  0
LINE
  5
6E90
330
6E89
100
AcDbEntity
  8
AM_0 外形線1
100
AcDbLine
 10
-276.0
 20
-487.0
 30
0.0
 11
-276.0
 21
-69.0
 31
0.0
  0
LINE
  5
6E91
330
6E89
100
AcDbEntity
  8
AM_0 外形線1
100
AcDbLine
 10
-61.54101999999966
 20
-493.0
 30
0.0
 11
-270.0
 21
-493.0
 31
0.0
  0
ARC
  5
6E92
330
6E89
100
AcDbEntity
  8
AM_0 外形線1
100
AcDbCircle
 10
-270.0
 20
-487.0
 30
0.0
 40
6.0
100
AcDbArc
 50
180.0
 51
270.0
  0
LINE
  5
6E93
330
6E89
100
AcDbEntity
  8
AM_0 外形線1
100
AcDbLine
 10
-30.0
 20
-510.708204
 30
0.0
 11
-30.0
 21
-278.0
 31
0.0
  0
LINE
  5
6E94
330
6E89
100
AcDbEntity
  8
AM_0 外形線1
100
AcDbLine
 10
-58.0
 20
-493.4239520000001
 30
0.0
 11
-58.0
 21
-278.0
 31
0.0
  0
ARC
  5
6E95
330
6E89
100
AcDbEntity
  8
AM_0 外形線1
100
AcDbCircle
 10
-61.54101999999966
 20
-508.0
 30
0.0
 40
15.0
100
AcDbArc
 50
63.43494899998877
 51
90.0
  0
ARC
  5
6E96
330
6E89
100
AcDbEntity
  8
AM_0 外形線1
100
AcDbCircle
 10
-36.0
 20
-510.708204
 30
0.0
 40
6.0
100
AcDbArc
 50
0.0
 51
63.43494899998877
  0
LINE
  5
6E97
330
6E89
100
AcDbEntity
  8
AM_0 外形線1
100
AcDbLine
 10
-33.31671899999947
 20
-505.3416410000001
 30
0.0
 11
-54.83281600000009
 21
-494.5835920000002
 31
0.0
  0
LINE
  5
6E98
330
6E89
100
AcDbEntity
  8
AM_3 隠れ線
100
AcDbLine
 10
-11.0
 20
-267.5
 30
0.0
 11
-73.0
 21
-267.5
 31
0.0
  0
LINE
  5
6E99
330
6E89
100
AcDbEntity
  8
AM_3 隠れ線
100
AcDbLine
 10
-11.0
 20
-266.0
 30
0.0
 11
-57.0
 21
-266.0
 31
0.0
  0
LINE
  5
6E9A
330
6E89
100
AcDbEntity
  8
AM_3 隠れ線
100
AcDbLine
 10
-73.0
 20
-267.5
 30
0.0
 11
-79.06217799999922
 21
-278.0
 31
0.0
  0
LINE
  5
6E9B
330
6E89
100
AcDbEntity
  8
AM_3 隠れ線
100
AcDbLine
 10
-73.0
 20
-267.5
 30
0.0
 11
-73.0
 21
-278.0
 31
0.0
  0
LINE
  5
6E9C
330
6E89
100
AcDbEntity
  8
AM_3 隠れ線
100
AcDbLine
 10
-57.0
 20
-266.0
 30
0.0
 11
-57.86602599999969
 21
-267.5
 31
0.0
  0
LINE
  5
6E9D
330
6E89
100
AcDbEntity
  8
AM_3 隠れ線
100
AcDbLine
 10
-57.0
 20
-266.0
 30
0.0
 11
-57.0
 21
-278.0
 31
0.0
  0
LINE
  5
6E9E
330
6E89
100
AcDbEntity
  8
AM_3 隠れ線
100
AcDbLine
 10
-57.86602599999969
 20
-267.5
 30
0.0
 11
-57.86602599999969
 21
-278.0
 31
0.0
  0
LINE
  5
6E9F
330
6E89
100
AcDbEntity
  8
AM_0 外形線1
100
AcDbLine
 10
-270.0
 20
-63.0
 30
0.0
 11
-61.54101999999966
 21
-63.0
 31
0.0
  0
ARC
  5
6EA0
330
6E89
100
AcDbEntity
  8
AM_0 外形線1
100
AcDbCircle
 10
-270.0
 20
-69.0
 30
0.0
 40
6.0
100
AcDbArc
 50
90.0
 51
180.0
  0
ARC
  5
6EA1
330
6E89
100
AcDbEntity
  8
AM_0 外形線1
100
AcDbCircle
 10
-61.54101999999966
 20
-48.0
 30
0.0
 40
15.0
100
AcDbArc
 50
270.0
 51
296.5650510000113
  0
ARC
  5
6EA2
330
6E89
100
AcDbEntity
  8
AM_0 外形線1
100
AcDbCircle
 10
-36.0
 20
-45.29179600000019
 30
0.0
 40
6.0
100
AcDbArc
 50
296.5650510000113
 51
0.0
  0
LINE
  5
6EA3
330
6E89
100
AcDbEntity
  8
AM_0 外形線1
100
AcDbLine
 10
-54.83281600000009
 20
-61.41640800000004
 30
0.0
 11
-33.31671899999947
 21
-50.65835900000002
 31
0.0
  0
LINE
  5
6EA4
330
6E89
100
AcDbEntity
  8
AM_0 外形線1
100
AcDbLine
 10
-8.0
 20
-66.5
 30
0.0
 11
-8.0
 21
-54.0
 31
0.0
  0
LINE
  5
6EA5
330
6E89
100
AcDbEntity
  8
AM_0 外形線1
100
AcDbLine
 10
-8.0
 20
-54.0
 30
0.0
 11
-7.0
 21
-53.0
 31
0.0
  0
LINE
  5
6EA6
330
6E89
100
AcDbEntity
  8
AM_0 外形線1
100
AcDbLine
 10
-8.0
 20
-66.5
 30
0.0
 11
-11.0
 21
-66.5
 31
0.0
  0
LINE
  5
6EA7
330
6E89
100
AcDbEntity
  8
AM_0 外形線1
100
AcDbLine
 10
-30.0
 20
0.0
 30
0.0
 11
-28.0
 21
2.0
 31
0.0
  0
LINE
  5
6EA8
330
6E89
100
AcDbEntity
  8
AM_0 外形線1
100
AcDbLine
 10
-30.0
 20
-45.29179600000019
 30
0.0
 11
-30.0
 21
0.0
 31
0.0
  0
LINE
  5
6EA9
330
6E89
100
AcDbEntity
  8
AM_0 外形線1
100
AcDbLine
 10
0.0000000000002274
 20
-33.5
 30
0.0
 11
0.0
 21
-53.0
 31
0.0
  0
LINE
  5
6EAA
330
6E89
100
AcDbEntity
  8
AM_0 外形線1
100
AcDbLine
 10
-2.0
 20
2.0
 30
0.0
 11
0.0
 21
0.0
 31
0.0
  0
LINE
  5
6EAB
330
6E89
100
AcDbEntity
  8
AM_0 外形線1
100
AcDbLine
 10
-11.0
 20
-160.5
 30
0.0
 11
-276.0
 21
-160.4999999999997
 31
0.0
  0
LINE
  5
6EAC
330
6E89
100
AcDbEntity
  8
AM_0 外形線1
100
AcDbLine
 10
-30.0
 20
-557.0
 30
0.0
 11
-29.0
 21
-558.0
 31
0.0
  0
LINE
  5
6EAD
330
6E89
100
AcDbEntity
  8
AM_0 外形線1
100
AcDbLine
 10
-29.0
 20
-558.0
 30
0.0
 11
-1.0
 21
-558.0
 31
0.0
  0
LINE
  5
6EAE
330
6E89
100
AcDbEntity
  8
AM_0 外形線1
100
AcDbLine
 10
-1.0
 20
-558.0
 30
0.0
 11
0.0
 21
-557.0
 31
0.0
  0
ENDBLK
  5
6E8B
330
6E89
100
AcDbEntity
  8
0
100
AcDbBlockEnd
  0
BLOCK
  5
6EB1
330
6EB0
100
AcDbEntity
  8
0
100
AcDbBlockBegin
  2
GCｻｲﾄﾞｶﾊﾞｰ CEM560
 70
     0
 10
0.0
 20
0.0
 30
0.0
  3
GCｻｲﾄﾞｶﾊﾞｰ CEM560
  1

  0
LINE
  5
6EB3
330
6EB0
100
AcDbEntity
  8
AM_11 想像線
 48
0.1
100
AcDbLine
 10
5.48565883808169
 20
-10.0
 30
0.0
 11
-20.0
 21
-10.0
 31
0.0
  0
LINE
  5
6EB4
330
6EB0
100
AcDbEntity
  8
AM_11 想像線
 48
0.1
100
AcDbLine
 10
-20.0
 20
-40.49999999999999
 30
0.0
 11
-20.0
 21
-23.50000000000045
 31
0.0
  0
LINE
  5
6EB5
330
6EB0
100
AcDbEntity
  8
AM_11 想像線
 48
0.1
100
AcDbLine
 10
0.0
 20
-18.20000000000004
 30
0.0
 11
0.0
 21
-40.49999999999999
 31
0.0
  0
LINE
  5
6EB6
330
6EB0
100
AcDbEntity
  8
AM_11 想像線
 48
0.1
100
AcDbLine
 10
-20.0
 20
-41.0
 30
0.0
 11
-20.0
 21
-40.49999999999999
 31
0.0
  0
LINE
  5
6EB7
330
6EB0
100
AcDbEntity
  8
AM_11 想像線
 48
0.1
100
AcDbLine
 10
-15.59999999999945
 20
-41.0
 30
0.0
 11
-20.0
 21
-41.0
 31
0.0
  0
LINE
  5
6EB8
330
6EB0
100
AcDbEntity
  8
AM_11 想像線
 48
0.1
100
AcDbLine
 10
-15.59999999999945
 20
-40.49999999999999
 30
0.0
 11
-15.59999999999945
 21
-41.0
 31
0.0
  0
LINE
  5
6EB9
330
6EB0
100
AcDbEntity
  8
AM_11 想像線
 48
0.1
100
AcDbLine
 10
-15.59999999999945
 20
-35.9000000000001
 30
0.0
 11
-15.59999999999945
 21
-40.49999999999999
 31
0.0
  0
ARC
  5
6EBA
330
6EB0
100
AcDbEntity
  8
AM_11 想像線
 48
0.1
100
AcDbCircle
 10
-15.09999999999945
 20
-35.9000000000001
 30
0.0
 40
0.5
100
AcDbArc
 50
90.0
 51
180.0
  0
LINE
  5
6EBB
330
6EB0
100
AcDbEntity
  8
AM_11 想像線
 48
0.1
100
AcDbLine
 10
-4.899999999999637
 20
-35.4000000000001
 30
0.0
 11
-15.09999999999945
 21
-35.4000000000001
 31
0.0
  0
ARC
  5
6EBC
330
6EB0
100
AcDbEntity
  8
AM_11 想像線
 48
0.1
100
AcDbCircle
 10
-4.899999999999637
 20
-35.9000000000001
 30
0.0
 40
0.5
100
AcDbArc
 50
0.0
 51
90.0
  0
LINE
  5
6EBD
330
6EB0
100
AcDbEntity
  8
AM_11 想像線
 48
0.1
100
AcDbLine
 10
-4.399999999999637
 20
-41.0
 30
0.0
 11
-4.399999999999637
 21
-35.9000000000001
 31
0.0
  0
LINE
  5
6EBE
330
6EB0
100
AcDbEntity
  8
AM_11 想像線
 48
0.1
100
AcDbLine
 10
-3.899999999999636
 20
-41.0
 30
0.0
 11
-4.399999999999637
 21
-41.0
 31
0.0
  0
LINE
  5
6EBF
330
6EB0
100
AcDbEntity
  8
AM_11 想像線
 48
0.1
100
AcDbLine
 10
0.0
 20
-41.0
 30
0.0
 11
-3.899999999999636
 21
-41.0
 31
0.0
  0
LINE
  5
6EC0
330
6EB0
100
AcDbEntity
  8
AM_11 想像線
 48
0.1
100
AcDbLine
 10
0.0
 20
-40.49999999999999
 30
0.0
 11
0.0
 21
-41.0
 31
0.0
  0
LINE
  5
6EC1
330
6EB0
100
AcDbEntity
  8
AM_11 想像線
 48
0.1
100
AcDbLine
 10
-20.0
 20
-41.0
 30
0.0
 11
-20.0
 21
-42.5
 31
0.0
  0
LINE
  5
6EC2
330
6EB0
100
AcDbEntity
  8
AM_11 想像線
 48
0.1
100
AcDbLine
 10
-15.59999999999945
 20
-41.0
 30
0.0
 11
-15.59999999999945
 21
-42.5
 31
0.0
  0
LINE
  5
6EC3
330
6EB0
100
AcDbEntity
  8
AM_11 想像線
 48
0.1
100
AcDbLine
 10
-4.399999999999637
 20
-41.0
 30
0.0
 11
-4.399999999999637
 21
-42.5
 31
0.0
  0
LINE
  5
6EC4
330
6EB0
100
AcDbEntity
  8
AM_11 想像線
 48
0.1
100
AcDbLine
 10
0.0
 20
-41.0
 30
0.0
 11
0.0
 21
-42.5
 31
0.0
  0
LINE
  5
6EC5
330
6EB0
100
AcDbEntity
  8
AM_11 想像線
 48
0.1
100
AcDbLine
 10
-1.0
 20
1.0
 30
0.0
 11
-16.0
 21
1.0
 31
0.0
  0
LINE
  5
6EC6
330
6EB0
100
AcDbEntity
  8
AM_11 想像線
 48
0.1
100
AcDbLine
 10
0.0
 20
0.0
 30
0.0
 11
-1.0
 21
1.0
 31
0.0
  0
LINE
  5
6EC7
102
{ACAD_REACTORS
330
6BB5
102
}
330
6EB0
100
AcDbEntity
  8
AM_11 想像線
 48
0.1
100
AcDbLine
 10
0.0
 20
-18.20000000000004
 30
0.0
 11
0.0
 21
0.0
 31
0.0
  0
LINE
  5
6EC8
330
6EB0
100
AcDbEntity
  8
AM_11 想像線
 48
0.1
100
AcDbLine
 10
-16.0
 20
-18.20000000000004
 30
0.0
 11
-12.89999999999963
 21
-18.20000000000004
 31
0.0
  0
LINE
  5
6EC9
330
6EB0
100
AcDbEntity
  8
AM_11 想像線
 48
0.1
100
AcDbLine
 10
-12.89999999999963
 20
-23.5
 30
0.0
 11
-12.89999999999963
 21
-18.20000000000004
 31
0.0
  0
LINE
  5
6ECA
330
6EB0
100
AcDbEntity
  8
AM_11 想像線
 48
0.1
100
AcDbLine
 10
-12.89999999999963
 20
-23.5
 30
0.0
 11
-20.00000000000023
 21
-23.50000000000023
 31
0.0
  0
LINE
  5
6ECB
330
6EB0
100
AcDbEntity
  8
AM_11 想像線
 48
0.1
100
AcDbLine
 10
-16.0
 20
-18.20000000000004
 30
0.0
 11
-16.0
 21
1.0
 31
0.0
  0
ENDBLK
  5
6EB2
330
6EB0
100
AcDbEntity
  8
0
100
AcDbBlockEnd
  0
ENDSEC
  0
SECTION
  2
ENTITIES
  0
LINE
  5
4285
330
1F
100
AcDbEntity
  8
AM_7 中心線
100
AcDbLine
 10
597.9744587997937
 20
504.0
 30
0.0
 11
-42.93514302783296
 21
504.0
 31
0.0
  0
INSERT
  5
4C74
102
{ACAD_REACTORS
330
5629
330
591B
330
5937
330
594F
330
5967
102
}
330
1F
100
AcDbEntity
  8
AM_0 外形線1
100
AcDbBlockReference
  2
ケースＡ CEMH560
 10
276.0
 20
504.0
 30
0.0
  0
INSERT
  5
4EE6
330
1F
100
AcDbEntity
  8
AM_0 外形線1
100
AcDbBlockReference
  2
リーマボルト CEMH560 M24
 10
306.0
 20
761.5
 30
0.0
  0
INSERT
  5
507F
102
{ACAD_REACTORS
330
5587
330
55B5
330
55F1
330
57A5
330
597F
330
5997
330
6BB5
330
6C35
330
6C60
102
}
330
1F
100
AcDbEntity
  8
AM_0 外形線1
100
AcDbBlockReference
  2
センタ CEMH560
 10
287.0
 20
504.0
 30
0.0
  0
INSERT
  5
5148
102
{ACAD_REACTORS
330
5609
330
57A5
330
5967
330
597F
102
}
330
1F
100
AcDbEntity
  8
AM_0 外形線1
100
AcDbBlockReference
  2
ＧＣサイドカバ－ CEMH560
 10
447.0
 20
504.0
 30
0.0
  0
DIMENSION
  5
5529
330
1F
100
AcDbEntity
  8
AM_5 寸法線
100
AcDbDimension
  2
*D12
 10
-128.0000000000002
 20
289.0
 30
0.0
 11
-154.0000000000002
 21
504.0
 31
0.0
 70
    32
  1
%%c<>
 71
     5
 42
430.0
 73
     0
 74
     0
 75
     0
  3
SEISA$0
100
AcDbAlignedDimension
 13
6.0
 23
719.0
 33
0.0
 14
6.0
 24
289.0
 34
0.0
 50
90.0
100
AcDbRotatedDimension
1001
ACAD_DSTYLE_DIMINSPECT
1070
   396
1000
100%
1070
   395
1000

1070
   394
1070
    33
1070
   393
1070
     0
  0
DIMENSION
  5
5554
330
1F
100
AcDbEntity
  8
AM_5 寸法線
100
AcDbDimension
  2
*D13
 10
0.000000000000002
 20
536.7475209999996
 30
0.0
 11
132.5
 21
562.7475209999999
 31
0.0
 70
    32
 71
     5
 42
265.0
 73
     0
 74
     0
 75
     0
  3
SEISA$0
100
AcDbAlignedDimension
 13
265.0
 23
504.0
 33
0.0
 14
0.0
 24
504.0
 34
0.0
100
AcDbRotatedDimension
  0
DIMENSION
  5
556C
102
{ACAD_XDICTIONARY
360
557B
102
}
102
{ACAD_REACTORS
330
5587
102
}
330
1F
100
AcDbEntity
  8
AM_5 寸法線
100
AcDbDimension
  2
*D14
 10
287.0
 20
536.7475209999996
 30
0.0
 11
329.2979785898897
 21
562.8901355530221
 31
0.0
 70
   160
 71
     5
 42
22.0
 73
     0
 74
     0
 75
     0
  3
SEISA$0
100
AcDbAlignedDimension
 13
265.0
 23
504.0
 33
0.0
 14
287.0
 24
504.0
 34
0.0
100
AcDbRotatedDimension
1001
ACAD
1000
DSTYLE
1002
{
1070
   279
1070
     2
1002
}
  0
DIMENSION
  5
559E
102
{ACAD_XDICTIONARY
360
55AB
102
}
102
{ACAD_REACTORS
330
55B5
102
}
330
1F
100
AcDbEntity
  8
AM_5 寸法線
100
AcDbDimension
  2
*D15
 10
552.0
 20
536.7475209999996
 30
0.0
 11
419.5
 21
562.7475209999999
 31
0.0
 70
    32
 71
     5
 42
265.0
 73
     0
 74
     0
 75
     0
  3
SEISA$0
100
AcDbAlignedDimension
 13
287.0
 23
504.0
 33
0.0
 14
552.0
 24
504.0
 34
0.0
100
AcDbRotatedDimension
  0
DIMENSION
  5
55DA
102
{ACAD_XDICTIONARY
360
55E7
102
}
102
{ACAD_REACTORS
330
55F1
102
}
330
1F
100
AcDbEntity
  8
AM_5 寸法線
100
AcDbDimension
  2
*D16
 10
679.9999999999998
 20
311.4999999999999
 30
0.0
 11
653.9999999999996
 21
504.0
 31
0.0
 70
    32
  1
%%c<>
 71
     5
 42
385.0
 73
     0
 74
     0
 75
     0
  3
SEISA$0
100
AcDbAlignedDimension
 13
485.0
 23
696.4999999999998
 33
0.0
 14
485.0
 24
311.5
 34
0.0
 50
90.0
100
AcDbRotatedDimension
1001
ACAD_DSTYLE_DIMINSPECT
1070
   396
1000
100%
1070
   395
1000

1070
   394
1070
    33
1070
   393
1070
     0
  0
DIMENSION
  5
55F2
102
{ACAD_XDICTIONARY
360
55FF
102
}
102
{ACAD_REACTORS
330
5609
102
}
330
1F
100
AcDbEntity
  8
AM_5 寸法線
100
AcDbDimension
  2
*D17
 10
744.0
 20
267.9999999999999
 30
0.0
 11
717.9999999999997
 21
504.0
 31
0.0
 70
    32
  1
%%c<>
 71
     5
 42
472.0
 73
     0
 74
     0
 75
     0
  3
SEISA$0
100
AcDbAlignedDimension
 13
462.0
 23
740.0
 33
0.0
 14
463.0
 24
268.0
 34
0.0
 50
90.0
100
AcDbRotatedDimension
1001
ACAD_DSTYLE_DIMINSPECT
1070
   396
1000
100%
1070
   395
1000

1070
   394
1070
    33
1070
   393
1070
     0
  0
DIMENSION
  5
5612
102
{ACAD_XDICTIONARY
360
561F
102
}
102
{ACAD_REACTORS
330
5629
102
}
330
1F
100
AcDbEntity
  8
AM_5 寸法線
100
AcDbDimension
  2
*D18
 10
808.0
 20
223.9999999999998
 30
0.0
 11
782.0
 21
504.0
 31
0.0
 70
    32
  1
%%c<>
 71
     5
 42
560.0
 73
     0
 74
     0
 75
     0
  3
SEISA$0
100
AcDbAlignedDimension
 13
305.0
 23
784.0
 33
0.0
 14
304.9999999999998
 24
224.0
 34
0.0
 50
90.0
100
AcDbRotatedDimension
1001
ACAD_DSTYLE_DIMINSPECT
1070
   396
1000
100%
1070
   395
1000

1070
   394
1070
    33
1070
   393
1070
     0
  0
DIMENSION
  5
578A
102
{ACAD_XDICTIONARY
360
5799
102
}
102
{ACAD_REACTORS
330
57A5
102
}
330
1F
100
AcDbEntity
  8
AM_5 寸法線
100
AcDbDimension
  2
*D19
 10
436.5
 20
651.7049117527101
 30
0.0
 11
489.0490795738005
 21
673.8999999999996
 31
0.0
 70
   160
 71
     5
 42
6.5
 73
     0
 74
     0
 75
     0
  3
SEISA$0
100
AcDbAlignedDimension
 13
443.0
 23
696.4999999999998
 33
0.0
 14
436.5
 24
697.0
 34
0.0
100
AcDbRotatedDimension
1001
ACAD
1000
DSTYLE
1002
{
1070
   279
1070
     2
1002
}
  0
DIMENSION
  5
5900
102
{ACAD_XDICTIONARY
360
590F
102
}
102
{ACAD_REACTORS
330
591B
102
}
330
1F
100
AcDbEntity
  8
AM_5 寸法線
100
AcDbDimension
  2
*D20
 10
246.0
 20
128.0
 30
0.0
 11
173.6
 21
154.0
 31
0.0
 70
    32
 71
     5
 42
30.0
 73
     0
 74
     0
 75
     0
  3
SEISA$0
100
AcDbAlignedDimension
 13
276.0
 23
225.0
 33
0.0
 14
246.0
 24
225.0
 34
0.0
100
AcDbRotatedDimension
1001
ACAD_DSTYLE_DIMINSPECT
1070
   396
1000
100%
1070
   395
1000

1070
   394
1070
    33
1070
   393
1070
     0
1001
ACAD
1000
DSTYLE
1002
{
1070
   173
1070
     1
1070
   342
1005
0
1070
   343
1005
3997
1070
   344
1005
69
1002
}
  0
DIMENSION
  5
591C
102
{ACAD_XDICTIONARY
360
592B
102
}
102
{ACAD_REACTORS
330
5937
102
}
330
1F
100
AcDbEntity
  8
AM_5 寸法線
100
AcDbDimension
  2
*D21
 10
306.0
 20
128.0
 30
0.0
 11
378.4
 21
154.0
 31
0.0
 70
    32
 71
     5
 42
30.0
 73
     0
 74
     0
 75
     0
  3
SEISA$0
100
AcDbAlignedDimension
 13
276.0
 23
225.0
 33
0.0
 14
306.0
 24
225.0
 34
0.0
100
AcDbRotatedDimension
1001
ACAD_DSTYLE_DIMINSPECT
1070
   396
1000
100%
1070
   395
1000

1070
   394
1070
    33
1070
   393
1070
     0
1001
ACAD
1000
DSTYLE
1002
{
1070
   173
1070
     1
1070
   342
1005
0
1070
   343
1005
3997
1070
   344
1005
69
1002
}
  0
DIMENSION
  5
5938
102
{ACAD_XDICTIONARY
360
5945
102
}
102
{ACAD_REACTORS
330
594F
102
}
330
1F
100
AcDbEntity
  8
AM_5 寸法線
100
AcDbDimension
  2
*D22
 10
-0.0000000000000141
 20
64.0
 30
0.0
 11
138.0
 21
90.0
 31
0.0
 70
    32
 71
     5
 42
276.0
 73
     0
 74
     0
 75
     0
  3
SEISA$0
100
AcDbAlignedDimension
 13
276.0
 23
225.0
 33
0.0
 14
0.0
 24
295.0
 34
0.0
100
AcDbRotatedDimension
  0
DIMENSION
  5
5950
102
{ACAD_XDICTIONARY
360
595D
102
}
102
{ACAD_REACTORS
330
5967
102
}
330
1F
100
AcDbEntity
  8
AM_5 寸法線
100
AcDbDimension
  2
*D23
 10
463.0
 20
64.0
 30
0.0
 11
369.5
 21
90.0
 31
0.0
 70
    32
 71
     5
 42
187.0
 73
     0
 74
     0
 75
     0
  3
SEISA$0
100
AcDbAlignedDimension
 13
276.0
 23
225.0
 33
0.0
 14
463.0
 24
268.0
 34
0.0
100
AcDbRotatedDimension
  0
DIMENSION
  5
5968
102
{ACAD_XDICTIONARY
360
5975
102
}
102
{ACAD_REACTORS
330
597F
102
}
330
1F
100
AcDbEntity
  8
AM_5 寸法線
100
AcDbDimension
  2
*D24
 10
552.0
 20
64.0
 30
0.0
 11
507.5
 21
90.0
 31
0.0
 70
    32
 71
     5
 42
89.0
 73
     0
 74
     0
 75
     0
  3
SEISA$0
100
AcDbAlignedDimension
 13
463.0
 23
268.0
 33
0.0
 14
552.0
 24
318.5
 34
0.0
100
AcDbRotatedDimension
  0
DIMENSION
  5
5980
102
{ACAD_XDICTIONARY
360
598D
102
}
102
{ACAD_REACTORS
330
5997
102
}
330
1F
100
AcDbEntity
  8
AM_5 寸法線
100
AcDbDimension
  2
*D25
 10
552.0
 20
0.0
 30
0.0
 11
276.0
 21
26.0
 31
0.0
 70
    32
 71
     5
 42
552.0
 73
     0
 74
     0
 75
     0
  3
SEISA$0
100
AcDbAlignedDimension
 13
0.0
 23
295.0
 33
0.0
 14
552.0
 24
318.5
 34
0.0
100
AcDbRotatedDimension
  0
LINE
  5
67EB
330
1F
100
AcDbEntity
  8
AM_7 中心線
100
AcDbLine
 10
326.4251528215264
 20
246.5
 30
0.0
 11
226.6156497914253
 21
246.5
 31
0.0
  0
LINE
  5
6809
330
1F
100
AcDbEntity
  8
AM_0 外形線1
100
AcDbLine
 10
246.5
 20
774.5
 30
0.0
 11
246.0
 21
775.0
 31
0.0
  0
LINE
  5
680A
330
1F
100
AcDbEntity
  8
AM_0 外形線1
100
AcDbLine
 10
246.5
 20
748.5
 30
0.0
 11
246.0
 21
748.0
 31
0.0
  0
LINE
  5
6814
330
1F
100
AcDbEntity
  8
AM_0 外形線1
100
AcDbLine
 10
246.5
 20
748.5
 30
0.0
 11
276.0
 21
748.5
 31
0.0
  0
LINE
  5
6815
330
1F
100
AcDbEntity
  8
AM_0 外形線1
100
AcDbLine
 10
246.5
 20
774.5
 30
0.0
 11
276.0
 21
774.5
 31
0.0
  0
LINE
  5
6816
330
1F
100
AcDbEntity
  8
AM_0 外形線1
100
AcDbLine
 10
276.0
 20
782.0
 30
0.0
 11
276.0
 21
774.5
 31
0.0
  0
LINE
  5
6817
330
1F
100
AcDbEntity
  8
AM_0 外形線1
100
AcDbLine
 10
276.0
 20
504.0
 30
0.0
 11
276.0
 21
226.0
 31
0.0
  0
MTEXT
  5
6B68
330
1F
100
AcDbEntity
  8
AM_6 文字
100
AcDbMText
 10
638.7983897641142
 20
162.9977654614497
 30
0.0
 40
28.0
 41
733.2403863961085
 46
156.7914782050509
 71
     1
 72
     5
  1
{\W0.6;TYPE:CEM560/CEMH560\PSHAFT DIA:MAX/MIN \P RIGID SIDE φ305/φ190\P COUPLING CENTER SIDE φ280/φ190}
  7
SEISA
 73
     1
 44
1.0
  0
DIMENSION
  5
6BA7
102
{ACAD_XDICTIONARY
360
6BB4
102
}
102
{ACAD_REACTORS
330
6BB5
102
}
330
1F
100
AcDbEntity
  8
AM_5 寸法線
100
AcDbDimension
  2
*D26
 10
632.0
 20
808.6298566842804
 30
0.0
 11
592.0
 21
834.6298566842804
 31
0.0
 70
    32
 71
     5
 42
80.0
 73
     0
 74
     0
 75
     0
  3
SEISA$0
100
AcDbAlignedDimension
 13
552.0
 23
689.5
 33
0.0
 14
632.0
 24
739.0
 34
0.0
100
AcDbRotatedDimension
1001
ACAD_DSTYLE_DIMINSPECT
1070
   396
1000
100%
1070
   395
1000

1070
   394
1070
    33
1070
   393
1070
     0
  0
DIMENSION
  5
6C27
102
{ACAD_XDICTIONARY
360
6C34
102
}
102
{ACAD_REACTORS
330
6C35
102
}
330
1F
100
AcDbEntity
  8
AM_5 寸法線
100
AcDbDimension
  2
*D27
 10
436.5
 20
651.7049117527123
 30
0.0
 11
399.0
 21
677.7049117527123
 31
0.0
 70
    32
 71
     5
 42
75.0
 73
     0
 74
     0
 75
     0
  3
SEISA$0
100
AcDbAlignedDimension
 13
361.5
 23
695.0
 33
0.0
 14
436.5
 24
697.0
 34
0.0
100
AcDbRotatedDimension
1001
ACAD_DSTYLE_DIMINSPECT
1070
   396
1000
100%
1070
   395
1000

1070
   394
1070
    33
1070
   393
1070
     0
  0
DIMENSION
  5
6C51
102
{ACAD_XDICTIONARY
360
6C5F
102
}
102
{ACAD_REACTORS
330
6C60
102
}
330
1F
100
AcDbEntity
  8
AM_5 寸法線
100
AcDbDimension
  2
*D28
 10
287.0
 20
651.682867826976
 30
0.0
 11
216.6
 21
677.682867826976
 31
0.0
 70
    32
 71
     5
 42
74.5
 73
     0
 74
     0
 75
     0
  3
SEISA$0
100
AcDbAlignedDimension
 13
361.5
 23
695.0
 33
0.0
 14
287.0
 24
693.5
 34
0.0
100
AcDbRotatedDimension
1001
ACAD_DSTYLE_DIMINSPECT
1070
   396
1000
100%
1070
   395
1000

1070
   394
1070
    33
1070
   393
1070
     0
  0
INSERT
  5
6EAF
330
1F
100
AcDbEntity
  8
AM_0 外形線1
100
AcDbBlockReference
  2
ﾘｼﾞｯﾄ CEM560
 10
276.0
 20
782.0
 30
0.0
  0
INSERT
  5
6ECC
330
1F
100
AcDbEntity
  8
AM_0 外形線1
100
AcDbBlockReference
  2
GCｻｲﾄﾞｶﾊﾞｰ CEM560
 10
632.0
 20
739.0
 30
0.0
  0
ENDSEC
  0
SECTION
  2
OBJECTS
  0
DICTIONARY
  5
C
330
0
100
AcDbDictionary
281
     1
  3
ACAD_COLOR
350
C5
  3
ACAD_GROUP
350
D
  3
ACAD_LAYOUT
350
1A
  3
ACAD_MATERIAL
350
C4
  3
ACAD_MLEADERSTYLE
350
2D5
  3
ACAD_MLINESTYLE
350
17
  3
ACAD_PLOTSETTINGS
350
19
  3
ACAD_PLOTSTYLENAME
350
E
  3
ACAD_SCALELIST
350
2B3
  3
ACAD_TABLESTYLE
350
121
  3
ACAD_VISUALSTYLE
350
27F
  3
ACDB_RECOMPOSE_DATA
350
2F7
  3
AcDbVariableDictionary
350
34
  3
AcmDictionary
350
49
  3
AMG
350
2B
  3
AMGSNAPSETTINGS
350
1DE
  0
DICTIONARY
  5
BF
330
2
100
AcDbDictionary
280
     1
281
     1
  3
ACAD_LAYERSTATES
360
6B57
  3
AMLAYER_GROUPCOLORS
360
C0
  0
DICTIONARY
  5
29F7
330
10
100
AcDbDictionary
280
     1
281
     1
  3
ADSK_XREC_LAYER_RECONCILED
360
29F8
  0
DICTIONARY
  5
29F9
330
81
100
AcDbDictionary
280
     1
281
     1
  3
ADSK_XREC_LAYER_RECONCILED
360
29FA
  0
DICTIONARY
  5
2DE1
330
2DE0
100
AcDbDictionary
280
     1
281
     1
  0
DICTIONARY
  5
82
330
1F
100
AcDbDictionary
280
     1
281
     1
  3
ACAD_SORTENTS
360
A41
  0
DICTIONARY
  5
3705
330
3704
100
AcDbDictionary
280
     1
281
     1
  3
ACAD_SORTENTS
360
60D6
  0
DICTIONARY
  5
4CFF
330
4C36
100
AcDbDictionary
280
     1
281
     1
  3
ACAD_SORTENTS
360
614F
  0
DICTIONARY
  5
4F53
330
4EB3
100
AcDbDictionary
280
     1
281
     1
  3
ACAD_SORTENTS
360
628B
  0
DICTIONARY
  5
6210
330
5058
100
AcDbDictionary
280
     1
281
     1
  3
ACAD_SORTENTS
360
6DB7
  0
DICTIONARY
  5
5211
330
510B
100
AcDbDictionary
280
     1
281
     1
  3
ACAD_SORTENTS
360
6386
  0
DICTIONARY
  5
557B
330
556C
100
AcDbDictionary
280
     1
281
     1
  3
ACAD_DIMASSOC
360
5587
  0
DICTIONARY
  5
55AB
330
559E
100
AcDbDictionary
280
     1
281
     1
  3
ACAD_DIMASSOC
360
55B5
  0
DICTIONARY
  5
55E7
330
55DA
100
AcDbDictionary
280
     1
281
     1
  3
ACAD_DIMASSOC
360
55F1
  0
DICTIONARY
  5
55FF
330
55F2
100
AcDbDictionary
280
     1
281
     1
  3
ACAD_DIMASSOC
360
5609
  0
DICTIONARY
  5
561F
330
5612
100
AcDbDictionary
280
     1
281
     1
  3
ACAD_DIMASSOC
360
5629
  0
DICTIONARY
  5
5799
330
578A
100
AcDbDictionary
280
     1
281
     1
  3
ACAD_DIMASSOC
360
57A5
  0
DICTIONARY
  5
590F
330
5900
100
AcDbDictionary
280
     1
281
     1
  3
ACAD_DIMASSOC
360
591B
  0
DICTIONARY
  5
592B
330
591C
100
AcDbDictionary
280
     1
281
     1
  3
ACAD_DIMASSOC
360
5937
  0
DICTIONARY
  5
5945
330
5938
100
AcDbDictionary
280
     1
281
     1
  3
ACAD_DIMASSOC
360
594F
  0
DICTIONARY
  5
595D
330
5950
100
AcDbDictionary
280
     1
281
     1
  3
ACAD_DIMASSOC
360
5967
  0
DICTIONARY
  5
5975
330
5968
100
AcDbDictionary
280
     1
281
     1
  3
ACAD_DIMASSOC
360
597F
  0
DICTIONARY
  5
598D
330
5980
100
AcDbDictionary
280
     1
281
     1
  3
ACAD_DIMASSOC
360
5997
  0
DICTIONARY
  5
6BB4
330
6BA7
100
AcDbDictionary
280
     1
281
     1
  3
ACAD_DIMASSOC
360
6BB5
  0
DICTIONARY
  5
6C34
330
6C27
100
AcDbDictionary
280
     1
281
     1
  3
ACAD_DIMASSOC
360
6C35
  0
DICTIONARY
  5
6C5F
330
6C51
100
AcDbDictionary
280
     1
281
     1
  3
ACAD_DIMASSOC
360
6C60
  0
DICTIONARY
  5
C5
102
{ACAD_REACTORS
330
C
102
}
330
C
100
AcDbDictionary
281
     1
  0
DICTIONARY
  5
D
102
{ACAD_REACTORS
330
C
102
}
330
C
100
AcDbDictionary
281
     1
  0
DICTIONARY
  5
1A
102
{ACAD_REACTORS
330
C
102
}
330
C
100
AcDbDictionary
281
     1
  3
Model
350
22
  3
レイアウト1
350
1E
  3
レイアウト2
350
26
  0
DICTIONARY
  5
C4
102
{ACAD_REACTORS
330
C
102
}
330
C
100
AcDbDictionary
281
     1
  3
ByBlock
350
27D
  3
ByLayer
350
27C
  3
Global
350
27E
  0
DICTIONARY
  5
2D5
102
{ACAD_REACTORS
330
C
102
}
330
C
100
AcDbDictionary
281
     1
  3
Standard
350
2D6
  0
DICTIONARY
  5
17
102
{ACAD_REACTORS
330
C
102
}
330
C
100
AcDbDictionary
281
     1
  3
Standard
350
18
  0
DICTIONARY
  5
19
102
{ACAD_REACTORS
330
C
102
}
330
C
100
AcDbDictionary
281
     1
  3
SEISA基本
350
1C7E
  0
ACDBDICTIONARYWDFLT
  5
E
102
{ACAD_REACTORS
330
C
102
}
330
C
100
AcDbDictionary
281
     1
  3
Normal
350
F
100
AcDbDictionaryWithDefault
340
F
  0
DICTIONARY
  5
2B3
102
{ACAD_REACTORS
330
C
102
}
330
C
100
AcDbDictionary
281
     1
  3
*A1
350
6B54
  3
*A2
350
6B55
  3
*A3
350
6B56
  3
A0
350
2B4
  3
A1
350
2B5
  3
A2
350
2B6
  3
A3
350
2B7
  3
A4
350
2B8
  3
A5
350
2B9
  3
A6
350
2BA
  3
A7
350
2BB
  3
A8
350
2BC
  3
A9
350
2BD
  3
B0
350
2BE
  3
B1
350
2BF
  3
B2
350
2C0
  3
B3
350
2C1
  3
B4
350
2C2
  3
B5
350
2C3
  3
B6
350
2C4
  3
B7
350
2C5
  3
B8
350
2C6
  3
B9
350
2C7
  3
C0
350
2C8
  3
C1
350
2C9
  3
C2
350
2CA
  3
C3
350
2CB
  3
C4
350
2CC
  3
C5
350
2CD
  3
C6
350
2CE
  3
C7
350
2CF
  3
C8
350
2D0
  3
C9
350
2D1
  3
D0
350
2D2
  3
D1
350
2D3
  3
D2
350
2D4
  0
DICTIONARY
  5
121
102
{ACAD_REACTORS
330
C
102
}
330
C
100
AcDbDictionary
281
     1
  3
Standard
350
122
  0
DICTIONARY
  5
27F
102
{ACAD_REACTORS
330
C
102
}
330
C
100
AcDbDictionary
281
     1
  3
2dWireframe
350
285
  3
3D Hidden
350
287
  3
3dWireframe
350
286
  3
Basic
350
284
  3
Brighten
350
28B
  3
ColorChange
350
28F
  3
Conceptual
350
288
  3
Dim
350
28A
  3
Facepattern
350
28E
  3
Flat
350
280
  3
FlatWithEdges
350
281
  3
Gouraud
350
282
  3
GouraudWithEdges
350
283
  3
Linepattern
350
28D
  3
Realistic
350
289
  3
Thicken
350
28C
  0
XRECORD
  5
2F7
102
{ACAD_REACTORS
330
C
102
}
330
C
100
AcDbXrecord
280
     1
 90
        1
330
122
  0
DICTIONARY
  5
34
102
{ACAD_REACTORS
330
C
102
}
330
C
100
AcDbDictionary
281
     1
  3
CANNOSCALE
350
2FA
  3
CMLEADERSTYLE
350
2F8
  3
CTABLESTYLE
350
140
  3
DIMASSOC
350
AC
  3
INDEXCTL
350
35
  3
LAYEREVAL
350
565C
  3
LAYERNOTIFY
350
565D
  3
LIGHTINGUNITS
350
2FB
  3
MSLTSCALE
350
2F9
  0
DICTIONARY
  5
49
102
{ACAD_REACTORS
330
C
102
}
330
C
100
AcDbDictionary
281
     1
  3
AcmBOM
350
161B
  3
AcmStdDictionary
350
4A
  3
AMDTSECTSYM_ARROWCOLOR
350
12B
  0
DICTIONARY
  5
2B
102
{ACAD_REACTORS
330
C
102
}
330
C
100
AcDbDictionary
281
     1
  0
DICTIONARY
  5
1DE
102
{ACAD_REACTORS
330
C
102
}
330
C
100
AcDbDictionary
281
     1
  0
DICTIONARY
  5
6B57
102
{ACAD_REACTORS
330
BF
102
}
330
BF
100
AcDbDictionary
281
     1
  0
DICTIONARY
  5
C0
102
{ACAD_REACTORS
330
BF
102
}
330
BF
100
AcDbDictionary
280
     1
281
     1
  0
XRECORD
  5
29F8
102
{ACAD_REACTORS
330
29F7
102
}
330
29F7
100
AcDbXrecord
280
     1
290
     1
  0
XRECORD
  5
29FA
102
{ACAD_REACTORS
330
29F9
102
}
330
29F9
100
AcDbXrecord
280
     1
290
     1
  0
SORTENTSTABLE
  5
A41
102
{ACAD_REACTORS
330
82
102
}
330
82
100
AcDbSortentsTable
330
1F
331
559E
  5
5F79
331
55F2
  5
5F7D
331
4285
  5
4285
331
5938
  5
605E
331
5529
  5
5F76
331
67EB
  5
528C
331
5968
  5
6060
331
591C
  5
605D
331
507F
  5
5DE4
331
5980
  5
6061
331
55DA
  5
5F7C
331
4C74
  5
507F
331
556C
  5
5F78
331
5612
  5
5F84
331
5950
  5
605F
331
5148
  5
5DA5
331
5900
  5
5FA6
331
5554
  5
5F77
331
578A
  5
5FA5
331
4EE6
  5
5DAA
331
6B68
  5
6B68
331
6817
  5
5DA1
331
680A
  5
5B14
331
6816
  5
5D9F
331
6815
  5
5D13
331
6809
  5
5A9A
331
6814
  5
5CE0
  0
SORTENTSTABLE
  5
60D6
102
{ACAD_REACTORS
330
3705
102
}
330
3705
100
AcDbSortentsTable
330
3704
331
4B9A
  5
4B9B
331
4B98
  5
4B99
331
4B96
  5
4B97
331
4BAD
  5
4B91
331
4B94
  5
4B95
331
4B92
  5
4B93
331
4B9B
  5
4BAD
331
4B99
  5
4B9A
331
4B97
  5
4B98
331
4B95
  5
4B96
331
4B93
  5
4B94
331
4B91
  5
4B92
  0
SORTENTSTABLE
  5
614F
102
{ACAD_REACTORS
330
4CFF
102
}
330
4CFF
100
AcDbSortentsTable
330
4C36
331
4C47
  5
4C49
331
4C44
  5
4C46
331
4C41
  5
4C43
331
4C3E
  5
4C40
331
4C6D
  5
4C6F
331
4C6A
  5
4C6C
331
4CFE
  5
4C3F
331
4C67
  5
4C69
331
4C64
  5
4C66
331
4C71
  5
4CFD
331
4C61
  5
4C63
331
4C5E
  5
4C60
331
4C5B
  5
4C5D
331
4C58
  5
4C5A
331
4C55
  5
4C57
331
4C4E
  5
4C50
331
4C52
  5
4C54
331
4C4B
  5
4C4D
331
4C48
  5
4C4A
331
4C45
  5
4C47
331
4C42
  5
4C44
331
4C3F
  5
4C41
331
4C6E
  5
4C70
331
4C6B
  5
4C6D
331
4C68
  5
4C6A
331
4C65
  5
4C67
331
4C62
  5
4C64
331
4C5F
  5
4C61
331
4C5C
  5
4C5E
331
4C59
  5
4C5B
331
4C56
  5
4C58
331
4C4F
  5
4C51
331
4C53
  5
4C55
331
4C4C
  5
4C4E
331
4C50
  5
4C52
331
4C49
  5
4C4B
331
4C46
  5
4C48
331
4C43
  5
4C45
331
4C40
  5
4C42
331
4C6F
  5
4C71
331
4C6C
  5
4C6E
331
4C69
  5
4C6B
331
4CFD
  5
4C3E
331
4C66
  5
4C68
331
4C73
  5
4CFE
331
4C63
  5
4C65
331
4C70
  5
4C73
331
4C60
  5
4C62
331
4C5D
  5
4C5F
331
4C5A
  5
4C5C
331
4C57
  5
4C59
331
4C54
  5
4C56
331
4C4D
  5
4C4F
331
4C51
  5
4C53
331
4C4A
  5
4C4C
  0
SORTENTSTABLE
  5
628B
102
{ACAD_REACTORS
330
4F53
102
}
330
4F53
100
AcDbSortentsTable
330
4EB3
  0
SORTENTSTABLE
  5
6DB7
102
{ACAD_REACTORS
330
6210
102
}
330
6210
100
AcDbSortentsTable
330
5058
331
5072
  5
5074
331
5063
  5
5065
331
507B
  5
6C12
331
505B
  5
505D
331
6C12
  5
505B
331
506B
  5
506F
331
5062
  5
5064
331
507A
  5
6C11
331
5071
  5
5073
331
6C11
  5
505C
331
506A
  5
506D
331
5070
  5
5072
331
5061
  5
5063
331
5079
  5
507B
331
5069
  5
506B
331
5078
  5
507A
331
5060
  5
5062
331
5077
  5
5079
331
5068
  5
506A
331
5076
  5
5078
331
5067
  5
5069
331
505F
  5
5061
331
506F
  5
5071
331
5075
  5
5077
331
5066
  5
5068
331
505E
  5
5060
331
5074
  5
5076
331
5065
  5
5067
331
505D
  5
505F
331
506D
  5
5070
331
5073
  5
5075
331
5064
  5
5066
331
505C
  5
505E
  0
SORTENTSTABLE
  5
6386
102
{ACAD_REACTORS
330
5211
102
}
330
5211
100
AcDbSortentsTable
330
510B
  0
DIMASSOC
  5
5587
102
{ACAD_REACTORS
330
557B
102
}
330
557B
100
AcDbDimAssoc
330
556C
 90
        2
 70
     0
 71
     0
  1
AcDbOsnapPointRef
 72
     1
331
507F
331
505B
 73
     2
 91
        0
 40
1.0
 10
0.0
 20
0.0
 30
2.000000000000000E+50
 75
     0
  0
DIMASSOC
  5
55B5
102
{ACAD_REACTORS
330
55AB
102
}
330
55AB
100
AcDbDimAssoc
330
559E
 90
        3
 70
     0
 71
     0
  1
AcDbOsnapPointRef
 72
     1
331
507F
331
505B
 73
     2
 91
        0
 40
1.0
 10
0.0
 20
0.0
 30
2.000000000000000E+50
 75
     0
  1
AcDbOsnapPointRef
 72
     2
331
507F
331
505C
 73
     2
 91
        0
 40
0.5
 10
0.0
 20
0.0
 30
0.0
 75
     0
  0
DIMASSOC
  5
55F1
102
{ACAD_REACTORS
330
55E7
102
}
330
55E7
100
AcDbDimAssoc
330
55DA
 90
        3
 70
     0
 71
     0
  1
AcDbOsnapPointRef
 72
    13
331
507F
331
506A
 73
     2
 91
        0
 40
0.0
 10
0.0
 20
0.0
 30
2.000000000000000E+50
 75
     0
  1
AcDbOsnapPointRef
 72
     1
331
507F
331
505D
 73
     2
 91
        0
 40
1.0
 10
0.0
 20
0.0
 30
2.000000000000000E+50
 75
     0
  0
DIMASSOC
  5
5609
102
{ACAD_REACTORS
330
55FF
102
}
330
55FF
100
AcDbDimAssoc
330
55F2
 90
        1
 70
     0
 71
     0
  1
AcDbOsnapPointRef
 72
    13
331
5148
331
5139
 73
     2
 91
        0
 40
0.0
 10
0.0
 20
0.0
 30
2.000000000000000E+50
 75
     0
  0
DIMASSOC
  5
5629
102
{ACAD_REACTORS
330
561F
102
}
330
561F
100
AcDbDimAssoc
330
5612
 90
        3
 70
     0
 71
     0
  1
AcDbOsnapPointRef
 72
     1
331
4C74
331
4C65
 73
     2
 91
        0
 40
1.0
 10
0.0
 20
0.0
 30
2.000000000000000E+50
 75
     0
  1
AcDbOsnapPointRef
 72
     8
331
4C74
331
4C41
 73
     2
 91
        0
 40
0.9999999999999918
 10
0.0
 20
0.0
 30
0.0
 75
     1
  1
AcDbOsnapPointRef
 72
     1
331
4C74
331
4C65
 73
     2
 91
        0
 40
1.0
 10
0.0
 20
0.0
 30
2.000000000000000E+50
 75
     0
  0
DIMASSOC
  5
57A5
102
{ACAD_REACTORS
330
5799
102
}
330
5799
100
AcDbDimAssoc
330
578A
 90
        3
 70
     0
 71
     0
  1
AcDbOsnapPointRef
 72
     1
331
5148
331
5127
 73
     2
 91
        0
 40
1.0
 10
0.0
 20
0.0
 30
2.000000000000000E+50
 75
     0
  1
AcDbOsnapPointRef
 72
    13
331
507F
331
5075
 73
     2
 91
        0
 40
0.0
 10
0.0
 20
0.0
 30
2.000000000000000E+50
 75
     0
  0
DIMASSOC
  5
591B
102
{ACAD_REACTORS
330
590F
102
}
330
590F
100
AcDbDimAssoc
330
5900
 90
        1
 70
     0
 71
     0
  1
AcDbOsnapPointRef
 72
     1
331
4C74
331
4C40
 73
     2
 91
        0
 40
1.0
 10
0.0
 20
0.0
 30
2.000000000000000E+50
 75
     0
  0
DIMASSOC
  5
5937
102
{ACAD_REACTORS
330
592B
102
}
330
592B
100
AcDbDimAssoc
330
591C
 90
        3
 70
     0
 71
     0
  1
AcDbOsnapPointRef
 72
     1
331
4C74
331
4C40
 73
     2
 91
        0
 40
1.0
 10
0.0
 20
0.0
 30
2.000000000000000E+50
 75
     0
  1
AcDbOsnapPointRef
 72
    13
331
4C74
331
4C3F
 73
     2
 91
        0
 40
0.0
 10
0.0
 20
0.0
 30
2.000000000000000E+50
 75
     0
  0
DIMASSOC
  5
594F
102
{ACAD_REACTORS
330
5945
102
}
330
5945
100
AcDbDimAssoc
330
5938
 90
        1
 70
     0
 71
     0
  1
AcDbOsnapPointRef
 72
     1
331
4C74
331
4C40
 73
     2
 91
        0
 40
1.0
 10
0.0
 20
0.0
 30
2.000000000000000E+50
 75
     0
  0
DIMASSOC
  5
5967
102
{ACAD_REACTORS
330
595D
102
}
330
595D
100
AcDbDimAssoc
330
5950
 90
        3
 70
     0
 71
     0
  1
AcDbOsnapPointRef
 72
     1
331
4C74
331
4C40
 73
     2
 91
        0
 40
1.0
 10
0.0
 20
0.0
 30
2.000000000000000E+50
 75
     0
  1
AcDbOsnapPointRef
 72
    13
331
5148
331
5111
 73
     2
 91
        0
 40
0.0
 10
0.0
 20
0.0
 30
2.000000000000000E+50
 75
     0
  0
DIMASSOC
  5
597F
102
{ACAD_REACTORS
330
5975
102
}
330
5975
100
AcDbDimAssoc
330
5968
 90
        3
 70
     0
 71
     0
  1
AcDbOsnapPointRef
 72
    13
331
5148
331
5111
 73
     2
 91
        0
 40
0.0
 10
0.0
 20
0.0
 30
2.000000000000000E+50
 75
     0
  1
AcDbOsnapPointRef
 72
    13
331
507F
331
505C
 73
     2
 91
        0
 40
0.0
 10
0.0
 20
0.0
 30
2.000000000000000E+50
 75
     0
  0
DIMASSOC
  5
5997
102
{ACAD_REACTORS
330
598D
102
}
330
598D
100
AcDbDimAssoc
330
5980
 90
        2
 70
     0
 71
     0
  1
AcDbOsnapPointRef
 72
    13
331
507F
331
505C
 73
     2
 91
        0
 40
0.0
 10
0.0
 20
0.0
 30
2.000000000000000E+50
 75
     0
  0
DIMASSOC
  5
6BB5
102
{ACAD_REACTORS
330
6BB4
102
}
330
6BB4
100
AcDbDimAssoc
330
6BA7
 90
        1
 70
     0
 71
     0
  1
AcDbOsnapPointRef
 72
     1
331
507F
331
505C
 73
     0
 91
        0
 40
0.0
 10
0.0
 20
0.0
 30
2.000000000000000E+50
 75
     0
  0
DIMASSOC
  5
6C35
102
{ACAD_REACTORS
330
6C34
102
}
330
6C34
100
AcDbDimAssoc
330
6C27
 90
        1
 70
     0
 71
     0
  1
AcDbOsnapPointRef
 72
     1
331
507F
331
5071
 73
     0
 91
        0
 40
0.0
 10
0.0
 20
0.0
 30
2.000000000000000E+50
 75
     0
  0
DIMASSOC
  5
6C60
102
{ACAD_REACTORS
330
6C5F
102
}
330
6C5F
100
AcDbDimAssoc
330
6C51
 90
        2
 70
     0
 71
     0
  1
AcDbOsnapPointRef
 72
    13
331
507F
331
506B
 73
     0
 91
        0
 40
0.0
 10
0.0
 20
0.0
 30
2.000000000000000E+50
 75
     0
  0
LAYOUT
  5
22
102
{ACAD_REACTORS
330
1A
102
}
330
1A
100
AcDbPlotSettings
  1

  2
KONICA MINOLTA 501 PCL
  4
A4
  6

 40
5.027082920074462
 41
5.027085781097412
 42
5.027069091796875
 43
5.027069091796875
 44
209.9733276367186
 45
296.9259948730469
 46
2.211833056264211
 47
0.0
 48
0.0
 49
0.0
140
0.0
141
0.0
142
1.0
143
4.524575211718111
 70
 11956
 72
     1
 73
     1
 74
     1
  7
SEISA.ctb
 75
     0
147
0.2210152231330178
 76
     0
 77
     2
 78
   300
148
168.2691239651585
149
35.74019003117701
100
AcDbLayout
  1
Model
 70
     1
 71
     0
 10
0.0
 20
0.0
 11
12.0
 21
9.0
 12
0.0
 22
0.0
 32
0.0
 14
0.0
 24
0.0
 34
0.0
 15
0.0
 25
0.0
 35
0.0
146
0.0
 13
0.0
 23
0.0
 33
0.0
 16
1.0
 26
0.0
 36
0.0
 17
0.0
 27
1.0
 37
0.0
 76
     0
330
1F
331
27A
1001
ACAD_PSEXT
1000
KONICA MINOLTA 501 PCL
1000
KONICA MINOLTA 501/421/361PCL
1000
IP_192.168.20.231_(1)
1000

1070
     0
  0
LAYOUT
  5
1E
102
{ACAD_REACTORS
330
1A
102
}
330
1A
100
AcDbPlotSettings
  1

  2
none_device
  4
Letter_(8.50_x_11.00_Inches)
  6

 40
6.349999904632567
 41
6.349999904632567
 42
6.350006103515625
 43
6.350006103515625
 44
215.8999938964844
 45
279.3999938964844
 46
0.0
 47
0.0
 48
0.0
 49
0.0
140
0.0
141
0.0
142
1.0
143
1.0
 70
 15024
 72
     1
 73
     1
 74
     5
  7
SEISA.ctb
 75
    16
147
1.0
 76
     0
 77
     2
 78
   300
148
0.0
149
0.0
100
AcDbLayout
  1
レイアウト1
 70
     1
 71
     1
 10
0.0
 20
0.0
 11
420.0
 21
297.0
 12
0.0
 22
0.0
 32
0.0
 14
1.000000000000000E+20
 24
1.000000000000000E+20
 34
1.000000000000000E+20
 15
-1.000000000000000E+20
 25
-1.000000000000000E+20
 35
-1.000000000000000E+20
146
0.0
 13
0.0
 23
0.0
 33
0.0
 16
1.0
 26
0.0
 36
0.0
 17
0.0
 27
1.0
 37
0.0
 76
     0
330
1B
  0
LAYOUT
  5
26
102
{ACAD_REACTORS
330
1A
102
}
330
1A
100
AcDbPlotSettings
  1

  2
none_device
  4
Letter_(8.50_x_11.00_Inches)
  6

 40
6.349999904632567
 41
6.349999904632567
 42
6.350006103515625
 43
6.350006103515625
 44
215.8999938964844
 45
279.3999938964844
 46
0.0
 47
0.0
 48
0.0
 49
0.0
140
0.0
141
0.0
142
1.0
143
1.0
 70
 15024
 72
     1
 73
     1
 74
     5
  7
SEISA.ctb
 75
    16
147
1.0
 76
     0
 77
     2
 78
   300
148
0.0
149
0.0
100
AcDbLayout
  1
レイアウト2
 70
     1
 71
     2
 10
0.0
 20
0.0
 11
12.0
 21
9.0
 12
0.0
 22
0.0
 32
0.0
 14
0.0
 24
0.0
 34
0.0
 15
0.0
 25
0.0
 35
0.0
146
0.0
 13
0.0
 23
0.0
 33
0.0
 16
1.0
 26
0.0
 36
0.0
 17
0.0
 27
1.0
 37
0.0
 76
     0
330
23
  0
MATERIAL
  5
27D
102
{ACAD_REACTORS
330
C4
102
}
330
C4
100
AcDbMaterial
  1
ByBlock
 73
     1
 78
     1
172
     1
176
     1
270
     1
274
     1
 94
       63
  0
MATERIAL
  5
27C
102
{ACAD_REACTORS
330
C4
102
}
330
C4
100
AcDbMaterial
  1
ByLayer
 73
     1
 78
     1
172
     1
176
     1
270
     1
274
     1
 94
       63
  0
MATERIAL
  5
27E
102
{ACAD_REACTORS
330
C4
102
}
330
C4
100
AcDbMaterial
  1
Global
 73
     1
 78
     1
172
     1
176
     1
270
     1
274
     1
 94
       63
  0
MLEADERSTYLE
  5
2D6
102
{ACAD_REACTORS
330
2D5
102
}
330
2D5
100
AcDbMLeaderStyle
170
     2
171
     1
172
     0
 90
        2
 40
0.0
 41
0.0
173
     1
 91
-1056964608
340
14
 92
       -2
290
     1
 42
2.0
291
     1
 43
0.36
  3
Standard
 44
4.0
300

342
11
174
     1
178
     6
175
     1
176
     0
 93
-1056964608
 45
4.0
292
     0
297
     0
 46
4.0
 94
-1056964608
 47
1.0
 49
1.0
140
1.0
293
     1
141
0.0
294
     1
177
     0
142
1.0
295
     0
296
     0
143
0.125
1001
ACAD_MLEADERVER
1070
     2
  0
MLINESTYLE
  5
18
102
{ACAD_REACTORS
330
17
102
}
330
17
100
AcDbMlineStyle
  2
STANDARD
 70
     0
  3

 62
   256
 51
90.0
 52
90.0
 71
     2
 49
0.5
 62
   256
  6
BYLAYER
 49
-0.5
 62
   256
  6
BYLAYER
  0
PLOTSETTINGS
  5
1C7E
102
{ACAD_REACTORS
330
19
102
}
330
19
100
AcDbPlotSettings
  1
SEISA基本
  2
none_device
  4
Letter_(8.50_x_11.00_Inches)
  6

 40
6.349999904632567
 41
6.349999904632567
 42
6.350006103515625
 43
6.350006103515625
 44
215.8999938964844
 45
279.3999938964844
 46
7.302498226506357
 47
0.0
 48
0.0
 49
0.0
140
0.0
141
0.0
142
1.0
143
1.574803221122935
 70
 11956
 72
     1
 73
     1
 74
     2
  7
SEISA.ctb
 75
     0
147
0.6349999711627054
 76
     0
 77
     2
 78
   300
148
0.0
149
0.0
1001
ACAD_PSEXT
1000
なし
1000
なし
1000
適切ではありません
1000
新しいプロッタ環境設定名を選択しない限り、レイアウトは印刷されません。
1070
     0
  0
ACDBPLACEHOLDER
  5
F
102
{ACAD_REACTORS
330
E
102
}
330
E
  0
SCALE
  5
6B54
102
{ACAD_REACTORS
330
2B3
102
}
330
2B3
100
AcDbScale
 70
     0
300
1:3
140
1.0
141
3.0
290
     0
  0
SCALE
  5
6B55
102
{ACAD_REACTORS
330
2B3
102
}
330
2B3
100
AcDbScale
 70
     0
300
1:2.5
140
1.0
141
2.5
290
     0
  0
SCALE
  5
6B56
102
{ACAD_REACTORS
330
2B3
102
}
330
2B3
100
AcDbScale
 70
     0
300
1:1.5
140
1.0
141
1.5
290
     0
  0
SCALE
  5
2B4
102
{ACAD_REACTORS
330
2B3
102
}
330
2B3
100
AcDbScale
 70
     0
300
1:1
140
1.0
141
1.0
290
     1
  0
SCALE
  5
2B5
102
{ACAD_REACTORS
330
2B3
102
}
330
2B3
100
AcDbScale
 70
     0
300
1:2
140
1.0
141
2.0
290
     0
  0
SCALE
  5
2B6
102
{ACAD_REACTORS
330
2B3
102
}
330
2B3
100
AcDbScale
 70
     0
300
1:4
140
1.0
141
4.0
290
     0
  0
SCALE
  5
2B7
102
{ACAD_REACTORS
330
2B3
102
}
330
2B3
100
AcDbScale
 70
     0
300
1:5
140
1.0
141
5.0
290
     0
  0
SCALE
  5
2B8
102
{ACAD_REACTORS
330
2B3
102
}
330
2B3
100
AcDbScale
 70
     0
300
1:8
140
1.0
141
8.0
290
     0
  0
SCALE
  5
2B9
102
{ACAD_REACTORS
330
2B3
102
}
330
2B3
100
AcDbScale
 70
     0
300
1:10
140
1.0
141
10.0
290
     0
  0
SCALE
  5
2BA
102
{ACAD_REACTORS
330
2B3
102
}
330
2B3
100
AcDbScale
 70
     0
300
1:16
140
1.0
141
16.0
290
     0
  0
SCALE
  5
2BB
102
{ACAD_REACTORS
330
2B3
102
}
330
2B3
100
AcDbScale
 70
     0
300
1:20
140
1.0
141
20.0
290
     0
  0
SCALE
  5
2BC
102
{ACAD_REACTORS
330
2B3
102
}
330
2B3
100
AcDbScale
 70
     0
300
1:30
140
1.0
141
30.0
290
     0
  0
SCALE
  5
2BD
102
{ACAD_REACTORS
330
2B3
102
}
330
2B3
100
AcDbScale
 70
     0
300
1:40
140
1.0
141
40.0
290
     0
  0
SCALE
  5
2BE
102
{ACAD_REACTORS
330
2B3
102
}
330
2B3
100
AcDbScale
 70
     0
300
1:50
140
1.0
141
50.0
290
     0
  0
SCALE
  5
2BF
102
{ACAD_REACTORS
330
2B3
102
}
330
2B3
100
AcDbScale
 70
     0
300
1:100
140
1.0
141
100.0
290
     0
  0
SCALE
  5
2C0
102
{ACAD_REACTORS
330
2B3
102
}
330
2B3
100
AcDbScale
 70
     0
300
2:1
140
2.0
141
1.0
290
     0
  0
SCALE
  5
2C1
102
{ACAD_REACTORS
330
2B3
102
}
330
2B3
100
AcDbScale
 70
     0
300
4:1
140
4.0
141
1.0
290
     0
  0
SCALE
  5
2C2
102
{ACAD_REACTORS
330
2B3
102
}
330
2B3
100
AcDbScale
 70
     0
300
8:1
140
8.0
141
1.0
290
     0
  0
SCALE
  5
2C3
102
{ACAD_REACTORS
330
2B3
102
}
330
2B3
100
AcDbScale
 70
     0
300
10:1
140
10.0
141
1.0
290
     0
  0
SCALE
  5
2C4
102
{ACAD_REACTORS
330
2B3
102
}
330
2B3
100
AcDbScale
 70
     0
300
100:1
140
100.0
141
1.0
290
     0
  0
SCALE
  5
2C5
102
{ACAD_REACTORS
330
2B3
102
}
330
2B3
100
AcDbScale
 70
     0
300
1/128" = 1'-0"
140
0.0078125
141
12.0
290
     0
  0
SCALE
  5
2C6
102
{ACAD_REACTORS
330
2B3
102
}
330
2B3
100
AcDbScale
 70
     0
300
1/64" = 1'-0"
140
0.015625
141
12.0
290
     0
  0
SCALE
  5
2C7
102
{ACAD_REACTORS
330
2B3
102
}
330
2B3
100
AcDbScale
 70
     0
300
1/32" = 1'-0"
140
0.03125
141
12.0
290
     0
  0
SCALE
  5
2C8
102
{ACAD_REACTORS
330
2B3
102
}
330
2B3
100
AcDbScale
 70
     0
300
1/16" = 1'-0"
140
0.0625
141
12.0
290
     0
  0
SCALE
  5
2C9
102
{ACAD_REACTORS
330
2B3
102
}
330
2B3
100
AcDbScale
 70
     0
300
3/32" = 1'-0"
140
0.09375
141
12.0
290
     0
  0
SCALE
  5
2CA
102
{ACAD_REACTORS
330
2B3
102
}
330
2B3
100
AcDbScale
 70
     0
300
1/8" = 1'-0"
140
0.125
141
12.0
290
     0
  0
SCALE
  5
2CB
102
{ACAD_REACTORS
330
2B3
102
}
330
2B3
100
AcDbScale
 70
     0
300
3/16" = 1'-0"
140
0.1875
141
12.0
290
     0
  0
SCALE
  5
2CC
102
{ACAD_REACTORS
330
2B3
102
}
330
2B3
100
AcDbScale
 70
     0
300
1/4" = 1'-0"
140
0.25
141
12.0
290
     0
  0
SCALE
  5
2CD
102
{ACAD_REACTORS
330
2B3
102
}
330
2B3
100
AcDbScale
 70
     0
300
3/8" = 1'-0"
140
0.375
141
12.0
290
     0
  0
SCALE
  5
2CE
102
{ACAD_REACTORS
330
2B3
102
}
330
2B3
100
AcDbScale
 70
     0
300
1/2" = 1'-0"
140
0.5
141
12.0
290
     0
  0
SCALE
  5
2CF
102
{ACAD_REACTORS
330
2B3
102
}
330
2B3
100
AcDbScale
 70
     0
300
3/4" = 1'-0"
140
0.75
141
12.0
290
     0
  0
SCALE
  5
2D0
102
{ACAD_REACTORS
330
2B3
102
}
330
2B3
100
AcDbScale
 70
     0
300
1" = 1'-0"
140
1.0
141
12.0
290
     0
  0
SCALE
  5
2D1
102
{ACAD_REACTORS
330
2B3
102
}
330
2B3
100
AcDbScale
 70
     0
300
1-1/2" = 1'-0"
140
1.5
141
12.0
290
     0
  0
SCALE
  5
2D2
102
{ACAD_REACTORS
330
2B3
102
}
330
2B3
100
AcDbScale
 70
     0
300
3" = 1'-0"
140
3.0
141
12.0
290
     0
  0
SCALE
  5
2D3
102
{ACAD_REACTORS
330
2B3
102
}
330
2B3
100
AcDbScale
 70
     0
300
6" = 1'-0"
140
6.0
141
12.0
290
     0
  0
SCALE
  5
2D4
102
{ACAD_REACTORS
330
2B3
102
}
330
2B3
100
AcDbScale
 70
     0
300
1'-0" = 1'-0"
140
12.0
141
12.0
290
     0
  0
TABLESTYLE
  5
122
102
{ACAD_XDICTIONARY
360
2F5
102
}
102
{ACAD_REACTORS
330
121
102
}
330
121
100
AcDbTableStyle
  3
Standard
 70
     0
 71
     0
 40
1.5
 41
1.5
280
     0
281
     0
  7
STANDARD
140
4.5
170
     2
 62
     0
 63
     7
283
     0
 90
      512
 91
        0
  1

274
    -2
284
     1
 64
     0
275
    -2
285
     1
 65
     0
276
    -2
286
     1
 66
     0
277
    -2
287
     1
 67
     0
278
    -2
288
     1
 68
     0
279
    -2
289
     1
 69
     0
  7
STANDARD
140
6.0
170
     5
 62
     0
 63
     7
283
     0
 90
      512
 91
        0
  1

274
    -2
284
     1
 64
     0
275
    -2
285
     1
 65
     0
276
    -2
286
     1
 66
     0
277
    -2
287
     1
 67
     0
278
    -2
288
     1
 68
     0
279
    -2
289
     1
 69
     0
  7
STANDARD
140
4.5
170
     5
 62
     0
 63
     7
283
     0
 90
      512
 91
        0
  1

274
    -2
284
     1
 64
     0
275
    -2
285
     1
 65
     0
276
    -2
286
     1
 66
     0
277
    -2
287
     1
 67
     0
278
    -2
288
     1
 68
     0
279
    -2
289
     1
 69
     0
  0
VISUALSTYLE
  5
285
102
{ACAD_REACTORS
330
27F
102
}
330
27F
100
AcDbVisualStyle
  2
2dWireframe
 70
     4
 71
     0
 72
     2
 73
     0
 90
        0
 40
-0.6
 41
-30.0
 62
     5
 63
     7
421
 16777215
 74
     1
 91
        4
 64
     7
 65
   257
 75
     1
175
     1
 42
1.0
 92
        0
 66
   257
 43
1.0
 76
     1
 77
     6
 78
     2
 67
     7
 79
     5
170
     0
171
     0
290
     0
174
     0
 93
        1
 44
0.0
173
     0
291
     0
 45
0.0
  0
VISUALSTYLE
  5
287
102
{ACAD_REACTORS
330
27F
102
}
330
27F
100
AcDbVisualStyle
  2
3D Hidden
 70
     6
 71
     1
 72
     2
 73
     2
 90
        0
 40
-0.6
 41
-30.0
 62
     5
 63
     7
421
 16777215
 74
     2
 91
        2
 64
     7
 65
   257
 75
     2
175
     1
 42
40.0
 92
        0
 66
   257
 43
1.0
 76
     1
 77
     6
 78
     2
 67
     7
 79
     3
170
     0
171
     0
290
     0
174
     0
 93
        1
 44
0.0
173
     0
291
     0
 45
0.0
  0
VISUALSTYLE
  5
286
102
{ACAD_REACTORS
330
27F
102
}
330
27F
100
AcDbVisualStyle
  2
3dWireframe
 70
     5
 71
     0
 72
     2
 73
     0
 90
        0
 40
-0.6
 41
-30.0
 62
     5
 63
     7
421
 16777215
 74
     1
 91
        4
 64
     7
 65
   257
 75
     1
175
     1
 42
1.0
 92
        0
 66
   257
 43
1.0
 76
     1
 77
     6
 78
     2
 67
     7
 79
     5
170
     0
171
     0
290
     0
174
     0
 93
        1
 44
0.0
173
     0
291
     0
 45
0.0
  0
VISUALSTYLE
  5
284
102
{ACAD_REACTORS
330
27F
102
}
330
27F
100
AcDbVisualStyle
  2
Basic
 70
     7
 71
     1
 72
     0
 73
     1
 90
        0
 40
-0.6
 41
-30.0
 62
     5
 63
     7
421
 16777215
 74
     0
 91
        4
 64
     7
 65
   257
 75
     1
175
     1
 42
1.0
 92
        8
 66
     7
 43
1.0
 76
     1
 77
     6
 78
     2
 67
     7
 79
     5
170
     0
171
     0
290
     0
174
     0
 93
        1
 44
0.0
173
     0
291
     1
 45
0.0
  0
VISUALSTYLE
  5
28B
102
{ACAD_REACTORS
330
27F
102
}
330
27F
100
AcDbVisualStyle
  2
Brighten
 70
    12
 71
     2
 72
     2
 73
     0
 90
        0
 40
-0.6
 41
-30.0
 62
     5
 63
     7
421
 16777215
 74
     1
 91
        4
 64
     7
 65
   257
 75
     1
175
     1
 42
1.0
 92
        8
 66
     7
 43
1.0
 76
     1
 77
     6
 78
     2
 67
     7
 79
     5
170
     0
171
     0
290
     0
174
     0
 93
        1
 44
50.0
173
     0
291
     1
 45
0.0
  0
VISUALSTYLE
  5
28F
102
{ACAD_REACTORS
330
27F
102
}
330
27F
100
AcDbVisualStyle
  2
ColorChange
 70
    16
 71
     2
 72
     2
 73
     3
 90
        0
 40
-0.6
 41
-30.0
 62
     5
 63
     8
421
  8421504
 74
     1
 91
        4
 64
     7
 65
   257
 75
     1
175
     1
 42
1.0
 92
        8
 66
     8
424
  8421504
 43
1.0
 76
     1
 77
     6
 78
     2
 67
     7
 79
     5
170
     0
171
     0
290
     0
174
     0
 93
        1
 44
0.0
173
     0
291
     1
 45
0.0
  0
VISUALSTYLE
  5
288
102
{ACAD_REACTORS
330
27F
102
}
330
27F
100
AcDbVisualStyle
  2
Conceptual
 70
     9
 71
     3
 72
     2
 73
     0
 90
        0
 40
-0.6
 41
-30.0
 62
     5
 63
     7
421
 16777215
 74
     2
 91
        2
 64
     7
 65
   257
 75
     1
175
     1
 42
40.0
 92
        8
 66
     7
 43
1.0
 76
     1
 77
     6
 78
     2
 67
     7
 79
     3
170
     0
171
     0
290
     0
174
     0
 93
        1
 44
0.0
173
     0
291
     0
 45
0.0
  0
VISUALSTYLE
  5
28A
102
{ACAD_REACTORS
330
27F
102
}
330
27F
100
AcDbVisualStyle
  2
Dim
 70
    11
 71
     2
 72
     2
 73
     0
 90
        0
 40
-0.6
 41
-30.0
 62
     5
 63
     7
421
 16777215
 74
     1
 91
        4
 64
     7
 65
   257
 75
     1
175
     1
 42
1.0
 92
        8
 66
     7
 43
1.0
 76
     1
 77
     6
 78
     2
 67
     7
 79
     5
170
     0
171
     0
290
     0
174
     0
 93
        1
 44
-50.0
173
     0
291
     1
 45
0.0
  0
VISUALSTYLE
  5
28E
102
{ACAD_REACTORS
330
27F
102
}
330
27F
100
AcDbVisualStyle
  2
Facepattern
 70
    15
 71
     2
 72
     2
 73
     0
 90
        0
 40
-0.6
 41
-30.0
 62
     5
 63
     7
421
 16777215
 74
     1
 91
        4
 64
     7
 65
   257
 75
     1
175
     1
 42
1.0
 92
        8
 66
     7
 43
1.0
 76
     1
 77
     6
 78
     2
 67
     7
 79
     5
170
     0
171
     0
290
     0
174
     0
 93
        1
 44
0.0
173
     0
291
     1
 45
0.0
  0
VISUALSTYLE
  5
280
102
{ACAD_REACTORS
330
27F
102
}
330
27F
100
AcDbVisualStyle
  2
Flat
 70
     0
 71
     2
 72
     1
 73
     1
 90
        2
 40
-0.6
 41
30.0
 62
     5
 63
     7
421
 16777215
 74
     0
 91
        4
 64
     7
 65
   257
 75
     1
175
     1
 42
1.0
 92
        8
 66
     7
 43
1.0
 76
     1
 77
     6
 78
     2
 67
     7
 79
     5
170
     0
171
     0
290
     0
174
     0
 93
       13
 44
0.0
173
     0
291
     1
 45
0.0
  0
VISUALSTYLE
  5
281
102
{ACAD_REACTORS
330
27F
102
}
330
27F
100
AcDbVisualStyle
  2
FlatWithEdges
 70
     1
 71
     2
 72
     1
 73
     1
 90
        2
 40
-0.6
 41
30.0
 62
     5
 63
     7
421
 16777215
 74
     1
 91
        4
 64
     7
 65
   257
 75
     1
175
     1
 42
1.0
 92
        0
 66
   257
 43
1.0
 76
     1
 77
     6
 78
     2
 67
     7
 79
     5
170
     0
171
     0
290
     0
174
     0
 93
       13
 44
0.0
173
     0
291
     1
 45
0.0
  0
VISUALSTYLE
  5
282
102
{ACAD_REACTORS
330
27F
102
}
330
27F
100
AcDbVisualStyle
  2
Gouraud
 70
     2
 71
     2
 72
     2
 73
     1
 90
        2
 40
-0.6
 41
30.0
 62
     5
 63
     7
421
 16777215
 74
     0
 91
        4
 64
     7
 65
   257
 75
     1
175
     1
 42
1.0
 92
        0
 66
     7
 43
1.0
 76
     1
 77
     6
 78
     2
 67
     7
 79
     5
170
     0
171
     0
290
     0
174
     0
 93
       13
 44
0.0
173
     0
291
     1
 45
0.0
  0
VISUALSTYLE
  5
283
102
{ACAD_REACTORS
330
27F
102
}
330
27F
100
AcDbVisualStyle
  2
GouraudWithEdges
 70
     3
 71
     2
 72
     2
 73
     1
 90
        2
 40
-0.6
 41
30.0
 62
     5
 63
     7
421
 16777215
 74
     1
 91
        4
 64
     7
 65
   257
 75
     1
175
     1
 42
1.0
 92
        0
 66
   257
 43
1.0
 76
     1
 77
     6
 78
     2
 67
     7
 79
     5
170
     0
171
     0
290
     0
174
     0
 93
       13
 44
0.0
173
     0
291
     1
 45
0.0
  0
VISUALSTYLE
  5
28D
102
{ACAD_REACTORS
330
27F
102
}
330
27F
100
AcDbVisualStyle
  2
Linepattern
 70
    14
 71
     2
 72
     2
 73
     0
 90
        0
 40
-0.6
 41
-30.0
 62
     5
 63
     7
421
 16777215
 74
     1
 91
        4
 64
     7
 65
   257
 75
     7
175
     7
 42
1.0
 92
        8
 66
     7
 43
1.0
 76
     1
 77
     6
 78
     2
 67
     7
 79
     5
170
     0
171
     0
290
     0
174
     0
 93
        1
 44
0.0
173
     0
291
     1
 45
0.0
  0
VISUALSTYLE
  5
289
102
{ACAD_REACTORS
330
27F
102
}
330
27F
100
AcDbVisualStyle
  2
Realistic
 70
     8
 71
     2
 72
     2
 73
     0
 90
        0
 40
-0.6
 41
-30.0
 62
     5
 63
     7
421
 16777215
 74
     1
 91
        0
 64
     7
 65
   257
 75
     1
175
     1
 42
1.0
 92
        8
 66
     8
424
  7895160
 43
1.0
 76
     1
 77
     6
 78
     2
 67
     7
 79
     5
170
     0
171
     0
290
     0
174
     0
 93
       13
 44
0.0
173
     0
291
     0
 45
0.0
  0
VISUALSTYLE
  5
28C
102
{ACAD_REACTORS
330
27F
102
}
330
27F
100
AcDbVisualStyle
  2
Thicken
 70
    13
 71
     2
 72
     2
 73
     0
 90
        0
 40
-0.6
 41
-30.0
 62
     5
 63
     7
421
 16777215
 74
     1
 91
        4
 64
     7
 65
   257
 75
     1
175
     1
 42
1.0
 92
       12
 66
     7
 43
1.0
 76
     1
 77
     6
 78
     2
 67
     7
 79
     5
170
     0
171
     0
290
     0
174
     0
 93
        1
 44
0.0
173
     0
291
     1
 45
0.0
  0
DICTIONARYVAR
  5
2FA
102
{ACAD_REACTORS
330
34
102
}
330
34
100
DictionaryVariables
280
     0
  1
1:8
  0
DICTIONARYVAR
  5
2F8
102
{ACAD_REACTORS
330
34
102
}
330
34
100
DictionaryVariables
280
     0
  1
STANDARD
  0
DICTIONARYVAR
  5
140
102
{ACAD_REACTORS
330
34
102
}
330
34
100
DictionaryVariables
280
     0
  1
STANDARD
  0
DICTIONARYVAR
  5
AC
102
{ACAD_REACTORS
330
34
102
}
330
34
100
DictionaryVariables
280
     0
  1
1
  0
DICTIONARYVAR
  5
35
102
{ACAD_REACTORS
330
34
102
}
330
34
100
DictionaryVariables
280
     0
  1
1
  0
DICTIONARYVAR
  5
565C
102
{ACAD_REACTORS
330
34
102
}
330
34
100
DictionaryVariables
280
     0
  1
1
  0
DICTIONARYVAR
  5
565D
102
{ACAD_REACTORS
330
34
102
}
330
34
100
DictionaryVariables
280
     0
  1
15
  0
DICTIONARYVAR
  5
2FB
102
{ACAD_REACTORS
330
34
102
}
330
34
100
DictionaryVariables
280
     0
  1
0
  0
DICTIONARYVAR
  5
2F9
102
{ACAD_REACTORS
330
34
102
}
330
34
100
DictionaryVariables
280
     0
  1
0
  0
DICTIONARY
  5
161B
102
{ACAD_REACTORS
330
49
102
}
330
49
100
AcDbDictionary
281
     1
  0
DICTIONARY
  5
4A
102
{ACAD_REACTORS
330
49
102
}
330
49
100
AcDbDictionary
281
     1
  0
XRECORD
  5
12B
102
{ACAD_REACTORS
330
49
102
}
330
49
100
AcDbXrecord
280
     1
 90
-1023410169
  0
DICTIONARY
  5
2F5
330
122
100
AcDbDictionary
280
     1
281
     1
  3
ACAD_ROUNDTRIP_2008_TABLESTYLE_CELLSTYLEMAP
360
6F7B
  0
CELLSTYLEMAP
  5
6F7B
102
{ACAD_REACTORS
330
2F5
102
}
330
2F5
100
AcDbCellStyleMap
 90
        3
300
CELLSTYLE
  1
TABLEFORMAT_BEGIN
 90
        5
170
     1
 91
        0
 92
    32768
 62
   257
 93
        1
300
CONTENTFORMAT
  1
CONTENTFORMAT_BEGIN
 90
        0
 91
        0
 92
      512
 93
        0
300

 40
0.0
140
1.0
 94
        5
 62
     0
340
11
144
6.0
309
CONTENTFORMAT_END
171
     1
301
MARGIN
  1
CELLMARGIN_BEGIN
 40
1.5
 40
1.5
 40
1.5
 40
1.5
 40
0.18
 40
0.18
309
CELLMARGIN_END
 94
        6
 95
        1
302
GRIDFORMAT
  1
GRIDFORMAT_BEGIN
 90
        0
 91
        1
 62
     0
 92
       -2
340
0
 93
        0
 40
0.045
309
GRIDFORMAT_END
 95
        2
302
GRIDFORMAT
  1
GRIDFORMAT_BEGIN
 90
        0
 91
        1
 62
     0
 92
       -2
340
0
 93
        0
 40
0.045
309
GRIDFORMAT_END
 95
        4
302
GRIDFORMAT
  1
GRIDFORMAT_BEGIN
 90
        0
 91
        1
 62
     0
 92
       -2
340
0
 93
        0
 40
0.045
309
GRIDFORMAT_END
 95
        8
302
GRIDFORMAT
  1
GRIDFORMAT_BEGIN
 90
        0
 91
        1
 62
     0
 92
       -2
340
0
 93
        0
 40
0.045
309
GRIDFORMAT_END
 95
       16
302
GRIDFORMAT
  1
GRIDFORMAT_BEGIN
 90
        0
 91
        1
 62
     0
 92
       -2
340
0
 93
        0
 40
0.045
309
GRIDFORMAT_END
 95
       32
302
GRIDFORMAT
  1
GRIDFORMAT_BEGIN
 90
        0
 91
        1
 62
     0
 92
       -2
340
0
 93
        0
 40
0.045
309
GRIDFORMAT_END
309
TABLEFORMAT_END
  1
CELLSTYLE_BEGIN
 90
        1
 91
        1
300
_TITLE
309
CELLSTYLE_END
300
CELLSTYLE
  1
TABLEFORMAT_BEGIN
 90
        5
170
     1
 91
        0
 92
        0
 62
   257
 93
        1
300
CONTENTFORMAT
  1
CONTENTFORMAT_BEGIN
 90
        0
 91
        0
 92
      512
 93
        0
300

 40
0.0
140
1.0
 94
        5
 62
     0
340
11
144
4.5
309
CONTENTFORMAT_END
171
     1
301
MARGIN
  1
CELLMARGIN_BEGIN
 40
1.5
 40
1.5
 40
1.5
 40
1.5
 40
0.18
 40
0.18
309
CELLMARGIN_END
 94
        6
 95
        1
302
GRIDFORMAT
  1
GRIDFORMAT_BEGIN
 90
        0
 91
        1
 62
     0
 92
       -2
340
0
 93
        0
 40
0.045
309
GRIDFORMAT_END
 95
        2
302
GRIDFORMAT
  1
GRIDFORMAT_BEGIN
 90
        0
 91
        1
 62
     0
 92
       -2
340
0
 93
        0
 40
0.045
309
GRIDFORMAT_END
 95
        4
302
GRIDFORMAT
  1
GRIDFORMAT_BEGIN
 90
        0
 91
        1
 62
     0
 92
       -2
340
0
 93
        0
 40
0.045
309
GRIDFORMAT_END
 95
        8
302
GRIDFORMAT
  1
GRIDFORMAT_BEGIN
 90
        0
 91
        1
 62
     0
 92
       -2
340
0
 93
        0
 40
0.045
309
GRIDFORMAT_END
 95
       16
302
GRIDFORMAT
  1
GRIDFORMAT_BEGIN
 90
        0
 91
        1
 62
     0
 92
       -2
340
0
 93
        0
 40
0.045
309
GRIDFORMAT_END
 95
       32
302
GRIDFORMAT
  1
GRIDFORMAT_BEGIN
 90
        0
 91
        1
 62
     0
 92
       -2
340
0
 93
        0
 40
0.045
309
GRIDFORMAT_END
309
TABLEFORMAT_END
  1
CELLSTYLE_BEGIN
 90
        2
 91
        1
300
_HEADER
309
CELLSTYLE_END
300
CELLSTYLE
  1
TABLEFORMAT_BEGIN
 90
        5
170
     1
 91
        0
 92
        0
 62
   257
 93
        1
300
CONTENTFORMAT
  1
CONTENTFORMAT_BEGIN
 90
        0
 91
        0
 92
      512
 93
        0
300

 40
0.0
140
1.0
 94
        2
 62
     0
340
11
144
4.5
309
CONTENTFORMAT_END
171
     1
301
MARGIN
  1
CELLMARGIN_BEGIN
 40
1.5
 40
1.5
 40
1.5
 40
1.5
 40
0.18
 40
0.18
309
CELLMARGIN_END
 94
        6
 95
        1
302
GRIDFORMAT
  1
GRIDFORMAT_BEGIN
 90
        0
 91
        1
 62
     0
 92
       -2
340
0
 93
        0
 40
0.045
309
GRIDFORMAT_END
 95
        2
302
GRIDFORMAT
  1
GRIDFORMAT_BEGIN
 90
        0
 91
        1
 62
     0
 92
       -2
340
0
 93
        0
 40
0.045
309
GRIDFORMAT_END
 95
        4
302
GRIDFORMAT
  1
GRIDFORMAT_BEGIN
 90
        0
 91
        1
 62
     0
 92
       -2
340
0
 93
        0
 40
0.045
309
GRIDFORMAT_END
 95
        8
302
GRIDFORMAT
  1
GRIDFORMAT_BEGIN
 90
        0
 91
        1
 62
     0
 92
       -2
340
0
 93
        0
 40
0.045
309
GRIDFORMAT_END
 95
       16
302
GRIDFORMAT
  1
GRIDFORMAT_BEGIN
 90
        0
 91
        1
 62
     0
 92
       -2
340
0
 93
        0
 40
0.045
309
GRIDFORMAT_END
 95
       32
302
GRIDFORMAT
  1
GRIDFORMAT_BEGIN
 90
        0
 91
        1
 62
     0
 92
       -2
340
0
 93
        0
 40
0.045
309
GRIDFORMAT_END
309
TABLEFORMAT_END
  1
CELLSTYLE_BEGIN
 90
        3
 91
        2
300
_DATA
309
CELLSTYLE_END
  0
ENDSEC
  0
EOF
