  0
SECTION
  2
HEADER
  9
$ACADVER
  1
AC1021
  9
$ACADMAINTVER
 70
    26
  9
$DWGCODEPAGE
  3
ANSI_932
  9
$LASTSAVEDBY
  1
Htm_Terada
  9
$CUSTOMPROPERTYTAG
  1
AmdtFileType
  9
$CUSTOMPROPERTY
  1
84
  9
$INSBASE
 10
0.0
 20
0.0
 30
0.0
  9
$EXTMIN
 10
1128.897622079171
 20
1138.917540011394
 30
0.0
  9
$EXTMAX
 10
2338.919972205436
 20
1966.23277749233
 30
0.0
  9
$LIMMIN
 10
0.0000015314708435
 20
0.0000029550565159
  9
$LIMMAX
 10
3360.000001531471
 20
2376.000002955057
  9
$ORTHOMODE
 70
     1
  9
$REGENMODE
 70
     1
  9
$FILLMODE
 70
     1
  9
$QTEXTMODE
 70
     0
  9
$MIRRTEXT
 70
     1
  9
$LTSCALE
 40
8.0
  9
$ATTMODE
 70
     1
  9
$TEXTSIZE
 40
25.0
  9
$TRACEWID
 40
1.0
  9
$TEXTSTYLE
  7
SEISA
  9
$CLAYER
  8
AM_11 想像線
  9
$CELTYPE
  6
ByLayer
  9
$CECOLOR
 62
   256
  9
$CELTSCALE
 40
1.0
  9
$DISPSILH
 70
     0
  9
$DIMSCALE
 40
8.0
  9
$DIMASZ
 40
2.5
  9
$DIMEXO
 40
0.625
  9
$DIMDLI
 40
10.0
  9
$DIMRND
 40
0.0
  9
$DIMDLE
 40
0.0
  9
$DIMEXE
 40
0.625
  9
$DIMTP
 40
0.1
  9
$DIMTM
 40
0.1
  9
$DIMTXT
 40
3.5
  9
$DIMCEN
 40
0.0
  9
$DIMTSZ
 40
0.0
  9
$DIMTOL
 70
     0
  9
$DIMLIM
 70
     0
  9
$DIMTIH
 70
     0
  9
$DIMTOH
 70
     0
  9
$DIMSE1
 70
     0
  9
$DIMSE2
 70
     0
  9
$DIMTAD
 70
     3
  9
$DIMZIN
 70
     8
  9
$DIMBLK
  1
Open30
  9
$DIMASO
 70
     1
  9
$DIMSHO
 70
     1
  9
$DIMPOST
  1

  9
$DIMAPOST
  1
"
  9
$DIMALT
 70
     0
  9
$DIMALTD
 70
     2
  9
$DIMALTF
 40
0.0393701
  9
$DIMLFAC
 40
1.0
  9
$DIMTOFL
 70
     1
  9
$DIMTVP
 40
0.0
  9
$DIMTIX
 70
     0
  9
$DIMSOXD
 70
     0
  9
$DIMSAH
 70
     0
  9
$DIMBLK1
  1

  9
$DIMBLK2
  1

  9
$DIMSTYLE
  2
SEISA
  9
$DIMCLRD
 70
     3
  9
$DIMCLRE
 70
     3
  9
$DIMCLRT
 70
     3
  9
$DIMTFAC
 40
0.71
  9
$DIMGAP
 40
1.5
  9
$DIMJUST
 70
     0
  9
$DIMSD1
 70
     0
  9
$DIMSD2
 70
     0
  9
$DIMTOLJ
 70
     0
  9
$DIMTZIN
 70
     0
  9
$DIMALTZ
 70
     0
  9
$DIMALTTZ
 70
     8
  9
$DIMUPT
 70
     0
  9
$DIMDEC
 70
     2
  9
$DIMTDEC
 70
     2
  9
$DIMALTU
 70
     2
  9
$DIMALTTD
 70
     2
  9
$DIMTXSTY
  7
SEISA
  9
$DIMAUNIT
 70
     0
  9
$DIMADEC
 70
     0
  9
$DIMALTRND
 40
0.0
  9
$DIMAZIN
 70
     2
  9
$DIMDSEP
 70
    46
  9
$DIMATFIT
 70
     3
  9
$DIMFRAC
 70
     0
  9
$DIMLDRBLK
  1
Open30
  9
$DIMLUNIT
 70
     2
  9
$DIMLWD
 70
    -1
  9
$DIMLWE
 70
    -1
  9
$DIMTMOVE
 70
     0
  9
$DIMFXL
 40
1.0
  9
$DIMFXLON
 70
     0
  9
$DIMJOGANG
 40
0.7853981633974483
  9
$DIMTFILL
 70
     0
  9
$DIMTFILLCLR
 70
     0
  9
$DIMARCSYM
 70
     1
  9
$DIMLTYPE
  6

  9
$DIMLTEX1
  6

  9
$DIMLTEX2
  6

  9
$LUNITS
 70
     2
  9
$LUPREC
 70
     2
  9
$SKETCHINC
 40
1.0
  9
$FILLETRAD
 40
1.0
  9
$AUNITS
 70
     0
  9
$AUPREC
 70
     0
  9
$MENU
  1
.
  9
$ELEVATION
 40
0.0
  9
$PELEVATION
 40
0.0
  9
$THICKNESS
 40
0.0
  9
$LIMCHECK
 70
     0
  9
$CHAMFERA
 40
7.999999999999772
  9
$CHAMFERB
 40
7.999999999999772
  9
$CHAMFERC
 40
7.999999999999772
  9
$CHAMFERD
 40
0.7853981633974199
  9
$SKPOLY
 70
     0
  9
$TDCREATE
 40
2454943.415381054
  9
$TDUCREATE
 40
2454943.040381054
  9
$TDUPDATE
 40
2456477.700690637
  9
$TDUUPDATE
 40
2456477.325690637
  9
$TDINDWG
 40
0.1967250694
  9
$TDUSRTIMER
 40
0.1967248843
  9
$USRTIMER
 70
     1
  9
$ANGBASE
 50
0.0
  9
$ANGDIR
 70
     0
  9
$PDMODE
 70
     0
  9
$PDSIZE
 40
0.0
  9
$PLINEWID
 40
0.0
  9
$SPLFRAME
 70
     0
  9
$SPLINETYPE
 70
     6
  9
$SPLINESEGS
 70
     8
  9
$HANDSEED
  5
6E15
  9
$SURFTAB1
 70
     6
  9
$SURFTAB2
 70
     6
  9
$SURFTYPE
 70
     6
  9
$SURFU
 70
     6
  9
$SURFV
 70
     6
  9
$UCSBASE
  2

  9
$UCSNAME
  2

  9
$UCSORG
 10
0.0
 20
0.0
 30
0.0
  9
$UCSXDIR
 10
1.0
 20
0.0
 30
0.0
  9
$UCSYDIR
 10
0.0
 20
1.0
 30
0.0
  9
$UCSORTHOREF
  2

  9
$UCSORTHOVIEW
 70
     0
  9
$UCSORGTOP
 10
0.0
 20
0.0
 30
0.0
  9
$UCSORGBOTTOM
 10
0.0
 20
0.0
 30
0.0
  9
$UCSORGLEFT
 10
0.0
 20
0.0
 30
0.0
  9
$UCSORGRIGHT
 10
0.0
 20
0.0
 30
0.0
  9
$UCSORGFRONT
 10
0.0
 20
0.0
 30
0.0
  9
$UCSORGBACK
 10
0.0
 20
0.0
 30
0.0
  9
$PUCSBASE
  2

  9
$PUCSNAME
  2

  9
$PUCSORG
 10
0.0
 20
0.0
 30
0.0
  9
$PUCSXDIR
 10
1.0
 20
0.0
 30
0.0
  9
$PUCSYDIR
 10
0.0
 20
1.0
 30
0.0
  9
$PUCSORTHOREF
  2

  9
$PUCSORTHOVIEW
 70
     0
  9
$PUCSORGTOP
 10
0.0
 20
0.0
 30
0.0
  9
$PUCSORGBOTTOM
 10
0.0
 20
0.0
 30
0.0
  9
$PUCSORGLEFT
 10
0.0
 20
0.0
 30
0.0
  9
$PUCSORGRIGHT
 10
0.0
 20
0.0
 30
0.0
  9
$PUCSORGFRONT
 10
0.0
 20
0.0
 30
0.0
  9
$PUCSORGBACK
 10
0.0
 20
0.0
 30
0.0
  9
$USERI1
 70
     0
  9
$USERI2
 70
     0
  9
$USERI3
 70
     0
  9
$USERI4
 70
     0
  9
$USERI5
 70
     0
  9
$USERR1
 40
0.0
  9
$USERR2
 40
0.0
  9
$USERR3
 40
0.0
  9
$USERR4
 40
0.0
  9
$USERR5
 40
0.0
  9
$WORLDVIEW
 70
     1
  9
$SHADEDGE
 70
     3
  9
$SHADEDIF
 70
    70
  9
$TILEMODE
 70
     1
  9
$MAXACTVP
 70
    64
  9
$PINSBASE
 10
0.0
 20
0.0
 30
0.0
  9
$PLIMCHECK
 70
     0
  9
$PEXTMIN
 10
1.000000000000000E+20
 20
1.000000000000000E+20
 30
1.000000000000000E+20
  9
$PEXTMAX
 10
-1.000000000000000E+20
 20
-1.000000000000000E+20
 30
-1.000000000000000E+20
  9
$PLIMMIN
 10
0.0
 20
0.0
  9
$PLIMMAX
 10
420.0
 20
297.0
  9
$UNITMODE
 70
     0
  9
$VISRETAIN
 70
     1
  9
$PLINEGEN
 70
     0
  9
$PSLTSCALE
 70
     1
  9
$TREEDEPTH
 70
  3020
  9
$CMLSTYLE
  2
Standard
  9
$CMLJUST
 70
     0
  9
$CMLSCALE
 40
20.0
  9
$PROXYGRAPHICS
 70
     1
  9
$MEASUREMENT
 70
     1
  9
$CELWEIGHT
370
    -1
  9
$ENDCAPS
280
     0
  9
$JOINSTYLE
280
     0
  9
$LWDISPLAY
290
     0
  9
$INSUNITS
 70
     4
  9
$HYPERLINKBASE
  1

  9
$STYLESHEET
  1
SEISA.ctb
  9
$XEDIT
290
     1
  9
$CEPSNTYPE
380
     0
  9
$PSTYLEMODE
290
     1
  9
$FINGERPRINTGUID
  2
{795A500E-2927-48D6-B17D-5EBE173A8962}
  9
$VERSIONGUID
  2
{A2BA499A-1044-4DB4-8217-2CAC2893DD9F}
  9
$EXTNAMES
290
     1
  9
$PSVPSCALE
 40
0.0
  9
$OLESTARTUP
290
     0
  9
$SORTENTS
280
   127
  9
$INDEXCTL
280
     0
  9
$HIDETEXT
280
     0
  9
$XCLIPFRAME
290
     0
  9
$HALOGAP
280
     0
  9
$OBSCOLOR
 70
   257
  9
$OBSLTYPE
280
     0
  9
$INTERSECTIONDISPLAY
280
     0
  9
$INTERSECTIONCOLOR
 70
   257
  9
$DIMASSOC
280
     2
  9
$PROJECTNAME
  1

  9
$CAMERADISPLAY
290
     0
  9
$LENSLENGTH
 40
50.0
  9
$CAMERAHEIGHT
 40
0.0
  9
$STEPSPERSEC
 40
2.0
  9
$STEPSIZE
 40
6.0
  9
$3DDWFPREC
 40
2.0
  9
$PSOLWIDTH
 40
0.25
  9
$PSOLHEIGHT
 40
4.0
  9
$LOFTANG1
 40
1.570796326794896
  9
$LOFTANG2
 40
1.570796326794896
  9
$LOFTMAG1
 40
0.0
  9
$LOFTMAG2
 40
0.0
  9
$LOFTPARAM
 70
     7
  9
$LOFTNORMALS
280
     1
  9
$LATITUDE
 40
37.795
  9
$LONGITUDE
 40
-122.394
  9
$NORTHDIRECTION
 40
0.0
  9
$TIMEZONE
 70
 -8000
  9
$LIGHTGLYPHDISPLAY
280
     1
  9
$TILEMODELIGHTSYNCH
280
     1
  9
$CMATERIAL
347
27C
  9
$SOLIDHIST
280
     1
  9
$SHOWHIST
280
     1
  9
$DWFFRAME
280
     2
  9
$DGNFRAME
280
     0
  9
$REALWORLDSCALE
290
     1
  9
$INTERFERECOLOR
 62
     1
  9
$INTERFEREOBJVS
345
289
  9
$INTERFEREVPVS
346
286
  9
$CSHADOW
280
     0
  9
$SHADOWPLANELOCATION
 40
0.0
  0
ENDSEC
  0
SECTION
  2
CLASSES
  0
CLASS
  1
ACDBDICTIONARYWDFLT
  2
AcDbDictionaryWithDefault
  3
ObjectDBX Classes
 90
        0
 91
        1
280
     0
281
     0
  0
CLASS
  1
AMGSETTINGSOBJ
  2
AmgSettingsObj
  3
"AcadM|Product Description: AutoCAD Mechanical|Company: Autodesk, Inc."
 90
     1024
 91
        5
280
     0
281
     0
  0
CLASS
  1
ACME_DOCUMENT
  2
AcMeDbDoc
  3
AcMeServices
 90
     1024
 91
        2
280
     0
281
     0
  0
CLASS
  1
ACMESCOPE
  2
AcMeScope
  3
AcMeServices
 90
     1024
 91
        1
280
     0
281
     0
  0
CLASS
  1
ACMECOMMANDHISTORY
  2
AcMeCommandHistory
  3
AcMeServices
 90
     1024
 91
        1
280
     0
281
     0
  0
CLASS
  1
DICTIONARYVAR
  2
AcDbDictionaryVar
  3
ObjectDBX Classes
 90
        0
 91
        9
280
     0
281
     0
  0
CLASS
  1
ACIMSYSVARMAN
  2
AcImSysVarManager
  3
AcMeServices
 90
     1024
 91
        5
280
     0
281
     0
  0
CLASS
  1
ACIMREALSYSVAR
  2
AcImRealSysVar
  3
AcMeServices
 90
     1024
 91
        7
280
     0
281
     0
  0
CLASS
  1
ACIMINTSYSVAR
  2
AcImIntSysVar
  3
AcMeServices
 90
     1024
 91
      129
280
     0
281
     0
  0
CLASS
  1
ACMEDRAWINGMAN
  2
AcMeDrawingMan
  3
AcMeServices
 90
     1024
 91
        1
280
     0
281
     0
  0
CLASS
  1
ACMEVIEW
  2
AcMeView
  3
AcMeServices
 90
     1024
 91
        1
280
     0
281
     0
  0
CLASS
  1
ACDBENTITYCACHE
  2
AcMeEntityCache
  3
AcMeServices
 90
     1024
 91
        1
280
     0
281
     0
  0
CLASS
  1
GSMANAGER
  2
AcMeGSManager
  3
AcMeServices
 90
     1024
 91
        1
280
     0
281
     0
  0
CLASS
  1
AMDTINTERNALREACTOR
  2
AmdtInternalReactor
  3
AcMeServices
 90
     1024
 91
        2
280
     0
281
     0
  0
CLASS
  1
ACMESTATEMGR
  2
AcMeStateMgr
  3
AcMeServices
 90
     1024
 91
        1
280
     0
281
     0
  0
CLASS
  1
ACGREFMASTER
  2
AcGrefMaster
  3
AcAttribServices
 90
     1024
 91
        1
280
     0
281
     0
  0
CLASS
  1
ACME_DATABASE
  2
AcMeDbDatabase
  3
AcMeServices
 90
     1024
 91
        1
280
     0
281
     0
  0
CLASS
  1
ACRFINSADJUSTERMGR
  2
AcRfInsAdjusterMgr
  3
AcMeServices
 90
     1024
 91
        1
280
     0
281
     0
  0
CLASS
  1
ACGREFACADMASTER
  2
AcGrefacadMaster
  3
AcGrefServices
 90
     1024
 91
        1
280
     0
281
     0
  0
CLASS
  1
AMIMASTER
  2
AmiMaster
  3
AmiServices
 90
     1024
 91
        1
280
     0
281
     0
  0
CLASS
  1
ACIMSTRSYSVAR
  2
AcImStrSysVar
  3
AcMeServices
 90
     1024
 91
        5
280
     0
281
     0
  0
CLASS
  1
ACMSTANDARDJIS
  2
AcmStandardJIS
  3
"Amdt_StdImp|Product Description: AutoCAD Mechanical|Company: Autodesk, Inc."
 90
     1024
 91
        2
280
     0
281
     0
  0
CLASS
  1
AMGOBJPROPCFG
  2
AmgObjPropCfg
  3
"AmgLay|Product Description: AutoCAD Mechanical|Company: Autodesk, Inc."
 90
     1025
 91
        1
280
     0
281
     0
  0
CLASS
  1
ACMSURFSTANDARDJIS
  2
AcmSurfTextStdJIS
  3
"Amdt_StdImp|Product Description: AutoCAD Mechanical|Company: Autodesk, Inc."
 90
     1024
 91
        1
280
     0
281
     0
  0
CLASS
  1
ACMFCFSTANDARDJIS
  2
AcmFCFStdJIS
  3
"Amdt_StdImp|Product Description: AutoCAD Mechanical|Company: Autodesk, Inc."
 90
     1024
 91
        1
280
     0
281
     0
  0
CLASS
  1
ACMWELDSTANDARDJIS
  2
AcmWeldingStdJIS
  3
"Amdt_StdImp|Product Description: AutoCAD Mechanical|Company: Autodesk, Inc."
 90
     1024
 91
        2
280
     0
281
     0
  0
CLASS
  1
ACMIDSTANDARDJIS
  2
AcmIdStdJIS
  3
"Amdt_StdImp|Product Description: AutoCAD Mechanical|Company: Autodesk, Inc."
 90
     1024
 91
        2
280
     0
281
     0
  0
CLASS
  1
ACMDATUMSTANDARDJIS
  2
AcmDatumStdJIS
  3
"Amdt_StdImp|Product Description: AutoCAD Mechanical|Company: Autodesk, Inc."
 90
     1024
 91
        2
280
     0
281
     0
  0
CLASS
  1
ACMBOMSTANDARDJIS
  2
AcmBOMStdJIS
  3
"Amdt_StdImp|Product Description: AutoCAD Mechanical|Company: Autodesk, Inc."
 90
     1024
 91
        2
280
     0
281
     0
  0
CLASS
  1
ACMDETAILSTANDARDJIS
  2
AmdtDetailSymStdJIS
  3
"Amdt_StdImp|Product Description: AutoCAD Mechanical|Company: Autodesk, Inc."
 90
     1024
 91
        2
280
     0
281
     0
  0
CLASS
  1
ACMSECTIONSTANDARDJIS
  2
AmdtSectionSymStdJIS
  3
"Amdt_StdImp|Product Description: AutoCAD Mechanical|Company: Autodesk, Inc."
 90
     1024
 91
        2
280
     0
281
     0
  0
CLASS
  1
ACMCENTERLINESTANDARDJIS
  2
AmdtCenterLineStdJIS
  3
"Amdt_StdImp|Product Description: AutoCAD Mechanical|Company: Autodesk, Inc."
 90
     1024
 91
        2
280
     0
281
     0
  0
CLASS
  1
ACMTHREADLINESTANDARDJIS
  2
AmdtThreadLineStdJIS
  3
"Amdt_StdImp|Product Description: AutoCAD Mechanical|Company: Autodesk, Inc."
 90
     1024
 91
        2
280
     0
281
     0
  0
CLASS
  1
ACAMGLAYSTD
  2
AcAmgLayStd
  3
"AmgLay|Product Description: AutoCAD Mechanical|Company: Autodesk, Inc."
 90
     1024
 91
        3
280
     0
281
     0
  0
CLASS
  1
ACAMGDIMSTD
  2
AcAmgDimStd
  3
"AmgDim|Product Description: AutoCAD Mechanical|Company: Autodesk, Inc."
 90
     1024
 91
        3
280
     0
281
     0
  0
CLASS
  1
ACAMGTITLESTD
  2
AcAmgTitleStd
  3
"AmgTitle|Product Description: AutoCAD Mechanical|Company: Autodesk, Inc."
 90
     4095
 91
        3
280
     0
281
     0
  0
CLASS
  1
ACMDATADICTIONARY
  2
AcmDataDictionary
  3
"AcmSymBB|Product Description: AutoCAD Mechanical|Company: Autodesk, Inc."
 90
     1024
 91
        1
280
     0
281
     0
  0
CLASS
  1
ACMDATAENTRYBLOCK
  2
AcmDataEntryBlock
  3
AcmSymBB|Product Description: AutoCAD Mechanical|Company: Autodesk, Inc.
 90
     1024
 91
        1
280
     0
281
     0
  0
CLASS
  1
LAYER_INDEX
  2
AcDbLayerIndex
  3
ObjectDBX Classes
 90
        0
 91
        0
280
     0
281
     0
  0
CLASS
  1
IDBUFFER
  2
AcDbIdBuffer
  3
ObjectDBX Classes
 90
        0
 91
        0
280
     0
281
     0
  0
CLASS
  1
ACMNOTESTANDARDJIS
  2
AmdtNoteStdJIS
  3
"Amdt_StdImp|Product Description: AutoCAD Mechanical|Company: Autodesk, Inc."
 90
     1024
 91
        2
280
     0
281
     0
  0
CLASS
  1
ACAMGHOLECHARTSTDJIS
  2
AcAmgHoleChartStdJIS
  3
AmgDim|Product Description: AutoCAD Mechanical|Company: Autodesk, Inc.
 90
     1024
 91
        2
280
     0
281
     0
  0
CLASS
  1
AM_DRAWING_MGR
  2
AcDmDwgMgr
  3
AcMechDwgViewMgmt
 90
     1024
 91
        1
280
     0
281
     0
  0
CLASS
  1
AM_DWG_DOCUMENT
  2
AcDmDwgDocument
  3
AcMechDwgViewMgmt
 90
     1024
 91
        1
280
     0
281
     0
  0
CLASS
  1
AM_DWG_SHEET
  2
AcDmSheet
  3
AcMechDwgViewMgmt
 90
     1024
 91
        2
280
     0
281
     0
  0
CLASS
  1
AM_VIEWDIMPARMAP
  2
AcDmViewDimParMap
  3
AcMechDwgViewMgmt
 90
     1024
 91
        2
280
     0
281
     0
  0
CLASS
  1
AM_DWGMGR_NAME
  2
AcDmDwgMgrName
  3
AcMechDwgViewMgmt
 90
     1024
 91
        1
280
     0
281
     0
  0
CLASS
  1
AMDTMENUSTATEMGR
  2
AmdtMenuStateMgr
  3
McadcomServices
 90
     1024
 91
        1
280
     0
281
     0
  0
CLASS
  1
AMDTMCOMMENUSTATE
  2
AmdtMcomMenuState
  3
McadcomServices
 90
     1024
 91
        1
280
     0
281
     0
  0
CLASS
  1
MAPIAMMOUDLE
  2
MApiAmModule
  3
MApiAmServices
 90
     1024
 91
        1
280
     0
281
     0
  0
CLASS
  1
AMDTADMENUSTATE
  2
AmdtAdMenuState
  3
DesignerServices
 90
     1024
 91
        1
280
     0
281
     0
  0
CLASS
  1
ADAPPL
  2
AcAdAppl
  3
DesignerServices
 90
     1024
 91
        1
280
     0
281
     0
  0
CLASS
  1
DEPMGR
  2
AcAdDepMgr
  3
DesignerServices
 90
     1024
 91
        1
280
     0
281
     0
  0
CLASS
  1
PARAMMGR
  2
AcAdParamMgr
  3
DesignerServices
 90
     1024
 91
        1
280
     0
281
     0
  0
CLASS
  1
PARAMSCOPE
  2
AcAdParamScope
  3
DesignerServices
 90
     1024
 91
        1
280
     0
281
     0
  0
CLASS
  1
NAMEDAPPL
  2
AcAdNamedAppl
  3
DesignerServices
 90
     1024
 91
        1
280
     0
281
     0
  0
CLASS
  1
AMDTDMMENUSTATE
  2
AmdtDmMenuState
  3
AcMechDwgViewMgmt
 90
     1024
 91
        1
280
     0
281
     0
  0
CLASS
  1
AMDTAMMENUSTATE
  2
AmdtAmMenuState
  3
DesignerAssemblies
 90
     1024
 91
        1
280
     0
281
     0
  0
CLASS
  1
ACAMPROJECT
  2
AcAmProject
  3
DesignerAssemblies
 90
     1024
 91
        1
280
     0
281
     0
  0
CLASS
  1
ACAMGRCOMPDEF
  2
AcAmGrCompDef
  3
DesignerAssemblies
 90
     1024
 91
        1
280
     0
281
     0
  0
CLASS
  1
ACCMCONTEXT
  2
AcCmContext
  3
DesignerAssemblies
 90
     1024
 91
        1
280
     0
281
     0
  0
CLASS
  1
ACAMCOMPDEF
  2
AcAmCompDef
  3
DesignerAssemblies
 90
     1024
 91
        1
280
     0
281
     0
  0
CLASS
  1
ACAMCOMPDEFMGR
  2
AcAmCompDefMgr
  3
DesignerAssemblies
 90
     1024
 91
        1
280
     0
281
     0
  0
CLASS
  1
AMCONTEXTMGR
  2
AcAmContextMgr
  3
DesignerAssemblies
 90
     1024
 91
        1
280
     0
281
     0
  0
CLASS
  1
ACAMCONTEXTMODELER
  2
AcAmContextModeler
  3
DesignerAssemblies
 90
     1024
 91
        1
280
     0
281
     0
  0
CLASS
  1
CATALOGSTATE
  2
AcAmCatalogState
  3
DesignerAssemblies
 90
     1024
 91
        1
280
     0
281
     0
  0
CLASS
  1
ACAMGRCOMPDEFSET
  2
AcAmGrCompDefSet
  3
DesignerAssemblies
 90
     1024
 91
        1
280
     0
281
     0
  0
CLASS
  1
AMDTBROWSERDBTAB
  2
AmdtBrowserDbTab
  3
McadcomServices
 90
     1024
 91
        1
280
     0
281
     0
  0
CLASS
  1
CBROWSERAPPOBJECT
  2
CBrowserAppObject
  3
McadcomServices
 90
     1024
 91
        3
280
     0
281
     0
  0
CLASS
  1
DM_PLACEHOLDER
  2
AcDmSelsetPlaceholder
  3
AcMechDwgViewMgmt
 90
     1024
 91
        1
280
     0
281
     0
  0
CLASS
  1
TABLESTYLE
  2
AcDbTableStyle
  3
ObjectDBX Classes
 90
     4095
 91
        1
280
     0
281
     0
  0
CLASS
  1
VAACXREFPANELOBJECT
  2
VaAcXREFPanelObject
  3
VAAC_ADDIN
 90
        0
 91
        0
280
     0
281
     0
  0
CLASS
  1
VAACIMAGEINVENTORY
  2
VaAcImageInventory
  3
VAAC_ADDIN
 90
        0
 91
        0
280
     0
281
     0
  0
CLASS
  1
AMDTNOTETEMPLATEDB
  2
AmdtNoteTemplateDB
  3
AcmSymBB|Product Description: AutoCAD Mechanical|Company: Autodesk, Inc.
 90
     1024
 91
       22
280
     0
281
     0
  0
CLASS
  1
ACAMGFILTERDAT
  2
AcAmgFilterDat
  3
"AcadM|Product Description: AutoCAD Mechanical|Company: Autodesk, Inc."
 90
     1024
 91
        6
280
     0
281
     0
  0
CLASS
  1
MATERIAL
  2
AcDbMaterial
  3
ObjectDBX Classes
 90
     1153
 91
        3
280
     0
281
     0
  0
CLASS
  1
VISUALSTYLE
  2
AcDbVisualStyle
  3
ObjectDBX Classes
 90
     4095
 91
       16
280
     0
281
     0
  0
CLASS
  1
ACRFATTGENMGR
  2
AcRfAttGeneralMgr
  3
AcAttribServices
 90
     1024
 91
        1
280
     0
281
     0
  0
CLASS
  1
ACRFOBJATTMGR
  2
AcRfObjAttGroupMgr
  3
AcAttribServices
 90
     1024
 91
        1
280
     0
281
     0
  0
CLASS
  1
ACRFMCADAPIATTHOLDER
  2
AcRfMCADAPIAttHolder
  3
AcAttribServices
 90
     1024
 91
        1
280
     0
281
     0
  0
CLASS
  1
AMDTSYSATTR
  2
AmdtSystemAttribute
  3
AcAttribServices
 90
     1024
 91
        1
280
     0
281
     0
  0
CLASS
  1
ACMTAPERSTANDARDJIS
  2
AcmTaperStdJIS
  3
"Amdt_StdImp|Product Description: AutoCAD Mechanical|Company: Autodesk, Inc."
 90
     1024
 91
        2
280
     0
281
     0
  0
CLASS
  1
CAMSSTRUCTBTNSTATE
  2
StructBtnState
  3
DesignerAssemblies
 90
     1024
 91
        1
280
     0
281
     0
  0
CLASS
  1
SCALE
  2
AcDbScale
  3
ObjectDBX Classes
 90
     1153
 91
       36
280
     0
281
     0
  0
CLASS
  1
MLEADERSTYLE
  2
AcDbMLeaderStyle
  3
ACDB_MLEADERSTYLE_CLASS
 90
     4095
 91
        1
280
     0
281
     0
  0
CLASS
  1
ACMANOOTATIONVIEWSTANDARDJIS
  2
AmdtAnViewStdJIS
  3
"Amdt_StdImp|Product Description: AutoCAD Mechanical|Company: Autodesk, Inc."
 90
     1024
 91
        2
280
     0
281
     0
  0
CLASS
  1
ACMSURFSTANDARDJIS2003
  2
AcmSurfTextStdJIS2003
  3
"Amdt_StdImp|Product Description: AutoCAD Mechanical|Company: Autodesk, Inc."
 90
     1024
 91
        2
280
     0
281
     0
  0
CLASS
  1
CELLSTYLEMAP
  2
AcDbCellStyleMap
  3
ObjectDBX Classes
 90
     1152
 91
        2
280
     0
281
     0
  0
CLASS
  1
ACMFCFSTANDARDJIS98
  2
AcmFCFStdJIS98
  3
"Amdt_StdImp|Product Description: AutoCAD Mechanical|Company: Autodesk, Inc."
 90
     1024
 91
        1
280
     0
281
     0
  0
CLASS
  1
SORTENTSTABLE
  2
AcDbSortentsTable
  3
ObjectDBX Classes
 90
        0
 91
        9
280
     0
281
     0
  0
CLASS
  1
DIMASSOC
  2
AcDbDimAssoc
  3
"AcDbDimAssoc|Product Desc:     AcDim ARX App For Dimension|Company:          Autodesk, Inc.|WEB Address:      www.autodesk.com"
 90
        0
 91
       12
280
     0
281
     0
  0
CLASS
  1
STDPART2D
  2
AmgStdPart
  3
AmgStdPart|Product Description: AutoCAD Mechanical|Company: Autodesk, Inc.
 90
     4095
 91
        0
280
     0
281
     1
  0
CLASS
  1
ACMDATAENTRYPART
  2
AcmDataEntryPart
  3
AcmSymBB|Product Description: AutoCAD Mechanical|Company: Autodesk, Inc.
 90
     1024
 91
        0
280
     0
281
     0
  0
CLASS
  1
ACMPARTREF
  2
AcmPartRef
  3
"AcmSymBB|Product Description: AutoCAD Mechanical|Company: Autodesk, Inc."
 90
     4095
 91
        0
280
     0
281
     1
  0
CLASS
  1
ACDBSTDPARTRES_LINE
  2
AcDbStdPartRes_Line
  3
AmgStdPart|Product Description: AutoCAD Mechanical|Company: Autodesk, Inc.
 90
     1024
 91
        0
280
     0
281
     0
  0
CLASS
  1
ACMBOM
  2
AcmBom
  3
"AcmSymBB|Product Description: AutoCAD Mechanical|Company: Autodesk, Inc."
 90
     1024
 91
        1
280
     0
281
     0
  0
CLASS
  1
AMDTFORMULAUPDATEDISPATCHER
  2
AmdtFormulaUpdateDispatcher
  3
AcMeServices
 90
     1024
 91
        1
280
     0
281
     0
  0
CLASS
  1
ACMBOMROW
  2
AcmBomRow
  3
"AcmSymBB|Product Description: AutoCAD Mechanical|Company: Autodesk, Inc."
 90
     1024
 91
        0
280
     0
281
     0
  0
CLASS
  1
ACMPARTLIST
  2
AcmPartList
  3
"AcmSymBB|Product Description: AutoCAD Mechanical|Company: Autodesk, Inc."
 90
     4095
 91
        0
280
     0
281
     1
  0
CLASS
  1
ACDBLINERES
  2
AcDbLineRes
  3
AcGrefServices
 90
     1024
 91
       21
280
     0
281
     0
  0
CLASS
  1
ACRFINSADJ
  2
AcRfInsAdjuster
  3
AcMeServices
 90
     1024
 91
        9
280
     0
281
     0
  0
CLASS
  1
ACMSTANDARDISO
  2
AcmStandardISO
  3
"Amdt_StdImp|Product Description: AutoCAD Mechanical|Company: Autodesk, Inc."
 90
     1024
 91
        0
280
     0
281
     0
  0
CLASS
  1
AMDTEDGESTANDARDISO13715
  2
AmdtEdgeStdISO13715
  3
"Amdt_StdImp|Product Description: AutoCAD Mechanical|Company: Autodesk, Inc."
 90
     1024
 91
        0
280
     0
281
     0
  0
CLASS
  1
ACMSURFSTANDARDISO2002
  2
AcmSurfTextStdISO2002
  3
"Amdt_StdImp|Product Description: AutoCAD Mechanical|Company: Autodesk, Inc."
 90
     1024
 91
        0
280
     0
281
     0
  0
CLASS
  1
ACMFCFSTANDARDISO
  2
AcmFCFStdISO
  3
"Amdt_StdImp|Product Description: AutoCAD Mechanical|Company: Autodesk, Inc."
 90
     1024
 91
        0
280
     0
281
     0
  0
CLASS
  1
ACMWELDSTANDARDISO
  2
AcmWeldingStdISO
  3
"Amdt_StdImp|Product Description: AutoCAD Mechanical|Company: Autodesk, Inc."
 90
     1024
 91
        0
280
     0
281
     0
  0
CLASS
  1
ACMIDSTANDARDISO
  2
AcmIdStdISO
  3
"Amdt_StdImp|Product Description: AutoCAD Mechanical|Company: Autodesk, Inc."
 90
     1024
 91
        0
280
     0
281
     0
  0
CLASS
  1
ACMDATUMSTANDARDISO
  2
AcmDatumStdISO
  3
"Amdt_StdImp|Product Description: AutoCAD Mechanical|Company: Autodesk, Inc."
 90
     1024
 91
        0
280
     0
281
     0
  0
CLASS
  1
ACMBOMSTANDARDISO
  2
AcmBOMStdISO
  3
"Amdt_StdImp|Product Description: AutoCAD Mechanical|Company: Autodesk, Inc."
 90
     1024
 91
        0
280
     0
281
     0
  0
CLASS
  1
ACMDETAILSTANDARDISO
  2
AmdtDetailSymStdISO
  3
"Amdt_StdImp|Product Description: AutoCAD Mechanical|Company: Autodesk, Inc."
 90
     1024
 91
        0
280
     0
281
     0
  0
CLASS
  1
ACMSECTIONSTANDARDISO2001
  2
AmdtSectionSymStdISO2001
  3
"Amdt_StdImp|Product Description: AutoCAD Mechanical|Company: Autodesk, Inc."
 90
     1024
 91
        0
280
     0
281
     0
  0
CLASS
  1
ACMCENTERLINESTANDARDISO
  2
AmdtCenterLineStdISO
  3
"Amdt_StdImp|Product Description: AutoCAD Mechanical|Company: Autodesk, Inc."
 90
     1024
 91
        0
280
     0
281
     0
  0
CLASS
  1
ACMTHREADLINESTANDARDISO
  2
AmdtThreadLineStdISO
  3
"Amdt_StdImp|Product Description: AutoCAD Mechanical|Company: Autodesk, Inc."
 90
     1024
 91
        0
280
     0
281
     0
  0
CLASS
  1
ACMNOTESTANDARDISO
  2
AmdtNoteStdISO
  3
"Amdt_StdImp|Product Description: AutoCAD Mechanical|Company: Autodesk, Inc."
 90
     1024
 91
        0
280
     0
281
     0
  0
CLASS
  1
ACMTAPERSTANDARDISO
  2
AcmTaperStdISO
  3
"Amdt_StdImp|Product Description: AutoCAD Mechanical|Company: Autodesk, Inc."
 90
     1024
 91
        0
280
     0
281
     0
  0
CLASS
  1
ACMANOOTATIONVIEWSTANDARDISO
  2
AmdtAnViewStdISO
  3
"Amdt_StdImp|Product Description: AutoCAD Mechanical|Company: Autodesk, Inc."
 90
     1024
 91
        0
280
     0
281
     0
  0
CLASS
  1
ACAMGHOLECHARTSTDISO
  2
AcAmgHoleChartStdISO
  3
AmgDim|Product Description: AutoCAD Mechanical|Company: Autodesk, Inc.
 90
     1024
 91
        0
280
     0
281
     0
  0
CLASS
  1
EXACXREFPANELOBJECT
  2
ExAcXREFPanelObject
  3
EXAC_ESW
 90
     1025
 91
        0
280
     0
281
     0
  0
CLASS
  1
NPOCOLLECTION
  2
AcDbImpNonPersistentObjectsCollection
  3
ObjectDBX Classes
 90
     1153
 91
        0
280
     0
281
     0
  0
CLASS
  1
ACDBSTDPARTRES_ARC
  2
AcDbStdPartRes_Arc
  3
AmgStdPart|Product Description: AutoCAD Mechanical|Company: Autodesk, Inc.
 90
     1024
 91
        2
280
     0
281
     0
  0
CLASS
  1
AMDTNOTE
  2
AmdtNote
  3
"AcmSymBB|Product Description: AutoCAD Mechanical|Company: Autodesk, Inc."
 90
     4095
 91
        0
280
     0
281
     1
  0
CLASS
  1
PLOTSETTINGS
  2
AcDbPlotSettings
  3
ObjectDBX Classes
 90
        0
 91
        1
280
     0
281
     0
  0
CLASS
  1
ACMSTANDARDANSI
  2
AcmStandardANSI
  3
"Amdt_StdImp|Product Description: AutoCAD Mechanical|Company: Autodesk, Inc."
 90
     1024
 91
        1
280
     0
281
     0
  0
CLASS
  1
ACMSURFSTANDARDANSI
  2
AcmSurfTextStdANSI
  3
"Amdt_StdImp|Product Description: AutoCAD Mechanical|Company: Autodesk, Inc."
 90
     1024
 91
        1
280
     0
281
     0
  0
CLASS
  1
ACMFCFSTANDARDANSI
  2
AcmFCFStdANSI
  3
"Amdt_StdImp|Product Description: AutoCAD Mechanical|Company: Autodesk, Inc."
 90
     1024
 91
        1
280
     0
281
     0
  0
CLASS
  1
ACMWELDSTANDARDANSI
  2
AcmWeldingStdANSI
  3
"Amdt_StdImp|Product Description: AutoCAD Mechanical|Company: Autodesk, Inc."
 90
     1024
 91
        1
280
     0
281
     0
  0
CLASS
  1
ACMIDSTANDARDANSI
  2
AcmIdStdANSI
  3
"Amdt_StdImp|Product Description: AutoCAD Mechanical|Company: Autodesk, Inc."
 90
     1024
 91
        1
280
     0
281
     0
  0
CLASS
  1
ACMDATUMSTANDARDANSI
  2
AcmDatumStdANSI
  3
"Amdt_StdImp|Product Description: AutoCAD Mechanical|Company: Autodesk, Inc."
 90
     1024
 91
        1
280
     0
281
     0
  0
CLASS
  1
ACMBOMSTANDARDANSI
  2
AcmBOMStdANSI
  3
"Amdt_StdImp|Product Description: AutoCAD Mechanical|Company: Autodesk, Inc."
 90
     1024
 91
        1
280
     0
281
     0
  0
CLASS
  1
ACMDETAILSTANDARDANSI
  2
AmdtDetailSymStdANSI
  3
"Amdt_StdImp|Product Description: AutoCAD Mechanical|Company: Autodesk, Inc."
 90
     1024
 91
        1
280
     0
281
     0
  0
CLASS
  1
ACMSECTIONSTANDARDANSI
  2
AmdtSectionSymStdANSI
  3
"Amdt_StdImp|Product Description: AutoCAD Mechanical|Company: Autodesk, Inc."
 90
     1024
 91
        1
280
     0
281
     0
  0
CLASS
  1
ACMCENTERLINESTANDARDANSI
  2
AmdtCenterLineStdANSI
  3
"Amdt_StdImp|Product Description: AutoCAD Mechanical|Company: Autodesk, Inc."
 90
     1024
 91
        1
280
     0
281
     0
  0
CLASS
  1
ACMTHREADLINESTANDARDANSI
  2
AmdtThreadLineStdANSI
  3
"Amdt_StdImp|Product Description: AutoCAD Mechanical|Company: Autodesk, Inc."
 90
     1024
 91
        1
280
     0
281
     0
  0
CLASS
  1
ACMNOTESTANDARDANSI
  2
AmdtNoteStdANSI
  3
"Amdt_StdImp|Product Description: AutoCAD Mechanical|Company: Autodesk, Inc."
 90
     1024
 91
        1
280
     0
281
     0
  0
CLASS
  1
ACMTAPERSTANDARDANSI
  2
AcmTaperStdANSI
  3
"Amdt_StdImp|Product Description: AutoCAD Mechanical|Company: Autodesk, Inc."
 90
     1024
 91
        1
280
     0
281
     0
  0
CLASS
  1
ACMANOOTATIONVIEWSTANDARDANSI
  2
AmdtAnViewStdANSI
  3
"Amdt_StdImp|Product Description: AutoCAD Mechanical|Company: Autodesk, Inc."
 90
     1024
 91
        1
280
     0
281
     0
  0
CLASS
  1
ACAMGHOLECHARTSTDANSI
  2
AcAmgHoleChartStdANSI
  3
AmgDim|Product Description: AutoCAD Mechanical|Company: Autodesk, Inc.
 90
     1024
 91
        1
280
     0
281
     0
  0
CLASS
  1
ACMSTANDARDBSI
  2
AcmStandardBSI
  3
"Amdt_StdImp|Product Description: AutoCAD Mechanical|Company: Autodesk, Inc."
 90
     1024
 91
        0
280
     0
281
     0
  0
CLASS
  1
ACMSURFSTANDARDBSI2002
  2
AcmSurfTextStdBSI2002
  3
"Amdt_StdImp|Product Description: AutoCAD Mechanical|Company: Autodesk, Inc."
 90
     1024
 91
        0
280
     0
281
     0
  0
CLASS
  1
ACMFCFSTANDARDBSI
  2
AcmFCFStdBSI
  3
"Amdt_StdImp|Product Description: AutoCAD Mechanical|Company: Autodesk, Inc."
 90
     1024
 91
        0
280
     0
281
     0
  0
CLASS
  1
ACMWELDSTANDARDBSI
  2
AcmWeldingStdBSI
  3
"Amdt_StdImp|Product Description: AutoCAD Mechanical|Company: Autodesk, Inc."
 90
     1024
 91
        0
280
     0
281
     0
  0
CLASS
  1
ACMIDSTANDARDBSI
  2
AcmIdStdBSI
  3
"Amdt_StdImp|Product Description: AutoCAD Mechanical|Company: Autodesk, Inc."
 90
     1024
 91
        0
280
     0
281
     0
  0
CLASS
  1
ACMDATUMSTANDARDBSI
  2
AcmDatumStdBSI
  3
"Amdt_StdImp|Product Description: AutoCAD Mechanical|Company: Autodesk, Inc."
 90
     1024
 91
        0
280
     0
281
     0
  0
CLASS
  1
ACMBOMSTANDARDBSI
  2
AcmBOMStdBSI
  3
"Amdt_StdImp|Product Description: AutoCAD Mechanical|Company: Autodesk, Inc."
 90
     1024
 91
        0
280
     0
281
     0
  0
CLASS
  1
ACMDETAILSTANDARDBSI
  2
AmdtDetailSymStdBSI
  3
"Amdt_StdImp|Product Description: AutoCAD Mechanical|Company: Autodesk, Inc."
 90
     1024
 91
        0
280
     0
281
     0
  0
CLASS
  1
ACMSECTIONSTANDARDBSI2001
  2
AmdtSectionSymStdBSI2001
  3
"Amdt_StdImp|Product Description: AutoCAD Mechanical|Company: Autodesk, Inc."
 90
     1024
 91
        0
280
     0
281
     0
  0
CLASS
  1
ACMCENTERLINESTANDARDBSI
  2
AmdtCenterLineStdBSI
  3
"Amdt_StdImp|Product Description: AutoCAD Mechanical|Company: Autodesk, Inc."
 90
     1024
 91
        0
280
     0
281
     0
  0
CLASS
  1
ACMTHREADLINESTANDARDBSI
  2
AmdtThreadLineStdBSI
  3
"Amdt_StdImp|Product Description: AutoCAD Mechanical|Company: Autodesk, Inc."
 90
     1024
 91
        0
280
     0
281
     0
  0
CLASS
  1
ACMNOTESTANDARDBSI
  2
AmdtNoteStdBSI
  3
"Amdt_StdImp|Product Description: AutoCAD Mechanical|Company: Autodesk, Inc."
 90
     1024
 91
        0
280
     0
281
     0
  0
CLASS
  1
ACMTAPERSTANDARDBSI
  2
AcmTaperStdBSI
  3
"Amdt_StdImp|Product Description: AutoCAD Mechanical|Company: Autodesk, Inc."
 90
     1024
 91
        0
280
     0
281
     0
  0
CLASS
  1
ACMANOOTATIONVIEWSTANDARDBSI
  2
AmdtAnViewStdBSI
  3
"Amdt_StdImp|Product Description: AutoCAD Mechanical|Company: Autodesk, Inc."
 90
     1024
 91
        0
280
     0
281
     0
  0
CLASS
  1
ACAMGHOLECHARTSTDBSI
  2
AcAmgHoleChartStdBSI
  3
AmgDim|Product Description: AutoCAD Mechanical|Company: Autodesk, Inc.
 90
     1024
 91
        0
280
     0
281
     0
  0
CLASS
  1
AMDTEDGESTANDARDJIS
  2
AmdtEdgeStdJIS
  3
"Amdt_StdImp|Product Description: AutoCAD Mechanical|Company: Autodesk, Inc."
 90
     1024
 91
        0
280
     0
281
     0
  0
CLASS
  1
ACDBOPPOLYLINERES
  2
AcDbOpPolylineRes
  3
AcGrefServices
 90
     1024
 91
        3
280
     0
281
     0
  0
CLASS
  1
AMDTACMWBLOCKBOMENTITY
  2
AmdtAcmWblockBomEntity
  3
"AcmSymBB|Product Description: AutoCAD Mechanical|Company: Autodesk, Inc."
 90
     4095
 91
        0
280
     0
281
     1
  0
CLASS
  1
ACMSURFSYM
  2
AcmSurfaceTexture
  3
"AcmSymBB|Product Description: AutoCAD Mechanical|Company: Autodesk, Inc."
 90
     4095
 91
        0
280
     0
281
     1
  0
CLASS
  1
ACDBDIMENSIONRES
  2
AcDbDimensionRes
  3
AcmSymBB|Product Description: AutoCAD Mechanical|Company: Autodesk, Inc.
 90
     1024
 91
        6
280
     0
281
     0
  0
CLASS
  1
ACDBCIRCARCRES
  2
AcDbCircArcRes
  3
AcGrefServices
 90
     1024
 91
        2
280
     0
281
     0
  0
CLASS
  1
ACDB_BLKREFOBJECTCONTEXTDATA_CLASS
  2
AcDbBlkRefObjectContextData
  3
ObjectDBX Classes
 90
     1153
 91
        0
280
     0
281
     0
  0
CLASS
  1
ACMDIMBREAKPERSREACTOR
  2
AcmDimBreakPersReactor
  3
AmgDim|Product Description: AutoCAD Mechanical|Company: Autodesk, Inc.
 90
     4095
 91
        0
280
     0
281
     0
  0
CLASS
  1
ACMPICKOBJ
  2
AcmPickEnt
  3
"AcmSymBB|Product Description: AutoCAD Mechanical|Company: Autodesk, Inc."
 90
     1024
 91
        0
280
     0
281
     1
  0
CLASS
  1
ACMBALLOON
  2
AcmBalloon
  3
"AcmSymBB|Product Description: AutoCAD Mechanical|Company: Autodesk, Inc."
 90
     4095
 91
        0
280
     0
281
     1
  0
ENDSEC
  0
SECTION
  2
TABLES
  0
TABLE
  2
VPORT
  5
8
330
0
100
AcDbSymbolTable
 70
     1
  0
VPORT
  5
27A
330
8
100
AcDbSymbolTableRecord
100
AcDbViewportTableRecord
  2
*Active
 70
     0
 10
0.0
 20
0.0
 11
1.0
 21
1.0
 12
1869.229166646905
 22
1552.63349279832
 13
0.0
 23
0.0
 14
20.0
 24
20.0
 15
80.0
 25
80.0
 16
0.0
 26
0.0
 36
1.0
 17
0.0
 27
0.0
 37
0.0
 40
947.046483502466
 41
1.285714285714285
 42
50.0
 43
0.0
 44
0.0
 50
0.0
 51
0.0
 71
    16
 72
 20000
 73
     1
 74
     3
 75
     0
 76
     0
 77
     0
 78
     0
281
     0
 65
     1
110
0.0
120
0.0
130
0.0
111
1.0
121
0.0
131
0.0
112
0.0
122
1.0
132
0.0
 79
     0
146
0.0
348
285
 60
     3
 61
     5
292
     1
282
     0
141
0.0
142
0.0
 63
   250
421
  3355443
  0
ENDTAB
  0
TABLE
  2
LTYPE
  5
5
330
0
100
AcDbSymbolTable
 70
    19
  0
LTYPE
  5
14
330
5
100
AcDbSymbolTableRecord
100
AcDbLinetypeTableRecord
  2
ByBlock
 70
     0
  3

 72
    65
 73
     0
 40
0.0
  0
LTYPE
  5
15
330
5
100
AcDbSymbolTableRecord
100
AcDbLinetypeTableRecord
  2
ByLayer
 70
     0
  3

 72
    65
 73
     0
 40
0.0
  0
LTYPE
  5
16
330
5
100
AcDbSymbolTableRecord
100
AcDbLinetypeTableRecord
  2
Continuous
 70
     0
  3
Solid line
 72
    65
 73
     0
 40
0.0
  0
LTYPE
  5
4D
330
5
100
AcDbSymbolTableRecord
100
AcDbLinetypeTableRecord
  2
AM_ISO02W050
 70
     0
  3
__ __ __ __ __ __ __ __ __ __ __ __ __ __ __
 72
    65
 73
     2
 40
7.5
 49
6.0
 74
     0
 49
-1.5
 74
     0
  0
LTYPE
  5
4E
330
5
100
AcDbSymbolTableRecord
100
AcDbLinetypeTableRecord
  2
AM_ISO08W050
 70
     0
  3
____ . ____ . ____ . ____ . ____ . ____ . ____
 72
    65
 73
     4
 40
18.0
 49
12.0
 74
     0
 49
-1.5
 74
     0
 49
3.0
 74
     0
 49
-1.5
 74
     0
  0
LTYPE
  5
4F
330
5
100
AcDbSymbolTableRecord
100
AcDbLinetypeTableRecord
  2
AM_ISO09W050
 70
     0
  3
_____ . . _____ . . _____ . . ____ .. ____
 72
    65
 73
     6
 40
22.5
 49
12.0
 74
     0
 49
-1.5
 74
     0
 49
3.0
 74
     0
 49
-1.5
 74
     0
 49
3.0
 74
     0
 49
-1.5
 74
     0
  0
LTYPE
  5
50
330
5
100
AcDbSymbolTableRecord
100
AcDbLinetypeTableRecord
  2
Amconstr
 70
     0
  3
_______________________
 72
    65
 73
     2
 40
9999.0
 49
9999.0
 74
     0
 49
0.0
 74
     0
  0
LTYPE
  5
51
330
5
100
AcDbSymbolTableRecord
100
AcDbLinetypeTableRecord
  2
AM_ISO08W050x2
 70
     0
  3
__ . __ . __ . __ . __ . __
 72
    65
 73
     4
 40
9.0
 49
6.0
 74
     0
 49
-0.75
 74
     0
 49
1.5
 74
     0
 49
-0.75
 74
     0
  0
LTYPE
  5
52
330
5
100
AcDbSymbolTableRecord
100
AcDbLinetypeTableRecord
  2
AM_ISO02W050x2
 70
     0
  3
 _ _ _ _ _ _ _ _ _ _ _ _
 72
    65
 73
     2
 40
3.75
 49
3.0
 74
     0
 49
-0.75
 74
     0
  0
LTYPE
  5
55
330
5
100
AcDbSymbolTableRecord
100
AcDbLinetypeTableRecord
  2
Amzigzag
 70
     0
  3
/\/-/\/-/\/-/\/-/\/-/\/
 72
    65
 73
     2
 40
11.0001
 49
0.0001
 74
     4
 75
   136
340
23D
 46
0.04
 50
0.0
 44
0.0
 45
0.0
 49
-11.0
 74
     0
  0
LTYPE
  5
62
330
5
100
AcDbSymbolTableRecord
100
AcDbLinetypeTableRecord
  2
ACJISTGB
 70
     0
  3
__ . . __ . .
 72
    65
 73
     6
 40
9.0
 49
4.0
 74
     0
 49
-1.0
 74
     0
 49
1.0
 74
     0
 49
-1.0
 74
     0
 49
1.0
 74
     0
 49
-1.0
 74
     0
  0
LTYPE
  5
63
330
5
100
AcDbSymbolTableRecord
100
AcDbLinetypeTableRecord
  2
ACJISTGL
 70
     0
  3
_ _ _ _ _
 72
    65
 73
     2
 40
3.0
 49
2.0
 74
     0
 49
-1.0
 74
     0
  0
LTYPE
  5
65
330
5
100
AcDbSymbolTableRecord
100
AcDbLinetypeTableRecord
  2
CENTER
 70
     0
  3
__ . __
 72
    65
 73
     4
 40
7.0
 49
4.0
 74
     0
 49
-1.0
 74
     0
 49
1.0
 74
     0
 49
-1.0
 74
     0
  0
LTYPE
  5
E0
330
5
100
AcDbSymbolTableRecord
100
AcDbLinetypeTableRecord
  2
HIDDEN
 70
     0
  3
Hidden __ __ __ __ __ __ __ __ __ __ __ __ __ _
 72
    65
 73
     2
 40
9.524999999999998
 49
6.349999999999999
 74
     0
 49
-3.174999999999999
 74
     0
  0
LTYPE
  5
E1
330
5
100
AcDbSymbolTableRecord
100
AcDbLinetypeTableRecord
  2
PHANTOM2
 70
     0
  3
Phantom (.5x) ___ _ _ ___ _ _ ___ _ _ ___ _ _
 72
    65
 73
     6
 40
31.75
 49
15.875
 74
     0
 49
-3.174999999999999
 74
     0
 49
3.174999999999999
 74
     0
 49
-3.174999999999999
 74
     0
 49
3.174999999999999
 74
     0
 49
-3.174999999999999
 74
     0
  0
LTYPE
  5
5A2
330
5
100
AcDbSymbolTableRecord
100
AcDbLinetypeTableRecord
  2
ACJISWELD
 70
     0
  3
_ _ _ _ _
 72
    65
 73
     2
 40
2.0
 49
2.0
 74
     0
 49
-1.0
 74
     0
  0
LTYPE
  5
21B9
330
5
100
AcDbSymbolTableRecord
100
AcDbLinetypeTableRecord
  2
CENTER2
 70
     0
  3
Center (.5x) ___ _ ___ _ ___ _ ___ _ ___ _ ___
 72
    65
 73
     4
 40
28.575
 49
19.05
 74
     0
 49
-3.174999999999999
 74
     0
 49
3.174999999999999
 74
     0
 49
-3.174999999999999
 74
     0
  0
LTYPE
  5
2DC8
330
5
100
AcDbSymbolTableRecord
100
AcDbLinetypeTableRecord
  2
HIDDEN2
 70
     0
  3
Hidden (.5x) _ _ _ _ _ _ _ _ _ _ _ _ _ _ _ _ _
 72
    65
 73
     2
 40
0.1875
 49
0.125
 74
     0
 49
-0.0625
 74
     0
  0
LTYPE
  5
2DC9
330
5
100
AcDbSymbolTableRecord
100
AcDbLinetypeTableRecord
  2
Amzigzag2
 70
     0
  3
/\/-/\/-/\/-/\/-/\/-/\/
 72
    65
 73
     2
 40
0.4401
 49
0.0001
 74
     4
 75
   136
340
23D
 46
0.0016
 50
0.0
 44
0.0
 45
0.0
 49
-0.4400000000000001
 74
     0
  0
LTYPE
  5
2DCA
330
5
100
AcDbSymbolTableRecord
100
AcDbLinetypeTableRecord
  2
ACANSTGB
 70
     0
  3
__ . . __ . .
 72
    65
 73
     6
 40
0.35433070866
 49
0.15748031496
 74
     0
 49
-0.03937007874
 74
     0
 49
0.03937007874
 74
     0
 49
-0.03937007874
 74
     0
 49
0.03937007874
 74
     0
 49
-0.03937007874
 74
     0
  0
LTYPE
  5
2DCB
330
5
100
AcDbSymbolTableRecord
100
AcDbLinetypeTableRecord
  2
ACANSTGL
 70
     0
  3
_ _ _ _ _
 72
    65
 73
     2
 40
0.11811023622
 49
0.07874015748
 74
     0
 49
-0.03937007874
 74
     0
  0
ENDTAB
  0
TABLE
  2
LAYER
  5
2
102
{ACAD_XDICTIONARY
360
BF
102
}
330
0
100
AcDbSymbolTable
 70
    10
  0
LAYER
  5
10
102
{ACAD_XDICTIONARY
360
29F7
102
}
330
2
100
AcDbSymbolTableRecord
100
AcDbLayerTableRecord
  2
0
 70
     0
 62
     7
  6
Continuous
370
    -3
390
F
347
27E
  0
LAYER
  5
81
102
{ACAD_XDICTIONARY
360
29F9
102
}
330
2
100
AcDbSymbolTableRecord
100
AcDbLayerTableRecord
  2
AM_0 外形線1
 70
     0
 62
     7
  6
Continuous
370
    25
390
F
347
27E
  0
LAYER
  5
427
330
2
100
AcDbSymbolTableRecord
100
AcDbLayerTableRecord
  2
Defpoints
 70
     0
 62
     7
  6
Continuous
290
     0
370
    -3
390
F
347
27E
  0
LAYER
  5
240D
102
{ACAD_XDICTIONARY
360
240E
102
}
330
2
100
AcDbSymbolTableRecord
100
AcDbLayerTableRecord
  2
AM_BOR 図面枠
 70
     0
 62
     2
  6
Continuous
370
    13
390
F
347
27E
1001
AcAecLayerStandard
1000

1000

  0
LAYER
  5
39AC
330
2
100
AcDbSymbolTableRecord
100
AcDbLayerTableRecord
  2
AM_5 寸法線
 70
     0
 62
     3
  6
Continuous
370
    13
390
F
347
27E
1001
AcAecLayerStandard
1000

1000

  0
LAYER
  5
39AD
330
2
100
AcDbSymbolTableRecord
100
AcDbLayerTableRecord
  2
AM_4 細線
 70
     0
 62
     4
  6
Continuous
370
    13
390
F
347
27E
1001
AcAecLayerStandard
1000

1000

  0
LAYER
  5
39AE
330
2
100
AcDbSymbolTableRecord
100
AcDbLayerTableRecord
  2
AM_7 中心線
 70
     0
 62
     1
  6
AM_ISO08W050
370
    13
390
F
347
27E
1001
AcAecLayerStandard
1000

1000

  0
LAYER
  5
39AF
330
2
100
AcDbSymbolTableRecord
100
AcDbLayerTableRecord
  2
AM_3 隠れ線
 70
     0
 62
     8
  6
ACJISWELD
370
    13
390
F
347
27E
1001
AcAecLayerStandard
1000

1000

  0
LAYER
  5
39B1
330
2
100
AcDbSymbolTableRecord
100
AcDbLayerTableRecord
  2
AM_6 文字
 70
     0
 62
     2
  6
Continuous
370
    13
390
F
347
27E
1001
AcAecLayerStandard
1000

1000

  0
LAYER
  5
69CB
330
2
100
AcDbSymbolTableRecord
100
AcDbLayerTableRecord
  2
AM_11 想像線
 70
     0
 62
     5
  6
AM_ISO09W050
370
    13
390
F
347
27E
1001
AcAecLayerStandard
1000

1000

  0
ENDTAB
  0
TABLE
  2
STYLE
  5
3
330
0
100
AcDbSymbolTable
 70
     9
  0
STYLE
  5
11
330
3
100
AcDbSymbolTableRecord
100
AcDbTextStyleTableRecord
  2
STANDARD
 70
     0
 40
0.0
 41
1.0
 50
0.0
 71
     0
 42
25.0
  3
ISOCP.SHX
  4
EXTFONT.SHX
  0
STYLE
  5
56
330
3
100
AcDbSymbolTableRecord
100
AcDbTextStyleTableRecord
  2
ACJISTS
 70
     0
 40
1.0
 41
1.0
 50
0.0
 71
     0
 42
2.5
  3
romanc.shx
  4
extfont.shx
  0
STYLE
  5
61
330
3
100
AcDbSymbolTableRecord
100
AcDbTextStyleTableRecord
  2
ACJISGDT
 70
     0
 40
0.0
 41
1.0
 50
0.0
 71
     0
 42
2.5
  3
amgdt.shx
  4
extfont.shx
  0
STYLE
  5
23D
330
3
100
AcDbSymbolTableRecord
100
AcDbTextStyleTableRecord
  2

 70
     1
 40
0.0
 41
1.0
 50
0.0
 71
     0
 42
2.5
  3
genltshp.shx
  4

  0
STYLE
  5
5D5
330
3
100
AcDbSymbolTableRecord
100
AcDbTextStyleTableRecord
  2
SEISA
 70
     0
 40
0.0
 41
0.9
 50
0.0
 71
     0
 42
25.0
  3
romans.shx
  4
extfont2.shx
  0
STYLE
  5
240F
330
3
100
AcDbSymbolTableRecord
100
AcDbTextStyleTableRecord
  2
KANJI
 70
     0
 40
0.0
 41
0.9
 50
0.0
 71
     0
 42
3.174999999999999
  3
romans.shx
  4
BIGFONT.shx
  0
STYLE
  5
2410
330
3
100
AcDbSymbolTableRecord
100
AcDbTextStyleTableRecord
  2
ROMANC
 70
     0
 40
0.0
 41
1.0
 50
0.0
 71
     0
 42
4.762499999999998
  3
ROMANC
  4

  0
STYLE
  5
2DDF
330
3
100
AcDbSymbolTableRecord
100
AcDbTextStyleTableRecord
  2
ACANSTS
 70
     0
 40
1.0
 41
1.0
 50
0.0
 71
     0
 42
3.174999999999999
  3
romans.shx
  4
extfont.shx
  0
STYLE
  5
2DE0
330
3
100
AcDbSymbolTableRecord
100
AcDbTextStyleTableRecord
  2
ACANSGDT
 70
     0
 40
0.0
 41
1.0
 50
0.0
 71
     0
 42
3.174999999999999
  3
amgdt.shx
  4

  0
ENDTAB
  0
TABLE
  2
VIEW
  5
6
330
0
100
AcDbSymbolTable
 70
     6
  0
VIEW
  5
91B
330
6
100
AcDbSymbolTableRecord
100
AcDbViewTableRecord
  2
AM_VIEW1
 70
     0
 40
1188.0
 10
1148.497538477283
 20
1782.000002955057
 41
2296.995073891626
 11
0.0
 21
0.0
 31
1.0
 12
0.0
 22
0.0
 32
0.0
 42
50.0
 43
0.0
 44
0.0
 50
0.0
 71
    16
281
     0
 72
     0
 73
     0
  0
VIEW
  5
91C
330
6
100
AcDbSymbolTableRecord
100
AcDbViewTableRecord
  2
AM_VIEW2
 70
     0
 40
1188.0
 10
2211.502464585658
 20
1782.000002955057
 41
2296.995073891626
 11
0.0
 21
0.0
 31
1.0
 12
0.0
 22
0.0
 32
0.0
 42
50.0
 43
0.0
 44
0.0
 50
0.0
 71
    16
281
     0
 72
     0
 73
     0
  0
VIEW
  5
91D
330
6
100
AcDbSymbolTableRecord
100
AcDbViewTableRecord
  2
AM_VIEW3
 70
     0
 40
1188.0
 10
1148.497538477283
 20
594.0000029550566
 41
2296.995073891626
 11
0.0
 21
0.0
 31
1.0
 12
0.0
 22
0.0
 32
0.0
 42
50.0
 43
0.0
 44
0.0
 50
0.0
 71
    16
281
     0
 72
     0
 73
     0
  0
VIEW
  5
91E
330
6
100
AcDbSymbolTableRecord
100
AcDbViewTableRecord
  2
AM_VIEW4
 70
     0
 40
1188.0
 10
2211.502464585658
 20
594.0000029550566
 41
2296.995073891626
 11
0.0
 21
0.0
 31
1.0
 12
0.0
 22
0.0
 32
0.0
 42
50.0
 43
0.0
 44
0.0
 50
0.0
 71
    16
281
     0
 72
     0
 73
     0
  0
VIEW
  5
91F
330
6
100
AcDbSymbolTableRecord
100
AcDbViewTableRecord
  2
AM_VIEW5
 70
     0
 40
1188.0
 10
1680.000001531471
 20
1188.000002955057
 41
2296.995073891626
 11
0.0
 21
0.0
 31
1.0
 12
0.0
 22
0.0
 32
0.0
 42
50.0
 43
0.0
 44
0.0
 50
0.0
 71
    16
281
     0
 72
     0
 73
     0
  0
VIEW
  5
920
330
6
100
AcDbSymbolTableRecord
100
AcDbViewTableRecord
  2
AM_VIEW6
 70
     0
 40
2375.97624
 10
1680.000001531471
 20
1188.000002955057
 41
4593.944207881774
 11
0.0
 21
0.0
 31
1.0
 12
0.0
 22
0.0
 32
0.0
 42
50.0
 43
0.0
 44
0.0
 50
0.0
 71
    16
281
     0
 72
     0
 73
     0
  0
ENDTAB
  0
TABLE
  2
UCS
  5
7
330
0
100
AcDbSymbolTable
 70
     0
  0
ENDTAB
  0
TABLE
  2
APPID
  5
9
330
0
100
AcDbSymbolTable
 70
   396
  0
APPID
  5
12
330
9
100
AcDbSymbolTableRecord
100
AcDbRegAppTableRecord
  2
ACAD
 70
     0
  0
APPID
  5
30
330
9
100
AcDbSymbolTableRecord
100
AcDbRegAppTableRecord
  2
MCAD_NO_VIS
 70
     0
  0
APPID
  5
31
330
9
100
AcDbSymbolTableRecord
100
AcDbRegAppTableRecord
  2
ACAD_TEMP_GRAPHIC
 70
     0
  0
APPID
  5
44
330
9
100
AcDbSymbolTableRecord
100
AcDbRegAppTableRecord
  2
ACATTRIBSERVICES
 70
     0
  0
APPID
  5
F6
330
9
100
AcDbSymbolTableRecord
100
AcDbRegAppTableRecord
  2
AD_DRAW
 70
     0
  0
APPID
  5
114
330
9
100
AcDbSymbolTableRecord
100
AcDbRegAppTableRecord
  2
DESIGNERASSEMBLIES
 70
     0
  0
APPID
  5
118
330
9
100
AcDbSymbolTableRecord
100
AcDbRegAppTableRecord
  2
ACADM_DIM_EDIT
 70
     0
  0
APPID
  5
119
330
9
100
AcDbSymbolTableRecord
100
AcDbRegAppTableRecord
  2
AMDT_DM_ADJ
 70
     0
  0
APPID
  5
1AF
330
9
100
AcDbSymbolTableRecord
100
AcDbRegAppTableRecord
  2
ACAD_DSTYLE_DIMARC_LENGTH_SYMBOL
 70
     0
  0
APPID
  5
1B0
330
9
100
AcDbSymbolTableRecord
100
AcDbRegAppTableRecord
  2
ACAD_DSTYLE_DIMJOGGED_JOGANGLE_SYMBOL
 70
     0
  0
APPID
  5
2D7
330
9
100
AcDbSymbolTableRecord
100
AcDbRegAppTableRecord
  2
ACAD_MLEADERVER
 70
     0
  0
APPID
  5
355
330
9
100
AcDbSymbolTableRecord
100
AcDbRegAppTableRecord
  2
AcadAnnoPO
 70
     0
  0
APPID
  5
428
330
9
100
AcDbSymbolTableRecord
100
AcDbRegAppTableRecord
  2
ACAD_DSTYLE_DIMTEXT_FILL
 70
     0
  0
APPID
  5
429
330
9
100
AcDbSymbolTableRecord
100
AcDbRegAppTableRecord
  2
GENIUS_GENSCREG_15
 70
     0
  0
APPID
  5
42A
330
9
100
AcDbSymbolTableRecord
100
AcDbRegAppTableRecord
  2
GENIUS_GENOBJ-N-SDF_13
 70
     0
  0
APPID
  5
42B
330
9
100
AcDbSymbolTableRecord
100
AcDbRegAppTableRecord
  2
GENIUS_GENODEF_13
 70
     0
  0
APPID
  5
42C
330
9
100
AcDbSymbolTableRecord
100
AcDbRegAppTableRecord
  2
ACAD_EXEMPT_FROM_CAD_STANDARDS
 70
     0
  0
APPID
  5
42D
330
9
100
AcDbSymbolTableRecord
100
AcDbRegAppTableRecord
  2
AcAecLayerStandard
 70
     0
  0
APPID
  5
42E
330
9
100
AcDbSymbolTableRecord
100
AcDbRegAppTableRecord
  2
GENIUS_GENOBJ-N-CEN_13
 70
     0
  0
APPID
  5
42F
330
9
100
AcDbSymbolTableRecord
100
AcDbRegAppTableRecord
  2
GENIUS_GENCEN_19
 70
     0
  0
APPID
  5
430
330
9
100
AcDbSymbolTableRecord
100
AcDbRegAppTableRecord
  2
ACAD_DSTYLE_DIMINSPECT
 70
     0
  0
APPID
  5
431
330
9
100
AcDbSymbolTableRecord
100
AcDbRegAppTableRecord
  2
GENIUS_AMGTXT_16
 70
     0
  0
APPID
  5
432
330
9
100
AcDbSymbolTableRecord
100
AcDbRegAppTableRecord
  2
GENIUS_GENFIL_13
 70
     0
  0
APPID
  5
433
330
9
100
AcDbSymbolTableRecord
100
AcDbRegAppTableRecord
  2
GENIUS_GENOLIS_13
 70
     0
  0
APPID
  5
434
330
9
100
AcDbSymbolTableRecord
100
AcDbRegAppTableRecord
  2
GENIUS_GENOBJ-N-CHA_13
 70
     0
  0
APPID
  5
435
330
9
100
AcDbSymbolTableRecord
100
AcDbRegAppTableRecord
  2
GENIUS_GENOENT_13
 70
     0
  0
APPID
  5
436
330
9
100
AcDbSymbolTableRecord
100
AcDbRegAppTableRecord
  2
GENIUS_GENOREF_13
 70
     0
  0
APPID
  5
437
330
9
100
AcDbSymbolTableRecord
100
AcDbRegAppTableRecord
  2
GENIUS_GENOBJ-N-FIL_13
 70
     0
  0
APPID
  5
438
330
9
100
AcDbSymbolTableRecord
100
AcDbRegAppTableRecord
  2
GEVID1208829536
 70
     0
  0
APPID
  5
439
330
9
100
AcDbSymbolTableRecord
100
AcDbRegAppTableRecord
  2
GEVDC
 70
     0
  0
APPID
  5
43A
330
9
100
AcDbSymbolTableRecord
100
AcDbRegAppTableRecord
  2
GEVRADREF
 70
     0
  0
APPID
  5
43B
330
9
100
AcDbSymbolTableRecord
100
AcDbRegAppTableRecord
  2
GENIUS_GENBH_13
 70
     0
  0
APPID
  5
43C
330
9
100
AcDbSymbolTableRecord
100
AcDbRegAppTableRecord
  2
GENIUS_GENOBJ-NBEHI-BHF_13
 70
     0
  0
APPID
  5
43D
330
9
100
AcDbSymbolTableRecord
100
AcDbRegAppTableRecord
  2
GENIUS_GENOBJ-NBEHI-BHB_13
 70
     0
  0
APPID
  5
43E
330
9
100
AcDbSymbolTableRecord
100
AcDbRegAppTableRecord
  2
GEVID1208829537
 70
     0
  0
APPID
  5
43F
330
9
100
AcDbSymbolTableRecord
100
AcDbRegAppTableRecord
  2
ACAD_DSTYLE_DIMJAG
 70
     0
  0
APPID
  5
440
330
9
100
AcDbSymbolTableRecord
100
AcDbRegAppTableRecord
  2
ACAD_DSTYLE_DIMTALN
 70
     0
  0
APPID
  5
441
330
9
100
AcDbSymbolTableRecord
100
AcDbRegAppTableRecord
  2
AMG_2DHIDE
 70
     0
  0
APPID
  5
442
330
9
100
AcDbSymbolTableRecord
100
AcDbRegAppTableRecord
  2
AMG_2DSTRUCT_BTR
 70
     0
  0
APPID
  5
443
330
9
100
AcDbSymbolTableRecord
100
AcDbRegAppTableRecord
  2
GEVID1208845772
 70
     0
  0
APPID
  5
444
330
9
100
AcDbSymbolTableRecord
100
AcDbRegAppTableRecord
  2
GEVID1208845773
 70
     0
  0
APPID
  5
445
330
9
100
AcDbSymbolTableRecord
100
AcDbRegAppTableRecord
  2
ACADM_2DVIEW_IGN_NOTIFY
 70
     0
  0
APPID
  5
446
330
9
100
AcDbSymbolTableRecord
100
AcDbRegAppTableRecord
  2
GEVID1208845774
 70
     0
  0
APPID
  5
447
330
9
100
AcDbSymbolTableRecord
100
AcDbRegAppTableRecord
  2
GEVID1208845775
 70
     0
  0
APPID
  5
448
330
9
100
AcDbSymbolTableRecord
100
AcDbRegAppTableRecord
  2
GEVID1208845776
 70
     0
  0
APPID
  5
449
330
9
100
AcDbSymbolTableRecord
100
AcDbRegAppTableRecord
  2
GEVID1208845777
 70
     0
  0
APPID
  5
44A
330
9
100
AcDbSymbolTableRecord
100
AcDbRegAppTableRecord
  2
GEVCON
 70
     0
  0
APPID
  5
44B
330
9
100
AcDbSymbolTableRecord
100
AcDbRegAppTableRecord
  2
GENIUS_GENOBJ-F-SCPASSM_13
 70
     0
  0
APPID
  5
44C
330
9
100
AcDbSymbolTableRecord
100
AcDbRegAppTableRecord
  2
GEVID1208845778
 70
     0
  0
APPID
  5
44D
330
9
100
AcDbSymbolTableRecord
100
AcDbRegAppTableRecord
  2
GEVID1208845779
 70
     0
  0
APPID
  5
44E
330
9
100
AcDbSymbolTableRecord
100
AcDbRegAppTableRecord
  2
GEVID1208845780
 70
     0
  0
APPID
  5
44F
330
9
100
AcDbSymbolTableRecord
100
AcDbRegAppTableRecord
  2
GEVID1208845781
 70
     0
  0
APPID
  5
450
330
9
100
AcDbSymbolTableRecord
100
AcDbRegAppTableRecord
  2
GEVID1208845782
 70
     0
  0
APPID
  5
451
330
9
100
AcDbSymbolTableRecord
100
AcDbRegAppTableRecord
  2
GEVID1208845783
 70
     0
  0
APPID
  5
452
330
9
100
AcDbSymbolTableRecord
100
AcDbRegAppTableRecord
  2
GEVID1208845784
 70
     0
  0
APPID
  5
453
330
9
100
AcDbSymbolTableRecord
100
AcDbRegAppTableRecord
  2
GEVID1208845785
 70
     0
  0
APPID
  5
454
330
9
100
AcDbSymbolTableRecord
100
AcDbRegAppTableRecord
  2
GEVID1208845787
 70
     0
  0
APPID
  5
455
330
9
100
AcDbSymbolTableRecord
100
AcDbRegAppTableRecord
  2
GEVID1208845788
 70
     0
  0
APPID
  5
456
330
9
100
AcDbSymbolTableRecord
100
AcDbRegAppTableRecord
  2
GEVID1208845789
 70
     0
  0
APPID
  5
457
330
9
100
AcDbSymbolTableRecord
100
AcDbRegAppTableRecord
  2
GEVID1208845790
 70
     0
  0
APPID
  5
458
330
9
100
AcDbSymbolTableRecord
100
AcDbRegAppTableRecord
  2
GEVID1208845791
 70
     0
  0
APPID
  5
459
330
9
100
AcDbSymbolTableRecord
100
AcDbRegAppTableRecord
  2
GEVID1208845792
 70
     0
  0
APPID
  5
45A
330
9
100
AcDbSymbolTableRecord
100
AcDbRegAppTableRecord
  2
GEVID1208845793
 70
     0
  0
APPID
  5
45B
330
9
100
AcDbSymbolTableRecord
100
AcDbRegAppTableRecord
  2
GEVID1208845794
 70
     0
  0
APPID
  5
45C
330
9
100
AcDbSymbolTableRecord
100
AcDbRegAppTableRecord
  2
GEVID1208845795
 70
     0
  0
APPID
  5
45D
330
9
100
AcDbSymbolTableRecord
100
AcDbRegAppTableRecord
  2
GEVID1208845796
 70
     0
  0
APPID
  5
45E
330
9
100
AcDbSymbolTableRecord
100
AcDbRegAppTableRecord
  2
GEVID1208845797
 70
     0
  0
APPID
  5
45F
330
9
100
AcDbSymbolTableRecord
100
AcDbRegAppTableRecord
  2
GEVID1208845798
 70
     0
  0
APPID
  5
460
330
9
100
AcDbSymbolTableRecord
100
AcDbRegAppTableRecord
  2
GEVID1208845799
 70
     0
  0
APPID
  5
461
330
9
100
AcDbSymbolTableRecord
100
AcDbRegAppTableRecord
  2
GEVID1208845800
 70
     0
  0
APPID
  5
462
330
9
100
AcDbSymbolTableRecord
100
AcDbRegAppTableRecord
  2
GEVID1208845801
 70
     0
  0
APPID
  5
463
330
9
100
AcDbSymbolTableRecord
100
AcDbRegAppTableRecord
  2
GEVID1208845802
 70
     0
  0
APPID
  5
464
330
9
100
AcDbSymbolTableRecord
100
AcDbRegAppTableRecord
  2
GENIUS_GENOBJ-N-DIM_13
 70
     0
  0
APPID
  5
465
330
9
100
AcDbSymbolTableRecord
100
AcDbRegAppTableRecord
  2
GENIUS_GENDIM_13
 70
     0
  0
APPID
  5
466
330
9
100
AcDbSymbolTableRecord
100
AcDbRegAppTableRecord
  2
GENIUS_GENDIMSH_14
 70
     0
  0
APPID
  5
467
330
9
100
AcDbSymbolTableRecord
100
AcDbRegAppTableRecord
  2
GEVID1208845803
 70
     0
  0
APPID
  5
468
330
9
100
AcDbSymbolTableRecord
100
AcDbRegAppTableRecord
  2
GEVID1208845804
 70
     0
  0
APPID
  5
469
330
9
100
AcDbSymbolTableRecord
100
AcDbRegAppTableRecord
  2
GEVID1208845805
 70
     0
  0
APPID
  5
46A
330
9
100
AcDbSymbolTableRecord
100
AcDbRegAppTableRecord
  2
GEVID1208845806
 70
     0
  0
APPID
  5
46B
330
9
100
AcDbSymbolTableRecord
100
AcDbRegAppTableRecord
  2
GEVID1208845807
 70
     0
  0
APPID
  5
46C
330
9
100
AcDbSymbolTableRecord
100
AcDbRegAppTableRecord
  2
GEVID1208845808
 70
     0
  0
APPID
  5
46D
330
9
100
AcDbSymbolTableRecord
100
AcDbRegAppTableRecord
  2
GEVID1208845809
 70
     0
  0
APPID
  5
46E
330
9
100
AcDbSymbolTableRecord
100
AcDbRegAppTableRecord
  2
GEVID1208845810
 70
     0
  0
APPID
  5
46F
330
9
100
AcDbSymbolTableRecord
100
AcDbRegAppTableRecord
  2
GEVID1208845811
 70
     0
  0
APPID
  5
470
330
9
100
AcDbSymbolTableRecord
100
AcDbRegAppTableRecord
  2
GEVID1208845813
 70
     0
  0
APPID
  5
471
330
9
100
AcDbSymbolTableRecord
100
AcDbRegAppTableRecord
  2
GEVID1208845814
 70
     0
  0
APPID
  5
472
330
9
100
AcDbSymbolTableRecord
100
AcDbRegAppTableRecord
  2
GEVID1208845815
 70
     0
  0
APPID
  5
473
330
9
100
AcDbSymbolTableRecord
100
AcDbRegAppTableRecord
  2
GEVID1208845816
 70
     0
  0
APPID
  5
474
330
9
100
AcDbSymbolTableRecord
100
AcDbRegAppTableRecord
  2
GEVID1208845817
 70
     0
  0
APPID
  5
475
330
9
100
AcDbSymbolTableRecord
100
AcDbRegAppTableRecord
  2
GEVID1208845818
 70
     0
  0
APPID
  5
476
330
9
100
AcDbSymbolTableRecord
100
AcDbRegAppTableRecord
  2
GEVID1208845819
 70
     0
  0
APPID
  5
477
330
9
100
AcDbSymbolTableRecord
100
AcDbRegAppTableRecord
  2
GEVID1208845820
 70
     0
  0
APPID
  5
478
330
9
100
AcDbSymbolTableRecord
100
AcDbRegAppTableRecord
  2
GENIUS_GENOBJ-F-SHCL_13
 70
     0
  0
APPID
  5
479
330
9
100
AcDbSymbolTableRecord
100
AcDbRegAppTableRecord
  2
GENIUS_GEFMSH_13
 70
     0
  0
APPID
  5
47A
330
9
100
AcDbSymbolTableRecord
100
AcDbRegAppTableRecord
  2
GENIUS_GENOBJ-F-SHCA_13
 70
     0
  0
APPID
  5
47B
330
9
100
AcDbSymbolTableRecord
100
AcDbRegAppTableRecord
  2
GENIUS_GEFSH_13
 70
     0
  0
APPID
  5
47C
330
9
100
AcDbSymbolTableRecord
100
AcDbRegAppTableRecord
  2
GENIUS_GEFSHP_13
 70
     0
  0
APPID
  5
47D
330
9
100
AcDbSymbolTableRecord
100
AcDbRegAppTableRecord
  2
GENIUS_GEFSHP0_13
 70
     0
  0
APPID
  5
47E
330
9
100
AcDbSymbolTableRecord
100
AcDbRegAppTableRecord
  2
GENIUS_GEFSH0_13
 70
     0
  0
APPID
  5
47F
330
9
100
AcDbSymbolTableRecord
100
AcDbRegAppTableRecord
  2
GENIUS_GEFSHP1_13
 70
     0
  0
APPID
  5
480
330
9
100
AcDbSymbolTableRecord
100
AcDbRegAppTableRecord
  2
GENIUS_GEFSH1_13
 70
     0
  0
APPID
  5
481
330
9
100
AcDbSymbolTableRecord
100
AcDbRegAppTableRecord
  2
GEVID1208866337
 70
     0
  0
APPID
  5
482
330
9
100
AcDbSymbolTableRecord
100
AcDbRegAppTableRecord
  2
GEVID1208866338
 70
     0
  0
APPID
  5
483
330
9
100
AcDbSymbolTableRecord
100
AcDbRegAppTableRecord
  2
GEVID1208866339
 70
     0
  0
APPID
  5
484
330
9
100
AcDbSymbolTableRecord
100
AcDbRegAppTableRecord
  2
GEVID1208866340
 70
     0
  0
APPID
  5
485
330
9
100
AcDbSymbolTableRecord
100
AcDbRegAppTableRecord
  2
GEVID1208866341
 70
     0
  0
APPID
  5
486
330
9
100
AcDbSymbolTableRecord
100
AcDbRegAppTableRecord
  2
ACAD_PSEXT
 70
     0
  0
APPID
  5
487
330
9
100
AcDbSymbolTableRecord
100
AcDbRegAppTableRecord
  2
GEVID1208866342
 70
     0
  0
APPID
  5
488
330
9
100
AcDbSymbolTableRecord
100
AcDbRegAppTableRecord
  2
GEVID1208913836
 70
     0
  0
APPID
  5
489
330
9
100
AcDbSymbolTableRecord
100
AcDbRegAppTableRecord
  2
GEVID1208913837
 70
     0
  0
APPID
  5
48A
330
9
100
AcDbSymbolTableRecord
100
AcDbRegAppTableRecord
  2
GEVID1208913838
 70
     0
  0
APPID
  5
48B
330
9
100
AcDbSymbolTableRecord
100
AcDbRegAppTableRecord
  2
GEVID1208913839
 70
     0
  0
APPID
  5
48C
330
9
100
AcDbSymbolTableRecord
100
AcDbRegAppTableRecord
  2
GENIUS_GENDTOL_13
 70
     0
  0
APPID
  5
48D
330
9
100
AcDbSymbolTableRecord
100
AcDbRegAppTableRecord
  2
GEVID1208928889
 70
     0
  0
APPID
  5
48E
330
9
100
AcDbSymbolTableRecord
100
AcDbRegAppTableRecord
  2
GEVID1208928890
 70
     0
  0
APPID
  5
48F
330
9
100
AcDbSymbolTableRecord
100
AcDbRegAppTableRecord
  2
GEVID1208928891
 70
     0
  0
APPID
  5
490
330
9
100
AcDbSymbolTableRecord
100
AcDbRegAppTableRecord
  2
GEVID1208928892
 70
     0
  0
APPID
  5
491
330
9
100
AcDbSymbolTableRecord
100
AcDbRegAppTableRecord
  2
GEVID1208933827
 70
     0
  0
APPID
  5
492
330
9
100
AcDbSymbolTableRecord
100
AcDbRegAppTableRecord
  2
GEVID1208933829
 70
     0
  0
APPID
  5
493
330
9
100
AcDbSymbolTableRecord
100
AcDbRegAppTableRecord
  2
GEVID1208933830
 70
     0
  0
APPID
  5
494
330
9
100
AcDbSymbolTableRecord
100
AcDbRegAppTableRecord
  2
GEVID1208933831
 70
     0
  0
APPID
  5
495
330
9
100
AcDbSymbolTableRecord
100
AcDbRegAppTableRecord
  2
GEVID1208933832
 70
     0
  0
APPID
  5
496
330
9
100
AcDbSymbolTableRecord
100
AcDbRegAppTableRecord
  2
GEVID1208933833
 70
     0
  0
APPID
  5
497
330
9
100
AcDbSymbolTableRecord
100
AcDbRegAppTableRecord
  2
GEVID1208933834
 70
     0
  0
APPID
  5
498
330
9
100
AcDbSymbolTableRecord
100
AcDbRegAppTableRecord
  2
GEVID1208933835
 70
     0
  0
APPID
  5
499
330
9
100
AcDbSymbolTableRecord
100
AcDbRegAppTableRecord
  2
GEVID1208933836
 70
     0
  0
APPID
  5
49A
330
9
100
AcDbSymbolTableRecord
100
AcDbRegAppTableRecord
  2
GEVID1208933837
 70
     0
  0
APPID
  5
49B
330
9
100
AcDbSymbolTableRecord
100
AcDbRegAppTableRecord
  2
GEVID1208933838
 70
     0
  0
APPID
  5
49C
330
9
100
AcDbSymbolTableRecord
100
AcDbRegAppTableRecord
  2
GEVID1208933840
 70
     0
  0
APPID
  5
49D
330
9
100
AcDbSymbolTableRecord
100
AcDbRegAppTableRecord
  2
GEVID1208933842
 70
     0
  0
APPID
  5
49E
330
9
100
AcDbSymbolTableRecord
100
AcDbRegAppTableRecord
  2
GEVID1208933843
 70
     0
  0
APPID
  5
49F
330
9
100
AcDbSymbolTableRecord
100
AcDbRegAppTableRecord
  2
GEVID1208933844
 70
     0
  0
APPID
  5
4A0
330
9
100
AcDbSymbolTableRecord
100
AcDbRegAppTableRecord
  2
GEVID1208933845
 70
     0
  0
APPID
  5
4A1
330
9
100
AcDbSymbolTableRecord
100
AcDbRegAppTableRecord
  2
GEVID1208933846
 70
     0
  0
APPID
  5
4A2
330
9
100
AcDbSymbolTableRecord
100
AcDbRegAppTableRecord
  2
GEVID1208933847
 70
     0
  0
APPID
  5
4A3
330
9
100
AcDbSymbolTableRecord
100
AcDbRegAppTableRecord
  2
GEVID1208933848
 70
     0
  0
APPID
  5
4A4
330
9
100
AcDbSymbolTableRecord
100
AcDbRegAppTableRecord
  2
GEVID1208933849
 70
     0
  0
APPID
  5
4A5
330
9
100
AcDbSymbolTableRecord
100
AcDbRegAppTableRecord
  2
GEVID1208933850
 70
     0
  0
APPID
  5
4A6
330
9
100
AcDbSymbolTableRecord
100
AcDbRegAppTableRecord
  2
GEVID1208933851
 70
     0
  0
APPID
  5
4A7
330
9
100
AcDbSymbolTableRecord
100
AcDbRegAppTableRecord
  2
GEVID1208933852
 70
     0
  0
APPID
  5
4A8
330
9
100
AcDbSymbolTableRecord
100
AcDbRegAppTableRecord
  2
GEVID1208933853
 70
     0
  0
APPID
  5
4A9
330
9
100
AcDbSymbolTableRecord
100
AcDbRegAppTableRecord
  2
GEVID1208933854
 70
     0
  0
APPID
  5
4AA
330
9
100
AcDbSymbolTableRecord
100
AcDbRegAppTableRecord
  2
GEVID1208933855
 70
     0
  0
APPID
  5
4AB
330
9
100
AcDbSymbolTableRecord
100
AcDbRegAppTableRecord
  2
GEVID1208933856
 70
     0
  0
APPID
  5
4AC
330
9
100
AcDbSymbolTableRecord
100
AcDbRegAppTableRecord
  2
GEVID1208933857
 70
     0
  0
APPID
  5
4AD
330
9
100
AcDbSymbolTableRecord
100
AcDbRegAppTableRecord
  2
GEVID1208933858
 70
     0
  0
APPID
  5
4AE
330
9
100
AcDbSymbolTableRecord
100
AcDbRegAppTableRecord
  2
GEVID1208933859
 70
     0
  0
APPID
  5
4AF
330
9
100
AcDbSymbolTableRecord
100
AcDbRegAppTableRecord
  2
GEVID1208933860
 70
     0
  0
APPID
  5
4B0
330
9
100
AcDbSymbolTableRecord
100
AcDbRegAppTableRecord
  2
GEVID1208933861
 70
     0
  0
APPID
  5
4B1
330
9
100
AcDbSymbolTableRecord
100
AcDbRegAppTableRecord
  2
GEVID1208933862
 70
     0
  0
APPID
  5
4B2
330
9
100
AcDbSymbolTableRecord
100
AcDbRegAppTableRecord
  2
GEVID1208933863
 70
     0
  0
APPID
  5
4B3
330
9
100
AcDbSymbolTableRecord
100
AcDbRegAppTableRecord
  2
GEVID1208933864
 70
     0
  0
APPID
  5
4B4
330
9
100
AcDbSymbolTableRecord
100
AcDbRegAppTableRecord
  2
GEVID1208933865
 70
     0
  0
APPID
  5
4B5
330
9
100
AcDbSymbolTableRecord
100
AcDbRegAppTableRecord
  2
GEVID1208933866
 70
     0
  0
APPID
  5
4B6
330
9
100
AcDbSymbolTableRecord
100
AcDbRegAppTableRecord
  2
GEVID1208933867
 70
     0
  0
APPID
  5
4B7
330
9
100
AcDbSymbolTableRecord
100
AcDbRegAppTableRecord
  2
GEVID1208933868
 70
     0
  0
APPID
  5
4B8
330
9
100
AcDbSymbolTableRecord
100
AcDbRegAppTableRecord
  2
GEVID1208933869
 70
     0
  0
APPID
  5
4B9
330
9
100
AcDbSymbolTableRecord
100
AcDbRegAppTableRecord
  2
GEVID1208933870
 70
     0
  0
APPID
  5
4BA
330
9
100
AcDbSymbolTableRecord
100
AcDbRegAppTableRecord
  2
GEVID1208933871
 70
     0
  0
APPID
  5
4BB
330
9
100
AcDbSymbolTableRecord
100
AcDbRegAppTableRecord
  2
GEVID1208933872
 70
     0
  0
APPID
  5
4BC
330
9
100
AcDbSymbolTableRecord
100
AcDbRegAppTableRecord
  2
GEVID1208933873
 70
     0
  0
APPID
  5
4BD
330
9
100
AcDbSymbolTableRecord
100
AcDbRegAppTableRecord
  2
GEVID1208933874
 70
     0
  0
APPID
  5
4BE
330
9
100
AcDbSymbolTableRecord
100
AcDbRegAppTableRecord
  2
GEVID1208933875
 70
     0
  0
APPID
  5
4BF
330
9
100
AcDbSymbolTableRecord
100
AcDbRegAppTableRecord
  2
GEVID1208933876
 70
     0
  0
APPID
  5
4C0
330
9
100
AcDbSymbolTableRecord
100
AcDbRegAppTableRecord
  2
ACAD_DSTYLE_DIMRADIAL_EXTENSION
 70
     0
  0
APPID
  5
4C1
330
9
100
AcDbSymbolTableRecord
100
AcDbRegAppTableRecord
  2
GEVID1208999100
 70
     0
  0
APPID
  5
4C2
330
9
100
AcDbSymbolTableRecord
100
AcDbRegAppTableRecord
  2
GEVID1208999101
 70
     0
  0
APPID
  5
4C3
330
9
100
AcDbSymbolTableRecord
100
AcDbRegAppTableRecord
  2
GEVID1208999102
 70
     0
  0
APPID
  5
4C4
330
9
100
AcDbSymbolTableRecord
100
AcDbRegAppTableRecord
  2
GEVID1208999103
 70
     0
  0
APPID
  5
4C5
330
9
100
AcDbSymbolTableRecord
100
AcDbRegAppTableRecord
  2
GEVID1208999105
 70
     0
  0
APPID
  5
4C6
330
9
100
AcDbSymbolTableRecord
100
AcDbRegAppTableRecord
  2
GEVID1208999106
 70
     0
  0
APPID
  5
4C7
330
9
100
AcDbSymbolTableRecord
100
AcDbRegAppTableRecord
  2
GEVID1208999108
 70
     0
  0
APPID
  5
4C8
330
9
100
AcDbSymbolTableRecord
100
AcDbRegAppTableRecord
  2
GEVID1208999109
 70
     0
  0
APPID
  5
4C9
330
9
100
AcDbSymbolTableRecord
100
AcDbRegAppTableRecord
  2
GEVID1208999110
 70
     0
  0
APPID
  5
4CA
330
9
100
AcDbSymbolTableRecord
100
AcDbRegAppTableRecord
  2
GEVID1208999111
 70
     0
  0
APPID
  5
4CB
330
9
100
AcDbSymbolTableRecord
100
AcDbRegAppTableRecord
  2
GEVID1208999112
 70
     0
  0
APPID
  5
4CC
330
9
100
AcDbSymbolTableRecord
100
AcDbRegAppTableRecord
  2
GEVID1208999113
 70
     0
  0
APPID
  5
4CD
330
9
100
AcDbSymbolTableRecord
100
AcDbRegAppTableRecord
  2
GEVID1208999114
 70
     0
  0
APPID
  5
4CE
330
9
100
AcDbSymbolTableRecord
100
AcDbRegAppTableRecord
  2
GEVID1210218799
 70
     0
  0
APPID
  5
4CF
330
9
100
AcDbSymbolTableRecord
100
AcDbRegAppTableRecord
  2
GEVID1210218800
 70
     0
  0
APPID
  5
4D0
330
9
100
AcDbSymbolTableRecord
100
AcDbRegAppTableRecord
  2
GENIUS_GEFWELD_13
 70
     0
  0
APPID
  5
4D1
330
9
100
AcDbSymbolTableRecord
100
AcDbRegAppTableRecord
  2
GENIUS_GENOBJ-F-WELS_13
 70
     0
  0
APPID
  5
4D2
330
9
100
AcDbSymbolTableRecord
100
AcDbRegAppTableRecord
  2
AcadAnnotative
 70
     0
  0
APPID
  5
4D3
330
9
100
AcDbSymbolTableRecord
100
AcDbRegAppTableRecord
  2
GEVID1210145339
 70
     0
  0
APPID
  5
4D4
330
9
100
AcDbSymbolTableRecord
100
AcDbRegAppTableRecord
  2
ACAD_DSTYLE_DIMBREAK
 70
     0
  0
APPID
  5
4D5
330
9
100
AcDbSymbolTableRecord
100
AcDbRegAppTableRecord
  2
GEVID1210145340
 70
     0
  0
APPID
  5
4D6
330
9
100
AcDbSymbolTableRecord
100
AcDbRegAppTableRecord
  2
GEVID1210145341
 70
     0
  0
APPID
  5
4D7
330
9
100
AcDbSymbolTableRecord
100
AcDbRegAppTableRecord
  2
GEVID1210145342
 70
     0
  0
APPID
  5
4D8
330
9
100
AcDbSymbolTableRecord
100
AcDbRegAppTableRecord
  2
GEVID1210145343
 70
     0
  0
APPID
  5
4D9
330
9
100
AcDbSymbolTableRecord
100
AcDbRegAppTableRecord
  2
GEVID1210145344
 70
     0
  0
APPID
  5
4DA
330
9
100
AcDbSymbolTableRecord
100
AcDbRegAppTableRecord
  2
GEVID1210145345
 70
     0
  0
APPID
  5
4DB
330
9
100
AcDbSymbolTableRecord
100
AcDbRegAppTableRecord
  2
GEVID1210152816
 70
     0
  0
APPID
  5
4DC
330
9
100
AcDbSymbolTableRecord
100
AcDbRegAppTableRecord
  2
GEVID1210153850
 70
     0
  0
APPID
  5
4DD
330
9
100
AcDbSymbolTableRecord
100
AcDbRegAppTableRecord
  2
GEVID1210153851
 70
     0
  0
APPID
  5
4DE
330
9
100
AcDbSymbolTableRecord
100
AcDbRegAppTableRecord
  2
GEVID1210153852
 70
     0
  0
APPID
  5
4DF
330
9
100
AcDbSymbolTableRecord
100
AcDbRegAppTableRecord
  2
GEVID1210549898
 70
     0
  0
APPID
  5
4E0
330
9
100
AcDbSymbolTableRecord
100
AcDbRegAppTableRecord
  2
GEVID1210549899
 70
     0
  0
APPID
  5
4E1
330
9
100
AcDbSymbolTableRecord
100
AcDbRegAppTableRecord
  2
GEVID1210549900
 70
     0
  0
APPID
  5
4E2
330
9
100
AcDbSymbolTableRecord
100
AcDbRegAppTableRecord
  2
GEVID1210549901
 70
     0
  0
APPID
  5
4E3
330
9
100
AcDbSymbolTableRecord
100
AcDbRegAppTableRecord
  2
GEVID1210549902
 70
     0
  0
APPID
  5
4E4
330
9
100
AcDbSymbolTableRecord
100
AcDbRegAppTableRecord
  2
GEVID1210549903
 70
     0
  0
APPID
  5
4E5
330
9
100
AcDbSymbolTableRecord
100
AcDbRegAppTableRecord
  2
GEVID1210549904
 70
     0
  0
APPID
  5
4E6
330
9
100
AcDbSymbolTableRecord
100
AcDbRegAppTableRecord
  2
GEVID1210549905
 70
     0
  0
APPID
  5
4E7
330
9
100
AcDbSymbolTableRecord
100
AcDbRegAppTableRecord
  2
GEVID1210549906
 70
     0
  0
APPID
  5
4E8
330
9
100
AcDbSymbolTableRecord
100
AcDbRegAppTableRecord
  2
GEVID1210549907
 70
     0
  0
APPID
  5
4E9
330
9
100
AcDbSymbolTableRecord
100
AcDbRegAppTableRecord
  2
GEVID1210549908
 70
     0
  0
APPID
  5
4EA
330
9
100
AcDbSymbolTableRecord
100
AcDbRegAppTableRecord
  2
GEVID1210549909
 70
     0
  0
APPID
  5
4EB
330
9
100
AcDbSymbolTableRecord
100
AcDbRegAppTableRecord
  2
GEVID1210549910
 70
     0
  0
APPID
  5
4EC
330
9
100
AcDbSymbolTableRecord
100
AcDbRegAppTableRecord
  2
GEVID1210549911
 70
     0
  0
APPID
  5
4ED
330
9
100
AcDbSymbolTableRecord
100
AcDbRegAppTableRecord
  2
GEVID1210549912
 70
     0
  0
APPID
  5
4EE
330
9
100
AcDbSymbolTableRecord
100
AcDbRegAppTableRecord
  2
GEVID1210549913
 70
     0
  0
APPID
  5
4EF
330
9
100
AcDbSymbolTableRecord
100
AcDbRegAppTableRecord
  2
GEVID1210549914
 70
     0
  0
APPID
  5
4F0
330
9
100
AcDbSymbolTableRecord
100
AcDbRegAppTableRecord
  2
GEVID1210549915
 70
     0
  0
APPID
  5
4F1
330
9
100
AcDbSymbolTableRecord
100
AcDbRegAppTableRecord
  2
GEVID1210549916
 70
     0
  0
APPID
  5
4F2
330
9
100
AcDbSymbolTableRecord
100
AcDbRegAppTableRecord
  2
GEVID1210549917
 70
     0
  0
APPID
  5
4F3
330
9
100
AcDbSymbolTableRecord
100
AcDbRegAppTableRecord
  2
GENIUS_GENOBJ-N-CRS_13
 70
     0
  0
APPID
  5
4F4
330
9
100
AcDbSymbolTableRecord
100
AcDbRegAppTableRecord
  2
GEVID1210549918
 70
     0
  0
APPID
  5
4F5
330
9
100
AcDbSymbolTableRecord
100
AcDbRegAppTableRecord
  2
GENIUS_GENOBJ-N-CRC_13
 70
     0
  0
APPID
  5
4F6
330
9
100
AcDbSymbolTableRecord
100
AcDbRegAppTableRecord
  2
GENIUS_GENCRC_14
 70
     0
  0
APPID
  5
4F7
330
9
100
AcDbSymbolTableRecord
100
AcDbRegAppTableRecord
  2
GEVID1210549919
 70
     0
  0
APPID
  5
4F8
330
9
100
AcDbSymbolTableRecord
100
AcDbRegAppTableRecord
  2
GEVID1210549921
 70
     0
  0
APPID
  5
4F9
330
9
100
AcDbSymbolTableRecord
100
AcDbRegAppTableRecord
  2
GEVID1210549922
 70
     0
  0
APPID
  5
4FA
330
9
100
AcDbSymbolTableRecord
100
AcDbRegAppTableRecord
  2
GEVID1210635173
 70
     0
  0
APPID
  5
4FB
330
9
100
AcDbSymbolTableRecord
100
AcDbRegAppTableRecord
  2
GEVID1210635174
 70
     0
  0
APPID
  5
4FC
330
9
100
AcDbSymbolTableRecord
100
AcDbRegAppTableRecord
  2
GEVID1210635175
 70
     0
  0
APPID
  5
4FD
330
9
100
AcDbSymbolTableRecord
100
AcDbRegAppTableRecord
  2
GEVID1210635176
 70
     0
  0
APPID
  5
4FE
330
9
100
AcDbSymbolTableRecord
100
AcDbRegAppTableRecord
  2
GEVID1210635177
 70
     0
  0
APPID
  5
4FF
330
9
100
AcDbSymbolTableRecord
100
AcDbRegAppTableRecord
  2
GEVID1210635178
 70
     0
  0
APPID
  5
500
330
9
100
AcDbSymbolTableRecord
100
AcDbRegAppTableRecord
  2
GENIUS_GENIUS_GENBHEDTMP_13
 70
     0
  0
APPID
  5
501
330
9
100
AcDbSymbolTableRecord
100
AcDbRegAppTableRecord
  2
GEVID1210635179
 70
     0
  0
APPID
  5
502
330
9
100
AcDbSymbolTableRecord
100
AcDbRegAppTableRecord
  2
GEVID1210635180
 70
     0
  0
APPID
  5
503
330
9
100
AcDbSymbolTableRecord
100
AcDbRegAppTableRecord
  2
GEVID1210635181
 70
     0
  0
APPID
  5
504
330
9
100
AcDbSymbolTableRecord
100
AcDbRegAppTableRecord
  2
GEVID1210635182
 70
     0
  0
APPID
  5
505
330
9
100
AcDbSymbolTableRecord
100
AcDbRegAppTableRecord
  2
GEVID1210635184
 70
     0
  0
APPID
  5
506
330
9
100
AcDbSymbolTableRecord
100
AcDbRegAppTableRecord
  2
GEVID1210635185
 70
     0
  0
APPID
  5
507
330
9
100
AcDbSymbolTableRecord
100
AcDbRegAppTableRecord
  2
GEVID1210635186
 70
     0
  0
APPID
  5
508
330
9
100
AcDbSymbolTableRecord
100
AcDbRegAppTableRecord
  2
GEVID1210635187
 70
     0
  0
APPID
  5
509
330
9
100
AcDbSymbolTableRecord
100
AcDbRegAppTableRecord
  2
GEVID1210635188
 70
     0
  0
APPID
  5
50A
330
9
100
AcDbSymbolTableRecord
100
AcDbRegAppTableRecord
  2
GEVID1210635189
 70
     0
  0
APPID
  5
50B
330
9
100
AcDbSymbolTableRecord
100
AcDbRegAppTableRecord
  2
GEVID1210635190
 70
     0
  0
APPID
  5
50C
330
9
100
AcDbSymbolTableRecord
100
AcDbRegAppTableRecord
  2
GENIUS_GENREC_14
 70
     0
  0
APPID
  5
50D
330
9
100
AcDbSymbolTableRecord
100
AcDbRegAppTableRecord
  2
GENIUS_GENOBJ-N-REC_13
 70
     0
  0
APPID
  5
50E
330
9
100
AcDbSymbolTableRecord
100
AcDbRegAppTableRecord
  2
GEVID1210676655
 70
     0
  0
APPID
  5
50F
330
9
100
AcDbSymbolTableRecord
100
AcDbRegAppTableRecord
  2
GEVID1210676656
 70
     0
  0
APPID
  5
510
330
9
100
AcDbSymbolTableRecord
100
AcDbRegAppTableRecord
  2
GEVID1210676657
 70
     0
  0
APPID
  5
511
330
9
100
AcDbSymbolTableRecord
100
AcDbRegAppTableRecord
  2
GEVID1210676659
 70
     0
  0
APPID
  5
512
330
9
100
AcDbSymbolTableRecord
100
AcDbRegAppTableRecord
  2
GEVID1210676660
 70
     0
  0
APPID
  5
513
330
9
100
AcDbSymbolTableRecord
100
AcDbRegAppTableRecord
  2
GEVID1210676661
 70
     0
  0
APPID
  5
514
330
9
100
AcDbSymbolTableRecord
100
AcDbRegAppTableRecord
  2
GEVID1210676662
 70
     0
  0
APPID
  5
515
330
9
100
AcDbSymbolTableRecord
100
AcDbRegAppTableRecord
  2
GEVID1210721646
 70
     0
  0
APPID
  5
516
330
9
100
AcDbSymbolTableRecord
100
AcDbRegAppTableRecord
  2
GEVID1210721647
 70
     0
  0
APPID
  5
517
330
9
100
AcDbSymbolTableRecord
100
AcDbRegAppTableRecord
  2
GEVID1210721648
 70
     0
  0
APPID
  5
518
330
9
100
AcDbSymbolTableRecord
100
AcDbRegAppTableRecord
  2
GEVID1210721649
 70
     0
  0
APPID
  5
519
330
9
100
AcDbSymbolTableRecord
100
AcDbRegAppTableRecord
  2
GEVID1210721650
 70
     0
  0
APPID
  5
51A
330
9
100
AcDbSymbolTableRecord
100
AcDbRegAppTableRecord
  2
GEVID1210721651
 70
     0
  0
APPID
  5
51B
330
9
100
AcDbSymbolTableRecord
100
AcDbRegAppTableRecord
  2
GEVID1210721652
 70
     0
  0
APPID
  5
51C
330
9
100
AcDbSymbolTableRecord
100
AcDbRegAppTableRecord
  2
GEVID1210721653
 70
     0
  0
APPID
  5
51D
330
9
100
AcDbSymbolTableRecord
100
AcDbRegAppTableRecord
  2
PE_URL
 70
     0
  0
APPID
  5
51E
330
9
100
AcDbSymbolTableRecord
100
AcDbRegAppTableRecord
  2
GEVID1210825555
 70
     0
  0
APPID
  5
51F
330
9
100
AcDbSymbolTableRecord
100
AcDbRegAppTableRecord
  2
GEVID1210825556
 70
     0
  0
APPID
  5
520
330
9
100
AcDbSymbolTableRecord
100
AcDbRegAppTableRecord
  2
GEVID1210825557
 70
     0
  0
APPID
  5
521
330
9
100
AcDbSymbolTableRecord
100
AcDbRegAppTableRecord
  2
GEVID1210825558
 70
     0
  0
APPID
  5
522
330
9
100
AcDbSymbolTableRecord
100
AcDbRegAppTableRecord
  2
GEVID1210825559
 70
     0
  0
APPID
  5
523
330
9
100
AcDbSymbolTableRecord
100
AcDbRegAppTableRecord
  2
GEVID1210825560
 70
     0
  0
APPID
  5
524
330
9
100
AcDbSymbolTableRecord
100
AcDbRegAppTableRecord
  2
GEVID1210825561
 70
     0
  0
APPID
  5
525
330
9
100
AcDbSymbolTableRecord
100
AcDbRegAppTableRecord
  2
GEVID1210825562
 70
     0
  0
APPID
  5
526
330
9
100
AcDbSymbolTableRecord
100
AcDbRegAppTableRecord
  2
GEVID1210825563
 70
     0
  0
APPID
  5
527
330
9
100
AcDbSymbolTableRecord
100
AcDbRegAppTableRecord
  2
GEVID1210825564
 70
     0
  0
APPID
  5
528
330
9
100
AcDbSymbolTableRecord
100
AcDbRegAppTableRecord
  2
GEVID1210825565
 70
     0
  0
APPID
  5
529
330
9
100
AcDbSymbolTableRecord
100
AcDbRegAppTableRecord
  2
GEVID1210825566
 70
     0
  0
APPID
  5
52A
330
9
100
AcDbSymbolTableRecord
100
AcDbRegAppTableRecord
  2
GEVID1210825567
 70
     0
  0
APPID
  5
52B
330
9
100
AcDbSymbolTableRecord
100
AcDbRegAppTableRecord
  2
GENIUS_GENOBJ-N-ZOO_13
 70
     0
  0
APPID
  5
52C
330
9
100
AcDbSymbolTableRecord
100
AcDbRegAppTableRecord
  2
GENIUS_GENZOO_17
 70
     0
  0
APPID
  5
52D
330
9
100
AcDbSymbolTableRecord
100
AcDbRegAppTableRecord
  2
ACADANNOTATIVEDECOMPOSITION
 70
     0
  0
APPID
  5
52E
330
9
100
AcDbSymbolTableRecord
100
AcDbRegAppTableRecord
  2
GENIUS_GENOBJ-N-HTC_13
 70
     0
  0
APPID
  5
52F
330
9
100
AcDbSymbolTableRecord
100
AcDbRegAppTableRecord
  2
GENIUS_GENHATCH_13
 70
     0
  0
APPID
  5
530
330
9
100
AcDbSymbolTableRecord
100
AcDbRegAppTableRecord
  2
GEVID1210896020
 70
     0
  0
APPID
  5
531
330
9
100
AcDbSymbolTableRecord
100
AcDbRegAppTableRecord
  2
GEVID1210896021
 70
     0
  0
APPID
  5
532
330
9
100
AcDbSymbolTableRecord
100
AcDbRegAppTableRecord
  2
GEVID1209083540
 70
     0
  0
APPID
  5
533
330
9
100
AcDbSymbolTableRecord
100
AcDbRegAppTableRecord
  2
GEVMK
 70
     0
  0
APPID
  5
534
330
9
100
AcDbSymbolTableRecord
100
AcDbRegAppTableRecord
  2
GEVID1209083542
 70
     0
  0
APPID
  5
535
330
9
100
AcDbSymbolTableRecord
100
AcDbRegAppTableRecord
  2
GEVID1209083543
 70
     0
  0
APPID
  5
536
330
9
100
AcDbSymbolTableRecord
100
AcDbRegAppTableRecord
  2
GEVID1209083544
 70
     0
  0
APPID
  5
537
330
9
100
AcDbSymbolTableRecord
100
AcDbRegAppTableRecord
  2
GEVID1209083545
 70
     0
  0
APPID
  5
538
330
9
100
AcDbSymbolTableRecord
100
AcDbRegAppTableRecord
  2
GEVID1209083546
 70
     0
  0
APPID
  5
539
330
9
100
AcDbSymbolTableRecord
100
AcDbRegAppTableRecord
  2
GEVID1209083547
 70
     0
  0
APPID
  5
53A
330
9
100
AcDbSymbolTableRecord
100
AcDbRegAppTableRecord
  2
GEVID1209083548
 70
     0
  0
APPID
  5
53B
330
9
100
AcDbSymbolTableRecord
100
AcDbRegAppTableRecord
  2
GEVID1209083549
 70
     0
  0
APPID
  5
53C
330
9
100
AcDbSymbolTableRecord
100
AcDbRegAppTableRecord
  2
GEVID1209083550
 70
     0
  0
APPID
  5
53D
330
9
100
AcDbSymbolTableRecord
100
AcDbRegAppTableRecord
  2
GEVID1209083551
 70
     0
  0
APPID
  5
53E
330
9
100
AcDbSymbolTableRecord
100
AcDbRegAppTableRecord
  2
GEVID1209083552
 70
     0
  0
APPID
  5
53F
330
9
100
AcDbSymbolTableRecord
100
AcDbRegAppTableRecord
  2
GEVID1209083553
 70
     0
  0
APPID
  5
540
330
9
100
AcDbSymbolTableRecord
100
AcDbRegAppTableRecord
  2
GEVID1210896022
 70
     0
  0
APPID
  5
541
330
9
100
AcDbSymbolTableRecord
100
AcDbRegAppTableRecord
  2
GEVID1211508364
 70
     0
  0
APPID
  5
542
330
9
100
AcDbSymbolTableRecord
100
AcDbRegAppTableRecord
  2
GEVID1211414908
 70
     0
  0
APPID
  5
543
330
9
100
AcDbSymbolTableRecord
100
AcDbRegAppTableRecord
  2
GEVID1211414909
 70
     0
  0
APPID
  5
544
330
9
100
AcDbSymbolTableRecord
100
AcDbRegAppTableRecord
  2
GEVID1211508359
 70
     0
  0
APPID
  5
545
330
9
100
AcDbSymbolTableRecord
100
AcDbRegAppTableRecord
  2
GEVID1211508360
 70
     0
  0
APPID
  5
546
330
9
100
AcDbSymbolTableRecord
100
AcDbRegAppTableRecord
  2
GEVID1211508361
 70
     0
  0
APPID
  5
547
330
9
100
AcDbSymbolTableRecord
100
AcDbRegAppTableRecord
  2
GEVID1211508362
 70
     0
  0
APPID
  5
548
330
9
100
AcDbSymbolTableRecord
100
AcDbRegAppTableRecord
  2
GEVID1211508363
 70
     0
  0
APPID
  5
549
330
9
100
AcDbSymbolTableRecord
100
AcDbRegAppTableRecord
  2
GEVID1211878469
 70
     0
  0
APPID
  5
54A
330
9
100
AcDbSymbolTableRecord
100
AcDbRegAppTableRecord
  2
GEVID1212642819
 70
     0
  0
APPID
  5
54B
330
9
100
AcDbSymbolTableRecord
100
AcDbRegAppTableRecord
  2
GEVID1212642820
 70
     0
  0
APPID
  5
54C
330
9
100
AcDbSymbolTableRecord
100
AcDbRegAppTableRecord
  2
GEVID1212642821
 70
     0
  0
APPID
  5
54D
330
9
100
AcDbSymbolTableRecord
100
AcDbRegAppTableRecord
  2
GEVID1212642822
 70
     0
  0
APPID
  5
54E
330
9
100
AcDbSymbolTableRecord
100
AcDbRegAppTableRecord
  2
GEVID1212642823
 70
     0
  0
APPID
  5
54F
330
9
100
AcDbSymbolTableRecord
100
AcDbRegAppTableRecord
  2
GEVID1212642825
 70
     0
  0
APPID
  5
550
330
9
100
AcDbSymbolTableRecord
100
AcDbRegAppTableRecord
  2
GEVID1212642826
 70
     0
  0
APPID
  5
551
330
9
100
AcDbSymbolTableRecord
100
AcDbRegAppTableRecord
  2
GEVID1212642827
 70
     0
  0
APPID
  5
552
330
9
100
AcDbSymbolTableRecord
100
AcDbRegAppTableRecord
  2
GEVID1212642828
 70
     0
  0
APPID
  5
553
330
9
100
AcDbSymbolTableRecord
100
AcDbRegAppTableRecord
  2
GEVID1212642831
 70
     0
  0
APPID
  5
554
330
9
100
AcDbSymbolTableRecord
100
AcDbRegAppTableRecord
  2
GEVID1212642834
 70
     0
  0
APPID
  5
555
330
9
100
AcDbSymbolTableRecord
100
AcDbRegAppTableRecord
  2
GEVID1212642835
 70
     0
  0
APPID
  5
556
330
9
100
AcDbSymbolTableRecord
100
AcDbRegAppTableRecord
  2
GEVID1212642836
 70
     0
  0
APPID
  5
557
330
9
100
AcDbSymbolTableRecord
100
AcDbRegAppTableRecord
  2
GEVID1212642837
 70
     0
  0
APPID
  5
558
330
9
100
AcDbSymbolTableRecord
100
AcDbRegAppTableRecord
  2
GEVID1212642839
 70
     0
  0
APPID
  5
559
330
9
100
AcDbSymbolTableRecord
100
AcDbRegAppTableRecord
  2
GEVID1212642840
 70
     0
  0
APPID
  5
55A
330
9
100
AcDbSymbolTableRecord
100
AcDbRegAppTableRecord
  2
GEVID1212642841
 70
     0
  0
APPID
  5
55B
330
9
100
AcDbSymbolTableRecord
100
AcDbRegAppTableRecord
  2
GEVID1212655312
 70
     0
  0
APPID
  5
55C
330
9
100
AcDbSymbolTableRecord
100
AcDbRegAppTableRecord
  2
GEVID1212655313
 70
     0
  0
APPID
  5
55D
330
9
100
AcDbSymbolTableRecord
100
AcDbRegAppTableRecord
  2
GEVID1212656533
 70
     0
  0
APPID
  5
55E
330
9
100
AcDbSymbolTableRecord
100
AcDbRegAppTableRecord
  2
GEVID1212656534
 70
     0
  0
APPID
  5
55F
330
9
100
AcDbSymbolTableRecord
100
AcDbRegAppTableRecord
  2
GEVID1212656535
 70
     0
  0
APPID
  5
560
330
9
100
AcDbSymbolTableRecord
100
AcDbRegAppTableRecord
  2
GEVID1212656536
 70
     0
  0
APPID
  5
561
330
9
100
AcDbSymbolTableRecord
100
AcDbRegAppTableRecord
  2
GEVID1212656538
 70
     0
  0
APPID
  5
562
330
9
100
AcDbSymbolTableRecord
100
AcDbRegAppTableRecord
  2
GEVID1212656541
 70
     0
  0
APPID
  5
563
330
9
100
AcDbSymbolTableRecord
100
AcDbRegAppTableRecord
  2
GEVID1212656543
 70
     0
  0
APPID
  5
564
330
9
100
AcDbSymbolTableRecord
100
AcDbRegAppTableRecord
  2
GENIUS_GENOBJ-F-PFASSM_13
 70
     0
  0
APPID
  5
565
330
9
100
AcDbSymbolTableRecord
100
AcDbRegAppTableRecord
  2
GEVID1212656544
 70
     0
  0
APPID
  5
566
330
9
100
AcDbSymbolTableRecord
100
AcDbRegAppTableRecord
  2
GEVID1212656545
 70
     0
  0
APPID
  5
567
330
9
100
AcDbSymbolTableRecord
100
AcDbRegAppTableRecord
  2
GEVID1212656546
 70
     0
  0
APPID
  5
568
330
9
100
AcDbSymbolTableRecord
100
AcDbRegAppTableRecord
  2
GEVID1212656547
 70
     0
  0
APPID
  5
569
330
9
100
AcDbSymbolTableRecord
100
AcDbRegAppTableRecord
  2
GEVID1212656548
 70
     0
  0
APPID
  5
56A
330
9
100
AcDbSymbolTableRecord
100
AcDbRegAppTableRecord
  2
GEVID1212656549
 70
     0
  0
APPID
  5
56B
330
9
100
AcDbSymbolTableRecord
100
AcDbRegAppTableRecord
  2
GEVID1212656550
 70
     0
  0
APPID
  5
56C
330
9
100
AcDbSymbolTableRecord
100
AcDbRegAppTableRecord
  2
GEVID1212656552
 70
     0
  0
APPID
  5
56D
330
9
100
AcDbSymbolTableRecord
100
AcDbRegAppTableRecord
  2
GEVID1212656553
 70
     0
  0
APPID
  5
56E
330
9
100
AcDbSymbolTableRecord
100
AcDbRegAppTableRecord
  2
GEVID1212656554
 70
     0
  0
APPID
  5
56F
330
9
100
AcDbSymbolTableRecord
100
AcDbRegAppTableRecord
  2
GEVID1212656555
 70
     0
  0
APPID
  5
570
330
9
100
AcDbSymbolTableRecord
100
AcDbRegAppTableRecord
  2
GEVID1212656556
 70
     0
  0
APPID
  5
571
330
9
100
AcDbSymbolTableRecord
100
AcDbRegAppTableRecord
  2
GEVID1212656557
 70
     0
  0
APPID
  5
572
330
9
100
AcDbSymbolTableRecord
100
AcDbRegAppTableRecord
  2
GEVID1212656559
 70
     0
  0
APPID
  5
573
330
9
100
AcDbSymbolTableRecord
100
AcDbRegAppTableRecord
  2
GEVID1212656560
 70
     0
  0
APPID
  5
574
330
9
100
AcDbSymbolTableRecord
100
AcDbRegAppTableRecord
  2
GEVID1212656561
 70
     0
  0
APPID
  5
575
330
9
100
AcDbSymbolTableRecord
100
AcDbRegAppTableRecord
  2
GEVID1212656562
 70
     0
  0
APPID
  5
576
330
9
100
AcDbSymbolTableRecord
100
AcDbRegAppTableRecord
  2
GEVID1212656563
 70
     0
  0
APPID
  5
577
330
9
100
AcDbSymbolTableRecord
100
AcDbRegAppTableRecord
  2
GEVID1212711781
 70
     0
  0
APPID
  5
578
330
9
100
AcDbSymbolTableRecord
100
AcDbRegAppTableRecord
  2
GEVID1212711782
 70
     0
  0
APPID
  5
579
330
9
100
AcDbSymbolTableRecord
100
AcDbRegAppTableRecord
  2
GEVID1212711783
 70
     0
  0
APPID
  5
57A
330
9
100
AcDbSymbolTableRecord
100
AcDbRegAppTableRecord
  2
GEVID1212711784
 70
     0
  0
APPID
  5
57B
330
9
100
AcDbSymbolTableRecord
100
AcDbRegAppTableRecord
  2
GEVID1212711788
 70
     0
  0
APPID
  5
57C
330
9
100
AcDbSymbolTableRecord
100
AcDbRegAppTableRecord
  2
GEVID1212711789
 70
     0
  0
APPID
  5
57D
330
9
100
AcDbSymbolTableRecord
100
AcDbRegAppTableRecord
  2
GEVID1212711790
 70
     0
  0
APPID
  5
57E
330
9
100
AcDbSymbolTableRecord
100
AcDbRegAppTableRecord
  2
GEVID1212711791
 70
     0
  0
APPID
  5
57F
330
9
100
AcDbSymbolTableRecord
100
AcDbRegAppTableRecord
  2
GEVID1212711792
 70
     0
  0
APPID
  5
580
330
9
100
AcDbSymbolTableRecord
100
AcDbRegAppTableRecord
  2
GEVID1212711793
 70
     0
  0
APPID
  5
581
330
9
100
AcDbSymbolTableRecord
100
AcDbRegAppTableRecord
  2
GEVID1212711794
 70
     0
  0
APPID
  5
582
330
9
100
AcDbSymbolTableRecord
100
AcDbRegAppTableRecord
  2
GEVID1212711795
 70
     0
  0
APPID
  5
583
330
9
100
AcDbSymbolTableRecord
100
AcDbRegAppTableRecord
  2
GEVID1212711797
 70
     0
  0
APPID
  5
584
330
9
100
AcDbSymbolTableRecord
100
AcDbRegAppTableRecord
  2
GEVID1212711798
 70
     0
  0
APPID
  5
585
330
9
100
AcDbSymbolTableRecord
100
AcDbRegAppTableRecord
  2
GEVID1212711799
 70
     0
  0
APPID
  5
586
330
9
100
AcDbSymbolTableRecord
100
AcDbRegAppTableRecord
  2
GEVID1212711800
 70
     0
  0
APPID
  5
587
330
9
100
AcDbSymbolTableRecord
100
AcDbRegAppTableRecord
  2
GEVID1212711801
 70
     0
  0
APPID
  5
588
330
9
100
AcDbSymbolTableRecord
100
AcDbRegAppTableRecord
  2
GEVID1212711802
 70
     0
  0
APPID
  5
589
330
9
100
AcDbSymbolTableRecord
100
AcDbRegAppTableRecord
  2
GEVID1212711803
 70
     0
  0
APPID
  5
58A
330
9
100
AcDbSymbolTableRecord
100
AcDbRegAppTableRecord
  2
GEVID1212711804
 70
     0
  0
APPID
  5
58B
330
9
100
AcDbSymbolTableRecord
100
AcDbRegAppTableRecord
  2
GEVID1212711805
 70
     0
  0
APPID
  5
58C
330
9
100
AcDbSymbolTableRecord
100
AcDbRegAppTableRecord
  2
GEVID1212711806
 70
     0
  0
APPID
  5
58D
330
9
100
AcDbSymbolTableRecord
100
AcDbRegAppTableRecord
  2
GEVID1212711807
 70
     0
  0
APPID
  5
58E
330
9
100
AcDbSymbolTableRecord
100
AcDbRegAppTableRecord
  2
GEVID1212711808
 70
     0
  0
APPID
  5
58F
330
9
100
AcDbSymbolTableRecord
100
AcDbRegAppTableRecord
  2
GEVID1212711809
 70
     0
  0
APPID
  5
590
330
9
100
AcDbSymbolTableRecord
100
AcDbRegAppTableRecord
  2
GEVID1212711810
 70
     0
  0
APPID
  5
591
330
9
100
AcDbSymbolTableRecord
100
AcDbRegAppTableRecord
  2
GEVID1212711811
 70
     0
  0
APPID
  5
90A
330
9
100
AcDbSymbolTableRecord
100
AcDbRegAppTableRecord
  2
GENIUS_GENTRA_14
 70
     0
  0
APPID
  5
919
330
9
100
AcDbSymbolTableRecord
100
AcDbRegAppTableRecord
  2
GENIUS_GENOBJ-N-TIT_13
 70
     0
  0
APPID
  5
91A
330
9
100
AcDbSymbolTableRecord
100
AcDbRegAppTableRecord
  2
GENIUS_GENTITLE_13
 70
     0
  0
APPID
  5
949
330
9
100
AcDbSymbolTableRecord
100
AcDbRegAppTableRecord
  2
GENIUS_GENBLLY_14
 70
     0
  0
APPID
  5
DDD
330
9
100
AcDbSymbolTableRecord
100
AcDbRegAppTableRecord
  2
GEVID1213165152
 70
     0
  0
APPID
  5
12F9
330
9
100
AcDbSymbolTableRecord
100
AcDbRegAppTableRecord
  2
AcDbDynamicBlockTrueName
 70
     0
  0
APPID
  5
12FA
330
9
100
AcDbSymbolTableRecord
100
AcDbRegAppTableRecord
  2
ACDBBLOCKREPETAG
 70
     0
  0
APPID
  5
1C15
330
9
100
AcDbSymbolTableRecord
100
AcDbRegAppTableRecord
  2
GEVID1214872427
 70
     0
  0
APPID
  5
1C2A
330
9
100
AcDbSymbolTableRecord
100
AcDbRegAppTableRecord
  2
GEVID1214872428
 70
     0
  0
APPID
  5
1C2F
330
9
100
AcDbSymbolTableRecord
100
AcDbRegAppTableRecord
  2
GEVID1214872429
 70
     0
  0
APPID
  5
1C33
330
9
100
AcDbSymbolTableRecord
100
AcDbRegAppTableRecord
  2
GEVID1214872430
 70
     0
  0
APPID
  5
1C3F
330
9
100
AcDbSymbolTableRecord
100
AcDbRegAppTableRecord
  2
GEVID1214872432
 70
     0
  0
APPID
  5
1C4E
330
9
100
AcDbSymbolTableRecord
100
AcDbRegAppTableRecord
  2
GEVID1214872433
 70
     0
  0
APPID
  5
20DC
330
9
100
AcDbSymbolTableRecord
100
AcDbRegAppTableRecord
  2
AcDbDynamicBlockGUID
 70
     0
  0
APPID
  5
20FD
330
9
100
AcDbSymbolTableRecord
100
AcDbRegAppTableRecord
  2
GENIUS_GENOBJ-N-REV_13
 70
     0
  0
APPID
  5
20FE
330
9
100
AcDbSymbolTableRecord
100
AcDbRegAppTableRecord
  2
GENIUS_GENOBJ-N-RSSYM_13
 70
     0
  0
APPID
  5
20FF
330
9
100
AcDbSymbolTableRecord
100
AcDbRegAppTableRecord
  2
GENIUS_GENSYMENT_13
 70
     0
  0
APPID
  5
2100
330
9
100
AcDbSymbolTableRecord
100
AcDbRegAppTableRecord
  2
GENIUS_GENSCSYM_13
 70
     0
  0
APPID
  5
5147
330
9
100
AcDbSymbolTableRecord
100
AcDbRegAppTableRecord
  2
GEVID1240277461
 70
     0
  0
APPID
  5
514C
330
9
100
AcDbSymbolTableRecord
100
AcDbRegAppTableRecord
  2
GEVID1240277462
 70
     0
  0
APPID
  5
52A2
330
9
100
AcDbSymbolTableRecord
100
AcDbRegAppTableRecord
  2
GEVID1240277463
 70
     0
  0
APPID
  5
52A7
330
9
100
AcDbSymbolTableRecord
100
AcDbRegAppTableRecord
  2
GEVID1240277464
 70
     0
  0
ENDTAB
  0
TABLE
  2
DIMSTYLE
  5
A
330
0
100
AcDbSymbolTable
 70
    22
100
AcDbDimStyleTable
 71
     4
340
5AB
340
5B0
340
5B1
340
68
  0
DIMSTYLE
105
68
102
{ACAD_REACTORS
330
4B
102
}
330
A
100
AcDbSymbolTableRecord
100
AcDbDimStyleTableRecord
  2
AM_JIS
 70
     0
  4
"
 41
2.5
 42
1.0
 43
10.0
 44
1.0
 47
0.1
 48
0.1
 73
     0
 74
     0
 77
     3
 78
     8
 79
     2
 90
     1
140
3.5
141
0.0
143
0.0393701
146
0.71
147
1.5
172
     1
176
   256
177
   256
178
     2
271
     2
272
     3
274
     4
283
     0
284
     8
340
11
341
69
342
69
343
69
344
69
371
    -1
372
    -1
1001
ACAD_DSTYLE_DIMJOGGED_JOGANGLE_SYMBOL
1070
   384
1040
0.7853981633974483
  0
DIMSTYLE
105
6F
330
A
100
AcDbSymbolTableRecord
100
AcDbDimStyleTableRecord
  2
AM_JIS$3
 70
     0
  4
"
 41
2.5
 42
1.0
 43
10.0
 44
1.0
 47
0.1
 48
0.1
 73
     0
 77
     3
 78
     8
 79
     2
 90
     1
140
3.5
141
0.0
143
0.0393701
146
0.71
147
1.5
176
   256
177
   256
178
     2
271
     2
272
     3
274
     4
283
     0
284
     8
288
     1
289
     0
340
11
341
69
342
69
343
69
344
69
371
    -1
372
    -1
1001
ACAD_DSTYLE_DIMJOGGED_JOGANGLE_SYMBOL
1070
   384
1040
0.7853981633974483
  0
DIMSTYLE
105
70
330
A
100
AcDbSymbolTableRecord
100
AcDbDimStyleTableRecord
  2
AM_JIS$4
 70
     0
  4
"
 41
2.5
 42
1.0
 43
10.0
 44
1.0
 47
0.1
 48
0.1
 73
     0
 77
     3
 78
     8
 79
     2
 90
     1
140
3.5
141
0.0
143
0.0393701
146
0.71
147
1.5
176
   256
177
   256
178
     2
271
     2
272
     3
274
     4
283
     0
284
     8
288
     1
289
     0
340
11
341
69
342
69
343
69
344
69
371
    -1
372
    -1
1001
ACAD_DSTYLE_DIMJOGGED_JOGANGLE_SYMBOL
1070
   384
1040
0.7853981633974483
  0
DIMSTYLE
105
71
330
A
100
AcDbSymbolTableRecord
100
AcDbDimStyleTableRecord
  2
AM_JIS$6
 70
     0
  4
"
 41
2.5
 42
1.0
 43
10.0
 44
1.0
 47
0.1
 48
0.1
 73
     0
 74
     0
 78
     8
 79
     2
 90
     1
140
3.5
141
0.0
143
0.0393701
146
0.71
147
1.5
172
     1
176
   256
177
   256
178
     2
271
     2
272
     3
274
     4
283
     0
284
     8
340
11
341
69
342
69
343
69
344
69
371
    -1
372
    -1
1001
ACAD_DSTYLE_DIMJOGGED_JOGANGLE_SYMBOL
1070
   384
1040
0.7853981633974483
  0
DIMSTYLE
105
72
330
A
100
AcDbSymbolTableRecord
100
AcDbDimStyleTableRecord
  2
AM_JIS$7
 70
     0
  4
"
 41
2.5
 42
1.0
 43
10.0
 44
1.0
 47
0.1
 48
0.1
 73
     0
 74
     0
 77
     3
 78
     8
 79
     2
 90
     1
140
3.5
141
0.0
143
0.0393701
146
0.71
147
1.5
172
     1
176
   256
177
   256
178
     2
271
     2
272
     3
274
     4
283
     0
284
     8
340
11
341
69
342
69
343
69
344
69
371
    -1
372
    -1
1001
ACAD_DSTYLE_DIMJOGGED_JOGANGLE_SYMBOL
1070
   384
1040
0.7853981633974483
  0
DIMSTYLE
105
73
330
A
100
AcDbSymbolTableRecord
100
AcDbDimStyleTableRecord
  2
AM_JIS$SF
 70
     0
  4
"
 41
2.5
 42
1.0
 43
10.0
 44
1.0
 47
0.1
 48
0.1
 73
     0
 74
     0
 75
     1
 76
     1
 77
     3
 78
     8
 79
     2
 90
     1
140
3.5
141
0.0
143
0.0393701
146
0.71
147
1.5
172
     1
176
   256
177
   256
178
     2
271
     2
272
     3
274
     4
283
     0
284
     8
340
11
341
69
342
69
343
69
344
69
371
    -1
372
    -1
1001
ACAD_DSTYLE_DIMJOGGED_JOGANGLE_SYMBOL
1070
   384
1040
0.7853981633974483
  0
DIMSTYLE
105
78
330
A
100
AcDbSymbolTableRecord
100
AcDbDimStyleTableRecord
  2
AM_JIS$SH
 70
     0
  4
"
 41
2.5
 42
1.0
 43
10.0
 44
1.0
 47
0.1
 48
0.1
 73
     0
 74
     0
 75
     1
 76
     1
 77
     3
 78
     8
 79
     2
 90
     1
140
3.5
141
0.0
143
0.0393701
144
2.0
146
0.71
147
1.5
172
     1
173
     1
176
   256
177
   256
178
     2
271
     2
272
     3
274
     4
283
     0
284
     8
340
11
341
69
342
69
343
74
344
69
371
    -1
372
    -1
1001
ACAD_DSTYLE_DIMJOGGED_JOGANGLE_SYMBOL
1070
   384
1040
0.7853981633974483
  0
DIMSTYLE
105
5AB
102
{ACAD_REACTORS
330
594
102
}
330
A
100
AcDbSymbolTableRecord
100
AcDbDimStyleTableRecord
  2
SEISA
 70
     0
  4
"
 40
8.0
 41
2.5
 42
0.625
 43
10.0
 44
0.625
 47
0.1
 48
0.1
 73
     0
 74
     0
 77
     3
 78
     8
 79
     2
 90
     1
140
3.5
141
0.0
143
0.0393701
146
0.71
147
1.5
172
     1
176
     3
177
     3
178
     3
271
     2
272
     2
283
     0
286
     8
340
5D5
341
69
342
69
371
    -1
372
    -1
1001
ACAD_DSTYLE_DIMJAG
1070
   388
1040
1.5
1001
ACAD_DSTYLE_DIMTALN
1070
   392
1070
     1
  0
DIMSTYLE
105
5AC
330
A
100
AcDbSymbolTableRecord
100
AcDbDimStyleTableRecord
  2
SEISA$3
 70
     0
  4
"
 40
8.0
 41
2.5
 42
1.0
 43
10.0
 44
1.0
 47
0.1
 48
0.1
 73
     0
 74
     0
 77
     3
 78
     8
 79
     2
 90
     1
140
3.5
141
0.0
143
0.0393701
146
0.71
147
1.5
172
     1
176
     3
177
     3
178
     3
271
     2
272
     2
283
     0
286
     8
288
     1
289
     0
340
5D5
341
69
342
69
371
    -1
372
    -1
  0
DIMSTYLE
105
5AD
330
A
100
AcDbSymbolTableRecord
100
AcDbDimStyleTableRecord
  2
SEISA$4
 70
     0
  4
"
 40
8.0
 41
2.5
 42
1.0
 43
10.0
 44
1.0
 47
0.1
 48
0.1
 73
     0
 74
     0
 77
     3
 78
     8
 79
     2
 90
     1
140
3.5
141
0.0
143
0.0393701
146
0.71
147
1.5
176
     3
177
     3
178
     3
271
     2
272
     2
281
     1
283
     0
286
     8
288
     1
340
5D5
341
69
342
69
371
    -1
372
    -1
1001
ACAD_DSTYLE_DIMJAG
1070
   388
1040
1.5
1001
ACAD_DSTYLE_DIMTALN
1070
   392
1070
     0
  0
DIMSTYLE
105
5AE
330
A
100
AcDbSymbolTableRecord
100
AcDbDimStyleTableRecord
  2
SEISA$6
 70
     0
  4
"
 40
8.0
 41
2.5
 42
1.0
 43
10.0
 44
1.0
 47
0.1
 48
0.1
 73
     0
 74
     0
 78
     8
 79
     2
 90
     1
140
3.5
141
0.0
143
0.0393701
146
0.71
147
1.5
172
     1
176
   256
177
   256
178
     3
271
     2
272
     2
274
     4
283
     0
286
     8
340
5D5
341
69
342
69
343
69
344
69
371
    -1
372
    -1
  0
DIMSTYLE
105
5AF
330
A
100
AcDbSymbolTableRecord
100
AcDbDimStyleTableRecord
  2
SEISA$7
 70
     0
  4
"
 40
8.0
 41
2.5
 42
1.0
 43
10.0
 44
1.0
 47
0.1
 48
0.1
 73
     0
 74
     0
 77
     3
 78
     8
 79
     2
 90
     1
140
3.5
141
0.0
143
0.0393701
146
0.71
147
1.5
172
     1
176
     3
177
     3
178
     3
271
     2
272
     2
283
     0
286
     8
340
5D5
341
69
342
69
371
    -1
372
    -1
  0
DIMSTYLE
105
5B0
330
A
100
AcDbSymbolTableRecord
100
AcDbDimStyleTableRecord
  2
SEISA$SF
 70
     0
  4
"
 40
8.0
 41
2.5
 42
1.0
 43
10.0
 44
1.0
 47
0.1
 48
0.1
 73
     0
 74
     0
 75
     1
 76
     1
 77
     3
 78
     8
 79
     2
 90
     1
140
3.5
141
0.0
143
0.0393701
146
0.71
147
1.5
172
     1
176
     3
177
   256
178
     2
271
     2
272
     2
283
     0
284
     8
340
5D5
341
69
342
69
371
    -1
372
    -1
  0
DIMSTYLE
105
5B1
330
A
100
AcDbSymbolTableRecord
100
AcDbDimStyleTableRecord
  2
SEISA$SH
 70
     0
  4
"
 40
8.0
 41
2.5
 42
1.0
 43
10.0
 44
1.0
 47
0.1
 48
0.1
 73
     0
 74
     0
 75
     1
 76
     1
 77
     3
 78
     8
 79
     2
 90
     1
140
3.5
141
0.0
143
0.0393701
144
2.0
146
0.71
147
1.5
172
     1
176
     3
177
   256
178
     2
271
     2
272
     2
281
     1
283
     0
284
     8
340
5D5
341
69
342
69
343
74
344
69
371
    -1
372
    -1
  0
DIMSTYLE
105
5E8
102
{ACAD_REACTORS
330
594
102
}
330
A
100
AcDbSymbolTableRecord
100
AcDbDimStyleTableRecord
  2
SEISA$2
 70
     0
  4
"
 40
8.0
 41
2.5
 42
0.625
 43
10.0
 44
0.625
 47
0.1
 48
0.1
 73
     0
 74
     0
 77
     3
 78
     8
 79
     2
 90
     1
140
3.5
141
0.0
143
0.0393701
146
0.71
147
1.5
172
     1
176
     3
177
     3
178
     3
271
     2
272
     2
283
     0
286
     8
340
5D5
341
69
342
69
371
    -1
372
    -1
  0
DIMSTYLE
105
5E9
102
{ACAD_REACTORS
330
594
330
544D
330
5478
330
5490
330
54C2
330
5508
330
5551
330
556D
330
5589
330
55B9
330
55D1
330
55F1
330
5856
330
586E
330
5886
330
69CC
330
6A93
330
6AC5
102
}
330
A
100
AcDbSymbolTableRecord
100
AcDbDimStyleTableRecord
  2
SEISA$0
 70
     0
  4
"
 40
8.0
 41
2.5
 42
0.625
 43
10.0
 44
0.625
 47
0.1
 48
0.1
 73
     0
 74
     0
 77
     3
 78
     8
 79
     2
 90
     1
140
3.5
141
0.0
143
0.0393701
146
0.71
147
1.5
172
     1
176
     3
177
     3
178
     3
271
     2
272
     2
283
     0
286
     8
340
5D5
341
69
342
69
371
    -1
372
    -1
  0
DIMSTYLE
105
2DE2
330
A
100
AcDbSymbolTableRecord
100
AcDbDimStyleTableRecord
  2
AM_ANSI
 70
     0
  4
mm
 41
0.1
 42
0.05
 43
0.5
 44
0.1
 47
0.1
 48
0.1
 78
     7
 79
     2
 90
     1
140
0.12
141
0.0
146
0.71
147
0.06
176
   256
177
   256
178
     2
274
     4
284
     7
340
11
371
    -1
372
    -1
  0
DIMSTYLE
105
2DE3
330
A
100
AcDbSymbolTableRecord
100
AcDbDimStyleTableRecord
  2
AM_ANSI$3
 70
     0
  4
mm
 41
0.1
 42
0.05
 43
0.5
 44
0.1
 47
0.1
 48
0.1
 78
     7
 79
     2
 90
     1
140
0.12
141
0.0
146
0.71
147
0.06
176
   256
177
   256
178
     2
274
     4
284
     7
288
     1
289
     0
340
11
371
    -1
372
    -1
  0
DIMSTYLE
105
2DE4
330
A
100
AcDbSymbolTableRecord
100
AcDbDimStyleTableRecord
  2
AM_ANSI$4
 70
     0
  4
mm
 41
0.1
 42
0.05
 43
0.5
 44
0.1
 47
0.1
 48
0.1
 78
     7
 79
     2
 90
     1
140
0.12
141
0.0
146
0.71
147
0.06
176
   256
177
   256
178
     2
274
     4
284
     7
288
     1
289
     0
340
11
371
    -1
372
    -1
  0
DIMSTYLE
105
2DE5
330
A
100
AcDbSymbolTableRecord
100
AcDbDimStyleTableRecord
  2
AM_ANSI$7
 70
     0
  4
mm
 41
0.1
 42
0.05
 43
0.5
 44
0.1
 47
0.1
 48
0.1
 78
     7
 79
     2
 90
     1
140
0.24
141
0.0
146
0.71
147
0.06
176
   256
177
   256
178
     2
274
     4
284
     7
340
11
371
    -1
372
    -1
  0
DIMSTYLE
105
2DE6
330
A
100
AcDbSymbolTableRecord
100
AcDbDimStyleTableRecord
  2
AM_ANSI$SF
 70
     0
  4
mm
 41
0.1
 42
0.05
 43
0.5
 44
0.1
 47
0.1
 48
0.1
 75
     1
 76
     1
 78
     7
 79
     2
 90
     1
140
0.12
141
0.0
146
0.71
147
0.06
176
   256
177
   256
178
     2
274
     4
284
     7
340
11
371
    -1
372
    -1
  0
DIMSTYLE
105
2DE7
330
A
100
AcDbSymbolTableRecord
100
AcDbDimStyleTableRecord
  2
AM_ANSI$SH
 70
     0
  4
mm
 41
0.1
 42
0.05
 43
0.5
 44
0.1
 47
0.1
 48
0.1
 75
     1
 76
     1
 78
     7
 79
     2
 90
     1
140
0.12
141
0.0
146
0.71
147
0.06
173
     1
176
   256
177
   256
178
     2
274
     4
284
     7
340
11
343
74
371
    -1
372
    -1
  0
ENDTAB
  0
TABLE
  2
BLOCK_RECORD
  5
1
330
0
100
AcDbSymbolTable
 70
    33
  0
BLOCK_RECORD
  5
1F
102
{ACAD_XDICTIONARY
360
82
102
}
330
1
100
AcDbSymbolTableRecord
100
AcDbBlockTableRecord
  2
*Model_Space
340
22
 70
     0
280
     1
281
     0
  0
BLOCK_RECORD
  5
1B
330
1
100
AcDbSymbolTableRecord
100
AcDbBlockTableRecord
  2
*Paper_Space
340
1E
 70
     0
280
     1
281
     0
  0
BLOCK_RECORD
  5
23
330
1
100
AcDbSymbolTableRecord
100
AcDbBlockTableRecord
  2
*Paper_Space0
340
26
 70
     0
280
     1
281
     0
  0
BLOCK_RECORD
  5
69
330
1
100
AcDbSymbolTableRecord
100
AcDbBlockTableRecord
  2
_Open30
340
0
102
{BLKREFS
331
6736
331
6737
331
6755
331
6771
331
6772
331
677A
331
677B
331
67A7
331
67A8
331
67B0
331
67B1
331
67B9
331
67BA
331
689B
331
689C
331
68A4
331
68A5
331
68B0
331
68B8
331
68B9
331
68C1
331
68C2
331
69F0
331
69F1
331
6BDE
331
6CA4
331
6CB8
331
6CB9
102
}
 70
     0
280
     1
281
     0
  0
BLOCK_RECORD
  5
74
330
1
100
AcDbSymbolTableRecord
100
AcDbBlockTableRecord
  2
GENAXEH
340
0
 70
     0
280
     1
281
     0
  0
BLOCK_RECORD
  5
23C7
102
{ACAD_XDICTIONARY
360
23C8
102
}
330
1
100
AcDbSymbolTableRecord
100
AcDbBlockTableRecord
  2
seisaPartsList0
340
0
310
2800000020000000200000000100080000000000000400000000000000000000000000000000000000000000000080000080000000808000800000008000800080800000C0C0C000C0DCC000F0CAA6000020400000206000002080000020A0000020C0000020E00000400000004020000040400000406000004080000040A0
310
000040C0000040E00000600000006020000060400000606000006080000060A0000060C0000060E00000800000008020000080400000806000008080000080A0000080C0000080E00000A0000000A0200000A0400000A0600000A0800000A0A00000A0C00000A0E00000C0000000C0200000C0400000C0600000C0800000C0
310
A00000C0C00000C0E00000E0000000E0200000E0400000E0600000E0800000E0A00000E0C00000E0E00040000000400020004000400040006000400080004000A0004000C0004000E00040200000402020004020400040206000402080004020A0004020C0004020E000404000004040200040404000404060004040800040
310
40A0004040C0004040E00040600000406020004060400040606000406080004060A0004060C0004060E00040800000408020004080400040806000408080004080A0004080C0004080E00040A0000040A0200040A0400040A0600040A0800040A0A00040A0C00040A0E00040C0000040C0200040C0400040C0600040C08000
310
40C0A00040C0C00040C0E00040E0000040E0200040E0400040E0600040E0800040E0A00040E0C00040E0E00080000000800020008000400080006000800080008000A0008000C0008000E00080200000802020008020400080206000802080008020A0008020C0008020E00080400000804020008040400080406000804080
310
008040A0008040C0008040E00080600000806020008060400080606000806080008060A0008060C0008060E00080800000808020008080400080806000808080008080A0008080C0008080E00080A0000080A0200080A0400080A0600080A0800080A0A00080A0C00080A0E00080C0000080C0200080C0400080C0600080C0
310
800080C0A00080C0C00080C0E00080E0000080E0200080E0400080E0600080E0800080E0A00080E0C00080E0E000C0000000C0002000C0004000C0006000C0008000C000A000C000C000C000E000C0200000C0202000C0204000C0206000C0208000C020A000C020C000C020E000C0400000C0402000C0404000C0406000C0
310
408000C040A000C040C000C040E000C0600000C0602000C0604000C0606000C0608000C060A000C060C000C060E000C0800000C0802000C0804000C0806000C0808000C080A000C080C000C080E000C0A00000C0A02000C0A04000C0A06000C0A08000C0A0A000C0A0C000C0A0E000C0C00000C0C02000C0C04000C0C06000
310
C0C08000C0C0A000F0FBFF00A4A0A000808080000000FF0000FF000000FFFF00FF000000FF00FF00FFFF0000FFFFFF0000000000000000000000000000000000000000000000000000000000000000000000000000000000000000000000000000000000000000000000000000000000000000000000000000000000000000
310
00000000000000000000000000000000000000000000000000000000000000000000000000000000000000000000000000000000000000000000000000000000000000000000000000000000000000000000000000000000000000000000000000000000000000000000000000000000000000000000000000000000000000
310
00000000000000000000000000000000000000000000000000000000000000000000000000000000000000000000000000000000000000000000000000000000000000000000000000000000000000000000000000000000000000000000000000000000000000000000000000000000000000000000000000000000000000
310
00000000000000000000000000000000000000000000000000000000000000000000000000000000000000000000000000000000000000000000000000000000000000000000000000000000000000000000000000000000000000000000000000000000000000000000000000000000000000000000000000000000000000
310
000000000000000000000000000000000000000000FBFBFBFBFBFBFBFBFBFBFBFBFBFBFBFBFBFBFBFBFBFBFBFBFBFBFBFBFBFB0000FBFBFBFBFBFBFBFBFBFBFBFBFBFBFBFBFBFBFBFBFBFBFBFBFBFBFBFBFBFB0000000000000000000000000000000000000000000000000000000000000000000000000000000000000000
310
00000000000000000000000000000000000000000000000000000000000000000000000000000000000000000000000000000000000000000000000000000000000000000000000000000000000000000000000000000000000000000000000000000000000000000000000000000000000000000000000000000000000000
310
00000000000000000000000000000000000000000000000000000000000000000000000000000000000000000000000000000000000000000000000000000000000000000000000000000000000000000000000000000000000000000000000000000000000000000000000000000000000000000000000000000000000000
310
00000000000000000000000000000000000000000000000000000000000000000000000000000000000000000000000000000000000000000000000000000000000000000000000000000000000000000000000000000000000000000000000000000000000000000000000000000000000000000000000000000000000000
310
0000000000000000000000000000000000000000000000000000000000000000000000000000000000000000000000000000000000000000
102
{BLKREFS
331
2412
102
}
 70
     4
280
     1
281
     1
  0
BLOCK_RECORD
  5
23F0
102
{ACAD_XDICTIONARY
360
23F1
102
}
330
1
100
AcDbSymbolTableRecord
100
AcDbBlockTableRecord
  2
seisaPartsList1
340
0
310
2800000020000000200000000100080000000000000400000000000000000000000000000000000000000000000080000080000000808000800000008000800080800000C0C0C000C0DCC000F0CAA6000020400000206000002080000020A0000020C0000020E00000400000004020000040400000406000004080000040A0
310
000040C0000040E00000600000006020000060400000606000006080000060A0000060C0000060E00000800000008020000080400000806000008080000080A0000080C0000080E00000A0000000A0200000A0400000A0600000A0800000A0A00000A0C00000A0E00000C0000000C0200000C0400000C0600000C0800000C0
310
A00000C0C00000C0E00000E0000000E0200000E0400000E0600000E0800000E0A00000E0C00000E0E00040000000400020004000400040006000400080004000A0004000C0004000E00040200000402020004020400040206000402080004020A0004020C0004020E000404000004040200040404000404060004040800040
310
40A0004040C0004040E00040600000406020004060400040606000406080004060A0004060C0004060E00040800000408020004080400040806000408080004080A0004080C0004080E00040A0000040A0200040A0400040A0600040A0800040A0A00040A0C00040A0E00040C0000040C0200040C0400040C0600040C08000
310
40C0A00040C0C00040C0E00040E0000040E0200040E0400040E0600040E0800040E0A00040E0C00040E0E00080000000800020008000400080006000800080008000A0008000C0008000E00080200000802020008020400080206000802080008020A0008020C0008020E00080400000804020008040400080406000804080
310
008040A0008040C0008040E00080600000806020008060400080606000806080008060A0008060C0008060E00080800000808020008080400080806000808080008080A0008080C0008080E00080A0000080A0200080A0400080A0600080A0800080A0A00080A0C00080A0E00080C0000080C0200080C0400080C0600080C0
310
800080C0A00080C0C00080C0E00080E0000080E0200080E0400080E0600080E0800080E0A00080E0C00080E0E000C0000000C0002000C0004000C0006000C0008000C000A000C000C000C000E000C0200000C0202000C0204000C0206000C0208000C020A000C020C000C020E000C0400000C0402000C0404000C0406000C0
310
408000C040A000C040C000C040E000C0600000C0602000C0604000C0606000C0608000C060A000C060C000C060E000C0800000C0802000C0804000C0806000C0808000C080A000C080C000C080E000C0A00000C0A02000C0A04000C0A06000C0A08000C0A0A000C0A0C000C0A0E000C0C00000C0C02000C0C04000C0C06000
310
C0C08000C0C0A000F0FBFF00A4A0A000808080000000FF0000FF000000FFFF00FF000000FF00FF00FFFF0000FFFFFF0000000000000000000000000000000000000000000000000000000000000000000000000000000000000000000000000000000000000000000000000000000000000000000000000000000000000000
310
00000000000000000000000000000000000000000000000000000000000000000000000000000000000000000000000000000000000000000000000000000000000000000000000000000000000000000000000000000000000000000000000000000000000000000000000000000000000000000000000000000000000000
310
00000000000000000000000000000000000000000000000000000000000000000000000000000000000000000000000000000000000000000000000000000000000000000000000000000000000000000000000000000000000000000000000000000000000000000000000000000000000000000000000000000000000000
310
00000000000000000000000000000000000000000000000000000000000000000000000000000000000000000000000000000000000000000000000000000000000000000000000000000000000000000000000000000000000000000000000000000000000000000000000000000000000000000000000000000000000000
310
000000000000000000000000000000000000000000FBFBFBFBFBFBFBFBFBFBFBFBFBFBFBFBFBFBFBFBFBFBFBFBFBFBFBFBFBFB0000FBFBFBFBFBFBFBFBFBFBFBFBFBFBFBFBFBFBFBFBFBFBFBFBFBFBFBFBFBFB0000000000000000000000000000000000000000000000000000000000000000000000000000000000000000
310
00000000000000000000000000000000000000000000000000000000000000000000000000000000000000000000000000000000000000000000000000000000000000000000000000000000000000000000000000000000000000000000000000000000000000000000000000000000000000000000000000000000000000
310
00000000000000000000000000000000000000000000000000000000000000000000000000000000000000000000000000000000000000000000000000000000000000000000000000000000000000000000000000000000000000000000000000000000000000000000000000000000000000000000000000000000000000
310
00000000000000000000000000000000000000000000000000000000000000000000000000000000000000000000000000000000000000000000000000000000000000000000000000000000000000000000000000000000000000000000000000000000000000000000000000000000000000000000000000000000000000
310
0000000000000000000000000000000000000000000000000000000000000000000000000000000000000000000000000000000000000000
102
{BLKREFS
331
2413
102
}
 70
     4
280
     1
281
     1
  0
BLOCK_RECORD
  5
2411
102
{ACAD_XDICTIONARY
360
241E
102
}
330
1
100
AcDbSymbolTableRecord
100
AcDbBlockTableRecord
  2
seisaPartsList
340
0
 70
     0
280
     1
281
     0
  0
BLOCK_RECORD
  5
3714
102
{ACAD_XDICTIONARY
360
3715
102
}
330
1
100
AcDbSymbolTableRecord
100
AcDbBlockTableRecord
  2
ロッカクアナツキプラグ R1／2
340
0
310
2800000020000000200000000100080000000000000400000000000000000000000000000000000000000000000080000080000000808000800000008000800080800000C0C0C000C0DCC000F0CAA6000020400000206000002080000020A0000020C0000020E00000400000004020000040400000406000004080000040A0
310
000040C0000040E00000600000006020000060400000606000006080000060A0000060C0000060E00000800000008020000080400000806000008080000080A0000080C0000080E00000A0000000A0200000A0400000A0600000A0800000A0A00000A0C00000A0E00000C0000000C0200000C0400000C0600000C0800000C0
310
A00000C0C00000C0E00000E0000000E0200000E0400000E0600000E0800000E0A00000E0C00000E0E00040000000400020004000400040006000400080004000A0004000C0004000E00040200000402020004020400040206000402080004020A0004020C0004020E000404000004040200040404000404060004040800040
310
40A0004040C0004040E00040600000406020004060400040606000406080004060A0004060C0004060E00040800000408020004080400040806000408080004080A0004080C0004080E00040A0000040A0200040A0400040A0600040A0800040A0A00040A0C00040A0E00040C0000040C0200040C0400040C0600040C08000
310
40C0A00040C0C00040C0E00040E0000040E0200040E0400040E0600040E0800040E0A00040E0C00040E0E00080000000800020008000400080006000800080008000A0008000C0008000E00080200000802020008020400080206000802080008020A0008020C0008020E00080400000804020008040400080406000804080
310
008040A0008040C0008040E00080600000806020008060400080606000806080008060A0008060C0008060E00080800000808020008080400080806000808080008080A0008080C0008080E00080A0000080A0200080A0400080A0600080A0800080A0A00080A0C00080A0E00080C0000080C0200080C0400080C0600080C0
310
800080C0A00080C0C00080C0E00080E0000080E0200080E0400080E0600080E0800080E0A00080E0C00080E0E000C0000000C0002000C0004000C0006000C0008000C000A000C000C000C000E000C0200000C0202000C0204000C0206000C0208000C020A000C020C000C020E000C0400000C0402000C0404000C0406000C0
310
408000C040A000C040C000C040E000C0600000C0602000C0604000C0606000C0608000C060A000C060C000C060E000C0800000C0802000C0804000C0806000C0808000C080A000C080C000C080E000C0A00000C0A02000C0A04000C0A06000C0A08000C0A0A000C0A0C000C0A0E000C0C00000C0C02000C0C04000C0C06000
310
C0C08000C0C0A000F0FBFF00A4A0A000808080000000FF0000FF000000FFFF00FF000000FF00FF00FFFF0000FFFFFF0000000000000000000000000000000000000000000000000000000000000000000000000000000000000000000000000000000000000000000000000000000000000000000000000000000000000000
310
00F900000000000000000000000000000000000000000000000000000000000000F900000000000000000000000000000000000000000000000000000000000000F900000000000000000000000000000000000000000000000000000000000000F90000000000000000000000000000000000000000000000000000000000
310
0000F9000000000000000000000000000000000000000000FFFFFFFFFFFFFFFFFFFFFFFFFFFFFFFFFFFFFFFF00000000000000000000FFFF00000000000000000000F9000000000000000000FFFF000000000000FFFFFFFFFFFFFFFFFFFFFFFFFFFFFFFFFFFFFFFFFFFFFFFFFFFFFFFF00000000FF00FE0000000000000000
310
000000F900000000000000000000FE00FF00000000FF00FE0000000000000000000000F900000000000000000000FE00FF00000000FF00FE0000000000000000000000F900000000000000000000FE00FF00000000FF00FE0000000000000000000000F900000000000000000000FE00FF00000000FF00FE00000000000000
310
00000000F900000000000000000000FE00FF00000000FF00FE0000000000000000000000F900000000000000000000FE00FF00000000FF00FE0000000000000000000000F900000000000000000000FE00FF000000FF00FE000000000000000000000000F900000000000000000000FE0000FF0000FF00FE00000000000000
310
0000000000F90000000000000000000000FE00FF0000FF00FE000000000000000000000000F90000000000000000000000FE00FF0000FF00FE000000000000000000000000F90000000000000000000000FE00FF0000FF00FE000000000000000000000000F90000000000000000000000FE00FF0000FF00FE000000000000
310
000000000000F90000000000000000000000FE00FF0000FF00FE000000000000000000000000F90000000000000000000000FE00FF0000FFFFFFFFFFFFFFFFFFFFFFFFFFFFFFFFFFFFFFFFFFFFFFFFFFFFFFFFFFFF000000FFFE000000000000000000000000F90000000000000000000000FEFF0000000000FF0000000000
310
00000000000000F90000000000000000000000FF00000000000000000000000000000000000000F900000000000000000000000000000000000000000000000000000000000000F900000000000000000000000000000000000000000000000000000000000000F90000000000000000000000000000000000000000000000
310
0000000000000000000000000000000000000000000000000000000000000000000000000000000000000000000000000000000000000000
102
{BLKREFS
331
4A6A
102
}
 70
     4
280
     1
281
     0
  0
BLOCK_RECORD
  5
39A7
330
1
100
AcDbSymbolTableRecord
100
AcDbBlockTableRecord
  2
GENDOT
340
0
102
{BLKREFS
331
6754
331
68AF
102
}
 70
     0
280
     1
281
     0
  0
BLOCK_RECORD
  5
4A2D
102
{ACAD_XDICTIONARY
360
4AF5
102
}
330
1
100
AcDbSymbolTableRecord
100
AcDbBlockTableRecord
  2
ケースＡ CEMH500
340
0
310
2800000020000000200000000100080000000000000400000000000000000000000000000000000000000000000080000080000000808000800000008000800080800000C0C0C000C0DCC000F0CAA6000020400000206000002080000020A0000020C0000020E00000400000004020000040400000406000004080000040A0
310
000040C0000040E00000600000006020000060400000606000006080000060A0000060C0000060E00000800000008020000080400000806000008080000080A0000080C0000080E00000A0000000A0200000A0400000A0600000A0800000A0A00000A0C00000A0E00000C0000000C0200000C0400000C0600000C0800000C0
310
A00000C0C00000C0E00000E0000000E0200000E0400000E0600000E0800000E0A00000E0C00000E0E00040000000400020004000400040006000400080004000A0004000C0004000E00040200000402020004020400040206000402080004020A0004020C0004020E000404000004040200040404000404060004040800040
310
40A0004040C0004040E00040600000406020004060400040606000406080004060A0004060C0004060E00040800000408020004080400040806000408080004080A0004080C0004080E00040A0000040A0200040A0400040A0600040A0800040A0A00040A0C00040A0E00040C0000040C0200040C0400040C0600040C08000
310
40C0A00040C0C00040C0E00040E0000040E0200040E0400040E0600040E0800040E0A00040E0C00040E0E00080000000800020008000400080006000800080008000A0008000C0008000E00080200000802020008020400080206000802080008020A0008020C0008020E00080400000804020008040400080406000804080
310
008040A0008040C0008040E00080600000806020008060400080606000806080008060A0008060C0008060E00080800000808020008080400080806000808080008080A0008080C0008080E00080A0000080A0200080A0400080A0600080A0800080A0A00080A0C00080A0E00080C0000080C0200080C0400080C0600080C0
310
800080C0A00080C0C00080C0E00080E0000080E0200080E0400080E0600080E0800080E0A00080E0C00080E0E000C0000000C0002000C0004000C0006000C0008000C000A000C000C000C000E000C0200000C0202000C0204000C0206000C0208000C020A000C020C000C020E000C0400000C0402000C0404000C0406000C0
310
408000C040A000C040C000C040E000C0600000C0602000C0604000C0606000C0608000C060A000C060C000C060E000C0800000C0802000C0804000C0806000C0808000C080A000C080C000C080E000C0A00000C0A02000C0A04000C0A06000C0A08000C0A0A000C0A0C000C0A0E000C0C00000C0C02000C0C04000C0C06000
310
C0C08000C0C0A000F0FBFF00A4A0A000808080000000FF0000FF000000FFFF00FF000000FF00FF00FFFF0000FFFFFF000000000000000000000000000000000000000000000000000000000000000000000000000000000000000000FFFFFF0000000000000000000000000000000000000000000000000000000000FF00FF
310
0000000000000000000000000000000000000000000000000000000000FF00FF0000000000000000000000000000000000000000000000000000000000FF00FFFFFFFFFFFFFFFF00000000000000000000000000000000000000000000FF00FF00000000FFFFFF00000000000000000000000000000000000000000000FF00
310
FF00000000FFFFFF00000000000000000000000000000000000000000000FF00FF00000000FFFFFF00000000000000000000000000000000000000000000FF00FF00000000FFFFFF00000000000000000000000000000000000000000000FF00FF00000000FFFFFF00000000000000000000000000000000000000000000FF
310
00FF00000000FFFFFF00000000000000000000000000000000000000000000FF00FF00000000FFFFFF00000000000000000000000000000000000000000000FF00FF00000000FFFFFF00000000000000000000000000000000000000000000FF00FF00000000FFFFFF00000000000000000000000000000000000000000000
310
FF00FF00000000FFFFFF00000000000000000000000000000000000000000000FF00FF00000000FFFFFF00000000000000000000000000000000000000000000FF00FF00000000FFFFFF0000000000000000000000000000000000000000000000000000000000000000000000000000000000000000000000000000000000
310
00000000000000000000000000000000000000000000000000000000000000000000000000000000000000000000000000000000000000000000000000000000000000000000000000000000000000000000000000000000000000000000000000000000000000000000000000000000000000000000000000000000000000
310
000000000000000000000000000000000000000000000000000000000000000000000000000000000000000000000000000000000000000000000000000000000000000000000000000000000000000000000000000000000000000000000000000000000000FFFFA4A4FFFF00000000000000000000000000000000000000
310
000000FFFFFFFFFFF9F9F9F9FF00000000000000000000000000000000000000000000FFFFFFFFFFFFFFFFFFFFFF000000000000000000000000000000000000000000FF00FF0000000000000000000000000000000000000000000000000000F9F9F9FFF9FFF9000000000000000000000000000000000000000000000000
310
00000000FFFFFF00000000000000000000000000000000000000000000000000000000000000000000000000000000000000000000000000
102
{BLKREFS
331
4A6B
102
}
 70
     4
280
     1
281
     0
  0
BLOCK_RECORD
  5
4C3F
102
{ACAD_XDICTIONARY
360
4CBB
102
}
330
1
100
AcDbSymbolTableRecord
100
AcDbBlockTableRecord
  2
センタ CEMH500
340
0
310
2800000020000000200000000100080000000000000400000000000000000000000000000000000000000000000080000080000000808000800000008000800080800000C0C0C000C0DCC000F0CAA6000020400000206000002080000020A0000020C0000020E00000400000004020000040400000406000004080000040A0
310
000040C0000040E00000600000006020000060400000606000006080000060A0000060C0000060E00000800000008020000080400000806000008080000080A0000080C0000080E00000A0000000A0200000A0400000A0600000A0800000A0A00000A0C00000A0E00000C0000000C0200000C0400000C0600000C0800000C0
310
A00000C0C00000C0E00000E0000000E0200000E0400000E0600000E0800000E0A00000E0C00000E0E00040000000400020004000400040006000400080004000A0004000C0004000E00040200000402020004020400040206000402080004020A0004020C0004020E000404000004040200040404000404060004040800040
310
40A0004040C0004040E00040600000406020004060400040606000406080004060A0004060C0004060E00040800000408020004080400040806000408080004080A0004080C0004080E00040A0000040A0200040A0400040A0600040A0800040A0A00040A0C00040A0E00040C0000040C0200040C0400040C0600040C08000
310
40C0A00040C0C00040C0E00040E0000040E0200040E0400040E0600040E0800040E0A00040E0C00040E0E00080000000800020008000400080006000800080008000A0008000C0008000E00080200000802020008020400080206000802080008020A0008020C0008020E00080400000804020008040400080406000804080
310
008040A0008040C0008040E00080600000806020008060400080606000806080008060A0008060C0008060E00080800000808020008080400080806000808080008080A0008080C0008080E00080A0000080A0200080A0400080A0600080A0800080A0A00080A0C00080A0E00080C0000080C0200080C0400080C0600080C0
310
800080C0A00080C0C00080C0E00080E0000080E0200080E0400080E0600080E0800080E0A00080E0C00080E0E000C0000000C0002000C0004000C0006000C0008000C000A000C000C000C000E000C0200000C0202000C0204000C0206000C0208000C020A000C020C000C020E000C0400000C0402000C0404000C0406000C0
310
408000C040A000C040C000C040E000C0600000C0602000C0604000C0606000C0608000C060A000C060C000C060E000C0800000C0802000C0804000C0806000C0808000C080A000C080C000C080E000C0A00000C0A02000C0A04000C0A06000C0A08000C0A0A000C0A0C000C0A0E000C0C00000C0C02000C0C04000C0C06000
310
C0C08000C0C0A000F0FBFF00A4A0A000808080000000FF0000FF000000FFFF00FF000000FF00FF00FFFF0000FFFFFF00000000000000000000000000000000000000000000000000000000000000000000000000000000000000000000000000000000FFFFFFFFFFFF00000000000000000000000000000000000000000000
310
0000000000FFFF000000FF0000000000000000000000000000000000000000000000000000FFFF000000FF0000000000000000000000000000000000000000000000000000FFFF000000FF0000000000000000000000000000000000000000000000000000FFFF000000FF0000000000000000000000000000000000000000
310
000000000000FFFF000000FF0000000000000000000000000000000000000000000000000000FFFF000000FF0000000000000000000000000000000000000000000000000000FFFF000000FF0000000000000000000000000000000000000000000000000000FFFF000000FF00000000000000000000000000000000000000
310
00000000000000FFFF000000FF0000000000000000000000000000000000000000000000000000FFFF000000FF0000000000000000000000000000000000000000000000000000FFFF000000FF0000000000000000000000000000000000000000000000000000FFFF000000FF000000000000000000000000000000000000
310
0000000000000000FFFF000000FF000000000000000000000000A4A4A4A4A4A40000000000000000FFFF0000FFFF000000000000000000000000FF0000000000000000000000000000000000FFFF000000000000000000000000FF0000000000000000000000000000000000FFFF000000000000000000000000FF00000000
310
00000000000000000000000000FFFF000000000000000000000000FF0000000000000000000000000000000000FFFF000000000000000000000000FF0000000000000000000000000000000000FFFF000000000000000000000000FF0000000000000000000000000000000000FFFF000000000000000000000000FF000000
310
0000000000000000000000000000FFFF000000000000000000000000FFFFFFFFFFFFFFFFFFFFFFFFFFFFFFFFFFFFFFFF000000000000000000000000FFFFFFFFFFFFFFFFFFFFFFFFFFFFFFFFFFFFFFFF000000000000000000000000FF000000000000000000000000000000000000FF000000000000000000000000FF0000
310
00000000000000000000000000000000FF000000000000000000000000FF000000000000000000000000000000000000FF000000000000000000000000FFFFFFFFFFFFFFFFF9FFFFFFFFFFFFFFFFFFFF000000000000000000000000000000000000F9FFF9F9F9FFFF00000000000000000000000000000000000000000000
310
000000000000F900000000000000000000000000000000000000000000000000000000000000000000000000000000000000000000000000
102
{BLKREFS
331
4C66
102
}
 70
     4
280
     1
281
     0
  0
BLOCK_RECORD
  5
4D32
102
{ACAD_XDICTIONARY
360
4DC1
102
}
330
1
100
AcDbSymbolTableRecord
100
AcDbBlockTableRecord
  2
リーマボルト CEMH500 M20
340
0
310
2800000020000000200000000100080000000000000400000000000000000000000000000000000000000000000080000080000000808000800000008000800080800000C0C0C000C0DCC000F0CAA6000020400000206000002080000020A0000020C0000020E00000400000004020000040400000406000004080000040A0
310
000040C0000040E00000600000006020000060400000606000006080000060A0000060C0000060E00000800000008020000080400000806000008080000080A0000080C0000080E00000A0000000A0200000A0400000A0600000A0800000A0A00000A0C00000A0E00000C0000000C0200000C0400000C0600000C0800000C0
310
A00000C0C00000C0E00000E0000000E0200000E0400000E0600000E0800000E0A00000E0C00000E0E00040000000400020004000400040006000400080004000A0004000C0004000E00040200000402020004020400040206000402080004020A0004020C0004020E000404000004040200040404000404060004040800040
310
40A0004040C0004040E00040600000406020004060400040606000406080004060A0004060C0004060E00040800000408020004080400040806000408080004080A0004080C0004080E00040A0000040A0200040A0400040A0600040A0800040A0A00040A0C00040A0E00040C0000040C0200040C0400040C0600040C08000
310
40C0A00040C0C00040C0E00040E0000040E0200040E0400040E0600040E0800040E0A00040E0C00040E0E00080000000800020008000400080006000800080008000A0008000C0008000E00080200000802020008020400080206000802080008020A0008020C0008020E00080400000804020008040400080406000804080
310
008040A0008040C0008040E00080600000806020008060400080606000806080008060A0008060C0008060E00080800000808020008080400080806000808080008080A0008080C0008080E00080A0000080A0200080A0400080A0600080A0800080A0A00080A0C00080A0E00080C0000080C0200080C0400080C0600080C0
310
800080C0A00080C0C00080C0E00080E0000080E0200080E0400080E0600080E0800080E0A00080E0C00080E0E000C0000000C0002000C0004000C0006000C0008000C000A000C000C000C000E000C0200000C0202000C0204000C0206000C0208000C020A000C020C000C020E000C0400000C0402000C0404000C0406000C0
310
408000C040A000C040C000C040E000C0600000C0602000C0604000C0606000C0608000C060A000C060C000C060E000C0800000C0802000C0804000C0806000C0808000C080A000C080C000C080E000C0A00000C0A02000C0A04000C0A06000C0A08000C0A0A000C0A0C000C0A0E000C0C00000C0C02000C0C04000C0C06000
310
C0C08000C0C0A000F0FBFF00A4A0A000808080000000FF0000FF000000FFFF00FF000000FF00FF00FFFF0000FFFFFF0000000000000000000000000000000000000000000000000000000000000000000000000000000000000000000000000000000000000000000000000000000000000000000000000000000000000000
310
00000000000000000000000000000000000000000000000000000000000000000000000000000000000000000000000000000000000000000000000000000000000000000000000000000000000000000000000000000000000000000000000000000000000000000000000000000000000000000000000000000000000000
310
00000000000000000000000000000000000000000000000000000000000000000000000000000000000000000000000000000000000000000000000000000000000000000000000000000000000000000000000000000000000000000000000000000000000000000000000000000000000000000000FFFFFFFFFFFFFF0000
310
00000000000000000000000000FFFFFFFF000000000000FF00000000FF00000000000000000000000000000000000000FFFF000000FFFFFF00000000FFFFFFFF000000000000000000000000FFFF0000FFFF0000FFFEFEFFFFFFFFFFFF0000FF000000000000000000000000FFFFFFFFFFFF0000FFFF00FF00000000FF0000
310
FF000000000000000000000000FF000000FFFF0000FFFF00FF00000000FF0000FF000000000000000000000000FF000000FFFF0000FFFF00FF00000000FFFF00FF000000000000000000000000FF000000FFFF0000FFFF00FF00000000FFFF00FF000000000000000000000000FF000000FFFF0000FFFEFEFFFFFFFFFFFF00
310
00FF000000000000000000000000FFFFFFFFFFFF000000FFFFFF00000000FFFFFFFF000000000000000000000000FFFF0000FFFF0000000000FF00000000FF00000000000000000000000000000000000000FFFF0000000000FFFFFFFFFFFFFF000000000000000000000000000000FFFFFFFF000000000000000000000000
310
00000000000000000000000000000000000000000000000000000000000000000000000000000000000000000000000000000000000000000000000000000000000000000000000000000000000000000000000000000000000000000000000000000000000000000000000000000000000000000000000000000000000000
310
00000000000000000000000000000000000000000000000000000000000000000000000000000000000000000000000000000000000000000000000000000000000000000000000000000000000000000000000000000000000000000000000000000000000000000000000000000000000000000000000000000000000000
310
0000000000000000000000000000000000000000000000000000000000000000000000000000000000000000000000000000000000000000
102
{BLKREFS
331
4D5F
102
}
 70
     4
280
     1
281
     0
  0
BLOCK_RECORD
  5
4E46
102
{ACAD_XDICTIONARY
360
4F0E
102
}
330
1
100
AcDbSymbolTableRecord
100
AcDbBlockTableRecord
  2
ＧＣサイドカバ－ CEMH500
340
0
310
2800000020000000200000000100080000000000000400000000000000000000000000000000000000000000000080000080000000808000800000008000800080800000C0C0C000C0DCC000F0CAA6000020400000206000002080000020A0000020C0000020E00000400000004020000040400000406000004080000040A0
310
000040C0000040E00000600000006020000060400000606000006080000060A0000060C0000060E00000800000008020000080400000806000008080000080A0000080C0000080E00000A0000000A0200000A0400000A0600000A0800000A0A00000A0C00000A0E00000C0000000C0200000C0400000C0600000C0800000C0
310
A00000C0C00000C0E00000E0000000E0200000E0400000E0600000E0800000E0A00000E0C00000E0E00040000000400020004000400040006000400080004000A0004000C0004000E00040200000402020004020400040206000402080004020A0004020C0004020E000404000004040200040404000404060004040800040
310
40A0004040C0004040E00040600000406020004060400040606000406080004060A0004060C0004060E00040800000408020004080400040806000408080004080A0004080C0004080E00040A0000040A0200040A0400040A0600040A0800040A0A00040A0C00040A0E00040C0000040C0200040C0400040C0600040C08000
310
40C0A00040C0C00040C0E00040E0000040E0200040E0400040E0600040E0800040E0A00040E0C00040E0E00080000000800020008000400080006000800080008000A0008000C0008000E00080200000802020008020400080206000802080008020A0008020C0008020E00080400000804020008040400080406000804080
310
008040A0008040C0008040E00080600000806020008060400080606000806080008060A0008060C0008060E00080800000808020008080400080806000808080008080A0008080C0008080E00080A0000080A0200080A0400080A0600080A0800080A0A00080A0C00080A0E00080C0000080C0200080C0400080C0600080C0
310
800080C0A00080C0C00080C0E00080E0000080E0200080E0400080E0600080E0800080E0A00080E0C00080E0E000C0000000C0002000C0004000C0006000C0008000C000A000C000C000C000E000C0200000C0202000C0204000C0206000C0208000C020A000C020C000C020E000C0400000C0402000C0404000C0406000C0
310
408000C040A000C040C000C040E000C0600000C0602000C0604000C0606000C0608000C060A000C060C000C060E000C0800000C0802000C0804000C0806000C0808000C080A000C080C000C080E000C0A00000C0A02000C0A04000C0A06000C0A08000C0A0A000C0A0C000C0A0E000C0C00000C0C02000C0C04000C0C06000
310
C0C08000C0C0A000F0FBFF00A4A0A000808080000000FF0000FF000000FFFF00FF000000FF00FF00FFFF0000FFFFFF00000000000000000000000000000000000000000000000000000000000000000000000000000000FFFFFAFAFAFAFAFAFAFAFAFAFAFAFAFAFAFAFAFA00000000000000000000000000FF000000000000
310
00000000000000000000FA0000000000000000000000000000FF00000000000000000000000000000000FA0000000000000000000000000000FF00000000000000000000000000000000FA0000000000000000000000000000FF00000000000000000000000000000000FA0000000000000000000000000000FF0000000000
310
0000000000000000000000FA0000000000000000000000000000FF00000000000000000000000000000000FA0000000000000000000000000000FF00000000000000000000000000000000FA0000000000000000000000000000FF00000000000000000000000000000000FA0000000000000000000000000000FF00000000
310
000000000000000000000000FA0000000000000000000000000000FF00000000000000000000000000000000FA0000000000000000000000000000FF00000000000000000000000000000000FA0000000000000000000000000000FF0000000000000000000000000000FAFAFA0000000000000000000000000000FF000000
310
0000000000000000000000FAFAFA0000000000000000000000000000FF0000000000000000000000000000FAFAFA0000000000000000000000000000000000000000000000000000000000FAFAFA0000000000000000000000000000000000000000000000000000000000FAFAFA0000000000000000000000000000000000
310
000000000000000000000000FAFAFA00000000000000000000000000000000000000000000000000000000000000FA00000000000000000000000000000000000000000000000000000000000000FA00000000000000000000000000000000000000000000000000000000000000FA00000000000000000000000000000000
310
000000000000000000000000000000FA00000000000000000000000000000000000000000000000000000000000000FA00000000000000000000000000000000000000000000000000000000000000FA00000000000000000000000000000000000000000000000000000000000000FA000000000000000000000000000000
310
00000000000000000000000000000000FA00000000000000000000000000FFFF00000000000000000000000000000000FA00000000000000000000000000FFFFFF000000000000000000000000000000FA0000000000000000000000F9FFF9FFFF000000000000000000000000000000FA00000000000000000000000000FF
310
FFFFFAFAFAFAFAFAFAFAFAFAFAFAFAFAFAFAFA00000000000000000000000000000000000000000000000000000000000000000000000000
102
{BLKREFS
331
4E7D
102
}
 70
     4
280
     1
281
     0
  0
BLOCK_RECORD
  5
544E
330
1
100
AcDbSymbolTableRecord
100
AcDbBlockTableRecord
  2
*D13
340
0
 70
     0
280
     1
281
     0
  0
BLOCK_RECORD
  5
5479
330
1
100
AcDbSymbolTableRecord
100
AcDbBlockTableRecord
  2
*D14
340
0
 70
     0
280
     1
281
     0
  0
BLOCK_RECORD
  5
5491
330
1
100
AcDbSymbolTableRecord
100
AcDbBlockTableRecord
  2
*D15
340
0
 70
     0
280
     1
281
     0
  0
BLOCK_RECORD
  5
54C3
330
1
100
AcDbSymbolTableRecord
100
AcDbBlockTableRecord
  2
*D16
340
0
 70
     0
280
     1
281
     0
  0
BLOCK_RECORD
  5
5509
330
1
100
AcDbSymbolTableRecord
100
AcDbBlockTableRecord
  2
*D17
340
0
 70
     0
280
     1
281
     0
  0
BLOCK_RECORD
  5
5552
330
1
100
AcDbSymbolTableRecord
100
AcDbBlockTableRecord
  2
*D18
340
0
 70
     0
280
     1
281
     0
  0
BLOCK_RECORD
  5
556E
330
1
100
AcDbSymbolTableRecord
100
AcDbBlockTableRecord
  2
*D19
340
0
 70
     0
280
     1
281
     0
  0
BLOCK_RECORD
  5
558A
330
1
100
AcDbSymbolTableRecord
100
AcDbBlockTableRecord
  2
*D20
340
0
 70
     0
280
     1
281
     0
  0
BLOCK_RECORD
  5
55BA
330
1
100
AcDbSymbolTableRecord
100
AcDbBlockTableRecord
  2
*D21
340
0
 70
     0
280
     1
281
     0
  0
BLOCK_RECORD
  5
55D2
330
1
100
AcDbSymbolTableRecord
100
AcDbBlockTableRecord
  2
*D22
340
0
 70
     0
280
     1
281
     0
  0
BLOCK_RECORD
  5
55F2
330
1
100
AcDbSymbolTableRecord
100
AcDbBlockTableRecord
  2
*D23
340
0
 70
     0
280
     1
281
     0
  0
BLOCK_RECORD
  5
5857
330
1
100
AcDbSymbolTableRecord
100
AcDbBlockTableRecord
  2
*D24
340
0
 70
     0
280
     1
281
     0
  0
BLOCK_RECORD
  5
586F
330
1
100
AcDbSymbolTableRecord
100
AcDbBlockTableRecord
  2
*D25
340
0
 70
     0
280
     1
281
     0
  0
BLOCK_RECORD
  5
5887
330
1
100
AcDbSymbolTableRecord
100
AcDbBlockTableRecord
  2
*D26
340
0
 70
     0
280
     1
281
     0
  0
BLOCK_RECORD
  5
69CD
330
1
100
AcDbSymbolTableRecord
100
AcDbBlockTableRecord
  2
*D27
340
0
 70
     0
280
     1
281
     0
  0
BLOCK_RECORD
  5
6A94
330
1
100
AcDbSymbolTableRecord
100
AcDbBlockTableRecord
  2
*D28
340
0
 70
     0
280
     1
281
     0
  0
BLOCK_RECORD
  5
6AC6
330
1
100
AcDbSymbolTableRecord
100
AcDbBlockTableRecord
  2
*D29
340
0
 70
     0
280
     1
281
     0
  0
BLOCK_RECORD
  5
6B36
330
1
100
AcDbSymbolTableRecord
100
AcDbBlockTableRecord
  2
_DotSmall
340
0
102
{BLKREFS
331
6BDD
331
6C9B
331
6C9C
331
6CA3
102
}
 70
     0
280
     1
281
     0
  0
BLOCK_RECORD
  5
6DBC
330
1
100
AcDbSymbolTableRecord
100
AcDbBlockTableRecord
  2
ｻｲﾄﾞｶﾊﾞｰ　CEM500
340
0
310
2800000020000000200000000100080000000000000400000000000000000000000000000000000000000000000080000080000000808000800000008000800080800000C0C0C000C0DCC000F0CAA6000020400000206000002080000020A0000020C0000020E00000400000004020000040400000406000004080000040A0
310
000040C0000040E00000600000006020000060400000606000006080000060A0000060C0000060E00000800000008020000080400000806000008080000080A0000080C0000080E00000A0000000A0200000A0400000A0600000A0800000A0A00000A0C00000A0E00000C0000000C0200000C0400000C0600000C0800000C0
310
A00000C0C00000C0E00000E0000000E0200000E0400000E0600000E0800000E0A00000E0C00000E0E00040000000400020004000400040006000400080004000A0004000C0004000E00040200000402020004020400040206000402080004020A0004020C0004020E000404000004040200040404000404060004040800040
310
40A0004040C0004040E00040600000406020004060400040606000406080004060A0004060C0004060E00040800000408020004080400040806000408080004080A0004080C0004080E00040A0000040A0200040A0400040A0600040A0800040A0A00040A0C00040A0E00040C0000040C0200040C0400040C0600040C08000
310
40C0A00040C0C00040C0E00040E0000040E0200040E0400040E0600040E0800040E0A00040E0C00040E0E00080000000800020008000400080006000800080008000A0008000C0008000E00080200000802020008020400080206000802080008020A0008020C0008020E00080400000804020008040400080406000804080
310
008040A0008040C0008040E00080600000806020008060400080606000806080008060A0008060C0008060E00080800000808020008080400080806000808080008080A0008080C0008080E00080A0000080A0200080A0400080A0600080A0800080A0A00080A0C00080A0E00080C0000080C0200080C0400080C0600080C0
310
800080C0A00080C0C00080C0E00080E0000080E0200080E0400080E0600080E0800080E0A00080E0C00080E0E000C0000000C0002000C0004000C0006000C0008000C000A000C000C000C000E000C0200000C0202000C0204000C0206000C0208000C020A000C020C000C020E000C0400000C0402000C0404000C0406000C0
310
408000C040A000C040C000C040E000C0600000C0602000C0604000C0606000C0608000C060A000C060C000C060E000C0800000C0802000C0804000C0806000C0808000C080A000C080C000C080E000C0A00000C0A02000C0A04000C0A06000C0A08000C0A0A000C0A0C000C0A0E000C0C00000C0C02000C0C04000C0C06000
310
C0C08000C0C0A000F0FBFF00A4A0A000808080000000FF0000FF000000FFFF00FF000000FF00FF00FFFF0000FFFFFF0000000000000000000000000000000000000000000000000000000000000000000000000000000000FC0000FC000000000000FC0000FC000000000000000000000000000000000000FCFCFCFC000000
310
000000FCFCFCFC000000000000000000000000000000000000FC0000FC000000000000FC0000FC000000000000000000000000000000000000FC0000FC000000000000FC0000FC000000000000000000000000000000000000FC0000FC000000000000FC0000FC000000000000000000000000000000000000FC0000FCFCFC
310
FCFCFCFCFC0000FC000000000000000000000000000000000000FC000000000000000000000000FC000000000000000000000000000000000000FC000000000000000000000000FC000000000000000000000000000000000000FC000000000000000000000000FC000000000000000000000000000000000000FC00000000
310
0000000000000000FC000000000000000000000000000000000000FC000000000000000000000000FC000000000000000000000000000000000000FC000000000000000000000000FC000000000000000000000000000000000000FC000000000000000000000000FC000000000000000000000000000000000000FCFCFCFC
310
FCFC00000000000000FC0000000000000000000000000000000000000000000000FC00000000000000FC0000000000000000000000000000000000000000000000FC00000000000000FC000000000000000000000000000000000000000000FCFCFC00000000000000FC000000000000000000000000000000000000000000
310
FC000000000000000000FC000000000000000000000000000000000000000000FC000000000000000000FC000000000000000000000000000000000000000000FC000000000000000000FC000000000000000000000000000000000000000000FC000000000000000000FC0000000000000000000000000000000000000000
310
00FC000000000000000000FC000000000000000000000000000000000000FCFCFCFCFCFCFCFCFCFCFCFCFCFCFCFC00000000000000000000000000000000000000FC000000000000000000FC000000000000000000000000000000000000000000FC000000000000000000FC00000000000000000000000000000000000000
310
0000FC000000000000000000FC000000000000000000000000000000000000000000FC000000000000000000FC000000000000000000000000000000000000000000FC000000000000000000FC000000000000000000000000000000000000000000FC000000000000000000FC000000000000000000000000000000000000
310
000000FCFCFCFCFCFCFCFCFCFCFC000000000000000000000000000000000000000000000000000000000000000000000000000000000000
102
{BLKREFS
331
6DD1
102
}
 70
     4
280
     1
281
     1
  0
BLOCK_RECORD
  5
6DD2
330
1
100
AcDbSymbolTableRecord
100
AcDbBlockTableRecord
  2
ﾘｼﾞｯﾄ　CWM500
340
0
310
2800000020000000200000000100080000000000000400000000000000000000000000000000000000000000000080000080000000808000800000008000800080800000C0C0C000C0DCC000F0CAA6000020400000206000002080000020A0000020C0000020E00000400000004020000040400000406000004080000040A0
310
000040C0000040E00000600000006020000060400000606000006080000060A0000060C0000060E00000800000008020000080400000806000008080000080A0000080C0000080E00000A0000000A0200000A0400000A0600000A0800000A0A00000A0C00000A0E00000C0000000C0200000C0400000C0600000C0800000C0
310
A00000C0C00000C0E00000E0000000E0200000E0400000E0600000E0800000E0A00000E0C00000E0E00040000000400020004000400040006000400080004000A0004000C0004000E00040200000402020004020400040206000402080004020A0004020C0004020E000404000004040200040404000404060004040800040
310
40A0004040C0004040E00040600000406020004060400040606000406080004060A0004060C0004060E00040800000408020004080400040806000408080004080A0004080C0004080E00040A0000040A0200040A0400040A0600040A0800040A0A00040A0C00040A0E00040C0000040C0200040C0400040C0600040C08000
310
40C0A00040C0C00040C0E00040E0000040E0200040E0400040E0600040E0800040E0A00040E0C00040E0E00080000000800020008000400080006000800080008000A0008000C0008000E00080200000802020008020400080206000802080008020A0008020C0008020E00080400000804020008040400080406000804080
310
008040A0008040C0008040E00080600000806020008060400080606000806080008060A0008060C0008060E00080800000808020008080400080806000808080008080A0008080C0008080E00080A0000080A0200080A0400080A0600080A0800080A0A00080A0C00080A0E00080C0000080C0200080C0400080C0600080C0
310
800080C0A00080C0C00080C0E00080E0000080E0200080E0400080E0600080E0800080E0A00080E0C00080E0E000C0000000C0002000C0004000C0006000C0008000C000A000C000C000C000E000C0200000C0202000C0204000C0206000C0208000C020A000C020C000C020E000C0400000C0402000C0404000C0406000C0
310
408000C040A000C040C000C040E000C0600000C0602000C0604000C0606000C0608000C060A000C060C000C060E000C0800000C0802000C0804000C0806000C0808000C080A000C080C000C080E000C0A00000C0A02000C0A04000C0A06000C0A08000C0A0A000C0A0C000C0A0E000C0C00000C0C02000C0C04000C0C06000
310
C0C08000C0C0A000F0FBFF00A4A0A000808080000000FF0000FF000000FFFF00FF000000FF00FF00FFFF0000FFFFFF000000000000000000000000000000000000000000000000000000000000000000000000000000000000000000000000000000000000FFFF000000000000000000000000000000000000000000000000
310
000000000000FF00000000000000000000000000000000000000000000000000000000000000FF00000000000000000000000000000000000000000000000000000000000000FF00000000000000000000000000000000000000FFFFFFFFFFFFFFFFFFFFFFFFFF00000000000000000000000000000000000000FF00000000
310
000000000000FFFF00000000000000000000000000000000000000FF00000000000000000000FFFF00000000000000000000000000000000000000FF00000000000000000000FFFF00000000000000000000000000000000000000FF00000000000000000000FFFF00000000000000000000000000000000000000FF000000
310
00000000000000FFFF00000000000000000000000000000000000000FF00000000000000000000FFFF00000000000000000000000000000000000000FF00000000000000000000FFFF00000000000000000000000000000000000000FF00000000000000000000FFFF00000000000000000000000000000000000000FF0000
310
0000000000000000FFFF00000000000000000000000000000000000000FF000000000000000000A4A4FFFF000000000000000000000000000000000000FF000000000000000000A4A4A4A4000000000000000000000000000000000000FF000000000000000000000000FF000000000000000000000000000000000000FF00
310
0000000000000000000000FF000000000000000000000000000000000000FF000000000000000000000000FF000000000000000000000000000000000000FF000000000000000000000000FF000000000000000000000000000000000000FFFFFFFFFFFFFFFFFFFFFFFFFFFF000000000000000000000000000000000000FF
310
000000000000000000000000FF000000000000000000000000000000000000FF000000000000000000000000FF000000000000000000000000000000000000FF000000000000000000000000FF000000000000000000000000000000000000FF000000000000000000000000FF000000000000000000000000000000000000
310
FFFFFFFFFFFFFFFFFFFFFFFF00FF000000000000000000000000000000000000000000000000000000000000FFFF000000000000000000000000000000000000000000000000000000000000FFFF000000000000000000000000000000000000000000000000000000000000FF000000000000000000000000000000000000
310
00000000000000000000000000FFFF0000000000000000000000000000000000000000000000000000000000000000000000000000000000
102
{BLKREFS
331
6DF4
102
}
 70
     4
280
     1
281
     1
  0
ENDTAB
  0
ENDSEC
  0
SECTION
  2
BLOCKS
  0
BLOCK
  5
20
330
1F
100
AcDbEntity
  8
0
100
AcDbBlockBegin
  2
*Model_Space
 70
     0
 10
0.0
 20
0.0
 30
0.0
  3
*Model_Space
  1

  0
ENDBLK
  5
21
330
1F
100
AcDbEntity
  8
0
100
AcDbBlockEnd
  0
BLOCK
  5
1C
330
1B
100
AcDbEntity
 67
     1
  8
0
100
AcDbBlockBegin
  2
*Paper_Space
 70
     0
 10
0.0
 20
0.0
 30
0.0
  3
*Paper_Space
  1

  0
ENDBLK
  5
1D
330
1B
100
AcDbEntity
 67
     1
  8
0
100
AcDbBlockEnd
  0
BLOCK
  5
24
330
23
100
AcDbEntity
 67
     1
  8
0
100
AcDbBlockBegin
  2
*Paper_Space0
 70
     0
 10
0.0
 20
0.0
 30
0.0
  3
*Paper_Space0
  1

  0
ENDBLK
  5
25
330
23
100
AcDbEntity
 67
     1
  8
0
100
AcDbBlockEnd
  0
BLOCK
  5
6D
330
69
100
AcDbEntity
  8
0
100
AcDbBlockBegin
  2
_Open30
 70
     0
 10
0.0
 20
0.0
 30
0.0
  3
_Open30
  1

  0
LINE
  5
6A
330
69
100
AcDbEntity
  8
0
  6
ByBlock
 62
     0
370
    -2
100
AcDbLine
 10
-1.0
 20
0.26794919
 30
0.0
 11
0.0
 21
0.0
 31
0.0
  0
LINE
  5
6B
330
69
100
AcDbEntity
  8
0
  6
ByBlock
 62
     0
370
    -2
100
AcDbLine
 10
0.0
 20
0.0
 30
0.0
 11
-1.0
 21
-0.26794919
 31
0.0
  0
LINE
  5
6C
330
69
100
AcDbEntity
  8
0
  6
ByBlock
 62
     0
370
    -2
100
AcDbLine
 10
0.0
 20
0.0
 30
0.0
 11
-1.0
 21
0.0
 31
0.0
  0
ENDBLK
  5
6E
330
69
100
AcDbEntity
  8
0
100
AcDbBlockEnd
  0
BLOCK
  5
76
330
74
100
AcDbEntity
  8
0
100
AcDbBlockBegin
  2
GENAXEH
 70
     0
 10
0.0
 20
0.0
 30
0.0
  3
GENAXEH
  1

  0
LINE
  5
75
330
74
100
AcDbEntity
  8
0
100
AcDbLine
 10
-1.0
 20
0.0
 30
0.0
 11
1.0
 21
0.0
 31
0.0
  0
ENDBLK
  5
77
330
74
100
AcDbEntity
  8
0
100
AcDbBlockEnd
  0
BLOCK
  5
23CA
330
23C7
100
AcDbEntity
  8
0
100
AcDbBlockBegin
  2
seisaPartsList0
 70
     0
 10
0.0
 20
0.0
 30
0.0
  3
seisaPartsList0
  1

  4
SEISAパーツ一覧ヘッダー
  0
TEXT
  5
23CB
330
23C7
100
AcDbEntity
  8
AM_BOR 図面枠
100
AcDbText
 10
-194.2523940471597
 20
5.416219072017057
 30
0.0
 40
1.999999999999999
  1
組立符号
  7
KANJI
 11
-194.2523940471597
 21
5.149552405350391
 31
0.0
100
AcDbText
 73
     1
  0
TEXT
  5
23CC
330
23C7
100
AcDbEntity
  8
AM_BOR 図面枠
100
AcDbText
 10
-193.6022160103209
 20
2.269506669893246
 30
0.0
 40
2.000000000009998
  1
ITEM
  7
ROMANC
100
AcDbText
  0
LINE
  5
23CD
330
23C7
100
AcDbEntity
  8
AM_BOR 図面枠
100
AcDbLine
 10
-195.0
 20
0.0
 30
0.0
 11
0.0
 21
0.0
 31
0.0
  0
LINE
  5
23CE
330
23C7
100
AcDbEntity
  8
AM_BOR 図面枠
100
AcDbLine
 10
-195.0
 20
10.0
 30
0.0
 11
0.0
 21
10.0
 31
0.0
  0
LINE
  5
23CF
330
23C7
100
AcDbEntity
  8
AM_BOR 図面枠
100
AcDbLine
 10
-195.0
 20
10.0
 30
0.0
 11
-195.0
 21
0.0
 31
0.0
  0
TEXT
  5
23D0
330
23C7
100
AcDbEntity
  8
AM_BOR 図面枠
100
AcDbText
 10
-56.88735509265075
 20
5.555732093986944
 30
0.0
 40
1.499999999999999
  1
位
  7
KANJI
 11
-56.88735509265075
 21
5.355732093986944
 31
0.0
100
AcDbText
 73
     1
  0
TEXT
  5
23D1
330
23C7
100
AcDbEntity
  8
AM_BOR 図面枠
100
AcDbText
 10
-56.88735509265075
 20
8.055732093986943
 30
0.0
 40
1.499999999999999
  1
単
  7
KANJI
 11
-56.88735509265075
 21
7.855732093986944
 31
0.0
100
AcDbText
 73
     1
  0
TEXT
  5
23D2
330
23C7
100
AcDbEntity
  8
AM_BOR 図面枠
100
AcDbText
 10
-56.88542553959701
 20
1.365261547288127
 30
0.0
 40
1.999999999999999
  1
数量
  7
KANJI
100
AcDbText
  0
LINE
  5
23D3
330
23C7
100
AcDbEntity
  8
AM_BOR 図面枠
100
AcDbLine
 10
-58.0
 20
5.0
 30
0.0
 11
-37.0
 21
5.0
 31
0.0
  0
TEXT
  5
23D4
330
23C7
100
AcDbEntity
  8
AM_BOR 図面枠
100
AcDbText
 10
-127.0735033490171
 20
2.896770798259922
 30
0.0
 40
2.000000000009998
  1
PART No.
  7
ROMANC
100
AcDbText
  0
TEXT
  5
23D5
330
23C7
100
AcDbEntity
  8
AM_BOR 図面枠
100
AcDbText
 10
-125.367453515144
 20
5.42776419167842
 30
0.0
 40
1.999999999999999
  1
部品番号　　　　　　　　　部品図面番号
  7
KANJI
100
AcDbText
  0
TEXT
  5
23D6
330
23C7
100
AcDbEntity
  8
AM_BOR 図面枠
100
AcDbText
 10
-174.2825195975074
 20
2.269506669893246
 30
0.0
 40
2.000000000009998
  1
NAME OF PART
  7
ROMANC
100
AcDbText
  0
TEXT
  5
23D7
330
23C7
100
AcDbEntity
  8
AM_BOR 図面枠
100
AcDbText
 10
-172.5007917765131
 20
5.47291557832699
 30
0.0
 40
1.999999999999999
  1
部　　　品　　　名
  7
KANJI
100
AcDbText
  0
LINE
  5
23D8
330
23C7
100
AcDbEntity
  8
AM_BOR 図面枠
100
AcDbLine
 10
-184.5
 20
10.0
 30
0.0
 11
-184.5
 21
0.0
 31
0.0
  0
LINE
  5
23D9
330
23C7
100
AcDbEntity
  8
AM_BOR 図面枠
100
AcDbLine
 10
-139.0
 20
10.0
 30
0.0
 11
-139.0
 21
0.0
 31
0.0
  0
TEXT
  5
23DA
330
23C7
100
AcDbEntity
  8
AM_BOR 図面枠
100
AcDbText
 10
-94.15665967405175
 20
2.396770798259922
 30
0.0
 40
2.000000000009998
  1
DWG. No.
  7
ROMANC
100
AcDbText
  0
LINE
  5
23DB
330
23C7
100
AcDbEntity
  8
AM_BOR 図面枠
100
AcDbLine
 10
-99.97457764967453
 20
8.531076736090767
 30
0.0
 11
-106.804294029723
 21
1.7013603560423
 31
0.0
  0
TEXT
  5
23DC
330
23C7
100
AcDbEntity
  8
AM_BOR 図面枠
100
AcDbText
 10
-74.44258340522651
 20
2.396770798259922
 30
0.0
 40
2.000000000009998
  1
MATERIAL
  7
ROMANC
100
AcDbText
  0
TEXT
  5
23DD
330
23C7
100
AcDbEntity
  8
AM_BOR 図面枠
100
AcDbText
 10
-73.96947883016491
 20
5.363091557083123
 30
0.0
 40
1.999999999999999
  1
材　　　　質
  7
KANJI
100
AcDbText
  0
LINE
  5
23DE
330
23C7
100
AcDbEntity
  8
AM_BOR 図面枠
100
AcDbLine
 10
-76.0
 20
10.0
 30
0.0
 11
-76.0
 21
0.0
 31
0.0
  0
LINE
  5
23DF
330
23C7
100
AcDbEntity
  8
AM_BOR 図面枠
100
AcDbLine
 10
-58.0
 20
10.0
 30
0.0
 11
-58.0
 21
0.0
 31
0.0
  0
TEXT
  5
23E0
330
23C7
100
AcDbEntity
  8
AM_BOR 図面枠
100
AcDbText
 10
-43.68426069668998
 20
5.464506103097903
 30
0.0
 40
1.600000000007999
  1
SPARE
 41
0.8
  7
ROMANC
100
AcDbText
  0
TEXT
  5
23E1
330
23C7
100
AcDbEntity
  8
AM_BOR 図面枠
100
AcDbText
 10
-42.4207204243728
 20
7.628638571322085
 30
0.0
 40
1.699999999999999
  1
予備
  7
KANJI
100
AcDbText
  0
TEXT
  5
23E2
330
23C7
100
AcDbEntity
  8
AM_BOR 図面枠
100
AcDbText
 10
-51.78764125100497
 20
1.365261547288127
 30
0.0
 40
2.000000000009998
  1
REQUIRED
 41
0.9
  7
ROMANC
100
AcDbText
  0
LINE
  5
23E3
330
23C7
100
AcDbEntity
  8
AM_BOR 図面枠
100
AcDbLine
 10
-44.00000000000005
 20
10.0
 30
0.0
 11
-44.0
 21
5.0
 31
0.0
  0
LINE
  5
23E4
330
23C7
100
AcDbEntity
  8
AM_BOR 図面枠
100
AcDbLine
 10
-54.5
 20
10.0
 30
0.0
 11
-54.5
 21
5.0
 31
0.0
  0
TEXT
  5
23E5
330
23C7
100
AcDbEntity
  8
AM_BOR 図面枠
100
AcDbText
 10
-52.98323139054537
 20
5.442994312780172
 30
0.0
 40
1.600000000007999
  1
TOTAL
  7
ROMANC
100
AcDbText
  0
TEXT
  5
23E6
330
23C7
100
AcDbEntity
  8
AM_BOR 図面枠
100
AcDbText
 10
-53.01957217030781
 20
7.723796110758485
 30
0.0
 40
1.699999999999999
  1
合　　計
  7
KANJI
100
AcDbText
  0
LINE
  5
23E7
330
23C7
100
AcDbEntity
  8
AM_BOR 図面枠
100
AcDbLine
 10
-25.00000000000006
 20
10.0
 30
0.0
 11
-25.0
 21
0.0
 31
0.0
  0
LINE
  5
23E8
330
23C7
100
AcDbEntity
  8
AM_BOR 図面枠
100
AcDbLine
 10
-37.00000000000003
 20
10.0
 30
0.0
 11
-37.0
 21
0.0
 31
0.0
  0
TEXT
  5
23E9
330
23C7
100
AcDbEntity
  8
AM_BOR 図面枠
100
AcDbText
 10
-35.75000000000003
 20
5.797507791533405
 30
0.0
 40
1.999999999999999
  1
質量
  7
KANJI
100
AcDbText
  0
TEXT
  5
23EA
330
23C7
100
AcDbEntity
  8
AM_BOR 図面枠
100
AcDbText
 10
-34.83594595638147
 20
2.375435839471623
 30
0.0
 40
2.000000000009998
  1
MASS
  7
ROMANC
 11
-34.83594595638147
 21
1.708769172801623
 31
0.0
100
AcDbText
 73
     1
  0
TEXT
  5
23EB
330
23C7
100
AcDbEntity
  8
AM_BOR 図面枠
100
AcDbText
 10
-30.5
 20
5.797507791533405
 30
0.0
 40
1.5
  1
[kg]
  7
ROMANC
100
AcDbText
  0
TEXT
  5
23EC
330
23C7
100
AcDbEntity
  8
AM_BOR 図面枠
100
AcDbText
 10
-19.66635131059888
 20
2.369978350182691
 30
0.0
 40
2.000000000009998
  1
REMARKS
  7
ROMANC
100
AcDbText
  0
TEXT
  5
23ED
330
23C7
100
AcDbEntity
  8
AM_BOR 図面枠
100
AcDbText
 10
-18.48177272540556
 20
5.785174395665421
 30
0.0
 40
1.999999999999999
  1
摘　　　要
  7
KANJI
100
AcDbText
  0
LINE
  5
23EE
330
23C7
100
AcDbEntity
  8
AM_BOR 図面枠
100
AcDbLine
 10
0.0
 20
0.0
 30
0.0
 11
0.0
 21
10.0
 31
0.0
  0
ENDBLK
  5
23EF
330
23C7
100
AcDbEntity
  8
0
100
AcDbBlockEnd
  0
BLOCK
  5
23F3
330
23F0
100
AcDbEntity
  8
0
100
AcDbBlockBegin
  2
seisaPartsList1
 70
     2
 10
0.0
 20
0.0
 30
0.0
  3
seisaPartsList1
  1

  4
seisaパーツ一覧ボディ
  0
LINE
  5
23F4
330
23F0
100
AcDbEntity
  8
AM_BOR 図面枠
100
AcDbLine
 10
-195.0
 20
0.0
 30
0.0
 11
0.0
 21
0.0
 31
0.0
  0
LINE
  5
23F5
330
23F0
100
AcDbEntity
  8
AM_BOR 図面枠
100
AcDbLine
 10
-195.0
 20
6.999999999999943
 30
0.0
 11
0.0
 21
6.999999999999943
 31
0.0
  0
LINE
  5
23F6
330
23F0
100
AcDbEntity
  8
AM_BOR 図面枠
100
AcDbLine
 10
-195.0000000000001
 20
6.999999999999943
 30
0.0
 11
-195.0000000000001
 21
0.0000000000000284
 31
0.0
  0
LINE
  5
23F7
330
23F0
100
AcDbEntity
  8
AM_BOR 図面枠
100
AcDbLine
 10
-184.5
 20
6.999999999999943
 30
0.0
 11
-184.5
 21
0.0000000000000284
 31
0.0
  0
LINE
  5
23F8
330
23F0
100
AcDbEntity
  8
AM_BOR 図面枠
100
AcDbLine
 10
-139.0
 20
6.999999999999943
 30
0.0
 11
-139.0
 21
0.0000000000000284
 31
0.0
  0
LINE
  5
23F9
330
23F0
100
AcDbEntity
  8
AM_BOR 図面枠
100
AcDbLine
 10
-76.0
 20
6.999999999999943
 30
0.0
 11
-76.0
 21
0.0000000000000284
 31
0.0
  0
LINE
  5
23FA
330
23F0
100
AcDbEntity
  8
AM_BOR 図面枠
100
AcDbLine
 10
-58.0
 20
6.999999999999943
 30
0.0
 11
-58.0
 21
0.0000000000000284
 31
0.0
  0
LINE
  5
23FB
330
23F0
100
AcDbEntity
  8
AM_BOR 図面枠
100
AcDbLine
 10
-44.0
 20
6.999999999999943
 30
0.0
 11
-44.00000000000005
 21
0.0
 31
0.0
  0
LINE
  5
23FC
330
23F0
100
AcDbEntity
  8
AM_BOR 図面枠
100
AcDbLine
 10
-54.5
 20
6.999999999999943
 30
0.0
 11
-54.5
 21
0.0
 31
0.0
  0
LINE
  5
23FD
330
23F0
100
AcDbEntity
  8
AM_BOR 図面枠
100
AcDbLine
 10
-25.0
 20
6.999999999999943
 30
0.0
 11
-24.99999999999995
 21
0.0
 31
0.0
  0
LINE
  5
23FE
330
23F0
100
AcDbEntity
  8
AM_BOR 図面枠
100
AcDbLine
 10
-37.0
 20
6.999999999999943
 30
0.0
 11
-37.00000000000006
 21
0.0000000000000284
 31
0.0
  0
LINE
  5
23FF
330
23F0
100
AcDbEntity
  8
AM_BOR 図面枠
100
AcDbLine
 10
0.0
 20
6.999999999999943
 30
0.0
 11
0.0
 21
0.0
 31
0.0
  0
ATTDEF
  5
2400
330
23F0
100
AcDbEntity
  8
AM_BOR 図面枠
100
AcDbText
 10
-191.025
 20
1.749999999999985
 30
0.0
 40
3.5
  1
1
 41
0.9
  7
SEISA
 72
     4
 11
-189.75
 21
3.499999999999985
 31
0.0
100
AcDbAttributeDefinition
  3
組立符号
  2
ITEM
 70
     0
280
     1
  0
ATTDEF
  5
2401
330
23F0
100
AcDbEntity
  8
AM_BOR 図面枠
100
AcDbText
 10
-183.625
 20
1.749999999999957
 30
0.0
 40
3.5
  1

 41
0.9
  7
SEISA
 11
-183.625
 21
3.499999999999957
 31
0.0
100
AcDbAttributeDefinition
  3
部品名
  2
NAME{11.2}
 70
     0
 74
     2
280
     1
  0
ATTDEF
  5
2402
330
23F0
100
AcDbEntity
  8
AM_BOR 図面枠
100
AcDbText
 10
-138.125
 20
1.749999999999985
 30
0.0
 40
3.5
  1

 41
0.9
  7
SEISA
 11
-138.125
 21
3.499999999999985
 31
0.0
100
AcDbAttributeDefinition
  3
部品番号/部品図面番号
  2
DWG-NO.{15.7}
 70
     0
 74
     2
280
     1
  0
ATTDEF
  5
2403
330
23F0
100
AcDbEntity
  8
AM_BOR 図面枠
100
AcDbText
 10
-67.0
 20
3.499999999999985
 30
0.0
 40
3.5
  1

 41
0.9
  7
SEISA
 72
     4
 11
-67.0
 21
3.499999999999985
 31
0.0
100
AcDbAttributeDefinition
  3
材質
  2
MATERIAL{4.3}
 70
     0
280
     1
  0
ATTDEF
  5
2404
330
23F0
100
AcDbEntity
  8
AM_BOR 図面枠
100
AcDbText
 10
-56.25
 20
3.499999999999985
 30
0.0
 40
3.5
  1

 41
0.9
  7
SEISA
 72
     4
 11
-56.25
 21
3.499999999999985
 31
0.0
100
AcDbAttributeDefinition
  3
単位
  2
UNIT
 70
     0
280
     1
  0
ATTDEF
  5
2405
330
23F0
100
AcDbEntity
  8
AM_BOR 図面枠
100
AcDbText
 10
-45.87500000000003
 20
1.749999999999971
 30
0.0
 40
3.5
  1

 41
0.9
  7
SEISA
 72
     2
 11
-45.87500000000003
 21
3.499999999999971
 31
0.0
100
AcDbAttributeDefinition
  3
合計数量
  2
QTY
 70
     0
 74
     2
280
     1
  0
ATTDEF
  5
2406
330
23F0
100
AcDbEntity
  8
AM_BOR 図面枠
100
AcDbText
 10
-37.75000000000003
 20
1.750000000000067
 30
0.0
 40
3.5
  1

 41
0.9
  7
SEISA
 72
     2
 11
-37.75000000000003
 21
3.500000000000067
 31
0.0
100
AcDbAttributeDefinition
  3
予備数量
  2
SPARE-REQ'{1.8}
 70
     0
 74
     2
280
     1
  0
ATTDEF
  5
2407
330
23F0
100
AcDbEntity
  8
AM_BOR 図面枠
100
AcDbText
 10
-25.74999999999997
 20
1.749999999999964
 30
0.0
 40
3.5
  1

 41
0.9
  7
SEISA
 72
     2
 11
-25.74999999999997
 21
3.499999999999964
 31
0.0
100
AcDbAttributeDefinition
  3
質量
  2
MASS{2.7}
 70
     0
 74
     2
280
     1
  0
ATTDEF
  5
2408
330
23F0
100
AcDbEntity
  8
AM_BOR 図面枠
100
AcDbText
 10
-24.74999999999997
 20
1.749999999999971
 30
0.0
 40
3.5
  1

 41
0.9
  7
SEISA
 11
-24.74999999999997
 21
3.499999999999971
 31
0.0
100
AcDbAttributeDefinition
  3
摘要
  2
NOTE{6.3}
 70
     0
 74
     2
280
     1
  0
ENDBLK
  5
2409
330
23F0
100
AcDbEntity
  8
0
100
AcDbBlockEnd
  0
BLOCK
  5
2422
330
2411
100
AcDbEntity
  8
0
100
AcDbBlockBegin
  2
seisaPartsList
 70
     0
 10
0.0
 20
0.0
 30
0.0
  3
seisaPartsList
  1

  0
INSERT
  5
2412
330
2411
100
AcDbEntity
  8
AM_0 外形線1
100
AcDbBlockReference
  2
seisaPartsList0
 10
0.0
 20
0.0
 30
0.0
  0
INSERT
  5
2413
330
2411
100
AcDbEntity
  8
AM_0 外形線1
100
AcDbBlockReference
 66
     1
  2
seisaPartsList1
 10
0.0
 20
10.0
 30
0.0
  0
ATTRIB
  5
2414
330
2413
100
AcDbEntity
  8
AM_BOR 図面枠
100
AcDbText
 10
-191.025
 20
11.74999999999998
 30
0.0
 40
3.5
  1
1
 41
0.9
  7
SEISA
 72
     4
 11
-189.75
 21
13.49999999999998
 31
0.0
100
AcDbAttribute
  2
ITEM
 70
     0
280
     1
  0
ATTRIB
  5
2415
330
2413
100
AcDbEntity
  8
AM_BOR 図面枠
100
AcDbText
 10
-183.625
 20
11.74999999999996
 30
0.0
 40
3.5
  1

 41
0.9
  7
SEISA
 11
-183.625
 21
13.49999999999996
 31
0.0
100
AcDbAttribute
  2
NAME{11.2}
 70
     0
 74
     2
280
     1
  0
ATTRIB
  5
2416
330
2413
100
AcDbEntity
  8
AM_BOR 図面枠
100
AcDbText
 10
-138.125
 20
11.74999999999998
 30
0.0
 40
3.5
  1

 41
0.9
  7
SEISA
 11
-138.125
 21
13.49999999999998
 31
0.0
100
AcDbAttribute
  2
DWG-NO.{15.7}
 70
     0
 74
     2
280
     1
  0
ATTRIB
  5
2417
330
2413
100
AcDbEntity
  8
AM_BOR 図面枠
100
AcDbText
 10
-67.0
 20
13.49999999999998
 30
0.0
 40
3.5
  1

 41
0.9
  7
SEISA
 72
     4
 11
-67.0
 21
13.49999999999998
 31
0.0
100
AcDbAttribute
  2
MATERIAL{4.3}
 70
     0
280
     1
  0
ATTRIB
  5
2418
330
2413
100
AcDbEntity
  8
AM_BOR 図面枠
100
AcDbText
 10
-56.25
 20
13.49999999999998
 30
0.0
 40
3.5
  1

 41
0.9
  7
SEISA
 72
     4
 11
-56.25
 21
13.49999999999998
 31
0.0
100
AcDbAttribute
  2
UNIT
 70
     0
280
     1
  0
ATTRIB
  5
2419
330
2413
100
AcDbEntity
  8
AM_BOR 図面枠
100
AcDbText
 10
-44.87500000000003
 20
11.74999999999997
 30
0.0
 40
3.5
  1

 41
0.9
  7
SEISA
 72
     2
 11
-44.87500000000003
 21
13.49999999999997
 31
0.0
100
AcDbAttribute
  2
QTY
 70
     0
 74
     2
280
     1
  0
ATTRIB
  5
241A
330
2413
100
AcDbEntity
  8
AM_BOR 図面枠
100
AcDbText
 10
-37.75000000000003
 20
11.75000000000006
 30
0.0
 40
3.5
  1

 41
0.9
  7
SEISA
 72
     2
 11
-37.75000000000003
 21
13.50000000000006
 31
0.0
100
AcDbAttribute
  2
SPARE-REQ'{1.8}
 70
     0
 74
     2
280
     1
  0
ATTRIB
  5
241B
330
2413
100
AcDbEntity
  8
AM_BOR 図面枠
100
AcDbText
 10
-25.74999999999997
 20
11.74999999999996
 30
0.0
 40
3.5
  1

 41
0.9
  7
SEISA
 72
     2
 11
-25.74999999999997
 21
13.49999999999996
 31
0.0
100
AcDbAttribute
  2
MASS{2.7}
 70
     0
 74
     2
280
     1
  0
ATTRIB
  5
241C
330
2413
100
AcDbEntity
  8
AM_BOR 図面枠
100
AcDbText
 10
-24.74999999999997
 20
11.74999999999997
 30
0.0
 40
3.5
  1

 41
0.9
  7
SEISA
 11
-24.74999999999997
 21
13.49999999999997
 31
0.0
100
AcDbAttribute
  2
NOTE{6.3}
 70
     0
 74
     2
280
     1
  0
SEQEND
  5
241D
330
2413
100
AcDbEntity
  8
AM_0 外形線1
  0
ENDBLK
  5
2423
330
2411
100
AcDbEntity
  8
0
100
AcDbBlockEnd
  0
BLOCK
  5
3717
330
3714
100
AcDbEntity
  8
0
100
AcDbBlockBegin
  2
ロッカクアナツキプラグ R1／2
 70
     0
 10
0.0
 20
0.0
 30
0.0
  3
ロッカクアナツキプラグ R1／2
  1

  0
LINE
  5
4976
330
3714
100
AcDbEntity
  8
AM_0 外形線1
100
AcDbLine
 10
10.2623880000001
 20
-13.0
 30
0.0
 11
10.66397600000027
 21
-1.5
 31
0.0
  0
LINE
  5
4977
330
3714
100
AcDbEntity
  8
AM_0 外形線1
100
AcDbLine
 10
-10.6639769999997
 20
-1.5
 30
0.0
 11
-10.26238799999964
 21
-13.0
 31
0.0
  0
LINE
  5
4978
330
3714
100
AcDbEntity
  8
AM_4 細線
100
AcDbLine
 10
-9.541185999999925
 20
-0.3772089999999935
 30
0.0
 11
-9.076478999999835
 21
-13.68468499999994
 31
0.0
  0
LINE
  5
4979
330
3714
100
AcDbEntity
  8
AM_4 細線
100
AcDbLine
 10
9.541185000000496
 20
-0.3772089999999935
 30
0.0
 11
9.076478000000406
 21
-13.68468499999994
 31
0.0
  0
LINE
  5
497A
330
3714
100
AcDbEntity
  8
AM_7 中心線
100
AcDbLine
 10
0.0
 20
1.607203000000026
 30
0.0
 11
0.0
 21
-18.22266300000001
 31
0.0
  0
LINE
  5
497B
330
3714
100
AcDbEntity
  8
AM_0 外形線1
100
AcDbLine
 10
-10.26238799999964
 20
-13.0
 30
0.0
 11
10.2623880000001
 21
-13.0
 31
0.0
  0
LINE
  5
497C
330
3714
100
AcDbEntity
  8
AM_0 外形線1
100
AcDbLine
 10
6.798286000000189
 20
-15.0
 30
0.0
 11
10.2623880000001
 21
-13.0
 31
0.0
  0
LINE
  5
497D
330
3714
100
AcDbEntity
  8
AM_0 外形線1
100
AcDbLine
 10
-6.798286999999618
 20
-15.0
 30
0.0
 11
6.798286000000189
 21
-15.0
 31
0.0
  0
LINE
  5
497E
330
3714
100
AcDbEntity
  8
AM_0 外形線1
100
AcDbLine
 10
-10.26238799999964
 20
-13.0
 30
0.0
 11
-6.798286999999618
 21
-15.0
 31
0.0
  0
LINE
  5
497F
330
3714
100
AcDbEntity
  8
AM_0 外形線1
100
AcDbLine
 10
10.66397600000027
 20
-1.5
 30
0.0
 11
9.163976000000275
 21
0.0
 31
0.0
  0
LINE
  5
4980
330
3714
100
AcDbEntity
  8
AM_0 外形線1
100
AcDbLine
 10
-9.163976999999704
 20
0.0
 30
0.0
 11
-10.6639769999997
 21
-1.5
 31
0.0
  0
LINE
  5
4981
330
3714
100
AcDbEntity
  8
AM_0 外形線1
100
AcDbLine
 10
-10.6639769999997
 20
-1.5
 30
0.0
 11
10.66397600000027
 21
-1.5
 31
0.0
  0
LINE
  5
49A0
330
3714
100
AcDbEntity
  8
AM_0 外形線1
100
AcDbLine
 10
-9.163976999999704
 20
0.0
 30
0.0
 11
9.163976000000275
 21
0.0
 31
0.0
  0
ENDBLK
  5
3725
330
3714
100
AcDbEntity
  8
0
100
AcDbBlockEnd
  0
BLOCK
  5
39A8
330
39A7
100
AcDbEntity
  8
0
100
AcDbBlockBegin
  2
GENDOT
 70
     0
 10
0.0
 20
0.0
 30
0.0
  3
GENDOT
  1

  0
LINE
  5
39A9
330
39A7
100
AcDbEntity
  8
0
100
AcDbLine
 10
0.0
 20
0.0
 30
0.0
 11
-1.0
 21
0.0
 31
0.0
  0
LWPOLYLINE
  5
39AA
330
39A7
100
AcDbEntity
  8
0
100
AcDbPolyline
 90
        2
 70
     1
 43
0.25
 10
-0.125
 20
0.0
 42
1.0
 10
0.125
 20
0.0
 42
1.0
  0
ENDBLK
  5
39AB
330
39A7
100
AcDbEntity
  8
0
100
AcDbBlockEnd
  0
BLOCK
  5
4A2E
330
4A2D
100
AcDbEntity
  8
0
100
AcDbBlockBegin
  2
ケースＡ CEMH500
 70
     0
 10
0.0
 20
0.0
 30
0.0
  3
ケースＡ CEMH500
  1

  0
LINE
  5
4A30
330
4A2D
100
AcDbEntity
  8
AM_0 外形線1
100
AcDbLine
 10
31.0
 20
-203.4999999999998
 30
0.0
 11
118.5
 21
-203.4999999999998
 31
0.0
  0
LINE
  5
4A31
330
4A2D
100
AcDbEntity
  8
AM_0 外形線1
100
AcDbLine
 10
25.0
 20
-248.9999999999998
 30
0.0
 11
25.0
 21
0.0
 31
0.0
  0
LINE
  5
4A32
330
4A2D
100
AcDbEntity
  8
AM_0 外形線1
100
AcDbLine
 10
0.0
 20
0.0
 30
0.0
 11
0.0
 21
-248.9999999999998
 31
0.0
  0
LINE
  5
4A33
330
4A2D
100
AcDbEntity
  8
AM_0 外形線1
100
AcDbLine
 10
1.0
 20
-249.9999999999998
 30
0.0
 11
24.0
 21
-249.9999999999998
 31
0.0
  0
LINE
  5
4A34
330
4A2D
100
AcDbEntity
  8
AM_0 外形線1
100
AcDbLine
 10
0.0
 20
-248.9999999999998
 30
0.0
 11
1.0
 21
-249.9999999999998
 31
0.0
  0
LINE
  5
4A35
330
4A2D
100
AcDbEntity
  8
AM_0 外形線1
100
AcDbLine
 10
24.0
 20
-249.9999999999998
 30
0.0
 11
25.0
 21
-248.9999999999998
 31
0.0
  0
ARC
  5
4A36
330
4A2D
100
AcDbEntity
  8
AM_0 外形線1
100
AcDbCircle
 10
31.0
 20
-209.4999999999998
 30
0.0
 40
6.0
100
AcDbArc
 50
90.0
 51
180.0
  0
LINE
  5
4A37
330
4A2D
100
AcDbEntity
  8
AM_0 外形線1
100
AcDbLine
 10
127.0
 20
-211.9999999999998
 30
0.0
 11
127.0
 21
0.0
 31
0.0
  0
LINE
  5
4A38
330
4A2D
100
AcDbEntity
  8
AM_0 外形線1
100
AcDbLine
 10
152.0
 20
-192.7999999999999
 30
0.0
 11
152.0
 21
0.0
 31
0.0
  0
LINE
  5
4A39
330
4A2D
100
AcDbEntity
  8
AM_0 外形線1
100
AcDbLine
 10
118.5
 20
-203.4999999999998
 30
0.0
 11
118.5
 21
0.0
 31
0.0
  0
LINE
  5
4A3A
330
4A2D
100
AcDbEntity
  8
AM_0 外形線1
100
AcDbLine
 10
127.0
 20
-211.9999999999998
 30
0.0
 11
152.0
 21
-211.9999999999998
 31
0.0
  0
LINE
  5
4A3B
330
4A2D
100
AcDbEntity
  8
AM_0 外形線1
100
AcDbLine
 10
118.5
 20
-203.4999999999998
 30
0.0
 11
127.0
 21
-211.9999999999998
 31
0.0
  0
LINE
  5
4A3C
330
4A2D
100
AcDbEntity
  8
AM_0 外形線1
100
AcDbLine
 10
152.0
 20
-192.7999999999999
 30
0.0
 11
152.0
 21
-211.9999999999998
 31
0.0
  0
LINE
  5
4A3D
330
4A2D
100
AcDbEntity
  8
AM_0 外形線1
100
AcDbLine
 10
31.0
 20
203.5
 30
0.0
 11
118.5
 21
203.5
 31
0.0
  0
LINE
  5
4A3E
330
4A2D
100
AcDbEntity
  8
AM_3 隠れ線
100
AcDbLine
 10
79.0
 20
175.2
 30
0.0
 11
142.0
 21
175.2
 31
0.0
  0
LINE
  5
4A3F
330
4A2D
100
AcDbEntity
  8
AM_0 外形線1
100
AcDbLine
 10
73.0
 20
186.0
 30
0.0
 11
147.0
 21
186.0
 31
0.0
  0
LINE
  5
4A40
330
4A2D
100
AcDbEntity
  8
AM_7 中心線
100
AcDbLine
 10
71.0
 20
180.0
 30
0.0
 11
149.0
 21
180.0
 31
0.0
  0
LINE
  5
4A41
330
4A2D
100
AcDbEntity
  8
AM_0 外形線1
100
AcDbLine
 10
72.5
 20
187.5
 30
0.0
 11
-7.0
 21
187.5
 31
0.0
  0
LINE
  5
4A42
330
4A2D
100
AcDbEntity
  8
AM_0 外形線1
100
AcDbLine
 10
1.0
 20
250.0
 30
0.0
 11
24.0
 21
250.0
 31
0.0
  0
LINE
  5
4A43
330
4A2D
100
AcDbEntity
  8
AM_7 中心線
100
AcDbLine
 10
-56.47008800000003
 20
231.0
 30
0.0
 11
53.0
 21
231.0
 31
0.0
  0
LINE
  5
4A44
330
4A2D
100
AcDbEntity
  8
AM_0 外形線1
100
AcDbLine
 10
-7.0
 20
199.0
 30
0.0
 11
-6.0
 21
200.0
 31
0.0
  0
LINE
  5
4A45
330
4A2D
100
AcDbEntity
  8
AM_0 外形線1
100
AcDbLine
 10
-7.0
 20
187.5
 30
0.0
 11
-7.0
 21
199.0
 31
0.0
  0
LWPOLYLINE
  5
4A46
330
4A2D
100
AcDbEntity
  8
AM_0 外形線1
100
AcDbPolyline
 90
       73
 70
     0
 43
0.0
 10
2.25
 20
200.0
 10
2.446100000000114
 20
200.0136990000001
 10
2.640707999999904
 20
200.0546920000001
 10
2.832342000000153
 20
200.1226670000001
 10
3.019545000000107
 20
200.2171070000002
 10
3.20089100000041
 20
200.3372920000002
 10
3.375
 20
200.482309
 10
3.540547000000515
 20
200.651053
 10
3.696272000000135
 20
200.8422400000002
 10
3.840990000000147
 20
201.0544160000002
 10
3.97360000000026
 20
201.285965
 10
4.093092000000069
 20
201.5351250000001
 10
4.198557000000164
 20
201.8000000000002
 10
4.289192000000184
 20
202.0785740000001
 10
4.364308000000164
 20
202.3687279999999
 10
4.423333000000184
 20
202.668251
 10
4.465817000000242
 20
202.9748670000001
 10
4.491438000000016
 20
203.286239
 10
4.5
 20
203.6000000000001
 10
4.491438000000016
 20
203.913761
 10
4.465817000000242
 20
204.2251330000001
 10
4.423333000000184
 20
204.531749
 10
4.364308000000164
 20
204.831273
 10
4.289192000000184
 20
205.1214260000001
 10
4.198557000000164
 20
205.4000000000001
 10
4.093092000000069
 20
205.6648750000002
 10
3.97360000000026
 20
205.914035
 10
3.840990000000147
 20
206.1455840000001
 10
3.696272000000135
 20
206.3577600000001
 10
3.540547000000515
 20
206.548947
 10
3.375
 20
206.7176910000001
 10
3.20089100000041
 20
206.8627080000001
 10
3.019545000000107
 20
206.9828930000001
 10
2.832342000000153
 20
207.0773330000002
 10
2.640707999999904
 20
207.1453080000001
 10
2.446100000000114
 20
207.1863009999999
 10
2.25
 20
207.2
 10
2.053899000000455
 20
207.1863009999999
 10
1.859291000000212
 20
207.1453080000001
 10
1.667656999999962
 20
207.0773330000002
 10
1.480454000000463
 20
206.9828930000001
 10
1.29910800000016
 20
206.8627080000001
 10
1.125
 20
206.7176910000001
 10
0.9594530000003942
 20
206.548947
 10
0.8037270000004355
 20
206.3577600000001
 10
0.6590090000004239
 20
206.1455840000001
 10
0.5264000000001943
 20
205.914035
 10
0.4069070000005013
 20
205.6648750000002
 10
0.3014419999999518
 20
205.4000000000001
 10
0.2108070000003863
 20
205.1214260000001
 10
0.1356910000004063
 20
204.831273
 10
0.076665999999932
 20
204.531749
 10
0.0341820000003281
 20
204.2251330000001
 10
0.0085610000005545
 20
203.913761
 10
0.0
 20
203.6000000000001
 10
0.0085610000005545
 20
203.286239
 10
0.0341820000003281
 20
202.9748670000001
 10
0.076665999999932
 20
202.668251
 10
0.1356910000004063
 20
202.3687279999999
 10
0.2108070000003863
 20
202.0785740000001
 10
0.3014419999999518
 20
201.8000000000002
 10
0.4069070000005013
 20
201.5351250000001
 10
0.5264000000001943
 20
201.285965
 10
0.6590090000004239
 20
201.0544160000002
 10
0.8037270000004355
 20
200.8422400000002
 10
0.9594530000003942
 20
200.651053
 10
1.125
 20
200.482309
 10
1.29910800000016
 20
200.3372920000002
 10
1.480454000000463
 20
200.2171070000002
 10
1.667656999999962
 20
200.1226670000001
 10
1.859291000000212
 20
200.0546920000001
 10
2.053899000000455
 20
200.0136990000001
 10
2.25
 20
200.0
  0
LINE
  5
4A47
330
4A2D
100
AcDbEntity
  8
AM_0 外形線1
100
AcDbLine
 10
0.0
 20
207.2
 30
0.0
 11
0.0
 21
220.0
 31
0.0
  0
LINE
  5
4A48
330
4A2D
100
AcDbEntity
  8
AM_0 外形線1
100
AcDbLine
 10
4.0
 20
207.2
 30
0.0
 11
0.0
 21
207.2
 31
0.0
  0
ARC
  5
4A49
330
4A2D
100
AcDbEntity
  8
AM_0 外形線1
100
AcDbCircle
 10
4.0
 20
206.7000000000001
 30
0.0
 40
0.5
100
AcDbArc
 50
0.0
 51
90.0
  0
LINE
  5
4A4A
330
4A2D
100
AcDbEntity
  8
AM_0 外形線1
100
AcDbLine
 10
4.5
 20
200.5
 30
0.0
 11
4.5
 21
206.7000000000001
 31
0.0
  0
ARC
  5
4A4B
330
4A2D
100
AcDbEntity
  8
AM_0 外形線1
100
AcDbCircle
 10
4.0
 20
200.5
 30
0.0
 40
0.5
100
AcDbArc
 50
270.0
 51
0.0
  0
LINE
  5
4A4C
330
4A2D
100
AcDbEntity
  8
AM_0 外形線1
100
AcDbLine
 10
-6.0
 20
200.0
 30
0.0
 11
4.0
 21
200.0
 31
0.0
  0
LINE
  5
4A4D
330
4A2D
100
AcDbEntity
  8
AM_0 外形線1
100
AcDbLine
 10
0.0
 20
249.0
 30
0.0
 11
1.0
 21
250.0
 31
0.0
  0
LINE
  5
4A4E
330
4A2D
100
AcDbEntity
  8
AM_0 外形線1
100
AcDbLine
 10
0.0
 20
242.0
 30
0.0
 11
0.0
 21
249.0
 31
0.0
  0
LINE
  5
4A4F
330
4A2D
100
AcDbEntity
  8
AM_0 外形線1
100
AcDbLine
 10
40.92352100000016
 20
189.815315
 30
0.0
 11
41.0043740000001
 21
187.5
 31
0.0
  0
LINE
  5
4A50
330
4A2D
100
AcDbEntity
  8
AM_0 外形線1
100
AcDbLine
 10
59.07647800000041
 20
189.815315
 30
0.0
 11
58.99562500000001
 21
187.5
 31
0.0
  0
LINE
  5
4A51
330
4A2D
100
AcDbEntity
  8
AM_0 外形線1
100
AcDbLine
 10
39.73761200000036
 20
190.5
 30
0.0
 11
39.84237400000029
 21
187.5
 31
0.0
  0
LINE
  5
4A52
330
4A2D
100
AcDbEntity
  8
AM_0 外形線1
100
AcDbLine
 10
60.2623880000001
 20
190.5
 30
0.0
 11
60.15762500000028
 21
187.5
 31
0.0
  0
ARC
  5
4A53
330
4A2D
100
AcDbEntity
  8
AM_0 外形線1
100
AcDbCircle
 10
31.0
 20
209.5
 30
0.0
 40
6.0
100
AcDbArc
 50
180.0
 51
270.0
  0
LINE
  5
4A54
330
4A2D
100
AcDbEntity
  8
AM_0 外形線1
100
AcDbLine
 10
25.0
 20
249.0
 30
0.0
 11
25.0
 21
209.5
 31
0.0
  0
LINE
  5
4A55
330
4A2D
100
AcDbEntity
  8
AM_0 外形線1
100
AcDbLine
 10
0.0
 20
220.0
 30
0.0
 11
25.0
 21
220.0
 31
0.0
  0
LINE
  5
4A56
330
4A2D
100
AcDbEntity
  8
AM_0 外形線1
100
AcDbLine
 10
59.55435800000032
 20
203.5
 30
0.0
 11
59.54118500000049
 21
203.122791
 31
0.0
  0
LINE
  5
4A57
330
4A2D
100
AcDbEntity
  8
AM_0 外形線1
100
AcDbLine
 10
40.45881400000007
 20
203.122791
 30
0.0
 11
40.44564200000013
 21
203.5
 31
0.0
  0
LINE
  5
4A58
330
4A2D
100
AcDbEntity
  8
AM_0 外形線1
100
AcDbLine
 10
39.3360230000003
 20
202.0
 30
0.0
 11
39.28364200000033
 21
203.5
 31
0.0
  0
LINE
  5
4A59
330
4A2D
100
AcDbEntity
  8
AM_0 外形線1
100
AcDbLine
 10
60.66397600000027
 20
202.0
 30
0.0
 11
60.71635800000013
 21
203.5
 31
0.0
  0
LINE
  5
4A5A
330
4A2D
100
AcDbEntity
  8
AM_0 外形線1
100
AcDbLine
 10
79.0
 20
175.2
 30
0.0
 11
73.5
 21
175.2
 31
0.0
  0
ARC
  5
4A5B
330
4A2D
100
AcDbEntity
  8
AM_0 外形線1
100
AcDbCircle
 10
72.5
 20
187.0
 30
0.0
 40
0.5
100
AcDbArc
 50
0.0
 51
90.0
  0
LINE
  5
4A5C
330
4A2D
100
AcDbEntity
  8
AM_0 外形線1
100
AcDbLine
 10
73.0
 20
175.7
 30
0.0
 11
73.0
 21
187.0
 31
0.0
  0
LINE
  5
4A5D
330
4A2D
100
AcDbEntity
  8
AM_0 外形線1
100
AcDbLine
 10
73.5
 20
175.2
 30
0.0
 11
73.0
 21
175.7
 31
0.0
  0
LINE
  5
4A5E
330
4A2D
100
AcDbEntity
  8
AM_0 外形線1
100
AcDbLine
 10
0.0
 20
242.0
 30
0.0
 11
25.0
 21
242.0
 31
0.0
  0
LINE
  5
4A60
330
4A2D
100
AcDbEntity
  8
AM_0 外形線1
100
AcDbLine
 10
24.0
 20
250.0
 30
0.0
 11
25.0
 21
249.0
 31
0.0
  0
LINE
  5
4A61
330
4A2D
100
AcDbEntity
  8
AM_0 外形線1
100
AcDbLine
 10
127.0
 20
212.0
 30
0.0
 11
152.0
 21
212.0
 31
0.0
  0
LINE
  5
4A62
330
4A2D
100
AcDbEntity
  8
AM_0 外形線1
100
AcDbLine
 10
142.0
 20
175.2
 30
0.0
 11
146.5
 21
175.2
 31
0.0
  0
LINE
  5
4A63
330
4A2D
100
AcDbEntity
  8
AM_0 外形線1
100
AcDbLine
 10
147.5
 20
187.5
 30
0.0
 11
152.0
 21
187.5
 31
0.0
  0
LINE
  5
4A64
330
4A2D
100
AcDbEntity
  8
AM_0 外形線1
100
AcDbLine
 10
152.0
 20
196.0
 30
0.0
 11
152.0
 21
187.5
 31
0.0
  0
LINE
  5
4A65
330
4A2D
100
AcDbEntity
  8
AM_0 外形線1
100
AcDbLine
 10
147.0
 20
175.7
 30
0.0
 11
146.5
 21
175.2
 31
0.0
  0
LINE
  5
4A66
330
4A2D
100
AcDbEntity
  8
AM_0 外形線1
100
AcDbLine
 10
147.0
 20
187.0
 30
0.0
 11
147.0
 21
175.7
 31
0.0
  0
ARC
  5
4A67
330
4A2D
100
AcDbEntity
  8
AM_0 外形線1
100
AcDbCircle
 10
147.5
 20
187.0
 30
0.0
 40
0.5
100
AcDbArc
 50
90.0
 51
180.0
  0
LINE
  5
4A68
330
4A2D
100
AcDbEntity
  8
AM_0 外形線1
100
AcDbLine
 10
118.5
 20
203.5
 30
0.0
 11
127.0
 21
212.0
 31
0.0
  0
LINE
  5
4A69
330
4A2D
100
AcDbEntity
  8
AM_0 外形線1
100
AcDbLine
 10
152.0
 20
205.3000000000002
 30
0.0
 11
152.0
 21
212.0
 31
0.0
  0
INSERT
  5
4A6A
330
4A2D
100
AcDbEntity
  8
AM_0 外形線1
100
AcDbBlockReference
  2
ロッカクアナツキプラグ R1／2
 10
50.0
 20
203.5
 30
0.0
  0
ENDBLK
  5
4A2F
330
4A2D
100
AcDbEntity
  8
0
100
AcDbBlockEnd
  0
BLOCK
  5
4C40
330
4C3F
100
AcDbEntity
  8
0
100
AcDbBlockBegin
  2
センタ CEMH500
 70
     0
 10
0.0
 20
0.0
 30
0.0
  3
センタ CEMH500
  1

  0
LINE
  5
4C42
330
4C3F
100
AcDbEntity
  8
AM_0 外形線1
100
AcDbLine
 10
0.0
 20
152.5
 30
0.0
 11
0.0
 21
0.0
 31
0.0
  0
LINE
  5
4C43
330
4C3F
100
AcDbEntity
  8
AM_0 外形線1
100
AcDbLine
 10
236.0
 20
-160.4999999999997
 30
0.0
 11
236.0
 21
160.5
 31
0.0
  0
LINE
  5
4C44
330
4C3F
100
AcDbEntity
  8
AM_3 隠れ線
100
AcDbLine
 10
52.0
 20
8.75
 30
0.0
 11
0.0
 21
8.75
 31
0.0
  0
LINE
  5
4C45
330
4C3F
100
AcDbEntity
  8
AM_3 隠れ線
100
AcDbLine
 10
0.0
 20
10.0
 30
0.0
 11
36.0
 21
10.0
 31
0.0
  0
LINE
  5
4C46
330
4C3F
100
AcDbEntity
  8
AM_3 隠れ線
100
AcDbLine
 10
57.05181400000038
 20
0.0
 30
0.0
 11
52.0
 21
8.75
 31
0.0
  0
LINE
  5
4C47
330
4C3F
100
AcDbEntity
  8
AM_3 隠れ線
100
AcDbLine
 10
52.0
 20
8.75
 30
0.0
 11
52.0
 21
0.0
 31
0.0
  0
LINE
  5
4C48
330
4C3F
100
AcDbEntity
  8
AM_3 隠れ線
100
AcDbLine
 10
36.0
 20
10.0
 30
0.0
 11
36.7216870000002
 21
8.75
 31
0.0
  0
LINE
  5
4C49
330
4C3F
100
AcDbEntity
  8
AM_3 隠れ線
100
AcDbLine
 10
36.7216870000002
 20
8.75
 30
0.0
 11
36.7216870000002
 21
0.0
 31
0.0
  0
LINE
  5
4C4A
330
4C3F
100
AcDbEntity
  8
AM_3 隠れ線
100
AcDbLine
 10
36.0
 20
0.0
 30
0.0
 11
36.0
 21
10.0
 31
0.0
  0
LINE
  5
4C4B
330
4C3F
100
AcDbEntity
  8
AM_0 外形線1
100
AcDbLine
 10
183.0
 20
-166.4999999999998
 30
0.0
 11
183.0
 21
0.0
 31
0.0
  0
LINE
  5
4C4C
330
4C3F
100
AcDbEntity
  8
AM_0 外形線1
100
AcDbLine
 10
180.0
 20
-167.4999999999998
 30
0.0
 11
180.0
 21
0.0
 31
0.0
  0
LINE
  5
4C4D
330
4C3F
100
AcDbEntity
  8
AM_0 外形線1
100
AcDbLine
 10
230.0
 20
-166.4999999999998
 30
0.0
 11
183.0
 21
-166.4999999999998
 31
0.0
  0
LINE
  5
4C4E
330
4C3F
100
AcDbEntity
  8
AM_0 外形線1
100
AcDbLine
 10
157.0
 20
-167.4999999999998
 30
0.0
 11
180.0
 21
-167.4999999999998
 31
0.0
  0
LINE
  5
4C4F
330
4C3F
100
AcDbEntity
  8
AM_0 外形線1
100
AcDbLine
 10
180.0
 20
-167.4999999999998
 30
0.0
 11
183.0
 21
-166.4999999999998
 31
0.0
  0
ARC
  5
4C50
330
4C3F
100
AcDbEntity
  8
AM_0 外形線1
100
AcDbCircle
 10
230.0
 20
-160.4999999999997
 30
0.0
 40
6.0
100
AcDbArc
 50
270.0
 51
0.0
  0
ARC
  5
4C51
330
4C3F
100
AcDbEntity
  8
AM_0 外形線1
100
AcDbCircle
 10
99.50000000000001
 20
0.0
 30
0.0
 40
185.75
100
AcDbArc
 50
80.39289699998732
 51
99.60710300001267
  0
LINE
  5
4C54
330
4C3F
100
AcDbEntity
  8
AM_0 外形線1
100
AcDbLine
 10
0.0
 20
165.0
 30
0.0
 11
0.0
 21
152.5
 31
0.0
  0
LINE
  5
4C55
330
4C3F
100
AcDbEntity
  8
AM_0 外形線1
100
AcDbLine
 10
67.5
 20
166.0
 30
0.0
 11
1.0
 21
166.0
 31
0.0
  0
LINE
  5
4C56
330
4C3F
100
AcDbEntity
  8
AM_0 外形線1
100
AcDbLine
 10
1.0
 20
166.0
 30
0.0
 11
0.0
 21
165.0
 31
0.0
  0
ARC
  5
4C57
330
4C3F
100
AcDbEntity
  8
AM_0 外形線1
100
AcDbCircle
 10
67.5
 20
166.5
 30
0.0
 40
0.5
100
AcDbArc
 50
270.0
 51
0.0
  0
LINE
  5
4C58
330
4C3F
100
AcDbEntity
  8
AM_0 外形線1
100
AcDbLine
 10
68.0
 20
182.5595869999999
 30
0.0
 11
68.0
 21
166.5
 31
0.0
  0
LINE
  5
4C59
330
4C3F
100
AcDbEntity
  8
AM_0 外形線1
100
AcDbLine
 10
68.5
 20
183.1449219999999
 30
0.0
 11
68.0
 21
182.5595869999999
 31
0.0
  0
LINE
  5
4C5A
330
4C3F
100
AcDbEntity
  8
AM_7 中心線
100
AcDbLine
 10
99.50000000000001
 20
190.75
 30
0.0
 11
99.50000000000001
 21
169.0
 31
0.0
  0
ARC
  5
4C5B
330
4C3F
100
AcDbEntity
  8
AM_0 外形線1
100
AcDbCircle
 10
230.0
 20
160.5
 30
0.0
 40
6.0
100
AcDbArc
 50
0.0
 51
90.0
  0
LINE
  5
4C5C
330
4C3F
100
AcDbEntity
  8
AM_0 外形線1
100
AcDbLine
 10
230.0
 20
166.5
 30
0.0
 11
183.0
 21
166.5
 31
0.0
  0
LINE
  5
4C5D
330
4C3F
100
AcDbEntity
  8
AM_0 外形線1
100
AcDbLine
 10
180.0
 20
167.5
 30
0.0
 11
131.5
 21
167.5
 31
0.0
  0
LINE
  5
4C5E
330
4C3F
100
AcDbEntity
  8
AM_0 外形線1
100
AcDbLine
 10
131.0
 20
182.5595869999999
 30
0.0
 11
130.5
 21
183.1449219999999
 31
0.0
  0
LINE
  5
4C5F
330
4C3F
100
AcDbEntity
  8
AM_0 外形線1
100
AcDbLine
 10
131.0
 20
168.0
 30
0.0
 11
131.0
 21
182.5595869999999
 31
0.0
  0
ARC
  5
4C60
330
4C3F
100
AcDbEntity
  8
AM_0 外形線1
100
AcDbCircle
 10
131.5
 20
168.0
 30
0.0
 40
0.5
100
AcDbArc
 50
180.0
 51
270.0
  0
LINE
  5
4C61
330
4C3F
100
AcDbEntity
  8
AM_0 外形線1
100
AcDbLine
 10
183.0
 20
166.5
 30
0.0
 11
180.0
 21
167.5
 31
0.0
  0
LINE
  5
4C62
330
4C3F
100
AcDbEntity
  8
AM_0 外形線1
100
AcDbLine
 10
236.0
 20
102.5
 30
0.0
 11
0.0
 21
102.4999999999997
 31
0.0
  0
ARC
  5
6A90
330
4C3F
100
AcDbEntity
  8
AM_7 中心線
100
AcDbCircle
 10
99.50000000000001
 20
0.0
 30
0.0
 40
179.875
100
AcDbArc
 50
79.10351249362616
 51
100.9511589638492
  0
ARC
  5
6A91
330
4C3F
100
AcDbEntity
  8
AM_0 外形線1
100
AcDbCircle
 10
99.50000000000001
 20
0.0
 30
0.0
 40
174.0000000000002
100
AcDbArc
 50
79.56997870895029
 51
100.4300212910497
  0
ENDBLK
  5
4C41
330
4C3F
100
AcDbEntity
  8
0
100
AcDbBlockEnd
  0
BLOCK
  5
4D33
330
4D32
100
AcDbEntity
  8
0
100
AcDbBlockBegin
  2
リーマボルト CEMH500 M20
 70
     0
 10
0.0
 20
0.0
 30
0.0
  3
リーマボルト CEMH500 M20
  1

  0
LINE
  5
4D35
330
4D32
100
AcDbEntity
  8
AM_0 外形線1
100
AcDbLine
 10
-76.0
 20
-10.0
 30
0.0
 11
-76.0
 21
10.0
 31
0.0
  0
LINE
  5
4D36
330
4D32
100
AcDbEntity
  8
AM_0 外形線1
100
AcDbLine
 10
-78.0
 20
8.0
 30
0.0
 11
-78.0
 21
-8.0
 31
0.0
  0
LINE
  5
4D37
330
4D32
100
AcDbEntity
  8
AM_0 外形線1
100
AcDbLine
 10
-71.09999999999991
 20
12.96974599999998
 30
0.0
 11
-71.09999999999991
 21
-12.97000000000003
 31
0.0
  0
ARC
  5
4D38
330
4D32
100
AcDbEntity
  8
AM_0 外形線1
100
AcDbCircle
 10
-39.09999999999991
 20
0.0
 30
0.0
 40
32.0
100
AcDbArc
 50
164.3362059999997
 51
195.6637940000003
  0
LINE
  5
4D39
330
4D32
100
AcDbEntity
  8
AM_0 外形線1
100
AcDbLine
 10
-55.0999999999999
 20
-17.29999999999995
 30
0.0
 11
-55.0999999999999
 21
17.05000000000018
 31
0.0
  0
LINE
  5
4D3A
330
4D32
100
AcDbEntity
  8
AM_0 外形線1
100
AcDbLine
 10
-44.0
 20
-10.0
 30
0.0
 11
-44.0
 21
10.0
 31
0.0
  0
LINE
  5
4D3B
330
4D32
100
AcDbEntity
  8
AM_0 外形線1
100
AcDbLine
 10
-42.26794999999992
 20
11.0
 30
0.0
 11
-42.26794999999992
 21
-11.0
 31
0.0
  0
LINE
  5
4D3C
330
4D32
100
AcDbEntity
  8
AM_0 外形線1
100
AcDbLine
 10
-50.0
 20
3.433333000000175
 30
0.0
 11
-55.0999999999999
 21
-1.666666999999961
 31
0.0
  0
LINE
  5
4D3D
330
4D32
100
AcDbEntity
  8
AM_0 外形線1
100
AcDbLine
 10
-69.91160199999967
 20
-8.639746000000059
 30
0.0
 11
-55.0999999999999
 21
-8.639746000000059
 31
0.0
  0
LINE
  5
4D3E
330
4D32
100
AcDbEntity
  8
AM_0 外形線1
100
AcDbLine
 10
-69.91160199999967
 20
-17.29999999999995
 30
0.0
 11
-55.32246399999985
 21
-17.29999999999995
 31
0.0
  0
LINE
  5
4D3F
330
4D32
100
AcDbEntity
  8
AM_4 細線
100
AcDbLine
 10
-77.79999999999972
 20
-8.199999999999818
 30
0.0
 11
-71.09999999999991
 21
-8.199999999999818
 31
0.0
  0
LINE
  5
4D40
330
4D32
100
AcDbEntity
  8
AM_0 外形線1
100
AcDbLine
 10
-76.0
 20
-10.0
 30
0.0
 11
-71.09999999999991
 21
-10.0
 31
0.0
  0
LINE
  5
4D41
330
4D32
100
AcDbEntity
  8
AM_0 外形線1
100
AcDbLine
 10
-78.0
 20
-8.0
 30
0.0
 11
-76.0
 21
-10.0
 31
0.0
  0
ARC
  5
4D42
330
4D32
100
AcDbEntity
  8
AM_0 外形線1
100
AcDbCircle
 10
-62.61703299999954
 20
-12.969873
 30
0.0
 40
8.482967
100
AcDbArc
 50
149.3062210000045
 51
210.6937789999955
  0
LINE
  5
4D43
330
4D32
100
AcDbEntity
  8
AM_0 外形線1
100
AcDbLine
 10
-55.32246399999985
 20
-17.29999999999995
 30
0.0
 11
-55.0999999999999
 21
-17.29999999999995
 31
0.0
  0
LINE
  5
4D44
330
4D32
100
AcDbEntity
  8
AM_0 外形線1
100
AcDbLine
 10
-50.0
 20
-17.04999999999995
 30
0.0
 11
-55.0999999999999
 21
-17.04999999999995
 31
0.0
  0
LINE
  5
4D45
330
4D32
100
AcDbEntity
  8
AM_0 外形線1
100
AcDbLine
 10
-44.0
 20
-10.0
 30
0.0
 11
-50.0
 21
-10.0
 31
0.0
  0
LINE
  5
4D46
330
4D32
100
AcDbEntity
  8
AM_0 外形線1
100
AcDbLine
 10
-44.0
 20
-10.0
 30
0.0
 11
-42.26794999999992
 21
-11.0
 31
0.0
  0
LINE
  5
4D47
330
4D32
100
AcDbEntity
  8
AM_0 外形線1
100
AcDbLine
 10
-50.0
 20
2.100000000000136
 30
0.0
 11
-55.0999999999999
 21
-3.0
 31
0.0
  0
LINE
  5
4D48
330
4D32
100
AcDbEntity
  8
AM_0 外形線1
100
AcDbLine
 10
-69.91160199999967
 20
8.639746000000059
 30
0.0
 11
-55.32246399999985
 21
8.639746000000059
 31
0.0
  0
LINE
  5
4D49
330
4D32
100
AcDbEntity
  8
AM_0 外形線1
100
AcDbLine
 10
-55.0999999999999
 20
17.30000000000018
 30
0.0
 11
-69.91160199999967
 21
17.30000000000018
 31
0.0
  0
LINE
  5
4D4A
330
4D32
100
AcDbEntity
  8
AM_4 細線
100
AcDbLine
 10
-77.79999999999972
 20
8.200000000000045
 30
0.0
 11
-71.09999999999991
 21
8.200000000000045
 31
0.0
  0
LINE
  5
4D4B
330
4D32
100
AcDbEntity
  8
AM_0 外形線1
100
AcDbLine
 10
-76.0
 20
10.0
 30
0.0
 11
-78.0
 21
8.0
 31
0.0
  0
LINE
  5
4D4C
330
4D32
100
AcDbEntity
  8
AM_0 外形線1
100
AcDbLine
 10
-71.09999999999991
 20
10.0
 30
0.0
 11
-76.0
 21
10.0
 31
0.0
  0
ARC
  5
4D4D
330
4D32
100
AcDbEntity
  8
AM_0 外形線1
100
AcDbCircle
 10
-62.61703299999954
 20
12.96987300000023
 30
0.0
 40
8.482967
100
AcDbArc
 50
149.3062210000045
 51
210.6937789999955
  0
LINE
  5
4D4E
330
4D32
100
AcDbEntity
  8
AM_0 外形線1
100
AcDbLine
 10
-55.0999999999999
 20
17.05000000000018
 30
0.0
 11
-55.0999999999999
 21
17.30000000000018
 31
0.0
  0
LINE
  5
4D4F
330
4D32
100
AcDbEntity
  8
AM_0 外形線1
100
AcDbLine
 10
-55.0999999999999
 20
17.05000000000018
 30
0.0
 11
-50.0
 21
17.05000000000018
 31
0.0
  0
LINE
  5
4D50
330
4D32
100
AcDbEntity
  8
AM_0 外形線1
100
AcDbLine
 10
-44.0
 20
10.0
 30
0.0
 11
-50.0
 21
10.0
 31
0.0
  0
LINE
  5
4D51
330
4D32
100
AcDbEntity
  8
AM_0 外形線1
100
AcDbLine
 10
-42.26794999999992
 20
11.0
 30
0.0
 11
-44.0
 21
10.0
 31
0.0
  0
LINE
  5
4D52
330
4D32
100
AcDbEntity
  8
AM_0 外形線1
100
AcDbLine
 10
-2.5
 20
11.0
 30
0.0
 11
-2.5
 21
-11.0
 31
0.0
  0
LINE
  5
4D53
330
4D32
100
AcDbEntity
  8
AM_0 外形線1
100
AcDbLine
 10
13.0
 20
12.96974599999998
 30
0.0
 11
13.0
 21
-12.96974599999998
 31
0.0
  0
ARC
  5
4D54
330
4D32
100
AcDbEntity
  8
AM_0 外形線1
100
AcDbCircle
 10
-13.0
 20
0.0
 30
0.0
 40
26.0
100
AcDbArc
 50
340.5916910000212
 51
19.40830899997873
  0
LINE
  5
4D55
330
4D32
100
AcDbEntity
  8
AM_0 外形線1
100
AcDbLine
 10
-2.5
 20
-11.0
 30
0.0
 11
-1.0
 21
-10.0
 31
0.0
  0
ARC
  5
4D56
330
4D32
100
AcDbEntity
  8
AM_0 外形線1
100
AcDbCircle
 10
-1.0
 20
-11.0
 30
0.0
 40
1.0
100
AcDbArc
 50
0.0
 51
90.0
  0
LINE
  5
4D57
330
4D32
100
AcDbEntity
  8
AM_0 外形線1
100
AcDbLine
 10
11.5225360000004
 20
-8.639746000000059
 30
0.0
 11
0.0
 21
-8.639746000000059
 31
0.0
  0
LINE
  5
4D58
330
4D32
100
AcDbEntity
  8
AM_0 外形線1
100
AcDbLine
 10
11.5225360000004
 20
-17.29999999999995
 30
0.0
 11
0.0000000000002274
 21
-17.29999999999995
 31
0.0
  0
ARC
  5
4D59
330
4D32
100
AcDbEntity
  8
AM_0 外形線1
100
AcDbCircle
 10
5.915934000000561
 20
-12.969873
 30
0.0
 40
7.084065999999999
100
AcDbArc
 50
322.3201419999917
 51
37.67985800000835
  0
LINE
  5
4D5A
330
4D32
100
AcDbEntity
  8
AM_0 外形線1
100
AcDbLine
 10
-2.5
 20
11.0
 30
0.0
 11
-1.0
 21
10.0
 31
0.0
  0
ARC
  5
4D5B
330
4D32
100
AcDbEntity
  8
AM_0 外形線1
100
AcDbCircle
 10
-1.0
 20
11.0
 30
0.0
 40
1.0
100
AcDbArc
 50
270.0
 51
0.0
  0
LINE
  5
4D5C
330
4D32
100
AcDbEntity
  8
AM_0 外形線1
100
AcDbLine
 10
11.5225360000004
 20
8.639746000000059
 30
0.0
 11
0.0
 21
8.639746000000059
 31
0.0
  0
ARC
  5
4D5D
330
4D32
100
AcDbEntity
  8
AM_0 外形線1
100
AcDbCircle
 10
5.915934000000561
 20
12.96987300000023
 30
0.0
 40
7.084065999999999
100
AcDbArc
 50
322.3201419999917
 51
37.67985800000835
  0
LINE
  5
4D5E
330
4D32
100
AcDbEntity
  8
AM_0 外形線1
100
AcDbLine
 10
0.0
 20
17.30000000000018
 30
0.0
 11
11.5225360000004
 21
17.30000000000018
 31
0.0
  0
LINE
  5
4DBD
330
4D32
100
AcDbEntity
  8
AM_0 外形線1
100
AcDbLine
 10
-42.26794999999992
 20
11.0
 30
0.0
 11
-2.5
 21
11.0
 31
0.0
  0
LINE
  5
4DBE
330
4D32
100
AcDbEntity
  8
AM_0 外形線1
100
AcDbLine
 10
-42.26794999999992
 20
-11.0
 30
0.0
 11
-2.5
 21
-11.0
 31
0.0
  0
LINE
  5
4DBF
330
4D32
100
AcDbEntity
  8
AM_0 外形線1
100
AcDbLine
 10
-50.0
 20
17.05000000000018
 30
0.0
 11
-50.0
 21
-17.04999999999995
 31
0.0
  0
LINE
  5
4DC0
330
4D32
100
AcDbEntity
  8
AM_0 外形線1
100
AcDbLine
 10
0.0
 20
17.30000000000018
 30
0.0
 11
0.0000000000002274
 21
-17.29999999999995
 31
0.0
  0
ENDBLK
  5
4D34
330
4D32
100
AcDbEntity
  8
0
100
AcDbBlockEnd
  0
BLOCK
  5
4E47
330
4E46
100
AcDbEntity
  8
0
100
AcDbBlockBegin
  2
ＧＣサイドカバ－ CEMH500
 70
     0
 10
0.0
 20
0.0
 30
0.0
  3
ＧＣサイドカバ－ CEMH500
  1

  0
LINE
  5
4E4A
330
4E46
100
AcDbEntity
  8
AM_0 外形線1
100
AcDbLine
 10
16.0
 20
-199.4999999999997
 30
0.0
 11
16.0
 21
0.0
 31
0.0
  0
LINE
  5
4E4B
330
4E46
100
AcDbEntity
  8
AM_0 外形線1
100
AcDbLine
 10
0.0
 20
-211.9999999999998
 30
0.0
 11
16.0
 21
-211.9999999999998
 31
0.0
  0
LINE
  5
4E4C
330
4E46
100
AcDbEntity
  8
AM_0 外形線1
100
AcDbLine
 10
16.0
 20
-211.9999999999998
 30
0.0
 11
16.0
 21
-199.4999999999997
 31
0.0
  0
LINE
  5
4E4D
330
4E46
100
AcDbEntity
  8
AM_0 外形線1
100
AcDbLine
 10
16.0
 20
205.3000000000002
 30
0.0
 11
-16.49999999999954
 21
205.3000000000004
 31
0.0
  0
LINE
  5
4E4E
330
4E46
100
AcDbEntity
  8
AM_0 外形線1
100
AcDbLine
 10
16.0
 20
196.7
 30
0.0
 11
-15.79999999999972
 21
196.7
 31
0.0
  0
LWPOLYLINE
  5
4E4F
330
4E46
100
AcDbEntity
  8
AM_0 外形線1
100
AcDbPolyline
 90
       73
 70
     0
 43
0.0
 10
0.400000000000091
 20
171.0250000000001
 10
0.4213090000002922
 20
170.7177759999999
 10
0.4850760000003902
 20
170.41289
 10
0.5908150000004753
 20
170.1126629999999
 10
0.7377210000004198
 20
169.819379
 10
0.9246760000005451
 20
169.5352709999999
 10
1.150257000000237
 20
169.2625
 10
1.412748000000192
 20
169.0031430000001
 10
1.710151000000223
 20
168.759174
 10
2.040202000000135
 20
168.532449
 10
2.400389000000359
 20
168.324693
 10
2.787972000000081
 20
168.1374889999999
 10
3.200000000000272
 20
167.97226
 10
3.63333700000021
 20
167.830265
 10
4.084687000000485
 20
167.7125840000001
 10
4.550613000000339
 20
167.6201109999999
 10
5.027570000000196
 20
167.5535529999999
 10
5.511927000000468
 20
167.513414
 10
6.0
 20
167.5
 10
6.488072000000101
 20
167.513414
 10
6.972429000000374
 20
167.5535529999999
 10
7.449386000000231
 20
167.6201109999999
 10
7.915312000000085
 20
167.7125840000001
 10
8.36666200000036
 20
167.830265
 10
8.800000000000181
 20
167.97226
 10
9.212028000000373
 20
168.1374889999999
 10
9.599610000000211
 20
168.324693
 10
9.959798000000319
 20
168.532449
 10
10.28984800000035
 20
168.759174
 10
10.58725100000038
 20
169.0031430000001
 10
10.84974200000033
 20
169.2625
 10
11.07532300000002
 20
169.5352709999999
 10
11.26227800000015
 20
169.819379
 10
11.40918400000009
 20
170.1126629999999
 10
11.51492300000018
 20
170.41289
 10
11.57869000000028
 20
170.7177759999999
 10
11.60000000000036
 20
171.0250000000001
 10
11.57869000000028
 20
171.332224
 10
11.51492300000018
 20
171.6371100000001
 10
11.40918400000009
 20
171.937337
 10
11.26227800000015
 20
172.2306209999999
 10
11.07532300000002
 20
172.514729
 10
10.84974200000033
 20
172.7875000000001
 10
10.58725100000038
 20
173.046857
 10
10.28984800000035
 20
173.2908260000001
 10
9.959798000000319
 20
173.5175510000001
 10
9.599610000000211
 20
173.7253070000001
 10
9.212028000000373
 20
173.912511
 10
8.800000000000181
 20
174.0777400000002
 10
8.36666200000036
 20
174.2197350000001
 10
7.915312000000085
 20
174.3374169999999
 10
7.449386000000231
 20
174.429889
 10
6.972429000000374
 20
174.496447
 10
6.488072000000101
 20
174.5365859999999
 10
6.0
 20
174.5500000000002
 10
5.511927000000468
 20
174.5365859999999
 10
5.027570000000196
 20
174.496447
 10
4.550613000000339
 20
174.429889
 10
4.084687000000485
 20
174.3374169999999
 10
3.63333700000021
 20
174.2197350000001
 10
3.200000000000272
 20
174.0777400000002
 10
2.787972000000081
 20
173.912511
 10
2.400389000000359
 20
173.7253070000001
 10
2.040202000000135
 20
173.5175510000001
 10
1.710151000000223
 20
173.2908260000001
 10
1.412748000000192
 20
173.046857
 10
1.150257000000237
 20
172.7875000000001
 10
0.9246760000005451
 20
172.514729
 10
0.7377210000004198
 20
172.2306209999999
 10
0.5908150000004753
 20
171.937337
 10
0.4850760000003902
 20
171.6371100000001
 10
0.4213090000002922
 20
171.332224
 10
0.400000000000091
 20
171.0250000000001
  0
LINE
  5
4E50
330
4E46
100
AcDbEntity
  8
AM_4 細線
100
AcDbLine
 10
16.0
 20
206.0
 30
0.0
 11
-16.49999999999954
 21
206.0
 31
0.0
  0
LINE
  5
4E51
330
4E46
100
AcDbEntity
  8
AM_4 細線
100
AcDbLine
 10
16.0
 20
196.0
 30
0.0
 11
-15.79999999999972
 21
196.0
 31
0.0
  0
LINE
  5
4E52
330
4E46
100
AcDbEntity
  8
AM_0 外形線1
100
AcDbLine
 10
16.0
 20
206.5
 30
0.0
 11
0.0
 21
206.5
 31
0.0
  0
LINE
  5
4E53
330
4E46
100
AcDbEntity
  8
AM_0 外形線1
100
AcDbLine
 10
16.0
 20
195.5
 30
0.0
 11
0.0
 21
195.5
 31
0.0
  0
LINE
  5
4E54
330
4E46
100
AcDbEntity
  8
AM_0 外形線1
100
AcDbLine
 10
11.60000000000036
 20
174.5500000000002
 30
0.0
 11
0.400000000000091
 21
174.5500000000002
 31
0.0
  0
LINE
  5
4E55
330
4E46
100
AcDbEntity
  8
AM_7 中心線
100
AcDbLine
 10
-25.30323399999998
 20
201.0
 30
0.0
 11
28.32590700000037
 21
201.0
 31
0.0
  0
LINE
  5
4E56
330
4E46
100
AcDbEntity
  8
AM_0 外形線1
100
AcDbLine
 10
-16.5
 20
206.0
 30
0.0
 11
-16.5
 21
196.0
 31
0.0
  0
LINE
  5
4E57
330
4E46
100
AcDbEntity
  8
AM_0 外形線1
100
AcDbLine
 10
-20.0
 20
196.7
 30
0.0
 11
-20.0
 21
205.3000000000002
 31
0.0
  0
LINE
  5
4E58
330
4E46
100
AcDbEntity
  8
AM_0 外形線1
100
AcDbLine
 10
-22.48260699999992
 20
201.0
 30
0.0
 11
-20.0
 21
196.7
 31
0.0
  0
LINE
  5
4E59
330
4E46
100
AcDbEntity
  8
AM_0 外形線1
100
AcDbLine
 10
-15.79999999999972
 20
196.7
 30
0.0
 11
-16.5
 21
196.7
 31
0.0
  0
LINE
  5
4E5A
330
4E46
100
AcDbEntity
  8
AM_0 外形線1
100
AcDbLine
 10
-15.79999999999972
 20
196.0
 30
0.0
 11
-16.5
 21
196.0
 31
0.0
  0
LINE
  5
4E5B
330
4E46
100
AcDbEntity
  8
AM_0 外形線1
100
AcDbLine
 10
-16.5
 20
196.7
 30
0.0
 11
-20.0
 21
196.7
 31
0.0
  0
LWPOLYLINE
  5
4E5C
330
4E46
100
AcDbEntity
  8
AM_0 外形線1
100
AcDbPolyline
 90
       73
 70
     0
 43
0.0
 10
1.550000000000181
 20
187.5
 10
1.685091000000284
 20
187.510084
 10
1.819154000000253
 20
187.5402590000001
 10
1.95116900000039
 20
187.5902969999999
 10
2.080131000000164
 20
187.6598150000002
 10
2.205058000000462
 20
187.748284
 10
2.325000000000272
 20
187.855033
 10
2.43904300000031
 20
187.979247
 10
2.546320000000378
 20
188.1199820000001
 10
2.646015000000261
 20
188.276167
 10
2.73736800000006
 20
188.446613
 10
2.81968500000039
 20
188.630022
 10
2.892338999999992
 20
188.825
 10
2.954777000000376
 20
189.030062
 10
3.006523000000015
 20
189.243647
 10
3.047185000000354
 20
189.46413
 10
3.076452000000244
 20
189.689832
 10
3.094101000000591
 20
189.9190369999999
 10
3.100000000000363
 20
190.1500000000001
 10
3.094101000000591
 20
190.3809630000001
 10
3.076452000000244
 20
190.6101680000001
 10
3.047185000000354
 20
190.835871
 10
3.006523000000015
 20
191.0563529999999
 10
2.954777000000376
 20
191.2699379999999
 10
2.892338999999992
 20
191.4750000000001
 10
2.81968500000039
 20
191.6699779999999
 10
2.73736800000006
 20
191.8533869999999
 10
2.646015000000261
 20
192.0238330000002
 10
2.546320000000378
 20
192.180018
 10
2.43904300000031
 20
192.3207529999999
 10
2.325000000000272
 20
192.4449670000001
 10
2.205058000000462
 20
192.5517160000002
 10
2.080131000000164
 20
192.6401849999999
 10
1.95116900000039
 20
192.709703
 10
1.819154000000253
 20
192.759741
 10
1.685091000000284
 20
192.7899160000001
 10
1.550000000000181
 20
192.8000000000002
 10
1.414908000000195
 20
192.7899160000001
 10
1.280845000000226
 20
192.759741
 10
1.148830000000089
 20
192.709703
 10
1.019868000000315
 20
192.6401849999999
 10
0.8949410000004718
 20
192.5517160000002
 10
0.775000000000091
 20
192.4449670000001
 10
0.6609560000001693
 20
192.3207529999999
 10
0.5536790000005567
 20
192.180018
 10
0.4539840000002187
 20
192.0238330000002
 10
0.3626309999999648
 20
191.8533869999999
 10
0.2803140000000894
 20
191.6699779999999
 10
0.2076600000004873
 20
191.4750000000001
 10
0.1452220000001034
 20
191.2699379999999
 10
0.0934760000004644
 20
191.0563529999999
 10
0.0528150000000096
 20
190.835871
 10
0.0235480000001189
 20
190.6101680000001
 10
0.005898000000343
 20
190.3809630000001
 10
0.0
 20
190.1500000000001
 10
0.005898000000343
 20
189.9190369999999
 10
0.0235480000001189
 20
189.689832
 10
0.0528150000000096
 20
189.46413
 10
0.0934760000004644
 20
189.243647
 10
0.1452220000001034
 20
189.030062
 10
0.2076600000004873
 20
188.825
 10
0.2803140000000894
 20
188.630022
 10
0.3626309999999648
 20
188.446613
 10
0.4539840000002187
 20
188.276167
 10
0.5536790000005567
 20
188.1199820000001
 10
0.6609560000001693
 20
187.979247
 10
0.775000000000091
 20
187.855033
 10
0.8949410000004718
 20
187.748284
 10
1.019868000000315
 20
187.6598150000002
 10
1.148830000000089
 20
187.5902969999999
 10
1.280845000000226
 20
187.5402590000001
 10
1.414908000000195
 20
187.510084
 10
1.550000000000181
 20
187.5
  0
LINE
  5
4E5D
330
4E46
100
AcDbEntity
  8
AM_0 外形線1
100
AcDbLine
 10
3.100000000000363
 20
187.5
 30
0.0
 11
3.100000000000363
 21
192.8000000000002
 31
0.0
  0
LINE
  5
4E5E
330
4E46
100
AcDbEntity
  8
AM_0 外形線1
100
AcDbLine
 10
-4.0
 20
169.0
 30
0.0
 11
-3.999999999999545
 21
187.5000000000002
 31
0.0
  0
LINE
  5
4E5F
330
4E46
100
AcDbEntity
  8
AM_0 外形線1
100
AcDbLine
 10
0.400000000000091
 20
169.0
 30
0.0
 11
-4.0
 21
169.0
 31
0.0
  0
LINE
  5
4E60
330
4E46
100
AcDbEntity
  8
AM_0 外形線1
100
AcDbLine
 10
0.400000000000091
 20
174.5500000000002
 30
0.0
 11
0.400000000000091
 21
169.0
 31
0.0
  0
LINE
  5
4E61
330
4E46
100
AcDbEntity
  8
AM_0 外形線1
100
AcDbLine
 10
-4.0
 20
169.0
 30
0.0
 11
-4.0
 21
167.5
 31
0.0
  0
LINE
  5
4E62
330
4E46
100
AcDbEntity
  8
AM_0 外形線1
100
AcDbLine
 10
0.400000000000091
 20
169.0
 30
0.0
 11
0.400000000000091
 21
167.5
 31
0.0
  0
LINE
  5
4E63
330
4E46
100
AcDbEntity
  8
AM_0 外形線1
100
AcDbLine
 10
-16.5
 20
205.3000000000002
 30
0.0
 11
-20.0
 21
205.3000000000002
 31
0.0
  0
LINE
  5
4E64
330
4E46
100
AcDbEntity
  8
AM_0 外形線1
100
AcDbLine
 10
-20.0
 20
205.3000000000002
 30
0.0
 11
-22.48260699999992
 21
201.0
 31
0.0
  0
LINE
  5
4E65
330
4E46
100
AcDbEntity
  8
AM_0 外形線1
100
AcDbLine
 10
18.5
 20
201.25
 30
0.0
 11
16.0
 21
198.75
 31
0.0
  0
LINE
  5
4E66
330
4E46
100
AcDbEntity
  8
AM_0 外形線1
100
AcDbLine
 10
25.5
 20
193.679558
 30
0.0
 11
25.5
 21
208.3204419999999
 31
0.0
  0
ARC
  5
4E67
330
4E46
100
AcDbEntity
  8
AM_0 外形線1
100
AcDbCircle
 10
11.5
 20
201.0
 30
0.0
 40
14.0
100
AcDbArc
 50
339.5453489999912
 51
20.4546510000088
  0
LINE
  5
4E68
330
4E46
100
AcDbEntity
  8
AM_0 外形線1
100
AcDbLine
 10
18.5
 20
210.25
 30
0.0
 11
18.5
 21
191.75
 31
0.0
  0
LINE
  5
4E69
330
4E46
100
AcDbEntity
  8
AM_0 外形線1
100
AcDbLine
 10
16.0
 20
199.5
 30
0.0
 11
16.0
 21
169.0
 31
0.0
  0
LINE
  5
4E6A
330
4E46
100
AcDbEntity
  8
AM_0 外形線1
100
AcDbLine
 10
24.61728700000004
 20
196.107477
 30
0.0
 11
18.5
 21
196.107477
 31
0.0
  0
LINE
  5
4E6B
330
4E46
100
AcDbEntity
  8
AM_0 外形線1
100
AcDbLine
 10
18.5
 20
191.2
 30
0.0
 11
18.5
 21
191.75
 31
0.0
  0
LINE
  5
4E6C
330
4E46
100
AcDbEntity
  8
AM_0 外形線1
100
AcDbLine
 10
24.36435300000039
 20
191.2
 30
0.0
 11
18.5
 21
191.2
 31
0.0
  0
ARC
  5
4E6D
330
4E46
100
AcDbEntity
  8
AM_0 外形線1
100
AcDbCircle
 10
22.0015000000003
 20
193.7820389999999
 30
0.0
 40
3.5
100
AcDbArc
 50
312.4619739999851
 51
41.63714099998523
  0
LINE
  5
4E6E
330
4E46
100
AcDbEntity
  8
AM_0 外形線1
100
AcDbLine
 10
18.5
 20
191.75
 30
0.0
 11
16.0
 21
191.75
 31
0.0
  0
LINE
  5
4E6F
330
4E46
100
AcDbEntity
  8
AM_0 外形線1
100
AcDbLine
 10
11.60000000000036
 20
169.0
 30
0.0
 11
11.60000000000036
 21
174.5500000000002
 31
0.0
  0
LINE
  5
4E70
330
4E46
100
AcDbEntity
  8
AM_0 外形線1
100
AcDbLine
 10
16.0
 20
169.0
 30
0.0
 11
11.60000000000036
 21
169.0
 31
0.0
  0
LINE
  5
4E71
330
4E46
100
AcDbEntity
  8
AM_0 外形線1
100
AcDbLine
 10
11.60000000000036
 20
169.0
 30
0.0
 11
11.60000000000036
 21
167.5
 31
0.0
  0
LINE
  5
4E72
330
4E46
100
AcDbEntity
  8
AM_0 外形線1
100
AcDbLine
 10
16.0
 20
169.0
 30
0.0
 11
16.0
 21
167.5
 31
0.0
  0
LINE
  5
4E73
330
4E46
100
AcDbEntity
  8
AM_0 外形線1
100
AcDbLine
 10
18.5
 20
203.25
 30
0.0
 11
16.0
 21
200.75
 31
0.0
  0
LINE
  5
4E74
330
4E46
100
AcDbEntity
  8
AM_0 外形線1
100
AcDbLine
 10
24.61728700000004
 20
205.8925230000002
 30
0.0
 11
18.5
 21
205.8925230000002
 31
0.0
  0
ARC
  5
4E75
330
4E46
100
AcDbEntity
  8
AM_0 外形線1
100
AcDbCircle
 10
22.0015000000003
 20
208.2179610000001
 30
0.0
 40
3.5
100
AcDbArc
 50
318.3628590000148
 51
47.53802600001487
  0
LINE
  5
4E76
330
4E46
100
AcDbEntity
  8
AM_0 外形線1
100
AcDbLine
 10
18.5
 20
210.8000000000002
 30
0.0
 11
24.36435300000039
 21
210.8000000000002
 31
0.0
  0
LINE
  5
4E77
330
4E46
100
AcDbEntity
  8
AM_0 外形線1
100
AcDbLine
 10
18.5
 20
210.25
 30
0.0
 11
18.5
 21
210.8000000000002
 31
0.0
  0
LINE
  5
4E78
330
4E46
100
AcDbEntity
  8
AM_0 外形線1
100
AcDbLine
 10
16.0
 20
210.25
 30
0.0
 11
18.5
 21
210.25
 31
0.0
  0
LINE
  5
4E79
330
4E46
100
AcDbEntity
  8
AM_0 外形線1
100
AcDbLine
 10
16.0
 20
212.0
 30
0.0
 11
16.0
 21
199.5
 31
0.0
  0
LINE
  5
4E7A
330
4E46
100
AcDbEntity
  8
AM_0 外形線1
100
AcDbLine
 10
3.100000000000363
 20
192.8000000000002
 30
0.0
 11
0.0
 21
192.8000000000002
 31
0.0
  0
LINE
  5
4E7B
330
4E46
100
AcDbEntity
  8
AM_0 外形線1
100
AcDbLine
 10
-3.999999999999772
 20
187.4999999999993
 30
0.0
 11
3.100000000000363
 21
187.5
 31
0.0
  0
LINE
  5
4E7C
330
4E46
100
AcDbEntity
  8
AM_0 外形線1
100
AcDbLine
 10
0.0
 20
212.0
 30
0.0
 11
16.0
 21
212.0
 31
0.0
  0
LINE
  5
4F0B
330
4E46
100
AcDbEntity
  8
AM_0 外形線1
100
AcDbLine
 10
0.0
 20
206.0
 30
0.0
 11
0.0
 21
212.0
 31
0.0
  0
LINE
  5
4F0C
330
4E46
100
AcDbEntity
  8
AM_0 外形線1
100
AcDbLine
 10
0.0
 20
196.0
 30
0.0
 11
0.0
 21
192.8000000000002
 31
0.0
  0
LINE
  5
4F0D
330
4E46
100
AcDbEntity
  8
AM_0 外形線1
100
AcDbLine
 10
0.0
 20
0.0
 30
0.0
 11
0.0
 21
-211.9999999999998
 31
0.0
  0
ENDBLK
  5
4E48
330
4E46
100
AcDbEntity
  8
0
100
AcDbBlockEnd
  0
BLOCK
  5
544F
330
544E
100
AcDbEntity
  8
0
100
AcDbBlockBegin
  2
*D13
 70
     1
 10
0.0
 20
0.0
 30
0.0
  3
*D13
  1

  0
LINE
  5
6898
330
544E
100
AcDbEntity
  8
AM_5 寸法線
 62
     3
100
AcDbLine
 10
1297.897622079172
 20
1832.276523811394
 30
0.0
 11
1163.897622079172
 21
1832.276523811394
 31
0.0
  0
LINE
  5
6899
330
544E
100
AcDbEntity
  8
AM_5 寸法線
 62
     3
100
AcDbLine
 10
1297.897622079172
 20
1452.276523811394
 30
0.0
 11
1163.897622079171
 21
1452.276523811394
 31
0.0
  0
LINE
  5
689A
330
544E
100
AcDbEntity
  8
AM_5 寸法線
 62
     3
100
AcDbLine
 10
1168.897622079172
 20
1812.276523811394
 30
0.0
 11
1168.897622079172
 21
1472.276523811394
 31
0.0
  0
INSERT
  5
689B
330
544E
100
AcDbEntity
  8
AM_5 寸法線
 62
     3
100
AcDbBlockReference
  2
_Open30
 10
1168.897622079172
 20
1832.276523811394
 30
0.0
 41
20.0
 42
20.0
 43
20.0
 50
90.0
  0
INSERT
  5
689C
330
544E
100
AcDbEntity
  8
AM_5 寸法線
 62
     3
100
AcDbBlockReference
  2
_Open30
 10
1168.897622079172
 20
1452.276523811394
 30
0.0
 41
20.0
 42
20.0
 43
20.0
 50
270.0
  0
MTEXT
  5
689D
330
544E
100
AcDbEntity
  8
AM_5 寸法線
 62
     3
100
AcDbMText
 10
1142.897622079171
 20
1642.276523811394
 30
0.0
 40
28.0
 41
0.0
 46
0.0
 71
     5
 72
     1
  1
%%c380
  7
SEISA
 11
0.0000000000000001
 21
1.0
 31
0.0
 73
     1
 44
1.0
  0
POINT
  5
689E
330
544E
100
AcDbEntity
  8
Defpoints
 62
     0
100
AcDbPoint
 10
1302.897622079172
 20
1832.276523811394
 30
0.0
  0
POINT
  5
689F
330
544E
100
AcDbEntity
  8
Defpoints
 62
     0
100
AcDbPoint
 10
1302.897622079172
 20
1452.276523811394
 30
0.0
  0
POINT
  5
68A0
330
544E
100
AcDbEntity
  8
Defpoints
 62
     0
100
AcDbPoint
 10
1168.897622079172
 20
1452.276523811394
 30
0.0
  0
ENDBLK
  5
5450
330
544E
100
AcDbEntity
  8
0
100
AcDbBlockEnd
  0
BLOCK
  5
547A
330
5479
100
AcDbEntity
  8
0
100
AcDbBlockBegin
  2
*D14
 70
     1
 10
0.0
 20
0.0
 30
0.0
  3
*D14
  1

  0
LINE
  5
68A1
330
5479
100
AcDbEntity
  8
AM_5 寸法線
 62
     3
100
AcDbLine
 10
1532.897622079172
 20
1647.276523811395
 30
0.0
 11
1532.897622079172
 21
1671.761109811394
 31
0.0
  0
LINE
  5
68A2
330
5479
100
AcDbEntity
  8
AM_5 寸法線
 62
     3
100
AcDbLine
 10
1296.897622079172
 20
1647.276523811395
 30
0.0
 11
1296.897622079172
 21
1671.761109811394
 31
0.0
  0
LINE
  5
68A3
330
5479
100
AcDbEntity
  8
AM_5 寸法線
 62
     3
100
AcDbLine
 10
1512.897622079172
 20
1666.761109811394
 30
0.0
 11
1316.897622079172
 21
1666.761109811394
 31
0.0
  0
INSERT
  5
68A4
330
5479
100
AcDbEntity
  8
AM_5 寸法線
 62
     3
100
AcDbBlockReference
  2
_Open30
 10
1532.897622079172
 20
1666.761109811394
 30
0.0
 41
20.0
 42
20.0
 43
20.0
  0
INSERT
  5
68A5
330
5479
100
AcDbEntity
  8
AM_5 寸法線
 62
     3
100
AcDbBlockReference
  2
_Open30
 10
1296.897622079172
 20
1666.761109811394
 30
0.0
 41
20.0
 42
20.0
 43
20.0
 50
180.0
  0
MTEXT
  5
68A6
330
5479
100
AcDbEntity
  8
AM_5 寸法線
 62
     3
100
AcDbMText
 10
1414.897622079172
 20
1692.761109811394
 30
0.0
 40
28.0
 41
0.0
 46
0.0
 71
     5
 72
     1
  1
236
  7
SEISA
 73
     1
 44
1.0
  0
POINT
  5
68A7
330
5479
100
AcDbEntity
  8
Defpoints
 62
     0
100
AcDbPoint
 10
1532.897622079172
 20
1642.276523811394
 30
0.0
  0
POINT
  5
68A8
330
5479
100
AcDbEntity
  8
Defpoints
 62
     0
100
AcDbPoint
 10
1296.897622079172
 20
1642.276523811394
 30
0.0
  0
POINT
  5
68A9
330
5479
100
AcDbEntity
  8
Defpoints
 62
     0
100
AcDbPoint
 10
1296.897622079172
 20
1666.761109811394
 30
0.0
  0
ENDBLK
  5
547B
330
5479
100
AcDbEntity
  8
0
100
AcDbBlockEnd
  0
BLOCK
  5
5492
330
5491
100
AcDbEntity
  8
0
100
AcDbBlockBegin
  2
*D15
 70
     1
 10
0.0
 20
0.0
 30
0.0
  3
*D15
  1

  0
LINE
  5
6730
330
5491
100
AcDbEntity
  8
AM_5 寸法線
 62
     3
100
AcDbLine
 10
1554.897622079172
 20
1647.276523811395
 30
0.0
 11
1554.897622079172
 21
1671.761109811394
 31
0.0
  0
LINE
  5
6731
330
5491
100
AcDbEntity
  8
AM_5 寸法線
 62
     3
100
AcDbLine
 10
1532.897622079171
 20
1647.276523811395
 30
0.0
 11
1532.897622079171
 21
1671.761109811394
 31
0.0
  0
LINE
  5
6732
330
5491
100
AcDbEntity
  8
AM_5 寸法線
 62
     3
100
AcDbLine
 10
1574.897622079172
 20
1666.761109811394
 30
0.0
 11
1594.897622079172
 21
1666.761109811394
 31
0.0
  0
LINE
  5
6733
330
5491
100
AcDbEntity
  8
AM_5 寸法線
 62
     3
100
AcDbLine
 10
1512.897622079172
 20
1666.761109811394
 30
0.0
 11
1492.897622079172
 21
1666.761109811394
 31
0.0
  0
MTEXT
  5
6734
330
5491
100
AcDbEntity
  8
AM_5 寸法線
 62
     3
100
AcDbMText
 10
1589.985246108361
 20
1693.284979802225
 30
0.0
 40
28.0
 41
0.0
 46
0.0
 71
     5
 72
     1
  1
22
  7
SEISA
 73
     1
 44
1.0
  0
LINE
  5
6735
330
5491
100
AcDbEntity
  8
AM_5 寸法線
 62
     3
100
AcDbLine
 10
1554.897622079172
 20
1666.761109811394
 30
0.0
 11
1532.897622079171
 21
1666.761109811394
 31
0.0
  0
INSERT
  5
6736
330
5491
100
AcDbEntity
  8
AM_5 寸法線
 62
     3
100
AcDbBlockReference
  2
_Open30
 10
1554.897622079172
 20
1666.761109811394
 30
0.0
 41
20.0
 42
20.0
 43
20.0
 50
180.0
  0
INSERT
  5
6737
330
5491
100
AcDbEntity
  8
AM_5 寸法線
 62
     3
100
AcDbBlockReference
  2
_Open30
 10
1532.897622079171
 20
1666.761109811394
 30
0.0
 41
20.0
 42
20.0
 43
20.0
  0
POINT
  5
6738
330
5491
100
AcDbEntity
  8
Defpoints
 62
     0
100
AcDbPoint
 10
1554.897622079172
 20
1642.276523811394
 30
0.0
  0
POINT
  5
6739
330
5491
100
AcDbEntity
  8
Defpoints
 62
     0
100
AcDbPoint
 10
1532.897622079171
 20
1642.276523811394
 30
0.0
  0
POINT
  5
673A
330
5491
100
AcDbEntity
  8
Defpoints
 62
     0
100
AcDbPoint
 10
1532.897622079171
 20
1666.761109811394
 30
0.0
  0
ENDBLK
  5
5493
330
5491
100
AcDbEntity
  8
0
100
AcDbBlockEnd
  0
BLOCK
  5
54C4
330
54C3
100
AcDbEntity
  8
0
100
AcDbBlockBegin
  2
*D16
 70
     1
 10
0.0
 20
0.0
 30
0.0
  3
*D16
  1

  0
LINE
  5
6CB4
330
54C3
100
AcDbEntity
  8
AM_5 寸法線
 62
     3
100
AcDbLine
 10
1554.897622079172
 20
1647.276523811395
 30
0.0
 11
1554.897622079172
 21
1671.761109811394
 31
0.0
  0
LINE
  5
6CB5
330
54C3
100
AcDbEntity
  8
AM_5 寸法線
 62
     3
100
AcDbLine
 10
1790.897622079172
 20
1647.276523811395
 30
0.0
 11
1790.897622079172
 21
1671.761109811394
 31
0.0
  0
LINE
  5
6CB6
330
54C3
100
AcDbEntity
  8
AM_5 寸法線
 62
     3
100
AcDbLine
 10
1574.897622079172
 20
1666.761109811394
 30
0.0
 11
1770.897622079172
 21
1666.761109811394
 31
0.0
  0
MTEXT
  5
6CB7
330
54C3
100
AcDbEntity
  8
AM_5 寸法線
 62
     3
100
AcDbMText
 10
1714.659996919617
 20
1696.555584897181
 30
0.0
 40
28.0
 41
0.0
 46
0.0
 71
     5
 72
     1
  1
236
  7
SEISA
 73
     1
 44
1.0
  0
INSERT
  5
6CB8
330
54C3
100
AcDbEntity
  8
AM_5 寸法線
 62
     3
100
AcDbBlockReference
  2
_Open30
 10
1554.897622079172
 20
1666.761109811394
 30
0.0
 41
20.0
 42
20.0
 43
20.0
 50
180.0
  0
INSERT
  5
6CB9
330
54C3
100
AcDbEntity
  8
AM_5 寸法線
 62
     3
100
AcDbBlockReference
  2
_Open30
 10
1790.897622079172
 20
1666.761109811394
 30
0.0
 41
20.0
 42
20.0
 43
20.0
  0
POINT
  5
6CBA
330
54C3
100
AcDbEntity
  8
Defpoints
 62
     0
100
AcDbPoint
 10
1554.897622079172
 20
1642.276523811394
 30
0.0
  0
POINT
  5
6CBB
330
54C3
100
AcDbEntity
  8
Defpoints
 62
     0
100
AcDbPoint
 10
1790.897622079172
 20
1642.276523811394
 30
0.0
  0
POINT
  5
6CBC
330
54C3
100
AcDbEntity
  8
Defpoints
 62
     0
100
AcDbPoint
 10
1790.897622079172
 20
1666.761109811394
 30
0.0
  0
ENDBLK
  5
54C5
330
54C3
100
AcDbEntity
  8
0
100
AcDbBlockEnd
  0
BLOCK
  5
550A
330
5509
100
AcDbEntity
  8
0
100
AcDbBlockBegin
  2
*D17
 70
     1
 10
0.0
 20
0.0
 30
0.0
  3
*D17
  1

  0
LINE
  5
6BD8
330
5509
100
AcDbEntity
  8
AM_5 寸法線
 62
     3
100
AcDbLine
 10
1691.897622079172
 20
1804.776523811394
 30
0.0
 11
1691.897622079172
 21
1758.351280965284
 31
0.0
  0
LINE
  5
6BD9
330
5509
100
AcDbEntity
  8
AM_5 寸法線
 62
     3
100
AcDbLine
 10
1685.897622079172
 20
1805.276523811394
 30
0.0
 11
1685.897622079172
 21
1758.351280965284
 31
0.0
  0
LINE
  5
6BDA
330
5509
100
AcDbEntity
  8
AM_5 寸法線
 62
     3
100
AcDbLine
 10
1685.897622079172
 20
1763.351280965284
 30
0.0
 11
1645.897622079172
 21
1763.351280965284
 31
0.0
  0
LINE
  5
6BDB
330
5509
100
AcDbEntity
  8
AM_5 寸法線
 62
     3
100
AcDbLine
 10
1711.897622079172
 20
1763.351280965284
 30
0.0
 11
1771.497622079172
 21
1763.351280965284
 31
0.0
  0
LINE
  5
6BDC
330
5509
100
AcDbEntity
  8
AM_5 寸法線
 62
     3
100
AcDbLine
 10
1685.897622079172
 20
1763.351280965284
 30
0.0
 11
1691.897622079172
 21
1763.351280965284
 31
0.0
  0
INSERT
  5
6BDD
330
5509
100
AcDbEntity
  8
AM_5 寸法線
 62
     3
100
AcDbBlockReference
  2
_DotSmall
 10
1685.897622079172
 20
1763.351280965284
 30
0.0
 41
20.0
 42
20.0
 43
20.0
  0
INSERT
  5
6BDE
330
5509
100
AcDbEntity
  8
AM_5 寸法線
 62
     3
100
AcDbBlockReference
  2
_Open30
 10
1691.897622079172
 20
1763.351280965284
 30
0.0
 41
20.0
 42
20.0
 43
20.0
 50
180.0
  0
MTEXT
  5
6BDF
330
5509
100
AcDbEntity
  8
AM_5 寸法線
 62
     3
100
AcDbMText
 10
1751.697622079172
 20
1789.351280965284
 30
0.0
 40
28.0
 41
0.0
 46
0.0
 71
     5
 72
     1
  1
6
  7
SEISA
 73
     1
 44
1.0
  0
POINT
  5
6BE0
330
5509
100
AcDbEntity
  8
Defpoints
 62
     0
100
AcDbPoint
 10
1691.897622079172
 20
1809.776523811395
 30
0.0
  0
POINT
  5
6BE1
330
5509
100
AcDbEntity
  8
Defpoints
 62
     0
100
AcDbPoint
 10
1685.897622079172
 20
1810.276523811394
 30
0.0
  0
POINT
  5
6BE2
330
5509
100
AcDbEntity
  8
Defpoints
 62
     0
100
AcDbPoint
 10
1685.897622079172
 20
1763.351280965284
 30
0.0
  0
ENDBLK
  5
550B
330
5509
100
AcDbEntity
  8
0
100
AcDbBlockEnd
  0
BLOCK
  5
5553
330
5552
100
AcDbEntity
  8
0
100
AcDbBlockBegin
  2
*D18
 70
     1
 10
0.0
 20
0.0
 30
0.0
  3
*D18
  1

  0
LINE
  5
674F
330
5552
100
AcDbEntity
  8
AM_5 寸法線
 62
     3
100
AcDbLine
 10
1543.897622079172
 20
1388.276523811394
 30
0.0
 11
1543.897622079172
 21
1267.276523811395
 31
0.0
  0
LINE
  5
6750
330
5552
100
AcDbEntity
  8
AM_5 寸法線
 62
     3
100
AcDbLine
 10
1568.897622079172
 20
1388.276523811394
 30
0.0
 11
1568.897622079172
 21
1267.276523811395
 31
0.0
  0
LINE
  5
6751
330
5552
100
AcDbEntity
  8
AM_5 寸法線
 62
     3
100
AcDbLine
 10
1523.897622079172
 20
1272.276523811395
 30
0.0
 11
1503.897622079172
 21
1272.276523811395
 31
0.0
  0
LINE
  5
6752
330
5552
100
AcDbEntity
  8
AM_5 寸法線
 62
     3
100
AcDbLine
 10
1588.897622079172
 20
1272.276523811395
 30
0.0
 11
1673.697622079172
 21
1272.276523811395
 31
0.0
  0
LINE
  5
6753
330
5552
100
AcDbEntity
  8
AM_5 寸法線
 62
     3
100
AcDbLine
 10
1543.897622079172
 20
1272.276523811395
 30
0.0
 11
1568.897622079172
 21
1272.276523811395
 31
0.0
  0
INSERT
  5
6754
330
5552
100
AcDbEntity
  8
AM_5 寸法線
 62
     3
100
AcDbBlockReference
  2
GENDOT
 10
1543.897622079172
 20
1272.276523811395
 30
0.0
 41
20.0
 42
20.0
 43
20.0
  0
INSERT
  5
6755
330
5552
100
AcDbEntity
  8
AM_5 寸法線
 62
     3
100
AcDbBlockReference
  2
_Open30
 10
1568.897622079172
 20
1272.276523811395
 30
0.0
 41
20.0
 42
20.0
 43
20.0
 50
180.0
  0
MTEXT
  5
6756
330
5552
100
AcDbEntity
  8
AM_5 寸法線
 62
     3
100
AcDbMText
 10
1641.297622079172
 20
1298.276523811395
 30
0.0
 40
28.0
 41
0.0
 46
0.0
 71
     5
 72
     1
  1
25
  7
SEISA
 73
     1
 44
1.0
  0
POINT
  5
6757
330
5552
100
AcDbEntity
  8
Defpoints
 62
     0
100
AcDbPoint
 10
1543.897622079172
 20
1393.276523811395
 30
0.0
  0
POINT
  5
6758
330
5552
100
AcDbEntity
  8
Defpoints
 62
     0
100
AcDbPoint
 10
1568.897622079172
 20
1393.276523811395
 30
0.0
  0
POINT
  5
6759
330
5552
100
AcDbEntity
  8
Defpoints
 62
     0
100
AcDbPoint
 10
1568.897622079172
 20
1272.276523811395
 30
0.0
  0
ENDBLK
  5
5554
330
5552
100
AcDbEntity
  8
0
100
AcDbBlockEnd
  0
BLOCK
  5
556F
330
556E
100
AcDbEntity
  8
0
100
AcDbBlockBegin
  2
*D19
 70
     1
 10
0.0
 20
0.0
 30
0.0
  3
*D19
  1

  0
LINE
  5
68AA
330
556E
100
AcDbEntity
  8
AM_5 寸法線
 62
     3
100
AcDbLine
 10
1543.897622079172
 20
1388.276523811394
 30
0.0
 11
1543.897622079172
 21
1267.276523811395
 31
0.0
  0
LINE
  5
68AB
330
556E
100
AcDbEntity
  8
AM_5 寸法線
 62
     3
100
AcDbLine
 10
1518.897622079172
 20
1388.276523811394
 30
0.0
 11
1518.897622079172
 21
1267.276523811395
 31
0.0
  0
LINE
  5
68AC
330
556E
100
AcDbEntity
  8
AM_5 寸法線
 62
     3
100
AcDbLine
 10
1563.897622079172
 20
1272.276523811395
 30
0.0
 11
1583.897622079172
 21
1272.276523811395
 31
0.0
  0
LINE
  5
68AD
330
556E
100
AcDbEntity
  8
AM_5 寸法線
 62
     3
100
AcDbLine
 10
1498.897622079172
 20
1272.276523811395
 30
0.0
 11
1414.097622079172
 21
1272.276523811395
 31
0.0
  0
LINE
  5
68AE
330
556E
100
AcDbEntity
  8
AM_5 寸法線
 62
     3
100
AcDbLine
 10
1543.897622079172
 20
1272.276523811395
 30
0.0
 11
1518.897622079172
 21
1272.276523811395
 31
0.0
  0
INSERT
  5
68AF
330
556E
100
AcDbEntity
  8
AM_5 寸法線
 62
     3
100
AcDbBlockReference
  2
GENDOT
 10
1543.897622079172
 20
1272.276523811395
 30
0.0
 41
20.0
 42
20.0
 43
20.0
 50
180.0
  0
INSERT
  5
68B0
330
556E
100
AcDbEntity
  8
AM_5 寸法線
 62
     3
100
AcDbBlockReference
  2
_Open30
 10
1518.897622079172
 20
1272.276523811395
 30
0.0
 41
20.0
 42
20.0
 43
20.0
  0
MTEXT
  5
68B1
330
556E
100
AcDbEntity
  8
AM_5 寸法線
 62
     3
100
AcDbMText
 10
1446.497622079172
 20
1298.276523811395
 30
0.0
 40
28.0
 41
0.0
 46
0.0
 71
     5
 72
     1
  1
25
  7
SEISA
 73
     1
 44
1.0
  0
POINT
  5
68B2
330
556E
100
AcDbEntity
  8
Defpoints
 62
     0
100
AcDbPoint
 10
1543.897622079172
 20
1393.276523811395
 30
0.0
  0
POINT
  5
68B3
330
556E
100
AcDbEntity
  8
Defpoints
 62
     0
100
AcDbPoint
 10
1518.897622079172
 20
1393.276523811395
 30
0.0
  0
POINT
  5
68B4
330
556E
100
AcDbEntity
  8
Defpoints
 62
     0
100
AcDbPoint
 10
1518.897622079172
 20
1272.276523811395
 30
0.0
  0
ENDBLK
  5
5570
330
556E
100
AcDbEntity
  8
0
100
AcDbBlockEnd
  0
BLOCK
  5
558B
330
558A
100
AcDbEntity
  8
0
100
AcDbBlockBegin
  2
*D20
 70
     1
 10
0.0
 20
0.0
 30
0.0
  3
*D20
  1

  0
LINE
  5
68B5
330
558A
100
AcDbEntity
  8
AM_5 寸法線
 62
     3
100
AcDbLine
 10
1543.897622079172
 20
1388.276523811394
 30
0.0
 11
1543.897622079172
 21
1203.276523811395
 31
0.0
  0
LINE
  5
68B6
330
558A
100
AcDbEntity
  8
AM_5 寸法線
 62
     3
100
AcDbLine
 10
1711.897622079172
 20
1425.276523811395
 30
0.0
 11
1711.897622079172
 21
1203.276523811395
 31
0.0
  0
LINE
  5
68B7
330
558A
100
AcDbEntity
  8
AM_5 寸法線
 62
     3
100
AcDbLine
 10
1563.897622079172
 20
1208.276523811395
 30
0.0
 11
1691.897622079172
 21
1208.276523811395
 31
0.0
  0
INSERT
  5
68B8
330
558A
100
AcDbEntity
  8
AM_5 寸法線
 62
     3
100
AcDbBlockReference
  2
_Open30
 10
1543.897622079172
 20
1208.276523811395
 30
0.0
 41
20.0
 42
20.0
 43
20.0
 50
180.0
  0
INSERT
  5
68B9
330
558A
100
AcDbEntity
  8
AM_5 寸法線
 62
     3
100
AcDbBlockReference
  2
_Open30
 10
1711.897622079172
 20
1208.276523811395
 30
0.0
 41
20.0
 42
20.0
 43
20.0
  0
MTEXT
  5
68BA
330
558A
100
AcDbEntity
  8
AM_5 寸法線
 62
     3
100
AcDbMText
 10
1627.897622079172
 20
1234.276523811395
 30
0.0
 40
28.0
 41
0.0
 46
0.0
 71
     5
 72
     1
  1
168
  7
SEISA
 73
     1
 44
1.0
  0
POINT
  5
68BB
330
558A
100
AcDbEntity
  8
Defpoints
 62
     0
100
AcDbPoint
 10
1543.897622079172
 20
1393.276523811395
 30
0.0
  0
POINT
  5
68BC
330
558A
100
AcDbEntity
  8
Defpoints
 62
     0
100
AcDbPoint
 10
1711.897622079172
 20
1430.276523811395
 30
0.0
  0
POINT
  5
68BD
330
558A
100
AcDbEntity
  8
Defpoints
 62
     0
100
AcDbPoint
 10
1711.897622079172
 20
1208.276523811395
 30
0.0
  0
ENDBLK
  5
558C
330
558A
100
AcDbEntity
  8
0
100
AcDbBlockEnd
  0
BLOCK
  5
55BB
330
55BA
100
AcDbEntity
  8
0
100
AcDbBlockBegin
  2
*D21
 70
     1
 10
0.0
 20
0.0
 30
0.0
  3
*D21
  1

  0
LINE
  5
676E
330
55BA
100
AcDbEntity
  8
AM_5 寸法線
 62
     3
100
AcDbLine
 10
1711.897622079172
 20
1425.276523811395
 30
0.0
 11
1711.897622079172
 21
1203.276523811395
 31
0.0
  0
LINE
  5
676F
330
55BA
100
AcDbEntity
  8
AM_5 寸法線
 62
     3
100
AcDbLine
 10
1790.897622079172
 20
1476.776523811395
 30
0.0
 11
1790.897622079172
 21
1203.276523811395
 31
0.0
  0
LINE
  5
6770
330
55BA
100
AcDbEntity
  8
AM_5 寸法線
 62
     3
100
AcDbLine
 10
1731.897622079172
 20
1208.276523811395
 30
0.0
 11
1770.897622079172
 21
1208.276523811395
 31
0.0
  0
INSERT
  5
6771
330
55BA
100
AcDbEntity
  8
AM_5 寸法線
 62
     3
100
AcDbBlockReference
  2
_Open30
 10
1711.897622079172
 20
1208.276523811395
 30
0.0
 41
20.0
 42
20.0
 43
20.0
 50
180.0
  0
INSERT
  5
6772
330
55BA
100
AcDbEntity
  8
AM_5 寸法線
 62
     3
100
AcDbBlockReference
  2
_Open30
 10
1790.897622079172
 20
1208.276523811395
 30
0.0
 41
20.0
 42
20.0
 43
20.0
  0
MTEXT
  5
6773
330
55BA
100
AcDbEntity
  8
AM_5 寸法線
 62
     3
100
AcDbMText
 10
1751.397622079172
 20
1234.276523811395
 30
0.0
 40
28.0
 41
0.0
 46
0.0
 71
     5
 72
     1
  1
79
  7
SEISA
 73
     1
 44
1.0
  0
POINT
  5
6774
330
55BA
100
AcDbEntity
  8
Defpoints
 62
     0
100
AcDbPoint
 10
1711.897622079172
 20
1430.276523811395
 30
0.0
  0
POINT
  5
6775
330
55BA
100
AcDbEntity
  8
Defpoints
 62
     0
100
AcDbPoint
 10
1790.897622079172
 20
1481.776523811395
 30
0.0
  0
POINT
  5
6776
330
55BA
100
AcDbEntity
  8
Defpoints
 62
     0
100
AcDbPoint
 10
1790.897622079172
 20
1208.276523811395
 30
0.0
  0
ENDBLK
  5
55BC
330
55BA
100
AcDbEntity
  8
0
100
AcDbBlockEnd
  0
BLOCK
  5
55D3
330
55D2
100
AcDbEntity
  8
0
100
AcDbBlockBegin
  2
*D22
 70
     1
 10
0.0
 20
0.0
 30
0.0
  3
*D22
  1

  0
LINE
  5
6777
330
55D2
100
AcDbEntity
  8
AM_5 寸法線
 62
     3
100
AcDbLine
 10
1296.897622079172
 20
1453.276523811395
 30
0.0
 11
1296.897622079172
 21
1139.276523811395
 31
0.0
  0
LINE
  5
6778
330
55D2
100
AcDbEntity
  8
AM_5 寸法線
 62
     3
100
AcDbLine
 10
1790.897622079172
 20
1476.776523811395
 30
0.0
 11
1790.897622079172
 21
1139.276523811395
 31
0.0
  0
LINE
  5
6779
330
55D2
100
AcDbEntity
  8
AM_5 寸法線
 62
     3
100
AcDbLine
 10
1316.897622079172
 20
1144.276523811394
 30
0.0
 11
1770.897622079172
 21
1144.276523811394
 31
0.0
  0
INSERT
  5
677A
330
55D2
100
AcDbEntity
  8
AM_5 寸法線
 62
     3
100
AcDbBlockReference
  2
_Open30
 10
1296.897622079172
 20
1144.276523811394
 30
0.0
 41
20.0
 42
20.0
 43
20.0
 50
180.0
  0
INSERT
  5
677B
330
55D2
100
AcDbEntity
  8
AM_5 寸法線
 62
     3
100
AcDbBlockReference
  2
_Open30
 10
1790.897622079172
 20
1144.276523811394
 30
0.0
 41
20.0
 42
20.0
 43
20.0
  0
MTEXT
  5
677C
330
55D2
100
AcDbEntity
  8
AM_5 寸法線
 62
     3
100
AcDbMText
 10
1543.897622079172
 20
1170.276523811395
 30
0.0
 40
28.0
 41
0.0
 46
0.0
 71
     5
 72
     1
  1
494
  7
SEISA
 73
     1
 44
1.0
  0
POINT
  5
677D
330
55D2
100
AcDbEntity
  8
Defpoints
 62
     0
100
AcDbPoint
 10
1296.897622079172
 20
1458.276523811395
 30
0.0
  0
POINT
  5
677E
330
55D2
100
AcDbEntity
  8
Defpoints
 62
     0
100
AcDbPoint
 10
1790.897622079172
 20
1481.776523811395
 30
0.0
  0
POINT
  5
677F
330
55D2
100
AcDbEntity
  8
Defpoints
 62
     0
100
AcDbPoint
 10
1790.897622079172
 20
1144.276523811394
 30
0.0
  0
ENDBLK
  5
55D4
330
55D2
100
AcDbEntity
  8
0
100
AcDbBlockEnd
  0
BLOCK
  5
55F3
330
55F2
100
AcDbEntity
  8
0
100
AcDbBlockBegin
  2
*D23
 70
     1
 10
0.0
 20
0.0
 30
0.0
  3
*D23
  1

  0
LINE
  5
68BE
330
55F2
100
AcDbEntity
  8
AM_5 寸法線
 62
     3
100
AcDbLine
 10
1543.897622079172
 20
1388.276523811394
 30
0.0
 11
1543.897622079172
 21
1203.276523811395
 31
0.0
  0
LINE
  5
68BF
330
55F2
100
AcDbEntity
  8
AM_5 寸法線
 62
     3
100
AcDbLine
 10
1296.897622079172
 20
1453.276523811395
 30
0.0
 11
1296.897622079172
 21
1203.276523811395
 31
0.0
  0
LINE
  5
68C0
330
55F2
100
AcDbEntity
  8
AM_5 寸法線
 62
     3
100
AcDbLine
 10
1523.897622079172
 20
1208.276523811395
 30
0.0
 11
1316.897622079172
 21
1208.276523811395
 31
0.0
  0
INSERT
  5
68C1
330
55F2
100
AcDbEntity
  8
AM_5 寸法線
 62
     3
100
AcDbBlockReference
  2
_Open30
 10
1543.897622079172
 20
1208.276523811395
 30
0.0
 41
20.0
 42
20.0
 43
20.0
  0
INSERT
  5
68C2
330
55F2
100
AcDbEntity
  8
AM_5 寸法線
 62
     3
100
AcDbBlockReference
  2
_Open30
 10
1296.897622079172
 20
1208.276523811395
 30
0.0
 41
20.0
 42
20.0
 43
20.0
 50
180.0
  0
MTEXT
  5
68C3
330
55F2
100
AcDbEntity
  8
AM_5 寸法線
 62
     3
100
AcDbMText
 10
1420.397622079172
 20
1234.276523811395
 30
0.0
 40
28.0
 41
0.0
 46
0.0
 71
     5
 72
     1
  1
247
  7
SEISA
 73
     1
 44
1.0
  0
POINT
  5
68C4
330
55F2
100
AcDbEntity
  8
Defpoints
 62
     0
100
AcDbPoint
 10
1543.897622079172
 20
1393.276523811395
 30
0.0
  0
POINT
  5
68C5
330
55F2
100
AcDbEntity
  8
Defpoints
 62
     0
100
AcDbPoint
 10
1296.897622079172
 20
1458.276523811395
 30
0.0
  0
POINT
  5
68C6
330
55F2
100
AcDbEntity
  8
Defpoints
 62
     0
100
AcDbPoint
 10
1296.897622079172
 20
1208.276523811395
 30
0.0
  0
ENDBLK
  5
55F4
330
55F2
100
AcDbEntity
  8
0
100
AcDbBlockEnd
  0
BLOCK
  5
5858
330
5857
100
AcDbEntity
  8
0
100
AcDbBlockBegin
  2
*D24
 70
     1
 10
0.0
 20
0.0
 30
0.0
  3
*D24
  1

  0
LINE
  5
67A4
330
5857
100
AcDbEntity
  8
AM_5 寸法線
 62
     3
100
AcDbLine
 10
1739.897622079172
 20
1809.776523811395
 30
0.0
 11
1923.897622079172
 21
1809.776523811395
 31
0.0
  0
LINE
  5
67A5
330
5857
100
AcDbEntity
  8
AM_5 寸法線
 62
     3
100
AcDbLine
 10
1739.897622079172
 20
1474.776523811395
 30
0.0
 11
1923.897622079172
 21
1474.776523811395
 31
0.0
  0
LINE
  5
67A6
330
5857
100
AcDbEntity
  8
AM_5 寸法線
 62
     3
100
AcDbLine
 10
1918.897622079172
 20
1789.776523811394
 30
0.0
 11
1918.897622079171
 21
1494.776523811395
 31
0.0
  0
INSERT
  5
67A7
330
5857
100
AcDbEntity
  8
AM_5 寸法線
 62
     3
100
AcDbBlockReference
  2
_Open30
 10
1918.897622079172
 20
1809.776523811395
 30
0.0
 41
20.0
 42
20.0
 43
20.0
 50
90.0
  0
INSERT
  5
67A8
330
5857
100
AcDbEntity
  8
AM_5 寸法線
 62
     3
100
AcDbBlockReference
  2
_Open30
 10
1918.897622079171
 20
1474.776523811395
 30
0.0
 41
20.0
 42
20.0
 43
20.0
 50
270.0
  0
MTEXT
  5
67A9
330
5857
100
AcDbEntity
  8
AM_5 寸法線
 62
     3
100
AcDbMText
 10
1892.897622079171
 20
1642.276523811395
 30
0.0
 40
28.0
 41
0.0
 46
0.0
 71
     5
 72
     1
  1
%%c335
  7
SEISA
 11
0.0000000000000001
 21
1.0
 31
0.0
 73
     1
 44
1.0
  0
POINT
  5
67AA
330
5857
100
AcDbEntity
  8
Defpoints
 62
     0
100
AcDbPoint
 10
1734.897622079172
 20
1809.776523811395
 30
0.0
  0
POINT
  5
67AB
330
5857
100
AcDbEntity
  8
Defpoints
 62
     0
100
AcDbPoint
 10
1734.897622079172
 20
1474.776523811395
 30
0.0
  0
POINT
  5
67AC
330
5857
100
AcDbEntity
  8
Defpoints
 62
     0
100
AcDbPoint
 10
1918.897622079171
 20
1474.776523811395
 30
0.0
  0
ENDBLK
  5
5859
330
5857
100
AcDbEntity
  8
0
100
AcDbBlockEnd
  0
BLOCK
  5
5870
330
586F
100
AcDbEntity
  8
0
100
AcDbBlockBegin
  2
*D25
 70
     1
 10
0.0
 20
0.0
 30
0.0
  3
*D25
  1

  0
LINE
  5
67AD
330
586F
100
AcDbEntity
  8
AM_5 寸法線
 62
     3
100
AcDbLine
 10
1716.897622079172
 20
1854.276523811394
 30
0.0
 11
1991.897622079172
 21
1854.276523811394
 31
0.0
  0
LINE
  5
67AE
330
586F
100
AcDbEntity
  8
AM_5 寸法線
 62
     3
100
AcDbLine
 10
1716.897622079172
 20
1430.276523811395
 30
0.0
 11
1991.897622079172
 21
1430.276523811395
 31
0.0
  0
LINE
  5
67AF
330
586F
100
AcDbEntity
  8
AM_5 寸法線
 62
     3
100
AcDbLine
 10
1986.897622079172
 20
1834.276523811394
 30
0.0
 11
1986.897622079172
 21
1450.276523811395
 31
0.0
  0
INSERT
  5
67B0
330
586F
100
AcDbEntity
  8
AM_5 寸法線
 62
     3
100
AcDbBlockReference
  2
_Open30
 10
1986.897622079172
 20
1854.276523811394
 30
0.0
 41
20.0
 42
20.0
 43
20.0
 50
90.0
  0
INSERT
  5
67B1
330
586F
100
AcDbEntity
  8
AM_5 寸法線
 62
     3
100
AcDbBlockReference
  2
_Open30
 10
1986.897622079172
 20
1430.276523811395
 30
0.0
 41
20.0
 42
20.0
 43
20.0
 50
270.0
  0
MTEXT
  5
67B2
330
586F
100
AcDbEntity
  8
AM_5 寸法線
 62
     3
100
AcDbMText
 10
1960.897622079172
 20
1642.276523811395
 30
0.0
 40
28.0
 41
0.0
 46
0.0
 71
     5
 72
     1
  1
%%c424
  7
SEISA
 11
0.0000000000000001
 21
1.0
 31
0.0
 73
     1
 44
1.0
  0
POINT
  5
67B3
330
586F
100
AcDbEntity
  8
Defpoints
 62
     0
100
AcDbPoint
 10
1711.897622079172
 20
1854.276523811394
 30
0.0
  0
POINT
  5
67B4
330
586F
100
AcDbEntity
  8
Defpoints
 62
     0
100
AcDbPoint
 10
1711.897622079172
 20
1430.276523811395
 30
0.0
  0
POINT
  5
67B5
330
586F
100
AcDbEntity
  8
Defpoints
 62
     0
100
AcDbPoint
 10
1986.897622079172
 20
1430.276523811395
 30
0.0
  0
ENDBLK
  5
5871
330
586F
100
AcDbEntity
  8
0
100
AcDbBlockEnd
  0
BLOCK
  5
5888
330
5887
100
AcDbEntity
  8
0
100
AcDbBlockBegin
  2
*D26
 70
     1
 10
0.0
 20
0.0
 30
0.0
  3
*D26
  1

  0
LINE
  5
67B6
330
5887
100
AcDbEntity
  8
AM_5 寸法線
 62
     3
100
AcDbLine
 10
1572.897622079172
 20
1892.276523811394
 30
0.0
 11
2059.897622079172
 21
1892.276523811394
 31
0.0
  0
LINE
  5
67B7
330
5887
100
AcDbEntity
  8
AM_5 寸法線
 62
     3
100
AcDbLine
 10
1572.897622079172
 20
1392.276523811395
 30
0.0
 11
2059.897622079172
 21
1392.276523811395
 31
0.0
  0
LINE
  5
67B8
330
5887
100
AcDbEntity
  8
AM_5 寸法線
 62
     3
100
AcDbLine
 10
2054.897622079173
 20
1872.276523811395
 30
0.0
 11
2054.897622079173
 21
1412.276523811395
 31
0.0
  0
INSERT
  5
67B9
330
5887
100
AcDbEntity
  8
AM_5 寸法線
 62
     3
100
AcDbBlockReference
  2
_Open30
 10
2054.897622079173
 20
1892.276523811394
 30
0.0
 41
20.0
 42
20.0
 43
20.0
 50
90.0
  0
INSERT
  5
67BA
330
5887
100
AcDbEntity
  8
AM_5 寸法線
 62
     3
100
AcDbBlockReference
  2
_Open30
 10
2054.897622079173
 20
1392.276523811395
 30
0.0
 41
20.0
 42
20.0
 43
20.0
 50
270.0
  0
MTEXT
  5
67BB
330
5887
100
AcDbEntity
  8
AM_5 寸法線
 62
     3
100
AcDbMText
 10
2028.897622079172
 20
1642.276523811395
 30
0.0
 40
28.0
 41
0.0
 46
0.0
 71
     5
 72
     1
  1
%%c500
  7
SEISA
 11
0.0000000000000001
 21
1.0
 31
0.0
 73
     1
 44
1.0
  0
POINT
  5
67BC
330
5887
100
AcDbEntity
  8
Defpoints
 62
     0
100
AcDbPoint
 10
1567.897622079172
 20
1892.276523811394
 30
0.0
  0
POINT
  5
67BD
330
5887
100
AcDbEntity
  8
Defpoints
 62
     0
100
AcDbPoint
 10
1567.897622079172
 20
1392.276523811395
 30
0.0
  0
POINT
  5
67BE
330
5887
100
AcDbEntity
  8
Defpoints
 62
     0
100
AcDbPoint
 10
2054.897622079173
 20
1392.276523811395
 30
0.0
  0
ENDBLK
  5
5889
330
5887
100
AcDbEntity
  8
0
100
AcDbBlockEnd
  0
BLOCK
  5
69CE
330
69CD
100
AcDbEntity
  8
0
100
AcDbBlockBegin
  2
*D27
 70
     1
 10
0.0
 20
0.0
 30
0.0
  3
*D27
  1

  0
LINE
  5
69ED
330
69CD
100
AcDbEntity
  8
AM_5 寸法線
 62
     3
100
AcDbLine
 10
1790.897622079172
 20
1807.776523811394
 30
0.0
 11
1790.897622079172
 21
1931.232777492331
 31
0.0
  0
LINE
  5
69EE
330
69CD
100
AcDbEntity
  8
AM_5 寸法線
 62
     3
100
AcDbLine
 10
1870.897622079172
 20
1859.276523811394
 30
0.0
 11
1870.897622079172
 21
1931.232777492331
 31
0.0
  0
LINE
  5
69EF
330
69CD
100
AcDbEntity
  8
AM_5 寸法線
 62
     3
100
AcDbLine
 10
1810.897622079172
 20
1926.23277749233
 30
0.0
 11
1850.897622079172
 21
1926.23277749233
 31
0.0
  0
INSERT
  5
69F0
330
69CD
100
AcDbEntity
  8
AM_5 寸法線
 62
     3
100
AcDbBlockReference
  2
_Open30
 10
1790.897622079172
 20
1926.23277749233
 30
0.0
 41
20.0
 42
20.0
 43
20.0
 50
180.0
  0
INSERT
  5
69F1
330
69CD
100
AcDbEntity
  8
AM_5 寸法線
 62
     3
100
AcDbBlockReference
  2
_Open30
 10
1870.897622079172
 20
1926.23277749233
 30
0.0
 41
20.0
 42
20.0
 43
20.0
  0
MTEXT
  5
69F2
330
69CD
100
AcDbEntity
  8
AM_5 寸法線
 62
     3
100
AcDbMText
 10
1830.897622079172
 20
1952.23277749233
 30
0.0
 40
28.0
 41
0.0
 46
0.0
 71
     5
 72
     1
  1
80
  7
SEISA
 73
     1
 44
1.0
  0
POINT
  5
69F3
330
69CD
100
AcDbEntity
  8
Defpoints
 62
     0
100
AcDbPoint
 10
1790.897622079172
 20
1802.776523811395
 30
0.0
  0
POINT
  5
69F4
330
69CD
100
AcDbEntity
  8
Defpoints
 62
     0
100
AcDbPoint
 10
1870.897622079172
 20
1854.276523811394
 30
0.0
  0
POINT
  5
69F5
330
69CD
100
AcDbEntity
  8
Defpoints
 62
     0
100
AcDbPoint
 10
1870.897622079172
 20
1926.23277749233
 30
0.0
  0
ENDBLK
  5
69CF
330
69CD
100
AcDbEntity
  8
0
100
AcDbBlockEnd
  0
BLOCK
  5
6A95
330
6A94
100
AcDbEntity
  8
0
100
AcDbBlockBegin
  2
*D28
 70
     1
 10
0.0
 20
0.0
 30
0.0
  3
*D28
  1

  0
LINE
  5
6C95
330
6A94
100
AcDbEntity
  8
AM_5 寸法線
 62
     3
100
AcDbLine
 10
1622.897622079172
 20
1803.776523811394
 30
0.0
 11
1622.897622079172
 21
1758.351280965286
 31
0.0
  0
LINE
  5
6C96
330
6A94
100
AcDbEntity
  8
AM_5 寸法線
 62
     3
100
AcDbLine
 10
1685.897761521097
 20
1805.264716081676
 30
0.0
 11
1685.897761521097
 21
1758.351280965286
 31
0.0
  0
LINE
  5
6C97
330
6A94
100
AcDbEntity
  8
AM_5 寸法線
 62
     3
100
AcDbLine
 10
1622.897622079172
 20
1763.351280965286
 30
0.0
 11
1602.897622079172
 21
1763.351280965286
 31
0.0
  0
LINE
  5
6C98
330
6A94
100
AcDbEntity
  8
AM_5 寸法線
 62
     3
100
AcDbLine
 10
1685.897761521097
 20
1763.351280965286
 30
0.0
 11
1705.897761521097
 21
1763.351280965286
 31
0.0
  0
MTEXT
  5
6C99
330
6A94
100
AcDbEntity
  8
AM_5 寸法線
 62
     3
100
AcDbMText
 10
1656.349861918715
 20
1788.674901157531
 30
0.0
 40
28.0
 41
0.0
 46
0.0
 71
     5
 72
     1
  1
63
  7
SEISA
 73
     1
 44
1.0
  0
LINE
  5
6C9A
330
6A94
100
AcDbEntity
  8
AM_5 寸法線
 62
     3
100
AcDbLine
 10
1622.897622079172
 20
1763.351280965286
 30
0.0
 11
1685.897761521097
 21
1763.351280965286
 31
0.0
  0
INSERT
  5
6C9B
330
6A94
100
AcDbEntity
  8
AM_5 寸法線
 62
     3
100
AcDbBlockReference
  2
_DotSmall
 10
1622.897622079172
 20
1763.351280965286
 30
0.0
 41
20.0
 42
20.0
 43
20.0
  0
INSERT
  5
6C9C
330
6A94
100
AcDbEntity
  8
AM_5 寸法線
 62
     3
100
AcDbBlockReference
  2
_DotSmall
 10
1685.897761521097
 20
1763.351280965286
 30
0.0
 41
20.0
 42
20.0
 43
20.0
 50
180.0
  0
POINT
  5
6C9D
330
6A94
100
AcDbEntity
  8
Defpoints
 62
     0
100
AcDbPoint
 10
1622.897622079172
 20
1808.776523811394
 30
0.0
  0
POINT
  5
6C9E
330
6A94
100
AcDbEntity
  8
Defpoints
 62
     0
100
AcDbPoint
 10
1685.897761521097
 20
1810.264716081676
 30
0.0
  0
POINT
  5
6C9F
330
6A94
100
AcDbEntity
  8
Defpoints
 62
     0
100
AcDbPoint
 10
1685.897761521097
 20
1763.351280965286
 30
0.0
  0
ENDBLK
  5
6A96
330
6A94
100
AcDbEntity
  8
0
100
AcDbBlockEnd
  0
BLOCK
  5
6AC7
330
6AC6
100
AcDbEntity
  8
0
100
AcDbBlockBegin
  2
*D29
 70
     1
 10
0.0
 20
0.0
 30
0.0
  3
*D29
  1

  0
LINE
  5
6CA0
330
6AC6
100
AcDbEntity
  8
AM_5 寸法線
 62
     3
100
AcDbLine
 10
1622.897622079172
 20
1803.776523811394
 30
0.0
 11
1622.897622079172
 21
1758.351280965285
 31
0.0
  0
LINE
  5
6CA1
330
6AC6
100
AcDbEntity
  8
AM_5 寸法線
 62
     3
100
AcDbLine
 10
1554.897622079172
 20
1802.276523811394
 30
0.0
 11
1554.897622079172
 21
1758.351280965285
 31
0.0
  0
LINE
  5
6CA2
330
6AC6
100
AcDbEntity
  8
AM_5 寸法線
 62
     3
100
AcDbLine
 10
1622.897622079172
 20
1763.351280965285
 30
0.0
 11
1574.897622079172
 21
1763.351280965285
 31
0.0
  0
INSERT
  5
6CA3
330
6AC6
100
AcDbEntity
  8
AM_5 寸法線
 62
     3
100
AcDbBlockReference
  2
_DotSmall
 10
1622.897622079172
 20
1763.351280965285
 30
0.0
 41
20.0
 42
20.0
 43
20.0
  0
INSERT
  5
6CA4
330
6AC6
100
AcDbEntity
  8
AM_5 寸法線
 62
     3
100
AcDbBlockReference
  2
_Open30
 10
1554.897622079172
 20
1763.351280965285
 30
0.0
 41
20.0
 42
20.0
 43
20.0
  0
LINE
  5
6CA5
330
6AC6
100
AcDbEntity
  8
AM_5 寸法線
 62
     3
100
AcDbLine
 10
1534.897622079172
 20
1763.351280965285
 30
0.0
 11
1514.897622079172
 21
1763.351280965285
 31
0.0
  0
LINE
  5
6CA6
330
6AC6
100
AcDbEntity
  8
AM_5 寸法線
 62
     3
100
AcDbLine
 10
1554.897622079172
 20
1763.351280965285
 30
0.0
 11
1574.897622079172
 21
1763.351280965285
 31
0.0
  0
MTEXT
  5
6CA7
330
6AC6
100
AcDbEntity
  8
AM_5 寸法線
 62
     3
100
AcDbMText
 10
1598.897622079172
 20
1789.351280965284
 30
0.0
 40
28.0
 41
0.0
 46
0.0
 71
     5
 72
     1
  1
68
  7
SEISA
 73
     1
 44
1.0
  0
POINT
  5
6CA8
330
6AC6
100
AcDbEntity
  8
Defpoints
 62
     0
100
AcDbPoint
 10
1622.897622079172
 20
1808.776523811394
 30
0.0
  0
POINT
  5
6CA9
330
6AC6
100
AcDbEntity
  8
Defpoints
 62
     0
100
AcDbPoint
 10
1554.897622079172
 20
1807.276523811394
 30
0.0
  0
POINT
  5
6CAA
330
6AC6
100
AcDbEntity
  8
Defpoints
 62
     0
100
AcDbPoint
 10
1554.897622079172
 20
1763.351280965285
 30
0.0
  0
ENDBLK
  5
6AC8
330
6AC6
100
AcDbEntity
  8
0
100
AcDbBlockEnd
  0
BLOCK
  5
6B38
330
6B36
100
AcDbEntity
  8
0
100
AcDbBlockBegin
  2
_DotSmall
 70
     0
 10
0.0
 20
0.0
 30
0.0
  3
_DotSmall
  1

  0
LWPOLYLINE
  5
6B37
330
6B36
100
AcDbEntity
  8
0
  6
ByBlock
 62
     0
100
AcDbPolyline
 90
        2
 70
     1
 43
0.5
 10
-0.0625
 20
0.0
 42
1.0
 10
0.0625
 20
0.0
 42
1.0
  0
ENDBLK
  5
6B39
330
6B36
100
AcDbEntity
  8
0
100
AcDbBlockEnd
  0
BLOCK
  5
6DBD
330
6DBC
100
AcDbEntity
  8
0
100
AcDbBlockBegin
  2
ｻｲﾄﾞｶﾊﾞｰ　CEM500
 70
     0
 10
0.0
 20
0.0
 30
0.0
  3
ｻｲﾄﾞｶﾊﾞｰ　CEM500
  1

  0
LINE
  5
6DBF
330
6DBC
100
AcDbEntity
  8
AM_11 想像線
 48
0.1
100
AcDbLine
 10
-4.399999999999636
 20
-37.44999999999982
 30
0.0
 11
-15.59999999999991
 21
-37.44999999999982
 31
0.0
  0
LINE
  5
6DC0
330
6DBC
100
AcDbEntity
  8
AM_11 想像線
 48
0.1
100
AcDbLine
 10
-19.99999999999954
 20
-11.0
 30
0.0
 11
2.740158375823739
 21
-11.0
 31
0.0
  0
LINE
  5
6DC1
330
6DBC
100
AcDbEntity
  8
AM_11 想像線
 48
0.1
100
AcDbLine
 10
-12.89999999999963
 20
-24.5
 30
0.0
 11
-12.89999999999963
 21
-19.19999999999982
 31
0.0
  0
LINE
  5
6DC2
330
6DBC
100
AcDbEntity
  8
AM_11 想像線
 48
0.1
100
AcDbLine
 10
-20.0
 20
-43.0
 30
0.0
 11
-19.99999999999954
 21
-24.49999999999977
 31
0.0
  0
LINE
  5
6DC3
330
6DBC
100
AcDbEntity
  8
AM_11 想像線
 48
0.1
100
AcDbLine
 10
-15.59999999999991
 20
-43.0
 30
0.0
 11
-20.0
 21
-43.0
 31
0.0
  0
LINE
  5
6DC4
330
6DBC
100
AcDbEntity
  8
AM_11 想像線
 48
0.1
100
AcDbLine
 10
-15.59999999999991
 20
-37.44999999999982
 30
0.0
 11
-15.59999999999991
 21
-43.0
 31
0.0
  0
LINE
  5
6DC5
330
6DBC
100
AcDbEntity
  8
AM_11 想像線
 48
0.1
100
AcDbLine
 10
-20.0
 20
-43.0
 30
0.0
 11
-20.0
 21
-44.5
 31
0.0
  0
LINE
  5
6DC6
330
6DBC
100
AcDbEntity
  8
AM_11 想像線
 48
0.1
100
AcDbLine
 10
-15.59999999999991
 20
-43.0
 30
0.0
 11
-15.59999999999991
 21
-44.5
 31
0.0
  0
LINE
  5
6DC7
330
6DBC
100
AcDbEntity
  8
AM_11 想像線
 48
0.1
100
AcDbLine
 10
0.0
 20
-12.5
 30
0.0
 11
0.0
 21
-43.0
 31
0.0
  0
LINE
  5
6DC8
330
6DBC
100
AcDbEntity
  8
AM_11 想像線
 48
0.1
100
AcDbLine
 10
-4.399999999999636
 20
-43.0
 30
0.0
 11
-4.399999999999636
 21
-37.44999999999982
 31
0.0
  0
LINE
  5
6DC9
330
6DBC
100
AcDbEntity
  8
AM_11 想像線
 48
0.1
100
AcDbLine
 10
0.0
 20
-43.0
 30
0.0
 11
-4.399999999999636
 21
-43.0
 31
0.0
  0
LINE
  5
6DCA
330
6DBC
100
AcDbEntity
  8
AM_11 想像線
 48
0.1
100
AcDbLine
 10
-4.399999999999636
 20
-43.0
 30
0.0
 11
-4.399999999999636
 21
-44.5
 31
0.0
  0
LINE
  5
6DCB
330
6DBC
100
AcDbEntity
  8
AM_11 想像線
 48
0.1
100
AcDbLine
 10
0.0
 20
-43.0
 30
0.0
 11
0.0
 21
-44.5
 31
0.0
  0
LINE
  5
6DCC
330
6DBC
100
AcDbEntity
  8
AM_11 想像線
 48
0.1
100
AcDbLine
 10
0.0
 20
0.0
 30
0.0
 11
0.0
 21
-12.5
 31
0.0
  0
LINE
  5
6DCD
330
6DBC
100
AcDbEntity
  8
AM_11 想像線
 48
0.1
100
AcDbLine
 10
-12.89999999999963
 20
-19.19999999999982
 30
0.0
 11
-16.0
 21
-19.19999999999982
 31
0.0
  0
LINE
  5
6DCE
330
6DBC
100
AcDbEntity
  8
AM_11 想像線
 48
0.1
100
AcDbLine
 10
-19.99999999999977
 20
-24.50000000000069
 30
0.0
 11
-12.89999999999963
 21
-24.5
 31
0.0
  0
LINE
  5
6DCF
102
{ACAD_REACTORS
330
69DA
102
}
330
6DBC
100
AcDbEntity
  8
AM_11 想像線
 48
0.1
100
AcDbLine
 10
-16.0
 20
0.0
 30
0.0
 11
0.0
 21
0.0
 31
0.0
  0
LINE
  5
6DD0
330
6DBC
100
AcDbEntity
  8
AM_11 想像線
 48
0.1
100
AcDbLine
 10
-16.0
 20
-19.19999999999982
 30
0.0
 11
-16.0
 21
0.0
 31
0.0
  0
ENDBLK
  5
6DBE
330
6DBC
100
AcDbEntity
  8
0
100
AcDbBlockEnd
  0
BLOCK
  5
6DD3
330
6DD2
100
AcDbEntity
  8
0
100
AcDbBlockBegin
  2
ﾘｼﾞｯﾄ　CWM500
 70
     0
 10
0.0
 20
0.0
 30
0.0
  3
ﾘｼﾞｯﾄ　CWM500
  1

  0
LINE
  5
6DD5
330
6DD2
100
AcDbEntity
  8
AM_0 外形線1
100
AcDbLine
 10
-241.0
 20
-59.0
 30
0.0
 11
-55.54101999999966
 21
-59.0
 31
0.0
  0
LINE
  5
6DD6
330
6DD2
100
AcDbEntity
  8
AM_0 外形線1
100
AcDbLine
 10
-55.54101999999966
 20
-438.9999999999997
 30
0.0
 11
-241.0
 21
-438.9999999999997
 31
0.0
  0
LINE
  5
6DD7
330
6DD2
100
AcDbEntity
  8
AM_0 外形線1
100
AcDbLine
 10
-247.0
 20
-432.9999999999997
 30
0.0
 11
-247.0
 21
-65.0
 31
0.0
  0
ARC
  5
6DD8
330
6DD2
100
AcDbEntity
  8
AM_0 外形線1
100
AcDbCircle
 10
-241.0
 20
-432.9999999999997
 30
0.0
 40
6.0
100
AcDbArc
 50
180.0
 51
270.0
  0
ARC
  5
6DD9
330
6DD2
100
AcDbEntity
  8
AM_0 外形線1
100
AcDbCircle
 10
-241.0
 20
-65.0
 30
0.0
 40
6.0
100
AcDbArc
 50
90.0
 51
180.0
  0
LINE
  5
6DDA
330
6DD2
100
AcDbEntity
  8
AM_0 外形線1
100
AcDbLine
 10
-10.99999999999977
 20
-48.99999999999977
 30
0.0
 11
-11.0
 21
-249.0
 31
0.0
  0
LINE
  5
6DDB
330
6DD2
100
AcDbEntity
  8
AM_0 外形線1
100
AcDbLine
 10
-25.0
 20
-456.2082039999999
 30
0.0
 11
-25.0
 21
-249.0
 31
0.0
  0
LINE
  5
6DDC
330
6DD2
100
AcDbEntity
  8
AM_0 外形線1
100
AcDbLine
 10
-52.0
 20
-438.9999999999997
 30
0.0
 11
-52.0
 21
-249.0
 31
0.0
  0
LINE
  5
6DDD
330
6DD2
100
AcDbEntity
  8
AM_0 外形線1
100
AcDbLine
 10
-28.31671899999946
 20
-450.8416409999999
 30
0.0
 11
-48.83281599999964
 21
-440.5835919999999
 31
0.0
  0
ARC
  5
6DDE
330
6DD2
100
AcDbEntity
  8
AM_0 外形線1
100
AcDbCircle
 10
-55.54101999999966
 20
-453.9999999999998
 30
0.0
 40
15.0
100
AcDbArc
 50
63.43494899998879
 51
90.0
  0
LINE
  5
6DDF
330
6DD2
100
AcDbEntity
  8
AM_0 外形線1
100
AcDbLine
 10
-25.0
 20
-497.9999999999997
 30
0.0
 11
-25.0
 21
-456.2082039999999
 31
0.0
  0
LINE
  5
6DE0
330
6DD2
100
AcDbEntity
  8
AM_0 外形線1
100
AcDbLine
 10
-1.0
 20
-498.9999999999997
 30
0.0
 11
-24.0
 21
-498.9999999999997
 31
0.0
  0
LINE
  5
6DE1
330
6DD2
100
AcDbEntity
  8
AM_0 外形線1
100
AcDbLine
 10
-24.0
 20
-498.9999999999997
 30
0.0
 11
-25.0
 21
-497.9999999999997
 31
0.0
  0
ARC
  5
6DE2
330
6DD2
100
AcDbEntity
  8
AM_0 外形線1
100
AcDbCircle
 10
-31.0
 20
-456.2082039999999
 30
0.0
 40
6.0
100
AcDbArc
 50
0.0
 51
63.43494899998879
  0
LINE
  5
6DE3
330
6DD2
100
AcDbEntity
  8
AM_3 隠れ線
100
AcDbLine
 10
-63.0
 20
-240.25
 30
0.0
 11
-11.0
 21
-240.25
 31
0.0
  0
LINE
  5
6DE4
330
6DD2
100
AcDbEntity
  8
AM_3 隠れ線
100
AcDbLine
 10
-11.0
 20
-239.0
 30
0.0
 11
-47.0
 21
-239.0
 31
0.0
  0
LINE
  5
6DE5
330
6DD2
100
AcDbEntity
  8
AM_3 隠れ線
100
AcDbLine
 10
-68.05181499999981
 20
-249.0
 30
0.0
 11
-63.0
 21
-240.25
 31
0.0
  0
LINE
  5
6DE6
330
6DD2
100
AcDbEntity
  8
AM_3 隠れ線
100
AcDbLine
 10
-63.0
 20
-240.25
 30
0.0
 11
-63.0
 21
-249.0
 31
0.0
  0
LINE
  5
6DE7
330
6DD2
100
AcDbEntity
  8
AM_3 隠れ線
100
AcDbLine
 10
-47.0
 20
-239.0
 30
0.0
 11
-47.72168799999962
 21
-240.25
 31
0.0
  0
LINE
  5
6DE8
330
6DD2
100
AcDbEntity
  8
AM_3 隠れ線
100
AcDbLine
 10
-47.72168799999962
 20
-240.25
 30
0.0
 11
-47.72168799999962
 21
-249.0
 31
0.0
  0
LINE
  5
6DE9
330
6DD2
100
AcDbEntity
  8
AM_3 隠れ線
100
AcDbLine
 10
-47.0
 20
-249.0
 30
0.0
 11
-47.0
 21
-239.0
 31
0.0
  0
LINE
  5
6DEA
330
6DD2
100
AcDbEntity
  8
AM_0 外形線1
100
AcDbLine
 10
-25.0
 20
-41.79179599999997
 30
0.0
 11
-25.0
 21
0.0
 31
0.0
  0
LINE
  5
6DEB
330
6DD2
100
AcDbEntity
  8
AM_0 外形線1
100
AcDbLine
 10
-48.83281599999964
 20
-57.41640799999982
 30
0.0
 11
-28.31671899999946
 21
-47.15835900000001
 31
0.0
  0
ARC
  5
6DEC
330
6DD2
100
AcDbEntity
  8
AM_0 外形線1
100
AcDbCircle
 10
-55.54101999999966
 20
-44.0
 30
0.0
 40
15.0
100
AcDbArc
 50
270.0
 51
296.5650510000113
  0
LINE
  5
6DED
330
6DD2
100
AcDbEntity
  8
AM_0 外形線1
100
AcDbLine
 10
0.0000000000002274
 20
-49.0
 30
0.0
 11
-11.0
 21
-49.0
 31
0.0
  0
ARC
  5
6DEE
330
6DD2
100
AcDbEntity
  8
AM_0 外形線1
100
AcDbCircle
 10
-31.0
 20
-41.79179599999997
 30
0.0
 40
6.0
100
AcDbArc
 50
296.5650510000113
 51
0.0
  0
LINE
  5
6DEF
330
6DD2
100
AcDbEntity
  8
AM_0 外形線1
100
AcDbLine
 10
0.0
 20
-29.00000000000023
 30
0.0
 11
0.0
 21
-49.0
 31
0.0
  0
LINE
  5
6DF0
330
6DD2
100
AcDbEntity
  8
AM_0 外形線1
100
AcDbLine
 10
-24.0
 20
1.0
 30
0.0
 11
-1.0
 21
1.0
 31
0.0
  0
LINE
  5
6DF1
330
6DD2
100
AcDbEntity
  8
AM_0 外形線1
100
AcDbLine
 10
-25.0
 20
0.0
 30
0.0
 11
-24.0
 21
1.0
 31
0.0
  0
LINE
  5
6DF2
330
6DD2
100
AcDbEntity
  8
AM_0 外形線1
100
AcDbLine
 10
-1.0
 20
1.0
 30
0.0
 11
0.0
 21
0.0
 31
0.0
  0
LINE
  5
6DF3
330
6DD2
100
AcDbEntity
  8
AM_0 外形線1
100
AcDbLine
 10
-11.0
 20
-146.5
 30
0.0
 11
-247.0
 21
-146.4999999999998
 31
0.0
  0
ENDBLK
  5
6DD4
330
6DD2
100
AcDbEntity
  8
0
100
AcDbBlockEnd
  0
ENDSEC
  0
SECTION
  2
ENTITIES
  0
LINE
  5
42A9
330
1F
100
AcDbEntity
  8
AM_7 中心線
100
AcDbLine
 10
1807.956639079172
 20
1642.276523811394
 30
0.0
 11
1277.060899079172
 21
1642.276523811394
 31
0.0
  0
LINE
  5
431C
330
1F
100
AcDbEntity
  8
AM_0 外形線1
100
AcDbLine
 10
1554.897622079172
 20
1802.276523811394
 30
0.0
 11
1554.897622079172
 21
1794.026523811394
 31
0.0
  0
LINE
  5
431E
330
1F
100
AcDbEntity
  8
AM_0 外形線1
100
AcDbLine
 10
1554.897622079172
 20
1787.276523811394
 30
0.0
 11
1554.897622079172
 21
1774.026523811394
 31
0.0
  0
LINE
  5
4321
330
1F
100
AcDbEntity
  8
AM_0 外形線1
100
AcDbLine
 10
1543.897622079172
 20
1862.276523811394
 30
0.0
 11
1566.397622079172
 21
1862.276523811394
 31
0.0
  0
LINE
  5
4322
330
1F
100
AcDbEntity
  8
AM_0 外形線1
100
AcDbLine
 10
1566.397622079172
 20
1884.276523811394
 30
0.0
 11
1543.897622079172
 21
1884.276523811394
 31
0.0
  0
LINE
  5
436F
330
1F
100
AcDbEntity
  8
AM_0 外形線1
100
AcDbLine
 10
1568.897622079172
 20
1884.276523811394
 30
0.0
 11
1568.897622079172
 21
1862.276523811394
 31
0.0
  0
INSERT
  5
4A6B
102
{ACAD_REACTORS
330
556C
330
589D
102
}
330
1F
100
AcDbEntity
  8
AM_0 外形線1
100
AcDbBlockReference
  2
ケースＡ CEMH500
 10
1543.897622079172
 20
1642.276523811394
 30
0.0
  0
INSERT
  5
4C66
102
{ACAD_REACTORS
330
54D9
330
5523
330
55D0
330
55E8
330
586D
330
54AB
330
69DA
330
6AA3
330
6AD3
102
}
330
1F
100
AcDbEntity
  8
AM_0 外形線1
100
AcDbBlockReference
  2
センタ CEMH500
 10
1554.897622079172
 20
1642.276523811394
 30
0.0
  0
INSERT
  5
4D5F
330
1F
100
AcDbEntity
  8
AM_0 外形線1
100
AcDbBlockReference
  2
リーマボルト CEMH500 M20
 10
1568.897622079172
 20
1873.276523811394
 30
0.0
  0
INSERT
  5
4E7D
102
{ACAD_REACTORS
330
5523
330
5885
102
}
330
1F
100
AcDbEntity
  8
AM_0 外形線1
100
AcDbBlockReference
  2
ＧＣサイドカバ－ CEMH500
 10
1695.897622079172
 20
1642.276523811394
 30
0.0
  0
DIMENSION
  5
544D
330
1F
100
AcDbEntity
  8
AM_5 寸法線
100
AcDbDimension
  2
*D13
 10
1168.897622079172
 20
1452.276523811394
 30
0.0
 11
1142.897622079171
 21
1642.276523811394
 31
0.0
 70
    32
  1
%%c<>
 71
     5
 42
380.0
 73
     0
 74
     0
 75
     0
  3
SEISA$0
100
AcDbAlignedDimension
 13
1302.897622079172
 23
1832.276523811394
 33
0.0
 14
1302.897622079172
 24
1452.276523811394
 34
0.0
 50
90.0
100
AcDbRotatedDimension
1001
ACAD_DSTYLE_DIMINSPECT
1070
   396
1000
100%
1070
   395
1000

1070
   394
1070
    33
1070
   393
1070
     0
  0
DIMENSION
  5
5478
330
1F
100
AcDbEntity
  8
AM_5 寸法線
100
AcDbDimension
  2
*D14
 10
1296.897622079172
 20
1666.761109811394
 30
0.0
 11
1414.897622079172
 21
1692.761109811394
 31
0.0
 70
    32
 71
     5
 42
236.0
 73
     0
 74
     0
 75
     0
  3
SEISA$0
100
AcDbAlignedDimension
 13
1532.897622079172
 23
1642.276523811394
 33
0.0
 14
1296.897622079172
 24
1642.276523811394
 34
0.0
100
AcDbRotatedDimension
  0
DIMENSION
  5
5490
102
{ACAD_XDICTIONARY
360
549F
102
}
102
{ACAD_REACTORS
330
54AB
102
}
330
1F
100
AcDbEntity
  8
AM_5 寸法線
100
AcDbDimension
  2
*D15
 10
1532.897622079171
 20
1666.761109811394
 30
0.0
 11
1589.985246108361
 21
1693.284979802225
 31
0.0
 70
   160
 71
     5
 42
22.00000000000023
 73
     0
 74
     0
 75
     0
  3
SEISA$0
100
AcDbAlignedDimension
 13
1554.897622079172
 23
1642.276523811394
 33
0.0
 14
1532.897622079171
 24
1642.276523811394
 34
0.0
100
AcDbRotatedDimension
1001
ACAD
1000
DSTYLE
1002
{
1070
   279
1070
     2
1002
}
  0
DIMENSION
  5
54C2
102
{ACAD_XDICTIONARY
360
54CF
102
}
102
{ACAD_REACTORS
330
54D9
102
}
330
1F
100
AcDbEntity
  8
AM_5 寸法線
100
AcDbDimension
  2
*D16
 10
1790.897622079172
 20
1666.761109811394
 30
0.0
 11
1714.659996919617
 21
1696.555584897181
 31
0.0
 70
   160
 71
     5
 42
236.0
 73
     0
 74
     0
 75
     0
  3
SEISA$0
100
AcDbAlignedDimension
 13
1554.897622079172
 23
1642.276523811394
 33
0.0
 14
1790.897622079172
 24
1642.276523811394
 34
0.0
100
AcDbRotatedDimension
1001
ACAD
1000
DSTYLE
1002
{
1070
   279
1070
     2
1002
}
  0
DIMENSION
  5
5508
102
{ACAD_XDICTIONARY
360
5517
102
}
102
{ACAD_REACTORS
330
5523
102
}
330
1F
100
AcDbEntity
  8
AM_5 寸法線
100
AcDbDimension
  2
*D17
 10
1685.897622079172
 20
1763.351280965284
 30
0.0
 11
1751.697622079172
 21
1763.351280965284
 31
0.0
 70
   160
 71
     5
 42
6.000000000000227
 73
     0
 74
     0
 75
     0
  3
SEISA$0
100
AcDbAlignedDimension
 13
1691.897622079172
 23
1809.776523811395
 33
0.0
 14
1685.897622079172
 24
1810.276523811394
 34
0.0
100
AcDbRotatedDimension
1001
ACAD
1000
DSTYLE
1002
{
1070
   343
1005
69
1070
   342
1005
0
1070
   173
1070
     1
1070
   344
1005
6B36
1002
}
  0
DIMENSION
  5
5551
102
{ACAD_XDICTIONARY
360
5560
102
}
102
{ACAD_REACTORS
330
556C
102
}
330
1F
100
AcDbEntity
  8
AM_5 寸法線
100
AcDbDimension
  2
*D18
 10
1568.897622079172
 20
1272.276523811395
 30
0.0
 11
1641.297622079172
 21
1298.276523811395
 31
0.0
 70
    32
 71
     5
 42
25.0
 73
     0
 74
     0
 75
     0
  3
SEISA$0
100
AcDbAlignedDimension
 13
1543.897622079172
 23
1393.276523811395
 33
0.0
 14
1568.897622079172
 24
1393.276523811395
 34
0.0
100
AcDbRotatedDimension
1001
ACAD_DSTYLE_DIMINSPECT
1070
   396
1000
100%
1070
   395
1000

1070
   394
1070
    33
1070
   393
1070
     0
1001
ACAD
1000
DSTYLE
1002
{
1070
   173
1070
     1
1070
   342
1005
0
1070
   343
1005
39A7
1070
   344
1005
69
1002
}
  0
DIMENSION
  5
556D
330
1F
100
AcDbEntity
  8
AM_5 寸法線
100
AcDbDimension
  2
*D19
 10
1518.897622079172
 20
1272.276523811395
 30
0.0
 11
1446.497622079172
 21
1298.276523811395
 31
0.0
 70
    32
 71
     5
 42
25.0
 73
     0
 74
     0
 75
     0
  3
SEISA$0
100
AcDbAlignedDimension
 13
1543.897622079172
 23
1393.276523811395
 33
0.0
 14
1518.897622079172
 24
1393.276523811395
 34
0.0
100
AcDbRotatedDimension
1001
ACAD_DSTYLE_DIMINSPECT
1070
   396
1000
100%
1070
   395
1000

1070
   394
1070
    33
1070
   393
1070
     0
1001
ACAD
1000
DSTYLE
1002
{
1070
   173
1070
     1
1070
   342
1005
0
1070
   343
1005
39A7
1070
   344
1005
69
1002
}
  0
DIMENSION
  5
5589
330
1F
100
AcDbEntity
  8
AM_5 寸法線
100
AcDbDimension
  2
*D20
 10
1711.897622079172
 20
1208.276523811395
 30
0.0
 11
1627.897622079172
 21
1234.276523811395
 31
0.0
 70
    32
 71
     5
 42
168.0
 73
     0
 74
     0
 75
     0
  3
SEISA$0
100
AcDbAlignedDimension
 13
1543.897622079172
 23
1393.276523811395
 33
0.0
 14
1711.897622079172
 24
1430.276523811395
 34
0.0
100
AcDbRotatedDimension
  0
DIMENSION
  5
55B9
102
{ACAD_XDICTIONARY
360
55C6
102
}
102
{ACAD_REACTORS
330
55D0
102
}
330
1F
100
AcDbEntity
  8
AM_5 寸法線
100
AcDbDimension
  2
*D21
 10
1790.897622079172
 20
1208.276523811395
 30
0.0
 11
1751.397622079172
 21
1234.276523811395
 31
0.0
 70
    32
 71
     5
 42
79.0
 73
     0
 74
     0
 75
     0
  3
SEISA$0
100
AcDbAlignedDimension
 13
1711.897622079172
 23
1430.276523811395
 33
0.0
 14
1790.897622079172
 24
1481.776523811395
 34
0.0
100
AcDbRotatedDimension
  0
DIMENSION
  5
55D1
102
{ACAD_XDICTIONARY
360
55DE
102
}
102
{ACAD_REACTORS
330
55E8
102
}
330
1F
100
AcDbEntity
  8
AM_5 寸法線
100
AcDbDimension
  2
*D22
 10
1790.897622079172
 20
1144.276523811394
 30
0.0
 11
1543.897622079172
 21
1170.276523811395
 31
0.0
 70
    32
 71
     5
 42
494.0
 73
     0
 74
     0
 75
     0
  3
SEISA$0
100
AcDbAlignedDimension
 13
1296.897622079172
 23
1458.276523811395
 33
0.0
 14
1790.897622079172
 24
1481.776523811395
 34
0.0
100
AcDbRotatedDimension
  0
DIMENSION
  5
55F1
330
1F
100
AcDbEntity
  8
AM_5 寸法線
100
AcDbDimension
  2
*D23
 10
1296.897622079172
 20
1208.276523811395
 30
0.0
 11
1420.397622079172
 21
1234.276523811395
 31
0.0
 70
    32
 71
     5
 42
247.0
 73
     0
 74
     0
 75
     0
  3
SEISA$0
100
AcDbAlignedDimension
 13
1543.897622079172
 23
1393.276523811395
 33
0.0
 14
1296.897622079172
 24
1458.276523811395
 34
0.0
100
AcDbRotatedDimension
  0
DIMENSION
  5
5856
102
{ACAD_XDICTIONARY
360
5863
102
}
102
{ACAD_REACTORS
330
586D
102
}
330
1F
100
AcDbEntity
  8
AM_5 寸法線
100
AcDbDimension
  2
*D24
 10
1918.897622079171
 20
1474.776523811395
 30
0.0
 11
1892.897622079171
 21
1642.276523811395
 31
0.0
 70
    32
  1
%%c<>
 71
     5
 42
334.9999999999998
 73
     0
 74
     0
 75
     0
  3
SEISA$0
100
AcDbAlignedDimension
 13
1734.897622079172
 23
1809.776523811395
 33
0.0
 14
1734.897622079172
 24
1474.776523811395
 34
0.0
 50
90.0
100
AcDbRotatedDimension
1001
ACAD_DSTYLE_DIMINSPECT
1070
   396
1000
100%
1070
   395
1000

1070
   394
1070
    33
1070
   393
1070
     0
1001
ACAD
1000
DSTYLE
1002
{
1070
   279
1070
     0
1002
}
  0
DIMENSION
  5
586E
102
{ACAD_XDICTIONARY
360
587B
102
}
102
{ACAD_REACTORS
330
5885
102
}
330
1F
100
AcDbEntity
  8
AM_5 寸法線
100
AcDbDimension
  2
*D25
 10
1986.897622079172
 20
1430.276523811395
 30
0.0
 11
1986.897622079172
 21
1642.276523811395
 31
0.0
 70
   160
  1
%%c<>
 71
     5
 42
423.9999999999997
 73
     0
 74
     0
 75
     0
  3
SEISA$0
100
AcDbAlignedDimension
 13
1711.897622079172
 23
1854.276523811394
 33
0.0
 14
1711.897622079172
 24
1430.276523811395
 34
0.0
 50
90.0
100
AcDbRotatedDimension
1001
ACAD_DSTYLE_DIMINSPECT
1070
   396
1000
100%
1070
   395
1000

1070
   394
1070
    33
1070
   393
1070
     0
1001
ACAD
1000
DSTYLE
1002
{
1070
   279
1070
     0
1002
}
  0
DIMENSION
  5
5886
102
{ACAD_XDICTIONARY
360
5893
102
}
102
{ACAD_REACTORS
330
589D
102
}
330
1F
100
AcDbEntity
  8
AM_5 寸法線
100
AcDbDimension
  2
*D26
 10
2054.897622079173
 20
1392.276523811395
 30
0.0
 11
2054.897622079172
 21
1642.276523811395
 31
0.0
 70
   160
  1
%%c<>
 71
     5
 42
499.9999999999998
 73
     0
 74
     0
 75
     0
  3
SEISA$0
100
AcDbAlignedDimension
 13
1567.897622079172
 23
1892.276523811394
 33
0.0
 14
1567.897622079172
 24
1392.276523811395
 34
0.0
 50
90.0
100
AcDbRotatedDimension
1001
ACAD_DSTYLE_DIMINSPECT
1070
   396
1000
100%
1070
   395
1000

1070
   394
1070
    33
1070
   393
1070
     0
1001
ACAD
1000
DSTYLE
1002
{
1070
   279
1070
     0
1002
}
  0
LINE
  5
6877
330
1F
100
AcDbEntity
  8
AM_7 中心線
100
AcDbLine
 10
1574.087144603099
 20
1411.276523811395
 30
0.0
 11
1513.897622079172
 21
1411.276523811395
 31
0.0
  0
LINE
  5
6879
330
1F
100
AcDbEntity
  8
AM_0 外形線1
100
AcDbLine
 10
1543.897622079172
 20
1393.276523811395
 30
0.0
 11
1542.897622079172
 21
1392.276523811395
 31
0.0
  0
LINE
  5
6883
330
1F
100
AcDbEntity
  8
AM_0 外形線1
100
AcDbLine
 10
1519.397622079172
 20
1884.276523811394
 30
0.0
 11
1519.397622079172
 21
1883.276523811394
 31
0.0
  0
LINE
  5
6884
330
1F
100
AcDbEntity
  8
AM_0 外形線1
100
AcDbLine
 10
1519.397622079172
 20
1863.276523811395
 30
0.0
 11
1519.397622079172
 21
1862.276523811394
 31
0.0
  0
LINE
  5
6889
330
1F
100
AcDbEntity
  8
AM_0 外形線1
100
AcDbLine
 10
1543.897622079172
 20
1862.276523811394
 30
0.0
 11
1519.397622079172
 21
1862.276523811394
 31
0.0
  0
LINE
  5
688B
330
1F
100
AcDbEntity
  8
AM_0 外形線1
100
AcDbLine
 10
1519.397622079172
 20
1862.276523811394
 30
0.0
 11
1518.897622079172
 21
1861.776523811395
 31
0.0
  0
LINE
  5
688E
330
1F
100
AcDbEntity
  8
AM_0 外形線1
100
AcDbLine
 10
1543.897622079172
 20
1884.276523811394
 30
0.0
 11
1519.397622079172
 21
1884.276523811394
 31
0.0
  0
LINE
  5
6890
330
1F
100
AcDbEntity
  8
AM_0 外形線1
100
AcDbLine
 10
1519.397622079172
 20
1884.276523811394
 30
0.0
 11
1518.897622079172
 21
1884.776523811394
 31
0.0
  0
LINE
  5
6896
330
1F
100
AcDbEntity
  8
AM_0 外形線1
100
AcDbLine
 10
1543.897622079172
 20
1642.276523811394
 30
0.0
 11
1543.897622079172
 21
1393.276523811395
 31
0.0
  0
LINE
  5
6897
330
1F
100
AcDbEntity
  8
AM_0 外形線1
100
AcDbLine
 10
1543.897622079172
 20
1891.276523811394
 30
0.0
 11
1543.897622079172
 21
1884.276523811394
 31
0.0
  0
MTEXT
  5
698E
330
1F
100
AcDbEntity
  8
AM_6 文字
100
AcDbMText
 10
1848.199972205435
 20
1342.003833297011
 30
0.0
 40
28.0
 41
606.7032219427399
 46
67.07224896519398
 71
     1
 72
     5
  1
{\W0.6;TYPE:CEM500/CEMH500\PSHAFT DIA:MAX/MIN \P RIGID SIDE φ270/φ170\P COUPLING CENTER SIDE φ250/φ170}
  7
SEISA
 73
     1
 44
1.0
  0
DIMENSION
  5
69CC
102
{ACAD_XDICTIONARY
360
69D9
102
}
102
{ACAD_REACTORS
330
69DA
102
}
330
1F
100
AcDbEntity
  8
AM_5 寸法線
100
AcDbDimension
  2
*D27
 10
1870.897622079172
 20
1926.23277749233
 30
0.0
 11
1830.897622079172
 21
1952.23277749233
 31
0.0
 70
    32
 71
     5
 42
80.0
 73
     0
 74
     0
 75
     0
  3
SEISA$0
100
AcDbAlignedDimension
 13
1790.897622079172
 23
1802.776523811395
 33
0.0
 14
1870.897622079172
 24
1854.276523811394
 34
0.0
100
AcDbRotatedDimension
1001
ACAD_DSTYLE_DIMINSPECT
1070
   396
1000
100%
1070
   395
1000

1070
   394
1070
    33
1070
   393
1070
     0
  0
DIMENSION
  5
6A93
102
{ACAD_XDICTIONARY
360
6AA2
102
}
102
{ACAD_REACTORS
330
6AA3
102
}
330
1F
100
AcDbEntity
  8
AM_5 寸法線
100
AcDbDimension
  2
*D28
 10
1685.897761521097
 20
1763.351280965286
 30
0.0
 11
1656.349861918715
 21
1788.674901157531
 31
0.0
 70
   160
 71
     5
 42
63.00013944192506
 73
     0
 74
     0
 75
     0
  3
SEISA$0
100
AcDbAlignedDimension
 13
1622.897622079172
 23
1808.776523811394
 33
0.0
 14
1685.897761521097
 24
1810.264716081676
 34
0.0
 50
0.0000000000001132
100
AcDbRotatedDimension
1001
ACAD_DSTYLE_DIMINSPECT
1070
   396
1000
100%
1070
   395
1000

1070
   394
1070
    33
1070
   393
1070
     0
1001
ACAD
1000
DSTYLE
1002
{
1070
   343
1005
6B36
1070
   342
1005
0
1070
   173
1070
     1
1070
   344
1005
6B36
1070
   279
1070
     2
1002
}
  0
DIMENSION
  5
6AC5
102
{ACAD_XDICTIONARY
360
6AD2
102
}
102
{ACAD_REACTORS
330
6AD3
102
}
330
1F
100
AcDbEntity
  8
AM_5 寸法線
100
AcDbDimension
  2
*D29
 10
1554.897622079172
 20
1763.351280965285
 30
0.0
 11
1598.897622079172
 21
1789.351280965284
 31
0.0
 70
    32
 71
     5
 42
68.0
 73
     0
 74
     0
 75
     1
  3
SEISA$0
100
AcDbAlignedDimension
 13
1622.897622079172
 23
1808.776523811394
 33
0.0
 14
1554.897622079172
 24
1807.276523811394
 34
0.0
 50
0.0000000000001132
100
AcDbRotatedDimension
1001
ACAD_DSTYLE_DIMINSPECT
1070
   396
1000
100%
1070
   395
1000

1070
   394
1070
    33
1070
   393
1070
     0
1001
ACAD
1000
DSTYLE
1002
{
1070
   344
1005
69
1070
   342
1005
0
1070
   173
1070
     1
1070
   343
1005
6B36
1002
}
  0
INSERT
  5
6DD1
330
1F
100
AcDbEntity
  8
AM_11 想像線
100
AcDbBlockReference
  2
ｻｲﾄﾞｶﾊﾞｰ　CEM500
 10
1870.897622079172
 20
1854.276523811394
 30
0.0
  0
INSERT
  5
6DF4
330
1F
100
AcDbEntity
  8
AM_11 想像線
100
AcDbBlockReference
  2
ﾘｼﾞｯﾄ　CWM500
 10
1543.897622079172
 20
1891.276523811394
 30
0.0
  0
ENDSEC
  0
SECTION
  2
OBJECTS
  0
DICTIONARY
  5
C
330
0
100
AcDbDictionary
281
     1
  3
ACAD_COLOR
350
C5
  3
ACAD_GROUP
350
D
  3
ACAD_LAYOUT
350
1A
  3
ACAD_MATERIAL
350
C4
  3
ACAD_MLEADERSTYLE
350
2D5
  3
ACAD_MLINESTYLE
350
17
  3
ACAD_PLOTSETTINGS
350
19
  3
ACAD_PLOTSTYLENAME
350
E
  3
ACAD_SCALELIST
350
2B3
  3
ACAD_TABLESTYLE
350
121
  3
ACAD_VISUALSTYLE
350
27F
  3
ACDB_RECOMPOSE_DATA
350
2F7
  3
AcDbVariableDictionary
350
34
  3
AcmDictionary
350
49
  3
AMG
350
2B
  3
AMGSNAPSETTINGS
350
1DE
  0
DICTIONARY
  5
BF
330
2
100
AcDbDictionary
280
     1
281
     1
  3
ACAD_LAYERSTATES
360
6985
  3
AMLAYER_GROUPCOLORS
360
C0
  0
DICTIONARY
  5
29F7
330
10
100
AcDbDictionary
280
     1
281
     1
  3
ADSK_XREC_LAYER_RECONCILED
360
29F8
  0
DICTIONARY
  5
29F9
330
81
100
AcDbDictionary
280
     1
281
     1
  3
ADSK_XREC_LAYER_RECONCILED
360
29FA
  0
DICTIONARY
  5
240E
330
240D
100
AcDbDictionary
280
     1
281
     1
  3
ADSK_XREC_LAYER_RECONCILED
360
29FB
  0
DICTIONARY
  5
82
330
1F
100
AcDbDictionary
280
     1
281
     1
  3
ACAD_SORTENTS
360
A41
  0
DICTIONARY
  5
23C8
330
23C7
100
AcDbDictionary
280
     1
281
     1
  3
ACAD_SORTENTS
360
241F
  0
DICTIONARY
  5
23F1
330
23F0
100
AcDbDictionary
280
     1
281
     1
  3
ACAD_SORTENTS
360
2420
  0
DICTIONARY
  5
241E
330
2411
100
AcDbDictionary
280
     1
281
     1
  3
ACAD_SORTENTS
360
2421
  0
DICTIONARY
  5
3715
330
3714
100
AcDbDictionary
280
     1
281
     1
  3
ACAD_SORTENTS
360
5E6D
  0
DICTIONARY
  5
4AF5
330
4A2D
100
AcDbDictionary
280
     1
281
     1
  3
ACAD_SORTENTS
360
5EE6
  0
DICTIONARY
  5
4CBB
330
4C3F
100
AcDbDictionary
280
     1
281
     1
  3
ACAD_SORTENTS
360
6D06
  0
DICTIONARY
  5
4DC1
330
4D32
100
AcDbDictionary
280
     1
281
     1
  3
ACAD_SORTENTS
360
6064
  0
DICTIONARY
  5
4F0E
330
4E46
100
AcDbDictionary
280
     1
281
     1
  3
ACAD_SORTENTS
360
5855
  0
DICTIONARY
  5
549F
330
5490
100
AcDbDictionary
280
     1
281
     1
  3
ACAD_DIMASSOC
360
54AB
  0
DICTIONARY
  5
54CF
330
54C2
100
AcDbDictionary
280
     1
281
     1
  3
ACAD_DIMASSOC
360
54D9
  0
DICTIONARY
  5
5517
330
5508
100
AcDbDictionary
280
     1
281
     1
  3
ACAD_DIMASSOC
360
5523
  0
DICTIONARY
  5
5560
330
5551
100
AcDbDictionary
280
     1
281
     1
  3
ACAD_DIMASSOC
360
556C
  0
DICTIONARY
  5
55C6
330
55B9
100
AcDbDictionary
280
     1
281
     1
  3
ACAD_DIMASSOC
360
55D0
  0
DICTIONARY
  5
55DE
330
55D1
100
AcDbDictionary
280
     1
281
     1
  3
ACAD_DIMASSOC
360
55E8
  0
DICTIONARY
  5
5863
330
5856
100
AcDbDictionary
280
     1
281
     1
  3
ACAD_DIMASSOC
360
586D
  0
DICTIONARY
  5
587B
330
586E
100
AcDbDictionary
280
     1
281
     1
  3
ACAD_DIMASSOC
360
5885
  0
DICTIONARY
  5
5893
330
5886
100
AcDbDictionary
280
     1
281
     1
  3
ACAD_DIMASSOC
360
589D
  0
DICTIONARY
  5
69D9
330
69CC
100
AcDbDictionary
280
     1
281
     1
  3
ACAD_DIMASSOC
360
69DA
  0
DICTIONARY
  5
6AA2
330
6A93
100
AcDbDictionary
280
     1
281
     1
  3
ACAD_DIMASSOC
360
6AA3
  0
DICTIONARY
  5
6AD2
330
6AC5
100
AcDbDictionary
280
     1
281
     1
  3
ACAD_DIMASSOC
360
6AD3
  0
DICTIONARY
  5
C5
102
{ACAD_REACTORS
330
C
102
}
330
C
100
AcDbDictionary
281
     1
  0
DICTIONARY
  5
D
102
{ACAD_REACTORS
330
C
102
}
330
C
100
AcDbDictionary
281
     1
  0
DICTIONARY
  5
1A
102
{ACAD_REACTORS
330
C
102
}
330
C
100
AcDbDictionary
281
     1
  3
Model
350
22
  3
レイアウト1
350
1E
  3
レイアウト2
350
26
  0
DICTIONARY
  5
C4
102
{ACAD_REACTORS
330
C
102
}
330
C
100
AcDbDictionary
281
     1
  3
ByBlock
350
27D
  3
ByLayer
350
27C
  3
Global
350
27E
  0
DICTIONARY
  5
2D5
102
{ACAD_REACTORS
330
C
102
}
330
C
100
AcDbDictionary
281
     1
  3
Standard
350
2D6
  0
DICTIONARY
  5
17
102
{ACAD_REACTORS
330
C
102
}
330
C
100
AcDbDictionary
281
     1
  3
Standard
350
18
  0
DICTIONARY
  5
19
102
{ACAD_REACTORS
330
C
102
}
330
C
100
AcDbDictionary
281
     1
  3
SEISA基本
350
1C7E
  0
ACDBDICTIONARYWDFLT
  5
E
102
{ACAD_REACTORS
330
C
102
}
330
C
100
AcDbDictionary
281
     1
  3
Normal
350
F
100
AcDbDictionaryWithDefault
340
F
  0
DICTIONARY
  5
2B3
102
{ACAD_REACTORS
330
C
102
}
330
C
100
AcDbDictionary
281
     1
  3
*A1
350
6982
  3
*A2
350
6983
  3
*A3
350
6984
  3
A0
350
2B4
  3
A1
350
2B5
  3
A2
350
2B6
  3
A3
350
2B7
  3
A4
350
2B8
  3
A5
350
2B9
  3
A6
350
2BA
  3
A7
350
2BB
  3
A8
350
2BC
  3
A9
350
2BD
  3
B0
350
2BE
  3
B1
350
2BF
  3
B2
350
2C0
  3
B3
350
2C1
  3
B4
350
2C2
  3
B5
350
2C3
  3
B6
350
2C4
  3
B7
350
2C5
  3
B8
350
2C6
  3
B9
350
2C7
  3
C0
350
2C8
  3
C1
350
2C9
  3
C2
350
2CA
  3
C3
350
2CB
  3
C4
350
2CC
  3
C5
350
2CD
  3
C6
350
2CE
  3
C7
350
2CF
  3
C8
350
2D0
  3
C9
350
2D1
  3
D0
350
2D2
  3
D1
350
2D3
  3
D2
350
2D4
  0
DICTIONARY
  5
121
102
{ACAD_REACTORS
330
C
102
}
330
C
100
AcDbDictionary
281
     1
  3
Standard
350
122
  0
DICTIONARY
  5
27F
102
{ACAD_REACTORS
330
C
102
}
330
C
100
AcDbDictionary
281
     1
  3
2dWireframe
350
285
  3
3D Hidden
350
287
  3
3dWireframe
350
286
  3
Basic
350
284
  3
Brighten
350
28B
  3
ColorChange
350
28F
  3
Conceptual
350
288
  3
Dim
350
28A
  3
Facepattern
350
28E
  3
Flat
350
280
  3
FlatWithEdges
350
281
  3
Gouraud
350
282
  3
GouraudWithEdges
350
283
  3
Linepattern
350
28D
  3
Realistic
350
289
  3
Thicken
350
28C
  0
XRECORD
  5
2F7
102
{ACAD_REACTORS
330
C
102
}
330
C
100
AcDbXrecord
280
     1
 90
        1
330
122
  0
DICTIONARY
  5
34
102
{ACAD_REACTORS
330
C
102
}
330
C
100
AcDbDictionary
281
     1
  3
CANNOSCALE
350
2FA
  3
CMLEADERSTYLE
350
2F8
  3
CTABLESTYLE
350
140
  3
DIMASSOC
350
AC
  3
INDEXCTL
350
35
  3
LAYEREVAL
350
6173
  3
LAYERNOTIFY
350
6174
  3
LIGHTINGUNITS
350
2FB
  3
MSLTSCALE
350
2F9
  0
DICTIONARY
  5
49
102
{ACAD_REACTORS
330
C
102
}
330
C
100
AcDbDictionary
281
     1
  3
AcmBOM
350
161B
  3
AcmStdDictionary
350
4A
  3
AMDTSECTSYM_ARROWCOLOR
350
12B
  0
DICTIONARY
  5
2B
102
{ACAD_REACTORS
330
C
102
}
330
C
100
AcDbDictionary
281
     1
  0
DICTIONARY
  5
1DE
102
{ACAD_REACTORS
330
C
102
}
330
C
100
AcDbDictionary
281
     1
  0
DICTIONARY
  5
6985
102
{ACAD_REACTORS
330
BF
102
}
330
BF
100
AcDbDictionary
281
     1
  0
DICTIONARY
  5
C0
102
{ACAD_REACTORS
330
BF
102
}
330
BF
100
AcDbDictionary
280
     1
281
     1
  0
XRECORD
  5
29F8
102
{ACAD_REACTORS
330
29F7
102
}
330
29F7
100
AcDbXrecord
280
     1
290
     1
  0
XRECORD
  5
29FA
102
{ACAD_REACTORS
330
29F9
102
}
330
29F9
100
AcDbXrecord
280
     1
290
     1
  0
XRECORD
  5
29FB
102
{ACAD_REACTORS
330
240E
102
}
330
240E
100
AcDbXrecord
280
     1
290
     1
  0
SORTENTSTABLE
  5
A41
102
{ACAD_REACTORS
330
82
102
}
330
82
100
AcDbSortentsTable
330
1F
331
544D
  5
5B3B
331
6890
  5
55D1
331
5478
  5
5B3C
331
4321
  5
4321
331
4E7D
  5
595B
331
5589
  5
5B42
331
4C66
  5
586E
331
4322
  5
4322
331
5856
  5
6557
331
4A6B
  5
4FAC
331
6889
  5
5478
331
586E
  5
67FC
331
4D5F
  5
5886
331
54C2
  5
5B3E
331
436F
  5
436F
331
6877
  5
5192
331
688B
  5
54C2
331
6896
  5
5774
331
42A9
  5
42A9
331
55D1
  5
5B44
331
431C
  5
431C
331
6883
  5
52AB
331
5508
  5
5B3F
331
6879
  5
51D7
331
6897
  5
5856
331
5886
  5
67FD
331
6884
  5
52D2
331
431E
  5
431E
331
5490
  5
5B3D
331
688E
  5
5589
331
55F1
  5
5B45
331
556D
  5
5B41
331
55B9
  5
5B43
331
5551
  5
5B40
331
698E
  5
698E
  0
SORTENTSTABLE
  5
241F
102
{ACAD_REACTORS
330
23C8
102
}
330
23C8
100
AcDbSortentsTable
330
23C7
  0
SORTENTSTABLE
  5
2420
102
{ACAD_REACTORS
330
23F1
102
}
330
23F1
100
AcDbSortentsTable
330
23F0
  0
SORTENTSTABLE
  5
2421
102
{ACAD_REACTORS
330
241E
102
}
330
241E
100
AcDbSortentsTable
330
2411
  0
SORTENTSTABLE
  5
5E6D
102
{ACAD_REACTORS
330
3715
102
}
330
3715
100
AcDbSortentsTable
330
3714
  0
SORTENTSTABLE
  5
5EE6
102
{ACAD_REACTORS
330
4AF5
102
}
330
4AF5
100
AcDbSortentsTable
330
4A2D
  0
SORTENTSTABLE
  5
6D06
102
{ACAD_REACTORS
330
4CBB
102
}
330
4CBB
100
AcDbSortentsTable
330
4C3F
331
4C57
  5
4C59
331
4C5F
  5
4C61
331
4C46
  5
4C48
331
4C4E
  5
4C50
331
4C56
  5
4C58
331
4C5E
  5
4C60
331
4C45
  5
4C47
331
4C4D
  5
4C4F
331
4C55
  5
4C57
331
4C5D
  5
4C5F
331
4C44
  5
4C46
331
4C4C
  5
4C4E
331
4C54
  5
4C56
331
4C5C
  5
4C5E
331
4C43
  5
4C45
331
4C4B
  5
4C4D
331
4C62
  5
6A91
331
4C5B
  5
4C5D
331
4C42
  5
4C44
331
4C4A
  5
4C4C
331
4C61
  5
6A90
331
4C5A
  5
4C5C
331
4C49
  5
4C4B
331
4C60
  5
4C62
331
4C51
  5
4C55
331
6A91
  5
4C42
331
4C59
  5
4C5B
331
4C48
  5
4C4A
331
4C50
  5
4C54
331
6A90
  5
4C43
331
4C58
  5
4C5A
331
4C47
  5
4C49
331
4C4F
  5
4C51
  0
SORTENTSTABLE
  5
6064
102
{ACAD_REACTORS
330
4DC1
102
}
330
4DC1
100
AcDbSortentsTable
330
4D32
  0
SORTENTSTABLE
  5
5855
102
{ACAD_REACTORS
330
4F0E
102
}
330
4F0E
100
AcDbSortentsTable
330
4E46
  0
DIMASSOC
  5
54AB
102
{ACAD_REACTORS
330
549F
102
}
330
549F
100
AcDbDimAssoc
330
5490
 90
        1
 70
     0
 71
     0
  1
AcDbOsnapPointRef
 72
     1
331
4C66
331
4C42
 73
     2
 91
        0
 40
1.0
 10
0.0
 20
0.0
 30
2.000000000000000E+50
 75
     0
  0
DIMASSOC
  5
54D9
102
{ACAD_REACTORS
330
54CF
102
}
330
54CF
100
AcDbDimAssoc
330
54C2
 90
        3
 70
     0
 71
     0
  1
AcDbOsnapPointRef
 72
     1
331
4C66
331
4C42
 73
     2
 91
        0
 40
1.0
 10
0.0
 20
0.0
 30
2.000000000000000E+50
 75
     0
  1
AcDbOsnapPointRef
 72
     8
331
4C66
331
4C43
 73
     2
 91
        0
 40
0.4999999999999997
 10
0.0
 20
0.0
 30
0.0
 75
     1
  1
AcDbOsnapPointRef
 72
     1
331
4C66
331
4C42
 73
     2
 91
        0
 40
1.0
 10
0.0
 20
0.0
 30
2.000000000000000E+50
 75
     0
  0
DIMASSOC
  5
5523
102
{ACAD_REACTORS
330
5517
102
}
330
5517
100
AcDbDimAssoc
330
5508
 90
        3
 70
     0
 71
     0
  1
AcDbOsnapPointRef
 72
     1
331
4E7D
331
4E61
 73
     2
 91
        0
 40
1.0
 10
0.0
 20
0.0
 30
2.000000000000000E+50
 75
     0
  1
AcDbOsnapPointRef
 72
     6
331
4C66
331
4C5F
 73
     2
 91
        0
 40
0.0
 10
0.0
 20
0.0
 30
0.0
332
4C66
332
4C60
 74
     2
 92
        0
 75
     0
  0
DIMASSOC
  5
556C
102
{ACAD_REACTORS
330
5560
102
}
330
5560
100
AcDbDimAssoc
330
5551
 90
        2
 70
     0
 71
     0
  1
AcDbOsnapPointRef
 72
    13
331
4A6B
331
4A31
 73
     2
 91
        0
 40
0.0
 10
0.0
 20
0.0
 30
2.000000000000000E+50
 75
     0
  0
DIMASSOC
  5
55D0
102
{ACAD_REACTORS
330
55C6
102
}
330
55C6
100
AcDbDimAssoc
330
55B9
 90
        2
 70
     0
 71
     0
  1
AcDbOsnapPointRef
 72
    13
331
4C66
331
4C43
 73
     2
 91
        0
 40
0.0
 10
0.0
 20
0.0
 30
2.000000000000000E+50
 75
     0
  0
DIMASSOC
  5
55E8
102
{ACAD_REACTORS
330
55DE
102
}
330
55DE
100
AcDbDimAssoc
330
55D1
 90
        2
 70
     0
 71
     0
  1
AcDbOsnapPointRef
 72
    13
331
4C66
331
4C43
 73
     2
 91
        0
 40
0.0
 10
0.0
 20
0.0
 30
2.000000000000000E+50
 75
     0
  0
DIMASSOC
  5
586D
102
{ACAD_REACTORS
330
5863
102
}
330
5863
100
AcDbDimAssoc
330
5856
 90
        3
 70
     0
 71
     0
  1
AcDbOsnapPointRef
 72
    13
331
4C66
331
4C5D
 73
     2
 91
        0
 40
0.0
 10
0.0
 20
0.0
 30
2.000000000000000E+50
 75
     0
  1
AcDbOsnapPointRef
 72
    13
331
4C66
331
4C4C
 73
     2
 91
        0
 40
0.0
 10
0.0
 20
0.0
 30
2.000000000000000E+50
 75
     0
  0
DIMASSOC
  5
5885
102
{ACAD_REACTORS
330
587B
102
}
330
587B
100
AcDbDimAssoc
330
586E
 90
        3
 70
     0
 71
     0
  1
AcDbOsnapPointRef
 72
    13
331
4E7D
331
4E79
 73
     2
 91
        0
 40
0.0
 10
0.0
 20
0.0
 30
2.000000000000000E+50
 75
     0
  1
AcDbOsnapPointRef
 72
     1
331
4E7D
331
4E4B
 73
     2
 91
        0
 40
1.0
 10
0.0
 20
0.0
 30
2.000000000000000E+50
 75
     0
  0
DIMASSOC
  5
589D
102
{ACAD_REACTORS
330
5893
102
}
330
5893
100
AcDbDimAssoc
330
5886
 90
        3
 70
     0
 71
     0
  1
AcDbOsnapPointRef
 72
     1
331
4A6B
331
4A42
 73
     2
 91
        0
 40
1.0
 10
0.0
 20
0.0
 30
2.000000000000000E+50
 75
     0
  1
AcDbOsnapPointRef
 72
     1
331
4A6B
331
4A33
 73
     2
 91
        0
 40
1.0
 10
0.0
 20
0.0
 30
2.000000000000000E+50
 75
     0
  0
DIMASSOC
  5
69DA
102
{ACAD_REACTORS
330
69D9
102
}
330
69D9
100
AcDbDimAssoc
330
69CC
 90
        1
 70
     0
 71
     0
  1
AcDbOsnapPointRef
 72
     1
331
4C66
331
4C43
 73
     0
 91
        0
 40
0.0
 10
0.0
 20
0.0
 30
2.000000000000000E+50
 75
     0
  0
DIMASSOC
  5
6AA3
102
{ACAD_REACTORS
330
6AA2
102
}
330
6AA2
100
AcDbDimAssoc
330
6A93
 90
        3
 70
     0
 71
     0
  1
AcDbOsnapPointRef
 72
     1
331
4C66
331
4C57
 73
     0
 91
        0
 40
0.0
 10
0.0
 20
0.0
 30
2.000000000000000E+50
 75
     0
  1
AcDbOsnapPointRef
 72
     8
331
4C66
331
4C60
 73
     0
 91
        0
 40
3.1652103085949
 10
0.0
 20
0.0
 30
0.0
 75
     1
  1
AcDbOsnapPointRef
 72
     1
331
4C66
331
4C57
 73
     0
 91
        0
 40
0.0
 10
0.0
 20
0.0
 30
2.000000000000000E+50
 75
     0
  0
DIMASSOC
  5
6AD3
102
{ACAD_REACTORS
330
6AD2
102
}
330
6AD2
100
AcDbDimAssoc
330
6AC5
 90
        2
 70
     0
 71
     0
  1
AcDbOsnapPointRef
 72
    13
331
4C66
331
4C54
 73
     0
 91
        0
 40
0.0
 10
0.0
 20
0.0
 30
2.000000000000000E+50
 75
     0
  0
LAYOUT
  5
22
102
{ACAD_REACTORS
330
1A
102
}
330
1A
100
AcDbPlotSettings
  1

  2
KONICA MINOLTA 501 PCL
  4
A4
  6

 40
5.027082920074462
 41
5.027085781097412
 42
5.027069091796875
 43
5.027069091796875
 44
209.9733276367187
 45
296.9259948730469
 46
1.881528536128442
 47
0.0
 48
0.0
 49
0.0
140
0.0
141
0.0
142
1.0
143
4.21866880573893
 70
 11956
 72
     1
 73
     1
 74
     1
  7
SEISA.ctb
 75
     0
147
0.2370415991508114
 76
     0
 77
     2
 78
   300
148
-1128.852549731238
149
-1138.874643602
100
AcDbLayout
  1
Model
 70
     1
 71
     0
 10
0.0
 20
0.0
 11
12.0
 21
9.0
 12
0.0
 22
0.0
 32
0.0
 14
0.0
 24
0.0
 34
0.0
 15
0.0
 25
0.0
 35
0.0
146
0.0
 13
0.0
 23
0.0
 33
0.0
 16
1.0
 26
0.0
 36
0.0
 17
0.0
 27
1.0
 37
0.0
 76
     0
330
1F
331
27A
1001
ACAD_PSEXT
1000
KONICA MINOLTA 501 PCL
1000
KONICA MINOLTA 501/421/361PCL
1000
IP_192.168.20.231_(1)
1000

1070
     0
  0
LAYOUT
  5
1E
102
{ACAD_REACTORS
330
1A
102
}
330
1A
100
AcDbPlotSettings
  1

  2
none_device
  4
Letter_(8.50_x_11.00_Inches)
  6

 40
6.349999904632568
 41
6.349999904632568
 42
6.350006103515625
 43
6.350006103515625
 44
215.8999938964844
 45
279.3999938964844
 46
0.0
 47
0.0
 48
0.0
 49
0.0
140
0.0
141
0.0
142
1.0
143
1.0
 70
 15024
 72
     1
 73
     1
 74
     5
  7
SEISA.ctb
 75
    16
147
1.0
 76
     0
 77
     2
 78
   300
148
0.0
149
0.0
100
AcDbLayout
  1
レイアウト1
 70
     1
 71
     1
 10
0.0
 20
0.0
 11
420.0
 21
297.0
 12
0.0
 22
0.0
 32
0.0
 14
1.000000000000000E+20
 24
1.000000000000000E+20
 34
1.000000000000000E+20
 15
-1.000000000000000E+20
 25
-1.000000000000000E+20
 35
-1.000000000000000E+20
146
0.0
 13
0.0
 23
0.0
 33
0.0
 16
1.0
 26
0.0
 36
0.0
 17
0.0
 27
1.0
 37
0.0
 76
     0
330
1B
  0
LAYOUT
  5
26
102
{ACAD_REACTORS
330
1A
102
}
330
1A
100
AcDbPlotSettings
  1

  2
none_device
  4
Letter_(8.50_x_11.00_Inches)
  6

 40
6.349999904632568
 41
6.349999904632568
 42
6.350006103515625
 43
6.350006103515625
 44
215.8999938964844
 45
279.3999938964844
 46
0.0
 47
0.0
 48
0.0
 49
0.0
140
0.0
141
0.0
142
1.0
143
1.0
 70
 15024
 72
     1
 73
     1
 74
     5
  7
SEISA.ctb
 75
    16
147
1.0
 76
     0
 77
     2
 78
   300
148
0.0
149
0.0
100
AcDbLayout
  1
レイアウト2
 70
     1
 71
     2
 10
0.0
 20
0.0
 11
12.0
 21
9.0
 12
0.0
 22
0.0
 32
0.0
 14
0.0
 24
0.0
 34
0.0
 15
0.0
 25
0.0
 35
0.0
146
0.0
 13
0.0
 23
0.0
 33
0.0
 16
1.0
 26
0.0
 36
0.0
 17
0.0
 27
1.0
 37
0.0
 76
     0
330
23
  0
MATERIAL
  5
27D
102
{ACAD_REACTORS
330
C4
102
}
330
C4
100
AcDbMaterial
  1
ByBlock
 73
     1
 78
     1
172
     1
176
     1
270
     1
274
     1
 94
       63
  0
MATERIAL
  5
27C
102
{ACAD_REACTORS
330
C4
102
}
330
C4
100
AcDbMaterial
  1
ByLayer
 73
     1
 78
     1
172
     1
176
     1
270
     1
274
     1
 94
       63
  0
MATERIAL
  5
27E
102
{ACAD_REACTORS
330
C4
102
}
330
C4
100
AcDbMaterial
  1
Global
 73
     1
 78
     1
172
     1
176
     1
270
     1
274
     1
 94
       63
  0
MLEADERSTYLE
  5
2D6
102
{ACAD_REACTORS
330
2D5
102
}
330
2D5
100
AcDbMLeaderStyle
170
     2
171
     1
172
     0
 90
        2
 40
0.0
 41
0.0
173
     1
 91
-1056964608
340
14
 92
       -2
290
     1
 42
2.0
291
     1
 43
0.36
  3
Standard
 44
4.0
300

342
11
174
     1
178
     6
175
     1
176
     0
 93
-1056964608
 45
4.0
292
     0
297
     0
 46
4.0
 94
-1056964608
 47
1.0
 49
1.0
140
1.0
293
     1
141
0.0
294
     1
177
     0
142
1.0
295
     0
296
     0
143
0.125
1001
ACAD_MLEADERVER
1070
     2
  0
MLINESTYLE
  5
18
102
{ACAD_REACTORS
330
17
102
}
330
17
100
AcDbMlineStyle
  2
STANDARD
 70
     0
  3

 62
   256
 51
90.0
 52
90.0
 71
     2
 49
0.5
 62
   256
  6
BYLAYER
 49
-0.5
 62
   256
  6
BYLAYER
  0
PLOTSETTINGS
  5
1C7E
102
{ACAD_REACTORS
330
19
102
}
330
19
100
AcDbPlotSettings
  1
SEISA基本
  2
none_device
  4
Letter_(8.50_x_11.00_Inches)
  6

 40
6.349999904632568
 41
6.349999904632568
 42
6.350006103515625
 43
6.350006103515625
 44
215.8999938964844
 45
279.3999938964844
 46
7.302498226506358
 47
0.0
 48
0.0
 49
0.0
140
0.0
141
0.0
142
1.0
143
1.574803221122936
 70
 11956
 72
     1
 73
     1
 74
     2
  7
SEISA.ctb
 75
     0
147
0.6349999711627053
 76
     0
 77
     2
 78
   300
148
0.0
149
0.0
1001
ACAD_PSEXT
1000
なし
1000
なし
1000
適切ではありません
1000
新しいプロッタ環境設定名を選択しない限り、レイアウトは印刷されません。
1070
     0
  0
ACDBPLACEHOLDER
  5
F
102
{ACAD_REACTORS
330
E
102
}
330
E
  0
SCALE
  5
6982
102
{ACAD_REACTORS
330
2B3
102
}
330
2B3
100
AcDbScale
 70
     0
300
1:3
140
1.0
141
3.0
290
     0
  0
SCALE
  5
6983
102
{ACAD_REACTORS
330
2B3
102
}
330
2B3
100
AcDbScale
 70
     0
300
1:2.5
140
1.0
141
2.5
290
     0
  0
SCALE
  5
6984
102
{ACAD_REACTORS
330
2B3
102
}
330
2B3
100
AcDbScale
 70
     0
300
1:1.5
140
1.0
141
1.5
290
     0
  0
SCALE
  5
2B4
102
{ACAD_REACTORS
330
2B3
102
}
330
2B3
100
AcDbScale
 70
     0
300
1:1
140
1.0
141
1.0
290
     1
  0
SCALE
  5
2B5
102
{ACAD_REACTORS
330
2B3
102
}
330
2B3
100
AcDbScale
 70
     0
300
1:2
140
1.0
141
2.0
290
     0
  0
SCALE
  5
2B6
102
{ACAD_REACTORS
330
2B3
102
}
330
2B3
100
AcDbScale
 70
     0
300
1:4
140
1.0
141
4.0
290
     0
  0
SCALE
  5
2B7
102
{ACAD_REACTORS
330
2B3
102
}
330
2B3
100
AcDbScale
 70
     0
300
1:5
140
1.0
141
5.0
290
     0
  0
SCALE
  5
2B8
102
{ACAD_REACTORS
330
2B3
102
}
330
2B3
100
AcDbScale
 70
     0
300
1:8
140
1.0
141
8.0
290
     0
  0
SCALE
  5
2B9
102
{ACAD_REACTORS
330
2B3
102
}
330
2B3
100
AcDbScale
 70
     0
300
1:10
140
1.0
141
10.0
290
     0
  0
SCALE
  5
2BA
102
{ACAD_REACTORS
330
2B3
102
}
330
2B3
100
AcDbScale
 70
     0
300
1:16
140
1.0
141
16.0
290
     0
  0
SCALE
  5
2BB
102
{ACAD_REACTORS
330
2B3
102
}
330
2B3
100
AcDbScale
 70
     0
300
1:20
140
1.0
141
20.0
290
     0
  0
SCALE
  5
2BC
102
{ACAD_REACTORS
330
2B3
102
}
330
2B3
100
AcDbScale
 70
     0
300
1:30
140
1.0
141
30.0
290
     0
  0
SCALE
  5
2BD
102
{ACAD_REACTORS
330
2B3
102
}
330
2B3
100
AcDbScale
 70
     0
300
1:40
140
1.0
141
40.0
290
     0
  0
SCALE
  5
2BE
102
{ACAD_REACTORS
330
2B3
102
}
330
2B3
100
AcDbScale
 70
     0
300
1:50
140
1.0
141
50.0
290
     0
  0
SCALE
  5
2BF
102
{ACAD_REACTORS
330
2B3
102
}
330
2B3
100
AcDbScale
 70
     0
300
1:100
140
1.0
141
100.0
290
     0
  0
SCALE
  5
2C0
102
{ACAD_REACTORS
330
2B3
102
}
330
2B3
100
AcDbScale
 70
     0
300
2:1
140
2.0
141
1.0
290
     0
  0
SCALE
  5
2C1
102
{ACAD_REACTORS
330
2B3
102
}
330
2B3
100
AcDbScale
 70
     0
300
4:1
140
4.0
141
1.0
290
     0
  0
SCALE
  5
2C2
102
{ACAD_REACTORS
330
2B3
102
}
330
2B3
100
AcDbScale
 70
     0
300
8:1
140
8.0
141
1.0
290
     0
  0
SCALE
  5
2C3
102
{ACAD_REACTORS
330
2B3
102
}
330
2B3
100
AcDbScale
 70
     0
300
10:1
140
10.0
141
1.0
290
     0
  0
SCALE
  5
2C4
102
{ACAD_REACTORS
330
2B3
102
}
330
2B3
100
AcDbScale
 70
     0
300
100:1
140
100.0
141
1.0
290
     0
  0
SCALE
  5
2C5
102
{ACAD_REACTORS
330
2B3
102
}
330
2B3
100
AcDbScale
 70
     0
300
1/128" = 1'-0"
140
0.0078125
141
12.0
290
     0
  0
SCALE
  5
2C6
102
{ACAD_REACTORS
330
2B3
102
}
330
2B3
100
AcDbScale
 70
     0
300
1/64" = 1'-0"
140
0.015625
141
12.0
290
     0
  0
SCALE
  5
2C7
102
{ACAD_REACTORS
330
2B3
102
}
330
2B3
100
AcDbScale
 70
     0
300
1/32" = 1'-0"
140
0.03125
141
12.0
290
     0
  0
SCALE
  5
2C8
102
{ACAD_REACTORS
330
2B3
102
}
330
2B3
100
AcDbScale
 70
     0
300
1/16" = 1'-0"
140
0.0625
141
12.0
290
     0
  0
SCALE
  5
2C9
102
{ACAD_REACTORS
330
2B3
102
}
330
2B3
100
AcDbScale
 70
     0
300
3/32" = 1'-0"
140
0.09375
141
12.0
290
     0
  0
SCALE
  5
2CA
102
{ACAD_REACTORS
330
2B3
102
}
330
2B3
100
AcDbScale
 70
     0
300
1/8" = 1'-0"
140
0.125
141
12.0
290
     0
  0
SCALE
  5
2CB
102
{ACAD_REACTORS
330
2B3
102
}
330
2B3
100
AcDbScale
 70
     0
300
3/16" = 1'-0"
140
0.1875
141
12.0
290
     0
  0
SCALE
  5
2CC
102
{ACAD_REACTORS
330
2B3
102
}
330
2B3
100
AcDbScale
 70
     0
300
1/4" = 1'-0"
140
0.25
141
12.0
290
     0
  0
SCALE
  5
2CD
102
{ACAD_REACTORS
330
2B3
102
}
330
2B3
100
AcDbScale
 70
     0
300
3/8" = 1'-0"
140
0.375
141
12.0
290
     0
  0
SCALE
  5
2CE
102
{ACAD_REACTORS
330
2B3
102
}
330
2B3
100
AcDbScale
 70
     0
300
1/2" = 1'-0"
140
0.5
141
12.0
290
     0
  0
SCALE
  5
2CF
102
{ACAD_REACTORS
330
2B3
102
}
330
2B3
100
AcDbScale
 70
     0
300
3/4" = 1'-0"
140
0.75
141
12.0
290
     0
  0
SCALE
  5
2D0
102
{ACAD_REACTORS
330
2B3
102
}
330
2B3
100
AcDbScale
 70
     0
300
1" = 1'-0"
140
1.0
141
12.0
290
     0
  0
SCALE
  5
2D1
102
{ACAD_REACTORS
330
2B3
102
}
330
2B3
100
AcDbScale
 70
     0
300
1-1/2" = 1'-0"
140
1.5
141
12.0
290
     0
  0
SCALE
  5
2D2
102
{ACAD_REACTORS
330
2B3
102
}
330
2B3
100
AcDbScale
 70
     0
300
3" = 1'-0"
140
3.0
141
12.0
290
     0
  0
SCALE
  5
2D3
102
{ACAD_REACTORS
330
2B3
102
}
330
2B3
100
AcDbScale
 70
     0
300
6" = 1'-0"
140
6.0
141
12.0
290
     0
  0
SCALE
  5
2D4
102
{ACAD_REACTORS
330
2B3
102
}
330
2B3
100
AcDbScale
 70
     0
300
1'-0" = 1'-0"
140
12.0
141
12.0
290
     0
  0
TABLESTYLE
  5
122
102
{ACAD_XDICTIONARY
360
2F5
102
}
102
{ACAD_REACTORS
330
121
102
}
330
121
100
AcDbTableStyle
  3
Standard
 70
     0
 71
     0
 40
1.5
 41
1.5
280
     0
281
     0
  7
STANDARD
140
4.5
170
     2
 62
     0
 63
     7
283
     0
 90
      512
 91
        0
  1

274
    -2
284
     1
 64
     0
275
    -2
285
     1
 65
     0
276
    -2
286
     1
 66
     0
277
    -2
287
     1
 67
     0
278
    -2
288
     1
 68
     0
279
    -2
289
     1
 69
     0
  7
STANDARD
140
6.0
170
     5
 62
     0
 63
     7
283
     0
 90
      512
 91
        0
  1

274
    -2
284
     1
 64
     0
275
    -2
285
     1
 65
     0
276
    -2
286
     1
 66
     0
277
    -2
287
     1
 67
     0
278
    -2
288
     1
 68
     0
279
    -2
289
     1
 69
     0
  7
STANDARD
140
4.5
170
     5
 62
     0
 63
     7
283
     0
 90
      512
 91
        0
  1

274
    -2
284
     1
 64
     0
275
    -2
285
     1
 65
     0
276
    -2
286
     1
 66
     0
277
    -2
287
     1
 67
     0
278
    -2
288
     1
 68
     0
279
    -2
289
     1
 69
     0
  0
VISUALSTYLE
  5
285
102
{ACAD_REACTORS
330
27F
102
}
330
27F
100
AcDbVisualStyle
  2
2dWireframe
 70
     4
 71
     0
 72
     2
 73
     0
 90
        0
 40
-0.6
 41
-30.0
 62
     5
 63
     7
421
 16777215
 74
     1
 91
        4
 64
     7
 65
   257
 75
     1
175
     1
 42
1.0
 92
        0
 66
   257
 43
1.0
 76
     1
 77
     6
 78
     2
 67
     7
 79
     5
170
     0
171
     0
290
     0
174
     0
 93
        1
 44
0.0
173
     0
291
     0
 45
0.0
  0
VISUALSTYLE
  5
287
102
{ACAD_REACTORS
330
27F
102
}
330
27F
100
AcDbVisualStyle
  2
3D Hidden
 70
     6
 71
     1
 72
     2
 73
     2
 90
        0
 40
-0.6
 41
-30.0
 62
     5
 63
     7
421
 16777215
 74
     2
 91
        2
 64
     7
 65
   257
 75
     2
175
     1
 42
40.0
 92
        0
 66
   257
 43
1.0
 76
     1
 77
     6
 78
     2
 67
     7
 79
     3
170
     0
171
     0
290
     0
174
     0
 93
        1
 44
0.0
173
     0
291
     0
 45
0.0
  0
VISUALSTYLE
  5
286
102
{ACAD_REACTORS
330
27F
102
}
330
27F
100
AcDbVisualStyle
  2
3dWireframe
 70
     5
 71
     0
 72
     2
 73
     0
 90
        0
 40
-0.6
 41
-30.0
 62
     5
 63
     7
421
 16777215
 74
     1
 91
        4
 64
     7
 65
   257
 75
     1
175
     1
 42
1.0
 92
        0
 66
   257
 43
1.0
 76
     1
 77
     6
 78
     2
 67
     7
 79
     5
170
     0
171
     0
290
     0
174
     0
 93
        1
 44
0.0
173
     0
291
     0
 45
0.0
  0
VISUALSTYLE
  5
284
102
{ACAD_REACTORS
330
27F
102
}
330
27F
100
AcDbVisualStyle
  2
Basic
 70
     7
 71
     1
 72
     0
 73
     1
 90
        0
 40
-0.6
 41
-30.0
 62
     5
 63
     7
421
 16777215
 74
     0
 91
        4
 64
     7
 65
   257
 75
     1
175
     1
 42
1.0
 92
        8
 66
     7
 43
1.0
 76
     1
 77
     6
 78
     2
 67
     7
 79
     5
170
     0
171
     0
290
     0
174
     0
 93
        1
 44
0.0
173
     0
291
     1
 45
0.0
  0
VISUALSTYLE
  5
28B
102
{ACAD_REACTORS
330
27F
102
}
330
27F
100
AcDbVisualStyle
  2
Brighten
 70
    12
 71
     2
 72
     2
 73
     0
 90
        0
 40
-0.6
 41
-30.0
 62
     5
 63
     7
421
 16777215
 74
     1
 91
        4
 64
     7
 65
   257
 75
     1
175
     1
 42
1.0
 92
        8
 66
     7
 43
1.0
 76
     1
 77
     6
 78
     2
 67
     7
 79
     5
170
     0
171
     0
290
     0
174
     0
 93
        1
 44
50.0
173
     0
291
     1
 45
0.0
  0
VISUALSTYLE
  5
28F
102
{ACAD_REACTORS
330
27F
102
}
330
27F
100
AcDbVisualStyle
  2
ColorChange
 70
    16
 71
     2
 72
     2
 73
     3
 90
        0
 40
-0.6
 41
-30.0
 62
     5
 63
     8
421
  8421504
 74
     1
 91
        4
 64
     7
 65
   257
 75
     1
175
     1
 42
1.0
 92
        8
 66
     8
424
  8421504
 43
1.0
 76
     1
 77
     6
 78
     2
 67
     7
 79
     5
170
     0
171
     0
290
     0
174
     0
 93
        1
 44
0.0
173
     0
291
     1
 45
0.0
  0
VISUALSTYLE
  5
288
102
{ACAD_REACTORS
330
27F
102
}
330
27F
100
AcDbVisualStyle
  2
Conceptual
 70
     9
 71
     3
 72
     2
 73
     0
 90
        0
 40
-0.6
 41
-30.0
 62
     5
 63
     7
421
 16777215
 74
     2
 91
        2
 64
     7
 65
   257
 75
     1
175
     1
 42
40.0
 92
        8
 66
     7
 43
1.0
 76
     1
 77
     6
 78
     2
 67
     7
 79
     3
170
     0
171
     0
290
     0
174
     0
 93
        1
 44
0.0
173
     0
291
     0
 45
0.0
  0
VISUALSTYLE
  5
28A
102
{ACAD_REACTORS
330
27F
102
}
330
27F
100
AcDbVisualStyle
  2
Dim
 70
    11
 71
     2
 72
     2
 73
     0
 90
        0
 40
-0.6
 41
-30.0
 62
     5
 63
     7
421
 16777215
 74
     1
 91
        4
 64
     7
 65
   257
 75
     1
175
     1
 42
1.0
 92
        8
 66
     7
 43
1.0
 76
     1
 77
     6
 78
     2
 67
     7
 79
     5
170
     0
171
     0
290
     0
174
     0
 93
        1
 44
-50.0
173
     0
291
     1
 45
0.0
  0
VISUALSTYLE
  5
28E
102
{ACAD_REACTORS
330
27F
102
}
330
27F
100
AcDbVisualStyle
  2
Facepattern
 70
    15
 71
     2
 72
     2
 73
     0
 90
        0
 40
-0.6
 41
-30.0
 62
     5
 63
     7
421
 16777215
 74
     1
 91
        4
 64
     7
 65
   257
 75
     1
175
     1
 42
1.0
 92
        8
 66
     7
 43
1.0
 76
     1
 77
     6
 78
     2
 67
     7
 79
     5
170
     0
171
     0
290
     0
174
     0
 93
        1
 44
0.0
173
     0
291
     1
 45
0.0
  0
VISUALSTYLE
  5
280
102
{ACAD_REACTORS
330
27F
102
}
330
27F
100
AcDbVisualStyle
  2
Flat
 70
     0
 71
     2
 72
     1
 73
     1
 90
        2
 40
-0.6
 41
30.0
 62
     5
 63
     7
421
 16777215
 74
     0
 91
        4
 64
     7
 65
   257
 75
     1
175
     1
 42
1.0
 92
        8
 66
     7
 43
1.0
 76
     1
 77
     6
 78
     2
 67
     7
 79
     5
170
     0
171
     0
290
     0
174
     0
 93
       13
 44
0.0
173
     0
291
     1
 45
0.0
  0
VISUALSTYLE
  5
281
102
{ACAD_REACTORS
330
27F
102
}
330
27F
100
AcDbVisualStyle
  2
FlatWithEdges
 70
     1
 71
     2
 72
     1
 73
     1
 90
        2
 40
-0.6
 41
30.0
 62
     5
 63
     7
421
 16777215
 74
     1
 91
        4
 64
     7
 65
   257
 75
     1
175
     1
 42
1.0
 92
        0
 66
   257
 43
1.0
 76
     1
 77
     6
 78
     2
 67
     7
 79
     5
170
     0
171
     0
290
     0
174
     0
 93
       13
 44
0.0
173
     0
291
     1
 45
0.0
  0
VISUALSTYLE
  5
282
102
{ACAD_REACTORS
330
27F
102
}
330
27F
100
AcDbVisualStyle
  2
Gouraud
 70
     2
 71
     2
 72
     2
 73
     1
 90
        2
 40
-0.6
 41
30.0
 62
     5
 63
     7
421
 16777215
 74
     0
 91
        4
 64
     7
 65
   257
 75
     1
175
     1
 42
1.0
 92
        0
 66
     7
 43
1.0
 76
     1
 77
     6
 78
     2
 67
     7
 79
     5
170
     0
171
     0
290
     0
174
     0
 93
       13
 44
0.0
173
     0
291
     1
 45
0.0
  0
VISUALSTYLE
  5
283
102
{ACAD_REACTORS
330
27F
102
}
330
27F
100
AcDbVisualStyle
  2
GouraudWithEdges
 70
     3
 71
     2
 72
     2
 73
     1
 90
        2
 40
-0.6
 41
30.0
 62
     5
 63
     7
421
 16777215
 74
     1
 91
        4
 64
     7
 65
   257
 75
     1
175
     1
 42
1.0
 92
        0
 66
   257
 43
1.0
 76
     1
 77
     6
 78
     2
 67
     7
 79
     5
170
     0
171
     0
290
     0
174
     0
 93
       13
 44
0.0
173
     0
291
     1
 45
0.0
  0
VISUALSTYLE
  5
28D
102
{ACAD_REACTORS
330
27F
102
}
330
27F
100
AcDbVisualStyle
  2
Linepattern
 70
    14
 71
     2
 72
     2
 73
     0
 90
        0
 40
-0.6
 41
-30.0
 62
     5
 63
     7
421
 16777215
 74
     1
 91
        4
 64
     7
 65
   257
 75
     7
175
     7
 42
1.0
 92
        8
 66
     7
 43
1.0
 76
     1
 77
     6
 78
     2
 67
     7
 79
     5
170
     0
171
     0
290
     0
174
     0
 93
        1
 44
0.0
173
     0
291
     1
 45
0.0
  0
VISUALSTYLE
  5
289
102
{ACAD_REACTORS
330
27F
102
}
330
27F
100
AcDbVisualStyle
  2
Realistic
 70
     8
 71
     2
 72
     2
 73
     0
 90
        0
 40
-0.6
 41
-30.0
 62
     5
 63
     7
421
 16777215
 74
     1
 91
        0
 64
     7
 65
   257
 75
     1
175
     1
 42
1.0
 92
        8
 66
     8
424
  7895160
 43
1.0
 76
     1
 77
     6
 78
     2
 67
     7
 79
     5
170
     0
171
     0
290
     0
174
     0
 93
       13
 44
0.0
173
     0
291
     0
 45
0.0
  0
VISUALSTYLE
  5
28C
102
{ACAD_REACTORS
330
27F
102
}
330
27F
100
AcDbVisualStyle
  2
Thicken
 70
    13
 71
     2
 72
     2
 73
     0
 90
        0
 40
-0.6
 41
-30.0
 62
     5
 63
     7
421
 16777215
 74
     1
 91
        4
 64
     7
 65
   257
 75
     1
175
     1
 42
1.0
 92
       12
 66
     7
 43
1.0
 76
     1
 77
     6
 78
     2
 67
     7
 79
     5
170
     0
171
     0
290
     0
174
     0
 93
        1
 44
0.0
173
     0
291
     1
 45
0.0
  0
DICTIONARYVAR
  5
2FA
102
{ACAD_REACTORS
330
34
102
}
330
34
100
DictionaryVariables
280
     0
  1
1:8
  0
DICTIONARYVAR
  5
2F8
102
{ACAD_REACTORS
330
34
102
}
330
34
100
DictionaryVariables
280
     0
  1
STANDARD
  0
DICTIONARYVAR
  5
140
102
{ACAD_REACTORS
330
34
102
}
330
34
100
DictionaryVariables
280
     0
  1
STANDARD
  0
DICTIONARYVAR
  5
AC
102
{ACAD_REACTORS
330
34
102
}
330
34
100
DictionaryVariables
280
     0
  1
1
  0
DICTIONARYVAR
  5
35
102
{ACAD_REACTORS
330
34
102
}
330
34
100
DictionaryVariables
280
     0
  1
1
  0
DICTIONARYVAR
  5
6173
102
{ACAD_REACTORS
330
34
102
}
330
34
100
DictionaryVariables
280
     0
  1
1
  0
DICTIONARYVAR
  5
6174
102
{ACAD_REACTORS
330
34
102
}
330
34
100
DictionaryVariables
280
     0
  1
15
  0
DICTIONARYVAR
  5
2FB
102
{ACAD_REACTORS
330
34
102
}
330
34
100
DictionaryVariables
280
     0
  1
0
  0
DICTIONARYVAR
  5
2F9
102
{ACAD_REACTORS
330
34
102
}
330
34
100
DictionaryVariables
280
     0
  1
0
  0
DICTIONARY
  5
161B
102
{ACAD_REACTORS
330
49
102
}
330
49
100
AcDbDictionary
281
     1
  0
DICTIONARY
  5
4A
102
{ACAD_REACTORS
330
49
102
}
330
49
100
AcDbDictionary
281
     1
  0
XRECORD
  5
12B
102
{ACAD_REACTORS
330
49
102
}
330
49
100
AcDbXrecord
280
     1
 90
-1023410169
  0
DICTIONARY
  5
2F5
330
122
100
AcDbDictionary
280
     1
281
     1
  3
ACAD_ROUNDTRIP_2008_TABLESTYLE_CELLSTYLEMAP
360
6E14
  0
CELLSTYLEMAP
  5
6E14
102
{ACAD_REACTORS
330
2F5
102
}
330
2F5
100
AcDbCellStyleMap
 90
        3
300
CELLSTYLE
  1
TABLEFORMAT_BEGIN
 90
        5
170
     1
 91
        0
 92
    32768
 62
   257
 93
        1
300
CONTENTFORMAT
  1
CONTENTFORMAT_BEGIN
 90
        0
 91
        0
 92
      512
 93
        0
300

 40
0.0
140
1.0
 94
        5
 62
     0
340
11
144
6.0
309
CONTENTFORMAT_END
171
     1
301
MARGIN
  1
CELLMARGIN_BEGIN
 40
1.5
 40
1.5
 40
1.5
 40
1.5
 40
0.18
 40
0.18
309
CELLMARGIN_END
 94
        6
 95
        1
302
GRIDFORMAT
  1
GRIDFORMAT_BEGIN
 90
        0
 91
        1
 62
     0
 92
       -2
340
0
 93
        0
 40
0.045
309
GRIDFORMAT_END
 95
        2
302
GRIDFORMAT
  1
GRIDFORMAT_BEGIN
 90
        0
 91
        1
 62
     0
 92
       -2
340
0
 93
        0
 40
0.045
309
GRIDFORMAT_END
 95
        4
302
GRIDFORMAT
  1
GRIDFORMAT_BEGIN
 90
        0
 91
        1
 62
     0
 92
       -2
340
0
 93
        0
 40
0.045
309
GRIDFORMAT_END
 95
        8
302
GRIDFORMAT
  1
GRIDFORMAT_BEGIN
 90
        0
 91
        1
 62
     0
 92
       -2
340
0
 93
        0
 40
0.045
309
GRIDFORMAT_END
 95
       16
302
GRIDFORMAT
  1
GRIDFORMAT_BEGIN
 90
        0
 91
        1
 62
     0
 92
       -2
340
0
 93
        0
 40
0.045
309
GRIDFORMAT_END
 95
       32
302
GRIDFORMAT
  1
GRIDFORMAT_BEGIN
 90
        0
 91
        1
 62
     0
 92
       -2
340
0
 93
        0
 40
0.045
309
GRIDFORMAT_END
309
TABLEFORMAT_END
  1
CELLSTYLE_BEGIN
 90
        1
 91
        1
300
_TITLE
309
CELLSTYLE_END
300
CELLSTYLE
  1
TABLEFORMAT_BEGIN
 90
        5
170
     1
 91
        0
 92
        0
 62
   257
 93
        1
300
CONTENTFORMAT
  1
CONTENTFORMAT_BEGIN
 90
        0
 91
        0
 92
      512
 93
        0
300

 40
0.0
140
1.0
 94
        5
 62
     0
340
11
144
4.5
309
CONTENTFORMAT_END
171
     1
301
MARGIN
  1
CELLMARGIN_BEGIN
 40
1.5
 40
1.5
 40
1.5
 40
1.5
 40
0.18
 40
0.18
309
CELLMARGIN_END
 94
        6
 95
        1
302
GRIDFORMAT
  1
GRIDFORMAT_BEGIN
 90
        0
 91
        1
 62
     0
 92
       -2
340
0
 93
        0
 40
0.045
309
GRIDFORMAT_END
 95
        2
302
GRIDFORMAT
  1
GRIDFORMAT_BEGIN
 90
        0
 91
        1
 62
     0
 92
       -2
340
0
 93
        0
 40
0.045
309
GRIDFORMAT_END
 95
        4
302
GRIDFORMAT
  1
GRIDFORMAT_BEGIN
 90
        0
 91
        1
 62
     0
 92
       -2
340
0
 93
        0
 40
0.045
309
GRIDFORMAT_END
 95
        8
302
GRIDFORMAT
  1
GRIDFORMAT_BEGIN
 90
        0
 91
        1
 62
     0
 92
       -2
340
0
 93
        0
 40
0.045
309
GRIDFORMAT_END
 95
       16
302
GRIDFORMAT
  1
GRIDFORMAT_BEGIN
 90
        0
 91
        1
 62
     0
 92
       -2
340
0
 93
        0
 40
0.045
309
GRIDFORMAT_END
 95
       32
302
GRIDFORMAT
  1
GRIDFORMAT_BEGIN
 90
        0
 91
        1
 62
     0
 92
       -2
340
0
 93
        0
 40
0.045
309
GRIDFORMAT_END
309
TABLEFORMAT_END
  1
CELLSTYLE_BEGIN
 90
        2
 91
        1
300
_HEADER
309
CELLSTYLE_END
300
CELLSTYLE
  1
TABLEFORMAT_BEGIN
 90
        5
170
     1
 91
        0
 92
        0
 62
   257
 93
        1
300
CONTENTFORMAT
  1
CONTENTFORMAT_BEGIN
 90
        0
 91
        0
 92
      512
 93
        0
300

 40
0.0
140
1.0
 94
        2
 62
     0
340
11
144
4.5
309
CONTENTFORMAT_END
171
     1
301
MARGIN
  1
CELLMARGIN_BEGIN
 40
1.5
 40
1.5
 40
1.5
 40
1.5
 40
0.18
 40
0.18
309
CELLMARGIN_END
 94
        6
 95
        1
302
GRIDFORMAT
  1
GRIDFORMAT_BEGIN
 90
        0
 91
        1
 62
     0
 92
       -2
340
0
 93
        0
 40
0.045
309
GRIDFORMAT_END
 95
        2
302
GRIDFORMAT
  1
GRIDFORMAT_BEGIN
 90
        0
 91
        1
 62
     0
 92
       -2
340
0
 93
        0
 40
0.045
309
GRIDFORMAT_END
 95
        4
302
GRIDFORMAT
  1
GRIDFORMAT_BEGIN
 90
        0
 91
        1
 62
     0
 92
       -2
340
0
 93
        0
 40
0.045
309
GRIDFORMAT_END
 95
        8
302
GRIDFORMAT
  1
GRIDFORMAT_BEGIN
 90
        0
 91
        1
 62
     0
 92
       -2
340
0
 93
        0
 40
0.045
309
GRIDFORMAT_END
 95
       16
302
GRIDFORMAT
  1
GRIDFORMAT_BEGIN
 90
        0
 91
        1
 62
     0
 92
       -2
340
0
 93
        0
 40
0.045
309
GRIDFORMAT_END
 95
       32
302
GRIDFORMAT
  1
GRIDFORMAT_BEGIN
 90
        0
 91
        1
 62
     0
 92
       -2
340
0
 93
        0
 40
0.045
309
GRIDFORMAT_END
309
TABLEFORMAT_END
  1
CELLSTYLE_BEGIN
 90
        3
 91
        2
300
_DATA
309
CELLSTYLE_END
  0
ENDSEC
  0
EOF
