  0
SECTION
  2
HEADER
  9
$ACADVER
  1
AC1021
  9
$ACADMAINTVER
 70
    26
  9
$DWGCODEPAGE
  3
ANSI_932
  9
$LASTSAVEDBY
  1
Htm_Terada
  9
$CUSTOMPROPERTYTAG
  1
AmdtFileType
  9
$CUSTOMPROPERTY
  1
84
  9
$INSBASE
 10
0.0
 20
0.0
 30
0.0
  9
$EXTMIN
 10
657.799333092609
 20
647.3033302105098
 30
0.0
  9
$EXTMAX
 10
1547.60541889676
 20
1300.304734485052
 30
0.0
  9
$LIMMIN
 10
0.0000009571692772
 20
0.0000018469103225
  9
$LIMMAX
 10
2100.000000957169
 20
1485.00000184691
  9
$ORTHOMODE
 70
     1
  9
$REGENMODE
 70
     1
  9
$FILLMODE
 70
     1
  9
$QTEXTMODE
 70
     0
  9
$MIRRTEXT
 70
     1
  9
$LTSCALE
 40
5.0
  9
$ATTMODE
 70
     1
  9
$TEXTSIZE
 40
25.0
  9
$TRACEWID
 40
1.0
  9
$TEXTSTYLE
  7
SEISA
  9
$CLAYER
  8
AM_0 外形線1
  9
$CELTYPE
  6
ByLayer
  9
$CECOLOR
 62
   256
  9
$CELTSCALE
 40
1.0
  9
$DISPSILH
 70
     0
  9
$DIMSCALE
 40
5.0
  9
$DIMASZ
 40
2.5
  9
$DIMEXO
 40
0.625
  9
$DIMDLI
 40
10.0
  9
$DIMRND
 40
0.0
  9
$DIMDLE
 40
0.0
  9
$DIMEXE
 40
0.625
  9
$DIMTP
 40
0.1
  9
$DIMTM
 40
0.1
  9
$DIMTXT
 40
3.5
  9
$DIMCEN
 40
0.0
  9
$DIMTSZ
 40
0.0
  9
$DIMTOL
 70
     0
  9
$DIMLIM
 70
     0
  9
$DIMTIH
 70
     0
  9
$DIMTOH
 70
     0
  9
$DIMSE1
 70
     0
  9
$DIMSE2
 70
     0
  9
$DIMTAD
 70
     3
  9
$DIMZIN
 70
     8
  9
$DIMBLK
  1
Open30
  9
$DIMASO
 70
     1
  9
$DIMSHO
 70
     1
  9
$DIMPOST
  1

  9
$DIMAPOST
  1
"
  9
$DIMALT
 70
     0
  9
$DIMALTD
 70
     2
  9
$DIMALTF
 40
0.0393701
  9
$DIMLFAC
 40
1.0
  9
$DIMTOFL
 70
     1
  9
$DIMTVP
 40
0.0
  9
$DIMTIX
 70
     0
  9
$DIMSOXD
 70
     0
  9
$DIMSAH
 70
     0
  9
$DIMBLK1
  1

  9
$DIMBLK2
  1

  9
$DIMSTYLE
  2
SEISA
  9
$DIMCLRD
 70
     3
  9
$DIMCLRE
 70
     3
  9
$DIMCLRT
 70
     3
  9
$DIMTFAC
 40
0.71
  9
$DIMGAP
 40
1.5
  9
$DIMJUST
 70
     0
  9
$DIMSD1
 70
     0
  9
$DIMSD2
 70
     0
  9
$DIMTOLJ
 70
     0
  9
$DIMTZIN
 70
     0
  9
$DIMALTZ
 70
     0
  9
$DIMALTTZ
 70
     8
  9
$DIMUPT
 70
     0
  9
$DIMDEC
 70
     2
  9
$DIMTDEC
 70
     2
  9
$DIMALTU
 70
     2
  9
$DIMALTTD
 70
     2
  9
$DIMTXSTY
  7
SEISA
  9
$DIMAUNIT
 70
     0
  9
$DIMADEC
 70
     0
  9
$DIMALTRND
 40
0.0
  9
$DIMAZIN
 70
     2
  9
$DIMDSEP
 70
    46
  9
$DIMATFIT
 70
     3
  9
$DIMFRAC
 70
     0
  9
$DIMLDRBLK
  1
Open30
  9
$DIMLUNIT
 70
     2
  9
$DIMLWD
 70
    -1
  9
$DIMLWE
 70
    -1
  9
$DIMTMOVE
 70
     0
  9
$DIMFXL
 40
1.0
  9
$DIMFXLON
 70
     0
  9
$DIMJOGANG
 40
0.7853981633974483
  9
$DIMTFILL
 70
     0
  9
$DIMTFILLCLR
 70
     0
  9
$DIMARCSYM
 70
     1
  9
$DIMLTYPE
  6

  9
$DIMLTEX1
  6

  9
$DIMLTEX2
  6

  9
$LUNITS
 70
     2
  9
$LUPREC
 70
     2
  9
$SKETCHINC
 40
1.0
  9
$FILLETRAD
 40
1.0
  9
$AUNITS
 70
     0
  9
$AUPREC
 70
     0
  9
$MENU
  1
.
  9
$ELEVATION
 40
0.0
  9
$PELEVATION
 40
0.0
  9
$THICKNESS
 40
0.0
  9
$LIMCHECK
 70
     0
  9
$CHAMFERA
 40
5.0
  9
$CHAMFERB
 40
5.000000000000226
  9
$CHAMFERC
 40
5.0
  9
$CHAMFERD
 40
0.78539816339738
  9
$SKPOLY
 70
     0
  9
$TDCREATE
 40
2454942.722813866
  9
$TDUCREATE
 40
2454942.347813866
  9
$TDUPDATE
 40
2456478.713547627
  9
$TDUUPDATE
 40
2456478.338547627
  9
$TDINDWG
 40
0.5866832407
  9
$TDUSRTIMER
 40
0.5866823380
  9
$USRTIMER
 70
     1
  9
$ANGBASE
 50
0.0
  9
$ANGDIR
 70
     0
  9
$PDMODE
 70
     0
  9
$PDSIZE
 40
0.0
  9
$PLINEWID
 40
0.0
  9
$SPLFRAME
 70
     0
  9
$SPLINETYPE
 70
     6
  9
$SPLINESEGS
 70
     8
  9
$HANDSEED
  5
7359
  9
$SURFTAB1
 70
     6
  9
$SURFTAB2
 70
     6
  9
$SURFTYPE
 70
     6
  9
$SURFU
 70
     6
  9
$SURFV
 70
     6
  9
$UCSBASE
  2

  9
$UCSNAME
  2

  9
$UCSORG
 10
0.0
 20
0.0
 30
0.0
  9
$UCSXDIR
 10
1.0
 20
0.0
 30
0.0
  9
$UCSYDIR
 10
0.0
 20
1.0
 30
0.0
  9
$UCSORTHOREF
  2

  9
$UCSORTHOVIEW
 70
     0
  9
$UCSORGTOP
 10
0.0
 20
0.0
 30
0.0
  9
$UCSORGBOTTOM
 10
0.0
 20
0.0
 30
0.0
  9
$UCSORGLEFT
 10
0.0
 20
0.0
 30
0.0
  9
$UCSORGRIGHT
 10
0.0
 20
0.0
 30
0.0
  9
$UCSORGFRONT
 10
0.0
 20
0.0
 30
0.0
  9
$UCSORGBACK
 10
0.0
 20
0.0
 30
0.0
  9
$PUCSBASE
  2

  9
$PUCSNAME
  2

  9
$PUCSORG
 10
0.0
 20
0.0
 30
0.0
  9
$PUCSXDIR
 10
1.0
 20
0.0
 30
0.0
  9
$PUCSYDIR
 10
0.0
 20
1.0
 30
0.0
  9
$PUCSORTHOREF
  2

  9
$PUCSORTHOVIEW
 70
     0
  9
$PUCSORGTOP
 10
0.0
 20
0.0
 30
0.0
  9
$PUCSORGBOTTOM
 10
0.0
 20
0.0
 30
0.0
  9
$PUCSORGLEFT
 10
0.0
 20
0.0
 30
0.0
  9
$PUCSORGRIGHT
 10
0.0
 20
0.0
 30
0.0
  9
$PUCSORGFRONT
 10
0.0
 20
0.0
 30
0.0
  9
$PUCSORGBACK
 10
0.0
 20
0.0
 30
0.0
  9
$USERI1
 70
     0
  9
$USERI2
 70
     0
  9
$USERI3
 70
     0
  9
$USERI4
 70
     0
  9
$USERI5
 70
     0
  9
$USERR1
 40
0.0
  9
$USERR2
 40
0.0
  9
$USERR3
 40
0.0
  9
$USERR4
 40
0.0
  9
$USERR5
 40
0.0
  9
$WORLDVIEW
 70
     1
  9
$SHADEDGE
 70
     3
  9
$SHADEDIF
 70
    70
  9
$TILEMODE
 70
     1
  9
$MAXACTVP
 70
    64
  9
$PINSBASE
 10
0.0
 20
0.0
 30
0.0
  9
$PLIMCHECK
 70
     0
  9
$PEXTMIN
 10
1.000000000000000E+20
 20
1.000000000000000E+20
 30
1.000000000000000E+20
  9
$PEXTMAX
 10
-1.000000000000000E+20
 20
-1.000000000000000E+20
 30
-1.000000000000000E+20
  9
$PLIMMIN
 10
0.0
 20
0.0
  9
$PLIMMAX
 10
420.0
 20
297.0
  9
$UNITMODE
 70
     0
  9
$VISRETAIN
 70
     1
  9
$PLINEGEN
 70
     0
  9
$PSLTSCALE
 70
     1
  9
$TREEDEPTH
 70
  3020
  9
$CMLSTYLE
  2
Standard
  9
$CMLJUST
 70
     0
  9
$CMLSCALE
 40
20.0
  9
$PROXYGRAPHICS
 70
     1
  9
$MEASUREMENT
 70
     1
  9
$CELWEIGHT
370
    -1
  9
$ENDCAPS
280
     0
  9
$JOINSTYLE
280
     0
  9
$LWDISPLAY
290
     0
  9
$INSUNITS
 70
     4
  9
$HYPERLINKBASE
  1

  9
$STYLESHEET
  1
SEISA.CTB
  9
$XEDIT
290
     1
  9
$CEPSNTYPE
380
     0
  9
$PSTYLEMODE
290
     1
  9
$FINGERPRINTGUID
  2
{C05C4193-81FD-4A5B-A0A7-F28FCB624545}
  9
$VERSIONGUID
  2
{8E976E5D-1FDC-425B-B9DA-212EFFB0E81D}
  9
$EXTNAMES
290
     1
  9
$PSVPSCALE
 40
0.0
  9
$OLESTARTUP
290
     0
  9
$SORTENTS
280
   127
  9
$INDEXCTL
280
     0
  9
$HIDETEXT
280
     0
  9
$XCLIPFRAME
290
     0
  9
$HALOGAP
280
     0
  9
$OBSCOLOR
 70
   257
  9
$OBSLTYPE
280
     0
  9
$INTERSECTIONDISPLAY
280
     0
  9
$INTERSECTIONCOLOR
 70
   257
  9
$DIMASSOC
280
     2
  9
$PROJECTNAME
  1

  9
$CAMERADISPLAY
290
     0
  9
$LENSLENGTH
 40
50.0
  9
$CAMERAHEIGHT
 40
0.0
  9
$STEPSPERSEC
 40
2.0
  9
$STEPSIZE
 40
6.0
  9
$3DDWFPREC
 40
2.0
  9
$PSOLWIDTH
 40
0.25
  9
$PSOLHEIGHT
 40
4.0
  9
$LOFTANG1
 40
1.570796326794896
  9
$LOFTANG2
 40
1.570796326794896
  9
$LOFTMAG1
 40
0.0
  9
$LOFTMAG2
 40
0.0
  9
$LOFTPARAM
 70
     7
  9
$LOFTNORMALS
280
     1
  9
$LATITUDE
 40
37.795
  9
$LONGITUDE
 40
-122.394
  9
$NORTHDIRECTION
 40
0.0
  9
$TIMEZONE
 70
 -8000
  9
$LIGHTGLYPHDISPLAY
280
     1
  9
$TILEMODELIGHTSYNCH
280
     1
  9
$CMATERIAL
347
27C
  9
$SOLIDHIST
280
     1
  9
$SHOWHIST
280
     1
  9
$DWFFRAME
280
     2
  9
$DGNFRAME
280
     0
  9
$REALWORLDSCALE
290
     1
  9
$INTERFERECOLOR
 62
     1
  9
$INTERFEREOBJVS
345
289
  9
$INTERFEREVPVS
346
286
  9
$CSHADOW
280
     0
  9
$SHADOWPLANELOCATION
 40
0.0
  0
ENDSEC
  0
SECTION
  2
CLASSES
  0
CLASS
  1
ACDBDICTIONARYWDFLT
  2
AcDbDictionaryWithDefault
  3
ObjectDBX Classes
 90
        0
 91
        1
280
     0
281
     0
  0
CLASS
  1
AMGSETTINGSOBJ
  2
AmgSettingsObj
  3
"AcadM|Product Description: AutoCAD Mechanical|Company: Autodesk, Inc."
 90
     1024
 91
        2
280
     0
281
     0
  0
CLASS
  1
ACME_DOCUMENT
  2
AcMeDbDoc
  3
AcMeServices
 90
     1024
 91
        1
280
     0
281
     0
  0
CLASS
  1
ACMESCOPE
  2
AcMeScope
  3
AcMeServices
 90
     1024
 91
        1
280
     0
281
     0
  0
CLASS
  1
ACMECOMMANDHISTORY
  2
AcMeCommandHistory
  3
AcMeServices
 90
     1024
 91
        1
280
     0
281
     0
  0
CLASS
  1
DICTIONARYVAR
  2
AcDbDictionaryVar
  3
ObjectDBX Classes
 90
        0
 91
        9
280
     0
281
     0
  0
CLASS
  1
ACIMSYSVARMAN
  2
AcImSysVarManager
  3
AcMeServices
 90
     1024
 91
        5
280
     0
281
     0
  0
CLASS
  1
ACIMREALSYSVAR
  2
AcImRealSysVar
  3
AcMeServices
 90
     1024
 91
        1
280
     0
281
     0
  0
CLASS
  1
ACIMINTSYSVAR
  2
AcImIntSysVar
  3
AcMeServices
 90
     1024
 91
       27
280
     0
281
     0
  0
CLASS
  1
ACMEDRAWINGMAN
  2
AcMeDrawingMan
  3
AcMeServices
 90
     1024
 91
        1
280
     0
281
     0
  0
CLASS
  1
ACMEVIEW
  2
AcMeView
  3
AcMeServices
 90
     1024
 91
        1
280
     0
281
     0
  0
CLASS
  1
ACDBENTITYCACHE
  2
AcMeEntityCache
  3
AcMeServices
 90
     1024
 91
        1
280
     0
281
     0
  0
CLASS
  1
GSMANAGER
  2
AcMeGSManager
  3
AcMeServices
 90
     1024
 91
        1
280
     0
281
     0
  0
CLASS
  1
AMDTINTERNALREACTOR
  2
AmdtInternalReactor
  3
AcMeServices
 90
     1024
 91
        2
280
     0
281
     0
  0
CLASS
  1
ACMESTATEMGR
  2
AcMeStateMgr
  3
AcMeServices
 90
     1024
 91
        1
280
     0
281
     0
  0
CLASS
  1
ACGREFMASTER
  2
AcGrefMaster
  3
AcAttribServices
 90
     1024
 91
        1
280
     0
281
     0
  0
CLASS
  1
ACME_DATABASE
  2
AcMeDbDatabase
  3
AcMeServices
 90
     1024
 91
        1
280
     0
281
     0
  0
CLASS
  1
ACRFINSADJUSTERMGR
  2
AcRfInsAdjusterMgr
  3
AcMeServices
 90
     1024
 91
        1
280
     0
281
     0
  0
CLASS
  1
ACGREFACADMASTER
  2
AcGrefacadMaster
  3
AcGrefServices
 90
     1024
 91
        1
280
     0
281
     0
  0
CLASS
  1
AMIMASTER
  2
AmiMaster
  3
AmiServices
 90
     1024
 91
        1
280
     0
281
     0
  0
CLASS
  1
ACIMSTRSYSVAR
  2
AcImStrSysVar
  3
AcMeServices
 90
     1024
 91
        5
280
     0
281
     0
  0
CLASS
  1
ACMSTANDARDJIS
  2
AcmStandardJIS
  3
"Amdt_StdImp|Product Description: AutoCAD Mechanical|Company: Autodesk, Inc."
 90
     1024
 91
        0
280
     0
281
     0
  0
CLASS
  1
AMGOBJPROPCFG
  2
AmgObjPropCfg
  3
"AmgLay|Product Description: AutoCAD Mechanical|Company: Autodesk, Inc."
 90
     1025
 91
        1
280
     0
281
     0
  0
CLASS
  1
ACMSURFSTANDARDJIS
  2
AcmSurfTextStdJIS
  3
"Amdt_StdImp|Product Description: AutoCAD Mechanical|Company: Autodesk, Inc."
 90
     1024
 91
        0
280
     0
281
     0
  0
CLASS
  1
ACMFCFSTANDARDJIS
  2
AcmFCFStdJIS
  3
"Amdt_StdImp|Product Description: AutoCAD Mechanical|Company: Autodesk, Inc."
 90
     1024
 91
        0
280
     0
281
     0
  0
CLASS
  1
ACMWELDSTANDARDJIS
  2
AcmWeldingStdJIS
  3
"Amdt_StdImp|Product Description: AutoCAD Mechanical|Company: Autodesk, Inc."
 90
     1024
 91
        0
280
     0
281
     0
  0
CLASS
  1
ACMIDSTANDARDJIS
  2
AcmIdStdJIS
  3
"Amdt_StdImp|Product Description: AutoCAD Mechanical|Company: Autodesk, Inc."
 90
     1024
 91
        0
280
     0
281
     0
  0
CLASS
  1
ACMDATUMSTANDARDJIS
  2
AcmDatumStdJIS
  3
"Amdt_StdImp|Product Description: AutoCAD Mechanical|Company: Autodesk, Inc."
 90
     1024
 91
        0
280
     0
281
     0
  0
CLASS
  1
ACMBOMSTANDARDJIS
  2
AcmBOMStdJIS
  3
"Amdt_StdImp|Product Description: AutoCAD Mechanical|Company: Autodesk, Inc."
 90
     1024
 91
        0
280
     0
281
     0
  0
CLASS
  1
ACMDETAILSTANDARDJIS
  2
AmdtDetailSymStdJIS
  3
"Amdt_StdImp|Product Description: AutoCAD Mechanical|Company: Autodesk, Inc."
 90
     1024
 91
        0
280
     0
281
     0
  0
CLASS
  1
ACMSECTIONSTANDARDJIS
  2
AmdtSectionSymStdJIS
  3
"Amdt_StdImp|Product Description: AutoCAD Mechanical|Company: Autodesk, Inc."
 90
     1024
 91
        0
280
     0
281
     0
  0
CLASS
  1
ACMCENTERLINESTANDARDJIS
  2
AmdtCenterLineStdJIS
  3
"Amdt_StdImp|Product Description: AutoCAD Mechanical|Company: Autodesk, Inc."
 90
     1024
 91
        0
280
     0
281
     0
  0
CLASS
  1
ACMTHREADLINESTANDARDJIS
  2
AmdtThreadLineStdJIS
  3
"Amdt_StdImp|Product Description: AutoCAD Mechanical|Company: Autodesk, Inc."
 90
     1024
 91
        0
280
     0
281
     0
  0
CLASS
  1
ACAMGLAYSTD
  2
AcAmgLayStd
  3
"AmgLay|Product Description: AutoCAD Mechanical|Company: Autodesk, Inc."
 90
     1024
 91
        1
280
     0
281
     0
  0
CLASS
  1
ACAMGDIMSTD
  2
AcAmgDimStd
  3
"AmgDim|Product Description: AutoCAD Mechanical|Company: Autodesk, Inc."
 90
     1024
 91
        1
280
     0
281
     0
  0
CLASS
  1
ACAMGTITLESTD
  2
AcAmgTitleStd
  3
"AmgTitle|Product Description: AutoCAD Mechanical|Company: Autodesk, Inc."
 90
     4095
 91
        1
280
     0
281
     0
  0
CLASS
  1
ACMDATADICTIONARY
  2
AcmDataDictionary
  3
"AcmSymBB|Product Description: AutoCAD Mechanical|Company: Autodesk, Inc."
 90
     1024
 91
        1
280
     0
281
     0
  0
CLASS
  1
ACMDATAENTRYBLOCK
  2
AcmDataEntryBlock
  3
AcmSymBB|Product Description: AutoCAD Mechanical|Company: Autodesk, Inc.
 90
     1024
 91
        0
280
     0
281
     0
  0
CLASS
  1
LAYER_INDEX
  2
AcDbLayerIndex
  3
ObjectDBX Classes
 90
        0
 91
        0
280
     0
281
     0
  0
CLASS
  1
IDBUFFER
  2
AcDbIdBuffer
  3
ObjectDBX Classes
 90
        0
 91
        0
280
     0
281
     0
  0
CLASS
  1
ACMNOTESTANDARDJIS
  2
AmdtNoteStdJIS
  3
"Amdt_StdImp|Product Description: AutoCAD Mechanical|Company: Autodesk, Inc."
 90
     1024
 91
        0
280
     0
281
     0
  0
CLASS
  1
ACAMGHOLECHARTSTDJIS
  2
AcAmgHoleChartStdJIS
  3
AmgDim|Product Description: AutoCAD Mechanical|Company: Autodesk, Inc.
 90
     1024
 91
        0
280
     0
281
     0
  0
CLASS
  1
AM_DRAWING_MGR
  2
AcDmDwgMgr
  3
AcMechDwgViewMgmt
 90
     1024
 91
        1
280
     0
281
     0
  0
CLASS
  1
AM_DWG_DOCUMENT
  2
AcDmDwgDocument
  3
AcMechDwgViewMgmt
 90
     1024
 91
        1
280
     0
281
     0
  0
CLASS
  1
AM_DWG_SHEET
  2
AcDmSheet
  3
AcMechDwgViewMgmt
 90
     1024
 91
        2
280
     0
281
     0
  0
CLASS
  1
AM_VIEWDIMPARMAP
  2
AcDmViewDimParMap
  3
AcMechDwgViewMgmt
 90
     1024
 91
        2
280
     0
281
     0
  0
CLASS
  1
AM_DWGMGR_NAME
  2
AcDmDwgMgrName
  3
AcMechDwgViewMgmt
 90
     1024
 91
        1
280
     0
281
     0
  0
CLASS
  1
AMDTMENUSTATEMGR
  2
AmdtMenuStateMgr
  3
McadcomServices
 90
     1024
 91
        1
280
     0
281
     0
  0
CLASS
  1
AMDTMCOMMENUSTATE
  2
AmdtMcomMenuState
  3
McadcomServices
 90
     1024
 91
        1
280
     0
281
     0
  0
CLASS
  1
MAPIAMMOUDLE
  2
MApiAmModule
  3
MApiAmServices
 90
     1024
 91
        1
280
     0
281
     0
  0
CLASS
  1
AMDTADMENUSTATE
  2
AmdtAdMenuState
  3
DesignerServices
 90
     1024
 91
        1
280
     0
281
     0
  0
CLASS
  1
ADAPPL
  2
AcAdAppl
  3
DesignerServices
 90
     1024
 91
        1
280
     0
281
     0
  0
CLASS
  1
DEPMGR
  2
AcAdDepMgr
  3
DesignerServices
 90
     1024
 91
        1
280
     0
281
     0
  0
CLASS
  1
PARAMMGR
  2
AcAdParamMgr
  3
DesignerServices
 90
     1024
 91
        1
280
     0
281
     0
  0
CLASS
  1
PARAMSCOPE
  2
AcAdParamScope
  3
DesignerServices
 90
     1024
 91
        1
280
     0
281
     0
  0
CLASS
  1
NAMEDAPPL
  2
AcAdNamedAppl
  3
DesignerServices
 90
     1024
 91
        1
280
     0
281
     0
  0
CLASS
  1
AMDTDMMENUSTATE
  2
AmdtDmMenuState
  3
AcMechDwgViewMgmt
 90
     1024
 91
        1
280
     0
281
     0
  0
CLASS
  1
AMDTAMMENUSTATE
  2
AmdtAmMenuState
  3
DesignerAssemblies
 90
     1024
 91
        1
280
     0
281
     0
  0
CLASS
  1
ACAMPROJECT
  2
AcAmProject
  3
DesignerAssemblies
 90
     1024
 91
        1
280
     0
281
     0
  0
CLASS
  1
ACAMGRCOMPDEF
  2
AcAmGrCompDef
  3
DesignerAssemblies
 90
     1024
 91
        1
280
     0
281
     0
  0
CLASS
  1
ACCMCONTEXT
  2
AcCmContext
  3
DesignerAssemblies
 90
     1024
 91
        1
280
     0
281
     0
  0
CLASS
  1
ACAMCOMPDEF
  2
AcAmCompDef
  3
DesignerAssemblies
 90
     1024
 91
        1
280
     0
281
     0
  0
CLASS
  1
ACAMCOMPDEFMGR
  2
AcAmCompDefMgr
  3
DesignerAssemblies
 90
     1024
 91
        1
280
     0
281
     0
  0
CLASS
  1
AMCONTEXTMGR
  2
AcAmContextMgr
  3
DesignerAssemblies
 90
     1024
 91
        1
280
     0
281
     0
  0
CLASS
  1
ACAMCONTEXTMODELER
  2
AcAmContextModeler
  3
DesignerAssemblies
 90
     1024
 91
        1
280
     0
281
     0
  0
CLASS
  1
CATALOGSTATE
  2
AcAmCatalogState
  3
DesignerAssemblies
 90
     1024
 91
        1
280
     0
281
     0
  0
CLASS
  1
ACAMGRCOMPDEFSET
  2
AcAmGrCompDefSet
  3
DesignerAssemblies
 90
     1024
 91
        1
280
     0
281
     0
  0
CLASS
  1
AMDTBROWSERDBTAB
  2
AmdtBrowserDbTab
  3
McadcomServices
 90
     1024
 91
        1
280
     0
281
     0
  0
CLASS
  1
CBROWSERAPPOBJECT
  2
CBrowserAppObject
  3
McadcomServices
 90
     1024
 91
        3
280
     0
281
     0
  0
CLASS
  1
DM_PLACEHOLDER
  2
AcDmSelsetPlaceholder
  3
AcMechDwgViewMgmt
 90
     1024
 91
        1
280
     0
281
     0
  0
CLASS
  1
TABLESTYLE
  2
AcDbTableStyle
  3
ObjectDBX Classes
 90
     4095
 91
        1
280
     0
281
     0
  0
CLASS
  1
VAACXREFPANELOBJECT
  2
VaAcXREFPanelObject
  3
VAAC_ADDIN
 90
        0
 91
        0
280
     0
281
     0
  0
CLASS
  1
VAACIMAGEINVENTORY
  2
VaAcImageInventory
  3
VAAC_ADDIN
 90
        0
 91
        0
280
     0
281
     0
  0
CLASS
  1
AMDTNOTETEMPLATEDB
  2
AmdtNoteTemplateDB
  3
AcmSymBB|Product Description: AutoCAD Mechanical|Company: Autodesk, Inc.
 90
     1024
 91
        6
280
     0
281
     0
  0
CLASS
  1
ACAMGFILTERDAT
  2
AcAmgFilterDat
  3
"AcadM|Product Description: AutoCAD Mechanical|Company: Autodesk, Inc."
 90
     1024
 91
        0
280
     0
281
     0
  0
CLASS
  1
MATERIAL
  2
AcDbMaterial
  3
ObjectDBX Classes
 90
     1153
 91
        3
280
     0
281
     0
  0
CLASS
  1
VISUALSTYLE
  2
AcDbVisualStyle
  3
ObjectDBX Classes
 90
     4095
 91
       16
280
     0
281
     0
  0
CLASS
  1
ACRFATTGENMGR
  2
AcRfAttGeneralMgr
  3
AcAttribServices
 90
     1024
 91
        0
280
     0
281
     0
  0
CLASS
  1
ACRFOBJATTMGR
  2
AcRfObjAttGroupMgr
  3
AcAttribServices
 90
     1024
 91
        0
280
     0
281
     0
  0
CLASS
  1
ACRFMCADAPIATTHOLDER
  2
AcRfMCADAPIAttHolder
  3
AcAttribServices
 90
     1024
 91
        0
280
     0
281
     0
  0
CLASS
  1
AMDTSYSATTR
  2
AmdtSystemAttribute
  3
AcAttribServices
 90
     1024
 91
        0
280
     0
281
     0
  0
CLASS
  1
ACMTAPERSTANDARDJIS
  2
AcmTaperStdJIS
  3
"Amdt_StdImp|Product Description: AutoCAD Mechanical|Company: Autodesk, Inc."
 90
     1024
 91
        0
280
     0
281
     0
  0
CLASS
  1
CAMSSTRUCTBTNSTATE
  2
StructBtnState
  3
DesignerAssemblies
 90
     1024
 91
        0
280
     0
281
     0
  0
CLASS
  1
SCALE
  2
AcDbScale
  3
ObjectDBX Classes
 90
     1153
 91
       36
280
     0
281
     0
  0
CLASS
  1
MLEADERSTYLE
  2
AcDbMLeaderStyle
  3
ACDB_MLEADERSTYLE_CLASS
 90
     4095
 91
        1
280
     0
281
     0
  0
CLASS
  1
ACMANOOTATIONVIEWSTANDARDJIS
  2
AmdtAnViewStdJIS
  3
"Amdt_StdImp|Product Description: AutoCAD Mechanical|Company: Autodesk, Inc."
 90
     1024
 91
        0
280
     0
281
     0
  0
CLASS
  1
ACMSURFSTANDARDJIS2003
  2
AcmSurfTextStdJIS2003
  3
"Amdt_StdImp|Product Description: AutoCAD Mechanical|Company: Autodesk, Inc."
 90
     1024
 91
        0
280
     0
281
     0
  0
CLASS
  1
CELLSTYLEMAP
  2
AcDbCellStyleMap
  3
ObjectDBX Classes
 90
     1152
 91
        2
280
     0
281
     0
  0
CLASS
  1
ACMFCFSTANDARDJIS98
  2
AcmFCFStdJIS98
  3
"Amdt_StdImp|Product Description: AutoCAD Mechanical|Company: Autodesk, Inc."
 90
     1024
 91
        0
280
     0
281
     0
  0
CLASS
  1
SORTENTSTABLE
  2
AcDbSortentsTable
  3
ObjectDBX Classes
 90
        0
 91
       10
280
     0
281
     0
  0
CLASS
  1
DIMASSOC
  2
AcDbDimAssoc
  3
"AcDbDimAssoc|Product Desc:     AcDim ARX App For Dimension|Company:          Autodesk, Inc.|WEB Address:      www.autodesk.com"
 90
        0
 91
       15
280
     0
281
     0
  0
CLASS
  1
STDPART2D
  2
AmgStdPart
  3
AmgStdPart|Product Description: AutoCAD Mechanical|Company: Autodesk, Inc.
 90
     4095
 91
        0
280
     0
281
     1
  0
CLASS
  1
ACMDATAENTRYPART
  2
AcmDataEntryPart
  3
AcmSymBB|Product Description: AutoCAD Mechanical|Company: Autodesk, Inc.
 90
     1024
 91
        0
280
     0
281
     0
  0
CLASS
  1
ACMPARTREF
  2
AcmPartRef
  3
"AcmSymBB|Product Description: AutoCAD Mechanical|Company: Autodesk, Inc."
 90
     4095
 91
        0
280
     0
281
     1
  0
CLASS
  1
ACDBSTDPARTRES_LINE
  2
AcDbStdPartRes_Line
  3
AmgStdPart|Product Description: AutoCAD Mechanical|Company: Autodesk, Inc.
 90
     1024
 91
        0
280
     0
281
     0
  0
CLASS
  1
ACMBOM
  2
AcmBom
  3
"AcmSymBB|Product Description: AutoCAD Mechanical|Company: Autodesk, Inc."
 90
     1024
 91
        0
280
     0
281
     0
  0
CLASS
  1
AMDTFORMULAUPDATEDISPATCHER
  2
AmdtFormulaUpdateDispatcher
  3
AcMeServices
 90
     1024
 91
        0
280
     0
281
     0
  0
CLASS
  1
ACMBOMROW
  2
AcmBomRow
  3
"AcmSymBB|Product Description: AutoCAD Mechanical|Company: Autodesk, Inc."
 90
     1024
 91
        0
280
     0
281
     0
  0
CLASS
  1
ACMPARTLIST
  2
AcmPartList
  3
"AcmSymBB|Product Description: AutoCAD Mechanical|Company: Autodesk, Inc."
 90
     4095
 91
        0
280
     0
281
     1
  0
CLASS
  1
ACDBLINERES
  2
AcDbLineRes
  3
AcGrefServices
 90
     1024
 91
        0
280
     0
281
     0
  0
CLASS
  1
ACRFINSADJ
  2
AcRfInsAdjuster
  3
AcMeServices
 90
     1024
 91
        0
280
     0
281
     0
  0
CLASS
  1
ACMSTANDARDISO
  2
AcmStandardISO
  3
"Amdt_StdImp|Product Description: AutoCAD Mechanical|Company: Autodesk, Inc."
 90
     1024
 91
        1
280
     0
281
     0
  0
CLASS
  1
AMDTEDGESTANDARDISO13715
  2
AmdtEdgeStdISO13715
  3
"Amdt_StdImp|Product Description: AutoCAD Mechanical|Company: Autodesk, Inc."
 90
     1024
 91
        1
280
     0
281
     0
  0
CLASS
  1
ACMSURFSTANDARDISO2002
  2
AcmSurfTextStdISO2002
  3
"Amdt_StdImp|Product Description: AutoCAD Mechanical|Company: Autodesk, Inc."
 90
     1024
 91
        1
280
     0
281
     0
  0
CLASS
  1
ACMFCFSTANDARDISO
  2
AcmFCFStdISO
  3
"Amdt_StdImp|Product Description: AutoCAD Mechanical|Company: Autodesk, Inc."
 90
     1024
 91
        1
280
     0
281
     0
  0
CLASS
  1
ACMWELDSTANDARDISO
  2
AcmWeldingStdISO
  3
"Amdt_StdImp|Product Description: AutoCAD Mechanical|Company: Autodesk, Inc."
 90
     1024
 91
        1
280
     0
281
     0
  0
CLASS
  1
ACMIDSTANDARDISO
  2
AcmIdStdISO
  3
"Amdt_StdImp|Product Description: AutoCAD Mechanical|Company: Autodesk, Inc."
 90
     1024
 91
        1
280
     0
281
     0
  0
CLASS
  1
ACMDATUMSTANDARDISO
  2
AcmDatumStdISO
  3
"Amdt_StdImp|Product Description: AutoCAD Mechanical|Company: Autodesk, Inc."
 90
     1024
 91
        1
280
     0
281
     0
  0
CLASS
  1
ACMBOMSTANDARDISO
  2
AcmBOMStdISO
  3
"Amdt_StdImp|Product Description: AutoCAD Mechanical|Company: Autodesk, Inc."
 90
     1024
 91
        1
280
     0
281
     0
  0
CLASS
  1
ACMDETAILSTANDARDISO
  2
AmdtDetailSymStdISO
  3
"Amdt_StdImp|Product Description: AutoCAD Mechanical|Company: Autodesk, Inc."
 90
     1024
 91
        1
280
     0
281
     0
  0
CLASS
  1
ACMSECTIONSTANDARDISO2001
  2
AmdtSectionSymStdISO2001
  3
"Amdt_StdImp|Product Description: AutoCAD Mechanical|Company: Autodesk, Inc."
 90
     1024
 91
        1
280
     0
281
     0
  0
CLASS
  1
ACMCENTERLINESTANDARDISO
  2
AmdtCenterLineStdISO
  3
"Amdt_StdImp|Product Description: AutoCAD Mechanical|Company: Autodesk, Inc."
 90
     1024
 91
        1
280
     0
281
     0
  0
CLASS
  1
ACMTHREADLINESTANDARDISO
  2
AmdtThreadLineStdISO
  3
"Amdt_StdImp|Product Description: AutoCAD Mechanical|Company: Autodesk, Inc."
 90
     1024
 91
        1
280
     0
281
     0
  0
CLASS
  1
ACMNOTESTANDARDISO
  2
AmdtNoteStdISO
  3
"Amdt_StdImp|Product Description: AutoCAD Mechanical|Company: Autodesk, Inc."
 90
     1024
 91
        1
280
     0
281
     0
  0
CLASS
  1
ACMTAPERSTANDARDISO
  2
AcmTaperStdISO
  3
"Amdt_StdImp|Product Description: AutoCAD Mechanical|Company: Autodesk, Inc."
 90
     1024
 91
        1
280
     0
281
     0
  0
CLASS
  1
ACMANOOTATIONVIEWSTANDARDISO
  2
AmdtAnViewStdISO
  3
"Amdt_StdImp|Product Description: AutoCAD Mechanical|Company: Autodesk, Inc."
 90
     1024
 91
        1
280
     0
281
     0
  0
CLASS
  1
ACAMGHOLECHARTSTDISO
  2
AcAmgHoleChartStdISO
  3
AmgDim|Product Description: AutoCAD Mechanical|Company: Autodesk, Inc.
 90
     1024
 91
        1
280
     0
281
     0
  0
CLASS
  1
EXACXREFPANELOBJECT
  2
ExAcXREFPanelObject
  3
EXAC_ESW
 90
     1025
 91
        0
280
     0
281
     0
  0
CLASS
  1
NPOCOLLECTION
  2
AcDbImpNonPersistentObjectsCollection
  3
ObjectDBX Classes
 90
     1153
 91
        0
280
     0
281
     0
  0
CLASS
  1
ACDBSTDPARTRES_ARC
  2
AcDbStdPartRes_Arc
  3
AmgStdPart|Product Description: AutoCAD Mechanical|Company: Autodesk, Inc.
 90
     1024
 91
        0
280
     0
281
     0
  0
CLASS
  1
AMDTNOTE
  2
AmdtNote
  3
"AcmSymBB|Product Description: AutoCAD Mechanical|Company: Autodesk, Inc."
 90
     4095
 91
        0
280
     0
281
     1
  0
CLASS
  1
PLOTSETTINGS
  2
AcDbPlotSettings
  3
ObjectDBX Classes
 90
        0
 91
        1
280
     0
281
     0
  0
CLASS
  1
ACMSTANDARDANSI
  2
AcmStandardANSI
  3
"Amdt_StdImp|Product Description: AutoCAD Mechanical|Company: Autodesk, Inc."
 90
     1024
 91
        0
280
     0
281
     0
  0
CLASS
  1
ACMSURFSTANDARDANSI
  2
AcmSurfTextStdANSI
  3
"Amdt_StdImp|Product Description: AutoCAD Mechanical|Company: Autodesk, Inc."
 90
     1024
 91
        0
280
     0
281
     0
  0
CLASS
  1
ACMFCFSTANDARDANSI
  2
AcmFCFStdANSI
  3
"Amdt_StdImp|Product Description: AutoCAD Mechanical|Company: Autodesk, Inc."
 90
     1024
 91
        0
280
     0
281
     0
  0
CLASS
  1
ACMWELDSTANDARDANSI
  2
AcmWeldingStdANSI
  3
"Amdt_StdImp|Product Description: AutoCAD Mechanical|Company: Autodesk, Inc."
 90
     1024
 91
        0
280
     0
281
     0
  0
CLASS
  1
ACMIDSTANDARDANSI
  2
AcmIdStdANSI
  3
"Amdt_StdImp|Product Description: AutoCAD Mechanical|Company: Autodesk, Inc."
 90
     1024
 91
        0
280
     0
281
     0
  0
CLASS
  1
ACMDATUMSTANDARDANSI
  2
AcmDatumStdANSI
  3
"Amdt_StdImp|Product Description: AutoCAD Mechanical|Company: Autodesk, Inc."
 90
     1024
 91
        0
280
     0
281
     0
  0
CLASS
  1
ACMBOMSTANDARDANSI
  2
AcmBOMStdANSI
  3
"Amdt_StdImp|Product Description: AutoCAD Mechanical|Company: Autodesk, Inc."
 90
     1024
 91
        0
280
     0
281
     0
  0
CLASS
  1
ACMDETAILSTANDARDANSI
  2
AmdtDetailSymStdANSI
  3
"Amdt_StdImp|Product Description: AutoCAD Mechanical|Company: Autodesk, Inc."
 90
     1024
 91
        0
280
     0
281
     0
  0
CLASS
  1
ACMSECTIONSTANDARDANSI
  2
AmdtSectionSymStdANSI
  3
"Amdt_StdImp|Product Description: AutoCAD Mechanical|Company: Autodesk, Inc."
 90
     1024
 91
        0
280
     0
281
     0
  0
CLASS
  1
ACMCENTERLINESTANDARDANSI
  2
AmdtCenterLineStdANSI
  3
"Amdt_StdImp|Product Description: AutoCAD Mechanical|Company: Autodesk, Inc."
 90
     1024
 91
        0
280
     0
281
     0
  0
CLASS
  1
ACMTHREADLINESTANDARDANSI
  2
AmdtThreadLineStdANSI
  3
"Amdt_StdImp|Product Description: AutoCAD Mechanical|Company: Autodesk, Inc."
 90
     1024
 91
        0
280
     0
281
     0
  0
CLASS
  1
ACMNOTESTANDARDANSI
  2
AmdtNoteStdANSI
  3
"Amdt_StdImp|Product Description: AutoCAD Mechanical|Company: Autodesk, Inc."
 90
     1024
 91
        0
280
     0
281
     0
  0
CLASS
  1
ACMTAPERSTANDARDANSI
  2
AcmTaperStdANSI
  3
"Amdt_StdImp|Product Description: AutoCAD Mechanical|Company: Autodesk, Inc."
 90
     1024
 91
        0
280
     0
281
     0
  0
CLASS
  1
ACMANOOTATIONVIEWSTANDARDANSI
  2
AmdtAnViewStdANSI
  3
"Amdt_StdImp|Product Description: AutoCAD Mechanical|Company: Autodesk, Inc."
 90
     1024
 91
        0
280
     0
281
     0
  0
CLASS
  1
ACAMGHOLECHARTSTDANSI
  2
AcAmgHoleChartStdANSI
  3
AmgDim|Product Description: AutoCAD Mechanical|Company: Autodesk, Inc.
 90
     1024
 91
        0
280
     0
281
     0
  0
CLASS
  1
ACMSTANDARDBSI
  2
AcmStandardBSI
  3
"Amdt_StdImp|Product Description: AutoCAD Mechanical|Company: Autodesk, Inc."
 90
     1024
 91
        0
280
     0
281
     0
  0
CLASS
  1
ACMSURFSTANDARDBSI2002
  2
AcmSurfTextStdBSI2002
  3
"Amdt_StdImp|Product Description: AutoCAD Mechanical|Company: Autodesk, Inc."
 90
     1024
 91
        0
280
     0
281
     0
  0
CLASS
  1
ACMFCFSTANDARDBSI
  2
AcmFCFStdBSI
  3
"Amdt_StdImp|Product Description: AutoCAD Mechanical|Company: Autodesk, Inc."
 90
     1024
 91
        0
280
     0
281
     0
  0
CLASS
  1
ACMWELDSTANDARDBSI
  2
AcmWeldingStdBSI
  3
"Amdt_StdImp|Product Description: AutoCAD Mechanical|Company: Autodesk, Inc."
 90
     1024
 91
        0
280
     0
281
     0
  0
CLASS
  1
ACMIDSTANDARDBSI
  2
AcmIdStdBSI
  3
"Amdt_StdImp|Product Description: AutoCAD Mechanical|Company: Autodesk, Inc."
 90
     1024
 91
        0
280
     0
281
     0
  0
CLASS
  1
ACMDATUMSTANDARDBSI
  2
AcmDatumStdBSI
  3
"Amdt_StdImp|Product Description: AutoCAD Mechanical|Company: Autodesk, Inc."
 90
     1024
 91
        0
280
     0
281
     0
  0
CLASS
  1
ACMBOMSTANDARDBSI
  2
AcmBOMStdBSI
  3
"Amdt_StdImp|Product Description: AutoCAD Mechanical|Company: Autodesk, Inc."
 90
     1024
 91
        0
280
     0
281
     0
  0
CLASS
  1
ACMDETAILSTANDARDBSI
  2
AmdtDetailSymStdBSI
  3
"Amdt_StdImp|Product Description: AutoCAD Mechanical|Company: Autodesk, Inc."
 90
     1024
 91
        0
280
     0
281
     0
  0
CLASS
  1
ACMSECTIONSTANDARDBSI2001
  2
AmdtSectionSymStdBSI2001
  3
"Amdt_StdImp|Product Description: AutoCAD Mechanical|Company: Autodesk, Inc."
 90
     1024
 91
        0
280
     0
281
     0
  0
CLASS
  1
ACMCENTERLINESTANDARDBSI
  2
AmdtCenterLineStdBSI
  3
"Amdt_StdImp|Product Description: AutoCAD Mechanical|Company: Autodesk, Inc."
 90
     1024
 91
        0
280
     0
281
     0
  0
CLASS
  1
ACMTHREADLINESTANDARDBSI
  2
AmdtThreadLineStdBSI
  3
"Amdt_StdImp|Product Description: AutoCAD Mechanical|Company: Autodesk, Inc."
 90
     1024
 91
        0
280
     0
281
     0
  0
CLASS
  1
ACMNOTESTANDARDBSI
  2
AmdtNoteStdBSI
  3
"Amdt_StdImp|Product Description: AutoCAD Mechanical|Company: Autodesk, Inc."
 90
     1024
 91
        0
280
     0
281
     0
  0
CLASS
  1
ACMTAPERSTANDARDBSI
  2
AcmTaperStdBSI
  3
"Amdt_StdImp|Product Description: AutoCAD Mechanical|Company: Autodesk, Inc."
 90
     1024
 91
        0
280
     0
281
     0
  0
CLASS
  1
ACMANOOTATIONVIEWSTANDARDBSI
  2
AmdtAnViewStdBSI
  3
"Amdt_StdImp|Product Description: AutoCAD Mechanical|Company: Autodesk, Inc."
 90
     1024
 91
        0
280
     0
281
     0
  0
CLASS
  1
ACAMGHOLECHARTSTDBSI
  2
AcAmgHoleChartStdBSI
  3
AmgDim|Product Description: AutoCAD Mechanical|Company: Autodesk, Inc.
 90
     1024
 91
        0
280
     0
281
     0
  0
CLASS
  1
AMDTEDGESTANDARDJIS
  2
AmdtEdgeStdJIS
  3
"Amdt_StdImp|Product Description: AutoCAD Mechanical|Company: Autodesk, Inc."
 90
     1024
 91
        0
280
     0
281
     0
  0
CLASS
  1
ACMSURFSYM
  2
AcmSurfaceTexture
  3
"AcmSymBB|Product Description: AutoCAD Mechanical|Company: Autodesk, Inc."
 90
     4095
 91
        0
280
     0
281
     1
  0
CLASS
  1
ACDBCIRCARCRES
  2
AcDbCircArcRes
  3
AcGrefServices
 90
     1024
 91
        0
280
     0
281
     0
  0
CLASS
  1
ACDBDIMENSIONRES
  2
AcDbDimensionRes
  3
AcmSymBB|Product Description: AutoCAD Mechanical|Company: Autodesk, Inc.
 90
     1024
 91
        0
280
     0
281
     0
  0
CLASS
  1
ACDBOPPOLYLINERES
  2
AcDbOpPolylineRes
  3
AcGrefServices
 90
     1024
 91
        0
280
     0
281
     0
  0
CLASS
  1
AMDTACMWBLOCKBOMENTITY
  2
AmdtAcmWblockBomEntity
  3
"AcmSymBB|Product Description: AutoCAD Mechanical|Company: Autodesk, Inc."
 90
     4095
 91
        0
280
     0
281
     1
  0
CLASS
  1
ACDB_BLKREFOBJECTCONTEXTDATA_CLASS
  2
AcDbBlkRefObjectContextData
  3
ObjectDBX Classes
 90
     1153
 91
        0
280
     0
281
     0
  0
CLASS
  1
ACMPICKOBJ
  2
AcmPickEnt
  3
"AcmSymBB|Product Description: AutoCAD Mechanical|Company: Autodesk, Inc."
 90
     1024
 91
        0
280
     0
281
     1
  0
CLASS
  1
ACMBALLOON
  2
AcmBalloon
  3
"AcmSymBB|Product Description: AutoCAD Mechanical|Company: Autodesk, Inc."
 90
     4095
 91
        0
280
     0
281
     1
  0
ENDSEC
  0
SECTION
  2
TABLES
  0
TABLE
  2
VPORT
  5
8
330
0
100
AcDbSymbolTable
 70
     1
  0
VPORT
  5
27A
330
8
100
AcDbSymbolTableRecord
100
AcDbViewportTableRecord
  2
*Active
 70
     0
 10
0.0
 20
0.0
 11
1.0
 21
1.0
 12
1176.373363854511
 22
858.6855287450756
 13
0.0
 23
0.0
 14
12.5
 24
12.5
 15
50.0
 25
50.0
 16
0.0
 26
0.0
 36
1.0
 17
0.0
 27
0.0
 37
0.0
 40
1113.793456466791
 41
1.638814016172506
 42
50.0
 43
0.0
 44
0.0
 50
0.0
 51
0.0
 71
    16
 72
 20000
 73
     1
 74
     3
 75
     0
 76
     0
 77
     0
 78
     0
281
     0
 65
     0
110
0.0
120
0.0
130
0.0
111
1.0
121
0.0
131
0.0
112
0.0
122
1.0
132
0.0
 79
     0
146
0.0
348
285
 60
     3
 61
     5
292
     1
282
     0
141
0.0
142
0.0
 63
   250
421
  3355443
  0
ENDTAB
  0
TABLE
  2
LTYPE
  5
5
330
0
100
AcDbSymbolTable
 70
    22
  0
LTYPE
  5
14
330
5
100
AcDbSymbolTableRecord
100
AcDbLinetypeTableRecord
  2
ByBlock
 70
     0
  3

 72
    65
 73
     0
 40
0.0
  0
LTYPE
  5
15
330
5
100
AcDbSymbolTableRecord
100
AcDbLinetypeTableRecord
  2
ByLayer
 70
     0
  3

 72
    65
 73
     0
 40
0.0
  0
LTYPE
  5
16
330
5
100
AcDbSymbolTableRecord
100
AcDbLinetypeTableRecord
  2
Continuous
 70
     0
  3
Solid line
 72
    65
 73
     0
 40
0.0
  0
LTYPE
  5
4D
330
5
100
AcDbSymbolTableRecord
100
AcDbLinetypeTableRecord
  2
AM_ISO02W050
 70
     0
  3
__ __ __ __ __ __ __ __ __ __ __ __ __ __ __
 72
    65
 73
     2
 40
7.5
 49
6.0
 74
     0
 49
-1.5
 74
     0
  0
LTYPE
  5
4E
330
5
100
AcDbSymbolTableRecord
100
AcDbLinetypeTableRecord
  2
AM_ISO08W050
 70
     0
  3
____ . ____ . ____ . ____ . ____ . ____ . ____
 72
    65
 73
     4
 40
18.0
 49
12.0
 74
     0
 49
-1.5
 74
     0
 49
3.0
 74
     0
 49
-1.5
 74
     0
  0
LTYPE
  5
4F
330
5
100
AcDbSymbolTableRecord
100
AcDbLinetypeTableRecord
  2
AM_ISO09W050
 70
     0
  3
_____ . . _____ . . _____ . . ____ .. ____
 72
    65
 73
     6
 40
22.5
 49
12.0
 74
     0
 49
-1.5
 74
     0
 49
3.0
 74
     0
 49
-1.5
 74
     0
 49
3.0
 74
     0
 49
-1.5
 74
     0
  0
LTYPE
  5
50
330
5
100
AcDbSymbolTableRecord
100
AcDbLinetypeTableRecord
  2
Amconstr
 70
     0
  3
_______________________
 72
    65
 73
     2
 40
9999.0
 49
9999.0
 74
     0
 49
0.0
 74
     0
  0
LTYPE
  5
51
330
5
100
AcDbSymbolTableRecord
100
AcDbLinetypeTableRecord
  2
AM_ISO08W050x2
 70
     0
  3
__ . __ . __ . __ . __ . __
 72
    65
 73
     4
 40
9.0
 49
6.0
 74
     0
 49
-0.75
 74
     0
 49
1.5
 74
     0
 49
-0.75
 74
     0
  0
LTYPE
  5
52
330
5
100
AcDbSymbolTableRecord
100
AcDbLinetypeTableRecord
  2
AM_ISO02W050x2
 70
     0
  3
 _ _ _ _ _ _ _ _ _ _ _ _
 72
    65
 73
     2
 40
3.75
 49
3.0
 74
     0
 49
-0.75
 74
     0
  0
LTYPE
  5
55
330
5
100
AcDbSymbolTableRecord
100
AcDbLinetypeTableRecord
  2
Amzigzag
 70
     0
  3
/\/-/\/-/\/-/\/-/\/-/\/
 72
    65
 73
     2
 40
11.0001
 49
0.0001
 74
     4
 75
   136
340
23D
 46
0.04
 50
0.0
 44
0.0
 45
0.0
 49
-11.0
 74
     0
  0
LTYPE
  5
65
330
5
100
AcDbSymbolTableRecord
100
AcDbLinetypeTableRecord
  2
CENTER
 70
     0
  3
__ . __
 72
    65
 73
     4
 40
7.0
 49
4.0
 74
     0
 49
-1.0
 74
     0
 49
1.0
 74
     0
 49
-1.0
 74
     0
  0
LTYPE
  5
E0
330
5
100
AcDbSymbolTableRecord
100
AcDbLinetypeTableRecord
  2
HIDDEN
 70
     0
  3
Hidden __ __ __ __ __ __ __ __ __ __ __ __ __ _
 72
    65
 73
     2
 40
9.524999999999996
 49
6.349999999999998
 74
     0
 49
-3.174999999999998
 74
     0
  0
LTYPE
  5
E1
330
5
100
AcDbSymbolTableRecord
100
AcDbLinetypeTableRecord
  2
PHANTOM2
 70
     0
  3
Phantom (.5x) ___ _ _ ___ _ _ ___ _ _ ___ _ _
 72
    65
 73
     6
 40
31.75
 49
15.875
 74
     0
 49
-3.174999999999998
 74
     0
 49
3.174999999999998
 74
     0
 49
-3.174999999999998
 74
     0
 49
3.174999999999998
 74
     0
 49
-3.174999999999998
 74
     0
  0
LTYPE
  5
5A2
330
5
100
AcDbSymbolTableRecord
100
AcDbLinetypeTableRecord
  2
ACJISWELD
 70
     0
  3
_ _ _ _ _
 72
    65
 73
     2
 40
2.0
 49
2.0
 74
     0
 49
-1.0
 74
     0
  0
LTYPE
  5
7344
330
5
100
AcDbSymbolTableRecord
100
AcDbLinetypeTableRecord
  2
ACISOWELD
 70
     0
  3
_ _ _ _ _
 72
    65
 73
     2
 40
2.0
 49
2.0
 74
     0
 49
-1.0
 74
     0
  0
LTYPE
  5
7345
330
5
100
AcDbSymbolTableRecord
100
AcDbLinetypeTableRecord
  2
ACISOTGB
 70
     0
  3
__ . . __ . .
 72
    65
 73
     6
 40
9.0
 49
4.0
 74
     0
 49
-1.0
 74
     0
 49
1.0
 74
     0
 49
-1.0
 74
     0
 49
1.0
 74
     0
 49
-1.0
 74
     0
  0
LTYPE
  5
7346
330
5
100
AcDbSymbolTableRecord
100
AcDbLinetypeTableRecord
  2
ACISOTGL
 70
     0
  3
_ _ _ _ _
 72
    65
 73
     2
 40
3.0
 49
2.0
 74
     0
 49
-1.0
 74
     0
  0
ENDTAB
  0
TABLE
  2
LAYER
  5
2
102
{ACAD_XDICTIONARY
360
BF
102
}
330
0
100
AcDbSymbolTable
 70
    10
  0
LAYER
  5
10
102
{ACAD_XDICTIONARY
360
29F7
102
}
330
2
100
AcDbSymbolTableRecord
100
AcDbLayerTableRecord
  2
0
 70
     0
 62
     7
  6
Continuous
370
    -3
390
F
347
27E
  0
LAYER
  5
81
102
{ACAD_XDICTIONARY
360
29F9
102
}
330
2
100
AcDbSymbolTableRecord
100
AcDbLayerTableRecord
  2
AM_0 外形線1
 70
     0
 62
     7
  6
Continuous
370
    25
390
F
347
27E
  0
LAYER
  5
427
330
2
100
AcDbSymbolTableRecord
100
AcDbLayerTableRecord
  2
Defpoints
 70
     0
 62
     7
  6
Continuous
290
     0
370
    -3
390
F
347
27E
  0
LAYER
  5
3AE5
330
2
100
AcDbSymbolTableRecord
100
AcDbLayerTableRecord
  2
AM_5 寸法線
 70
     0
 62
     3
  6
Continuous
370
    13
390
F
347
27E
1001
AcAecLayerStandard
1000

1000

  0
LAYER
  5
3AE6
330
2
100
AcDbSymbolTableRecord
100
AcDbLayerTableRecord
  2
AM_4 細線
 70
     0
 62
     4
  6
Continuous
370
    13
390
F
347
27E
1001
AcAecLayerStandard
1000

1000

  0
LAYER
  5
3AE7
330
2
100
AcDbSymbolTableRecord
100
AcDbLayerTableRecord
  2
AM_7 中心線
 70
     0
 62
     1
  6
AM_ISO08W050
370
    13
390
F
347
27E
1001
AcAecLayerStandard
1000

1000

  0
LAYER
  5
3AE8
330
2
100
AcDbSymbolTableRecord
100
AcDbLayerTableRecord
  2
AM_3 隠れ線
 70
     0
 62
     8
  6
ACJISWELD
370
    13
390
F
347
27E
1001
AcAecLayerStandard
1000

1000

  0
LAYER
  5
3AEA
330
2
100
AcDbSymbolTableRecord
100
AcDbLayerTableRecord
  2
AM_6 文字
 70
     0
 62
     2
  6
Continuous
370
    13
390
F
347
27E
1001
AcAecLayerStandard
1000

1000

  0
LAYER
  5
6F37
330
2
100
AcDbSymbolTableRecord
100
AcDbLayerTableRecord
  2
AM_11 想像線
 70
     0
 62
     5
  6
AM_ISO09W050
370
    13
390
F
347
27E
1001
AcAecLayerStandard
1000

1000

  0
ENDTAB
  0
TABLE
  2
STYLE
  5
3
330
0
100
AcDbSymbolTable
 70
    11
  0
STYLE
  5
11
330
3
100
AcDbSymbolTableRecord
100
AcDbTextStyleTableRecord
  2
STANDARD
 70
     0
 40
0.0
 41
1.0
 50
0.0
 71
     0
 42
25.0
  3
ISOCP.SHX
  4
EXTFONT.SHX
  0
STYLE
  5
23D
330
3
100
AcDbSymbolTableRecord
100
AcDbTextStyleTableRecord
  2

 70
     1
 40
0.0
 41
1.0
 50
0.0
 71
     0
 42
2.5
  3
genltshp.shx
  4

  0
STYLE
  5
5D5
330
3
100
AcDbSymbolTableRecord
100
AcDbTextStyleTableRecord
  2
SEISA
 70
     0
 40
0.0
 41
0.9
 50
0.0
 71
     0
 42
25.0
  3
romans.shx
  4
extfont2.shx
  0
STYLE
  5
7334
330
3
100
AcDbSymbolTableRecord
100
AcDbTextStyleTableRecord
  2
ACISOTS
 70
     0
 40
1.0
 41
1.0
 50
0.0
 71
     0
 42
25.0
  3
isocp.shx
  4
extfont.shx
  0
STYLE
  5
7343
330
3
100
AcDbSymbolTableRecord
100
AcDbTextStyleTableRecord
  2
ACISOGDT
 70
     0
 40
0.0
 41
1.0
 50
0.0
 71
     0
 42
25.0
  3
amgdt.shx
  4

  0
ENDTAB
  0
TABLE
  2
VIEW
  5
6
330
0
100
AcDbSymbolTable
 70
     6
  0
VIEW
  5
91B
330
6
100
AcDbSymbolTableRecord
100
AcDbViewTableRecord
  2
AM_VIEW1
 70
     0
 40
742.4999999999998
 10
717.8109615483021
 20
1113.75000184691
 41
1435.621921182266
 11
0.0
 21
0.0
 31
1.0
 12
0.0
 22
0.0
 32
0.0
 42
50.0
 43
0.0
 44
0.0
 50
0.0
 71
    16
281
     0
 72
     0
 73
     0
  0
VIEW
  5
91C
330
6
100
AcDbSymbolTableRecord
100
AcDbViewTableRecord
  2
AM_VIEW2
 70
     0
 40
742.4999999999998
 10
1382.189040366036
 20
1113.75000184691
 41
1435.621921182266
 11
0.0
 21
0.0
 31
1.0
 12
0.0
 22
0.0
 32
0.0
 42
50.0
 43
0.0
 44
0.0
 50
0.0
 71
    16
281
     0
 72
     0
 73
     0
  0
VIEW
  5
91D
330
6
100
AcDbSymbolTableRecord
100
AcDbViewTableRecord
  2
AM_VIEW3
 70
     0
 40
742.4999999999998
 10
717.8109615483021
 20
371.2500018469103
 41
1435.621921182266
 11
0.0
 21
0.0
 31
1.0
 12
0.0
 22
0.0
 32
0.0
 42
50.0
 43
0.0
 44
0.0
 50
0.0
 71
    16
281
     0
 72
     0
 73
     0
  0
VIEW
  5
91E
330
6
100
AcDbSymbolTableRecord
100
AcDbViewTableRecord
  2
AM_VIEW4
 70
     0
 40
742.4999999999998
 10
1382.189040366036
 20
371.2500018469103
 41
1435.621921182266
 11
0.0
 21
0.0
 31
1.0
 12
0.0
 22
0.0
 32
0.0
 42
50.0
 43
0.0
 44
0.0
 50
0.0
 71
    16
281
     0
 72
     0
 73
     0
  0
VIEW
  5
91F
330
6
100
AcDbSymbolTableRecord
100
AcDbViewTableRecord
  2
AM_VIEW5
 70
     0
 40
742.5000000000001
 10
1050.000000957169
 20
742.5000018469104
 41
1435.621921182266
 11
0.0
 21
0.0
 31
1.0
 12
0.0
 22
0.0
 32
0.0
 42
50.0
 43
0.0
 44
0.0
 50
0.0
 71
    16
281
     0
 72
     0
 73
     0
  0
VIEW
  5
920
330
6
100
AcDbSymbolTableRecord
100
AcDbViewTableRecord
  2
AM_VIEW6
 70
     0
 40
1484.98515
 10
1050.000000957169
 20
742.5000018469102
 41
2871.215129926108
 11
0.0
 21
0.0
 31
1.0
 12
0.0
 22
0.0
 32
0.0
 42
50.0
 43
0.0
 44
0.0
 50
0.0
 71
    16
281
     0
 72
     0
 73
     0
  0
ENDTAB
  0
TABLE
  2
UCS
  5
7
330
0
100
AcDbSymbolTable
 70
     0
  0
ENDTAB
  0
TABLE
  2
APPID
  5
9
330
0
100
AcDbSymbolTable
 70
   396
  0
APPID
  5
12
330
9
100
AcDbSymbolTableRecord
100
AcDbRegAppTableRecord
  2
ACAD
 70
     0
  0
APPID
  5
30
330
9
100
AcDbSymbolTableRecord
100
AcDbRegAppTableRecord
  2
MCAD_NO_VIS
 70
     0
  0
APPID
  5
31
330
9
100
AcDbSymbolTableRecord
100
AcDbRegAppTableRecord
  2
ACAD_TEMP_GRAPHIC
 70
     0
  0
APPID
  5
44
330
9
100
AcDbSymbolTableRecord
100
AcDbRegAppTableRecord
  2
ACATTRIBSERVICES
 70
     0
  0
APPID
  5
F6
330
9
100
AcDbSymbolTableRecord
100
AcDbRegAppTableRecord
  2
AD_DRAW
 70
     0
  0
APPID
  5
114
330
9
100
AcDbSymbolTableRecord
100
AcDbRegAppTableRecord
  2
DESIGNERASSEMBLIES
 70
     0
  0
APPID
  5
118
330
9
100
AcDbSymbolTableRecord
100
AcDbRegAppTableRecord
  2
ACADM_DIM_EDIT
 70
     0
  0
APPID
  5
119
330
9
100
AcDbSymbolTableRecord
100
AcDbRegAppTableRecord
  2
AMDT_DM_ADJ
 70
     0
  0
APPID
  5
1AF
330
9
100
AcDbSymbolTableRecord
100
AcDbRegAppTableRecord
  2
ACAD_DSTYLE_DIMARC_LENGTH_SYMBOL
 70
     0
  0
APPID
  5
1B0
330
9
100
AcDbSymbolTableRecord
100
AcDbRegAppTableRecord
  2
ACAD_DSTYLE_DIMJOGGED_JOGANGLE_SYMBOL
 70
     0
  0
APPID
  5
2D7
330
9
100
AcDbSymbolTableRecord
100
AcDbRegAppTableRecord
  2
ACAD_MLEADERVER
 70
     0
  0
APPID
  5
355
330
9
100
AcDbSymbolTableRecord
100
AcDbRegAppTableRecord
  2
AcadAnnoPO
 70
     0
  0
APPID
  5
428
330
9
100
AcDbSymbolTableRecord
100
AcDbRegAppTableRecord
  2
ACAD_DSTYLE_DIMTEXT_FILL
 70
     0
  0
APPID
  5
429
330
9
100
AcDbSymbolTableRecord
100
AcDbRegAppTableRecord
  2
GENIUS_GENSCREG_15
 70
     0
  0
APPID
  5
42A
330
9
100
AcDbSymbolTableRecord
100
AcDbRegAppTableRecord
  2
GENIUS_GENOBJ-N-SDF_13
 70
     0
  0
APPID
  5
42B
330
9
100
AcDbSymbolTableRecord
100
AcDbRegAppTableRecord
  2
GENIUS_GENODEF_13
 70
     0
  0
APPID
  5
42C
330
9
100
AcDbSymbolTableRecord
100
AcDbRegAppTableRecord
  2
ACAD_EXEMPT_FROM_CAD_STANDARDS
 70
     0
  0
APPID
  5
42D
330
9
100
AcDbSymbolTableRecord
100
AcDbRegAppTableRecord
  2
AcAecLayerStandard
 70
     0
  0
APPID
  5
42E
330
9
100
AcDbSymbolTableRecord
100
AcDbRegAppTableRecord
  2
GENIUS_GENOBJ-N-CEN_13
 70
     0
  0
APPID
  5
42F
330
9
100
AcDbSymbolTableRecord
100
AcDbRegAppTableRecord
  2
GENIUS_GENCEN_19
 70
     0
  0
APPID
  5
430
330
9
100
AcDbSymbolTableRecord
100
AcDbRegAppTableRecord
  2
ACAD_DSTYLE_DIMINSPECT
 70
     0
  0
APPID
  5
431
330
9
100
AcDbSymbolTableRecord
100
AcDbRegAppTableRecord
  2
GENIUS_AMGTXT_16
 70
     0
  0
APPID
  5
432
330
9
100
AcDbSymbolTableRecord
100
AcDbRegAppTableRecord
  2
GENIUS_GENFIL_13
 70
     0
  0
APPID
  5
433
330
9
100
AcDbSymbolTableRecord
100
AcDbRegAppTableRecord
  2
GENIUS_GENOLIS_13
 70
     0
  0
APPID
  5
434
330
9
100
AcDbSymbolTableRecord
100
AcDbRegAppTableRecord
  2
GENIUS_GENOBJ-N-CHA_13
 70
     0
  0
APPID
  5
435
330
9
100
AcDbSymbolTableRecord
100
AcDbRegAppTableRecord
  2
GENIUS_GENOENT_13
 70
     0
  0
APPID
  5
436
330
9
100
AcDbSymbolTableRecord
100
AcDbRegAppTableRecord
  2
GENIUS_GENOREF_13
 70
     0
  0
APPID
  5
437
330
9
100
AcDbSymbolTableRecord
100
AcDbRegAppTableRecord
  2
GENIUS_GENOBJ-N-FIL_13
 70
     0
  0
APPID
  5
438
330
9
100
AcDbSymbolTableRecord
100
AcDbRegAppTableRecord
  2
GEVID1208829536
 70
     0
  0
APPID
  5
439
330
9
100
AcDbSymbolTableRecord
100
AcDbRegAppTableRecord
  2
GEVDC
 70
     0
  0
APPID
  5
43A
330
9
100
AcDbSymbolTableRecord
100
AcDbRegAppTableRecord
  2
GEVRADREF
 70
     0
  0
APPID
  5
43B
330
9
100
AcDbSymbolTableRecord
100
AcDbRegAppTableRecord
  2
GENIUS_GENBH_13
 70
     0
  0
APPID
  5
43C
330
9
100
AcDbSymbolTableRecord
100
AcDbRegAppTableRecord
  2
GENIUS_GENOBJ-NBEHI-BHF_13
 70
     0
  0
APPID
  5
43D
330
9
100
AcDbSymbolTableRecord
100
AcDbRegAppTableRecord
  2
GENIUS_GENOBJ-NBEHI-BHB_13
 70
     0
  0
APPID
  5
43E
330
9
100
AcDbSymbolTableRecord
100
AcDbRegAppTableRecord
  2
GEVID1208829537
 70
     0
  0
APPID
  5
43F
330
9
100
AcDbSymbolTableRecord
100
AcDbRegAppTableRecord
  2
ACAD_DSTYLE_DIMJAG
 70
     0
  0
APPID
  5
440
330
9
100
AcDbSymbolTableRecord
100
AcDbRegAppTableRecord
  2
ACAD_DSTYLE_DIMTALN
 70
     0
  0
APPID
  5
441
330
9
100
AcDbSymbolTableRecord
100
AcDbRegAppTableRecord
  2
AMG_2DHIDE
 70
     0
  0
APPID
  5
442
330
9
100
AcDbSymbolTableRecord
100
AcDbRegAppTableRecord
  2
AMG_2DSTRUCT_BTR
 70
     0
  0
APPID
  5
443
330
9
100
AcDbSymbolTableRecord
100
AcDbRegAppTableRecord
  2
GEVID1208845772
 70
     0
  0
APPID
  5
444
330
9
100
AcDbSymbolTableRecord
100
AcDbRegAppTableRecord
  2
GEVID1208845773
 70
     0
  0
APPID
  5
445
330
9
100
AcDbSymbolTableRecord
100
AcDbRegAppTableRecord
  2
ACADM_2DVIEW_IGN_NOTIFY
 70
     0
  0
APPID
  5
446
330
9
100
AcDbSymbolTableRecord
100
AcDbRegAppTableRecord
  2
GEVID1208845774
 70
     0
  0
APPID
  5
447
330
9
100
AcDbSymbolTableRecord
100
AcDbRegAppTableRecord
  2
GEVID1208845775
 70
     0
  0
APPID
  5
448
330
9
100
AcDbSymbolTableRecord
100
AcDbRegAppTableRecord
  2
GEVID1208845776
 70
     0
  0
APPID
  5
449
330
9
100
AcDbSymbolTableRecord
100
AcDbRegAppTableRecord
  2
GEVID1208845777
 70
     0
  0
APPID
  5
44A
330
9
100
AcDbSymbolTableRecord
100
AcDbRegAppTableRecord
  2
GEVCON
 70
     0
  0
APPID
  5
44B
330
9
100
AcDbSymbolTableRecord
100
AcDbRegAppTableRecord
  2
GENIUS_GENOBJ-F-SCPASSM_13
 70
     0
  0
APPID
  5
44C
330
9
100
AcDbSymbolTableRecord
100
AcDbRegAppTableRecord
  2
GEVID1208845778
 70
     0
  0
APPID
  5
44D
330
9
100
AcDbSymbolTableRecord
100
AcDbRegAppTableRecord
  2
GEVID1208845779
 70
     0
  0
APPID
  5
44E
330
9
100
AcDbSymbolTableRecord
100
AcDbRegAppTableRecord
  2
GEVID1208845780
 70
     0
  0
APPID
  5
44F
330
9
100
AcDbSymbolTableRecord
100
AcDbRegAppTableRecord
  2
GEVID1208845781
 70
     0
  0
APPID
  5
450
330
9
100
AcDbSymbolTableRecord
100
AcDbRegAppTableRecord
  2
GEVID1208845782
 70
     0
  0
APPID
  5
451
330
9
100
AcDbSymbolTableRecord
100
AcDbRegAppTableRecord
  2
GEVID1208845783
 70
     0
  0
APPID
  5
452
330
9
100
AcDbSymbolTableRecord
100
AcDbRegAppTableRecord
  2
GEVID1208845784
 70
     0
  0
APPID
  5
453
330
9
100
AcDbSymbolTableRecord
100
AcDbRegAppTableRecord
  2
GEVID1208845785
 70
     0
  0
APPID
  5
454
330
9
100
AcDbSymbolTableRecord
100
AcDbRegAppTableRecord
  2
GEVID1208845787
 70
     0
  0
APPID
  5
455
330
9
100
AcDbSymbolTableRecord
100
AcDbRegAppTableRecord
  2
GEVID1208845788
 70
     0
  0
APPID
  5
456
330
9
100
AcDbSymbolTableRecord
100
AcDbRegAppTableRecord
  2
GEVID1208845789
 70
     0
  0
APPID
  5
457
330
9
100
AcDbSymbolTableRecord
100
AcDbRegAppTableRecord
  2
GEVID1208845790
 70
     0
  0
APPID
  5
458
330
9
100
AcDbSymbolTableRecord
100
AcDbRegAppTableRecord
  2
GEVID1208845791
 70
     0
  0
APPID
  5
459
330
9
100
AcDbSymbolTableRecord
100
AcDbRegAppTableRecord
  2
GEVID1208845792
 70
     0
  0
APPID
  5
45A
330
9
100
AcDbSymbolTableRecord
100
AcDbRegAppTableRecord
  2
GEVID1208845793
 70
     0
  0
APPID
  5
45B
330
9
100
AcDbSymbolTableRecord
100
AcDbRegAppTableRecord
  2
GEVID1208845794
 70
     0
  0
APPID
  5
45C
330
9
100
AcDbSymbolTableRecord
100
AcDbRegAppTableRecord
  2
GEVID1208845795
 70
     0
  0
APPID
  5
45D
330
9
100
AcDbSymbolTableRecord
100
AcDbRegAppTableRecord
  2
GEVID1208845796
 70
     0
  0
APPID
  5
45E
330
9
100
AcDbSymbolTableRecord
100
AcDbRegAppTableRecord
  2
GEVID1208845797
 70
     0
  0
APPID
  5
45F
330
9
100
AcDbSymbolTableRecord
100
AcDbRegAppTableRecord
  2
GEVID1208845798
 70
     0
  0
APPID
  5
460
330
9
100
AcDbSymbolTableRecord
100
AcDbRegAppTableRecord
  2
GEVID1208845799
 70
     0
  0
APPID
  5
461
330
9
100
AcDbSymbolTableRecord
100
AcDbRegAppTableRecord
  2
GEVID1208845800
 70
     0
  0
APPID
  5
462
330
9
100
AcDbSymbolTableRecord
100
AcDbRegAppTableRecord
  2
GEVID1208845801
 70
     0
  0
APPID
  5
463
330
9
100
AcDbSymbolTableRecord
100
AcDbRegAppTableRecord
  2
GEVID1208845802
 70
     0
  0
APPID
  5
464
330
9
100
AcDbSymbolTableRecord
100
AcDbRegAppTableRecord
  2
GENIUS_GENOBJ-N-DIM_13
 70
     0
  0
APPID
  5
465
330
9
100
AcDbSymbolTableRecord
100
AcDbRegAppTableRecord
  2
GENIUS_GENDIM_13
 70
     0
  0
APPID
  5
466
330
9
100
AcDbSymbolTableRecord
100
AcDbRegAppTableRecord
  2
GENIUS_GENDIMSH_14
 70
     0
  0
APPID
  5
467
330
9
100
AcDbSymbolTableRecord
100
AcDbRegAppTableRecord
  2
GEVID1208845803
 70
     0
  0
APPID
  5
468
330
9
100
AcDbSymbolTableRecord
100
AcDbRegAppTableRecord
  2
GEVID1208845804
 70
     0
  0
APPID
  5
469
330
9
100
AcDbSymbolTableRecord
100
AcDbRegAppTableRecord
  2
GEVID1208845805
 70
     0
  0
APPID
  5
46A
330
9
100
AcDbSymbolTableRecord
100
AcDbRegAppTableRecord
  2
GEVID1208845806
 70
     0
  0
APPID
  5
46B
330
9
100
AcDbSymbolTableRecord
100
AcDbRegAppTableRecord
  2
GEVID1208845807
 70
     0
  0
APPID
  5
46C
330
9
100
AcDbSymbolTableRecord
100
AcDbRegAppTableRecord
  2
GEVID1208845808
 70
     0
  0
APPID
  5
46D
330
9
100
AcDbSymbolTableRecord
100
AcDbRegAppTableRecord
  2
GEVID1208845809
 70
     0
  0
APPID
  5
46E
330
9
100
AcDbSymbolTableRecord
100
AcDbRegAppTableRecord
  2
GEVID1208845810
 70
     0
  0
APPID
  5
46F
330
9
100
AcDbSymbolTableRecord
100
AcDbRegAppTableRecord
  2
GEVID1208845811
 70
     0
  0
APPID
  5
470
330
9
100
AcDbSymbolTableRecord
100
AcDbRegAppTableRecord
  2
GEVID1208845813
 70
     0
  0
APPID
  5
471
330
9
100
AcDbSymbolTableRecord
100
AcDbRegAppTableRecord
  2
GEVID1208845814
 70
     0
  0
APPID
  5
472
330
9
100
AcDbSymbolTableRecord
100
AcDbRegAppTableRecord
  2
GEVID1208845815
 70
     0
  0
APPID
  5
473
330
9
100
AcDbSymbolTableRecord
100
AcDbRegAppTableRecord
  2
GEVID1208845816
 70
     0
  0
APPID
  5
474
330
9
100
AcDbSymbolTableRecord
100
AcDbRegAppTableRecord
  2
GEVID1208845817
 70
     0
  0
APPID
  5
475
330
9
100
AcDbSymbolTableRecord
100
AcDbRegAppTableRecord
  2
GEVID1208845818
 70
     0
  0
APPID
  5
476
330
9
100
AcDbSymbolTableRecord
100
AcDbRegAppTableRecord
  2
GEVID1208845819
 70
     0
  0
APPID
  5
477
330
9
100
AcDbSymbolTableRecord
100
AcDbRegAppTableRecord
  2
GEVID1208845820
 70
     0
  0
APPID
  5
478
330
9
100
AcDbSymbolTableRecord
100
AcDbRegAppTableRecord
  2
GENIUS_GENOBJ-F-SHCL_13
 70
     0
  0
APPID
  5
479
330
9
100
AcDbSymbolTableRecord
100
AcDbRegAppTableRecord
  2
GENIUS_GEFMSH_13
 70
     0
  0
APPID
  5
47A
330
9
100
AcDbSymbolTableRecord
100
AcDbRegAppTableRecord
  2
GENIUS_GENOBJ-F-SHCA_13
 70
     0
  0
APPID
  5
47B
330
9
100
AcDbSymbolTableRecord
100
AcDbRegAppTableRecord
  2
GENIUS_GEFSH_13
 70
     0
  0
APPID
  5
47C
330
9
100
AcDbSymbolTableRecord
100
AcDbRegAppTableRecord
  2
GENIUS_GEFSHP_13
 70
     0
  0
APPID
  5
47D
330
9
100
AcDbSymbolTableRecord
100
AcDbRegAppTableRecord
  2
GENIUS_GEFSHP0_13
 70
     0
  0
APPID
  5
47E
330
9
100
AcDbSymbolTableRecord
100
AcDbRegAppTableRecord
  2
GENIUS_GEFSH0_13
 70
     0
  0
APPID
  5
47F
330
9
100
AcDbSymbolTableRecord
100
AcDbRegAppTableRecord
  2
GENIUS_GEFSHP1_13
 70
     0
  0
APPID
  5
480
330
9
100
AcDbSymbolTableRecord
100
AcDbRegAppTableRecord
  2
GENIUS_GEFSH1_13
 70
     0
  0
APPID
  5
481
330
9
100
AcDbSymbolTableRecord
100
AcDbRegAppTableRecord
  2
GEVID1208866337
 70
     0
  0
APPID
  5
482
330
9
100
AcDbSymbolTableRecord
100
AcDbRegAppTableRecord
  2
GEVID1208866338
 70
     0
  0
APPID
  5
483
330
9
100
AcDbSymbolTableRecord
100
AcDbRegAppTableRecord
  2
GEVID1208866339
 70
     0
  0
APPID
  5
484
330
9
100
AcDbSymbolTableRecord
100
AcDbRegAppTableRecord
  2
GEVID1208866340
 70
     0
  0
APPID
  5
485
330
9
100
AcDbSymbolTableRecord
100
AcDbRegAppTableRecord
  2
GEVID1208866341
 70
     0
  0
APPID
  5
486
330
9
100
AcDbSymbolTableRecord
100
AcDbRegAppTableRecord
  2
ACAD_PSEXT
 70
     0
  0
APPID
  5
487
330
9
100
AcDbSymbolTableRecord
100
AcDbRegAppTableRecord
  2
GEVID1208866342
 70
     0
  0
APPID
  5
488
330
9
100
AcDbSymbolTableRecord
100
AcDbRegAppTableRecord
  2
GEVID1208913836
 70
     0
  0
APPID
  5
489
330
9
100
AcDbSymbolTableRecord
100
AcDbRegAppTableRecord
  2
GEVID1208913837
 70
     0
  0
APPID
  5
48A
330
9
100
AcDbSymbolTableRecord
100
AcDbRegAppTableRecord
  2
GEVID1208913838
 70
     0
  0
APPID
  5
48B
330
9
100
AcDbSymbolTableRecord
100
AcDbRegAppTableRecord
  2
GEVID1208913839
 70
     0
  0
APPID
  5
48C
330
9
100
AcDbSymbolTableRecord
100
AcDbRegAppTableRecord
  2
GENIUS_GENDTOL_13
 70
     0
  0
APPID
  5
48D
330
9
100
AcDbSymbolTableRecord
100
AcDbRegAppTableRecord
  2
GEVID1208928889
 70
     0
  0
APPID
  5
48E
330
9
100
AcDbSymbolTableRecord
100
AcDbRegAppTableRecord
  2
GEVID1208928890
 70
     0
  0
APPID
  5
48F
330
9
100
AcDbSymbolTableRecord
100
AcDbRegAppTableRecord
  2
GEVID1208928891
 70
     0
  0
APPID
  5
490
330
9
100
AcDbSymbolTableRecord
100
AcDbRegAppTableRecord
  2
GEVID1208928892
 70
     0
  0
APPID
  5
491
330
9
100
AcDbSymbolTableRecord
100
AcDbRegAppTableRecord
  2
GEVID1208933827
 70
     0
  0
APPID
  5
492
330
9
100
AcDbSymbolTableRecord
100
AcDbRegAppTableRecord
  2
GEVID1208933829
 70
     0
  0
APPID
  5
493
330
9
100
AcDbSymbolTableRecord
100
AcDbRegAppTableRecord
  2
GEVID1208933830
 70
     0
  0
APPID
  5
494
330
9
100
AcDbSymbolTableRecord
100
AcDbRegAppTableRecord
  2
GEVID1208933831
 70
     0
  0
APPID
  5
495
330
9
100
AcDbSymbolTableRecord
100
AcDbRegAppTableRecord
  2
GEVID1208933832
 70
     0
  0
APPID
  5
496
330
9
100
AcDbSymbolTableRecord
100
AcDbRegAppTableRecord
  2
GEVID1208933833
 70
     0
  0
APPID
  5
497
330
9
100
AcDbSymbolTableRecord
100
AcDbRegAppTableRecord
  2
GEVID1208933834
 70
     0
  0
APPID
  5
498
330
9
100
AcDbSymbolTableRecord
100
AcDbRegAppTableRecord
  2
GEVID1208933835
 70
     0
  0
APPID
  5
499
330
9
100
AcDbSymbolTableRecord
100
AcDbRegAppTableRecord
  2
GEVID1208933836
 70
     0
  0
APPID
  5
49A
330
9
100
AcDbSymbolTableRecord
100
AcDbRegAppTableRecord
  2
GEVID1208933837
 70
     0
  0
APPID
  5
49B
330
9
100
AcDbSymbolTableRecord
100
AcDbRegAppTableRecord
  2
GEVID1208933838
 70
     0
  0
APPID
  5
49C
330
9
100
AcDbSymbolTableRecord
100
AcDbRegAppTableRecord
  2
GEVID1208933840
 70
     0
  0
APPID
  5
49D
330
9
100
AcDbSymbolTableRecord
100
AcDbRegAppTableRecord
  2
GEVID1208933842
 70
     0
  0
APPID
  5
49E
330
9
100
AcDbSymbolTableRecord
100
AcDbRegAppTableRecord
  2
GEVID1208933843
 70
     0
  0
APPID
  5
49F
330
9
100
AcDbSymbolTableRecord
100
AcDbRegAppTableRecord
  2
GEVID1208933844
 70
     0
  0
APPID
  5
4A0
330
9
100
AcDbSymbolTableRecord
100
AcDbRegAppTableRecord
  2
GEVID1208933845
 70
     0
  0
APPID
  5
4A1
330
9
100
AcDbSymbolTableRecord
100
AcDbRegAppTableRecord
  2
GEVID1208933846
 70
     0
  0
APPID
  5
4A2
330
9
100
AcDbSymbolTableRecord
100
AcDbRegAppTableRecord
  2
GEVID1208933847
 70
     0
  0
APPID
  5
4A3
330
9
100
AcDbSymbolTableRecord
100
AcDbRegAppTableRecord
  2
GEVID1208933848
 70
     0
  0
APPID
  5
4A4
330
9
100
AcDbSymbolTableRecord
100
AcDbRegAppTableRecord
  2
GEVID1208933849
 70
     0
  0
APPID
  5
4A5
330
9
100
AcDbSymbolTableRecord
100
AcDbRegAppTableRecord
  2
GEVID1208933850
 70
     0
  0
APPID
  5
4A6
330
9
100
AcDbSymbolTableRecord
100
AcDbRegAppTableRecord
  2
GEVID1208933851
 70
     0
  0
APPID
  5
4A7
330
9
100
AcDbSymbolTableRecord
100
AcDbRegAppTableRecord
  2
GEVID1208933852
 70
     0
  0
APPID
  5
4A8
330
9
100
AcDbSymbolTableRecord
100
AcDbRegAppTableRecord
  2
GEVID1208933853
 70
     0
  0
APPID
  5
4A9
330
9
100
AcDbSymbolTableRecord
100
AcDbRegAppTableRecord
  2
GEVID1208933854
 70
     0
  0
APPID
  5
4AA
330
9
100
AcDbSymbolTableRecord
100
AcDbRegAppTableRecord
  2
GEVID1208933855
 70
     0
  0
APPID
  5
4AB
330
9
100
AcDbSymbolTableRecord
100
AcDbRegAppTableRecord
  2
GEVID1208933856
 70
     0
  0
APPID
  5
4AC
330
9
100
AcDbSymbolTableRecord
100
AcDbRegAppTableRecord
  2
GEVID1208933857
 70
     0
  0
APPID
  5
4AD
330
9
100
AcDbSymbolTableRecord
100
AcDbRegAppTableRecord
  2
GEVID1208933858
 70
     0
  0
APPID
  5
4AE
330
9
100
AcDbSymbolTableRecord
100
AcDbRegAppTableRecord
  2
GEVID1208933859
 70
     0
  0
APPID
  5
4AF
330
9
100
AcDbSymbolTableRecord
100
AcDbRegAppTableRecord
  2
GEVID1208933860
 70
     0
  0
APPID
  5
4B0
330
9
100
AcDbSymbolTableRecord
100
AcDbRegAppTableRecord
  2
GEVID1208933861
 70
     0
  0
APPID
  5
4B1
330
9
100
AcDbSymbolTableRecord
100
AcDbRegAppTableRecord
  2
GEVID1208933862
 70
     0
  0
APPID
  5
4B2
330
9
100
AcDbSymbolTableRecord
100
AcDbRegAppTableRecord
  2
GEVID1208933863
 70
     0
  0
APPID
  5
4B3
330
9
100
AcDbSymbolTableRecord
100
AcDbRegAppTableRecord
  2
GEVID1208933864
 70
     0
  0
APPID
  5
4B4
330
9
100
AcDbSymbolTableRecord
100
AcDbRegAppTableRecord
  2
GEVID1208933865
 70
     0
  0
APPID
  5
4B5
330
9
100
AcDbSymbolTableRecord
100
AcDbRegAppTableRecord
  2
GEVID1208933866
 70
     0
  0
APPID
  5
4B6
330
9
100
AcDbSymbolTableRecord
100
AcDbRegAppTableRecord
  2
GEVID1208933867
 70
     0
  0
APPID
  5
4B7
330
9
100
AcDbSymbolTableRecord
100
AcDbRegAppTableRecord
  2
GEVID1208933868
 70
     0
  0
APPID
  5
4B8
330
9
100
AcDbSymbolTableRecord
100
AcDbRegAppTableRecord
  2
GEVID1208933869
 70
     0
  0
APPID
  5
4B9
330
9
100
AcDbSymbolTableRecord
100
AcDbRegAppTableRecord
  2
GEVID1208933870
 70
     0
  0
APPID
  5
4BA
330
9
100
AcDbSymbolTableRecord
100
AcDbRegAppTableRecord
  2
GEVID1208933871
 70
     0
  0
APPID
  5
4BB
330
9
100
AcDbSymbolTableRecord
100
AcDbRegAppTableRecord
  2
GEVID1208933872
 70
     0
  0
APPID
  5
4BC
330
9
100
AcDbSymbolTableRecord
100
AcDbRegAppTableRecord
  2
GEVID1208933873
 70
     0
  0
APPID
  5
4BD
330
9
100
AcDbSymbolTableRecord
100
AcDbRegAppTableRecord
  2
GEVID1208933874
 70
     0
  0
APPID
  5
4BE
330
9
100
AcDbSymbolTableRecord
100
AcDbRegAppTableRecord
  2
GEVID1208933875
 70
     0
  0
APPID
  5
4BF
330
9
100
AcDbSymbolTableRecord
100
AcDbRegAppTableRecord
  2
GEVID1208933876
 70
     0
  0
APPID
  5
4C0
330
9
100
AcDbSymbolTableRecord
100
AcDbRegAppTableRecord
  2
ACAD_DSTYLE_DIMRADIAL_EXTENSION
 70
     0
  0
APPID
  5
4C1
330
9
100
AcDbSymbolTableRecord
100
AcDbRegAppTableRecord
  2
GEVID1208999100
 70
     0
  0
APPID
  5
4C2
330
9
100
AcDbSymbolTableRecord
100
AcDbRegAppTableRecord
  2
GEVID1208999101
 70
     0
  0
APPID
  5
4C3
330
9
100
AcDbSymbolTableRecord
100
AcDbRegAppTableRecord
  2
GEVID1208999102
 70
     0
  0
APPID
  5
4C4
330
9
100
AcDbSymbolTableRecord
100
AcDbRegAppTableRecord
  2
GEVID1208999103
 70
     0
  0
APPID
  5
4C5
330
9
100
AcDbSymbolTableRecord
100
AcDbRegAppTableRecord
  2
GEVID1208999105
 70
     0
  0
APPID
  5
4C6
330
9
100
AcDbSymbolTableRecord
100
AcDbRegAppTableRecord
  2
GEVID1208999106
 70
     0
  0
APPID
  5
4C7
330
9
100
AcDbSymbolTableRecord
100
AcDbRegAppTableRecord
  2
GEVID1208999108
 70
     0
  0
APPID
  5
4C8
330
9
100
AcDbSymbolTableRecord
100
AcDbRegAppTableRecord
  2
GEVID1208999109
 70
     0
  0
APPID
  5
4C9
330
9
100
AcDbSymbolTableRecord
100
AcDbRegAppTableRecord
  2
GEVID1208999110
 70
     0
  0
APPID
  5
4CA
330
9
100
AcDbSymbolTableRecord
100
AcDbRegAppTableRecord
  2
GEVID1208999111
 70
     0
  0
APPID
  5
4CB
330
9
100
AcDbSymbolTableRecord
100
AcDbRegAppTableRecord
  2
GEVID1208999112
 70
     0
  0
APPID
  5
4CC
330
9
100
AcDbSymbolTableRecord
100
AcDbRegAppTableRecord
  2
GEVID1208999113
 70
     0
  0
APPID
  5
4CD
330
9
100
AcDbSymbolTableRecord
100
AcDbRegAppTableRecord
  2
GEVID1208999114
 70
     0
  0
APPID
  5
4CE
330
9
100
AcDbSymbolTableRecord
100
AcDbRegAppTableRecord
  2
GEVID1210218799
 70
     0
  0
APPID
  5
4CF
330
9
100
AcDbSymbolTableRecord
100
AcDbRegAppTableRecord
  2
GEVID1210218800
 70
     0
  0
APPID
  5
4D0
330
9
100
AcDbSymbolTableRecord
100
AcDbRegAppTableRecord
  2
GENIUS_GEFWELD_13
 70
     0
  0
APPID
  5
4D1
330
9
100
AcDbSymbolTableRecord
100
AcDbRegAppTableRecord
  2
GENIUS_GENOBJ-F-WELS_13
 70
     0
  0
APPID
  5
4D2
330
9
100
AcDbSymbolTableRecord
100
AcDbRegAppTableRecord
  2
AcadAnnotative
 70
     0
  0
APPID
  5
4D3
330
9
100
AcDbSymbolTableRecord
100
AcDbRegAppTableRecord
  2
GEVID1210145339
 70
     0
  0
APPID
  5
4D4
330
9
100
AcDbSymbolTableRecord
100
AcDbRegAppTableRecord
  2
ACAD_DSTYLE_DIMBREAK
 70
     0
  0
APPID
  5
4D5
330
9
100
AcDbSymbolTableRecord
100
AcDbRegAppTableRecord
  2
GEVID1210145340
 70
     0
  0
APPID
  5
4D6
330
9
100
AcDbSymbolTableRecord
100
AcDbRegAppTableRecord
  2
GEVID1210145341
 70
     0
  0
APPID
  5
4D7
330
9
100
AcDbSymbolTableRecord
100
AcDbRegAppTableRecord
  2
GEVID1210145342
 70
     0
  0
APPID
  5
4D8
330
9
100
AcDbSymbolTableRecord
100
AcDbRegAppTableRecord
  2
GEVID1210145343
 70
     0
  0
APPID
  5
4D9
330
9
100
AcDbSymbolTableRecord
100
AcDbRegAppTableRecord
  2
GEVID1210145344
 70
     0
  0
APPID
  5
4DA
330
9
100
AcDbSymbolTableRecord
100
AcDbRegAppTableRecord
  2
GEVID1210145345
 70
     0
  0
APPID
  5
4DB
330
9
100
AcDbSymbolTableRecord
100
AcDbRegAppTableRecord
  2
GEVID1210152816
 70
     0
  0
APPID
  5
4DC
330
9
100
AcDbSymbolTableRecord
100
AcDbRegAppTableRecord
  2
GEVID1210153850
 70
     0
  0
APPID
  5
4DD
330
9
100
AcDbSymbolTableRecord
100
AcDbRegAppTableRecord
  2
GEVID1210153851
 70
     0
  0
APPID
  5
4DE
330
9
100
AcDbSymbolTableRecord
100
AcDbRegAppTableRecord
  2
GEVID1210153852
 70
     0
  0
APPID
  5
4DF
330
9
100
AcDbSymbolTableRecord
100
AcDbRegAppTableRecord
  2
GEVID1210549898
 70
     0
  0
APPID
  5
4E0
330
9
100
AcDbSymbolTableRecord
100
AcDbRegAppTableRecord
  2
GEVID1210549899
 70
     0
  0
APPID
  5
4E1
330
9
100
AcDbSymbolTableRecord
100
AcDbRegAppTableRecord
  2
GEVID1210549900
 70
     0
  0
APPID
  5
4E2
330
9
100
AcDbSymbolTableRecord
100
AcDbRegAppTableRecord
  2
GEVID1210549901
 70
     0
  0
APPID
  5
4E3
330
9
100
AcDbSymbolTableRecord
100
AcDbRegAppTableRecord
  2
GEVID1210549902
 70
     0
  0
APPID
  5
4E4
330
9
100
AcDbSymbolTableRecord
100
AcDbRegAppTableRecord
  2
GEVID1210549903
 70
     0
  0
APPID
  5
4E5
330
9
100
AcDbSymbolTableRecord
100
AcDbRegAppTableRecord
  2
GEVID1210549904
 70
     0
  0
APPID
  5
4E6
330
9
100
AcDbSymbolTableRecord
100
AcDbRegAppTableRecord
  2
GEVID1210549905
 70
     0
  0
APPID
  5
4E7
330
9
100
AcDbSymbolTableRecord
100
AcDbRegAppTableRecord
  2
GEVID1210549906
 70
     0
  0
APPID
  5
4E8
330
9
100
AcDbSymbolTableRecord
100
AcDbRegAppTableRecord
  2
GEVID1210549907
 70
     0
  0
APPID
  5
4E9
330
9
100
AcDbSymbolTableRecord
100
AcDbRegAppTableRecord
  2
GEVID1210549908
 70
     0
  0
APPID
  5
4EA
330
9
100
AcDbSymbolTableRecord
100
AcDbRegAppTableRecord
  2
GEVID1210549909
 70
     0
  0
APPID
  5
4EB
330
9
100
AcDbSymbolTableRecord
100
AcDbRegAppTableRecord
  2
GEVID1210549910
 70
     0
  0
APPID
  5
4EC
330
9
100
AcDbSymbolTableRecord
100
AcDbRegAppTableRecord
  2
GEVID1210549911
 70
     0
  0
APPID
  5
4ED
330
9
100
AcDbSymbolTableRecord
100
AcDbRegAppTableRecord
  2
GEVID1210549912
 70
     0
  0
APPID
  5
4EE
330
9
100
AcDbSymbolTableRecord
100
AcDbRegAppTableRecord
  2
GEVID1210549913
 70
     0
  0
APPID
  5
4EF
330
9
100
AcDbSymbolTableRecord
100
AcDbRegAppTableRecord
  2
GEVID1210549914
 70
     0
  0
APPID
  5
4F0
330
9
100
AcDbSymbolTableRecord
100
AcDbRegAppTableRecord
  2
GEVID1210549915
 70
     0
  0
APPID
  5
4F1
330
9
100
AcDbSymbolTableRecord
100
AcDbRegAppTableRecord
  2
GEVID1210549916
 70
     0
  0
APPID
  5
4F2
330
9
100
AcDbSymbolTableRecord
100
AcDbRegAppTableRecord
  2
GEVID1210549917
 70
     0
  0
APPID
  5
4F3
330
9
100
AcDbSymbolTableRecord
100
AcDbRegAppTableRecord
  2
GENIUS_GENOBJ-N-CRS_13
 70
     0
  0
APPID
  5
4F4
330
9
100
AcDbSymbolTableRecord
100
AcDbRegAppTableRecord
  2
GEVID1210549918
 70
     0
  0
APPID
  5
4F5
330
9
100
AcDbSymbolTableRecord
100
AcDbRegAppTableRecord
  2
GENIUS_GENOBJ-N-CRC_13
 70
     0
  0
APPID
  5
4F6
330
9
100
AcDbSymbolTableRecord
100
AcDbRegAppTableRecord
  2
GENIUS_GENCRC_14
 70
     0
  0
APPID
  5
4F7
330
9
100
AcDbSymbolTableRecord
100
AcDbRegAppTableRecord
  2
GEVID1210549919
 70
     0
  0
APPID
  5
4F8
330
9
100
AcDbSymbolTableRecord
100
AcDbRegAppTableRecord
  2
GEVID1210549921
 70
     0
  0
APPID
  5
4F9
330
9
100
AcDbSymbolTableRecord
100
AcDbRegAppTableRecord
  2
GEVID1210549922
 70
     0
  0
APPID
  5
4FA
330
9
100
AcDbSymbolTableRecord
100
AcDbRegAppTableRecord
  2
GEVID1210635173
 70
     0
  0
APPID
  5
4FB
330
9
100
AcDbSymbolTableRecord
100
AcDbRegAppTableRecord
  2
GEVID1210635174
 70
     0
  0
APPID
  5
4FC
330
9
100
AcDbSymbolTableRecord
100
AcDbRegAppTableRecord
  2
GEVID1210635175
 70
     0
  0
APPID
  5
4FD
330
9
100
AcDbSymbolTableRecord
100
AcDbRegAppTableRecord
  2
GEVID1210635176
 70
     0
  0
APPID
  5
4FE
330
9
100
AcDbSymbolTableRecord
100
AcDbRegAppTableRecord
  2
GEVID1210635177
 70
     0
  0
APPID
  5
4FF
330
9
100
AcDbSymbolTableRecord
100
AcDbRegAppTableRecord
  2
GEVID1210635178
 70
     0
  0
APPID
  5
500
330
9
100
AcDbSymbolTableRecord
100
AcDbRegAppTableRecord
  2
GENIUS_GENIUS_GENBHEDTMP_13
 70
     0
  0
APPID
  5
501
330
9
100
AcDbSymbolTableRecord
100
AcDbRegAppTableRecord
  2
GEVID1210635179
 70
     0
  0
APPID
  5
502
330
9
100
AcDbSymbolTableRecord
100
AcDbRegAppTableRecord
  2
GEVID1210635180
 70
     0
  0
APPID
  5
503
330
9
100
AcDbSymbolTableRecord
100
AcDbRegAppTableRecord
  2
GEVID1210635181
 70
     0
  0
APPID
  5
504
330
9
100
AcDbSymbolTableRecord
100
AcDbRegAppTableRecord
  2
GEVID1210635182
 70
     0
  0
APPID
  5
505
330
9
100
AcDbSymbolTableRecord
100
AcDbRegAppTableRecord
  2
GEVID1210635184
 70
     0
  0
APPID
  5
506
330
9
100
AcDbSymbolTableRecord
100
AcDbRegAppTableRecord
  2
GEVID1210635185
 70
     0
  0
APPID
  5
507
330
9
100
AcDbSymbolTableRecord
100
AcDbRegAppTableRecord
  2
GEVID1210635186
 70
     0
  0
APPID
  5
508
330
9
100
AcDbSymbolTableRecord
100
AcDbRegAppTableRecord
  2
GEVID1210635187
 70
     0
  0
APPID
  5
509
330
9
100
AcDbSymbolTableRecord
100
AcDbRegAppTableRecord
  2
GEVID1210635188
 70
     0
  0
APPID
  5
50A
330
9
100
AcDbSymbolTableRecord
100
AcDbRegAppTableRecord
  2
GEVID1210635189
 70
     0
  0
APPID
  5
50B
330
9
100
AcDbSymbolTableRecord
100
AcDbRegAppTableRecord
  2
GEVID1210635190
 70
     0
  0
APPID
  5
50C
330
9
100
AcDbSymbolTableRecord
100
AcDbRegAppTableRecord
  2
GENIUS_GENREC_14
 70
     0
  0
APPID
  5
50D
330
9
100
AcDbSymbolTableRecord
100
AcDbRegAppTableRecord
  2
GENIUS_GENOBJ-N-REC_13
 70
     0
  0
APPID
  5
50E
330
9
100
AcDbSymbolTableRecord
100
AcDbRegAppTableRecord
  2
GEVID1210676655
 70
     0
  0
APPID
  5
50F
330
9
100
AcDbSymbolTableRecord
100
AcDbRegAppTableRecord
  2
GEVID1210676656
 70
     0
  0
APPID
  5
510
330
9
100
AcDbSymbolTableRecord
100
AcDbRegAppTableRecord
  2
GEVID1210676657
 70
     0
  0
APPID
  5
511
330
9
100
AcDbSymbolTableRecord
100
AcDbRegAppTableRecord
  2
GEVID1210676659
 70
     0
  0
APPID
  5
512
330
9
100
AcDbSymbolTableRecord
100
AcDbRegAppTableRecord
  2
GEVID1210676660
 70
     0
  0
APPID
  5
513
330
9
100
AcDbSymbolTableRecord
100
AcDbRegAppTableRecord
  2
GEVID1210676661
 70
     0
  0
APPID
  5
514
330
9
100
AcDbSymbolTableRecord
100
AcDbRegAppTableRecord
  2
GEVID1210676662
 70
     0
  0
APPID
  5
515
330
9
100
AcDbSymbolTableRecord
100
AcDbRegAppTableRecord
  2
GEVID1210721646
 70
     0
  0
APPID
  5
516
330
9
100
AcDbSymbolTableRecord
100
AcDbRegAppTableRecord
  2
GEVID1210721647
 70
     0
  0
APPID
  5
517
330
9
100
AcDbSymbolTableRecord
100
AcDbRegAppTableRecord
  2
GEVID1210721648
 70
     0
  0
APPID
  5
518
330
9
100
AcDbSymbolTableRecord
100
AcDbRegAppTableRecord
  2
GEVID1210721649
 70
     0
  0
APPID
  5
519
330
9
100
AcDbSymbolTableRecord
100
AcDbRegAppTableRecord
  2
GEVID1210721650
 70
     0
  0
APPID
  5
51A
330
9
100
AcDbSymbolTableRecord
100
AcDbRegAppTableRecord
  2
GEVID1210721651
 70
     0
  0
APPID
  5
51B
330
9
100
AcDbSymbolTableRecord
100
AcDbRegAppTableRecord
  2
GEVID1210721652
 70
     0
  0
APPID
  5
51C
330
9
100
AcDbSymbolTableRecord
100
AcDbRegAppTableRecord
  2
GEVID1210721653
 70
     0
  0
APPID
  5
51D
330
9
100
AcDbSymbolTableRecord
100
AcDbRegAppTableRecord
  2
PE_URL
 70
     0
  0
APPID
  5
51E
330
9
100
AcDbSymbolTableRecord
100
AcDbRegAppTableRecord
  2
GEVID1210825555
 70
     0
  0
APPID
  5
51F
330
9
100
AcDbSymbolTableRecord
100
AcDbRegAppTableRecord
  2
GEVID1210825556
 70
     0
  0
APPID
  5
520
330
9
100
AcDbSymbolTableRecord
100
AcDbRegAppTableRecord
  2
GEVID1210825557
 70
     0
  0
APPID
  5
521
330
9
100
AcDbSymbolTableRecord
100
AcDbRegAppTableRecord
  2
GEVID1210825558
 70
     0
  0
APPID
  5
522
330
9
100
AcDbSymbolTableRecord
100
AcDbRegAppTableRecord
  2
GEVID1210825559
 70
     0
  0
APPID
  5
523
330
9
100
AcDbSymbolTableRecord
100
AcDbRegAppTableRecord
  2
GEVID1210825560
 70
     0
  0
APPID
  5
524
330
9
100
AcDbSymbolTableRecord
100
AcDbRegAppTableRecord
  2
GEVID1210825561
 70
     0
  0
APPID
  5
525
330
9
100
AcDbSymbolTableRecord
100
AcDbRegAppTableRecord
  2
GEVID1210825562
 70
     0
  0
APPID
  5
526
330
9
100
AcDbSymbolTableRecord
100
AcDbRegAppTableRecord
  2
GEVID1210825563
 70
     0
  0
APPID
  5
527
330
9
100
AcDbSymbolTableRecord
100
AcDbRegAppTableRecord
  2
GEVID1210825564
 70
     0
  0
APPID
  5
528
330
9
100
AcDbSymbolTableRecord
100
AcDbRegAppTableRecord
  2
GEVID1210825565
 70
     0
  0
APPID
  5
529
330
9
100
AcDbSymbolTableRecord
100
AcDbRegAppTableRecord
  2
GEVID1210825566
 70
     0
  0
APPID
  5
52A
330
9
100
AcDbSymbolTableRecord
100
AcDbRegAppTableRecord
  2
GEVID1210825567
 70
     0
  0
APPID
  5
52B
330
9
100
AcDbSymbolTableRecord
100
AcDbRegAppTableRecord
  2
GENIUS_GENOBJ-N-ZOO_13
 70
     0
  0
APPID
  5
52C
330
9
100
AcDbSymbolTableRecord
100
AcDbRegAppTableRecord
  2
GENIUS_GENZOO_17
 70
     0
  0
APPID
  5
52D
330
9
100
AcDbSymbolTableRecord
100
AcDbRegAppTableRecord
  2
ACADANNOTATIVEDECOMPOSITION
 70
     0
  0
APPID
  5
52E
330
9
100
AcDbSymbolTableRecord
100
AcDbRegAppTableRecord
  2
GENIUS_GENOBJ-N-HTC_13
 70
     0
  0
APPID
  5
52F
330
9
100
AcDbSymbolTableRecord
100
AcDbRegAppTableRecord
  2
GENIUS_GENHATCH_13
 70
     0
  0
APPID
  5
530
330
9
100
AcDbSymbolTableRecord
100
AcDbRegAppTableRecord
  2
GEVID1210896020
 70
     0
  0
APPID
  5
531
330
9
100
AcDbSymbolTableRecord
100
AcDbRegAppTableRecord
  2
GEVID1210896021
 70
     0
  0
APPID
  5
532
330
9
100
AcDbSymbolTableRecord
100
AcDbRegAppTableRecord
  2
GEVID1209083540
 70
     0
  0
APPID
  5
533
330
9
100
AcDbSymbolTableRecord
100
AcDbRegAppTableRecord
  2
GEVMK
 70
     0
  0
APPID
  5
534
330
9
100
AcDbSymbolTableRecord
100
AcDbRegAppTableRecord
  2
GEVID1209083542
 70
     0
  0
APPID
  5
535
330
9
100
AcDbSymbolTableRecord
100
AcDbRegAppTableRecord
  2
GEVID1209083543
 70
     0
  0
APPID
  5
536
330
9
100
AcDbSymbolTableRecord
100
AcDbRegAppTableRecord
  2
GEVID1209083544
 70
     0
  0
APPID
  5
537
330
9
100
AcDbSymbolTableRecord
100
AcDbRegAppTableRecord
  2
GEVID1209083545
 70
     0
  0
APPID
  5
538
330
9
100
AcDbSymbolTableRecord
100
AcDbRegAppTableRecord
  2
GEVID1209083546
 70
     0
  0
APPID
  5
539
330
9
100
AcDbSymbolTableRecord
100
AcDbRegAppTableRecord
  2
GEVID1209083547
 70
     0
  0
APPID
  5
53A
330
9
100
AcDbSymbolTableRecord
100
AcDbRegAppTableRecord
  2
GEVID1209083548
 70
     0
  0
APPID
  5
53B
330
9
100
AcDbSymbolTableRecord
100
AcDbRegAppTableRecord
  2
GEVID1209083549
 70
     0
  0
APPID
  5
53C
330
9
100
AcDbSymbolTableRecord
100
AcDbRegAppTableRecord
  2
GEVID1209083550
 70
     0
  0
APPID
  5
53D
330
9
100
AcDbSymbolTableRecord
100
AcDbRegAppTableRecord
  2
GEVID1209083551
 70
     0
  0
APPID
  5
53E
330
9
100
AcDbSymbolTableRecord
100
AcDbRegAppTableRecord
  2
GEVID1209083552
 70
     0
  0
APPID
  5
53F
330
9
100
AcDbSymbolTableRecord
100
AcDbRegAppTableRecord
  2
GEVID1209083553
 70
     0
  0
APPID
  5
540
330
9
100
AcDbSymbolTableRecord
100
AcDbRegAppTableRecord
  2
GEVID1210896022
 70
     0
  0
APPID
  5
541
330
9
100
AcDbSymbolTableRecord
100
AcDbRegAppTableRecord
  2
GEVID1211508364
 70
     0
  0
APPID
  5
542
330
9
100
AcDbSymbolTableRecord
100
AcDbRegAppTableRecord
  2
GEVID1211414908
 70
     0
  0
APPID
  5
543
330
9
100
AcDbSymbolTableRecord
100
AcDbRegAppTableRecord
  2
GEVID1211414909
 70
     0
  0
APPID
  5
544
330
9
100
AcDbSymbolTableRecord
100
AcDbRegAppTableRecord
  2
GEVID1211508359
 70
     0
  0
APPID
  5
545
330
9
100
AcDbSymbolTableRecord
100
AcDbRegAppTableRecord
  2
GEVID1211508360
 70
     0
  0
APPID
  5
546
330
9
100
AcDbSymbolTableRecord
100
AcDbRegAppTableRecord
  2
GEVID1211508361
 70
     0
  0
APPID
  5
547
330
9
100
AcDbSymbolTableRecord
100
AcDbRegAppTableRecord
  2
GEVID1211508362
 70
     0
  0
APPID
  5
548
330
9
100
AcDbSymbolTableRecord
100
AcDbRegAppTableRecord
  2
GEVID1211508363
 70
     0
  0
APPID
  5
549
330
9
100
AcDbSymbolTableRecord
100
AcDbRegAppTableRecord
  2
GEVID1211878469
 70
     0
  0
APPID
  5
54A
330
9
100
AcDbSymbolTableRecord
100
AcDbRegAppTableRecord
  2
GEVID1212642819
 70
     0
  0
APPID
  5
54B
330
9
100
AcDbSymbolTableRecord
100
AcDbRegAppTableRecord
  2
GEVID1212642820
 70
     0
  0
APPID
  5
54C
330
9
100
AcDbSymbolTableRecord
100
AcDbRegAppTableRecord
  2
GEVID1212642821
 70
     0
  0
APPID
  5
54D
330
9
100
AcDbSymbolTableRecord
100
AcDbRegAppTableRecord
  2
GEVID1212642822
 70
     0
  0
APPID
  5
54E
330
9
100
AcDbSymbolTableRecord
100
AcDbRegAppTableRecord
  2
GEVID1212642823
 70
     0
  0
APPID
  5
54F
330
9
100
AcDbSymbolTableRecord
100
AcDbRegAppTableRecord
  2
GEVID1212642825
 70
     0
  0
APPID
  5
550
330
9
100
AcDbSymbolTableRecord
100
AcDbRegAppTableRecord
  2
GEVID1212642826
 70
     0
  0
APPID
  5
551
330
9
100
AcDbSymbolTableRecord
100
AcDbRegAppTableRecord
  2
GEVID1212642827
 70
     0
  0
APPID
  5
552
330
9
100
AcDbSymbolTableRecord
100
AcDbRegAppTableRecord
  2
GEVID1212642828
 70
     0
  0
APPID
  5
553
330
9
100
AcDbSymbolTableRecord
100
AcDbRegAppTableRecord
  2
GEVID1212642831
 70
     0
  0
APPID
  5
554
330
9
100
AcDbSymbolTableRecord
100
AcDbRegAppTableRecord
  2
GEVID1212642834
 70
     0
  0
APPID
  5
555
330
9
100
AcDbSymbolTableRecord
100
AcDbRegAppTableRecord
  2
GEVID1212642835
 70
     0
  0
APPID
  5
556
330
9
100
AcDbSymbolTableRecord
100
AcDbRegAppTableRecord
  2
GEVID1212642836
 70
     0
  0
APPID
  5
557
330
9
100
AcDbSymbolTableRecord
100
AcDbRegAppTableRecord
  2
GEVID1212642837
 70
     0
  0
APPID
  5
558
330
9
100
AcDbSymbolTableRecord
100
AcDbRegAppTableRecord
  2
GEVID1212642839
 70
     0
  0
APPID
  5
559
330
9
100
AcDbSymbolTableRecord
100
AcDbRegAppTableRecord
  2
GEVID1212642840
 70
     0
  0
APPID
  5
55A
330
9
100
AcDbSymbolTableRecord
100
AcDbRegAppTableRecord
  2
GEVID1212642841
 70
     0
  0
APPID
  5
55B
330
9
100
AcDbSymbolTableRecord
100
AcDbRegAppTableRecord
  2
GEVID1212655312
 70
     0
  0
APPID
  5
55C
330
9
100
AcDbSymbolTableRecord
100
AcDbRegAppTableRecord
  2
GEVID1212655313
 70
     0
  0
APPID
  5
55D
330
9
100
AcDbSymbolTableRecord
100
AcDbRegAppTableRecord
  2
GEVID1212656533
 70
     0
  0
APPID
  5
55E
330
9
100
AcDbSymbolTableRecord
100
AcDbRegAppTableRecord
  2
GEVID1212656534
 70
     0
  0
APPID
  5
55F
330
9
100
AcDbSymbolTableRecord
100
AcDbRegAppTableRecord
  2
GEVID1212656535
 70
     0
  0
APPID
  5
560
330
9
100
AcDbSymbolTableRecord
100
AcDbRegAppTableRecord
  2
GEVID1212656536
 70
     0
  0
APPID
  5
561
330
9
100
AcDbSymbolTableRecord
100
AcDbRegAppTableRecord
  2
GEVID1212656538
 70
     0
  0
APPID
  5
562
330
9
100
AcDbSymbolTableRecord
100
AcDbRegAppTableRecord
  2
GEVID1212656541
 70
     0
  0
APPID
  5
563
330
9
100
AcDbSymbolTableRecord
100
AcDbRegAppTableRecord
  2
GEVID1212656543
 70
     0
  0
APPID
  5
564
330
9
100
AcDbSymbolTableRecord
100
AcDbRegAppTableRecord
  2
GENIUS_GENOBJ-F-PFASSM_13
 70
     0
  0
APPID
  5
565
330
9
100
AcDbSymbolTableRecord
100
AcDbRegAppTableRecord
  2
GEVID1212656544
 70
     0
  0
APPID
  5
566
330
9
100
AcDbSymbolTableRecord
100
AcDbRegAppTableRecord
  2
GEVID1212656545
 70
     0
  0
APPID
  5
567
330
9
100
AcDbSymbolTableRecord
100
AcDbRegAppTableRecord
  2
GEVID1212656546
 70
     0
  0
APPID
  5
568
330
9
100
AcDbSymbolTableRecord
100
AcDbRegAppTableRecord
  2
GEVID1212656547
 70
     0
  0
APPID
  5
569
330
9
100
AcDbSymbolTableRecord
100
AcDbRegAppTableRecord
  2
GEVID1212656548
 70
     0
  0
APPID
  5
56A
330
9
100
AcDbSymbolTableRecord
100
AcDbRegAppTableRecord
  2
GEVID1212656549
 70
     0
  0
APPID
  5
56B
330
9
100
AcDbSymbolTableRecord
100
AcDbRegAppTableRecord
  2
GEVID1212656550
 70
     0
  0
APPID
  5
56C
330
9
100
AcDbSymbolTableRecord
100
AcDbRegAppTableRecord
  2
GEVID1212656552
 70
     0
  0
APPID
  5
56D
330
9
100
AcDbSymbolTableRecord
100
AcDbRegAppTableRecord
  2
GEVID1212656553
 70
     0
  0
APPID
  5
56E
330
9
100
AcDbSymbolTableRecord
100
AcDbRegAppTableRecord
  2
GEVID1212656554
 70
     0
  0
APPID
  5
56F
330
9
100
AcDbSymbolTableRecord
100
AcDbRegAppTableRecord
  2
GEVID1212656555
 70
     0
  0
APPID
  5
570
330
9
100
AcDbSymbolTableRecord
100
AcDbRegAppTableRecord
  2
GEVID1212656556
 70
     0
  0
APPID
  5
571
330
9
100
AcDbSymbolTableRecord
100
AcDbRegAppTableRecord
  2
GEVID1212656557
 70
     0
  0
APPID
  5
572
330
9
100
AcDbSymbolTableRecord
100
AcDbRegAppTableRecord
  2
GEVID1212656559
 70
     0
  0
APPID
  5
573
330
9
100
AcDbSymbolTableRecord
100
AcDbRegAppTableRecord
  2
GEVID1212656560
 70
     0
  0
APPID
  5
574
330
9
100
AcDbSymbolTableRecord
100
AcDbRegAppTableRecord
  2
GEVID1212656561
 70
     0
  0
APPID
  5
575
330
9
100
AcDbSymbolTableRecord
100
AcDbRegAppTableRecord
  2
GEVID1212656562
 70
     0
  0
APPID
  5
576
330
9
100
AcDbSymbolTableRecord
100
AcDbRegAppTableRecord
  2
GEVID1212656563
 70
     0
  0
APPID
  5
577
330
9
100
AcDbSymbolTableRecord
100
AcDbRegAppTableRecord
  2
GEVID1212711781
 70
     0
  0
APPID
  5
578
330
9
100
AcDbSymbolTableRecord
100
AcDbRegAppTableRecord
  2
GEVID1212711782
 70
     0
  0
APPID
  5
579
330
9
100
AcDbSymbolTableRecord
100
AcDbRegAppTableRecord
  2
GEVID1212711783
 70
     0
  0
APPID
  5
57A
330
9
100
AcDbSymbolTableRecord
100
AcDbRegAppTableRecord
  2
GEVID1212711784
 70
     0
  0
APPID
  5
57B
330
9
100
AcDbSymbolTableRecord
100
AcDbRegAppTableRecord
  2
GEVID1212711788
 70
     0
  0
APPID
  5
57C
330
9
100
AcDbSymbolTableRecord
100
AcDbRegAppTableRecord
  2
GEVID1212711789
 70
     0
  0
APPID
  5
57D
330
9
100
AcDbSymbolTableRecord
100
AcDbRegAppTableRecord
  2
GEVID1212711790
 70
     0
  0
APPID
  5
57E
330
9
100
AcDbSymbolTableRecord
100
AcDbRegAppTableRecord
  2
GEVID1212711791
 70
     0
  0
APPID
  5
57F
330
9
100
AcDbSymbolTableRecord
100
AcDbRegAppTableRecord
  2
GEVID1212711792
 70
     0
  0
APPID
  5
580
330
9
100
AcDbSymbolTableRecord
100
AcDbRegAppTableRecord
  2
GEVID1212711793
 70
     0
  0
APPID
  5
581
330
9
100
AcDbSymbolTableRecord
100
AcDbRegAppTableRecord
  2
GEVID1212711794
 70
     0
  0
APPID
  5
582
330
9
100
AcDbSymbolTableRecord
100
AcDbRegAppTableRecord
  2
GEVID1212711795
 70
     0
  0
APPID
  5
583
330
9
100
AcDbSymbolTableRecord
100
AcDbRegAppTableRecord
  2
GEVID1212711797
 70
     0
  0
APPID
  5
584
330
9
100
AcDbSymbolTableRecord
100
AcDbRegAppTableRecord
  2
GEVID1212711798
 70
     0
  0
APPID
  5
585
330
9
100
AcDbSymbolTableRecord
100
AcDbRegAppTableRecord
  2
GEVID1212711799
 70
     0
  0
APPID
  5
586
330
9
100
AcDbSymbolTableRecord
100
AcDbRegAppTableRecord
  2
GEVID1212711800
 70
     0
  0
APPID
  5
587
330
9
100
AcDbSymbolTableRecord
100
AcDbRegAppTableRecord
  2
GEVID1212711801
 70
     0
  0
APPID
  5
588
330
9
100
AcDbSymbolTableRecord
100
AcDbRegAppTableRecord
  2
GEVID1212711802
 70
     0
  0
APPID
  5
589
330
9
100
AcDbSymbolTableRecord
100
AcDbRegAppTableRecord
  2
GEVID1212711803
 70
     0
  0
APPID
  5
58A
330
9
100
AcDbSymbolTableRecord
100
AcDbRegAppTableRecord
  2
GEVID1212711804
 70
     0
  0
APPID
  5
58B
330
9
100
AcDbSymbolTableRecord
100
AcDbRegAppTableRecord
  2
GEVID1212711805
 70
     0
  0
APPID
  5
58C
330
9
100
AcDbSymbolTableRecord
100
AcDbRegAppTableRecord
  2
GEVID1212711806
 70
     0
  0
APPID
  5
58D
330
9
100
AcDbSymbolTableRecord
100
AcDbRegAppTableRecord
  2
GEVID1212711807
 70
     0
  0
APPID
  5
58E
330
9
100
AcDbSymbolTableRecord
100
AcDbRegAppTableRecord
  2
GEVID1212711808
 70
     0
  0
APPID
  5
58F
330
9
100
AcDbSymbolTableRecord
100
AcDbRegAppTableRecord
  2
GEVID1212711809
 70
     0
  0
APPID
  5
590
330
9
100
AcDbSymbolTableRecord
100
AcDbRegAppTableRecord
  2
GEVID1212711810
 70
     0
  0
APPID
  5
591
330
9
100
AcDbSymbolTableRecord
100
AcDbRegAppTableRecord
  2
GEVID1212711811
 70
     0
  0
APPID
  5
90A
330
9
100
AcDbSymbolTableRecord
100
AcDbRegAppTableRecord
  2
GENIUS_GENTRA_14
 70
     0
  0
APPID
  5
919
330
9
100
AcDbSymbolTableRecord
100
AcDbRegAppTableRecord
  2
GENIUS_GENOBJ-N-TIT_13
 70
     0
  0
APPID
  5
91A
330
9
100
AcDbSymbolTableRecord
100
AcDbRegAppTableRecord
  2
GENIUS_GENTITLE_13
 70
     0
  0
APPID
  5
949
330
9
100
AcDbSymbolTableRecord
100
AcDbRegAppTableRecord
  2
GENIUS_GENBLLY_14
 70
     0
  0
APPID
  5
DDD
330
9
100
AcDbSymbolTableRecord
100
AcDbRegAppTableRecord
  2
GEVID1213165152
 70
     0
  0
APPID
  5
12F9
330
9
100
AcDbSymbolTableRecord
100
AcDbRegAppTableRecord
  2
AcDbDynamicBlockTrueName
 70
     0
  0
APPID
  5
12FA
330
9
100
AcDbSymbolTableRecord
100
AcDbRegAppTableRecord
  2
ACDBBLOCKREPETAG
 70
     0
  0
APPID
  5
1C15
330
9
100
AcDbSymbolTableRecord
100
AcDbRegAppTableRecord
  2
GEVID1214872427
 70
     0
  0
APPID
  5
1C2A
330
9
100
AcDbSymbolTableRecord
100
AcDbRegAppTableRecord
  2
GEVID1214872428
 70
     0
  0
APPID
  5
1C2F
330
9
100
AcDbSymbolTableRecord
100
AcDbRegAppTableRecord
  2
GEVID1214872429
 70
     0
  0
APPID
  5
1C33
330
9
100
AcDbSymbolTableRecord
100
AcDbRegAppTableRecord
  2
GEVID1214872430
 70
     0
  0
APPID
  5
1C3F
330
9
100
AcDbSymbolTableRecord
100
AcDbRegAppTableRecord
  2
GEVID1214872432
 70
     0
  0
APPID
  5
1C4E
330
9
100
AcDbSymbolTableRecord
100
AcDbRegAppTableRecord
  2
GEVID1214872433
 70
     0
  0
APPID
  5
20DC
330
9
100
AcDbSymbolTableRecord
100
AcDbRegAppTableRecord
  2
AcDbDynamicBlockGUID
 70
     0
  0
APPID
  5
20FD
330
9
100
AcDbSymbolTableRecord
100
AcDbRegAppTableRecord
  2
GENIUS_GENOBJ-N-REV_13
 70
     0
  0
APPID
  5
20FE
330
9
100
AcDbSymbolTableRecord
100
AcDbRegAppTableRecord
  2
GENIUS_GENOBJ-N-RSSYM_13
 70
     0
  0
APPID
  5
20FF
330
9
100
AcDbSymbolTableRecord
100
AcDbRegAppTableRecord
  2
GENIUS_GENSYMENT_13
 70
     0
  0
APPID
  5
2100
330
9
100
AcDbSymbolTableRecord
100
AcDbRegAppTableRecord
  2
GENIUS_GENSCSYM_13
 70
     0
  0
APPID
  5
58CB
330
9
100
AcDbSymbolTableRecord
100
AcDbRegAppTableRecord
  2
GEVID1240187040
 70
     0
  0
APPID
  5
58CF
330
9
100
AcDbSymbolTableRecord
100
AcDbRegAppTableRecord
  2
GEVID1240187041
 70
     0
  0
APPID
  5
5FE2
330
9
100
AcDbSymbolTableRecord
100
AcDbRegAppTableRecord
  2
GEVID1240187042
 70
     0
  0
APPID
  5
5FE6
330
9
100
AcDbSymbolTableRecord
100
AcDbRegAppTableRecord
  2
GEVID1240187043
 70
     0
  0
ENDTAB
  0
TABLE
  2
DIMSTYLE
  5
A
330
0
100
AcDbSymbolTable
 70
    29
100
AcDbDimStyleTable
 71
     1
340
5AB
  0
DIMSTYLE
105
5AB
330
A
100
AcDbSymbolTableRecord
100
AcDbDimStyleTableRecord
  2
SEISA
 70
     0
  4
"
 40
5.0
 41
2.5
 42
0.625
 43
10.0
 44
0.625
 47
0.1
 48
0.1
 73
     0
 74
     0
 77
     3
 78
     8
 79
     2
 90
     1
140
3.5
141
0.0
143
0.0393701
146
0.71
147
1.5
172
     1
176
     3
177
     3
178
     3
271
     2
272
     2
283
     0
286
     8
340
5D5
341
69
342
69
371
    -1
372
    -1
1001
ACAD_DSTYLE_DIMJAG
1070
   388
1040
1.5
1001
ACAD_DSTYLE_DIMTALN
1070
   392
1070
     1
  0
DIMSTYLE
105
5E9
102
{ACAD_REACTORS
330
5971
330
59BF
330
59D7
330
5A09
330
5A51
330
5AFB
330
5B1B
330
5B33
330
5DA8
330
5DC4
330
5DE0
330
5DF8
330
5E10
330
5EBA
330
701B
330
7045
330
70A9
102
}
330
A
100
AcDbSymbolTableRecord
100
AcDbDimStyleTableRecord
  2
SEISA$0
 70
     0
  4
"
 40
5.0
 41
2.5
 42
0.625
 43
10.0
 44
0.625
 47
0.1
 48
0.1
 73
     0
 74
     0
 77
     3
 78
     8
 79
     2
 90
     1
140
3.5
141
0.0
143
0.0393701
146
0.71
147
1.5
172
     1
176
     3
177
     3
178
     3
271
     2
272
     2
283
     0
286
     8
340
5D5
341
69
342
69
371
    -1
372
    -1
  0
DIMSTYLE
105
734F
330
A
100
AcDbSymbolTableRecord
100
AcDbDimStyleTableRecord
  2
AM_ISO
 70
     0
  4
"
 41
2.5
 42
1.0
 43
10.0
 44
1.0
 47
0.1
 48
0.1
 73
     0
 74
     0
 77
     1
 78
     8
 79
     2
 90
     1
140
3.5
141
0.0
143
0.0393701
146
0.71
147
1.5
172
     1
176
   256
177
   256
178
     2
271
     2
272
     3
274
     4
283
     0
284
     8
340
11
371
    -1
372
    -1
  0
DIMSTYLE
105
7350
330
A
100
AcDbSymbolTableRecord
100
AcDbDimStyleTableRecord
  2
AM_ISO$3
 70
     0
  4
"
 41
2.5
 42
1.0
 43
10.0
 44
1.0
 47
0.1
 48
0.1
 73
     0
 77
     1
 78
     8
 79
     2
 90
     1
140
3.5
141
0.0
143
0.0393701
146
0.71
147
1.5
176
   256
177
   256
178
     2
271
     2
272
     3
274
     4
283
     0
284
     8
288
     1
289
     0
340
11
371
    -1
372
    -1
  0
DIMSTYLE
105
7351
330
A
100
AcDbSymbolTableRecord
100
AcDbDimStyleTableRecord
  2
AM_ISO$4
 70
     0
  4
"
 41
2.5
 42
1.0
 43
10.0
 44
1.0
 47
0.1
 48
0.1
 73
     0
 77
     1
 78
     8
 79
     2
 90
     1
140
3.5
141
0.0
143
0.0393701
146
0.71
147
1.5
176
   256
177
   256
178
     2
271
     2
272
     3
274
     4
283
     0
284
     8
288
     1
289
     0
340
11
371
    -1
372
    -1
  0
DIMSTYLE
105
7352
330
A
100
AcDbSymbolTableRecord
100
AcDbDimStyleTableRecord
  2
AM_ISO$6
 70
     0
  4
"
 41
2.5
 42
1.0
 43
10.0
 44
1.0
 47
0.1
 48
0.1
 73
     0
 74
     0
 78
     8
 79
     2
 90
     1
140
3.5
141
0.0
143
0.0393701
146
0.71
147
1.5
172
     1
176
   256
177
   256
178
     2
271
     2
272
     3
274
     4
283
     0
284
     8
340
11
371
    -1
372
    -1
  0
DIMSTYLE
105
7353
330
A
100
AcDbSymbolTableRecord
100
AcDbDimStyleTableRecord
  2
AM_ISO$7
 70
     0
  4
"
 41
2.5
 42
1.0
 43
10.0
 44
1.0
 47
0.1
 48
0.1
 73
     0
 74
     0
 77
     1
 78
     8
 79
     2
 90
     1
140
5.0
141
0.0
143
0.0393701
146
0.71
147
1.5
172
     1
176
   256
177
   256
178
     2
271
     2
272
     3
274
     4
283
     0
284
     8
340
11
371
    -1
372
    -1
  0
DIMSTYLE
105
7354
330
A
100
AcDbSymbolTableRecord
100
AcDbDimStyleTableRecord
  2
AM_ISO$SF
 70
     0
  4
"
 41
2.5
 42
1.0
 43
10.0
 44
1.0
 47
0.1
 48
0.1
 73
     0
 74
     0
 75
     1
 76
     1
 77
     1
 78
     8
 79
     2
 90
     1
140
3.5
141
0.0
143
0.0393701
146
0.71
147
1.5
172
     1
176
   256
177
   256
178
     2
271
     2
272
     3
274
     4
283
     0
284
     8
340
11
371
    -1
372
    -1
  0
DIMSTYLE
105
7355
330
A
100
AcDbSymbolTableRecord
100
AcDbDimStyleTableRecord
  2
AM_ISO$SH
 70
     0
  4
"
 41
2.5
 42
1.0
 43
10.0
 44
1.0
 47
0.1
 48
0.1
 73
     0
 74
     0
 75
     1
 76
     1
 77
     1
 78
     8
 79
     2
 90
     1
140
3.5
141
0.0
143
0.0393701
144
2.0
146
0.71
147
1.5
172
     1
173
     1
176
   256
177
   256
178
     2
271
     2
272
     3
274
     4
283
     0
284
     8
340
11
343
74
371
    -1
372
    -1
  0
ENDTAB
  0
TABLE
  2
BLOCK_RECORD
  5
1
330
0
100
AcDbSymbolTable
 70
    33
  0
BLOCK_RECORD
  5
1F
102
{ACAD_XDICTIONARY
360
82
102
}
330
1
100
AcDbSymbolTableRecord
100
AcDbBlockTableRecord
  2
*Model_Space
340
22
 70
     0
280
     1
281
     0
  0
BLOCK_RECORD
  5
1B
330
1
100
AcDbSymbolTableRecord
100
AcDbBlockTableRecord
  2
*Paper_Space
340
1E
 70
     0
280
     1
281
     0
  0
BLOCK_RECORD
  5
23
330
1
100
AcDbSymbolTableRecord
100
AcDbBlockTableRecord
  2
*Paper_Space0
340
26
 70
     0
280
     1
281
     0
  0
BLOCK_RECORD
  5
69
330
1
100
AcDbSymbolTableRecord
100
AcDbBlockTableRecord
  2
_Open30
340
0
102
{BLKREFS
331
6DDF
331
6DE0
331
6DE8
331
6DE9
331
6DF4
331
6DF5
331
6DFC
331
6DFD
331
6E07
331
6E08
331
6E17
331
6E18
331
6E20
331
6E21
331
6E29
331
6E2A
331
6E35
331
6E40
331
6E48
331
6E49
331
6E51
331
6E52
331
6E5A
331
6E5B
331
6E63
331
6E64
331
703F
331
7040
331
7069
331
706A
331
70CD
331
70CE
102
}
 70
     0
280
     1
281
     0
  0
BLOCK_RECORD
  5
74
330
1
100
AcDbSymbolTableRecord
100
AcDbBlockTableRecord
  2
GENAXEH
340
0
 70
     0
280
     1
281
     0
  0
BLOCK_RECORD
  5
4FF4
102
{ACAD_XDICTIONARY
360
5022
102
}
330
1
100
AcDbSymbolTableRecord
100
AcDbBlockTableRecord
  2
ロッカクアナツキプラグ R1／2
340
0
310
2800000020000000200000000100080000000000000400000000000000000000000000000000000000000000000080000080000000808000800000008000800080800000C0C0C000C0DCC000F0CAA6000020400000206000002080000020A0000020C0000020E00000400000004020000040400000406000004080000040A0
310
000040C0000040E00000600000006020000060400000606000006080000060A0000060C0000060E00000800000008020000080400000806000008080000080A0000080C0000080E00000A0000000A0200000A0400000A0600000A0800000A0A00000A0C00000A0E00000C0000000C0200000C0400000C0600000C0800000C0
310
A00000C0C00000C0E00000E0000000E0200000E0400000E0600000E0800000E0A00000E0C00000E0E00040000000400020004000400040006000400080004000A0004000C0004000E00040200000402020004020400040206000402080004020A0004020C0004020E000404000004040200040404000404060004040800040
310
40A0004040C0004040E00040600000406020004060400040606000406080004060A0004060C0004060E00040800000408020004080400040806000408080004080A0004080C0004080E00040A0000040A0200040A0400040A0600040A0800040A0A00040A0C00040A0E00040C0000040C0200040C0400040C0600040C08000
310
40C0A00040C0C00040C0E00040E0000040E0200040E0400040E0600040E0800040E0A00040E0C00040E0E00080000000800020008000400080006000800080008000A0008000C0008000E00080200000802020008020400080206000802080008020A0008020C0008020E00080400000804020008040400080406000804080
310
008040A0008040C0008040E00080600000806020008060400080606000806080008060A0008060C0008060E00080800000808020008080400080806000808080008080A0008080C0008080E00080A0000080A0200080A0400080A0600080A0800080A0A00080A0C00080A0E00080C0000080C0200080C0400080C0600080C0
310
800080C0A00080C0C00080C0E00080E0000080E0200080E0400080E0600080E0800080E0A00080E0C00080E0E000C0000000C0002000C0004000C0006000C0008000C000A000C000C000C000E000C0200000C0202000C0204000C0206000C0208000C020A000C020C000C020E000C0400000C0402000C0404000C0406000C0
310
408000C040A000C040C000C040E000C0600000C0602000C0604000C0606000C0608000C060A000C060C000C060E000C0800000C0802000C0804000C0806000C0808000C080A000C080C000C080E000C0A00000C0A02000C0A04000C0A06000C0A08000C0A0A000C0A0C000C0A0E000C0C00000C0C02000C0C04000C0C06000
310
C0C08000C0C0A000F0FBFF00A4A0A000808080000000FF0000FF000000FFFF00FF000000FF00FF00FFFF0000FFFFFF00000000000000000000000000000000000000000000000000000000000000000000000000000000000000000000000000F9000000000000000000000000000000000000000000000000000000000000
310
00F900000000000000000000000000000000000000000000000000000000000000F900000000000000000000000000000000000000000000000000000000000000F900000000000000000000000000000000000000000000000000000000000000F90000000000000000000000000000000000000000000000000000000000
310
0000F900000000000000000000000000000000000000FFFFFFFFFFFFFFFFFFFFFFFFFFFFFFFFFFFFFFFFFFFFFFFF00000000000000FFFE0000000000000000000000F900000000000000000000FEFF000000000000FFFE0000000000000000000000F900000000000000000000FEFF0000000000FFFFFFFFFFFFFFFFFFFFFF
310
FFFFFFFFFFFFFFFFFFFFFFFFFFFFFFFFFF00000000FF00FE0000000000000000000000F900000000000000000000FE00FF00000000FF00FE0000000000000000000000F900000000000000000000FE00FF00000000FF00FE0000000000000000000000F900000000000000000000FE00FF00000000FF00FE00000000000000
310
00000000F900000000000000000000FE00FF00000000FF00FE0000000000000000000000F900000000000000000000FE00FF00000000FF00FE0000000000000000000000F900000000000000000000FE00FF00000000FFFE000000000000000000000000F90000000000000000000000FEFF00000000FFFE00000000000000
310
0000000000F90000000000000000000000FEFF00000000FFFE000000000000000000000000F90000000000000000000000FEFF00000000FFFE000000000000000000000000F90000000000000000000000FEFF00000000FFFE000000000000000000000000F90000000000000000000000FEFF00000000FFFE000000000000
310
000000000000F90000000000000000000000FEFF00000000FFFE000000000000000000000000F90000000000000000000000FEFF00000000FFFE000000000000000000000000F90000000000000000000000FEFF00000000FFFFFFFFFFFFFFFFFFFFFFFFFFFFFFFFFFFFFFFFFFFFFFFFFFFFFFFF0000000000FF0000000000
310
00000000000000F90000000000000000000000FF00000000000000FF0000000000000000000000F900000000000000000000FF0000000000000000000000000000000000000000F900000000000000000000000000000000000000000000000000000000000000F90000000000000000000000000000000000000000000000
310
0000000000000000F90000000000000000000000000000000000000000000000000000000000000000000000000000000000000000000000
102
{BLKREFS
331
50E7
102
}
 70
     4
280
     1
281
     0
  0
BLOCK_RECORD
  5
50A9
102
{ACAD_XDICTIONARY
360
5181
102
}
330
1
100
AcDbSymbolTableRecord
100
AcDbBlockTableRecord
  2
ケースＡ CEMH450
340
0
310
2800000020000000200000000100080000000000000400000000000000000000000000000000000000000000000080000080000000808000800000008000800080800000C0C0C000C0DCC000F0CAA6000020400000206000002080000020A0000020C0000020E00000400000004020000040400000406000004080000040A0
310
000040C0000040E00000600000006020000060400000606000006080000060A0000060C0000060E00000800000008020000080400000806000008080000080A0000080C0000080E00000A0000000A0200000A0400000A0600000A0800000A0A00000A0C00000A0E00000C0000000C0200000C0400000C0600000C0800000C0
310
A00000C0C00000C0E00000E0000000E0200000E0400000E0600000E0800000E0A00000E0C00000E0E00040000000400020004000400040006000400080004000A0004000C0004000E00040200000402020004020400040206000402080004020A0004020C0004020E000404000004040200040404000404060004040800040
310
40A0004040C0004040E00040600000406020004060400040606000406080004060A0004060C0004060E00040800000408020004080400040806000408080004080A0004080C0004080E00040A0000040A0200040A0400040A0600040A0800040A0A00040A0C00040A0E00040C0000040C0200040C0400040C0600040C08000
310
40C0A00040C0C00040C0E00040E0000040E0200040E0400040E0600040E0800040E0A00040E0C00040E0E00080000000800020008000400080006000800080008000A0008000C0008000E00080200000802020008020400080206000802080008020A0008020C0008020E00080400000804020008040400080406000804080
310
008040A0008040C0008040E00080600000806020008060400080606000806080008060A0008060C0008060E00080800000808020008080400080806000808080008080A0008080C0008080E00080A0000080A0200080A0400080A0600080A0800080A0A00080A0C00080A0E00080C0000080C0200080C0400080C0600080C0
310
800080C0A00080C0C00080C0E00080E0000080E0200080E0400080E0600080E0800080E0A00080E0C00080E0E000C0000000C0002000C0004000C0006000C0008000C000A000C000C000C000E000C0200000C0202000C0204000C0206000C0208000C020A000C020C000C020E000C0400000C0402000C0404000C0406000C0
310
408000C040A000C040C000C040E000C0600000C0602000C0604000C0606000C0608000C060A000C060C000C060E000C0800000C0802000C0804000C0806000C0808000C080A000C080C000C080E000C0A00000C0A02000C0A04000C0A06000C0A08000C0A0A000C0A0C000C0A0E000C0C00000C0C02000C0C04000C0C06000
310
C0C08000C0C0A000F0FBFF00A4A0A000808080000000FF0000FF000000FFFF00FF000000FF00FF00FFFF0000FFFFFF00000000000000000000000000000000000000000000000000000000000000000000000000000000FFFF000000000000000000000000000000000000000000000000000000000000FFFF000000000000
310
000000000000000000000000000000000000000000000000FFFF000000000000000000000000000000000000000000000000000000000000FFFFFFFFFFFFFFFFFFFAFAFAFAFAFAFAFAFAFAFAFAFA00000000000000000000FFFF00000000FF00FF000000000000000000000000FA00000000000000000000FFFF00000000FF
310
00FF000000000000000000000000FA00000000000000000000FFFF00000000FF00FF000000000000000000000000FA00000000000000000000FFFF00000000FF00FF000000000000000000000000FA00000000000000000000FFFF00000000FF00FF000000000000000000000000FA00000000000000000000FFFF00000000
310
FF00FF000000000000000000000000FA00000000000000000000FFFF00000000FF00FF000000000000000000000000FA00000000000000000000FFFF00000000FF00FF000000000000000000000000FA00000000000000000000FFFF00000000FF00FF000000000000000000000000FA00000000000000000000FFFF000000
310
00FF00FF0000000000000000000000FAFA00000000000000000000FFFF00000000FF00FF00000000000000000000FAFAFA00000000000000000000FFFF00000000FF00FF00000000000000000000FAFAFA0000000000000000000000000000000000000000000000000000000000FAFAFA0000000000000000000000000000
310
00000000000000000000000000000000FAFA00000000000000000000000000000000000000000000000000000000000000FA00000000000000000000000000000000000000000000000000000000000000FA00000000000000000000000000000000000000000000000000000000000000FA00000000000000000000000000
310
000000000000000000000000000000000000FA00000000000000000000000000000000000000000000000000000000000000FA00000000000000000000000000000000000000000000000000000000000000FA00000000000000000000000000F9FFF9F9FFFF000000000000000000000000FA000000000000000000FFFFFF
310
FFFFFFFFFFFFFF000000000000000000000000FA00000000000000000000FFFFFFFFFFFFFFFFFFFAFAFAFAFAFAFAFAFAFAFAFAFA000000000000F9F9F9F9FFFFF9000000000000000000000000000000000000000000000000000000FFFFFFFF000000000000000000000000000000000000000000000000000000000000FF
310
FF00000000000000000000000000000000000000000000000000000000000000000000000000000000000000000000000000000000000000
102
{BLKREFS
331
524C
102
}
 70
     4
280
     1
281
     0
  0
BLOCK_RECORD
  5
52E5
102
{ACAD_XDICTIONARY
360
5356
102
}
330
1
100
AcDbSymbolTableRecord
100
AcDbBlockTableRecord
  2
センタ CEMH450
340
0
310
2800000020000000200000000100080000000000000400000000000000000000000000000000000000000000000080000080000000808000800000008000800080800000C0C0C000C0DCC000F0CAA6000020400000206000002080000020A0000020C0000020E00000400000004020000040400000406000004080000040A0
310
000040C0000040E00000600000006020000060400000606000006080000060A0000060C0000060E00000800000008020000080400000806000008080000080A0000080C0000080E00000A0000000A0200000A0400000A0600000A0800000A0A00000A0C00000A0E00000C0000000C0200000C0400000C0600000C0800000C0
310
A00000C0C00000C0E00000E0000000E0200000E0400000E0600000E0800000E0A00000E0C00000E0E00040000000400020004000400040006000400080004000A0004000C0004000E00040200000402020004020400040206000402080004020A0004020C0004020E000404000004040200040404000404060004040800040
310
40A0004040C0004040E00040600000406020004060400040606000406080004060A0004060C0004060E00040800000408020004080400040806000408080004080A0004080C0004080E00040A0000040A0200040A0400040A0600040A0800040A0A00040A0C00040A0E00040C0000040C0200040C0400040C0600040C08000
310
40C0A00040C0C00040C0E00040E0000040E0200040E0400040E0600040E0800040E0A00040E0C00040E0E00080000000800020008000400080006000800080008000A0008000C0008000E00080200000802020008020400080206000802080008020A0008020C0008020E00080400000804020008040400080406000804080
310
008040A0008040C0008040E00080600000806020008060400080606000806080008060A0008060C0008060E00080800000808020008080400080806000808080008080A0008080C0008080E00080A0000080A0200080A0400080A0600080A0800080A0A00080A0C00080A0E00080C0000080C0200080C0400080C0600080C0
310
800080C0A00080C0C00080C0E00080E0000080E0200080E0400080E0600080E0800080E0A00080E0C00080E0E000C0000000C0002000C0004000C0006000C0008000C000A000C000C000C000E000C0200000C0202000C0204000C0206000C0208000C020A000C020C000C020E000C0400000C0402000C0404000C0406000C0
310
408000C040A000C040C000C040E000C0600000C0602000C0604000C0606000C0608000C060A000C060C000C060E000C0800000C0802000C0804000C0806000C0808000C080A000C080C000C080E000C0A00000C0A02000C0A04000C0A06000C0A08000C0A0A000C0A0C000C0A0E000C0C00000C0C02000C0C04000C0C06000
310
C0C08000C0C0A000F0FBFF00A4A0A000808080000000FF0000FF000000FFFF00FF000000FF00FF00FFFF0000FFFFFF00000000000000000000000000000000000000000000000000000000000000000000000000000000000000000000000000000000FFFFFF00000000000000000000000000000000000000000000000000
310
000000000000FFFFFFFFFF000000000000000000000000000000000000000000000000000000FF000000FF000000000000000000000000000000000000000000000000000000FF000000FF000000000000000000000000000000000000000000000000000000FF000000FF0000000000000000000000000000000000000000
310
00000000000000FF000000FF000000000000000000000000000000000000000000000000000000FF000000FF000000000000000000000000000000000000000000000000000000FF000000FF000000000000000000000000000000000000000000000000000000FF000000FF00000000000000000000000000000000000000
310
0000000000000000FF000000FF000000000000000000000000000000000000000000000000000000FF000000FF000000000000000000000000000000000000000000000000000000FF000000FF000000000000000000000000000000000000000000000000000000FF000000FF000000000000000000000000000000000000
310
000000000000000000FF000000FF000000000000000000000000A4A4A4A4A4A4A40000000000000000FF0000FFFF000000000000000000000000A4A4A4A4A400000000000000000000000000FFFF000000000000000000000000FF0000000000000000000000000000000000FFFF000000000000000000000000FF00000000
310
00000000000000000000000000FFFF000000000000000000000000FF0000000000000000000000000000000000FFFF000000000000000000000000FF0000000000000000000000000000000000FFFF000000000000000000000000FF0000000000000000000000000000000000FFFF000000000000000000000000FF000000
310
0000000000000000000000000000FFFF000000000000000000000000FFFFFFFFFFFFFFFFFFFFFFFFFFFFFFFFFFFFFFFF000000000000000000000000FFFFFFFFFFFFFFFFFFFFFFFFFFFFFFFFFFFFFFFF000000000000000000000000FF000000000000000000000000000000000000FF000000000000000000000000FF0000
310
00000000000000000000000000000000FF000000000000000000000000FF000000000000000000000000000000000000FF000000000000000000000000FFFFFFFFFFFFFFFFF9FFFFFFFFFFFFFFFFFFFF00000000000000000000000000000000000000FFF9F9F9F9FF00000000000000000000000000000000000000000000
310
000000000000F900000000000000000000000000000000000000000000000000000000000000000000000000000000000000000000000000
102
{BLKREFS
331
530B
102
}
 70
     4
280
     1
281
     0
  0
BLOCK_RECORD
  5
53D1
102
{ACAD_XDICTIONARY
360
546F
102
}
330
1
100
AcDbSymbolTableRecord
100
AcDbBlockTableRecord
  2
リーマボルト CEMH450 M20
340
0
310
2800000020000000200000000100080000000000000400000000000000000000000000000000000000000000000080000080000000808000800000008000800080800000C0C0C000C0DCC000F0CAA6000020400000206000002080000020A0000020C0000020E00000400000004020000040400000406000004080000040A0
310
000040C0000040E00000600000006020000060400000606000006080000060A0000060C0000060E00000800000008020000080400000806000008080000080A0000080C0000080E00000A0000000A0200000A0400000A0600000A0800000A0A00000A0C00000A0E00000C0000000C0200000C0400000C0600000C0800000C0
310
A00000C0C00000C0E00000E0000000E0200000E0400000E0600000E0800000E0A00000E0C00000E0E00040000000400020004000400040006000400080004000A0004000C0004000E00040200000402020004020400040206000402080004020A0004020C0004020E000404000004040200040404000404060004040800040
310
40A0004040C0004040E00040600000406020004060400040606000406080004060A0004060C0004060E00040800000408020004080400040806000408080004080A0004080C0004080E00040A0000040A0200040A0400040A0600040A0800040A0A00040A0C00040A0E00040C0000040C0200040C0400040C0600040C08000
310
40C0A00040C0C00040C0E00040E0000040E0200040E0400040E0600040E0800040E0A00040E0C00040E0E00080000000800020008000400080006000800080008000A0008000C0008000E00080200000802020008020400080206000802080008020A0008020C0008020E00080400000804020008040400080406000804080
310
008040A0008040C0008040E00080600000806020008060400080606000806080008060A0008060C0008060E00080800000808020008080400080806000808080008080A0008080C0008080E00080A0000080A0200080A0400080A0600080A0800080A0A00080A0C00080A0E00080C0000080C0200080C0400080C0600080C0
310
800080C0A00080C0C00080C0E00080E0000080E0200080E0400080E0600080E0800080E0A00080E0C00080E0E000C0000000C0002000C0004000C0006000C0008000C000A000C000C000C000E000C0200000C0202000C0204000C0206000C0208000C020A000C020C000C020E000C0400000C0402000C0404000C0406000C0
310
408000C040A000C040C000C040E000C0600000C0602000C0604000C0606000C0608000C060A000C060C000C060E000C0800000C0802000C0804000C0806000C0808000C080A000C080C000C080E000C0A00000C0A02000C0A04000C0A06000C0A08000C0A0A000C0A0C000C0A0E000C0C00000C0C02000C0C04000C0C06000
310
C0C08000C0C0A000F0FBFF00A4A0A000808080000000FF0000FF000000FFFF00FF000000FF00FF00FFFF0000FFFFFF0000000000000000000000000000000000000000000000000000000000000000000000000000000000000000000000000000000000000000000000000000000000000000000000000000000000000000
310
00000000000000000000000000000000000000000000000000000000000000000000000000000000000000000000000000000000000000000000000000000000000000000000000000000000000000000000000000000000000000000000000000000000000000000000000000000000000000000000000000000000000000
310
00000000000000000000000000000000000000000000000000000000000000000000000000000000000000000000000000000000000000000000000000000000000000000000000000000000000000000000000000000000000000000000000000000000000000000000000000000000000000000000FFFFFFFFFFFF000000
310
00000000000000000000000000FFFFFFFF000000000000FF00000000FFFF000000000000000000000000000000000000FFFF000000FFFFFF00000000FFFFFFFF000000000000000000000000FFFF0000FFFF0000FFFEFEFFFFFFFFFFFFFEFEFE000000000000000000000000FFFFFFFFFFFF0000FFFF00FF00000000FF0000
310
FF000000000000000000000000FF000000FFFF0000FFFF00FF00000000FFFF00FF000000000000000000000000FF000000FFFF0000FFFF00FF00000000FFFF00FF000000000000000000000000FF000000FFFF0000FFFF00FF00000000FF0000FF000000000000000000000000FF000000FFFF0000FFFEFEFFFFFFFFFFFFFE
310
FEFE000000000000000000000000FFFFFFFFFFFF000000FFFFFF00000000FFFFFFFF000000000000000000000000FFFF0000FFFF0000000000FF00000000FFFF000000000000000000000000000000000000FFFF0000000000FFFFFFFFFFFF00000000000000000000000000000000FFFFFFFF000000000000000000000000
310
00000000000000000000000000000000000000000000000000000000000000000000000000000000000000000000000000000000000000000000000000000000000000000000000000000000000000000000000000000000000000000000000000000000000000000000000000000000000000000000000000000000000000
310
00000000000000000000000000000000000000000000000000000000000000000000000000000000000000000000000000000000000000000000000000000000000000000000000000000000000000000000000000000000000000000000000000000000000000000000000000000000000000000000000000000000000000
310
0000000000000000000000000000000000000000000000000000000000000000000000000000000000000000000000000000000000000000
102
{BLKREFS
331
5403
102
}
 70
     4
280
     1
281
     0
  0
BLOCK_RECORD
  5
552A
102
{ACAD_XDICTIONARY
360
55F9
102
}
330
1
100
AcDbSymbolTableRecord
100
AcDbBlockTableRecord
  2
ＧＣサイドカバ－ CEMH450
340
0
310
2800000020000000200000000100080000000000000400000000000000000000000000000000000000000000000080000080000000808000800000008000800080800000C0C0C000C0DCC000F0CAA6000020400000206000002080000020A0000020C0000020E00000400000004020000040400000406000004080000040A0
310
000040C0000040E00000600000006020000060400000606000006080000060A0000060C0000060E00000800000008020000080400000806000008080000080A0000080C0000080E00000A0000000A0200000A0400000A0600000A0800000A0A00000A0C00000A0E00000C0000000C0200000C0400000C0600000C0800000C0
310
A00000C0C00000C0E00000E0000000E0200000E0400000E0600000E0800000E0A00000E0C00000E0E00040000000400020004000400040006000400080004000A0004000C0004000E00040200000402020004020400040206000402080004020A0004020C0004020E000404000004040200040404000404060004040800040
310
40A0004040C0004040E00040600000406020004060400040606000406080004060A0004060C0004060E00040800000408020004080400040806000408080004080A0004080C0004080E00040A0000040A0200040A0400040A0600040A0800040A0A00040A0C00040A0E00040C0000040C0200040C0400040C0600040C08000
310
40C0A00040C0C00040C0E00040E0000040E0200040E0400040E0600040E0800040E0A00040E0C00040E0E00080000000800020008000400080006000800080008000A0008000C0008000E00080200000802020008020400080206000802080008020A0008020C0008020E00080400000804020008040400080406000804080
310
008040A0008040C0008040E00080600000806020008060400080606000806080008060A0008060C0008060E00080800000808020008080400080806000808080008080A0008080C0008080E00080A0000080A0200080A0400080A0600080A0800080A0A00080A0C00080A0E00080C0000080C0200080C0400080C0600080C0
310
800080C0A00080C0C00080C0E00080E0000080E0200080E0400080E0600080E0800080E0A00080E0C00080E0E000C0000000C0002000C0004000C0006000C0008000C000A000C000C000C000E000C0200000C0202000C0204000C0206000C0208000C020A000C020C000C020E000C0400000C0402000C0404000C0406000C0
310
408000C040A000C040C000C040E000C0600000C0602000C0604000C0606000C0608000C060A000C060C000C060E000C0800000C0802000C0804000C0806000C0808000C080A000C080C000C080E000C0A00000C0A02000C0A04000C0A06000C0A08000C0A0A000C0A0C000C0A0E000C0C00000C0C02000C0C04000C0C06000
310
C0C08000C0C0A000F0FBFF00A4A0A000808080000000FF0000FF000000FFFF00FF000000FF00FF00FFFF0000FFFFFF00000000000000000000000000000000000000000000000000000000000000000000000000000000000000000000000000FF000000000000000000000000000000000000000000000000000000000000
310
00FF00000000000000000000000000000000000000000000000000000000000000FF00000000000000000000000000000000000000000000000000000000000000FF00000000000000000000000000000000000000000000000000000000000000FF0000000000000000000000000000000000000000000000000000000000
310
0000FF00000000000000000000000000000000000000000000000000000000000000FF00000000000000000000000000000000000000000000000000000000000000FF00000000000000000000000000000000000000000000000000000000000000FF00000000000000000000000000000000000000000000000000000000
310
000000FF00000000000000000000000000000000000000000000000000000000000000FF00000000000000000000000000000000000000000000000000000000000000FF00000000000000000000000000000000000000000000000000000000000000FF000000000000000000000000000000000000000000000000000000
310
00000000FF00000000000000000000000000000000000000000000000000000000000000FF00000000000000000000000000000000000000000000000000000000000000FF00000000000000000000000000000000000000000000000000000000000000000000000000000000000000000000000000000000000000000000
310
00000000000000000000000000000000000000000000000000000000000000000000000000000000000000000000000000000000000000000000000000000000000000000000000000000000000000000000000000000000000000000000000000000000000000000000000000000000000000000000000000000000000000
310
00000000000000000000000000000000000000000000000000000000000000000000000000000000000000000000000000000000000000000000000000000000000000FAFAFAFAFAFA000000000000000000000000000000000000000000000000000000FAFAFAFAFA00000000000000000000000000000000000000000000
310
000000000000FAFFFAFA00000000000000000000000000000000000000000000000000000000FAFF0000000000000000000000000000000000000000000000000000000000FFFFFFFF000000000000000000000000000000000000000000000000000000F9FFFFFFFF00000000000000000000000000000000000000000000
310
00000000000000FFFFFF00000000000000000000000000000000000000000000000000000000000000000000000000000000000000000000
102
{BLKREFS
331
5560
102
}
 70
     4
280
     1
281
     0
  0
BLOCK_RECORD
  5
5972
330
1
100
AcDbSymbolTableRecord
100
AcDbBlockTableRecord
  2
*D11
340
0
 70
     0
280
     1
281
     0
  0
BLOCK_RECORD
  5
59C0
330
1
100
AcDbSymbolTableRecord
100
AcDbBlockTableRecord
  2
*D12
340
0
 70
     0
280
     1
281
     0
  0
BLOCK_RECORD
  5
59D8
330
1
100
AcDbSymbolTableRecord
100
AcDbBlockTableRecord
  2
*D13
340
0
 70
     0
280
     1
281
     0
  0
BLOCK_RECORD
  5
5A0A
330
1
100
AcDbSymbolTableRecord
100
AcDbBlockTableRecord
  2
*D14
340
0
 70
     0
280
     1
281
     0
  0
BLOCK_RECORD
  5
5A52
330
1
100
AcDbSymbolTableRecord
100
AcDbBlockTableRecord
  2
*D15
340
0
 70
     0
280
     1
281
     0
  0
BLOCK_RECORD
  5
5AFC
330
1
100
AcDbSymbolTableRecord
100
AcDbBlockTableRecord
  2
*D16
340
0
 70
     0
280
     1
281
     0
  0
BLOCK_RECORD
  5
5B1C
330
1
100
AcDbSymbolTableRecord
100
AcDbBlockTableRecord
  2
*D17
340
0
 70
     0
280
     1
281
     0
  0
BLOCK_RECORD
  5
5B34
330
1
100
AcDbSymbolTableRecord
100
AcDbBlockTableRecord
  2
*D18
340
0
 70
     0
280
     1
281
     0
  0
BLOCK_RECORD
  5
5DA9
330
1
100
AcDbSymbolTableRecord
100
AcDbBlockTableRecord
  2
*D19
340
0
 70
     0
280
     1
281
     0
  0
BLOCK_RECORD
  5
5DC5
330
1
100
AcDbSymbolTableRecord
100
AcDbBlockTableRecord
  2
*D20
340
0
 70
     0
280
     1
281
     0
  0
BLOCK_RECORD
  5
5DE1
330
1
100
AcDbSymbolTableRecord
100
AcDbBlockTableRecord
  2
*D21
340
0
 70
     0
280
     1
281
     0
  0
BLOCK_RECORD
  5
5DF9
330
1
100
AcDbSymbolTableRecord
100
AcDbBlockTableRecord
  2
*D22
340
0
 70
     0
280
     1
281
     0
  0
BLOCK_RECORD
  5
5E11
330
1
100
AcDbSymbolTableRecord
100
AcDbBlockTableRecord
  2
*D23
340
0
 70
     0
280
     1
281
     0
  0
BLOCK_RECORD
  5
5EBB
330
1
100
AcDbSymbolTableRecord
100
AcDbBlockTableRecord
  2
*D24
340
0
 70
     0
280
     1
281
     0
  0
BLOCK_RECORD
  5
67C7
330
1
100
AcDbSymbolTableRecord
100
AcDbBlockTableRecord
  2
GENDOT
340
0
102
{BLKREFS
331
6E34
331
6E3F
102
}
 70
     0
280
     1
281
     0
  0
BLOCK_RECORD
  5
701C
330
1
100
AcDbSymbolTableRecord
100
AcDbBlockTableRecord
  2
*D26
340
0
 70
     0
280
     1
281
     0
  0
BLOCK_RECORD
  5
7046
330
1
100
AcDbSymbolTableRecord
100
AcDbBlockTableRecord
  2
*D27
340
0
 70
     0
280
     1
281
     0
  0
BLOCK_RECORD
  5
70AA
330
1
100
AcDbSymbolTableRecord
100
AcDbBlockTableRecord
  2
*D28
340
0
 70
     0
280
     1
281
     0
  0
BLOCK_RECORD
  5
71F0
330
1
100
AcDbSymbolTableRecord
100
AcDbBlockTableRecord
  2
ＧＣサイドカバ－CEM450
340
0
310
2800000020000000200000000100080000000000000400000000000000000000000000000000000000000000000080000080000000808000800000008000800080800000C0C0C000C0DCC000F0CAA6000020400000206000002080000020A0000020C0000020E00000400000004020000040400000406000004080000040A0
310
000040C0000040E00000600000006020000060400000606000006080000060A0000060C0000060E00000800000008020000080400000806000008080000080A0000080C0000080E00000A0000000A0200000A0400000A0600000A0800000A0A00000A0C00000A0E00000C0000000C0200000C0400000C0600000C0800000C0
310
A00000C0C00000C0E00000E0000000E0200000E0400000E0600000E0800000E0A00000E0C00000E0E00040000000400020004000400040006000400080004000A0004000C0004000E00040200000402020004020400040206000402080004020A0004020C0004020E000404000004040200040404000404060004040800040
310
40A0004040C0004040E00040600000406020004060400040606000406080004060A0004060C0004060E00040800000408020004080400040806000408080004080A0004080C0004080E00040A0000040A0200040A0400040A0600040A0800040A0A00040A0C00040A0E00040C0000040C0200040C0400040C0600040C08000
310
40C0A00040C0C00040C0E00040E0000040E0200040E0400040E0600040E0800040E0A00040E0C00040E0E00080000000800020008000400080006000800080008000A0008000C0008000E00080200000802020008020400080206000802080008020A0008020C0008020E00080400000804020008040400080406000804080
310
008040A0008040C0008040E00080600000806020008060400080606000806080008060A0008060C0008060E00080800000808020008080400080806000808080008080A0008080C0008080E00080A0000080A0200080A0400080A0600080A0800080A0A00080A0C00080A0E00080C0000080C0200080C0400080C0600080C0
310
800080C0A00080C0C00080C0E00080E0000080E0200080E0400080E0600080E0800080E0A00080E0C00080E0E000C0000000C0002000C0004000C0006000C0008000C000A000C000C000C000E000C0200000C0202000C0204000C0206000C0208000C020A000C020C000C020E000C0400000C0402000C0404000C0406000C0
310
408000C040A000C040C000C040E000C0600000C0602000C0604000C0606000C0608000C060A000C060C000C060E000C0800000C0802000C0804000C0806000C0808000C080A000C080C000C080E000C0A00000C0A02000C0A04000C0A06000C0A08000C0A0A000C0A0C000C0A0E000C0C00000C0C02000C0C04000C0C06000
310
C0C08000C0C0A000F0FBFF00A4A0A000808080000000FF0000FF000000FFFF00FF000000FF00FF00FFFF0000FFFFFF000000000000000000000000000000000000000000000000000000000000000000000000000000000000FC0000FC000000000000FC0000FC000000000000000000000000000000000000FCFCFCFC0000
310
00000000FCFCFCFC000000000000000000000000000000000000FC0000FC000000000000FC0000FC000000000000000000000000000000000000FC0000FC000000000000FC0000FC000000000000000000000000000000000000FC0000FC000000000000FC0000FC000000000000000000000000000000000000FC0000FCFC
310
FCFCFCFCFCFC0000FC000000000000000000000000000000000000FC000000000000000000000000FC000000000000000000000000000000000000FC000000000000000000000000FC000000000000000000000000000000000000FC000000000000000000000000FC000000000000000000000000000000000000FC000000
310
000000000000000000FC000000000000000000000000000000000000FC000000000000000000000000FC000000000000000000000000000000000000FC000000000000000000000000FC000000000000000000000000000000000000FCFCFCFCFCFC00000000000000FC000000000000000000000000000000000000000000
310
0000FC00000000000000FC0000000000000000000000000000000000000000000000FC00000000000000FC0000000000000000000000000000000000000000FCFCFCFC00000000000000FC0000000000000000000000000000000000000000FC00000000000000000000FC0000000000000000000000000000000000000000
310
FC00000000000000000000FC0000000000000000000000000000000000000000FC00000000000000000000FC0000000000000000000000000000000000000000FC00000000000000000000FC0000000000000000000000000000000000000000FC00000000000000000000FC00000000000000000000000000000000000000
310
00FC00000000000000000000FC0000000000000000000000000000000000000000FC00000000000000000000FC0000000000000000000000000000000000000000FC00000000000000000000FC0000000000000000000000000000000000000000FC00000000000000000000FC000000000000000000000000000000000000
310
0000FC00000000000000000000FC0000000000000000000000000000000000000000FC00000000000000000000FC0000000000000000000000000000000000000000FC00000000000000000000FC0000000000000000000000000000000000000000FC00000000000000000000FC0000000000000000000000000000000000
310
000000FCFCFCFCFCFCFCFCFCFCFCFC0000000000000000000000000000000000000000000000000000000000000000000000000000000000
102
{BLKREFS
331
7204
102
}
 70
     4
280
     1
281
     1
  0
BLOCK_RECORD
  5
7205
102
{ACAD_XDICTIONARY
360
72A8
102
}
330
1
100
AcDbSymbolTableRecord
100
AcDbBlockTableRecord
  2
ﾘｼﾞｯﾄ CEM450
340
0
310
2800000020000000200000000100080000000000000400000000000000000000000000000000000000000000000080000080000000808000800000008000800080800000C0C0C000C0DCC000F0CAA6000020400000206000002080000020A0000020C0000020E00000400000004020000040400000406000004080000040A0
310
000040C0000040E00000600000006020000060400000606000006080000060A0000060C0000060E00000800000008020000080400000806000008080000080A0000080C0000080E00000A0000000A0200000A0400000A0600000A0800000A0A00000A0C00000A0E00000C0000000C0200000C0400000C0600000C0800000C0
310
A00000C0C00000C0E00000E0000000E0200000E0400000E0600000E0800000E0A00000E0C00000E0E00040000000400020004000400040006000400080004000A0004000C0004000E00040200000402020004020400040206000402080004020A0004020C0004020E000404000004040200040404000404060004040800040
310
40A0004040C0004040E00040600000406020004060400040606000406080004060A0004060C0004060E00040800000408020004080400040806000408080004080A0004080C0004080E00040A0000040A0200040A0400040A0600040A0800040A0A00040A0C00040A0E00040C0000040C0200040C0400040C0600040C08000
310
40C0A00040C0C00040C0E00040E0000040E0200040E0400040E0600040E0800040E0A00040E0C00040E0E00080000000800020008000400080006000800080008000A0008000C0008000E00080200000802020008020400080206000802080008020A0008020C0008020E00080400000804020008040400080406000804080
310
008040A0008040C0008040E00080600000806020008060400080606000806080008060A0008060C0008060E00080800000808020008080400080806000808080008080A0008080C0008080E00080A0000080A0200080A0400080A0600080A0800080A0A00080A0C00080A0E00080C0000080C0200080C0400080C0600080C0
310
800080C0A00080C0C00080C0E00080E0000080E0200080E0400080E0600080E0800080E0A00080E0C00080E0E000C0000000C0002000C0004000C0006000C0008000C000A000C000C000C000E000C0200000C0202000C0204000C0206000C0208000C020A000C020C000C020E000C0400000C0402000C0404000C0406000C0
310
408000C040A000C040C000C040E000C0600000C0602000C0604000C0606000C0608000C060A000C060C000C060E000C0800000C0802000C0804000C0806000C0808000C080A000C080C000C080E000C0A00000C0A02000C0A04000C0A06000C0A08000C0A0A000C0A0C000C0A0E000C0C00000C0C02000C0C04000C0C06000
310
C0C08000C0C0A000F0FBFF00A4A0A000808080000000FF0000FF000000FFFF00FF000000FF00FF00FFFF0000FFFFFF0000000000000000000000000000000000000000000000000000000000000000000000000000000000000000000000000000000000FFFFFF000000000000000000000000000000000000000000000000
310
0000000000FF00000000000000000000000000000000000000000000000000000000000000FF00000000000000000000000000000000000000000000000000000000000000FF0000000000000000000000000000000000000000FFFFFFFFFFFFFFFFFFFFFFFF0000000000000000000000000000000000000000FF00000000
310
00000000FF00FF0000000000000000000000000000000000000000FF0000000000000000FF00FF0000000000000000000000000000000000000000FF0000000000000000FF00FF0000000000000000000000000000000000000000FF0000000000000000FF00FF0000000000000000000000000000000000000000FF000000
310
0000000000FF00FF0000000000000000000000000000000000000000FF0000000000000000FF00FF0000000000000000000000000000000000000000FF0000000000000000FF00FF0000000000000000000000000000000000000000FF0000000000000000FF00FF0000000000000000000000000000000000000000FF0000
310
000000000000FF00FF0000000000000000000000000000000000000000FF0000000000000000FF00FF0000000000000000000000000000000000000000FF0000000000000000A4A4A4A400000000000000000000000000000000000000FF0000000000000000000000FF00000000000000000000000000000000000000FF00
310
00000000000000000000FF00000000000000000000000000000000000000FF0000000000000000000000FF00000000000000000000000000000000000000FF0000000000000000000000FF00000000000000000000000000000000000000FFFFFFFFFFFFFFFFFFFFFFFFFF00000000000000000000000000000000000000FF
310
0000000000000000000000FF00000000000000000000000000000000000000FF0000000000000000000000FF00000000000000000000000000000000000000FF0000000000000000000000FF00000000000000000000000000000000000000FF0000000000000000000000FF00000000000000000000000000000000000000
310
FFFFFFFFFFFFFFFFFFFFFFFFFFFF0000000000000000000000000000000000000000000000000000000000FF00000000000000000000000000000000000000000000000000000000000000FF00000000000000000000000000000000000000000000000000000000000000FF00000000000000000000000000000000000000
310
000000000000000000000000FFFFFF0000000000000000000000000000000000000000000000000000000000000000000000000000000000
102
{BLKREFS
331
7226
102
}
 70
     4
280
     1
281
     1
  0
ENDTAB
  0
ENDSEC
  0
SECTION
  2
BLOCKS
  0
BLOCK
  5
20
330
1F
100
AcDbEntity
  8
0
100
AcDbBlockBegin
  2
*Model_Space
 70
     0
 10
0.0
 20
0.0
 30
0.0
  3
*Model_Space
  1

  0
ENDBLK
  5
21
330
1F
100
AcDbEntity
  8
0
100
AcDbBlockEnd
  0
BLOCK
  5
1C
330
1B
100
AcDbEntity
 67
     1
  8
0
100
AcDbBlockBegin
  2
*Paper_Space
 70
     0
 10
0.0
 20
0.0
 30
0.0
  3
*Paper_Space
  1

  0
ENDBLK
  5
1D
330
1B
100
AcDbEntity
 67
     1
  8
0
100
AcDbBlockEnd
  0
BLOCK
  5
24
330
23
100
AcDbEntity
 67
     1
  8
0
100
AcDbBlockBegin
  2
*Paper_Space0
 70
     0
 10
0.0
 20
0.0
 30
0.0
  3
*Paper_Space0
  1

  0
ENDBLK
  5
25
330
23
100
AcDbEntity
 67
     1
  8
0
100
AcDbBlockEnd
  0
BLOCK
  5
6D
330
69
100
AcDbEntity
  8
0
100
AcDbBlockBegin
  2
_Open30
 70
     0
 10
0.0
 20
0.0
 30
0.0
  3
_Open30
  1

  0
LINE
  5
6A
330
69
100
AcDbEntity
  8
0
  6
ByBlock
 62
     0
370
    -2
100
AcDbLine
 10
-1.0
 20
0.26794919
 30
0.0
 11
0.0
 21
0.0
 31
0.0
  0
LINE
  5
6B
330
69
100
AcDbEntity
  8
0
  6
ByBlock
 62
     0
370
    -2
100
AcDbLine
 10
0.0
 20
0.0
 30
0.0
 11
-1.0
 21
-0.26794919
 31
0.0
  0
LINE
  5
6C
330
69
100
AcDbEntity
  8
0
  6
ByBlock
 62
     0
370
    -2
100
AcDbLine
 10
0.0
 20
0.0
 30
0.0
 11
-1.0
 21
0.0
 31
0.0
  0
ENDBLK
  5
6E
330
69
100
AcDbEntity
  8
0
100
AcDbBlockEnd
  0
BLOCK
  5
76
330
74
100
AcDbEntity
  8
0
100
AcDbBlockBegin
  2
GENAXEH
 70
     0
 10
0.0
 20
0.0
 30
0.0
  3
GENAXEH
  1

  0
LINE
  5
75
330
74
100
AcDbEntity
  8
0
100
AcDbLine
 10
-1.0
 20
0.0
 30
0.0
 11
1.0
 21
0.0
 31
0.0
  0
ENDBLK
  5
77
330
74
100
AcDbEntity
  8
0
100
AcDbBlockEnd
  0
BLOCK
  5
4FF5
330
4FF4
100
AcDbEntity
  8
0
100
AcDbBlockBegin
  2
ロッカクアナツキプラグ R1／2
 70
     0
 10
0.0
 20
0.0
 30
0.0
  3
ロッカクアナツキプラグ R1／2
  1

  0
LINE
  5
4FF7
330
4FF4
100
AcDbEntity
  8
AM_0 外形線1
100
AcDbLine
 10
10.2623880000001
 20
-13.0
 30
0.0
 11
10.65768400000024
 21
-1.680184999999936
 31
0.0
  0
LINE
  5
4FF8
330
4FF4
100
AcDbEntity
  8
AM_4 細線
100
AcDbLine
 10
9.534893000000009
 20
-0.5573939999999312
 30
0.0
 11
9.030545999999956
 21
-15.0
 31
0.0
  0
LINE
  5
4FF9
330
4FF4
100
AcDbEntity
  8
AM_7 中心線
100
AcDbLine
 10
0.0
 20
2.156881000000111
 30
0.0
 11
0.0
 21
-19.52988800000003
 31
0.0
  0
LINE
  5
4FFA
330
4FF4
100
AcDbEntity
  8
AM_0 外形線1
100
AcDbLine
 10
-10.65768500000013
 20
-1.680184999999936
 30
0.0
 11
-10.2623880000001
 21
-13.0
 31
0.0
  0
LINE
  5
4FFB
330
4FF4
100
AcDbEntity
  8
AM_4 細線
100
AcDbLine
 10
-9.534893999999894
 20
-0.5573939999999312
 30
0.0
 11
-9.030546999999842
 21
-15.0
 31
0.0
  0
LINE
  5
4FFC
330
4FF4
100
AcDbEntity
  8
AM_0 外形線1
100
AcDbLine
 10
-9.107688000000052
 20
-15.0
 30
0.0
 11
9.107687000000167
 21
-15.0
 31
0.0
  0
LINE
  5
4FFD
330
4FF4
100
AcDbEntity
  8
AM_0 外形線1
100
AcDbLine
 10
-10.2623880000001
 20
-13.0
 30
0.0
 11
10.2623880000001
 21
-13.0
 31
0.0
  0
LINE
  5
4FFE
330
4FF4
100
AcDbEntity
  8
AM_0 外形線1
100
AcDbLine
 10
-10.2623880000001
 20
-13.0
 30
0.0
 11
-9.107688000000052
 21
-15.0
 31
0.0
  0
LINE
  5
4FFF
330
4FF4
100
AcDbEntity
  8
AM_0 外形線1
100
AcDbLine
 10
9.107687000000167
 20
-15.0
 30
0.0
 11
10.2623880000001
 21
-13.0
 31
0.0
  0
LINE
  5
5000
330
4FF4
100
AcDbEntity
  8
AM_0 外形線1
100
AcDbLine
 10
-8.977499999999963
 20
0.0
 30
0.0
 11
-10.65768500000013
 21
-1.680184999999936
 31
0.0
  0
LINE
  5
5001
330
4FF4
100
AcDbEntity
  8
AM_0 外形線1
100
AcDbLine
 10
-10.65768500000013
 20
-1.680184999999936
 30
0.0
 11
10.65768400000024
 21
-1.680184999999936
 31
0.0
  0
LINE
  5
5002
330
4FF4
100
AcDbEntity
  8
AM_0 外形線1
100
AcDbLine
 10
10.47749999999996
 20
-1.5
 30
0.0
 11
8.977499999999963
 21
0.0
 31
0.0
  0
LINE
  5
5021
330
4FF4
100
AcDbEntity
  8
AM_0 外形線1
100
AcDbLine
 10
-8.977499999999963
 20
0.0
 30
0.0
 11
8.977499999999963
 21
0.0
 31
0.0
  0
ENDBLK
  5
4FF6
330
4FF4
100
AcDbEntity
  8
0
100
AcDbBlockEnd
  0
BLOCK
  5
50AA
330
50A9
100
AcDbEntity
  8
0
100
AcDbBlockBegin
  2
ケースＡ CEMH450
 70
     0
 10
0.0
 20
0.0
 30
0.0
  3
ケースＡ CEMH450
  1

  0
LINE
  5
50AC
330
50A9
100
AcDbEntity
  8
AM_0 外形線1
100
AcDbLine
 10
0.0
 20
0.0
 30
0.0
 11
0.0
 21
-224.0
 31
0.0
  0
LINE
  5
50AD
330
50A9
100
AcDbEntity
  8
AM_0 外形線1
100
AcDbLine
 10
25.0
 20
-224.0
 30
0.0
 11
25.0
 21
0.0
 31
0.0
  0
LINE
  5
50AF
330
50A9
100
AcDbEntity
  8
AM_0 外形線1
100
AcDbLine
 10
131.0
 20
-186.0
 30
0.0
 11
131.0
 21
0.0
 31
0.0
  0
LINE
  5
50B0
330
50A9
100
AcDbEntity
  8
AM_0 外形線1
100
AcDbLine
 10
101.0
 20
-177.0
 30
0.0
 11
101.0
 21
0.0
 31
0.0
  0
LINE
  5
50B1
330
50A9
100
AcDbEntity
  8
AM_0 外形線1
100
AcDbLine
 10
110.0
 20
-186.0
 30
0.0
 11
110.0
 21
0.0
 31
0.0
  0
LINE
  5
50B2
330
50A9
100
AcDbEntity
  8
AM_0 外形線1
100
AcDbLine
 10
31.0
 20
177.0
 30
0.0
 11
101.0
 21
177.0
 31
0.0
  0
LINE
  5
50B3
330
50A9
100
AcDbEntity
  8
AM_3 隠れ線
100
AcDbLine
 10
126.0
 20
151.0
 30
0.0
 11
70.0
 21
151.0
 31
0.0
  0
LINE
  5
50B4
330
50A9
100
AcDbEntity
  8
AM_0 外形線1
100
AcDbLine
 10
65.0
 20
160.0
 30
0.0
 11
130.0
 21
160.0
 31
0.0
  0
LINE
  5
50B5
330
50A9
100
AcDbEntity
  8
AM_7 中心線
100
AcDbLine
 10
63.0
 20
155.0
 30
0.0
 11
132.0
 21
155.0
 31
0.0
  0
LINE
  5
50B6
330
50A9
100
AcDbEntity
  8
AM_0 外形線1
100
AcDbLine
 10
-7.0
 20
169.0
 30
0.0
 11
-6.0
 21
170.0
 31
0.0
  0
LINE
  5
50B7
330
50A9
100
AcDbEntity
  8
AM_0 外形線1
100
AcDbLine
 10
64.0
 20
161.5
 30
0.0
 11
-7.0
 21
161.5
 31
0.0
  0
LINE
  5
50B8
330
50A9
100
AcDbEntity
  8
AM_0 外形線1
100
AcDbLine
 10
-7.0
 20
161.5
 30
0.0
 11
-7.0
 21
169.0
 31
0.0
  0
LINE
  5
50B9
330
50A9
100
AcDbEntity
  8
AM_0 外形線1
100
AcDbLine
 10
40.96945300000014
 20
162.0
 30
0.0
 11
40.98691299999972
 21
161.5
 31
0.0
  0
LINE
  5
50BA
330
50A9
100
AcDbEntity
  8
AM_0 外形線1
100
AcDbLine
 10
39.7376119999999
 20
164.0
 30
0.0
 11
39.82491299999992
 21
161.5
 31
0.0
  0
LINE
  5
50BB
330
50A9
100
AcDbEntity
  8
AM_0 外形線1
100
AcDbLine
 10
66.0
 20
151.0
 30
0.0
 11
65.0
 21
152.0
 31
0.0
  0
LINE
  5
50BC
330
50A9
100
AcDbEntity
  8
AM_0 外形線1
100
AcDbLine
 10
65.0
 20
152.0
 30
0.0
 11
65.0
 21
160.5
 31
0.0
  0
ARC
  5
50BD
330
50A9
100
AcDbEntity
  8
AM_0 外形線1
100
AcDbCircle
 10
64.0
 20
160.5
 30
0.0
 40
1.0
100
AcDbArc
 50
0.0
 51
90.0
  0
LINE
  5
50BE
330
50A9
100
AcDbEntity
  8
AM_0 外形線1
100
AcDbLine
 10
59.03054599999996
 20
162.0
 30
0.0
 11
59.01308599999993
 21
161.5
 31
0.0
  0
LINE
  5
50BF
330
50A9
100
AcDbEntity
  8
AM_0 外形線1
100
AcDbLine
 10
60.26238800000011
 20
164.0
 30
0.0
 11
60.17508600000019
 21
161.5
 31
0.0
  0
LINE
  5
50C2
330
50A9
100
AcDbEntity
  8
AM_0 外形線1
100
AcDbLine
 10
-6.0
 20
170.0
 30
0.0
 11
4.0
 21
170.0
 31
0.0
  0
LINE
  5
50C3
330
50A9
100
AcDbEntity
  8
AM_7 中心線
100
AcDbLine
 10
43.0
 20
205.0
 30
0.0
 11
-58.0
 21
205.0
 31
0.0
  0
LINE
  5
50C4
330
50A9
100
AcDbEntity
  8
AM_0 外形線1
100
AcDbLine
 10
25.0
 20
183.0
 30
0.0
 11
25.0
 21
224.0
 31
0.0
  0
LINE
  5
50C5
330
50A9
100
AcDbEntity
  8
AM_0 外形線1
100
AcDbLine
 10
40.46510600000011
 20
176.442606
 30
0.0
 11
40.44564200000013
 21
177.0
 31
0.0
  0
LINE
  5
50C6
330
50A9
100
AcDbEntity
  8
AM_0 外形線1
100
AcDbLine
 10
39.34231499999987
 20
175.319815
 30
0.0
 11
39.28364200000033
 21
177.0
 31
0.0
  0
ARC
  5
50C7
330
50A9
100
AcDbEntity
  8
AM_0 外形線1
100
AcDbCircle
 10
4.0
 20
170.5
 30
0.0
 40
0.5
100
AcDbArc
 50
270.0
 51
0.0
  0
LINE
  5
50C8
330
50A9
100
AcDbEntity
  8
AM_0 外形線1
100
AcDbLine
 10
4.5
 20
170.5
 30
0.0
 11
4.5
 21
176.7
 31
0.0
  0
ARC
  5
50C9
330
50A9
100
AcDbEntity
  8
AM_0 外形線1
100
AcDbCircle
 10
4.0
 20
176.7
 30
0.0
 40
0.5
100
AcDbArc
 50
0.0
 51
90.0
  0
LINE
  5
50CA
330
50A9
100
AcDbEntity
  8
AM_0 外形線1
100
AcDbLine
 10
4.0
 20
177.2
 30
0.0
 11
0.0
 21
177.2
 31
0.0
  0
LWPOLYLINE
  5
50CB
330
50A9
100
AcDbEntity
  8
AM_0 外形線1
100
AcDbPolyline
 90
       73
 70
     0
 43
0.0
 10
2.25
 20
170.0
 10
2.446100000000114
 20
170.0136990000001
 10
2.640707999999904
 20
170.0546919999999
 10
2.832342000000153
 20
170.1226670000001
 10
3.019545000000106
 20
170.217106
 10
3.200890999999955
 20
170.3372919999999
 10
3.375
 20
170.4823080000001
 10
3.54054700000006
 20
170.651053
 10
3.696272000000134
 20
170.8422399999999
 10
3.840990000000147
 20
171.054415
 10
3.97360000000026
 20
171.285965
 10
4.093092000000068
 20
171.5351250000001
 10
4.198557000000163
 20
171.7999999999999
 10
4.289192000000183
 20
172.0785740000001
 10
4.364308000000163
 20
172.368727
 10
4.423333000000183
 20
172.668251
 10
4.465817000000241
 20
172.974866
 10
4.491438000000016
 20
173.286239
 10
4.5
 20
173.5999999999999
 10
4.491438000000016
 20
173.913761
 10
4.465817000000241
 20
174.2251329999999
 10
4.423333000000183
 20
174.5317480000001
 10
4.364308000000163
 20
174.8312720000001
 10
4.289192000000183
 20
175.1214259999999
 10
4.198557000000163
 20
175.4
 10
4.093092000000068
 20
175.6648749999999
 10
3.97360000000026
 20
175.914035
 10
3.840990000000147
 20
176.145584
 10
3.696272000000134
 20
176.3577599999998
 10
3.54054700000006
 20
176.548947
 10
3.375
 20
176.717691
 10
3.200890999999955
 20
176.862708
 10
3.019545000000106
 20
176.9828929999999
 10
2.832342000000153
 20
177.0773329999999
 10
2.640707999999904
 20
177.1453080000001
 10
2.446100000000114
 20
177.1863009999999
 10
2.25
 20
177.2
 10
2.053899
 20
177.1863009999999
 10
1.859291000000211
 20
177.1453080000001
 10
1.667656999999961
 20
177.0773329999999
 10
1.480454000000008
 20
176.9828929999999
 10
1.299108000000159
 20
176.862708
 10
1.125
 20
176.717691
 10
0.9594529999999393
 20
176.548947
 10
0.8037269999999805
 20
176.3577599999998
 10
0.6590089999999691
 20
176.145584
 10
0.5264000000001943
 20
175.914035
 10
0.4069070000000467
 20
175.6648749999999
 10
0.3014419999999518
 20
175.4
 10
0.2108070000003863
 20
175.1214259999999
 10
0.1356910000004063
 20
174.8312720000001
 10
0.076665999999932
 20
174.5317480000001
 10
0.0341820000003281
 20
174.2251329999999
 10
0.0085619999999835
 20
173.913761
 10
0.0
 20
173.5999999999999
 10
0.0085619999999835
 20
173.286239
 10
0.0341820000003281
 20
172.974866
 10
0.076665999999932
 20
172.668251
 10
0.1356910000004063
 20
172.368727
 10
0.2108070000003863
 20
172.0785740000001
 10
0.3014419999999518
 20
171.7999999999999
 10
0.4069070000000467
 20
171.5351250000001
 10
0.5264000000001943
 20
171.285965
 10
0.6590089999999691
 20
171.054415
 10
0.8037269999999805
 20
170.8422399999999
 10
0.9594529999999393
 20
170.651053
 10
1.125
 20
170.4823080000001
 10
1.299108000000159
 20
170.3372919999999
 10
1.480454000000008
 20
170.217106
 10
1.667656999999961
 20
170.1226670000001
 10
1.859291000000211
 20
170.0546919999999
 10
2.053899
 20
170.0136990000001
 10
2.25
 20
170.0
  0
ARC
  5
50CC
330
50A9
100
AcDbEntity
  8
AM_0 外形線1
100
AcDbCircle
 10
31.0
 20
183.0
 30
0.0
 40
6.0
100
AcDbArc
 50
180.0
 51
270.0
  0
LINE
  5
50CD
330
50A9
100
AcDbEntity
  8
AM_0 外形線1
100
AcDbLine
 10
0.0
 20
177.2
 30
0.0
 11
0.0
 21
194.0
 31
0.0
  0
LINE
  5
50CE
330
50A9
100
AcDbEntity
  8
AM_0 外形線1
100
AcDbLine
 10
60.65768400000024
 20
175.319815
 30
0.0
 11
60.47749999999997
 21
175.5
 31
0.0
  0
LINE
  5
50CF
330
50A9
100
AcDbEntity
  8
AM_0 外形線1
100
AcDbLine
 10
59.53489300000001
 20
176.442606
 30
0.0
 11
59.55435800000032
 21
177.0
 31
0.0
  0
LINE
  5
50D0
330
50A9
100
AcDbEntity
  8
AM_0 外形線1
100
AcDbLine
 10
60.65768400000024
 20
175.319815
 30
0.0
 11
60.71635800000013
 21
177.0
 31
0.0
  0
LINE
  5
50D1
330
50A9
100
AcDbEntity
  8
AM_0 外形線1
100
AcDbLine
 10
24.0
 20
225.0
 30
0.0
 11
25.0
 21
224.0
 31
0.0
  0
LINE
  5
50D2
330
50A9
100
AcDbEntity
  8
AM_0 外形線1
100
AcDbLine
 10
0.0
 20
216.0
 30
0.0
 11
0.0
 21
224.0
 31
0.0
  0
LINE
  5
50D3
330
50A9
100
AcDbEntity
  8
AM_0 外形線1
100
AcDbLine
 10
0.0
 20
224.0
 30
0.0
 11
1.0
 21
225.0
 31
0.0
  0
LINE
  5
50D4
330
50A9
100
AcDbEntity
  8
AM_0 外形線1
100
AcDbLine
 10
1.0
 20
225.0
 30
0.0
 11
24.0
 21
225.0
 31
0.0
  0
LINE
  5
50D5
330
50A9
100
AcDbEntity
  8
AM_0 外形線1
100
AcDbLine
 10
135.0
 20
170.0
 30
0.0
 11
135.0
 21
161.5
 31
0.0
  0
ARC
  5
50D6
330
50A9
100
AcDbEntity
  8
AM_0 外形線1
100
AcDbCircle
 10
131.0
 20
160.5
 30
0.0
 40
1.0
100
AcDbArc
 50
90.0
 51
180.0
  0
LINE
  5
50D7
330
50A9
100
AcDbEntity
  8
AM_0 外形線1
100
AcDbLine
 10
130.0
 20
160.5
 30
0.0
 11
130.0
 21
160.0
 31
0.0
  0
LINE
  5
50D8
330
50A9
100
AcDbEntity
  8
AM_0 外形線1
100
AcDbLine
 10
130.0
 20
160.0
 30
0.0
 11
130.0
 21
152.0
 31
0.0
  0
LINE
  5
50D9
330
50A9
100
AcDbEntity
  8
AM_0 外形線1
100
AcDbLine
 10
130.0
 20
152.0
 30
0.0
 11
129.0
 21
151.0
 31
0.0
  0
LINE
  5
50DA
330
50A9
100
AcDbEntity
  8
AM_0 外形線1
100
AcDbLine
 10
135.0
 20
161.5
 30
0.0
 11
131.0
 21
161.5
 31
0.0
  0
LINE
  5
50DB
330
50A9
100
AcDbEntity
  8
AM_0 外形線1
100
AcDbLine
 10
110.0
 20
186.0
 30
0.0
 11
135.0
 21
186.0
 31
0.0
  0
LINE
  5
50DC
330
50A9
100
AcDbEntity
  8
AM_0 外形線1
100
AcDbLine
 10
101.0
 20
177.0
 30
0.0
 11
110.0
 21
186.0
 31
0.0
  0
LINE
  5
50DD
330
50A9
100
AcDbEntity
  8
AM_0 外形線1
100
AcDbLine
 10
135.0
 20
186.0
 30
0.0
 11
135.0
 21
180.0
 31
0.0
  0
LINE
  5
50DE
330
50A9
100
AcDbEntity
  8
AM_0 外形線1
100
AcDbLine
 10
24.0
 20
-225.0
 30
0.0
 11
25.0
 21
-224.0
 31
0.0
  0
LINE
  5
50DF
330
50A9
100
AcDbEntity
  8
AM_0 外形線1
100
AcDbLine
 10
0.0
 20
-224.0
 30
0.0
 11
1.0
 21
-225.0
 31
0.0
  0
LINE
  5
50E0
330
50A9
100
AcDbEntity
  8
AM_0 外形線1
100
AcDbLine
 10
1.0
 20
-225.0
 30
0.0
 11
24.0
 21
-225.0
 31
0.0
  0
LINE
  5
50E1
330
50A9
100
AcDbEntity
  8
AM_0 外形線1
100
AcDbLine
 10
31.0
 20
-177.0
 30
0.0
 11
101.0
 21
-177.0
 31
0.0
  0
ARC
  5
50E2
330
50A9
100
AcDbEntity
  8
AM_0 外形線1
100
AcDbCircle
 10
31.0
 20
-183.0
 30
0.0
 40
6.0
100
AcDbArc
 50
90.0
 51
180.0
  0
LINE
  5
50E3
330
50A9
100
AcDbEntity
  8
AM_0 外形線1
100
AcDbLine
 10
110.0
 20
-186.0
 30
0.0
 11
131.0
 21
-186.0
 31
0.0
  0
LINE
  5
50E4
330
50A9
100
AcDbEntity
  8
AM_0 外形線1
100
AcDbLine
 10
101.0
 20
-177.0
 30
0.0
 11
110.0
 21
-186.0
 31
0.0
  0
LINE
  5
50E5
330
50A9
100
AcDbEntity
  8
AM_0 外形線1
100
AcDbLine
 10
126.0
 20
151.0
 30
0.0
 11
129.0
 21
151.0
 31
0.0
  0
LINE
  5
50E6
330
50A9
100
AcDbEntity
  8
AM_0 外形線1
100
AcDbLine
 10
66.0
 20
151.0
 30
0.0
 11
70.0
 21
151.0
 31
0.0
  0
INSERT
  5
50E7
330
50A9
100
AcDbEntity
  8
AM_0 外形線1
100
AcDbBlockReference
  2
ロッカクアナツキプラグ R1／2
 10
50.0
 20
177.0
 30
0.0
  0
LINE
  5
517F
330
50A9
100
AcDbEntity
  8
AM_0 外形線1
100
AcDbLine
 10
0.0
 20
216.0
 30
0.0
 11
25.0
 21
216.0
 31
0.0
  0
LINE
  5
5180
330
50A9
100
AcDbEntity
  8
AM_0 外形線1
100
AcDbLine
 10
-0.0000000000001137
 20
194.0
 30
0.0
 11
25.0
 21
194.0
 31
0.0
  0
ENDBLK
  5
50AB
330
50A9
100
AcDbEntity
  8
0
100
AcDbBlockEnd
  0
BLOCK
  5
52E6
330
52E5
100
AcDbEntity
  8
0
100
AcDbBlockBegin
  2
センタ CEMH450
 70
     0
 10
0.0
 20
0.0
 30
0.0
  3
センタ CEMH450
  1

  0
LINE
  5
52E8
330
52E5
100
AcDbEntity
  8
AM_0 外形線1
100
AcDbLine
 10
200.0
 20
-138.0
 30
0.0
 11
200.0
 21
138.0
 31
0.0
  0
LINE
  5
52E9
330
52E5
100
AcDbEntity
  8
AM_0 外形線1
100
AcDbLine
 10
0.0
 20
142.0
 30
0.0
 11
0.0
 21
0.0
 31
0.0
  0
LINE
  5
52EA
330
52E5
100
AcDbEntity
  8
AM_3 隠れ線
100
AcDbLine
 10
0.0
 20
8.75
 30
0.0
 11
52.0
 21
8.75
 31
0.0
  0
LINE
  5
52EB
330
52E5
100
AcDbEntity
  8
AM_3 隠れ線
100
AcDbLine
 10
0.0
 20
10.0
 30
0.0
 11
36.0
 21
10.0
 31
0.0
  0
LINE
  5
52EC
330
52E5
100
AcDbEntity
  8
AM_3 隠れ線
100
AcDbLine
 10
36.0
 20
10.0
 30
0.0
 11
36.7216870000002
 21
8.75
 31
0.0
  0
LINE
  5
52ED
330
52E5
100
AcDbEntity
  8
AM_3 隠れ線
100
AcDbLine
 10
52.0
 20
8.75
 30
0.0
 11
52.0
 21
0.0
 31
0.0
  0
LINE
  5
52EE
330
52E5
100
AcDbEntity
  8
AM_3 隠れ線
100
AcDbLine
 10
52.0
 20
8.75
 30
0.0
 11
57.05181400000038
 21
0.0
 31
0.0
  0
LINE
  5
52EF
330
52E5
100
AcDbEntity
  8
AM_3 隠れ線
100
AcDbLine
 10
36.7216870000002
 20
8.75
 30
0.0
 11
36.7216870000002
 21
0.0
 31
0.0
  0
LINE
  5
52F0
330
52E5
100
AcDbEntity
  8
AM_3 隠れ線
100
AcDbLine
 10
36.0
 20
10.0
 30
0.0
 11
36.0
 21
0.0
 31
0.0
  0
LINE
  5
52F1
330
52E5
100
AcDbEntity
  8
AM_0 外形線1
100
AcDbLine
 10
160.0
 20
-145.0
 30
0.0
 11
160.0
 21
0.0
 31
0.0
  0
LINE
  5
52F2
330
52E5
100
AcDbEntity
  8
AM_0 外形線1
100
AcDbLine
 10
163.0
 20
-144.0
 30
0.0
 11
163.0
 21
0.0
 31
0.0
  0
LINE
  5
52F3
330
52E5
100
AcDbEntity
  8
AM_0 外形線1
100
AcDbLine
 10
163.0
 20
-144.0
 30
0.0
 11
194.0
 21
-144.0
 31
0.0
  0
LINE
  5
52F4
330
52E5
100
AcDbEntity
  8
AM_0 外形線1
100
AcDbLine
 10
160.0
 20
-145.0
 30
0.0
 11
163.0
 21
-144.0
 31
0.0
  0
LINE
  5
52F5
330
52E5
100
AcDbEntity
  8
AM_0 外形線1
100
AcDbLine
 10
142.0
 20
-145.0
 30
0.0
 11
160.0
 21
-145.0
 31
0.0
  0
ARC
  5
52F6
330
52E5
100
AcDbEntity
  8
AM_0 外形線1
100
AcDbCircle
 10
194.0
 20
-138.0
 30
0.0
 40
6.0
100
AcDbArc
 50
270.0
 51
0.0
  0
ARC
  5
52F8
330
52E5
100
AcDbEntity
  8
AM_0 外形線1
100
AcDbCircle
 10
89.0
 20
0.0
 30
0.0
 40
159.8
100
AcDbArc
 50
80.09063499998969
 51
99.90936500001033
  0
LINE
  5
52FA
330
52E5
100
AcDbEntity
  8
AM_0 外形線1
100
AcDbLine
 10
60.5
 20
143.0
 30
0.0
 11
1.0
 21
143.0
 31
0.0
  0
LINE
  5
52FB
330
52E5
100
AcDbEntity
  8
AM_0 外形線1
100
AcDbLine
 10
1.0
 20
143.0
 30
0.0
 11
0.0
 21
142.0
 31
0.0
  0
LINE
  5
52FC
330
52E5
100
AcDbEntity
  8
AM_0 外形線1
100
AcDbLine
 10
61.5
 20
157.4159769999999
 30
0.0
 11
61.0
 21
156.8278109999999
 31
0.0
  0
ARC
  5
52FD
330
52E5
100
AcDbEntity
  8
AM_0 外形線1
100
AcDbCircle
 10
60.5
 20
143.5
 30
0.0
 40
0.5
100
AcDbArc
 50
270.0
 51
0.0
  0
LINE
  5
52FE
330
52E5
100
AcDbEntity
  8
AM_0 外形線1
100
AcDbLine
 10
61.0
 20
156.8278109999999
 30
0.0
 11
61.0
 21
143.5
 31
0.0
  0
LINE
  5
52FF
330
52E5
100
AcDbEntity
  8
AM_0 外形線1
100
AcDbLine
 10
194.0
 20
144.0
 30
0.0
 11
163.0
 21
144.0
 31
0.0
  0
LINE
  5
5300
330
52E5
100
AcDbEntity
  8
AM_0 外形線1
100
AcDbLine
 10
160.0
 20
145.0
 30
0.0
 11
117.5
 21
145.0
 31
0.0
  0
LINE
  5
5301
330
52E5
100
AcDbEntity
  8
AM_0 外形線1
100
AcDbLine
 10
117.0
 20
156.8278109999999
 30
0.0
 11
116.5
 21
157.4159769999999
 31
0.0
  0
ARC
  5
5302
330
52E5
100
AcDbEntity
  8
AM_0 外形線1
100
AcDbCircle
 10
117.5
 20
145.5
 30
0.0
 40
0.5
100
AcDbArc
 50
180.0
 51
270.0
  0
LINE
  5
5303
330
52E5
100
AcDbEntity
  8
AM_0 外形線1
100
AcDbLine
 10
117.0
 20
145.5
 30
0.0
 11
117.0
 21
156.8278109999999
 31
0.0
  0
LINE
  5
5304
330
52E5
100
AcDbEntity
  8
AM_7 中心線
100
AcDbLine
 10
89.0
 20
164.7999999999999
 30
0.0
 11
89.0
 21
145.0
 31
0.0
  0
LINE
  5
5305
330
52E5
100
AcDbEntity
  8
AM_0 外形線1
100
AcDbLine
 10
163.0
 20
144.0
 30
0.0
 11
160.0
 21
145.0
 31
0.0
  0
ARC
  5
5306
330
52E5
100
AcDbEntity
  8
AM_0 外形線1
100
AcDbCircle
 10
194.0
 20
138.0
 30
0.0
 40
6.0
100
AcDbArc
 50
0.0
 51
90.0
  0
LINE
  5
5307
330
52E5
100
AcDbEntity
  8
AM_0 外形線1
100
AcDbLine
 10
0.0
 20
87.5
 30
0.0
 11
200.0
 21
87.5
 31
0.0
  0
ARC
  5
6FA2
330
52E5
100
AcDbEntity
  8
AM_7 中心線
100
AcDbCircle
 10
89.0
 20
0.0
 30
0.0
 40
155.0
100
AcDbArc
 50
78.81589939712084
 51
101.4803334775036
  0
ARC
  5
6FA3
330
52E5
100
AcDbEntity
  8
AM_0 外形線1
100
AcDbCircle
 10
89.0
 20
0.0
 30
0.0
 40
150.0
100
AcDbArc
 50
79.24168177100728
 51
100.7583182289927
  0
ENDBLK
  5
52E7
330
52E5
100
AcDbEntity
  8
0
100
AcDbBlockEnd
  0
BLOCK
  5
53D2
330
53D1
100
AcDbEntity
  8
0
100
AcDbBlockBegin
  2
リーマボルト CEMH450 M20
 70
     0
 10
0.0
 20
0.0
 30
0.0
  3
リーマボルト CEMH450 M20
  1

  0
LINE
  5
53D4
330
53D1
100
AcDbEntity
  8
AM_0 外形線1
100
AcDbLine
 10
-44.73205099999995
 20
10.0
 30
0.0
 11
-44.73205099999995
 21
-10.0
 31
0.0
  0
LINE
  5
53D5
330
53D1
100
AcDbEntity
  8
AM_0 外形線1
100
AcDbLine
 10
-43.0
 20
11.0
 30
0.0
 11
-43.0
 21
-11.0
 31
0.0
  0
LINE
  5
53D6
330
53D1
100
AcDbEntity
  8
AM_0 外形線1
100
AcDbLine
 10
-55.0999999999999
 20
-17.29999999999995
 30
0.0
 11
-55.0999999999999
 21
17.29999999999995
 31
0.0
  0
LINE
  5
53D7
330
53D1
100
AcDbEntity
  8
AM_0 外形線1
100
AcDbLine
 10
-71.09999999999991
 20
15.0
 30
0.0
 11
-71.09999999999991
 21
-15.0
 31
0.0
  0
ARC
  5
53D8
330
53D1
100
AcDbEntity
  8
AM_0 外形線1
100
AcDbCircle
 10
-42.19608900000003
 20
0.0
 30
0.0
 40
28.903912
100
AcDbArc
 50
162.5650859999988
 51
197.4349140000012
  0
LINE
  5
53D9
330
53D1
100
AcDbEntity
  8
AM_0 外形線1
100
AcDbLine
 10
-78.0
 20
8.0
 30
0.0
 11
-78.0
 21
-8.0
 31
0.0
  0
LINE
  5
53DA
330
53D1
100
AcDbEntity
  8
AM_0 外形線1
100
AcDbLine
 10
-76.0
 20
10.0
 30
0.0
 11
-76.0
 21
-10.0
 31
0.0
  0
LINE
  5
53DB
330
53D1
100
AcDbEntity
  8
AM_0 外形線1
100
AcDbLine
 10
-76.0
 20
-10.0
 30
0.0
 11
-71.09999999999991
 21
-10.0
 31
0.0
  0
LINE
  5
53DC
330
53D1
100
AcDbEntity
  8
AM_4 細線
100
AcDbLine
 10
-71.09999999999991
 20
-9.0
 30
0.0
 11
-77.0
 21
-9.0
 31
0.0
  0
LINE
  5
53DD
330
53D1
100
AcDbEntity
  8
AM_0 外形線1
100
AcDbLine
 10
-78.0
 20
-8.0
 30
0.0
 11
-76.0
 21
-10.0
 31
0.0
  0
LINE
  5
53DE
330
53D1
100
AcDbEntity
  8
AM_0 外形線1
100
AcDbLine
 10
-44.73205099999995
 20
-10.0
 30
0.0
 11
-50.0
 21
-10.0
 31
0.0
  0
LINE
  5
53DF
330
53D1
100
AcDbEntity
  8
AM_0 外形線1
100
AcDbLine
 10
-50.0
 20
-14.0
 30
0.0
 11
-55.0999999999999
 21
-14.0
 31
0.0
  0
LINE
  5
53E0
330
53D1
100
AcDbEntity
  8
AM_4 細線
100
AcDbLine
 10
-50.0
 20
-9.0
 30
0.0
 11
-44.73205099999995
 21
-9.0
 31
0.0
  0
LINE
  5
53E1
330
53D1
100
AcDbEntity
  8
AM_0 外形線1
100
AcDbLine
 10
-44.73205099999995
 20
-10.0
 30
0.0
 11
-43.0
 21
-11.0
 31
0.0
  0
LINE
  5
53E2
330
53D1
100
AcDbEntity
  8
AM_0 外形線1
100
AcDbLine
 10
-71.09999999999991
 20
-15.0
 30
0.0
 11
-69.77209500000026
 21
-17.29999999999995
 31
0.0
  0
ARC
  5
53E3
330
53D1
100
AcDbEntity
  8
AM_0 外形線1
100
AcDbCircle
 10
-63.40945499999998
 20
-12.98012700000004
 30
0.0
 40
7.690544999999998
100
AcDbArc
 50
145.8257089999927
 51
214.1742910000072
  0
LINE
  5
53E4
330
53D1
100
AcDbEntity
  8
AM_0 外形線1
100
AcDbLine
 10
-69.77209500000026
 20
-17.29999999999995
 30
0.0
 11
-55.0999999999999
 21
-17.29999999999995
 31
0.0
  0
LINE
  5
53E5
330
53D1
100
AcDbEntity
  8
AM_0 外形線1
100
AcDbLine
 10
-55.0999999999999
 20
-8.660253999999895
 30
0.0
 11
-69.77209500000026
 21
-8.660253999999895
 31
0.0
  0
LINE
  5
53E6
330
53D1
100
AcDbEntity
  8
AM_0 外形線1
100
AcDbLine
 10
-71.09999999999991
 20
10.0
 30
0.0
 11
-76.0
 21
10.0
 31
0.0
  0
LINE
  5
53E7
330
53D1
100
AcDbEntity
  8
AM_4 細線
100
AcDbLine
 10
-71.09999999999991
 20
9.0
 30
0.0
 11
-77.0
 21
9.0
 31
0.0
  0
LINE
  5
53E8
330
53D1
100
AcDbEntity
  8
AM_0 外形線1
100
AcDbLine
 10
-76.0
 20
10.0
 30
0.0
 11
-78.0
 21
8.0
 31
0.0
  0
LINE
  5
53E9
330
53D1
100
AcDbEntity
  8
AM_0 外形線1
100
AcDbLine
 10
-44.73205099999995
 20
10.0
 30
0.0
 11
-50.0
 21
10.0
 31
0.0
  0
LINE
  5
53EA
330
53D1
100
AcDbEntity
  8
AM_0 外形線1
100
AcDbLine
 10
-55.0999999999999
 20
14.0
 30
0.0
 11
-50.0
 21
14.0
 31
0.0
  0
LINE
  5
53EB
330
53D1
100
AcDbEntity
  8
AM_4 細線
100
AcDbLine
 10
-50.0
 20
9.0
 30
0.0
 11
-44.73205099999995
 21
9.0
 31
0.0
  0
LINE
  5
53EC
330
53D1
100
AcDbEntity
  8
AM_0 外形線1
100
AcDbLine
 10
-43.0
 20
11.0
 30
0.0
 11
-44.73205099999995
 21
10.0
 31
0.0
  0
LINE
  5
53ED
330
53D1
100
AcDbEntity
  8
AM_0 外形線1
100
AcDbLine
 10
-50.0
 20
1.700000000000045
 30
0.0
 11
-55.0999999999999
 21
-3.40000000000009
 31
0.0
  0
LINE
  5
53EE
330
53D1
100
AcDbEntity
  8
AM_0 外形線1
100
AcDbLine
 10
-69.77209500000026
 20
17.29999999999995
 30
0.0
 11
-71.09999999999991
 21
15.0
 31
0.0
  0
ARC
  5
53EF
330
53D1
100
AcDbEntity
  8
AM_0 外形線1
100
AcDbCircle
 10
-63.40945499999998
 20
12.98012700000004
 30
0.0
 40
7.690544999999998
100
AcDbArc
 50
145.8257089999927
 51
214.1742910000072
  0
LINE
  5
53F0
330
53D1
100
AcDbEntity
  8
AM_0 外形線1
100
AcDbLine
 10
-55.0999999999999
 20
17.29999999999995
 30
0.0
 11
-69.77209500000026
 21
17.29999999999995
 31
0.0
  0
LINE
  5
53F1
330
53D1
100
AcDbEntity
  8
AM_0 外形線1
100
AcDbLine
 10
-55.0999999999999
 20
8.66025400000012
 30
0.0
 11
-69.77209500000026
 21
8.66025400000012
 31
0.0
  0
LINE
  5
53F2
330
53D1
100
AcDbEntity
  8
AM_0 外形線1
100
AcDbLine
 10
13.0
 20
15.0
 30
0.0
 11
13.0
 21
-15.0
 31
0.0
  0
ARC
  5
53F3
330
53D1
100
AcDbEntity
  8
AM_0 外形線1
100
AcDbCircle
 10
-15.90391199999976
 20
0.0
 30
0.0
 40
28.903912
100
AcDbArc
 50
342.5650859999988
 51
17.43491400000122
  0
LINE
  5
53F4
330
53D1
100
AcDbEntity
  8
AM_0 外形線1
100
AcDbLine
 10
-2.5
 20
-11.0
 30
0.0
 11
-2.5
 21
11.0
 31
0.0
  0
LINE
  5
53F5
330
53D1
100
AcDbEntity
  8
AM_0 外形線1
100
AcDbLine
 10
13.0
 20
-15.0
 30
0.0
 11
11.67209400000001
 21
-17.29999999999995
 31
0.0
  0
LINE
  5
53F6
330
53D1
100
AcDbEntity
  8
AM_0 外形線1
100
AcDbLine
 10
11.67209400000001
 20
-17.29999999999995
 30
0.0
 11
0.0
 21
-17.29999999999995
 31
0.0
  0
LINE
  5
53F7
330
53D1
100
AcDbEntity
  8
AM_0 外形線1
100
AcDbLine
 10
0.0
 20
-8.660253999999895
 30
0.0
 11
11.67209400000001
 21
-8.660253999999895
 31
0.0
  0
ARC
  5
53F8
330
53D1
100
AcDbEntity
  8
AM_0 外形線1
100
AcDbCircle
 10
5.309455000000069
 20
-12.98012700000004
 30
0.0
 40
7.690544999999998
100
AcDbArc
 50
325.8257089999927
 51
34.17429100000724
  0
ARC
  5
53F9
330
53D1
100
AcDbEntity
  8
AM_0 外形線1
100
AcDbCircle
 10
-1.0
 20
-11.0
 30
0.0
 40
1.0
100
AcDbArc
 50
0.0
 51
90.0
  0
LINE
  5
53FA
330
53D1
100
AcDbEntity
  8
AM_0 外形線1
100
AcDbLine
 10
-1.0
 20
-10.0
 30
0.0
 11
-1.5
 21
-10.0
 31
0.0
  0
ARC
  5
53FB
330
53D1
100
AcDbEntity
  8
AM_0 外形線1
100
AcDbCircle
 10
-1.5
 20
-11.0
 30
0.0
 40
1.0
100
AcDbArc
 50
90.0
 51
180.0
  0
LINE
  5
53FC
330
53D1
100
AcDbEntity
  8
AM_0 外形線1
100
AcDbLine
 10
0.0
 20
17.29999999999995
 30
0.0
 11
11.67209400000001
 21
17.29999999999995
 31
0.0
  0
LINE
  5
53FD
330
53D1
100
AcDbEntity
  8
AM_0 外形線1
100
AcDbLine
 10
11.67209400000001
 20
17.29999999999995
 30
0.0
 11
13.0
 21
15.0
 31
0.0
  0
LINE
  5
53FE
330
53D1
100
AcDbEntity
  8
AM_0 外形線1
100
AcDbLine
 10
0.0
 20
8.66025400000012
 30
0.0
 11
11.67209400000001
 21
8.66025400000012
 31
0.0
  0
ARC
  5
53FF
330
53D1
100
AcDbEntity
  8
AM_0 外形線1
100
AcDbCircle
 10
5.309455000000069
 20
12.98012700000004
 30
0.0
 40
7.690544999999998
100
AcDbArc
 50
325.8257089999927
 51
34.17429100000724
  0
ARC
  5
5400
330
53D1
100
AcDbEntity
  8
AM_0 外形線1
100
AcDbCircle
 10
-1.0
 20
11.0
 30
0.0
 40
1.0
100
AcDbArc
 50
270.0
 51
0.0
  0
LINE
  5
5401
330
53D1
100
AcDbEntity
  8
AM_0 外形線1
100
AcDbLine
 10
-1.0
 20
10.0
 30
0.0
 11
-1.5
 21
10.0
 31
0.0
  0
ARC
  5
5402
330
53D1
100
AcDbEntity
  8
AM_0 外形線1
100
AcDbCircle
 10
-1.5
 20
11.0
 30
0.0
 40
1.0
100
AcDbArc
 50
180.0
 51
270.0
  0
LINE
  5
543B
330
53D1
100
AcDbEntity
  8
AM_0 外形線1
100
AcDbLine
 10
-50.0
 20
3.40000000000009
 30
0.0
 11
-55.0999999999999
 21
-1.700000000000045
 31
0.0
  0
LINE
  5
546B
330
53D1
100
AcDbEntity
  8
AM_0 外形線1
100
AcDbLine
 10
-43.0
 20
11.0
 30
0.0
 11
-2.5
 21
11.0
 31
0.0
  0
LINE
  5
546C
330
53D1
100
AcDbEntity
  8
AM_0 外形線1
100
AcDbLine
 10
-43.00000000000022
 20
-10.99999999999977
 30
0.0
 11
-2.500000000000226
 21
-11.00000000000068
 31
0.0
  0
LINE
  5
546D
330
53D1
100
AcDbEntity
  8
AM_0 外形線1
100
AcDbLine
 10
0.0
 20
17.29999999999995
 30
0.0
 11
0.0
 21
-17.29999999999995
 31
0.0
  0
LINE
  5
546E
330
53D1
100
AcDbEntity
  8
AM_0 外形線1
100
AcDbLine
 10
-50.0
 20
14.0
 30
0.0
 11
-50.0
 21
-14.0
 31
0.0
  0
ENDBLK
  5
53D3
330
53D1
100
AcDbEntity
  8
0
100
AcDbBlockEnd
  0
BLOCK
  5
552B
330
552A
100
AcDbEntity
  8
0
100
AcDbBlockBegin
  2
ＧＣサイドカバ－ CEMH450
 70
     0
 10
0.0
 20
0.0
 30
0.0
  3
ＧＣサイドカバ－ CEMH450
  1

  0
LINE
  5
552D
330
552A
100
AcDbEntity
  8
AM_0 外形線1
100
AcDbLine
 10
20.0
 20
-173.0
 30
0.0
 11
20.0
 21
0.0
 31
0.0
  0
ARC
  5
552E
330
552A
100
AcDbEntity
  8
AM_0 外形線1
100
AcDbCircle
 10
25.90000000000009
 20
167.638784
 30
0.0
 40
3.6
100
AcDbArc
 50
317.3560800000028
 51
40.98742100000436
  0
LINE
  5
552F
330
552A
100
AcDbEntity
  8
AM_0 外形線1
100
AcDbLine
 10
20.0
 20
186.0
 30
0.0
 11
20.0
 21
161.5665019999999
 31
0.0
  0
LINE
  5
5530
330
552A
100
AcDbEntity
  8
AM_0 外形線1
100
AcDbLine
 10
22.5
 20
184.7999999999999
 30
0.0
 11
22.5
 21
165.2
 31
0.0
  0
LINE
  5
5531
330
552A
100
AcDbEntity
  8
AM_0 外形線1
100
AcDbLine
 10
29.49979100000019
 20
183.4895470000001
 30
0.0
 11
29.49979100000019
 21
166.5104529999998
 31
0.0
  0
LINE
  5
5532
330
552A
100
AcDbEntity
  8
AM_0 外形線1
100
AcDbLine
 10
22.5
 20
166.5
 30
0.0
 11
20.0
 21
166.5
 31
0.0
  0
LINE
  5
5533
330
552A
100
AcDbEntity
  8
AM_0 外形線1
100
AcDbLine
 10
22.5
 20
165.2
 30
0.0
 11
28.54808000000004
 21
165.2
 31
0.0
  0
LINE
  5
5534
330
552A
100
AcDbEntity
  8
AM_0 外形線1
100
AcDbLine
 10
29.49979100000019
 20
166.5104529999998
 30
0.0
 11
28.61747300000025
 21
165.2
 31
0.0
  0
LINE
  5
5535
330
552A
100
AcDbEntity
  8
AM_0 外形線1
100
AcDbLine
 10
0.0000000000002274
 20
161.4999999999997
 30
0.0
 11
7.100000000000362
 21
161.5
 31
0.0
  0
LINE
  5
5536
330
552A
100
AcDbEntity
  8
AM_0 外形線1
100
AcDbLine
 10
7.100000000000362
 20
161.5
 30
0.0
 11
7.100000000000362
 21
166.7999999999999
 31
0.0
  0
LINE
  5
5537
330
552A
100
AcDbEntity
  8
AM_0 外形線1
100
AcDbLine
 10
7.100000000000362
 20
166.7999999999999
 30
0.0
 11
4.0
 21
166.7999999999999
 31
0.0
  0
LWPOLYLINE
  5
5538
330
552A
100
AcDbEntity
  8
AM_0 外形線1
100
AcDbPolyline
 90
       73
 70
     0
 43
0.0
 10
5.550000000000181
 20
161.5
 10
5.685091000000284
 20
161.510084
 10
5.819154000000252
 20
161.5402590000001
 10
5.951168999999937
 20
161.590296
 10
6.080131000000164
 20
161.6598140000001
 10
6.205058000000008
 20
161.748284
 10
6.325000000000272
 20
161.855033
 10
6.439043000000309
 20
161.979247
 10
6.546320000000378
 20
162.1199819999999
 10
6.646015000000262
 20
162.276167
 10
6.737368000000059
 20
162.446613
 10
6.819684999999934
 20
162.630022
 10
6.892338999999991
 20
162.825
 10
6.95477699999992
 20
163.0300619999998
 10
7.006523000000014
 20
163.243647
 10
7.047185000000354
 20
163.4641290000002
 10
7.076452000000243
 20
163.689832
 10
7.094101000000136
 20
163.9190369999999
 10
7.100000000000362
 20
164.1500000000001
 10
7.094101000000136
 20
164.3809629999999
 10
7.076452000000243
 20
164.6101679999999
 10
7.047185000000354
 20
164.8358699999999
 10
7.006523000000014
 20
165.0563529999999
 10
6.95477699999992
 20
165.2699380000001
 10
6.892338999999991
 20
165.4749999999999
 10
6.819684999999934
 20
165.669977
 10
6.737368000000059
 20
165.8533869999999
 10
6.646015000000262
 20
166.0238329999999
 10
6.546320000000378
 20
166.180018
 10
6.439043000000309
 20
166.320753
 10
6.325000000000272
 20
166.4449669999999
 10
6.205058000000008
 20
166.5517159999999
 10
6.080131000000164
 20
166.6401849999999
 10
5.951168999999937
 20
166.709703
 10
5.819154000000252
 20
166.75974
 10
5.685091000000284
 20
166.7899159999999
 10
5.550000000000181
 20
166.7999999999999
 10
5.414908000000195
 20
166.7899159999999
 10
5.280845000000226
 20
166.75974
 10
5.148830000000089
 20
166.709703
 10
5.019868000000315
 20
166.6401849999999
 10
4.894941000000017
 20
166.5517159999999
 10
4.77500000000009
 20
166.4449669999999
 10
4.660956000000168
 20
166.320753
 10
4.553679000000101
 20
166.180018
 10
4.453984000000217
 20
166.0238329999999
 10
4.362630999999963
 20
165.8533869999999
 10
4.280314000000088
 20
165.669977
 10
4.207660000000031
 20
165.4749999999999
 10
4.145222999999987
 20
165.2699380000001
 10
4.093476000000008
 20
165.0563529999999
 10
4.052815000000008
 20
164.8358699999999
 10
4.023548000000118
 20
164.6101679999999
 10
4.005898000000343
 20
164.3809629999999
 10
4.0
 20
164.1500000000001
 10
4.005898000000343
 20
163.9190369999999
 10
4.023548000000118
 20
163.689832
 10
4.052815000000008
 20
163.4641290000002
 10
4.093476000000008
 20
163.243647
 10
4.145222999999987
 20
163.0300619999998
 10
4.207660000000031
 20
162.825
 10
4.280314000000088
 20
162.630022
 10
4.362630999999963
 20
162.446613
 10
4.453984000000217
 20
162.276167
 10
4.553679000000101
 20
162.1199819999999
 10
4.660956000000168
 20
161.979247
 10
4.77500000000009
 20
161.855033
 10
4.894941000000017
 20
161.748284
 10
5.019868000000315
 20
161.6598140000001
 10
5.148830000000089
 20
161.590296
 10
5.280845000000226
 20
161.5402590000001
 10
5.414908000000195
 20
161.510084
 10
5.550000000000181
 20
161.5
  0
LINE
  5
5539
330
552A
100
AcDbEntity
  8
AM_0 外形線1
100
AcDbLine
 10
15.60000000000036
 20
152.0499999999999
 30
0.0
 11
4.40000000000009
 21
152.0499999999999
 31
0.0
  0
LINE
  5
553A
330
552A
100
AcDbEntity
  8
AM_0 外形線1
100
AcDbLine
 10
20.0
 20
146.5
 30
0.0
 11
20.0
 21
145.0
 31
0.0
  0
LINE
  5
553B
330
552A
100
AcDbEntity
  8
AM_0 外形線1
100
AcDbLine
 10
15.60000000000036
 20
146.5
 30
0.0
 11
15.60000000000036
 21
145.0
 31
0.0
  0
LINE
  5
553C
330
552A
100
AcDbEntity
  8
AM_0 外形線1
100
AcDbLine
 10
20.0
 20
146.5
 30
0.0
 11
15.60000000000036
 21
146.5
 31
0.0
  0
LINE
  5
553D
330
552A
100
AcDbEntity
  8
AM_0 外形線1
100
AcDbLine
 10
4.40000000000009
 20
146.5
 30
0.0
 11
4.40000000000009
 21
145.0
 31
0.0
  0
LINE
  5
553E
330
552A
100
AcDbEntity
  8
AM_0 外形線1
100
AcDbLine
 10
0.0
 20
146.5
 30
0.0
 11
0.0
 21
145.0
 31
0.0
  0
LINE
  5
553F
330
552A
100
AcDbEntity
  8
AM_0 外形線1
100
AcDbLine
 10
4.40000000000009
 20
146.5
 30
0.0
 11
0.0
 21
146.5
 31
0.0
  0
LINE
  5
5540
330
552A
100
AcDbEntity
  8
AM_0 外形線1
100
AcDbLine
 10
20.0
 20
161.5665019999999
 30
0.0
 11
20.0
 21
146.5
 31
0.0
  0
LINE
  5
5541
330
552A
100
AcDbEntity
  8
AM_0 外形線1
100
AcDbLine
 10
15.60000000000036
 20
146.5
 30
0.0
 11
15.60000000000036
 21
152.0499999999999
 31
0.0
  0
LINE
  5
5542
330
552A
100
AcDbEntity
  8
AM_0 外形線1
100
AcDbLine
 10
4.40000000000009
 20
152.0499999999999
 30
0.0
 11
4.40000000000009
 21
146.5
 31
0.0
  0
LINE
  5
5543
330
552A
100
AcDbEntity
  8
AM_0 外形線1
100
AcDbLine
 10
0.0
 20
146.5
 30
0.0
 11
0.0
 21
161.5
 31
0.0
  0
LWPOLYLINE
  5
5544
330
552A
100
AcDbEntity
  8
AM_0 外形線1
100
AcDbPolyline
 90
       73
 70
     0
 43
0.0
 10
4.40000000000009
 20
148.5250000000001
 10
4.421309000000292
 20
148.2177759999999
 10
4.485075999999934
 20
147.91289
 10
4.590815000000019
 20
147.6126630000001
 10
4.737720999999963
 20
147.319379
 10
4.92467600000009
 20
147.0352710000002
 10
5.150257000000237
 20
146.7625
 10
5.412748000000191
 20
146.5031429999999
 10
5.710151000000222
 20
146.259174
 10
6.040202000000134
 20
146.032449
 10
6.400388999999903
 20
145.824693
 10
6.78797200000008
 20
145.6374889999999
 10
7.200000000000272
 20
145.47226
 10
7.633337000000209
 20
145.330265
 10
8.084687000000029
 20
145.212583
 10
8.550613000000337
 20
145.1201109999999
 10
9.027570000000196
 20
145.0535529999999
 10
9.511927000000012
 20
145.013414
 10
10.0
 20
145.0
 10
10.4880720000001
 20
145.013414
 10
10.97242900000037
 20
145.0535529999999
 10
11.44938600000023
 20
145.1201109999999
 10
11.91531200000008
 20
145.212583
 10
12.36666200000036
 20
145.330265
 10
12.80000000000018
 20
145.47226
 10
13.21202799999992
 20
145.6374889999999
 10
13.59961000000021
 20
145.824693
 10
13.95979799999986
 20
146.032449
 10
14.28984799999989
 20
146.259174
 10
14.58725099999992
 20
146.5031429999999
 10
14.84974200000033
 20
146.7625
 10
15.07532300000002
 20
147.0352710000002
 10
15.26227800000015
 20
147.319379
 10
15.40918400000009
 20
147.6126630000001
 10
15.51492300000018
 20
147.91289
 10
15.57869000000028
 20
148.2177759999999
 10
15.60000000000036
 20
148.5250000000001
 10
15.57869000000028
 20
148.832224
 10
15.51492300000018
 20
149.1371099999999
 10
15.40918400000009
 20
149.4373369999998
 10
15.26227800000015
 20
149.7306210000001
 10
15.07532300000002
 20
150.0147290000002
 10
14.84974200000033
 20
150.2874999999999
 10
14.58725099999992
 20
150.546857
 10
14.28984799999989
 20
150.7908259999999
 10
13.95979799999986
 20
151.0175509999999
 10
13.59961000000021
 20
151.2253069999999
 10
13.21202799999992
 20
151.412511
 10
12.80000000000018
 20
151.577739
 10
12.36666200000036
 20
151.7197349999999
 10
11.91531200000008
 20
151.837416
 10
11.44938600000023
 20
151.9298880000001
 10
10.97242900000037
 20
151.996447
 10
10.4880720000001
 20
152.0365859999999
 10
10.0
 20
152.0499999999999
 10
9.511927000000012
 20
152.0365859999999
 10
9.027570000000196
 20
151.996447
 10
8.550613000000337
 20
151.9298880000001
 10
8.084687000000029
 20
151.837416
 10
7.633337000000209
 20
151.7197349999999
 10
7.200000000000272
 20
151.577739
 10
6.78797200000008
 20
151.412511
 10
6.400388999999903
 20
151.2253069999999
 10
6.040202000000134
 20
151.0175509999999
 10
5.710151000000222
 20
150.7908259999999
 10
5.412748000000191
 20
150.546857
 10
5.150257000000237
 20
150.2874999999999
 10
4.92467600000009
 20
150.0147290000002
 10
4.737720999999963
 20
149.7306210000001
 10
4.590815000000019
 20
149.4373369999998
 10
4.485075999999934
 20
149.1371099999999
 10
4.421309000000292
 20
148.832224
 10
4.40000000000009
 20
148.5250000000001
  0
LINE
  5
5545
330
552A
100
AcDbEntity
  8
AM_4 細線
100
AcDbLine
 10
-12.5
 20
170.0
 30
0.0
 11
20.0
 21
170.0
 31
0.0
  0
LINE
  5
5546
330
552A
100
AcDbEntity
  8
AM_4 細線
100
AcDbLine
 10
-12.5
 20
180.0
 30
0.0
 11
20.0
 21
180.0
 31
0.0
  0
LINE
  5
5547
330
552A
100
AcDbEntity
  8
AM_7 中心線
100
AcDbLine
 10
-20.50134799999978
 20
175.0
 30
0.0
 11
33.81931699999995
 21
175.0
 31
0.0
  0
LINE
  5
5548
330
552A
100
AcDbEntity
  8
AM_0 外形線1
100
AcDbLine
 10
-12.5
 20
179.25
 30
0.0
 11
20.0
 21
179.25
 31
0.0
  0
LINE
  5
5549
330
552A
100
AcDbEntity
  8
AM_0 外形線1
100
AcDbLine
 10
-12.5
 20
170.75
 30
0.0
 11
20.0
 21
170.75
 31
0.0
  0
LINE
  5
554A
330
552A
100
AcDbEntity
  8
AM_0 外形線1
100
AcDbLine
 10
-12.5
 20
179.25
 30
0.0
 11
-16.0
 21
179.25
 31
0.0
  0
LINE
  5
554B
330
552A
100
AcDbEntity
  8
AM_0 外形線1
100
AcDbLine
 10
-18.45373900000003
 20
175.0
 30
0.0
 11
-16.0
 21
170.75
 31
0.0
  0
LINE
  5
554C
330
552A
100
AcDbEntity
  8
AM_0 外形線1
100
AcDbLine
 10
-16.0
 20
170.75
 30
0.0
 11
-12.5
 21
170.75
 31
0.0
  0
LINE
  5
554D
330
552A
100
AcDbEntity
  8
AM_0 外形線1
100
AcDbLine
 10
-12.5
 20
170.75
 30
0.0
 11
-12.5
 21
170.0
 31
0.0
  0
LINE
  5
554E
330
552A
100
AcDbEntity
  8
AM_0 外形線1
100
AcDbLine
 10
-16.0
 20
179.25
 30
0.0
 11
-18.45373900000003
 21
175.0
 31
0.0
  0
LINE
  5
554F
330
552A
100
AcDbEntity
  8
AM_0 外形線1
100
AcDbLine
 10
-12.5
 20
170.75
 30
0.0
 11
-12.5
 21
180.0
 31
0.0
  0
LINE
  5
5550
330
552A
100
AcDbEntity
  8
AM_0 外形線1
100
AcDbLine
 10
-16.0
 20
179.25
 30
0.0
 11
-16.0
 21
170.75
 31
0.0
  0
LINE
  5
5551
330
552A
100
AcDbEntity
  8
AM_0 外形線1
100
AcDbLine
 10
22.5
 20
183.5
 30
0.0
 11
20.0
 21
183.5
 31
0.0
  0
LINE
  5
5552
330
552A
100
AcDbEntity
  8
AM_0 外形線1
100
AcDbLine
 10
22.5
 20
180.0
 30
0.0
 11
28.61747300000025
 21
180.0
 31
0.0
  0
ARC
  5
5553
330
552A
100
AcDbEntity
  8
AM_0 外形線1
100
AcDbCircle
 10
25.90000000000009
 20
182.361216
 30
0.0
 40
3.6
100
AcDbArc
 50
319.0125789999957
 51
42.64391999999722
  0
LINE
  5
5554
330
552A
100
AcDbEntity
  8
AM_0 外形線1
100
AcDbLine
 10
28.61747300000025
 20
184.7999999999999
 30
0.0
 11
22.5
 21
184.7999999999999
 31
0.0
  0
LINE
  5
5555
330
552A
100
AcDbEntity
  8
AM_0 外形線1
100
AcDbLine
 10
29.49979100000019
 20
183.4895470000001
 30
0.0
 11
28.61747300000025
 21
184.7999999999999
 31
0.0
  0
LINE
  5
5556
330
552A
100
AcDbEntity
  8
AM_0 外形線1
100
AcDbLine
 10
4.0
 20
186.0
 30
0.0
 11
20.0
 21
186.0
 31
0.0
  0
LINE
  5
5557
330
552A
100
AcDbEntity
  8
AM_0 外形線1
100
AcDbLine
 10
20.0
 20
180.5
 30
0.0
 11
4.0
 21
180.5
 31
0.0
  0
LINE
  5
5558
330
552A
100
AcDbEntity
  8
AM_0 外形線1
100
AcDbLine
 10
28.61747300000025
 20
170.0
 30
0.0
 11
22.5
 21
170.0
 31
0.0
  0
LINE
  5
5559
330
552A
100
AcDbEntity
  8
AM_0 外形線1
100
AcDbLine
 10
22.5
 20
177.25
 30
0.0
 11
20.0
 21
174.75
 31
0.0
  0
LINE
  5
555A
330
552A
100
AcDbEntity
  8
AM_0 外形線1
100
AcDbLine
 10
22.5
 20
175.25
 30
0.0
 11
20.0
 21
172.75
 31
0.0
  0
LINE
  5
555B
330
552A
100
AcDbEntity
  8
AM_0 外形線1
100
AcDbLine
 10
20.0
 20
169.5
 30
0.0
 11
4.0
 21
169.5
 31
0.0
  0
ARC
  5
555C
330
552A
100
AcDbEntity
  8
AM_0 外形線1
100
AcDbCircle
 10
14.89486399999987
 20
175.0
 30
0.0
 40
14.605136
100
AcDbArc
 50
339.9801710000019
 51
20.01982899999803
  0
LINE
  5
555D
330
552A
100
AcDbEntity
  8
AM_0 外形線1
100
AcDbLine
 10
20.0
 20
-186.0
 30
0.0
 11
20.0
 21
-173.0
 31
0.0
  0
LINE
  5
555E
330
552A
100
AcDbEntity
  8
AM_0 外形線1
100
AcDbLine
 10
11.34262399999989
 20
-186.0
 30
0.0
 11
20.0
 21
-186.0
 31
0.0
  0
LINE
  5
55F4
330
552A
100
AcDbEntity
  8
AM_0 外形線1
100
AcDbLine
 10
11.34262399999989
 20
-186.0
 30
0.0
 11
0.0
 21
-186.0
 31
0.0
  0
LINE
  5
55F5
330
552A
100
AcDbEntity
  8
AM_0 外形線1
100
AcDbLine
 10
0.0
 20
-186.0
 30
0.0
 11
0.0
 21
0.0
 31
0.0
  0
LINE
  5
55F6
330
552A
100
AcDbEntity
  8
AM_0 外形線1
100
AcDbLine
 10
4.0
 20
186.0
 30
0.0
 11
4.0
 21
180.0
 31
0.0
  0
LINE
  5
55F7
330
552A
100
AcDbEntity
  8
AM_0 外形線1
100
AcDbLine
 10
4.0
 20
166.7999999999999
 30
0.0
 11
4.0
 21
170.0
 31
0.0
  0
LINE
  5
55F8
330
552A
100
AcDbEntity
  8
AM_7 中心線
100
AcDbLine
 10
-15.66790136237796
 20
-174.999999999999
 30
0.0
 11
26.629657622374
 21
-174.9999999999972
 31
0.0
  0
ENDBLK
  5
552C
330
552A
100
AcDbEntity
  8
0
100
AcDbBlockEnd
  0
BLOCK
  5
5973
330
5972
100
AcDbEntity
  8
0
100
AcDbBlockBegin
  2
*D11
 70
     1
 10
0.0
 20
0.0
 30
0.0
  3
*D11
  1

  0
LINE
  5
6DDC
330
5972
100
AcDbEntity
  8
AM_5 寸法線
 62
     3
100
AcDbLine
 10
785.6743330926092
 20
1190.65269508551
 30
0.0
 11
679.6743330926092
 21
1190.65269508551
 31
0.0
  0
LINE
  5
6DDD
330
5972
100
AcDbEntity
  8
AM_5 寸法線
 62
     3
100
AcDbLine
 10
785.6743330926092
 20
870.6526950855097
 30
0.0
 11
679.6743330926092
 21
870.6526950855099
 31
0.0
  0
LINE
  5
6DDE
330
5972
100
AcDbEntity
  8
AM_5 寸法線
 62
     3
100
AcDbLine
 10
682.7993330926092
 20
1178.152695085509
 30
0.0
 11
682.7993330926092
 21
883.1526950855099
 31
0.0
  0
INSERT
  5
6DDF
330
5972
100
AcDbEntity
  8
AM_5 寸法線
 62
     3
100
AcDbBlockReference
  2
_Open30
 10
682.7993330926092
 20
1190.65269508551
 30
0.0
 41
12.5
 42
12.5
 43
12.5
 50
90.0
  0
INSERT
  5
6DE0
330
5972
100
AcDbEntity
  8
AM_5 寸法線
 62
     3
100
AcDbBlockReference
  2
_Open30
 10
682.7993330926092
 20
870.6526950855099
 30
0.0
 41
12.5
 42
12.5
 43
12.5
 50
270.0
  0
MTEXT
  5
6DE1
330
5972
100
AcDbEntity
  8
AM_5 寸法線
 62
     3
100
AcDbMText
 10
666.5493330926091
 20
1030.65269508551
 30
0.0
 40
17.5
 41
0.0
 46
0.0
 71
     5
 72
     1
  1
%%c320
  7
SEISA
 11
0.0000000000000001
 21
1.0
 31
0.0
 73
     1
 44
1.0
  0
POINT
  5
6DE2
330
5972
100
AcDbEntity
  8
Defpoints
 62
     0
100
AcDbPoint
 10
788.7993330926092
 20
1190.65269508551
 30
0.0
  0
POINT
  5
6DE3
330
5972
100
AcDbEntity
  8
Defpoints
 62
     0
100
AcDbPoint
 10
788.7993330926092
 20
870.6526950855097
 30
0.0
  0
POINT
  5
6DE4
330
5972
100
AcDbEntity
  8
Defpoints
 62
     0
100
AcDbPoint
 10
682.7993330926092
 20
870.6526950855099
 30
0.0
  0
ENDBLK
  5
5974
330
5972
100
AcDbEntity
  8
0
100
AcDbBlockEnd
  0
BLOCK
  5
59C1
330
59C0
100
AcDbEntity
  8
0
100
AcDbBlockBegin
  2
*D12
 70
     1
 10
0.0
 20
0.0
 30
0.0
  3
*D12
  1

  0
LINE
  5
6DE5
330
59C0
100
AcDbEntity
  8
AM_5 寸法線
 62
     3
100
AcDbLine
 10
982.7993330926092
 20
1033.777695085509
 30
0.0
 11
982.7993330926092
 21
1073.77769508551
 31
0.0
  0
LINE
  5
6DE6
330
59C0
100
AcDbEntity
  8
AM_5 寸法線
 62
     3
100
AcDbLine
 10
782.7993330926092
 20
1033.777695085509
 30
0.0
 11
782.7993330926092
 21
1073.77769508551
 31
0.0
  0
LINE
  5
6DE7
330
59C0
100
AcDbEntity
  8
AM_5 寸法線
 62
     3
100
AcDbLine
 10
970.2993330926092
 20
1070.652695085509
 30
0.0
 11
795.2993330926092
 21
1070.652695085509
 31
0.0
  0
INSERT
  5
6DE8
330
59C0
100
AcDbEntity
  8
AM_5 寸法線
 62
     3
100
AcDbBlockReference
  2
_Open30
 10
982.7993330926092
 20
1070.652695085509
 30
0.0
 41
12.5
 42
12.5
 43
12.5
  0
INSERT
  5
6DE9
330
59C0
100
AcDbEntity
  8
AM_5 寸法線
 62
     3
100
AcDbBlockReference
  2
_Open30
 10
782.7993330926092
 20
1070.652695085509
 30
0.0
 41
12.5
 42
12.5
 43
12.5
 50
180.0
  0
MTEXT
  5
6DEA
330
59C0
100
AcDbEntity
  8
AM_5 寸法線
 62
     3
100
AcDbMText
 10
882.7993330926092
 20
1086.90269508551
 30
0.0
 40
17.5
 41
0.0
 46
0.0
 71
     5
 72
     1
  1
200
  7
SEISA
 73
     1
 44
1.0
  0
POINT
  5
6DEB
330
59C0
100
AcDbEntity
  8
Defpoints
 62
     0
100
AcDbPoint
 10
982.7993330926092
 20
1030.652695085509
 30
0.0
  0
POINT
  5
6DEC
330
59C0
100
AcDbEntity
  8
Defpoints
 62
     0
100
AcDbPoint
 10
782.7993330926092
 20
1030.652695085509
 30
0.0
  0
POINT
  5
6DED
330
59C0
100
AcDbEntity
  8
Defpoints
 62
     0
100
AcDbPoint
 10
782.7993330926092
 20
1070.652695085509
 30
0.0
  0
ENDBLK
  5
59C2
330
59C0
100
AcDbEntity
  8
0
100
AcDbBlockEnd
  0
BLOCK
  5
59D9
330
59D8
100
AcDbEntity
  8
0
100
AcDbBlockBegin
  2
*D13
 70
     1
 10
0.0
 20
0.0
 30
0.0
  3
*D13
  1

  0
LINE
  5
6DEE
330
59D8
100
AcDbEntity
  8
AM_5 寸法線
 62
     3
100
AcDbLine
 10
1000.799333092609
 20
1033.777695085509
 30
0.0
 11
1000.799333092609
 21
1073.77769508551
 31
0.0
  0
LINE
  5
6DEF
330
59D8
100
AcDbEntity
  8
AM_5 寸法線
 62
     3
100
AcDbLine
 10
982.7993330926092
 20
1033.777695085509
 30
0.0
 11
982.7993330926092
 21
1073.77769508551
 31
0.0
  0
LINE
  5
6DF0
330
59D8
100
AcDbEntity
  8
AM_5 寸法線
 62
     3
100
AcDbLine
 10
1013.299333092609
 20
1070.652695085509
 30
0.0
 11
1025.799333092609
 21
1070.652695085509
 31
0.0
  0
LINE
  5
6DF1
330
59D8
100
AcDbEntity
  8
AM_5 寸法線
 62
     3
100
AcDbLine
 10
970.2993330926092
 20
1070.652695085509
 30
0.0
 11
957.7993330926092
 21
1070.652695085509
 31
0.0
  0
MTEXT
  5
6DF2
330
59D8
100
AcDbEntity
  8
AM_5 寸法線
 62
     3
100
AcDbMText
 10
1026.464314529781
 20
1086.261928403501
 30
0.0
 40
17.5
 41
0.0
 46
0.0
 71
     5
 72
     1
  1
18
  7
SEISA
 73
     1
 44
1.0
  0
LINE
  5
6DF3
330
59D8
100
AcDbEntity
  8
AM_5 寸法線
 62
     3
100
AcDbLine
 10
1000.799333092609
 20
1070.652695085509
 30
0.0
 11
982.7993330926092
 21
1070.652695085509
 31
0.0
  0
INSERT
  5
6DF4
330
59D8
100
AcDbEntity
  8
AM_5 寸法線
 62
     3
100
AcDbBlockReference
  2
_Open30
 10
1000.799333092609
 20
1070.652695085509
 30
0.0
 41
12.5
 42
12.5
 43
12.5
 50
180.0
  0
INSERT
  5
6DF5
330
59D8
100
AcDbEntity
  8
AM_5 寸法線
 62
     3
100
AcDbBlockReference
  2
_Open30
 10
982.7993330926092
 20
1070.652695085509
 30
0.0
 41
12.5
 42
12.5
 43
12.5
  0
POINT
  5
6DF6
330
59D8
100
AcDbEntity
  8
Defpoints
 62
     0
100
AcDbPoint
 10
1000.799333092609
 20
1030.652695085509
 30
0.0
  0
POINT
  5
6DF7
330
59D8
100
AcDbEntity
  8
Defpoints
 62
     0
100
AcDbPoint
 10
982.7993330926092
 20
1030.652695085509
 30
0.0
  0
POINT
  5
6DF8
330
59D8
100
AcDbEntity
  8
Defpoints
 62
     0
100
AcDbPoint
 10
982.7993330926092
 20
1070.652695085509
 30
0.0
  0
ENDBLK
  5
59DA
330
59D8
100
AcDbEntity
  8
0
100
AcDbBlockEnd
  0
BLOCK
  5
5A0B
330
5A0A
100
AcDbEntity
  8
0
100
AcDbBlockBegin
  2
*D14
 70
     1
 10
0.0
 20
0.0
 30
0.0
  3
*D14
  1

  0
LINE
  5
6DF9
330
5A0A
100
AcDbEntity
  8
AM_5 寸法線
 62
     3
100
AcDbLine
 10
1000.799333092609
 20
1033.777695085509
 30
0.0
 11
1000.799333092609
 21
1073.77769508551
 31
0.0
  0
LINE
  5
6DFA
330
5A0A
100
AcDbEntity
  8
AM_5 寸法線
 62
     3
100
AcDbLine
 10
1200.799333092609
 20
1033.777695085509
 30
0.0
 11
1200.799333092609
 21
1073.77769508551
 31
0.0
  0
LINE
  5
6DFB
330
5A0A
100
AcDbEntity
  8
AM_5 寸法線
 62
     3
100
AcDbLine
 10
1013.299333092609
 20
1070.652695085509
 30
0.0
 11
1188.299333092609
 21
1070.652695085509
 31
0.0
  0
INSERT
  5
6DFC
330
5A0A
100
AcDbEntity
  8
AM_5 寸法線
 62
     3
100
AcDbBlockReference
  2
_Open30
 10
1000.799333092609
 20
1070.652695085509
 30
0.0
 41
12.5
 42
12.5
 43
12.5
 50
180.0
  0
INSERT
  5
6DFD
330
5A0A
100
AcDbEntity
  8
AM_5 寸法線
 62
     3
100
AcDbBlockReference
  2
_Open30
 10
1200.799333092609
 20
1070.652695085509
 30
0.0
 41
12.5
 42
12.5
 43
12.5
  0
MTEXT
  5
6DFE
330
5A0A
100
AcDbEntity
  8
AM_5 寸法線
 62
     3
100
AcDbMText
 10
1100.799333092609
 20
1086.90269508551
 30
0.0
 40
17.5
 41
0.0
 46
0.0
 71
     5
 72
     1
  1
200
  7
SEISA
 73
     1
 44
1.0
  0
POINT
  5
6DFF
330
5A0A
100
AcDbEntity
  8
Defpoints
 62
     0
100
AcDbPoint
 10
1000.799333092609
 20
1030.652695085509
 30
0.0
  0
POINT
  5
6E00
330
5A0A
100
AcDbEntity
  8
Defpoints
 62
     0
100
AcDbPoint
 10
1200.799333092609
 20
1030.652695085509
 30
0.0
  0
POINT
  5
6E01
330
5A0A
100
AcDbEntity
  8
Defpoints
 62
     0
100
AcDbPoint
 10
1200.799333092609
 20
1070.652695085509
 30
0.0
  0
ENDBLK
  5
5A0C
330
5A0A
100
AcDbEntity
  8
0
100
AcDbBlockEnd
  0
BLOCK
  5
5A53
330
5A52
100
AcDbEntity
  8
0
100
AcDbBlockBegin
  2
*D15
 70
     1
 10
0.0
 20
0.0
 30
0.0
  3
*D15
  1

  0
LINE
  5
6E02
330
5A52
100
AcDbEntity
  8
AM_5 寸法線
 62
     3
100
AcDbLine
 10
1122.799333092609
 20
1172.52769508551
 30
0.0
 11
1122.799333092609
 21
1136.771137717335
 31
0.0
  0
LINE
  5
6E03
330
5A52
100
AcDbEntity
  8
AM_5 寸法線
 62
     3
100
AcDbLine
 10
1117.799333092609
 20
1173.02769508551
 30
0.0
 11
1117.799333092609
 21
1136.771137717335
 31
0.0
  0
LINE
  5
6E04
330
5A52
100
AcDbEntity
  8
AM_5 寸法線
 62
     3
100
AcDbLine
 10
1105.299333092609
 20
1139.896137717335
 30
0.0
 11
1092.799333092609
 21
1139.896137717335
 31
0.0
  0
LINE
  5
6E05
330
5A52
100
AcDbEntity
  8
AM_5 寸法線
 62
     3
100
AcDbLine
 10
1135.299333092609
 20
1139.896137717335
 30
0.0
 11
1173.299333092609
 21
1139.896137717335
 31
0.0
  0
LINE
  5
6E06
330
5A52
100
AcDbEntity
  8
AM_5 寸法線
 62
     3
100
AcDbLine
 10
1117.799333092609
 20
1139.896137717335
 30
0.0
 11
1122.799333092609
 21
1139.896137717335
 31
0.0
  0
INSERT
  5
6E07
330
5A52
100
AcDbEntity
  8
AM_5 寸法線
 62
     3
100
AcDbBlockReference
  2
_Open30
 10
1117.799333092609
 20
1139.896137717335
 30
0.0
 41
12.5
 42
12.5
 43
12.5
  0
INSERT
  5
6E08
330
5A52
100
AcDbEntity
  8
AM_5 寸法線
 62
     3
100
AcDbBlockReference
  2
_Open30
 10
1122.799333092609
 20
1139.896137717335
 30
0.0
 41
12.5
 42
12.5
 43
12.5
 50
180.0
  0
MTEXT
  5
6E09
330
5A52
100
AcDbEntity
  8
AM_5 寸法線
 62
     3
100
AcDbMText
 10
1160.549333092609
 20
1156.146137717335
 30
0.0
 40
17.5
 41
0.0
 46
0.0
 71
     5
 72
     1
  1
5
  7
SEISA
 73
     1
 44
1.0
  0
POINT
  5
6E0A
330
5A52
100
AcDbEntity
  8
Defpoints
 62
     0
100
AcDbPoint
 10
1122.799333092609
 20
1175.65269508551
 30
0.0
  0
POINT
  5
6E0B
102
{ACAD_REACTORS
330
7029
102
}
330
5A52
100
AcDbEntity
  8
Defpoints
 62
     0
100
AcDbPoint
 10
1117.799333092609
 20
1176.15269508551
 30
0.0
  0
POINT
  5
6E0C
330
5A52
100
AcDbEntity
  8
Defpoints
 62
     0
100
AcDbPoint
 10
1117.799333092609
 20
1139.896137717335
 30
0.0
  0
ENDBLK
  5
5A54
330
5A52
100
AcDbEntity
  8
0
100
AcDbBlockEnd
  0
BLOCK
  5
5AFD
330
5AFC
100
AcDbEntity
  8
0
100
AcDbBlockBegin
  2
*D16
 70
     1
 10
0.0
 20
0.0
 30
0.0
  3
*D16
  1

  0
LINE
  5
6E14
330
5AFC
100
AcDbEntity
  8
AM_5 寸法線
 62
     3
100
AcDbLine
 10
1163.924333092609
 20
1175.65269508551
 30
0.0
 11
1303.924333092609
 21
1175.65269508551
 31
0.0
  0
LINE
  5
6E15
330
5AFC
100
AcDbEntity
  8
AM_5 寸法線
 62
     3
100
AcDbLine
 10
1163.924333092609
 20
885.6526950855098
 30
0.0
 11
1303.924333092609
 21
885.6526950855098
 31
0.0
  0
LINE
  5
6E16
330
5AFC
100
AcDbEntity
  8
AM_5 寸法線
 62
     3
100
AcDbLine
 10
1300.799333092609
 20
1163.15269508551
 30
0.0
 11
1300.799333092609
 21
898.1526950855098
 31
0.0
  0
INSERT
  5
6E17
330
5AFC
100
AcDbEntity
  8
AM_5 寸法線
 62
     3
100
AcDbBlockReference
  2
_Open30
 10
1300.799333092609
 20
1175.65269508551
 30
0.0
 41
12.5
 42
12.5
 43
12.5
 50
90.0
  0
INSERT
  5
6E18
330
5AFC
100
AcDbEntity
  8
AM_5 寸法線
 62
     3
100
AcDbBlockReference
  2
_Open30
 10
1300.799333092609
 20
885.6526950855098
 30
0.0
 41
12.5
 42
12.5
 43
12.5
 50
270.0
  0
MTEXT
  5
6E19
330
5AFC
100
AcDbEntity
  8
AM_5 寸法線
 62
     3
100
AcDbMText
 10
1284.549333092609
 20
1030.65269508551
 30
0.0
 40
17.5
 41
0.0
 46
0.0
 71
     5
 72
     1
  1
%%c290
  7
SEISA
 11
0.0000000000000001
 21
1.0
 31
0.0
 73
     1
 44
1.0
  0
POINT
  5
6E1A
330
5AFC
100
AcDbEntity
  8
Defpoints
 62
     0
100
AcDbPoint
 10
1160.799333092609
 20
1175.65269508551
 30
0.0
  0
POINT
  5
6E1B
330
5AFC
100
AcDbEntity
  8
Defpoints
 62
     0
100
AcDbPoint
 10
1160.799333092609
 20
885.6526950855098
 30
0.0
  0
POINT
  5
6E1C
330
5AFC
100
AcDbEntity
  8
Defpoints
 62
     0
100
AcDbPoint
 10
1300.799333092609
 20
885.6526950855098
 30
0.0
  0
ENDBLK
  5
5AFE
330
5AFC
100
AcDbEntity
  8
0
100
AcDbBlockEnd
  0
BLOCK
  5
5B1D
330
5B1C
100
AcDbEntity
  8
0
100
AcDbBlockBegin
  2
*D17
 70
     1
 10
0.0
 20
0.0
 30
0.0
  3
*D17
  1

  0
LINE
  5
6E1D
330
5B1C
100
AcDbEntity
  8
AM_5 寸法線
 62
     3
100
AcDbLine
 10
1145.924333092609
 20
1216.65269508551
 30
0.0
 11
1343.92433309261
 21
1216.65269508551
 31
0.0
  0
LINE
  5
6E1E
330
5B1C
100
AcDbEntity
  8
AM_5 寸法線
 62
     3
100
AcDbLine
 10
1145.924333092609
 20
844.6526950855098
 30
0.0
 11
1343.92433309261
 21
844.6526950855096
 31
0.0
  0
LINE
  5
6E1F
330
5B1C
100
AcDbEntity
  8
AM_5 寸法線
 62
     3
100
AcDbLine
 10
1340.79933309261
 20
1204.15269508551
 30
0.0
 11
1340.79933309261
 21
857.1526950855096
 31
0.0
  0
INSERT
  5
6E20
330
5B1C
100
AcDbEntity
  8
AM_5 寸法線
 62
     3
100
AcDbBlockReference
  2
_Open30
 10
1340.79933309261
 20
1216.65269508551
 30
0.0
 41
12.5
 42
12.5
 43
12.5
 50
90.0
  0
INSERT
  5
6E21
330
5B1C
100
AcDbEntity
  8
AM_5 寸法線
 62
     3
100
AcDbBlockReference
  2
_Open30
 10
1340.79933309261
 20
844.6526950855096
 30
0.0
 41
12.5
 42
12.5
 43
12.5
 50
270.0
  0
MTEXT
  5
6E22
330
5B1C
100
AcDbEntity
  8
AM_5 寸法線
 62
     3
100
AcDbMText
 10
1324.549333092609
 20
1030.65269508551
 30
0.0
 40
17.5
 41
0.0
 46
0.0
 71
     5
 72
     1
  1
%%c372
  7
SEISA
 11
0.0000000000000001
 21
1.0
 31
0.0
 73
     1
 44
1.0
  0
POINT
  5
6E23
330
5B1C
100
AcDbEntity
  8
Defpoints
 62
     0
100
AcDbPoint
 10
1142.799333092609
 20
1216.65269508551
 30
0.0
  0
POINT
  5
6E24
330
5B1C
100
AcDbEntity
  8
Defpoints
 62
     0
100
AcDbPoint
 10
1142.799333092609
 20
844.6526950855098
 30
0.0
  0
POINT
  5
6E25
330
5B1C
100
AcDbEntity
  8
Defpoints
 62
     0
100
AcDbPoint
 10
1340.79933309261
 20
844.6526950855096
 30
0.0
  0
ENDBLK
  5
5B1E
330
5B1C
100
AcDbEntity
  8
0
100
AcDbBlockEnd
  0
BLOCK
  5
5B35
330
5B34
100
AcDbEntity
  8
0
100
AcDbBlockBegin
  2
*D18
 70
     1
 10
0.0
 20
0.0
 30
0.0
  3
*D18
  1

  0
LINE
  5
6E26
330
5B34
100
AcDbEntity
  8
AM_5 寸法線
 62
     3
100
AcDbLine
 10
1018.924333092609
 20
1255.65269508551
 30
0.0
 11
1383.92433309261
 21
1255.65269508551
 31
0.0
  0
LINE
  5
6E27
330
5B34
100
AcDbEntity
  8
AM_5 寸法線
 62
     3
100
AcDbLine
 10
1018.924333092609
 20
805.6526950855097
 30
0.0
 11
1383.92433309261
 21
805.6526950855097
 31
0.0
  0
LINE
  5
6E28
330
5B34
100
AcDbEntity
  8
AM_5 寸法線
 62
     3
100
AcDbLine
 10
1380.79933309261
 20
1243.15269508551
 30
0.0
 11
1380.79933309261
 21
818.1526950855097
 31
0.0
  0
INSERT
  5
6E29
330
5B34
100
AcDbEntity
  8
AM_5 寸法線
 62
     3
100
AcDbBlockReference
  2
_Open30
 10
1380.79933309261
 20
1255.65269508551
 30
0.0
 41
12.5
 42
12.5
 43
12.5
 50
90.0
  0
INSERT
  5
6E2A
330
5B34
100
AcDbEntity
  8
AM_5 寸法線
 62
     3
100
AcDbBlockReference
  2
_Open30
 10
1380.79933309261
 20
805.6526950855097
 30
0.0
 41
12.5
 42
12.5
 43
12.5
 50
270.0
  0
MTEXT
  5
6E2B
330
5B34
100
AcDbEntity
  8
AM_5 寸法線
 62
     3
100
AcDbMText
 10
1364.549333092609
 20
1030.65269508551
 30
0.0
 40
17.5
 41
0.0
 46
0.0
 71
     5
 72
     1
  1
%%c450
  7
SEISA
 11
0.0000000000000001
 21
1.0
 31
0.0
 73
     1
 44
1.0
  0
POINT
  5
6E2C
330
5B34
100
AcDbEntity
  8
Defpoints
 62
     0
100
AcDbPoint
 10
1015.799333092609
 20
1255.65269508551
 30
0.0
  0
POINT
  5
6E2D
330
5B34
100
AcDbEntity
  8
Defpoints
 62
     0
100
AcDbPoint
 10
1015.799333092609
 20
805.6526950855097
 30
0.0
  0
POINT
  5
6E2E
330
5B34
100
AcDbEntity
  8
Defpoints
 62
     0
100
AcDbPoint
 10
1380.79933309261
 20
805.6526950855097
 30
0.0
  0
ENDBLK
  5
5B36
330
5B34
100
AcDbEntity
  8
0
100
AcDbBlockEnd
  0
BLOCK
  5
5DAA
330
5DA9
100
AcDbEntity
  8
0
100
AcDbBlockBegin
  2
*D19
 70
     1
 10
0.0
 20
0.0
 30
0.0
  3
*D19
  1

  0
LINE
  5
6E2F
330
5DA9
100
AcDbEntity
  8
AM_5 寸法線
 62
     3
100
AcDbLine
 10
991.7993330926092
 20
803.5276950855097
 30
0.0
 11
991.7993330926092
 21
727.5276950855097
 31
0.0
  0
LINE
  5
6E30
330
5DA9
100
AcDbEntity
  8
AM_5 寸法線
 62
     3
100
AcDbLine
 10
1016.799333092609
 20
803.5276950855097
 30
0.0
 11
1016.799333092609
 21
727.5276950855097
 31
0.0
  0
LINE
  5
6E31
330
5DA9
100
AcDbEntity
  8
AM_5 寸法線
 62
     3
100
AcDbLine
 10
979.2993330926092
 20
730.6526950855097
 30
0.0
 11
966.7993330926092
 21
730.6526950855097
 31
0.0
  0
LINE
  5
6E32
330
5DA9
100
AcDbEntity
  8
AM_5 寸法線
 62
     3
100
AcDbLine
 10
1029.299333092609
 20
730.6526950855097
 30
0.0
 11
1082.299333092609
 21
730.6526950855097
 31
0.0
  0
LINE
  5
6E33
330
5DA9
100
AcDbEntity
  8
AM_5 寸法線
 62
     3
100
AcDbLine
 10
991.7993330926092
 20
730.6526950855097
 30
0.0
 11
1016.799333092609
 21
730.6526950855097
 31
0.0
  0
INSERT
  5
6E34
330
5DA9
100
AcDbEntity
  8
AM_5 寸法線
 62
     3
100
AcDbBlockReference
  2
GENDOT
 10
991.7993330926092
 20
730.6526950855097
 30
0.0
 41
12.5
 42
12.5
 43
12.5
  0
INSERT
  5
6E35
330
5DA9
100
AcDbEntity
  8
AM_5 寸法線
 62
     3
100
AcDbBlockReference
  2
_Open30
 10
1016.799333092609
 20
730.6526950855097
 30
0.0
 41
12.5
 42
12.5
 43
12.5
 50
180.0
  0
MTEXT
  5
6E36
330
5DA9
100
AcDbEntity
  8
AM_5 寸法線
 62
     3
100
AcDbMText
 10
1062.049333092609
 20
746.9026950855098
 30
0.0
 40
17.5
 41
0.0
 46
0.0
 71
     5
 72
     1
  1
25
  7
SEISA
 73
     1
 44
1.0
  0
POINT
  5
6E37
330
5DA9
100
AcDbEntity
  8
Defpoints
 62
     0
100
AcDbPoint
 10
991.7993330926092
 20
806.6526950855097
 30
0.0
  0
POINT
  5
6E38
330
5DA9
100
AcDbEntity
  8
Defpoints
 62
     0
100
AcDbPoint
 10
1016.799333092609
 20
806.6526950855097
 30
0.0
  0
POINT
  5
6E39
330
5DA9
100
AcDbEntity
  8
Defpoints
 62
     0
100
AcDbPoint
 10
1016.799333092609
 20
730.6526950855097
 30
0.0
  0
ENDBLK
  5
5DAB
330
5DA9
100
AcDbEntity
  8
0
100
AcDbBlockEnd
  0
BLOCK
  5
5DC6
330
5DC5
100
AcDbEntity
  8
0
100
AcDbBlockBegin
  2
*D20
 70
     1
 10
0.0
 20
0.0
 30
0.0
  3
*D20
  1

  0
LINE
  5
6E3A
330
5DC5
100
AcDbEntity
  8
AM_5 寸法線
 62
     3
100
AcDbLine
 10
991.7993330926092
 20
803.5276950855097
 30
0.0
 11
991.7993330926092
 21
727.5276950855097
 31
0.0
  0
LINE
  5
6E3B
330
5DC5
100
AcDbEntity
  8
AM_5 寸法線
 62
     3
100
AcDbLine
 10
966.7993330926092
 20
803.5276950855097
 30
0.0
 11
966.7993330926092
 21
727.5276950855097
 31
0.0
  0
LINE
  5
6E3C
330
5DC5
100
AcDbEntity
  8
AM_5 寸法線
 62
     3
100
AcDbLine
 10
1004.299333092609
 20
730.6526950855097
 30
0.0
 11
1016.799333092609
 21
730.6526950855097
 31
0.0
  0
LINE
  5
6E3D
330
5DC5
100
AcDbEntity
  8
AM_5 寸法線
 62
     3
100
AcDbLine
 10
954.2993330926092
 20
730.6526950855097
 30
0.0
 11
901.2993330926091
 21
730.6526950855097
 31
0.0
  0
LINE
  5
6E3E
330
5DC5
100
AcDbEntity
  8
AM_5 寸法線
 62
     3
100
AcDbLine
 10
991.7993330926092
 20
730.6526950855097
 30
0.0
 11
966.7993330926092
 21
730.6526950855097
 31
0.0
  0
INSERT
  5
6E3F
330
5DC5
100
AcDbEntity
  8
AM_5 寸法線
 62
     3
100
AcDbBlockReference
  2
GENDOT
 10
991.7993330926092
 20
730.6526950855097
 30
0.0
 41
12.5
 42
12.5
 43
12.5
 50
180.0
  0
INSERT
  5
6E40
330
5DC5
100
AcDbEntity
  8
AM_5 寸法線
 62
     3
100
AcDbBlockReference
  2
_Open30
 10
966.7993330926092
 20
730.6526950855097
 30
0.0
 41
12.5
 42
12.5
 43
12.5
  0
MTEXT
  5
6E41
330
5DC5
100
AcDbEntity
  8
AM_5 寸法線
 62
     3
100
AcDbMText
 10
921.5493330926092
 20
746.9026950855098
 30
0.0
 40
17.5
 41
0.0
 46
0.0
 71
     5
 72
     1
  1
25
  7
SEISA
 73
     1
 44
1.0
  0
POINT
  5
6E42
330
5DC5
100
AcDbEntity
  8
Defpoints
 62
     0
100
AcDbPoint
 10
991.7993330926092
 20
806.6526950855097
 30
0.0
  0
POINT
  5
6E43
330
5DC5
100
AcDbEntity
  8
Defpoints
 62
     0
100
AcDbPoint
 10
966.7993330926092
 20
806.6526950855097
 30
0.0
  0
POINT
  5
6E44
330
5DC5
100
AcDbEntity
  8
Defpoints
 62
     0
100
AcDbPoint
 10
966.7993330926092
 20
730.6526950855097
 30
0.0
  0
ENDBLK
  5
5DC7
330
5DC5
100
AcDbEntity
  8
0
100
AcDbBlockEnd
  0
BLOCK
  5
5DE2
330
5DE1
100
AcDbEntity
  8
0
100
AcDbBlockBegin
  2
*D21
 70
     1
 10
0.0
 20
0.0
 30
0.0
  3
*D21
  1

  0
LINE
  5
6E45
330
5DE1
100
AcDbEntity
  8
AM_5 寸法線
 62
     3
100
AcDbLine
 10
991.7993330926092
 20
803.5276950855097
 30
0.0
 11
991.7993330926092
 21
687.5276950855098
 31
0.0
  0
LINE
  5
6E46
330
5DE1
100
AcDbEntity
  8
AM_5 寸法線
 62
     3
100
AcDbLine
 10
1142.799333092609
 20
841.5276950855098
 30
0.0
 11
1142.799333092609
 21
687.5276950855098
 31
0.0
  0
LINE
  5
6E47
330
5DE1
100
AcDbEntity
  8
AM_5 寸法線
 62
     3
100
AcDbLine
 10
1004.299333092609
 20
690.6526950855098
 30
0.0
 11
1130.299333092609
 21
690.6526950855098
 31
0.0
  0
INSERT
  5
6E48
330
5DE1
100
AcDbEntity
  8
AM_5 寸法線
 62
     3
100
AcDbBlockReference
  2
_Open30
 10
991.7993330926092
 20
690.6526950855098
 30
0.0
 41
12.5
 42
12.5
 43
12.5
 50
180.0
  0
INSERT
  5
6E49
330
5DE1
100
AcDbEntity
  8
AM_5 寸法線
 62
     3
100
AcDbBlockReference
  2
_Open30
 10
1142.799333092609
 20
690.6526950855098
 30
0.0
 41
12.5
 42
12.5
 43
12.5
  0
MTEXT
  5
6E4A
330
5DE1
100
AcDbEntity
  8
AM_5 寸法線
 62
     3
100
AcDbMText
 10
1067.299333092609
 20
706.9026950855097
 30
0.0
 40
17.5
 41
0.0
 46
0.0
 71
     5
 72
     1
  1
151
  7
SEISA
 73
     1
 44
1.0
  0
POINT
  5
6E4B
330
5DE1
100
AcDbEntity
  8
Defpoints
 62
     0
100
AcDbPoint
 10
991.7993330926092
 20
806.6526950855097
 30
0.0
  0
POINT
  5
6E4C
330
5DE1
100
AcDbEntity
  8
Defpoints
 62
     0
100
AcDbPoint
 10
1142.799333092609
 20
844.6526950855098
 30
0.0
  0
POINT
  5
6E4D
330
5DE1
100
AcDbEntity
  8
Defpoints
 62
     0
100
AcDbPoint
 10
1142.799333092609
 20
690.6526950855098
 30
0.0
  0
ENDBLK
  5
5DE3
330
5DE1
100
AcDbEntity
  8
0
100
AcDbBlockEnd
  0
BLOCK
  5
5DFA
330
5DF9
100
AcDbEntity
  8
0
100
AcDbBlockBegin
  2
*D22
 70
     1
 10
0.0
 20
0.0
 30
0.0
  3
*D22
  1

  0
LINE
  5
6E4E
330
5DF9
100
AcDbEntity
  8
AM_5 寸法線
 62
     3
100
AcDbLine
 10
991.7993330926092
 20
803.5276950855097
 30
0.0
 11
991.7993330926092
 21
687.5276950855098
 31
0.0
  0
LINE
  5
6E4F
330
5DF9
100
AcDbEntity
  8
AM_5 寸法線
 62
     3
100
AcDbLine
 10
782.7993330926092
 20
873.5276950855098
 30
0.0
 11
782.7993330926092
 21
687.5276950855098
 31
0.0
  0
LINE
  5
6E50
330
5DF9
100
AcDbEntity
  8
AM_5 寸法線
 62
     3
100
AcDbLine
 10
979.2993330926092
 20
690.6526950855098
 30
0.0
 11
795.2993330926092
 21
690.6526950855098
 31
0.0
  0
INSERT
  5
6E51
330
5DF9
100
AcDbEntity
  8
AM_5 寸法線
 62
     3
100
AcDbBlockReference
  2
_Open30
 10
991.7993330926092
 20
690.6526950855098
 30
0.0
 41
12.5
 42
12.5
 43
12.5
  0
INSERT
  5
6E52
330
5DF9
100
AcDbEntity
  8
AM_5 寸法線
 62
     3
100
AcDbBlockReference
  2
_Open30
 10
782.7993330926092
 20
690.6526950855098
 30
0.0
 41
12.5
 42
12.5
 43
12.5
 50
180.0
  0
MTEXT
  5
6E53
330
5DF9
100
AcDbEntity
  8
AM_5 寸法線
 62
     3
100
AcDbMText
 10
887.2993330926092
 20
706.9026950855097
 30
0.0
 40
17.5
 41
0.0
 46
0.0
 71
     5
 72
     1
  1
209
  7
SEISA
 73
     1
 44
1.0
  0
POINT
  5
6E54
330
5DF9
100
AcDbEntity
  8
Defpoints
 62
     0
100
AcDbPoint
 10
991.7993330926092
 20
806.6526950855097
 30
0.0
  0
POINT
  5
6E55
330
5DF9
100
AcDbEntity
  8
Defpoints
 62
     0
100
AcDbPoint
 10
782.7993330926092
 20
876.6526950855098
 30
0.0
  0
POINT
  5
6E56
330
5DF9
100
AcDbEntity
  8
Defpoints
 62
     0
100
AcDbPoint
 10
782.7993330926092
 20
690.6526950855098
 30
0.0
  0
ENDBLK
  5
5DFB
330
5DF9
100
AcDbEntity
  8
0
100
AcDbBlockEnd
  0
BLOCK
  5
5E12
330
5E11
100
AcDbEntity
  8
0
100
AcDbBlockBegin
  2
*D23
 70
     1
 10
0.0
 20
0.0
 30
0.0
  3
*D23
  1

  0
LINE
  5
6E57
330
5E11
100
AcDbEntity
  8
AM_5 寸法線
 62
     3
100
AcDbLine
 10
1200.799333092609
 20
889.5276950855098
 30
0.0
 11
1200.799333092609
 21
687.5276950855098
 31
0.0
  0
LINE
  5
6E58
330
5E11
100
AcDbEntity
  8
AM_5 寸法線
 62
     3
100
AcDbLine
 10
1142.799333092609
 20
841.5276950855098
 30
0.0
 11
1142.799333092609
 21
687.5276950855098
 31
0.0
  0
LINE
  5
6E59
330
5E11
100
AcDbEntity
  8
AM_5 寸法線
 62
     3
100
AcDbLine
 10
1188.299333092609
 20
690.6526950855098
 30
0.0
 11
1155.299333092609
 21
690.6526950855098
 31
0.0
  0
INSERT
  5
6E5A
330
5E11
100
AcDbEntity
  8
AM_5 寸法線
 62
     3
100
AcDbBlockReference
  2
_Open30
 10
1200.799333092609
 20
690.6526950855098
 30
0.0
 41
12.5
 42
12.5
 43
12.5
  0
INSERT
  5
6E5B
330
5E11
100
AcDbEntity
  8
AM_5 寸法線
 62
     3
100
AcDbBlockReference
  2
_Open30
 10
1142.799333092609
 20
690.6526950855098
 30
0.0
 41
12.5
 42
12.5
 43
12.5
 50
180.0
  0
MTEXT
  5
6E5C
330
5E11
100
AcDbEntity
  8
AM_5 寸法線
 62
     3
100
AcDbMText
 10
1171.799333092609
 20
706.9026950855097
 30
0.0
 40
17.5
 41
0.0
 46
0.0
 71
     5
 72
     1
  1
58
  7
SEISA
 73
     1
 44
1.0
  0
POINT
  5
6E5D
330
5E11
100
AcDbEntity
  8
Defpoints
 62
     0
100
AcDbPoint
 10
1200.799333092609
 20
892.6526950855098
 30
0.0
  0
POINT
  5
6E5E
330
5E11
100
AcDbEntity
  8
Defpoints
 62
     0
100
AcDbPoint
 10
1142.799333092609
 20
844.6526950855098
 30
0.0
  0
POINT
  5
6E5F
330
5E11
100
AcDbEntity
  8
Defpoints
 62
     0
100
AcDbPoint
 10
1142.799333092609
 20
690.6526950855098
 30
0.0
  0
ENDBLK
  5
5E13
330
5E11
100
AcDbEntity
  8
0
100
AcDbBlockEnd
  0
BLOCK
  5
5EBC
330
5EBB
100
AcDbEntity
  8
0
100
AcDbBlockBegin
  2
*D24
 70
     1
 10
0.0
 20
0.0
 30
0.0
  3
*D24
  1

  0
LINE
  5
6E60
330
5EBB
100
AcDbEntity
  8
AM_5 寸法線
 62
     3
100
AcDbLine
 10
1200.799333092609
 20
889.5276950855098
 30
0.0
 11
1200.799333092609
 21
647.5276950855097
 31
0.0
  0
LINE
  5
6E61
330
5EBB
100
AcDbEntity
  8
AM_5 寸法線
 62
     3
100
AcDbLine
 10
782.7993330926092
 20
873.5276950855098
 30
0.0
 11
782.7993330926092
 21
647.5276950855097
 31
0.0
  0
LINE
  5
6E62
330
5EBB
100
AcDbEntity
  8
AM_5 寸法線
 62
     3
100
AcDbLine
 10
1188.299333092609
 20
650.6526950855097
 30
0.0
 11
795.2993330926092
 21
650.6526950855097
 31
0.0
  0
INSERT
  5
6E63
330
5EBB
100
AcDbEntity
  8
AM_5 寸法線
 62
     3
100
AcDbBlockReference
  2
_Open30
 10
1200.799333092609
 20
650.6526950855097
 30
0.0
 41
12.5
 42
12.5
 43
12.5
  0
INSERT
  5
6E64
330
5EBB
100
AcDbEntity
  8
AM_5 寸法線
 62
     3
100
AcDbBlockReference
  2
_Open30
 10
782.7993330926092
 20
650.6526950855097
 30
0.0
 41
12.5
 42
12.5
 43
12.5
 50
180.0
  0
MTEXT
  5
6E65
330
5EBB
100
AcDbEntity
  8
AM_5 寸法線
 62
     3
100
AcDbMText
 10
991.7993330926092
 20
666.9026950855098
 30
0.0
 40
17.5
 41
0.0
 46
0.0
 71
     5
 72
     1
  1
418
  7
SEISA
 73
     1
 44
1.0
  0
POINT
  5
6E66
330
5EBB
100
AcDbEntity
  8
Defpoints
 62
     0
100
AcDbPoint
 10
1200.799333092609
 20
892.6526950855098
 30
0.0
  0
POINT
  5
6E67
330
5EBB
100
AcDbEntity
  8
Defpoints
 62
     0
100
AcDbPoint
 10
782.7993330926092
 20
876.6526950855098
 30
0.0
  0
POINT
  5
6E68
330
5EBB
100
AcDbEntity
  8
Defpoints
 62
     0
100
AcDbPoint
 10
782.7993330926092
 20
650.6526950855097
 30
0.0
  0
ENDBLK
  5
5EBD
330
5EBB
100
AcDbEntity
  8
0
100
AcDbBlockEnd
  0
BLOCK
  5
67CA
330
67C7
100
AcDbEntity
  8
0
100
AcDbBlockBegin
  2
GENDOT
 70
     0
 10
0.0
 20
0.0
 30
0.0
  3
GENDOT
  1

  0
LINE
  5
67C8
330
67C7
100
AcDbEntity
  8
0
100
AcDbLine
 10
0.0
 20
0.0
 30
0.0
 11
-1.0
 21
0.0
 31
0.0
  0
LWPOLYLINE
  5
67C9
330
67C7
100
AcDbEntity
  8
0
100
AcDbPolyline
 90
        2
 70
     1
 43
0.25
 10
-0.125
 20
0.0
 42
1.0
 10
0.125
 20
0.0
 42
1.0
  0
ENDBLK
  5
67CB
330
67C7
100
AcDbEntity
  8
0
100
AcDbBlockEnd
  0
BLOCK
  5
701D
330
701C
100
AcDbEntity
  8
0
100
AcDbBlockBegin
  2
*D26
 70
     1
 10
0.0
 20
0.0
 30
0.0
  3
*D26
  1

  0
LINE
  5
703C
330
701C
100
AcDbEntity
  8
AM_5 寸法線
 62
     3
100
AcDbLine
 10
1061.799333092609
 20
1171.02769508551
 30
0.0
 11
1061.799333092609
 21
1136.771137717337
 31
0.0
  0
LINE
  5
703D
330
701C
100
AcDbEntity
  8
AM_5 寸法線
 62
     3
100
AcDbLine
 10
1117.799333092609
 20
1173.02769508551
 30
0.0
 11
1117.799333092609
 21
1136.771137717337
 31
0.0
  0
LINE
  5
703E
330
701C
100
AcDbEntity
  8
AM_5 寸法線
 62
     3
100
AcDbLine
 10
1074.299333092609
 20
1139.896137717337
 30
0.0
 11
1105.299333092609
 21
1139.896137717337
 31
0.0
  0
INSERT
  5
703F
330
701C
100
AcDbEntity
  8
AM_5 寸法線
 62
     3
100
AcDbBlockReference
  2
_Open30
 10
1061.799333092609
 20
1139.896137717337
 30
0.0
 41
12.5
 42
12.5
 43
12.5
 50
180.0
  0
INSERT
  5
7040
330
701C
100
AcDbEntity
  8
AM_5 寸法線
 62
     3
100
AcDbBlockReference
  2
_Open30
 10
1117.799333092609
 20
1139.896137717337
 30
0.0
 41
12.5
 42
12.5
 43
12.5
  0
MTEXT
  5
7041
330
701C
100
AcDbEntity
  8
AM_5 寸法線
 62
     3
100
AcDbMText
 10
1089.799333092609
 20
1156.146137717337
 30
0.0
 40
17.5
 41
0.0
 46
0.0
 71
     5
 72
     1
  1
56
  7
SEISA
 73
     1
 44
1.0
  0
POINT
  5
7042
102
{ACAD_REACTORS
330
7053
102
}
330
701C
100
AcDbEntity
  8
Defpoints
 62
     0
100
AcDbPoint
 10
1061.799333092609
 20
1174.15269508551
 30
0.0
  0
POINT
  5
7043
330
701C
100
AcDbEntity
  8
Defpoints
 62
     0
100
AcDbPoint
 10
1117.799333092609
 20
1176.15269508551
 30
0.0
  0
POINT
  5
7044
330
701C
100
AcDbEntity
  8
Defpoints
 62
     0
100
AcDbPoint
 10
1117.799333092609
 20
1139.896137717337
 30
0.0
  0
ENDBLK
  5
701E
330
701C
100
AcDbEntity
  8
0
100
AcDbBlockEnd
  0
BLOCK
  5
7047
330
7046
100
AcDbEntity
  8
0
100
AcDbBlockBegin
  2
*D27
 70
     1
 10
0.0
 20
0.0
 30
0.0
  3
*D27
  1

  0
LINE
  5
7066
330
7046
100
AcDbEntity
  8
AM_5 寸法線
 62
     3
100
AcDbLine
 10
1000.799333092609
 20
1169.52769508551
 30
0.0
 11
1000.799333092609
 21
1136.771137717336
 31
0.0
  0
LINE
  5
7067
330
7046
100
AcDbEntity
  8
AM_5 寸法線
 62
     3
100
AcDbLine
 10
1061.799333092609
 20
1171.02769508551
 30
0.0
 11
1061.799333092609
 21
1136.771137717336
 31
0.0
  0
LINE
  5
7068
330
7046
100
AcDbEntity
  8
AM_5 寸法線
 62
     3
100
AcDbLine
 10
1013.299333092609
 20
1139.896137717336
 30
0.0
 11
1049.299333092609
 21
1139.896137717336
 31
0.0
  0
INSERT
  5
7069
330
7046
100
AcDbEntity
  8
AM_5 寸法線
 62
     3
100
AcDbBlockReference
  2
_Open30
 10
1000.799333092609
 20
1139.896137717336
 30
0.0
 41
12.5
 42
12.5
 43
12.5
 50
180.0
  0
INSERT
  5
706A
330
7046
100
AcDbEntity
  8
AM_5 寸法線
 62
     3
100
AcDbBlockReference
  2
_Open30
 10
1061.799333092609
 20
1139.896137717336
 30
0.0
 41
12.5
 42
12.5
 43
12.5
  0
MTEXT
  5
706B
330
7046
100
AcDbEntity
  8
AM_5 寸法線
 62
     3
100
AcDbMText
 10
1031.299333092609
 20
1156.146137717336
 30
0.0
 40
17.5
 41
0.0
 46
0.0
 71
     5
 72
     1
  1
61
  7
SEISA
 73
     1
 44
1.0
  0
POINT
  5
706C
330
7046
100
AcDbEntity
  8
Defpoints
 62
     0
100
AcDbPoint
 10
1000.799333092609
 20
1172.65269508551
 30
0.0
  0
POINT
  5
706D
330
7046
100
AcDbEntity
  8
Defpoints
 62
     0
100
AcDbPoint
 10
1061.799333092609
 20
1174.15269508551
 30
0.0
  0
POINT
  5
706E
330
7046
100
AcDbEntity
  8
Defpoints
 62
     0
100
AcDbPoint
 10
1061.799333092609
 20
1139.896137717336
 30
0.0
  0
ENDBLK
  5
7048
330
7046
100
AcDbEntity
  8
0
100
AcDbBlockEnd
  0
BLOCK
  5
70AB
330
70AA
100
AcDbEntity
  8
0
100
AcDbBlockBegin
  2
*D28
 70
     1
 10
0.0
 20
0.0
 30
0.0
  3
*D28
  1

  0
LINE
  5
70CA
330
70AA
100
AcDbEntity
  8
AM_5 寸法線
 62
     3
100
AcDbLine
 10
1200.799333092609
 20
1171.77769508551
 30
0.0
 11
1200.799333092609
 21
1278.429734485052
 31
0.0
  0
LINE
  5
70CB
330
70AA
100
AcDbEntity
  8
AM_5 寸法線
 62
     3
100
AcDbLine
 10
1280.799333092609
 20
1219.77769508551
 30
0.0
 11
1280.799333092609
 21
1278.429734485052
 31
0.0
  0
LINE
  5
70CC
330
70AA
100
AcDbEntity
  8
AM_5 寸法線
 62
     3
100
AcDbLine
 10
1213.299333092609
 20
1275.304734485052
 30
0.0
 11
1268.299333092609
 21
1275.304734485052
 31
0.0
  0
INSERT
  5
70CD
330
70AA
100
AcDbEntity
  8
AM_5 寸法線
 62
     3
100
AcDbBlockReference
  2
_Open30
 10
1200.799333092609
 20
1275.304734485052
 30
0.0
 41
12.5
 42
12.5
 43
12.5
 50
180.0
  0
INSERT
  5
70CE
330
70AA
100
AcDbEntity
  8
AM_5 寸法線
 62
     3
100
AcDbBlockReference
  2
_Open30
 10
1280.799333092609
 20
1275.304734485052
 30
0.0
 41
12.5
 42
12.5
 43
12.5
  0
MTEXT
  5
70CF
330
70AA
100
AcDbEntity
  8
AM_5 寸法線
 62
     3
100
AcDbMText
 10
1240.799333092609
 20
1291.554734485052
 30
0.0
 40
17.5
 41
0.0
 46
0.0
 71
     5
 72
     1
  1
80
  7
SEISA
 73
     1
 44
1.0
  0
POINT
  5
70D0
330
70AA
100
AcDbEntity
  8
Defpoints
 62
     0
100
AcDbPoint
 10
1200.799333092609
 20
1168.65269508551
 30
0.0
  0
POINT
  5
70D1
330
70AA
100
AcDbEntity
  8
Defpoints
 62
     0
100
AcDbPoint
 10
1280.799333092609
 20
1216.65269508551
 30
0.0
  0
POINT
  5
70D2
330
70AA
100
AcDbEntity
  8
Defpoints
 62
     0
100
AcDbPoint
 10
1280.799333092609
 20
1275.304734485052
 30
0.0
  0
ENDBLK
  5
70AC
330
70AA
100
AcDbEntity
  8
0
100
AcDbBlockEnd
  0
BLOCK
  5
71F1
330
71F0
100
AcDbEntity
  8
0
100
AcDbBlockBegin
  2
ＧＣサイドカバ－CEM450
 70
     0
 10
0.0
 20
0.0
 30
0.0
  3
ＧＣサイドカバ－CEM450
  1

  0
LINE
  5
71F3
330
71F0
100
AcDbEntity
  8
AM_11 想像線
 48
0.1
100
AcDbLine
 10
0.0
 20
0.0
 30
0.0
 11
0.0
 21
-24.4334980000001
 31
0.0
  0
LINE
  5
71F4
330
71F0
100
AcDbEntity
  8
AM_11 想像線
 48
0.1
100
AcDbLine
 10
-19.99999999999977
 20
-24.50000000000023
 30
0.0
 11
-12.89999999999963
 21
-24.5
 31
0.0
  0
LINE
  5
71F5
330
71F0
100
AcDbEntity
  8
AM_11 想像線
 48
0.1
100
AcDbLine
 10
-12.89999999999963
 20
-24.5
 30
0.0
 11
-12.89999999999963
 21
-19.20000000000004
 31
0.0
  0
LINE
  5
71F6
330
71F0
100
AcDbEntity
  8
AM_11 想像線
 48
0.1
100
AcDbLine
 10
-12.89999999999963
 20
-19.20000000000004
 30
0.0
 11
-16.0
 21
-19.20000000000004
 31
0.0
  0
LINE
  5
71F7
330
71F0
100
AcDbEntity
  8
AM_11 想像線
 48
0.1
100
AcDbLine
 10
-4.399999999999637
 20
-33.95000000000005
 30
0.0
 11
-15.59999999999991
 21
-33.95000000000005
 31
0.0
  0
LINE
  5
71F8
330
71F0
100
AcDbEntity
  8
AM_11 想像線
 48
0.1
100
AcDbLine
 10
0.0
 20
-39.5
 30
0.0
 11
0.0
 21
-41.0
 31
0.0
  0
LINE
  5
71F9
330
71F0
100
AcDbEntity
  8
AM_11 想像線
 48
0.1
100
AcDbLine
 10
-4.399999999999637
 20
-39.5
 30
0.0
 11
-4.399999999999637
 21
-41.0
 31
0.0
  0
LINE
  5
71FA
330
71F0
100
AcDbEntity
  8
AM_11 想像線
 48
0.1
100
AcDbLine
 10
0.0
 20
-39.5
 30
0.0
 11
-4.399999999999637
 21
-39.5
 31
0.0
  0
LINE
  5
71FB
330
71F0
100
AcDbEntity
  8
AM_11 想像線
 48
0.1
100
AcDbLine
 10
-15.59999999999991
 20
-39.5
 30
0.0
 11
-15.59999999999991
 21
-41.0
 31
0.0
  0
LINE
  5
71FC
330
71F0
100
AcDbEntity
  8
AM_11 想像線
 48
0.1
100
AcDbLine
 10
-20.0
 20
-39.5
 30
0.0
 11
-20.0
 21
-41.0
 31
0.0
  0
LINE
  5
71FD
330
71F0
100
AcDbEntity
  8
AM_11 想像線
 48
0.1
100
AcDbLine
 10
-15.59999999999991
 20
-39.5
 30
0.0
 11
-20.0
 21
-39.5
 31
0.0
  0
LINE
  5
71FE
330
71F0
100
AcDbEntity
  8
AM_11 想像線
 48
0.1
100
AcDbLine
 10
0.0
 20
-24.4334980000001
 30
0.0
 11
0.0
 21
-39.5
 31
0.0
  0
LINE
  5
71FF
330
71F0
100
AcDbEntity
  8
AM_11 想像線
 48
0.1
100
AcDbLine
 10
-4.399999999999637
 20
-39.5
 30
0.0
 11
-4.399999999999637
 21
-33.95000000000005
 31
0.0
  0
LINE
  5
7200
330
71F0
100
AcDbEntity
  8
AM_11 想像線
 48
0.1
100
AcDbLine
 10
-15.59999999999991
 20
-33.95000000000005
 30
0.0
 11
-15.59999999999991
 21
-39.5
 31
0.0
  0
LINE
  5
7201
330
71F0
100
AcDbEntity
  8
AM_11 想像線
 48
0.1
100
AcDbLine
 10
-20.0
 20
-39.5
 30
0.0
 11
-20.0
 21
-24.5
 31
0.0
  0
LINE
  5
7202
102
{ACAD_REACTORS
330
70B7
102
}
330
71F0
100
AcDbEntity
  8
AM_11 想像線
 48
0.1
100
AcDbLine
 10
-16.0
 20
0.0
 30
0.0
 11
0.0
 21
0.0
 31
0.0
  0
LINE
  5
7203
330
71F0
100
AcDbEntity
  8
AM_11 想像線
 48
0.1
100
AcDbLine
 10
-16.0
 20
-19.20000000000004
 30
0.0
 11
-16.0
 21
0.0
 31
0.0
  0
ENDBLK
  5
71F2
330
71F0
100
AcDbEntity
  8
0
100
AcDbBlockEnd
  0
BLOCK
  5
7206
330
7205
100
AcDbEntity
  8
0
100
AcDbBlockBegin
  2
ﾘｼﾞｯﾄ CEM450
 70
     0
 10
0.0
 20
0.0
 30
0.0
  3
ﾘｼﾞｯﾄ CEM450
  1

  0
LINE
  5
7208
330
7205
100
AcDbEntity
  8
AM_0 外形線1
100
AcDbLine
 10
-8.0
 20
-55.0
 30
0.0
 11
-8.0
 21
-225.0
 31
0.0
  0
LINE
  5
7209
330
7205
100
AcDbEntity
  8
AM_0 外形線1
100
AcDbLine
 10
-208.0
 20
-379.0
 30
0.0
 11
-208.0
 21
-71.0
 31
0.0
  0
LINE
  5
720A
330
7205
100
AcDbEntity
  8
AM_0 外形線1
100
AcDbLine
 10
-24.0
 20
-225.0
 30
0.0
 11
-24.0
 21
-405.708204
 31
0.0
  0
LINE
  5
720B
330
7205
100
AcDbEntity
  8
AM_0 外形線1
100
AcDbLine
 10
-61.54102000000012
 20
-225.0
 30
0.0
 11
-61.54102000000012
 21
-385.0
 31
0.0
  0
ARC
  5
720C
330
7205
100
AcDbEntity
  8
AM_0 外形線1
100
AcDbCircle
 10
-202.0
 20
-379.0
 30
0.0
 40
6.0
100
AcDbArc
 50
180.0
 51
270.0
  0
LINE
  5
720D
330
7205
100
AcDbEntity
  8
AM_3 隠れ線
100
AcDbLine
 10
-8.0
 20
-216.25
 30
0.0
 11
-60.0
 21
-216.25
 31
0.0
  0
LINE
  5
720E
330
7205
100
AcDbEntity
  8
AM_3 隠れ線
100
AcDbLine
 10
-60.0
 20
-216.25
 30
0.0
 11
-60.0
 21
-225.0
 31
0.0
  0
LINE
  5
720F
330
7205
100
AcDbEntity
  8
AM_3 隠れ線
100
AcDbLine
 10
-60.0
 20
-216.25
 30
0.0
 11
-65.05181499999981
 21
-225.0
 31
0.0
  0
LINE
  5
7210
330
7205
100
AcDbEntity
  8
AM_3 隠れ線
100
AcDbLine
 10
-44.0
 20
-215.0
 30
0.0
 11
-44.72168800000008
 21
-216.25
 31
0.0
  0
LINE
  5
7211
330
7205
100
AcDbEntity
  8
AM_3 隠れ線
100
AcDbLine
 10
-44.72168800000008
 20
-216.25
 30
0.0
 11
-44.72168800000008
 21
-225.0
 31
0.0
  0
LINE
  5
7212
330
7205
100
AcDbEntity
  8
AM_3 隠れ線
100
AcDbLine
 10
-44.0
 20
-215.0
 30
0.0
 11
-44.0
 21
-225.0
 31
0.0
  0
LINE
  5
7213
330
7205
100
AcDbEntity
  8
AM_3 隠れ線
100
AcDbLine
 10
-8.0
 20
-215.0
 30
0.0
 11
-44.0
 21
-215.0
 31
0.0
  0
LINE
  5
7214
330
7205
100
AcDbEntity
  8
AM_0 外形線1
100
AcDbLine
 10
-54.83281600000009
 20
-63.41640800000003
 30
0.0
 11
-27.31671899999993
 21
-49.65835900000001
 31
0.0
  0
LINE
  5
7215
330
7205
100
AcDbEntity
  8
AM_0 外形線1
100
AcDbLine
 10
-202.0
 20
-65.0
 30
0.0
 11
-61.54102000000012
 21
-65.0
 31
0.0
  0
ARC
  5
7216
330
7205
100
AcDbEntity
  8
AM_0 外形線1
100
AcDbCircle
 10
-202.0
 20
-71.0
 30
0.0
 40
6.0
100
AcDbArc
 50
90.0
 51
180.0
  0
ARC
  5
7217
330
7205
100
AcDbEntity
  8
AM_0 外形線1
100
AcDbCircle
 10
-61.54102000000012
 20
-50.0
 30
0.0
 40
15.0
100
AcDbArc
 50
270.0
 51
296.5650510000113
  0
LINE
  5
7218
330
7205
100
AcDbEntity
  8
AM_0 外形線1
100
AcDbLine
 10
-23.0
 20
0.0
 30
0.0
 11
0.0
 21
0.0
 31
0.0
  0
LINE
  5
7219
330
7205
100
AcDbEntity
  8
AM_0 外形線1
100
AcDbLine
 10
-24.0
 20
-44.29179599999996
 30
0.0
 11
-24.0
 21
-1.0
 31
0.0
  0
LINE
  5
721A
330
7205
100
AcDbEntity
  8
AM_0 外形線1
100
AcDbLine
 10
-8.0
 20
-55.0
 30
0.0
 11
1.0
 21
-55.0
 31
0.0
  0
ARC
  5
721B
330
7205
100
AcDbEntity
  8
AM_0 外形線1
100
AcDbCircle
 10
-30.0
 20
-44.29179599999996
 30
0.0
 40
6.0
100
AcDbArc
 50
296.5650510000113
 51
0.0
  0
LINE
  5
721C
330
7205
100
AcDbEntity
  8
AM_0 外形線1
100
AcDbLine
 10
-24.0
 20
-1.0
 30
0.0
 11
-23.0
 21
0.0
 31
0.0
  0
LINE
  5
721D
330
7205
100
AcDbEntity
  8
AM_0 外形線1
100
AcDbLine
 10
0.0
 20
0.0
 30
0.0
 11
1.0
 21
-1.0
 31
0.0
  0
LINE
  5
721E
330
7205
100
AcDbEntity
  8
AM_0 外形線1
100
AcDbLine
 10
-24.0
 20
-449.0
 30
0.0
 11
-24.0
 21
-405.708204
 31
0.0
  0
LINE
  5
721F
330
7205
100
AcDbEntity
  8
AM_0 外形線1
100
AcDbLine
 10
0.0
 20
-450.0
 30
0.0
 11
-23.0
 21
-450.0
 31
0.0
  0
LINE
  5
7220
330
7205
100
AcDbEntity
  8
AM_0 外形線1
100
AcDbLine
 10
-23.0
 20
-450.0
 30
0.0
 11
-24.0
 21
-449.0
 31
0.0
  0
LINE
  5
7221
330
7205
100
AcDbEntity
  8
AM_0 外形線1
100
AcDbLine
 10
-27.31671899999993
 20
-400.3416409999998
 30
0.0
 11
-54.83281600000009
 21
-386.5835919999998
 31
0.0
  0
ARC
  5
7222
330
7205
100
AcDbEntity
  8
AM_0 外形線1
100
AcDbCircle
 10
-30.0
 20
-405.708204
 30
0.0
 40
6.0
100
AcDbArc
 50
0.0
 51
63.43494899998877
  0
ARC
  5
7223
330
7205
100
AcDbEntity
  8
AM_0 外形線1
100
AcDbCircle
 10
-61.54102000000012
 20
-400.0
 30
0.0
 40
15.0
100
AcDbArc
 50
63.43494899998877
 51
90.0
  0
LINE
  5
7224
330
7205
100
AcDbEntity
  8
AM_0 外形線1
100
AcDbLine
 10
-61.54102000000012
 20
-385.0
 30
0.0
 11
-202.0
 21
-385.0
 31
0.0
  0
LINE
  5
7225
330
7205
100
AcDbEntity
  8
AM_0 外形線1
100
AcDbLine
 10
-8.0
 20
-137.5
 30
0.0
 11
-208.0
 21
-137.5
 31
0.0
  0
ENDBLK
  5
7207
330
7205
100
AcDbEntity
  8
0
100
AcDbBlockEnd
  0
ENDSEC
  0
SECTION
  2
ENTITIES
  0
MTEXT
  5
3324
330
1F
100
AcDbEntity
  8
AM_5 寸法線
100
AcDbMText
 10
-4427.544738673652
 20
1165.928888368559
 30
0.0
 40
17.5
 41
0.0
 46
0.0
 71
     9
 72
     1
  1

  7
SEISA
 73
     1
 44
1.0
  0
LINE
  5
499D
330
1F
100
AcDbEntity
  8
AM_0 外形線1
100
AcDbLine
 10
982.7993330926092
 20
1154.15269508551
 30
0.0
 11
982.7993330926092
 21
1030.652695085509
 31
0.0
  0
LINE
  5
499E
330
1F
100
AcDbEntity
  8
AM_0 外形線1
100
AcDbLine
 10
1000.799333092609
 20
1154.15269508551
 30
0.0
 11
1000.799333092609
 21
1030.652695085509
 31
0.0
  0
LINE
  5
49A8
330
1F
100
AcDbEntity
  8
AM_7 中心線
100
AcDbLine
 10
760.6398333297033
 20
1030.652695085509
 30
0.0
 11
1219.896746256648
 21
1030.652695085509
 31
0.0
  0
INSERT
  5
524C
102
{ACAD_REACTORS
330
5B4A
330
5DC3
330
5DDF
330
5DF7
330
5E0F
102
}
330
1F
100
AcDbEntity
  8
AM_0 外形線1
100
AcDbBlockReference
  2
ケースＡ CEMH450
 10
991.7993330926092
 20
1030.652695085509
 30
0.0
  0
INSERT
  5
530B
102
{ACAD_REACTORS
330
59F2
330
5A20
330
5A6C
330
5B12
330
5E27
330
5ED1
330
7029
330
7053
330
70B7
102
}
330
1F
100
AcDbEntity
  8
AM_0 外形線1
100
AcDbBlockReference
  2
センタ CEMH450
 10
1000.799333092609
 20
1030.652695085509
 30
0.0
  0
INSERT
  5
5403
330
1F
100
AcDbEntity
  8
AM_0 外形線1
100
AcDbBlockReference
  2
リーマボルト CEMH450 M20
 10
1016.799333092609
 20
1235.65269508551
 30
0.0
  0
INSERT
  5
5560
102
{ACAD_REACTORS
330
5A6C
330
5B32
330
5DF7
330
5E27
102
}
330
1F
100
AcDbEntity
  8
AM_0 外形線1
100
AcDbBlockReference
  2
ＧＣサイドカバ－ CEMH450
 10
1122.799333092609
 20
1030.652695085509
 30
0.0
  0
DIMENSION
  5
5971
330
1F
100
AcDbEntity
  8
AM_5 寸法線
100
AcDbDimension
  2
*D11
 10
682.7993330926092
 20
870.6526950855099
 30
0.0
 11
666.5493330926091
 21
1030.65269508551
 31
0.0
 70
    32
  1
%%c<>
 71
     5
 42
320.0
 73
     0
 74
     0
 75
     0
  3
SEISA$0
100
AcDbAlignedDimension
 13
788.7993330926092
 23
1190.65269508551
 33
0.0
 14
788.7993330926092
 24
870.6526950855097
 34
0.0
 50
90.0
100
AcDbRotatedDimension
1001
ACAD_DSTYLE_DIMINSPECT
1070
   396
1000
100%
1070
   395
1000

1070
   394
1070
    33
1070
   393
1070
     0
  0
DIMENSION
  5
59BF
330
1F
100
AcDbEntity
  8
AM_5 寸法線
100
AcDbDimension
  2
*D12
 10
782.7993330926092
 20
1070.652695085509
 30
0.0
 11
882.7993330926092
 21
1086.90269508551
 31
0.0
 70
    32
 71
     5
 42
200.0
 73
     0
 74
     0
 75
     0
  3
SEISA$0
100
AcDbAlignedDimension
 13
982.7993330926092
 23
1030.652695085509
 33
0.0
 14
782.7993330926092
 24
1030.652695085509
 34
0.0
100
AcDbRotatedDimension
  0
DIMENSION
  5
59D7
102
{ACAD_XDICTIONARY
360
59E6
102
}
102
{ACAD_REACTORS
330
59F2
102
}
330
1F
100
AcDbEntity
  8
AM_5 寸法線
100
AcDbDimension
  2
*D13
 10
982.7993330926092
 20
1070.652695085509
 30
0.0
 11
1026.464314529781
 21
1086.261928403501
 31
0.0
 70
   160
 71
     5
 42
18.0
 73
     0
 74
     0
 75
     0
  3
SEISA$0
100
AcDbAlignedDimension
 13
1000.799333092609
 23
1030.652695085509
 33
0.0
 14
982.7993330926092
 24
1030.652695085509
 34
0.0
100
AcDbRotatedDimension
1001
ACAD
1000
DSTYLE
1002
{
1070
   279
1070
     2
1002
}
  0
DIMENSION
  5
5A09
102
{ACAD_XDICTIONARY
360
5A16
102
}
102
{ACAD_REACTORS
330
5A20
102
}
330
1F
100
AcDbEntity
  8
AM_5 寸法線
100
AcDbDimension
  2
*D14
 10
1200.799333092609
 20
1070.652695085509
 30
0.0
 11
1100.799333092609
 21
1086.90269508551
 31
0.0
 70
    32
 71
     5
 42
200.0
 73
     0
 74
     0
 75
     0
  3
SEISA$0
100
AcDbAlignedDimension
 13
1000.799333092609
 23
1030.652695085509
 33
0.0
 14
1200.799333092609
 24
1030.652695085509
 34
0.0
100
AcDbRotatedDimension
  0
DIMENSION
  5
5A51
102
{ACAD_XDICTIONARY
360
5A60
102
}
102
{ACAD_REACTORS
330
5A6C
330
7029
102
}
330
1F
100
AcDbEntity
  8
AM_5 寸法線
100
AcDbDimension
  2
*D15
 10
1117.799333092609
 20
1139.896137717335
 30
0.0
 11
1160.549333092609
 21
1139.896137717335
 31
0.0
 70
   160
 71
     5
 42
5.0
 73
     0
 74
     0
 75
     0
  3
SEISA$0
100
AcDbAlignedDimension
 13
1122.799333092609
 23
1175.65269508551
 33
0.0
 14
1117.799333092609
 24
1176.15269508551
 34
0.0
100
AcDbRotatedDimension
  0
DIMENSION
  5
5AFB
102
{ACAD_XDICTIONARY
360
5B08
102
}
102
{ACAD_REACTORS
330
5B12
102
}
330
1F
100
AcDbEntity
  8
AM_5 寸法線
100
AcDbDimension
  2
*D16
 10
1300.799333092609
 20
885.6526950855098
 30
0.0
 11
1284.549333092609
 21
1030.65269508551
 31
0.0
 70
    32
  1
%%c<>
 71
     5
 42
289.9999999999999
 73
     0
 74
     0
 75
     0
  3
SEISA$0
100
AcDbAlignedDimension
 13
1160.799333092609
 23
1175.65269508551
 33
0.0
 14
1160.799333092609
 24
885.6526950855098
 34
0.0
 50
90.0
100
AcDbRotatedDimension
1001
ACAD_DSTYLE_DIMINSPECT
1070
   396
1000
100%
1070
   395
1000

1070
   394
1070
    33
1070
   393
1070
     0
1001
ACAD
1000
DSTYLE
1002
{
1070
   279
1070
     0
1002
}
  0
DIMENSION
  5
5B1B
102
{ACAD_XDICTIONARY
360
5B28
102
}
102
{ACAD_REACTORS
330
5B32
102
}
330
1F
100
AcDbEntity
  8
AM_5 寸法線
100
AcDbDimension
  2
*D17
 10
1340.79933309261
 20
844.6526950855096
 30
0.0
 11
1340.799333092609
 21
1030.65269508551
 31
0.0
 70
   160
  1
%%c<>
 71
     5
 42
372.0
 73
     0
 74
     0
 75
     0
  3
SEISA$0
100
AcDbAlignedDimension
 13
1142.799333092609
 23
1216.65269508551
 33
0.0
 14
1142.799333092609
 24
844.6526950855098
 34
0.0
 50
90.0
100
AcDbRotatedDimension
1001
ACAD_DSTYLE_DIMINSPECT
1070
   396
1000
100%
1070
   395
1000

1070
   394
1070
    33
1070
   393
1070
     0
1001
ACAD
1000
DSTYLE
1002
{
1070
   279
1070
     0
1002
}
  0
DIMENSION
  5
5B33
102
{ACAD_XDICTIONARY
360
5B40
102
}
102
{ACAD_REACTORS
330
5B4A
102
}
330
1F
100
AcDbEntity
  8
AM_5 寸法線
100
AcDbDimension
  2
*D18
 10
1380.79933309261
 20
805.6526950855097
 30
0.0
 11
1380.799333092609
 21
1030.65269508551
 31
0.0
 70
   160
  1
%%c<>
 71
     5
 42
450.0
 73
     0
 74
     0
 75
     0
  3
SEISA$0
100
AcDbAlignedDimension
 13
1015.799333092609
 23
1255.65269508551
 33
0.0
 14
1015.799333092609
 24
805.6526950855097
 34
0.0
 50
90.0
100
AcDbRotatedDimension
1001
ACAD_DSTYLE_DIMINSPECT
1070
   396
1000
100%
1070
   395
1000

1070
   394
1070
    33
1070
   393
1070
     0
1001
ACAD
1000
DSTYLE
1002
{
1070
   279
1070
     0
1002
}
  0
DIMENSION
  5
5DA8
102
{ACAD_XDICTIONARY
360
5DB7
102
}
102
{ACAD_REACTORS
330
5DC3
102
}
330
1F
100
AcDbEntity
  8
AM_5 寸法線
100
AcDbDimension
  2
*D19
 10
1016.799333092609
 20
730.6526950855097
 30
0.0
 11
1062.049333092609
 21
746.9026950855098
 31
0.0
 70
    32
 71
     5
 42
25.0
 73
     0
 74
     0
 75
     0
  3
SEISA$0
100
AcDbAlignedDimension
 13
991.7993330926092
 23
806.6526950855097
 33
0.0
 14
1016.799333092609
 24
806.6526950855097
 34
0.0
100
AcDbRotatedDimension
1001
ACAD_DSTYLE_DIMINSPECT
1070
   396
1000
100%
1070
   395
1000

1070
   394
1070
    33
1070
   393
1070
     0
1001
ACAD
1000
DSTYLE
1002
{
1070
   173
1070
     1
1070
   342
1005
0
1070
   343
1005
67C7
1070
   344
1005
69
1002
}
  0
DIMENSION
  5
5DC4
102
{ACAD_XDICTIONARY
360
5DD3
102
}
102
{ACAD_REACTORS
330
5DDF
102
}
330
1F
100
AcDbEntity
  8
AM_5 寸法線
100
AcDbDimension
  2
*D20
 10
966.7993330926092
 20
730.6526950855097
 30
0.0
 11
921.5493330926092
 21
746.9026950855098
 31
0.0
 70
    32
 71
     5
 42
25.0
 73
     0
 74
     0
 75
     0
  3
SEISA$0
100
AcDbAlignedDimension
 13
991.7993330926092
 23
806.6526950855097
 33
0.0
 14
966.7993330926092
 24
806.6526950855097
 34
0.0
100
AcDbRotatedDimension
1001
ACAD_DSTYLE_DIMINSPECT
1070
   396
1000
100%
1070
   395
1000

1070
   394
1070
    33
1070
   393
1070
     0
1001
ACAD
1000
DSTYLE
1002
{
1070
   173
1070
     1
1070
   342
1005
0
1070
   343
1005
67C7
1070
   344
1005
69
1002
}
  0
DIMENSION
  5
5DE0
102
{ACAD_XDICTIONARY
360
5DED
102
}
102
{ACAD_REACTORS
330
5DF7
102
}
330
1F
100
AcDbEntity
  8
AM_5 寸法線
100
AcDbDimension
  2
*D21
 10
1142.799333092609
 20
690.6526950855098
 30
0.0
 11
1067.299333092609
 21
690.6526950855098
 31
0.0
 70
   160
 71
     5
 42
151.0
 73
     0
 74
     0
 75
     0
  3
SEISA$0
100
AcDbAlignedDimension
 13
991.7993330926092
 23
806.6526950855097
 33
0.0
 14
1142.799333092609
 24
844.6526950855098
 34
0.0
100
AcDbRotatedDimension
1001
ACAD
1000
DSTYLE
1002
{
1070
   279
1070
     0
1002
}
  0
DIMENSION
  5
5DF8
102
{ACAD_XDICTIONARY
360
5E05
102
}
102
{ACAD_REACTORS
330
5E0F
102
}
330
1F
100
AcDbEntity
  8
AM_5 寸法線
100
AcDbDimension
  2
*D22
 10
782.7993330926092
 20
690.6526950855098
 30
0.0
 11
887.2993330926092
 21
690.6526950855098
 31
0.0
 70
   160
 71
     5
 42
209.0
 73
     0
 74
     0
 75
     0
  3
SEISA$0
100
AcDbAlignedDimension
 13
991.7993330926092
 23
806.6526950855097
 33
0.0
 14
782.7993330926092
 24
876.6526950855098
 34
0.0
100
AcDbRotatedDimension
1001
ACAD
1000
DSTYLE
1002
{
1070
   279
1070
     0
1002
}
  0
DIMENSION
  5
5E10
102
{ACAD_XDICTIONARY
360
5E1D
102
}
102
{ACAD_REACTORS
330
5E27
102
}
330
1F
100
AcDbEntity
  8
AM_5 寸法線
100
AcDbDimension
  2
*D23
 10
1142.799333092609
 20
690.6526950855098
 30
0.0
 11
1171.799333092609
 21
690.6526950855098
 31
0.0
 70
   160
 71
     5
 42
58.0
 73
     0
 74
     0
 75
     0
  3
SEISA$0
100
AcDbAlignedDimension
 13
1200.799333092609
 23
892.6526950855098
 33
0.0
 14
1142.799333092609
 24
844.6526950855098
 34
0.0
100
AcDbRotatedDimension
1001
ACAD
1000
DSTYLE
1002
{
1070
   279
1070
     0
1002
}
  0
DIMENSION
  5
5EBA
102
{ACAD_XDICTIONARY
360
5EC7
102
}
102
{ACAD_REACTORS
330
5ED1
102
}
330
1F
100
AcDbEntity
  8
AM_5 寸法線
100
AcDbDimension
  2
*D24
 10
782.7993330926092
 20
650.6526950855097
 30
0.0
 11
991.7993330926092
 21
650.6526950855097
 31
0.0
 70
   160
 71
     5
 42
418.0
 73
     0
 74
     0
 75
     0
  3
SEISA$0
100
AcDbAlignedDimension
 13
1200.799333092609
 23
892.6526950855098
 33
0.0
 14
782.7993330926092
 24
876.6526950855098
 34
0.0
100
AcDbRotatedDimension
1001
ACAD
1000
DSTYLE
1002
{
1070
   279
1070
     0
1002
}
  0
LINE
  5
6D85
330
1F
100
AcDbEntity
  8
AM_0 外形線1
100
AcDbLine
 10
967.2993330926091
 20
1246.65269508551
 30
0.0
 11
967.2993330926091
 21
1245.65269508551
 31
0.0
  0
LINE
  5
6D86
330
1F
100
AcDbEntity
  8
AM_0 外形線1
100
AcDbLine
 10
967.2993330926091
 20
1225.65269508551
 30
0.0
 11
967.2993330926091
 21
1224.65269508551
 31
0.0
  0
LINE
  5
6D88
330
1F
100
AcDbEntity
  8
AM_0 外形線1
100
AcDbLine
 10
967.2993330926091
 20
1224.65269508551
 30
0.0
 11
966.7993330926092
 21
1224.15269508551
 31
0.0
  0
LINE
  5
6D8B
330
1F
100
AcDbEntity
  8
AM_0 外形線1
100
AcDbLine
 10
967.2993330926091
 20
1246.65269508551
 30
0.0
 11
966.7993330926092
 21
1247.15269508551
 31
0.0
  0
LINE
  5
6D8D
330
1F
100
AcDbEntity
  8
AM_0 外形線1
100
AcDbLine
 10
991.7993330926092
 20
1224.65269508551
 30
0.0
 11
991.7993330926092
 21
1200.65269508551
 31
0.0
  0
LINE
  5
6D91
330
1F
100
AcDbEntity
  8
AM_7 中心線
100
AcDbLine
 10
1021.799333092609
 20
825.6526950855098
 30
0.0
 11
961.7993330926092
 21
825.6526950855098
 31
0.0
  0
LINE
  5
6D93
330
1F
100
AcDbEntity
  8
AM_0 外形線1
100
AcDbLine
 10
991.7993330926092
 20
806.6526950855097
 30
0.0
 11
990.7993330926093
 21
805.6526950855097
 31
0.0
  0
LINE
  5
6D9C
330
1F
100
AcDbEntity
  8
AM_0 外形線1
100
AcDbLine
 10
967.2993330926091
 20
1246.65269508551
 30
0.0
 11
991.7993330926092
 21
1246.65269508551
 31
0.0
  0
LINE
  5
6D9D
330
1F
100
AcDbEntity
  8
AM_0 外形線1
100
AcDbLine
 10
967.2993330926091
 20
1224.65269508551
 30
0.0
 11
991.7993330926092
 21
1224.65269508551
 31
0.0
  0
LINE
  5
6D9E
330
1F
100
AcDbEntity
  8
AM_0 外形線1
100
AcDbLine
 10
991.7993330926092
 20
806.6526950855097
 30
0.0
 11
991.7993330926092
 21
1030.652695085509
 31
0.0
  0
LINE
  5
6D9F
330
1F
100
AcDbEntity
  8
AM_0 外形線1
100
AcDbLine
 10
991.7993330926092
 20
1254.65269508551
 30
0.0
 11
991.7993330926092
 21
1246.65269508551
 31
0.0
  0
TEXT
  5
6ECD
330
1F
100
AcDbEntity
  8
AM_6 文字
100
AcDbText
 10
1336.406905402526
 20
666.5096269558937
 30
0.0
 40
9.296800185936245
  1
　
 41
0.9
  7
SEISA
100
AcDbText
  0
TEXT
  5
6ECE
330
1F
100
AcDbEntity
  8
AM_6 文字
100
AcDbText
 10
1345.411520439761
 20
658.0589905335475
 30
0.0
 40
20.00020624000465
  1
 
 41
0.1
  7
SEISA
100
AcDbText
  0
TEXT
  5
6ED0
330
1F
100
AcDbEntity
  8
AM_6 文字
100
AcDbText
 10
1369.011541495762
 20
658.0590934535496
 30
0.0
 40
20.00000040000053
  1
 
  7
SEISA
100
AcDbText
  0
TEXT
  5
6ED3
330
1F
100
AcDbEntity
  8
AM_6 文字
100
AcDbText
 10
1557.011545255767
 20
666.5156269560139
 30
0.0
 40
9.260800185216243
  1
 
 41
0.9
  7
SEISA
100
AcDbText
  0
TEXT
  5
6ED6
330
1F
100
AcDbEntity
  8
AM_6 文字
100
AcDbText
 10
1343.606905546526
 20
624.7255879202119
 30
0.0
 40
20.00000040000053
  1
 
 41
0.2
  7
SEISA
100
AcDbText
  0
TEXT
  5
6ED8
330
1F
100
AcDbEntity
  8
AM_6 文字
100
AcDbText
 10
1369.206906058527
 20
624.7255879202119
 30
0.0
 40
20.00000040000053
  1
          
 41
0.1
  7
SEISA
100
AcDbText
  0
TEXT
  5
6EDA
330
1F
100
AcDbEntity
  8
AM_6 文字
100
AcDbText
 10
1483.835479779672
 20
624.7255879202119
 30
0.0
 40
20.00000040000053
  1
　
 41
0.7
  7
SEISA
100
AcDbText
  0
TEXT
  5
6EDB
330
1F
100
AcDbEntity
  8
AM_6 文字
100
AcDbText
 10
1500.635480115673
 20
624.7255879202119
 30
0.0
 40
20.00000040000053
  1
　　
 41
0.9
  7
SEISA
100
AcDbText
  0
TEXT
  5
6EDC
330
1F
100
AcDbEntity
  8
AM_6 文字
100
AcDbText
 10
1543.835480979674
 20
624.7255879202119
 30
0.0
 40
20.00000040000053
  1
 
 41
0.6
  7
SEISA
100
AcDbText
  0
TEXT
  5
6EE1
330
1F
100
AcDbEntity
  8
AM_6 文字
100
AcDbText
 10
487.7595114695739
 20
558.685735748524
 30
0.0
 40
20.00000040000029
  1
　
 41
0.9
  7
SEISA
100
AcDbText
  0
MTEXT
  5
6F4D
330
1F
100
AcDbEntity
  8
AM_6 文字
100
AcDbMText
 10
1240.905418896761
 20
771.9293386919408
 30
0.0
 40
17.5
 41
360.2552381571633
 46
78.04489699143648
 71
     1
 72
     5
  1
{\W0.6;TYPE:CEM450/CEMH450\PSHAFT DIA:MAX/MIN \P RIGID SIDE φ225/φ140\P COUPLING CENTER SIDE φ205/φ140}
  7
SEISA
 73
     1
 44
1.0
  0
DIMENSION
  5
701B
102
{ACAD_XDICTIONARY
360
7028
102
}
102
{ACAD_REACTORS
330
7029
330
7053
102
}
330
1F
100
AcDbEntity
  8
AM_5 寸法線
100
AcDbDimension
  2
*D26
 10
1117.799333092609
 20
1139.896137717337
 30
0.0
 11
1089.799333092609
 21
1156.146137717337
 31
0.0
 70
    32
 71
     5
 42
56.0
 73
     0
 74
     0
 75
     0
  3
SEISA$0
100
AcDbAlignedDimension
 13
1061.799333092609
 23
1174.15269508551
 33
0.0
 14
1117.799333092609
 24
1176.15269508551
 34
0.0
 50
0.0000000000001132
100
AcDbRotatedDimension
1001
ACAD_DSTYLE_DIMINSPECT
1070
   396
1000
100%
1070
   395
1000

1070
   394
1070
    33
1070
   393
1070
     0
  0
DIMENSION
  5
7045
102
{ACAD_XDICTIONARY
360
7052
102
}
102
{ACAD_REACTORS
330
7053
102
}
330
1F
100
AcDbEntity
  8
AM_5 寸法線
100
AcDbDimension
  2
*D27
 10
1061.799333092609
 20
1139.896137717336
 30
0.0
 11
1031.299333092609
 21
1156.146137717336
 31
0.0
 70
    32
 71
     5
 42
61.0
 73
     0
 74
     0
 75
     0
  3
SEISA$0
100
AcDbAlignedDimension
 13
1000.799333092609
 23
1172.65269508551
 33
0.0
 14
1061.799333092609
 24
1174.15269508551
 34
0.0
 50
0.0000000000001132
100
AcDbRotatedDimension
1001
ACAD_DSTYLE_DIMINSPECT
1070
   396
1000
100%
1070
   395
1000

1070
   394
1070
    33
1070
   393
1070
     0
  0
LINE
  5
708A
330
1F
100
AcDbEntity
  8
AM_11 想像線
 48
0.1
100
AcDbLine
 10
1260.799333092609
 20
1205.652695085509
 30
0.0
 11
1284.752675088906
 21
1205.652695085509
 31
0.0
  0
DIMENSION
  5
70A9
102
{ACAD_XDICTIONARY
360
70B6
102
}
102
{ACAD_REACTORS
330
70B7
102
}
330
1F
100
AcDbEntity
  8
AM_5 寸法線
100
AcDbDimension
  2
*D28
 10
1280.799333092609
 20
1275.304734485052
 30
0.0
 11
1240.799333092609
 21
1291.554734485052
 31
0.0
 70
    32
 71
     5
 42
80.0
 73
     0
 74
     0
 75
     0
  3
SEISA$0
100
AcDbAlignedDimension
 13
1200.799333092609
 23
1168.65269508551
 33
0.0
 14
1280.799333092609
 24
1216.65269508551
 34
0.0
100
AcDbRotatedDimension
1001
ACAD_DSTYLE_DIMINSPECT
1070
   396
1000
100%
1070
   395
1000

1070
   394
1070
    33
1070
   393
1070
     0
  0
INSERT
  5
7204
330
1F
100
AcDbEntity
  8
AM_0 外形線1
100
AcDbBlockReference
  2
ＧＣサイドカバ－CEM450
 10
1280.799333092609
 20
1216.65269508551
 30
0.0
  0
INSERT
  5
7226
330
1F
100
AcDbEntity
  8
AM_0 外形線1
100
AcDbBlockReference
  2
ﾘｼﾞｯﾄ CEM450
 10
990.7993330926093
 20
1255.65269508551
 30
0.0
  0
ENDSEC
  0
SECTION
  2
OBJECTS
  0
DICTIONARY
  5
C
330
0
100
AcDbDictionary
281
     1
  3
ACAD_COLOR
350
C5
  3
ACAD_GROUP
350
D
  3
ACAD_LAYOUT
350
1A
  3
ACAD_MATERIAL
350
C4
  3
ACAD_MLEADERSTYLE
350
2D5
  3
ACAD_MLINESTYLE
350
17
  3
ACAD_PLOTSETTINGS
350
19
  3
ACAD_PLOTSTYLENAME
350
E
  3
ACAD_SCALELIST
350
2B3
  3
ACAD_TABLESTYLE
350
121
  3
ACAD_VISUALSTYLE
350
27F
  3
ACDB_RECOMPOSE_DATA
350
2F7
  3
AcDbVariableDictionary
350
34
  3
AcmDictionary
350
49
  3
AMG
350
2B
  3
AMGSNAPSETTINGS
350
1DE
  0
DICTIONARY
  5
BF
330
2
100
AcDbDictionary
280
     1
281
     1
  3
ACAD_LAYERSTATES
360
6F3A
  3
AMLAYER_GROUPCOLORS
360
C0
  0
DICTIONARY
  5
29F7
330
10
100
AcDbDictionary
280
     1
281
     1
  3
ADSK_XREC_LAYER_RECONCILED
360
29F8
  0
DICTIONARY
  5
29F9
330
81
100
AcDbDictionary
280
     1
281
     1
  3
ADSK_XREC_LAYER_RECONCILED
360
29FA
  0
DICTIONARY
  5
82
330
1F
100
AcDbDictionary
280
     1
281
     1
  3
ACAD_SORTENTS
360
A41
  0
DICTIONARY
  5
5022
330
4FF4
100
AcDbDictionary
280
     1
281
     1
  3
ACAD_SORTENTS
360
6442
  0
DICTIONARY
  5
5181
330
50A9
100
AcDbDictionary
280
     1
281
     1
  3
ACAD_SORTENTS
360
64BD
  0
DICTIONARY
  5
5356
330
52E5
100
AcDbDictionary
280
     1
281
     1
  3
ACAD_SORTENTS
360
713B
  0
DICTIONARY
  5
546F
330
53D1
100
AcDbDictionary
280
     1
281
     1
  3
ACAD_SORTENTS
360
670E
  0
DICTIONARY
  5
55F9
330
552A
100
AcDbDictionary
280
     1
281
     1
  3
ACAD_SORTENTS
360
6787
  0
DICTIONARY
  5
72A8
330
7205
100
AcDbDictionary
280
     1
281
     1
  3
ACAD_SORTENTS
360
72A9
  0
DICTIONARY
  5
59E6
330
59D7
100
AcDbDictionary
280
     1
281
     1
  3
ACAD_DIMASSOC
360
59F2
  0
DICTIONARY
  5
5A16
330
5A09
100
AcDbDictionary
280
     1
281
     1
  3
ACAD_DIMASSOC
360
5A20
  0
DICTIONARY
  5
5A60
330
5A51
100
AcDbDictionary
280
     1
281
     1
  3
ACAD_DIMASSOC
360
5A6C
  0
DICTIONARY
  5
5B08
330
5AFB
100
AcDbDictionary
280
     1
281
     1
  3
ACAD_DIMASSOC
360
5B12
  0
DICTIONARY
  5
5B28
330
5B1B
100
AcDbDictionary
280
     1
281
     1
  3
ACAD_DIMASSOC
360
5B32
  0
DICTIONARY
  5
5B40
330
5B33
100
AcDbDictionary
280
     1
281
     1
  3
ACAD_DIMASSOC
360
5B4A
  0
DICTIONARY
  5
5DB7
330
5DA8
100
AcDbDictionary
280
     1
281
     1
  3
ACAD_DIMASSOC
360
5DC3
  0
DICTIONARY
  5
5DD3
330
5DC4
100
AcDbDictionary
280
     1
281
     1
  3
ACAD_DIMASSOC
360
5DDF
  0
DICTIONARY
  5
5DED
330
5DE0
100
AcDbDictionary
280
     1
281
     1
  3
ACAD_DIMASSOC
360
5DF7
  0
DICTIONARY
  5
5E05
330
5DF8
100
AcDbDictionary
280
     1
281
     1
  3
ACAD_DIMASSOC
360
5E0F
  0
DICTIONARY
  5
5E1D
330
5E10
100
AcDbDictionary
280
     1
281
     1
  3
ACAD_DIMASSOC
360
5E27
  0
DICTIONARY
  5
5EC7
330
5EBA
100
AcDbDictionary
280
     1
281
     1
  3
ACAD_DIMASSOC
360
5ED1
  0
DICTIONARY
  5
7028
330
701B
100
AcDbDictionary
280
     1
281
     1
  3
ACAD_DIMASSOC
360
7029
  0
DICTIONARY
  5
7052
330
7045
100
AcDbDictionary
280
     1
281
     1
  3
ACAD_DIMASSOC
360
7053
  0
DICTIONARY
  5
70B6
330
70A9
100
AcDbDictionary
280
     1
281
     1
  3
ACAD_DIMASSOC
360
70B7
  0
DICTIONARY
  5
C5
102
{ACAD_REACTORS
330
C
102
}
330
C
100
AcDbDictionary
281
     1
  0
DICTIONARY
  5
D
102
{ACAD_REACTORS
330
C
102
}
330
C
100
AcDbDictionary
281
     1
  0
DICTIONARY
  5
1A
102
{ACAD_REACTORS
330
C
102
}
330
C
100
AcDbDictionary
281
     1
  3
Model
350
22
  3
レイアウト1
350
1E
  3
レイアウト2
350
26
  0
DICTIONARY
  5
C4
102
{ACAD_REACTORS
330
C
102
}
330
C
100
AcDbDictionary
281
     1
  3
ByBlock
350
27D
  3
ByLayer
350
27C
  3
Global
350
27E
  0
DICTIONARY
  5
2D5
102
{ACAD_REACTORS
330
C
102
}
330
C
100
AcDbDictionary
281
     1
  3
Standard
350
2D6
  0
DICTIONARY
  5
17
102
{ACAD_REACTORS
330
C
102
}
330
C
100
AcDbDictionary
281
     1
  3
Standard
350
18
  0
DICTIONARY
  5
19
102
{ACAD_REACTORS
330
C
102
}
330
C
100
AcDbDictionary
281
     1
  3
SEISA基本
350
1C7E
  0
ACDBDICTIONARYWDFLT
  5
E
102
{ACAD_REACTORS
330
C
102
}
330
C
100
AcDbDictionary
281
     1
  3
Normal
350
F
100
AcDbDictionaryWithDefault
340
F
  0
DICTIONARY
  5
2B3
102
{ACAD_REACTORS
330
C
102
}
330
C
100
AcDbDictionary
281
     1
  3
*A1
350
4190
  3
*A2
350
6F38
  3
*A3
350
6F39
  3
A0
350
2B4
  3
A1
350
2B5
  3
A2
350
2B6
  3
A3
350
2B7
  3
A4
350
2B8
  3
A5
350
2B9
  3
A6
350
2BA
  3
A7
350
2BB
  3
A8
350
2BC
  3
A9
350
2BD
  3
B0
350
2BE
  3
B1
350
2BF
  3
B2
350
2C0
  3
B3
350
2C1
  3
B4
350
2C2
  3
B5
350
2C3
  3
B6
350
2C4
  3
B7
350
2C5
  3
B8
350
2C6
  3
B9
350
2C7
  3
C0
350
2C8
  3
C1
350
2C9
  3
C2
350
2CA
  3
C3
350
2CB
  3
C4
350
2CC
  3
C5
350
2CD
  3
C6
350
2CE
  3
C7
350
2CF
  3
C8
350
2D0
  3
C9
350
2D1
  3
D0
350
2D2
  3
D1
350
2D3
  3
D2
350
2D4
  0
DICTIONARY
  5
121
102
{ACAD_REACTORS
330
C
102
}
330
C
100
AcDbDictionary
281
     1
  3
Standard
350
122
  0
DICTIONARY
  5
27F
102
{ACAD_REACTORS
330
C
102
}
330
C
100
AcDbDictionary
281
     1
  3
2dWireframe
350
285
  3
3D Hidden
350
287
  3
3dWireframe
350
286
  3
Basic
350
284
  3
Brighten
350
28B
  3
ColorChange
350
28F
  3
Conceptual
350
288
  3
Dim
350
28A
  3
Facepattern
350
28E
  3
Flat
350
280
  3
FlatWithEdges
350
281
  3
Gouraud
350
282
  3
GouraudWithEdges
350
283
  3
Linepattern
350
28D
  3
Realistic
350
289
  3
Thicken
350
28C
  0
XRECORD
  5
2F7
102
{ACAD_REACTORS
330
C
102
}
330
C
100
AcDbXrecord
280
     1
 90
        1
330
122
  0
DICTIONARY
  5
34
102
{ACAD_REACTORS
330
C
102
}
330
C
100
AcDbDictionary
281
     1
  3
CANNOSCALE
350
2FA
  3
CMLEADERSTYLE
350
2F8
  3
CTABLESTYLE
350
140
  3
DIMASSOC
350
AC
  3
INDEXCTL
350
35
  3
LAYEREVAL
350
652B
  3
LAYERNOTIFY
350
652C
  3
LIGHTINGUNITS
350
2FB
  3
MSLTSCALE
350
2F9
  0
DICTIONARY
  5
49
102
{ACAD_REACTORS
330
C
102
}
330
C
100
AcDbDictionary
281
     1
  3
AcmBOM
350
161B
  3
AcmStdDictionary
350
4A
  3
AMDTSECTSYM_ARROWCOLOR
350
12B
  0
DICTIONARY
  5
2B
102
{ACAD_REACTORS
330
C
102
}
330
C
100
AcDbDictionary
281
     1
  0
DICTIONARY
  5
1DE
102
{ACAD_REACTORS
330
C
102
}
330
C
100
AcDbDictionary
281
     1
  0
DICTIONARY
  5
6F3A
102
{ACAD_REACTORS
330
BF
102
}
330
BF
100
AcDbDictionary
281
     1
  0
DICTIONARY
  5
C0
102
{ACAD_REACTORS
330
BF
102
}
330
BF
100
AcDbDictionary
280
     1
281
     1
  0
XRECORD
  5
29F8
102
{ACAD_REACTORS
330
29F7
102
}
330
29F7
100
AcDbXrecord
280
     1
290
     1
  0
XRECORD
  5
29FA
102
{ACAD_REACTORS
330
29F9
102
}
330
29F9
100
AcDbXrecord
280
     1
290
     1
  0
SORTENTSTABLE
  5
A41
102
{ACAD_REACTORS
330
82
102
}
330
82
100
AcDbSortentsTable
330
1F
331
6EDC
  5
6EDE
331
5EBA
  5
6D7B
331
6D8D
  5
5880
331
6ECE
  5
6ED0
331
701B
  5
701B
331
5DE0
  5
6D78
331
5403
  5
5B9C
331
530B
  5
5AF8
331
5E10
  5
6D7A
331
5971
  5
62D3
331
3324
  5
3324
331
499D
  5
499D
331
49A8
  5
49A8
331
6D85
  5
57E1
331
6D9E
  5
5A96
331
6D88
  5
57ED
331
6EDA
  5
6EDC
331
6D8B
  5
581B
331
5A09
  5
6D18
331
5DF8
  5
6D79
331
5B33
  5
6D75
331
7045
  5
7045
331
6D93
  5
58EC
331
5A51
  5
6D19
331
5DA8
  5
6D76
331
499E
  5
499E
331
6D9C
  5
5A48
331
6D9F
  5
5AF6
331
6ED8
  5
6EDA
331
6D86
  5
57E2
331
6EDB
  5
6EDD
331
6ECD
  5
6ECF
331
59D7
  5
62D6
331
6EE1
  5
6ECC
331
5B1B
  5
6D74
331
5DC4
  5
6D77
331
5560
  5
5DF8
331
6F4D
  5
6F4D
331
524C
  5
5AF7
331
6D91
  5
58D0
331
6ED0
  5
6ED2
331
6ED3
  5
6ED5
331
6D9D
  5
5A51
331
6ED6
  5
6ED8
331
59BF
  5
62D4
331
5AFB
  5
6D73
331
708A
  5
708A
  0
SORTENTSTABLE
  5
6442
102
{ACAD_REACTORS
330
5022
102
}
330
5022
100
AcDbSortentsTable
330
4FF4
  0
SORTENTSTABLE
  5
64BD
102
{ACAD_REACTORS
330
5181
102
}
330
5181
100
AcDbSortentsTable
330
50A9
331
50E2
  5
50E4
331
50CA
  5
50CC
331
50D9
  5
50DB
331
50D4
  5
50D6
331
50E7
  5
5180
331
50C5
  5
50C7
331
50DE
  5
50E0
331
50CF
  5
50D1
331
50D5
  5
50D7
331
50D0
  5
50D2
331
50E3
  5
50E5
331
50C6
  5
50C8
331
50DF
  5
50E1
331
50DA
  5
50DC
331
50CB
  5
50CD
331
50E4
  5
50E6
331
50CC
  5
50CE
331
50DB
  5
50DD
331
50D6
  5
50D8
331
50D1
  5
50D3
331
50C7
  5
50C9
331
50C2
  5
50C4
331
50E0
  5
50E2
331
50C8
  5
50CA
331
50D7
  5
50D9
331
50D2
  5
50D4
331
50E5
  5
50E7
331
50C3
  5
50C5
331
50DC
  5
50DE
331
50CD
  5
50CF
331
50E6
  5
517F
331
50CE
  5
50D0
331
50E1
  5
50E3
331
50C9
  5
50CB
331
50C4
  5
50C6
331
50DD
  5
50DF
331
517F
  5
50C2
331
5180
  5
50C3
331
50D8
  5
50DA
331
50D3
  5
50D5
  0
SORTENTSTABLE
  5
713B
102
{ACAD_REACTORS
330
5356
102
}
330
5356
100
AcDbSortentsTable
330
52E5
331
52E8
  5
52EA
331
6FA2
  5
52E9
331
52EA
  5
52EC
331
52E9
  5
52EB
331
52EC
  5
52EE
331
6FA3
  5
52E8
331
52EB
  5
52ED
331
52EE
  5
52F0
331
52ED
  5
52EF
331
52F0
  5
52F2
331
52EF
  5
52F1
331
52F2
  5
52F4
331
52F1
  5
52F3
331
52F4
  5
52F6
331
52F3
  5
52F5
331
52F6
  5
52FA
331
52F8
  5
52FB
331
52FB
  5
52FD
331
52FA
  5
52FC
331
52FD
  5
52FF
331
52FC
  5
52FE
331
52FF
  5
5301
331
52FE
  5
5300
331
5301
  5
5303
331
5300
  5
5302
331
5303
  5
5305
331
5302
  5
5304
331
5305
  5
5307
331
5304
  5
5306
331
52F5
  5
52F8
331
5307
  5
6FA3
331
5306
  5
6FA2
  0
SORTENTSTABLE
  5
670E
102
{ACAD_REACTORS
330
546F
102
}
330
546F
100
AcDbSortentsTable
330
53D1
331
53EC
  5
53ED
331
53E9
  5
53EA
331
53EF
  5
53F0
331
53F2
  5
53F3
331
53DC
  5
53DD
331
53D9
  5
53DA
331
53F5
  5
53F6
331
5400
  5
5401
331
53F8
  5
53F9
331
53FB
  5
53FC
331
53E5
  5
53E6
331
53D4
  5
53D5
331
53E2
  5
53E3
331
53FE
  5
53FF
331
53D7
  5
53D8
331
53DF
  5
53E0
331
53EE
  5
53EF
331
53D8
  5
53D9
331
53EB
  5
53EC
331
53F1
  5
53F2
331
53E8
  5
53E9
331
53F4
  5
53F5
331
53DE
  5
53DF
331
53DB
  5
53DC
331
53E1
  5
53E2
331
53FA
  5
53FB
331
53FD
  5
53FE
331
53E7
  5
53E8
331
543B
  5
53D4
331
53D6
  5
53D7
331
53E4
  5
53E5
331
53F7
  5
53F8
331
5402
  5
543B
331
53EA
  5
53EB
331
53F0
  5
53F1
331
53DA
  5
53DB
331
5401
  5
5402
331
53ED
  5
53EE
331
53F3
  5
53F4
331
53F6
  5
53F7
331
53E0
  5
53E1
331
53DD
  5
53DE
331
53E3
  5
53E4
331
53FC
  5
53FD
331
53FF
  5
5400
331
53E6
  5
53E7
331
53D5
  5
53D6
331
53F9
  5
53FA
  0
SORTENTSTABLE
  5
6787
102
{ACAD_REACTORS
330
55F9
102
}
330
55F9
100
AcDbSortentsTable
330
552A
  0
SORTENTSTABLE
  5
72A9
102
{ACAD_REACTORS
330
72A8
102
}
330
72A8
100
AcDbSortentsTable
330
7205
  0
DIMASSOC
  5
59F2
102
{ACAD_REACTORS
330
59E6
102
}
330
59E6
100
AcDbDimAssoc
330
59D7
 90
        1
 70
     0
 71
     0
  1
AcDbOsnapPointRef
 72
     1
331
530B
331
52E9
 73
     2
 91
        0
 40
1.0
 10
0.0
 20
0.0
 30
2.000000000000000E+50
 75
     0
  0
DIMASSOC
  5
5A20
102
{ACAD_REACTORS
330
5A16
102
}
330
5A16
100
AcDbDimAssoc
330
5A09
 90
        3
 70
     0
 71
     0
  1
AcDbOsnapPointRef
 72
     1
331
530B
331
52E9
 73
     2
 91
        0
 40
1.0
 10
0.0
 20
0.0
 30
2.000000000000000E+50
 75
     0
  1
AcDbOsnapPointRef
 72
     2
331
530B
331
52E8
 73
     2
 91
        0
 40
0.5
 10
0.0
 20
0.0
 30
0.0
 75
     0
  0
DIMASSOC
  5
5A6C
102
{ACAD_REACTORS
330
5A60
102
}
330
5A60
100
AcDbDimAssoc
330
5A51
 90
        3
 70
     0
 71
     0
  1
AcDbOsnapPointRef
 72
     1
331
5560
331
553E
 73
     2
 91
        0
 40
1.0
 10
0.0
 20
0.0
 30
2.000000000000000E+50
 75
     0
  1
AcDbOsnapPointRef
 72
    13
331
530B
331
5302
 73
     2
 91
        0
 40
3.141592653589792
 10
0.0
 20
0.0
 30
2.000000000000000E+50
 75
     0
  0
DIMASSOC
  5
5B12
102
{ACAD_REACTORS
330
5B08
102
}
330
5B08
100
AcDbDimAssoc
330
5AFB
 90
        3
 70
     0
 71
     0
  1
AcDbOsnapPointRef
 72
    13
331
530B
331
5300
 73
     2
 91
        0
 40
0.0
 10
0.0
 20
0.0
 30
2.000000000000000E+50
 75
     0
  1
AcDbOsnapPointRef
 72
     8
331
530B
331
52F5
 73
     2
 91
        0
 40
1.0
 10
0.0
 20
0.0
 30
0.0
 75
     1
  1
AcDbOsnapPointRef
 72
    13
331
530B
331
5300
 73
     2
 91
        0
 40
0.0
 10
0.0
 20
0.0
 30
2.000000000000000E+50
 75
     0
  0
DIMASSOC
  5
5B32
102
{ACAD_REACTORS
330
5B28
102
}
330
5B28
100
AcDbDimAssoc
330
5B1B
 90
        3
 70
     0
 71
     0
  1
AcDbOsnapPointRef
 72
    13
331
5560
331
552F
 73
     2
 91
        0
 40
0.0
 10
0.0
 20
0.0
 30
2.000000000000000E+50
 75
     0
  1
AcDbOsnapPointRef
 72
    13
331
5560
331
555D
 73
     2
 91
        0
 40
0.0
 10
0.0
 20
0.0
 30
2.000000000000000E+50
 75
     0
  0
DIMASSOC
  5
5B4A
102
{ACAD_REACTORS
330
5B40
102
}
330
5B40
100
AcDbDimAssoc
330
5B33
 90
        3
 70
     0
 71
     0
  1
AcDbOsnapPointRef
 72
    13
331
524C
331
50D1
 73
     2
 91
        0
 40
0.0
 10
0.0
 20
0.0
 30
2.000000000000000E+50
 75
     0
  1
AcDbOsnapPointRef
 72
    13
331
524C
331
50DE
 73
     2
 91
        0
 40
0.0
 10
0.0
 20
0.0
 30
2.000000000000000E+50
 75
     0
  0
DIMASSOC
  5
5DC3
102
{ACAD_REACTORS
330
5DB7
102
}
330
5DB7
100
AcDbDimAssoc
330
5DA8
 90
        3
 70
     0
 71
     0
  1
AcDbOsnapPointRef
 72
     1
331
524C
331
50AC
 73
     2
 91
        0
 40
1.0
 10
0.0
 20
0.0
 30
2.000000000000000E+50
 75
     0
  1
AcDbOsnapPointRef
 72
    13
331
524C
331
50AD
 73
     2
 91
        0
 40
0.0
 10
0.0
 20
0.0
 30
2.000000000000000E+50
 75
     0
  0
DIMASSOC
  5
5DDF
102
{ACAD_REACTORS
330
5DD3
102
}
330
5DD3
100
AcDbDimAssoc
330
5DC4
 90
        1
 70
     0
 71
     0
  1
AcDbOsnapPointRef
 72
     1
331
524C
331
50AC
 73
     2
 91
        0
 40
1.0
 10
0.0
 20
0.0
 30
2.000000000000000E+50
 75
     0
  0
DIMASSOC
  5
5DF7
102
{ACAD_REACTORS
330
5DED
102
}
330
5DED
100
AcDbDimAssoc
330
5DE0
 90
        3
 70
     0
 71
     0
  1
AcDbOsnapPointRef
 72
     1
331
524C
331
50AC
 73
     2
 91
        0
 40
1.0
 10
0.0
 20
0.0
 30
2.000000000000000E+50
 75
     0
  1
AcDbOsnapPointRef
 72
    13
331
5560
331
555D
 73
     2
 91
        0
 40
0.0
 10
0.0
 20
0.0
 30
2.000000000000000E+50
 75
     0
  0
DIMASSOC
  5
5E0F
102
{ACAD_REACTORS
330
5E05
102
}
330
5E05
100
AcDbDimAssoc
330
5DF8
 90
        1
 70
     0
 71
     0
  1
AcDbOsnapPointRef
 72
     1
331
524C
331
50AC
 73
     2
 91
        0
 40
1.0
 10
0.0
 20
0.0
 30
2.000000000000000E+50
 75
     0
  0
DIMASSOC
  5
5E27
102
{ACAD_REACTORS
330
5E1D
102
}
330
5E1D
100
AcDbDimAssoc
330
5E10
 90
        3
 70
     0
 71
     0
  1
AcDbOsnapPointRef
 72
    13
331
530B
331
52E8
 73
     2
 91
        0
 40
0.0
 10
0.0
 20
0.0
 30
2.000000000000000E+50
 75
     0
  1
AcDbOsnapPointRef
 72
    13
331
5560
331
555D
 73
     2
 91
        0
 40
0.0
 10
0.0
 20
0.0
 30
2.000000000000000E+50
 75
     0
  0
DIMASSOC
  5
5ED1
102
{ACAD_REACTORS
330
5EC7
102
}
330
5EC7
100
AcDbDimAssoc
330
5EBA
 90
        1
 70
     0
 71
     0
  1
AcDbOsnapPointRef
 72
    13
331
530B
331
52E8
 73
     2
 91
        0
 40
0.0
 10
0.0
 20
0.0
 30
2.000000000000000E+50
 75
     0
  0
DIMASSOC
  5
7029
102
{ACAD_REACTORS
330
7028
102
}
330
7028
100
AcDbDimAssoc
330
701B
 90
        3
 70
     0
 71
     0
  1
AcDbOsnapPointRef
 72
     1
331
530B
331
52FE
 73
     0
 91
        0
 40
0.0
 10
0.0
 20
0.0
 30
2.000000000000000E+50
 75
     0
  1
AcDbOsnapPointRef
 72
     4
331
5A51
331
6E0B
 73
     0
 91
        0
 40
0.0
 10
0.0
 20
0.0
 30
0.0
 75
     0
  0
DIMASSOC
  5
7053
102
{ACAD_REACTORS
330
7052
102
}
330
7052
100
AcDbDimAssoc
330
7045
 90
        3
 70
     0
 71
     0
  1
AcDbOsnapPointRef
 72
    13
331
530B
331
52E9
 73
     0
 91
        0
 40
0.0
 10
0.0
 20
0.0
 30
2.000000000000000E+50
 75
     0
  1
AcDbOsnapPointRef
 72
     4
331
701B
331
7042
 73
     0
 91
        0
 40
0.0
 10
0.0
 20
0.0
 30
0.0
 75
     0
  0
DIMASSOC
  5
70B7
102
{ACAD_REACTORS
330
70B6
102
}
330
70B6
100
AcDbDimAssoc
330
70A9
 90
        1
 70
     0
 71
     0
  1
AcDbOsnapPointRef
 72
     1
331
530B
331
52E8
 73
     0
 91
        0
 40
0.0
 10
0.0
 20
0.0
 30
2.000000000000000E+50
 75
     0
  0
LAYOUT
  5
22
102
{ACAD_REACTORS
330
1A
102
}
330
1A
100
AcDbPlotSettings
  1

  2
KONICA MINOLTA 501 PCL
  4
A4
  6

 40
5.027082920074462
 41
5.027085781097412
 42
5.027069091796875
 43
5.027069091796875
 44
209.9733276367186
 45
296.9259948730469
 46
0.0
 47
7.252617606473932
 48
0.0
 49
0.0
140
0.0
141
0.0
142
1.0
143
3.267092164416521
 70
 11956
 72
     1
 73
     1
 74
     1
  7
SEISA.ctb
 75
     0
147
0.3060825803726883
 76
     0
 77
     2
 78
   300
148
-657.7880925498792
149
-647.2176421663042
100
AcDbLayout
  1
Model
 70
     1
 71
     0
 10
0.0
 20
0.0
 11
12.0
 21
9.0
 12
0.0
 22
0.0
 32
0.0
 14
0.0
 24
0.0
 34
0.0
 15
0.0
 25
0.0
 35
0.0
146
0.0
 13
0.0
 23
0.0
 33
0.0
 16
1.0
 26
0.0
 36
0.0
 17
0.0
 27
1.0
 37
0.0
 76
     0
330
1F
331
27A
1001
ACAD_PSEXT
1000
KONICA MINOLTA 501 PCL
1000
KONICA MINOLTA 501/421/361PCL
1000
IP_192.168.20.231_(1)
1000

1070
     0
  0
LAYOUT
  5
1E
102
{ACAD_REACTORS
330
1A
102
}
330
1A
100
AcDbPlotSettings
  1

  2
none_device
  4
Letter_(8.50_x_11.00_Inches)
  6

 40
6.349999904632567
 41
6.349999904632567
 42
6.350006103515625
 43
6.350006103515625
 44
215.8999938964844
 45
279.3999938964844
 46
0.0
 47
0.0
 48
0.0
 49
0.0
140
0.0
141
0.0
142
1.0
143
1.0
 70
 15024
 72
     1
 73
     1
 74
     5
  7
SEISA.ctb
 75
    16
147
1.0
 76
     0
 77
     2
 78
   300
148
0.0
149
0.0
100
AcDbLayout
  1
レイアウト1
 70
     1
 71
     1
 10
0.0
 20
0.0
 11
420.0
 21
297.0
 12
0.0
 22
0.0
 32
0.0
 14
1.000000000000000E+20
 24
1.000000000000000E+20
 34
1.000000000000000E+20
 15
-1.000000000000000E+20
 25
-1.000000000000000E+20
 35
-1.000000000000000E+20
146
0.0
 13
0.0
 23
0.0
 33
0.0
 16
1.0
 26
0.0
 36
0.0
 17
0.0
 27
1.0
 37
0.0
 76
     0
330
1B
  0
LAYOUT
  5
26
102
{ACAD_REACTORS
330
1A
102
}
330
1A
100
AcDbPlotSettings
  1

  2
none_device
  4
Letter_(8.50_x_11.00_Inches)
  6

 40
6.349999904632567
 41
6.349999904632567
 42
6.350006103515625
 43
6.350006103515625
 44
215.8999938964844
 45
279.3999938964844
 46
0.0
 47
0.0
 48
0.0
 49
0.0
140
0.0
141
0.0
142
1.0
143
1.0
 70
 15024
 72
     1
 73
     1
 74
     5
  7
SEISA.ctb
 75
    16
147
1.0
 76
     0
 77
     2
 78
   300
148
0.0
149
0.0
100
AcDbLayout
  1
レイアウト2
 70
     1
 71
     2
 10
0.0
 20
0.0
 11
12.0
 21
9.0
 12
0.0
 22
0.0
 32
0.0
 14
0.0
 24
0.0
 34
0.0
 15
0.0
 25
0.0
 35
0.0
146
0.0
 13
0.0
 23
0.0
 33
0.0
 16
1.0
 26
0.0
 36
0.0
 17
0.0
 27
1.0
 37
0.0
 76
     0
330
23
  0
MATERIAL
  5
27D
102
{ACAD_REACTORS
330
C4
102
}
330
C4
100
AcDbMaterial
  1
ByBlock
 73
     1
 78
     1
172
     1
176
     1
270
     1
274
     1
 94
       63
  0
MATERIAL
  5
27C
102
{ACAD_REACTORS
330
C4
102
}
330
C4
100
AcDbMaterial
  1
ByLayer
 73
     1
 78
     1
172
     1
176
     1
270
     1
274
     1
 94
       63
  0
MATERIAL
  5
27E
102
{ACAD_REACTORS
330
C4
102
}
330
C4
100
AcDbMaterial
  1
Global
 73
     1
 78
     1
172
     1
176
     1
270
     1
274
     1
 94
       63
  0
MLEADERSTYLE
  5
2D6
102
{ACAD_REACTORS
330
2D5
102
}
330
2D5
100
AcDbMLeaderStyle
170
     2
171
     1
172
     0
 90
        2
 40
0.0
 41
0.0
173
     1
 91
-1056964608
340
14
 92
       -2
290
     1
 42
2.0
291
     1
 43
0.36
  3
Standard
 44
4.0
300

342
11
174
     1
178
     6
175
     1
176
     0
 93
-1056964608
 45
4.0
292
     0
297
     0
 46
4.0
 94
-1056964608
 47
1.0
 49
1.0
140
1.0
293
     1
141
0.0
294
     1
177
     0
142
1.0
295
     0
296
     0
143
0.125
1001
ACAD_MLEADERVER
1070
     2
  0
MLINESTYLE
  5
18
102
{ACAD_REACTORS
330
17
102
}
330
17
100
AcDbMlineStyle
  2
STANDARD
 70
     0
  3

 62
   256
 51
90.0
 52
90.0
 71
     2
 49
0.5
 62
   256
  6
BYLAYER
 49
-0.5
 62
   256
  6
BYLAYER
  0
PLOTSETTINGS
  5
1C7E
102
{ACAD_REACTORS
330
19
102
}
330
19
100
AcDbPlotSettings
  1
SEISA基本
  2
none_device
  4
Letter_(8.50_x_11.00_Inches)
  6

 40
6.349999904632567
 41
6.349999904632567
 42
6.350006103515625
 43
6.350006103515625
 44
215.8999938964844
 45
279.3999938964844
 46
7.302498226506357
 47
0.0
 48
0.0
 49
0.0
140
0.0
141
0.0
142
1.0
143
1.574803221122935
 70
 11956
 72
     1
 73
     1
 74
     2
  7
SEISA.ctb
 75
     0
147
0.6349999711627054
 76
     0
 77
     2
 78
   300
148
0.0
149
0.0
1001
ACAD_PSEXT
1000
なし
1000
なし
1000
適切ではありません
1000
新しいプロッタ環境設定名を選択しない限り、レイアウトは印刷されません。
1070
     0
  0
ACDBPLACEHOLDER
  5
F
102
{ACAD_REACTORS
330
E
102
}
330
E
  0
SCALE
  5
4190
102
{ACAD_REACTORS
330
2B3
102
}
330
2B3
100
AcDbScale
 70
     0
300
1:3
140
1.0
141
3.0
290
     0
  0
SCALE
  5
6F38
102
{ACAD_REACTORS
330
2B3
102
}
330
2B3
100
AcDbScale
 70
     0
300
1:2.5
140
1.0
141
2.5
290
     0
  0
SCALE
  5
6F39
102
{ACAD_REACTORS
330
2B3
102
}
330
2B3
100
AcDbScale
 70
     0
300
1:1.5
140
1.0
141
1.5
290
     0
  0
SCALE
  5
2B4
102
{ACAD_REACTORS
330
2B3
102
}
330
2B3
100
AcDbScale
 70
     0
300
1:1
140
1.0
141
1.0
290
     1
  0
SCALE
  5
2B5
102
{ACAD_REACTORS
330
2B3
102
}
330
2B3
100
AcDbScale
 70
     0
300
1:2
140
1.0
141
2.0
290
     0
  0
SCALE
  5
2B6
102
{ACAD_REACTORS
330
2B3
102
}
330
2B3
100
AcDbScale
 70
     0
300
1:4
140
1.0
141
4.0
290
     0
  0
SCALE
  5
2B7
102
{ACAD_REACTORS
330
2B3
102
}
330
2B3
100
AcDbScale
 70
     0
300
1:5
140
1.0
141
5.0
290
     0
  0
SCALE
  5
2B8
102
{ACAD_REACTORS
330
2B3
102
}
330
2B3
100
AcDbScale
 70
     0
300
1:8
140
1.0
141
8.0
290
     0
  0
SCALE
  5
2B9
102
{ACAD_REACTORS
330
2B3
102
}
330
2B3
100
AcDbScale
 70
     0
300
1:10
140
1.0
141
10.0
290
     0
  0
SCALE
  5
2BA
102
{ACAD_REACTORS
330
2B3
102
}
330
2B3
100
AcDbScale
 70
     0
300
1:16
140
1.0
141
16.0
290
     0
  0
SCALE
  5
2BB
102
{ACAD_REACTORS
330
2B3
102
}
330
2B3
100
AcDbScale
 70
     0
300
1:20
140
1.0
141
20.0
290
     0
  0
SCALE
  5
2BC
102
{ACAD_REACTORS
330
2B3
102
}
330
2B3
100
AcDbScale
 70
     0
300
1:30
140
1.0
141
30.0
290
     0
  0
SCALE
  5
2BD
102
{ACAD_REACTORS
330
2B3
102
}
330
2B3
100
AcDbScale
 70
     0
300
1:40
140
1.0
141
40.0
290
     0
  0
SCALE
  5
2BE
102
{ACAD_REACTORS
330
2B3
102
}
330
2B3
100
AcDbScale
 70
     0
300
1:50
140
1.0
141
50.0
290
     0
  0
SCALE
  5
2BF
102
{ACAD_REACTORS
330
2B3
102
}
330
2B3
100
AcDbScale
 70
     0
300
1:100
140
1.0
141
100.0
290
     0
  0
SCALE
  5
2C0
102
{ACAD_REACTORS
330
2B3
102
}
330
2B3
100
AcDbScale
 70
     0
300
2:1
140
2.0
141
1.0
290
     0
  0
SCALE
  5
2C1
102
{ACAD_REACTORS
330
2B3
102
}
330
2B3
100
AcDbScale
 70
     0
300
4:1
140
4.0
141
1.0
290
     0
  0
SCALE
  5
2C2
102
{ACAD_REACTORS
330
2B3
102
}
330
2B3
100
AcDbScale
 70
     0
300
8:1
140
8.0
141
1.0
290
     0
  0
SCALE
  5
2C3
102
{ACAD_REACTORS
330
2B3
102
}
330
2B3
100
AcDbScale
 70
     0
300
10:1
140
10.0
141
1.0
290
     0
  0
SCALE
  5
2C4
102
{ACAD_REACTORS
330
2B3
102
}
330
2B3
100
AcDbScale
 70
     0
300
100:1
140
100.0
141
1.0
290
     0
  0
SCALE
  5
2C5
102
{ACAD_REACTORS
330
2B3
102
}
330
2B3
100
AcDbScale
 70
     0
300
1/128" = 1'-0"
140
0.0078125
141
12.0
290
     0
  0
SCALE
  5
2C6
102
{ACAD_REACTORS
330
2B3
102
}
330
2B3
100
AcDbScale
 70
     0
300
1/64" = 1'-0"
140
0.015625
141
12.0
290
     0
  0
SCALE
  5
2C7
102
{ACAD_REACTORS
330
2B3
102
}
330
2B3
100
AcDbScale
 70
     0
300
1/32" = 1'-0"
140
0.03125
141
12.0
290
     0
  0
SCALE
  5
2C8
102
{ACAD_REACTORS
330
2B3
102
}
330
2B3
100
AcDbScale
 70
     0
300
1/16" = 1'-0"
140
0.0625
141
12.0
290
     0
  0
SCALE
  5
2C9
102
{ACAD_REACTORS
330
2B3
102
}
330
2B3
100
AcDbScale
 70
     0
300
3/32" = 1'-0"
140
0.09375
141
12.0
290
     0
  0
SCALE
  5
2CA
102
{ACAD_REACTORS
330
2B3
102
}
330
2B3
100
AcDbScale
 70
     0
300
1/8" = 1'-0"
140
0.125
141
12.0
290
     0
  0
SCALE
  5
2CB
102
{ACAD_REACTORS
330
2B3
102
}
330
2B3
100
AcDbScale
 70
     0
300
3/16" = 1'-0"
140
0.1875
141
12.0
290
     0
  0
SCALE
  5
2CC
102
{ACAD_REACTORS
330
2B3
102
}
330
2B3
100
AcDbScale
 70
     0
300
1/4" = 1'-0"
140
0.25
141
12.0
290
     0
  0
SCALE
  5
2CD
102
{ACAD_REACTORS
330
2B3
102
}
330
2B3
100
AcDbScale
 70
     0
300
3/8" = 1'-0"
140
0.375
141
12.0
290
     0
  0
SCALE
  5
2CE
102
{ACAD_REACTORS
330
2B3
102
}
330
2B3
100
AcDbScale
 70
     0
300
1/2" = 1'-0"
140
0.5
141
12.0
290
     0
  0
SCALE
  5
2CF
102
{ACAD_REACTORS
330
2B3
102
}
330
2B3
100
AcDbScale
 70
     0
300
3/4" = 1'-0"
140
0.75
141
12.0
290
     0
  0
SCALE
  5
2D0
102
{ACAD_REACTORS
330
2B3
102
}
330
2B3
100
AcDbScale
 70
     0
300
1" = 1'-0"
140
1.0
141
12.0
290
     0
  0
SCALE
  5
2D1
102
{ACAD_REACTORS
330
2B3
102
}
330
2B3
100
AcDbScale
 70
     0
300
1-1/2" = 1'-0"
140
1.5
141
12.0
290
     0
  0
SCALE
  5
2D2
102
{ACAD_REACTORS
330
2B3
102
}
330
2B3
100
AcDbScale
 70
     0
300
3" = 1'-0"
140
3.0
141
12.0
290
     0
  0
SCALE
  5
2D3
102
{ACAD_REACTORS
330
2B3
102
}
330
2B3
100
AcDbScale
 70
     0
300
6" = 1'-0"
140
6.0
141
12.0
290
     0
  0
SCALE
  5
2D4
102
{ACAD_REACTORS
330
2B3
102
}
330
2B3
100
AcDbScale
 70
     0
300
1'-0" = 1'-0"
140
12.0
141
12.0
290
     0
  0
TABLESTYLE
  5
122
102
{ACAD_XDICTIONARY
360
2F5
102
}
102
{ACAD_REACTORS
330
121
102
}
330
121
100
AcDbTableStyle
  3
Standard
 70
     0
 71
     0
 40
1.5
 41
1.5
280
     0
281
     0
  7
STANDARD
140
4.5
170
     2
 62
     0
 63
     7
283
     0
 90
      512
 91
        0
  1

274
    -2
284
     1
 64
     0
275
    -2
285
     1
 65
     0
276
    -2
286
     1
 66
     0
277
    -2
287
     1
 67
     0
278
    -2
288
     1
 68
     0
279
    -2
289
     1
 69
     0
  7
STANDARD
140
6.0
170
     5
 62
     0
 63
     7
283
     0
 90
      512
 91
        0
  1

274
    -2
284
     1
 64
     0
275
    -2
285
     1
 65
     0
276
    -2
286
     1
 66
     0
277
    -2
287
     1
 67
     0
278
    -2
288
     1
 68
     0
279
    -2
289
     1
 69
     0
  7
STANDARD
140
4.5
170
     5
 62
     0
 63
     7
283
     0
 90
      512
 91
        0
  1

274
    -2
284
     1
 64
     0
275
    -2
285
     1
 65
     0
276
    -2
286
     1
 66
     0
277
    -2
287
     1
 67
     0
278
    -2
288
     1
 68
     0
279
    -2
289
     1
 69
     0
  0
VISUALSTYLE
  5
285
102
{ACAD_REACTORS
330
27F
102
}
330
27F
100
AcDbVisualStyle
  2
2dWireframe
 70
     4
 71
     0
 72
     2
 73
     0
 90
        0
 40
-0.6
 41
-30.0
 62
     5
 63
     7
421
 16777215
 74
     1
 91
        4
 64
     7
 65
   257
 75
     1
175
     1
 42
1.0
 92
        0
 66
   257
 43
1.0
 76
     1
 77
     6
 78
     2
 67
     7
 79
     5
170
     0
171
     0
290
     0
174
     0
 93
        1
 44
0.0
173
     0
291
     0
 45
0.0
  0
VISUALSTYLE
  5
287
102
{ACAD_REACTORS
330
27F
102
}
330
27F
100
AcDbVisualStyle
  2
3D Hidden
 70
     6
 71
     1
 72
     2
 73
     2
 90
        0
 40
-0.6
 41
-30.0
 62
     5
 63
     7
421
 16777215
 74
     2
 91
        2
 64
     7
 65
   257
 75
     2
175
     1
 42
40.0
 92
        0
 66
   257
 43
1.0
 76
     1
 77
     6
 78
     2
 67
     7
 79
     3
170
     0
171
     0
290
     0
174
     0
 93
        1
 44
0.0
173
     0
291
     0
 45
0.0
  0
VISUALSTYLE
  5
286
102
{ACAD_REACTORS
330
27F
102
}
330
27F
100
AcDbVisualStyle
  2
3dWireframe
 70
     5
 71
     0
 72
     2
 73
     0
 90
        0
 40
-0.6
 41
-30.0
 62
     5
 63
     7
421
 16777215
 74
     1
 91
        4
 64
     7
 65
   257
 75
     1
175
     1
 42
1.0
 92
        0
 66
   257
 43
1.0
 76
     1
 77
     6
 78
     2
 67
     7
 79
     5
170
     0
171
     0
290
     0
174
     0
 93
        1
 44
0.0
173
     0
291
     0
 45
0.0
  0
VISUALSTYLE
  5
284
102
{ACAD_REACTORS
330
27F
102
}
330
27F
100
AcDbVisualStyle
  2
Basic
 70
     7
 71
     1
 72
     0
 73
     1
 90
        0
 40
-0.6
 41
-30.0
 62
     5
 63
     7
421
 16777215
 74
     0
 91
        4
 64
     7
 65
   257
 75
     1
175
     1
 42
1.0
 92
        8
 66
     7
 43
1.0
 76
     1
 77
     6
 78
     2
 67
     7
 79
     5
170
     0
171
     0
290
     0
174
     0
 93
        1
 44
0.0
173
     0
291
     1
 45
0.0
  0
VISUALSTYLE
  5
28B
102
{ACAD_REACTORS
330
27F
102
}
330
27F
100
AcDbVisualStyle
  2
Brighten
 70
    12
 71
     2
 72
     2
 73
     0
 90
        0
 40
-0.6
 41
-30.0
 62
     5
 63
     7
421
 16777215
 74
     1
 91
        4
 64
     7
 65
   257
 75
     1
175
     1
 42
1.0
 92
        8
 66
     7
 43
1.0
 76
     1
 77
     6
 78
     2
 67
     7
 79
     5
170
     0
171
     0
290
     0
174
     0
 93
        1
 44
50.0
173
     0
291
     1
 45
0.0
  0
VISUALSTYLE
  5
28F
102
{ACAD_REACTORS
330
27F
102
}
330
27F
100
AcDbVisualStyle
  2
ColorChange
 70
    16
 71
     2
 72
     2
 73
     3
 90
        0
 40
-0.6
 41
-30.0
 62
     5
 63
     8
421
  8421504
 74
     1
 91
        4
 64
     7
 65
   257
 75
     1
175
     1
 42
1.0
 92
        8
 66
     8
424
  8421504
 43
1.0
 76
     1
 77
     6
 78
     2
 67
     7
 79
     5
170
     0
171
     0
290
     0
174
     0
 93
        1
 44
0.0
173
     0
291
     1
 45
0.0
  0
VISUALSTYLE
  5
288
102
{ACAD_REACTORS
330
27F
102
}
330
27F
100
AcDbVisualStyle
  2
Conceptual
 70
     9
 71
     3
 72
     2
 73
     0
 90
        0
 40
-0.6
 41
-30.0
 62
     5
 63
     7
421
 16777215
 74
     2
 91
        2
 64
     7
 65
   257
 75
     1
175
     1
 42
40.0
 92
        8
 66
     7
 43
1.0
 76
     1
 77
     6
 78
     2
 67
     7
 79
     3
170
     0
171
     0
290
     0
174
     0
 93
        1
 44
0.0
173
     0
291
     0
 45
0.0
  0
VISUALSTYLE
  5
28A
102
{ACAD_REACTORS
330
27F
102
}
330
27F
100
AcDbVisualStyle
  2
Dim
 70
    11
 71
     2
 72
     2
 73
     0
 90
        0
 40
-0.6
 41
-30.0
 62
     5
 63
     7
421
 16777215
 74
     1
 91
        4
 64
     7
 65
   257
 75
     1
175
     1
 42
1.0
 92
        8
 66
     7
 43
1.0
 76
     1
 77
     6
 78
     2
 67
     7
 79
     5
170
     0
171
     0
290
     0
174
     0
 93
        1
 44
-50.0
173
     0
291
     1
 45
0.0
  0
VISUALSTYLE
  5
28E
102
{ACAD_REACTORS
330
27F
102
}
330
27F
100
AcDbVisualStyle
  2
Facepattern
 70
    15
 71
     2
 72
     2
 73
     0
 90
        0
 40
-0.6
 41
-30.0
 62
     5
 63
     7
421
 16777215
 74
     1
 91
        4
 64
     7
 65
   257
 75
     1
175
     1
 42
1.0
 92
        8
 66
     7
 43
1.0
 76
     1
 77
     6
 78
     2
 67
     7
 79
     5
170
     0
171
     0
290
     0
174
     0
 93
        1
 44
0.0
173
     0
291
     1
 45
0.0
  0
VISUALSTYLE
  5
280
102
{ACAD_REACTORS
330
27F
102
}
330
27F
100
AcDbVisualStyle
  2
Flat
 70
     0
 71
     2
 72
     1
 73
     1
 90
        2
 40
-0.6
 41
30.0
 62
     5
 63
     7
421
 16777215
 74
     0
 91
        4
 64
     7
 65
   257
 75
     1
175
     1
 42
1.0
 92
        8
 66
     7
 43
1.0
 76
     1
 77
     6
 78
     2
 67
     7
 79
     5
170
     0
171
     0
290
     0
174
     0
 93
       13
 44
0.0
173
     0
291
     1
 45
0.0
  0
VISUALSTYLE
  5
281
102
{ACAD_REACTORS
330
27F
102
}
330
27F
100
AcDbVisualStyle
  2
FlatWithEdges
 70
     1
 71
     2
 72
     1
 73
     1
 90
        2
 40
-0.6
 41
30.0
 62
     5
 63
     7
421
 16777215
 74
     1
 91
        4
 64
     7
 65
   257
 75
     1
175
     1
 42
1.0
 92
        0
 66
   257
 43
1.0
 76
     1
 77
     6
 78
     2
 67
     7
 79
     5
170
     0
171
     0
290
     0
174
     0
 93
       13
 44
0.0
173
     0
291
     1
 45
0.0
  0
VISUALSTYLE
  5
282
102
{ACAD_REACTORS
330
27F
102
}
330
27F
100
AcDbVisualStyle
  2
Gouraud
 70
     2
 71
     2
 72
     2
 73
     1
 90
        2
 40
-0.6
 41
30.0
 62
     5
 63
     7
421
 16777215
 74
     0
 91
        4
 64
     7
 65
   257
 75
     1
175
     1
 42
1.0
 92
        0
 66
     7
 43
1.0
 76
     1
 77
     6
 78
     2
 67
     7
 79
     5
170
     0
171
     0
290
     0
174
     0
 93
       13
 44
0.0
173
     0
291
     1
 45
0.0
  0
VISUALSTYLE
  5
283
102
{ACAD_REACTORS
330
27F
102
}
330
27F
100
AcDbVisualStyle
  2
GouraudWithEdges
 70
     3
 71
     2
 72
     2
 73
     1
 90
        2
 40
-0.6
 41
30.0
 62
     5
 63
     7
421
 16777215
 74
     1
 91
        4
 64
     7
 65
   257
 75
     1
175
     1
 42
1.0
 92
        0
 66
   257
 43
1.0
 76
     1
 77
     6
 78
     2
 67
     7
 79
     5
170
     0
171
     0
290
     0
174
     0
 93
       13
 44
0.0
173
     0
291
     1
 45
0.0
  0
VISUALSTYLE
  5
28D
102
{ACAD_REACTORS
330
27F
102
}
330
27F
100
AcDbVisualStyle
  2
Linepattern
 70
    14
 71
     2
 72
     2
 73
     0
 90
        0
 40
-0.6
 41
-30.0
 62
     5
 63
     7
421
 16777215
 74
     1
 91
        4
 64
     7
 65
   257
 75
     7
175
     7
 42
1.0
 92
        8
 66
     7
 43
1.0
 76
     1
 77
     6
 78
     2
 67
     7
 79
     5
170
     0
171
     0
290
     0
174
     0
 93
        1
 44
0.0
173
     0
291
     1
 45
0.0
  0
VISUALSTYLE
  5
289
102
{ACAD_REACTORS
330
27F
102
}
330
27F
100
AcDbVisualStyle
  2
Realistic
 70
     8
 71
     2
 72
     2
 73
     0
 90
        0
 40
-0.6
 41
-30.0
 62
     5
 63
     7
421
 16777215
 74
     1
 91
        0
 64
     7
 65
   257
 75
     1
175
     1
 42
1.0
 92
        8
 66
     8
424
  7895160
 43
1.0
 76
     1
 77
     6
 78
     2
 67
     7
 79
     5
170
     0
171
     0
290
     0
174
     0
 93
       13
 44
0.0
173
     0
291
     0
 45
0.0
  0
VISUALSTYLE
  5
28C
102
{ACAD_REACTORS
330
27F
102
}
330
27F
100
AcDbVisualStyle
  2
Thicken
 70
    13
 71
     2
 72
     2
 73
     0
 90
        0
 40
-0.6
 41
-30.0
 62
     5
 63
     7
421
 16777215
 74
     1
 91
        4
 64
     7
 65
   257
 75
     1
175
     1
 42
1.0
 92
       12
 66
     7
 43
1.0
 76
     1
 77
     6
 78
     2
 67
     7
 79
     5
170
     0
171
     0
290
     0
174
     0
 93
        1
 44
0.0
173
     0
291
     1
 45
0.0
  0
DICTIONARYVAR
  5
2FA
102
{ACAD_REACTORS
330
34
102
}
330
34
100
DictionaryVariables
280
     0
  1
1:5
  0
DICTIONARYVAR
  5
2F8
102
{ACAD_REACTORS
330
34
102
}
330
34
100
DictionaryVariables
280
     0
  1
STANDARD
  0
DICTIONARYVAR
  5
140
102
{ACAD_REACTORS
330
34
102
}
330
34
100
DictionaryVariables
280
     0
  1
STANDARD
  0
DICTIONARYVAR
  5
AC
102
{ACAD_REACTORS
330
34
102
}
330
34
100
DictionaryVariables
280
     0
  1
1
  0
DICTIONARYVAR
  5
35
102
{ACAD_REACTORS
330
34
102
}
330
34
100
DictionaryVariables
280
     0
  1
1
  0
DICTIONARYVAR
  5
652B
102
{ACAD_REACTORS
330
34
102
}
330
34
100
DictionaryVariables
280
     0
  1
1
  0
DICTIONARYVAR
  5
652C
102
{ACAD_REACTORS
330
34
102
}
330
34
100
DictionaryVariables
280
     0
  1
15
  0
DICTIONARYVAR
  5
2FB
102
{ACAD_REACTORS
330
34
102
}
330
34
100
DictionaryVariables
280
     0
  1
0
  0
DICTIONARYVAR
  5
2F9
102
{ACAD_REACTORS
330
34
102
}
330
34
100
DictionaryVariables
280
     0
  1
0
  0
DICTIONARY
  5
161B
102
{ACAD_REACTORS
330
49
102
}
330
49
100
AcDbDictionary
281
     1
  0
DICTIONARY
  5
4A
102
{ACAD_REACTORS
330
49
102
}
330
49
100
AcDbDictionary
281
     1
  0
XRECORD
  5
12B
102
{ACAD_REACTORS
330
49
102
}
330
49
100
AcDbXrecord
280
     1
 90
-1023410169
  0
DICTIONARY
  5
2F5
330
122
100
AcDbDictionary
280
     1
281
     1
  3
ACAD_ROUNDTRIP_2008_TABLESTYLE_CELLSTYLEMAP
360
7358
  0
CELLSTYLEMAP
  5
7358
102
{ACAD_REACTORS
330
2F5
102
}
330
2F5
100
AcDbCellStyleMap
 90
        3
300
CELLSTYLE
  1
TABLEFORMAT_BEGIN
 90
        5
170
     1
 91
        0
 92
    32768
 62
   257
 93
        1
300
CONTENTFORMAT
  1
CONTENTFORMAT_BEGIN
 90
        0
 91
        0
 92
      512
 93
        0
300

 40
0.0
140
1.0
 94
        5
 62
     0
340
11
144
6.0
309
CONTENTFORMAT_END
171
     1
301
MARGIN
  1
CELLMARGIN_BEGIN
 40
1.5
 40
1.5
 40
1.5
 40
1.5
 40
0.18
 40
0.18
309
CELLMARGIN_END
 94
        6
 95
        1
302
GRIDFORMAT
  1
GRIDFORMAT_BEGIN
 90
        0
 91
        1
 62
     0
 92
       -2
340
0
 93
        0
 40
0.045
309
GRIDFORMAT_END
 95
        2
302
GRIDFORMAT
  1
GRIDFORMAT_BEGIN
 90
        0
 91
        1
 62
     0
 92
       -2
340
0
 93
        0
 40
0.045
309
GRIDFORMAT_END
 95
        4
302
GRIDFORMAT
  1
GRIDFORMAT_BEGIN
 90
        0
 91
        1
 62
     0
 92
       -2
340
0
 93
        0
 40
0.045
309
GRIDFORMAT_END
 95
        8
302
GRIDFORMAT
  1
GRIDFORMAT_BEGIN
 90
        0
 91
        1
 62
     0
 92
       -2
340
0
 93
        0
 40
0.045
309
GRIDFORMAT_END
 95
       16
302
GRIDFORMAT
  1
GRIDFORMAT_BEGIN
 90
        0
 91
        1
 62
     0
 92
       -2
340
0
 93
        0
 40
0.045
309
GRIDFORMAT_END
 95
       32
302
GRIDFORMAT
  1
GRIDFORMAT_BEGIN
 90
        0
 91
        1
 62
     0
 92
       -2
340
0
 93
        0
 40
0.045
309
GRIDFORMAT_END
309
TABLEFORMAT_END
  1
CELLSTYLE_BEGIN
 90
        1
 91
        1
300
_TITLE
309
CELLSTYLE_END
300
CELLSTYLE
  1
TABLEFORMAT_BEGIN
 90
        5
170
     1
 91
        0
 92
        0
 62
   257
 93
        1
300
CONTENTFORMAT
  1
CONTENTFORMAT_BEGIN
 90
        0
 91
        0
 92
      512
 93
        0
300

 40
0.0
140
1.0
 94
        5
 62
     0
340
11
144
4.5
309
CONTENTFORMAT_END
171
     1
301
MARGIN
  1
CELLMARGIN_BEGIN
 40
1.5
 40
1.5
 40
1.5
 40
1.5
 40
0.18
 40
0.18
309
CELLMARGIN_END
 94
        6
 95
        1
302
GRIDFORMAT
  1
GRIDFORMAT_BEGIN
 90
        0
 91
        1
 62
     0
 92
       -2
340
0
 93
        0
 40
0.045
309
GRIDFORMAT_END
 95
        2
302
GRIDFORMAT
  1
GRIDFORMAT_BEGIN
 90
        0
 91
        1
 62
     0
 92
       -2
340
0
 93
        0
 40
0.045
309
GRIDFORMAT_END
 95
        4
302
GRIDFORMAT
  1
GRIDFORMAT_BEGIN
 90
        0
 91
        1
 62
     0
 92
       -2
340
0
 93
        0
 40
0.045
309
GRIDFORMAT_END
 95
        8
302
GRIDFORMAT
  1
GRIDFORMAT_BEGIN
 90
        0
 91
        1
 62
     0
 92
       -2
340
0
 93
        0
 40
0.045
309
GRIDFORMAT_END
 95
       16
302
GRIDFORMAT
  1
GRIDFORMAT_BEGIN
 90
        0
 91
        1
 62
     0
 92
       -2
340
0
 93
        0
 40
0.045
309
GRIDFORMAT_END
 95
       32
302
GRIDFORMAT
  1
GRIDFORMAT_BEGIN
 90
        0
 91
        1
 62
     0
 92
       -2
340
0
 93
        0
 40
0.045
309
GRIDFORMAT_END
309
TABLEFORMAT_END
  1
CELLSTYLE_BEGIN
 90
        2
 91
        1
300
_HEADER
309
CELLSTYLE_END
300
CELLSTYLE
  1
TABLEFORMAT_BEGIN
 90
        5
170
     1
 91
        0
 92
        0
 62
   257
 93
        1
300
CONTENTFORMAT
  1
CONTENTFORMAT_BEGIN
 90
        0
 91
        0
 92
      512
 93
        0
300

 40
0.0
140
1.0
 94
        2
 62
     0
340
11
144
4.5
309
CONTENTFORMAT_END
171
     1
301
MARGIN
  1
CELLMARGIN_BEGIN
 40
1.5
 40
1.5
 40
1.5
 40
1.5
 40
0.18
 40
0.18
309
CELLMARGIN_END
 94
        6
 95
        1
302
GRIDFORMAT
  1
GRIDFORMAT_BEGIN
 90
        0
 91
        1
 62
     0
 92
       -2
340
0
 93
        0
 40
0.045
309
GRIDFORMAT_END
 95
        2
302
GRIDFORMAT
  1
GRIDFORMAT_BEGIN
 90
        0
 91
        1
 62
     0
 92
       -2
340
0
 93
        0
 40
0.045
309
GRIDFORMAT_END
 95
        4
302
GRIDFORMAT
  1
GRIDFORMAT_BEGIN
 90
        0
 91
        1
 62
     0
 92
       -2
340
0
 93
        0
 40
0.045
309
GRIDFORMAT_END
 95
        8
302
GRIDFORMAT
  1
GRIDFORMAT_BEGIN
 90
        0
 91
        1
 62
     0
 92
       -2
340
0
 93
        0
 40
0.045
309
GRIDFORMAT_END
 95
       16
302
GRIDFORMAT
  1
GRIDFORMAT_BEGIN
 90
        0
 91
        1
 62
     0
 92
       -2
340
0
 93
        0
 40
0.045
309
GRIDFORMAT_END
 95
       32
302
GRIDFORMAT
  1
GRIDFORMAT_BEGIN
 90
        0
 91
        1
 62
     0
 92
       -2
340
0
 93
        0
 40
0.045
309
GRIDFORMAT_END
309
TABLEFORMAT_END
  1
CELLSTYLE_BEGIN
 90
        3
 91
        2
300
_DATA
309
CELLSTYLE_END
  0
ENDSEC
  0
EOF
