  0
SECTION
  2
HEADER
  9
$ACADVER
  1
AC1021
  9
$ACADMAINTVER
 70
    26
  9
$DWGCODEPAGE
  3
ANSI_932
  9
$LASTSAVEDBY
  1
Htm_Terada
  9
$CUSTOMPROPERTYTAG
  1
AmdtFileType
  9
$CUSTOMPROPERTY
  1
84
  9
$INSBASE
 10
0.0
 20
0.0
 30
0.0
  9
$EXTMIN
 10
2564.774607375114
 20
2926.094762223394
 30
0.0
  9
$EXTMAX
 10
6259.494212301809
 20
5327.913427660011
 30
0.0
  9
$LIMMIN
 10
0.0000038286771087
 20
0.0000073876412898
  9
$LIMMAX
 10
8400.000003828678
 20
5940.000007387642
  9
$ORTHOMODE
 70
     1
  9
$REGENMODE
 70
     1
  9
$FILLMODE
 70
     1
  9
$QTEXTMODE
 70
     0
  9
$MIRRTEXT
 70
     1
  9
$LTSCALE
 40
20.0
  9
$ATTMODE
 70
     1
  9
$TEXTSIZE
 40
25.0
  9
$TRACEWID
 40
1.0
  9
$TEXTSTYLE
  7
SEISA
  9
$CLAYER
  8
AM_0 外形線1
  9
$CELTYPE
  6
ByLayer
  9
$CECOLOR
 62
   256
  9
$CELTSCALE
 40
1.0
  9
$DISPSILH
 70
     0
  9
$DIMSCALE
 40
20.0
  9
$DIMASZ
 40
2.5
  9
$DIMEXO
 40
0.625
  9
$DIMDLI
 40
10.0
  9
$DIMRND
 40
0.0
  9
$DIMDLE
 40
0.0
  9
$DIMEXE
 40
0.625
  9
$DIMTP
 40
0.1
  9
$DIMTM
 40
0.1
  9
$DIMTXT
 40
3.5
  9
$DIMCEN
 40
0.0
  9
$DIMTSZ
 40
0.0
  9
$DIMTOL
 70
     0
  9
$DIMLIM
 70
     0
  9
$DIMTIH
 70
     0
  9
$DIMTOH
 70
     0
  9
$DIMSE1
 70
     0
  9
$DIMSE2
 70
     0
  9
$DIMTAD
 70
     3
  9
$DIMZIN
 70
     8
  9
$DIMBLK
  1
Open30
  9
$DIMASO
 70
     1
  9
$DIMSHO
 70
     1
  9
$DIMPOST
  1

  9
$DIMAPOST
  1
"
  9
$DIMALT
 70
     0
  9
$DIMALTD
 70
     2
  9
$DIMALTF
 40
0.0393701
  9
$DIMLFAC
 40
1.0
  9
$DIMTOFL
 70
     1
  9
$DIMTVP
 40
0.0
  9
$DIMTIX
 70
     0
  9
$DIMSOXD
 70
     0
  9
$DIMSAH
 70
     0
  9
$DIMBLK1
  1

  9
$DIMBLK2
  1

  9
$DIMSTYLE
  2
SEISA
  9
$DIMCLRD
 70
     3
  9
$DIMCLRE
 70
     3
  9
$DIMCLRT
 70
     3
  9
$DIMTFAC
 40
0.71
  9
$DIMGAP
 40
1.5
  9
$DIMJUST
 70
     0
  9
$DIMSD1
 70
     0
  9
$DIMSD2
 70
     0
  9
$DIMTOLJ
 70
     0
  9
$DIMTZIN
 70
     0
  9
$DIMALTZ
 70
     0
  9
$DIMALTTZ
 70
     8
  9
$DIMUPT
 70
     0
  9
$DIMDEC
 70
     2
  9
$DIMTDEC
 70
     2
  9
$DIMALTU
 70
     2
  9
$DIMALTTD
 70
     2
  9
$DIMTXSTY
  7
SEISA
  9
$DIMAUNIT
 70
     0
  9
$DIMADEC
 70
     0
  9
$DIMALTRND
 40
0.0
  9
$DIMAZIN
 70
     2
  9
$DIMDSEP
 70
    46
  9
$DIMATFIT
 70
     3
  9
$DIMFRAC
 70
     0
  9
$DIMLDRBLK
  1
Open30
  9
$DIMLUNIT
 70
     2
  9
$DIMLWD
 70
    -1
  9
$DIMLWE
 70
    -1
  9
$DIMTMOVE
 70
     0
  9
$DIMFXL
 40
1.0
  9
$DIMFXLON
 70
     0
  9
$DIMJOGANG
 40
0.7853981633974483
  9
$DIMTFILL
 70
     0
  9
$DIMTFILLCLR
 70
     0
  9
$DIMARCSYM
 70
     1
  9
$DIMLTYPE
  6

  9
$DIMLTEX1
  6

  9
$DIMLTEX2
  6

  9
$LUNITS
 70
     2
  9
$LUPREC
 70
     2
  9
$SKETCHINC
 40
1.0
  9
$FILLETRAD
 40
4.0
  9
$AUNITS
 70
     0
  9
$AUPREC
 70
     0
  9
$MENU
  1
.
  9
$ELEVATION
 40
0.0
  9
$PELEVATION
 40
0.0
  9
$THICKNESS
 40
0.0
  9
$LIMCHECK
 70
     0
  9
$CHAMFERA
 40
24.99999999999909
  9
$CHAMFERB
 40
25.0
  9
$CHAMFERC
 40
24.99999999999909
  9
$CHAMFERD
 40
0.7853981633974119
  9
$SKPOLY
 70
     0
  9
$TDCREATE
 40
2454949.666911922
  9
$TDUCREATE
 40
2454949.291911922
  9
$TDUPDATE
 40
2456478.720609259
  9
$TDUUPDATE
 40
2456478.345609260
  9
$TDINDWG
 40
0.1937285880
  9
$TDUSRTIMER
 40
0.1937264236
  9
$USRTIMER
 70
     1
  9
$ANGBASE
 50
0.0
  9
$ANGDIR
 70
     0
  9
$PDMODE
 70
     0
  9
$PDSIZE
 40
0.0
  9
$PLINEWID
 40
0.0
  9
$SPLFRAME
 70
     0
  9
$SPLINETYPE
 70
     6
  9
$SPLINESEGS
 70
     8
  9
$HANDSEED
  5
6B76
  9
$SURFTAB1
 70
     6
  9
$SURFTAB2
 70
     6
  9
$SURFTYPE
 70
     6
  9
$SURFU
 70
     6
  9
$SURFV
 70
     6
  9
$UCSBASE
  2

  9
$UCSNAME
  2

  9
$UCSORG
 10
0.0
 20
0.0
 30
0.0
  9
$UCSXDIR
 10
1.0
 20
0.0
 30
0.0
  9
$UCSYDIR
 10
0.0
 20
1.0
 30
0.0
  9
$UCSORTHOREF
  2

  9
$UCSORTHOVIEW
 70
     0
  9
$UCSORGTOP
 10
0.0
 20
0.0
 30
0.0
  9
$UCSORGBOTTOM
 10
0.0
 20
0.0
 30
0.0
  9
$UCSORGLEFT
 10
0.0
 20
0.0
 30
0.0
  9
$UCSORGRIGHT
 10
0.0
 20
0.0
 30
0.0
  9
$UCSORGFRONT
 10
0.0
 20
0.0
 30
0.0
  9
$UCSORGBACK
 10
0.0
 20
0.0
 30
0.0
  9
$PUCSBASE
  2

  9
$PUCSNAME
  2

  9
$PUCSORG
 10
0.0
 20
0.0
 30
0.0
  9
$PUCSXDIR
 10
1.0
 20
0.0
 30
0.0
  9
$PUCSYDIR
 10
0.0
 20
1.0
 30
0.0
  9
$PUCSORTHOREF
  2

  9
$PUCSORTHOVIEW
 70
     0
  9
$PUCSORGTOP
 10
0.0
 20
0.0
 30
0.0
  9
$PUCSORGBOTTOM
 10
0.0
 20
0.0
 30
0.0
  9
$PUCSORGLEFT
 10
0.0
 20
0.0
 30
0.0
  9
$PUCSORGRIGHT
 10
0.0
 20
0.0
 30
0.0
  9
$PUCSORGFRONT
 10
0.0
 20
0.0
 30
0.0
  9
$PUCSORGBACK
 10
0.0
 20
0.0
 30
0.0
  9
$USERI1
 70
     0
  9
$USERI2
 70
     0
  9
$USERI3
 70
     0
  9
$USERI4
 70
     0
  9
$USERI5
 70
     0
  9
$USERR1
 40
0.0
  9
$USERR2
 40
0.0
  9
$USERR3
 40
0.0
  9
$USERR4
 40
0.0
  9
$USERR5
 40
0.0
  9
$WORLDVIEW
 70
     1
  9
$SHADEDGE
 70
     3
  9
$SHADEDIF
 70
    70
  9
$TILEMODE
 70
     1
  9
$MAXACTVP
 70
    64
  9
$PINSBASE
 10
0.0
 20
0.0
 30
0.0
  9
$PLIMCHECK
 70
     0
  9
$PEXTMIN
 10
1.000000000000000E+20
 20
1.000000000000000E+20
 30
1.000000000000000E+20
  9
$PEXTMAX
 10
-1.000000000000000E+20
 20
-1.000000000000000E+20
 30
-1.000000000000000E+20
  9
$PLIMMIN
 10
0.0
 20
0.0
  9
$PLIMMAX
 10
420.0
 20
297.0
  9
$UNITMODE
 70
     0
  9
$VISRETAIN
 70
     1
  9
$PLINEGEN
 70
     0
  9
$PSLTSCALE
 70
     1
  9
$TREEDEPTH
 70
  3020
  9
$CMLSTYLE
  2
Standard
  9
$CMLJUST
 70
     0
  9
$CMLSCALE
 40
20.0
  9
$PROXYGRAPHICS
 70
     1
  9
$MEASUREMENT
 70
     1
  9
$CELWEIGHT
370
    -1
  9
$ENDCAPS
280
     0
  9
$JOINSTYLE
280
     0
  9
$LWDISPLAY
290
     0
  9
$INSUNITS
 70
     4
  9
$HYPERLINKBASE
  1

  9
$STYLESHEET
  1
SEISA.CTB
  9
$XEDIT
290
     1
  9
$CEPSNTYPE
380
     0
  9
$PSTYLEMODE
290
     1
  9
$FINGERPRINTGUID
  2
{BEE6D4B9-D760-4ABD-9B02-03EF753C0F0F}
  9
$VERSIONGUID
  2
{43D7DE4A-6596-4F92-91CA-E64C8FA29D6F}
  9
$EXTNAMES
290
     1
  9
$PSVPSCALE
 40
0.0
  9
$OLESTARTUP
290
     0
  9
$SORTENTS
280
   127
  9
$INDEXCTL
280
     0
  9
$HIDETEXT
280
     0
  9
$XCLIPFRAME
290
     0
  9
$HALOGAP
280
     0
  9
$OBSCOLOR
 70
   257
  9
$OBSLTYPE
280
     0
  9
$INTERSECTIONDISPLAY
280
     0
  9
$INTERSECTIONCOLOR
 70
   257
  9
$DIMASSOC
280
     2
  9
$PROJECTNAME
  1

  9
$CAMERADISPLAY
290
     0
  9
$LENSLENGTH
 40
50.0
  9
$CAMERAHEIGHT
 40
0.0
  9
$STEPSPERSEC
 40
2.0
  9
$STEPSIZE
 40
6.0
  9
$3DDWFPREC
 40
2.0
  9
$PSOLWIDTH
 40
0.25
  9
$PSOLHEIGHT
 40
4.0
  9
$LOFTANG1
 40
1.570796326794896
  9
$LOFTANG2
 40
1.570796326794896
  9
$LOFTMAG1
 40
0.0
  9
$LOFTMAG2
 40
0.0
  9
$LOFTPARAM
 70
     7
  9
$LOFTNORMALS
280
     1
  9
$LATITUDE
 40
37.795
  9
$LONGITUDE
 40
-122.394
  9
$NORTHDIRECTION
 40
0.0
  9
$TIMEZONE
 70
 -8000
  9
$LIGHTGLYPHDISPLAY
280
     1
  9
$TILEMODELIGHTSYNCH
280
     1
  9
$CMATERIAL
347
27C
  9
$SOLIDHIST
280
     1
  9
$SHOWHIST
280
     1
  9
$DWFFRAME
280
     2
  9
$DGNFRAME
280
     0
  9
$REALWORLDSCALE
290
     1
  9
$INTERFERECOLOR
 62
     1
  9
$INTERFEREOBJVS
345
289
  9
$INTERFEREVPVS
346
286
  9
$CSHADOW
280
     0
  9
$SHADOWPLANELOCATION
 40
0.0
  0
ENDSEC
  0
SECTION
  2
CLASSES
  0
CLASS
  1
ACDBDICTIONARYWDFLT
  2
AcDbDictionaryWithDefault
  3
ObjectDBX Classes
 90
        0
 91
        1
280
     0
281
     0
  0
CLASS
  1
AMGSETTINGSOBJ
  2
AmgSettingsObj
  3
"AcadM|Product Description: AutoCAD Mechanical|Company: Autodesk, Inc."
 90
     1024
 91
        2
280
     0
281
     0
  0
CLASS
  1
ACME_DOCUMENT
  2
AcMeDbDoc
  3
AcMeServices
 90
     1024
 91
        1
280
     0
281
     0
  0
CLASS
  1
ACMESCOPE
  2
AcMeScope
  3
AcMeServices
 90
     1024
 91
        1
280
     0
281
     0
  0
CLASS
  1
ACMECOMMANDHISTORY
  2
AcMeCommandHistory
  3
AcMeServices
 90
     1024
 91
        1
280
     0
281
     0
  0
CLASS
  1
DICTIONARYVAR
  2
AcDbDictionaryVar
  3
ObjectDBX Classes
 90
        0
 91
        9
280
     0
281
     0
  0
CLASS
  1
ACIMSYSVARMAN
  2
AcImSysVarManager
  3
AcMeServices
 90
     1024
 91
        5
280
     0
281
     0
  0
CLASS
  1
ACIMREALSYSVAR
  2
AcImRealSysVar
  3
AcMeServices
 90
     1024
 91
        1
280
     0
281
     0
  0
CLASS
  1
ACIMINTSYSVAR
  2
AcImIntSysVar
  3
AcMeServices
 90
     1024
 91
       27
280
     0
281
     0
  0
CLASS
  1
ACMEDRAWINGMAN
  2
AcMeDrawingMan
  3
AcMeServices
 90
     1024
 91
        1
280
     0
281
     0
  0
CLASS
  1
ACMEVIEW
  2
AcMeView
  3
AcMeServices
 90
     1024
 91
        1
280
     0
281
     0
  0
CLASS
  1
ACDBENTITYCACHE
  2
AcMeEntityCache
  3
AcMeServices
 90
     1024
 91
        1
280
     0
281
     0
  0
CLASS
  1
GSMANAGER
  2
AcMeGSManager
  3
AcMeServices
 90
     1024
 91
        1
280
     0
281
     0
  0
CLASS
  1
AMDTINTERNALREACTOR
  2
AmdtInternalReactor
  3
AcMeServices
 90
     1024
 91
        2
280
     0
281
     0
  0
CLASS
  1
ACMESTATEMGR
  2
AcMeStateMgr
  3
AcMeServices
 90
     1024
 91
        1
280
     0
281
     0
  0
CLASS
  1
ACGREFMASTER
  2
AcGrefMaster
  3
AcAttribServices
 90
     1024
 91
        1
280
     0
281
     0
  0
CLASS
  1
ACME_DATABASE
  2
AcMeDbDatabase
  3
AcMeServices
 90
     1024
 91
        1
280
     0
281
     0
  0
CLASS
  1
ACRFINSADJUSTERMGR
  2
AcRfInsAdjusterMgr
  3
AcMeServices
 90
     1024
 91
        1
280
     0
281
     0
  0
CLASS
  1
ACGREFACADMASTER
  2
AcGrefacadMaster
  3
AcGrefServices
 90
     1024
 91
        1
280
     0
281
     0
  0
CLASS
  1
AMIMASTER
  2
AmiMaster
  3
AmiServices
 90
     1024
 91
        1
280
     0
281
     0
  0
CLASS
  1
ACIMSTRSYSVAR
  2
AcImStrSysVar
  3
AcMeServices
 90
     1024
 91
        5
280
     0
281
     0
  0
CLASS
  1
ACMSTANDARDJIS
  2
AcmStandardJIS
  3
"Amdt_StdImp|Product Description: AutoCAD Mechanical|Company: Autodesk, Inc."
 90
     1024
 91
        0
280
     0
281
     0
  0
CLASS
  1
AMGOBJPROPCFG
  2
AmgObjPropCfg
  3
"AmgLay|Product Description: AutoCAD Mechanical|Company: Autodesk, Inc."
 90
     1025
 91
        1
280
     0
281
     0
  0
CLASS
  1
ACMSURFSTANDARDJIS
  2
AcmSurfTextStdJIS
  3
"Amdt_StdImp|Product Description: AutoCAD Mechanical|Company: Autodesk, Inc."
 90
     1024
 91
        0
280
     0
281
     0
  0
CLASS
  1
ACMFCFSTANDARDJIS
  2
AcmFCFStdJIS
  3
"Amdt_StdImp|Product Description: AutoCAD Mechanical|Company: Autodesk, Inc."
 90
     1024
 91
        0
280
     0
281
     0
  0
CLASS
  1
ACMWELDSTANDARDJIS
  2
AcmWeldingStdJIS
  3
"Amdt_StdImp|Product Description: AutoCAD Mechanical|Company: Autodesk, Inc."
 90
     1024
 91
        0
280
     0
281
     0
  0
CLASS
  1
ACMIDSTANDARDJIS
  2
AcmIdStdJIS
  3
"Amdt_StdImp|Product Description: AutoCAD Mechanical|Company: Autodesk, Inc."
 90
     1024
 91
        0
280
     0
281
     0
  0
CLASS
  1
ACMDATUMSTANDARDJIS
  2
AcmDatumStdJIS
  3
"Amdt_StdImp|Product Description: AutoCAD Mechanical|Company: Autodesk, Inc."
 90
     1024
 91
        0
280
     0
281
     0
  0
CLASS
  1
ACMBOMSTANDARDJIS
  2
AcmBOMStdJIS
  3
"Amdt_StdImp|Product Description: AutoCAD Mechanical|Company: Autodesk, Inc."
 90
     1024
 91
        0
280
     0
281
     0
  0
CLASS
  1
ACMDETAILSTANDARDJIS
  2
AmdtDetailSymStdJIS
  3
"Amdt_StdImp|Product Description: AutoCAD Mechanical|Company: Autodesk, Inc."
 90
     1024
 91
        0
280
     0
281
     0
  0
CLASS
  1
ACMSECTIONSTANDARDJIS
  2
AmdtSectionSymStdJIS
  3
"Amdt_StdImp|Product Description: AutoCAD Mechanical|Company: Autodesk, Inc."
 90
     1024
 91
        0
280
     0
281
     0
  0
CLASS
  1
ACMCENTERLINESTANDARDJIS
  2
AmdtCenterLineStdJIS
  3
"Amdt_StdImp|Product Description: AutoCAD Mechanical|Company: Autodesk, Inc."
 90
     1024
 91
        0
280
     0
281
     0
  0
CLASS
  1
ACMTHREADLINESTANDARDJIS
  2
AmdtThreadLineStdJIS
  3
"Amdt_StdImp|Product Description: AutoCAD Mechanical|Company: Autodesk, Inc."
 90
     1024
 91
        0
280
     0
281
     0
  0
CLASS
  1
ACAMGLAYSTD
  2
AcAmgLayStd
  3
"AmgLay|Product Description: AutoCAD Mechanical|Company: Autodesk, Inc."
 90
     1024
 91
        1
280
     0
281
     0
  0
CLASS
  1
ACAMGDIMSTD
  2
AcAmgDimStd
  3
"AmgDim|Product Description: AutoCAD Mechanical|Company: Autodesk, Inc."
 90
     1024
 91
        1
280
     0
281
     0
  0
CLASS
  1
ACAMGTITLESTD
  2
AcAmgTitleStd
  3
"AmgTitle|Product Description: AutoCAD Mechanical|Company: Autodesk, Inc."
 90
     4095
 91
        1
280
     0
281
     0
  0
CLASS
  1
ACMDATADICTIONARY
  2
AcmDataDictionary
  3
"AcmSymBB|Product Description: AutoCAD Mechanical|Company: Autodesk, Inc."
 90
     1024
 91
        1
280
     0
281
     0
  0
CLASS
  1
ACMDATAENTRYBLOCK
  2
AcmDataEntryBlock
  3
AcmSymBB|Product Description: AutoCAD Mechanical|Company: Autodesk, Inc.
 90
     1024
 91
        0
280
     0
281
     0
  0
CLASS
  1
LAYER_INDEX
  2
AcDbLayerIndex
  3
ObjectDBX Classes
 90
        0
 91
        0
280
     0
281
     0
  0
CLASS
  1
IDBUFFER
  2
AcDbIdBuffer
  3
ObjectDBX Classes
 90
        0
 91
        0
280
     0
281
     0
  0
CLASS
  1
ACMNOTESTANDARDJIS
  2
AmdtNoteStdJIS
  3
"Amdt_StdImp|Product Description: AutoCAD Mechanical|Company: Autodesk, Inc."
 90
     1024
 91
        0
280
     0
281
     0
  0
CLASS
  1
ACAMGHOLECHARTSTDJIS
  2
AcAmgHoleChartStdJIS
  3
AmgDim|Product Description: AutoCAD Mechanical|Company: Autodesk, Inc.
 90
     1024
 91
        0
280
     0
281
     0
  0
CLASS
  1
AM_DRAWING_MGR
  2
AcDmDwgMgr
  3
AcMechDwgViewMgmt
 90
     1024
 91
        1
280
     0
281
     0
  0
CLASS
  1
AM_DWG_DOCUMENT
  2
AcDmDwgDocument
  3
AcMechDwgViewMgmt
 90
     1024
 91
        1
280
     0
281
     0
  0
CLASS
  1
AM_DWG_SHEET
  2
AcDmSheet
  3
AcMechDwgViewMgmt
 90
     1024
 91
        2
280
     0
281
     0
  0
CLASS
  1
AM_VIEWDIMPARMAP
  2
AcDmViewDimParMap
  3
AcMechDwgViewMgmt
 90
     1024
 91
        2
280
     0
281
     0
  0
CLASS
  1
AM_DWGMGR_NAME
  2
AcDmDwgMgrName
  3
AcMechDwgViewMgmt
 90
     1024
 91
        1
280
     0
281
     0
  0
CLASS
  1
AMDTMENUSTATEMGR
  2
AmdtMenuStateMgr
  3
McadcomServices
 90
     1024
 91
        1
280
     0
281
     0
  0
CLASS
  1
AMDTMCOMMENUSTATE
  2
AmdtMcomMenuState
  3
McadcomServices
 90
     1024
 91
        1
280
     0
281
     0
  0
CLASS
  1
MAPIAMMOUDLE
  2
MApiAmModule
  3
MApiAmServices
 90
     1024
 91
        1
280
     0
281
     0
  0
CLASS
  1
AMDTADMENUSTATE
  2
AmdtAdMenuState
  3
DesignerServices
 90
     1024
 91
        1
280
     0
281
     0
  0
CLASS
  1
ADAPPL
  2
AcAdAppl
  3
DesignerServices
 90
     1024
 91
        1
280
     0
281
     0
  0
CLASS
  1
DEPMGR
  2
AcAdDepMgr
  3
DesignerServices
 90
     1024
 91
        1
280
     0
281
     0
  0
CLASS
  1
PARAMMGR
  2
AcAdParamMgr
  3
DesignerServices
 90
     1024
 91
        1
280
     0
281
     0
  0
CLASS
  1
PARAMSCOPE
  2
AcAdParamScope
  3
DesignerServices
 90
     1024
 91
        1
280
     0
281
     0
  0
CLASS
  1
NAMEDAPPL
  2
AcAdNamedAppl
  3
DesignerServices
 90
     1024
 91
        1
280
     0
281
     0
  0
CLASS
  1
AMDTDMMENUSTATE
  2
AmdtDmMenuState
  3
AcMechDwgViewMgmt
 90
     1024
 91
        1
280
     0
281
     0
  0
CLASS
  1
AMDTAMMENUSTATE
  2
AmdtAmMenuState
  3
DesignerAssemblies
 90
     1024
 91
        1
280
     0
281
     0
  0
CLASS
  1
ACAMPROJECT
  2
AcAmProject
  3
DesignerAssemblies
 90
     1024
 91
        1
280
     0
281
     0
  0
CLASS
  1
ACAMGRCOMPDEF
  2
AcAmGrCompDef
  3
DesignerAssemblies
 90
     1024
 91
        1
280
     0
281
     0
  0
CLASS
  1
ACCMCONTEXT
  2
AcCmContext
  3
DesignerAssemblies
 90
     1024
 91
        1
280
     0
281
     0
  0
CLASS
  1
ACAMCOMPDEF
  2
AcAmCompDef
  3
DesignerAssemblies
 90
     1024
 91
        1
280
     0
281
     0
  0
CLASS
  1
ACAMCOMPDEFMGR
  2
AcAmCompDefMgr
  3
DesignerAssemblies
 90
     1024
 91
        1
280
     0
281
     0
  0
CLASS
  1
AMCONTEXTMGR
  2
AcAmContextMgr
  3
DesignerAssemblies
 90
     1024
 91
        1
280
     0
281
     0
  0
CLASS
  1
ACAMCONTEXTMODELER
  2
AcAmContextModeler
  3
DesignerAssemblies
 90
     1024
 91
        1
280
     0
281
     0
  0
CLASS
  1
CATALOGSTATE
  2
AcAmCatalogState
  3
DesignerAssemblies
 90
     1024
 91
        1
280
     0
281
     0
  0
CLASS
  1
ACAMGRCOMPDEFSET
  2
AcAmGrCompDefSet
  3
DesignerAssemblies
 90
     1024
 91
        1
280
     0
281
     0
  0
CLASS
  1
AMDTBROWSERDBTAB
  2
AmdtBrowserDbTab
  3
McadcomServices
 90
     1024
 91
        1
280
     0
281
     0
  0
CLASS
  1
CBROWSERAPPOBJECT
  2
CBrowserAppObject
  3
McadcomServices
 90
     1024
 91
        3
280
     0
281
     0
  0
CLASS
  1
DM_PLACEHOLDER
  2
AcDmSelsetPlaceholder
  3
AcMechDwgViewMgmt
 90
     1024
 91
        1
280
     0
281
     0
  0
CLASS
  1
TABLESTYLE
  2
AcDbTableStyle
  3
ObjectDBX Classes
 90
     4095
 91
        1
280
     0
281
     0
  0
CLASS
  1
VAACXREFPANELOBJECT
  2
VaAcXREFPanelObject
  3
VAAC_ADDIN
 90
        0
 91
        0
280
     0
281
     0
  0
CLASS
  1
VAACIMAGEINVENTORY
  2
VaAcImageInventory
  3
VAAC_ADDIN
 90
        0
 91
        0
280
     0
281
     0
  0
CLASS
  1
AMDTNOTETEMPLATEDB
  2
AmdtNoteTemplateDB
  3
AcmSymBB|Product Description: AutoCAD Mechanical|Company: Autodesk, Inc.
 90
     1024
 91
        6
280
     0
281
     0
  0
CLASS
  1
ACAMGFILTERDAT
  2
AcAmgFilterDat
  3
"AcadM|Product Description: AutoCAD Mechanical|Company: Autodesk, Inc."
 90
     1024
 91
        0
280
     0
281
     0
  0
CLASS
  1
MATERIAL
  2
AcDbMaterial
  3
ObjectDBX Classes
 90
     1153
 91
        3
280
     0
281
     0
  0
CLASS
  1
VISUALSTYLE
  2
AcDbVisualStyle
  3
ObjectDBX Classes
 90
     4095
 91
       16
280
     0
281
     0
  0
CLASS
  1
ACRFATTGENMGR
  2
AcRfAttGeneralMgr
  3
AcAttribServices
 90
     1024
 91
        0
280
     0
281
     0
  0
CLASS
  1
ACRFOBJATTMGR
  2
AcRfObjAttGroupMgr
  3
AcAttribServices
 90
     1024
 91
        0
280
     0
281
     0
  0
CLASS
  1
ACRFMCADAPIATTHOLDER
  2
AcRfMCADAPIAttHolder
  3
AcAttribServices
 90
     1024
 91
        0
280
     0
281
     0
  0
CLASS
  1
AMDTSYSATTR
  2
AmdtSystemAttribute
  3
AcAttribServices
 90
     1024
 91
        0
280
     0
281
     0
  0
CLASS
  1
ACMTAPERSTANDARDJIS
  2
AcmTaperStdJIS
  3
"Amdt_StdImp|Product Description: AutoCAD Mechanical|Company: Autodesk, Inc."
 90
     1024
 91
        0
280
     0
281
     0
  0
CLASS
  1
CAMSSTRUCTBTNSTATE
  2
StructBtnState
  3
DesignerAssemblies
 90
     1024
 91
        0
280
     0
281
     0
  0
CLASS
  1
SCALE
  2
AcDbScale
  3
ObjectDBX Classes
 90
     1153
 91
       37
280
     0
281
     0
  0
CLASS
  1
MLEADERSTYLE
  2
AcDbMLeaderStyle
  3
ACDB_MLEADERSTYLE_CLASS
 90
     4095
 91
        1
280
     0
281
     0
  0
CLASS
  1
ACMANOOTATIONVIEWSTANDARDJIS
  2
AmdtAnViewStdJIS
  3
"Amdt_StdImp|Product Description: AutoCAD Mechanical|Company: Autodesk, Inc."
 90
     1024
 91
        0
280
     0
281
     0
  0
CLASS
  1
ACMSURFSTANDARDJIS2003
  2
AcmSurfTextStdJIS2003
  3
"Amdt_StdImp|Product Description: AutoCAD Mechanical|Company: Autodesk, Inc."
 90
     1024
 91
        0
280
     0
281
     0
  0
CLASS
  1
CELLSTYLEMAP
  2
AcDbCellStyleMap
  3
ObjectDBX Classes
 90
     1152
 91
        2
280
     0
281
     0
  0
CLASS
  1
ACMFCFSTANDARDJIS98
  2
AcmFCFStdJIS98
  3
"Amdt_StdImp|Product Description: AutoCAD Mechanical|Company: Autodesk, Inc."
 90
     1024
 91
        0
280
     0
281
     0
  0
CLASS
  1
SORTENTSTABLE
  2
AcDbSortentsTable
  3
ObjectDBX Classes
 90
        0
 91
       11
280
     0
281
     0
  0
CLASS
  1
DIMASSOC
  2
AcDbDimAssoc
  3
"AcDbDimAssoc|Product Desc:     AcDim ARX App For Dimension|Company:          Autodesk, Inc.|WEB Address:      www.autodesk.com"
 90
        0
 91
       16
280
     0
281
     0
  0
CLASS
  1
STDPART2D
  2
AmgStdPart
  3
AmgStdPart|Product Description: AutoCAD Mechanical|Company: Autodesk, Inc.
 90
     4095
 91
        0
280
     0
281
     1
  0
CLASS
  1
ACMDATAENTRYPART
  2
AcmDataEntryPart
  3
AcmSymBB|Product Description: AutoCAD Mechanical|Company: Autodesk, Inc.
 90
     1024
 91
        0
280
     0
281
     0
  0
CLASS
  1
ACMPARTREF
  2
AcmPartRef
  3
"AcmSymBB|Product Description: AutoCAD Mechanical|Company: Autodesk, Inc."
 90
     4095
 91
        0
280
     0
281
     1
  0
CLASS
  1
ACDBSTDPARTRES_LINE
  2
AcDbStdPartRes_Line
  3
AmgStdPart|Product Description: AutoCAD Mechanical|Company: Autodesk, Inc.
 90
     1024
 91
        0
280
     0
281
     0
  0
CLASS
  1
ACMBOM
  2
AcmBom
  3
"AcmSymBB|Product Description: AutoCAD Mechanical|Company: Autodesk, Inc."
 90
     1024
 91
        0
280
     0
281
     0
  0
CLASS
  1
AMDTFORMULAUPDATEDISPATCHER
  2
AmdtFormulaUpdateDispatcher
  3
AcMeServices
 90
     1024
 91
        0
280
     0
281
     0
  0
CLASS
  1
ACMBOMROW
  2
AcmBomRow
  3
"AcmSymBB|Product Description: AutoCAD Mechanical|Company: Autodesk, Inc."
 90
     1024
 91
        0
280
     0
281
     0
  0
CLASS
  1
ACMPARTLIST
  2
AcmPartList
  3
"AcmSymBB|Product Description: AutoCAD Mechanical|Company: Autodesk, Inc."
 90
     4095
 91
        0
280
     0
281
     1
  0
CLASS
  1
ACDBLINERES
  2
AcDbLineRes
  3
AcGrefServices
 90
     1024
 91
        0
280
     0
281
     0
  0
CLASS
  1
ACRFINSADJ
  2
AcRfInsAdjuster
  3
AcMeServices
 90
     1024
 91
        0
280
     0
281
     0
  0
CLASS
  1
ACMSTANDARDISO
  2
AcmStandardISO
  3
"Amdt_StdImp|Product Description: AutoCAD Mechanical|Company: Autodesk, Inc."
 90
     1024
 91
        1
280
     0
281
     0
  0
CLASS
  1
AMDTEDGESTANDARDISO13715
  2
AmdtEdgeStdISO13715
  3
"Amdt_StdImp|Product Description: AutoCAD Mechanical|Company: Autodesk, Inc."
 90
     1024
 91
        1
280
     0
281
     0
  0
CLASS
  1
ACMSURFSTANDARDISO2002
  2
AcmSurfTextStdISO2002
  3
"Amdt_StdImp|Product Description: AutoCAD Mechanical|Company: Autodesk, Inc."
 90
     1024
 91
        1
280
     0
281
     0
  0
CLASS
  1
ACMFCFSTANDARDISO
  2
AcmFCFStdISO
  3
"Amdt_StdImp|Product Description: AutoCAD Mechanical|Company: Autodesk, Inc."
 90
     1024
 91
        1
280
     0
281
     0
  0
CLASS
  1
ACMWELDSTANDARDISO
  2
AcmWeldingStdISO
  3
"Amdt_StdImp|Product Description: AutoCAD Mechanical|Company: Autodesk, Inc."
 90
     1024
 91
        1
280
     0
281
     0
  0
CLASS
  1
ACMIDSTANDARDISO
  2
AcmIdStdISO
  3
"Amdt_StdImp|Product Description: AutoCAD Mechanical|Company: Autodesk, Inc."
 90
     1024
 91
        1
280
     0
281
     0
  0
CLASS
  1
ACMDATUMSTANDARDISO
  2
AcmDatumStdISO
  3
"Amdt_StdImp|Product Description: AutoCAD Mechanical|Company: Autodesk, Inc."
 90
     1024
 91
        1
280
     0
281
     0
  0
CLASS
  1
ACMBOMSTANDARDISO
  2
AcmBOMStdISO
  3
"Amdt_StdImp|Product Description: AutoCAD Mechanical|Company: Autodesk, Inc."
 90
     1024
 91
        1
280
     0
281
     0
  0
CLASS
  1
ACMDETAILSTANDARDISO
  2
AmdtDetailSymStdISO
  3
"Amdt_StdImp|Product Description: AutoCAD Mechanical|Company: Autodesk, Inc."
 90
     1024
 91
        1
280
     0
281
     0
  0
CLASS
  1
ACMSECTIONSTANDARDISO2001
  2
AmdtSectionSymStdISO2001
  3
"Amdt_StdImp|Product Description: AutoCAD Mechanical|Company: Autodesk, Inc."
 90
     1024
 91
        1
280
     0
281
     0
  0
CLASS
  1
ACMCENTERLINESTANDARDISO
  2
AmdtCenterLineStdISO
  3
"Amdt_StdImp|Product Description: AutoCAD Mechanical|Company: Autodesk, Inc."
 90
     1024
 91
        1
280
     0
281
     0
  0
CLASS
  1
ACMTHREADLINESTANDARDISO
  2
AmdtThreadLineStdISO
  3
"Amdt_StdImp|Product Description: AutoCAD Mechanical|Company: Autodesk, Inc."
 90
     1024
 91
        1
280
     0
281
     0
  0
CLASS
  1
ACMNOTESTANDARDISO
  2
AmdtNoteStdISO
  3
"Amdt_StdImp|Product Description: AutoCAD Mechanical|Company: Autodesk, Inc."
 90
     1024
 91
        1
280
     0
281
     0
  0
CLASS
  1
ACMTAPERSTANDARDISO
  2
AcmTaperStdISO
  3
"Amdt_StdImp|Product Description: AutoCAD Mechanical|Company: Autodesk, Inc."
 90
     1024
 91
        1
280
     0
281
     0
  0
CLASS
  1
ACMANOOTATIONVIEWSTANDARDISO
  2
AmdtAnViewStdISO
  3
"Amdt_StdImp|Product Description: AutoCAD Mechanical|Company: Autodesk, Inc."
 90
     1024
 91
        1
280
     0
281
     0
  0
CLASS
  1
ACAMGHOLECHARTSTDISO
  2
AcAmgHoleChartStdISO
  3
AmgDim|Product Description: AutoCAD Mechanical|Company: Autodesk, Inc.
 90
     1024
 91
        1
280
     0
281
     0
  0
CLASS
  1
EXACXREFPANELOBJECT
  2
ExAcXREFPanelObject
  3
EXAC_ESW
 90
     1025
 91
        0
280
     0
281
     0
  0
CLASS
  1
NPOCOLLECTION
  2
AcDbImpNonPersistentObjectsCollection
  3
ObjectDBX Classes
 90
     1153
 91
        0
280
     0
281
     0
  0
CLASS
  1
ACDBSTDPARTRES_ARC
  2
AcDbStdPartRes_Arc
  3
AmgStdPart|Product Description: AutoCAD Mechanical|Company: Autodesk, Inc.
 90
     1024
 91
        0
280
     0
281
     0
  0
CLASS
  1
AMDTNOTE
  2
AmdtNote
  3
"AcmSymBB|Product Description: AutoCAD Mechanical|Company: Autodesk, Inc."
 90
     4095
 91
        0
280
     0
281
     1
  0
CLASS
  1
PLOTSETTINGS
  2
AcDbPlotSettings
  3
ObjectDBX Classes
 90
        0
 91
        1
280
     0
281
     0
  0
CLASS
  1
ACMSTANDARDANSI
  2
AcmStandardANSI
  3
"Amdt_StdImp|Product Description: AutoCAD Mechanical|Company: Autodesk, Inc."
 90
     1024
 91
        0
280
     0
281
     0
  0
CLASS
  1
ACMSURFSTANDARDANSI
  2
AcmSurfTextStdANSI
  3
"Amdt_StdImp|Product Description: AutoCAD Mechanical|Company: Autodesk, Inc."
 90
     1024
 91
        0
280
     0
281
     0
  0
CLASS
  1
ACMFCFSTANDARDANSI
  2
AcmFCFStdANSI
  3
"Amdt_StdImp|Product Description: AutoCAD Mechanical|Company: Autodesk, Inc."
 90
     1024
 91
        0
280
     0
281
     0
  0
CLASS
  1
ACMWELDSTANDARDANSI
  2
AcmWeldingStdANSI
  3
"Amdt_StdImp|Product Description: AutoCAD Mechanical|Company: Autodesk, Inc."
 90
     1024
 91
        0
280
     0
281
     0
  0
CLASS
  1
ACMIDSTANDARDANSI
  2
AcmIdStdANSI
  3
"Amdt_StdImp|Product Description: AutoCAD Mechanical|Company: Autodesk, Inc."
 90
     1024
 91
        0
280
     0
281
     0
  0
CLASS
  1
ACMDATUMSTANDARDANSI
  2
AcmDatumStdANSI
  3
"Amdt_StdImp|Product Description: AutoCAD Mechanical|Company: Autodesk, Inc."
 90
     1024
 91
        0
280
     0
281
     0
  0
CLASS
  1
ACMBOMSTANDARDANSI
  2
AcmBOMStdANSI
  3
"Amdt_StdImp|Product Description: AutoCAD Mechanical|Company: Autodesk, Inc."
 90
     1024
 91
        0
280
     0
281
     0
  0
CLASS
  1
ACMDETAILSTANDARDANSI
  2
AmdtDetailSymStdANSI
  3
"Amdt_StdImp|Product Description: AutoCAD Mechanical|Company: Autodesk, Inc."
 90
     1024
 91
        0
280
     0
281
     0
  0
CLASS
  1
ACMSECTIONSTANDARDANSI
  2
AmdtSectionSymStdANSI
  3
"Amdt_StdImp|Product Description: AutoCAD Mechanical|Company: Autodesk, Inc."
 90
     1024
 91
        0
280
     0
281
     0
  0
CLASS
  1
ACMCENTERLINESTANDARDANSI
  2
AmdtCenterLineStdANSI
  3
"Amdt_StdImp|Product Description: AutoCAD Mechanical|Company: Autodesk, Inc."
 90
     1024
 91
        0
280
     0
281
     0
  0
CLASS
  1
ACMTHREADLINESTANDARDANSI
  2
AmdtThreadLineStdANSI
  3
"Amdt_StdImp|Product Description: AutoCAD Mechanical|Company: Autodesk, Inc."
 90
     1024
 91
        0
280
     0
281
     0
  0
CLASS
  1
ACMNOTESTANDARDANSI
  2
AmdtNoteStdANSI
  3
"Amdt_StdImp|Product Description: AutoCAD Mechanical|Company: Autodesk, Inc."
 90
     1024
 91
        0
280
     0
281
     0
  0
CLASS
  1
ACMTAPERSTANDARDANSI
  2
AcmTaperStdANSI
  3
"Amdt_StdImp|Product Description: AutoCAD Mechanical|Company: Autodesk, Inc."
 90
     1024
 91
        0
280
     0
281
     0
  0
CLASS
  1
ACMANOOTATIONVIEWSTANDARDANSI
  2
AmdtAnViewStdANSI
  3
"Amdt_StdImp|Product Description: AutoCAD Mechanical|Company: Autodesk, Inc."
 90
     1024
 91
        0
280
     0
281
     0
  0
CLASS
  1
ACAMGHOLECHARTSTDANSI
  2
AcAmgHoleChartStdANSI
  3
AmgDim|Product Description: AutoCAD Mechanical|Company: Autodesk, Inc.
 90
     1024
 91
        0
280
     0
281
     0
  0
CLASS
  1
ACMSTANDARDBSI
  2
AcmStandardBSI
  3
"Amdt_StdImp|Product Description: AutoCAD Mechanical|Company: Autodesk, Inc."
 90
     1024
 91
        0
280
     0
281
     0
  0
CLASS
  1
ACMSURFSTANDARDBSI2002
  2
AcmSurfTextStdBSI2002
  3
"Amdt_StdImp|Product Description: AutoCAD Mechanical|Company: Autodesk, Inc."
 90
     1024
 91
        0
280
     0
281
     0
  0
CLASS
  1
ACMFCFSTANDARDBSI
  2
AcmFCFStdBSI
  3
"Amdt_StdImp|Product Description: AutoCAD Mechanical|Company: Autodesk, Inc."
 90
     1024
 91
        0
280
     0
281
     0
  0
CLASS
  1
ACMWELDSTANDARDBSI
  2
AcmWeldingStdBSI
  3
"Amdt_StdImp|Product Description: AutoCAD Mechanical|Company: Autodesk, Inc."
 90
     1024
 91
        0
280
     0
281
     0
  0
CLASS
  1
ACMIDSTANDARDBSI
  2
AcmIdStdBSI
  3
"Amdt_StdImp|Product Description: AutoCAD Mechanical|Company: Autodesk, Inc."
 90
     1024
 91
        0
280
     0
281
     0
  0
CLASS
  1
ACMDATUMSTANDARDBSI
  2
AcmDatumStdBSI
  3
"Amdt_StdImp|Product Description: AutoCAD Mechanical|Company: Autodesk, Inc."
 90
     1024
 91
        0
280
     0
281
     0
  0
CLASS
  1
ACMBOMSTANDARDBSI
  2
AcmBOMStdBSI
  3
"Amdt_StdImp|Product Description: AutoCAD Mechanical|Company: Autodesk, Inc."
 90
     1024
 91
        0
280
     0
281
     0
  0
CLASS
  1
ACMDETAILSTANDARDBSI
  2
AmdtDetailSymStdBSI
  3
"Amdt_StdImp|Product Description: AutoCAD Mechanical|Company: Autodesk, Inc."
 90
     1024
 91
        0
280
     0
281
     0
  0
CLASS
  1
ACMSECTIONSTANDARDBSI2001
  2
AmdtSectionSymStdBSI2001
  3
"Amdt_StdImp|Product Description: AutoCAD Mechanical|Company: Autodesk, Inc."
 90
     1024
 91
        0
280
     0
281
     0
  0
CLASS
  1
ACMCENTERLINESTANDARDBSI
  2
AmdtCenterLineStdBSI
  3
"Amdt_StdImp|Product Description: AutoCAD Mechanical|Company: Autodesk, Inc."
 90
     1024
 91
        0
280
     0
281
     0
  0
CLASS
  1
ACMTHREADLINESTANDARDBSI
  2
AmdtThreadLineStdBSI
  3
"Amdt_StdImp|Product Description: AutoCAD Mechanical|Company: Autodesk, Inc."
 90
     1024
 91
        0
280
     0
281
     0
  0
CLASS
  1
ACMNOTESTANDARDBSI
  2
AmdtNoteStdBSI
  3
"Amdt_StdImp|Product Description: AutoCAD Mechanical|Company: Autodesk, Inc."
 90
     1024
 91
        0
280
     0
281
     0
  0
CLASS
  1
ACMTAPERSTANDARDBSI
  2
AcmTaperStdBSI
  3
"Amdt_StdImp|Product Description: AutoCAD Mechanical|Company: Autodesk, Inc."
 90
     1024
 91
        0
280
     0
281
     0
  0
CLASS
  1
ACMANOOTATIONVIEWSTANDARDBSI
  2
AmdtAnViewStdBSI
  3
"Amdt_StdImp|Product Description: AutoCAD Mechanical|Company: Autodesk, Inc."
 90
     1024
 91
        0
280
     0
281
     0
  0
CLASS
  1
ACAMGHOLECHARTSTDBSI
  2
AcAmgHoleChartStdBSI
  3
AmgDim|Product Description: AutoCAD Mechanical|Company: Autodesk, Inc.
 90
     1024
 91
        0
280
     0
281
     0
  0
CLASS
  1
AMDTEDGESTANDARDJIS
  2
AmdtEdgeStdJIS
  3
"Amdt_StdImp|Product Description: AutoCAD Mechanical|Company: Autodesk, Inc."
 90
     1024
 91
        0
280
     0
281
     0
  0
CLASS
  1
ACDBOPPOLYLINERES
  2
AcDbOpPolylineRes
  3
AcGrefServices
 90
     1024
 91
        0
280
     0
281
     0
  0
CLASS
  1
AMDTACMWBLOCKBOMENTITY
  2
AmdtAcmWblockBomEntity
  3
"AcmSymBB|Product Description: AutoCAD Mechanical|Company: Autodesk, Inc."
 90
     4095
 91
        0
280
     0
281
     1
  0
CLASS
  1
ACMSURFSYM
  2
AcmSurfaceTexture
  3
"AcmSymBB|Product Description: AutoCAD Mechanical|Company: Autodesk, Inc."
 90
     4095
 91
        0
280
     0
281
     1
  0
CLASS
  1
ACDBDIMENSIONRES
  2
AcDbDimensionRes
  3
AcmSymBB|Product Description: AutoCAD Mechanical|Company: Autodesk, Inc.
 90
     1024
 91
        0
280
     0
281
     0
  0
CLASS
  1
ACDBCIRCARCRES
  2
AcDbCircArcRes
  3
AcGrefServices
 90
     1024
 91
        0
280
     0
281
     0
  0
CLASS
  1
ACDB_BLKREFOBJECTCONTEXTDATA_CLASS
  2
AcDbBlkRefObjectContextData
  3
ObjectDBX Classes
 90
     1153
 91
        0
280
     0
281
     0
  0
CLASS
  1
ACMPICKOBJ
  2
AcmPickEnt
  3
"AcmSymBB|Product Description: AutoCAD Mechanical|Company: Autodesk, Inc."
 90
     1024
 91
        0
280
     0
281
     1
  0
CLASS
  1
ACMBALLOON
  2
AcmBalloon
  3
"AcmSymBB|Product Description: AutoCAD Mechanical|Company: Autodesk, Inc."
 90
     4095
 91
        0
280
     0
281
     1
  0
ENDSEC
  0
SECTION
  2
TABLES
  0
TABLE
  2
VPORT
  5
8
330
0
100
AcDbSymbolTable
 70
     1
  0
VPORT
  5
27A
330
8
100
AcDbSymbolTableRecord
100
AcDbViewportTableRecord
  2
*Active
 70
     0
 10
0.0
 20
0.0
 11
1.0
 21
1.0
 12
5335.679766500177
 22
4126.983970318593
 13
0.0
 23
0.0
 14
50.0
 24
50.0
 15
200.0
 25
200.0
 16
0.0
 26
0.0
 36
1.0
 17
0.0
 27
0.0
 37
0.0
 40
2891.691393282103
 41
1.638814016172506
 42
50.0
 43
0.0
 44
0.0
 50
0.0
 51
0.0
 71
    16
 72
 20000
 73
     1
 74
     3
 75
     0
 76
     0
 77
     0
 78
     0
281
     0
 65
     0
110
0.0
120
0.0
130
0.0
111
1.0
121
0.0
131
0.0
112
0.0
122
1.0
132
0.0
 79
     0
146
0.0
348
285
 60
     3
 61
     5
292
     1
282
     0
141
0.0
142
0.0
 63
   250
421
  3355443
  0
ENDTAB
  0
TABLE
  2
LTYPE
  5
5
330
0
100
AcDbSymbolTable
 70
    22
  0
LTYPE
  5
14
330
5
100
AcDbSymbolTableRecord
100
AcDbLinetypeTableRecord
  2
ByBlock
 70
     0
  3

 72
    65
 73
     0
 40
0.0
  0
LTYPE
  5
15
330
5
100
AcDbSymbolTableRecord
100
AcDbLinetypeTableRecord
  2
ByLayer
 70
     0
  3

 72
    65
 73
     0
 40
0.0
  0
LTYPE
  5
16
330
5
100
AcDbSymbolTableRecord
100
AcDbLinetypeTableRecord
  2
Continuous
 70
     0
  3
Solid line
 72
    65
 73
     0
 40
0.0
  0
LTYPE
  5
4D
330
5
100
AcDbSymbolTableRecord
100
AcDbLinetypeTableRecord
  2
AM_ISO02W050
 70
     0
  3
__ __ __ __ __ __ __ __ __ __ __ __ __ __ __
 72
    65
 73
     2
 40
7.5
 49
6.0
 74
     0
 49
-1.5
 74
     0
  0
LTYPE
  5
4E
330
5
100
AcDbSymbolTableRecord
100
AcDbLinetypeTableRecord
  2
AM_ISO08W050
 70
     0
  3
____ . ____ . ____ . ____ . ____ . ____ . ____
 72
    65
 73
     4
 40
18.0
 49
12.0
 74
     0
 49
-1.5
 74
     0
 49
3.0
 74
     0
 49
-1.5
 74
     0
  0
LTYPE
  5
4F
330
5
100
AcDbSymbolTableRecord
100
AcDbLinetypeTableRecord
  2
AM_ISO09W050
 70
     0
  3
_____ . . _____ . . _____ . . ____ .. ____
 72
    65
 73
     6
 40
22.5
 49
12.0
 74
     0
 49
-1.5
 74
     0
 49
3.0
 74
     0
 49
-1.5
 74
     0
 49
3.0
 74
     0
 49
-1.5
 74
     0
  0
LTYPE
  5
50
330
5
100
AcDbSymbolTableRecord
100
AcDbLinetypeTableRecord
  2
Amconstr
 70
     0
  3
_______________________
 72
    65
 73
     2
 40
9999.0
 49
9999.0
 74
     0
 49
0.0
 74
     0
  0
LTYPE
  5
51
330
5
100
AcDbSymbolTableRecord
100
AcDbLinetypeTableRecord
  2
AM_ISO08W050x2
 70
     0
  3
__ . __ . __ . __ . __ . __
 72
    65
 73
     4
 40
9.0
 49
6.0
 74
     0
 49
-0.75
 74
     0
 49
1.5
 74
     0
 49
-0.75
 74
     0
  0
LTYPE
  5
52
330
5
100
AcDbSymbolTableRecord
100
AcDbLinetypeTableRecord
  2
AM_ISO02W050x2
 70
     0
  3
 _ _ _ _ _ _ _ _ _ _ _ _
 72
    65
 73
     2
 40
3.75
 49
3.0
 74
     0
 49
-0.75
 74
     0
  0
LTYPE
  5
55
330
5
100
AcDbSymbolTableRecord
100
AcDbLinetypeTableRecord
  2
Amzigzag
 70
     0
  3
/\/-/\/-/\/-/\/-/\/-/\/
 72
    65
 73
     2
 40
11.0001
 49
0.0001
 74
     4
 75
   136
340
23D
 46
0.04
 50
0.0
 44
0.0
 45
0.0
 49
-11.0
 74
     0
  0
LTYPE
  5
65
330
5
100
AcDbSymbolTableRecord
100
AcDbLinetypeTableRecord
  2
CENTER
 70
     0
  3
__ . __
 72
    65
 73
     4
 40
7.0
 49
4.0
 74
     0
 49
-1.0
 74
     0
 49
1.0
 74
     0
 49
-1.0
 74
     0
  0
LTYPE
  5
E0
330
5
100
AcDbSymbolTableRecord
100
AcDbLinetypeTableRecord
  2
HIDDEN
 70
     0
  3
Hidden __ __ __ __ __ __ __ __ __ __ __ __ __ _
 72
    65
 73
     2
 40
9.524999999999996
 49
6.349999999999998
 74
     0
 49
-3.174999999999998
 74
     0
  0
LTYPE
  5
E1
330
5
100
AcDbSymbolTableRecord
100
AcDbLinetypeTableRecord
  2
PHANTOM2
 70
     0
  3
Phantom (.5x) ___ _ _ ___ _ _ ___ _ _ ___ _ _
 72
    65
 73
     6
 40
31.75
 49
15.875
 74
     0
 49
-3.174999999999998
 74
     0
 49
3.174999999999998
 74
     0
 49
-3.174999999999998
 74
     0
 49
3.174999999999998
 74
     0
 49
-3.174999999999998
 74
     0
  0
LTYPE
  5
5A2
330
5
100
AcDbSymbolTableRecord
100
AcDbLinetypeTableRecord
  2
ACJISWELD
 70
     0
  3
_ _ _ _ _
 72
    65
 73
     2
 40
2.0
 49
2.0
 74
     0
 49
-1.0
 74
     0
  0
LTYPE
  5
6B61
330
5
100
AcDbSymbolTableRecord
100
AcDbLinetypeTableRecord
  2
ACISOWELD
 70
     0
  3
_ _ _ _ _
 72
    65
 73
     2
 40
2.0
 49
2.0
 74
     0
 49
-1.0
 74
     0
  0
LTYPE
  5
6B62
330
5
100
AcDbSymbolTableRecord
100
AcDbLinetypeTableRecord
  2
ACISOTGB
 70
     0
  3
__ . . __ . .
 72
    65
 73
     6
 40
9.0
 49
4.0
 74
     0
 49
-1.0
 74
     0
 49
1.0
 74
     0
 49
-1.0
 74
     0
 49
1.0
 74
     0
 49
-1.0
 74
     0
  0
LTYPE
  5
6B63
330
5
100
AcDbSymbolTableRecord
100
AcDbLinetypeTableRecord
  2
ACISOTGL
 70
     0
  3
_ _ _ _ _
 72
    65
 73
     2
 40
3.0
 49
2.0
 74
     0
 49
-1.0
 74
     0
  0
ENDTAB
  0
TABLE
  2
LAYER
  5
2
102
{ACAD_XDICTIONARY
360
BF
102
}
330
0
100
AcDbSymbolTable
 70
    10
  0
LAYER
  5
10
102
{ACAD_XDICTIONARY
360
29F7
102
}
330
2
100
AcDbSymbolTableRecord
100
AcDbLayerTableRecord
  2
0
 70
     0
 62
     7
  6
Continuous
370
    -3
390
F
347
27E
  0
LAYER
  5
81
102
{ACAD_XDICTIONARY
360
29F9
102
}
330
2
100
AcDbSymbolTableRecord
100
AcDbLayerTableRecord
  2
AM_0 外形線1
 70
     0
 62
     7
  6
Continuous
370
    25
390
F
347
27E
  0
LAYER
  5
427
330
2
100
AcDbSymbolTableRecord
100
AcDbLayerTableRecord
  2
Defpoints
 70
     0
 62
     7
  6
Continuous
290
     0
370
    -3
390
F
347
27E
  0
LAYER
  5
3A7B
330
2
100
AcDbSymbolTableRecord
100
AcDbLayerTableRecord
  2
AM_5 寸法線
 70
     0
 62
     3
  6
Continuous
370
    13
390
F
347
27E
1001
AcAecLayerStandard
1000

1000

  0
LAYER
  5
3A7C
330
2
100
AcDbSymbolTableRecord
100
AcDbLayerTableRecord
  2
AM_4 細線
 70
     0
 62
     4
  6
Continuous
370
    13
390
F
347
27E
1001
AcAecLayerStandard
1000

1000

  0
LAYER
  5
3A7D
330
2
100
AcDbSymbolTableRecord
100
AcDbLayerTableRecord
  2
AM_7 中心線
 70
     0
 62
     1
  6
AM_ISO08W050
370
    13
390
F
347
27E
1001
AcAecLayerStandard
1000

1000

  0
LAYER
  5
3A7E
330
2
100
AcDbSymbolTableRecord
100
AcDbLayerTableRecord
  2
AM_3 隠れ線
 70
     0
 62
     8
  6
ACJISWELD
370
    13
390
F
347
27E
1001
AcAecLayerStandard
1000

1000

  0
LAYER
  5
3A80
330
2
100
AcDbSymbolTableRecord
100
AcDbLayerTableRecord
  2
AM_6 文字
 70
     0
 62
     2
  6
Continuous
370
    13
390
F
347
27E
1001
AcAecLayerStandard
1000

1000

  0
LAYER
  5
6798
330
2
100
AcDbSymbolTableRecord
100
AcDbLayerTableRecord
  2
AM_11 想像線
 70
     0
 62
     5
  6
AM_ISO09W050
370
    13
390
F
347
27E
1001
AcAecLayerStandard
1000

1000

  0
ENDTAB
  0
TABLE
  2
STYLE
  5
3
330
0
100
AcDbSymbolTable
 70
    11
  0
STYLE
  5
11
330
3
100
AcDbSymbolTableRecord
100
AcDbTextStyleTableRecord
  2
STANDARD
 70
     0
 40
0.0
 41
1.0
 50
0.0
 71
     0
 42
25.0
  3
ISOCP.SHX
  4
EXTFONT.SHX
  0
STYLE
  5
23D
330
3
100
AcDbSymbolTableRecord
100
AcDbTextStyleTableRecord
  2

 70
     1
 40
0.0
 41
1.0
 50
0.0
 71
     0
 42
2.5
  3
genltshp.shx
  4

  0
STYLE
  5
5D5
330
3
100
AcDbSymbolTableRecord
100
AcDbTextStyleTableRecord
  2
SEISA
 70
     0
 40
0.0
 41
0.9
 50
0.0
 71
     0
 42
25.0
  3
romans.shx
  4
extfont2.shx
  0
STYLE
  5
6B51
330
3
100
AcDbSymbolTableRecord
100
AcDbTextStyleTableRecord
  2
ACISOTS
 70
     0
 40
1.0
 41
1.0
 50
0.0
 71
     0
 42
25.0
  3
isocp.shx
  4
extfont.shx
  0
STYLE
  5
6B60
330
3
100
AcDbSymbolTableRecord
100
AcDbTextStyleTableRecord
  2
ACISOGDT
 70
     0
 40
0.0
 41
1.0
 50
0.0
 71
     0
 42
25.0
  3
amgdt.shx
  4

  0
ENDTAB
  0
TABLE
  2
VIEW
  5
6
330
0
100
AcDbSymbolTable
 70
     6
  0
VIEW
  5
91B
330
6
100
AcDbSymbolTableRecord
100
AcDbViewTableRecord
  2
AM_VIEW1
 70
     0
 40
2970.0
 10
2871.243846193209
 20
4455.000007387641
 41
5742.487684729063
 11
0.0
 21
0.0
 31
1.0
 12
0.0
 22
0.0
 32
0.0
 42
50.0
 43
0.0
 44
0.0
 50
0.0
 71
    16
281
     0
 72
     0
 73
     0
  0
VIEW
  5
91C
330
6
100
AcDbSymbolTableRecord
100
AcDbViewTableRecord
  2
AM_VIEW2
 70
     0
 40
2970.0
 10
5528.756161464145
 20
4455.000007387641
 41
5742.487684729063
 11
0.0
 21
0.0
 31
1.0
 12
0.0
 22
0.0
 32
0.0
 42
50.0
 43
0.0
 44
0.0
 50
0.0
 71
    16
281
     0
 72
     0
 73
     0
  0
VIEW
  5
91D
330
6
100
AcDbSymbolTableRecord
100
AcDbViewTableRecord
  2
AM_VIEW3
 70
     0
 40
2970.0
 10
2871.243846193209
 20
1485.000007387641
 41
5742.487684729063
 11
0.0
 21
0.0
 31
1.0
 12
0.0
 22
0.0
 32
0.0
 42
50.0
 43
0.0
 44
0.0
 50
0.0
 71
    16
281
     0
 72
     0
 73
     0
  0
VIEW
  5
91E
330
6
100
AcDbSymbolTableRecord
100
AcDbViewTableRecord
  2
AM_VIEW4
 70
     0
 40
2970.0
 10
5528.756161464145
 20
1485.000007387641
 41
5742.487684729063
 11
0.0
 21
0.0
 31
1.0
 12
0.0
 22
0.0
 32
0.0
 42
50.0
 43
0.0
 44
0.0
 50
0.0
 71
    16
281
     0
 72
     0
 73
     0
  0
VIEW
  5
91F
330
6
100
AcDbSymbolTableRecord
100
AcDbViewTableRecord
  2
AM_VIEW5
 70
     0
 40
2970.0
 10
4200.000003828677
 20
2970.000007387643
 41
5742.487684729063
 11
0.0
 21
0.0
 31
1.0
 12
0.0
 22
0.0
 32
0.0
 42
50.0
 43
0.0
 44
0.0
 50
0.0
 71
    16
281
     0
 72
     0
 73
     0
  0
VIEW
  5
920
330
6
100
AcDbSymbolTableRecord
100
AcDbViewTableRecord
  2
AM_VIEW6
 70
     0
 40
5939.940599999999
 10
4200.000003828677
 20
2970.000007387641
 41
11484.86051970443
 11
0.0
 21
0.0
 31
1.0
 12
0.0
 22
0.0
 32
0.0
 42
50.0
 43
0.0
 44
0.0
 50
0.0
 71
    16
281
     0
 72
     0
 73
     0
  0
ENDTAB
  0
TABLE
  2
UCS
  5
7
330
0
100
AcDbSymbolTable
 70
     0
  0
ENDTAB
  0
TABLE
  2
APPID
  5
9
330
0
100
AcDbSymbolTable
 70
   396
  0
APPID
  5
12
330
9
100
AcDbSymbolTableRecord
100
AcDbRegAppTableRecord
  2
ACAD
 70
     0
  0
APPID
  5
30
330
9
100
AcDbSymbolTableRecord
100
AcDbRegAppTableRecord
  2
MCAD_NO_VIS
 70
     0
  0
APPID
  5
31
330
9
100
AcDbSymbolTableRecord
100
AcDbRegAppTableRecord
  2
ACAD_TEMP_GRAPHIC
 70
     0
  0
APPID
  5
44
330
9
100
AcDbSymbolTableRecord
100
AcDbRegAppTableRecord
  2
ACATTRIBSERVICES
 70
     0
  0
APPID
  5
F6
330
9
100
AcDbSymbolTableRecord
100
AcDbRegAppTableRecord
  2
AD_DRAW
 70
     0
  0
APPID
  5
114
330
9
100
AcDbSymbolTableRecord
100
AcDbRegAppTableRecord
  2
DESIGNERASSEMBLIES
 70
     0
  0
APPID
  5
118
330
9
100
AcDbSymbolTableRecord
100
AcDbRegAppTableRecord
  2
ACADM_DIM_EDIT
 70
     0
  0
APPID
  5
119
330
9
100
AcDbSymbolTableRecord
100
AcDbRegAppTableRecord
  2
AMDT_DM_ADJ
 70
     0
  0
APPID
  5
1AF
330
9
100
AcDbSymbolTableRecord
100
AcDbRegAppTableRecord
  2
ACAD_DSTYLE_DIMARC_LENGTH_SYMBOL
 70
     0
  0
APPID
  5
1B0
330
9
100
AcDbSymbolTableRecord
100
AcDbRegAppTableRecord
  2
ACAD_DSTYLE_DIMJOGGED_JOGANGLE_SYMBOL
 70
     0
  0
APPID
  5
2D7
330
9
100
AcDbSymbolTableRecord
100
AcDbRegAppTableRecord
  2
ACAD_MLEADERVER
 70
     0
  0
APPID
  5
355
330
9
100
AcDbSymbolTableRecord
100
AcDbRegAppTableRecord
  2
AcadAnnoPO
 70
     0
  0
APPID
  5
428
330
9
100
AcDbSymbolTableRecord
100
AcDbRegAppTableRecord
  2
ACAD_DSTYLE_DIMTEXT_FILL
 70
     0
  0
APPID
  5
429
330
9
100
AcDbSymbolTableRecord
100
AcDbRegAppTableRecord
  2
GENIUS_GENSCREG_15
 70
     0
  0
APPID
  5
42A
330
9
100
AcDbSymbolTableRecord
100
AcDbRegAppTableRecord
  2
GENIUS_GENOBJ-N-SDF_13
 70
     0
  0
APPID
  5
42B
330
9
100
AcDbSymbolTableRecord
100
AcDbRegAppTableRecord
  2
GENIUS_GENODEF_13
 70
     0
  0
APPID
  5
42C
330
9
100
AcDbSymbolTableRecord
100
AcDbRegAppTableRecord
  2
ACAD_EXEMPT_FROM_CAD_STANDARDS
 70
     0
  0
APPID
  5
42D
330
9
100
AcDbSymbolTableRecord
100
AcDbRegAppTableRecord
  2
AcAecLayerStandard
 70
     0
  0
APPID
  5
42E
330
9
100
AcDbSymbolTableRecord
100
AcDbRegAppTableRecord
  2
GENIUS_GENOBJ-N-CEN_13
 70
     0
  0
APPID
  5
42F
330
9
100
AcDbSymbolTableRecord
100
AcDbRegAppTableRecord
  2
GENIUS_GENCEN_19
 70
     0
  0
APPID
  5
430
330
9
100
AcDbSymbolTableRecord
100
AcDbRegAppTableRecord
  2
ACAD_DSTYLE_DIMINSPECT
 70
     0
  0
APPID
  5
431
330
9
100
AcDbSymbolTableRecord
100
AcDbRegAppTableRecord
  2
GENIUS_AMGTXT_16
 70
     0
  0
APPID
  5
432
330
9
100
AcDbSymbolTableRecord
100
AcDbRegAppTableRecord
  2
GENIUS_GENFIL_13
 70
     0
  0
APPID
  5
433
330
9
100
AcDbSymbolTableRecord
100
AcDbRegAppTableRecord
  2
GENIUS_GENOLIS_13
 70
     0
  0
APPID
  5
434
330
9
100
AcDbSymbolTableRecord
100
AcDbRegAppTableRecord
  2
GENIUS_GENOBJ-N-CHA_13
 70
     0
  0
APPID
  5
435
330
9
100
AcDbSymbolTableRecord
100
AcDbRegAppTableRecord
  2
GENIUS_GENOENT_13
 70
     0
  0
APPID
  5
436
330
9
100
AcDbSymbolTableRecord
100
AcDbRegAppTableRecord
  2
GENIUS_GENOREF_13
 70
     0
  0
APPID
  5
437
330
9
100
AcDbSymbolTableRecord
100
AcDbRegAppTableRecord
  2
GENIUS_GENOBJ-N-FIL_13
 70
     0
  0
APPID
  5
438
330
9
100
AcDbSymbolTableRecord
100
AcDbRegAppTableRecord
  2
GEVID1208829536
 70
     0
  0
APPID
  5
439
330
9
100
AcDbSymbolTableRecord
100
AcDbRegAppTableRecord
  2
GEVDC
 70
     0
  0
APPID
  5
43A
330
9
100
AcDbSymbolTableRecord
100
AcDbRegAppTableRecord
  2
GEVRADREF
 70
     0
  0
APPID
  5
43B
330
9
100
AcDbSymbolTableRecord
100
AcDbRegAppTableRecord
  2
GENIUS_GENBH_13
 70
     0
  0
APPID
  5
43C
330
9
100
AcDbSymbolTableRecord
100
AcDbRegAppTableRecord
  2
GENIUS_GENOBJ-NBEHI-BHF_13
 70
     0
  0
APPID
  5
43D
330
9
100
AcDbSymbolTableRecord
100
AcDbRegAppTableRecord
  2
GENIUS_GENOBJ-NBEHI-BHB_13
 70
     0
  0
APPID
  5
43E
330
9
100
AcDbSymbolTableRecord
100
AcDbRegAppTableRecord
  2
GEVID1208829537
 70
     0
  0
APPID
  5
43F
330
9
100
AcDbSymbolTableRecord
100
AcDbRegAppTableRecord
  2
ACAD_DSTYLE_DIMJAG
 70
     0
  0
APPID
  5
440
330
9
100
AcDbSymbolTableRecord
100
AcDbRegAppTableRecord
  2
ACAD_DSTYLE_DIMTALN
 70
     0
  0
APPID
  5
441
330
9
100
AcDbSymbolTableRecord
100
AcDbRegAppTableRecord
  2
AMG_2DHIDE
 70
     0
  0
APPID
  5
442
330
9
100
AcDbSymbolTableRecord
100
AcDbRegAppTableRecord
  2
AMG_2DSTRUCT_BTR
 70
     0
  0
APPID
  5
443
330
9
100
AcDbSymbolTableRecord
100
AcDbRegAppTableRecord
  2
GEVID1208845772
 70
     0
  0
APPID
  5
444
330
9
100
AcDbSymbolTableRecord
100
AcDbRegAppTableRecord
  2
GEVID1208845773
 70
     0
  0
APPID
  5
445
330
9
100
AcDbSymbolTableRecord
100
AcDbRegAppTableRecord
  2
ACADM_2DVIEW_IGN_NOTIFY
 70
     0
  0
APPID
  5
446
330
9
100
AcDbSymbolTableRecord
100
AcDbRegAppTableRecord
  2
GEVID1208845774
 70
     0
  0
APPID
  5
447
330
9
100
AcDbSymbolTableRecord
100
AcDbRegAppTableRecord
  2
GEVID1208845775
 70
     0
  0
APPID
  5
448
330
9
100
AcDbSymbolTableRecord
100
AcDbRegAppTableRecord
  2
GEVID1208845776
 70
     0
  0
APPID
  5
449
330
9
100
AcDbSymbolTableRecord
100
AcDbRegAppTableRecord
  2
GEVID1208845777
 70
     0
  0
APPID
  5
44A
330
9
100
AcDbSymbolTableRecord
100
AcDbRegAppTableRecord
  2
GEVCON
 70
     0
  0
APPID
  5
44B
330
9
100
AcDbSymbolTableRecord
100
AcDbRegAppTableRecord
  2
GENIUS_GENOBJ-F-SCPASSM_13
 70
     0
  0
APPID
  5
44C
330
9
100
AcDbSymbolTableRecord
100
AcDbRegAppTableRecord
  2
GEVID1208845778
 70
     0
  0
APPID
  5
44D
330
9
100
AcDbSymbolTableRecord
100
AcDbRegAppTableRecord
  2
GEVID1208845779
 70
     0
  0
APPID
  5
44E
330
9
100
AcDbSymbolTableRecord
100
AcDbRegAppTableRecord
  2
GEVID1208845780
 70
     0
  0
APPID
  5
44F
330
9
100
AcDbSymbolTableRecord
100
AcDbRegAppTableRecord
  2
GEVID1208845781
 70
     0
  0
APPID
  5
450
330
9
100
AcDbSymbolTableRecord
100
AcDbRegAppTableRecord
  2
GEVID1208845782
 70
     0
  0
APPID
  5
451
330
9
100
AcDbSymbolTableRecord
100
AcDbRegAppTableRecord
  2
GEVID1208845783
 70
     0
  0
APPID
  5
452
330
9
100
AcDbSymbolTableRecord
100
AcDbRegAppTableRecord
  2
GEVID1208845784
 70
     0
  0
APPID
  5
453
330
9
100
AcDbSymbolTableRecord
100
AcDbRegAppTableRecord
  2
GEVID1208845785
 70
     0
  0
APPID
  5
454
330
9
100
AcDbSymbolTableRecord
100
AcDbRegAppTableRecord
  2
GEVID1208845787
 70
     0
  0
APPID
  5
455
330
9
100
AcDbSymbolTableRecord
100
AcDbRegAppTableRecord
  2
GEVID1208845788
 70
     0
  0
APPID
  5
456
330
9
100
AcDbSymbolTableRecord
100
AcDbRegAppTableRecord
  2
GEVID1208845789
 70
     0
  0
APPID
  5
457
330
9
100
AcDbSymbolTableRecord
100
AcDbRegAppTableRecord
  2
GEVID1208845790
 70
     0
  0
APPID
  5
458
330
9
100
AcDbSymbolTableRecord
100
AcDbRegAppTableRecord
  2
GEVID1208845791
 70
     0
  0
APPID
  5
459
330
9
100
AcDbSymbolTableRecord
100
AcDbRegAppTableRecord
  2
GEVID1208845792
 70
     0
  0
APPID
  5
45A
330
9
100
AcDbSymbolTableRecord
100
AcDbRegAppTableRecord
  2
GEVID1208845793
 70
     0
  0
APPID
  5
45B
330
9
100
AcDbSymbolTableRecord
100
AcDbRegAppTableRecord
  2
GEVID1208845794
 70
     0
  0
APPID
  5
45C
330
9
100
AcDbSymbolTableRecord
100
AcDbRegAppTableRecord
  2
GEVID1208845795
 70
     0
  0
APPID
  5
45D
330
9
100
AcDbSymbolTableRecord
100
AcDbRegAppTableRecord
  2
GEVID1208845796
 70
     0
  0
APPID
  5
45E
330
9
100
AcDbSymbolTableRecord
100
AcDbRegAppTableRecord
  2
GEVID1208845797
 70
     0
  0
APPID
  5
45F
330
9
100
AcDbSymbolTableRecord
100
AcDbRegAppTableRecord
  2
GEVID1208845798
 70
     0
  0
APPID
  5
460
330
9
100
AcDbSymbolTableRecord
100
AcDbRegAppTableRecord
  2
GEVID1208845799
 70
     0
  0
APPID
  5
461
330
9
100
AcDbSymbolTableRecord
100
AcDbRegAppTableRecord
  2
GEVID1208845800
 70
     0
  0
APPID
  5
462
330
9
100
AcDbSymbolTableRecord
100
AcDbRegAppTableRecord
  2
GEVID1208845801
 70
     0
  0
APPID
  5
463
330
9
100
AcDbSymbolTableRecord
100
AcDbRegAppTableRecord
  2
GEVID1208845802
 70
     0
  0
APPID
  5
464
330
9
100
AcDbSymbolTableRecord
100
AcDbRegAppTableRecord
  2
GENIUS_GENOBJ-N-DIM_13
 70
     0
  0
APPID
  5
465
330
9
100
AcDbSymbolTableRecord
100
AcDbRegAppTableRecord
  2
GENIUS_GENDIM_13
 70
     0
  0
APPID
  5
466
330
9
100
AcDbSymbolTableRecord
100
AcDbRegAppTableRecord
  2
GENIUS_GENDIMSH_14
 70
     0
  0
APPID
  5
467
330
9
100
AcDbSymbolTableRecord
100
AcDbRegAppTableRecord
  2
GEVID1208845803
 70
     0
  0
APPID
  5
468
330
9
100
AcDbSymbolTableRecord
100
AcDbRegAppTableRecord
  2
GEVID1208845804
 70
     0
  0
APPID
  5
469
330
9
100
AcDbSymbolTableRecord
100
AcDbRegAppTableRecord
  2
GEVID1208845805
 70
     0
  0
APPID
  5
46A
330
9
100
AcDbSymbolTableRecord
100
AcDbRegAppTableRecord
  2
GEVID1208845806
 70
     0
  0
APPID
  5
46B
330
9
100
AcDbSymbolTableRecord
100
AcDbRegAppTableRecord
  2
GEVID1208845807
 70
     0
  0
APPID
  5
46C
330
9
100
AcDbSymbolTableRecord
100
AcDbRegAppTableRecord
  2
GEVID1208845808
 70
     0
  0
APPID
  5
46D
330
9
100
AcDbSymbolTableRecord
100
AcDbRegAppTableRecord
  2
GEVID1208845809
 70
     0
  0
APPID
  5
46E
330
9
100
AcDbSymbolTableRecord
100
AcDbRegAppTableRecord
  2
GEVID1208845810
 70
     0
  0
APPID
  5
46F
330
9
100
AcDbSymbolTableRecord
100
AcDbRegAppTableRecord
  2
GEVID1208845811
 70
     0
  0
APPID
  5
470
330
9
100
AcDbSymbolTableRecord
100
AcDbRegAppTableRecord
  2
GEVID1208845813
 70
     0
  0
APPID
  5
471
330
9
100
AcDbSymbolTableRecord
100
AcDbRegAppTableRecord
  2
GEVID1208845814
 70
     0
  0
APPID
  5
472
330
9
100
AcDbSymbolTableRecord
100
AcDbRegAppTableRecord
  2
GEVID1208845815
 70
     0
  0
APPID
  5
473
330
9
100
AcDbSymbolTableRecord
100
AcDbRegAppTableRecord
  2
GEVID1208845816
 70
     0
  0
APPID
  5
474
330
9
100
AcDbSymbolTableRecord
100
AcDbRegAppTableRecord
  2
GEVID1208845817
 70
     0
  0
APPID
  5
475
330
9
100
AcDbSymbolTableRecord
100
AcDbRegAppTableRecord
  2
GEVID1208845818
 70
     0
  0
APPID
  5
476
330
9
100
AcDbSymbolTableRecord
100
AcDbRegAppTableRecord
  2
GEVID1208845819
 70
     0
  0
APPID
  5
477
330
9
100
AcDbSymbolTableRecord
100
AcDbRegAppTableRecord
  2
GEVID1208845820
 70
     0
  0
APPID
  5
478
330
9
100
AcDbSymbolTableRecord
100
AcDbRegAppTableRecord
  2
GENIUS_GENOBJ-F-SHCL_13
 70
     0
  0
APPID
  5
479
330
9
100
AcDbSymbolTableRecord
100
AcDbRegAppTableRecord
  2
GENIUS_GEFMSH_13
 70
     0
  0
APPID
  5
47A
330
9
100
AcDbSymbolTableRecord
100
AcDbRegAppTableRecord
  2
GENIUS_GENOBJ-F-SHCA_13
 70
     0
  0
APPID
  5
47B
330
9
100
AcDbSymbolTableRecord
100
AcDbRegAppTableRecord
  2
GENIUS_GEFSH_13
 70
     0
  0
APPID
  5
47C
330
9
100
AcDbSymbolTableRecord
100
AcDbRegAppTableRecord
  2
GENIUS_GEFSHP_13
 70
     0
  0
APPID
  5
47D
330
9
100
AcDbSymbolTableRecord
100
AcDbRegAppTableRecord
  2
GENIUS_GEFSHP0_13
 70
     0
  0
APPID
  5
47E
330
9
100
AcDbSymbolTableRecord
100
AcDbRegAppTableRecord
  2
GENIUS_GEFSH0_13
 70
     0
  0
APPID
  5
47F
330
9
100
AcDbSymbolTableRecord
100
AcDbRegAppTableRecord
  2
GENIUS_GEFSHP1_13
 70
     0
  0
APPID
  5
480
330
9
100
AcDbSymbolTableRecord
100
AcDbRegAppTableRecord
  2
GENIUS_GEFSH1_13
 70
     0
  0
APPID
  5
481
330
9
100
AcDbSymbolTableRecord
100
AcDbRegAppTableRecord
  2
GEVID1208866337
 70
     0
  0
APPID
  5
482
330
9
100
AcDbSymbolTableRecord
100
AcDbRegAppTableRecord
  2
GEVID1208866338
 70
     0
  0
APPID
  5
483
330
9
100
AcDbSymbolTableRecord
100
AcDbRegAppTableRecord
  2
GEVID1208866339
 70
     0
  0
APPID
  5
484
330
9
100
AcDbSymbolTableRecord
100
AcDbRegAppTableRecord
  2
GEVID1208866340
 70
     0
  0
APPID
  5
485
330
9
100
AcDbSymbolTableRecord
100
AcDbRegAppTableRecord
  2
GEVID1208866341
 70
     0
  0
APPID
  5
486
330
9
100
AcDbSymbolTableRecord
100
AcDbRegAppTableRecord
  2
ACAD_PSEXT
 70
     0
  0
APPID
  5
487
330
9
100
AcDbSymbolTableRecord
100
AcDbRegAppTableRecord
  2
GEVID1208866342
 70
     0
  0
APPID
  5
488
330
9
100
AcDbSymbolTableRecord
100
AcDbRegAppTableRecord
  2
GEVID1208913836
 70
     0
  0
APPID
  5
489
330
9
100
AcDbSymbolTableRecord
100
AcDbRegAppTableRecord
  2
GEVID1208913837
 70
     0
  0
APPID
  5
48A
330
9
100
AcDbSymbolTableRecord
100
AcDbRegAppTableRecord
  2
GEVID1208913838
 70
     0
  0
APPID
  5
48B
330
9
100
AcDbSymbolTableRecord
100
AcDbRegAppTableRecord
  2
GEVID1208913839
 70
     0
  0
APPID
  5
48C
330
9
100
AcDbSymbolTableRecord
100
AcDbRegAppTableRecord
  2
GENIUS_GENDTOL_13
 70
     0
  0
APPID
  5
48D
330
9
100
AcDbSymbolTableRecord
100
AcDbRegAppTableRecord
  2
GEVID1208928889
 70
     0
  0
APPID
  5
48E
330
9
100
AcDbSymbolTableRecord
100
AcDbRegAppTableRecord
  2
GEVID1208928890
 70
     0
  0
APPID
  5
48F
330
9
100
AcDbSymbolTableRecord
100
AcDbRegAppTableRecord
  2
GEVID1208928891
 70
     0
  0
APPID
  5
490
330
9
100
AcDbSymbolTableRecord
100
AcDbRegAppTableRecord
  2
GEVID1208928892
 70
     0
  0
APPID
  5
491
330
9
100
AcDbSymbolTableRecord
100
AcDbRegAppTableRecord
  2
GEVID1208933827
 70
     0
  0
APPID
  5
492
330
9
100
AcDbSymbolTableRecord
100
AcDbRegAppTableRecord
  2
GEVID1208933829
 70
     0
  0
APPID
  5
493
330
9
100
AcDbSymbolTableRecord
100
AcDbRegAppTableRecord
  2
GEVID1208933830
 70
     0
  0
APPID
  5
494
330
9
100
AcDbSymbolTableRecord
100
AcDbRegAppTableRecord
  2
GEVID1208933831
 70
     0
  0
APPID
  5
495
330
9
100
AcDbSymbolTableRecord
100
AcDbRegAppTableRecord
  2
GEVID1208933832
 70
     0
  0
APPID
  5
496
330
9
100
AcDbSymbolTableRecord
100
AcDbRegAppTableRecord
  2
GEVID1208933833
 70
     0
  0
APPID
  5
497
330
9
100
AcDbSymbolTableRecord
100
AcDbRegAppTableRecord
  2
GEVID1208933834
 70
     0
  0
APPID
  5
498
330
9
100
AcDbSymbolTableRecord
100
AcDbRegAppTableRecord
  2
GEVID1208933835
 70
     0
  0
APPID
  5
499
330
9
100
AcDbSymbolTableRecord
100
AcDbRegAppTableRecord
  2
GEVID1208933836
 70
     0
  0
APPID
  5
49A
330
9
100
AcDbSymbolTableRecord
100
AcDbRegAppTableRecord
  2
GEVID1208933837
 70
     0
  0
APPID
  5
49B
330
9
100
AcDbSymbolTableRecord
100
AcDbRegAppTableRecord
  2
GEVID1208933838
 70
     0
  0
APPID
  5
49C
330
9
100
AcDbSymbolTableRecord
100
AcDbRegAppTableRecord
  2
GEVID1208933840
 70
     0
  0
APPID
  5
49D
330
9
100
AcDbSymbolTableRecord
100
AcDbRegAppTableRecord
  2
GEVID1208933842
 70
     0
  0
APPID
  5
49E
330
9
100
AcDbSymbolTableRecord
100
AcDbRegAppTableRecord
  2
GEVID1208933843
 70
     0
  0
APPID
  5
49F
330
9
100
AcDbSymbolTableRecord
100
AcDbRegAppTableRecord
  2
GEVID1208933844
 70
     0
  0
APPID
  5
4A0
330
9
100
AcDbSymbolTableRecord
100
AcDbRegAppTableRecord
  2
GEVID1208933845
 70
     0
  0
APPID
  5
4A1
330
9
100
AcDbSymbolTableRecord
100
AcDbRegAppTableRecord
  2
GEVID1208933846
 70
     0
  0
APPID
  5
4A2
330
9
100
AcDbSymbolTableRecord
100
AcDbRegAppTableRecord
  2
GEVID1208933847
 70
     0
  0
APPID
  5
4A3
330
9
100
AcDbSymbolTableRecord
100
AcDbRegAppTableRecord
  2
GEVID1208933848
 70
     0
  0
APPID
  5
4A4
330
9
100
AcDbSymbolTableRecord
100
AcDbRegAppTableRecord
  2
GEVID1208933849
 70
     0
  0
APPID
  5
4A5
330
9
100
AcDbSymbolTableRecord
100
AcDbRegAppTableRecord
  2
GEVID1208933850
 70
     0
  0
APPID
  5
4A6
330
9
100
AcDbSymbolTableRecord
100
AcDbRegAppTableRecord
  2
GEVID1208933851
 70
     0
  0
APPID
  5
4A7
330
9
100
AcDbSymbolTableRecord
100
AcDbRegAppTableRecord
  2
GEVID1208933852
 70
     0
  0
APPID
  5
4A8
330
9
100
AcDbSymbolTableRecord
100
AcDbRegAppTableRecord
  2
GEVID1208933853
 70
     0
  0
APPID
  5
4A9
330
9
100
AcDbSymbolTableRecord
100
AcDbRegAppTableRecord
  2
GEVID1208933854
 70
     0
  0
APPID
  5
4AA
330
9
100
AcDbSymbolTableRecord
100
AcDbRegAppTableRecord
  2
GEVID1208933855
 70
     0
  0
APPID
  5
4AB
330
9
100
AcDbSymbolTableRecord
100
AcDbRegAppTableRecord
  2
GEVID1208933856
 70
     0
  0
APPID
  5
4AC
330
9
100
AcDbSymbolTableRecord
100
AcDbRegAppTableRecord
  2
GEVID1208933857
 70
     0
  0
APPID
  5
4AD
330
9
100
AcDbSymbolTableRecord
100
AcDbRegAppTableRecord
  2
GEVID1208933858
 70
     0
  0
APPID
  5
4AE
330
9
100
AcDbSymbolTableRecord
100
AcDbRegAppTableRecord
  2
GEVID1208933859
 70
     0
  0
APPID
  5
4AF
330
9
100
AcDbSymbolTableRecord
100
AcDbRegAppTableRecord
  2
GEVID1208933860
 70
     0
  0
APPID
  5
4B0
330
9
100
AcDbSymbolTableRecord
100
AcDbRegAppTableRecord
  2
GEVID1208933861
 70
     0
  0
APPID
  5
4B1
330
9
100
AcDbSymbolTableRecord
100
AcDbRegAppTableRecord
  2
GEVID1208933862
 70
     0
  0
APPID
  5
4B2
330
9
100
AcDbSymbolTableRecord
100
AcDbRegAppTableRecord
  2
GEVID1208933863
 70
     0
  0
APPID
  5
4B3
330
9
100
AcDbSymbolTableRecord
100
AcDbRegAppTableRecord
  2
GEVID1208933864
 70
     0
  0
APPID
  5
4B4
330
9
100
AcDbSymbolTableRecord
100
AcDbRegAppTableRecord
  2
GEVID1208933865
 70
     0
  0
APPID
  5
4B5
330
9
100
AcDbSymbolTableRecord
100
AcDbRegAppTableRecord
  2
GEVID1208933866
 70
     0
  0
APPID
  5
4B6
330
9
100
AcDbSymbolTableRecord
100
AcDbRegAppTableRecord
  2
GEVID1208933867
 70
     0
  0
APPID
  5
4B7
330
9
100
AcDbSymbolTableRecord
100
AcDbRegAppTableRecord
  2
GEVID1208933868
 70
     0
  0
APPID
  5
4B8
330
9
100
AcDbSymbolTableRecord
100
AcDbRegAppTableRecord
  2
GEVID1208933869
 70
     0
  0
APPID
  5
4B9
330
9
100
AcDbSymbolTableRecord
100
AcDbRegAppTableRecord
  2
GEVID1208933870
 70
     0
  0
APPID
  5
4BA
330
9
100
AcDbSymbolTableRecord
100
AcDbRegAppTableRecord
  2
GEVID1208933871
 70
     0
  0
APPID
  5
4BB
330
9
100
AcDbSymbolTableRecord
100
AcDbRegAppTableRecord
  2
GEVID1208933872
 70
     0
  0
APPID
  5
4BC
330
9
100
AcDbSymbolTableRecord
100
AcDbRegAppTableRecord
  2
GEVID1208933873
 70
     0
  0
APPID
  5
4BD
330
9
100
AcDbSymbolTableRecord
100
AcDbRegAppTableRecord
  2
GEVID1208933874
 70
     0
  0
APPID
  5
4BE
330
9
100
AcDbSymbolTableRecord
100
AcDbRegAppTableRecord
  2
GEVID1208933875
 70
     0
  0
APPID
  5
4BF
330
9
100
AcDbSymbolTableRecord
100
AcDbRegAppTableRecord
  2
GEVID1208933876
 70
     0
  0
APPID
  5
4C0
330
9
100
AcDbSymbolTableRecord
100
AcDbRegAppTableRecord
  2
ACAD_DSTYLE_DIMRADIAL_EXTENSION
 70
     0
  0
APPID
  5
4C1
330
9
100
AcDbSymbolTableRecord
100
AcDbRegAppTableRecord
  2
GEVID1208999100
 70
     0
  0
APPID
  5
4C2
330
9
100
AcDbSymbolTableRecord
100
AcDbRegAppTableRecord
  2
GEVID1208999101
 70
     0
  0
APPID
  5
4C3
330
9
100
AcDbSymbolTableRecord
100
AcDbRegAppTableRecord
  2
GEVID1208999102
 70
     0
  0
APPID
  5
4C4
330
9
100
AcDbSymbolTableRecord
100
AcDbRegAppTableRecord
  2
GEVID1208999103
 70
     0
  0
APPID
  5
4C5
330
9
100
AcDbSymbolTableRecord
100
AcDbRegAppTableRecord
  2
GEVID1208999105
 70
     0
  0
APPID
  5
4C6
330
9
100
AcDbSymbolTableRecord
100
AcDbRegAppTableRecord
  2
GEVID1208999106
 70
     0
  0
APPID
  5
4C7
330
9
100
AcDbSymbolTableRecord
100
AcDbRegAppTableRecord
  2
GEVID1208999108
 70
     0
  0
APPID
  5
4C8
330
9
100
AcDbSymbolTableRecord
100
AcDbRegAppTableRecord
  2
GEVID1208999109
 70
     0
  0
APPID
  5
4C9
330
9
100
AcDbSymbolTableRecord
100
AcDbRegAppTableRecord
  2
GEVID1208999110
 70
     0
  0
APPID
  5
4CA
330
9
100
AcDbSymbolTableRecord
100
AcDbRegAppTableRecord
  2
GEVID1208999111
 70
     0
  0
APPID
  5
4CB
330
9
100
AcDbSymbolTableRecord
100
AcDbRegAppTableRecord
  2
GEVID1208999112
 70
     0
  0
APPID
  5
4CC
330
9
100
AcDbSymbolTableRecord
100
AcDbRegAppTableRecord
  2
GEVID1208999113
 70
     0
  0
APPID
  5
4CD
330
9
100
AcDbSymbolTableRecord
100
AcDbRegAppTableRecord
  2
GEVID1208999114
 70
     0
  0
APPID
  5
4CE
330
9
100
AcDbSymbolTableRecord
100
AcDbRegAppTableRecord
  2
GEVID1210218799
 70
     0
  0
APPID
  5
4CF
330
9
100
AcDbSymbolTableRecord
100
AcDbRegAppTableRecord
  2
GEVID1210218800
 70
     0
  0
APPID
  5
4D0
330
9
100
AcDbSymbolTableRecord
100
AcDbRegAppTableRecord
  2
GENIUS_GEFWELD_13
 70
     0
  0
APPID
  5
4D1
330
9
100
AcDbSymbolTableRecord
100
AcDbRegAppTableRecord
  2
GENIUS_GENOBJ-F-WELS_13
 70
     0
  0
APPID
  5
4D2
330
9
100
AcDbSymbolTableRecord
100
AcDbRegAppTableRecord
  2
AcadAnnotative
 70
     0
  0
APPID
  5
4D3
330
9
100
AcDbSymbolTableRecord
100
AcDbRegAppTableRecord
  2
GEVID1210145339
 70
     0
  0
APPID
  5
4D4
330
9
100
AcDbSymbolTableRecord
100
AcDbRegAppTableRecord
  2
ACAD_DSTYLE_DIMBREAK
 70
     0
  0
APPID
  5
4D5
330
9
100
AcDbSymbolTableRecord
100
AcDbRegAppTableRecord
  2
GEVID1210145340
 70
     0
  0
APPID
  5
4D6
330
9
100
AcDbSymbolTableRecord
100
AcDbRegAppTableRecord
  2
GEVID1210145341
 70
     0
  0
APPID
  5
4D7
330
9
100
AcDbSymbolTableRecord
100
AcDbRegAppTableRecord
  2
GEVID1210145342
 70
     0
  0
APPID
  5
4D8
330
9
100
AcDbSymbolTableRecord
100
AcDbRegAppTableRecord
  2
GEVID1210145343
 70
     0
  0
APPID
  5
4D9
330
9
100
AcDbSymbolTableRecord
100
AcDbRegAppTableRecord
  2
GEVID1210145344
 70
     0
  0
APPID
  5
4DA
330
9
100
AcDbSymbolTableRecord
100
AcDbRegAppTableRecord
  2
GEVID1210145345
 70
     0
  0
APPID
  5
4DB
330
9
100
AcDbSymbolTableRecord
100
AcDbRegAppTableRecord
  2
GEVID1210152816
 70
     0
  0
APPID
  5
4DC
330
9
100
AcDbSymbolTableRecord
100
AcDbRegAppTableRecord
  2
GEVID1210153850
 70
     0
  0
APPID
  5
4DD
330
9
100
AcDbSymbolTableRecord
100
AcDbRegAppTableRecord
  2
GEVID1210153851
 70
     0
  0
APPID
  5
4DE
330
9
100
AcDbSymbolTableRecord
100
AcDbRegAppTableRecord
  2
GEVID1210153852
 70
     0
  0
APPID
  5
4DF
330
9
100
AcDbSymbolTableRecord
100
AcDbRegAppTableRecord
  2
GEVID1210549898
 70
     0
  0
APPID
  5
4E0
330
9
100
AcDbSymbolTableRecord
100
AcDbRegAppTableRecord
  2
GEVID1210549899
 70
     0
  0
APPID
  5
4E1
330
9
100
AcDbSymbolTableRecord
100
AcDbRegAppTableRecord
  2
GEVID1210549900
 70
     0
  0
APPID
  5
4E2
330
9
100
AcDbSymbolTableRecord
100
AcDbRegAppTableRecord
  2
GEVID1210549901
 70
     0
  0
APPID
  5
4E3
330
9
100
AcDbSymbolTableRecord
100
AcDbRegAppTableRecord
  2
GEVID1210549902
 70
     0
  0
APPID
  5
4E4
330
9
100
AcDbSymbolTableRecord
100
AcDbRegAppTableRecord
  2
GEVID1210549903
 70
     0
  0
APPID
  5
4E5
330
9
100
AcDbSymbolTableRecord
100
AcDbRegAppTableRecord
  2
GEVID1210549904
 70
     0
  0
APPID
  5
4E6
330
9
100
AcDbSymbolTableRecord
100
AcDbRegAppTableRecord
  2
GEVID1210549905
 70
     0
  0
APPID
  5
4E7
330
9
100
AcDbSymbolTableRecord
100
AcDbRegAppTableRecord
  2
GEVID1210549906
 70
     0
  0
APPID
  5
4E8
330
9
100
AcDbSymbolTableRecord
100
AcDbRegAppTableRecord
  2
GEVID1210549907
 70
     0
  0
APPID
  5
4E9
330
9
100
AcDbSymbolTableRecord
100
AcDbRegAppTableRecord
  2
GEVID1210549908
 70
     0
  0
APPID
  5
4EA
330
9
100
AcDbSymbolTableRecord
100
AcDbRegAppTableRecord
  2
GEVID1210549909
 70
     0
  0
APPID
  5
4EB
330
9
100
AcDbSymbolTableRecord
100
AcDbRegAppTableRecord
  2
GEVID1210549910
 70
     0
  0
APPID
  5
4EC
330
9
100
AcDbSymbolTableRecord
100
AcDbRegAppTableRecord
  2
GEVID1210549911
 70
     0
  0
APPID
  5
4ED
330
9
100
AcDbSymbolTableRecord
100
AcDbRegAppTableRecord
  2
GEVID1210549912
 70
     0
  0
APPID
  5
4EE
330
9
100
AcDbSymbolTableRecord
100
AcDbRegAppTableRecord
  2
GEVID1210549913
 70
     0
  0
APPID
  5
4EF
330
9
100
AcDbSymbolTableRecord
100
AcDbRegAppTableRecord
  2
GEVID1210549914
 70
     0
  0
APPID
  5
4F0
330
9
100
AcDbSymbolTableRecord
100
AcDbRegAppTableRecord
  2
GEVID1210549915
 70
     0
  0
APPID
  5
4F1
330
9
100
AcDbSymbolTableRecord
100
AcDbRegAppTableRecord
  2
GEVID1210549916
 70
     0
  0
APPID
  5
4F2
330
9
100
AcDbSymbolTableRecord
100
AcDbRegAppTableRecord
  2
GEVID1210549917
 70
     0
  0
APPID
  5
4F3
330
9
100
AcDbSymbolTableRecord
100
AcDbRegAppTableRecord
  2
GENIUS_GENOBJ-N-CRS_13
 70
     0
  0
APPID
  5
4F4
330
9
100
AcDbSymbolTableRecord
100
AcDbRegAppTableRecord
  2
GEVID1210549918
 70
     0
  0
APPID
  5
4F5
330
9
100
AcDbSymbolTableRecord
100
AcDbRegAppTableRecord
  2
GENIUS_GENOBJ-N-CRC_13
 70
     0
  0
APPID
  5
4F6
330
9
100
AcDbSymbolTableRecord
100
AcDbRegAppTableRecord
  2
GENIUS_GENCRC_14
 70
     0
  0
APPID
  5
4F7
330
9
100
AcDbSymbolTableRecord
100
AcDbRegAppTableRecord
  2
GEVID1210549919
 70
     0
  0
APPID
  5
4F8
330
9
100
AcDbSymbolTableRecord
100
AcDbRegAppTableRecord
  2
GEVID1210549921
 70
     0
  0
APPID
  5
4F9
330
9
100
AcDbSymbolTableRecord
100
AcDbRegAppTableRecord
  2
GEVID1210549922
 70
     0
  0
APPID
  5
4FA
330
9
100
AcDbSymbolTableRecord
100
AcDbRegAppTableRecord
  2
GEVID1210635173
 70
     0
  0
APPID
  5
4FB
330
9
100
AcDbSymbolTableRecord
100
AcDbRegAppTableRecord
  2
GEVID1210635174
 70
     0
  0
APPID
  5
4FC
330
9
100
AcDbSymbolTableRecord
100
AcDbRegAppTableRecord
  2
GEVID1210635175
 70
     0
  0
APPID
  5
4FD
330
9
100
AcDbSymbolTableRecord
100
AcDbRegAppTableRecord
  2
GEVID1210635176
 70
     0
  0
APPID
  5
4FE
330
9
100
AcDbSymbolTableRecord
100
AcDbRegAppTableRecord
  2
GEVID1210635177
 70
     0
  0
APPID
  5
4FF
330
9
100
AcDbSymbolTableRecord
100
AcDbRegAppTableRecord
  2
GEVID1210635178
 70
     0
  0
APPID
  5
500
330
9
100
AcDbSymbolTableRecord
100
AcDbRegAppTableRecord
  2
GENIUS_GENIUS_GENBHEDTMP_13
 70
     0
  0
APPID
  5
501
330
9
100
AcDbSymbolTableRecord
100
AcDbRegAppTableRecord
  2
GEVID1210635179
 70
     0
  0
APPID
  5
502
330
9
100
AcDbSymbolTableRecord
100
AcDbRegAppTableRecord
  2
GEVID1210635180
 70
     0
  0
APPID
  5
503
330
9
100
AcDbSymbolTableRecord
100
AcDbRegAppTableRecord
  2
GEVID1210635181
 70
     0
  0
APPID
  5
504
330
9
100
AcDbSymbolTableRecord
100
AcDbRegAppTableRecord
  2
GEVID1210635182
 70
     0
  0
APPID
  5
505
330
9
100
AcDbSymbolTableRecord
100
AcDbRegAppTableRecord
  2
GEVID1210635184
 70
     0
  0
APPID
  5
506
330
9
100
AcDbSymbolTableRecord
100
AcDbRegAppTableRecord
  2
GEVID1210635185
 70
     0
  0
APPID
  5
507
330
9
100
AcDbSymbolTableRecord
100
AcDbRegAppTableRecord
  2
GEVID1210635186
 70
     0
  0
APPID
  5
508
330
9
100
AcDbSymbolTableRecord
100
AcDbRegAppTableRecord
  2
GEVID1210635187
 70
     0
  0
APPID
  5
509
330
9
100
AcDbSymbolTableRecord
100
AcDbRegAppTableRecord
  2
GEVID1210635188
 70
     0
  0
APPID
  5
50A
330
9
100
AcDbSymbolTableRecord
100
AcDbRegAppTableRecord
  2
GEVID1210635189
 70
     0
  0
APPID
  5
50B
330
9
100
AcDbSymbolTableRecord
100
AcDbRegAppTableRecord
  2
GEVID1210635190
 70
     0
  0
APPID
  5
50C
330
9
100
AcDbSymbolTableRecord
100
AcDbRegAppTableRecord
  2
GENIUS_GENREC_14
 70
     0
  0
APPID
  5
50D
330
9
100
AcDbSymbolTableRecord
100
AcDbRegAppTableRecord
  2
GENIUS_GENOBJ-N-REC_13
 70
     0
  0
APPID
  5
50E
330
9
100
AcDbSymbolTableRecord
100
AcDbRegAppTableRecord
  2
GEVID1210676655
 70
     0
  0
APPID
  5
50F
330
9
100
AcDbSymbolTableRecord
100
AcDbRegAppTableRecord
  2
GEVID1210676656
 70
     0
  0
APPID
  5
510
330
9
100
AcDbSymbolTableRecord
100
AcDbRegAppTableRecord
  2
GEVID1210676657
 70
     0
  0
APPID
  5
511
330
9
100
AcDbSymbolTableRecord
100
AcDbRegAppTableRecord
  2
GEVID1210676659
 70
     0
  0
APPID
  5
512
330
9
100
AcDbSymbolTableRecord
100
AcDbRegAppTableRecord
  2
GEVID1210676660
 70
     0
  0
APPID
  5
513
330
9
100
AcDbSymbolTableRecord
100
AcDbRegAppTableRecord
  2
GEVID1210676661
 70
     0
  0
APPID
  5
514
330
9
100
AcDbSymbolTableRecord
100
AcDbRegAppTableRecord
  2
GEVID1210676662
 70
     0
  0
APPID
  5
515
330
9
100
AcDbSymbolTableRecord
100
AcDbRegAppTableRecord
  2
GEVID1210721646
 70
     0
  0
APPID
  5
516
330
9
100
AcDbSymbolTableRecord
100
AcDbRegAppTableRecord
  2
GEVID1210721647
 70
     0
  0
APPID
  5
517
330
9
100
AcDbSymbolTableRecord
100
AcDbRegAppTableRecord
  2
GEVID1210721648
 70
     0
  0
APPID
  5
518
330
9
100
AcDbSymbolTableRecord
100
AcDbRegAppTableRecord
  2
GEVID1210721649
 70
     0
  0
APPID
  5
519
330
9
100
AcDbSymbolTableRecord
100
AcDbRegAppTableRecord
  2
GEVID1210721650
 70
     0
  0
APPID
  5
51A
330
9
100
AcDbSymbolTableRecord
100
AcDbRegAppTableRecord
  2
GEVID1210721651
 70
     0
  0
APPID
  5
51B
330
9
100
AcDbSymbolTableRecord
100
AcDbRegAppTableRecord
  2
GEVID1210721652
 70
     0
  0
APPID
  5
51C
330
9
100
AcDbSymbolTableRecord
100
AcDbRegAppTableRecord
  2
GEVID1210721653
 70
     0
  0
APPID
  5
51D
330
9
100
AcDbSymbolTableRecord
100
AcDbRegAppTableRecord
  2
PE_URL
 70
     0
  0
APPID
  5
51E
330
9
100
AcDbSymbolTableRecord
100
AcDbRegAppTableRecord
  2
GEVID1210825555
 70
     0
  0
APPID
  5
51F
330
9
100
AcDbSymbolTableRecord
100
AcDbRegAppTableRecord
  2
GEVID1210825556
 70
     0
  0
APPID
  5
520
330
9
100
AcDbSymbolTableRecord
100
AcDbRegAppTableRecord
  2
GEVID1210825557
 70
     0
  0
APPID
  5
521
330
9
100
AcDbSymbolTableRecord
100
AcDbRegAppTableRecord
  2
GEVID1210825558
 70
     0
  0
APPID
  5
522
330
9
100
AcDbSymbolTableRecord
100
AcDbRegAppTableRecord
  2
GEVID1210825559
 70
     0
  0
APPID
  5
523
330
9
100
AcDbSymbolTableRecord
100
AcDbRegAppTableRecord
  2
GEVID1210825560
 70
     0
  0
APPID
  5
524
330
9
100
AcDbSymbolTableRecord
100
AcDbRegAppTableRecord
  2
GEVID1210825561
 70
     0
  0
APPID
  5
525
330
9
100
AcDbSymbolTableRecord
100
AcDbRegAppTableRecord
  2
GEVID1210825562
 70
     0
  0
APPID
  5
526
330
9
100
AcDbSymbolTableRecord
100
AcDbRegAppTableRecord
  2
GEVID1210825563
 70
     0
  0
APPID
  5
527
330
9
100
AcDbSymbolTableRecord
100
AcDbRegAppTableRecord
  2
GEVID1210825564
 70
     0
  0
APPID
  5
528
330
9
100
AcDbSymbolTableRecord
100
AcDbRegAppTableRecord
  2
GEVID1210825565
 70
     0
  0
APPID
  5
529
330
9
100
AcDbSymbolTableRecord
100
AcDbRegAppTableRecord
  2
GEVID1210825566
 70
     0
  0
APPID
  5
52A
330
9
100
AcDbSymbolTableRecord
100
AcDbRegAppTableRecord
  2
GEVID1210825567
 70
     0
  0
APPID
  5
52B
330
9
100
AcDbSymbolTableRecord
100
AcDbRegAppTableRecord
  2
GENIUS_GENOBJ-N-ZOO_13
 70
     0
  0
APPID
  5
52C
330
9
100
AcDbSymbolTableRecord
100
AcDbRegAppTableRecord
  2
GENIUS_GENZOO_17
 70
     0
  0
APPID
  5
52D
330
9
100
AcDbSymbolTableRecord
100
AcDbRegAppTableRecord
  2
ACADANNOTATIVEDECOMPOSITION
 70
     0
  0
APPID
  5
52E
330
9
100
AcDbSymbolTableRecord
100
AcDbRegAppTableRecord
  2
GENIUS_GENOBJ-N-HTC_13
 70
     0
  0
APPID
  5
52F
330
9
100
AcDbSymbolTableRecord
100
AcDbRegAppTableRecord
  2
GENIUS_GENHATCH_13
 70
     0
  0
APPID
  5
530
330
9
100
AcDbSymbolTableRecord
100
AcDbRegAppTableRecord
  2
GEVID1210896020
 70
     0
  0
APPID
  5
531
330
9
100
AcDbSymbolTableRecord
100
AcDbRegAppTableRecord
  2
GEVID1210896021
 70
     0
  0
APPID
  5
532
330
9
100
AcDbSymbolTableRecord
100
AcDbRegAppTableRecord
  2
GEVID1209083540
 70
     0
  0
APPID
  5
533
330
9
100
AcDbSymbolTableRecord
100
AcDbRegAppTableRecord
  2
GEVMK
 70
     0
  0
APPID
  5
534
330
9
100
AcDbSymbolTableRecord
100
AcDbRegAppTableRecord
  2
GEVID1209083542
 70
     0
  0
APPID
  5
535
330
9
100
AcDbSymbolTableRecord
100
AcDbRegAppTableRecord
  2
GEVID1209083543
 70
     0
  0
APPID
  5
536
330
9
100
AcDbSymbolTableRecord
100
AcDbRegAppTableRecord
  2
GEVID1209083544
 70
     0
  0
APPID
  5
537
330
9
100
AcDbSymbolTableRecord
100
AcDbRegAppTableRecord
  2
GEVID1209083545
 70
     0
  0
APPID
  5
538
330
9
100
AcDbSymbolTableRecord
100
AcDbRegAppTableRecord
  2
GEVID1209083546
 70
     0
  0
APPID
  5
539
330
9
100
AcDbSymbolTableRecord
100
AcDbRegAppTableRecord
  2
GEVID1209083547
 70
     0
  0
APPID
  5
53A
330
9
100
AcDbSymbolTableRecord
100
AcDbRegAppTableRecord
  2
GEVID1209083548
 70
     0
  0
APPID
  5
53B
330
9
100
AcDbSymbolTableRecord
100
AcDbRegAppTableRecord
  2
GEVID1209083549
 70
     0
  0
APPID
  5
53C
330
9
100
AcDbSymbolTableRecord
100
AcDbRegAppTableRecord
  2
GEVID1209083550
 70
     0
  0
APPID
  5
53D
330
9
100
AcDbSymbolTableRecord
100
AcDbRegAppTableRecord
  2
GEVID1209083551
 70
     0
  0
APPID
  5
53E
330
9
100
AcDbSymbolTableRecord
100
AcDbRegAppTableRecord
  2
GEVID1209083552
 70
     0
  0
APPID
  5
53F
330
9
100
AcDbSymbolTableRecord
100
AcDbRegAppTableRecord
  2
GEVID1209083553
 70
     0
  0
APPID
  5
540
330
9
100
AcDbSymbolTableRecord
100
AcDbRegAppTableRecord
  2
GEVID1210896022
 70
     0
  0
APPID
  5
541
330
9
100
AcDbSymbolTableRecord
100
AcDbRegAppTableRecord
  2
GEVID1211508364
 70
     0
  0
APPID
  5
542
330
9
100
AcDbSymbolTableRecord
100
AcDbRegAppTableRecord
  2
GEVID1211414908
 70
     0
  0
APPID
  5
543
330
9
100
AcDbSymbolTableRecord
100
AcDbRegAppTableRecord
  2
GEVID1211414909
 70
     0
  0
APPID
  5
544
330
9
100
AcDbSymbolTableRecord
100
AcDbRegAppTableRecord
  2
GEVID1211508359
 70
     0
  0
APPID
  5
545
330
9
100
AcDbSymbolTableRecord
100
AcDbRegAppTableRecord
  2
GEVID1211508360
 70
     0
  0
APPID
  5
546
330
9
100
AcDbSymbolTableRecord
100
AcDbRegAppTableRecord
  2
GEVID1211508361
 70
     0
  0
APPID
  5
547
330
9
100
AcDbSymbolTableRecord
100
AcDbRegAppTableRecord
  2
GEVID1211508362
 70
     0
  0
APPID
  5
548
330
9
100
AcDbSymbolTableRecord
100
AcDbRegAppTableRecord
  2
GEVID1211508363
 70
     0
  0
APPID
  5
549
330
9
100
AcDbSymbolTableRecord
100
AcDbRegAppTableRecord
  2
GEVID1211878469
 70
     0
  0
APPID
  5
54A
330
9
100
AcDbSymbolTableRecord
100
AcDbRegAppTableRecord
  2
GEVID1212642819
 70
     0
  0
APPID
  5
54B
330
9
100
AcDbSymbolTableRecord
100
AcDbRegAppTableRecord
  2
GEVID1212642820
 70
     0
  0
APPID
  5
54C
330
9
100
AcDbSymbolTableRecord
100
AcDbRegAppTableRecord
  2
GEVID1212642821
 70
     0
  0
APPID
  5
54D
330
9
100
AcDbSymbolTableRecord
100
AcDbRegAppTableRecord
  2
GEVID1212642822
 70
     0
  0
APPID
  5
54E
330
9
100
AcDbSymbolTableRecord
100
AcDbRegAppTableRecord
  2
GEVID1212642823
 70
     0
  0
APPID
  5
54F
330
9
100
AcDbSymbolTableRecord
100
AcDbRegAppTableRecord
  2
GEVID1212642825
 70
     0
  0
APPID
  5
550
330
9
100
AcDbSymbolTableRecord
100
AcDbRegAppTableRecord
  2
GEVID1212642826
 70
     0
  0
APPID
  5
551
330
9
100
AcDbSymbolTableRecord
100
AcDbRegAppTableRecord
  2
GEVID1212642827
 70
     0
  0
APPID
  5
552
330
9
100
AcDbSymbolTableRecord
100
AcDbRegAppTableRecord
  2
GEVID1212642828
 70
     0
  0
APPID
  5
553
330
9
100
AcDbSymbolTableRecord
100
AcDbRegAppTableRecord
  2
GEVID1212642831
 70
     0
  0
APPID
  5
554
330
9
100
AcDbSymbolTableRecord
100
AcDbRegAppTableRecord
  2
GEVID1212642834
 70
     0
  0
APPID
  5
555
330
9
100
AcDbSymbolTableRecord
100
AcDbRegAppTableRecord
  2
GEVID1212642835
 70
     0
  0
APPID
  5
556
330
9
100
AcDbSymbolTableRecord
100
AcDbRegAppTableRecord
  2
GEVID1212642836
 70
     0
  0
APPID
  5
557
330
9
100
AcDbSymbolTableRecord
100
AcDbRegAppTableRecord
  2
GEVID1212642837
 70
     0
  0
APPID
  5
558
330
9
100
AcDbSymbolTableRecord
100
AcDbRegAppTableRecord
  2
GEVID1212642839
 70
     0
  0
APPID
  5
559
330
9
100
AcDbSymbolTableRecord
100
AcDbRegAppTableRecord
  2
GEVID1212642840
 70
     0
  0
APPID
  5
55A
330
9
100
AcDbSymbolTableRecord
100
AcDbRegAppTableRecord
  2
GEVID1212642841
 70
     0
  0
APPID
  5
55B
330
9
100
AcDbSymbolTableRecord
100
AcDbRegAppTableRecord
  2
GEVID1212655312
 70
     0
  0
APPID
  5
55C
330
9
100
AcDbSymbolTableRecord
100
AcDbRegAppTableRecord
  2
GEVID1212655313
 70
     0
  0
APPID
  5
55D
330
9
100
AcDbSymbolTableRecord
100
AcDbRegAppTableRecord
  2
GEVID1212656533
 70
     0
  0
APPID
  5
55E
330
9
100
AcDbSymbolTableRecord
100
AcDbRegAppTableRecord
  2
GEVID1212656534
 70
     0
  0
APPID
  5
55F
330
9
100
AcDbSymbolTableRecord
100
AcDbRegAppTableRecord
  2
GEVID1212656535
 70
     0
  0
APPID
  5
560
330
9
100
AcDbSymbolTableRecord
100
AcDbRegAppTableRecord
  2
GEVID1212656536
 70
     0
  0
APPID
  5
561
330
9
100
AcDbSymbolTableRecord
100
AcDbRegAppTableRecord
  2
GEVID1212656538
 70
     0
  0
APPID
  5
562
330
9
100
AcDbSymbolTableRecord
100
AcDbRegAppTableRecord
  2
GEVID1212656541
 70
     0
  0
APPID
  5
563
330
9
100
AcDbSymbolTableRecord
100
AcDbRegAppTableRecord
  2
GEVID1212656543
 70
     0
  0
APPID
  5
564
330
9
100
AcDbSymbolTableRecord
100
AcDbRegAppTableRecord
  2
GENIUS_GENOBJ-F-PFASSM_13
 70
     0
  0
APPID
  5
565
330
9
100
AcDbSymbolTableRecord
100
AcDbRegAppTableRecord
  2
GEVID1212656544
 70
     0
  0
APPID
  5
566
330
9
100
AcDbSymbolTableRecord
100
AcDbRegAppTableRecord
  2
GEVID1212656545
 70
     0
  0
APPID
  5
567
330
9
100
AcDbSymbolTableRecord
100
AcDbRegAppTableRecord
  2
GEVID1212656546
 70
     0
  0
APPID
  5
568
330
9
100
AcDbSymbolTableRecord
100
AcDbRegAppTableRecord
  2
GEVID1212656547
 70
     0
  0
APPID
  5
569
330
9
100
AcDbSymbolTableRecord
100
AcDbRegAppTableRecord
  2
GEVID1212656548
 70
     0
  0
APPID
  5
56A
330
9
100
AcDbSymbolTableRecord
100
AcDbRegAppTableRecord
  2
GEVID1212656549
 70
     0
  0
APPID
  5
56B
330
9
100
AcDbSymbolTableRecord
100
AcDbRegAppTableRecord
  2
GEVID1212656550
 70
     0
  0
APPID
  5
56C
330
9
100
AcDbSymbolTableRecord
100
AcDbRegAppTableRecord
  2
GEVID1212656552
 70
     0
  0
APPID
  5
56D
330
9
100
AcDbSymbolTableRecord
100
AcDbRegAppTableRecord
  2
GEVID1212656553
 70
     0
  0
APPID
  5
56E
330
9
100
AcDbSymbolTableRecord
100
AcDbRegAppTableRecord
  2
GEVID1212656554
 70
     0
  0
APPID
  5
56F
330
9
100
AcDbSymbolTableRecord
100
AcDbRegAppTableRecord
  2
GEVID1212656555
 70
     0
  0
APPID
  5
570
330
9
100
AcDbSymbolTableRecord
100
AcDbRegAppTableRecord
  2
GEVID1212656556
 70
     0
  0
APPID
  5
571
330
9
100
AcDbSymbolTableRecord
100
AcDbRegAppTableRecord
  2
GEVID1212656557
 70
     0
  0
APPID
  5
572
330
9
100
AcDbSymbolTableRecord
100
AcDbRegAppTableRecord
  2
GEVID1212656559
 70
     0
  0
APPID
  5
573
330
9
100
AcDbSymbolTableRecord
100
AcDbRegAppTableRecord
  2
GEVID1212656560
 70
     0
  0
APPID
  5
574
330
9
100
AcDbSymbolTableRecord
100
AcDbRegAppTableRecord
  2
GEVID1212656561
 70
     0
  0
APPID
  5
575
330
9
100
AcDbSymbolTableRecord
100
AcDbRegAppTableRecord
  2
GEVID1212656562
 70
     0
  0
APPID
  5
576
330
9
100
AcDbSymbolTableRecord
100
AcDbRegAppTableRecord
  2
GEVID1212656563
 70
     0
  0
APPID
  5
577
330
9
100
AcDbSymbolTableRecord
100
AcDbRegAppTableRecord
  2
GEVID1212711781
 70
     0
  0
APPID
  5
578
330
9
100
AcDbSymbolTableRecord
100
AcDbRegAppTableRecord
  2
GEVID1212711782
 70
     0
  0
APPID
  5
579
330
9
100
AcDbSymbolTableRecord
100
AcDbRegAppTableRecord
  2
GEVID1212711783
 70
     0
  0
APPID
  5
57A
330
9
100
AcDbSymbolTableRecord
100
AcDbRegAppTableRecord
  2
GEVID1212711784
 70
     0
  0
APPID
  5
57B
330
9
100
AcDbSymbolTableRecord
100
AcDbRegAppTableRecord
  2
GEVID1212711788
 70
     0
  0
APPID
  5
57C
330
9
100
AcDbSymbolTableRecord
100
AcDbRegAppTableRecord
  2
GEVID1212711789
 70
     0
  0
APPID
  5
57D
330
9
100
AcDbSymbolTableRecord
100
AcDbRegAppTableRecord
  2
GEVID1212711790
 70
     0
  0
APPID
  5
57E
330
9
100
AcDbSymbolTableRecord
100
AcDbRegAppTableRecord
  2
GEVID1212711791
 70
     0
  0
APPID
  5
57F
330
9
100
AcDbSymbolTableRecord
100
AcDbRegAppTableRecord
  2
GEVID1212711792
 70
     0
  0
APPID
  5
580
330
9
100
AcDbSymbolTableRecord
100
AcDbRegAppTableRecord
  2
GEVID1212711793
 70
     0
  0
APPID
  5
581
330
9
100
AcDbSymbolTableRecord
100
AcDbRegAppTableRecord
  2
GEVID1212711794
 70
     0
  0
APPID
  5
582
330
9
100
AcDbSymbolTableRecord
100
AcDbRegAppTableRecord
  2
GEVID1212711795
 70
     0
  0
APPID
  5
583
330
9
100
AcDbSymbolTableRecord
100
AcDbRegAppTableRecord
  2
GEVID1212711797
 70
     0
  0
APPID
  5
584
330
9
100
AcDbSymbolTableRecord
100
AcDbRegAppTableRecord
  2
GEVID1212711798
 70
     0
  0
APPID
  5
585
330
9
100
AcDbSymbolTableRecord
100
AcDbRegAppTableRecord
  2
GEVID1212711799
 70
     0
  0
APPID
  5
586
330
9
100
AcDbSymbolTableRecord
100
AcDbRegAppTableRecord
  2
GEVID1212711800
 70
     0
  0
APPID
  5
587
330
9
100
AcDbSymbolTableRecord
100
AcDbRegAppTableRecord
  2
GEVID1212711801
 70
     0
  0
APPID
  5
588
330
9
100
AcDbSymbolTableRecord
100
AcDbRegAppTableRecord
  2
GEVID1212711802
 70
     0
  0
APPID
  5
589
330
9
100
AcDbSymbolTableRecord
100
AcDbRegAppTableRecord
  2
GEVID1212711803
 70
     0
  0
APPID
  5
58A
330
9
100
AcDbSymbolTableRecord
100
AcDbRegAppTableRecord
  2
GEVID1212711804
 70
     0
  0
APPID
  5
58B
330
9
100
AcDbSymbolTableRecord
100
AcDbRegAppTableRecord
  2
GEVID1212711805
 70
     0
  0
APPID
  5
58C
330
9
100
AcDbSymbolTableRecord
100
AcDbRegAppTableRecord
  2
GEVID1212711806
 70
     0
  0
APPID
  5
58D
330
9
100
AcDbSymbolTableRecord
100
AcDbRegAppTableRecord
  2
GEVID1212711807
 70
     0
  0
APPID
  5
58E
330
9
100
AcDbSymbolTableRecord
100
AcDbRegAppTableRecord
  2
GEVID1212711808
 70
     0
  0
APPID
  5
58F
330
9
100
AcDbSymbolTableRecord
100
AcDbRegAppTableRecord
  2
GEVID1212711809
 70
     0
  0
APPID
  5
590
330
9
100
AcDbSymbolTableRecord
100
AcDbRegAppTableRecord
  2
GEVID1212711810
 70
     0
  0
APPID
  5
591
330
9
100
AcDbSymbolTableRecord
100
AcDbRegAppTableRecord
  2
GEVID1212711811
 70
     0
  0
APPID
  5
90A
330
9
100
AcDbSymbolTableRecord
100
AcDbRegAppTableRecord
  2
GENIUS_GENTRA_14
 70
     0
  0
APPID
  5
919
330
9
100
AcDbSymbolTableRecord
100
AcDbRegAppTableRecord
  2
GENIUS_GENOBJ-N-TIT_13
 70
     0
  0
APPID
  5
91A
330
9
100
AcDbSymbolTableRecord
100
AcDbRegAppTableRecord
  2
GENIUS_GENTITLE_13
 70
     0
  0
APPID
  5
949
330
9
100
AcDbSymbolTableRecord
100
AcDbRegAppTableRecord
  2
GENIUS_GENBLLY_14
 70
     0
  0
APPID
  5
DDD
330
9
100
AcDbSymbolTableRecord
100
AcDbRegAppTableRecord
  2
GEVID1213165152
 70
     0
  0
APPID
  5
12F9
330
9
100
AcDbSymbolTableRecord
100
AcDbRegAppTableRecord
  2
AcDbDynamicBlockTrueName
 70
     0
  0
APPID
  5
12FA
330
9
100
AcDbSymbolTableRecord
100
AcDbRegAppTableRecord
  2
ACDBBLOCKREPETAG
 70
     0
  0
APPID
  5
1C15
330
9
100
AcDbSymbolTableRecord
100
AcDbRegAppTableRecord
  2
GEVID1214872427
 70
     0
  0
APPID
  5
1C2A
330
9
100
AcDbSymbolTableRecord
100
AcDbRegAppTableRecord
  2
GEVID1214872428
 70
     0
  0
APPID
  5
1C2F
330
9
100
AcDbSymbolTableRecord
100
AcDbRegAppTableRecord
  2
GEVID1214872429
 70
     0
  0
APPID
  5
1C33
330
9
100
AcDbSymbolTableRecord
100
AcDbRegAppTableRecord
  2
GEVID1214872430
 70
     0
  0
APPID
  5
1C3F
330
9
100
AcDbSymbolTableRecord
100
AcDbRegAppTableRecord
  2
GEVID1214872432
 70
     0
  0
APPID
  5
1C4E
330
9
100
AcDbSymbolTableRecord
100
AcDbRegAppTableRecord
  2
GEVID1214872433
 70
     0
  0
APPID
  5
20DC
330
9
100
AcDbSymbolTableRecord
100
AcDbRegAppTableRecord
  2
AcDbDynamicBlockGUID
 70
     0
  0
APPID
  5
20FD
330
9
100
AcDbSymbolTableRecord
100
AcDbRegAppTableRecord
  2
GENIUS_GENOBJ-N-REV_13
 70
     0
  0
APPID
  5
20FE
330
9
100
AcDbSymbolTableRecord
100
AcDbRegAppTableRecord
  2
GENIUS_GENOBJ-N-RSSYM_13
 70
     0
  0
APPID
  5
20FF
330
9
100
AcDbSymbolTableRecord
100
AcDbRegAppTableRecord
  2
GENIUS_GENSYMENT_13
 70
     0
  0
APPID
  5
2100
330
9
100
AcDbSymbolTableRecord
100
AcDbRegAppTableRecord
  2
GENIUS_GENSCSYM_13
 70
     0
  0
APPID
  5
5195
330
9
100
AcDbSymbolTableRecord
100
AcDbRegAppTableRecord
  2
GEVID1240796110
 70
     0
  0
APPID
  5
5199
330
9
100
AcDbSymbolTableRecord
100
AcDbRegAppTableRecord
  2
GEVID1240796111
 70
     0
  0
APPID
  5
55E7
330
9
100
AcDbSymbolTableRecord
100
AcDbRegAppTableRecord
  2
GEVID1240796112
 70
     0
  0
APPID
  5
55F4
330
9
100
AcDbSymbolTableRecord
100
AcDbRegAppTableRecord
  2
GEVID1240796113
 70
     0
  0
ENDTAB
  0
TABLE
  2
DIMSTYLE
  5
A
330
0
100
AcDbSymbolTable
 70
    29
100
AcDbDimStyleTable
 71
     1
340
5AB
  0
DIMSTYLE
105
5AB
330
A
100
AcDbSymbolTableRecord
100
AcDbDimStyleTableRecord
  2
SEISA
 70
     0
  4
"
 40
20.0
 41
2.5
 42
0.625
 43
10.0
 44
0.625
 47
0.1
 48
0.1
 73
     0
 74
     0
 77
     3
 78
     8
 79
     2
 90
     1
140
3.5
141
0.0
143
0.0393701
146
0.71
147
1.5
172
     1
176
     3
177
     3
178
     3
271
     2
272
     2
283
     0
286
     8
340
5D5
341
69
342
69
371
    -1
372
    -1
1001
ACAD_DSTYLE_DIMJAG
1070
   388
1040
1.5
1001
ACAD_DSTYLE_DIMTALN
1070
   392
1070
     1
  0
DIMSTYLE
105
5E9
102
{ACAD_REACTORS
330
57DC
330
5810
330
5828
330
5865
330
58A7
330
58C3
330
58DF
330
58F7
330
590F
330
5927
330
5B0C
330
5BB1
330
5BC9
330
5BE1
330
68A9
330
68DE
330
690C
102
}
330
A
100
AcDbSymbolTableRecord
100
AcDbDimStyleTableRecord
  2
SEISA$0
 70
     0
  4
"
 40
20.0
 41
2.5
 42
0.625
 43
10.0
 44
0.625
 47
0.1
 48
0.1
 73
     0
 74
     0
 77
     3
 78
     8
 79
     2
 90
     1
140
3.5
141
0.0
143
0.0393701
146
0.71
147
1.5
172
     1
176
     3
177
     3
178
     3
271
     2
272
     2
283
     0
286
     8
340
5D5
341
69
342
69
371
    -1
372
    -1
  0
DIMSTYLE
105
6B6C
330
A
100
AcDbSymbolTableRecord
100
AcDbDimStyleTableRecord
  2
AM_ISO
 70
     0
  4
"
 41
2.5
 42
1.0
 43
10.0
 44
1.0
 47
0.1
 48
0.1
 73
     0
 74
     0
 77
     1
 78
     8
 79
     2
 90
     1
140
3.5
141
0.0
143
0.0393701
146
0.71
147
1.5
172
     1
176
   256
177
   256
178
     2
271
     2
272
     3
274
     4
283
     0
284
     8
340
11
371
    -1
372
    -1
  0
DIMSTYLE
105
6B6D
330
A
100
AcDbSymbolTableRecord
100
AcDbDimStyleTableRecord
  2
AM_ISO$3
 70
     0
  4
"
 41
2.5
 42
1.0
 43
10.0
 44
1.0
 47
0.1
 48
0.1
 73
     0
 77
     1
 78
     8
 79
     2
 90
     1
140
3.5
141
0.0
143
0.0393701
146
0.71
147
1.5
176
   256
177
   256
178
     2
271
     2
272
     3
274
     4
283
     0
284
     8
288
     1
289
     0
340
11
371
    -1
372
    -1
  0
DIMSTYLE
105
6B6E
330
A
100
AcDbSymbolTableRecord
100
AcDbDimStyleTableRecord
  2
AM_ISO$4
 70
     0
  4
"
 41
2.5
 42
1.0
 43
10.0
 44
1.0
 47
0.1
 48
0.1
 73
     0
 77
     1
 78
     8
 79
     2
 90
     1
140
3.5
141
0.0
143
0.0393701
146
0.71
147
1.5
176
   256
177
   256
178
     2
271
     2
272
     3
274
     4
283
     0
284
     8
288
     1
289
     0
340
11
371
    -1
372
    -1
  0
DIMSTYLE
105
6B6F
330
A
100
AcDbSymbolTableRecord
100
AcDbDimStyleTableRecord
  2
AM_ISO$6
 70
     0
  4
"
 41
2.5
 42
1.0
 43
10.0
 44
1.0
 47
0.1
 48
0.1
 73
     0
 74
     0
 78
     8
 79
     2
 90
     1
140
3.5
141
0.0
143
0.0393701
146
0.71
147
1.5
172
     1
176
   256
177
   256
178
     2
271
     2
272
     3
274
     4
283
     0
284
     8
340
11
371
    -1
372
    -1
  0
DIMSTYLE
105
6B70
330
A
100
AcDbSymbolTableRecord
100
AcDbDimStyleTableRecord
  2
AM_ISO$7
 70
     0
  4
"
 41
2.5
 42
1.0
 43
10.0
 44
1.0
 47
0.1
 48
0.1
 73
     0
 74
     0
 77
     1
 78
     8
 79
     2
 90
     1
140
5.0
141
0.0
143
0.0393701
146
0.71
147
1.5
172
     1
176
   256
177
   256
178
     2
271
     2
272
     3
274
     4
283
     0
284
     8
340
11
371
    -1
372
    -1
  0
DIMSTYLE
105
6B71
330
A
100
AcDbSymbolTableRecord
100
AcDbDimStyleTableRecord
  2
AM_ISO$SF
 70
     0
  4
"
 41
2.5
 42
1.0
 43
10.0
 44
1.0
 47
0.1
 48
0.1
 73
     0
 74
     0
 75
     1
 76
     1
 77
     1
 78
     8
 79
     2
 90
     1
140
3.5
141
0.0
143
0.0393701
146
0.71
147
1.5
172
     1
176
   256
177
   256
178
     2
271
     2
272
     3
274
     4
283
     0
284
     8
340
11
371
    -1
372
    -1
  0
DIMSTYLE
105
6B72
330
A
100
AcDbSymbolTableRecord
100
AcDbDimStyleTableRecord
  2
AM_ISO$SH
 70
     0
  4
"
 41
2.5
 42
1.0
 43
10.0
 44
1.0
 47
0.1
 48
0.1
 73
     0
 74
     0
 75
     1
 76
     1
 77
     1
 78
     8
 79
     2
 90
     1
140
3.5
141
0.0
143
0.0393701
144
2.0
146
0.71
147
1.5
172
     1
173
     1
176
   256
177
   256
178
     2
271
     2
272
     3
274
     4
283
     0
284
     8
340
11
343
74
371
    -1
372
    -1
  0
ENDTAB
  0
TABLE
  2
BLOCK_RECORD
  5
1
330
0
100
AcDbSymbolTable
 70
    32
  0
BLOCK_RECORD
  5
1F
102
{ACAD_XDICTIONARY
360
82
102
}
330
1
100
AcDbSymbolTableRecord
100
AcDbBlockTableRecord
  2
*Model_Space
340
22
 70
     0
280
     1
281
     0
  0
BLOCK_RECORD
  5
1B
330
1
100
AcDbSymbolTableRecord
100
AcDbBlockTableRecord
  2
*Paper_Space
340
1E
 70
     0
280
     1
281
     0
  0
BLOCK_RECORD
  5
23
330
1
100
AcDbSymbolTableRecord
100
AcDbBlockTableRecord
  2
*Paper_Space0
340
26
 70
     0
280
     1
281
     0
  0
BLOCK_RECORD
  5
69
330
1
100
AcDbSymbolTableRecord
100
AcDbBlockTableRecord
  2
_Open30
340
0
102
{BLKREFS
331
5EFB
331
5EFC
331
5F04
331
5F05
331
5F10
331
5F11
331
5F18
331
5F19
331
5F24
331
5F2F
331
5F37
331
5F38
331
5F40
331
5F41
331
5F49
331
5F4A
331
5F52
331
5F53
331
5F83
331
5F84
331
5F8C
331
5F8D
331
5F95
331
5F96
331
68D5
331
68D6
331
694A
331
694B
331
6971
331
6972
331
697B
331
697C
102
}
 70
     0
280
     1
281
     0
  0
BLOCK_RECORD
  5
74
330
1
100
AcDbSymbolTableRecord
100
AcDbBlockTableRecord
  2
GENAXEH
340
0
 70
     0
280
     1
281
     0
  0
BLOCK_RECORD
  5
3A76
330
1
100
AcDbSymbolTableRecord
100
AcDbBlockTableRecord
  2
GENDOT
340
0
102
{BLKREFS
331
5F23
331
5F2E
102
}
 70
     0
280
     1
281
     0
  0
BLOCK_RECORD
  5
4ACB
102
{ACAD_XDICTIONARY
360
4B08
102
}
330
1
100
AcDbSymbolTableRecord
100
AcDbBlockTableRecord
  2
ロッカクアナツキプラグ R1
340
0
310
2800000020000000200000000100080000000000000400000000000000000000000000000000000000000000000080000080000000808000800000008000800080800000C0C0C000C0DCC000F0CAA6000020400000206000002080000020A0000020C0000020E00000400000004020000040400000406000004080000040A0
310
000040C0000040E00000600000006020000060400000606000006080000060A0000060C0000060E00000800000008020000080400000806000008080000080A0000080C0000080E00000A0000000A0200000A0400000A0600000A0800000A0A00000A0C00000A0E00000C0000000C0200000C0400000C0600000C0800000C0
310
A00000C0C00000C0E00000E0000000E0200000E0400000E0600000E0800000E0A00000E0C00000E0E00040000000400020004000400040006000400080004000A0004000C0004000E00040200000402020004020400040206000402080004020A0004020C0004020E000404000004040200040404000404060004040800040
310
40A0004040C0004040E00040600000406020004060400040606000406080004060A0004060C0004060E00040800000408020004080400040806000408080004080A0004080C0004080E00040A0000040A0200040A0400040A0600040A0800040A0A00040A0C00040A0E00040C0000040C0200040C0400040C0600040C08000
310
40C0A00040C0C00040C0E00040E0000040E0200040E0400040E0600040E0800040E0A00040E0C00040E0E00080000000800020008000400080006000800080008000A0008000C0008000E00080200000802020008020400080206000802080008020A0008020C0008020E00080400000804020008040400080406000804080
310
008040A0008040C0008040E00080600000806020008060400080606000806080008060A0008060C0008060E00080800000808020008080400080806000808080008080A0008080C0008080E00080A0000080A0200080A0400080A0600080A0800080A0A00080A0C00080A0E00080C0000080C0200080C0400080C0600080C0
310
800080C0A00080C0C00080C0E00080E0000080E0200080E0400080E0600080E0800080E0A00080E0C00080E0E000C0000000C0002000C0004000C0006000C0008000C000A000C000C000C000E000C0200000C0202000C0204000C0206000C0208000C020A000C020C000C020E000C0400000C0402000C0404000C0406000C0
310
408000C040A000C040C000C040E000C0600000C0602000C0604000C0606000C0608000C060A000C060C000C060E000C0800000C0802000C0804000C0806000C0808000C080A000C080C000C080E000C0A00000C0A02000C0A04000C0A06000C0A08000C0A0A000C0A0C000C0A0E000C0C00000C0C02000C0C04000C0C06000
310
C0C08000C0C0A000F0FBFF00A4A0A000808080000000FF0000FF000000FFFF00FF000000FF00FF00FFFF0000FFFFFF0000000000000000000000000000000000000000000000000000000000000000000000000000000000000000000000000000000000000000000000000000000000000000000000000000000000000000
310
00000000000000000000000000000000000000000000000000000000000000000000000000000000000000000000000000000000000000000000000000000000000000000000000000000000000000000000000000000000000000000000000000000000000000000000000000000000000000000000000000000000000000
310
00000000000000000000000000000000000000000000000000000000000000000000000000000000000000000000000000000000000000000000000000000000000000000000000000000000000000000000000000000000000000000000000000000000000000000000000000000000000000000000000000000000000000
310
00000000000000000000000000000000000000000000000000000000000000000000000000000000000000000000000000000000000000000000000000000000000000000000000000000000000000000000000000000000F900000000000000000000000000000000000000000000000000000000000000F9000000000000
310
00000000000000000000000000000000000000000000000000F9000000000000000000000000000000000000000000000000000000000000FFFFFFFF00000000000000000000000000000000000000000000000000FFFFFFFFF9FEFFFFFFFFFFFFFFFFFFFFFFFFFFFFFFFFFFFFFFFFFFFFFFFF000000000000F90000000000
310
00000000000000000000000000000000000000000000000000000000000000000000000000000000000000000000000000000000000000000000000000000000000000000000000000000000000000000000000000000000000000000000000000000000000000000000000000000000000000000000000000000000000000
310
00000000000000000000000000000000000000000000000000000000000000000000000000000000000000000000000000000000000000000000000000000000000000000000000000000000000000000000000000000000000000000000000000000000000000000000000000000000000000000000000000000000000000
310
00000000000000000000000000000000000000000000000000000000000000000000000000000000000000000000000000000000000000000000000000000000000000000000000000000000000000000000000000000000000000000000000000000000000000000000000000000000000000000000000000000000000000
310
0000000000000000000000000000000000000000000000000000000000000000000000000000000000000000000000000000000000000000
102
{BLKREFS
331
4BBF
102
}
 70
     4
280
     1
281
     0
  0
BLOCK_RECORD
  5
4B85
102
{ACAD_XDICTIONARY
360
4C64
102
}
330
1
100
AcDbSymbolTableRecord
100
AcDbBlockTableRecord
  2
ケースＡ CEMH1600
340
0
310
2800000020000000200000000100080000000000000400000000000000000000000000000000000000000000000080000080000000808000800000008000800080800000C0C0C000C0DCC000F0CAA6000020400000206000002080000020A0000020C0000020E00000400000004020000040400000406000004080000040A0
310
000040C0000040E00000600000006020000060400000606000006080000060A0000060C0000060E00000800000008020000080400000806000008080000080A0000080C0000080E00000A0000000A0200000A0400000A0600000A0800000A0A00000A0C00000A0E00000C0000000C0200000C0400000C0600000C0800000C0
310
A00000C0C00000C0E00000E0000000E0200000E0400000E0600000E0800000E0A00000E0C00000E0E00040000000400020004000400040006000400080004000A0004000C0004000E00040200000402020004020400040206000402080004020A0004020C0004020E000404000004040200040404000404060004040800040
310
40A0004040C0004040E00040600000406020004060400040606000406080004060A0004060C0004060E00040800000408020004080400040806000408080004080A0004080C0004080E00040A0000040A0200040A0400040A0600040A0800040A0A00040A0C00040A0E00040C0000040C0200040C0400040C0600040C08000
310
40C0A00040C0C00040C0E00040E0000040E0200040E0400040E0600040E0800040E0A00040E0C00040E0E00080000000800020008000400080006000800080008000A0008000C0008000E00080200000802020008020400080206000802080008020A0008020C0008020E00080400000804020008040400080406000804080
310
008040A0008040C0008040E00080600000806020008060400080606000806080008060A0008060C0008060E00080800000808020008080400080806000808080008080A0008080C0008080E00080A0000080A0200080A0400080A0600080A0800080A0A00080A0C00080A0E00080C0000080C0200080C0400080C0600080C0
310
800080C0A00080C0C00080C0E00080E0000080E0200080E0400080E0600080E0800080E0A00080E0C00080E0E000C0000000C0002000C0004000C0006000C0008000C000A000C000C000C000E000C0200000C0202000C0204000C0206000C0208000C020A000C020C000C020E000C0400000C0402000C0404000C0406000C0
310
408000C040A000C040C000C040E000C0600000C0602000C0604000C0606000C0608000C060A000C060C000C060E000C0800000C0802000C0804000C0806000C0808000C080A000C080C000C080E000C0A00000C0A02000C0A04000C0A06000C0A08000C0A0A000C0A0C000C0A0E000C0C00000C0C02000C0C04000C0C06000
310
C0C08000C0C0A000F0FBFF00A4A0A000808080000000FF0000FF000000FFFF00FF000000FF00FF00FFFF0000FFFFFF0000000000000000000000000000000000000000000000000000000000000000000000000000000000000000000000000000000000000000000000000000000000000000000000000000000000000000
310
0000000000000000000000000000000000000000FFFFFAFAFAFAFAFAFAFAFAFAFAFAFAFAFAFAFAFAFAFAFAFAFAFAFAFA00000000FFFF0000000000FFFF0000000000000000000000000000000000FA0000000000FFFFFFFFFFFFFFFFFF0000000000000000000000000000000000FA0000000000FFFF00000000FFFFFF0000
310
000000000000000000000000000000FA0000000000FFFF00000000FFFFFF0000000000000000000000000000000000FA0000000000FFFF00000000FFFFFF0000000000000000000000000000000000FA0000000000FFFF00000000FFFFFF0000000000000000000000000000000000FA0000000000FFFF00000000FFFFFF00
310
00000000000000000000000000000000FA0000000000FFFF00000000FFFFFF0000000000000000000000000000000000FA0000000000FFFF00000000FFFFFF0000000000000000000000000000000000FA0000000000FFFF00000000FFFFFF00000000000000000000000000000000FAFA0000000000FFFF00000000FFFFFF
310
00000000000000000000000000000000FAFA0000000000FFFF00000000FFFFFF00000000000000000000000000000000FAFA0000000000FFFF00000000FFFFFF00000000000000000000000000000000FAFA000000000000000000000000000000000000000000000000000000000000FAFA00000000000000000000000000
310
0000000000000000000000000000000000FAFA00000000000000000000000000000000000000000000000000000000000000FA00000000000000000000000000000000000000000000000000000000000000FA00000000000000000000000000000000000000000000000000000000000000FA000000000000000000000000
310
00000000000000000000000000000000000000FA00000000000000000000000000000000000000000000000000000000000000FA00000000000000000000000000000000000000000000000000000000000000FA000000000000000000A4A4A4A4000000000000000000000000000000000000FA0000000000FFFFFFFFFFFF
310
FFF9FF0000000000000000000000000000000000FA000000F9F9FFFFF900000000FFFF0000000000000000000000000000000000FA0000000000FFFFFAFAFAFAFAFAFAFAFAFAFAFAFAFAFAFAFAFAFAFAFAFAFAFAFAFA0000000000000000000000000000000000000000000000000000000000000000000000000000000000
310
0000000000000000000000000000000000000000000000000000000000000000000000000000000000000000000000000000000000000000
102
{BLKREFS
331
4BC3
102
}
 70
     4
280
     1
281
     0
  0
BLOCK_RECORD
  5
4CCD
102
{ACAD_XDICTIONARY
360
4D68
102
}
330
1
100
AcDbSymbolTableRecord
100
AcDbBlockTableRecord
  2
リジット CEMH1600
340
0
310
2800000020000000200000000100080000000000000400000000000000000000000000000000000000000000000080000080000000808000800000008000800080800000C0C0C000C0DCC000F0CAA6000020400000206000002080000020A0000020C0000020E00000400000004020000040400000406000004080000040A0
310
000040C0000040E00000600000006020000060400000606000006080000060A0000060C0000060E00000800000008020000080400000806000008080000080A0000080C0000080E00000A0000000A0200000A0400000A0600000A0800000A0A00000A0C00000A0E00000C0000000C0200000C0400000C0600000C0800000C0
310
A00000C0C00000C0E00000E0000000E0200000E0400000E0600000E0800000E0A00000E0C00000E0E00040000000400020004000400040006000400080004000A0004000C0004000E00040200000402020004020400040206000402080004020A0004020C0004020E000404000004040200040404000404060004040800040
310
40A0004040C0004040E00040600000406020004060400040606000406080004060A0004060C0004060E00040800000408020004080400040806000408080004080A0004080C0004080E00040A0000040A0200040A0400040A0600040A0800040A0A00040A0C00040A0E00040C0000040C0200040C0400040C0600040C08000
310
40C0A00040C0C00040C0E00040E0000040E0200040E0400040E0600040E0800040E0A00040E0C00040E0E00080000000800020008000400080006000800080008000A0008000C0008000E00080200000802020008020400080206000802080008020A0008020C0008020E00080400000804020008040400080406000804080
310
008040A0008040C0008040E00080600000806020008060400080606000806080008060A0008060C0008060E00080800000808020008080400080806000808080008080A0008080C0008080E00080A0000080A0200080A0400080A0600080A0800080A0A00080A0C00080A0E00080C0000080C0200080C0400080C0600080C0
310
800080C0A00080C0C00080C0E00080E0000080E0200080E0400080E0600080E0800080E0A00080E0C00080E0E000C0000000C0002000C0004000C0006000C0008000C000A000C000C000C000E000C0200000C0202000C0204000C0206000C0208000C020A000C020C000C020E000C0400000C0402000C0404000C0406000C0
310
408000C040A000C040C000C040E000C0600000C0602000C0604000C0606000C0608000C060A000C060C000C060E000C0800000C0802000C0804000C0806000C0808000C080A000C080C000C080E000C0A00000C0A02000C0A04000C0A06000C0A08000C0A0A000C0A0C000C0A0E000C0C00000C0C02000C0C04000C0C06000
310
C0C08000C0C0A000F0FBFF00A4A0A000808080000000FF0000FF000000FFFF00FF000000FF00FF00FFFF0000FFFFFF00000000000000000000000000000000000000000000000000000000000000000000000000000000000000000000000000000000000000FFFF0000000000000000000000000000000000000000000000
310
000000000000F9FFF9F900000000000000000000000000000000000000000000000000000000FFFF00000000000000000000000000000000FFFFFFFFFFFFFFFFFFFFFFFFFFFF00FF00000000000000000000000000000000FF000000000000000000000000FF00FF00000000000000000000000000000000FF000000000000
310
000000000000FF00FF00000000000000000000000000000000FF000000000000000000000000FF00FF00000000000000000000000000000000FF000000000000000000000000FF00FF00000000000000000000000000000000FF000000000000000000000000FF00FF00000000000000000000000000000000FF0000000000
310
00000000000000FF00FF00000000000000000000000000000000FF000000000000000000000000FF00FF00000000000000000000000000000000FF000000000000000000000000FF00FF00000000000000000000000000000000FF000000000000000000000000FF00FF00000000000000000000000000000000FF00000000
310
0000000000000000FF00FF00000000000000000000000000000000FF000000000000000000000000FF00FF00000000000000000000000000000000FFA4A400000000000000000000FFA4FF00000000000000000000000000000000FF0000000000000000000000000000FF00000000000000000000000000000000FF000000
310
0000000000000000000000FF00000000000000000000000000000000FF0000000000000000000000000000FF00000000000000000000000000000000FF0000000000000000000000000000FF00000000000000000000000000000000FF0000000000000000000000000000FF00000000000000000000000000000000FFFFFF
310
FFFFFFFFFFFFFFFFFFFFFFFFFF00000000000000000000000000000000FFFFFFFFFFFFFFFFFFFFFFFFFFFFFFFF00000000000000000000000000000000FF0000000000000000000000000000FF00000000000000000000000000000000FF0000000000000000000000000000FF00000000000000000000000000000000FF00
310
00000000000000000000000000FF00000000000000000000000000000000FFFFFFFFFFFFFFFFFFFFFFFFFFFF00FFFF0000000000000000000000000000000000000000000000000000000000FFFFFF000000000000000000000000000000000000000000000000000000000000FF0000000000000000000000000000000000
310
0000000000000000000000000000FFFF00000000000000000000000000000000000000000000000000000000000000000000000000000000
102
{BLKREFS
331
4CFF
102
}
 70
     4
280
     1
281
     0
  0
BLOCK_RECORD
  5
4E5E
102
{ACAD_XDICTIONARY
360
624E
102
}
330
1
100
AcDbSymbolTableRecord
100
AcDbBlockTableRecord
  2
センタ CEMH1600
340
0
310
2800000020000000200000000100080000000000000400000000000000000000000000000000000000000000000080000080000000808000800000008000800080800000C0C0C000C0DCC000F0CAA6000020400000206000002080000020A0000020C0000020E00000400000004020000040400000406000004080000040A0
310
000040C0000040E00000600000006020000060400000606000006080000060A0000060C0000060E00000800000008020000080400000806000008080000080A0000080C0000080E00000A0000000A0200000A0400000A0600000A0800000A0A00000A0C00000A0E00000C0000000C0200000C0400000C0600000C0800000C0
310
A00000C0C00000C0E00000E0000000E0200000E0400000E0600000E0800000E0A00000E0C00000E0E00040000000400020004000400040006000400080004000A0004000C0004000E00040200000402020004020400040206000402080004020A0004020C0004020E000404000004040200040404000404060004040800040
310
40A0004040C0004040E00040600000406020004060400040606000406080004060A0004060C0004060E00040800000408020004080400040806000408080004080A0004080C0004080E00040A0000040A0200040A0400040A0600040A0800040A0A00040A0C00040A0E00040C0000040C0200040C0400040C0600040C08000
310
40C0A00040C0C00040C0E00040E0000040E0200040E0400040E0600040E0800040E0A00040E0C00040E0E00080000000800020008000400080006000800080008000A0008000C0008000E00080200000802020008020400080206000802080008020A0008020C0008020E00080400000804020008040400080406000804080
310
008040A0008040C0008040E00080600000806020008060400080606000806080008060A0008060C0008060E00080800000808020008080400080806000808080008080A0008080C0008080E00080A0000080A0200080A0400080A0600080A0800080A0A00080A0C00080A0E00080C0000080C0200080C0400080C0600080C0
310
800080C0A00080C0C00080C0E00080E0000080E0200080E0400080E0600080E0800080E0A00080E0C00080E0E000C0000000C0002000C0004000C0006000C0008000C000A000C000C000C000E000C0200000C0202000C0204000C0206000C0208000C020A000C020C000C020E000C0400000C0402000C0404000C0406000C0
310
408000C040A000C040C000C040E000C0600000C0602000C0604000C0606000C0608000C060A000C060C000C060E000C0800000C0802000C0804000C0806000C0808000C080A000C080C000C080E000C0A00000C0A02000C0A04000C0A06000C0A08000C0A0A000C0A0C000C0A0E000C0C00000C0C02000C0C04000C0C06000
310
C0C08000C0C0A000F0FBFF00A4A0A000808080000000FF0000FF000000FFFF00FF000000FF00FF00FFFF0000FFFFFF00000000000000000000000000000000000000000000000000000000000000000000000000000000000000000000000000FFFFFFFFFFFFFFFFFFFF000000000000000000000000000000000000000000
310
0000FF00000000000000FF0000000000000000000000000000000000000000000000FF00000000000000FF0000000000000000000000000000000000000000000000FF00000000000000FF0000000000000000000000000000000000000000000000FF00000000000000FF0000000000000000000000000000000000000000
310
000000FF00000000000000FF0000000000000000000000000000000000000000000000FF00000000000000FF0000000000000000000000000000000000000000000000FF00000000000000FF0000000000000000000000000000000000000000000000FF00000000000000FF00000000000000000000000000000000000000
310
00000000FF00000000000000FF0000000000000000000000000000000000000000000000FF00000000000000FF0000000000000000000000000000000000000000000000FF00000000000000FF0000000000000000000000000000000000000000000000FF00000000000000FF000000000000000000000000000000000000
310
0000000000FF00000000000000FF000000000000000000000000FF00A4A400000000000000FF00000000A4A400FF000000000000000000000000FFA4A40000000000000000000000000000A4A4FF000000000000000000000000FF000000000000000000000000000000000000FF000000000000000000000000FF00000000
310
0000000000000000000000000000FF000000000000000000000000FF000000000000000000000000000000000000FF000000000000000000000000FF000000000000000000000000000000000000FF000000000000000000000000FF000000000000000000000000000000000000FF000000000000000000000000FF000000
310
000000000000000000000000000000FF000000000000000000000000FFFF0000FFFFFFFFFFFFFFFFFFFFFFFFFFFFFFFF000000000000000000000000FFFF0000FFFFFFFFFFFFFFFFFFFFFFFFFFFFFFFF000000000000000000000000FF000000000000000000000000000000000000FF000000000000000000000000FF0000
310
00000000000000000000000000000000FF000000000000000000000000FF000000000000000000000000000000000000FF000000000000000000000000FF000000000000000000000000000000000000FF000000000000000000000000FFFFFFFFF9F9F9F9F9F9FFFFFFFFFFFFFFFFFFFF0000000000000000000000000000
310
0000000000F90000000000000000000000000000000000000000000000000000000000000000000000000000000000000000000000000000
102
{BLKREFS
331
4E8E
102
}
 70
     4
280
     1
281
     0
  0
BLOCK_RECORD
  5
4FAB
102
{ACAD_XDICTIONARY
360
5042
102
}
330
1
100
AcDbSymbolTableRecord
100
AcDbBlockTableRecord
  2
リーマボルト CEMH1600 M42
340
0
310
2800000020000000200000000100080000000000000400000000000000000000000000000000000000000000000080000080000000808000800000008000800080800000C0C0C000C0DCC000F0CAA6000020400000206000002080000020A0000020C0000020E00000400000004020000040400000406000004080000040A0
310
000040C0000040E00000600000006020000060400000606000006080000060A0000060C0000060E00000800000008020000080400000806000008080000080A0000080C0000080E00000A0000000A0200000A0400000A0600000A0800000A0A00000A0C00000A0E00000C0000000C0200000C0400000C0600000C0800000C0
310
A00000C0C00000C0E00000E0000000E0200000E0400000E0600000E0800000E0A00000E0C00000E0E00040000000400020004000400040006000400080004000A0004000C0004000E00040200000402020004020400040206000402080004020A0004020C0004020E000404000004040200040404000404060004040800040
310
40A0004040C0004040E00040600000406020004060400040606000406080004060A0004060C0004060E00040800000408020004080400040806000408080004080A0004080C0004080E00040A0000040A0200040A0400040A0600040A0800040A0A00040A0C00040A0E00040C0000040C0200040C0400040C0600040C08000
310
40C0A00040C0C00040C0E00040E0000040E0200040E0400040E0600040E0800040E0A00040E0C00040E0E00080000000800020008000400080006000800080008000A0008000C0008000E00080200000802020008020400080206000802080008020A0008020C0008020E00080400000804020008040400080406000804080
310
008040A0008040C0008040E00080600000806020008060400080606000806080008060A0008060C0008060E00080800000808020008080400080806000808080008080A0008080C0008080E00080A0000080A0200080A0400080A0600080A0800080A0A00080A0C00080A0E00080C0000080C0200080C0400080C0600080C0
310
800080C0A00080C0C00080C0E00080E0000080E0200080E0400080E0600080E0800080E0A00080E0C00080E0E000C0000000C0002000C0004000C0006000C0008000C000A000C000C000C000E000C0200000C0202000C0204000C0206000C0208000C020A000C020C000C020E000C0400000C0402000C0404000C0406000C0
310
408000C040A000C040C000C040E000C0600000C0602000C0604000C0606000C0608000C060A000C060C000C060E000C0800000C0802000C0804000C0806000C0808000C080A000C080C000C080E000C0A00000C0A02000C0A04000C0A06000C0A08000C0A0A000C0A0C000C0A0E000C0C00000C0C02000C0C04000C0C06000
310
C0C08000C0C0A000F0FBFF00A4A0A000808080000000FF0000FF000000FFFF00FF000000FF00FF00FFFF0000FFFFFF0000000000000000000000000000000000000000000000000000000000000000000000000000000000000000000000000000000000000000000000000000000000000000000000000000000000000000
310
00000000000000000000000000000000000000000000000000000000000000000000000000000000000000000000000000000000000000000000000000000000000000000000000000000000000000000000000000000000000000000000000000000000000000000000000000000000000000000000000000000000000000
310
00000000000000000000000000000000000000000000000000000000000000000000000000000000000000000000000000000000000000000000000000000000000000000000000000000000000000000000000000000000000000000000000000000000000000000000000000000000000000000000000000000000000000
310
00000000000000000000000000000000000000000000FFFFFFFFFFFF0000000000000000000000000000000000FFFFFFFFFF00000000FF000000FF000000000000000000000000000000000000000000FFFF0000FFFEFFFFFFFFFFFFFF00000000000000000000000000000000FFFFFFFFFF0000FFFFFF000000FF00FF0000
310
0000000000000000000000000000FF0000FFFF0000FFFFFF000000FF00FF00000000000000000000000000000000FF0000FFFF0000FFFFFF000000FFFFFF00000000000000000000000000000000FF0000FFFF00000000FF000000FF00FF00000000000000000000000000000000FF0000FFFF0000FFFEFEFFFFFFFFFFFF00
310
000000000000000000000000000000FFFFFFFFFF00000000FF000000FF000000000000000000000000000000000000000000FFFF00000000FFFFFFFFFFFF0000000000000000000000000000000000FFFFFFFFFF00000000000000000000000000000000000000000000000000000000000000000000000000000000000000
310
00000000000000000000000000000000000000000000000000000000000000000000000000000000000000000000000000000000000000000000000000000000000000000000000000000000000000000000000000000000000000000000000000000000000000000000000000000000000000000000000000000000000000
310
00000000000000000000000000000000000000000000000000000000000000000000000000000000000000000000000000000000000000000000000000000000000000000000000000000000000000000000000000000000000000000000000000000000000000000000000000000000000000000000000000000000000000
310
0000000000000000000000000000000000000000000000000000000000000000000000000000000000000000000000000000000000000000
102
{BLKREFS
331
4FDB
102
}
 70
     4
280
     1
281
     0
  0
BLOCK_RECORD
  5
50C7
102
{ACAD_XDICTIONARY
360
5169
102
}
330
1
100
AcDbSymbolTableRecord
100
AcDbBlockTableRecord
  2
ＧＣサイドカバ－ CEMH1600
340
0
310
2800000020000000200000000100080000000000000400000000000000000000000000000000000000000000000080000080000000808000800000008000800080800000C0C0C000C0DCC000F0CAA6000020400000206000002080000020A0000020C0000020E00000400000004020000040400000406000004080000040A0
310
000040C0000040E00000600000006020000060400000606000006080000060A0000060C0000060E00000800000008020000080400000806000008080000080A0000080C0000080E00000A0000000A0200000A0400000A0600000A0800000A0A00000A0C00000A0E00000C0000000C0200000C0400000C0600000C0800000C0
310
A00000C0C00000C0E00000E0000000E0200000E0400000E0600000E0800000E0A00000E0C00000E0E00040000000400020004000400040006000400080004000A0004000C0004000E00040200000402020004020400040206000402080004020A0004020C0004020E000404000004040200040404000404060004040800040
310
40A0004040C0004040E00040600000406020004060400040606000406080004060A0004060C0004060E00040800000408020004080400040806000408080004080A0004080C0004080E00040A0000040A0200040A0400040A0600040A0800040A0A00040A0C00040A0E00040C0000040C0200040C0400040C0600040C08000
310
40C0A00040C0C00040C0E00040E0000040E0200040E0400040E0600040E0800040E0A00040E0C00040E0E00080000000800020008000400080006000800080008000A0008000C0008000E00080200000802020008020400080206000802080008020A0008020C0008020E00080400000804020008040400080406000804080
310
008040A0008040C0008040E00080600000806020008060400080606000806080008060A0008060C0008060E00080800000808020008080400080806000808080008080A0008080C0008080E00080A0000080A0200080A0400080A0600080A0800080A0A00080A0C00080A0E00080C0000080C0200080C0400080C0600080C0
310
800080C0A00080C0C00080C0E00080E0000080E0200080E0400080E0600080E0800080E0A00080E0C00080E0E000C0000000C0002000C0004000C0006000C0008000C000A000C000C000C000E000C0200000C0202000C0204000C0206000C0208000C020A000C020C000C020E000C0400000C0402000C0404000C0406000C0
310
408000C040A000C040C000C040E000C0600000C0602000C0604000C0606000C0608000C060A000C060C000C060E000C0800000C0802000C0804000C0806000C0808000C080A000C080C000C080E000C0A00000C0A02000C0A04000C0A06000C0A08000C0A0A000C0A0C000C0A0E000C0C00000C0C02000C0C04000C0C06000
310
C0C08000C0C0A000F0FBFF00A4A0A000808080000000FF0000FF000000FFFF00FF000000FF00FF00FFFF0000FFFFFF000000000000000000000000000000000000000000000000000000000000000000000000000000000000000000000000FFFF000000000000000000000000000000000000000000000000000000000000
310
00FF00000000000000000000000000000000000000000000000000000000000000FF00000000000000000000000000000000000000000000000000000000000000FF00000000000000000000000000000000000000000000000000000000000000FF0000000000000000000000000000000000000000000000000000000000
310
0000FF00000000000000000000000000000000000000000000000000000000000000FF00000000000000000000000000000000000000000000000000000000000000FF00000000000000000000000000000000000000000000000000000000000000FF00000000000000000000000000000000000000000000000000000000
310
000000FF00000000000000000000000000000000000000000000000000000000000000FF00000000000000000000000000000000000000000000000000000000000000FF00000000000000000000000000000000000000000000000000000000000000FF000000000000000000000000000000000000000000000000000000
310
00000000FF00000000000000000000000000000000000000000000000000000000000000FF00000000000000000000000000000000000000000000000000000000000000FF00000000000000000000000000000000000000000000000000000000000000000000000000000000000000000000000000000000000000000000
310
00000000000000000000000000000000000000000000000000000000000000000000000000000000000000000000000000000000000000000000000000000000000000000000000000000000000000000000000000000000000000000000000000000000000000000000000000000000000000000000000000000000000000
310
00000000000000000000000000000000000000000000000000000000000000000000000000000000000000000000000000000000000000000000000000000000000000000000000000000000000000000000000000000000000000000000000000000000000000000000000000000000000000000000000000000000000000
310
00000000000000000000000000000000000000000000000000000000000000000000000000000000000000000000000000000000000000000000000000000000000000000000FFFF0000000000000000000000000000000000000000000000000000000000F9F9F9F900000000000000000000000000000000000000000000
310
00000000000000FFFF0000000000000000000000000000000000000000000000000000000000000000000000000000000000000000000000
102
{BLKREFS
331
50FB
102
}
 70
     4
280
     1
281
     0
  0
BLOCK_RECORD
  5
57DD
330
1
100
AcDbSymbolTableRecord
100
AcDbBlockTableRecord
  2
*D13
340
0
 70
     0
280
     1
281
     0
  0
BLOCK_RECORD
  5
5811
330
1
100
AcDbSymbolTableRecord
100
AcDbBlockTableRecord
  2
*D14
340
0
 70
     0
280
     1
281
     0
  0
BLOCK_RECORD
  5
5829
330
1
100
AcDbSymbolTableRecord
100
AcDbBlockTableRecord
  2
*D15
340
0
 70
     0
280
     1
281
     0
  0
BLOCK_RECORD
  5
5866
330
1
100
AcDbSymbolTableRecord
100
AcDbBlockTableRecord
  2
*D16
340
0
 70
     0
280
     1
281
     0
  0
BLOCK_RECORD
  5
58A8
330
1
100
AcDbSymbolTableRecord
100
AcDbBlockTableRecord
  2
*D17
340
0
 70
     0
280
     1
281
     0
  0
BLOCK_RECORD
  5
58C4
330
1
100
AcDbSymbolTableRecord
100
AcDbBlockTableRecord
  2
*D18
340
0
 70
     0
280
     1
281
     0
  0
BLOCK_RECORD
  5
58E0
330
1
100
AcDbSymbolTableRecord
100
AcDbBlockTableRecord
  2
*D19
340
0
 70
     0
280
     1
281
     0
  0
BLOCK_RECORD
  5
58F8
330
1
100
AcDbSymbolTableRecord
100
AcDbBlockTableRecord
  2
*D20
340
0
 70
     0
280
     1
281
     0
  0
BLOCK_RECORD
  5
5910
330
1
100
AcDbSymbolTableRecord
100
AcDbBlockTableRecord
  2
*D21
340
0
 70
     0
280
     1
281
     0
  0
BLOCK_RECORD
  5
5928
330
1
100
AcDbSymbolTableRecord
100
AcDbBlockTableRecord
  2
*D22
340
0
 70
     0
280
     1
281
     0
  0
BLOCK_RECORD
  5
5B0D
330
1
100
AcDbSymbolTableRecord
100
AcDbBlockTableRecord
  2
*D23
340
0
 70
     0
280
     1
281
     0
  0
BLOCK_RECORD
  5
5BB2
330
1
100
AcDbSymbolTableRecord
100
AcDbBlockTableRecord
  2
*D24
340
0
 70
     0
280
     1
281
     0
  0
BLOCK_RECORD
  5
5BCA
330
1
100
AcDbSymbolTableRecord
100
AcDbBlockTableRecord
  2
*D25
340
0
 70
     0
280
     1
281
     0
  0
BLOCK_RECORD
  5
5BE2
330
1
100
AcDbSymbolTableRecord
100
AcDbBlockTableRecord
  2
*D26
340
0
 70
     0
280
     1
281
     0
  0
BLOCK_RECORD
  5
68AA
330
1
100
AcDbSymbolTableRecord
100
AcDbBlockTableRecord
  2
*D27
340
0
 70
     0
280
     1
281
     0
  0
BLOCK_RECORD
  5
68DF
330
1
100
AcDbSymbolTableRecord
100
AcDbBlockTableRecord
  2
*D28
340
0
 70
     0
280
     1
281
     0
  0
BLOCK_RECORD
  5
690D
330
1
100
AcDbSymbolTableRecord
100
AcDbBlockTableRecord
  2
*D29
340
0
 70
     0
280
     1
281
     0
  0
BLOCK_RECORD
  5
6A8D
102
{ACAD_XDICTIONARY
360
6AC6
102
}
330
1
100
AcDbSymbolTableRecord
100
AcDbBlockTableRecord
  2
ＧＣサイドカバ－ CEM1600
340
0
310
2800000020000000200000000100080000000000000400000000000000000000000000000000000000000000000080000080000000808000800000008000800080800000C0C0C000C0DCC000F0CAA6000020400000206000002080000020A0000020C0000020E00000400000004020000040400000406000004080000040A0
310
000040C0000040E00000600000006020000060400000606000006080000060A0000060C0000060E00000800000008020000080400000806000008080000080A0000080C0000080E00000A0000000A0200000A0400000A0600000A0800000A0A00000A0C00000A0E00000C0000000C0200000C0400000C0600000C0800000C0
310
A00000C0C00000C0E00000E0000000E0200000E0400000E0600000E0800000E0A00000E0C00000E0E00040000000400020004000400040006000400080004000A0004000C0004000E00040200000402020004020400040206000402080004020A0004020C0004020E000404000004040200040404000404060004040800040
310
40A0004040C0004040E00040600000406020004060400040606000406080004060A0004060C0004060E00040800000408020004080400040806000408080004080A0004080C0004080E00040A0000040A0200040A0400040A0600040A0800040A0A00040A0C00040A0E00040C0000040C0200040C0400040C0600040C08000
310
40C0A00040C0C00040C0E00040E0000040E0200040E0400040E0600040E0800040E0A00040E0C00040E0E00080000000800020008000400080006000800080008000A0008000C0008000E00080200000802020008020400080206000802080008020A0008020C0008020E00080400000804020008040400080406000804080
310
008040A0008040C0008040E00080600000806020008060400080606000806080008060A0008060C0008060E00080800000808020008080400080806000808080008080A0008080C0008080E00080A0000080A0200080A0400080A0600080A0800080A0A00080A0C00080A0E00080C0000080C0200080C0400080C0600080C0
310
800080C0A00080C0C00080C0E00080E0000080E0200080E0400080E0600080E0800080E0A00080E0C00080E0E000C0000000C0002000C0004000C0006000C0008000C000A000C000C000C000E000C0200000C0202000C0204000C0206000C0208000C020A000C020C000C020E000C0400000C0402000C0404000C0406000C0
310
408000C040A000C040C000C040E000C0600000C0602000C0604000C0606000C0608000C060A000C060C000C060E000C0800000C0802000C0804000C0806000C0808000C080A000C080C000C080E000C0A00000C0A02000C0A04000C0A06000C0A08000C0A0A000C0A0C000C0A0E000C0C00000C0C02000C0C04000C0C06000
310
C0C08000C0C0A000F0FBFF00A4A0A000808080000000FF0000FF000000FFFF00FF000000FF00FF00FFFF0000FFFFFF00000000000000000000000000000000000000000000000000000000000000000000000000000000FC0000FC00000000000000FC0000FC0000000000000000000000000000000000FCFCFCFC00000000
310
000000FCFCFCFC0000000000000000000000000000000000FC0000FC00000000000000FC0000FC0000000000000000000000000000000000FC0000FC00000000000000FC0000FC0000000000000000000000000000000000FC0000FC00000000000000FC0000FC0000000000000000000000000000000000FC0000FCFCFCFC
310
FCFCFCFCFC0000FC0000000000000000000000000000000000FC00000000000000000000000000FC0000000000000000000000000000000000FC00000000000000000000000000FC0000000000000000000000000000000000FC00000000000000000000000000FC0000000000000000000000000000000000FC0000000000
310
0000000000000000FC0000000000000000000000000000000000FC00000000000000000000000000FC0000000000000000000000000000000000FC00000000000000000000000000FC0000000000000000000000000000000000FC00000000000000000000000000FC0000000000000000000000000000000000FCFCFCFCFC
310
000000000000000000FC000000000000000000000000000000000000000000FC000000000000000000FC000000000000000000000000000000000000000000FC000000000000000000FC0000000000000000000000000000000000000000FCFC000000000000000000FC0000000000000000000000000000000000000000FC
310
00000000000000000000FC0000000000000000000000000000000000000000FC00000000000000000000FC0000000000000000000000000000000000000000FC00000000000000000000FC0000000000000000000000000000000000000000FC00000000000000000000FC0000000000000000000000000000000000FCFCFC
310
FCFCFCFCFCFCFCFCFCFCFCFCFCFCFC0000000000000000000000000000000000FC00000000000000000000FC0000000000000000000000000000000000000000FC00000000000000000000FC0000000000000000000000000000000000000000FC00000000000000000000FC00000000000000000000000000000000000000
310
00FC00000000000000000000FC0000000000000000000000000000000000000000FC00000000000000000000FC0000000000000000000000000000000000000000FC00000000000000000000FC0000000000000000000000000000000000000000FC00000000000000000000FC000000000000000000000000000000000000
310
0000FCFCFCFCFCFCFCFCFCFCFCFC000000000000000000000000000000000000000000000000000000000000000000000000000000000000
102
{BLKREFS
331
6AA0
102
}
 70
     4
280
     1
281
     1
  0
ENDTAB
  0
ENDSEC
  0
SECTION
  2
BLOCKS
  0
BLOCK
  5
20
330
1F
100
AcDbEntity
  8
0
100
AcDbBlockBegin
  2
*Model_Space
 70
     0
 10
0.0
 20
0.0
 30
0.0
  3
*Model_Space
  1

  0
ENDBLK
  5
21
330
1F
100
AcDbEntity
  8
0
100
AcDbBlockEnd
  0
BLOCK
  5
1C
330
1B
100
AcDbEntity
 67
     1
  8
0
100
AcDbBlockBegin
  2
*Paper_Space
 70
     0
 10
0.0
 20
0.0
 30
0.0
  3
*Paper_Space
  1

  0
ENDBLK
  5
1D
330
1B
100
AcDbEntity
 67
     1
  8
0
100
AcDbBlockEnd
  0
BLOCK
  5
24
330
23
100
AcDbEntity
 67
     1
  8
0
100
AcDbBlockBegin
  2
*Paper_Space0
 70
     0
 10
0.0
 20
0.0
 30
0.0
  3
*Paper_Space0
  1

  0
ENDBLK
  5
25
330
23
100
AcDbEntity
 67
     1
  8
0
100
AcDbBlockEnd
  0
BLOCK
  5
6D
330
69
100
AcDbEntity
  8
0
100
AcDbBlockBegin
  2
_Open30
 70
     0
 10
0.0
 20
0.0
 30
0.0
  3
_Open30
  1

  0
LINE
  5
6A
330
69
100
AcDbEntity
  8
0
  6
ByBlock
 62
     0
370
    -2
100
AcDbLine
 10
-1.0
 20
0.26794919
 30
0.0
 11
0.0
 21
0.0
 31
0.0
  0
LINE
  5
6B
330
69
100
AcDbEntity
  8
0
  6
ByBlock
 62
     0
370
    -2
100
AcDbLine
 10
0.0
 20
0.0
 30
0.0
 11
-1.0
 21
-0.26794919
 31
0.0
  0
LINE
  5
6C
330
69
100
AcDbEntity
  8
0
  6
ByBlock
 62
     0
370
    -2
100
AcDbLine
 10
0.0
 20
0.0
 30
0.0
 11
-1.0
 21
0.0
 31
0.0
  0
ENDBLK
  5
6E
330
69
100
AcDbEntity
  8
0
100
AcDbBlockEnd
  0
BLOCK
  5
76
330
74
100
AcDbEntity
  8
0
100
AcDbBlockBegin
  2
GENAXEH
 70
     0
 10
0.0
 20
0.0
 30
0.0
  3
GENAXEH
  1

  0
LINE
  5
75
330
74
100
AcDbEntity
  8
0
100
AcDbLine
 10
-1.0
 20
0.0
 30
0.0
 11
1.0
 21
0.0
 31
0.0
  0
ENDBLK
  5
77
330
74
100
AcDbEntity
  8
0
100
AcDbBlockEnd
  0
BLOCK
  5
3A77
330
3A76
100
AcDbEntity
  8
0
100
AcDbBlockBegin
  2
GENDOT
 70
     0
 10
0.0
 20
0.0
 30
0.0
  3
GENDOT
  1

  0
LINE
  5
3A78
330
3A76
100
AcDbEntity
  8
0
100
AcDbLine
 10
0.0
 20
0.0
 30
0.0
 11
-1.0
 21
0.0
 31
0.0
  0
LWPOLYLINE
  5
3A79
330
3A76
100
AcDbEntity
  8
0
100
AcDbPolyline
 90
        2
 70
     1
 43
0.25
 10
-0.125
 20
0.0
 42
1.0
 10
0.125
 20
0.0
 42
1.0
  0
ENDBLK
  5
3A7A
330
3A76
100
AcDbEntity
  8
0
100
AcDbBlockEnd
  0
BLOCK
  5
4ACC
330
4ACB
100
AcDbEntity
  8
0
100
AcDbBlockBegin
  2
ロッカクアナツキプラグ R1
 70
     0
 10
0.0
 20
0.0
 30
0.0
  3
ロッカクアナツキプラグ R1
  1

  0
LINE
  5
4ACF
330
4ACB
100
AcDbEntity
  8
AM_0 外形線1
100
AcDbLine
 10
9.473152999998999
 20
-19.0
 30
0.0
 11
16.40135699999973
 21
-15.0
 31
0.0
  0
LINE
  5
4AD0
330
4ACB
100
AcDbEntity
  8
AM_0 外形線1
100
AcDbLine
 10
16.40135699999973
 20
-15.0
 30
0.0
 11
16.83786616646375
 21
-2.50000000581349
 31
0.0
  0
LINE
  5
4AD1
330
4ACB
100
AcDbEntity
  8
AM_0 外形線1
100
AcDbLine
 10
16.83786599999894
 20
-2.5
 30
0.0
 11
14.33786599999894
 21
0.0
 31
0.0
  0
LINE
  5
4AD2
330
4ACB
100
AcDbEntity
  8
AM_7 中心線
100
AcDbLine
 10
0.0
 20
3.971630999999433
 30
0.0
 11
0.0
 21
-42.26950399999987
 31
0.0
  0
LINE
  5
4AD3
330
4ACB
100
AcDbEntity
  8
AM_4 細線
100
AcDbLine
 10
15.40877116621232
 20
-1.070905166213377
 30
0.0
 11
14.89192399999865
 21
-15.87147099999947
 31
0.0
  0
LINE
  5
4AD4
330
4ACB
100
AcDbEntity
  8
AM_0 外形線1
100
AcDbLine
 10
-14.33786600000076
 20
0.0
 30
0.0
 11
-16.83786600000076
 21
-2.5
 31
0.0
  0
LINE
  5
4AD6
330
4ACB
100
AcDbEntity
  8
AM_0 外形線1
100
AcDbLine
 10
-16.4013560000003
 20
-15.0
 30
0.0
 11
-9.473152999999911
 21
-19.0
 31
0.0
  0
LINE
  5
4AD7
330
4ACB
100
AcDbEntity
  8
AM_0 外形線1
100
AcDbLine
 10
-9.473152999999911
 20
-19.0
 30
0.0
 11
9.473152999998999
 21
-19.0
 31
0.0
  0
LINE
  5
4AD8
330
4ACB
100
AcDbEntity
  8
AM_0 外形線1
100
AcDbLine
 10
-16.4013560000003
 20
-15.0
 30
0.0
 11
16.40135699999973
 21
-15.0
 31
0.0
  0
LINE
  5
4AFB
330
4ACB
100
AcDbEntity
  8
AM_4 細線
100
AcDbLine
 10
-15.40877116621232
 20
-1.070905166211558
 30
0.0
 11
-14.89192400000047
 21
-15.87147099999947
 31
0.0
  0
LINE
  5
4B05
330
4ACB
100
AcDbEntity
  8
AM_0 外形線1
100
AcDbLine
 10
-16.8378660000003
 20
-2.499999999999089
 30
0.0
 11
-16.4013560000003
 21
-15.0
 31
0.0
  0
LINE
  5
4B06
330
4ACB
100
AcDbEntity
  8
AM_0 外形線1
100
AcDbLine
 10
-16.8378660000003
 20
-2.499999999999089
 30
0.0
 11
16.83786599999894
 21
-2.5
 31
0.0
  0
LINE
  5
4B07
330
4ACB
100
AcDbEntity
  8
AM_0 外形線1
100
AcDbLine
 10
-14.33786600000076
 20
0.0
 30
0.0
 11
14.33786599999894
 21
0.0
 31
0.0
  0
ENDBLK
  5
4ACD
330
4ACB
100
AcDbEntity
  8
0
100
AcDbBlockEnd
  0
BLOCK
  5
4B86
330
4B85
100
AcDbEntity
  8
0
100
AcDbBlockBegin
  2
ケースＡ CEMH1600
 70
     0
 10
0.0
 20
0.0
 30
0.0
  3
ケースＡ CEMH1600
  1

  0
LINE
  5
4B88
330
4B85
100
AcDbEntity
  8
AM_0 外形線1
100
AcDbLine
 10
223.0
 20
674.0
 30
0.0
 11
-15.0
 21
674.0
 31
0.0
  0
LINE
  5
4B89
330
4B85
100
AcDbEntity
  8
AM_0 外形線1
100
AcDbLine
 10
80.0
 20
-710.0
 30
0.0
 11
390.0
 21
-710.0
 31
0.0
  0
LINE
  5
4B8B
330
4B85
100
AcDbEntity
  8
AM_0 外形線1
100
AcDbLine
 10
0.0
 20
781.5
 30
0.0
 11
0.0
 21
797.0
 31
0.0
  0
LINE
  5
4B8C
330
4B85
100
AcDbEntity
  8
AM_0 外形線1
100
AcDbLine
 10
70.0
 20
722.0
 30
0.0
 11
70.0
 21
797.0
 31
0.0
  0
LINE
  5
4B8D
330
4B85
100
AcDbEntity
  8
AM_0 外形線1
100
AcDbLine
 10
70.0
 20
781.5
 30
0.0
 11
0.0
 21
781.5
 31
0.0
  0
LINE
  5
4B8E
330
4B85
100
AcDbEntity
  8
AM_0 外形線1
100
AcDbLine
 10
0.0
 20
737.5
 30
0.0
 11
70.0
 21
737.5
 31
0.0
  0
LINE
  5
4B8F
330
4B85
100
AcDbEntity
  8
AM_7 中心線
100
AcDbLine
 10
101.0
 20
759.4999999999998
 30
0.0
 11
-129.0
 21
759.4999999999998
 31
0.0
  0
LINE
  5
4B90
330
4B85
100
AcDbEntity
  8
AM_0 外形線1
100
AcDbLine
 10
134.8919239999986
 20
694.1285290000004
 30
0.0
 11
134.1890199999989
 21
674.0
 31
0.0
  0
LINE
  5
4B91
330
4B85
100
AcDbEntity
  8
AM_0 外形線1
100
AcDbLine
 10
135.4461679999995
 20
710.0
 30
0.0
 11
135.4087711662132
 21
708.9290948337857
 31
0.0
  0
LINE
  5
4B92
330
4B85
100
AcDbEntity
  8
AM_0 外形線1
100
AcDbLine
 10
136.4013569999997
 20
695.0
 30
0.0
 11
135.66802
 21
674.0
 31
0.0
  0
LINE
  5
4B93
330
4B85
100
AcDbEntity
  8
AM_0 外形線1
100
AcDbLine
 10
105.1080759999995
 20
694.1285290000004
 30
0.0
 11
105.8109799999993
 21
674.0
 31
0.0
  0
LINE
  5
4B94
330
4B85
100
AcDbEntity
  8
AM_0 外形線1
100
AcDbLine
 10
104.5538320000005
 20
710.0
 30
0.0
 11
104.5912288337872
 21
708.9290948337875
 31
0.0
  0
LINE
  5
4B95
330
4B85
100
AcDbEntity
  8
AM_0 外形線1
100
AcDbLine
 10
103.5986439999997
 20
695.0
 30
0.0
 11
104.3319799999999
 21
674.0
 31
0.0
  0
ARC
  5
4B96
330
4B85
100
AcDbEntity
  8
AM_0 外形線1
100
AcDbCircle
 10
80.0
 20
720.0
 30
0.0
 40
10.0
100
AcDbArc
 50
180.0
 51
270.0
  0
LINE
  5
4B97
330
4B85
100
AcDbEntity
  8
AM_0 外形線1
100
AcDbLine
 10
-15.0
 20
674.0
 30
0.0
 11
-15.0
 21
701.0
 31
0.0
  0
LINE
  5
4B98
330
4B85
100
AcDbEntity
  8
AM_0 外形線1
100
AcDbLine
 10
-15.0
 20
701.0
 30
0.0
 11
-11.0
 21
705.0
 31
0.0
  0
LINE
  5
4B99
330
4B85
100
AcDbEntity
  8
AM_0 外形線1
100
AcDbLine
 10
-11.0
 20
705.0
 30
0.0
 11
6.199999999999817
 21
705.0
 31
0.0
  0
ARC
  5
4B9A
330
4B85
100
AcDbEntity
  8
AM_0 外形線1
100
AcDbCircle
 10
6.199999999999817
 20
705.4999999999998
 30
0.0
 40
0.5
100
AcDbArc
 50
270.0
 51
0.0
  0
LINE
  5
4B9B
330
4B85
100
AcDbEntity
  8
AM_0 外形線1
100
AcDbLine
 10
6.699999999999817
 20
705.4999999999998
 30
0.0
 11
6.699999999999817
 21
715.0
 31
0.0
  0
ARC
  5
4B9C
330
4B85
100
AcDbEntity
  8
AM_0 外形線1
100
AcDbCircle
 10
6.199999999999817
 20
715.0
 30
0.0
 40
0.5
100
AcDbArc
 50
0.0
 51
90.0
  0
LINE
  5
4B9D
330
4B85
100
AcDbEntity
  8
AM_0 外形線1
100
AcDbLine
 10
6.199999999999817
 20
715.5
 30
0.0
 11
0.0
 21
715.5
 31
0.0
  0
LWPOLYLINE
  5
4B9E
330
4B85
100
AcDbEntity
  8
AM_0 外形線1
100
AcDbPolyline
 90
       73
 70
     0
 43
0.0
 10
3.349999999999453
 20
705.0
 10
3.641972000000349
 20
705.0199779999992
 10
3.931722000000263
 20
705.0797590000001
 10
4.217043999999987
 20
705.1788889999997
 10
4.495767999999769
 20
705.3166139999992
 10
4.765770999999403
 20
705.491884
 10
5.024999999999637
 20
705.7033659999997
 10
5.271480999998856
 20
705.9494519999997
 10
5.503338999998959
 20
706.2282660000001
 10
5.718807999999625
 20
706.5376889999996
 10
5.91624899999897
 20
706.8753649999997
 10
6.094159999999646
 20
707.2387239999997
 10
6.251184999999168
 20
707.6249999999999
 10
6.386130999999295
 20
708.0312540000003
 10
6.497970999999778
 20
708.4543940000003
 10
6.585851999999248
 20
708.8912
 10
6.649105999999846
 20
709.3383469999999
 10
6.687252999999143
 20
709.7924319999992
 10
6.699999999999817
 20
710.25
 10
6.687252999999143
 20
710.7075669999995
 10
6.649105999999846
 20
711.161653
 10
6.585851999999248
 20
711.6087999999998
 10
6.497970999999778
 20
712.0456059999996
 10
6.386130999999295
 20
712.4687459999996
 10
6.251184999999168
 20
712.875
 10
6.094159999999646
 20
713.2612760000001
 10
5.91624899999897
 20
713.6246350000001
 10
5.718807999999625
 20
713.9623099999997
 10
5.503338999998959
 20
714.2717330000005
 10
5.271480999998856
 20
714.5505480000001
 10
5.024999999999637
 20
714.7966329999998
 10
4.765770999999403
 20
715.008116
 10
4.495767999999769
 20
715.1833860000006
 10
4.217043999999987
 20
715.3211099999999
 10
3.931722000000263
 20
715.4202409999997
 10
3.641972000000349
 20
715.4800220000006
 10
3.349999999999453
 20
715.5
 10
3.058028999999804
 20
715.4800220000006
 10
2.768278999999893
 20
715.4202409999997
 10
2.482956999999259
 20
715.3211099999999
 10
2.204232999999475
 20
715.1833860000006
 10
1.934228999999504
 20
715.008116
 10
1.675000000000181
 20
714.7966329999998
 10
1.42851900000005
 20
714.5505480000001
 10
1.196661999999377
 20
714.2717330000005
 10
0.9811929999996207
 20
713.9623099999997
 10
0.7837509999999384
 20
713.6246350000001
 10
0.6058409999996002
 20
713.2612760000001
 10
0.4488149999997404
 20
712.875
 10
0.3138689999996131
 20
712.4687459999996
 10
0.2020299999994677
 20
712.0456059999996
 10
0.1141489999990881
 20
711.6087999999998
 10
0.0508939999990616
 20
711.161653
 10
0.0127480000001015
 20
710.7075669999995
 10
0.0
 20
710.25
 10
0.0127480000001015
 20
709.7924319999992
 10
0.0508939999990616
 20
709.3383469999999
 10
0.1141489999990881
 20
708.8912
 10
0.2020299999994677
 20
708.4543940000003
 10
0.3138689999996131
 20
708.0312540000003
 10
0.4488149999997404
 20
707.6249999999999
 10
0.6058409999996002
 20
707.2387239999997
 10
0.7837509999999384
 20
706.8753649999997
 10
0.9811929999996207
 20
706.5376889999996
 10
1.196661999999377
 20
706.2282660000001
 10
1.42851900000005
 20
705.9494519999997
 10
1.675000000000181
 20
705.7033659999997
 10
1.934228999999504
 20
705.491884
 10
2.204232999999475
 20
705.3166139999992
 10
2.482956999999259
 20
705.1788889999997
 10
2.768278999999893
 20
705.0797590000001
 10
3.058028999999804
 20
705.0199779999992
 10
3.349999999999453
 20
705.0
  0
LINE
  5
4B9F
330
4B85
100
AcDbEntity
  8
AM_0 外形線1
100
AcDbLine
 10
70.0
 20
737.5
 30
0.0
 11
70.0
 21
720.0
 31
0.0
  0
LINE
  5
4BA0
330
4B85
100
AcDbEntity
  8
AM_0 外形線1
100
AcDbLine
 10
0.0
 20
715.5
 30
0.0
 11
0.0
 21
737.5
 31
0.0
  0
ARC
  5
4BA1
330
4B85
100
AcDbEntity
  8
AM_0 外形線1
100
AcDbCircle
 10
80.0
 20
-720.0
 30
0.0
 40
10.0
100
AcDbArc
 50
90.0
 51
180.0
  0
LINE
  5
4BA2
330
4B85
100
AcDbEntity
  8
AM_0 外形線1
100
AcDbLine
 10
67.0
 20
-800.0
 30
0.0
 11
70.0
 21
-797.0
 31
0.0
  0
LINE
  5
4BA3
330
4B85
100
AcDbEntity
  8
AM_0 外形線1
100
AcDbLine
 10
0.0
 20
-797.0
 30
0.0
 11
3.0
 21
-800.0
 31
0.0
  0
LINE
  5
4BA4
330
4B85
100
AcDbEntity
  8
AM_0 外形線1
100
AcDbLine
 10
3.0
 20
-800.0
 30
0.0
 11
67.0
 21
-800.0
 31
0.0
  0
LINE
  5
4BA5
330
4B85
100
AcDbEntity
  8
AM_0 外形線1
100
AcDbLine
 10
0.0
 20
0.0
 30
0.0
 11
0.0
 21
-797.0
 31
0.0
  0
LINE
  5
4BA6
330
4B85
100
AcDbEntity
  8
AM_0 外形線1
100
AcDbLine
 10
70.0
 20
-797.0
 30
0.0
 11
70.0
 21
0.0
 31
0.0
  0
LINE
  5
4BA7
330
4B85
100
AcDbEntity
  8
AM_0 外形線1
100
AcDbLine
 10
67.0
 20
800.0
 30
0.0
 11
70.0
 21
797.0
 31
0.0
  0
LINE
  5
4BA8
330
4B85
100
AcDbEntity
  8
AM_0 外形線1
100
AcDbLine
 10
0.0
 20
797.0
 30
0.0
 11
3.0
 21
800.0
 31
0.0
  0
LINE
  5
4BA9
330
4B85
100
AcDbEntity
  8
AM_0 外形線1
100
AcDbLine
 10
3.0
 20
800.0
 30
0.0
 11
67.0
 21
800.0
 31
0.0
  0
LINE
  5
4BAA
330
4B85
100
AcDbEntity
  8
AM_0 外形線1
100
AcDbLine
 10
456.0
 20
674.0
 30
0.0
 11
465.0
 21
673.9999999999992
 31
0.0
  0
ARC
  5
4BAB
330
4B85
100
AcDbEntity
  8
AM_0 外形線1
100
AcDbCircle
 10
456.0
 20
673.0
 30
0.0
 40
1.0
100
AcDbArc
 50
90.0
 51
180.0
  0
LINE
  5
4BAC
330
4B85
100
AcDbEntity
  8
AM_0 外形線1
100
AcDbLine
 10
455.0
 20
673.0
 30
0.0
 11
455.0
 21
652.3999999999996
 31
0.0
  0
LINE
  5
4BAD
330
4B85
100
AcDbEntity
  8
AM_0 外形線1
100
AcDbLine
 10
455.0
 20
652.3999999999996
 30
0.0
 11
453.0
 21
650.3999999999996
 31
0.0
  0
LINE
  5
4BAE
330
4B85
100
AcDbEntity
  8
AM_0 外形線1
100
AcDbLine
 10
465.0
 20
687.9999999999991
 30
0.0
 11
465.0
 21
674.0
 31
0.0
  0
LINE
  5
4BAF
330
4B85
100
AcDbEntity
  8
AM_0 外形線1
100
AcDbLine
 10
465.0
 20
712.0
 30
0.0
 11
465.0
 21
725.0
 31
0.0
  0
LINE
  5
4BB0
330
4B85
100
AcDbEntity
  8
AM_0 外形線1
100
AcDbLine
 10
390.0
 20
710.0
 30
0.0
 11
405.0
 21
725.0
 31
0.0
  0
LINE
  5
4BB1
330
4B85
100
AcDbEntity
  8
AM_0 外形線1
100
AcDbLine
 10
439.0
 20
650.3999999999996
 30
0.0
 11
453.0
 21
650.3999999999996
 31
0.0
  0
LINE
  5
4BB2
330
4B85
100
AcDbEntity
  8
AM_0 外形線1
100
AcDbLine
 10
405.0
 20
725.0
 30
0.0
 11
465.0
 21
725.0000000000007
 31
0.0
  0
LINE
  5
4BB3
330
4B85
100
AcDbEntity
  8
AM_0 外形線1
100
AcDbLine
 10
226.0
 20
650.3999999999996
 30
0.0
 11
224.0
 21
652.3999999999996
 31
0.0
  0
LINE
  5
4BB4
330
4B85
100
AcDbEntity
  8
AM_0 外形線1
100
AcDbLine
 10
224.0
 20
652.3999999999996
 30
0.0
 11
224.0
 21
673.0
 31
0.0
  0
ARC
  5
4BB5
330
4B85
100
AcDbEntity
  8
AM_0 外形線1
100
AcDbCircle
 10
223.0
 20
673.0
 30
0.0
 40
1.0
100
AcDbArc
 50
0.0
 51
90.0
  0
LINE
  5
4BB6
330
4B85
100
AcDbEntity
  8
AM_0 外形線1
100
AcDbLine
 10
242.0
 20
650.3999999999996
 30
0.0
 11
226.0
 21
650.3999999999996
 31
0.0
  0
LINE
  5
4BB7
330
4B85
100
AcDbEntity
  8
AM_0 外形線1
100
AcDbLine
 10
224.0
 20
672.0
 30
0.0
 11
455.0
 21
672.0
 31
0.0
  0
LINE
  5
4BB8
330
4B85
100
AcDbEntity
  8
AM_7 中心線
100
AcDbLine
 10
222.0
 20
660.0
 30
0.0
 11
457.0
 21
660.0
 31
0.0
  0
LINE
  5
4BB9
330
4B85
100
AcDbEntity
  8
AM_3 隠れ線
100
AcDbLine
 10
439.0
 20
650.3999999999996
 30
0.0
 11
242.0
 21
650.3999999999996
 31
0.0
  0
LINE
  5
4BBA
330
4B85
100
AcDbEntity
  8
AM_0 外形線1
100
AcDbLine
 10
390.0
 20
-710.0
 30
0.0
 11
405.0
 21
-725.0
 31
0.0
  0
LINE
  5
4BBB
330
4B85
100
AcDbEntity
  8
AM_0 外形線1
100
AcDbLine
 10
405.0
 20
-725.0
 30
0.0
 11
465.0
 21
-725.0
 31
0.0
  0
LINE
  5
4BBC
330
4B85
100
AcDbEntity
  8
AM_0 外形線1
100
AcDbLine
 10
465.0
 20
0.0
 30
0.0
 11
465.0
 21
-725.0
 31
0.0
  0
LINE
  5
4BBD
330
4B85
100
AcDbEntity
  8
AM_0 外形線1
100
AcDbLine
 10
390.0
 20
-710.0
 30
0.0
 11
390.0
 21
0.0
 31
0.0
  0
LINE
  5
4BBE
330
4B85
100
AcDbEntity
  8
AM_0 外形線1
100
AcDbLine
 10
405.0
 20
-725.0
 30
0.0
 11
405.0
 21
0.0
 31
0.0
  0
INSERT
  5
4BBF
330
4B85
100
AcDbEntity
  8
AM_0 外形線1
100
AcDbBlockReference
  2
ロッカクアナツキプラグ R1
 10
120.0
 20
710.0
 30
0.0
  0
LINE
  5
4BC0
330
4B85
100
AcDbEntity
  8
AM_0 外形線1
100
AcDbLine
 10
80.0
 20
710.0
 30
0.0
 11
390.0
 21
710.0
 31
0.0
  0
LINE
  5
4BC1
330
4B85
100
AcDbEntity
  8
AM_0 外形線1
100
AcDbLine
 10
103.0748319999993
 20
710.0
 30
0.0
 11
103.1621339999992
 21
707.5
 31
0.0
  0
LINE
  5
4BC2
330
4B85
100
AcDbEntity
  8
AM_0 外形線1
100
AcDbLine
 10
136.8378661664637
 20
707.4999999941865
 30
0.0
 11
136.9251679999997
 21
710.0
 31
0.0
  0
ENDBLK
  5
4B87
330
4B85
100
AcDbEntity
  8
0
100
AcDbBlockEnd
  0
BLOCK
  5
4CCE
330
4CCD
100
AcDbEntity
  8
0
100
AcDbBlockBegin
  2
リジット CEMH1600
 70
     0
 10
0.0
 20
0.0
 30
0.0
  3
リジット CEMH1600
  1

  0
LINE
  5
4CD0
330
4CCD
100
AcDbEntity
  8
AM_0 外形線1
100
AcDbLine
 10
-70.0
 20
716.1803399999999
 30
0.0
 11
-70.0
 21
796.0
 31
0.0
  0
LINE
  5
4CD1
330
4CCD
100
AcDbEntity
  8
AM_0 外形線1
100
AcDbLine
 10
-17.0
 20
674.0
 30
0.0
 11
-25.0
 21
674.0
 31
0.0
  0
LINE
  5
4CD2
330
4CCD
100
AcDbEntity
  8
AM_0 外形線1
100
AcDbLine
 10
-0.0000000000004547
 20
705.0
 30
0.0
 11
-17.0
 21
705.0
 31
0.0
  0
LINE
  5
4CD3
330
4CCD
100
AcDbEntity
  8
AM_0 外形線1
100
AcDbLine
 10
-17.0
 20
705.0
 30
0.0
 11
-17.0
 21
674.0
 31
0.0
  0
LINE
  5
4CD4
330
4CCD
100
AcDbEntity
  8
AM_0 外形線1
100
AcDbLine
 10
0.0
 20
737.5
 30
0.0
 11
0.0
 21
705.0
 31
0.0
  0
ARC
  5
4CD6
330
4CCD
100
AcDbEntity
  8
AM_0 外形線1
100
AcDbCircle
 10
-80.0
 20
716.1803399999999
 30
0.0
 40
10.0
100
AcDbArc
 50
296.5650509999879
 51
0.0
  0
ARC
  5
4CD7
330
4CCD
100
AcDbEntity
  8
AM_0 外形線1
100
AcDbCircle
 10
-143.5410190000002
 20
690.0
 30
0.0
 40
15.0
100
AcDbArc
 50
270.0
 51
296.5650509999879
  0
LINE
  5
4CD8
330
4CCD
100
AcDbEntity
  8
AM_0 外形線1
100
AcDbLine
 10
-75.52786400000059
 20
707.2360679999992
 30
0.0
 11
-136.8328150000005
 21
676.5835919999998
 31
0.0
  0
ARC
  5
4CD9
330
4CCD
100
AcDbEntity
  8
AM_0 外形線1
100
AcDbCircle
 10
-895.0
 20
645.0
 30
0.0
 40
30.0
100
AcDbArc
 50
90.0
 51
180.0
  0
LINE
  5
4CDA
330
4CCD
100
AcDbEntity
  8
AM_0 外形線1
100
AcDbLine
 10
-143.5410190000002
 20
675.0
 30
0.0
 11
-895.0
 21
675.0
 31
0.0
  0
LINE
  5
4CDB
330
4CCD
100
AcDbEntity
  8
AM_3 隠れ線
100
AcDbLine
 10
-123.0
 20
32.0
 30
0.0
 11
-124.7320500000005
 21
29.0
 31
0.0
  0
LINE
  5
4CDC
330
4CCD
100
AcDbEntity
  8
AM_3 隠れ線
100
AcDbLine
 10
-123.0
 20
32.0
 30
0.0
 11
-123.0
 21
0.0
 31
0.0
  0
LINE
  5
4CDD
330
4CCD
100
AcDbEntity
  8
AM_3 隠れ線
100
AcDbLine
 10
-124.7320500000005
 20
29.0
 30
0.0
 11
-124.7320500000005
 21
0.0
 31
0.0
  0
LINE
  5
4CDE
330
4CCD
100
AcDbEntity
  8
AM_3 隠れ線
100
AcDbLine
 10
-145.0
 20
29.0
 30
0.0
 11
-145.0
 21
0.0
 31
0.0
  0
LINE
  5
4CDF
330
4CCD
100
AcDbEntity
  8
AM_3 隠れ線
100
AcDbLine
 10
-145.0
 20
29.0
 30
0.0
 11
-161.7431569999999
 21
0.0
 31
0.0
  0
LINE
  5
4CE0
330
4CCD
100
AcDbEntity
  8
AM_3 隠れ線
100
AcDbLine
 10
-25.0
 20
29.0
 30
0.0
 11
-145.0
 21
29.0
 31
0.0
  0
LINE
  5
4CE1
330
4CCD
100
AcDbEntity
  8
AM_3 隠れ線
100
AcDbLine
 10
-25.0
 20
32.0
 30
0.0
 11
-123.0
 21
32.0
 31
0.0
  0
LINE
  5
4CE2
330
4CCD
100
AcDbEntity
  8
AM_3 隠れ線
100
AcDbLine
 10
-827.0
 20
32.0
 30
0.0
 11
-825.267949
 21
29.0
 31
0.0
  0
LINE
  5
4CE3
330
4CCD
100
AcDbEntity
  8
AM_3 隠れ線
100
AcDbLine
 10
-827.0
 20
32.0
 30
0.0
 11
-827.0
 21
0.0
 31
0.0
  0
LINE
  5
4CE4
330
4CCD
100
AcDbEntity
  8
AM_3 隠れ線
100
AcDbLine
 10
-825.267949
 20
29.0
 30
0.0
 11
-825.267949
 21
0.0
 31
0.0
  0
LINE
  5
4CE5
330
4CCD
100
AcDbEntity
  8
AM_3 隠れ線
100
AcDbLine
 10
-805.0
 20
29.0
 30
0.0
 11
-805.0
 21
0.0
 31
0.0
  0
LINE
  5
4CE6
330
4CCD
100
AcDbEntity
  8
AM_3 隠れ線
100
AcDbLine
 10
-805.0
 20
29.0
 30
0.0
 11
-788.2568420000008
 21
0.0
 31
0.0
  0
LINE
  5
4CE7
330
4CCD
100
AcDbEntity
  8
AM_3 隠れ線
100
AcDbLine
 10
-925.0
 20
32.0
 30
0.0
 11
-827.0
 21
32.0
 31
0.0
  0
LINE
  5
4CE8
330
4CCD
100
AcDbEntity
  8
AM_3 隠れ線
100
AcDbLine
 10
-925.0
 20
29.0
 30
0.0
 11
-805.0
 21
29.0
 31
0.0
  0
LINE
  5
4CE9
330
4CCD
100
AcDbEntity
  8
AM_0 外形線1
100
AcDbLine
 10
0.0
 20
-796.0
 30
0.0
 11
-4.0
 21
-800.0
 31
0.0
  0
LINE
  5
4CEA
330
4CCD
100
AcDbEntity
  8
AM_7 中心線
100
AcDbLine
 10
-95.803882650569
 20
-759.4999999999998
 30
0.0
 11
95.803882650569
 21
-759.4999999999998
 31
0.0
  0
ARC
  5
4CEB
330
4CCD
100
AcDbEntity
  8
AM_0 外形線1
100
AcDbCircle
 10
-80.0
 20
-716.1803400000003
 30
0.0
 40
10.0
100
AcDbArc
 50
0.0
 51
63.4349490000121
  0
ARC
  5
4CEC
330
4CCD
100
AcDbEntity
  8
AM_0 外形線1
100
AcDbCircle
 10
-143.5410190000002
 20
-690.0
 30
0.0
 40
15.0
100
AcDbArc
 50
63.4349490000121
 51
90.0
  0
LINE
  5
4CED
330
4CCD
100
AcDbEntity
  8
AM_0 外形線1
100
AcDbLine
 10
-75.52786400000059
 20
-707.2360680000001
 30
0.0
 11
-136.8328150000005
 21
-676.5835920000004
 31
0.0
  0
LINE
  5
4CEE
330
4CCD
100
AcDbEntity
  8
AM_0 外形線1
100
AcDbLine
 10
-66.0
 20
-800.0
 30
0.0
 11
-70.0
 21
-796.0
 31
0.0
  0
LINE
  5
4CEF
330
4CCD
100
AcDbEntity
  8
AM_0 外形線1
100
AcDbLine
 10
-70.0
 20
-796.0
 30
0.0
 11
-70.0
 21
0.0
 31
0.0
  0
LINE
  5
4CF1
330
4CCD
100
AcDbEntity
  8
AM_0 外形線1
100
AcDbLine
 10
-4.0
 20
-800.0
 30
0.0
 11
-66.0
 21
-800.0
 31
0.0
  0
LINE
  5
4CF2
330
4CCD
100
AcDbEntity
  8
AM_0 外形線1
100
AcDbLine
 10
-895.0
 20
-675.0
 30
0.0
 11
-143.5410190000002
 21
-675.0
 31
0.0
  0
LINE
  5
4CF3
330
4CCD
100
AcDbEntity
  8
AM_0 外形線1
100
AcDbLine
 10
-140.0
 20
-675.0
 30
0.0
 11
-140.0
 21
0.0
 31
0.0
  0
ARC
  5
4CF5
330
4CCD
100
AcDbEntity
  8
AM_0 外形線1
100
AcDbCircle
 10
-895.0
 20
-645.0
 30
0.0
 40
30.0
100
AcDbArc
 50
180.0
 51
270.0
  0
LINE
  5
4CF6
330
4CCD
100
AcDbEntity
  8
AM_0 外形線1
100
AcDbLine
 10
-925.0
 20
645.0
 30
0.0
 11
-925.0
 21
-645.0
 31
0.0
  0
LINE
  5
4CF7
330
4CCD
100
AcDbEntity
  8
AM_0 外形線1
100
AcDbLine
 10
-25.0
 20
674.0
 30
0.0
 11
-25.0
 21
0.0
 31
0.0
  0
LINE
  5
4CF8
330
4CCD
100
AcDbEntity
  8
AM_0 外形線1
100
AcDbLine
 10
-4.0
 20
800.0
 30
0.0
 11
0.0
 21
796.0
 31
0.0
  0
LINE
  5
4CF9
330
4CCD
100
AcDbEntity
  8
AM_0 外形線1
100
AcDbLine
 10
-70.0
 20
796.0
 30
0.0
 11
-66.0
 21
800.0
 31
0.0
  0
LINE
  5
4CFA
330
4CCD
100
AcDbEntity
  8
AM_0 外形線1
100
AcDbLine
 10
-66.0
 20
800.0
 30
0.0
 11
-4.0
 21
800.0
 31
0.0
  0
LINE
  5
4CFB
330
4CCD
100
AcDbEntity
  8
AM_0 外形線1
100
AcDbLine
 10
-925.0000000000003
 20
382.4999999999992
 30
0.0
 11
-25.0
 21
382.5
 31
0.0
  0
LINE
  5
4D64
330
4CCD
100
AcDbEntity
  8
AM_0 外形線1
100
AcDbLine
 10
0.0
 20
-796.0
 30
0.0
 11
0.0
 21
0.0
 31
0.0
  0
LINE
  5
4D65
330
4CCD
100
AcDbEntity
  8
AM_0 外形線1
100
AcDbLine
 10
0.0
 20
737.5
 30
0.0
 11
-70.0
 21
737.5
 31
0.0
  0
LINE
  5
4D66
330
4CCD
100
AcDbEntity
  8
AM_0 外形線1
100
AcDbLine
 10
0.0
 20
781.5
 30
0.0
 11
-70.0
 21
781.5
 31
0.0
  0
LINE
  5
4D67
330
4CCD
100
AcDbEntity
  8
AM_0 外形線1
100
AcDbLine
 10
0.0
 20
796.0
 30
0.0
 11
0.0
 21
781.5
 31
0.0
  0
ENDBLK
  5
4CCF
330
4CCD
100
AcDbEntity
  8
0
100
AcDbBlockEnd
  0
BLOCK
  5
4E5F
330
4E5E
100
AcDbEntity
  8
0
100
AcDbBlockBegin
  2
センタ CEMH1600
 70
     0
 10
0.0
 20
0.0
 30
0.0
  3
センタ CEMH1600
  1

  0
LINE
  5
4E61
330
4E5E
100
AcDbEntity
  8
AM_0 外形線1
100
AcDbLine
 10
216.5
 20
630.0
 30
0.0
 11
6.0
 21
630.0
 31
0.0
  0
LINE
  5
4E62
330
4E5E
100
AcDbEntity
  8
AM_0 外形線1
100
AcDbLine
 10
6.0
 20
630.0
 30
0.0
 11
0.0
 21
624.0
 31
0.0
  0
LINE
  5
4E63
330
4E5E
100
AcDbEntity
  8
AM_3 隠れ線
100
AcDbLine
 10
98.0
 20
32.0
 30
0.0
 11
99.73205099999995
 21
29.0
 31
0.0
  0
LINE
  5
4E64
330
4E5E
100
AcDbEntity
  8
AM_3 隠れ線
100
AcDbLine
 10
120.0
 20
29.0
 30
0.0
 11
120.0
 21
0.0
 31
0.0
  0
LINE
  5
4E65
330
4E5E
100
AcDbEntity
  8
AM_3 隠れ線
100
AcDbLine
 10
120.0
 20
29.0
 30
0.0
 11
136.7431580000002
 21
0.0
 31
0.0
  0
LINE
  5
4E66
330
4E5E
100
AcDbEntity
  8
AM_3 隠れ線
100
AcDbLine
 10
98.0
 20
32.0
 30
0.0
 11
98.0
 21
0.0
 31
0.0
  0
LINE
  5
4E67
330
4E5E
100
AcDbEntity
  8
AM_3 隠れ線
100
AcDbLine
 10
99.73205099999995
 20
29.0
 30
0.0
 11
99.73205099999995
 21
0.0
 31
0.0
  0
LINE
  5
4E68
330
4E5E
100
AcDbEntity
  8
AM_3 隠れ線
100
AcDbLine
 10
0.0
 20
29.0
 30
0.0
 11
120.0
 21
29.0
 31
0.0
  0
LINE
  5
4E69
330
4E5E
100
AcDbEntity
  8
AM_3 隠れ線
100
AcDbLine
 10
0.0
 20
32.0
 30
0.0
 11
98.0
 21
32.0
 31
0.0
  0
LINE
  5
4E6A
330
4E5E
100
AcDbEntity
  8
AM_0 外形線1
100
AcDbLine
 10
0.0
 20
498.0
 30
0.0
 11
0.0
 21
0.0
 31
0.0
  0
ARC
  5
4E6B
330
4E5E
100
AcDbEntity
  8
AM_0 外形線1
100
AcDbCircle
 10
869.999999999999
 20
598.0
 30
0.0
 40
30.0
100
AcDbArc
 50
0.0
 51
90.0
  0
LINE
  5
4E6C
330
4E5E
100
AcDbEntity
  8
AM_0 外形線1
100
AcDbLine
 10
534.0
 20
628.0
 30
0.0
 11
528.0
 21
630.0
 31
0.0
  0
LINE
  5
4E6D
330
4E5E
100
AcDbEntity
  8
AM_0 外形線1
100
AcDbLine
 10
414.0
 20
662.2364040000002
 30
0.0
 11
412.0
 21
664.5299089999999
 31
0.0
  0
ARC
  5
4E6E
330
4E5E
100
AcDbEntity
  8
AM_0 外形線1
100
AcDbCircle
 10
414.5
 20
630.4999999999998
 30
0.0
 40
0.5
100
AcDbArc
 50
180.0
 51
270.0
  0
LINE
  5
4E6F
330
4E5E
100
AcDbEntity
  8
AM_0 外形線1
100
AcDbLine
 10
414.0
 20
630.4999999999998
 30
0.0
 11
414.0
 21
662.2364040000002
 31
0.0
  0
LINE
  5
4E70
330
4E5E
100
AcDbEntity
  8
AM_7 中心線
100
AcDbLine
 10
315.5
 20
676.5
 30
0.0
 11
315.5
 21
643.0
 31
0.0
  0
LINE
  5
4E71
330
4E5E
100
AcDbEntity
  8
AM_0 外形線1
100
AcDbLine
 10
528.0
 20
630.0
 30
0.0
 11
414.5
 21
630.0
 31
0.0
  0
LINE
  5
4E72
330
4E5E
100
AcDbEntity
  8
AM_0 外形線1
100
AcDbLine
 10
869.999999999999
 20
628.0
 30
0.0
 11
534.0
 21
628.0
 31
0.0
  0
LINE
  5
4E73
330
4E5E
100
AcDbEntity
  8
AM_0 外形線1
100
AcDbLine
 10
219.0
 20
664.5299089999999
 30
0.0
 11
217.0
 21
662.2364040000002
 31
0.0
  0
ARC
  5
4E74
330
4E5E
100
AcDbEntity
  8
AM_0 外形線1
100
AcDbCircle
 10
216.5
 20
630.4999999999998
 30
0.0
 40
0.5
100
AcDbArc
 50
270.0
 51
0.0
  0
LINE
  5
4E75
330
4E5E
100
AcDbEntity
  8
AM_0 外形線1
100
AcDbLine
 10
217.0
 20
662.2364040000002
 30
0.0
 11
217.0
 21
630.4999999999998
 31
0.0
  0
ARC
  5
4E77
330
4E5E
100
AcDbEntity
  8
AM_0 外形線1
100
AcDbCircle
 10
315.5
 20
0.0
 30
0.0
 40
671.4999999999998
100
AcDbArc
 50
81.73752400003559
 51
98.26247599996442
  0
LINE
  5
4E79
330
4E5E
100
AcDbEntity
  8
AM_3 隠れ線
100
AcDbLine
 10
801.999999999999
 20
32.0
 30
0.0
 11
800.2679499999995
 21
29.0
 31
0.0
  0
LINE
  5
4E7A
330
4E5E
100
AcDbEntity
  8
AM_3 隠れ線
100
AcDbLine
 10
779.999999999999
 20
29.0
 30
0.0
 11
779.999999999999
 21
0.0
 31
0.0
  0
LINE
  5
4E7B
330
4E5E
100
AcDbEntity
  8
AM_3 隠れ線
100
AcDbLine
 10
779.999999999999
 20
29.0
 30
0.0
 11
763.256843
 21
0.0
 31
0.0
  0
LINE
  5
4E7C
330
4E5E
100
AcDbEntity
  8
AM_3 隠れ線
100
AcDbLine
 10
801.999999999999
 20
32.0
 30
0.0
 11
801.999999999999
 21
0.0
 31
0.0
  0
LINE
  5
4E7D
330
4E5E
100
AcDbEntity
  8
AM_3 隠れ線
100
AcDbLine
 10
800.2679499999995
 20
29.0
 30
0.0
 11
800.2679499999995
 21
0.0
 31
0.0
  0
LINE
  5
4E7E
330
4E5E
100
AcDbEntity
  8
AM_3 隠れ線
100
AcDbLine
 10
899.9999999999991
 20
29.0
 30
0.0
 11
779.999999999999
 21
29.0
 31
0.0
  0
LINE
  5
4E7F
330
4E5E
100
AcDbEntity
  8
AM_3 隠れ線
100
AcDbLine
 10
899.9999999999991
 20
32.0
 30
0.0
 11
801.999999999999
 21
32.0
 31
0.0
  0
ARC
  5
4E80
330
4E5E
100
AcDbEntity
  8
AM_0 外形線1
100
AcDbCircle
 10
869.999999999999
 20
-598.0
 30
0.0
 40
30.0
100
AcDbArc
 50
270.0
 51
0.0
  0
LINE
  5
4E81
330
4E5E
100
AcDbEntity
  8
AM_0 外形線1
100
AcDbLine
 10
528.0
 20
-630.0
 30
0.0
 11
534.0
 21
-628.0
 31
0.0
  0
LINE
  5
4E82
330
4E5E
100
AcDbEntity
  8
AM_0 外形線1
100
AcDbLine
 10
478.0
 20
-630.0
 30
0.0
 11
528.0
 21
-630.0
 31
0.0
  0
LINE
  5
4E83
330
4E5E
100
AcDbEntity
  8
AM_0 外形線1
100
AcDbLine
 10
534.0
 20
-628.0
 30
0.0
 11
869.999999999999
 21
-628.0
 31
0.0
  0
LINE
  5
4E84
330
4E5E
100
AcDbEntity
  8
AM_0 外形線1
100
AcDbLine
 10
528.0
 20
-630.0
 30
0.0
 11
528.0
 21
0.0
 31
0.0
  0
LINE
  5
4E85
330
4E5E
100
AcDbEntity
  8
AM_0 外形線1
100
AcDbLine
 10
534.0
 20
-628.0
 30
0.0
 11
534.0
 21
0.0
 31
0.0
  0
LINE
  5
4E86
330
4E5E
100
AcDbEntity
  8
AM_0 外形線1
100
AcDbLine
 10
899.9999999999991
 20
-598.0
 30
0.0
 11
899.9999999999991
 21
598.0
 31
0.0
  0
LINE
  5
4E8A
330
4E5E
100
AcDbEntity
  8
AM_0 外形線1
100
AcDbLine
 10
0.0
 20
382.5000000000009
 30
0.0
 11
899.9999999999991
 21
382.5
 31
0.0
  0
LINE
  5
4E8D
330
4E5E
100
AcDbEntity
  8
AM_0 外形線1
100
AcDbLine
 10
0.0
 20
624.0
 30
0.0
 11
0.0
 21
498.0
 31
0.0
  0
ARC
  5
686D
330
4E5E
100
AcDbEntity
  8
AM_7 中心線
100
AcDbCircle
 10
315.5
 20
0.0
 30
0.0
 40
660.0
100
AcDbArc
 50
80.42119340609161
 51
99.68598477966935
  0
ARC
  5
686E
330
4E5E
100
AcDbEntity
  8
AM_0 外形線1
100
AcDbCircle
 10
315.5
 20
0.0
 30
0.0
 40
648.0
100
AcDbArc
 50
81.2567948507918
 51
98.74320514920821
  0
ENDBLK
  5
4E60
330
4E5E
100
AcDbEntity
  8
0
100
AcDbBlockEnd
  0
BLOCK
  5
4FAC
330
4FAB
100
AcDbEntity
  8
0
100
AcDbBlockBegin
  2
リーマボルト CEMH1600 M42
 70
     0
 10
0.0
 20
0.0
 30
0.0
  3
リーマボルト CEMH1600 M42
  1

  0
ARC
  5
4FAE
330
4FAB
100
AcDbEntity
  8
AM_0 外形線1
100
AcDbCircle
 10
9.356058000000302
 20
28.13194199999998
 30
0.0
 40
16.643942
100
AcDbArc
 50
325.7468130000189
 51
34.25318699998113
  0
ARC
  5
4FAF
330
4FAB
100
AcDbEntity
  8
AM_0 外形線1
100
AcDbCircle
 10
-165.3560569999999
 20
28.13194199999998
 30
0.0
 40
16.643942
100
AcDbArc
 50
145.7468130000188
 51
214.2531869999811
  0
LINE
  5
4FB0
330
4FAB
100
AcDbEntity
  8
AM_0 外形線1
100
AcDbLine
 10
26.0
 20
32.5
 30
0.0
 11
26.0
 21
-32.5
 31
0.0
  0
LINE
  5
4FB1
330
4FAB
100
AcDbEntity
  8
AM_0 外形線1
100
AcDbLine
 10
-182.0
 20
32.5
 30
0.0
 11
-182.0
 21
-32.5
 31
0.0
  0
LINE
  5
4FB2
330
4FAB
100
AcDbEntity
  8
AM_0 外形線1
100
AcDbLine
 10
-148.0
 20
-37.5
 30
0.0
 11
-148.0
 21
37.5
 31
0.0
  0
LINE
  5
4FB3
330
4FAB
100
AcDbEntity
  8
AM_0 外形線1
100
AcDbLine
 10
0.0
 20
18.76388399999996
 30
0.0
 11
23.11324899999909
 21
18.76388399999996
 31
0.0
  0
LINE
  5
4FB4
330
4FAB
100
AcDbEntity
  8
AM_0 外形線1
100
AcDbLine
 10
0.0
 20
-18.76388399999996
 30
0.0
 11
23.11324899999909
 21
-18.76388399999996
 31
0.0
  0
ARC
  5
4FB5
330
4FAB
100
AcDbEntity
  8
AM_0 外形線1
100
AcDbCircle
 10
-36.42599800000062
 20
0.0
 30
0.0
 40
62.425998
100
AcDbArc
 50
342.5076749999834
 51
17.49232500001665
  0
ARC
  5
4FB6
330
4FAB
100
AcDbEntity
  8
AM_0 外形線1
100
AcDbCircle
 10
-2.0
 20
22.0
 30
0.0
 40
2.0
100
AcDbArc
 50
284.477512185936
 51
0.0
  0
ARC
  5
4FB8
330
4FAB
100
AcDbEntity
  8
AM_0 外形線1
100
AcDbCircle
 10
-1.0
 20
22.0
 30
0.0
 40
2.0
100
AcDbArc
 50
180.0
 51
255.522487814064
  0
ARC
  5
4FB9
330
4FAB
100
AcDbEntity
  8
AM_0 外形線1
100
AcDbCircle
 10
-2.0
 20
-22.0
 30
0.0
 40
2.0
100
AcDbArc
 50
0.0
 51
75.52248781406404
  0
ARC
  5
4FBB
330
4FAB
100
AcDbEntity
  8
AM_0 外形線1
100
AcDbCircle
 10
-1.0
 20
-22.0
 30
0.0
 40
2.0
100
AcDbArc
 50
104.4775121859359
 51
180.0
  0
LINE
  5
4FBC
330
4FAB
100
AcDbEntity
  8
AM_0 外形線1
100
AcDbLine
 10
-3.0
 20
-22.0
 30
0.0
 11
-3.0
 21
22.0
 31
0.0
  0
LINE
  5
4FBD
330
4FAB
100
AcDbEntity
  8
AM_0 外形線1
100
AcDbLine
 10
-136.0
 20
22.0
 30
0.0
 11
-136.0
 21
-22.0
 31
0.0
  0
LINE
  5
4FBE
330
4FAB
100
AcDbEntity
  8
AM_0 外形線1
100
AcDbLine
 10
-138.0
 20
20.84529899999961
 30
0.0
 11
-138.0
 21
-20.84529999999995
 31
0.0
  0
ARC
  5
4FBF
330
4FAB
100
AcDbEntity
  8
AM_0 外形線1
100
AcDbCircle
 10
-119.5740020000003
 20
0.0
 30
0.0
 40
62.425998
100
AcDbArc
 50
162.5076749999833
 51
197.4923250000166
  0
LINE
  5
4FC0
330
4FAB
100
AcDbEntity
  8
AM_0 外形線1
100
AcDbLine
 10
-148.0
 20
18.76388399999996
 30
0.0
 11
-179.1132480000005
 21
18.76388399999996
 31
0.0
  0
LINE
  5
4FC1
330
4FAB
100
AcDbEntity
  8
AM_0 外形線1
100
AcDbLine
 10
-148.0
 20
-18.76388399999996
 30
0.0
 11
-179.1132480000005
 21
-18.76388399999996
 31
0.0
  0
LINE
  5
4FC2
330
4FAB
100
AcDbEntity
  8
AM_0 外形線1
100
AcDbLine
 10
-182.0
 20
21.0
 30
0.0
 11
-191.0
 21
21.0
 31
0.0
  0
LINE
  5
4FC3
330
4FAB
100
AcDbEntity
  8
AM_0 外形線1
100
AcDbLine
 10
-191.0
 20
21.0
 30
0.0
 11
-194.0
 21
18.0
 31
0.0
  0
LINE
  5
4FC4
330
4FAB
100
AcDbEntity
  8
AM_0 外形線1
100
AcDbLine
 10
-191.0
 20
-21.0
 30
0.0
 11
-191.0
 21
0.0
 31
0.0
  0
LINE
  5
4FC5
330
4FAB
100
AcDbEntity
  8
AM_0 外形線1
100
AcDbLine
 10
-182.0
 20
-21.0
 30
0.0
 11
-191.0
 21
-21.0
 31
0.0
  0
LINE
  5
4FC6
330
4FAB
100
AcDbEntity
  8
AM_0 外形線1
100
AcDbLine
 10
-191.0
 20
-21.0
 30
0.0
 11
-194.0
 21
-18.0
 31
0.0
  0
LINE
  5
4FC7
330
4FAB
100
AcDbEntity
  8
AM_0 外形線1
100
AcDbLine
 10
-194.0
 20
-18.0
 30
0.0
 11
-194.0
 21
0.0
 31
0.0
  0
LINE
  5
4FC8
330
4FAB
100
AcDbEntity
  8
AM_0 外形線1
100
AcDbLine
 10
-140.0
 20
21.0
 30
0.0
 11
-137.7320500000005
 21
21.0
 31
0.0
  0
LINE
  5
4FC9
330
4FAB
100
AcDbEntity
  8
AM_0 外形線1
100
AcDbLine
 10
-140.0
 20
-21.0
 30
0.0
 11
-137.7320500000005
 21
-21.0
 31
0.0
  0
LINE
  5
4FCA
330
4FAB
100
AcDbEntity
  8
AM_0 外形線1
100
AcDbLine
 10
-148.0
 20
-2.666666999999506
 30
0.0
 11
-140.0
 21
5.333333000000492
 31
0.0
  0
LINE
  5
4FCB
330
4FAB
100
AcDbEntity
  8
AM_0 外形線1
100
AcDbLine
 10
-140.0
 20
2.666666000000076
 30
0.0
 11
-148.0
 21
-5.333333999999921
 31
0.0
  0
LINE
  5
4FCC
330
4FAB
100
AcDbEntity
  8
AM_4 細線
100
AcDbLine
 10
-182.0
 20
18.75
 30
0.0
 11
-193.25
 21
18.75
 31
0.0
  0
LINE
  5
4FCD
330
4FAB
100
AcDbEntity
  8
AM_4 細線
100
AcDbLine
 10
-182.0
 20
-18.75
 30
0.0
 11
-193.25
 21
-18.75
 31
0.0
  0
LINE
  5
4FCE
330
4FAB
100
AcDbEntity
  8
AM_0 外形線1
100
AcDbLine
 10
-136.0
 20
22.0
 30
0.0
 11
-138.0
 21
20.84529899999961
 31
0.0
  0
LINE
  5
4FCF
330
4FAB
100
AcDbEntity
  8
AM_0 外形線1
100
AcDbLine
 10
-138.0
 20
-20.84529999999995
 30
0.0
 11
-136.0
 21
-22.0
 31
0.0
  0
LINE
  5
4FD0
330
4FAB
100
AcDbEntity
  8
AM_0 外形線1
100
AcDbLine
 10
23.11324899999909
 20
-37.5
 30
0.0
 11
0.0
 21
-37.5
 31
0.0
  0
LINE
  5
4FD1
330
4FAB
100
AcDbEntity
  8
AM_0 外形線1
100
AcDbLine
 10
26.0
 20
-32.5
 30
0.0
 11
23.11324899999909
 21
-37.5
 31
0.0
  0
LINE
  5
4FD2
330
4FAB
100
AcDbEntity
  8
AM_0 外形線1
100
AcDbLine
 10
-148.0
 20
-34.5
 30
0.0
 11
-140.0
 21
-34.5
 31
0.0
  0
LINE
  5
4FD3
330
4FAB
100
AcDbEntity
  8
AM_0 外形線1
100
AcDbLine
 10
-179.1132480000005
 20
-37.5
 30
0.0
 11
-148.0
 21
-37.5
 31
0.0
  0
ARC
  5
4FD4
330
4FAB
100
AcDbEntity
  8
AM_0 外形線1
100
AcDbCircle
 10
9.356058000000302
 20
-28.13194199999998
 30
0.0
 40
16.643942
100
AcDbArc
 50
325.7468130000189
 51
34.25318699998113
  0
ARC
  5
4FD5
330
4FAB
100
AcDbEntity
  8
AM_0 外形線1
100
AcDbCircle
 10
-165.3560569999999
 20
-28.13194199999998
 30
0.0
 40
16.643942
100
AcDbArc
 50
145.7468130000188
 51
214.2531869999811
  0
LINE
  5
4FD6
330
4FAB
100
AcDbEntity
  8
AM_0 外形線1
100
AcDbLine
 10
0.0
 20
37.5
 30
0.0
 11
23.11324899999909
 21
37.5
 31
0.0
  0
LINE
  5
4FD7
330
4FAB
100
AcDbEntity
  8
AM_0 外形線1
100
AcDbLine
 10
23.11324899999909
 20
37.5
 30
0.0
 11
26.0
 21
32.5
 31
0.0
  0
LINE
  5
4FD8
330
4FAB
100
AcDbEntity
  8
AM_0 外形線1
100
AcDbLine
 10
-148.0
 20
37.5
 30
0.0
 11
-179.1132480000005
 21
37.5
 31
0.0
  0
LINE
  5
4FD9
330
4FAB
100
AcDbEntity
  8
AM_0 外形線1
100
AcDbLine
 10
-179.1132480000005
 20
37.5
 30
0.0
 11
-182.0
 21
32.5
 31
0.0
  0
LINE
  5
4FDA
330
4FAB
100
AcDbEntity
  8
AM_0 外形線1
100
AcDbLine
 10
-148.0
 20
34.5
 30
0.0
 11
-140.0
 21
34.5
 31
0.0
  0
LINE
  5
503C
330
4FAB
100
AcDbEntity
  8
AM_0 外形線1
100
AcDbLine
 10
-3.0
 20
22.0
 30
0.0
 11
-136.0
 21
22.0
 31
0.0
  0
LINE
  5
503D
330
4FAB
100
AcDbEntity
  8
AM_0 外形線1
100
AcDbLine
 10
-3.0
 20
-22.0
 30
0.0
 11
-136.0
 21
-22.0
 31
0.0
  0
LINE
  5
503E
330
4FAB
100
AcDbEntity
  8
AM_0 外形線1
100
AcDbLine
 10
-140.0
 20
34.5
 30
0.0
 11
-140.0
 21
-34.5
 31
0.0
  0
LINE
  5
503F
330
4FAB
100
AcDbEntity
  8
AM_0 外形線1
100
AcDbLine
 10
0.0
 20
37.5
 30
0.0
 11
0.0
 21
-37.5
 31
0.0
  0
LINE
  5
5040
330
4FAB
100
AcDbEntity
  8
AM_0 外形線1
100
AcDbLine
 10
-191.0
 20
21.0
 30
0.0
 11
-191.0
 21
0.0
 31
0.0
  0
LINE
  5
5041
330
4FAB
100
AcDbEntity
  8
AM_0 外形線1
100
AcDbLine
 10
-194.0
 20
18.0
 30
0.0
 11
-194.0
 21
0.0
 31
0.0
  0
ENDBLK
  5
4FAD
330
4FAB
100
AcDbEntity
  8
0
100
AcDbBlockEnd
  0
BLOCK
  5
50C8
330
50C7
100
AcDbEntity
  8
0
100
AcDbBlockBegin
  2
ＧＣサイドカバ－ CEMH1600
 70
     0
 10
0.0
 20
0.0
 30
0.0
  3
ＧＣサイドカバ－ CEMH1600
  1

  0
LINE
  5
50CA
330
50C7
100
AcDbEntity
  8
AM_0 外形線1
100
AcDbLine
 10
0.0
 20
725.0000000000007
 30
0.0
 11
38.0
 21
725.0
 31
0.0
  0
LINE
  5
50CB
330
50C7
100
AcDbEntity
  8
AM_0 外形線1
100
AcDbLine
 10
43.89999999999964
 20
720.1999999999997
 30
0.0
 11
43.89999999999964
 21
679.7999999999992
 31
0.0
  0
LINE
  5
50CC
330
50C7
100
AcDbEntity
  8
AM_0 外形線1
100
AcDbLine
 10
43.89999999999964
 20
720.1999999999997
 30
0.0
 11
43.89999999999964
 21
720.7999999999993
 31
0.0
  0
LINE
  5
50CD
330
50C7
100
AcDbEntity
  8
AM_0 外形線1
100
AcDbLine
 10
43.89999999999964
 20
720.7999999999993
 30
0.0
 11
56.98057199999947
 21
720.7999999999993
 31
0.0
  0
ARC
  5
50CE
330
50C7
100
AcDbEntity
  8
AM_0 外形線1
100
AcDbCircle
 10
50.88608300000032
 20
715.5961479999997
 30
0.0
 40
8.013916999999999
100
AcDbArc
 50
320.4865380000523
 51
40.4927459999787
  0
ARC
  5
50CF
330
50C7
100
AcDbEntity
  8
AM_0 外形線1
100
AcDbCircle
 10
27.89999999999964
 20
700.0
 30
0.0
 40
31.0
100
AcDbArc
 50
340.2071850000404
 51
19.79281499995962
  0
ARC
  5
50D0
330
50C7
100
AcDbEntity
  8
AM_0 外形線1
100
AcDbCircle
 10
50.88608300000032
 20
684.403851
 30
0.0
 40
8.013916999999999
100
AcDbArc
 50
319.5072540000213
 51
39.51346199994768
  0
LINE
  5
50D1
330
50C7
100
AcDbEntity
  8
AM_0 外形線1
100
AcDbLine
 10
56.98057199999947
 20
679.1999999999998
 30
0.0
 11
43.89999999999964
 21
679.1999999999998
 31
0.0
  0
LINE
  5
50D2
330
50C7
100
AcDbEntity
  8
AM_0 外形線1
100
AcDbLine
 10
43.89999999999964
 20
679.1999999999998
 30
0.0
 11
43.89999999999964
 21
679.7999999999992
 31
0.0
  0
LINE
  5
50D3
330
50C7
100
AcDbEntity
  8
AM_0 外形線1
100
AcDbLine
 10
56.99368699999922
 20
710.4076949999996
 30
0.0
 11
43.89999999999964
 21
710.4076949999996
 31
0.0
  0
LINE
  5
50D4
330
50C7
100
AcDbEntity
  8
AM_0 外形線1
100
AcDbLine
 10
57.10068299999965
 20
689.5923050000001
 30
0.0
 11
43.89999999999964
 21
689.5923050000001
 31
0.0
  0
LINE
  5
50D5
330
50C7
100
AcDbEntity
  8
AM_0 外形線1
100
AcDbLine
 10
58.89999999999964
 20
715.5961479999997
 30
0.0
 11
58.89999999999964
 21
684.403851
 31
0.0
  0
LINE
  5
50D6
330
50C7
100
AcDbEntity
  8
AM_0 外形線1
100
AcDbLine
 10
38.0
 20
713.0
 30
0.0
 11
0.0
 21
713.0
 31
0.0
  0
LINE
  5
50D7
330
50C7
100
AcDbEntity
  8
AM_0 外形線1
100
AcDbLine
 10
38.0
 20
687.0
 30
0.0
 11
0.0
 21
687.0
 31
0.0
  0
LINE
  5
50D8
330
50C7
100
AcDbEntity
  8
AM_0 外形線1
100
AcDbLine
 10
-8.0
 20
674.0
 30
0.0
 11
4.589999999999236
 21
674.0
 31
0.0
  0
LINE
  5
50D9
330
50C7
100
AcDbEntity
  8
AM_0 外形線1
100
AcDbLine
 10
4.589999999999236
 20
674.0
 30
0.0
 11
4.589999999999236
 21
681.1999999999998
 31
0.0
  0
LINE
  5
50DA
330
50C7
100
AcDbEntity
  8
AM_0 外形線1
100
AcDbLine
 10
4.589999999999236
 20
681.1999999999998
 30
0.0
 11
0.0
 21
681.1999999999998
 31
0.0
  0
LWPOLYLINE
  5
50DB
330
50C7
100
AcDbEntity
  8
AM_0 外形線1
100
AcDbPolyline
 90
       73
 70
     0
 43
0.0
 10
2.294999999999163
 20
674.0
 10
2.49502299999949
 20
674.0136989999999
 10
2.693522999999003
 20
674.0546919999998
 10
2.888989999999466
 20
674.1226669999996
 10
3.079936999999517
 20
674.2171059999999
 10
3.264908999999533
 20
674.3372920000001
 10
3.442500000000109
 20
674.4823080000005
 10
3.611357999999198
 20
674.6510520000001
 10
3.770197999999253
 20
674.8422399999998
 10
3.917809999999917
 20
675.0544150000004
 10
4.053071999999701
 20
675.2859639999996
 10
4.174953999999161
 20
675.5351249999994
 10
4.282528999999158
 20
675.7999999999992
 10
4.374976999999488
 20
676.0785740000001
 10
4.451594999999541
 20
676.3687269999999
 10
4.511799999999311
 20
676.6682509999999
 10
4.555133999999268
 20
676.9748659999994
 10
4.581266999998661
 20
677.286239
 10
4.589999999999236
 20
677.5999999999993
 10
4.581266999998661
 20
677.9137599999993
 10
4.555133999999268
 20
678.2251329999998
 10
4.511799999999311
 20
678.5317480000002
 10
4.451594999999541
 20
678.8312720000002
 10
4.374976999999488
 20
679.1214259999995
 10
4.282528999999158
 20
679.3999999999996
 10
4.174953999999161
 20
679.6648749999993
 10
4.053071999999701
 20
679.9140349999998
 10
3.917809999999917
 20
680.1455839999999
 10
3.770197999999253
 20
680.3577599999997
 10
3.611357999999198
 20
680.5489470000002
 10
3.442500000000109
 20
680.7176909999997
 10
3.264908999999533
 20
680.8627080000006
 10
3.079936999999517
 20
680.9828929999994
 10
2.888989999999466
 20
681.0773330000001
 10
2.693522999999003
 20
681.1453080000001
 10
2.49502299999949
 20
681.1863009999997
 10
2.294999999999163
 20
681.1999999999998
 10
2.094977999999172
 20
681.1863009999997
 10
1.896477999999659
 20
681.1453080000001
 10
1.701011000000107
 20
681.0773330000001
 10
1.510063999999147
 20
680.9828929999994
 10
1.325090999999702
 20
680.8627080000006
 10
1.147500000000035
 20
680.7176909999997
 10
0.9786419999991268
 20
680.5489470000002
 10
0.8198029999994105
 20
680.3577599999997
 10
0.6721900000002279
 20
680.1455839999999
 10
0.5369279999986249
 20
679.9140349999998
 10
0.4150459999991655
 20
679.6648749999993
 10
0.3074719999995068
 20
679.3999999999996
 10
0.2150239999991754
 20
679.1214259999995
 10
0.1384059999991223
 20
678.8312720000002
 10
0.0782009999993534
 20
678.5317480000002
 10
0.0348669999993945
 20
678.2251329999998
 10
0.0087329999996655
 20
677.9137599999993
 10
0.0
 20
677.5999999999993
 10
0.0087329999996655
 20
677.286239
 10
0.0348669999993945
 20
676.9748659999994
 10
0.0782009999993534
 20
676.6682509999999
 10
0.1384059999991223
 20
676.3687269999999
 10
0.2150239999991754
 20
676.0785740000001
 10
0.3074719999995068
 20
675.7999999999992
 10
0.4150459999991655
 20
675.5351249999994
 10
0.5369279999986249
 20
675.2859639999996
 10
0.6721900000002279
 20
675.0544150000004
 10
0.8198029999994105
 20
674.8422399999998
 10
0.9786419999991268
 20
674.6510520000001
 10
1.147500000000035
 20
674.4823080000005
 10
1.325090999999702
 20
674.3372920000001
 10
1.510063999999147
 20
674.2171059999999
 10
1.701011000000107
 20
674.1226669999996
 10
1.896477999999659
 20
674.0546919999998
 10
2.094977999999172
 20
674.0136989999999
 10
2.294999999999163
 20
674.0
  0
LINE
  5
50DC
330
50C7
100
AcDbEntity
  8
AM_0 外形線1
100
AcDbLine
 10
38.0
 20
720.1999999999997
 30
0.0
 11
43.89999999999964
 21
720.1999999999997
 31
0.0
  0
LINE
  5
50DD
330
50C7
100
AcDbEntity
  8
AM_0 外形線1
100
AcDbLine
 10
43.89999999999964
 20
679.7999999999992
 30
0.0
 11
38.0
 21
679.7999999999992
 31
0.0
  0
LINE
  5
50DE
330
50C7
100
AcDbEntity
  8
AM_0 外形線1
100
AcDbLine
 10
38.0
 20
698.0
 30
0.0
 11
43.89999999999964
 21
704.0
 31
0.0
  0
LINE
  5
50DF
330
50C7
100
AcDbEntity
  8
AM_0 外形線1
100
AcDbLine
 10
43.89999999999964
 20
702.0
 30
0.0
 11
38.0
 21
696.0
 31
0.0
  0
LINE
  5
50E0
330
50C7
100
AcDbEntity
  8
AM_0 外形線1
100
AcDbLine
 10
38.0
 20
725.0
 30
0.0
 11
38.0
 21
700.0
 31
0.0
  0
LINE
  5
50E1
330
50C7
100
AcDbEntity
  8
AM_0 外形線1
100
AcDbLine
 10
38.0
 20
633.0
 30
0.0
 11
38.0
 21
630.0
 31
0.0
  0
LINE
  5
50E2
330
50C7
100
AcDbEntity
  8
AM_0 外形線1
100
AcDbLine
 10
29.0
 20
633.0
 30
0.0
 11
29.0
 21
630.0
 31
0.0
  0
LINE
  5
50E3
330
50C7
100
AcDbEntity
  8
AM_0 外形線1
100
AcDbLine
 10
1.0
 20
633.0
 30
0.0
 11
1.0
 21
630.0
 31
0.0
  0
LINE
  5
50E4
330
50C7
100
AcDbEntity
  8
AM_0 外形線1
100
AcDbLine
 10
-8.0
 20
633.0
 30
0.0
 11
-8.0
 21
630.0
 31
0.0
  0
LINE
  5
50E5
330
50C7
100
AcDbEntity
  8
AM_0 外形線1
100
AcDbLine
 10
38.0
 20
633.0
 30
0.0
 11
29.0
 21
633.0
 31
0.0
  0
LINE
  5
50E6
330
50C7
100
AcDbEntity
  8
AM_0 外形線1
100
AcDbLine
 10
29.0
 20
633.0
 30
0.0
 11
29.0
 21
646.6499999999996
 31
0.0
  0
LINE
  5
50E7
330
50C7
100
AcDbEntity
  8
AM_0 外形線1
100
AcDbLine
 10
29.0
 20
646.6499999999996
 30
0.0
 11
1.0
 21
646.6499999999996
 31
0.0
  0
LINE
  5
50E8
330
50C7
100
AcDbEntity
  8
AM_0 外形線1
100
AcDbLine
 10
1.0
 20
646.6499999999996
 30
0.0
 11
1.0
 21
633.0
 31
0.0
  0
LINE
  5
50E9
330
50C7
100
AcDbEntity
  8
AM_0 外形線1
100
AcDbLine
 10
1.0
 20
633.0
 30
0.0
 11
-8.0
 21
633.0
 31
0.0
  0
LWPOLYLINE
  5
50EA
330
50C7
100
AcDbEntity
  8
AM_0 外形線1
100
AcDbPolyline
 90
       73
 70
     0
 43
0.0
 10
1.0
 20
638.3249999999998
 10
1.053274999999302
 20
637.5994279999994
 10
1.212691999999151
 20
636.8793789999998
 10
1.477038999998512
 20
636.1703309999994
 10
1.844303999999283
 20
635.4776819999997
 10
2.311690999999882
 20
634.8067030000001
 10
2.875644999999166
 20
634.1624999999993
 10
3.531871999999566
 20
633.5499760000002
 10
4.275377999999363
 20
632.9737929999992
 10
5.100504999999428
 20
632.4383360000001
 10
6.000973999999587
 20
631.9476800000002
 10
6.969930000000204
 20
631.5055590000001
 10
8.0
 20
631.1153379999995
 10
9.083345000000008
 20
630.7799869999999
 10
10.21171799999956
 20
630.5020590000004
 10
11.37653399999999
 20
630.2836669999996
 10
12.56892599999901
 20
630.1264749999991
 10
13.77981999999883
 20
630.0316789999998
 10
15.0
 20
630.0
 10
16.22018099999968
 20
630.0316789999998
 10
17.43107499999951
 20
630.1264749999991
 10
18.62346699999944
 20
630.2836669999996
 10
19.78828200000043
 20
630.5020590000004
 10
20.91665599999942
 20
630.7799869999999
 10
22.0
 20
631.1153379999995
 10
23.0300699999998
 20
631.5055590000001
 10
23.99902699999893
 20
631.9476800000002
 10
24.89949499999875
 20
632.4383360000001
 10
25.72462299999916
 20
632.9737929999992
 10
26.46812899999986
 20
633.5499760000002
 10
27.12435599999935
 20
634.1624999999993
 10
27.68830900000012
 20
634.8067030000001
 10
28.15569699999924
 20
635.4776819999997
 10
28.52296200000001
 20
636.1703309999994
 10
28.78730899999937
 20
636.8793789999998
 10
28.94672599999922
 20
637.5994279999994
 10
29.0
 20
638.3249999999998
 10
28.94672599999922
 20
639.0505709999997
 10
28.78730899999937
 20
639.7706209999996
 10
28.52296200000001
 20
640.4796679999998
 10
28.15569699999924
 20
641.1723179999998
 10
27.68830900000012
 20
641.8432970000004
 10
27.12435599999935
 20
642.4874999999993
 10
26.46812899999986
 20
643.1000239999994
 10
25.72462299999916
 20
643.6762069999995
 10
24.89949499999875
 20
644.2116639999993
 10
23.99902699999893
 20
644.7023200000002
 10
23.0300699999998
 20
645.1444410000004
 10
22.0
 20
645.5346610000006
 10
20.91665599999942
 20
645.8700120000002
 10
19.78828200000043
 20
646.1479410000001
 10
18.62346699999944
 20
646.3663319999994
 10
17.43107499999951
 20
646.5235240000001
 10
16.22018099999968
 20
646.6183209999997
 10
15.0
 20
646.6499999999996
 10
13.77981999999883
 20
646.6183209999997
 10
12.56892599999901
 20
646.5235240000001
 10
11.37653399999999
 20
646.3663319999994
 10
10.21171799999956
 20
646.1479410000001
 10
9.083345000000008
 20
645.8700120000002
 10
8.0
 20
645.5346610000006
 10
6.969930000000204
 20
645.1444410000004
 10
6.000973999999587
 20
644.7023200000002
 10
5.100504999999428
 20
644.2116639999993
 10
4.275377999999363
 20
643.6762069999995
 10
3.531871999999566
 20
643.1000239999994
 10
2.875644999999166
 20
642.4874999999993
 10
2.311690999999882
 20
641.8432970000004
 10
1.844303999999283
 20
641.1723179999998
 10
1.477038999998512
 20
640.4796679999998
 10
1.212691999999151
 20
639.7706209999996
 10
1.053274999999302
 20
639.0505709999997
 10
1.0
 20
638.3249999999998
  0
LINE
  5
50EB
330
50C7
100
AcDbEntity
  8
AM_0 外形線1
100
AcDbLine
 10
38.0
 20
700.0
 30
0.0
 11
38.0
 21
633.0
 31
0.0
  0
LINE
  5
50EC
330
50C7
100
AcDbEntity
  8
AM_0 外形線1
100
AcDbLine
 10
-8.0
 20
633.0
 30
0.0
 11
-8.0
 21
674.0
 31
0.0
  0
LINE
  5
50ED
330
50C7
100
AcDbEntity
  8
AM_0 外形線1
100
AcDbLine
 10
-36.10000000000037
 20
712.0
 30
0.0
 11
-36.10000000000037
 21
688.0
 31
0.0
  0
LINE
  5
50EE
330
50C7
100
AcDbEntity
  8
AM_0 外形線1
100
AcDbLine
 10
-43.0
 20
710.5
 30
0.0
 11
-49.06217800000013
 21
700.0
 31
0.0
  0
LINE
  5
50EF
330
50C7
100
AcDbEntity
  8
AM_0 外形線1
100
AcDbLine
 10
-49.06217800000013
 20
700.0
 30
0.0
 11
-43.0
 21
689.5
 31
0.0
  0
LINE
  5
50F0
330
50C7
100
AcDbEntity
  8
AM_0 外形線1
100
AcDbLine
 10
-43.0
 20
710.5
 30
0.0
 11
-43.0
 21
689.5
 31
0.0
  0
LINE
  5
50F1
330
50C7
100
AcDbEntity
  8
AM_0 外形線1
100
AcDbLine
 10
-36.10000000000037
 20
710.5
 30
0.0
 11
-43.0
 21
710.5
 31
0.0
  0
LINE
  5
50F2
330
50C7
100
AcDbEntity
  8
AM_0 外形線1
100
AcDbLine
 10
-43.0
 20
689.5
 30
0.0
 11
-36.10000000000037
 21
689.5
 31
0.0
  0
LINE
  5
50F3
330
50C7
100
AcDbEntity
  8
AM_4 細線
100
AcDbLine
 10
38.0
 20
712.0
 30
0.0
 11
-36.10000000000037
 21
712.0
 31
0.0
  0
LINE
  5
50F4
330
50C7
100
AcDbEntity
  8
AM_4 細線
100
AcDbLine
 10
-36.10000000000037
 20
688.0
 30
0.0
 11
38.0
 21
688.0
 31
0.0
  0
LINE
  5
50F5
330
50C7
100
AcDbEntity
  8
AM_0 外形線1
100
AcDbLine
 10
38.0
 20
710.5
 30
0.0
 11
-36.10000000000037
 21
710.5
 31
0.0
  0
LINE
  5
50F6
330
50C7
100
AcDbEntity
  8
AM_0 外形線1
100
AcDbLine
 10
38.0
 20
689.5
 30
0.0
 11
-36.10000000000037
 21
689.5
 31
0.0
  0
LINE
  5
50F7
330
50C7
100
AcDbEntity
  8
AM_7 中心線
100
AcDbLine
 10
-51.56626500000037
 20
700.0
 30
0.0
 11
65.1004019999991
 21
700.0
 31
0.0
  0
LINE
  5
50F8
330
50C7
100
AcDbEntity
  8
AM_0 外形線1
100
AcDbLine
 10
0.0
 20
-725.0
 30
0.0
 11
38.0
 21
-725.0
 31
0.0
  0
LINE
  5
50F9
330
50C7
100
AcDbEntity
  8
AM_0 外形線1
100
AcDbLine
 10
38.0
 20
-725.0
 30
0.0
 11
38.0
 21
0.0
 31
0.0
  0
LINE
  5
5165
330
50C7
100
AcDbEntity
  8
AM_7 中心線
100
AcDbLine
 10
-26.69068395076738
 20
-700.0
 30
0.0
 11
65.1004019999991
 21
-700.0
 31
0.0
  0
LINE
  5
5166
330
50C7
100
AcDbEntity
  8
AM_0 外形線1
100
AcDbLine
 10
0.0
 20
-725.0
 30
0.0
 11
0.0
 21
0.0
 31
0.0
  0
LINE
  5
5167
330
50C7
100
AcDbEntity
  8
AM_0 外形線1
100
AcDbLine
 10
0.0
 20
725.0
 30
0.0
 11
0.0
 21
712.0
 31
0.0
  0
LINE
  5
5168
330
50C7
100
AcDbEntity
  8
AM_0 外形線1
100
AcDbLine
 10
0.0
 20
688.0
 30
0.0
 11
0.0
 21
681.1999999999998
 31
0.0
  0
ENDBLK
  5
50C9
330
50C7
100
AcDbEntity
  8
0
100
AcDbBlockEnd
  0
BLOCK
  5
57DE
330
57DD
100
AcDbEntity
  8
0
100
AcDbBlockBegin
  2
*D13
 70
     1
 10
0.0
 20
0.0
 30
0.0
  3
*D13
  1

  0
LINE
  5
5EF8
330
57DD
100
AcDbEntity
  8
AM_5 寸法線
 62
     3
100
AcDbLine
 10
3082.274607375114
 20
4996.287446027825
 30
0.0
 11
2652.274607375114
 21
4996.287446027825
 31
0.0
  0
LINE
  5
5EF9
330
57DD
100
AcDbEntity
  8
AM_5 寸法線
 62
     3
100
AcDbLine
 10
3082.274607375114
 20
3646.287446027826
 30
0.0
 11
2652.274607375114
 21
3646.287446027826
 31
0.0
  0
LINE
  5
5EFA
330
57DD
100
AcDbEntity
  8
AM_5 寸法線
 62
     3
100
AcDbLine
 10
2664.774607375114
 20
4946.287446027826
 30
0.0
 11
2664.774607375114
 21
3696.287446027826
 31
0.0
  0
INSERT
  5
5EFB
330
57DD
100
AcDbEntity
  8
AM_5 寸法線
 62
     3
100
AcDbBlockReference
  2
_Open30
 10
2664.774607375114
 20
4996.287446027825
 30
0.0
 41
50.0
 42
50.0
 43
50.0
 50
90.0
  0
INSERT
  5
5EFC
330
57DD
100
AcDbEntity
  8
AM_5 寸法線
 62
     3
100
AcDbBlockReference
  2
_Open30
 10
2664.774607375114
 20
3646.287446027826
 30
0.0
 41
50.0
 42
50.0
 43
50.0
 50
270.0
  0
MTEXT
  5
5EFD
330
57DD
100
AcDbEntity
  8
AM_5 寸法線
 62
     3
100
AcDbMText
 10
2599.774607375114
 20
4321.287446027826
 30
0.0
 40
70.0
 41
0.0
 46
0.0
 71
     5
 72
     1
  1
%%c1350
  7
SEISA
 11
0.0000000000000001
 21
1.0
 31
0.0
 73
     1
 44
1.0
  0
POINT
  5
5EFE
330
57DD
100
AcDbEntity
  8
Defpoints
 62
     0
100
AcDbPoint
 10
3094.774607375114
 20
4996.287446027825
 30
0.0
  0
POINT
  5
5EFF
330
57DD
100
AcDbEntity
  8
Defpoints
 62
     0
100
AcDbPoint
 10
3094.774607375114
 20
3646.287446027826
 30
0.0
  0
POINT
  5
5F00
330
57DD
100
AcDbEntity
  8
Defpoints
 62
     0
100
AcDbPoint
 10
2664.774607375114
 20
3646.287446027826
 30
0.0
  0
ENDBLK
  5
57DF
330
57DD
100
AcDbEntity
  8
0
100
AcDbBlockEnd
  0
BLOCK
  5
5812
330
5811
100
AcDbEntity
  8
0
100
AcDbBlockBegin
  2
*D14
 70
     1
 10
0.0
 20
0.0
 30
0.0
  3
*D14
  1

  0
LINE
  5
5F01
330
5811
100
AcDbEntity
  8
AM_5 寸法線
 62
     3
100
AcDbLine
 10
3964.774607375114
 20
4333.787446027826
 30
0.0
 11
3964.774607375114
 21
4461.706823027824
 31
0.0
  0
LINE
  5
5F02
330
5811
100
AcDbEntity
  8
AM_5 寸法線
 62
     3
100
AcDbLine
 10
3064.774607375114
 20
4333.787446027826
 30
0.0
 11
3064.774607375114
 21
4461.706823027824
 31
0.0
  0
LINE
  5
5F03
330
5811
100
AcDbEntity
  8
AM_5 寸法線
 62
     3
100
AcDbLine
 10
3914.774607375115
 20
4449.206823027824
 30
0.0
 11
3114.774607375114
 21
4449.206823027824
 31
0.0
  0
INSERT
  5
5F04
330
5811
100
AcDbEntity
  8
AM_5 寸法線
 62
     3
100
AcDbBlockReference
  2
_Open30
 10
3964.774607375114
 20
4449.206823027824
 30
0.0
 41
50.0
 42
50.0
 43
50.0
  0
INSERT
  5
5F05
330
5811
100
AcDbEntity
  8
AM_5 寸法線
 62
     3
100
AcDbBlockReference
  2
_Open30
 10
3064.774607375114
 20
4449.206823027824
 30
0.0
 41
50.0
 42
50.0
 43
50.0
 50
180.0
  0
MTEXT
  5
5F06
330
5811
100
AcDbEntity
  8
AM_5 寸法線
 62
     3
100
AcDbMText
 10
3514.774607375115
 20
4514.206823027826
 30
0.0
 40
70.0
 41
0.0
 46
0.0
 71
     5
 72
     1
  1
900
  7
SEISA
 73
     1
 44
1.0
  0
POINT
  5
5F07
330
5811
100
AcDbEntity
  8
Defpoints
 62
     0
100
AcDbPoint
 10
3964.774607375114
 20
4321.287446027826
 30
0.0
  0
POINT
  5
5F08
330
5811
100
AcDbEntity
  8
Defpoints
 62
     0
100
AcDbPoint
 10
3064.774607375114
 20
4321.287446027826
 30
0.0
  0
POINT
  5
5F09
330
5811
100
AcDbEntity
  8
Defpoints
 62
     0
100
AcDbPoint
 10
3064.774607375114
 20
4449.206823027824
 30
0.0
  0
ENDBLK
  5
5813
330
5811
100
AcDbEntity
  8
0
100
AcDbBlockEnd
  0
BLOCK
  5
582A
330
5829
100
AcDbEntity
  8
0
100
AcDbBlockBegin
  2
*D15
 70
     1
 10
0.0
 20
0.0
 30
0.0
  3
*D15
  1

  0
LINE
  5
5F0A
330
5829
100
AcDbEntity
  8
AM_5 寸法線
 62
     3
100
AcDbLine
 10
4014.774607375114
 20
4333.787446027826
 30
0.0
 11
4014.774607375114
 21
4461.706823027824
 31
0.0
  0
LINE
  5
5F0B
330
5829
100
AcDbEntity
  8
AM_5 寸法線
 62
     3
100
AcDbLine
 10
3964.774607375114
 20
4333.787446027826
 30
0.0
 11
3964.774607375114
 21
4461.706823027824
 31
0.0
  0
LINE
  5
5F0C
330
5829
100
AcDbEntity
  8
AM_5 寸法線
 62
     3
100
AcDbLine
 10
4064.774607375114
 20
4449.206823027824
 30
0.0
 11
4114.774607375114
 21
4449.206823027824
 31
0.0
  0
LINE
  5
5F0D
330
5829
100
AcDbEntity
  8
AM_5 寸法線
 62
     3
100
AcDbLine
 10
3914.774607375115
 20
4449.206823027824
 30
0.0
 11
3864.774607375114
 21
4449.206823027824
 31
0.0
  0
MTEXT
  5
5F0E
330
5829
100
AcDbEntity
  8
AM_5 寸法線
 62
     3
100
AcDbMText
 10
4142.225969630294
 20
4514.256987219368
 30
0.0
 40
70.0
 41
0.0
 46
0.0
 71
     5
 72
     1
  1
50
  7
SEISA
 73
     1
 44
1.0
  0
LINE
  5
5F0F
330
5829
100
AcDbEntity
  8
AM_5 寸法線
 62
     3
100
AcDbLine
 10
4014.774607375114
 20
4449.206823027824
 30
0.0
 11
3964.774607375114
 21
4449.206823027824
 31
0.0
  0
INSERT
  5
5F10
330
5829
100
AcDbEntity
  8
AM_5 寸法線
 62
     3
100
AcDbBlockReference
  2
_Open30
 10
4014.774607375114
 20
4449.206823027824
 30
0.0
 41
50.0
 42
50.0
 43
50.0
 50
180.0
  0
INSERT
  5
5F11
330
5829
100
AcDbEntity
  8
AM_5 寸法線
 62
     3
100
AcDbBlockReference
  2
_Open30
 10
3964.774607375114
 20
4449.206823027824
 30
0.0
 41
50.0
 42
50.0
 43
50.0
  0
POINT
  5
5F12
330
5829
100
AcDbEntity
  8
Defpoints
 62
     0
100
AcDbPoint
 10
4014.774607375114
 20
4321.287446027826
 30
0.0
  0
POINT
  5
5F13
330
5829
100
AcDbEntity
  8
Defpoints
 62
     0
100
AcDbPoint
 10
3964.774607375114
 20
4321.287446027826
 30
0.0
  0
POINT
  5
5F14
330
5829
100
AcDbEntity
  8
Defpoints
 62
     0
100
AcDbPoint
 10
3964.774607375114
 20
4449.206823027824
 30
0.0
  0
ENDBLK
  5
582B
330
5829
100
AcDbEntity
  8
0
100
AcDbBlockEnd
  0
BLOCK
  5
5867
330
5866
100
AcDbEntity
  8
0
100
AcDbBlockBegin
  2
*D16
 70
     1
 10
0.0
 20
0.0
 30
0.0
  3
*D16
  1

  0
LINE
  5
5F15
330
5866
100
AcDbEntity
  8
AM_5 寸法線
 62
     3
100
AcDbLine
 10
4014.774607375114
 20
4333.787446027826
 30
0.0
 11
4014.774607375114
 21
4461.706823027824
 31
0.0
  0
LINE
  5
5F16
330
5866
100
AcDbEntity
  8
AM_5 寸法線
 62
     3
100
AcDbLine
 10
4914.774607375115
 20
4333.787446027826
 30
0.0
 11
4914.774607375115
 21
4461.706823027824
 31
0.0
  0
LINE
  5
5F17
330
5866
100
AcDbEntity
  8
AM_5 寸法線
 62
     3
100
AcDbLine
 10
4064.774607375114
 20
4449.206823027824
 30
0.0
 11
4864.774607375114
 21
4449.206823027824
 31
0.0
  0
INSERT
  5
5F18
330
5866
100
AcDbEntity
  8
AM_5 寸法線
 62
     3
100
AcDbBlockReference
  2
_Open30
 10
4014.774607375114
 20
4449.206823027824
 30
0.0
 41
50.0
 42
50.0
 43
50.0
 50
180.0
  0
INSERT
  5
5F19
330
5866
100
AcDbEntity
  8
AM_5 寸法線
 62
     3
100
AcDbBlockReference
  2
_Open30
 10
4914.774607375115
 20
4449.206823027824
 30
0.0
 41
50.0
 42
50.0
 43
50.0
  0
MTEXT
  5
5F1A
330
5866
100
AcDbEntity
  8
AM_5 寸法線
 62
     3
100
AcDbMText
 10
4464.774607375113
 20
4514.206823027826
 30
0.0
 40
70.0
 41
0.0
 46
0.0
 71
     5
 72
     1
  1
900
  7
SEISA
 73
     1
 44
1.0
  0
POINT
  5
5F1B
330
5866
100
AcDbEntity
  8
Defpoints
 62
     0
100
AcDbPoint
 10
4014.774607375114
 20
4321.287446027826
 30
0.0
  0
POINT
  5
5F1C
330
5866
100
AcDbEntity
  8
Defpoints
 62
     0
100
AcDbPoint
 10
4914.774607375115
 20
4321.287446027826
 30
0.0
  0
POINT
  5
5F1D
330
5866
100
AcDbEntity
  8
Defpoints
 62
     0
100
AcDbPoint
 10
4914.774607375115
 20
4449.206823027824
 30
0.0
  0
ENDBLK
  5
5868
330
5866
100
AcDbEntity
  8
0
100
AcDbBlockEnd
  0
BLOCK
  5
58A9
330
58A8
100
AcDbEntity
  8
0
100
AcDbBlockBegin
  2
*D17
 70
     1
 10
0.0
 20
0.0
 30
0.0
  3
*D17
  1

  0
LINE
  5
5F1E
330
58A8
100
AcDbEntity
  8
AM_5 寸法線
 62
     3
100
AcDbLine
 10
3989.774607375114
 20
3511.787446027825
 30
0.0
 11
3989.774607375114
 21
3268.787446027825
 31
0.0
  0
LINE
  5
5F1F
330
58A8
100
AcDbEntity
  8
AM_5 寸法線
 62
     3
100
AcDbLine
 10
3919.774607375114
 20
3512.787446027826
 30
0.0
 11
3919.774607375114
 21
3268.787446027825
 31
0.0
  0
LINE
  5
5F20
330
58A8
100
AcDbEntity
  8
AM_5 寸法線
 62
     3
100
AcDbLine
 10
4039.774607375114
 20
3281.287446027825
 30
0.0
 11
4089.774607375114
 21
3281.287446027825
 31
0.0
  0
LINE
  5
5F21
330
58A8
100
AcDbEntity
  8
AM_5 寸法線
 62
     3
100
AcDbLine
 10
3869.774607375114
 20
3281.287446027825
 30
0.0
 11
3657.774607375114
 21
3281.287446027825
 31
0.0
  0
LINE
  5
5F22
330
58A8
100
AcDbEntity
  8
AM_5 寸法線
 62
     3
100
AcDbLine
 10
3989.774607375114
 20
3281.287446027825
 30
0.0
 11
3919.774607375114
 21
3281.287446027825
 31
0.0
  0
INSERT
  5
5F23
330
58A8
100
AcDbEntity
  8
AM_5 寸法線
 62
     3
100
AcDbBlockReference
  2
GENDOT
 10
3989.774607375114
 20
3281.287446027825
 30
0.0
 41
50.0
 42
50.0
 43
50.0
 50
180.0
  0
INSERT
  5
5F24
330
58A8
100
AcDbEntity
  8
AM_5 寸法線
 62
     3
100
AcDbBlockReference
  2
_Open30
 10
3919.774607375114
 20
3281.287446027825
 30
0.0
 41
50.0
 42
50.0
 43
50.0
  0
MTEXT
  5
5F25
330
58A8
100
AcDbEntity
  8
AM_5 寸法線
 62
     3
100
AcDbMText
 10
3738.774607375114
 20
3346.287446027826
 30
0.0
 40
70.0
 41
0.0
 46
0.0
 71
     5
 72
     1
  1
70
  7
SEISA
 73
     1
 44
1.0
  0
POINT
  5
5F26
330
58A8
100
AcDbEntity
  8
Defpoints
 62
     0
100
AcDbPoint
 10
3989.774607375114
 20
3524.287446027825
 30
0.0
  0
POINT
  5
5F27
330
58A8
100
AcDbEntity
  8
Defpoints
 62
     0
100
AcDbPoint
 10
3919.774607375114
 20
3525.287446027826
 30
0.0
  0
POINT
  5
5F28
330
58A8
100
AcDbEntity
  8
Defpoints
 62
     0
100
AcDbPoint
 10
3919.774607375114
 20
3281.287446027825
 30
0.0
  0
ENDBLK
  5
58AA
330
58A8
100
AcDbEntity
  8
0
100
AcDbBlockEnd
  0
BLOCK
  5
58C5
330
58C4
100
AcDbEntity
  8
0
100
AcDbBlockBegin
  2
*D18
 70
     1
 10
0.0
 20
0.0
 30
0.0
  3
*D18
  1

  0
LINE
  5
5F29
330
58C4
100
AcDbEntity
  8
AM_5 寸法線
 62
     3
100
AcDbLine
 10
3989.774607375114
 20
3511.787446027825
 30
0.0
 11
3989.774607375114
 21
3268.787446027825
 31
0.0
  0
LINE
  5
5F2A
330
58C4
100
AcDbEntity
  8
AM_5 寸法線
 62
     3
100
AcDbLine
 10
4059.774607375112
 20
3511.787446027826
 30
0.0
 11
4059.774607375112
 21
3268.787446027825
 31
0.0
  0
LINE
  5
5F2B
330
58C4
100
AcDbEntity
  8
AM_5 寸法線
 62
     3
100
AcDbLine
 10
3939.774607375115
 20
3281.287446027825
 30
0.0
 11
3889.774607375115
 21
3281.287446027825
 31
0.0
  0
LINE
  5
5F2C
330
58C4
100
AcDbEntity
  8
AM_5 寸法線
 62
     3
100
AcDbLine
 10
4109.774607375114
 20
3281.287446027825
 30
0.0
 11
4321.774607375114
 21
3281.287446027825
 31
0.0
  0
LINE
  5
5F2D
330
58C4
100
AcDbEntity
  8
AM_5 寸法線
 62
     3
100
AcDbLine
 10
3989.774607375114
 20
3281.287446027825
 30
0.0
 11
4059.774607375112
 21
3281.287446027825
 31
0.0
  0
INSERT
  5
5F2E
330
58C4
100
AcDbEntity
  8
AM_5 寸法線
 62
     3
100
AcDbBlockReference
  2
GENDOT
 10
3989.774607375114
 20
3281.287446027825
 30
0.0
 41
50.0
 42
50.0
 43
50.0
  0
INSERT
  5
5F2F
330
58C4
100
AcDbEntity
  8
AM_5 寸法線
 62
     3
100
AcDbBlockReference
  2
_Open30
 10
4059.774607375112
 20
3281.287446027825
 30
0.0
 41
50.0
 42
50.0
 43
50.0
 50
180.0
  0
MTEXT
  5
5F30
330
58C4
100
AcDbEntity
  8
AM_5 寸法線
 62
     3
100
AcDbMText
 10
4240.774607375114
 20
3346.287446027826
 30
0.0
 40
70.0
 41
0.0
 46
0.0
 71
     5
 72
     1
  1
70
  7
SEISA
 73
     1
 44
1.0
  0
POINT
  5
5F31
330
58C4
100
AcDbEntity
  8
Defpoints
 62
     0
100
AcDbPoint
 10
3989.774607375114
 20
3524.287446027825
 30
0.0
  0
POINT
  5
5F32
330
58C4
100
AcDbEntity
  8
Defpoints
 62
     0
100
AcDbPoint
 10
4059.774607375112
 20
3524.287446027826
 30
0.0
  0
POINT
  5
5F33
330
58C4
100
AcDbEntity
  8
Defpoints
 62
     0
100
AcDbPoint
 10
4059.774607375112
 20
3281.287446027825
 30
0.0
  0
ENDBLK
  5
58C6
330
58C4
100
AcDbEntity
  8
0
100
AcDbBlockEnd
  0
BLOCK
  5
58E1
330
58E0
100
AcDbEntity
  8
0
100
AcDbBlockBegin
  2
*D19
 70
     1
 10
0.0
 20
0.0
 30
0.0
  3
*D19
  1

  0
LINE
  5
5F34
330
58E0
100
AcDbEntity
  8
AM_5 寸法線
 62
     3
100
AcDbLine
 10
3989.774607375114
 20
3511.787446027825
 30
0.0
 11
3989.774607375114
 21
3108.787446027826
 31
0.0
  0
LINE
  5
5F35
330
58E0
100
AcDbEntity
  8
AM_5 寸法線
 62
     3
100
AcDbLine
 10
3064.774607375114
 20
3663.787446027825
 30
0.0
 11
3064.774607375114
 21
3108.787446027826
 31
0.0
  0
LINE
  5
5F36
330
58E0
100
AcDbEntity
  8
AM_5 寸法線
 62
     3
100
AcDbLine
 10
3939.774607375115
 20
3121.287446027825
 30
0.0
 11
3114.774607375114
 21
3121.287446027825
 31
0.0
  0
INSERT
  5
5F37
330
58E0
100
AcDbEntity
  8
AM_5 寸法線
 62
     3
100
AcDbBlockReference
  2
_Open30
 10
3989.774607375114
 20
3121.287446027825
 30
0.0
 41
50.0
 42
50.0
 43
50.0
  0
INSERT
  5
5F38
330
58E0
100
AcDbEntity
  8
AM_5 寸法線
 62
     3
100
AcDbBlockReference
  2
_Open30
 10
3064.774607375114
 20
3121.287446027825
 30
0.0
 41
50.0
 42
50.0
 43
50.0
 50
180.0
  0
MTEXT
  5
5F39
330
58E0
100
AcDbEntity
  8
AM_5 寸法線
 62
     3
100
AcDbMText
 10
3527.274607375114
 20
3186.287446027825
 30
0.0
 40
70.0
 41
0.0
 46
0.0
 71
     5
 72
     1
  1
925
  7
SEISA
 73
     1
 44
1.0
  0
POINT
  5
5F3A
330
58E0
100
AcDbEntity
  8
Defpoints
 62
     0
100
AcDbPoint
 10
3989.774607375114
 20
3524.287446027825
 30
0.0
  0
POINT
  5
5F3B
330
58E0
100
AcDbEntity
  8
Defpoints
 62
     0
100
AcDbPoint
 10
3064.774607375114
 20
3676.287446027826
 30
0.0
  0
POINT
  5
5F3C
330
58E0
100
AcDbEntity
  8
Defpoints
 62
     0
100
AcDbPoint
 10
3064.774607375114
 20
3121.287446027825
 30
0.0
  0
ENDBLK
  5
58E2
330
58E0
100
AcDbEntity
  8
0
100
AcDbBlockEnd
  0
BLOCK
  5
58F9
330
58F8
100
AcDbEntity
  8
0
100
AcDbBlockBegin
  2
*D20
 70
     1
 10
0.0
 20
0.0
 30
0.0
  3
*D20
  1

  0
LINE
  5
5F3D
330
58F8
100
AcDbEntity
  8
AM_5 寸法線
 62
     3
100
AcDbLine
 10
3989.774607375114
 20
3511.787446027825
 30
0.0
 11
3989.774607375114
 21
3108.787446027826
 31
0.0
  0
LINE
  5
5F3E
330
58F8
100
AcDbEntity
  8
AM_5 寸法線
 62
     3
100
AcDbLine
 10
4492.774607375114
 20
3583.787446027826
 30
0.0
 11
4492.774607375114
 21
3108.787446027826
 31
0.0
  0
LINE
  5
5F3F
330
58F8
100
AcDbEntity
  8
AM_5 寸法線
 62
     3
100
AcDbLine
 10
4039.774607375114
 20
3121.287446027825
 30
0.0
 11
4442.774607375114
 21
3121.287446027825
 31
0.0
  0
INSERT
  5
5F40
330
58F8
100
AcDbEntity
  8
AM_5 寸法線
 62
     3
100
AcDbBlockReference
  2
_Open30
 10
3989.774607375114
 20
3121.287446027825
 30
0.0
 41
50.0
 42
50.0
 43
50.0
 50
180.0
  0
INSERT
  5
5F41
330
58F8
100
AcDbEntity
  8
AM_5 寸法線
 62
     3
100
AcDbBlockReference
  2
_Open30
 10
4492.774607375114
 20
3121.287446027825
 30
0.0
 41
50.0
 42
50.0
 43
50.0
  0
MTEXT
  5
5F42
330
58F8
100
AcDbEntity
  8
AM_5 寸法線
 62
     3
100
AcDbMText
 10
4241.274607375114
 20
3186.287446027825
 30
0.0
 40
70.0
 41
0.0
 46
0.0
 71
     5
 72
     1
  1
503
  7
SEISA
 73
     1
 44
1.0
  0
POINT
  5
5F43
330
58F8
100
AcDbEntity
  8
Defpoints
 62
     0
100
AcDbPoint
 10
3989.774607375114
 20
3524.287446027825
 30
0.0
  0
POINT
  5
5F44
330
58F8
100
AcDbEntity
  8
Defpoints
 62
     0
100
AcDbPoint
 10
4492.774607375114
 20
3596.287446027826
 30
0.0
  0
POINT
  5
5F45
330
58F8
100
AcDbEntity
  8
Defpoints
 62
     0
100
AcDbPoint
 10
4492.774607375114
 20
3121.287446027825
 30
0.0
  0
ENDBLK
  5
58FA
330
58F8
100
AcDbEntity
  8
0
100
AcDbBlockEnd
  0
BLOCK
  5
5911
330
5910
100
AcDbEntity
  8
0
100
AcDbBlockBegin
  2
*D21
 70
     1
 10
0.0
 20
0.0
 30
0.0
  3
*D21
  1

  0
LINE
  5
5F46
330
5910
100
AcDbEntity
  8
AM_5 寸法線
 62
     3
100
AcDbLine
 10
4492.774607375114
 20
3583.787446027826
 30
0.0
 11
4492.774607375114
 21
3108.787446027826
 31
0.0
  0
LINE
  5
5F47
330
5910
100
AcDbEntity
  8
AM_5 寸法線
 62
     3
100
AcDbLine
 10
4914.774607375115
 20
3710.787446027826
 30
0.0
 11
4914.774607375115
 21
3108.787446027826
 31
0.0
  0
LINE
  5
5F48
330
5910
100
AcDbEntity
  8
AM_5 寸法線
 62
     3
100
AcDbLine
 10
4542.774607375114
 20
3121.287446027825
 30
0.0
 11
4864.774607375114
 21
3121.287446027825
 31
0.0
  0
INSERT
  5
5F49
330
5910
100
AcDbEntity
  8
AM_5 寸法線
 62
     3
100
AcDbBlockReference
  2
_Open30
 10
4492.774607375114
 20
3121.287446027825
 30
0.0
 41
50.0
 42
50.0
 43
50.0
 50
180.0
  0
INSERT
  5
5F4A
330
5910
100
AcDbEntity
  8
AM_5 寸法線
 62
     3
100
AcDbBlockReference
  2
_Open30
 10
4914.774607375115
 20
3121.287446027825
 30
0.0
 41
50.0
 42
50.0
 43
50.0
  0
MTEXT
  5
5F4B
330
5910
100
AcDbEntity
  8
AM_5 寸法線
 62
     3
100
AcDbMText
 10
4703.774607375112
 20
3186.287446027825
 30
0.0
 40
70.0
 41
0.0
 46
0.0
 71
     5
 72
     1
  1
422
  7
SEISA
 73
     1
 44
1.0
  0
POINT
  5
5F4C
330
5910
100
AcDbEntity
  8
Defpoints
 62
     0
100
AcDbPoint
 10
4492.774607375114
 20
3596.287446027826
 30
0.0
  0
POINT
  5
5F4D
330
5910
100
AcDbEntity
  8
Defpoints
 62
     0
100
AcDbPoint
 10
4914.774607375115
 20
3723.287446027825
 30
0.0
  0
POINT
  5
5F4E
330
5910
100
AcDbEntity
  8
Defpoints
 62
     0
100
AcDbPoint
 10
4914.774607375115
 20
3121.287446027825
 30
0.0
  0
ENDBLK
  5
5912
330
5910
100
AcDbEntity
  8
0
100
AcDbBlockEnd
  0
BLOCK
  5
5929
330
5928
100
AcDbEntity
  8
0
100
AcDbBlockBegin
  2
*D22
 70
     1
 10
0.0
 20
0.0
 30
0.0
  3
*D22
  1

  0
LINE
  5
5F4F
330
5928
100
AcDbEntity
  8
AM_5 寸法線
 62
     3
100
AcDbLine
 10
4914.774607375115
 20
3710.787446027826
 30
0.0
 11
4914.774607375115
 21
2948.787446027825
 31
0.0
  0
LINE
  5
5F50
330
5928
100
AcDbEntity
  8
AM_5 寸法線
 62
     3
100
AcDbLine
 10
3064.774607375114
 20
3663.787446027825
 30
0.0
 11
3064.774607375114
 21
2948.787446027825
 31
0.0
  0
LINE
  5
5F51
330
5928
100
AcDbEntity
  8
AM_5 寸法線
 62
     3
100
AcDbLine
 10
4864.774607375114
 20
2961.287446027825
 30
0.0
 11
3114.774607375114
 21
2961.287446027825
 31
0.0
  0
INSERT
  5
5F52
330
5928
100
AcDbEntity
  8
AM_5 寸法線
 62
     3
100
AcDbBlockReference
  2
_Open30
 10
4914.774607375115
 20
2961.287446027825
 30
0.0
 41
50.0
 42
50.0
 43
50.0
  0
INSERT
  5
5F53
330
5928
100
AcDbEntity
  8
AM_5 寸法線
 62
     3
100
AcDbBlockReference
  2
_Open30
 10
3064.774607375114
 20
2961.287446027825
 30
0.0
 41
50.0
 42
50.0
 43
50.0
 50
180.0
  0
MTEXT
  5
5F54
330
5928
100
AcDbEntity
  8
AM_5 寸法線
 62
     3
100
AcDbMText
 10
3989.774607375114
 20
3026.287446027826
 30
0.0
 40
70.0
 41
0.0
 46
0.0
 71
     5
 72
     1
  1
1850
  7
SEISA
 73
     1
 44
1.0
  0
POINT
  5
5F55
330
5928
100
AcDbEntity
  8
Defpoints
 62
     0
100
AcDbPoint
 10
4914.774607375115
 20
3723.287446027825
 30
0.0
  0
POINT
  5
5F56
330
5928
100
AcDbEntity
  8
Defpoints
 62
     0
100
AcDbPoint
 10
3064.774607375114
 20
3676.287446027826
 30
0.0
  0
POINT
  5
5F57
330
5928
100
AcDbEntity
  8
Defpoints
 62
     0
100
AcDbPoint
 10
3064.774607375114
 20
2961.287446027825
 30
0.0
  0
ENDBLK
  5
592A
330
5928
100
AcDbEntity
  8
0
100
AcDbBlockEnd
  0
BLOCK
  5
5B0E
330
5B0D
100
AcDbEntity
  8
0
100
AcDbBlockBegin
  2
*D23
 70
     1
 10
0.0
 20
0.0
 30
0.0
  3
*D23
  1

  0
LINE
  5
6976
330
5B0D
100
AcDbEntity
  8
AM_5 寸法線
 62
     3
100
AcDbLine
 10
4446.774607375114
 20
4938.787446027824
 30
0.0
 11
4446.774607375114
 21
4759.337929605528
 31
0.0
  0
LINE
  5
6977
330
5B0D
100
AcDbEntity
  8
AM_5 寸法線
 62
     3
100
AcDbLine
 10
4428.774607375114
 20
4939.287446027826
 30
0.0
 11
4428.774607375114
 21
4759.337929605528
 31
0.0
  0
LINE
  5
6978
330
5B0D
100
AcDbEntity
  8
AM_5 寸法線
 62
     3
100
AcDbLine
 10
4378.774607375114
 20
4771.837929605527
 30
0.0
 11
4328.774607375114
 21
4771.837929605527
 31
0.0
  0
LINE
  5
6979
330
5B0D
100
AcDbEntity
  8
AM_5 寸法線
 62
     3
100
AcDbLine
 10
4496.774607375114
 20
4771.837929605527
 30
0.0
 11
4699.774607375114
 21
4771.837929605527
 31
0.0
  0
LINE
  5
697A
330
5B0D
100
AcDbEntity
  8
AM_5 寸法線
 62
     3
100
AcDbLine
 10
4428.774607375114
 20
4771.837929605527
 30
0.0
 11
4446.774607375114
 21
4771.837929605527
 31
0.0
  0
INSERT
  5
697B
330
5B0D
100
AcDbEntity
  8
AM_5 寸法線
 62
     3
100
AcDbBlockReference
  2
_Open30
 10
4428.774607375114
 20
4771.837929605527
 30
0.0
 41
50.0
 42
50.0
 43
50.0
  0
INSERT
  5
697C
330
5B0D
100
AcDbEntity
  8
AM_5 寸法線
 62
     3
100
AcDbBlockReference
  2
_Open30
 10
4446.774607375114
 20
4771.837929605527
 30
0.0
 41
50.0
 42
50.0
 43
50.0
 50
180.0
  0
MTEXT
  5
697D
330
5B0D
100
AcDbEntity
  8
AM_5 寸法線
 62
     3
100
AcDbMText
 10
4623.274607375114
 20
4836.837929605526
 30
0.0
 40
70.0
 41
0.0
 46
0.0
 71
     5
 72
     1
  1
18
  7
SEISA
 73
     1
 44
1.0
  0
POINT
  5
697E
330
5B0D
100
AcDbEntity
  8
Defpoints
 62
     0
100
AcDbPoint
 10
4446.774607375114
 20
4951.287446027826
 30
0.0
  0
POINT
  5
697F
330
5B0D
100
AcDbEntity
  8
Defpoints
 62
     0
100
AcDbPoint
 10
4428.774607375114
 20
4951.787446027824
 30
0.0
  0
POINT
  5
6980
330
5B0D
100
AcDbEntity
  8
Defpoints
 62
     0
100
AcDbPoint
 10
4428.774607375114
 20
4771.837929605527
 30
0.0
  0
ENDBLK
  5
5B0F
330
5B0D
100
AcDbEntity
  8
0
100
AcDbBlockEnd
  0
BLOCK
  5
5BB3
330
5BB2
100
AcDbEntity
  8
0
100
AcDbBlockBegin
  2
*D24
 70
     1
 10
0.0
 20
0.0
 30
0.0
  3
*D24
  1

  0
LINE
  5
5F80
330
5BB2
100
AcDbEntity
  8
AM_5 寸法線
 62
     3
100
AcDbLine
 10
4555.274607375114
 20
4951.287446027826
 30
0.0
 11
5327.274607375113
 21
4951.287446027826
 31
0.0
  0
LINE
  5
5F81
330
5BB2
100
AcDbEntity
  8
AM_5 寸法線
 62
     3
100
AcDbLine
 10
4555.274607375114
 20
3691.287446027825
 30
0.0
 11
5327.274607375113
 21
3691.287446027825
 31
0.0
  0
LINE
  5
5F82
330
5BB2
100
AcDbEntity
  8
AM_5 寸法線
 62
     3
100
AcDbLine
 10
5314.774607375113
 20
4901.287446027826
 30
0.0
 11
5314.774607375113
 21
3741.287446027826
 31
0.0
  0
INSERT
  5
5F83
330
5BB2
100
AcDbEntity
  8
AM_5 寸法線
 62
     3
100
AcDbBlockReference
  2
_Open30
 10
5314.774607375113
 20
4951.287446027826
 30
0.0
 41
50.0
 42
50.0
 43
50.0
 50
90.0
  0
INSERT
  5
5F84
330
5BB2
100
AcDbEntity
  8
AM_5 寸法線
 62
     3
100
AcDbBlockReference
  2
_Open30
 10
5314.774607375113
 20
3691.287446027825
 30
0.0
 41
50.0
 42
50.0
 43
50.0
 50
270.0
  0
MTEXT
  5
5F85
330
5BB2
100
AcDbEntity
  8
AM_5 寸法線
 62
     3
100
AcDbMText
 10
5249.774607375112
 20
4321.287446027826
 30
0.0
 40
70.0
 41
0.0
 46
0.0
 71
     5
 72
     1
  1
%%c1260
  7
SEISA
 11
0.0000000000000001
 21
1.0
 31
0.0
 73
     1
 44
1.0
  0
POINT
  5
5F86
330
5BB2
100
AcDbEntity
  8
Defpoints
 62
     0
100
AcDbPoint
 10
4542.774607375114
 20
4951.287446027826
 30
0.0
  0
POINT
  5
5F87
330
5BB2
100
AcDbEntity
  8
Defpoints
 62
     0
100
AcDbPoint
 10
4542.774607375114
 20
3691.287446027825
 30
0.0
  0
POINT
  5
5F88
330
5BB2
100
AcDbEntity
  8
Defpoints
 62
     0
100
AcDbPoint
 10
5314.774607375113
 20
3691.287446027825
 30
0.0
  0
ENDBLK
  5
5BB4
330
5BB2
100
AcDbEntity
  8
0
100
AcDbBlockEnd
  0
BLOCK
  5
5BCB
330
5BCA
100
AcDbEntity
  8
0
100
AcDbBlockBegin
  2
*D25
 70
     1
 10
0.0
 20
0.0
 30
0.0
  3
*D25
  1

  0
LINE
  5
5F89
330
5BCA
100
AcDbEntity
  8
AM_5 寸法線
 62
     3
100
AcDbLine
 10
4505.274607375114
 20
5046.287446027824
 30
0.0
 11
5487.274607375114
 21
5046.287446027824
 31
0.0
  0
LINE
  5
5F8A
330
5BCA
100
AcDbEntity
  8
AM_5 寸法線
 62
     3
100
AcDbLine
 10
4505.274607375114
 20
3596.287446027826
 30
0.0
 11
5487.274607375114
 21
3596.287446027825
 31
0.0
  0
LINE
  5
5F8B
330
5BCA
100
AcDbEntity
  8
AM_5 寸法線
 62
     3
100
AcDbLine
 10
5474.774607375114
 20
4996.287446027825
 30
0.0
 11
5474.774607375114
 21
3646.287446027825
 31
0.0
  0
INSERT
  5
5F8C
330
5BCA
100
AcDbEntity
  8
AM_5 寸法線
 62
     3
100
AcDbBlockReference
  2
_Open30
 10
5474.774607375114
 20
5046.287446027824
 30
0.0
 41
50.0
 42
50.0
 43
50.0
 50
90.0
  0
INSERT
  5
5F8D
330
5BCA
100
AcDbEntity
  8
AM_5 寸法線
 62
     3
100
AcDbBlockReference
  2
_Open30
 10
5474.774607375114
 20
3596.287446027825
 30
0.0
 41
50.0
 42
50.0
 43
50.0
 50
270.0
  0
MTEXT
  5
5F8E
330
5BCA
100
AcDbEntity
  8
AM_5 寸法線
 62
     3
100
AcDbMText
 10
5409.774607375113
 20
4321.287446027826
 30
0.0
 40
70.0
 41
0.0
 46
0.0
 71
     5
 72
     1
  1
%%c1450
  7
SEISA
 11
0.0000000000000001
 21
1.0
 31
0.0
 73
     1
 44
1.0
  0
POINT
  5
5F8F
330
5BCA
100
AcDbEntity
  8
Defpoints
 62
     0
100
AcDbPoint
 10
4492.774607375114
 20
5046.287446027824
 30
0.0
  0
POINT
  5
5F90
330
5BCA
100
AcDbEntity
  8
Defpoints
 62
     0
100
AcDbPoint
 10
4492.774607375114
 20
3596.287446027826
 30
0.0
  0
POINT
  5
5F91
330
5BCA
100
AcDbEntity
  8
Defpoints
 62
     0
100
AcDbPoint
 10
5474.774607375114
 20
3596.287446027825
 30
0.0
  0
ENDBLK
  5
5BCC
330
5BCA
100
AcDbEntity
  8
0
100
AcDbBlockEnd
  0
BLOCK
  5
5BE3
330
5BE2
100
AcDbEntity
  8
0
100
AcDbBlockBegin
  2
*D26
 70
     1
 10
0.0
 20
0.0
 30
0.0
  3
*D26
  1

  0
LINE
  5
5F92
330
5BE2
100
AcDbEntity
  8
AM_5 寸法線
 62
     3
100
AcDbLine
 10
4069.274607375114
 20
5121.287446027825
 30
0.0
 11
5647.274607375113
 21
5121.287446027825
 31
0.0
  0
LINE
  5
5F93
330
5BE2
100
AcDbEntity
  8
AM_5 寸法線
 62
     3
100
AcDbLine
 10
4069.274607375114
 20
3521.287446027826
 30
0.0
 11
5647.274607375113
 21
3521.287446027825
 31
0.0
  0
LINE
  5
5F94
330
5BE2
100
AcDbEntity
  8
AM_5 寸法線
 62
     3
100
AcDbLine
 10
5634.774607375113
 20
5071.287446027826
 30
0.0
 11
5634.774607375113
 21
3571.287446027825
 31
0.0
  0
INSERT
  5
5F95
330
5BE2
100
AcDbEntity
  8
AM_5 寸法線
 62
     3
100
AcDbBlockReference
  2
_Open30
 10
5634.774607375113
 20
5121.287446027825
 30
0.0
 41
50.0
 42
50.0
 43
50.0
 50
90.0
  0
INSERT
  5
5F96
330
5BE2
100
AcDbEntity
  8
AM_5 寸法線
 62
     3
100
AcDbBlockReference
  2
_Open30
 10
5634.774607375113
 20
3521.287446027825
 30
0.0
 41
50.0
 42
50.0
 43
50.0
 50
270.0
  0
MTEXT
  5
5F97
330
5BE2
100
AcDbEntity
  8
AM_5 寸法線
 62
     3
100
AcDbMText
 10
5569.774607375113
 20
4321.287446027826
 30
0.0
 40
70.0
 41
0.0
 46
0.0
 71
     5
 72
     1
  1
%%c1600
  7
SEISA
 11
0.0000000000000001
 21
1.0
 31
0.0
 73
     1
 44
1.0
  0
POINT
  5
5F98
330
5BE2
100
AcDbEntity
  8
Defpoints
 62
     0
100
AcDbPoint
 10
4056.774607375114
 20
5121.287446027825
 30
0.0
  0
POINT
  5
5F99
330
5BE2
100
AcDbEntity
  8
Defpoints
 62
     0
100
AcDbPoint
 10
4056.774607375114
 20
3521.287446027826
 30
0.0
  0
POINT
  5
5F9A
330
5BE2
100
AcDbEntity
  8
Defpoints
 62
     0
100
AcDbPoint
 10
5634.774607375113
 20
3521.287446027825
 30
0.0
  0
ENDBLK
  5
5BE4
330
5BE2
100
AcDbEntity
  8
0
100
AcDbBlockEnd
  0
BLOCK
  5
68AB
330
68AA
100
AcDbEntity
  8
0
100
AcDbBlockBegin
  2
*D27
 70
     1
 10
0.0
 20
0.0
 30
0.0
  3
*D27
  1

  0
LINE
  5
68D0
330
68AA
100
AcDbEntity
  8
AM_5 寸法線
 62
     3
100
AcDbLine
 10
4914.774607375115
 20
4931.787446027826
 30
0.0
 11
4914.774607375115
 21
5240.413427660011
 31
0.0
  0
LINE
  5
68D1
330
68AA
100
AcDbEntity
  8
AM_5 寸法線
 62
     3
100
AcDbLine
 10
5014.774607375113
 20
5058.787446027825
 30
0.0
 11
5014.774607375113
 21
5240.413427660011
 31
0.0
  0
LINE
  5
68D2
330
68AA
100
AcDbEntity
  8
AM_5 寸法線
 62
     3
100
AcDbLine
 10
4864.774607375114
 20
5227.913427660011
 30
0.0
 11
4814.774607375113
 21
5227.913427660011
 31
0.0
  0
LINE
  5
68D3
330
68AA
100
AcDbEntity
  8
AM_5 寸法線
 62
     3
100
AcDbLine
 10
5064.774607375113
 20
5227.913427660011
 30
0.0
 11
5327.774607375113
 21
5227.913427660011
 31
0.0
  0
LINE
  5
68D4
330
68AA
100
AcDbEntity
  8
AM_5 寸法線
 62
     3
100
AcDbLine
 10
4914.774607375115
 20
5227.913427660011
 30
0.0
 11
5014.774607375113
 21
5227.913427660011
 31
0.0
  0
INSERT
  5
68D5
330
68AA
100
AcDbEntity
  8
AM_5 寸法線
 62
     3
100
AcDbBlockReference
  2
_Open30
 10
4914.774607375115
 20
5227.913427660011
 30
0.0
 41
50.0
 42
50.0
 43
50.0
  0
INSERT
  5
68D6
330
68AA
100
AcDbEntity
  8
AM_5 寸法線
 62
     3
100
AcDbBlockReference
  2
_Open30
 10
5014.774607375113
 20
5227.913427660011
 30
0.0
 41
50.0
 42
50.0
 43
50.0
 50
180.0
  0
MTEXT
  5
68D7
330
68AA
100
AcDbEntity
  8
AM_5 寸法線
 62
     3
100
AcDbMText
 10
5221.274607375113
 20
5292.91342766001
 30
0.0
 40
70.0
 41
0.0
 46
0.0
 71
     5
 72
     1
  1
100
  7
SEISA
 73
     1
 44
1.0
  0
POINT
  5
68D8
330
68AA
100
AcDbEntity
  8
Defpoints
 62
     0
100
AcDbPoint
 10
4914.774607375115
 20
4919.287446027825
 30
0.0
  0
POINT
  5
68D9
330
68AA
100
AcDbEntity
  8
Defpoints
 62
     0
100
AcDbPoint
 10
5014.774607375113
 20
5046.287446027824
 30
0.0
  0
POINT
  5
68DA
330
68AA
100
AcDbEntity
  8
Defpoints
 62
     0
100
AcDbPoint
 10
5014.774607375113
 20
5227.913427660011
 30
0.0
  0
ENDBLK
  5
68AC
330
68AA
100
AcDbEntity
  8
0
100
AcDbBlockEnd
  0
BLOCK
  5
68E0
330
68DF
100
AcDbEntity
  8
0
100
AcDbBlockBegin
  2
*D28
 70
     1
 10
0.0
 20
0.0
 30
0.0
  3
*D28
  1

  0
LINE
  5
6944
330
68DF
100
AcDbEntity
  8
AM_5 寸法線
 62
     3
100
AcDbLine
 10
4014.774607375114
 20
4932.787446027824
 30
0.0
 11
4014.774607375114
 21
4759.33792960553
 31
0.0
  0
LINE
  5
6945
330
68DF
100
AcDbEntity
  8
AM_5 寸法線
 62
     3
100
AcDbLine
 10
4231.774607375114
 20
4939.287446027826
 30
0.0
 11
4231.774607375114
 21
4759.33792960553
 31
0.0
  0
LINE
  5
6946
330
68DF
100
AcDbEntity
  8
AM_5 寸法線
 62
     3
100
AcDbLine
 10
3964.774607375114
 20
4771.83792960553
 30
0.0
 11
3914.774607375115
 21
4771.83792960553
 31
0.0
  0
LINE
  5
6947
330
68DF
100
AcDbEntity
  8
AM_5 寸法線
 62
     3
100
AcDbLine
 10
4281.774607375115
 20
4771.83792960553
 30
0.0
 11
4331.774607375114
 21
4771.83792960553
 31
0.0
  0
MTEXT
  5
6948
330
68DF
100
AcDbEntity
  8
AM_5 寸法線
 62
     3
100
AcDbMText
 10
4127.875336889515
 20
4822.774512366041
 30
0.0
 40
70.0
 41
0.0
 46
0.0
 71
     5
 72
     1
  1
217
  7
SEISA
 73
     1
 44
1.0
  0
LINE
  5
6949
330
68DF
100
AcDbEntity
  8
AM_5 寸法線
 62
     3
100
AcDbLine
 10
4014.774607375114
 20
4771.83792960553
 30
0.0
 11
4231.774607375114
 21
4771.83792960553
 31
0.0
  0
INSERT
  5
694A
330
68DF
100
AcDbEntity
  8
AM_5 寸法線
 62
     3
100
AcDbBlockReference
  2
_Open30
 10
4014.774607375114
 20
4771.83792960553
 30
0.0
 41
50.0
 42
50.0
 43
50.0
  0
INSERT
  5
694B
330
68DF
100
AcDbEntity
  8
AM_5 寸法線
 62
     3
100
AcDbBlockReference
  2
_Open30
 10
4231.774607375114
 20
4771.83792960553
 30
0.0
 41
50.0
 42
50.0
 43
50.0
 50
180.0
  0
POINT
  5
694C
330
68DF
100
AcDbEntity
  8
Defpoints
 62
     0
100
AcDbPoint
 10
4014.774607375114
 20
4945.287446027824
 30
0.0
  0
POINT
  5
694D
330
68DF
100
AcDbEntity
  8
Defpoints
 62
     0
100
AcDbPoint
 10
4231.774607375114
 20
4951.787446027824
 30
0.0
  0
POINT
  5
694E
330
68DF
100
AcDbEntity
  8
Defpoints
 62
     0
100
AcDbPoint
 10
4231.774607375114
 20
4771.83792960553
 30
0.0
  0
ENDBLK
  5
68E1
330
68DF
100
AcDbEntity
  8
0
100
AcDbBlockEnd
  0
BLOCK
  5
690E
330
690D
100
AcDbEntity
  8
0
100
AcDbBlockBegin
  2
*D29
 70
     1
 10
0.0
 20
0.0
 30
0.0
  3
*D29
  1

  0
LINE
  5
696D
330
690D
100
AcDbEntity
  8
AM_5 寸法線
 62
     3
100
AcDbLine
 10
4231.774607375114
 20
4939.287446027826
 30
0.0
 11
4231.774607375114
 21
4759.337929605528
 31
0.0
  0
LINE
  5
696E
330
690D
100
AcDbEntity
  8
AM_5 寸法線
 62
     3
100
AcDbLine
 10
4428.774607375114
 20
4939.287446027826
 30
0.0
 11
4428.774607375114
 21
4759.337929605528
 31
0.0
  0
LINE
  5
696F
330
690D
100
AcDbEntity
  8
AM_5 寸法線
 62
     3
100
AcDbLine
 10
4281.774607375115
 20
4771.837929605527
 30
0.0
 11
4378.774607375114
 21
4771.837929605527
 31
0.0
  0
MTEXT
  5
6970
330
690D
100
AcDbEntity
  8
AM_5 寸法線
 62
     3
100
AcDbMText
 10
4326.368001878704
 20
4827.541987738508
 30
0.0
 40
70.0
 41
0.0
 46
0.0
 71
     5
 72
     1
  1
197
  7
SEISA
 73
     1
 44
1.0
  0
INSERT
  5
6971
330
690D
100
AcDbEntity
  8
AM_5 寸法線
 62
     3
100
AcDbBlockReference
  2
_Open30
 10
4231.774607375114
 20
4771.837929605527
 30
0.0
 41
50.0
 42
50.0
 43
50.0
 50
180.0
  0
INSERT
  5
6972
330
690D
100
AcDbEntity
  8
AM_5 寸法線
 62
     3
100
AcDbBlockReference
  2
_Open30
 10
4428.774607375114
 20
4771.837929605527
 30
0.0
 41
50.0
 42
50.0
 43
50.0
  0
POINT
  5
6973
330
690D
100
AcDbEntity
  8
Defpoints
 62
     0
100
AcDbPoint
 10
4231.774607375114
 20
4951.787446027824
 30
0.0
  0
POINT
  5
6974
330
690D
100
AcDbEntity
  8
Defpoints
 62
     0
100
AcDbPoint
 10
4428.774607375114
 20
4951.787446027824
 30
0.0
  0
POINT
  5
6975
330
690D
100
AcDbEntity
  8
Defpoints
 62
     0
100
AcDbPoint
 10
4428.774607375114
 20
4771.837929605527
 30
0.0
  0
ENDBLK
  5
690F
330
690D
100
AcDbEntity
  8
0
100
AcDbBlockEnd
  0
BLOCK
  5
6A8E
330
6A8D
100
AcDbEntity
  8
0
100
AcDbBlockBegin
  2
ＧＣサイドカバ－ CEM1600
 70
     0
 10
0.0
 20
0.0
 30
0.0
  3
ＧＣサイドカバ－ CEM1600
  1

  0
LINE
  5
6A90
330
6A8D
100
AcDbEntity
  8
AM_11 想像線
 48
0.1
100
AcDbLine
 10
-38.0
 20
0.0000000000009095
 30
0.0
 11
0.0
 21
0.0
 31
0.0
  0
LINE
  5
6A91
330
6A8D
100
AcDbEntity
  8
AM_11 想像線
 48
0.1
100
AcDbLine
 10
-46.0
 20
-51.0
 30
0.0
 11
-33.41000000000077
 21
-51.0
 31
0.0
  0
LINE
  5
6A92
330
6A8D
100
AcDbEntity
  8
AM_11 想像線
 48
0.1
100
AcDbLine
 10
-33.41000000000077
 20
-51.0
 30
0.0
 11
-33.41000000000077
 21
-43.80000000000018
 31
0.0
  0
LINE
  5
6A93
330
6A8D
100
AcDbEntity
  8
AM_11 想像線
 48
0.1
100
AcDbLine
 10
-33.41000000000077
 20
-43.80000000000018
 30
0.0
 11
-38.0
 21
-43.80000000000018
 31
0.0
  0
LINE
  5
6A94
330
6A8D
100
AcDbEntity
  8
AM_11 想像線
 48
0.1
100
AcDbLine
 10
0.0
 20
0.0
 30
0.0
 11
0.0
 21
-95.0
 31
0.0
  0
LINE
  5
6A95
330
6A8D
100
AcDbEntity
  8
AM_11 想像線
 48
0.1
100
AcDbLine
 10
-9.0
 20
-92.0
 30
0.0
 11
-9.0
 21
-95.0
 31
0.0
  0
LINE
  5
6A96
330
6A8D
100
AcDbEntity
  8
AM_11 想像線
 48
0.1
100
AcDbLine
 10
-37.0
 20
-92.0
 30
0.0
 11
-37.0
 21
-95.0
 31
0.0
  0
LINE
  5
6A97
330
6A8D
100
AcDbEntity
  8
AM_11 想像線
 48
0.1
100
AcDbLine
 10
-46.0
 20
-92.0
 30
0.0
 11
-46.0
 21
-95.0
 31
0.0
  0
LINE
  5
6A98
330
6A8D
100
AcDbEntity
  8
AM_11 想像線
 48
0.1
100
AcDbLine
 10
0.0
 20
-92.0
 30
0.0
 11
-9.0
 21
-92.0
 31
0.0
  0
LINE
  5
6A99
330
6A8D
100
AcDbEntity
  8
AM_11 想像線
 48
0.1
100
AcDbLine
 10
-9.0
 20
-92.0
 30
0.0
 11
-9.0
 21
-78.35000000000036
 31
0.0
  0
LINE
  5
6A9A
330
6A8D
100
AcDbEntity
  8
AM_11 想像線
 48
0.1
100
AcDbLine
 10
-9.0
 20
-78.35000000000036
 30
0.0
 11
-37.0
 21
-78.35000000000036
 31
0.0
  0
LINE
  5
6A9B
330
6A8D
100
AcDbEntity
  8
AM_11 想像線
 48
0.1
100
AcDbLine
 10
-37.0
 20
-78.35000000000036
 30
0.0
 11
-37.0
 21
-92.0
 31
0.0
  0
LINE
  5
6A9C
330
6A8D
100
AcDbEntity
  8
AM_11 想像線
 48
0.1
100
AcDbLine
 10
-37.0
 20
-92.0
 30
0.0
 11
-46.0
 21
-92.0
 31
0.0
  0
LINE
  5
6A9D
330
6A8D
100
AcDbEntity
  8
AM_11 想像線
 48
0.1
100
AcDbLine
 10
-46.0
 20
-92.0
 30
0.0
 11
-46.0
 21
-51.0
 31
0.0
  0
LINE
  5
6A9E
330
6A8D
100
AcDbEntity
  8
AM_11 想像線
 48
0.1
100
AcDbLine
 10
-46.0
 20
-25.0
 30
0.0
 11
9.476876662272843
 21
-25.0
 31
0.0
  0
LINE
  5
6A9F
330
6A8D
100
AcDbEntity
  8
AM_11 想像線
 48
0.1
100
AcDbLine
 10
-38.0
 20
0.0
 30
0.0
 11
-38.0
 21
-43.80000000000018
 31
0.0
  0
ENDBLK
  5
6A8F
330
6A8D
100
AcDbEntity
  8
0
100
AcDbBlockEnd
  0
ENDSEC
  0
SECTION
  2
ENTITIES
  0
LINE
  5
4498
330
1F
100
AcDbEntity
  8
AM_0 外形線1
100
AcDbLine
 10
4059.774607375112
 20
5118.287446027824
 30
0.0
 11
4059.774607375112
 21
5102.787446027825
 31
0.0
  0
LINE
  5
44C3
330
1F
100
AcDbEntity
  8
AM_0 外形線1
100
AcDbLine
 10
4056.774607375114
 20
5102.787446027825
 30
0.0
 11
3923.774607375114
 21
5102.787446027825
 31
0.0
  0
LINE
  5
44C4
330
1F
100
AcDbEntity
  8
AM_0 外形線1
100
AcDbLine
 10
3923.774607375114
 20
5058.787446027825
 30
0.0
 11
4056.774607375114
 21
5058.787446027825
 31
0.0
  0
LINE
  5
44FF
330
1F
100
AcDbEntity
  8
AM_0 外形線1
100
AcDbLine
 10
3877.774607375114
 20
5048.287446027824
 30
0.0
 11
3880.661359375114
 21
5043.287446027824
 31
0.0
  0
LINE
  5
4533
330
1F
100
AcDbEntity
  8
AM_7 中心線
100
AcDbLine
 10
4973.891593198175
 20
4321.287446027826
 30
0.0
 11
3004.539079375114
 21
4321.287446027826
 31
0.0
  0
INSERT
  5
4BC3
102
{ACAD_REACTORS
330
58C2
330
58DE
330
58F6
330
590E
330
5BF8
102
}
330
1F
100
AcDbEntity
  8
AM_0 外形線1
100
AcDbBlockReference
  2
ケースＡ CEMH1600
 10
3989.774607375114
 20
4321.287446027826
 30
0.0
  0
INSERT
  5
4CFF
102
{ACAD_REACTORS
330
57F3
330
5827
330
5843
330
58C2
330
58F6
330
593E
102
}
330
1F
100
AcDbEntity
  8
AM_0 外形線1
100
AcDbBlockReference
  2
リジット CEMH1600
 10
3989.774607375114
 20
4321.287446027826
 30
0.0
  0
INSERT
  5
4E8E
102
{ACAD_REACTORS
330
5843
330
587C
330
5926
330
593E
330
5B27
330
5BC8
330
68B9
330
68ED
102
}
330
1F
100
AcDbEntity
  8
AM_0 外形線1
100
AcDbBlockReference
  2
センタ CEMH1600
 10
4014.774607375114
 20
4321.287446027826
 30
0.0
  0
INSERT
  5
4FDB
330
1F
100
AcDbEntity
  8
AM_0 外形線1
100
AcDbBlockReference
  2
リーマボルト CEMH1600 M42
 10
4059.774607375112
 20
5080.787446027827
 30
0.0
  0
INSERT
  5
50FB
102
{ACAD_REACTORS
330
590E
330
5926
330
5B27
330
5BE0
102
}
330
1F
100
AcDbEntity
  8
AM_0 外形線1
100
AcDbBlockReference
  2
ＧＣサイドカバ－ CEMH1600
 10
4454.774607375114
 20
4321.287446027826
 30
0.0
  0
DIMENSION
  5
57DC
102
{ACAD_XDICTIONARY
360
57E9
102
}
102
{ACAD_REACTORS
330
57F3
102
}
330
1F
100
AcDbEntity
  8
AM_5 寸法線
100
AcDbDimension
  2
*D13
 10
2664.774607375114
 20
3646.287446027826
 30
0.0
 11
2599.774607375114
 21
4321.287446027826
 31
0.0
 70
    32
  1
%%c<>
 71
     5
 42
1350.0
 73
     0
 74
     0
 75
     0
  3
SEISA$0
100
AcDbAlignedDimension
 13
3094.774607375114
 23
4996.287446027825
 33
0.0
 14
3094.774607375114
 24
3646.287446027826
 34
0.0
 50
90.0
100
AcDbRotatedDimension
1001
ACAD_DSTYLE_DIMINSPECT
1070
   396
1000
100%
1070
   395
1000

1070
   394
1070
    33
1070
   393
1070
     0
  0
DIMENSION
  5
5810
102
{ACAD_XDICTIONARY
360
581D
102
}
102
{ACAD_REACTORS
330
5827
102
}
330
1F
100
AcDbEntity
  8
AM_5 寸法線
100
AcDbDimension
  2
*D14
 10
3064.774607375114
 20
4449.206823027824
 30
0.0
 11
3514.774607375115
 21
4514.206823027826
 31
0.0
 70
    32
 71
     5
 42
900.0000000000005
 73
     0
 74
     0
 75
     0
  3
SEISA$0
100
AcDbAlignedDimension
 13
3964.774607375114
 23
4321.287446027826
 33
0.0
 14
3064.774607375114
 24
4321.287446027826
 34
0.0
100
AcDbRotatedDimension
  0
DIMENSION
  5
5828
102
{ACAD_XDICTIONARY
360
5837
102
}
102
{ACAD_REACTORS
330
5843
102
}
330
1F
100
AcDbEntity
  8
AM_5 寸法線
100
AcDbDimension
  2
*D15
 10
3964.774607375114
 20
4449.206823027824
 30
0.0
 11
4142.225969630294
 21
4514.256987219368
 31
0.0
 70
   160
 71
     5
 42
50.0
 73
     0
 74
     0
 75
     0
  3
SEISA$0
100
AcDbAlignedDimension
 13
4014.774607375114
 23
4321.287446027826
 33
0.0
 14
3964.774607375114
 24
4321.287446027826
 34
0.0
100
AcDbRotatedDimension
1001
ACAD
1000
DSTYLE
1002
{
1070
   279
1070
     2
1002
}
  0
DIMENSION
  5
5865
102
{ACAD_XDICTIONARY
360
5872
102
}
102
{ACAD_REACTORS
330
587C
102
}
330
1F
100
AcDbEntity
  8
AM_5 寸法線
100
AcDbDimension
  2
*D16
 10
4914.774607375115
 20
4449.206823027824
 30
0.0
 11
4464.774607375113
 21
4514.206823027826
 31
0.0
 70
    32
 71
     5
 42
899.9999999999991
 73
     0
 74
     0
 75
     0
  3
SEISA$0
100
AcDbAlignedDimension
 13
4014.774607375114
 23
4321.287446027826
 33
0.0
 14
4914.774607375115
 24
4321.287446027826
 34
0.0
100
AcDbRotatedDimension
  0
DIMENSION
  5
58A7
102
{ACAD_XDICTIONARY
360
58B6
102
}
102
{ACAD_REACTORS
330
58C2
102
}
330
1F
100
AcDbEntity
  8
AM_5 寸法線
100
AcDbDimension
  2
*D17
 10
3919.774607375114
 20
3281.287446027825
 30
0.0
 11
3738.774607375114
 21
3346.287446027826
 31
0.0
 70
    32
 71
     5
 42
70.0
 73
     0
 74
     0
 75
     0
  3
SEISA$0
100
AcDbAlignedDimension
 13
3989.774607375114
 23
3524.287446027825
 33
0.0
 14
3919.774607375114
 24
3525.287446027826
 34
0.0
100
AcDbRotatedDimension
1001
ACAD_DSTYLE_DIMINSPECT
1070
   396
1000
100%
1070
   395
1000

1070
   394
1070
    33
1070
   393
1070
     0
1001
ACAD
1000
DSTYLE
1002
{
1070
   173
1070
     1
1070
   342
1005
0
1070
   343
1005
3A76
1070
   344
1005
69
1002
}
  0
DIMENSION
  5
58C3
102
{ACAD_XDICTIONARY
360
58D2
102
}
102
{ACAD_REACTORS
330
58DE
102
}
330
1F
100
AcDbEntity
  8
AM_5 寸法線
100
AcDbDimension
  2
*D18
 10
4059.774607375112
 20
3281.287446027825
 30
0.0
 11
4240.774607375114
 21
3346.287446027826
 31
0.0
 70
    32
 71
     5
 42
70.0
 73
     0
 74
     0
 75
     0
  3
SEISA$0
100
AcDbAlignedDimension
 13
3989.774607375114
 23
3524.287446027825
 33
0.0
 14
4059.774607375112
 24
3524.287446027826
 34
0.0
100
AcDbRotatedDimension
1001
ACAD_DSTYLE_DIMINSPECT
1070
   396
1000
100%
1070
   395
1000

1070
   394
1070
    33
1070
   393
1070
     0
1001
ACAD
1000
DSTYLE
1002
{
1070
   173
1070
     1
1070
   342
1005
0
1070
   343
1005
3A76
1070
   344
1005
69
1002
}
  0
DIMENSION
  5
58DF
102
{ACAD_XDICTIONARY
360
58EC
102
}
102
{ACAD_REACTORS
330
58F6
102
}
330
1F
100
AcDbEntity
  8
AM_5 寸法線
100
AcDbDimension
  2
*D19
 10
3064.774607375114
 20
3121.287446027825
 30
0.0
 11
3527.274607375114
 21
3186.287446027825
 31
0.0
 70
    32
 71
     5
 42
925.0
 73
     0
 74
     0
 75
     0
  3
SEISA$0
100
AcDbAlignedDimension
 13
3989.774607375114
 23
3524.287446027825
 33
0.0
 14
3064.774607375114
 24
3676.287446027826
 34
0.0
100
AcDbRotatedDimension
  0
DIMENSION
  5
58F7
102
{ACAD_XDICTIONARY
360
5904
102
}
102
{ACAD_REACTORS
330
590E
102
}
330
1F
100
AcDbEntity
  8
AM_5 寸法線
100
AcDbDimension
  2
*D20
 10
4492.774607375114
 20
3121.287446027825
 30
0.0
 11
4241.274607375114
 21
3186.287446027825
 31
0.0
 70
    32
 71
     5
 42
503.0
 73
     0
 74
     0
 75
     0
  3
SEISA$0
100
AcDbAlignedDimension
 13
3989.774607375114
 23
3524.287446027825
 33
0.0
 14
4492.774607375114
 24
3596.287446027826
 34
0.0
100
AcDbRotatedDimension
  0
DIMENSION
  5
590F
102
{ACAD_XDICTIONARY
360
591C
102
}
102
{ACAD_REACTORS
330
5926
102
}
330
1F
100
AcDbEntity
  8
AM_5 寸法線
100
AcDbDimension
  2
*D21
 10
4914.774607375115
 20
3121.287446027825
 30
0.0
 11
4703.774607375112
 21
3186.287446027825
 31
0.0
 70
    32
 71
     5
 42
421.9999999999989
 73
     0
 74
     0
 75
     0
  3
SEISA$0
100
AcDbAlignedDimension
 13
4492.774607375114
 23
3596.287446027826
 33
0.0
 14
4914.774607375115
 24
3723.287446027825
 34
0.0
100
AcDbRotatedDimension
  0
DIMENSION
  5
5927
102
{ACAD_XDICTIONARY
360
5934
102
}
102
{ACAD_REACTORS
330
593E
102
}
330
1F
100
AcDbEntity
  8
AM_5 寸法線
100
AcDbDimension
  2
*D22
 10
3064.774607375114
 20
2961.287446027825
 30
0.0
 11
3989.774607375114
 21
3026.287446027826
 31
0.0
 70
    32
 71
     5
 42
1849.999999999999
 73
     0
 74
     0
 75
     0
  3
SEISA$0
100
AcDbAlignedDimension
 13
4914.774607375115
 23
3723.287446027825
 33
0.0
 14
3064.774607375114
 24
3676.287446027826
 34
0.0
100
AcDbRotatedDimension
  0
DIMENSION
  5
5B0C
102
{ACAD_XDICTIONARY
360
5B1B
102
}
102
{ACAD_REACTORS
330
5B27
102
}
330
1F
100
AcDbEntity
  8
AM_5 寸法線
100
AcDbDimension
  2
*D23
 10
4428.774607375114
 20
4771.837929605527
 30
0.0
 11
4623.274607375114
 21
4771.837929605527
 31
0.0
 70
   160
 71
     5
 42
18.0
 73
     0
 74
     0
 75
     0
  3
SEISA$0
100
AcDbAlignedDimension
 13
4446.774607375114
 23
4951.287446027826
 33
0.0
 14
4428.774607375114
 24
4951.787446027824
 34
0.0
100
AcDbRotatedDimension
  0
DIMENSION
  5
5BB1
102
{ACAD_XDICTIONARY
360
5BBE
102
}
102
{ACAD_REACTORS
330
5BC8
102
}
330
1F
100
AcDbEntity
  8
AM_5 寸法線
100
AcDbDimension
  2
*D24
 10
5314.774607375113
 20
3691.287446027825
 30
0.0
 11
5249.774607375112
 21
4321.287446027826
 31
0.0
 70
    32
  1
%%c<>
 71
     5
 42
1260.0
 73
     0
 74
     0
 75
     0
  3
SEISA$0
100
AcDbAlignedDimension
 13
4542.774607375114
 23
4951.287446027826
 33
0.0
 14
4542.774607375114
 24
3691.287446027825
 34
0.0
 50
90.0
100
AcDbRotatedDimension
1001
ACAD_DSTYLE_DIMINSPECT
1070
   396
1000
100%
1070
   395
1000

1070
   394
1070
    33
1070
   393
1070
     0
1001
ACAD
1000
DSTYLE
1002
{
1070
   279
1070
     0
1002
}
  0
DIMENSION
  5
5BC9
102
{ACAD_XDICTIONARY
360
5BD6
102
}
102
{ACAD_REACTORS
330
5BE0
102
}
330
1F
100
AcDbEntity
  8
AM_5 寸法線
100
AcDbDimension
  2
*D25
 10
5474.774607375114
 20
3596.287446027825
 30
0.0
 11
5474.774607375113
 21
4321.287446027826
 31
0.0
 70
   160
  1
%%c<>
 71
     5
 42
1450.0
 73
     0
 74
     0
 75
     0
  3
SEISA$0
100
AcDbAlignedDimension
 13
4492.774607375114
 23
5046.287446027824
 33
0.0
 14
4492.774607375114
 24
3596.287446027826
 34
0.0
 50
90.0
100
AcDbRotatedDimension
1001
ACAD_DSTYLE_DIMINSPECT
1070
   396
1000
100%
1070
   395
1000

1070
   394
1070
    33
1070
   393
1070
     0
1001
ACAD
1000
DSTYLE
1002
{
1070
   279
1070
     0
1002
}
  0
DIMENSION
  5
5BE1
102
{ACAD_XDICTIONARY
360
5BEE
102
}
102
{ACAD_REACTORS
330
5BF8
102
}
330
1F
100
AcDbEntity
  8
AM_5 寸法線
100
AcDbDimension
  2
*D26
 10
5634.774607375113
 20
3521.287446027825
 30
0.0
 11
5634.774607375113
 21
4321.287446027826
 31
0.0
 70
   160
  1
%%c<>
 71
     5
 42
1600.0
 73
     0
 74
     0
 75
     0
  3
SEISA$0
100
AcDbAlignedDimension
 13
4056.774607375114
 23
5121.287446027825
 33
0.0
 14
4056.774607375114
 24
3521.287446027826
 34
0.0
 50
90.0
100
AcDbRotatedDimension
1001
ACAD_DSTYLE_DIMINSPECT
1070
   396
1000
100%
1070
   395
1000

1070
   394
1070
    33
1070
   393
1070
     0
1001
ACAD
1000
DSTYLE
1002
{
1070
   279
1070
     0
1002
}
  0
MTEXT
  5
67A6
330
1F
100
AcDbEntity
  8
AM_6 文字
100
AcDbMText
 10
5032.694212301809
 20
3422.761428890059
 30
0.0
 40
70.0
 41
1455.819021779532
 46
197.8723784682955
 71
     1
 72
     5
  1
{\W0.6;TYPE:CEM1600/CEMH1600\PSHAFT DIA:MAX/MIN \P RIGID SIDE φ1000/φ630\P COUPLING CENTER SIDE φ900/φ630}
  7
SEISA
 73
     1
 44
1.0
  0
DIMENSION
  5
68A9
102
{ACAD_XDICTIONARY
360
68B8
102
}
102
{ACAD_REACTORS
330
68B9
102
}
330
1F
100
AcDbEntity
  8
AM_5 寸法線
100
AcDbDimension
  2
*D27
 10
5014.774607375113
 20
5227.913427660011
 30
0.0
 11
5221.274607375113
 21
5292.91342766001
 31
0.0
 70
    32
 71
     5
 42
100.0
 73
     0
 74
     0
 75
     0
  3
SEISA$0
100
AcDbAlignedDimension
 13
4914.774607375115
 23
4919.287446027825
 33
0.0
 14
5014.774607375113
 24
5046.287446027824
 34
0.0
100
AcDbRotatedDimension
1001
ACAD_DSTYLE_DIMINSPECT
1070
   396
1000
100%
1070
   395
1000

1070
   394
1070
    33
1070
   393
1070
     0
  0
DIMENSION
  5
68DE
102
{ACAD_XDICTIONARY
360
68EC
102
}
102
{ACAD_REACTORS
330
68ED
102
}
330
1F
100
AcDbEntity
  8
AM_5 寸法線
100
AcDbDimension
  2
*D28
 10
4231.774607375114
 20
4771.83792960553
 30
0.0
 11
4127.875336889515
 21
4822.774512366041
 31
0.0
 70
   160
 71
     5
 42
217.0
 73
     0
 74
     0
 75
     0
  3
SEISA$0
100
AcDbAlignedDimension
 13
4014.774607375114
 23
4945.287446027824
 33
0.0
 14
4231.774607375114
 24
4951.787446027824
 34
0.0
 50
0.0000000000001132
100
AcDbRotatedDimension
1001
ACAD_DSTYLE_DIMINSPECT
1070
   396
1000
100%
1070
   395
1000

1070
   394
1070
    33
1070
   393
1070
     0
1001
ACAD
1000
DSTYLE
1002
{
1070
   279
1070
     2
1002
}
  0
DIMENSION
  5
690C
330
1F
100
AcDbEntity
  8
AM_5 寸法線
100
AcDbDimension
  2
*D29
 10
4428.774607375114
 20
4771.837929605527
 30
0.0
 11
4326.368001878704
 21
4827.541987738508
 31
0.0
 70
   160
 71
     5
 42
197.0
 73
     0
 74
     0
 75
     0
  3
SEISA$0
100
AcDbAlignedDimension
 13
4231.774607375114
 23
4951.787446027824
 33
0.0
 14
4428.774607375114
 24
4951.787446027824
 34
0.0
 50
0.0000000000001132
100
AcDbRotatedDimension
1001
ACAD_DSTYLE_DIMINSPECT
1070
   396
1000
100%
1070
   395
1000

1070
   394
1070
    33
1070
   393
1070
     0
1001
ACAD
1000
DSTYLE
1002
{
1070
   279
1070
     2
1002
}
  0
INSERT
  5
6AA0
330
1F
100
AcDbEntity
  8
AM_0 外形線1
100
AcDbBlockReference
  2
ＧＣサイドカバ－ CEM1600
 10
5014.774607375113
 20
5046.287446027824
 30
0.0
  0
ENDSEC
  0
SECTION
  2
OBJECTS
  0
DICTIONARY
  5
C
330
0
100
AcDbDictionary
281
     1
  3
ACAD_COLOR
350
C5
  3
ACAD_GROUP
350
D
  3
ACAD_LAYOUT
350
1A
  3
ACAD_MATERIAL
350
C4
  3
ACAD_MLEADERSTYLE
350
2D5
  3
ACAD_MLINESTYLE
350
17
  3
ACAD_PLOTSETTINGS
350
19
  3
ACAD_PLOTSTYLENAME
350
E
  3
ACAD_SCALELIST
350
2B3
  3
ACAD_TABLESTYLE
350
121
  3
ACAD_VISUALSTYLE
350
27F
  3
ACDB_RECOMPOSE_DATA
350
2F7
  3
AcDbVariableDictionary
350
34
  3
AcmDictionary
350
49
  3
AMG
350
2B
  3
AMGSNAPSETTINGS
350
1DE
  0
DICTIONARY
  5
BF
330
2
100
AcDbDictionary
280
     1
281
     1
  3
ACAD_LAYERSTATES
360
679D
  3
AMLAYER_GROUPCOLORS
360
C0
  0
DICTIONARY
  5
29F7
330
10
100
AcDbDictionary
280
     1
281
     1
  3
ADSK_XREC_LAYER_RECONCILED
360
29F8
  0
DICTIONARY
  5
29F9
330
81
100
AcDbDictionary
280
     1
281
     1
  3
ADSK_XREC_LAYER_RECONCILED
360
29FA
  0
DICTIONARY
  5
82
330
1F
100
AcDbDictionary
280
     1
281
     1
  3
ACAD_SORTENTS
360
A41
  0
DICTIONARY
  5
4B08
330
4ACB
100
AcDbDictionary
280
     1
281
     1
  3
ACAD_SORTENTS
360
6107
  0
DICTIONARY
  5
4C64
330
4B85
100
AcDbDictionary
280
     1
281
     1
  3
ACAD_SORTENTS
360
6180
  0
DICTIONARY
  5
4D68
330
4CCD
100
AcDbDictionary
280
     1
281
     1
  3
ACAD_SORTENTS
360
6810
  0
DICTIONARY
  5
624E
330
4E5E
100
AcDbDictionary
280
     1
281
     1
  3
ACAD_SORTENTS
360
69F8
  0
DICTIONARY
  5
5042
330
4FAB
100
AcDbDictionary
280
     1
281
     1
  3
ACAD_SORTENTS
360
62B6
  0
DICTIONARY
  5
5169
330
50C7
100
AcDbDictionary
280
     1
281
     1
  3
ACAD_SORTENTS
360
6380
  0
DICTIONARY
  5
6AC6
330
6A8D
100
AcDbDictionary
280
     1
281
     1
  3
ACAD_SORTENTS
360
6AC7
  0
DICTIONARY
  5
57E9
330
57DC
100
AcDbDictionary
280
     1
281
     1
  3
ACAD_DIMASSOC
360
57F3
  0
DICTIONARY
  5
581D
330
5810
100
AcDbDictionary
280
     1
281
     1
  3
ACAD_DIMASSOC
360
5827
  0
DICTIONARY
  5
5837
330
5828
100
AcDbDictionary
280
     1
281
     1
  3
ACAD_DIMASSOC
360
5843
  0
DICTIONARY
  5
5872
330
5865
100
AcDbDictionary
280
     1
281
     1
  3
ACAD_DIMASSOC
360
587C
  0
DICTIONARY
  5
58B6
330
58A7
100
AcDbDictionary
280
     1
281
     1
  3
ACAD_DIMASSOC
360
58C2
  0
DICTIONARY
  5
58D2
330
58C3
100
AcDbDictionary
280
     1
281
     1
  3
ACAD_DIMASSOC
360
58DE
  0
DICTIONARY
  5
58EC
330
58DF
100
AcDbDictionary
280
     1
281
     1
  3
ACAD_DIMASSOC
360
58F6
  0
DICTIONARY
  5
5904
330
58F7
100
AcDbDictionary
280
     1
281
     1
  3
ACAD_DIMASSOC
360
590E
  0
DICTIONARY
  5
591C
330
590F
100
AcDbDictionary
280
     1
281
     1
  3
ACAD_DIMASSOC
360
5926
  0
DICTIONARY
  5
5934
330
5927
100
AcDbDictionary
280
     1
281
     1
  3
ACAD_DIMASSOC
360
593E
  0
DICTIONARY
  5
5B1B
330
5B0C
100
AcDbDictionary
280
     1
281
     1
  3
ACAD_DIMASSOC
360
5B27
  0
DICTIONARY
  5
5BBE
330
5BB1
100
AcDbDictionary
280
     1
281
     1
  3
ACAD_DIMASSOC
360
5BC8
  0
DICTIONARY
  5
5BD6
330
5BC9
100
AcDbDictionary
280
     1
281
     1
  3
ACAD_DIMASSOC
360
5BE0
  0
DICTIONARY
  5
5BEE
330
5BE1
100
AcDbDictionary
280
     1
281
     1
  3
ACAD_DIMASSOC
360
5BF8
  0
DICTIONARY
  5
68B8
330
68A9
100
AcDbDictionary
280
     1
281
     1
  3
ACAD_DIMASSOC
360
68B9
  0
DICTIONARY
  5
68EC
330
68DE
100
AcDbDictionary
280
     1
281
     1
  3
ACAD_DIMASSOC
360
68ED
  0
DICTIONARY
  5
C5
102
{ACAD_REACTORS
330
C
102
}
330
C
100
AcDbDictionary
281
     1
  0
DICTIONARY
  5
D
102
{ACAD_REACTORS
330
C
102
}
330
C
100
AcDbDictionary
281
     1
  0
DICTIONARY
  5
1A
102
{ACAD_REACTORS
330
C
102
}
330
C
100
AcDbDictionary
281
     1
  3
Model
350
22
  3
レイアウト1
350
1E
  3
レイアウト2
350
26
  0
DICTIONARY
  5
C4
102
{ACAD_REACTORS
330
C
102
}
330
C
100
AcDbDictionary
281
     1
  3
ByBlock
350
27D
  3
ByLayer
350
27C
  3
Global
350
27E
  0
DICTIONARY
  5
2D5
102
{ACAD_REACTORS
330
C
102
}
330
C
100
AcDbDictionary
281
     1
  3
Standard
350
2D6
  0
DICTIONARY
  5
17
102
{ACAD_REACTORS
330
C
102
}
330
C
100
AcDbDictionary
281
     1
  3
Standard
350
18
  0
DICTIONARY
  5
19
102
{ACAD_REACTORS
330
C
102
}
330
C
100
AcDbDictionary
281
     1
  3
SEISA基本
350
1C7E
  0
ACDBDICTIONARYWDFLT
  5
E
102
{ACAD_REACTORS
330
C
102
}
330
C
100
AcDbDictionary
281
     1
  3
Normal
350
F
100
AcDbDictionaryWithDefault
340
F
  0
DICTIONARY
  5
2B3
102
{ACAD_REACTORS
330
C
102
}
330
C
100
AcDbDictionary
281
     1
  3
*A1
350
6799
  3
*A2
350
679A
  3
*A3
350
679B
  3
*A4
350
679C
  3
A0
350
2B4
  3
A1
350
2B5
  3
A2
350
2B6
  3
A3
350
2B7
  3
A4
350
2B8
  3
A5
350
2B9
  3
A6
350
2BA
  3
A7
350
2BB
  3
A8
350
2BC
  3
A9
350
2BD
  3
B0
350
2BE
  3
B1
350
2BF
  3
B2
350
2C0
  3
B3
350
2C1
  3
B4
350
2C2
  3
B5
350
2C3
  3
B6
350
2C4
  3
B7
350
2C5
  3
B8
350
2C6
  3
B9
350
2C7
  3
C0
350
2C8
  3
C1
350
2C9
  3
C2
350
2CA
  3
C3
350
2CB
  3
C4
350
2CC
  3
C5
350
2CD
  3
C6
350
2CE
  3
C7
350
2CF
  3
C8
350
2D0
  3
C9
350
2D1
  3
D0
350
2D2
  3
D1
350
2D3
  3
D2
350
2D4
  0
DICTIONARY
  5
121
102
{ACAD_REACTORS
330
C
102
}
330
C
100
AcDbDictionary
281
     1
  3
Standard
350
122
  0
DICTIONARY
  5
27F
102
{ACAD_REACTORS
330
C
102
}
330
C
100
AcDbDictionary
281
     1
  3
2dWireframe
350
285
  3
3D Hidden
350
287
  3
3dWireframe
350
286
  3
Basic
350
284
  3
Brighten
350
28B
  3
ColorChange
350
28F
  3
Conceptual
350
288
  3
Dim
350
28A
  3
Facepattern
350
28E
  3
Flat
350
280
  3
FlatWithEdges
350
281
  3
Gouraud
350
282
  3
GouraudWithEdges
350
283
  3
Linepattern
350
28D
  3
Realistic
350
289
  3
Thicken
350
28C
  0
XRECORD
  5
2F7
102
{ACAD_REACTORS
330
C
102
}
330
C
100
AcDbXrecord
280
     1
 90
        1
330
122
  0
DICTIONARY
  5
34
102
{ACAD_REACTORS
330
C
102
}
330
C
100
AcDbDictionary
281
     1
  3
CANNOSCALE
350
2FA
  3
CMLEADERSTYLE
350
2F8
  3
CTABLESTYLE
350
140
  3
DIMASSOC
350
AC
  3
INDEXCTL
350
35
  3
LAYEREVAL
350
63F9
  3
LAYERNOTIFY
350
63FA
  3
LIGHTINGUNITS
350
2FB
  3
MSLTSCALE
350
2F9
  0
DICTIONARY
  5
49
102
{ACAD_REACTORS
330
C
102
}
330
C
100
AcDbDictionary
281
     1
  3
AcmBOM
350
161B
  3
AcmStdDictionary
350
4A
  3
AMDTSECTSYM_ARROWCOLOR
350
12B
  0
DICTIONARY
  5
2B
102
{ACAD_REACTORS
330
C
102
}
330
C
100
AcDbDictionary
281
     1
  0
DICTIONARY
  5
1DE
102
{ACAD_REACTORS
330
C
102
}
330
C
100
AcDbDictionary
281
     1
  0
DICTIONARY
  5
679D
102
{ACAD_REACTORS
330
BF
102
}
330
BF
100
AcDbDictionary
281
     1
  0
DICTIONARY
  5
C0
102
{ACAD_REACTORS
330
BF
102
}
330
BF
100
AcDbDictionary
280
     1
281
     1
  0
XRECORD
  5
29F8
102
{ACAD_REACTORS
330
29F7
102
}
330
29F7
100
AcDbXrecord
280
     1
290
     1
  0
XRECORD
  5
29FA
102
{ACAD_REACTORS
330
29F9
102
}
330
29F9
100
AcDbXrecord
280
     1
290
     1
  0
SORTENTSTABLE
  5
A41
102
{ACAD_REACTORS
330
82
102
}
330
82
100
AcDbSortentsTable
330
1F
331
5927
  5
5927
331
590F
  5
590F
331
44FF
  5
4535
331
58C3
  5
58C3
331
4E8E
  5
5414
331
67A6
  5
67A6
331
5BC9
  5
5BC9
331
5BB1
  5
5BB1
331
5828
  5
5828
331
4BC3
  5
5196
331
4498
  5
44C4
331
5810
  5
5810
331
4FDB
  5
5495
331
58F7
  5
58F7
331
4533
  5
455D
331
58DF
  5
58DF
331
58A7
  5
58A7
331
5B0C
  5
5B0C
331
44C3
  5
4518
331
5BE1
  5
5BE1
331
4CFF
  5
519A
331
44C4
  5
451B
331
57DC
  5
57DC
331
5865
  5
5865
331
50FB
  5
5497
  0
SORTENTSTABLE
  5
6107
102
{ACAD_REACTORS
330
4B08
102
}
330
4B08
100
AcDbSortentsTable
330
4ACB
331
4ACF
  5
4AD0
331
4AD7
  5
4AFB
331
4AD3
  5
4AD4
331
4AD1
  5
4AD2
331
4B05
  5
4AD7
331
4AD8
  5
4B05
331
4AD6
  5
4AD8
331
4AD4
  5
4AD6
331
4AFB
  5
4ACF
331
4AD2
  5
4AD3
331
4AD0
  5
4AD1
  0
SORTENTSTABLE
  5
6180
102
{ACAD_REACTORS
330
4C64
102
}
330
4C64
100
AcDbSortentsTable
330
4B85
  0
SORTENTSTABLE
  5
6810
102
{ACAD_REACTORS
330
4D68
102
}
330
4D68
100
AcDbSortentsTable
330
4CCD
  0
SORTENTSTABLE
  5
69F8
102
{ACAD_REACTORS
330
624E
102
}
330
624E
100
AcDbSortentsTable
330
4E5E
331
686E
  5
4E61
331
4E75
  5
4E79
331
4E70
  5
4E72
331
4E7F
  5
4E81
331
4E84
  5
4E86
331
4E66
  5
4E68
331
4E61
  5
4E63
331
4E7A
  5
4E7C
331
4E6B
  5
4E6D
331
4E71
  5
4E73
331
4E7B
  5
4E7D
331
4E6C
  5
4E6E
331
4E62
  5
4E64
331
4E85
  5
4E8A
331
4E67
  5
4E69
331
4E80
  5
4E82
331
4E68
  5
4E6A
331
4E77
  5
4E7A
331
4E72
  5
4E74
331
4E81
  5
4E83
331
4E86
  5
4E8D
331
4E63
  5
4E65
331
4E8D
  5
686E
331
4E7C
  5
4E7E
331
4E6D
  5
4E6F
331
4E73
  5
4E75
331
4E82
  5
4E84
331
4E64
  5
4E66
331
4E7D
  5
4E7F
331
4E6E
  5
4E70
331
4E69
  5
4E6B
331
4E6A
  5
4E6C
331
686D
  5
4E62
331
4E8A
  5
686D
331
4E79
  5
4E7B
331
4E74
  5
4E77
331
4E83
  5
4E85
331
4E65
  5
4E67
331
4E7E
  5
4E80
331
4E6F
  5
4E71
  0
SORTENTSTABLE
  5
62B6
102
{ACAD_REACTORS
330
5042
102
}
330
5042
100
AcDbSortentsTable
330
4FAB
331
4FBE
  5
4FC0
331
4FD6
  5
4FD8
331
4FB1
  5
4FB3
331
5041
  5
4FAF
331
4FC9
  5
4FCB
331
4FBB
  5
4FBD
331
4FD3
  5
4FD5
331
4FAE
  5
4FB0
331
4FC5
  5
4FC7
331
503D
  5
503F
331
4FB8
  5
4FBB
331
4FD8
  5
4FDA
331
4FD0
  5
4FD2
331
4FC2
  5
4FC4
331
4FB5
  5
4FB8
331
4FCD
  5
4FCF
331
4FBF
  5
4FC1
331
4FD7
  5
4FD9
331
4FB2
  5
4FB4
331
4FCA
  5
4FCC
331
4FBC
  5
4FBE
331
4FD4
  5
4FD6
331
4FAF
  5
4FB1
331
4FC6
  5
4FC8
331
4FB9
  5
4FBC
331
503E
  5
5040
331
4FD9
  5
503C
331
4FD1
  5
4FD3
331
4FC3
  5
4FC5
331
4FB6
  5
4FB9
331
4FCE
  5
4FD0
331
4FC0
  5
4FC2
331
4FB3
  5
4FB5
331
4FCB
  5
4FCD
331
4FBD
  5
4FBF
331
4FD5
  5
4FD7
331
4FB0
  5
4FB2
331
4FC8
  5
4FCA
331
5040
  5
4FAE
331
4FC7
  5
4FC9
331
503F
  5
5041
331
4FDA
  5
503D
331
4FD2
  5
4FD4
331
4FC4
  5
4FC6
331
503C
  5
503E
331
4FCF
  5
4FD1
331
4FC1
  5
4FC3
331
4FB4
  5
4FB6
331
4FCC
  5
4FCE
  0
SORTENTSTABLE
  5
6380
102
{ACAD_REACTORS
330
5169
102
}
330
5169
100
AcDbSortentsTable
330
50C7
  0
SORTENTSTABLE
  5
6AC7
102
{ACAD_REACTORS
330
6AC6
102
}
330
6AC6
100
AcDbSortentsTable
330
6A8D
  0
DIMASSOC
  5
57F3
102
{ACAD_REACTORS
330
57E9
102
}
330
57E9
100
AcDbDimAssoc
330
57DC
 90
        3
 70
     0
 71
     0
  1
AcDbOsnapPointRef
 72
    13
331
4CFF
331
4CD9
 73
     2
 91
        0
 40
1.570796326794896
 10
0.0
 20
0.0
 30
2.000000000000000E+50
 75
     0
  1
AcDbOsnapPointRef
 72
    13
331
4CFF
331
4CF2
 73
     2
 91
        0
 40
0.0
 10
0.0
 20
0.0
 30
2.000000000000000E+50
 75
     0
  0
DIMASSOC
  5
5827
102
{ACAD_REACTORS
330
581D
102
}
330
581D
100
AcDbDimAssoc
330
5810
 90
        3
 70
     0
 71
     0
  1
AcDbOsnapPointRef
 72
     1
331
4CFF
331
4CF7
 73
     2
 91
        0
 40
1.0
 10
0.0
 20
0.0
 30
2.000000000000000E+50
 75
     0
  1
AcDbOsnapPointRef
 72
     8
331
4CFF
331
4CF6
 73
     2
 91
        0
 40
0.5
 10
0.0
 20
0.0
 30
0.0
 75
     1
  1
AcDbOsnapPointRef
 72
     1
331
4CFF
331
4CF7
 73
     2
 91
        0
 40
1.0
 10
0.0
 20
0.0
 30
2.000000000000000E+50
 75
     0
  0
DIMASSOC
  5
5843
102
{ACAD_REACTORS
330
5837
102
}
330
5837
100
AcDbDimAssoc
330
5828
 90
        3
 70
     0
 71
     0
  1
AcDbOsnapPointRef
 72
     1
331
4E8E
331
4E6A
 73
     2
 91
        0
 40
1.0
 10
0.0
 20
0.0
 30
2.000000000000000E+50
 75
     0
  1
AcDbOsnapPointRef
 72
     1
331
4CFF
331
4CF7
 73
     2
 91
        0
 40
1.0
 10
0.0
 20
0.0
 30
2.000000000000000E+50
 75
     0
  0
DIMASSOC
  5
587C
102
{ACAD_REACTORS
330
5872
102
}
330
5872
100
AcDbDimAssoc
330
5865
 90
        3
 70
     0
 71
     0
  1
AcDbOsnapPointRef
 72
     1
331
4E8E
331
4E6A
 73
     2
 91
        0
 40
1.0
 10
0.0
 20
0.0
 30
2.000000000000000E+50
 75
     0
  1
AcDbOsnapPointRef
 72
     2
331
4E8E
331
4E86
 73
     2
 91
        0
 40
0.5
 10
0.0
 20
0.0
 30
0.0
 75
     0
  0
DIMASSOC
  5
58C2
102
{ACAD_REACTORS
330
58B6
102
}
330
58B6
100
AcDbDimAssoc
330
58A7
 90
        3
 70
     0
 71
     0
  1
AcDbOsnapPointRef
 72
    13
331
4BC3
331
4BA3
 73
     2
 91
        0
 40
0.0
 10
0.0
 20
0.0
 30
2.000000000000000E+50
 75
     0
  1
AcDbOsnapPointRef
 72
     1
331
4CFF
331
4CEE
 73
     2
 91
        0
 40
0.9999999999999998
 10
0.0
 20
0.0
 30
2.000000000000000E+50
 75
     0
  0
DIMASSOC
  5
58DE
102
{ACAD_REACTORS
330
58D2
102
}
330
58D2
100
AcDbDimAssoc
330
58C3
 90
        3
 70
     0
 71
     0
  1
AcDbOsnapPointRef
 72
    13
331
4BC3
331
4BA3
 73
     2
 91
        0
 40
0.0
 10
0.0
 20
0.0
 30
2.000000000000000E+50
 75
     0
  1
AcDbOsnapPointRef
 72
     8
331
4BC3
331
4BA6
 73
     2
 91
        0
 40
0.0
 10
0.0
 20
0.0
 30
0.0
 75
     1
  1
AcDbOsnapPointRef
 72
    13
331
4BC3
331
4BA3
 73
     2
 91
        0
 40
0.0
 10
0.0
 20
0.0
 30
2.000000000000000E+50
 75
     0
  0
DIMASSOC
  5
58F6
102
{ACAD_REACTORS
330
58EC
102
}
330
58EC
100
AcDbDimAssoc
330
58DF
 90
        3
 70
     0
 71
     0
  1
AcDbOsnapPointRef
 72
    13
331
4BC3
331
4BA3
 73
     2
 91
        0
 40
0.0
 10
0.0
 20
0.0
 30
2.000000000000000E+50
 75
     0
  1
AcDbOsnapPointRef
 72
    13
331
4CFF
331
4CF5
 73
     2
 91
        0
 40
3.141592653589792
 10
0.0
 20
0.0
 30
2.000000000000000E+50
 75
     0
  0
DIMASSOC
  5
590E
102
{ACAD_REACTORS
330
5904
102
}
330
5904
100
AcDbDimAssoc
330
58F7
 90
        3
 70
     0
 71
     0
  1
AcDbOsnapPointRef
 72
    13
331
4BC3
331
4BA3
 73
     2
 91
        0
 40
0.0
 10
0.0
 20
0.0
 30
2.000000000000000E+50
 75
     0
  1
AcDbOsnapPointRef
 72
     1
331
50FB
331
50F8
 73
     2
 91
        0
 40
1.0
 10
0.0
 20
0.0
 30
2.000000000000000E+50
 75
     0
  0
DIMASSOC
  5
5926
102
{ACAD_REACTORS
330
591C
102
}
330
591C
100
AcDbDimAssoc
330
590F
 90
        3
 70
     0
 71
     0
  1
AcDbOsnapPointRef
 72
     1
331
50FB
331
50F8
 73
     2
 91
        0
 40
1.0
 10
0.0
 20
0.0
 30
2.000000000000000E+50
 75
     0
  1
AcDbOsnapPointRef
 72
     1
331
4E8E
331
4E80
 73
     2
 91
        0
 40
6.283185307179585
 10
0.0
 20
0.0
 30
2.000000000000000E+50
 75
     0
  0
DIMASSOC
  5
593E
102
{ACAD_REACTORS
330
5934
102
}
330
5934
100
AcDbDimAssoc
330
5927
 90
        3
 70
     0
 71
     0
  1
AcDbOsnapPointRef
 72
     1
331
4E8E
331
4E80
 73
     2
 91
        0
 40
6.283185307179585
 10
0.0
 20
0.0
 30
2.000000000000000E+50
 75
     0
  1
AcDbOsnapPointRef
 72
    13
331
4CFF
331
4CF5
 73
     2
 91
        0
 40
3.141592653589792
 10
0.0
 20
0.0
 30
2.000000000000000E+50
 75
     0
  0
DIMASSOC
  5
5B27
102
{ACAD_REACTORS
330
5B1B
102
}
330
5B1B
100
AcDbDimAssoc
330
5B0C
 90
        3
 70
     0
 71
     0
  1
AcDbOsnapPointRef
 72
     1
331
50FB
331
50E4
 73
     2
 91
        0
 40
1.0
 10
0.0
 20
0.0
 30
2.000000000000000E+50
 75
     0
  1
AcDbOsnapPointRef
 72
    13
331
4E8E
331
4E6E
 73
     2
 91
        0
 40
3.141592653589792
 10
0.0
 20
0.0
 30
2.000000000000000E+50
 75
     0
  0
DIMASSOC
  5
5BC8
102
{ACAD_REACTORS
330
5BBE
102
}
330
5BBE
100
AcDbDimAssoc
330
5BB1
 90
        3
 70
     0
 71
     0
  1
AcDbOsnapPointRef
 72
     1
331
4E8E
331
4E6C
 73
     2
 91
        0
 40
0.9999999999999998
 10
0.0
 20
0.0
 30
2.000000000000000E+50
 75
     0
  1
AcDbOsnapPointRef
 72
    13
331
4E8E
331
4E81
 73
     2
 91
        0
 40
0.0
 10
0.0
 20
0.0
 30
2.000000000000000E+50
 75
     0
  0
DIMASSOC
  5
5BE0
102
{ACAD_REACTORS
330
5BD6
102
}
330
5BD6
100
AcDbDimAssoc
330
5BC9
 90
        3
 70
     0
 71
     0
  1
AcDbOsnapPointRef
 72
     1
331
50FB
331
50CA
 73
     2
 91
        0
 40
1.0
 10
0.0
 20
0.0
 30
2.000000000000000E+50
 75
     0
  1
AcDbOsnapPointRef
 72
     1
331
50FB
331
50F8
 73
     2
 91
        0
 40
1.0
 10
0.0
 20
0.0
 30
2.000000000000000E+50
 75
     0
  0
DIMASSOC
  5
5BF8
102
{ACAD_REACTORS
330
5BEE
102
}
330
5BEE
100
AcDbDimAssoc
330
5BE1
 90
        3
 70
     0
 71
     0
  1
AcDbOsnapPointRef
 72
    13
331
4BC3
331
4BA7
 73
     2
 91
        0
 40
0.0
 10
0.0
 20
0.0
 30
2.000000000000000E+50
 75
     0
  1
AcDbOsnapPointRef
 72
    13
331
4BC3
331
4BA2
 73
     2
 91
        0
 40
0.0
 10
0.0
 20
0.0
 30
2.000000000000000E+50
 75
     0
  0
DIMASSOC
  5
68B9
102
{ACAD_REACTORS
330
68B8
102
}
330
68B8
100
AcDbDimAssoc
330
68A9
 90
        1
 70
     0
 71
     0
  1
AcDbOsnapPointRef
 72
    13
331
4E8E
331
4E6B
 73
     0
 91
        0
 40
0.0
 10
0.0
 20
0.0
 30
2.000000000000000E+50
 75
     0
  0
DIMASSOC
  5
68ED
102
{ACAD_REACTORS
330
68EC
102
}
330
68EC
100
AcDbDimAssoc
330
68DE
 90
        3
 70
     0
 71
     0
  1
AcDbOsnapPointRef
 72
     1
331
4E8E
331
4E62
 73
     0
 91
        0
 40
0.0
 10
0.0
 20
0.0
 30
2.000000000000000E+50
 75
     0
  1
AcDbOsnapPointRef
 72
     1
331
4E8E
331
4E74
 73
     0
 91
        0
 40
0.0
 10
0.0
 20
0.0
 30
2.000000000000000E+50
 75
     0
  0
LAYOUT
  5
22
102
{ACAD_REACTORS
330
1A
102
}
330
1A
100
AcDbPlotSettings
  1

  2
KONICA MINOLTA 501 PCL
  4
A4
  6

 40
5.027082920074462
 41
5.027085781097412
 42
5.027069091796875
 43
5.027069091796875
 44
209.9733276367186
 45
296.9259948730469
 46
6.727305955072252
 47
0.0
 48
0.0
 49
0.0
140
0.0
141
0.0
142
1.0
143
12.8811927283094
 70
 11956
 72
     1
 73
     1
 74
     1
  7
SEISA.ctb
 75
     0
147
0.0776325625345446
 76
     0
 77
     2
 78
   300
148
-2564.501979496923
149
-2926.040979213985
100
AcDbLayout
  1
Model
 70
     1
 71
     0
 10
0.0
 20
0.0
 11
12.0
 21
9.0
 12
0.0
 22
0.0
 32
0.0
 14
0.0
 24
0.0
 34
0.0
 15
0.0
 25
0.0
 35
0.0
146
0.0
 13
0.0
 23
0.0
 33
0.0
 16
1.0
 26
0.0
 36
0.0
 17
0.0
 27
1.0
 37
0.0
 76
     0
330
1F
331
27A
1001
ACAD_PSEXT
1000
KONICA MINOLTA 501 PCL
1000
KONICA MINOLTA 501/421/361PCL
1000
IP_192.168.20.231_(1)
1000

1070
     0
  0
LAYOUT
  5
1E
102
{ACAD_REACTORS
330
1A
102
}
330
1A
100
AcDbPlotSettings
  1

  2
none_device
  4
Letter_(8.50_x_11.00_Inches)
  6

 40
6.349999904632567
 41
6.349999904632567
 42
6.350006103515625
 43
6.350006103515625
 44
215.8999938964844
 45
279.3999938964844
 46
0.0
 47
0.0
 48
0.0
 49
0.0
140
0.0
141
0.0
142
1.0
143
1.0
 70
 15024
 72
     1
 73
     1
 74
     5
  7
SEISA.ctb
 75
    16
147
1.0
 76
     0
 77
     2
 78
   300
148
0.0
149
0.0
100
AcDbLayout
  1
レイアウト1
 70
     1
 71
     1
 10
0.0
 20
0.0
 11
420.0
 21
297.0
 12
0.0
 22
0.0
 32
0.0
 14
1.000000000000000E+20
 24
1.000000000000000E+20
 34
1.000000000000000E+20
 15
-1.000000000000000E+20
 25
-1.000000000000000E+20
 35
-1.000000000000000E+20
146
0.0
 13
0.0
 23
0.0
 33
0.0
 16
1.0
 26
0.0
 36
0.0
 17
0.0
 27
1.0
 37
0.0
 76
     0
330
1B
  0
LAYOUT
  5
26
102
{ACAD_REACTORS
330
1A
102
}
330
1A
100
AcDbPlotSettings
  1

  2
none_device
  4
Letter_(8.50_x_11.00_Inches)
  6

 40
6.349999904632567
 41
6.349999904632567
 42
6.350006103515625
 43
6.350006103515625
 44
215.8999938964844
 45
279.3999938964844
 46
0.0
 47
0.0
 48
0.0
 49
0.0
140
0.0
141
0.0
142
1.0
143
1.0
 70
 15024
 72
     1
 73
     1
 74
     5
  7
SEISA.ctb
 75
    16
147
1.0
 76
     0
 77
     2
 78
   300
148
0.0
149
0.0
100
AcDbLayout
  1
レイアウト2
 70
     1
 71
     2
 10
0.0
 20
0.0
 11
12.0
 21
9.0
 12
0.0
 22
0.0
 32
0.0
 14
0.0
 24
0.0
 34
0.0
 15
0.0
 25
0.0
 35
0.0
146
0.0
 13
0.0
 23
0.0
 33
0.0
 16
1.0
 26
0.0
 36
0.0
 17
0.0
 27
1.0
 37
0.0
 76
     0
330
23
  0
MATERIAL
  5
27D
102
{ACAD_REACTORS
330
C4
102
}
330
C4
100
AcDbMaterial
  1
ByBlock
 73
     1
 78
     1
172
     1
176
     1
270
     1
274
     1
 94
       63
  0
MATERIAL
  5
27C
102
{ACAD_REACTORS
330
C4
102
}
330
C4
100
AcDbMaterial
  1
ByLayer
 73
     1
 78
     1
172
     1
176
     1
270
     1
274
     1
 94
       63
  0
MATERIAL
  5
27E
102
{ACAD_REACTORS
330
C4
102
}
330
C4
100
AcDbMaterial
  1
Global
 73
     1
 78
     1
172
     1
176
     1
270
     1
274
     1
 94
       63
  0
MLEADERSTYLE
  5
2D6
102
{ACAD_REACTORS
330
2D5
102
}
330
2D5
100
AcDbMLeaderStyle
170
     2
171
     1
172
     0
 90
        2
 40
0.0
 41
0.0
173
     1
 91
-1056964608
340
14
 92
       -2
290
     1
 42
2.0
291
     1
 43
0.36
  3
Standard
 44
4.0
300

342
11
174
     1
178
     6
175
     1
176
     0
 93
-1056964608
 45
4.0
292
     0
297
     0
 46
4.0
 94
-1056964608
 47
1.0
 49
1.0
140
1.0
293
     1
141
0.0
294
     1
177
     0
142
1.0
295
     0
296
     0
143
0.125
1001
ACAD_MLEADERVER
1070
     2
  0
MLINESTYLE
  5
18
102
{ACAD_REACTORS
330
17
102
}
330
17
100
AcDbMlineStyle
  2
STANDARD
 70
     0
  3

 62
   256
 51
90.0
 52
90.0
 71
     2
 49
0.5
 62
   256
  6
BYLAYER
 49
-0.5
 62
   256
  6
BYLAYER
  0
PLOTSETTINGS
  5
1C7E
102
{ACAD_REACTORS
330
19
102
}
330
19
100
AcDbPlotSettings
  1
SEISA基本
  2
none_device
  4
Letter_(8.50_x_11.00_Inches)
  6

 40
6.349999904632567
 41
6.349999904632567
 42
6.350006103515625
 43
6.350006103515625
 44
215.8999938964844
 45
279.3999938964844
 46
7.302498226506357
 47
0.0
 48
0.0
 49
0.0
140
0.0
141
0.0
142
1.0
143
1.574803221122935
 70
 11956
 72
     1
 73
     1
 74
     2
  7
SEISA.ctb
 75
     0
147
0.6349999711627054
 76
     0
 77
     2
 78
   300
148
0.0
149
0.0
1001
ACAD_PSEXT
1000
なし
1000
なし
1000
適切ではありません
1000
新しいプロッタ環境設定名を選択しない限り、レイアウトは印刷されません。
1070
     0
  0
ACDBPLACEHOLDER
  5
F
102
{ACAD_REACTORS
330
E
102
}
330
E
  0
SCALE
  5
6799
102
{ACAD_REACTORS
330
2B3
102
}
330
2B3
100
AcDbScale
 70
     0
300
1:15
140
1.0
141
15.0
290
     0
  0
SCALE
  5
679A
102
{ACAD_REACTORS
330
2B3
102
}
330
2B3
100
AcDbScale
 70
     0
300
1:3
140
1.0
141
3.0
290
     0
  0
SCALE
  5
679B
102
{ACAD_REACTORS
330
2B3
102
}
330
2B3
100
AcDbScale
 70
     0
300
1:2.5
140
1.0
141
2.5
290
     0
  0
SCALE
  5
679C
102
{ACAD_REACTORS
330
2B3
102
}
330
2B3
100
AcDbScale
 70
     0
300
1:1.5
140
1.0
141
1.5
290
     0
  0
SCALE
  5
2B4
102
{ACAD_REACTORS
330
2B3
102
}
330
2B3
100
AcDbScale
 70
     0
300
1:1
140
1.0
141
1.0
290
     1
  0
SCALE
  5
2B5
102
{ACAD_REACTORS
330
2B3
102
}
330
2B3
100
AcDbScale
 70
     0
300
1:2
140
1.0
141
2.0
290
     0
  0
SCALE
  5
2B6
102
{ACAD_REACTORS
330
2B3
102
}
330
2B3
100
AcDbScale
 70
     0
300
1:4
140
1.0
141
4.0
290
     0
  0
SCALE
  5
2B7
102
{ACAD_REACTORS
330
2B3
102
}
330
2B3
100
AcDbScale
 70
     0
300
1:5
140
1.0
141
5.0
290
     0
  0
SCALE
  5
2B8
102
{ACAD_REACTORS
330
2B3
102
}
330
2B3
100
AcDbScale
 70
     0
300
1:8
140
1.0
141
8.0
290
     0
  0
SCALE
  5
2B9
102
{ACAD_REACTORS
330
2B3
102
}
330
2B3
100
AcDbScale
 70
     0
300
1:10
140
1.0
141
10.0
290
     0
  0
SCALE
  5
2BA
102
{ACAD_REACTORS
330
2B3
102
}
330
2B3
100
AcDbScale
 70
     0
300
1:16
140
1.0
141
16.0
290
     0
  0
SCALE
  5
2BB
102
{ACAD_REACTORS
330
2B3
102
}
330
2B3
100
AcDbScale
 70
     0
300
1:20
140
1.0
141
20.0
290
     0
  0
SCALE
  5
2BC
102
{ACAD_REACTORS
330
2B3
102
}
330
2B3
100
AcDbScale
 70
     0
300
1:30
140
1.0
141
30.0
290
     0
  0
SCALE
  5
2BD
102
{ACAD_REACTORS
330
2B3
102
}
330
2B3
100
AcDbScale
 70
     0
300
1:40
140
1.0
141
40.0
290
     0
  0
SCALE
  5
2BE
102
{ACAD_REACTORS
330
2B3
102
}
330
2B3
100
AcDbScale
 70
     0
300
1:50
140
1.0
141
50.0
290
     0
  0
SCALE
  5
2BF
102
{ACAD_REACTORS
330
2B3
102
}
330
2B3
100
AcDbScale
 70
     0
300
1:100
140
1.0
141
100.0
290
     0
  0
SCALE
  5
2C0
102
{ACAD_REACTORS
330
2B3
102
}
330
2B3
100
AcDbScale
 70
     0
300
2:1
140
2.0
141
1.0
290
     0
  0
SCALE
  5
2C1
102
{ACAD_REACTORS
330
2B3
102
}
330
2B3
100
AcDbScale
 70
     0
300
4:1
140
4.0
141
1.0
290
     0
  0
SCALE
  5
2C2
102
{ACAD_REACTORS
330
2B3
102
}
330
2B3
100
AcDbScale
 70
     0
300
8:1
140
8.0
141
1.0
290
     0
  0
SCALE
  5
2C3
102
{ACAD_REACTORS
330
2B3
102
}
330
2B3
100
AcDbScale
 70
     0
300
10:1
140
10.0
141
1.0
290
     0
  0
SCALE
  5
2C4
102
{ACAD_REACTORS
330
2B3
102
}
330
2B3
100
AcDbScale
 70
     0
300
100:1
140
100.0
141
1.0
290
     0
  0
SCALE
  5
2C5
102
{ACAD_REACTORS
330
2B3
102
}
330
2B3
100
AcDbScale
 70
     0
300
1/128" = 1'-0"
140
0.0078125
141
12.0
290
     0
  0
SCALE
  5
2C6
102
{ACAD_REACTORS
330
2B3
102
}
330
2B3
100
AcDbScale
 70
     0
300
1/64" = 1'-0"
140
0.015625
141
12.0
290
     0
  0
SCALE
  5
2C7
102
{ACAD_REACTORS
330
2B3
102
}
330
2B3
100
AcDbScale
 70
     0
300
1/32" = 1'-0"
140
0.03125
141
12.0
290
     0
  0
SCALE
  5
2C8
102
{ACAD_REACTORS
330
2B3
102
}
330
2B3
100
AcDbScale
 70
     0
300
1/16" = 1'-0"
140
0.0625
141
12.0
290
     0
  0
SCALE
  5
2C9
102
{ACAD_REACTORS
330
2B3
102
}
330
2B3
100
AcDbScale
 70
     0
300
3/32" = 1'-0"
140
0.09375
141
12.0
290
     0
  0
SCALE
  5
2CA
102
{ACAD_REACTORS
330
2B3
102
}
330
2B3
100
AcDbScale
 70
     0
300
1/8" = 1'-0"
140
0.125
141
12.0
290
     0
  0
SCALE
  5
2CB
102
{ACAD_REACTORS
330
2B3
102
}
330
2B3
100
AcDbScale
 70
     0
300
3/16" = 1'-0"
140
0.1875
141
12.0
290
     0
  0
SCALE
  5
2CC
102
{ACAD_REACTORS
330
2B3
102
}
330
2B3
100
AcDbScale
 70
     0
300
1/4" = 1'-0"
140
0.25
141
12.0
290
     0
  0
SCALE
  5
2CD
102
{ACAD_REACTORS
330
2B3
102
}
330
2B3
100
AcDbScale
 70
     0
300
3/8" = 1'-0"
140
0.375
141
12.0
290
     0
  0
SCALE
  5
2CE
102
{ACAD_REACTORS
330
2B3
102
}
330
2B3
100
AcDbScale
 70
     0
300
1/2" = 1'-0"
140
0.5
141
12.0
290
     0
  0
SCALE
  5
2CF
102
{ACAD_REACTORS
330
2B3
102
}
330
2B3
100
AcDbScale
 70
     0
300
3/4" = 1'-0"
140
0.75
141
12.0
290
     0
  0
SCALE
  5
2D0
102
{ACAD_REACTORS
330
2B3
102
}
330
2B3
100
AcDbScale
 70
     0
300
1" = 1'-0"
140
1.0
141
12.0
290
     0
  0
SCALE
  5
2D1
102
{ACAD_REACTORS
330
2B3
102
}
330
2B3
100
AcDbScale
 70
     0
300
1-1/2" = 1'-0"
140
1.5
141
12.0
290
     0
  0
SCALE
  5
2D2
102
{ACAD_REACTORS
330
2B3
102
}
330
2B3
100
AcDbScale
 70
     0
300
3" = 1'-0"
140
3.0
141
12.0
290
     0
  0
SCALE
  5
2D3
102
{ACAD_REACTORS
330
2B3
102
}
330
2B3
100
AcDbScale
 70
     0
300
6" = 1'-0"
140
6.0
141
12.0
290
     0
  0
SCALE
  5
2D4
102
{ACAD_REACTORS
330
2B3
102
}
330
2B3
100
AcDbScale
 70
     0
300
1'-0" = 1'-0"
140
12.0
141
12.0
290
     0
  0
TABLESTYLE
  5
122
102
{ACAD_XDICTIONARY
360
2F5
102
}
102
{ACAD_REACTORS
330
121
102
}
330
121
100
AcDbTableStyle
  3
Standard
 70
     0
 71
     0
 40
1.5
 41
1.5
280
     0
281
     0
  7
STANDARD
140
4.5
170
     2
 62
     0
 63
     7
283
     0
 90
      512
 91
        0
  1

274
    -2
284
     1
 64
     0
275
    -2
285
     1
 65
     0
276
    -2
286
     1
 66
     0
277
    -2
287
     1
 67
     0
278
    -2
288
     1
 68
     0
279
    -2
289
     1
 69
     0
  7
STANDARD
140
6.0
170
     5
 62
     0
 63
     7
283
     0
 90
      512
 91
        0
  1

274
    -2
284
     1
 64
     0
275
    -2
285
     1
 65
     0
276
    -2
286
     1
 66
     0
277
    -2
287
     1
 67
     0
278
    -2
288
     1
 68
     0
279
    -2
289
     1
 69
     0
  7
STANDARD
140
4.5
170
     5
 62
     0
 63
     7
283
     0
 90
      512
 91
        0
  1

274
    -2
284
     1
 64
     0
275
    -2
285
     1
 65
     0
276
    -2
286
     1
 66
     0
277
    -2
287
     1
 67
     0
278
    -2
288
     1
 68
     0
279
    -2
289
     1
 69
     0
  0
VISUALSTYLE
  5
285
102
{ACAD_REACTORS
330
27F
102
}
330
27F
100
AcDbVisualStyle
  2
2dWireframe
 70
     4
 71
     0
 72
     2
 73
     0
 90
        0
 40
-0.6
 41
-30.0
 62
     5
 63
     7
421
 16777215
 74
     1
 91
        4
 64
     7
 65
   257
 75
     1
175
     1
 42
1.0
 92
        0
 66
   257
 43
1.0
 76
     1
 77
     6
 78
     2
 67
     7
 79
     5
170
     0
171
     0
290
     0
174
     0
 93
        1
 44
0.0
173
     0
291
     0
 45
0.0
  0
VISUALSTYLE
  5
287
102
{ACAD_REACTORS
330
27F
102
}
330
27F
100
AcDbVisualStyle
  2
3D Hidden
 70
     6
 71
     1
 72
     2
 73
     2
 90
        0
 40
-0.6
 41
-30.0
 62
     5
 63
     7
421
 16777215
 74
     2
 91
        2
 64
     7
 65
   257
 75
     2
175
     1
 42
40.0
 92
        0
 66
   257
 43
1.0
 76
     1
 77
     6
 78
     2
 67
     7
 79
     3
170
     0
171
     0
290
     0
174
     0
 93
        1
 44
0.0
173
     0
291
     0
 45
0.0
  0
VISUALSTYLE
  5
286
102
{ACAD_REACTORS
330
27F
102
}
330
27F
100
AcDbVisualStyle
  2
3dWireframe
 70
     5
 71
     0
 72
     2
 73
     0
 90
        0
 40
-0.6
 41
-30.0
 62
     5
 63
     7
421
 16777215
 74
     1
 91
        4
 64
     7
 65
   257
 75
     1
175
     1
 42
1.0
 92
        0
 66
   257
 43
1.0
 76
     1
 77
     6
 78
     2
 67
     7
 79
     5
170
     0
171
     0
290
     0
174
     0
 93
        1
 44
0.0
173
     0
291
     0
 45
0.0
  0
VISUALSTYLE
  5
284
102
{ACAD_REACTORS
330
27F
102
}
330
27F
100
AcDbVisualStyle
  2
Basic
 70
     7
 71
     1
 72
     0
 73
     1
 90
        0
 40
-0.6
 41
-30.0
 62
     5
 63
     7
421
 16777215
 74
     0
 91
        4
 64
     7
 65
   257
 75
     1
175
     1
 42
1.0
 92
        8
 66
     7
 43
1.0
 76
     1
 77
     6
 78
     2
 67
     7
 79
     5
170
     0
171
     0
290
     0
174
     0
 93
        1
 44
0.0
173
     0
291
     1
 45
0.0
  0
VISUALSTYLE
  5
28B
102
{ACAD_REACTORS
330
27F
102
}
330
27F
100
AcDbVisualStyle
  2
Brighten
 70
    12
 71
     2
 72
     2
 73
     0
 90
        0
 40
-0.6
 41
-30.0
 62
     5
 63
     7
421
 16777215
 74
     1
 91
        4
 64
     7
 65
   257
 75
     1
175
     1
 42
1.0
 92
        8
 66
     7
 43
1.0
 76
     1
 77
     6
 78
     2
 67
     7
 79
     5
170
     0
171
     0
290
     0
174
     0
 93
        1
 44
50.0
173
     0
291
     1
 45
0.0
  0
VISUALSTYLE
  5
28F
102
{ACAD_REACTORS
330
27F
102
}
330
27F
100
AcDbVisualStyle
  2
ColorChange
 70
    16
 71
     2
 72
     2
 73
     3
 90
        0
 40
-0.6
 41
-30.0
 62
     5
 63
     8
421
  8421504
 74
     1
 91
        4
 64
     7
 65
   257
 75
     1
175
     1
 42
1.0
 92
        8
 66
     8
424
  8421504
 43
1.0
 76
     1
 77
     6
 78
     2
 67
     7
 79
     5
170
     0
171
     0
290
     0
174
     0
 93
        1
 44
0.0
173
     0
291
     1
 45
0.0
  0
VISUALSTYLE
  5
288
102
{ACAD_REACTORS
330
27F
102
}
330
27F
100
AcDbVisualStyle
  2
Conceptual
 70
     9
 71
     3
 72
     2
 73
     0
 90
        0
 40
-0.6
 41
-30.0
 62
     5
 63
     7
421
 16777215
 74
     2
 91
        2
 64
     7
 65
   257
 75
     1
175
     1
 42
40.0
 92
        8
 66
     7
 43
1.0
 76
     1
 77
     6
 78
     2
 67
     7
 79
     3
170
     0
171
     0
290
     0
174
     0
 93
        1
 44
0.0
173
     0
291
     0
 45
0.0
  0
VISUALSTYLE
  5
28A
102
{ACAD_REACTORS
330
27F
102
}
330
27F
100
AcDbVisualStyle
  2
Dim
 70
    11
 71
     2
 72
     2
 73
     0
 90
        0
 40
-0.6
 41
-30.0
 62
     5
 63
     7
421
 16777215
 74
     1
 91
        4
 64
     7
 65
   257
 75
     1
175
     1
 42
1.0
 92
        8
 66
     7
 43
1.0
 76
     1
 77
     6
 78
     2
 67
     7
 79
     5
170
     0
171
     0
290
     0
174
     0
 93
        1
 44
-50.0
173
     0
291
     1
 45
0.0
  0
VISUALSTYLE
  5
28E
102
{ACAD_REACTORS
330
27F
102
}
330
27F
100
AcDbVisualStyle
  2
Facepattern
 70
    15
 71
     2
 72
     2
 73
     0
 90
        0
 40
-0.6
 41
-30.0
 62
     5
 63
     7
421
 16777215
 74
     1
 91
        4
 64
     7
 65
   257
 75
     1
175
     1
 42
1.0
 92
        8
 66
     7
 43
1.0
 76
     1
 77
     6
 78
     2
 67
     7
 79
     5
170
     0
171
     0
290
     0
174
     0
 93
        1
 44
0.0
173
     0
291
     1
 45
0.0
  0
VISUALSTYLE
  5
280
102
{ACAD_REACTORS
330
27F
102
}
330
27F
100
AcDbVisualStyle
  2
Flat
 70
     0
 71
     2
 72
     1
 73
     1
 90
        2
 40
-0.6
 41
30.0
 62
     5
 63
     7
421
 16777215
 74
     0
 91
        4
 64
     7
 65
   257
 75
     1
175
     1
 42
1.0
 92
        8
 66
     7
 43
1.0
 76
     1
 77
     6
 78
     2
 67
     7
 79
     5
170
     0
171
     0
290
     0
174
     0
 93
       13
 44
0.0
173
     0
291
     1
 45
0.0
  0
VISUALSTYLE
  5
281
102
{ACAD_REACTORS
330
27F
102
}
330
27F
100
AcDbVisualStyle
  2
FlatWithEdges
 70
     1
 71
     2
 72
     1
 73
     1
 90
        2
 40
-0.6
 41
30.0
 62
     5
 63
     7
421
 16777215
 74
     1
 91
        4
 64
     7
 65
   257
 75
     1
175
     1
 42
1.0
 92
        0
 66
   257
 43
1.0
 76
     1
 77
     6
 78
     2
 67
     7
 79
     5
170
     0
171
     0
290
     0
174
     0
 93
       13
 44
0.0
173
     0
291
     1
 45
0.0
  0
VISUALSTYLE
  5
282
102
{ACAD_REACTORS
330
27F
102
}
330
27F
100
AcDbVisualStyle
  2
Gouraud
 70
     2
 71
     2
 72
     2
 73
     1
 90
        2
 40
-0.6
 41
30.0
 62
     5
 63
     7
421
 16777215
 74
     0
 91
        4
 64
     7
 65
   257
 75
     1
175
     1
 42
1.0
 92
        0
 66
     7
 43
1.0
 76
     1
 77
     6
 78
     2
 67
     7
 79
     5
170
     0
171
     0
290
     0
174
     0
 93
       13
 44
0.0
173
     0
291
     1
 45
0.0
  0
VISUALSTYLE
  5
283
102
{ACAD_REACTORS
330
27F
102
}
330
27F
100
AcDbVisualStyle
  2
GouraudWithEdges
 70
     3
 71
     2
 72
     2
 73
     1
 90
        2
 40
-0.6
 41
30.0
 62
     5
 63
     7
421
 16777215
 74
     1
 91
        4
 64
     7
 65
   257
 75
     1
175
     1
 42
1.0
 92
        0
 66
   257
 43
1.0
 76
     1
 77
     6
 78
     2
 67
     7
 79
     5
170
     0
171
     0
290
     0
174
     0
 93
       13
 44
0.0
173
     0
291
     1
 45
0.0
  0
VISUALSTYLE
  5
28D
102
{ACAD_REACTORS
330
27F
102
}
330
27F
100
AcDbVisualStyle
  2
Linepattern
 70
    14
 71
     2
 72
     2
 73
     0
 90
        0
 40
-0.6
 41
-30.0
 62
     5
 63
     7
421
 16777215
 74
     1
 91
        4
 64
     7
 65
   257
 75
     7
175
     7
 42
1.0
 92
        8
 66
     7
 43
1.0
 76
     1
 77
     6
 78
     2
 67
     7
 79
     5
170
     0
171
     0
290
     0
174
     0
 93
        1
 44
0.0
173
     0
291
     1
 45
0.0
  0
VISUALSTYLE
  5
289
102
{ACAD_REACTORS
330
27F
102
}
330
27F
100
AcDbVisualStyle
  2
Realistic
 70
     8
 71
     2
 72
     2
 73
     0
 90
        0
 40
-0.6
 41
-30.0
 62
     5
 63
     7
421
 16777215
 74
     1
 91
        0
 64
     7
 65
   257
 75
     1
175
     1
 42
1.0
 92
        8
 66
     8
424
  7895160
 43
1.0
 76
     1
 77
     6
 78
     2
 67
     7
 79
     5
170
     0
171
     0
290
     0
174
     0
 93
       13
 44
0.0
173
     0
291
     0
 45
0.0
  0
VISUALSTYLE
  5
28C
102
{ACAD_REACTORS
330
27F
102
}
330
27F
100
AcDbVisualStyle
  2
Thicken
 70
    13
 71
     2
 72
     2
 73
     0
 90
        0
 40
-0.6
 41
-30.0
 62
     5
 63
     7
421
 16777215
 74
     1
 91
        4
 64
     7
 65
   257
 75
     1
175
     1
 42
1.0
 92
       12
 66
     7
 43
1.0
 76
     1
 77
     6
 78
     2
 67
     7
 79
     5
170
     0
171
     0
290
     0
174
     0
 93
        1
 44
0.0
173
     0
291
     1
 45
0.0
  0
DICTIONARYVAR
  5
2FA
102
{ACAD_REACTORS
330
34
102
}
330
34
100
DictionaryVariables
280
     0
  1
1:20
  0
DICTIONARYVAR
  5
2F8
102
{ACAD_REACTORS
330
34
102
}
330
34
100
DictionaryVariables
280
     0
  1
STANDARD
  0
DICTIONARYVAR
  5
140
102
{ACAD_REACTORS
330
34
102
}
330
34
100
DictionaryVariables
280
     0
  1
STANDARD
  0
DICTIONARYVAR
  5
AC
102
{ACAD_REACTORS
330
34
102
}
330
34
100
DictionaryVariables
280
     0
  1
1
  0
DICTIONARYVAR
  5
35
102
{ACAD_REACTORS
330
34
102
}
330
34
100
DictionaryVariables
280
     0
  1
1
  0
DICTIONARYVAR
  5
63F9
102
{ACAD_REACTORS
330
34
102
}
330
34
100
DictionaryVariables
280
     0
  1
1
  0
DICTIONARYVAR
  5
63FA
102
{ACAD_REACTORS
330
34
102
}
330
34
100
DictionaryVariables
280
     0
  1
15
  0
DICTIONARYVAR
  5
2FB
102
{ACAD_REACTORS
330
34
102
}
330
34
100
DictionaryVariables
280
     0
  1
0
  0
DICTIONARYVAR
  5
2F9
102
{ACAD_REACTORS
330
34
102
}
330
34
100
DictionaryVariables
280
     0
  1
0
  0
DICTIONARY
  5
161B
102
{ACAD_REACTORS
330
49
102
}
330
49
100
AcDbDictionary
281
     1
  0
DICTIONARY
  5
4A
102
{ACAD_REACTORS
330
49
102
}
330
49
100
AcDbDictionary
281
     1
  0
XRECORD
  5
12B
102
{ACAD_REACTORS
330
49
102
}
330
49
100
AcDbXrecord
280
     1
 90
-1023410169
  0
DICTIONARY
  5
2F5
330
122
100
AcDbDictionary
280
     1
281
     1
  3
ACAD_ROUNDTRIP_2008_TABLESTYLE_CELLSTYLEMAP
360
6B75
  0
CELLSTYLEMAP
  5
6B75
102
{ACAD_REACTORS
330
2F5
102
}
330
2F5
100
AcDbCellStyleMap
 90
        3
300
CELLSTYLE
  1
TABLEFORMAT_BEGIN
 90
        5
170
     1
 91
        0
 92
    32768
 62
   257
 93
        1
300
CONTENTFORMAT
  1
CONTENTFORMAT_BEGIN
 90
        0
 91
        0
 92
      512
 93
        0
300

 40
0.0
140
1.0
 94
        5
 62
     0
340
11
144
6.0
309
CONTENTFORMAT_END
171
     1
301
MARGIN
  1
CELLMARGIN_BEGIN
 40
1.5
 40
1.5
 40
1.5
 40
1.5
 40
0.18
 40
0.18
309
CELLMARGIN_END
 94
        6
 95
        1
302
GRIDFORMAT
  1
GRIDFORMAT_BEGIN
 90
        0
 91
        1
 62
     0
 92
       -2
340
0
 93
        0
 40
0.045
309
GRIDFORMAT_END
 95
        2
302
GRIDFORMAT
  1
GRIDFORMAT_BEGIN
 90
        0
 91
        1
 62
     0
 92
       -2
340
0
 93
        0
 40
0.045
309
GRIDFORMAT_END
 95
        4
302
GRIDFORMAT
  1
GRIDFORMAT_BEGIN
 90
        0
 91
        1
 62
     0
 92
       -2
340
0
 93
        0
 40
0.045
309
GRIDFORMAT_END
 95
        8
302
GRIDFORMAT
  1
GRIDFORMAT_BEGIN
 90
        0
 91
        1
 62
     0
 92
       -2
340
0
 93
        0
 40
0.045
309
GRIDFORMAT_END
 95
       16
302
GRIDFORMAT
  1
GRIDFORMAT_BEGIN
 90
        0
 91
        1
 62
     0
 92
       -2
340
0
 93
        0
 40
0.045
309
GRIDFORMAT_END
 95
       32
302
GRIDFORMAT
  1
GRIDFORMAT_BEGIN
 90
        0
 91
        1
 62
     0
 92
       -2
340
0
 93
        0
 40
0.045
309
GRIDFORMAT_END
309
TABLEFORMAT_END
  1
CELLSTYLE_BEGIN
 90
        1
 91
        1
300
_TITLE
309
CELLSTYLE_END
300
CELLSTYLE
  1
TABLEFORMAT_BEGIN
 90
        5
170
     1
 91
        0
 92
        0
 62
   257
 93
        1
300
CONTENTFORMAT
  1
CONTENTFORMAT_BEGIN
 90
        0
 91
        0
 92
      512
 93
        0
300

 40
0.0
140
1.0
 94
        5
 62
     0
340
11
144
4.5
309
CONTENTFORMAT_END
171
     1
301
MARGIN
  1
CELLMARGIN_BEGIN
 40
1.5
 40
1.5
 40
1.5
 40
1.5
 40
0.18
 40
0.18
309
CELLMARGIN_END
 94
        6
 95
        1
302
GRIDFORMAT
  1
GRIDFORMAT_BEGIN
 90
        0
 91
        1
 62
     0
 92
       -2
340
0
 93
        0
 40
0.045
309
GRIDFORMAT_END
 95
        2
302
GRIDFORMAT
  1
GRIDFORMAT_BEGIN
 90
        0
 91
        1
 62
     0
 92
       -2
340
0
 93
        0
 40
0.045
309
GRIDFORMAT_END
 95
        4
302
GRIDFORMAT
  1
GRIDFORMAT_BEGIN
 90
        0
 91
        1
 62
     0
 92
       -2
340
0
 93
        0
 40
0.045
309
GRIDFORMAT_END
 95
        8
302
GRIDFORMAT
  1
GRIDFORMAT_BEGIN
 90
        0
 91
        1
 62
     0
 92
       -2
340
0
 93
        0
 40
0.045
309
GRIDFORMAT_END
 95
       16
302
GRIDFORMAT
  1
GRIDFORMAT_BEGIN
 90
        0
 91
        1
 62
     0
 92
       -2
340
0
 93
        0
 40
0.045
309
GRIDFORMAT_END
 95
       32
302
GRIDFORMAT
  1
GRIDFORMAT_BEGIN
 90
        0
 91
        1
 62
     0
 92
       -2
340
0
 93
        0
 40
0.045
309
GRIDFORMAT_END
309
TABLEFORMAT_END
  1
CELLSTYLE_BEGIN
 90
        2
 91
        1
300
_HEADER
309
CELLSTYLE_END
300
CELLSTYLE
  1
TABLEFORMAT_BEGIN
 90
        5
170
     1
 91
        0
 92
        0
 62
   257
 93
        1
300
CONTENTFORMAT
  1
CONTENTFORMAT_BEGIN
 90
        0
 91
        0
 92
      512
 93
        0
300

 40
0.0
140
1.0
 94
        2
 62
     0
340
11
144
4.5
309
CONTENTFORMAT_END
171
     1
301
MARGIN
  1
CELLMARGIN_BEGIN
 40
1.5
 40
1.5
 40
1.5
 40
1.5
 40
0.18
 40
0.18
309
CELLMARGIN_END
 94
        6
 95
        1
302
GRIDFORMAT
  1
GRIDFORMAT_BEGIN
 90
        0
 91
        1
 62
     0
 92
       -2
340
0
 93
        0
 40
0.045
309
GRIDFORMAT_END
 95
        2
302
GRIDFORMAT
  1
GRIDFORMAT_BEGIN
 90
        0
 91
        1
 62
     0
 92
       -2
340
0
 93
        0
 40
0.045
309
GRIDFORMAT_END
 95
        4
302
GRIDFORMAT
  1
GRIDFORMAT_BEGIN
 90
        0
 91
        1
 62
     0
 92
       -2
340
0
 93
        0
 40
0.045
309
GRIDFORMAT_END
 95
        8
302
GRIDFORMAT
  1
GRIDFORMAT_BEGIN
 90
        0
 91
        1
 62
     0
 92
       -2
340
0
 93
        0
 40
0.045
309
GRIDFORMAT_END
 95
       16
302
GRIDFORMAT
  1
GRIDFORMAT_BEGIN
 90
        0
 91
        1
 62
     0
 92
       -2
340
0
 93
        0
 40
0.045
309
GRIDFORMAT_END
 95
       32
302
GRIDFORMAT
  1
GRIDFORMAT_BEGIN
 90
        0
 91
        1
 62
     0
 92
       -2
340
0
 93
        0
 40
0.045
309
GRIDFORMAT_END
309
TABLEFORMAT_END
  1
CELLSTYLE_BEGIN
 90
        3
 91
        2
300
_DATA
309
CELLSTYLE_END
  0
ENDSEC
  0
EOF
