  0
SECTION
  2
HEADER
  9
$ACADVER
  1
AC1021
  9
$ACADMAINTVER
 70
    26
  9
$DWGCODEPAGE
  3
ANSI_932
  9
$LASTSAVEDBY
  1
Htm_Terada
  9
$CUSTOMPROPERTYTAG
  1
AmdtFileType
  9
$CUSTOMPROPERTY
  1
84
  9
$INSBASE
 10
0.0
 20
0.0
 30
0.0
  9
$EXTMIN
 10
1876.979397652278
 20
2071.846264124226
 30
0.0
  9
$EXTMAX
 10
4970.211118364478
 20
4135.357720138201
 30
0.0
  9
$LIMMIN
 10
0.0000028715078315
 20
0.0000055407309674
  9
$LIMMAX
 10
6300.000002871508
 20
4455.000005540731
  9
$ORTHOMODE
 70
     0
  9
$REGENMODE
 70
     1
  9
$FILLMODE
 70
     1
  9
$QTEXTMODE
 70
     0
  9
$MIRRTEXT
 70
     1
  9
$LTSCALE
 40
15.0
  9
$ATTMODE
 70
     1
  9
$TEXTSIZE
 40
25.0
  9
$TRACEWID
 40
1.0
  9
$TEXTSTYLE
  7
SEISA
  9
$CLAYER
  8
AM_0 外形線1
  9
$CELTYPE
  6
ByLayer
  9
$CECOLOR
 62
   256
  9
$CELTSCALE
 40
1.0
  9
$DISPSILH
 70
     0
  9
$DIMSCALE
 40
15.0
  9
$DIMASZ
 40
2.5
  9
$DIMEXO
 40
0.625
  9
$DIMDLI
 40
10.0
  9
$DIMRND
 40
0.0
  9
$DIMDLE
 40
0.0
  9
$DIMEXE
 40
0.625
  9
$DIMTP
 40
0.1
  9
$DIMTM
 40
0.1
  9
$DIMTXT
 40
3.5
  9
$DIMCEN
 40
0.0
  9
$DIMTSZ
 40
0.0
  9
$DIMTOL
 70
     0
  9
$DIMLIM
 70
     0
  9
$DIMTIH
 70
     0
  9
$DIMTOH
 70
     0
  9
$DIMSE1
 70
     0
  9
$DIMSE2
 70
     0
  9
$DIMTAD
 70
     3
  9
$DIMZIN
 70
     8
  9
$DIMBLK
  1
Open30
  9
$DIMASO
 70
     1
  9
$DIMSHO
 70
     1
  9
$DIMPOST
  1

  9
$DIMAPOST
  1
"
  9
$DIMALT
 70
     0
  9
$DIMALTD
 70
     2
  9
$DIMALTF
 40
0.0393701
  9
$DIMLFAC
 40
1.0
  9
$DIMTOFL
 70
     1
  9
$DIMTVP
 40
0.0
  9
$DIMTIX
 70
     0
  9
$DIMSOXD
 70
     0
  9
$DIMSAH
 70
     0
  9
$DIMBLK1
  1

  9
$DIMBLK2
  1

  9
$DIMSTYLE
  2
SEISA
  9
$DIMCLRD
 70
     3
  9
$DIMCLRE
 70
     3
  9
$DIMCLRT
 70
     3
  9
$DIMTFAC
 40
0.71
  9
$DIMGAP
 40
1.5
  9
$DIMJUST
 70
     0
  9
$DIMSD1
 70
     0
  9
$DIMSD2
 70
     0
  9
$DIMTOLJ
 70
     0
  9
$DIMTZIN
 70
     0
  9
$DIMALTZ
 70
     0
  9
$DIMALTTZ
 70
     8
  9
$DIMUPT
 70
     0
  9
$DIMDEC
 70
     2
  9
$DIMTDEC
 70
     2
  9
$DIMALTU
 70
     2
  9
$DIMALTTD
 70
     2
  9
$DIMTXSTY
  7
SEISA
  9
$DIMAUNIT
 70
     0
  9
$DIMADEC
 70
     0
  9
$DIMALTRND
 40
0.0
  9
$DIMAZIN
 70
     2
  9
$DIMDSEP
 70
    46
  9
$DIMATFIT
 70
     3
  9
$DIMFRAC
 70
     0
  9
$DIMLDRBLK
  1
Open30
  9
$DIMLUNIT
 70
     2
  9
$DIMLWD
 70
    -1
  9
$DIMLWE
 70
    -1
  9
$DIMTMOVE
 70
     0
  9
$DIMFXL
 40
1.0
  9
$DIMFXLON
 70
     0
  9
$DIMJOGANG
 40
0.7853981633974483
  9
$DIMTFILL
 70
     0
  9
$DIMTFILLCLR
 70
     0
  9
$DIMARCSYM
 70
     1
  9
$DIMLTYPE
  6

  9
$DIMLTEX1
  6

  9
$DIMLTEX2
  6

  9
$LUNITS
 70
     2
  9
$LUPREC
 70
     2
  9
$SKETCHINC
 40
1.0
  9
$FILLETRAD
 40
3.0
  9
$AUNITS
 70
     0
  9
$AUPREC
 70
     0
  9
$MENU
  1
.
  9
$ELEVATION
 40
0.0
  9
$PELEVATION
 40
0.0
  9
$THICKNESS
 40
0.0
  9
$LIMCHECK
 70
     0
  9
$CHAMFERA
 40
20.08250000000362
  9
$CHAMFERB
 40
20.08250000000362
  9
$CHAMFERC
 40
20.08250000000362
  9
$CHAMFERD
 40
0.7853981633974822
  9
$SKPOLY
 70
     0
  9
$TDCREATE
 40
2454949.501784792
  9
$TDUCREATE
 40
2454949.126784792
  9
$TDUPDATE
 40
2456478.718709491
  9
$TDUUPDATE
 40
2456478.343709491
  9
$TDINDWG
 40
0.2605695486
  9
$TDUSRTIMER
 40
0.2605686458
  9
$USRTIMER
 70
     1
  9
$ANGBASE
 50
0.0
  9
$ANGDIR
 70
     0
  9
$PDMODE
 70
     0
  9
$PDSIZE
 40
0.0
  9
$PLINEWID
 40
0.0
  9
$SPLFRAME
 70
     0
  9
$SPLINETYPE
 70
     6
  9
$SPLINESEGS
 70
     8
  9
$HANDSEED
  5
6BA4
  9
$SURFTAB1
 70
     6
  9
$SURFTAB2
 70
     6
  9
$SURFTYPE
 70
     6
  9
$SURFU
 70
     6
  9
$SURFV
 70
     6
  9
$UCSBASE
  2

  9
$UCSNAME
  2

  9
$UCSORG
 10
0.0
 20
0.0
 30
0.0
  9
$UCSXDIR
 10
1.0
 20
0.0
 30
0.0
  9
$UCSYDIR
 10
0.0
 20
1.0
 30
0.0
  9
$UCSORTHOREF
  2

  9
$UCSORTHOVIEW
 70
     0
  9
$UCSORGTOP
 10
0.0
 20
0.0
 30
0.0
  9
$UCSORGBOTTOM
 10
0.0
 20
0.0
 30
0.0
  9
$UCSORGLEFT
 10
0.0
 20
0.0
 30
0.0
  9
$UCSORGRIGHT
 10
0.0
 20
0.0
 30
0.0
  9
$UCSORGFRONT
 10
0.0
 20
0.0
 30
0.0
  9
$UCSORGBACK
 10
0.0
 20
0.0
 30
0.0
  9
$PUCSBASE
  2

  9
$PUCSNAME
  2

  9
$PUCSORG
 10
0.0
 20
0.0
 30
0.0
  9
$PUCSXDIR
 10
1.0
 20
0.0
 30
0.0
  9
$PUCSYDIR
 10
0.0
 20
1.0
 30
0.0
  9
$PUCSORTHOREF
  2

  9
$PUCSORTHOVIEW
 70
     0
  9
$PUCSORGTOP
 10
0.0
 20
0.0
 30
0.0
  9
$PUCSORGBOTTOM
 10
0.0
 20
0.0
 30
0.0
  9
$PUCSORGLEFT
 10
0.0
 20
0.0
 30
0.0
  9
$PUCSORGRIGHT
 10
0.0
 20
0.0
 30
0.0
  9
$PUCSORGFRONT
 10
0.0
 20
0.0
 30
0.0
  9
$PUCSORGBACK
 10
0.0
 20
0.0
 30
0.0
  9
$USERI1
 70
     0
  9
$USERI2
 70
     0
  9
$USERI3
 70
     0
  9
$USERI4
 70
     0
  9
$USERI5
 70
     0
  9
$USERR1
 40
0.0
  9
$USERR2
 40
0.0
  9
$USERR3
 40
0.0
  9
$USERR4
 40
0.0
  9
$USERR5
 40
0.0
  9
$WORLDVIEW
 70
     1
  9
$SHADEDGE
 70
     3
  9
$SHADEDIF
 70
    70
  9
$TILEMODE
 70
     1
  9
$MAXACTVP
 70
    64
  9
$PINSBASE
 10
0.0
 20
0.0
 30
0.0
  9
$PLIMCHECK
 70
     0
  9
$PEXTMIN
 10
1.000000000000000E+20
 20
1.000000000000000E+20
 30
1.000000000000000E+20
  9
$PEXTMAX
 10
-1.000000000000000E+20
 20
-1.000000000000000E+20
 30
-1.000000000000000E+20
  9
$PLIMMIN
 10
0.0
 20
0.0
  9
$PLIMMAX
 10
420.0
 20
297.0
  9
$UNITMODE
 70
     0
  9
$VISRETAIN
 70
     1
  9
$PLINEGEN
 70
     0
  9
$PSLTSCALE
 70
     1
  9
$TREEDEPTH
 70
  3020
  9
$CMLSTYLE
  2
Standard
  9
$CMLJUST
 70
     0
  9
$CMLSCALE
 40
20.0
  9
$PROXYGRAPHICS
 70
     1
  9
$MEASUREMENT
 70
     1
  9
$CELWEIGHT
370
    -1
  9
$ENDCAPS
280
     0
  9
$JOINSTYLE
280
     0
  9
$LWDISPLAY
290
     0
  9
$INSUNITS
 70
     4
  9
$HYPERLINKBASE
  1

  9
$STYLESHEET
  1
SEISA.CTB
  9
$XEDIT
290
     1
  9
$CEPSNTYPE
380
     0
  9
$PSTYLEMODE
290
     1
  9
$FINGERPRINTGUID
  2
{F709F3B2-FAC0-4613-9FE1-9D2AA42F3B17}
  9
$VERSIONGUID
  2
{FACCAD4F-F28D-4DEA-B366-014AD9046DA9}
  9
$EXTNAMES
290
     1
  9
$PSVPSCALE
 40
0.0
  9
$OLESTARTUP
290
     0
  9
$SORTENTS
280
   127
  9
$INDEXCTL
280
     0
  9
$HIDETEXT
280
     0
  9
$XCLIPFRAME
290
     0
  9
$HALOGAP
280
     0
  9
$OBSCOLOR
 70
   257
  9
$OBSLTYPE
280
     0
  9
$INTERSECTIONDISPLAY
280
     0
  9
$INTERSECTIONCOLOR
 70
   257
  9
$DIMASSOC
280
     2
  9
$PROJECTNAME
  1

  9
$CAMERADISPLAY
290
     0
  9
$LENSLENGTH
 40
50.0
  9
$CAMERAHEIGHT
 40
0.0
  9
$STEPSPERSEC
 40
2.0
  9
$STEPSIZE
 40
6.0
  9
$3DDWFPREC
 40
2.0
  9
$PSOLWIDTH
 40
0.25
  9
$PSOLHEIGHT
 40
4.0
  9
$LOFTANG1
 40
1.570796326794896
  9
$LOFTANG2
 40
1.570796326794896
  9
$LOFTMAG1
 40
0.0
  9
$LOFTMAG2
 40
0.0
  9
$LOFTPARAM
 70
     7
  9
$LOFTNORMALS
280
     1
  9
$LATITUDE
 40
37.795
  9
$LONGITUDE
 40
-122.394
  9
$NORTHDIRECTION
 40
0.0
  9
$TIMEZONE
 70
 -8000
  9
$LIGHTGLYPHDISPLAY
280
     1
  9
$TILEMODELIGHTSYNCH
280
     1
  9
$CMATERIAL
347
27C
  9
$SOLIDHIST
280
     1
  9
$SHOWHIST
280
     1
  9
$DWFFRAME
280
     2
  9
$DGNFRAME
280
     0
  9
$REALWORLDSCALE
290
     1
  9
$INTERFERECOLOR
 62
     1
  9
$INTERFEREOBJVS
345
289
  9
$INTERFEREVPVS
346
286
  9
$CSHADOW
280
     0
  9
$SHADOWPLANELOCATION
 40
0.0
  0
ENDSEC
  0
SECTION
  2
CLASSES
  0
CLASS
  1
ACDBDICTIONARYWDFLT
  2
AcDbDictionaryWithDefault
  3
ObjectDBX Classes
 90
        0
 91
        1
280
     0
281
     0
  0
CLASS
  1
AMGSETTINGSOBJ
  2
AmgSettingsObj
  3
"AcadM|Product Description: AutoCAD Mechanical|Company: Autodesk, Inc."
 90
     1024
 91
        2
280
     0
281
     0
  0
CLASS
  1
ACME_DOCUMENT
  2
AcMeDbDoc
  3
AcMeServices
 90
     1024
 91
        1
280
     0
281
     0
  0
CLASS
  1
ACMESCOPE
  2
AcMeScope
  3
AcMeServices
 90
     1024
 91
        1
280
     0
281
     0
  0
CLASS
  1
ACMECOMMANDHISTORY
  2
AcMeCommandHistory
  3
AcMeServices
 90
     1024
 91
        1
280
     0
281
     0
  0
CLASS
  1
DICTIONARYVAR
  2
AcDbDictionaryVar
  3
ObjectDBX Classes
 90
        0
 91
        9
280
     0
281
     0
  0
CLASS
  1
ACIMSYSVARMAN
  2
AcImSysVarManager
  3
AcMeServices
 90
     1024
 91
        5
280
     0
281
     0
  0
CLASS
  1
ACIMREALSYSVAR
  2
AcImRealSysVar
  3
AcMeServices
 90
     1024
 91
        1
280
     0
281
     0
  0
CLASS
  1
ACIMINTSYSVAR
  2
AcImIntSysVar
  3
AcMeServices
 90
     1024
 91
       27
280
     0
281
     0
  0
CLASS
  1
ACMEDRAWINGMAN
  2
AcMeDrawingMan
  3
AcMeServices
 90
     1024
 91
        1
280
     0
281
     0
  0
CLASS
  1
ACMEVIEW
  2
AcMeView
  3
AcMeServices
 90
     1024
 91
        1
280
     0
281
     0
  0
CLASS
  1
ACDBENTITYCACHE
  2
AcMeEntityCache
  3
AcMeServices
 90
     1024
 91
        1
280
     0
281
     0
  0
CLASS
  1
GSMANAGER
  2
AcMeGSManager
  3
AcMeServices
 90
     1024
 91
        1
280
     0
281
     0
  0
CLASS
  1
AMDTINTERNALREACTOR
  2
AmdtInternalReactor
  3
AcMeServices
 90
     1024
 91
        2
280
     0
281
     0
  0
CLASS
  1
ACMESTATEMGR
  2
AcMeStateMgr
  3
AcMeServices
 90
     1024
 91
        1
280
     0
281
     0
  0
CLASS
  1
ACGREFMASTER
  2
AcGrefMaster
  3
AcAttribServices
 90
     1024
 91
        1
280
     0
281
     0
  0
CLASS
  1
ACME_DATABASE
  2
AcMeDbDatabase
  3
AcMeServices
 90
     1024
 91
        1
280
     0
281
     0
  0
CLASS
  1
ACRFINSADJUSTERMGR
  2
AcRfInsAdjusterMgr
  3
AcMeServices
 90
     1024
 91
        1
280
     0
281
     0
  0
CLASS
  1
ACGREFACADMASTER
  2
AcGrefacadMaster
  3
AcGrefServices
 90
     1024
 91
        1
280
     0
281
     0
  0
CLASS
  1
AMIMASTER
  2
AmiMaster
  3
AmiServices
 90
     1024
 91
        1
280
     0
281
     0
  0
CLASS
  1
ACIMSTRSYSVAR
  2
AcImStrSysVar
  3
AcMeServices
 90
     1024
 91
        5
280
     0
281
     0
  0
CLASS
  1
ACMSTANDARDJIS
  2
AcmStandardJIS
  3
"Amdt_StdImp|Product Description: AutoCAD Mechanical|Company: Autodesk, Inc."
 90
     1024
 91
        0
280
     0
281
     0
  0
CLASS
  1
AMGOBJPROPCFG
  2
AmgObjPropCfg
  3
"AmgLay|Product Description: AutoCAD Mechanical|Company: Autodesk, Inc."
 90
     1025
 91
        1
280
     0
281
     0
  0
CLASS
  1
ACMSURFSTANDARDJIS
  2
AcmSurfTextStdJIS
  3
"Amdt_StdImp|Product Description: AutoCAD Mechanical|Company: Autodesk, Inc."
 90
     1024
 91
        0
280
     0
281
     0
  0
CLASS
  1
ACMFCFSTANDARDJIS
  2
AcmFCFStdJIS
  3
"Amdt_StdImp|Product Description: AutoCAD Mechanical|Company: Autodesk, Inc."
 90
     1024
 91
        0
280
     0
281
     0
  0
CLASS
  1
ACMWELDSTANDARDJIS
  2
AcmWeldingStdJIS
  3
"Amdt_StdImp|Product Description: AutoCAD Mechanical|Company: Autodesk, Inc."
 90
     1024
 91
        0
280
     0
281
     0
  0
CLASS
  1
ACMIDSTANDARDJIS
  2
AcmIdStdJIS
  3
"Amdt_StdImp|Product Description: AutoCAD Mechanical|Company: Autodesk, Inc."
 90
     1024
 91
        0
280
     0
281
     0
  0
CLASS
  1
ACMDATUMSTANDARDJIS
  2
AcmDatumStdJIS
  3
"Amdt_StdImp|Product Description: AutoCAD Mechanical|Company: Autodesk, Inc."
 90
     1024
 91
        0
280
     0
281
     0
  0
CLASS
  1
ACMBOMSTANDARDJIS
  2
AcmBOMStdJIS
  3
"Amdt_StdImp|Product Description: AutoCAD Mechanical|Company: Autodesk, Inc."
 90
     1024
 91
        0
280
     0
281
     0
  0
CLASS
  1
ACMDETAILSTANDARDJIS
  2
AmdtDetailSymStdJIS
  3
"Amdt_StdImp|Product Description: AutoCAD Mechanical|Company: Autodesk, Inc."
 90
     1024
 91
        0
280
     0
281
     0
  0
CLASS
  1
ACMSECTIONSTANDARDJIS
  2
AmdtSectionSymStdJIS
  3
"Amdt_StdImp|Product Description: AutoCAD Mechanical|Company: Autodesk, Inc."
 90
     1024
 91
        0
280
     0
281
     0
  0
CLASS
  1
ACMCENTERLINESTANDARDJIS
  2
AmdtCenterLineStdJIS
  3
"Amdt_StdImp|Product Description: AutoCAD Mechanical|Company: Autodesk, Inc."
 90
     1024
 91
        0
280
     0
281
     0
  0
CLASS
  1
ACMTHREADLINESTANDARDJIS
  2
AmdtThreadLineStdJIS
  3
"Amdt_StdImp|Product Description: AutoCAD Mechanical|Company: Autodesk, Inc."
 90
     1024
 91
        0
280
     0
281
     0
  0
CLASS
  1
ACAMGLAYSTD
  2
AcAmgLayStd
  3
"AmgLay|Product Description: AutoCAD Mechanical|Company: Autodesk, Inc."
 90
     1024
 91
        1
280
     0
281
     0
  0
CLASS
  1
ACAMGDIMSTD
  2
AcAmgDimStd
  3
"AmgDim|Product Description: AutoCAD Mechanical|Company: Autodesk, Inc."
 90
     1024
 91
        1
280
     0
281
     0
  0
CLASS
  1
ACAMGTITLESTD
  2
AcAmgTitleStd
  3
"AmgTitle|Product Description: AutoCAD Mechanical|Company: Autodesk, Inc."
 90
     4095
 91
        1
280
     0
281
     0
  0
CLASS
  1
ACMDATADICTIONARY
  2
AcmDataDictionary
  3
"AcmSymBB|Product Description: AutoCAD Mechanical|Company: Autodesk, Inc."
 90
     1024
 91
        1
280
     0
281
     0
  0
CLASS
  1
ACMDATAENTRYBLOCK
  2
AcmDataEntryBlock
  3
AcmSymBB|Product Description: AutoCAD Mechanical|Company: Autodesk, Inc.
 90
     1024
 91
        0
280
     0
281
     0
  0
CLASS
  1
LAYER_INDEX
  2
AcDbLayerIndex
  3
ObjectDBX Classes
 90
        0
 91
        0
280
     0
281
     0
  0
CLASS
  1
IDBUFFER
  2
AcDbIdBuffer
  3
ObjectDBX Classes
 90
        0
 91
        0
280
     0
281
     0
  0
CLASS
  1
ACMNOTESTANDARDJIS
  2
AmdtNoteStdJIS
  3
"Amdt_StdImp|Product Description: AutoCAD Mechanical|Company: Autodesk, Inc."
 90
     1024
 91
        0
280
     0
281
     0
  0
CLASS
  1
ACAMGHOLECHARTSTDJIS
  2
AcAmgHoleChartStdJIS
  3
AmgDim|Product Description: AutoCAD Mechanical|Company: Autodesk, Inc.
 90
     1024
 91
        0
280
     0
281
     0
  0
CLASS
  1
AM_DRAWING_MGR
  2
AcDmDwgMgr
  3
AcMechDwgViewMgmt
 90
     1024
 91
        1
280
     0
281
     0
  0
CLASS
  1
AM_DWG_DOCUMENT
  2
AcDmDwgDocument
  3
AcMechDwgViewMgmt
 90
     1024
 91
        1
280
     0
281
     0
  0
CLASS
  1
AM_DWG_SHEET
  2
AcDmSheet
  3
AcMechDwgViewMgmt
 90
     1024
 91
        2
280
     0
281
     0
  0
CLASS
  1
AM_VIEWDIMPARMAP
  2
AcDmViewDimParMap
  3
AcMechDwgViewMgmt
 90
     1024
 91
        2
280
     0
281
     0
  0
CLASS
  1
AM_DWGMGR_NAME
  2
AcDmDwgMgrName
  3
AcMechDwgViewMgmt
 90
     1024
 91
        1
280
     0
281
     0
  0
CLASS
  1
AMDTMENUSTATEMGR
  2
AmdtMenuStateMgr
  3
McadcomServices
 90
     1024
 91
        1
280
     0
281
     0
  0
CLASS
  1
AMDTMCOMMENUSTATE
  2
AmdtMcomMenuState
  3
McadcomServices
 90
     1024
 91
        1
280
     0
281
     0
  0
CLASS
  1
MAPIAMMOUDLE
  2
MApiAmModule
  3
MApiAmServices
 90
     1024
 91
        1
280
     0
281
     0
  0
CLASS
  1
AMDTADMENUSTATE
  2
AmdtAdMenuState
  3
DesignerServices
 90
     1024
 91
        1
280
     0
281
     0
  0
CLASS
  1
ADAPPL
  2
AcAdAppl
  3
DesignerServices
 90
     1024
 91
        1
280
     0
281
     0
  0
CLASS
  1
DEPMGR
  2
AcAdDepMgr
  3
DesignerServices
 90
     1024
 91
        1
280
     0
281
     0
  0
CLASS
  1
PARAMMGR
  2
AcAdParamMgr
  3
DesignerServices
 90
     1024
 91
        1
280
     0
281
     0
  0
CLASS
  1
PARAMSCOPE
  2
AcAdParamScope
  3
DesignerServices
 90
     1024
 91
        1
280
     0
281
     0
  0
CLASS
  1
NAMEDAPPL
  2
AcAdNamedAppl
  3
DesignerServices
 90
     1024
 91
        1
280
     0
281
     0
  0
CLASS
  1
AMDTDMMENUSTATE
  2
AmdtDmMenuState
  3
AcMechDwgViewMgmt
 90
     1024
 91
        1
280
     0
281
     0
  0
CLASS
  1
AMDTAMMENUSTATE
  2
AmdtAmMenuState
  3
DesignerAssemblies
 90
     1024
 91
        1
280
     0
281
     0
  0
CLASS
  1
ACAMPROJECT
  2
AcAmProject
  3
DesignerAssemblies
 90
     1024
 91
        1
280
     0
281
     0
  0
CLASS
  1
ACAMGRCOMPDEF
  2
AcAmGrCompDef
  3
DesignerAssemblies
 90
     1024
 91
        1
280
     0
281
     0
  0
CLASS
  1
ACCMCONTEXT
  2
AcCmContext
  3
DesignerAssemblies
 90
     1024
 91
        1
280
     0
281
     0
  0
CLASS
  1
ACAMCOMPDEF
  2
AcAmCompDef
  3
DesignerAssemblies
 90
     1024
 91
        1
280
     0
281
     0
  0
CLASS
  1
ACAMCOMPDEFMGR
  2
AcAmCompDefMgr
  3
DesignerAssemblies
 90
     1024
 91
        1
280
     0
281
     0
  0
CLASS
  1
AMCONTEXTMGR
  2
AcAmContextMgr
  3
DesignerAssemblies
 90
     1024
 91
        1
280
     0
281
     0
  0
CLASS
  1
ACAMCONTEXTMODELER
  2
AcAmContextModeler
  3
DesignerAssemblies
 90
     1024
 91
        1
280
     0
281
     0
  0
CLASS
  1
CATALOGSTATE
  2
AcAmCatalogState
  3
DesignerAssemblies
 90
     1024
 91
        1
280
     0
281
     0
  0
CLASS
  1
ACAMGRCOMPDEFSET
  2
AcAmGrCompDefSet
  3
DesignerAssemblies
 90
     1024
 91
        1
280
     0
281
     0
  0
CLASS
  1
AMDTBROWSERDBTAB
  2
AmdtBrowserDbTab
  3
McadcomServices
 90
     1024
 91
        1
280
     0
281
     0
  0
CLASS
  1
CBROWSERAPPOBJECT
  2
CBrowserAppObject
  3
McadcomServices
 90
     1024
 91
        3
280
     0
281
     0
  0
CLASS
  1
DM_PLACEHOLDER
  2
AcDmSelsetPlaceholder
  3
AcMechDwgViewMgmt
 90
     1024
 91
        1
280
     0
281
     0
  0
CLASS
  1
TABLESTYLE
  2
AcDbTableStyle
  3
ObjectDBX Classes
 90
     4095
 91
        1
280
     0
281
     0
  0
CLASS
  1
VAACXREFPANELOBJECT
  2
VaAcXREFPanelObject
  3
VAAC_ADDIN
 90
        0
 91
        0
280
     0
281
     0
  0
CLASS
  1
VAACIMAGEINVENTORY
  2
VaAcImageInventory
  3
VAAC_ADDIN
 90
        0
 91
        0
280
     0
281
     0
  0
CLASS
  1
AMDTNOTETEMPLATEDB
  2
AmdtNoteTemplateDB
  3
AcmSymBB|Product Description: AutoCAD Mechanical|Company: Autodesk, Inc.
 90
     1024
 91
        6
280
     0
281
     0
  0
CLASS
  1
ACAMGFILTERDAT
  2
AcAmgFilterDat
  3
"AcadM|Product Description: AutoCAD Mechanical|Company: Autodesk, Inc."
 90
     1024
 91
        0
280
     0
281
     0
  0
CLASS
  1
MATERIAL
  2
AcDbMaterial
  3
ObjectDBX Classes
 90
     1153
 91
        3
280
     0
281
     0
  0
CLASS
  1
VISUALSTYLE
  2
AcDbVisualStyle
  3
ObjectDBX Classes
 90
     4095
 91
       16
280
     0
281
     0
  0
CLASS
  1
ACRFATTGENMGR
  2
AcRfAttGeneralMgr
  3
AcAttribServices
 90
     1024
 91
        0
280
     0
281
     0
  0
CLASS
  1
ACRFOBJATTMGR
  2
AcRfObjAttGroupMgr
  3
AcAttribServices
 90
     1024
 91
        0
280
     0
281
     0
  0
CLASS
  1
ACRFMCADAPIATTHOLDER
  2
AcRfMCADAPIAttHolder
  3
AcAttribServices
 90
     1024
 91
        0
280
     0
281
     0
  0
CLASS
  1
AMDTSYSATTR
  2
AmdtSystemAttribute
  3
AcAttribServices
 90
     1024
 91
        0
280
     0
281
     0
  0
CLASS
  1
ACMTAPERSTANDARDJIS
  2
AcmTaperStdJIS
  3
"Amdt_StdImp|Product Description: AutoCAD Mechanical|Company: Autodesk, Inc."
 90
     1024
 91
        0
280
     0
281
     0
  0
CLASS
  1
CAMSSTRUCTBTNSTATE
  2
StructBtnState
  3
DesignerAssemblies
 90
     1024
 91
        0
280
     0
281
     0
  0
CLASS
  1
SCALE
  2
AcDbScale
  3
ObjectDBX Classes
 90
     1153
 91
       37
280
     0
281
     0
  0
CLASS
  1
MLEADERSTYLE
  2
AcDbMLeaderStyle
  3
ACDB_MLEADERSTYLE_CLASS
 90
     4095
 91
        1
280
     0
281
     0
  0
CLASS
  1
ACMANOOTATIONVIEWSTANDARDJIS
  2
AmdtAnViewStdJIS
  3
"Amdt_StdImp|Product Description: AutoCAD Mechanical|Company: Autodesk, Inc."
 90
     1024
 91
        0
280
     0
281
     0
  0
CLASS
  1
ACMSURFSTANDARDJIS2003
  2
AcmSurfTextStdJIS2003
  3
"Amdt_StdImp|Product Description: AutoCAD Mechanical|Company: Autodesk, Inc."
 90
     1024
 91
        0
280
     0
281
     0
  0
CLASS
  1
CELLSTYLEMAP
  2
AcDbCellStyleMap
  3
ObjectDBX Classes
 90
     1152
 91
        2
280
     0
281
     0
  0
CLASS
  1
ACMFCFSTANDARDJIS98
  2
AcmFCFStdJIS98
  3
"Amdt_StdImp|Product Description: AutoCAD Mechanical|Company: Autodesk, Inc."
 90
     1024
 91
        0
280
     0
281
     0
  0
CLASS
  1
SORTENTSTABLE
  2
AcDbSortentsTable
  3
ObjectDBX Classes
 90
        0
 91
       10
280
     0
281
     0
  0
CLASS
  1
DIMASSOC
  2
AcDbDimAssoc
  3
"AcDbDimAssoc|Product Desc:     AcDim ARX App For Dimension|Company:          Autodesk, Inc.|WEB Address:      www.autodesk.com"
 90
        0
 91
       17
280
     0
281
     0
  0
CLASS
  1
STDPART2D
  2
AmgStdPart
  3
AmgStdPart|Product Description: AutoCAD Mechanical|Company: Autodesk, Inc.
 90
     4095
 91
        0
280
     0
281
     1
  0
CLASS
  1
ACMDATAENTRYPART
  2
AcmDataEntryPart
  3
AcmSymBB|Product Description: AutoCAD Mechanical|Company: Autodesk, Inc.
 90
     1024
 91
        0
280
     0
281
     0
  0
CLASS
  1
ACMPARTREF
  2
AcmPartRef
  3
"AcmSymBB|Product Description: AutoCAD Mechanical|Company: Autodesk, Inc."
 90
     4095
 91
        0
280
     0
281
     1
  0
CLASS
  1
ACDBSTDPARTRES_LINE
  2
AcDbStdPartRes_Line
  3
AmgStdPart|Product Description: AutoCAD Mechanical|Company: Autodesk, Inc.
 90
     1024
 91
        0
280
     0
281
     0
  0
CLASS
  1
ACMBOM
  2
AcmBom
  3
"AcmSymBB|Product Description: AutoCAD Mechanical|Company: Autodesk, Inc."
 90
     1024
 91
        0
280
     0
281
     0
  0
CLASS
  1
AMDTFORMULAUPDATEDISPATCHER
  2
AmdtFormulaUpdateDispatcher
  3
AcMeServices
 90
     1024
 91
        0
280
     0
281
     0
  0
CLASS
  1
ACMBOMROW
  2
AcmBomRow
  3
"AcmSymBB|Product Description: AutoCAD Mechanical|Company: Autodesk, Inc."
 90
     1024
 91
        0
280
     0
281
     0
  0
CLASS
  1
ACMPARTLIST
  2
AcmPartList
  3
"AcmSymBB|Product Description: AutoCAD Mechanical|Company: Autodesk, Inc."
 90
     4095
 91
        0
280
     0
281
     1
  0
CLASS
  1
ACDBLINERES
  2
AcDbLineRes
  3
AcGrefServices
 90
     1024
 91
        0
280
     0
281
     0
  0
CLASS
  1
ACRFINSADJ
  2
AcRfInsAdjuster
  3
AcMeServices
 90
     1024
 91
        0
280
     0
281
     0
  0
CLASS
  1
ACMSTANDARDISO
  2
AcmStandardISO
  3
"Amdt_StdImp|Product Description: AutoCAD Mechanical|Company: Autodesk, Inc."
 90
     1024
 91
        1
280
     0
281
     0
  0
CLASS
  1
AMDTEDGESTANDARDISO13715
  2
AmdtEdgeStdISO13715
  3
"Amdt_StdImp|Product Description: AutoCAD Mechanical|Company: Autodesk, Inc."
 90
     1024
 91
        1
280
     0
281
     0
  0
CLASS
  1
ACMSURFSTANDARDISO2002
  2
AcmSurfTextStdISO2002
  3
"Amdt_StdImp|Product Description: AutoCAD Mechanical|Company: Autodesk, Inc."
 90
     1024
 91
        1
280
     0
281
     0
  0
CLASS
  1
ACMFCFSTANDARDISO
  2
AcmFCFStdISO
  3
"Amdt_StdImp|Product Description: AutoCAD Mechanical|Company: Autodesk, Inc."
 90
     1024
 91
        1
280
     0
281
     0
  0
CLASS
  1
ACMWELDSTANDARDISO
  2
AcmWeldingStdISO
  3
"Amdt_StdImp|Product Description: AutoCAD Mechanical|Company: Autodesk, Inc."
 90
     1024
 91
        1
280
     0
281
     0
  0
CLASS
  1
ACMIDSTANDARDISO
  2
AcmIdStdISO
  3
"Amdt_StdImp|Product Description: AutoCAD Mechanical|Company: Autodesk, Inc."
 90
     1024
 91
        1
280
     0
281
     0
  0
CLASS
  1
ACMDATUMSTANDARDISO
  2
AcmDatumStdISO
  3
"Amdt_StdImp|Product Description: AutoCAD Mechanical|Company: Autodesk, Inc."
 90
     1024
 91
        1
280
     0
281
     0
  0
CLASS
  1
ACMBOMSTANDARDISO
  2
AcmBOMStdISO
  3
"Amdt_StdImp|Product Description: AutoCAD Mechanical|Company: Autodesk, Inc."
 90
     1024
 91
        1
280
     0
281
     0
  0
CLASS
  1
ACMDETAILSTANDARDISO
  2
AmdtDetailSymStdISO
  3
"Amdt_StdImp|Product Description: AutoCAD Mechanical|Company: Autodesk, Inc."
 90
     1024
 91
        1
280
     0
281
     0
  0
CLASS
  1
ACMSECTIONSTANDARDISO2001
  2
AmdtSectionSymStdISO2001
  3
"Amdt_StdImp|Product Description: AutoCAD Mechanical|Company: Autodesk, Inc."
 90
     1024
 91
        1
280
     0
281
     0
  0
CLASS
  1
ACMCENTERLINESTANDARDISO
  2
AmdtCenterLineStdISO
  3
"Amdt_StdImp|Product Description: AutoCAD Mechanical|Company: Autodesk, Inc."
 90
     1024
 91
        1
280
     0
281
     0
  0
CLASS
  1
ACMTHREADLINESTANDARDISO
  2
AmdtThreadLineStdISO
  3
"Amdt_StdImp|Product Description: AutoCAD Mechanical|Company: Autodesk, Inc."
 90
     1024
 91
        1
280
     0
281
     0
  0
CLASS
  1
ACMNOTESTANDARDISO
  2
AmdtNoteStdISO
  3
"Amdt_StdImp|Product Description: AutoCAD Mechanical|Company: Autodesk, Inc."
 90
     1024
 91
        1
280
     0
281
     0
  0
CLASS
  1
ACMTAPERSTANDARDISO
  2
AcmTaperStdISO
  3
"Amdt_StdImp|Product Description: AutoCAD Mechanical|Company: Autodesk, Inc."
 90
     1024
 91
        1
280
     0
281
     0
  0
CLASS
  1
ACMANOOTATIONVIEWSTANDARDISO
  2
AmdtAnViewStdISO
  3
"Amdt_StdImp|Product Description: AutoCAD Mechanical|Company: Autodesk, Inc."
 90
     1024
 91
        1
280
     0
281
     0
  0
CLASS
  1
ACAMGHOLECHARTSTDISO
  2
AcAmgHoleChartStdISO
  3
AmgDim|Product Description: AutoCAD Mechanical|Company: Autodesk, Inc.
 90
     1024
 91
        1
280
     0
281
     0
  0
CLASS
  1
EXACXREFPANELOBJECT
  2
ExAcXREFPanelObject
  3
EXAC_ESW
 90
     1025
 91
        0
280
     0
281
     0
  0
CLASS
  1
NPOCOLLECTION
  2
AcDbImpNonPersistentObjectsCollection
  3
ObjectDBX Classes
 90
     1153
 91
        0
280
     0
281
     0
  0
CLASS
  1
ACDBSTDPARTRES_ARC
  2
AcDbStdPartRes_Arc
  3
AmgStdPart|Product Description: AutoCAD Mechanical|Company: Autodesk, Inc.
 90
     1024
 91
        0
280
     0
281
     0
  0
CLASS
  1
AMDTNOTE
  2
AmdtNote
  3
"AcmSymBB|Product Description: AutoCAD Mechanical|Company: Autodesk, Inc."
 90
     4095
 91
        0
280
     0
281
     1
  0
CLASS
  1
PLOTSETTINGS
  2
AcDbPlotSettings
  3
ObjectDBX Classes
 90
        0
 91
        1
280
     0
281
     0
  0
CLASS
  1
ACMSTANDARDANSI
  2
AcmStandardANSI
  3
"Amdt_StdImp|Product Description: AutoCAD Mechanical|Company: Autodesk, Inc."
 90
     1024
 91
        0
280
     0
281
     0
  0
CLASS
  1
ACMSURFSTANDARDANSI
  2
AcmSurfTextStdANSI
  3
"Amdt_StdImp|Product Description: AutoCAD Mechanical|Company: Autodesk, Inc."
 90
     1024
 91
        0
280
     0
281
     0
  0
CLASS
  1
ACMFCFSTANDARDANSI
  2
AcmFCFStdANSI
  3
"Amdt_StdImp|Product Description: AutoCAD Mechanical|Company: Autodesk, Inc."
 90
     1024
 91
        0
280
     0
281
     0
  0
CLASS
  1
ACMWELDSTANDARDANSI
  2
AcmWeldingStdANSI
  3
"Amdt_StdImp|Product Description: AutoCAD Mechanical|Company: Autodesk, Inc."
 90
     1024
 91
        0
280
     0
281
     0
  0
CLASS
  1
ACMIDSTANDARDANSI
  2
AcmIdStdANSI
  3
"Amdt_StdImp|Product Description: AutoCAD Mechanical|Company: Autodesk, Inc."
 90
     1024
 91
        0
280
     0
281
     0
  0
CLASS
  1
ACMDATUMSTANDARDANSI
  2
AcmDatumStdANSI
  3
"Amdt_StdImp|Product Description: AutoCAD Mechanical|Company: Autodesk, Inc."
 90
     1024
 91
        0
280
     0
281
     0
  0
CLASS
  1
ACMBOMSTANDARDANSI
  2
AcmBOMStdANSI
  3
"Amdt_StdImp|Product Description: AutoCAD Mechanical|Company: Autodesk, Inc."
 90
     1024
 91
        0
280
     0
281
     0
  0
CLASS
  1
ACMDETAILSTANDARDANSI
  2
AmdtDetailSymStdANSI
  3
"Amdt_StdImp|Product Description: AutoCAD Mechanical|Company: Autodesk, Inc."
 90
     1024
 91
        0
280
     0
281
     0
  0
CLASS
  1
ACMSECTIONSTANDARDANSI
  2
AmdtSectionSymStdANSI
  3
"Amdt_StdImp|Product Description: AutoCAD Mechanical|Company: Autodesk, Inc."
 90
     1024
 91
        0
280
     0
281
     0
  0
CLASS
  1
ACMCENTERLINESTANDARDANSI
  2
AmdtCenterLineStdANSI
  3
"Amdt_StdImp|Product Description: AutoCAD Mechanical|Company: Autodesk, Inc."
 90
     1024
 91
        0
280
     0
281
     0
  0
CLASS
  1
ACMTHREADLINESTANDARDANSI
  2
AmdtThreadLineStdANSI
  3
"Amdt_StdImp|Product Description: AutoCAD Mechanical|Company: Autodesk, Inc."
 90
     1024
 91
        0
280
     0
281
     0
  0
CLASS
  1
ACMNOTESTANDARDANSI
  2
AmdtNoteStdANSI
  3
"Amdt_StdImp|Product Description: AutoCAD Mechanical|Company: Autodesk, Inc."
 90
     1024
 91
        0
280
     0
281
     0
  0
CLASS
  1
ACMTAPERSTANDARDANSI
  2
AcmTaperStdANSI
  3
"Amdt_StdImp|Product Description: AutoCAD Mechanical|Company: Autodesk, Inc."
 90
     1024
 91
        0
280
     0
281
     0
  0
CLASS
  1
ACMANOOTATIONVIEWSTANDARDANSI
  2
AmdtAnViewStdANSI
  3
"Amdt_StdImp|Product Description: AutoCAD Mechanical|Company: Autodesk, Inc."
 90
     1024
 91
        0
280
     0
281
     0
  0
CLASS
  1
ACAMGHOLECHARTSTDANSI
  2
AcAmgHoleChartStdANSI
  3
AmgDim|Product Description: AutoCAD Mechanical|Company: Autodesk, Inc.
 90
     1024
 91
        0
280
     0
281
     0
  0
CLASS
  1
ACMSTANDARDBSI
  2
AcmStandardBSI
  3
"Amdt_StdImp|Product Description: AutoCAD Mechanical|Company: Autodesk, Inc."
 90
     1024
 91
        0
280
     0
281
     0
  0
CLASS
  1
ACMSURFSTANDARDBSI2002
  2
AcmSurfTextStdBSI2002
  3
"Amdt_StdImp|Product Description: AutoCAD Mechanical|Company: Autodesk, Inc."
 90
     1024
 91
        0
280
     0
281
     0
  0
CLASS
  1
ACMFCFSTANDARDBSI
  2
AcmFCFStdBSI
  3
"Amdt_StdImp|Product Description: AutoCAD Mechanical|Company: Autodesk, Inc."
 90
     1024
 91
        0
280
     0
281
     0
  0
CLASS
  1
ACMWELDSTANDARDBSI
  2
AcmWeldingStdBSI
  3
"Amdt_StdImp|Product Description: AutoCAD Mechanical|Company: Autodesk, Inc."
 90
     1024
 91
        0
280
     0
281
     0
  0
CLASS
  1
ACMIDSTANDARDBSI
  2
AcmIdStdBSI
  3
"Amdt_StdImp|Product Description: AutoCAD Mechanical|Company: Autodesk, Inc."
 90
     1024
 91
        0
280
     0
281
     0
  0
CLASS
  1
ACMDATUMSTANDARDBSI
  2
AcmDatumStdBSI
  3
"Amdt_StdImp|Product Description: AutoCAD Mechanical|Company: Autodesk, Inc."
 90
     1024
 91
        0
280
     0
281
     0
  0
CLASS
  1
ACMBOMSTANDARDBSI
  2
AcmBOMStdBSI
  3
"Amdt_StdImp|Product Description: AutoCAD Mechanical|Company: Autodesk, Inc."
 90
     1024
 91
        0
280
     0
281
     0
  0
CLASS
  1
ACMDETAILSTANDARDBSI
  2
AmdtDetailSymStdBSI
  3
"Amdt_StdImp|Product Description: AutoCAD Mechanical|Company: Autodesk, Inc."
 90
     1024
 91
        0
280
     0
281
     0
  0
CLASS
  1
ACMSECTIONSTANDARDBSI2001
  2
AmdtSectionSymStdBSI2001
  3
"Amdt_StdImp|Product Description: AutoCAD Mechanical|Company: Autodesk, Inc."
 90
     1024
 91
        0
280
     0
281
     0
  0
CLASS
  1
ACMCENTERLINESTANDARDBSI
  2
AmdtCenterLineStdBSI
  3
"Amdt_StdImp|Product Description: AutoCAD Mechanical|Company: Autodesk, Inc."
 90
     1024
 91
        0
280
     0
281
     0
  0
CLASS
  1
ACMTHREADLINESTANDARDBSI
  2
AmdtThreadLineStdBSI
  3
"Amdt_StdImp|Product Description: AutoCAD Mechanical|Company: Autodesk, Inc."
 90
     1024
 91
        0
280
     0
281
     0
  0
CLASS
  1
ACMNOTESTANDARDBSI
  2
AmdtNoteStdBSI
  3
"Amdt_StdImp|Product Description: AutoCAD Mechanical|Company: Autodesk, Inc."
 90
     1024
 91
        0
280
     0
281
     0
  0
CLASS
  1
ACMTAPERSTANDARDBSI
  2
AcmTaperStdBSI
  3
"Amdt_StdImp|Product Description: AutoCAD Mechanical|Company: Autodesk, Inc."
 90
     1024
 91
        0
280
     0
281
     0
  0
CLASS
  1
ACMANOOTATIONVIEWSTANDARDBSI
  2
AmdtAnViewStdBSI
  3
"Amdt_StdImp|Product Description: AutoCAD Mechanical|Company: Autodesk, Inc."
 90
     1024
 91
        0
280
     0
281
     0
  0
CLASS
  1
ACAMGHOLECHARTSTDBSI
  2
AcAmgHoleChartStdBSI
  3
AmgDim|Product Description: AutoCAD Mechanical|Company: Autodesk, Inc.
 90
     1024
 91
        0
280
     0
281
     0
  0
CLASS
  1
AMDTEDGESTANDARDJIS
  2
AmdtEdgeStdJIS
  3
"Amdt_StdImp|Product Description: AutoCAD Mechanical|Company: Autodesk, Inc."
 90
     1024
 91
        0
280
     0
281
     0
  0
CLASS
  1
ACDBOPPOLYLINERES
  2
AcDbOpPolylineRes
  3
AcGrefServices
 90
     1024
 91
        0
280
     0
281
     0
  0
CLASS
  1
AMDTACMWBLOCKBOMENTITY
  2
AmdtAcmWblockBomEntity
  3
"AcmSymBB|Product Description: AutoCAD Mechanical|Company: Autodesk, Inc."
 90
     4095
 91
        0
280
     0
281
     1
  0
CLASS
  1
ACMSURFSYM
  2
AcmSurfaceTexture
  3
"AcmSymBB|Product Description: AutoCAD Mechanical|Company: Autodesk, Inc."
 90
     4095
 91
        0
280
     0
281
     1
  0
CLASS
  1
ACDBDIMENSIONRES
  2
AcDbDimensionRes
  3
AcmSymBB|Product Description: AutoCAD Mechanical|Company: Autodesk, Inc.
 90
     1024
 91
        0
280
     0
281
     0
  0
CLASS
  1
ACDBCIRCARCRES
  2
AcDbCircArcRes
  3
AcGrefServices
 90
     1024
 91
        0
280
     0
281
     0
  0
CLASS
  1
ACDB_BLKREFOBJECTCONTEXTDATA_CLASS
  2
AcDbBlkRefObjectContextData
  3
ObjectDBX Classes
 90
     1153
 91
        0
280
     0
281
     0
  0
CLASS
  1
ACMPICKOBJ
  2
AcmPickEnt
  3
"AcmSymBB|Product Description: AutoCAD Mechanical|Company: Autodesk, Inc."
 90
     1024
 91
        0
280
     0
281
     1
  0
CLASS
  1
ACMBALLOON
  2
AcmBalloon
  3
"AcmSymBB|Product Description: AutoCAD Mechanical|Company: Autodesk, Inc."
 90
     4095
 91
        0
280
     0
281
     1
  0
ENDSEC
  0
SECTION
  2
TABLES
  0
TABLE
  2
VPORT
  5
8
330
0
100
AcDbSymbolTable
 70
     1
  0
VPORT
  5
27A
330
8
100
AcDbSymbolTableRecord
100
AcDbViewportTableRecord
  2
*Active
 70
     0
 10
0.0
 20
0.0
 11
1.0
 21
1.0
 12
4496.620942841891
 22
3465.349557947241
 13
0.0
 23
0.0
 14
37.5
 24
37.5
 15
150.0
 25
150.0
 16
0.0
 26
0.0
 36
1.0
 17
0.0
 27
0.0
 37
0.0
 40
2994.683446083988
 41
2.03515625
 42
50.0
 43
0.0
 44
0.0
 50
0.0
 51
0.0
 71
    16
 72
 20000
 73
     1
 74
     3
 75
     0
 76
     0
 77
     0
 78
     0
281
     0
 65
     0
110
0.0
120
0.0
130
0.0
111
1.0
121
0.0
131
0.0
112
0.0
122
1.0
132
0.0
 79
     0
146
0.0
348
285
 60
     3
 61
     5
292
     1
282
     0
141
0.0
142
0.0
 63
   250
421
  3355443
  0
ENDTAB
  0
TABLE
  2
LTYPE
  5
5
330
0
100
AcDbSymbolTable
 70
    22
  0
LTYPE
  5
14
330
5
100
AcDbSymbolTableRecord
100
AcDbLinetypeTableRecord
  2
ByBlock
 70
     0
  3

 72
    65
 73
     0
 40
0.0
  0
LTYPE
  5
15
330
5
100
AcDbSymbolTableRecord
100
AcDbLinetypeTableRecord
  2
ByLayer
 70
     0
  3

 72
    65
 73
     0
 40
0.0
  0
LTYPE
  5
16
330
5
100
AcDbSymbolTableRecord
100
AcDbLinetypeTableRecord
  2
Continuous
 70
     0
  3
Solid line
 72
    65
 73
     0
 40
0.0
  0
LTYPE
  5
4D
330
5
100
AcDbSymbolTableRecord
100
AcDbLinetypeTableRecord
  2
AM_ISO02W050
 70
     0
  3
__ __ __ __ __ __ __ __ __ __ __ __ __ __ __
 72
    65
 73
     2
 40
7.5
 49
6.0
 74
     0
 49
-1.5
 74
     0
  0
LTYPE
  5
4E
330
5
100
AcDbSymbolTableRecord
100
AcDbLinetypeTableRecord
  2
AM_ISO08W050
 70
     0
  3
____ . ____ . ____ . ____ . ____ . ____ . ____
 72
    65
 73
     4
 40
18.0
 49
12.0
 74
     0
 49
-1.5
 74
     0
 49
3.0
 74
     0
 49
-1.5
 74
     0
  0
LTYPE
  5
4F
330
5
100
AcDbSymbolTableRecord
100
AcDbLinetypeTableRecord
  2
AM_ISO09W050
 70
     0
  3
_____ . . _____ . . _____ . . ____ .. ____
 72
    65
 73
     6
 40
22.5
 49
12.0
 74
     0
 49
-1.5
 74
     0
 49
3.0
 74
     0
 49
-1.5
 74
     0
 49
3.0
 74
     0
 49
-1.5
 74
     0
  0
LTYPE
  5
50
330
5
100
AcDbSymbolTableRecord
100
AcDbLinetypeTableRecord
  2
Amconstr
 70
     0
  3
_______________________
 72
    65
 73
     2
 40
9999.0
 49
9999.0
 74
     0
 49
0.0
 74
     0
  0
LTYPE
  5
51
330
5
100
AcDbSymbolTableRecord
100
AcDbLinetypeTableRecord
  2
AM_ISO08W050x2
 70
     0
  3
__ . __ . __ . __ . __ . __
 72
    65
 73
     4
 40
9.0
 49
6.0
 74
     0
 49
-0.75
 74
     0
 49
1.5
 74
     0
 49
-0.75
 74
     0
  0
LTYPE
  5
52
330
5
100
AcDbSymbolTableRecord
100
AcDbLinetypeTableRecord
  2
AM_ISO02W050x2
 70
     0
  3
 _ _ _ _ _ _ _ _ _ _ _ _
 72
    65
 73
     2
 40
3.75
 49
3.0
 74
     0
 49
-0.75
 74
     0
  0
LTYPE
  5
55
330
5
100
AcDbSymbolTableRecord
100
AcDbLinetypeTableRecord
  2
Amzigzag
 70
     0
  3
/\/-/\/-/\/-/\/-/\/-/\/
 72
    65
 73
     2
 40
11.0001
 49
0.0001
 74
     4
 75
   136
340
23D
 46
0.04
 50
0.0
 44
0.0
 45
0.0
 49
-11.0
 74
     0
  0
LTYPE
  5
65
330
5
100
AcDbSymbolTableRecord
100
AcDbLinetypeTableRecord
  2
CENTER
 70
     0
  3
__ . __
 72
    65
 73
     4
 40
7.0
 49
4.0
 74
     0
 49
-1.0
 74
     0
 49
1.0
 74
     0
 49
-1.0
 74
     0
  0
LTYPE
  5
E0
330
5
100
AcDbSymbolTableRecord
100
AcDbLinetypeTableRecord
  2
HIDDEN
 70
     0
  3
Hidden __ __ __ __ __ __ __ __ __ __ __ __ __ _
 72
    65
 73
     2
 40
9.524999999999996
 49
6.349999999999998
 74
     0
 49
-3.174999999999998
 74
     0
  0
LTYPE
  5
E1
330
5
100
AcDbSymbolTableRecord
100
AcDbLinetypeTableRecord
  2
PHANTOM2
 70
     0
  3
Phantom (.5x) ___ _ _ ___ _ _ ___ _ _ ___ _ _
 72
    65
 73
     6
 40
31.75
 49
15.875
 74
     0
 49
-3.174999999999998
 74
     0
 49
3.174999999999998
 74
     0
 49
-3.174999999999998
 74
     0
 49
3.174999999999998
 74
     0
 49
-3.174999999999998
 74
     0
  0
LTYPE
  5
5A2
330
5
100
AcDbSymbolTableRecord
100
AcDbLinetypeTableRecord
  2
ACJISWELD
 70
     0
  3
_ _ _ _ _
 72
    65
 73
     2
 40
2.0
 49
2.0
 74
     0
 49
-1.0
 74
     0
  0
LTYPE
  5
6B8F
330
5
100
AcDbSymbolTableRecord
100
AcDbLinetypeTableRecord
  2
ACISOWELD
 70
     0
  3
_ _ _ _ _
 72
    65
 73
     2
 40
2.0
 49
2.0
 74
     0
 49
-1.0
 74
     0
  0
LTYPE
  5
6B90
330
5
100
AcDbSymbolTableRecord
100
AcDbLinetypeTableRecord
  2
ACISOTGB
 70
     0
  3
__ . . __ . .
 72
    65
 73
     6
 40
9.0
 49
4.0
 74
     0
 49
-1.0
 74
     0
 49
1.0
 74
     0
 49
-1.0
 74
     0
 49
1.0
 74
     0
 49
-1.0
 74
     0
  0
LTYPE
  5
6B91
330
5
100
AcDbSymbolTableRecord
100
AcDbLinetypeTableRecord
  2
ACISOTGL
 70
     0
  3
_ _ _ _ _
 72
    65
 73
     2
 40
3.0
 49
2.0
 74
     0
 49
-1.0
 74
     0
  0
ENDTAB
  0
TABLE
  2
LAYER
  5
2
102
{ACAD_XDICTIONARY
360
BF
102
}
330
0
100
AcDbSymbolTable
 70
    10
  0
LAYER
  5
10
102
{ACAD_XDICTIONARY
360
29F7
102
}
330
2
100
AcDbSymbolTableRecord
100
AcDbLayerTableRecord
  2
0
 70
     0
 62
     7
  6
Continuous
370
    -3
390
F
347
27E
  0
LAYER
  5
81
102
{ACAD_XDICTIONARY
360
29F9
102
}
330
2
100
AcDbSymbolTableRecord
100
AcDbLayerTableRecord
  2
AM_0 外形線1
 70
     0
 62
     7
  6
Continuous
370
    25
390
F
347
27E
  0
LAYER
  5
427
330
2
100
AcDbSymbolTableRecord
100
AcDbLayerTableRecord
  2
Defpoints
 70
     0
 62
     7
  6
Continuous
290
     0
370
    -3
390
F
347
27E
  0
LAYER
  5
3A18
330
2
100
AcDbSymbolTableRecord
100
AcDbLayerTableRecord
  2
AM_5 寸法線
 70
     0
 62
     3
  6
Continuous
370
    13
390
F
347
27E
1001
AcAecLayerStandard
1000

1000

  0
LAYER
  5
3A19
330
2
100
AcDbSymbolTableRecord
100
AcDbLayerTableRecord
  2
AM_4 細線
 70
     0
 62
     4
  6
Continuous
370
    13
390
F
347
27E
1001
AcAecLayerStandard
1000

1000

  0
LAYER
  5
3A1A
330
2
100
AcDbSymbolTableRecord
100
AcDbLayerTableRecord
  2
AM_7 中心線
 70
     0
 62
     1
  6
AM_ISO08W050
370
    13
390
F
347
27E
1001
AcAecLayerStandard
1000

1000

  0
LAYER
  5
3A1B
330
2
100
AcDbSymbolTableRecord
100
AcDbLayerTableRecord
  2
AM_3 隠れ線
 70
     0
 62
     8
  6
ACJISWELD
370
    13
390
F
347
27E
1001
AcAecLayerStandard
1000

1000

  0
LAYER
  5
3A1D
330
2
100
AcDbSymbolTableRecord
100
AcDbLayerTableRecord
  2
AM_6 文字
 70
     0
 62
     2
  6
Continuous
370
    13
390
F
347
27E
1001
AcAecLayerStandard
1000

1000

  0
LAYER
  5
6717
330
2
100
AcDbSymbolTableRecord
100
AcDbLayerTableRecord
  2
AM_11 想像線
 70
     0
 62
     5
  6
AM_ISO09W050
370
    13
390
F
347
27E
1001
AcAecLayerStandard
1000

1000

  0
ENDTAB
  0
TABLE
  2
STYLE
  5
3
330
0
100
AcDbSymbolTable
 70
    11
  0
STYLE
  5
11
330
3
100
AcDbSymbolTableRecord
100
AcDbTextStyleTableRecord
  2
STANDARD
 70
     0
 40
0.0
 41
1.0
 50
0.0
 71
     0
 42
25.0
  3
ISOCP.SHX
  4
EXTFONT.SHX
  0
STYLE
  5
23D
330
3
100
AcDbSymbolTableRecord
100
AcDbTextStyleTableRecord
  2

 70
     1
 40
0.0
 41
1.0
 50
0.0
 71
     0
 42
2.5
  3
genltshp.shx
  4

  0
STYLE
  5
5D5
330
3
100
AcDbSymbolTableRecord
100
AcDbTextStyleTableRecord
  2
SEISA
 70
     0
 40
0.0
 41
0.9
 50
0.0
 71
     0
 42
25.0
  3
romans.shx
  4
extfont2.shx
  0
STYLE
  5
6B7F
330
3
100
AcDbSymbolTableRecord
100
AcDbTextStyleTableRecord
  2
ACISOTS
 70
     0
 40
1.0
 41
1.0
 50
0.0
 71
     0
 42
25.0
  3
isocp.shx
  4
extfont.shx
  0
STYLE
  5
6B8E
330
3
100
AcDbSymbolTableRecord
100
AcDbTextStyleTableRecord
  2
ACISOGDT
 70
     0
 40
0.0
 41
1.0
 50
0.0
 71
     0
 42
25.0
  3
amgdt.shx
  4

  0
ENDTAB
  0
TABLE
  2
VIEW
  5
6
330
0
100
AcDbSymbolTable
 70
     6
  0
VIEW
  5
91B
330
6
100
AcDbSymbolTableRecord
100
AcDbViewTableRecord
  2
AM_VIEW1
 70
     0
 40
2227.5
 10
2153.432884644907
 20
3341.250005540732
 41
4306.865763546799
 11
0.0
 21
0.0
 31
1.0
 12
0.0
 22
0.0
 32
0.0
 42
50.0
 43
0.0
 44
0.0
 50
0.0
 71
    16
281
     0
 72
     0
 73
     0
  0
VIEW
  5
91C
330
6
100
AcDbSymbolTableRecord
100
AcDbViewTableRecord
  2
AM_VIEW2
 70
     0
 40
2227.5
 10
4146.567121098108
 20
3341.250005540732
 41
4306.865763546799
 11
0.0
 21
0.0
 31
1.0
 12
0.0
 22
0.0
 32
0.0
 42
50.0
 43
0.0
 44
0.0
 50
0.0
 71
    16
281
     0
 72
     0
 73
     0
  0
VIEW
  5
91D
330
6
100
AcDbSymbolTableRecord
100
AcDbViewTableRecord
  2
AM_VIEW3
 70
     0
 40
2227.5
 10
2153.432884644907
 20
1113.750005540731
 41
4306.865763546799
 11
0.0
 21
0.0
 31
1.0
 12
0.0
 22
0.0
 32
0.0
 42
50.0
 43
0.0
 44
0.0
 50
0.0
 71
    16
281
     0
 72
     0
 73
     0
  0
VIEW
  5
91E
330
6
100
AcDbSymbolTableRecord
100
AcDbViewTableRecord
  2
AM_VIEW4
 70
     0
 40
2227.5
 10
4146.567121098108
 20
1113.750005540731
 41
4306.865763546799
 11
0.0
 21
0.0
 31
1.0
 12
0.0
 22
0.0
 32
0.0
 42
50.0
 43
0.0
 44
0.0
 50
0.0
 71
    16
281
     0
 72
     0
 73
     0
  0
VIEW
  5
91F
330
6
100
AcDbSymbolTableRecord
100
AcDbViewTableRecord
  2
AM_VIEW5
 70
     0
 40
2227.500000000001
 10
3150.000002871508
 20
2227.500005540731
 41
4306.865763546799
 11
0.0
 21
0.0
 31
1.0
 12
0.0
 22
0.0
 32
0.0
 42
50.0
 43
0.0
 44
0.0
 50
0.0
 71
    16
281
     0
 72
     0
 73
     0
  0
VIEW
  5
920
330
6
100
AcDbSymbolTableRecord
100
AcDbViewTableRecord
  2
AM_VIEW6
 70
     0
 40
4454.955450000001
 10
3150.000002871508
 20
2227.500005540731
 41
8613.645389778326
 11
0.0
 21
0.0
 31
1.0
 12
0.0
 22
0.0
 32
0.0
 42
50.0
 43
0.0
 44
0.0
 50
0.0
 71
    16
281
     0
 72
     0
 73
     0
  0
ENDTAB
  0
TABLE
  2
UCS
  5
7
330
0
100
AcDbSymbolTable
 70
     0
  0
ENDTAB
  0
TABLE
  2
APPID
  5
9
330
0
100
AcDbSymbolTable
 70
   396
  0
APPID
  5
12
330
9
100
AcDbSymbolTableRecord
100
AcDbRegAppTableRecord
  2
ACAD
 70
     0
  0
APPID
  5
30
330
9
100
AcDbSymbolTableRecord
100
AcDbRegAppTableRecord
  2
MCAD_NO_VIS
 70
     0
  0
APPID
  5
31
330
9
100
AcDbSymbolTableRecord
100
AcDbRegAppTableRecord
  2
ACAD_TEMP_GRAPHIC
 70
     0
  0
APPID
  5
44
330
9
100
AcDbSymbolTableRecord
100
AcDbRegAppTableRecord
  2
ACATTRIBSERVICES
 70
     0
  0
APPID
  5
F6
330
9
100
AcDbSymbolTableRecord
100
AcDbRegAppTableRecord
  2
AD_DRAW
 70
     0
  0
APPID
  5
114
330
9
100
AcDbSymbolTableRecord
100
AcDbRegAppTableRecord
  2
DESIGNERASSEMBLIES
 70
     0
  0
APPID
  5
118
330
9
100
AcDbSymbolTableRecord
100
AcDbRegAppTableRecord
  2
ACADM_DIM_EDIT
 70
     0
  0
APPID
  5
119
330
9
100
AcDbSymbolTableRecord
100
AcDbRegAppTableRecord
  2
AMDT_DM_ADJ
 70
     0
  0
APPID
  5
1AF
330
9
100
AcDbSymbolTableRecord
100
AcDbRegAppTableRecord
  2
ACAD_DSTYLE_DIMARC_LENGTH_SYMBOL
 70
     0
  0
APPID
  5
1B0
330
9
100
AcDbSymbolTableRecord
100
AcDbRegAppTableRecord
  2
ACAD_DSTYLE_DIMJOGGED_JOGANGLE_SYMBOL
 70
     0
  0
APPID
  5
2D7
330
9
100
AcDbSymbolTableRecord
100
AcDbRegAppTableRecord
  2
ACAD_MLEADERVER
 70
     0
  0
APPID
  5
355
330
9
100
AcDbSymbolTableRecord
100
AcDbRegAppTableRecord
  2
AcadAnnoPO
 70
     0
  0
APPID
  5
428
330
9
100
AcDbSymbolTableRecord
100
AcDbRegAppTableRecord
  2
ACAD_DSTYLE_DIMTEXT_FILL
 70
     0
  0
APPID
  5
429
330
9
100
AcDbSymbolTableRecord
100
AcDbRegAppTableRecord
  2
GENIUS_GENSCREG_15
 70
     0
  0
APPID
  5
42A
330
9
100
AcDbSymbolTableRecord
100
AcDbRegAppTableRecord
  2
GENIUS_GENOBJ-N-SDF_13
 70
     0
  0
APPID
  5
42B
330
9
100
AcDbSymbolTableRecord
100
AcDbRegAppTableRecord
  2
GENIUS_GENODEF_13
 70
     0
  0
APPID
  5
42C
330
9
100
AcDbSymbolTableRecord
100
AcDbRegAppTableRecord
  2
ACAD_EXEMPT_FROM_CAD_STANDARDS
 70
     0
  0
APPID
  5
42D
330
9
100
AcDbSymbolTableRecord
100
AcDbRegAppTableRecord
  2
AcAecLayerStandard
 70
     0
  0
APPID
  5
42E
330
9
100
AcDbSymbolTableRecord
100
AcDbRegAppTableRecord
  2
GENIUS_GENOBJ-N-CEN_13
 70
     0
  0
APPID
  5
42F
330
9
100
AcDbSymbolTableRecord
100
AcDbRegAppTableRecord
  2
GENIUS_GENCEN_19
 70
     0
  0
APPID
  5
430
330
9
100
AcDbSymbolTableRecord
100
AcDbRegAppTableRecord
  2
ACAD_DSTYLE_DIMINSPECT
 70
     0
  0
APPID
  5
431
330
9
100
AcDbSymbolTableRecord
100
AcDbRegAppTableRecord
  2
GENIUS_AMGTXT_16
 70
     0
  0
APPID
  5
432
330
9
100
AcDbSymbolTableRecord
100
AcDbRegAppTableRecord
  2
GENIUS_GENFIL_13
 70
     0
  0
APPID
  5
433
330
9
100
AcDbSymbolTableRecord
100
AcDbRegAppTableRecord
  2
GENIUS_GENOLIS_13
 70
     0
  0
APPID
  5
434
330
9
100
AcDbSymbolTableRecord
100
AcDbRegAppTableRecord
  2
GENIUS_GENOBJ-N-CHA_13
 70
     0
  0
APPID
  5
435
330
9
100
AcDbSymbolTableRecord
100
AcDbRegAppTableRecord
  2
GENIUS_GENOENT_13
 70
     0
  0
APPID
  5
436
330
9
100
AcDbSymbolTableRecord
100
AcDbRegAppTableRecord
  2
GENIUS_GENOREF_13
 70
     0
  0
APPID
  5
437
330
9
100
AcDbSymbolTableRecord
100
AcDbRegAppTableRecord
  2
GENIUS_GENOBJ-N-FIL_13
 70
     0
  0
APPID
  5
438
330
9
100
AcDbSymbolTableRecord
100
AcDbRegAppTableRecord
  2
GEVID1208829536
 70
     0
  0
APPID
  5
439
330
9
100
AcDbSymbolTableRecord
100
AcDbRegAppTableRecord
  2
GEVDC
 70
     0
  0
APPID
  5
43A
330
9
100
AcDbSymbolTableRecord
100
AcDbRegAppTableRecord
  2
GEVRADREF
 70
     0
  0
APPID
  5
43B
330
9
100
AcDbSymbolTableRecord
100
AcDbRegAppTableRecord
  2
GENIUS_GENBH_13
 70
     0
  0
APPID
  5
43C
330
9
100
AcDbSymbolTableRecord
100
AcDbRegAppTableRecord
  2
GENIUS_GENOBJ-NBEHI-BHF_13
 70
     0
  0
APPID
  5
43D
330
9
100
AcDbSymbolTableRecord
100
AcDbRegAppTableRecord
  2
GENIUS_GENOBJ-NBEHI-BHB_13
 70
     0
  0
APPID
  5
43E
330
9
100
AcDbSymbolTableRecord
100
AcDbRegAppTableRecord
  2
GEVID1208829537
 70
     0
  0
APPID
  5
43F
330
9
100
AcDbSymbolTableRecord
100
AcDbRegAppTableRecord
  2
ACAD_DSTYLE_DIMJAG
 70
     0
  0
APPID
  5
440
330
9
100
AcDbSymbolTableRecord
100
AcDbRegAppTableRecord
  2
ACAD_DSTYLE_DIMTALN
 70
     0
  0
APPID
  5
441
330
9
100
AcDbSymbolTableRecord
100
AcDbRegAppTableRecord
  2
AMG_2DHIDE
 70
     0
  0
APPID
  5
442
330
9
100
AcDbSymbolTableRecord
100
AcDbRegAppTableRecord
  2
AMG_2DSTRUCT_BTR
 70
     0
  0
APPID
  5
443
330
9
100
AcDbSymbolTableRecord
100
AcDbRegAppTableRecord
  2
GEVID1208845772
 70
     0
  0
APPID
  5
444
330
9
100
AcDbSymbolTableRecord
100
AcDbRegAppTableRecord
  2
GEVID1208845773
 70
     0
  0
APPID
  5
445
330
9
100
AcDbSymbolTableRecord
100
AcDbRegAppTableRecord
  2
ACADM_2DVIEW_IGN_NOTIFY
 70
     0
  0
APPID
  5
446
330
9
100
AcDbSymbolTableRecord
100
AcDbRegAppTableRecord
  2
GEVID1208845774
 70
     0
  0
APPID
  5
447
330
9
100
AcDbSymbolTableRecord
100
AcDbRegAppTableRecord
  2
GEVID1208845775
 70
     0
  0
APPID
  5
448
330
9
100
AcDbSymbolTableRecord
100
AcDbRegAppTableRecord
  2
GEVID1208845776
 70
     0
  0
APPID
  5
449
330
9
100
AcDbSymbolTableRecord
100
AcDbRegAppTableRecord
  2
GEVID1208845777
 70
     0
  0
APPID
  5
44A
330
9
100
AcDbSymbolTableRecord
100
AcDbRegAppTableRecord
  2
GEVCON
 70
     0
  0
APPID
  5
44B
330
9
100
AcDbSymbolTableRecord
100
AcDbRegAppTableRecord
  2
GENIUS_GENOBJ-F-SCPASSM_13
 70
     0
  0
APPID
  5
44C
330
9
100
AcDbSymbolTableRecord
100
AcDbRegAppTableRecord
  2
GEVID1208845778
 70
     0
  0
APPID
  5
44D
330
9
100
AcDbSymbolTableRecord
100
AcDbRegAppTableRecord
  2
GEVID1208845779
 70
     0
  0
APPID
  5
44E
330
9
100
AcDbSymbolTableRecord
100
AcDbRegAppTableRecord
  2
GEVID1208845780
 70
     0
  0
APPID
  5
44F
330
9
100
AcDbSymbolTableRecord
100
AcDbRegAppTableRecord
  2
GEVID1208845781
 70
     0
  0
APPID
  5
450
330
9
100
AcDbSymbolTableRecord
100
AcDbRegAppTableRecord
  2
GEVID1208845782
 70
     0
  0
APPID
  5
451
330
9
100
AcDbSymbolTableRecord
100
AcDbRegAppTableRecord
  2
GEVID1208845783
 70
     0
  0
APPID
  5
452
330
9
100
AcDbSymbolTableRecord
100
AcDbRegAppTableRecord
  2
GEVID1208845784
 70
     0
  0
APPID
  5
453
330
9
100
AcDbSymbolTableRecord
100
AcDbRegAppTableRecord
  2
GEVID1208845785
 70
     0
  0
APPID
  5
454
330
9
100
AcDbSymbolTableRecord
100
AcDbRegAppTableRecord
  2
GEVID1208845787
 70
     0
  0
APPID
  5
455
330
9
100
AcDbSymbolTableRecord
100
AcDbRegAppTableRecord
  2
GEVID1208845788
 70
     0
  0
APPID
  5
456
330
9
100
AcDbSymbolTableRecord
100
AcDbRegAppTableRecord
  2
GEVID1208845789
 70
     0
  0
APPID
  5
457
330
9
100
AcDbSymbolTableRecord
100
AcDbRegAppTableRecord
  2
GEVID1208845790
 70
     0
  0
APPID
  5
458
330
9
100
AcDbSymbolTableRecord
100
AcDbRegAppTableRecord
  2
GEVID1208845791
 70
     0
  0
APPID
  5
459
330
9
100
AcDbSymbolTableRecord
100
AcDbRegAppTableRecord
  2
GEVID1208845792
 70
     0
  0
APPID
  5
45A
330
9
100
AcDbSymbolTableRecord
100
AcDbRegAppTableRecord
  2
GEVID1208845793
 70
     0
  0
APPID
  5
45B
330
9
100
AcDbSymbolTableRecord
100
AcDbRegAppTableRecord
  2
GEVID1208845794
 70
     0
  0
APPID
  5
45C
330
9
100
AcDbSymbolTableRecord
100
AcDbRegAppTableRecord
  2
GEVID1208845795
 70
     0
  0
APPID
  5
45D
330
9
100
AcDbSymbolTableRecord
100
AcDbRegAppTableRecord
  2
GEVID1208845796
 70
     0
  0
APPID
  5
45E
330
9
100
AcDbSymbolTableRecord
100
AcDbRegAppTableRecord
  2
GEVID1208845797
 70
     0
  0
APPID
  5
45F
330
9
100
AcDbSymbolTableRecord
100
AcDbRegAppTableRecord
  2
GEVID1208845798
 70
     0
  0
APPID
  5
460
330
9
100
AcDbSymbolTableRecord
100
AcDbRegAppTableRecord
  2
GEVID1208845799
 70
     0
  0
APPID
  5
461
330
9
100
AcDbSymbolTableRecord
100
AcDbRegAppTableRecord
  2
GEVID1208845800
 70
     0
  0
APPID
  5
462
330
9
100
AcDbSymbolTableRecord
100
AcDbRegAppTableRecord
  2
GEVID1208845801
 70
     0
  0
APPID
  5
463
330
9
100
AcDbSymbolTableRecord
100
AcDbRegAppTableRecord
  2
GEVID1208845802
 70
     0
  0
APPID
  5
464
330
9
100
AcDbSymbolTableRecord
100
AcDbRegAppTableRecord
  2
GENIUS_GENOBJ-N-DIM_13
 70
     0
  0
APPID
  5
465
330
9
100
AcDbSymbolTableRecord
100
AcDbRegAppTableRecord
  2
GENIUS_GENDIM_13
 70
     0
  0
APPID
  5
466
330
9
100
AcDbSymbolTableRecord
100
AcDbRegAppTableRecord
  2
GENIUS_GENDIMSH_14
 70
     0
  0
APPID
  5
467
330
9
100
AcDbSymbolTableRecord
100
AcDbRegAppTableRecord
  2
GEVID1208845803
 70
     0
  0
APPID
  5
468
330
9
100
AcDbSymbolTableRecord
100
AcDbRegAppTableRecord
  2
GEVID1208845804
 70
     0
  0
APPID
  5
469
330
9
100
AcDbSymbolTableRecord
100
AcDbRegAppTableRecord
  2
GEVID1208845805
 70
     0
  0
APPID
  5
46A
330
9
100
AcDbSymbolTableRecord
100
AcDbRegAppTableRecord
  2
GEVID1208845806
 70
     0
  0
APPID
  5
46B
330
9
100
AcDbSymbolTableRecord
100
AcDbRegAppTableRecord
  2
GEVID1208845807
 70
     0
  0
APPID
  5
46C
330
9
100
AcDbSymbolTableRecord
100
AcDbRegAppTableRecord
  2
GEVID1208845808
 70
     0
  0
APPID
  5
46D
330
9
100
AcDbSymbolTableRecord
100
AcDbRegAppTableRecord
  2
GEVID1208845809
 70
     0
  0
APPID
  5
46E
330
9
100
AcDbSymbolTableRecord
100
AcDbRegAppTableRecord
  2
GEVID1208845810
 70
     0
  0
APPID
  5
46F
330
9
100
AcDbSymbolTableRecord
100
AcDbRegAppTableRecord
  2
GEVID1208845811
 70
     0
  0
APPID
  5
470
330
9
100
AcDbSymbolTableRecord
100
AcDbRegAppTableRecord
  2
GEVID1208845813
 70
     0
  0
APPID
  5
471
330
9
100
AcDbSymbolTableRecord
100
AcDbRegAppTableRecord
  2
GEVID1208845814
 70
     0
  0
APPID
  5
472
330
9
100
AcDbSymbolTableRecord
100
AcDbRegAppTableRecord
  2
GEVID1208845815
 70
     0
  0
APPID
  5
473
330
9
100
AcDbSymbolTableRecord
100
AcDbRegAppTableRecord
  2
GEVID1208845816
 70
     0
  0
APPID
  5
474
330
9
100
AcDbSymbolTableRecord
100
AcDbRegAppTableRecord
  2
GEVID1208845817
 70
     0
  0
APPID
  5
475
330
9
100
AcDbSymbolTableRecord
100
AcDbRegAppTableRecord
  2
GEVID1208845818
 70
     0
  0
APPID
  5
476
330
9
100
AcDbSymbolTableRecord
100
AcDbRegAppTableRecord
  2
GEVID1208845819
 70
     0
  0
APPID
  5
477
330
9
100
AcDbSymbolTableRecord
100
AcDbRegAppTableRecord
  2
GEVID1208845820
 70
     0
  0
APPID
  5
478
330
9
100
AcDbSymbolTableRecord
100
AcDbRegAppTableRecord
  2
GENIUS_GENOBJ-F-SHCL_13
 70
     0
  0
APPID
  5
479
330
9
100
AcDbSymbolTableRecord
100
AcDbRegAppTableRecord
  2
GENIUS_GEFMSH_13
 70
     0
  0
APPID
  5
47A
330
9
100
AcDbSymbolTableRecord
100
AcDbRegAppTableRecord
  2
GENIUS_GENOBJ-F-SHCA_13
 70
     0
  0
APPID
  5
47B
330
9
100
AcDbSymbolTableRecord
100
AcDbRegAppTableRecord
  2
GENIUS_GEFSH_13
 70
     0
  0
APPID
  5
47C
330
9
100
AcDbSymbolTableRecord
100
AcDbRegAppTableRecord
  2
GENIUS_GEFSHP_13
 70
     0
  0
APPID
  5
47D
330
9
100
AcDbSymbolTableRecord
100
AcDbRegAppTableRecord
  2
GENIUS_GEFSHP0_13
 70
     0
  0
APPID
  5
47E
330
9
100
AcDbSymbolTableRecord
100
AcDbRegAppTableRecord
  2
GENIUS_GEFSH0_13
 70
     0
  0
APPID
  5
47F
330
9
100
AcDbSymbolTableRecord
100
AcDbRegAppTableRecord
  2
GENIUS_GEFSHP1_13
 70
     0
  0
APPID
  5
480
330
9
100
AcDbSymbolTableRecord
100
AcDbRegAppTableRecord
  2
GENIUS_GEFSH1_13
 70
     0
  0
APPID
  5
481
330
9
100
AcDbSymbolTableRecord
100
AcDbRegAppTableRecord
  2
GEVID1208866337
 70
     0
  0
APPID
  5
482
330
9
100
AcDbSymbolTableRecord
100
AcDbRegAppTableRecord
  2
GEVID1208866338
 70
     0
  0
APPID
  5
483
330
9
100
AcDbSymbolTableRecord
100
AcDbRegAppTableRecord
  2
GEVID1208866339
 70
     0
  0
APPID
  5
484
330
9
100
AcDbSymbolTableRecord
100
AcDbRegAppTableRecord
  2
GEVID1208866340
 70
     0
  0
APPID
  5
485
330
9
100
AcDbSymbolTableRecord
100
AcDbRegAppTableRecord
  2
GEVID1208866341
 70
     0
  0
APPID
  5
486
330
9
100
AcDbSymbolTableRecord
100
AcDbRegAppTableRecord
  2
ACAD_PSEXT
 70
     0
  0
APPID
  5
487
330
9
100
AcDbSymbolTableRecord
100
AcDbRegAppTableRecord
  2
GEVID1208866342
 70
     0
  0
APPID
  5
488
330
9
100
AcDbSymbolTableRecord
100
AcDbRegAppTableRecord
  2
GEVID1208913836
 70
     0
  0
APPID
  5
489
330
9
100
AcDbSymbolTableRecord
100
AcDbRegAppTableRecord
  2
GEVID1208913837
 70
     0
  0
APPID
  5
48A
330
9
100
AcDbSymbolTableRecord
100
AcDbRegAppTableRecord
  2
GEVID1208913838
 70
     0
  0
APPID
  5
48B
330
9
100
AcDbSymbolTableRecord
100
AcDbRegAppTableRecord
  2
GEVID1208913839
 70
     0
  0
APPID
  5
48C
330
9
100
AcDbSymbolTableRecord
100
AcDbRegAppTableRecord
  2
GENIUS_GENDTOL_13
 70
     0
  0
APPID
  5
48D
330
9
100
AcDbSymbolTableRecord
100
AcDbRegAppTableRecord
  2
GEVID1208928889
 70
     0
  0
APPID
  5
48E
330
9
100
AcDbSymbolTableRecord
100
AcDbRegAppTableRecord
  2
GEVID1208928890
 70
     0
  0
APPID
  5
48F
330
9
100
AcDbSymbolTableRecord
100
AcDbRegAppTableRecord
  2
GEVID1208928891
 70
     0
  0
APPID
  5
490
330
9
100
AcDbSymbolTableRecord
100
AcDbRegAppTableRecord
  2
GEVID1208928892
 70
     0
  0
APPID
  5
491
330
9
100
AcDbSymbolTableRecord
100
AcDbRegAppTableRecord
  2
GEVID1208933827
 70
     0
  0
APPID
  5
492
330
9
100
AcDbSymbolTableRecord
100
AcDbRegAppTableRecord
  2
GEVID1208933829
 70
     0
  0
APPID
  5
493
330
9
100
AcDbSymbolTableRecord
100
AcDbRegAppTableRecord
  2
GEVID1208933830
 70
     0
  0
APPID
  5
494
330
9
100
AcDbSymbolTableRecord
100
AcDbRegAppTableRecord
  2
GEVID1208933831
 70
     0
  0
APPID
  5
495
330
9
100
AcDbSymbolTableRecord
100
AcDbRegAppTableRecord
  2
GEVID1208933832
 70
     0
  0
APPID
  5
496
330
9
100
AcDbSymbolTableRecord
100
AcDbRegAppTableRecord
  2
GEVID1208933833
 70
     0
  0
APPID
  5
497
330
9
100
AcDbSymbolTableRecord
100
AcDbRegAppTableRecord
  2
GEVID1208933834
 70
     0
  0
APPID
  5
498
330
9
100
AcDbSymbolTableRecord
100
AcDbRegAppTableRecord
  2
GEVID1208933835
 70
     0
  0
APPID
  5
499
330
9
100
AcDbSymbolTableRecord
100
AcDbRegAppTableRecord
  2
GEVID1208933836
 70
     0
  0
APPID
  5
49A
330
9
100
AcDbSymbolTableRecord
100
AcDbRegAppTableRecord
  2
GEVID1208933837
 70
     0
  0
APPID
  5
49B
330
9
100
AcDbSymbolTableRecord
100
AcDbRegAppTableRecord
  2
GEVID1208933838
 70
     0
  0
APPID
  5
49C
330
9
100
AcDbSymbolTableRecord
100
AcDbRegAppTableRecord
  2
GEVID1208933840
 70
     0
  0
APPID
  5
49D
330
9
100
AcDbSymbolTableRecord
100
AcDbRegAppTableRecord
  2
GEVID1208933842
 70
     0
  0
APPID
  5
49E
330
9
100
AcDbSymbolTableRecord
100
AcDbRegAppTableRecord
  2
GEVID1208933843
 70
     0
  0
APPID
  5
49F
330
9
100
AcDbSymbolTableRecord
100
AcDbRegAppTableRecord
  2
GEVID1208933844
 70
     0
  0
APPID
  5
4A0
330
9
100
AcDbSymbolTableRecord
100
AcDbRegAppTableRecord
  2
GEVID1208933845
 70
     0
  0
APPID
  5
4A1
330
9
100
AcDbSymbolTableRecord
100
AcDbRegAppTableRecord
  2
GEVID1208933846
 70
     0
  0
APPID
  5
4A2
330
9
100
AcDbSymbolTableRecord
100
AcDbRegAppTableRecord
  2
GEVID1208933847
 70
     0
  0
APPID
  5
4A3
330
9
100
AcDbSymbolTableRecord
100
AcDbRegAppTableRecord
  2
GEVID1208933848
 70
     0
  0
APPID
  5
4A4
330
9
100
AcDbSymbolTableRecord
100
AcDbRegAppTableRecord
  2
GEVID1208933849
 70
     0
  0
APPID
  5
4A5
330
9
100
AcDbSymbolTableRecord
100
AcDbRegAppTableRecord
  2
GEVID1208933850
 70
     0
  0
APPID
  5
4A6
330
9
100
AcDbSymbolTableRecord
100
AcDbRegAppTableRecord
  2
GEVID1208933851
 70
     0
  0
APPID
  5
4A7
330
9
100
AcDbSymbolTableRecord
100
AcDbRegAppTableRecord
  2
GEVID1208933852
 70
     0
  0
APPID
  5
4A8
330
9
100
AcDbSymbolTableRecord
100
AcDbRegAppTableRecord
  2
GEVID1208933853
 70
     0
  0
APPID
  5
4A9
330
9
100
AcDbSymbolTableRecord
100
AcDbRegAppTableRecord
  2
GEVID1208933854
 70
     0
  0
APPID
  5
4AA
330
9
100
AcDbSymbolTableRecord
100
AcDbRegAppTableRecord
  2
GEVID1208933855
 70
     0
  0
APPID
  5
4AB
330
9
100
AcDbSymbolTableRecord
100
AcDbRegAppTableRecord
  2
GEVID1208933856
 70
     0
  0
APPID
  5
4AC
330
9
100
AcDbSymbolTableRecord
100
AcDbRegAppTableRecord
  2
GEVID1208933857
 70
     0
  0
APPID
  5
4AD
330
9
100
AcDbSymbolTableRecord
100
AcDbRegAppTableRecord
  2
GEVID1208933858
 70
     0
  0
APPID
  5
4AE
330
9
100
AcDbSymbolTableRecord
100
AcDbRegAppTableRecord
  2
GEVID1208933859
 70
     0
  0
APPID
  5
4AF
330
9
100
AcDbSymbolTableRecord
100
AcDbRegAppTableRecord
  2
GEVID1208933860
 70
     0
  0
APPID
  5
4B0
330
9
100
AcDbSymbolTableRecord
100
AcDbRegAppTableRecord
  2
GEVID1208933861
 70
     0
  0
APPID
  5
4B1
330
9
100
AcDbSymbolTableRecord
100
AcDbRegAppTableRecord
  2
GEVID1208933862
 70
     0
  0
APPID
  5
4B2
330
9
100
AcDbSymbolTableRecord
100
AcDbRegAppTableRecord
  2
GEVID1208933863
 70
     0
  0
APPID
  5
4B3
330
9
100
AcDbSymbolTableRecord
100
AcDbRegAppTableRecord
  2
GEVID1208933864
 70
     0
  0
APPID
  5
4B4
330
9
100
AcDbSymbolTableRecord
100
AcDbRegAppTableRecord
  2
GEVID1208933865
 70
     0
  0
APPID
  5
4B5
330
9
100
AcDbSymbolTableRecord
100
AcDbRegAppTableRecord
  2
GEVID1208933866
 70
     0
  0
APPID
  5
4B6
330
9
100
AcDbSymbolTableRecord
100
AcDbRegAppTableRecord
  2
GEVID1208933867
 70
     0
  0
APPID
  5
4B7
330
9
100
AcDbSymbolTableRecord
100
AcDbRegAppTableRecord
  2
GEVID1208933868
 70
     0
  0
APPID
  5
4B8
330
9
100
AcDbSymbolTableRecord
100
AcDbRegAppTableRecord
  2
GEVID1208933869
 70
     0
  0
APPID
  5
4B9
330
9
100
AcDbSymbolTableRecord
100
AcDbRegAppTableRecord
  2
GEVID1208933870
 70
     0
  0
APPID
  5
4BA
330
9
100
AcDbSymbolTableRecord
100
AcDbRegAppTableRecord
  2
GEVID1208933871
 70
     0
  0
APPID
  5
4BB
330
9
100
AcDbSymbolTableRecord
100
AcDbRegAppTableRecord
  2
GEVID1208933872
 70
     0
  0
APPID
  5
4BC
330
9
100
AcDbSymbolTableRecord
100
AcDbRegAppTableRecord
  2
GEVID1208933873
 70
     0
  0
APPID
  5
4BD
330
9
100
AcDbSymbolTableRecord
100
AcDbRegAppTableRecord
  2
GEVID1208933874
 70
     0
  0
APPID
  5
4BE
330
9
100
AcDbSymbolTableRecord
100
AcDbRegAppTableRecord
  2
GEVID1208933875
 70
     0
  0
APPID
  5
4BF
330
9
100
AcDbSymbolTableRecord
100
AcDbRegAppTableRecord
  2
GEVID1208933876
 70
     0
  0
APPID
  5
4C0
330
9
100
AcDbSymbolTableRecord
100
AcDbRegAppTableRecord
  2
ACAD_DSTYLE_DIMRADIAL_EXTENSION
 70
     0
  0
APPID
  5
4C1
330
9
100
AcDbSymbolTableRecord
100
AcDbRegAppTableRecord
  2
GEVID1208999100
 70
     0
  0
APPID
  5
4C2
330
9
100
AcDbSymbolTableRecord
100
AcDbRegAppTableRecord
  2
GEVID1208999101
 70
     0
  0
APPID
  5
4C3
330
9
100
AcDbSymbolTableRecord
100
AcDbRegAppTableRecord
  2
GEVID1208999102
 70
     0
  0
APPID
  5
4C4
330
9
100
AcDbSymbolTableRecord
100
AcDbRegAppTableRecord
  2
GEVID1208999103
 70
     0
  0
APPID
  5
4C5
330
9
100
AcDbSymbolTableRecord
100
AcDbRegAppTableRecord
  2
GEVID1208999105
 70
     0
  0
APPID
  5
4C6
330
9
100
AcDbSymbolTableRecord
100
AcDbRegAppTableRecord
  2
GEVID1208999106
 70
     0
  0
APPID
  5
4C7
330
9
100
AcDbSymbolTableRecord
100
AcDbRegAppTableRecord
  2
GEVID1208999108
 70
     0
  0
APPID
  5
4C8
330
9
100
AcDbSymbolTableRecord
100
AcDbRegAppTableRecord
  2
GEVID1208999109
 70
     0
  0
APPID
  5
4C9
330
9
100
AcDbSymbolTableRecord
100
AcDbRegAppTableRecord
  2
GEVID1208999110
 70
     0
  0
APPID
  5
4CA
330
9
100
AcDbSymbolTableRecord
100
AcDbRegAppTableRecord
  2
GEVID1208999111
 70
     0
  0
APPID
  5
4CB
330
9
100
AcDbSymbolTableRecord
100
AcDbRegAppTableRecord
  2
GEVID1208999112
 70
     0
  0
APPID
  5
4CC
330
9
100
AcDbSymbolTableRecord
100
AcDbRegAppTableRecord
  2
GEVID1208999113
 70
     0
  0
APPID
  5
4CD
330
9
100
AcDbSymbolTableRecord
100
AcDbRegAppTableRecord
  2
GEVID1208999114
 70
     0
  0
APPID
  5
4CE
330
9
100
AcDbSymbolTableRecord
100
AcDbRegAppTableRecord
  2
GEVID1210218799
 70
     0
  0
APPID
  5
4CF
330
9
100
AcDbSymbolTableRecord
100
AcDbRegAppTableRecord
  2
GEVID1210218800
 70
     0
  0
APPID
  5
4D0
330
9
100
AcDbSymbolTableRecord
100
AcDbRegAppTableRecord
  2
GENIUS_GEFWELD_13
 70
     0
  0
APPID
  5
4D1
330
9
100
AcDbSymbolTableRecord
100
AcDbRegAppTableRecord
  2
GENIUS_GENOBJ-F-WELS_13
 70
     0
  0
APPID
  5
4D2
330
9
100
AcDbSymbolTableRecord
100
AcDbRegAppTableRecord
  2
AcadAnnotative
 70
     0
  0
APPID
  5
4D3
330
9
100
AcDbSymbolTableRecord
100
AcDbRegAppTableRecord
  2
GEVID1210145339
 70
     0
  0
APPID
  5
4D4
330
9
100
AcDbSymbolTableRecord
100
AcDbRegAppTableRecord
  2
ACAD_DSTYLE_DIMBREAK
 70
     0
  0
APPID
  5
4D5
330
9
100
AcDbSymbolTableRecord
100
AcDbRegAppTableRecord
  2
GEVID1210145340
 70
     0
  0
APPID
  5
4D6
330
9
100
AcDbSymbolTableRecord
100
AcDbRegAppTableRecord
  2
GEVID1210145341
 70
     0
  0
APPID
  5
4D7
330
9
100
AcDbSymbolTableRecord
100
AcDbRegAppTableRecord
  2
GEVID1210145342
 70
     0
  0
APPID
  5
4D8
330
9
100
AcDbSymbolTableRecord
100
AcDbRegAppTableRecord
  2
GEVID1210145343
 70
     0
  0
APPID
  5
4D9
330
9
100
AcDbSymbolTableRecord
100
AcDbRegAppTableRecord
  2
GEVID1210145344
 70
     0
  0
APPID
  5
4DA
330
9
100
AcDbSymbolTableRecord
100
AcDbRegAppTableRecord
  2
GEVID1210145345
 70
     0
  0
APPID
  5
4DB
330
9
100
AcDbSymbolTableRecord
100
AcDbRegAppTableRecord
  2
GEVID1210152816
 70
     0
  0
APPID
  5
4DC
330
9
100
AcDbSymbolTableRecord
100
AcDbRegAppTableRecord
  2
GEVID1210153850
 70
     0
  0
APPID
  5
4DD
330
9
100
AcDbSymbolTableRecord
100
AcDbRegAppTableRecord
  2
GEVID1210153851
 70
     0
  0
APPID
  5
4DE
330
9
100
AcDbSymbolTableRecord
100
AcDbRegAppTableRecord
  2
GEVID1210153852
 70
     0
  0
APPID
  5
4DF
330
9
100
AcDbSymbolTableRecord
100
AcDbRegAppTableRecord
  2
GEVID1210549898
 70
     0
  0
APPID
  5
4E0
330
9
100
AcDbSymbolTableRecord
100
AcDbRegAppTableRecord
  2
GEVID1210549899
 70
     0
  0
APPID
  5
4E1
330
9
100
AcDbSymbolTableRecord
100
AcDbRegAppTableRecord
  2
GEVID1210549900
 70
     0
  0
APPID
  5
4E2
330
9
100
AcDbSymbolTableRecord
100
AcDbRegAppTableRecord
  2
GEVID1210549901
 70
     0
  0
APPID
  5
4E3
330
9
100
AcDbSymbolTableRecord
100
AcDbRegAppTableRecord
  2
GEVID1210549902
 70
     0
  0
APPID
  5
4E4
330
9
100
AcDbSymbolTableRecord
100
AcDbRegAppTableRecord
  2
GEVID1210549903
 70
     0
  0
APPID
  5
4E5
330
9
100
AcDbSymbolTableRecord
100
AcDbRegAppTableRecord
  2
GEVID1210549904
 70
     0
  0
APPID
  5
4E6
330
9
100
AcDbSymbolTableRecord
100
AcDbRegAppTableRecord
  2
GEVID1210549905
 70
     0
  0
APPID
  5
4E7
330
9
100
AcDbSymbolTableRecord
100
AcDbRegAppTableRecord
  2
GEVID1210549906
 70
     0
  0
APPID
  5
4E8
330
9
100
AcDbSymbolTableRecord
100
AcDbRegAppTableRecord
  2
GEVID1210549907
 70
     0
  0
APPID
  5
4E9
330
9
100
AcDbSymbolTableRecord
100
AcDbRegAppTableRecord
  2
GEVID1210549908
 70
     0
  0
APPID
  5
4EA
330
9
100
AcDbSymbolTableRecord
100
AcDbRegAppTableRecord
  2
GEVID1210549909
 70
     0
  0
APPID
  5
4EB
330
9
100
AcDbSymbolTableRecord
100
AcDbRegAppTableRecord
  2
GEVID1210549910
 70
     0
  0
APPID
  5
4EC
330
9
100
AcDbSymbolTableRecord
100
AcDbRegAppTableRecord
  2
GEVID1210549911
 70
     0
  0
APPID
  5
4ED
330
9
100
AcDbSymbolTableRecord
100
AcDbRegAppTableRecord
  2
GEVID1210549912
 70
     0
  0
APPID
  5
4EE
330
9
100
AcDbSymbolTableRecord
100
AcDbRegAppTableRecord
  2
GEVID1210549913
 70
     0
  0
APPID
  5
4EF
330
9
100
AcDbSymbolTableRecord
100
AcDbRegAppTableRecord
  2
GEVID1210549914
 70
     0
  0
APPID
  5
4F0
330
9
100
AcDbSymbolTableRecord
100
AcDbRegAppTableRecord
  2
GEVID1210549915
 70
     0
  0
APPID
  5
4F1
330
9
100
AcDbSymbolTableRecord
100
AcDbRegAppTableRecord
  2
GEVID1210549916
 70
     0
  0
APPID
  5
4F2
330
9
100
AcDbSymbolTableRecord
100
AcDbRegAppTableRecord
  2
GEVID1210549917
 70
     0
  0
APPID
  5
4F3
330
9
100
AcDbSymbolTableRecord
100
AcDbRegAppTableRecord
  2
GENIUS_GENOBJ-N-CRS_13
 70
     0
  0
APPID
  5
4F4
330
9
100
AcDbSymbolTableRecord
100
AcDbRegAppTableRecord
  2
GEVID1210549918
 70
     0
  0
APPID
  5
4F5
330
9
100
AcDbSymbolTableRecord
100
AcDbRegAppTableRecord
  2
GENIUS_GENOBJ-N-CRC_13
 70
     0
  0
APPID
  5
4F6
330
9
100
AcDbSymbolTableRecord
100
AcDbRegAppTableRecord
  2
GENIUS_GENCRC_14
 70
     0
  0
APPID
  5
4F7
330
9
100
AcDbSymbolTableRecord
100
AcDbRegAppTableRecord
  2
GEVID1210549919
 70
     0
  0
APPID
  5
4F8
330
9
100
AcDbSymbolTableRecord
100
AcDbRegAppTableRecord
  2
GEVID1210549921
 70
     0
  0
APPID
  5
4F9
330
9
100
AcDbSymbolTableRecord
100
AcDbRegAppTableRecord
  2
GEVID1210549922
 70
     0
  0
APPID
  5
4FA
330
9
100
AcDbSymbolTableRecord
100
AcDbRegAppTableRecord
  2
GEVID1210635173
 70
     0
  0
APPID
  5
4FB
330
9
100
AcDbSymbolTableRecord
100
AcDbRegAppTableRecord
  2
GEVID1210635174
 70
     0
  0
APPID
  5
4FC
330
9
100
AcDbSymbolTableRecord
100
AcDbRegAppTableRecord
  2
GEVID1210635175
 70
     0
  0
APPID
  5
4FD
330
9
100
AcDbSymbolTableRecord
100
AcDbRegAppTableRecord
  2
GEVID1210635176
 70
     0
  0
APPID
  5
4FE
330
9
100
AcDbSymbolTableRecord
100
AcDbRegAppTableRecord
  2
GEVID1210635177
 70
     0
  0
APPID
  5
4FF
330
9
100
AcDbSymbolTableRecord
100
AcDbRegAppTableRecord
  2
GEVID1210635178
 70
     0
  0
APPID
  5
500
330
9
100
AcDbSymbolTableRecord
100
AcDbRegAppTableRecord
  2
GENIUS_GENIUS_GENBHEDTMP_13
 70
     0
  0
APPID
  5
501
330
9
100
AcDbSymbolTableRecord
100
AcDbRegAppTableRecord
  2
GEVID1210635179
 70
     0
  0
APPID
  5
502
330
9
100
AcDbSymbolTableRecord
100
AcDbRegAppTableRecord
  2
GEVID1210635180
 70
     0
  0
APPID
  5
503
330
9
100
AcDbSymbolTableRecord
100
AcDbRegAppTableRecord
  2
GEVID1210635181
 70
     0
  0
APPID
  5
504
330
9
100
AcDbSymbolTableRecord
100
AcDbRegAppTableRecord
  2
GEVID1210635182
 70
     0
  0
APPID
  5
505
330
9
100
AcDbSymbolTableRecord
100
AcDbRegAppTableRecord
  2
GEVID1210635184
 70
     0
  0
APPID
  5
506
330
9
100
AcDbSymbolTableRecord
100
AcDbRegAppTableRecord
  2
GEVID1210635185
 70
     0
  0
APPID
  5
507
330
9
100
AcDbSymbolTableRecord
100
AcDbRegAppTableRecord
  2
GEVID1210635186
 70
     0
  0
APPID
  5
508
330
9
100
AcDbSymbolTableRecord
100
AcDbRegAppTableRecord
  2
GEVID1210635187
 70
     0
  0
APPID
  5
509
330
9
100
AcDbSymbolTableRecord
100
AcDbRegAppTableRecord
  2
GEVID1210635188
 70
     0
  0
APPID
  5
50A
330
9
100
AcDbSymbolTableRecord
100
AcDbRegAppTableRecord
  2
GEVID1210635189
 70
     0
  0
APPID
  5
50B
330
9
100
AcDbSymbolTableRecord
100
AcDbRegAppTableRecord
  2
GEVID1210635190
 70
     0
  0
APPID
  5
50C
330
9
100
AcDbSymbolTableRecord
100
AcDbRegAppTableRecord
  2
GENIUS_GENREC_14
 70
     0
  0
APPID
  5
50D
330
9
100
AcDbSymbolTableRecord
100
AcDbRegAppTableRecord
  2
GENIUS_GENOBJ-N-REC_13
 70
     0
  0
APPID
  5
50E
330
9
100
AcDbSymbolTableRecord
100
AcDbRegAppTableRecord
  2
GEVID1210676655
 70
     0
  0
APPID
  5
50F
330
9
100
AcDbSymbolTableRecord
100
AcDbRegAppTableRecord
  2
GEVID1210676656
 70
     0
  0
APPID
  5
510
330
9
100
AcDbSymbolTableRecord
100
AcDbRegAppTableRecord
  2
GEVID1210676657
 70
     0
  0
APPID
  5
511
330
9
100
AcDbSymbolTableRecord
100
AcDbRegAppTableRecord
  2
GEVID1210676659
 70
     0
  0
APPID
  5
512
330
9
100
AcDbSymbolTableRecord
100
AcDbRegAppTableRecord
  2
GEVID1210676660
 70
     0
  0
APPID
  5
513
330
9
100
AcDbSymbolTableRecord
100
AcDbRegAppTableRecord
  2
GEVID1210676661
 70
     0
  0
APPID
  5
514
330
9
100
AcDbSymbolTableRecord
100
AcDbRegAppTableRecord
  2
GEVID1210676662
 70
     0
  0
APPID
  5
515
330
9
100
AcDbSymbolTableRecord
100
AcDbRegAppTableRecord
  2
GEVID1210721646
 70
     0
  0
APPID
  5
516
330
9
100
AcDbSymbolTableRecord
100
AcDbRegAppTableRecord
  2
GEVID1210721647
 70
     0
  0
APPID
  5
517
330
9
100
AcDbSymbolTableRecord
100
AcDbRegAppTableRecord
  2
GEVID1210721648
 70
     0
  0
APPID
  5
518
330
9
100
AcDbSymbolTableRecord
100
AcDbRegAppTableRecord
  2
GEVID1210721649
 70
     0
  0
APPID
  5
519
330
9
100
AcDbSymbolTableRecord
100
AcDbRegAppTableRecord
  2
GEVID1210721650
 70
     0
  0
APPID
  5
51A
330
9
100
AcDbSymbolTableRecord
100
AcDbRegAppTableRecord
  2
GEVID1210721651
 70
     0
  0
APPID
  5
51B
330
9
100
AcDbSymbolTableRecord
100
AcDbRegAppTableRecord
  2
GEVID1210721652
 70
     0
  0
APPID
  5
51C
330
9
100
AcDbSymbolTableRecord
100
AcDbRegAppTableRecord
  2
GEVID1210721653
 70
     0
  0
APPID
  5
51D
330
9
100
AcDbSymbolTableRecord
100
AcDbRegAppTableRecord
  2
PE_URL
 70
     0
  0
APPID
  5
51E
330
9
100
AcDbSymbolTableRecord
100
AcDbRegAppTableRecord
  2
GEVID1210825555
 70
     0
  0
APPID
  5
51F
330
9
100
AcDbSymbolTableRecord
100
AcDbRegAppTableRecord
  2
GEVID1210825556
 70
     0
  0
APPID
  5
520
330
9
100
AcDbSymbolTableRecord
100
AcDbRegAppTableRecord
  2
GEVID1210825557
 70
     0
  0
APPID
  5
521
330
9
100
AcDbSymbolTableRecord
100
AcDbRegAppTableRecord
  2
GEVID1210825558
 70
     0
  0
APPID
  5
522
330
9
100
AcDbSymbolTableRecord
100
AcDbRegAppTableRecord
  2
GEVID1210825559
 70
     0
  0
APPID
  5
523
330
9
100
AcDbSymbolTableRecord
100
AcDbRegAppTableRecord
  2
GEVID1210825560
 70
     0
  0
APPID
  5
524
330
9
100
AcDbSymbolTableRecord
100
AcDbRegAppTableRecord
  2
GEVID1210825561
 70
     0
  0
APPID
  5
525
330
9
100
AcDbSymbolTableRecord
100
AcDbRegAppTableRecord
  2
GEVID1210825562
 70
     0
  0
APPID
  5
526
330
9
100
AcDbSymbolTableRecord
100
AcDbRegAppTableRecord
  2
GEVID1210825563
 70
     0
  0
APPID
  5
527
330
9
100
AcDbSymbolTableRecord
100
AcDbRegAppTableRecord
  2
GEVID1210825564
 70
     0
  0
APPID
  5
528
330
9
100
AcDbSymbolTableRecord
100
AcDbRegAppTableRecord
  2
GEVID1210825565
 70
     0
  0
APPID
  5
529
330
9
100
AcDbSymbolTableRecord
100
AcDbRegAppTableRecord
  2
GEVID1210825566
 70
     0
  0
APPID
  5
52A
330
9
100
AcDbSymbolTableRecord
100
AcDbRegAppTableRecord
  2
GEVID1210825567
 70
     0
  0
APPID
  5
52B
330
9
100
AcDbSymbolTableRecord
100
AcDbRegAppTableRecord
  2
GENIUS_GENOBJ-N-ZOO_13
 70
     0
  0
APPID
  5
52C
330
9
100
AcDbSymbolTableRecord
100
AcDbRegAppTableRecord
  2
GENIUS_GENZOO_17
 70
     0
  0
APPID
  5
52D
330
9
100
AcDbSymbolTableRecord
100
AcDbRegAppTableRecord
  2
ACADANNOTATIVEDECOMPOSITION
 70
     0
  0
APPID
  5
52E
330
9
100
AcDbSymbolTableRecord
100
AcDbRegAppTableRecord
  2
GENIUS_GENOBJ-N-HTC_13
 70
     0
  0
APPID
  5
52F
330
9
100
AcDbSymbolTableRecord
100
AcDbRegAppTableRecord
  2
GENIUS_GENHATCH_13
 70
     0
  0
APPID
  5
530
330
9
100
AcDbSymbolTableRecord
100
AcDbRegAppTableRecord
  2
GEVID1210896020
 70
     0
  0
APPID
  5
531
330
9
100
AcDbSymbolTableRecord
100
AcDbRegAppTableRecord
  2
GEVID1210896021
 70
     0
  0
APPID
  5
532
330
9
100
AcDbSymbolTableRecord
100
AcDbRegAppTableRecord
  2
GEVID1209083540
 70
     0
  0
APPID
  5
533
330
9
100
AcDbSymbolTableRecord
100
AcDbRegAppTableRecord
  2
GEVMK
 70
     0
  0
APPID
  5
534
330
9
100
AcDbSymbolTableRecord
100
AcDbRegAppTableRecord
  2
GEVID1209083542
 70
     0
  0
APPID
  5
535
330
9
100
AcDbSymbolTableRecord
100
AcDbRegAppTableRecord
  2
GEVID1209083543
 70
     0
  0
APPID
  5
536
330
9
100
AcDbSymbolTableRecord
100
AcDbRegAppTableRecord
  2
GEVID1209083544
 70
     0
  0
APPID
  5
537
330
9
100
AcDbSymbolTableRecord
100
AcDbRegAppTableRecord
  2
GEVID1209083545
 70
     0
  0
APPID
  5
538
330
9
100
AcDbSymbolTableRecord
100
AcDbRegAppTableRecord
  2
GEVID1209083546
 70
     0
  0
APPID
  5
539
330
9
100
AcDbSymbolTableRecord
100
AcDbRegAppTableRecord
  2
GEVID1209083547
 70
     0
  0
APPID
  5
53A
330
9
100
AcDbSymbolTableRecord
100
AcDbRegAppTableRecord
  2
GEVID1209083548
 70
     0
  0
APPID
  5
53B
330
9
100
AcDbSymbolTableRecord
100
AcDbRegAppTableRecord
  2
GEVID1209083549
 70
     0
  0
APPID
  5
53C
330
9
100
AcDbSymbolTableRecord
100
AcDbRegAppTableRecord
  2
GEVID1209083550
 70
     0
  0
APPID
  5
53D
330
9
100
AcDbSymbolTableRecord
100
AcDbRegAppTableRecord
  2
GEVID1209083551
 70
     0
  0
APPID
  5
53E
330
9
100
AcDbSymbolTableRecord
100
AcDbRegAppTableRecord
  2
GEVID1209083552
 70
     0
  0
APPID
  5
53F
330
9
100
AcDbSymbolTableRecord
100
AcDbRegAppTableRecord
  2
GEVID1209083553
 70
     0
  0
APPID
  5
540
330
9
100
AcDbSymbolTableRecord
100
AcDbRegAppTableRecord
  2
GEVID1210896022
 70
     0
  0
APPID
  5
541
330
9
100
AcDbSymbolTableRecord
100
AcDbRegAppTableRecord
  2
GEVID1211508364
 70
     0
  0
APPID
  5
542
330
9
100
AcDbSymbolTableRecord
100
AcDbRegAppTableRecord
  2
GEVID1211414908
 70
     0
  0
APPID
  5
543
330
9
100
AcDbSymbolTableRecord
100
AcDbRegAppTableRecord
  2
GEVID1211414909
 70
     0
  0
APPID
  5
544
330
9
100
AcDbSymbolTableRecord
100
AcDbRegAppTableRecord
  2
GEVID1211508359
 70
     0
  0
APPID
  5
545
330
9
100
AcDbSymbolTableRecord
100
AcDbRegAppTableRecord
  2
GEVID1211508360
 70
     0
  0
APPID
  5
546
330
9
100
AcDbSymbolTableRecord
100
AcDbRegAppTableRecord
  2
GEVID1211508361
 70
     0
  0
APPID
  5
547
330
9
100
AcDbSymbolTableRecord
100
AcDbRegAppTableRecord
  2
GEVID1211508362
 70
     0
  0
APPID
  5
548
330
9
100
AcDbSymbolTableRecord
100
AcDbRegAppTableRecord
  2
GEVID1211508363
 70
     0
  0
APPID
  5
549
330
9
100
AcDbSymbolTableRecord
100
AcDbRegAppTableRecord
  2
GEVID1211878469
 70
     0
  0
APPID
  5
54A
330
9
100
AcDbSymbolTableRecord
100
AcDbRegAppTableRecord
  2
GEVID1212642819
 70
     0
  0
APPID
  5
54B
330
9
100
AcDbSymbolTableRecord
100
AcDbRegAppTableRecord
  2
GEVID1212642820
 70
     0
  0
APPID
  5
54C
330
9
100
AcDbSymbolTableRecord
100
AcDbRegAppTableRecord
  2
GEVID1212642821
 70
     0
  0
APPID
  5
54D
330
9
100
AcDbSymbolTableRecord
100
AcDbRegAppTableRecord
  2
GEVID1212642822
 70
     0
  0
APPID
  5
54E
330
9
100
AcDbSymbolTableRecord
100
AcDbRegAppTableRecord
  2
GEVID1212642823
 70
     0
  0
APPID
  5
54F
330
9
100
AcDbSymbolTableRecord
100
AcDbRegAppTableRecord
  2
GEVID1212642825
 70
     0
  0
APPID
  5
550
330
9
100
AcDbSymbolTableRecord
100
AcDbRegAppTableRecord
  2
GEVID1212642826
 70
     0
  0
APPID
  5
551
330
9
100
AcDbSymbolTableRecord
100
AcDbRegAppTableRecord
  2
GEVID1212642827
 70
     0
  0
APPID
  5
552
330
9
100
AcDbSymbolTableRecord
100
AcDbRegAppTableRecord
  2
GEVID1212642828
 70
     0
  0
APPID
  5
553
330
9
100
AcDbSymbolTableRecord
100
AcDbRegAppTableRecord
  2
GEVID1212642831
 70
     0
  0
APPID
  5
554
330
9
100
AcDbSymbolTableRecord
100
AcDbRegAppTableRecord
  2
GEVID1212642834
 70
     0
  0
APPID
  5
555
330
9
100
AcDbSymbolTableRecord
100
AcDbRegAppTableRecord
  2
GEVID1212642835
 70
     0
  0
APPID
  5
556
330
9
100
AcDbSymbolTableRecord
100
AcDbRegAppTableRecord
  2
GEVID1212642836
 70
     0
  0
APPID
  5
557
330
9
100
AcDbSymbolTableRecord
100
AcDbRegAppTableRecord
  2
GEVID1212642837
 70
     0
  0
APPID
  5
558
330
9
100
AcDbSymbolTableRecord
100
AcDbRegAppTableRecord
  2
GEVID1212642839
 70
     0
  0
APPID
  5
559
330
9
100
AcDbSymbolTableRecord
100
AcDbRegAppTableRecord
  2
GEVID1212642840
 70
     0
  0
APPID
  5
55A
330
9
100
AcDbSymbolTableRecord
100
AcDbRegAppTableRecord
  2
GEVID1212642841
 70
     0
  0
APPID
  5
55B
330
9
100
AcDbSymbolTableRecord
100
AcDbRegAppTableRecord
  2
GEVID1212655312
 70
     0
  0
APPID
  5
55C
330
9
100
AcDbSymbolTableRecord
100
AcDbRegAppTableRecord
  2
GEVID1212655313
 70
     0
  0
APPID
  5
55D
330
9
100
AcDbSymbolTableRecord
100
AcDbRegAppTableRecord
  2
GEVID1212656533
 70
     0
  0
APPID
  5
55E
330
9
100
AcDbSymbolTableRecord
100
AcDbRegAppTableRecord
  2
GEVID1212656534
 70
     0
  0
APPID
  5
55F
330
9
100
AcDbSymbolTableRecord
100
AcDbRegAppTableRecord
  2
GEVID1212656535
 70
     0
  0
APPID
  5
560
330
9
100
AcDbSymbolTableRecord
100
AcDbRegAppTableRecord
  2
GEVID1212656536
 70
     0
  0
APPID
  5
561
330
9
100
AcDbSymbolTableRecord
100
AcDbRegAppTableRecord
  2
GEVID1212656538
 70
     0
  0
APPID
  5
562
330
9
100
AcDbSymbolTableRecord
100
AcDbRegAppTableRecord
  2
GEVID1212656541
 70
     0
  0
APPID
  5
563
330
9
100
AcDbSymbolTableRecord
100
AcDbRegAppTableRecord
  2
GEVID1212656543
 70
     0
  0
APPID
  5
564
330
9
100
AcDbSymbolTableRecord
100
AcDbRegAppTableRecord
  2
GENIUS_GENOBJ-F-PFASSM_13
 70
     0
  0
APPID
  5
565
330
9
100
AcDbSymbolTableRecord
100
AcDbRegAppTableRecord
  2
GEVID1212656544
 70
     0
  0
APPID
  5
566
330
9
100
AcDbSymbolTableRecord
100
AcDbRegAppTableRecord
  2
GEVID1212656545
 70
     0
  0
APPID
  5
567
330
9
100
AcDbSymbolTableRecord
100
AcDbRegAppTableRecord
  2
GEVID1212656546
 70
     0
  0
APPID
  5
568
330
9
100
AcDbSymbolTableRecord
100
AcDbRegAppTableRecord
  2
GEVID1212656547
 70
     0
  0
APPID
  5
569
330
9
100
AcDbSymbolTableRecord
100
AcDbRegAppTableRecord
  2
GEVID1212656548
 70
     0
  0
APPID
  5
56A
330
9
100
AcDbSymbolTableRecord
100
AcDbRegAppTableRecord
  2
GEVID1212656549
 70
     0
  0
APPID
  5
56B
330
9
100
AcDbSymbolTableRecord
100
AcDbRegAppTableRecord
  2
GEVID1212656550
 70
     0
  0
APPID
  5
56C
330
9
100
AcDbSymbolTableRecord
100
AcDbRegAppTableRecord
  2
GEVID1212656552
 70
     0
  0
APPID
  5
56D
330
9
100
AcDbSymbolTableRecord
100
AcDbRegAppTableRecord
  2
GEVID1212656553
 70
     0
  0
APPID
  5
56E
330
9
100
AcDbSymbolTableRecord
100
AcDbRegAppTableRecord
  2
GEVID1212656554
 70
     0
  0
APPID
  5
56F
330
9
100
AcDbSymbolTableRecord
100
AcDbRegAppTableRecord
  2
GEVID1212656555
 70
     0
  0
APPID
  5
570
330
9
100
AcDbSymbolTableRecord
100
AcDbRegAppTableRecord
  2
GEVID1212656556
 70
     0
  0
APPID
  5
571
330
9
100
AcDbSymbolTableRecord
100
AcDbRegAppTableRecord
  2
GEVID1212656557
 70
     0
  0
APPID
  5
572
330
9
100
AcDbSymbolTableRecord
100
AcDbRegAppTableRecord
  2
GEVID1212656559
 70
     0
  0
APPID
  5
573
330
9
100
AcDbSymbolTableRecord
100
AcDbRegAppTableRecord
  2
GEVID1212656560
 70
     0
  0
APPID
  5
574
330
9
100
AcDbSymbolTableRecord
100
AcDbRegAppTableRecord
  2
GEVID1212656561
 70
     0
  0
APPID
  5
575
330
9
100
AcDbSymbolTableRecord
100
AcDbRegAppTableRecord
  2
GEVID1212656562
 70
     0
  0
APPID
  5
576
330
9
100
AcDbSymbolTableRecord
100
AcDbRegAppTableRecord
  2
GEVID1212656563
 70
     0
  0
APPID
  5
577
330
9
100
AcDbSymbolTableRecord
100
AcDbRegAppTableRecord
  2
GEVID1212711781
 70
     0
  0
APPID
  5
578
330
9
100
AcDbSymbolTableRecord
100
AcDbRegAppTableRecord
  2
GEVID1212711782
 70
     0
  0
APPID
  5
579
330
9
100
AcDbSymbolTableRecord
100
AcDbRegAppTableRecord
  2
GEVID1212711783
 70
     0
  0
APPID
  5
57A
330
9
100
AcDbSymbolTableRecord
100
AcDbRegAppTableRecord
  2
GEVID1212711784
 70
     0
  0
APPID
  5
57B
330
9
100
AcDbSymbolTableRecord
100
AcDbRegAppTableRecord
  2
GEVID1212711788
 70
     0
  0
APPID
  5
57C
330
9
100
AcDbSymbolTableRecord
100
AcDbRegAppTableRecord
  2
GEVID1212711789
 70
     0
  0
APPID
  5
57D
330
9
100
AcDbSymbolTableRecord
100
AcDbRegAppTableRecord
  2
GEVID1212711790
 70
     0
  0
APPID
  5
57E
330
9
100
AcDbSymbolTableRecord
100
AcDbRegAppTableRecord
  2
GEVID1212711791
 70
     0
  0
APPID
  5
57F
330
9
100
AcDbSymbolTableRecord
100
AcDbRegAppTableRecord
  2
GEVID1212711792
 70
     0
  0
APPID
  5
580
330
9
100
AcDbSymbolTableRecord
100
AcDbRegAppTableRecord
  2
GEVID1212711793
 70
     0
  0
APPID
  5
581
330
9
100
AcDbSymbolTableRecord
100
AcDbRegAppTableRecord
  2
GEVID1212711794
 70
     0
  0
APPID
  5
582
330
9
100
AcDbSymbolTableRecord
100
AcDbRegAppTableRecord
  2
GEVID1212711795
 70
     0
  0
APPID
  5
583
330
9
100
AcDbSymbolTableRecord
100
AcDbRegAppTableRecord
  2
GEVID1212711797
 70
     0
  0
APPID
  5
584
330
9
100
AcDbSymbolTableRecord
100
AcDbRegAppTableRecord
  2
GEVID1212711798
 70
     0
  0
APPID
  5
585
330
9
100
AcDbSymbolTableRecord
100
AcDbRegAppTableRecord
  2
GEVID1212711799
 70
     0
  0
APPID
  5
586
330
9
100
AcDbSymbolTableRecord
100
AcDbRegAppTableRecord
  2
GEVID1212711800
 70
     0
  0
APPID
  5
587
330
9
100
AcDbSymbolTableRecord
100
AcDbRegAppTableRecord
  2
GEVID1212711801
 70
     0
  0
APPID
  5
588
330
9
100
AcDbSymbolTableRecord
100
AcDbRegAppTableRecord
  2
GEVID1212711802
 70
     0
  0
APPID
  5
589
330
9
100
AcDbSymbolTableRecord
100
AcDbRegAppTableRecord
  2
GEVID1212711803
 70
     0
  0
APPID
  5
58A
330
9
100
AcDbSymbolTableRecord
100
AcDbRegAppTableRecord
  2
GEVID1212711804
 70
     0
  0
APPID
  5
58B
330
9
100
AcDbSymbolTableRecord
100
AcDbRegAppTableRecord
  2
GEVID1212711805
 70
     0
  0
APPID
  5
58C
330
9
100
AcDbSymbolTableRecord
100
AcDbRegAppTableRecord
  2
GEVID1212711806
 70
     0
  0
APPID
  5
58D
330
9
100
AcDbSymbolTableRecord
100
AcDbRegAppTableRecord
  2
GEVID1212711807
 70
     0
  0
APPID
  5
58E
330
9
100
AcDbSymbolTableRecord
100
AcDbRegAppTableRecord
  2
GEVID1212711808
 70
     0
  0
APPID
  5
58F
330
9
100
AcDbSymbolTableRecord
100
AcDbRegAppTableRecord
  2
GEVID1212711809
 70
     0
  0
APPID
  5
590
330
9
100
AcDbSymbolTableRecord
100
AcDbRegAppTableRecord
  2
GEVID1212711810
 70
     0
  0
APPID
  5
591
330
9
100
AcDbSymbolTableRecord
100
AcDbRegAppTableRecord
  2
GEVID1212711811
 70
     0
  0
APPID
  5
90A
330
9
100
AcDbSymbolTableRecord
100
AcDbRegAppTableRecord
  2
GENIUS_GENTRA_14
 70
     0
  0
APPID
  5
919
330
9
100
AcDbSymbolTableRecord
100
AcDbRegAppTableRecord
  2
GENIUS_GENOBJ-N-TIT_13
 70
     0
  0
APPID
  5
91A
330
9
100
AcDbSymbolTableRecord
100
AcDbRegAppTableRecord
  2
GENIUS_GENTITLE_13
 70
     0
  0
APPID
  5
949
330
9
100
AcDbSymbolTableRecord
100
AcDbRegAppTableRecord
  2
GENIUS_GENBLLY_14
 70
     0
  0
APPID
  5
DDD
330
9
100
AcDbSymbolTableRecord
100
AcDbRegAppTableRecord
  2
GEVID1213165152
 70
     0
  0
APPID
  5
12F9
330
9
100
AcDbSymbolTableRecord
100
AcDbRegAppTableRecord
  2
AcDbDynamicBlockTrueName
 70
     0
  0
APPID
  5
12FA
330
9
100
AcDbSymbolTableRecord
100
AcDbRegAppTableRecord
  2
ACDBBLOCKREPETAG
 70
     0
  0
APPID
  5
1C15
330
9
100
AcDbSymbolTableRecord
100
AcDbRegAppTableRecord
  2
GEVID1214872427
 70
     0
  0
APPID
  5
1C2A
330
9
100
AcDbSymbolTableRecord
100
AcDbRegAppTableRecord
  2
GEVID1214872428
 70
     0
  0
APPID
  5
1C2F
330
9
100
AcDbSymbolTableRecord
100
AcDbRegAppTableRecord
  2
GEVID1214872429
 70
     0
  0
APPID
  5
1C33
330
9
100
AcDbSymbolTableRecord
100
AcDbRegAppTableRecord
  2
GEVID1214872430
 70
     0
  0
APPID
  5
1C3F
330
9
100
AcDbSymbolTableRecord
100
AcDbRegAppTableRecord
  2
GEVID1214872432
 70
     0
  0
APPID
  5
1C4E
330
9
100
AcDbSymbolTableRecord
100
AcDbRegAppTableRecord
  2
GEVID1214872433
 70
     0
  0
APPID
  5
20DC
330
9
100
AcDbSymbolTableRecord
100
AcDbRegAppTableRecord
  2
AcDbDynamicBlockGUID
 70
     0
  0
APPID
  5
20FD
330
9
100
AcDbSymbolTableRecord
100
AcDbRegAppTableRecord
  2
GENIUS_GENOBJ-N-REV_13
 70
     0
  0
APPID
  5
20FE
330
9
100
AcDbSymbolTableRecord
100
AcDbRegAppTableRecord
  2
GENIUS_GENOBJ-N-RSSYM_13
 70
     0
  0
APPID
  5
20FF
330
9
100
AcDbSymbolTableRecord
100
AcDbRegAppTableRecord
  2
GENIUS_GENSYMENT_13
 70
     0
  0
APPID
  5
2100
330
9
100
AcDbSymbolTableRecord
100
AcDbRegAppTableRecord
  2
GENIUS_GENSCSYM_13
 70
     0
  0
APPID
  5
51DD
330
9
100
AcDbSymbolTableRecord
100
AcDbRegAppTableRecord
  2
GEVID1240796106
 70
     0
  0
APPID
  5
51E1
330
9
100
AcDbSymbolTableRecord
100
AcDbRegAppTableRecord
  2
GEVID1240796107
 70
     0
  0
APPID
  5
5364
330
9
100
AcDbSymbolTableRecord
100
AcDbRegAppTableRecord
  2
GEVID1240796108
 70
     0
  0
APPID
  5
5369
330
9
100
AcDbSymbolTableRecord
100
AcDbRegAppTableRecord
  2
GEVID1240796109
 70
     0
  0
ENDTAB
  0
TABLE
  2
DIMSTYLE
  5
A
330
0
100
AcDbSymbolTable
 70
    29
100
AcDbDimStyleTable
 71
     1
340
5AB
  0
DIMSTYLE
105
5AB
330
A
100
AcDbSymbolTableRecord
100
AcDbDimStyleTableRecord
  2
SEISA
 70
     0
  4
"
 40
15.0
 41
2.5
 42
0.625
 43
10.0
 44
0.625
 47
0.1
 48
0.1
 73
     0
 74
     0
 77
     3
 78
     8
 79
     2
 90
     1
140
3.5
141
0.0
143
0.0393701
146
0.71
147
1.5
172
     1
176
     3
177
     3
178
     3
271
     2
272
     2
283
     0
286
     8
340
5D5
341
69
342
69
371
    -1
372
    -1
1001
ACAD_DSTYLE_DIMJAG
1070
   388
1040
1.5
1001
ACAD_DSTYLE_DIMTALN
1070
   392
1070
     1
  0
DIMSTYLE
105
5E9
102
{ACAD_REACTORS
330
55E3
330
5628
330
5640
330
565C
330
5692
330
56EB
330
5707
330
5723
330
573B
330
5753
330
576B
330
5932
330
595C
330
5974
330
683F
330
6869
330
690E
102
}
330
A
100
AcDbSymbolTableRecord
100
AcDbDimStyleTableRecord
  2
SEISA$0
 70
     0
  4
"
 40
15.0
 41
2.5
 42
0.625
 43
10.0
 44
0.625
 47
0.1
 48
0.1
 73
     0
 74
     0
 77
     3
 78
     8
 79
     2
 90
     1
140
3.5
141
0.0
143
0.0393701
146
0.71
147
1.5
172
     1
176
     3
177
     3
178
     3
271
     2
272
     2
283
     0
286
     8
340
5D5
341
69
342
69
371
    -1
372
    -1
  0
DIMSTYLE
105
6B9A
330
A
100
AcDbSymbolTableRecord
100
AcDbDimStyleTableRecord
  2
AM_ISO
 70
     0
  4
"
 41
2.5
 42
1.0
 43
10.0
 44
1.0
 47
0.1
 48
0.1
 73
     0
 74
     0
 77
     1
 78
     8
 79
     2
 90
     1
140
3.5
141
0.0
143
0.0393701
146
0.71
147
1.5
172
     1
176
   256
177
   256
178
     2
271
     2
272
     3
274
     4
283
     0
284
     8
340
11
371
    -1
372
    -1
  0
DIMSTYLE
105
6B9B
330
A
100
AcDbSymbolTableRecord
100
AcDbDimStyleTableRecord
  2
AM_ISO$3
 70
     0
  4
"
 41
2.5
 42
1.0
 43
10.0
 44
1.0
 47
0.1
 48
0.1
 73
     0
 77
     1
 78
     8
 79
     2
 90
     1
140
3.5
141
0.0
143
0.0393701
146
0.71
147
1.5
176
   256
177
   256
178
     2
271
     2
272
     3
274
     4
283
     0
284
     8
288
     1
289
     0
340
11
371
    -1
372
    -1
  0
DIMSTYLE
105
6B9C
330
A
100
AcDbSymbolTableRecord
100
AcDbDimStyleTableRecord
  2
AM_ISO$4
 70
     0
  4
"
 41
2.5
 42
1.0
 43
10.0
 44
1.0
 47
0.1
 48
0.1
 73
     0
 77
     1
 78
     8
 79
     2
 90
     1
140
3.5
141
0.0
143
0.0393701
146
0.71
147
1.5
176
   256
177
   256
178
     2
271
     2
272
     3
274
     4
283
     0
284
     8
288
     1
289
     0
340
11
371
    -1
372
    -1
  0
DIMSTYLE
105
6B9D
330
A
100
AcDbSymbolTableRecord
100
AcDbDimStyleTableRecord
  2
AM_ISO$6
 70
     0
  4
"
 41
2.5
 42
1.0
 43
10.0
 44
1.0
 47
0.1
 48
0.1
 73
     0
 74
     0
 78
     8
 79
     2
 90
     1
140
3.5
141
0.0
143
0.0393701
146
0.71
147
1.5
172
     1
176
   256
177
   256
178
     2
271
     2
272
     3
274
     4
283
     0
284
     8
340
11
371
    -1
372
    -1
  0
DIMSTYLE
105
6B9E
330
A
100
AcDbSymbolTableRecord
100
AcDbDimStyleTableRecord
  2
AM_ISO$7
 70
     0
  4
"
 41
2.5
 42
1.0
 43
10.0
 44
1.0
 47
0.1
 48
0.1
 73
     0
 74
     0
 77
     1
 78
     8
 79
     2
 90
     1
140
5.0
141
0.0
143
0.0393701
146
0.71
147
1.5
172
     1
176
   256
177
   256
178
     2
271
     2
272
     3
274
     4
283
     0
284
     8
340
11
371
    -1
372
    -1
  0
DIMSTYLE
105
6B9F
330
A
100
AcDbSymbolTableRecord
100
AcDbDimStyleTableRecord
  2
AM_ISO$SF
 70
     0
  4
"
 41
2.5
 42
1.0
 43
10.0
 44
1.0
 47
0.1
 48
0.1
 73
     0
 74
     0
 75
     1
 76
     1
 77
     1
 78
     8
 79
     2
 90
     1
140
3.5
141
0.0
143
0.0393701
146
0.71
147
1.5
172
     1
176
   256
177
   256
178
     2
271
     2
272
     3
274
     4
283
     0
284
     8
340
11
371
    -1
372
    -1
  0
DIMSTYLE
105
6BA0
330
A
100
AcDbSymbolTableRecord
100
AcDbDimStyleTableRecord
  2
AM_ISO$SH
 70
     0
  4
"
 41
2.5
 42
1.0
 43
10.0
 44
1.0
 47
0.1
 48
0.1
 73
     0
 74
     0
 75
     1
 76
     1
 77
     1
 78
     8
 79
     2
 90
     1
140
3.5
141
0.0
143
0.0393701
144
2.0
146
0.71
147
1.5
172
     1
173
     1
176
   256
177
   256
178
     2
271
     2
272
     3
274
     4
283
     0
284
     8
340
11
343
74
371
    -1
372
    -1
  0
ENDTAB
  0
TABLE
  2
BLOCK_RECORD
  5
1
330
0
100
AcDbSymbolTable
 70
    32
  0
BLOCK_RECORD
  5
1F
102
{ACAD_XDICTIONARY
360
82
102
}
330
1
100
AcDbSymbolTableRecord
100
AcDbBlockTableRecord
  2
*Model_Space
340
22
 70
     0
280
     1
281
     0
  0
BLOCK_RECORD
  5
1B
330
1
100
AcDbSymbolTableRecord
100
AcDbBlockTableRecord
  2
*Paper_Space
340
1E
 70
     0
280
     1
281
     0
  0
BLOCK_RECORD
  5
23
330
1
100
AcDbSymbolTableRecord
100
AcDbBlockTableRecord
  2
*Paper_Space0
340
26
 70
     0
280
     1
281
     0
  0
BLOCK_RECORD
  5
69
330
1
100
AcDbSymbolTableRecord
100
AcDbBlockTableRecord
  2
_Open30
340
0
102
{BLKREFS
331
5BF7
331
5BF8
331
5C00
331
5C01
331
5C0C
331
5C0D
331
5C14
331
5C15
331
5C1F
331
5C20
331
5C2B
331
5C36
331
5C3E
331
5C3F
331
5C47
331
5C48
331
5C50
331
5C51
331
5C59
331
5C5A
331
5C7D
331
5C7E
331
5C86
331
5C87
331
5C8F
331
5C90
331
688D
331
688E
331
68C9
331
68CA
331
693A
331
693B
102
}
 70
     0
280
     1
281
     0
  0
BLOCK_RECORD
  5
74
330
1
100
AcDbSymbolTableRecord
100
AcDbBlockTableRecord
  2
GENAXEH
340
0
 70
     0
280
     1
281
     0
  0
BLOCK_RECORD
  5
3A13
330
1
100
AcDbSymbolTableRecord
100
AcDbBlockTableRecord
  2
GENDOT
340
0
102
{BLKREFS
331
5C2A
331
5C35
102
}
 70
     0
280
     1
281
     0
  0
BLOCK_RECORD
  5
49EE
102
{ACAD_XDICTIONARY
360
4A1A
102
}
330
1
100
AcDbSymbolTableRecord
100
AcDbBlockTableRecord
  2
ロッカクアナツキプラグ R1
340
0
310
2800000020000000200000000100080000000000000400000000000000000000000000000000000000000000000080000080000000808000800000008000800080800000C0C0C000C0DCC000F0CAA6000020400000206000002080000020A0000020C0000020E00000400000004020000040400000406000004080000040A0
310
000040C0000040E00000600000006020000060400000606000006080000060A0000060C0000060E00000800000008020000080400000806000008080000080A0000080C0000080E00000A0000000A0200000A0400000A0600000A0800000A0A00000A0C00000A0E00000C0000000C0200000C0400000C0600000C0800000C0
310
A00000C0C00000C0E00000E0000000E0200000E0400000E0600000E0800000E0A00000E0C00000E0E00040000000400020004000400040006000400080004000A0004000C0004000E00040200000402020004020400040206000402080004020A0004020C0004020E000404000004040200040404000404060004040800040
310
40A0004040C0004040E00040600000406020004060400040606000406080004060A0004060C0004060E00040800000408020004080400040806000408080004080A0004080C0004080E00040A0000040A0200040A0400040A0600040A0800040A0A00040A0C00040A0E00040C0000040C0200040C0400040C0600040C08000
310
40C0A00040C0C00040C0E00040E0000040E0200040E0400040E0600040E0800040E0A00040E0C00040E0E00080000000800020008000400080006000800080008000A0008000C0008000E00080200000802020008020400080206000802080008020A0008020C0008020E00080400000804020008040400080406000804080
310
008040A0008040C0008040E00080600000806020008060400080606000806080008060A0008060C0008060E00080800000808020008080400080806000808080008080A0008080C0008080E00080A0000080A0200080A0400080A0600080A0800080A0A00080A0C00080A0E00080C0000080C0200080C0400080C0600080C0
310
800080C0A00080C0C00080C0E00080E0000080E0200080E0400080E0600080E0800080E0A00080E0C00080E0E000C0000000C0002000C0004000C0006000C0008000C000A000C000C000C000E000C0200000C0202000C0204000C0206000C0208000C020A000C020C000C020E000C0400000C0402000C0404000C0406000C0
310
408000C040A000C040C000C040E000C0600000C0602000C0604000C0606000C0608000C060A000C060C000C060E000C0800000C0802000C0804000C0806000C0808000C080A000C080C000C080E000C0A00000C0A02000C0A04000C0A06000C0A08000C0A0A000C0A0C000C0A0E000C0C00000C0C02000C0C04000C0C06000
310
C0C08000C0C0A000F0FBFF00A4A0A000808080000000FF0000FF000000FFFF00FF000000FF00FF00FFFF0000FFFFFF00000000000000000000000000000000000000000000000000000000000000000000000000000000000000000000000000F9000000000000000000000000000000000000000000000000000000000000
310
00F900000000000000000000000000000000000000000000000000000000000000F900000000000000000000000000000000000000000000000000000000000000F900000000000000000000000000000000000000000000000000000000000000F90000000000000000000000000000000000000000000000000000000000
310
0000F900000000000000000000000000000000000000000000000000000000000000F900000000000000000000000000000000000000000000000000000000000000F900000000000000000000000000000000000000000000000000000000000000F900000000000000000000000000000000000000000000000000000000
310
000000F900000000000000000000000000000000000000000000000000000000000000F900000000000000000000000000000000000000000000000000000000000000F900000000000000000000000000000000000000000000000000000000000000F9000000000000000000000000000000000000000000000000FFFFFF
310
FFFFFFFFF9FFFFFFFFFFFF00000000000000000000000000000000FFFF00000000000000F9000000000000FFFF000000000000000000000000FFFEFFFFFFFFFFFFFFFFFFF9FFFFFFFFFFFFFFFFFEFF00000000000000000000FFFE000000000000000000F90000000000000000FE0000000000000000000000FFFE00000000
310
0000000000F90000000000000000FE0000000000000000000000FFFE000000000000000000F90000000000000000FE0000000000000000000000FFFE000000000000000000F90000000000000000FE00000000000000000000FFFE00000000000000000000F9000000000000000000FE000000000000000000FFFE00000000
310
000000000000F9000000000000000000FE000000000000000000FFFE00000000000000000000F9000000000000000000FE000000000000000000FFFE00000000000000000000F9000000000000000000FE000000000000000000FFFEFFFFFFFFFFFFFFFFFFFFF9FFFFFFFFFFFFFFFFFFFEFF000000000000000000FFFF0000
310
00000000000000F90000000000000000FFFF000000000000000000000000000000000000000000F900000000000000000000000000000000000000000000000000000000000000F900000000000000000000000000000000000000000000000000000000000000F90000000000000000000000000000000000000000000000
310
0000000000000000F90000000000000000000000000000000000000000000000000000000000000000000000000000000000000000000000
102
{BLKREFS
331
4ADB
102
}
 70
     4
280
     1
281
     0
  0
BLOCK_RECORD
  5
4A9F
102
{ACAD_XDICTIONARY
360
4B5C
102
}
330
1
100
AcDbSymbolTableRecord
100
AcDbBlockTableRecord
  2
ケースＡ CEMH1400
340
0
310
2800000020000000200000000100080000000000000400000000000000000000000000000000000000000000000080000080000000808000800000008000800080800000C0C0C000C0DCC000F0CAA6000020400000206000002080000020A0000020C0000020E00000400000004020000040400000406000004080000040A0
310
000040C0000040E00000600000006020000060400000606000006080000060A0000060C0000060E00000800000008020000080400000806000008080000080A0000080C0000080E00000A0000000A0200000A0400000A0600000A0800000A0A00000A0C00000A0E00000C0000000C0200000C0400000C0600000C0800000C0
310
A00000C0C00000C0E00000E0000000E0200000E0400000E0600000E0800000E0A00000E0C00000E0E00040000000400020004000400040006000400080004000A0004000C0004000E00040200000402020004020400040206000402080004020A0004020C0004020E000404000004040200040404000404060004040800040
310
40A0004040C0004040E00040600000406020004060400040606000406080004060A0004060C0004060E00040800000408020004080400040806000408080004080A0004080C0004080E00040A0000040A0200040A0400040A0600040A0800040A0A00040A0C00040A0E00040C0000040C0200040C0400040C0600040C08000
310
40C0A00040C0C00040C0E00040E0000040E0200040E0400040E0600040E0800040E0A00040E0C00040E0E00080000000800020008000400080006000800080008000A0008000C0008000E00080200000802020008020400080206000802080008020A0008020C0008020E00080400000804020008040400080406000804080
310
008040A0008040C0008040E00080600000806020008060400080606000806080008060A0008060C0008060E00080800000808020008080400080806000808080008080A0008080C0008080E00080A0000080A0200080A0400080A0600080A0800080A0A00080A0C00080A0E00080C0000080C0200080C0400080C0600080C0
310
800080C0A00080C0C00080C0E00080E0000080E0200080E0400080E0600080E0800080E0A00080E0C00080E0E000C0000000C0002000C0004000C0006000C0008000C000A000C000C000C000E000C0200000C0202000C0204000C0206000C0208000C020A000C020C000C020E000C0400000C0402000C0404000C0406000C0
310
408000C040A000C040C000C040E000C0600000C0602000C0604000C0606000C0608000C060A000C060C000C060E000C0800000C0802000C0804000C0806000C0808000C080A000C080C000C080E000C0A00000C0A02000C0A04000C0A06000C0A08000C0A0A000C0A0C000C0A0E000C0C00000C0C02000C0C04000C0C06000
310
C0C08000C0C0A000F0FBFF00A4A0A000808080000000FF0000FF000000FFFF00FF000000FF00FF00FFFF0000FFFFFF000000000000000000000000000000000000000000000000000000000000000000000000000000000000000000FFFFFF0000000000000000000000000000000000000000000000000000000000FF00FF
310
0000000000000000000000000000000000000000000000000000000000FF00FFFFFFFFFFFFFFFF00000000000000000000000000000000000000000000FF00FF00000000FF00FF00000000000000000000000000000000000000000000FF00FF00000000FF00FF00000000000000000000000000000000000000000000FF00
310
FF00000000FF00FF00000000000000000000000000000000000000000000FF00FF00000000FF00FF00000000000000000000000000000000000000000000FF00FF00000000FF00FF00000000000000000000000000000000000000000000FF00FF00000000FF00FF00000000000000000000000000000000000000000000FF
310
00FF00000000FF00FF00000000000000000000000000000000000000000000FF00FF00000000FF00FF00000000000000000000000000000000000000000000FF00FF00000000FF00FF00000000000000000000000000000000000000000000FF00FF00000000FF00FF00000000000000000000000000000000000000000000
310
FF00FF00000000FF00FF00000000000000000000000000000000000000000000FF00FF00000000FF00FF00000000000000000000000000000000000000000000FF00FF00000000FF00FF0000000000000000000000000000000000000000000000000000000000000000000000000000000000000000000000000000000000
310
00000000000000000000000000000000000000000000000000000000000000000000000000000000000000000000000000000000000000000000000000000000000000000000000000000000000000000000000000000000000000000000000000000000000000000000000000000000000000000000000000000000000000
310
00000000000000000000000000000000000000000000000000000000000000000000000000000000000000000000000000000000000000000000000000000000000000000000000000000000000000000000000000000000000000000000000000000000000000000000000000000000000000000000000000000000000000
310
0000000000000000000000000000000000000000000000000000000000000000000000FFFFFFF9FFFFFFFFFFFF00000000000000000000000000000000000000000000FFFFFFFFFFFFFFFFFFFF0000000000000000000000000000000000000000F9F9F9F9F900000000000000000000000000000000000000000000000000
310
00000000FFFFFF00000000000000000000000000000000000000000000000000000000000000000000000000000000000000000000000000
102
{BLKREFS
331
4ADC
102
}
 70
     4
280
     1
281
     0
  0
BLOCK_RECORD
  5
4BCD
102
{ACAD_XDICTIONARY
360
4C69
102
}
330
1
100
AcDbSymbolTableRecord
100
AcDbBlockTableRecord
  2
リジット CEMH1400
340
0
310
2800000020000000200000000100080000000000000400000000000000000000000000000000000000000000000080000080000000808000800000008000800080800000C0C0C000C0DCC000F0CAA6000020400000206000002080000020A0000020C0000020E00000400000004020000040400000406000004080000040A0
310
000040C0000040E00000600000006020000060400000606000006080000060A0000060C0000060E00000800000008020000080400000806000008080000080A0000080C0000080E00000A0000000A0200000A0400000A0600000A0800000A0A00000A0C00000A0E00000C0000000C0200000C0400000C0600000C0800000C0
310
A00000C0C00000C0E00000E0000000E0200000E0400000E0600000E0800000E0A00000E0C00000E0E00040000000400020004000400040006000400080004000A0004000C0004000E00040200000402020004020400040206000402080004020A0004020C0004020E000404000004040200040404000404060004040800040
310
40A0004040C0004040E00040600000406020004060400040606000406080004060A0004060C0004060E00040800000408020004080400040806000408080004080A0004080C0004080E00040A0000040A0200040A0400040A0600040A0800040A0A00040A0C00040A0E00040C0000040C0200040C0400040C0600040C08000
310
40C0A00040C0C00040C0E00040E0000040E0200040E0400040E0600040E0800040E0A00040E0C00040E0E00080000000800020008000400080006000800080008000A0008000C0008000E00080200000802020008020400080206000802080008020A0008020C0008020E00080400000804020008040400080406000804080
310
008040A0008040C0008040E00080600000806020008060400080606000806080008060A0008060C0008060E00080800000808020008080400080806000808080008080A0008080C0008080E00080A0000080A0200080A0400080A0600080A0800080A0A00080A0C00080A0E00080C0000080C0200080C0400080C0600080C0
310
800080C0A00080C0C00080C0E00080E0000080E0200080E0400080E0600080E0800080E0A00080E0C00080E0E000C0000000C0002000C0004000C0006000C0008000C000A000C000C000C000E000C0200000C0202000C0204000C0206000C0208000C020A000C020C000C020E000C0400000C0402000C0404000C0406000C0
310
408000C040A000C040C000C040E000C0600000C0602000C0604000C0606000C0608000C060A000C060C000C060E000C0800000C0802000C0804000C0806000C0808000C080A000C080C000C080E000C0A00000C0A02000C0A04000C0A06000C0A08000C0A0A000C0A0C000C0A0E000C0C00000C0C02000C0C04000C0C06000
310
C0C08000C0C0A000F0FBFF00A4A0A000808080000000FF0000FF000000FFFF00FF000000FF00FF00FFFF0000FFFFFF000000000000000000000000000000000000000000000000000000000000000000000000000000000000000000000000000000000000FFFFFF0000000000000000000000000000000000000000000000
310
000000000000FFF9F9F9F9000000000000000000000000000000000000000000000000000000FF00000000000000000000000000000000FFFFFFFFFFFFFFFFFFFFFFFFFFFFFFFF00000000000000000000000000000000FF0000000000000000000000000000FF00000000000000000000000000000000FF00000000000000
310
00000000000000FF00000000000000000000000000000000FF0000000000000000000000000000FF00000000000000000000000000000000FF0000000000000000000000000000FF00000000000000000000000000000000FF0000000000000000000000000000FF00000000000000000000000000000000FF000000000000
310
0000000000000000FF00000000000000000000000000000000FF0000000000000000000000000000FF00000000000000000000000000000000FF0000000000000000000000000000FF00000000000000000000000000000000FF0000000000000000000000000000FF00000000000000000000000000000000FF0000000000
310
000000000000000000FF00000000000000000000000000000000FFFF00000000000000000000000000FF00000000000000000000000000000000A4FFA4A400000000000000000000A4A4FF000000000000000000000000000000FFFF0000000000000000000000000000FF000000000000000000000000000000FFFF000000
310
0000000000000000000000FF000000000000000000000000000000FFFF0000000000000000000000000000FF000000000000000000000000000000FFFF0000000000000000000000000000FF000000000000000000000000000000FFFF0000000000000000000000000000FF000000000000000000000000000000FFFFFFFF
310
FFFFFFFFFFFFFFFFFFFFFFFFFF000000000000000000000000000000FFFFFFFFFFFFFFFFFFFFFFFFFFFFFFFFFF000000000000000000000000000000FF000000000000000000000000000000FF000000000000000000000000000000FF000000000000000000000000000000FF000000000000000000000000000000FF0000
310
00000000000000000000000000FF000000000000000000000000000000FFFFFFFFFFFFFFFFFFFFFFFFFFFFFFFFFF000000000000000000000000000000000000000000000000000000000000FFFFFFFF00000000000000000000000000000000000000000000000000000000FFFFFFFF000000000000000000000000000000
310
00000000000000000000000000FFFFFF00000000000000000000000000000000000000000000000000000000000000000000000000000000
102
{BLKREFS
331
4C00
102
}
 70
     4
280
     1
281
     0
  0
BLOCK_RECORD
  5
4CE0
102
{ACAD_XDICTIONARY
360
4D81
102
}
330
1
100
AcDbSymbolTableRecord
100
AcDbBlockTableRecord
  2
リーマボルト CEMH1400 M42
340
0
310
2800000020000000200000000100080000000000000400000000000000000000000000000000000000000000000080000080000000808000800000008000800080800000C0C0C000C0DCC000F0CAA6000020400000206000002080000020A0000020C0000020E00000400000004020000040400000406000004080000040A0
310
000040C0000040E00000600000006020000060400000606000006080000060A0000060C0000060E00000800000008020000080400000806000008080000080A0000080C0000080E00000A0000000A0200000A0400000A0600000A0800000A0A00000A0C00000A0E00000C0000000C0200000C0400000C0600000C0800000C0
310
A00000C0C00000C0E00000E0000000E0200000E0400000E0600000E0800000E0A00000E0C00000E0E00040000000400020004000400040006000400080004000A0004000C0004000E00040200000402020004020400040206000402080004020A0004020C0004020E000404000004040200040404000404060004040800040
310
40A0004040C0004040E00040600000406020004060400040606000406080004060A0004060C0004060E00040800000408020004080400040806000408080004080A0004080C0004080E00040A0000040A0200040A0400040A0600040A0800040A0A00040A0C00040A0E00040C0000040C0200040C0400040C0600040C08000
310
40C0A00040C0C00040C0E00040E0000040E0200040E0400040E0600040E0800040E0A00040E0C00040E0E00080000000800020008000400080006000800080008000A0008000C0008000E00080200000802020008020400080206000802080008020A0008020C0008020E00080400000804020008040400080406000804080
310
008040A0008040C0008040E00080600000806020008060400080606000806080008060A0008060C0008060E00080800000808020008080400080806000808080008080A0008080C0008080E00080A0000080A0200080A0400080A0600080A0800080A0A00080A0C00080A0E00080C0000080C0200080C0400080C0600080C0
310
800080C0A00080C0C00080C0E00080E0000080E0200080E0400080E0600080E0800080E0A00080E0C00080E0E000C0000000C0002000C0004000C0006000C0008000C000A000C000C000C000E000C0200000C0202000C0204000C0206000C0208000C020A000C020C000C020E000C0400000C0402000C0404000C0406000C0
310
408000C040A000C040C000C040E000C0600000C0602000C0604000C0606000C0608000C060A000C060C000C060E000C0800000C0802000C0804000C0806000C0808000C080A000C080C000C080E000C0A00000C0A02000C0A04000C0A06000C0A08000C0A0A000C0A0C000C0A0E000C0C00000C0C02000C0C04000C0C06000
310
C0C08000C0C0A000F0FBFF00A4A0A000808080000000FF0000FF000000FFFF00FF000000FF00FF00FFFF0000FFFFFF0000000000000000000000000000000000000000000000000000000000000000000000000000000000000000000000000000000000000000000000000000000000000000000000000000000000000000
310
00000000000000000000000000000000000000000000000000000000000000000000000000000000000000000000000000000000000000000000000000000000000000000000000000000000000000000000000000000000000000000000000000000000000000000000000000000000000000000000000000000000000000
310
00000000000000000000000000000000000000000000000000000000000000000000000000000000000000000000000000000000000000000000000000000000000000000000000000000000000000000000000000000000000000000000000000000000000000000000000000000000000000000000000000000000000000
310
00000000000000000000000000000000000000000000FFFFFFFFFFFF0000000000000000000000000000000000FFFFFFFFFF00000000FF000000FF000000000000000000000000000000000000000000FFFF0000FFFFFFFFFFFFFFFEFE00000000000000000000000000000000FFFFFFFFFF0000FFFFFF000000FF00FF0000
310
0000000000000000000000000000FF0000FFFF0000FFFFFF000000FFFFFF00000000000000000000000000000000FF0000FFFF0000FFFFFF000000FF00FF00000000000000000000000000000000FF0000FFFF0000FFFFFF000000FF00FF00000000000000000000000000000000FF0000FFFF0000FFFFFFFFFFFFFFFEFE00
310
000000000000000000000000000000FFFFFFFFFF00000000FF000000FF000000000000000000000000000000000000000000FFFF00000000FFFFFFFFFFFF0000000000000000000000000000000000FFFFFFFFFF00000000000000000000000000000000000000000000000000000000000000000000000000000000000000
310
00000000000000000000000000000000000000000000000000000000000000000000000000000000000000000000000000000000000000000000000000000000000000000000000000000000000000000000000000000000000000000000000000000000000000000000000000000000000000000000000000000000000000
310
00000000000000000000000000000000000000000000000000000000000000000000000000000000000000000000000000000000000000000000000000000000000000000000000000000000000000000000000000000000000000000000000000000000000000000000000000000000000000000000000000000000000000
310
0000000000000000000000000000000000000000000000000000000000000000000000000000000000000000000000000000000000000000
102
{BLKREFS
331
4D14
102
}
 70
     4
280
     1
281
     0
  0
BLOCK_RECORD
  5
4DEE
102
{ACAD_XDICTIONARY
360
4E95
102
}
330
1
100
AcDbSymbolTableRecord
100
AcDbBlockTableRecord
  2
センタ CEMH1400
340
0
310
2800000020000000200000000100080000000000000400000000000000000000000000000000000000000000000080000080000000808000800000008000800080800000C0C0C000C0DCC000F0CAA6000020400000206000002080000020A0000020C0000020E00000400000004020000040400000406000004080000040A0
310
000040C0000040E00000600000006020000060400000606000006080000060A0000060C0000060E00000800000008020000080400000806000008080000080A0000080C0000080E00000A0000000A0200000A0400000A0600000A0800000A0A00000A0C00000A0E00000C0000000C0200000C0400000C0600000C0800000C0
310
A00000C0C00000C0E00000E0000000E0200000E0400000E0600000E0800000E0A00000E0C00000E0E00040000000400020004000400040006000400080004000A0004000C0004000E00040200000402020004020400040206000402080004020A0004020C0004020E000404000004040200040404000404060004040800040
310
40A0004040C0004040E00040600000406020004060400040606000406080004060A0004060C0004060E00040800000408020004080400040806000408080004080A0004080C0004080E00040A0000040A0200040A0400040A0600040A0800040A0A00040A0C00040A0E00040C0000040C0200040C0400040C0600040C08000
310
40C0A00040C0C00040C0E00040E0000040E0200040E0400040E0600040E0800040E0A00040E0C00040E0E00080000000800020008000400080006000800080008000A0008000C0008000E00080200000802020008020400080206000802080008020A0008020C0008020E00080400000804020008040400080406000804080
310
008040A0008040C0008040E00080600000806020008060400080606000806080008060A0008060C0008060E00080800000808020008080400080806000808080008080A0008080C0008080E00080A0000080A0200080A0400080A0600080A0800080A0A00080A0C00080A0E00080C0000080C0200080C0400080C0600080C0
310
800080C0A00080C0C00080C0E00080E0000080E0200080E0400080E0600080E0800080E0A00080E0C00080E0E000C0000000C0002000C0004000C0006000C0008000C000A000C000C000C000E000C0200000C0202000C0204000C0206000C0208000C020A000C020C000C020E000C0400000C0402000C0404000C0406000C0
310
408000C040A000C040C000C040E000C0600000C0602000C0604000C0606000C0608000C060A000C060C000C060E000C0800000C0802000C0804000C0806000C0808000C080A000C080C000C080E000C0A00000C0A02000C0A04000C0A06000C0A08000C0A0A000C0A0C000C0A0E000C0C00000C0C02000C0C04000C0C06000
310
C0C08000C0C0A000F0FBFF00A4A0A000808080000000FF0000FF000000FFFF00FF000000FF00FF00FFFF0000FFFFFF000000000000000000000000000000000000000000000000000000000000000000000000000000000000000000FF00000000000000000000000000000000000000000000000000000000000000FF0000
310
0000000000000000000000000000000000000000000000000000000000FFFFFFFFFFFFFFFFFFFAFAFAFAFAFAFAFAFA0000000000000000000000000000FFFFFF000000000000FF000000000000FAFA0000000000000000000000000000FFFFFF000000000000FF000000000000FA000000000000000000000000000000FFFF
310
FF000000000000FF000000000000FA000000000000000000000000000000FFFFFF000000000000FF000000000000FA000000000000000000000000000000FFFFFF000000000000FF000000000000FA000000000000000000000000000000FFFFFF000000000000FF000000000000FA000000000000000000000000000000FF
310
FFFF000000000000FF000000000000FA000000000000000000000000000000FFFFFF000000000000FF000000000000FA000000000000000000000000000000FFFFFF000000000000FF000000000000FA000000000000000000000000000000FFFFFF000000000000FF0000000000FAFA000000000000000000000000000000
310
FFFFFF000000000000FF0000000000FAFA000000000000000000000000000000FFFFFF000000000000FF0000000000FAFA0000000000FFA4A4A4000000000000FFFFFF000000A4A4A4FF0000000000FAFA0000000000FF000000000000000000000000000000000000FF0000000000FAFA0000000000FF0000000000000000
310
00000000000000000000FF0000000000FAFA0000000000FF000000000000000000000000000000000000FF000000000000FA0000000000FF000000000000000000000000000000000000FF000000000000FA0000000000FF000000000000000000000000000000000000FF00FAFAFAFAFAFA0000000000FF00000000000000
310
0000000000000000000000FFFA0000000000FA0000000000FF000000000000000000000000000000000000FAFA0000000000FA0000000000FFFFFF00FFFFFFFFFFFFFFFFFFFFFFFFFFFFFFFF000000000000FA0000000000FF000000000000000000000000000000000000FF000000000000FA0000000000FF000000000000
310
000000000000000000000000FF000000000000FA0000000000FF000000000000000000000000000000000000FF000000000000FA0000000000FF0000000000000000000000FFFFFFFFFFFFFFFF000000000000FAFA00000000FFFFFFFFF9F9F9F9F9F9FFFFFAFAFAFAFAFAFAFAFAFAFAFAFAFAFAFA00000000000000000000
310
00F9000000000000000000000000000000000000000000000000000000000000000000000000000000000000000000000000000000000000
102
{BLKREFS
331
4E20
102
}
 70
     4
280
     1
281
     0
  0
BLOCK_RECORD
  5
4FE0
102
{ACAD_XDICTIONARY
360
509C
102
}
330
1
100
AcDbSymbolTableRecord
100
AcDbBlockTableRecord
  2
ＧＣサイドカバ－ CEMH1400
340
0
310
2800000020000000200000000100080000000000000400000000000000000000000000000000000000000000000080000080000000808000800000008000800080800000C0C0C000C0DCC000F0CAA6000020400000206000002080000020A0000020C0000020E00000400000004020000040400000406000004080000040A0
310
000040C0000040E00000600000006020000060400000606000006080000060A0000060C0000060E00000800000008020000080400000806000008080000080A0000080C0000080E00000A0000000A0200000A0400000A0600000A0800000A0A00000A0C00000A0E00000C0000000C0200000C0400000C0600000C0800000C0
310
A00000C0C00000C0E00000E0000000E0200000E0400000E0600000E0800000E0A00000E0C00000E0E00040000000400020004000400040006000400080004000A0004000C0004000E00040200000402020004020400040206000402080004020A0004020C0004020E000404000004040200040404000404060004040800040
310
40A0004040C0004040E00040600000406020004060400040606000406080004060A0004060C0004060E00040800000408020004080400040806000408080004080A0004080C0004080E00040A0000040A0200040A0400040A0600040A0800040A0A00040A0C00040A0E00040C0000040C0200040C0400040C0600040C08000
310
40C0A00040C0C00040C0E00040E0000040E0200040E0400040E0600040E0800040E0A00040E0C00040E0E00080000000800020008000400080006000800080008000A0008000C0008000E00080200000802020008020400080206000802080008020A0008020C0008020E00080400000804020008040400080406000804080
310
008040A0008040C0008040E00080600000806020008060400080606000806080008060A0008060C0008060E00080800000808020008080400080806000808080008080A0008080C0008080E00080A0000080A0200080A0400080A0600080A0800080A0A00080A0C00080A0E00080C0000080C0200080C0400080C0600080C0
310
800080C0A00080C0C00080C0E00080E0000080E0200080E0400080E0600080E0800080E0A00080E0C00080E0E000C0000000C0002000C0004000C0006000C0008000C000A000C000C000C000E000C0200000C0202000C0204000C0206000C0208000C020A000C020C000C020E000C0400000C0402000C0404000C0406000C0
310
408000C040A000C040C000C040E000C0600000C0602000C0604000C0606000C0608000C060A000C060C000C060E000C0800000C0802000C0804000C0806000C0808000C080A000C080C000C080E000C0A00000C0A02000C0A04000C0A06000C0A08000C0A0A000C0A0C000C0A0E000C0C00000C0C02000C0C04000C0C06000
310
C0C08000C0C0A000F0FBFF00A4A0A000808080000000FF0000FF000000FFFF00FF000000FF00FF00FFFF0000FFFFFF00000000000000000000000000000000000000000000000000000000000000000000000000000000000000000000000000FF000000000000000000000000000000000000000000000000000000000000
310
00FF00000000000000000000000000000000000000000000000000000000000000FF00000000000000000000000000000000000000000000000000000000000000FF00000000000000000000000000000000000000000000000000000000000000FF0000000000000000000000000000000000000000000000000000000000
310
0000FF00000000000000000000000000000000000000000000000000000000000000FF00000000000000000000000000000000000000000000000000000000000000FF00000000000000000000000000000000000000000000000000000000000000FF00000000000000000000000000000000000000000000000000000000
310
000000FF00000000000000000000000000000000000000000000000000000000000000FF00000000000000000000000000000000000000000000000000000000000000FF00000000000000000000000000000000000000000000000000000000000000FF000000000000000000000000000000000000000000000000000000
310
00000000FF00000000000000000000000000000000000000000000000000000000000000FF00000000000000000000000000000000000000000000000000000000000000FF00000000000000000000000000000000000000000000000000000000000000000000000000000000000000000000000000000000000000000000
310
00000000000000000000000000000000000000000000000000000000000000000000000000000000000000000000000000000000000000000000000000000000000000000000000000000000000000000000000000000000000000000000000000000000000000000000000000000000000000000000000000000000000000
310
00000000000000000000000000000000000000000000000000000000000000000000000000000000000000000000000000000000000000000000000000000000000000000000000000000000000000000000000000000000000000000000000000000000000000000000000000000000000000000000000000000000000000
310
00000000000000000000000000000000000000000000000000000000000000000000000000000000000000000000000000000000000000000000000000000000000000000000FFFF0000000000000000000000000000000000000000000000000000000000FFFEFFFF00000000000000000000000000000000000000000000
310
00000000000000FFFFFF00000000000000000000000000000000000000000000000000000000000000000000000000000000000000000000
102
{BLKREFS
331
501A
102
}
 70
     4
280
     1
281
     0
  0
BLOCK_RECORD
  5
55E4
330
1
100
AcDbSymbolTableRecord
100
AcDbBlockTableRecord
  2
*D13
340
0
 70
     0
280
     1
281
     0
  0
BLOCK_RECORD
  5
5629
330
1
100
AcDbSymbolTableRecord
100
AcDbBlockTableRecord
  2
*D14
340
0
 70
     0
280
     1
281
     0
  0
BLOCK_RECORD
  5
5641
330
1
100
AcDbSymbolTableRecord
100
AcDbBlockTableRecord
  2
*D15
340
0
 70
     0
280
     1
281
     0
  0
BLOCK_RECORD
  5
565D
330
1
100
AcDbSymbolTableRecord
100
AcDbBlockTableRecord
  2
*D16
340
0
 70
     0
280
     1
281
     0
  0
BLOCK_RECORD
  5
5693
330
1
100
AcDbSymbolTableRecord
100
AcDbBlockTableRecord
  2
*D17
340
0
 70
     0
280
     1
281
     0
  0
BLOCK_RECORD
  5
56EC
330
1
100
AcDbSymbolTableRecord
100
AcDbBlockTableRecord
  2
*D18
340
0
 70
     0
280
     1
281
     0
  0
BLOCK_RECORD
  5
5708
330
1
100
AcDbSymbolTableRecord
100
AcDbBlockTableRecord
  2
*D19
340
0
 70
     0
280
     1
281
     0
  0
BLOCK_RECORD
  5
5724
330
1
100
AcDbSymbolTableRecord
100
AcDbBlockTableRecord
  2
*D20
340
0
 70
     0
280
     1
281
     0
  0
BLOCK_RECORD
  5
573C
330
1
100
AcDbSymbolTableRecord
100
AcDbBlockTableRecord
  2
*D21
340
0
 70
     0
280
     1
281
     0
  0
BLOCK_RECORD
  5
5754
330
1
100
AcDbSymbolTableRecord
100
AcDbBlockTableRecord
  2
*D22
340
0
 70
     0
280
     1
281
     0
  0
BLOCK_RECORD
  5
576C
330
1
100
AcDbSymbolTableRecord
100
AcDbBlockTableRecord
  2
*D23
340
0
 70
     0
280
     1
281
     0
  0
BLOCK_RECORD
  5
5933
330
1
100
AcDbSymbolTableRecord
100
AcDbBlockTableRecord
  2
*D24
340
0
 70
     0
280
     1
281
     0
  0
BLOCK_RECORD
  5
595D
330
1
100
AcDbSymbolTableRecord
100
AcDbBlockTableRecord
  2
*D25
340
0
 70
     0
280
     1
281
     0
  0
BLOCK_RECORD
  5
5975
330
1
100
AcDbSymbolTableRecord
100
AcDbBlockTableRecord
  2
*D26
340
0
 70
     0
280
     1
281
     0
  0
BLOCK_RECORD
  5
6840
330
1
100
AcDbSymbolTableRecord
100
AcDbBlockTableRecord
  2
*D27
340
0
 70
     0
280
     1
281
     0
  0
BLOCK_RECORD
  5
686A
330
1
100
AcDbSymbolTableRecord
100
AcDbBlockTableRecord
  2
*D28
340
0
 70
     0
280
     1
281
     0
  0
BLOCK_RECORD
  5
690F
330
1
100
AcDbSymbolTableRecord
100
AcDbBlockTableRecord
  2
*D29
340
0
 70
     0
280
     1
281
     0
  0
BLOCK_RECORD
  5
6AE0
330
1
100
AcDbSymbolTableRecord
100
AcDbBlockTableRecord
  2
ＧＣサイドカバ－ CEM1400
340
0
310
2800000020000000200000000100080000000000000400000000000000000000000000000000000000000000000080000080000000808000800000008000800080800000C0C0C000C0DCC000F0CAA6000020400000206000002080000020A0000020C0000020E00000400000004020000040400000406000004080000040A0
310
000040C0000040E00000600000006020000060400000606000006080000060A0000060C0000060E00000800000008020000080400000806000008080000080A0000080C0000080E00000A0000000A0200000A0400000A0600000A0800000A0A00000A0C00000A0E00000C0000000C0200000C0400000C0600000C0800000C0
310
A00000C0C00000C0E00000E0000000E0200000E0400000E0600000E0800000E0A00000E0C00000E0E00040000000400020004000400040006000400080004000A0004000C0004000E00040200000402020004020400040206000402080004020A0004020C0004020E000404000004040200040404000404060004040800040
310
40A0004040C0004040E00040600000406020004060400040606000406080004060A0004060C0004060E00040800000408020004080400040806000408080004080A0004080C0004080E00040A0000040A0200040A0400040A0600040A0800040A0A00040A0C00040A0E00040C0000040C0200040C0400040C0600040C08000
310
40C0A00040C0C00040C0E00040E0000040E0200040E0400040E0600040E0800040E0A00040E0C00040E0E00080000000800020008000400080006000800080008000A0008000C0008000E00080200000802020008020400080206000802080008020A0008020C0008020E00080400000804020008040400080406000804080
310
008040A0008040C0008040E00080600000806020008060400080606000806080008060A0008060C0008060E00080800000808020008080400080806000808080008080A0008080C0008080E00080A0000080A0200080A0400080A0600080A0800080A0A00080A0C00080A0E00080C0000080C0200080C0400080C0600080C0
310
800080C0A00080C0C00080C0E00080E0000080E0200080E0400080E0600080E0800080E0A00080E0C00080E0E000C0000000C0002000C0004000C0006000C0008000C000A000C000C000C000E000C0200000C0202000C0204000C0206000C0208000C020A000C020C000C020E000C0400000C0402000C0404000C0406000C0
310
408000C040A000C040C000C040E000C0600000C0602000C0604000C0606000C0608000C060A000C060C000C060E000C0800000C0802000C0804000C0806000C0808000C080A000C080C000C080E000C0A00000C0A02000C0A04000C0A06000C0A08000C0A0A000C0A0C000C0A0E000C0C00000C0C02000C0C04000C0C06000
310
C0C08000C0C0A000F0FBFF00A4A0A000808080000000FF0000FF000000FFFF00FF000000FF00FF00FFFF0000FFFFFF00000000000000000000000000000000000000000000000000000000000000000000000000000000FC0000FC0000000000000000FC00FC0000000000000000000000000000000000FCFCFCFC00000000
310
00000000FCFCFC0000000000000000000000000000000000FC0000FC0000000000000000FC00FC0000000000000000000000000000000000FC0000FC0000000000000000FC00FC0000000000000000000000000000000000FC0000FC0000000000000000FC00FC0000000000000000000000000000000000FC0000FCFCFCFC
310
FCFCFCFCFCFC00FC0000000000000000000000000000000000FC00000000000000000000000000FC0000000000000000000000000000000000FC00000000000000000000000000FC0000000000000000000000000000000000FC00000000000000000000000000FC0000000000000000000000000000000000FC0000000000
310
0000000000000000FC0000000000000000000000000000000000FC00000000000000000000000000FC0000000000000000000000000000000000FC00000000000000000000000000FC0000000000000000000000000000000000FC00000000000000000000000000FC0000000000000000000000000000000000FC00000000
310
000000000000000000FC0000000000000000000000000000000000FCFCFCFCFC000000000000000000FC000000000000000000000000000000000000000000FC000000000000000000FC0000000000000000000000000000000000000000FCFC000000000000000000FC0000000000000000000000000000000000000000FC
310
00000000000000000000FC0000000000000000000000000000000000000000FC00000000000000000000FC0000000000000000000000000000000000000000FC00000000000000000000FC0000000000000000000000000000000000000000FC00000000000000000000FC0000000000000000000000000000000000FCFCFC
310
FCFCFCFCFCFCFCFCFCFCFCFCFCFCFC0000000000000000000000000000000000FC00000000000000000000FC0000000000000000000000000000000000000000FC00000000000000000000FC0000000000000000000000000000000000000000FC00000000000000000000FC00000000000000000000000000000000000000
310
00FC00000000000000000000FC0000000000000000000000000000000000000000FC00000000000000000000FC0000000000000000000000000000000000000000FC00000000000000000000FC0000000000000000000000000000000000000000FC00000000000000000000FC000000000000000000000000000000000000
310
0000FCFCFCFCFCFCFCFCFCFCFCFC000000000000000000000000000000000000000000000000000000000000000000000000000000000000
102
{BLKREFS
331
6AF5
102
}
 70
     4
280
     1
281
     1
  0
ENDTAB
  0
ENDSEC
  0
SECTION
  2
BLOCKS
  0
BLOCK
  5
20
330
1F
100
AcDbEntity
  8
0
100
AcDbBlockBegin
  2
*Model_Space
 70
     0
 10
0.0
 20
0.0
 30
0.0
  3
*Model_Space
  1

  0
ENDBLK
  5
21
330
1F
100
AcDbEntity
  8
0
100
AcDbBlockEnd
  0
BLOCK
  5
1C
330
1B
100
AcDbEntity
 67
     1
  8
0
100
AcDbBlockBegin
  2
*Paper_Space
 70
     0
 10
0.0
 20
0.0
 30
0.0
  3
*Paper_Space
  1

  0
ENDBLK
  5
1D
330
1B
100
AcDbEntity
 67
     1
  8
0
100
AcDbBlockEnd
  0
BLOCK
  5
24
330
23
100
AcDbEntity
 67
     1
  8
0
100
AcDbBlockBegin
  2
*Paper_Space0
 70
     0
 10
0.0
 20
0.0
 30
0.0
  3
*Paper_Space0
  1

  0
ENDBLK
  5
25
330
23
100
AcDbEntity
 67
     1
  8
0
100
AcDbBlockEnd
  0
BLOCK
  5
6D
330
69
100
AcDbEntity
  8
0
100
AcDbBlockBegin
  2
_Open30
 70
     0
 10
0.0
 20
0.0
 30
0.0
  3
_Open30
  1

  0
LINE
  5
6A
330
69
100
AcDbEntity
  8
0
  6
ByBlock
 62
     0
370
    -2
100
AcDbLine
 10
-1.0
 20
0.26794919
 30
0.0
 11
0.0
 21
0.0
 31
0.0
  0
LINE
  5
6B
330
69
100
AcDbEntity
  8
0
  6
ByBlock
 62
     0
370
    -2
100
AcDbLine
 10
0.0
 20
0.0
 30
0.0
 11
-1.0
 21
-0.26794919
 31
0.0
  0
LINE
  5
6C
330
69
100
AcDbEntity
  8
0
  6
ByBlock
 62
     0
370
    -2
100
AcDbLine
 10
0.0
 20
0.0
 30
0.0
 11
-1.0
 21
0.0
 31
0.0
  0
ENDBLK
  5
6E
330
69
100
AcDbEntity
  8
0
100
AcDbBlockEnd
  0
BLOCK
  5
76
330
74
100
AcDbEntity
  8
0
100
AcDbBlockBegin
  2
GENAXEH
 70
     0
 10
0.0
 20
0.0
 30
0.0
  3
GENAXEH
  1

  0
LINE
  5
75
330
74
100
AcDbEntity
  8
0
100
AcDbLine
 10
-1.0
 20
0.0
 30
0.0
 11
1.0
 21
0.0
 31
0.0
  0
ENDBLK
  5
77
330
74
100
AcDbEntity
  8
0
100
AcDbBlockEnd
  0
BLOCK
  5
3A14
330
3A13
100
AcDbEntity
  8
0
100
AcDbBlockBegin
  2
GENDOT
 70
     0
 10
0.0
 20
0.0
 30
0.0
  3
GENDOT
  1

  0
LINE
  5
3A15
330
3A13
100
AcDbEntity
  8
0
100
AcDbLine
 10
0.0
 20
0.0
 30
0.0
 11
-1.0
 21
0.0
 31
0.0
  0
LWPOLYLINE
  5
3A16
330
3A13
100
AcDbEntity
  8
0
100
AcDbPolyline
 90
        2
 70
     1
 43
0.25
 10
-0.125
 20
0.0
 42
1.0
 10
0.125
 20
0.0
 42
1.0
  0
ENDBLK
  5
3A17
330
3A13
100
AcDbEntity
  8
0
100
AcDbBlockEnd
  0
BLOCK
  5
49EF
330
49EE
100
AcDbEntity
  8
0
100
AcDbBlockBegin
  2
ロッカクアナツキプラグ R1
 70
     0
 10
0.0
 20
0.0
 30
0.0
  3
ロッカクアナツキプラグ R1
  1

  0
LINE
  5
49F1
330
49EE
100
AcDbEntity
  8
AM_0 外形線1
100
AcDbLine
 10
-14.3378660000003
 20
0.0
 30
0.0
 11
-16.8378660000003
 21
-2.5
 31
0.0
  0
LINE
  5
49F2
330
49EE
100
AcDbEntity
  8
AM_0 外形線1
100
AcDbLine
 10
-16.8378660000003
 20
-2.5
 30
0.0
 11
-16.40135700000019
 21
-15.0
 31
0.0
  0
LINE
  5
49F3
330
49EE
100
AcDbEntity
  8
AM_0 外形線1
100
AcDbLine
 10
-16.40135700000019
 20
-15.0
 30
0.0
 11
-9.473153000000364
 21
-19.0
 31
0.0
  0
LINE
  5
49F4
330
49EE
100
AcDbEntity
  8
AM_0 外形線1
100
AcDbLine
 10
-9.473153000000364
 20
-19.0
 30
0.0
 11
9.473152999999911
 21
-19.0
 31
0.0
  0
LINE
  5
49F5
330
49EE
100
AcDbEntity
  8
AM_0 外形線1
100
AcDbLine
 10
9.473152999999911
 20
-19.0
 30
0.0
 11
16.40135599999985
 21
-15.0
 31
0.0
  0
LINE
  5
49F6
330
49EE
100
AcDbEntity
  8
AM_0 外形線1
100
AcDbLine
 10
16.83786499999951
 20
-2.5
 30
0.0
 11
14.33786499999951
 21
0.0
 31
0.0
  0
LINE
  5
49F7
330
49EE
100
AcDbEntity
  8
AM_0 外形線1
100
AcDbLine
 10
16.83786499999951
 20
-2.5
 30
0.0
 11
-16.8378660000003
 21
-2.5
 31
0.0
  0
LINE
  5
49F8
330
49EE
100
AcDbEntity
  8
AM_0 外形線1
100
AcDbLine
 10
-16.40135700000019
 20
-15.0
 30
0.0
 11
16.40135599999985
 21
-15.0
 31
0.0
  0
LINE
  5
49F9
330
49EE
100
AcDbEntity
  8
AM_7 中心線
100
AcDbLine
 10
0.0
 20
5.168251000000053
 30
0.0
 11
0.0
 21
-37.38536599999998
 31
0.0
  0
LINE
  5
49FA
330
49EE
100
AcDbEntity
  8
AM_4 細線
100
AcDbLine
 10
-15.40877100000034
 20
-1.070905000000037
 30
0.0
 11
-14.89192400000002
 21
-15.87147099999993
 31
0.0
  0
LINE
  5
49FB
330
49EE
100
AcDbEntity
  8
AM_4 細線
100
AcDbLine
 10
15.40877099999988
 20
-1.070905000000037
 30
0.0
 11
14.89192299999968
 21
-15.87147099999993
 31
0.0
  0
LINE
  5
4A0D
330
49EE
100
AcDbEntity
  8
AM_0 外形線1
100
AcDbLine
 10
16.40135599999985
 20
-15.0
 30
0.0
 11
16.83786499999951
 21
-2.5
 31
0.0
  0
LINE
  5
4A19
330
49EE
100
AcDbEntity
  8
AM_0 外形線1
100
AcDbLine
 10
-14.3378660000003
 20
0.0
 30
0.0
 11
14.33786499999951
 21
0.0
 31
0.0
  0
ENDBLK
  5
49F0
330
49EE
100
AcDbEntity
  8
0
100
AcDbBlockEnd
  0
BLOCK
  5
4AA0
330
4A9F
100
AcDbEntity
  8
0
100
AcDbBlockBegin
  2
ケースＡ CEMH1400
 70
     0
 10
0.0
 20
0.0
 30
0.0
  3
ケースＡ CEMH1400
  1

  0
LINE
  5
4AA2
330
4A9F
100
AcDbEntity
  8
AM_0 外形線1
100
AcDbLine
 10
410.7855033406599
 20
-627.5
 30
0.0
 11
410.7855033406599
 21
0.0
 31
0.0
  0
LINE
  5
4AA3
330
4A9F
100
AcDbEntity
  8
AM_0 外形線1
100
AcDbLine
 10
335.7855033406599
 20
-612.5
 30
0.0
 11
335.7855033406599
 21
0.0
 31
0.0
  0
LINE
  5
4AA4
330
4A9F
100
AcDbEntity
  8
AM_0 外形線1
100
AcDbLine
 10
350.7855033406599
 20
-627.5
 30
0.0
 11
350.7855033406599
 21
0.0
 31
0.0
  0
LINE
  5
4AA5
330
4A9F
100
AcDbEntity
  8
AM_0 外形線1
100
AcDbLine
 10
-0.2144966593400568
 20
0.0
 30
0.0
 11
-0.2144966593400568
 21
-697.0
 31
0.0
  0
LINE
  5
4AA6
330
4A9F
100
AcDbEntity
  8
AM_0 外形線1
100
AcDbLine
 10
69.78550334065992
 20
-697.0
 30
0.0
 11
69.78550334065992
 21
0.0
 31
0.0
  0
LINE
  5
4AA7
330
4A9F
100
AcDbEntity
  8
AM_0 外形線1
100
AcDbLine
 10
335.7855033406599
 20
-612.5
 30
0.0
 11
350.7855033406599
 21
-627.5
 31
0.0
  0
LINE
  5
4AA8
330
4A9F
100
AcDbEntity
  8
AM_0 外形線1
100
AcDbLine
 10
350.7855033406599
 20
-627.5
 30
0.0
 11
410.7855033406599
 21
-627.5
 31
0.0
  0
LINE
  5
4AA9
330
4A9F
100
AcDbEntity
  8
AM_0 外形線1
100
AcDbLine
 10
66.78550334065993
 20
-700.0
 30
0.0
 11
69.78550334065992
 21
-697.0
 31
0.0
  0
LINE
  5
4AAA
330
4A9F
100
AcDbEntity
  8
AM_0 外形線1
100
AcDbLine
 10
-0.2144966593400568
 20
-697.0
 30
0.0
 11
2.785503340659943
 21
-700.0
 31
0.0
  0
LINE
  5
4AAB
330
4A9F
100
AcDbEntity
  8
AM_0 外形線1
100
AcDbLine
 10
2.785503340659943
 20
-700.0
 30
0.0
 11
66.78550334065993
 21
-700.0
 31
0.0
  0
ARC
  5
4AAC
330
4A9F
100
AcDbEntity
  8
AM_0 外形線1
100
AcDbCircle
 10
77.78550334065993
 20
-620.5
 30
0.0
 40
8.0
100
AcDbArc
 50
90.0
 51
180.0
  0
LINE
  5
4AAD
330
4A9F
100
AcDbEntity
  8
AM_0 外形線1
100
AcDbLine
 10
77.78550334065993
 20
-612.5
 30
0.0
 11
335.7855033406599
 21
-612.5
 31
0.0
  0
LINE
  5
4AAE
330
4A9F
100
AcDbEntity
  8
AM_0 外形線1
100
AcDbLine
 10
350.7855033406599
 20
627.5
 30
0.0
 11
410.7855033406599
 21
627.5
 31
0.0
  0
ARC
  5
4AAF
330
4A9F
100
AcDbEntity
  8
AM_0 外形線1
100
AcDbCircle
 10
401.7855033406599
 20
577.0
 30
0.0
 40
1.0
100
AcDbArc
 50
90.0
 51
180.0
  0
LINE
  5
4AB0
330
4A9F
100
AcDbEntity
  8
AM_0 外形線1
100
AcDbLine
 10
400.7855033406598
 20
577.0
 30
0.0
 11
400.7855033406598
 21
556.4
 31
0.0
  0
LINE
  5
4AB1
330
4A9F
100
AcDbEntity
  8
AM_0 外形線1
100
AcDbLine
 10
410.7855033406599
 20
592.0
 30
0.0
 11
410.7855033406599
 21
578.0
 31
0.0
  0
LINE
  5
4AB2
330
4A9F
100
AcDbEntity
  8
AM_0 外形線1
100
AcDbLine
 10
410.7855033406599
 20
627.5
 30
0.0
 11
410.7855033406599
 21
616.0
 31
0.0
  0
LINE
  5
4AB4
330
4A9F
100
AcDbEntity
  8
AM_0 外形線1
100
AcDbLine
 10
335.7855033406599
 20
612.5
 30
0.0
 11
350.7855033406599
 21
627.5
 31
0.0
  0
LINE
  5
4AB5
330
4A9F
100
AcDbEntity
  8
AM_0 外形線1
100
AcDbLine
 10
386.2855033406599
 20
554.4000000000002
 30
0.0
 11
398.7855033406599
 21
554.4000000000002
 31
0.0
  0
LINE
  5
4AB6
330
4A9F
100
AcDbEntity
  8
AM_0 外形線1
100
AcDbLine
 10
400.7855033406598
 20
556.4
 30
0.0
 11
398.7855033406599
 21
554.4000000000002
 31
0.0
  0
LINE
  5
4AB7
330
4A9F
100
AcDbEntity
  8
AM_0 外形線1
100
AcDbLine
 10
66.78550334065993
 20
700.0
 30
0.0
 11
69.78550334065992
 21
697.0
 31
0.0
  0
LINE
  5
4AB8
330
4A9F
100
AcDbEntity
  8
AM_0 外形線1
100
AcDbLine
 10
-0.2144966593400568
 20
682.0
 30
0.0
 11
-0.2144966593400568
 21
697.0
 31
0.0
  0
LINE
  5
4AB9
330
4A9F
100
AcDbEntity
  8
AM_0 外形線1
100
AcDbLine
 10
-0.2144966593400568
 20
697.0
 30
0.0
 11
2.785503340659943
 21
700.0
 31
0.0
  0
LINE
  5
4ABA
330
4A9F
100
AcDbEntity
  8
AM_0 外形線1
100
AcDbLine
 10
2.785503340659943
 20
700.0
 30
0.0
 11
66.78550334065993
 21
700.0
 31
0.0
  0
LINE
  5
4ABB
330
4A9F
100
AcDbEntity
  8
AM_0 外形線1
100
AcDbLine
 10
69.78550334065992
 20
682.0
 30
0.0
 11
-0.2144966593400568
 21
682.0
 31
0.0
  0
LINE
  5
4ABC
330
4A9F
100
AcDbEntity
  8
AM_0 外形線1
100
AcDbLine
 10
180.7855033406599
 20
556.4
 30
0.0
 11
180.7855033406599
 21
577.0
 31
0.0
  0
ARC
  5
4ABD
330
4A9F
100
AcDbEntity
  8
AM_0 外形線1
100
AcDbCircle
 10
179.7855033406599
 20
577.0
 30
0.0
 40
1.0
100
AcDbArc
 50
0.0
 51
90.0
  0
LINE
  5
4ABE
330
4A9F
100
AcDbEntity
  8
AM_0 外形線1
100
AcDbLine
 10
134.6774263406596
 20
596.628529
 30
0.0
 11
134.0269043406602
 21
578.0
 31
0.0
  0
LINE
  5
4ABF
330
4A9F
100
AcDbEntity
  8
AM_0 外形線1
100
AcDbLine
 10
104.8935793406599
 20
596.628529
 30
0.0
 11
105.5441013406598
 21
578.0
 31
0.0
  0
LINE
  5
4AC0
330
4A9F
100
AcDbEntity
  8
AM_0 外形線1
100
AcDbLine
 10
104.3767323406596
 20
611.429095
 30
0.0
 11
104.33933534066
 21
612.5
 31
0.0
  0
LINE
  5
4AC1
330
4A9F
100
AcDbEntity
  8
AM_0 外形線1
100
AcDbLine
 10
135.23167034066
 20
612.5
 30
0.0
 11
135.1942743406598
 21
611.429095
 31
0.0
  0
LINE
  5
4AC2
330
4A9F
100
AcDbEntity
  8
AM_0 外形線1
100
AcDbLine
 10
102.8603353406597
 20
612.5
 30
0.0
 11
102.9476373406596
 21
610.0
 31
0.0
  0
LINE
  5
4AC3
330
4A9F
100
AcDbEntity
  8
AM_0 外形線1
100
AcDbLine
 10
103.3841463406597
 20
597.5
 30
0.0
 11
104.06510134066
 21
578.0
 31
0.0
  0
LINE
  5
4AC4
330
4A9F
100
AcDbEntity
  8
AM_0 外形線1
100
AcDbLine
 10
136.1868593406598
 20
597.5
 30
0.0
 11
135.50590434066
 21
578.0
 31
0.0
  0
LINE
  5
4AC5
330
4A9F
100
AcDbEntity
  8
AM_0 外形線1
100
AcDbLine
 10
136.6233683406594
 20
610.0
 30
0.0
 11
136.7106703406598
 21
612.5
 31
0.0
  0
LINE
  5
4AC6
330
4A9F
100
AcDbEntity
  8
AM_0 外形線1
100
AcDbLine
 10
197.2855033406599
 20
554.4000000000002
 30
0.0
 11
182.7855033406599
 21
554.4000000000002
 31
0.0
  0
LINE
  5
4AC7
330
4A9F
100
AcDbEntity
  8
AM_0 外形線1
100
AcDbLine
 10
182.7855033406599
 20
554.4000000000002
 30
0.0
 11
180.7855033406599
 21
556.4
 31
0.0
  0
LINE
  5
4AC8
330
4A9F
100
AcDbEntity
  8
AM_0 外形線1
100
AcDbLine
 10
69.78550334065992
 20
697.0
 30
0.0
 11
69.78550334065992
 21
620.5
 31
0.0
  0
LINE
  5
4AC9
330
4A9F
100
AcDbEntity
  8
AM_0 外形線1
100
AcDbLine
 10
-15.21449665934006
 20
578.0
 30
0.0
 11
-15.21449665934006
 21
601.0
 31
0.0
  0
LINE
  5
4ACA
330
4A9F
100
AcDbEntity
  8
AM_0 外形線1
100
AcDbLine
 10
-15.21449665934006
 20
601.0
 30
0.0
 11
-11.21449665934005
 21
605.0
 31
0.0
  0
LINE
  5
4ACB
330
4A9F
100
AcDbEntity
  8
AM_0 外形線1
100
AcDbLine
 10
-11.21449665934005
 20
605.0
 30
0.0
 11
5.985503340659761
 21
605.0
 31
0.0
  0
ARC
  5
4ACC
330
4A9F
100
AcDbEntity
  8
AM_0 外形線1
100
AcDbCircle
 10
5.985503340659761
 20
605.4999999999998
 30
0.0
 40
0.5
100
AcDbArc
 50
270.0
 51
0.0
  0
LINE
  5
4ACD
330
4A9F
100
AcDbEntity
  8
AM_0 外形線1
100
AcDbLine
 10
6.485503340659761
 20
605.4999999999998
 30
0.0
 11
6.485503340659761
 21
615.0
 31
0.0
  0
ARC
  5
4ACE
330
4A9F
100
AcDbEntity
  8
AM_0 外形線1
100
AcDbCircle
 10
5.985503340659761
 20
615.0
 30
0.0
 40
0.5
100
AcDbArc
 50
0.0
 51
90.0
  0
LINE
  5
4ACF
330
4A9F
100
AcDbEntity
  8
AM_0 外形線1
100
AcDbLine
 10
5.985503340659761
 20
615.5
 30
0.0
 11
-0.2144966593400568
 21
615.5
 31
0.0
  0
LINE
  5
4AD0
330
4A9F
100
AcDbEntity
  8
AM_0 外形線1
100
AcDbLine
 10
-0.2144966593400568
 20
615.5
 30
0.0
 11
-0.2144966593400568
 21
638.0
 31
0.0
  0
LWPOLYLINE
  5
4AD1
330
4A9F
100
AcDbEntity
  8
AM_0 外形線1
100
AcDbPolyline
 90
       73
 70
     0
 43
0.0
 10
3.135503340659851
 20
605.0
 10
3.427474340659955
 20
605.0199780000002
 10
3.717224340659868
 20
605.0797590000001
 10
4.002546340659591
 20
605.1788900000001
 10
4.28127034065983
 20
605.3166139999997
 10
4.551274340659801
 20
605.491884
 10
4.810503340659579
 20
605.703367
 10
5.05698434065971
 20
605.9494519999997
 10
5.288841340659472
 20
606.228267
 10
5.504310340659684
 20
606.5376900000001
 10
5.701751340659939
 20
606.8753650000002
 10
5.879662340659706
 20
607.2387240000002
 10
6.03668834066002
 20
607.6249999999999
 10
6.171634340659692
 20
608.031254
 10
6.283473340659837
 20
608.4543940000002
 10
6.371354340659762
 20
608.8912
 10
6.43460934065979
 20
609.3383469999999
 10
6.472755340659658
 20
609.7924329999999
 10
6.485503340659761
 20
610.25
 10
6.472755340659658
 20
610.7075679999998
 10
6.43460934065979
 20
611.161653
 10
6.371354340659762
 20
611.6087999999998
 10
6.283473340659837
 20
612.0456060000001
 10
6.171634340659692
 20
612.468746
 10
6.03668834066002
 20
612.875
 10
5.879662340659706
 20
613.2612760000001
 10
5.701751340659939
 20
613.6246350000001
 10
5.504310340659684
 20
613.9623109999997
 10
5.288841340659472
 20
614.2717339999998
 10
5.05698434065971
 20
614.5505480000001
 10
4.810503340659579
 20
614.7966339999998
 10
4.551274340659801
 20
615.008116
 10
4.28127034065983
 20
615.1833860000001
 10
4.002546340659591
 20
615.3211109999997
 10
3.717224340659868
 20
615.4202409999998
 10
3.427474340659955
 20
615.4800219999997
 10
3.135503340659851
 20
615.5
 10
2.843531340659865
 20
615.4800219999997
 10
2.553781340659951
 20
615.4202409999998
 10
2.268459340659773
 20
615.3211109999997
 10
1.98973534065999
 20
615.1833860000001
 10
1.719731340660018
 20
615.008116
 10
1.460503340659669
 20
614.7966339999998
 10
1.214022340659994
 20
614.5505480000001
 10
0.9821643406598925
 20
614.2717339999998
 10
0.7666953406601352
 20
613.9623109999997
 10
0.5692543406598816
 20
613.6246350000001
 10
0.3913433406596596
 20
613.2612760000001
 10
0.2343173406597998
 20
612.875
 10
0.0993723406600111
 20
612.468746
 10
-0.0124676593404729
 20
612.0456060000001
 10
-0.100348659339943
 20
611.6087999999998
 10
-0.1636026593400857
 20
611.161653
 10
-0.2017496593402939
 20
610.7075679999998
 10
-0.2144966593400568
 20
610.25
 10
-0.2017496593402939
 20
609.7924329999999
 10
-0.1636026593400857
 20
609.3383469999999
 10
-0.100348659339943
 20
608.8912
 10
-0.0124676593404729
 20
608.4543940000002
 10
0.0993723406600111
 20
608.031254
 10
0.2343173406597998
 20
607.6249999999999
 10
0.3913433406596596
 20
607.2387240000002
 10
0.5692543406598816
 20
606.8753650000002
 10
0.7666953406601352
 20
606.5376900000001
 10
0.9821643406598925
 20
606.228267
 10
1.214022340659994
 20
605.9494519999997
 10
1.460503340659669
 20
605.703367
 10
1.719731340660018
 20
605.491884
 10
1.98973534065999
 20
605.3166139999997
 10
2.268459340659773
 20
605.1788900000001
 10
2.553781340659951
 20
605.0797590000001
 10
2.843531340659865
 20
605.0199780000002
 10
3.135503340659851
 20
605.0
  0
LINE
  5
4AD2
330
4A9F
100
AcDbEntity
  8
AM_0 外形線1
100
AcDbLine
 10
-0.2144966593400568
 20
638.0
 30
0.0
 11
69.78550334065992
 21
638.0
 31
0.0
  0
ARC
  5
4AD3
330
4A9F
100
AcDbEntity
  8
AM_0 外形線1
100
AcDbCircle
 10
77.78550334065993
 20
620.5
 30
0.0
 40
8.0
100
AcDbArc
 50
180.0
 51
270.0
  0
LINE
  5
4AD4
330
4A9F
100
AcDbEntity
  8
AM_0 外形線1
100
AcDbLine
 10
179.7855033406599
 20
578.0
 30
0.0
 11
-15.21449665934006
 21
578.0
 31
0.0
  0
LINE
  5
4AD6
330
4A9F
100
AcDbEntity
  8
AM_7 中心線
100
AcDbLine
 10
100.7855033406599
 20
660.0
 30
0.0
 11
-129.2144966593399
 21
660.0
 31
0.0
  0
LINE
  5
4AD7
330
4A9F
100
AcDbEntity
  8
AM_0 外形線1
100
AcDbLine
 10
180.7855033406599
 20
576.0
 30
0.0
 11
400.7855033406598
 21
576.0
 31
0.0
  0
LINE
  5
4AD8
330
4A9F
100
AcDbEntity
  8
AM_0 外形線1
100
AcDbLine
 10
77.78550334065993
 20
612.5
 30
0.0
 11
335.7855033406599
 21
612.5
 31
0.0
  0
LINE
  5
4AD9
330
4A9F
100
AcDbEntity
  8
AM_7 中心線
100
AcDbLine
 10
178.7855033406599
 20
564.0
 30
0.0
 11
402.7855033406599
 21
564.0
 31
0.0
  0
LINE
  5
4ADA
330
4A9F
100
AcDbEntity
  8
AM_3 隠れ線
100
AcDbLine
 10
197.2855033406599
 20
554.4000000000002
 30
0.0
 11
386.2855033406599
 21
554.4000000000002
 31
0.0
  0
INSERT
  5
4ADB
330
4A9F
100
AcDbEntity
  8
AM_0 外形線1
100
AcDbBlockReference
  2
ロッカクアナツキプラグ R1
 10
119.7855033406599
 20
612.5
 30
0.0
  0
LINE
  5
4B51
330
4A9F
100
AcDbEntity
  8
AM_0 外形線1
100
AcDbLine
 10
410.7855033406599
 20
578.0
 30
0.0
 11
401.7855033406599
 21
578.0
 31
0.0
  0
ENDBLK
  5
4AA1
330
4A9F
100
AcDbEntity
  8
0
100
AcDbBlockEnd
  0
BLOCK
  5
4BCE
330
4BCD
100
AcDbEntity
  8
0
100
AcDbBlockBegin
  2
リジット CEMH1400
 70
     0
 10
0.0
 20
0.0
 30
0.0
  3
リジット CEMH1400
  1

  0
LINE
  5
4BD0
330
4BCD
100
AcDbEntity
  8
AM_0 外形線1
100
AcDbLine
 10
-825.21449665934
 20
-560.0
 30
0.0
 11
-825.21449665934
 21
560.0
 31
0.0
  0
LINE
  5
4BD1
330
4BCD
100
AcDbEntity
  8
AM_0 外形線1
100
AcDbLine
 10
-115.21449665934
 20
-590.0
 30
0.0
 11
-115.21449665934
 21
0.0
 31
0.0
  0
LINE
  5
4BD3
330
4BCD
100
AcDbEntity
  8
AM_7 中心線
100
AcDbLine
 10
-97.50463533630046
 20
-659.9999999999994
 30
0.0
 11
97.07564201762124
 21
-659.9999999999994
 31
0.0
  0
LINE
  5
4BD4
330
4BCD
100
AcDbEntity
  8
AM_0 外形線1
100
AcDbLine
 10
-0.2144966593400568
 20
-696.0
 30
0.0
 11
-4.214496659340055
 21
-700.0
 31
0.0
  0
ARC
  5
4BD5
330
4BCD
100
AcDbEntity
  8
AM_0 外形線1
100
AcDbCircle
 10
-78.21449665934007
 20
-617.4442720000001
 30
0.0
 40
8.0
100
AcDbArc
 50
0.0
 51
63.43494900002375
  0
ARC
  5
4BD6
330
4BCD
100
AcDbEntity
  8
AM_0 外形線1
100
AcDbCircle
 10
-118.7555166593401
 20
-605.0
 30
0.0
 40
15.0
100
AcDbArc
 50
63.43494900002375
 51
90.0
  0
LINE
  5
4BD7
330
4BCD
100
AcDbEntity
  8
AM_0 外形線1
100
AcDbLine
 10
-74.6367886593398
 20
-610.2888539999999
 30
0.0
 11
-112.0473126593401
 21
-591.5835919999993
 31
0.0
  0
LINE
  5
4BD8
330
4BCD
100
AcDbEntity
  8
AM_0 外形線1
100
AcDbLine
 10
-66.21449665934004
 20
-700.0
 30
0.0
 11
-70.21449665934007
 21
-696.0
 31
0.0
  0
LINE
  5
4BD9
330
4BCD
100
AcDbEntity
  8
AM_0 外形線1
100
AcDbLine
 10
-70.21449665934007
 20
-696.0
 30
0.0
 11
-70.21449665934007
 21
0.0
 31
0.0
  0
LINE
  5
4BDA
330
4BCD
100
AcDbEntity
  8
AM_0 外形線1
100
AcDbLine
 10
-4.214496659340055
 20
-700.0
 30
0.0
 11
-66.21449665934004
 21
-700.0
 31
0.0
  0
LINE
  5
4BDB
330
4BCD
100
AcDbEntity
  8
AM_0 外形線1
100
AcDbLine
 10
-118.7555166593401
 20
-590.0
 30
0.0
 11
-795.21449665934
 21
-590.0
 31
0.0
  0
ARC
  5
4BDC
330
4BCD
100
AcDbEntity
  8
AM_0 外形線1
100
AcDbCircle
 10
-795.21449665934
 20
-560.0
 30
0.0
 40
30.0
100
AcDbArc
 50
180.0
 51
270.0
  0
LINE
  5
4BDD
330
4BCD
100
AcDbEntity
  8
AM_0 外形線1
100
AcDbLine
 10
-4.214496659340055
 20
700.0
 30
0.0
 11
-0.2144966593400568
 21
696.0
 31
0.0
  0
LINE
  5
4BDE
330
4BCD
100
AcDbEntity
  8
AM_0 外形線1
100
AcDbLine
 10
-17.21449665934005
 20
578.0
 30
0.0
 11
-25.21449665934006
 21
578.0
 31
0.0
  0
LINE
  5
4BDF
330
4BCD
100
AcDbEntity
  8
AM_0 外形線1
100
AcDbLine
 10
-0.214496659339602
 20
604.9999999999994
 30
0.0
 11
-17.21449665934005
 21
605.0
 31
0.0
  0
LINE
  5
4BE0
330
4BCD
100
AcDbEntity
  8
AM_0 外形線1
100
AcDbLine
 10
-17.21449665934005
 20
605.0
 30
0.0
 11
-17.21449665934005
 21
578.0
 31
0.0
  0
LINE
  5
4BE1
330
4BCD
100
AcDbEntity
  8
AM_0 外形線1
100
AcDbLine
 10
-0.2144966593400568
 20
638.0
 30
0.0
 11
-0.2144966593400568
 21
605.0
 31
0.0
  0
LINE
  5
4BE3
330
4BCD
100
AcDbEntity
  8
AM_0 外形線1
100
AcDbLine
 10
-70.21449665934007
 20
696.0
 30
0.0
 11
-66.21449665934004
 21
700.0
 31
0.0
  0
ARC
  5
4BE4
330
4BCD
100
AcDbEntity
  8
AM_0 外形線1
100
AcDbCircle
 10
-78.21449665934007
 20
617.4442719999997
 30
0.0
 40
8.0
100
AcDbArc
 50
296.5650509999763
 51
0.0
  0
ARC
  5
4BE5
330
4BCD
100
AcDbEntity
  8
AM_0 外形線1
100
AcDbCircle
 10
-118.7555166593401
 20
605.0
 30
0.0
 40
15.0
100
AcDbArc
 50
270.0
 51
296.5650509999763
  0
LINE
  5
4BE6
330
4BCD
100
AcDbEntity
  8
AM_0 外形線1
100
AcDbLine
 10
-112.0473126593401
 20
591.5835919999998
 30
0.0
 11
-74.6367886593398
 21
610.2888550000002
 31
0.0
  0
LINE
  5
4BE7
330
4BCD
100
AcDbEntity
  8
AM_0 外形線1
100
AcDbLine
 10
-70.21449665934007
 20
617.4442719999997
 30
0.0
 11
-70.21449665934007
 21
696.0
 31
0.0
  0
LINE
  5
4BE9
330
4BCD
100
AcDbEntity
  8
AM_0 外形線1
100
AcDbLine
 10
-70.21449665934007
 20
638.0000000000003
 30
0.0
 11
-0.2144966593400568
 21
638.0000000000003
 31
0.0
  0
LINE
  5
4BEA
330
4BCD
100
AcDbEntity
  8
AM_0 外形線1
100
AcDbLine
 10
-66.21449665934004
 20
700.0
 30
0.0
 11
-4.214496659340055
 21
700.0
 31
0.0
  0
LINE
  5
4BEB
330
4BCD
100
AcDbEntity
  8
AM_3 隠れ線
100
AcDbLine
 10
-127.21449665934
 20
21.5
 30
0.0
 11
-127.21449665934
 21
0.0
 31
0.0
  0
LINE
  5
4BEC
330
4BCD
100
AcDbEntity
  8
AM_3 隠れ線
100
AcDbLine
 10
-127.21449665934
 20
21.5
 30
0.0
 11
-139.6275276593401
 21
0.0
 31
0.0
  0
LINE
  5
4BED
330
4BCD
100
AcDbEntity
  8
AM_3 隠れ線
100
AcDbLine
 10
-109.21449665934
 20
23.0
 30
0.0
 11
-109.21449665934
 21
0.0
 31
0.0
  0
LINE
  5
4BEE
330
4BCD
100
AcDbEntity
  8
AM_3 隠れ線
100
AcDbLine
 10
-110.0805226593402
 20
21.5
 30
0.0
 11
-110.0805226593402
 21
0.0
 31
0.0
  0
LINE
  5
4BEF
330
4BCD
100
AcDbEntity
  8
AM_3 隠れ線
100
AcDbLine
 10
-109.21449665934
 20
23.0
 30
0.0
 11
-110.0805226593402
 21
21.5
 31
0.0
  0
LINE
  5
4BF0
330
4BCD
100
AcDbEntity
  8
AM_3 隠れ線
100
AcDbLine
 10
-25.21449665934006
 20
21.5
 30
0.0
 11
-127.21449665934
 21
21.5
 31
0.0
  0
LINE
  5
4BF1
330
4BCD
100
AcDbEntity
  8
AM_3 隠れ線
100
AcDbLine
 10
-25.21449665934006
 20
23.0
 30
0.0
 11
-109.21449665934
 21
23.0
 31
0.0
  0
LINE
  5
4BF2
330
4BCD
100
AcDbEntity
  8
AM_3 隠れ線
100
AcDbLine
 10
-723.21449665934
 20
21.5
 30
0.0
 11
-710.8014666593402
 21
0.0
 31
0.0
  0
LINE
  5
4BF3
330
4BCD
100
AcDbEntity
  8
AM_3 隠れ線
100
AcDbLine
 10
-723.21449665934
 20
21.5
 30
0.0
 11
-723.21449665934
 21
0.0
 31
0.0
  0
LINE
  5
4BF4
330
4BCD
100
AcDbEntity
  8
AM_3 隠れ線
100
AcDbLine
 10
-740.3484716593397
 20
21.5
 30
0.0
 11
-740.3484716593397
 21
0.0
 31
0.0
  0
LINE
  5
4BF5
330
4BCD
100
AcDbEntity
  8
AM_3 隠れ線
100
AcDbLine
 10
-741.21449665934
 20
23.0
 30
0.0
 11
-741.21449665934
 21
0.0
 31
0.0
  0
LINE
  5
4BF6
330
4BCD
100
AcDbEntity
  8
AM_3 隠れ線
100
AcDbLine
 10
-741.21449665934
 20
23.0
 30
0.0
 11
-740.3484716593397
 21
21.5
 31
0.0
  0
LINE
  5
4BF7
330
4BCD
100
AcDbEntity
  8
AM_0 外形線1
100
AcDbLine
 10
-25.21449665934006
 20
578.0
 30
0.0
 11
-25.21449665934006
 21
0.0
 31
0.0
  0
ARC
  5
4BF8
330
4BCD
100
AcDbEntity
  8
AM_0 外形線1
100
AcDbCircle
 10
-795.21449665934
 20
560.0
 30
0.0
 40
30.0
100
AcDbArc
 50
90.0
 51
180.0
  0
LINE
  5
4BF9
330
4BCD
100
AcDbEntity
  8
AM_0 外形線1
100
AcDbLine
 10
-795.21449665934
 20
590.0
 30
0.0
 11
-118.7555166593401
 21
590.0
 31
0.0
  0
LINE
  5
4BFA
330
4BCD
100
AcDbEntity
  8
AM_3 隠れ線
100
AcDbLine
 10
-825.21449665934
 20
23.0
 30
0.0
 11
-741.21449665934
 21
23.0
 31
0.0
  0
LINE
  5
4BFB
330
4BCD
100
AcDbEntity
  8
AM_3 隠れ線
100
AcDbLine
 10
-825.21449665934
 20
21.5
 30
0.0
 11
-723.21449665934
 21
21.5
 31
0.0
  0
LINE
  5
4BFC
330
4BCD
100
AcDbEntity
  8
AM_0 外形線1
100
AcDbLine
 10
-825.21449665934
 20
340.0000000000009
 30
0.0
 11
-25.21449665934006
 21
340.0000000000005
 31
0.0
  0
LINE
  5
4C66
330
4BCD
100
AcDbEntity
  8
AM_0 外形線1
100
AcDbLine
 10
-0.2144966593400568
 20
-696.0
 30
0.0
 11
-0.2144966593405115
 21
-0.0000000000004547
 31
0.0
  0
LINE
  5
4C67
330
4BCD
100
AcDbEntity
  8
AM_0 外形線1
100
AcDbLine
 10
-70.21449665934007
 20
681.9999999999994
 30
0.0
 11
-0.2144966593400568
 21
681.9999999999986
 31
0.0
  0
LINE
  5
4C68
330
4BCD
100
AcDbEntity
  8
AM_0 外形線1
100
AcDbLine
 10
-0.2144966593400568
 20
696.0
 30
0.0
 11
-0.2144966593400568
 21
682.0
 31
0.0
  0
ENDBLK
  5
4BCF
330
4BCD
100
AcDbEntity
  8
0
100
AcDbBlockEnd
  0
BLOCK
  5
4CE1
330
4CE0
100
AcDbEntity
  8
0
100
AcDbBlockBegin
  2
リーマボルト CEMH1400 M42
 70
     0
 10
0.0
 20
0.0
 30
0.0
  3
リーマボルト CEMH1400 M42
  1

  0
LINE
  5
4CE3
330
4CE0
100
AcDbEntity
  8
AM_0 外形線1
100
AcDbLine
 10
23.11324800000011
 20
37.5
 30
0.0
 11
26.0
 21
32.5
 31
0.0
  0
ARC
  5
4CE4
330
4CE0
100
AcDbEntity
  8
AM_0 外形線1
100
AcDbCircle
 10
9.356056999999962
 20
28.13194199999998
 30
0.0
 40
16.643942
100
AcDbArc
 50
325.7468130000189
 51
34.25318699998113
  0
ARC
  5
4CE5
330
4CE0
100
AcDbEntity
  8
AM_0 外形線1
100
AcDbCircle
 10
-2.0
 20
22.0
 30
0.0
 40
2.0
100
AcDbArc
 50
284.4775121859295
 51
0.0
  0
ARC
  5
4CE7
330
4CE0
100
AcDbEntity
  8
AM_0 外形線1
100
AcDbCircle
 10
-1.0
 20
22.0
 30
0.0
 40
2.0
100
AcDbArc
 50
180.0
 51
255.5224878140705
  0
LINE
  5
4CE8
330
4CE0
100
AcDbEntity
  8
AM_0 外形線1
100
AcDbLine
 10
0.0
 20
37.5
 30
0.0
 11
23.11324800000011
 21
37.5
 31
0.0
  0
LINE
  5
4CE9
330
4CE0
100
AcDbEntity
  8
AM_0 外形線1
100
AcDbLine
 10
0.0
 20
18.76388399999996
 30
0.0
 11
23.11324800000011
 21
18.76388399999996
 31
0.0
  0
LINE
  5
4CEA
330
4CE0
100
AcDbEntity
  8
AM_0 外形線1
100
AcDbLine
 10
26.0
 20
-32.5
 30
0.0
 11
23.11324800000011
 21
-37.5
 31
0.0
  0
ARC
  5
4CEB
330
4CE0
100
AcDbEntity
  8
AM_0 外形線1
100
AcDbCircle
 10
9.356056999999962
 20
-28.13194199999998
 30
0.0
 40
16.643942
100
AcDbArc
 50
325.7468130000189
 51
34.25318699998113
  0
ARC
  5
4CEC
330
4CE0
100
AcDbEntity
  8
AM_0 外形線1
100
AcDbCircle
 10
-2.0
 20
-22.0
 30
0.0
 40
2.0
100
AcDbArc
 50
0.0
 51
75.52248781407055
  0
ARC
  5
4CEE
330
4CE0
100
AcDbEntity
  8
AM_0 外形線1
100
AcDbCircle
 10
-1.0
 20
-22.0
 30
0.0
 40
2.0
100
AcDbArc
 50
104.4775121859294
 51
180.0
  0
LINE
  5
4CEF
330
4CE0
100
AcDbEntity
  8
AM_0 外形線1
100
AcDbLine
 10
23.11324800000011
 20
-37.5
 30
0.0
 11
0.0
 21
-37.5
 31
0.0
  0
LINE
  5
4CF0
330
4CE0
100
AcDbEntity
  8
AM_0 外形線1
100
AcDbLine
 10
0.0
 20
-18.76388399999996
 30
0.0
 11
23.11324800000011
 21
-18.76388399999996
 31
0.0
  0
LINE
  5
4CF1
330
4CE0
100
AcDbEntity
  8
AM_0 外形線1
100
AcDbLine
 10
26.0
 20
32.5
 30
0.0
 11
26.0
 21
-32.5
 31
0.0
  0
ARC
  5
4CF2
330
4CE0
100
AcDbEntity
  8
AM_0 外形線1
100
AcDbCircle
 10
-36.42599800000017
 20
0.0
 30
0.0
 40
62.425998
100
AcDbArc
 50
342.5076749999834
 51
17.49232500001665
  0
LINE
  5
4CF3
330
4CE0
100
AcDbEntity
  8
AM_0 外形線1
100
AcDbLine
 10
-3.0
 20
-22.0
 30
0.0
 11
-3.0
 21
22.0
 31
0.0
  0
LINE
  5
4CF4
330
4CE0
100
AcDbEntity
  8
AM_0 外形線1
100
AcDbLine
 10
-136.0
 20
22.0
 30
0.0
 11
-138.0
 21
20.84529999999995
 31
0.0
  0
LINE
  5
4CF5
330
4CE0
100
AcDbEntity
  8
AM_0 外形線1
100
AcDbLine
 10
-140.0
 20
5.333333999999921
 30
0.0
 11
-148.0
 21
-2.666666000000076
 31
0.0
  0
LINE
  5
4CF6
330
4CE0
100
AcDbEntity
  8
AM_0 外形線1
100
AcDbLine
 10
-140.0
 20
2.66666699999996
 30
0.0
 11
-148.0
 21
-5.333333000000037
 31
0.0
  0
LINE
  5
4CF7
330
4CE0
100
AcDbEntity
  8
AM_0 外形線1
100
AcDbLine
 10
-140.0
 20
21.0
 30
0.0
 11
-138.0
 21
21.0
 31
0.0
  0
LINE
  5
4CF8
330
4CE0
100
AcDbEntity
  8
AM_0 外形線1
100
AcDbLine
 10
-138.0
 20
21.0
 30
0.0
 11
-137.7320510000004
 21
21.0
 31
0.0
  0
LINE
  5
4CF9
330
4CE0
100
AcDbEntity
  8
AM_0 外形線1
100
AcDbLine
 10
-148.0
 20
35.5
 30
0.0
 11
-140.0
 21
35.5
 31
0.0
  0
LINE
  5
4CFA
330
4CE0
100
AcDbEntity
  8
AM_0 外形線1
100
AcDbLine
 10
-179.113249
 20
37.5
 30
0.0
 11
-182.0
 21
32.5
 31
0.0
  0
ARC
  5
4CFB
330
4CE0
100
AcDbEntity
  8
AM_0 外形線1
100
AcDbCircle
 10
-165.3560579999998
 20
28.13194199999998
 30
0.0
 40
16.643942
100
AcDbArc
 50
145.7468130000188
 51
214.2531869999811
  0
LINE
  5
4CFC
330
4CE0
100
AcDbEntity
  8
AM_0 外形線1
100
AcDbLine
 10
-182.0
 20
21.0
 30
0.0
 11
-191.0
 21
21.0
 31
0.0
  0
LINE
  5
4CFD
330
4CE0
100
AcDbEntity
  8
AM_0 外形線1
100
AcDbLine
 10
-191.0
 20
21.0
 30
0.0
 11
-194.0
 21
18.0
 31
0.0
  0
LINE
  5
4CFE
330
4CE0
100
AcDbEntity
  8
AM_0 外形線1
100
AcDbLine
 10
-194.0
 20
18.0
 30
0.0
 11
-194.0
 21
-18.0
 31
0.0
  0
LINE
  5
4CFF
330
4CE0
100
AcDbEntity
  8
AM_4 細線
100
AcDbLine
 10
-192.5
 20
19.5
 30
0.0
 11
-182.0
 21
19.5
 31
0.0
  0
LINE
  5
4D00
330
4CE0
100
AcDbEntity
  8
AM_0 外形線1
100
AcDbLine
 10
-148.0
 20
37.5
 30
0.0
 11
-179.113249
 21
37.5
 31
0.0
  0
LINE
  5
4D01
330
4CE0
100
AcDbEntity
  8
AM_0 外形線1
100
AcDbLine
 10
-148.0
 20
18.76388399999996
 30
0.0
 11
-179.113249
 21
18.76388399999996
 31
0.0
  0
LINE
  5
4D02
330
4CE0
100
AcDbEntity
  8
AM_0 外形線1
100
AcDbLine
 10
-138.0
 20
-20.84529900000007
 30
0.0
 11
-136.0
 21
-22.0
 31
0.0
  0
LINE
  5
4D03
330
4CE0
100
AcDbEntity
  8
AM_0 外形線1
100
AcDbLine
 10
-140.0
 20
-21.0
 30
0.0
 11
-137.7320510000004
 21
-21.0
 31
0.0
  0
LINE
  5
4D04
330
4CE0
100
AcDbEntity
  8
AM_0 外形線1
100
AcDbLine
 10
-148.0
 20
-35.5
 30
0.0
 11
-140.0
 21
-35.5
 31
0.0
  0
LINE
  5
4D05
330
4CE0
100
AcDbEntity
  8
AM_0 外形線1
100
AcDbLine
 10
-182.0
 20
-32.5
 30
0.0
 11
-179.113249
 21
-37.5
 31
0.0
  0
ARC
  5
4D06
330
4CE0
100
AcDbEntity
  8
AM_0 外形線1
100
AcDbCircle
 10
-165.3560579999998
 20
-28.13194199999998
 30
0.0
 40
16.643942
100
AcDbArc
 50
145.7468130000188
 51
214.2531869999811
  0
LINE
  5
4D07
330
4CE0
100
AcDbEntity
  8
AM_0 外形線1
100
AcDbLine
 10
-191.0
 20
-21.0
 30
0.0
 11
-182.0
 21
-21.0
 31
0.0
  0
LINE
  5
4D08
330
4CE0
100
AcDbEntity
  8
AM_4 細線
100
AcDbLine
 10
-182.0
 20
-19.5
 30
0.0
 11
-192.5
 21
-19.5
 31
0.0
  0
LINE
  5
4D09
330
4CE0
100
AcDbEntity
  8
AM_0 外形線1
100
AcDbLine
 10
-179.113249
 20
-37.5
 30
0.0
 11
-148.0
 21
-37.5
 31
0.0
  0
LINE
  5
4D0A
330
4CE0
100
AcDbEntity
  8
AM_0 外形線1
100
AcDbLine
 10
-148.0
 20
-18.76388399999996
 30
0.0
 11
-179.113249
 21
-18.76388399999996
 31
0.0
  0
LINE
  5
4D0B
330
4CE0
100
AcDbEntity
  8
AM_0 外形線1
100
AcDbLine
 10
-138.0
 20
20.84529999999995
 30
0.0
 11
-138.0
 21
-20.84529900000007
 31
0.0
  0
LINE
  5
4D0C
330
4CE0
100
AcDbEntity
  8
AM_0 外形線1
100
AcDbLine
 10
-136.0
 20
22.0
 30
0.0
 11
-136.0
 21
-22.0
 31
0.0
  0
LINE
  5
4D0D
330
4CE0
100
AcDbEntity
  8
AM_0 外形線1
100
AcDbLine
 10
-182.0
 20
32.5
 30
0.0
 11
-182.0
 21
-32.5
 31
0.0
  0
LINE
  5
4D0E
330
4CE0
100
AcDbEntity
  8
AM_0 外形線1
100
AcDbLine
 10
-148.0
 20
-37.5
 30
0.0
 11
-148.0
 21
37.5
 31
0.0
  0
ARC
  5
4D0F
330
4CE0
100
AcDbEntity
  8
AM_0 外形線1
100
AcDbCircle
 10
-119.5740030000002
 20
0.0
 30
0.0
 40
62.425998
100
AcDbArc
 50
162.5076749999833
 51
197.4923250000166
  0
LINE
  5
4D10
330
4CE0
100
AcDbEntity
  8
AM_0 外形線1
100
AcDbLine
 10
-194.0
 20
-18.0
 30
0.0
 11
-191.0
 21
-21.0
 31
0.0
  0
LINE
  5
4D11
330
4CE0
100
AcDbEntity
  8
AM_0 外形線1
100
AcDbLine
 10
-191.0
 20
21.0
 30
0.0
 11
-191.0
 21
-21.0
 31
0.0
  0
LINE
  5
4D12
330
4CE0
100
AcDbEntity
  8
AM_4 細線
100
AcDbLine
 10
-140.0
 20
19.50000000000045
 30
0.0
 11
-137.9999999999995
 21
19.5
 31
0.0
  0
LINE
  5
4D13
330
4CE0
100
AcDbEntity
  8
AM_4 細線
100
AcDbLine
 10
-140.0
 20
-19.50000000000045
 30
0.0
 11
-137.9999999999995
 21
-19.5
 31
0.0
  0
LINE
  5
4D7D
330
4CE0
100
AcDbEntity
  8
AM_0 外形線1
100
AcDbLine
 10
0.0
 20
37.5
 30
0.0
 11
0.0
 21
-37.5
 31
0.0
  0
LINE
  5
4D7E
330
4CE0
100
AcDbEntity
  8
AM_0 外形線1
100
AcDbLine
 10
-3.0
 20
22.0
 30
0.0
 11
-136.0000000000009
 21
21.99999999999954
 31
0.0
  0
LINE
  5
4D7F
330
4CE0
100
AcDbEntity
  8
AM_0 外形線1
100
AcDbLine
 10
-3.000000000004091
 20
-22.00000000001955
 30
0.0
 11
-136.000000000005
 21
-21.99999999999682
 31
0.0
  0
LINE
  5
4D80
330
4CE0
100
AcDbEntity
  8
AM_0 外形線1
100
AcDbLine
 10
-140.0
 20
35.5
 30
0.0
 11
-140.0
 21
-35.5
 31
0.0
  0
ENDBLK
  5
4CE2
330
4CE0
100
AcDbEntity
  8
0
100
AcDbBlockEnd
  0
BLOCK
  5
4DEF
330
4DEE
100
AcDbEntity
  8
0
100
AcDbBlockBegin
  2
センタ CEMH1400
 70
     0
 10
0.0
 20
0.0
 30
0.0
  3
センタ CEMH1400
  1

  0
LINE
  5
4DF1
330
4DEE
100
AcDbEntity
  8
AM_0 外形線1
100
AcDbLine
 10
474.0
 20
-535.0
 30
0.0
 11
474.0
 21
0.0
 31
0.0
  0
LINE
  5
4DF2
330
4DEE
100
AcDbEntity
  8
AM_0 外形線1
100
AcDbLine
 10
480.0
 20
-533.0
 30
0.0
 11
480.0
 21
0.0
 31
0.0
  0
LINE
  5
4DF4
330
4DEE
100
AcDbEntity
  8
AM_0 外形線1
100
AcDbLine
 10
800.0
 20
-503.0
 30
0.0
 11
800.0
 21
503.0
 31
0.0
  0
ARC
  5
4DF6
330
4DEE
100
AcDbEntity
  8
AM_0 外形線1
100
AcDbCircle
 10
770.0
 20
-503.0
 30
0.0
 40
30.0
100
AcDbArc
 50
270.0
 51
0.0
  0
LINE
  5
4DF7
330
4DEE
100
AcDbEntity
  8
AM_0 外形線1
100
AcDbLine
 10
424.0
 20
-535.0
 30
0.0
 11
474.0
 21
-535.0
 31
0.0
  0
LINE
  5
4DF8
330
4DEE
100
AcDbEntity
  8
AM_0 外形線1
100
AcDbLine
 10
474.0
 20
-535.0
 30
0.0
 11
480.0
 21
-533.0
 31
0.0
  0
LINE
  5
4DF9
330
4DEE
100
AcDbEntity
  8
AM_0 外形線1
100
AcDbLine
 10
480.0
 20
-533.0
 30
0.0
 11
770.0
 21
-533.0
 31
0.0
  0
LINE
  5
4DFA
330
4DEE
100
AcDbEntity
  8
AM_0 外形線1
100
AcDbLine
 10
474.0
 20
535.0
 30
0.0
 11
362.0
 21
535.0
 31
0.0
  0
LINE
  5
4DFB
330
4DEE
100
AcDbEntity
  8
AM_0 外形線1
100
AcDbLine
 10
361.5
 20
565.6882949999998
 30
0.0
 11
359.5
 21
568.0176060000002
 31
0.0
  0
ARC
  5
4DFC
330
4DEE
100
AcDbEntity
  8
AM_0 外形線1
100
AcDbCircle
 10
362.0
 20
535.5
 30
0.0
 40
0.5
100
AcDbArc
 50
180.0
 51
270.0
  0
LINE
  5
4DFD
330
4DEE
100
AcDbEntity
  8
AM_0 外形線1
100
AcDbLine
 10
361.5
 20
535.5
 30
0.0
 11
361.5
 21
565.6882949999998
 31
0.0
  0
LINE
  5
4DFE
330
4DEE
100
AcDbEntity
  8
AM_7 中心線
100
AcDbLine
 10
267.0
 20
580.4999999999998
 30
0.0
 11
267.0
 21
547.0
 31
0.0
  0
ARC
  5
4DFF
330
4DEE
100
AcDbEntity
  8
AM_0 外形線1
100
AcDbCircle
 10
267.0
 20
0.0
 30
0.0
 40
575.4999999999999
100
AcDbArc
 50
80.75074100001911
 51
99.24925899998092
  0
ARC
  5
4E00
330
4DEE
100
AcDbEntity
  8
AM_0 外形線1
100
AcDbCircle
 10
172.0
 20
535.5
 30
0.0
 40
0.5
100
AcDbArc
 50
270.0
 51
0.0
  0
LINE
  5
4E01
330
4DEE
100
AcDbEntity
  8
AM_0 外形線1
100
AcDbLine
 10
172.5
 20
565.6882949999998
 30
0.0
 11
172.5
 21
535.5
 31
0.0
  0
LINE
  5
4E02
330
4DEE
100
AcDbEntity
  8
AM_0 外形線1
100
AcDbLine
 10
6.0
 20
535.0
 30
0.0
 11
0.0
 21
529.0
 31
0.0
  0
LINE
  5
4E03
330
4DEE
100
AcDbEntity
  8
AM_0 外形線1
100
AcDbLine
 10
172.0
 20
535.0
 30
0.0
 11
6.0
 21
535.0
 31
0.0
  0
LINE
  5
4E04
330
4DEE
100
AcDbEntity
  8
AM_3 隠れ線
100
AcDbLine
 10
102.0
 20
21.5
 30
0.0
 11
102.0
 21
0.0
 31
0.0
  0
LINE
  5
4E05
330
4DEE
100
AcDbEntity
  8
AM_3 隠れ線
100
AcDbLine
 10
84.8660249999998
 20
21.5
 30
0.0
 11
84.8660249999998
 21
0.0
 31
0.0
  0
LINE
  5
4E06
330
4DEE
100
AcDbEntity
  8
AM_3 隠れ線
100
AcDbLine
 10
84.0
 20
23.0
 30
0.0
 11
84.0
 21
0.0
 31
0.0
  0
LINE
  5
4E07
330
4DEE
100
AcDbEntity
  8
AM_3 隠れ線
100
AcDbLine
 10
84.0
 20
23.0
 30
0.0
 11
84.8660249999998
 21
21.5
 31
0.0
  0
LINE
  5
4E08
330
4DEE
100
AcDbEntity
  8
AM_3 隠れ線
100
AcDbLine
 10
102.0
 20
21.5
 30
0.0
 11
114.4130299999997
 21
0.0
 31
0.0
  0
LINE
  5
4E09
330
4DEE
100
AcDbEntity
  8
AM_3 隠れ線
100
AcDbLine
 10
0.0
 20
21.5
 30
0.0
 11
102.0
 21
21.5
 31
0.0
  0
LINE
  5
4E0A
330
4DEE
100
AcDbEntity
  8
AM_3 隠れ線
100
AcDbLine
 10
0.0
 20
23.0
 30
0.0
 11
84.0
 21
23.0
 31
0.0
  0
LINE
  5
4E0B
330
4DEE
100
AcDbEntity
  8
AM_0 外形線1
100
AcDbLine
 10
0.0
 20
529.0
 30
0.0
 11
0.0
 21
0.0
 31
0.0
  0
LINE
  5
4E0D
330
4DEE
100
AcDbEntity
  8
AM_0 外形線1
100
AcDbLine
 10
174.5
 20
568.0176060000002
 30
0.0
 11
172.5
 21
565.6882949999998
 31
0.0
  0
ARC
  5
4E0F
330
4DEE
100
AcDbEntity
  8
AM_0 外形線1
100
AcDbCircle
 10
770.0
 20
503.0
 30
0.0
 40
30.0
100
AcDbArc
 50
0.0
 51
90.0
  0
LINE
  5
4E10
330
4DEE
100
AcDbEntity
  8
AM_0 外形線1
100
AcDbLine
 10
480.0
 20
533.0
 30
0.0
 11
474.0
 21
535.0
 31
0.0
  0
LINE
  5
4E11
330
4DEE
100
AcDbEntity
  8
AM_0 外形線1
100
AcDbLine
 10
770.0
 20
533.0
 30
0.0
 11
480.0
 21
533.0
 31
0.0
  0
LINE
  5
4E12
330
4DEE
100
AcDbEntity
  8
AM_3 隠れ線
100
AcDbLine
 10
715.1339739999992
 20
21.5
 30
0.0
 11
715.1339739999992
 21
0.0
 31
0.0
  0
LINE
  5
4E13
330
4DEE
100
AcDbEntity
  8
AM_3 隠れ線
100
AcDbLine
 10
716.0
 20
23.0
 30
0.0
 11
716.0
 21
0.0
 31
0.0
  0
LINE
  5
4E14
330
4DEE
100
AcDbEntity
  8
AM_3 隠れ線
100
AcDbLine
 10
716.0
 20
23.0
 30
0.0
 11
715.1339739999992
 21
21.5
 31
0.0
  0
LINE
  5
4E15
330
4DEE
100
AcDbEntity
  8
AM_3 隠れ線
100
AcDbLine
 10
698.0
 20
21.5
 30
0.0
 11
685.5869689999998
 21
0.0
 31
0.0
  0
LINE
  5
4E16
330
4DEE
100
AcDbEntity
  8
AM_3 隠れ線
100
AcDbLine
 10
698.0
 20
21.5
 30
0.0
 11
698.0
 21
0.0
 31
0.0
  0
LINE
  5
4E17
330
4DEE
100
AcDbEntity
  8
AM_3 隠れ線
100
AcDbLine
 10
800.0
 20
23.0
 30
0.0
 11
716.0
 21
23.0
 31
0.0
  0
LINE
  5
4E18
330
4DEE
100
AcDbEntity
  8
AM_3 隠れ線
100
AcDbLine
 10
800.0
 20
21.5
 30
0.0
 11
698.0
 21
21.5
 31
0.0
  0
LINE
  5
4E1F
330
4DEE
100
AcDbEntity
  8
AM_0 外形線1
100
AcDbLine
 10
-0.5
 20
340.0000000000005
 30
0.0
 11
800.0
 21
340.0000000000005
 31
0.0
  0
ARC
  5
6786
330
4DEE
100
AcDbEntity
  8
AM_7 中心線
100
AcDbCircle
 10
267.0
 20
0.0
 30
0.0
 40
564.0
100
AcDbArc
 50
79.65667985795845
 51
100.5722814666736
  0
ARC
  5
6787
330
4DEE
100
AcDbEntity
  8
AM_0 外形線1
100
AcDbCircle
 10
267.0
 20
0.0
 30
0.0
 40
552.0
100
AcDbArc
 50
80.14265593040764
 51
99.85734406959236
  0
ENDBLK
  5
4DF0
330
4DEE
100
AcDbEntity
  8
0
100
AcDbBlockEnd
  0
BLOCK
  5
4FE1
330
4FE0
100
AcDbEntity
  8
0
100
AcDbBlockBegin
  2
ＧＣサイドカバ－ CEMH1400
 70
     0
 10
0.0
 20
0.0
 30
0.0
  3
ＧＣサイドカバ－ CEMH1400
  1

  0
LINE
  5
4FE3
330
4FE0
100
AcDbEntity
  8
AM_0 外形線1
100
AcDbLine
 10
0.0000000000004547
 20
-627.5
 30
0.0
 11
38.0
 21
-627.5
 31
0.0
  0
LINE
  5
4FE4
330
4FE0
100
AcDbEntity
  8
AM_0 外形線1
100
AcDbLine
 10
38.0
 20
-627.5
 30
0.0
 11
38.0
 21
-608.4999999999999
 31
0.0
  0
LINE
  5
4FE5
330
4FE0
100
AcDbEntity
  8
AM_0 外形線1
100
AcDbLine
 10
29.0
 20
551.6499999999999
 30
0.0
 11
1.0
 21
551.6499999999999
 31
0.0
  0
LWPOLYLINE
  5
4FE6
330
4FE0
100
AcDbEntity
  8
AM_0 外形線1
100
AcDbPolyline
 90
       73
 70
     0
 43
0.0
 10
29.0
 20
543.3249999999998
 10
28.94672499999979
 20
544.0505719999996
 10
28.78730799999994
 20
544.7706210000001
 10
28.52296099999967
 20
545.4796690000002
 10
28.15569599999981
 20
546.1723179999998
 10
27.68830900000012
 20
546.8432969999999
 10
27.12435499999993
 20
547.4875000000001
 10
26.46812799999953
 20
548.1000240000001
 10
25.72462199999973
 20
548.676207
 10
24.89949499999966
 20
549.2116639999998
 10
23.99902600000041
 20
549.7023199999999
 10
23.0300699999998
 20
550.1444409999997
 10
22.0
 20
550.534662
 10
20.91665499999999
 20
550.8700129999997
 10
19.78828200000043
 20
551.1479410000001
 10
18.62346600000001
 20
551.3663330000004
 10
17.43107399999917
 20
551.5235249999999
 10
16.22017999999934
 20
551.6183209999998
 10
15.0
 20
551.6499999999999
 10
13.77981900000031
 20
551.6183209999998
 10
12.56892500000049
 20
551.5235249999999
 10
11.37653299999965
 20
551.3663330000004
 10
10.21171799999956
 20
551.1479410000001
 10
9.083343999999668
 20
550.8700129999997
 10
8.0
 20
550.534662
 10
6.969928999999865
 20
550.1444409999997
 10
6.000972999999246
 20
549.7023199999999
 10
5.100504999999428
 20
549.2116639999998
 10
4.275376999999934
 20
548.676207
 10
3.531871000000136
 20
548.1000240000001
 10
2.875644000000646
 20
547.4875000000001
 10
2.311690999999882
 20
546.8432969999999
 10
1.844302999999854
 20
546.1723179999998
 10
1.477037999999993
 20
545.4796690000002
 10
1.212690999999721
 20
544.7706210000001
 10
1.053273999999872
 20
544.0505719999996
 10
1.0
 20
543.3249999999998
 10
1.053273999999872
 20
542.5994289999998
 10
1.212690999999721
 20
541.8793789999998
 10
1.477037999999993
 20
541.1703320000001
 10
1.844302999999854
 20
540.4776820000002
 10
2.311690999999882
 20
539.8067030000001
 10
2.875644000000646
 20
539.1624999999997
 10
3.531871000000136
 20
538.549976
 10
4.275376999999934
 20
537.9737930000001
 10
5.100504999999428
 20
537.4383359999995
 10
6.000972999999246
 20
536.9476800000001
 10
6.969928999999865
 20
536.5055590000001
 10
8.0
 20
536.1153389999998
 10
9.083343999999668
 20
535.7799879999999
 10
10.21171799999956
 20
535.5020589999997
 10
11.37653299999965
 20
535.2836679999999
 10
12.56892500000049
 20
535.1264760000002
 10
13.77981900000031
 20
535.0316789999997
 10
15.0
 20
535.0
 10
16.22017999999934
 20
535.0316789999997
 10
17.43107399999917
 20
535.1264760000002
 10
18.62346600000001
 20
535.2836679999999
 10
19.78828200000043
 20
535.5020589999997
 10
20.91665499999999
 20
535.7799879999999
 10
22.0
 20
536.1153389999998
 10
23.0300699999998
 20
536.5055590000001
 10
23.99902600000041
 20
536.9476800000001
 10
24.89949499999966
 20
537.4383359999995
 10
25.72462199999973
 20
537.9737930000001
 10
26.46812799999953
 20
538.549976
 10
27.12435499999993
 20
539.1624999999997
 10
27.68830900000012
 20
539.8067030000001
 10
28.15569599999981
 20
540.4776820000002
 10
28.52296099999967
 20
541.1703320000001
 10
28.78730799999994
 20
541.8793789999998
 10
28.94672499999979
 20
542.5994289999998
 10
29.0
 20
543.3249999999998
  0
LINE
  5
4FE7
330
4FE0
100
AcDbEntity
  8
AM_0 外形線1
100
AcDbLine
 10
38.0
 20
617.0
 30
0.0
 11
0.0
 21
617.0
 31
0.0
  0
LINE
  5
4FE8
330
4FE0
100
AcDbEntity
  8
AM_0 外形線1
100
AcDbLine
 10
38.0
 20
616.0
 30
0.0
 11
-36.10000000000037
 21
616.0
 31
0.0
  0
LINE
  5
4FE9
330
4FE0
100
AcDbEntity
  8
AM_0 外形線1
100
AcDbLine
 10
38.0
 20
591.0
 30
0.0
 11
0.0
 21
591.0
 31
0.0
  0
LINE
  5
4FEA
330
4FE0
100
AcDbEntity
  8
AM_0 外形線1
100
AcDbLine
 10
38.0
 20
592.0
 30
0.0
 11
-36.10000000000037
 21
592.0
 31
0.0
  0
LINE
  5
4FEB
330
4FE0
100
AcDbEntity
  8
AM_7 中心線
100
AcDbLine
 10
-51.42593700000088
 20
604.0
 30
0.0
 11
64.46882900000037
 21
604.0
 31
0.0
  0
LINE
  5
4FEC
330
4FE0
100
AcDbEntity
  8
AM_4 細線
100
AcDbLine
 10
38.0
 20
614.5
 30
0.0
 11
-36.10000000000037
 21
614.5
 31
0.0
  0
LINE
  5
4FED
330
4FE0
100
AcDbEntity
  8
AM_4 細線
100
AcDbLine
 10
38.0
 20
593.5
 30
0.0
 11
-36.10000000000037
 21
593.5
 31
0.0
  0
LINE
  5
4FEE
330
4FE0
100
AcDbEntity
  8
AM_0 外形線1
100
AcDbLine
 10
0.0
 20
585.1999999999998
 30
0.0
 11
4.5
 21
585.1999999999998
 31
0.0
  0
LINE
  5
4FEF
330
4FE0
100
AcDbEntity
  8
AM_0 外形線1
100
AcDbLine
 10
4.5
 20
585.1999999999998
 30
0.0
 11
4.5
 21
578.0
 31
0.0
  0
LWPOLYLINE
  5
4FF0
330
4FE0
100
AcDbEntity
  8
AM_0 外形線1
100
AcDbPolyline
 90
       73
 70
     0
 43
0.0
 10
2.25
 20
578.0
 10
2.446100000000114
 20
578.0136989999999
 10
2.640707999999904
 20
578.0546920000001
 10
2.832342000000608
 20
578.1226670000002
 10
3.019545000000106
 20
578.2171069999998
 10
3.200890999999501
 20
578.3372920000001
 10
3.375
 20
578.4823089999998
 10
3.540546999999604
 20
578.651053
 10
3.696272000000134
 20
578.8422400000004
 10
3.840989999999692
 20
579.0544159999998
 10
3.97360000000026
 20
579.285965
 10
4.093092000000068
 20
579.5351249999997
 10
4.198556999999708
 20
579.8000000000001
 10
4.289192000000183
 20
580.0785740000001
 10
4.364308000000163
 20
580.3687279999998
 10
4.423332999999728
 20
580.6682519999998
 10
4.465817000000241
 20
580.9748670000002
 10
4.491438000000016
 20
581.2862400000002
 10
4.5
 20
581.5999999999998
 10
4.491438000000016
 20
581.9137609999997
 10
4.465817000000241
 20
582.2251339999998
 10
4.423332999999728
 20
582.5317490000002
 10
4.364308000000163
 20
582.8312730000002
 10
4.289192000000183
 20
583.1214260000002
 10
4.198556999999708
 20
583.4000000000002
 10
4.093092000000068
 20
583.6648749999998
 10
3.97360000000026
 20
583.914036
 10
3.840989999999692
 20
584.145585
 10
3.696272000000134
 20
584.3577600000002
 10
3.540546999999604
 20
584.5489480000001
 10
3.375
 20
584.7176920000001
 10
3.200890999999501
 20
584.8627079999999
 10
3.019545000000106
 20
584.982894
 10
2.832342000000608
 20
585.0773330000001
 10
2.640707999999904
 20
585.1453080000001
 10
2.446100000000114
 20
585.1863010000001
 10
2.25
 20
585.1999999999998
 10
2.053898999999545
 20
585.1863010000001
 10
1.859290999999756
 20
585.1453080000001
 10
1.667656999999961
 20
585.0773330000001
 10
1.480453999999553
 20
584.982894
 10
1.299109000000497
 20
584.8627079999999
 10
1.125
 20
584.7176920000001
 10
0.9594530000003942
 20
584.5489480000001
 10
0.8037269999995258
 20
584.3577600000002
 10
0.6590089999999691
 20
584.145585
 10
0.5263999999997396
 20
583.914036
 10
0.4069069999995918
 20
583.6648749999998
 10
0.3014419999999518
 20
583.4000000000002
 10
0.2108070000003863
 20
583.1214260000002
 10
0.1356910000004063
 20
582.8312730000002
 10
0.076665999999932
 20
582.5317490000002
 10
0.0341820000003281
 20
582.2251339999998
 10
0.0085619999999835
 20
581.9137609999997
 10
0.0
 20
581.5999999999998
 10
0.0085619999999835
 20
581.2862400000002
 10
0.0341820000003281
 20
580.9748670000002
 10
0.076665999999932
 20
580.6682519999998
 10
0.1356910000004063
 20
580.3687279999998
 10
0.2108070000003863
 20
580.0785740000001
 10
0.3014419999999518
 20
579.8000000000001
 10
0.4069069999995918
 20
579.5351249999997
 10
0.5263999999997396
 20
579.285965
 10
0.6590089999999691
 20
579.0544159999998
 10
0.8037269999995258
 20
578.8422400000004
 10
0.9594530000003942
 20
578.651053
 10
1.125
 20
578.4823089999998
 10
1.299109000000497
 20
578.3372920000001
 10
1.480453999999553
 20
578.2171069999998
 10
1.667656999999961
 20
578.1226670000002
 10
1.859290999999756
 20
578.0546920000001
 10
2.053898999999545
 20
578.0136989999999
 10
2.25
 20
578.0
  0
LINE
  5
4FF1
330
4FE0
100
AcDbEntity
  8
AM_0 外形線1
100
AcDbLine
 10
-36.10000000000037
 20
616.0
 30
0.0
 11
-36.10000000000037
 21
604.0
 31
0.0
  0
LINE
  5
4FF2
330
4FE0
100
AcDbEntity
  8
AM_0 外形線1
100
AcDbLine
 10
-37.10000000000036
 20
616.0
 30
0.0
 11
-37.10000000000036
 21
604.0
 31
0.0
  0
LINE
  5
4FF3
330
4FE0
100
AcDbEntity
  8
AM_0 外形線1
100
AcDbLine
 10
-43.0
 20
614.5
 30
0.0
 11
-43.0
 21
604.0
 31
0.0
  0
LINE
  5
4FF4
330
4FE0
100
AcDbEntity
  8
AM_0 外形線1
100
AcDbLine
 10
-36.10000000000037
 20
614.5
 30
0.0
 11
-43.0
 21
614.5
 31
0.0
  0
LINE
  5
4FF5
330
4FE0
100
AcDbEntity
  8
AM_0 外形線1
100
AcDbLine
 10
-43.0
 20
614.5
 30
0.0
 11
-49.06217800000013
 21
604.0
 31
0.0
  0
LINE
  5
4FF6
330
4FE0
100
AcDbEntity
  8
AM_0 外形線1
100
AcDbLine
 10
-36.10000000000037
 20
592.0
 30
0.0
 11
-36.10000000000037
 21
604.0
 31
0.0
  0
LINE
  5
4FF7
330
4FE0
100
AcDbEntity
  8
AM_0 外形線1
100
AcDbLine
 10
-37.10000000000036
 20
592.0
 30
0.0
 11
-37.10000000000036
 21
604.0
 31
0.0
  0
LINE
  5
4FF8
330
4FE0
100
AcDbEntity
  8
AM_0 外形線1
100
AcDbLine
 10
-43.0
 20
593.5
 30
0.0
 11
-43.0
 21
604.0
 31
0.0
  0
LINE
  5
4FF9
330
4FE0
100
AcDbEntity
  8
AM_0 外形線1
100
AcDbLine
 10
-36.10000000000037
 20
593.5
 30
0.0
 11
-43.0
 21
593.5
 31
0.0
  0
LINE
  5
4FFA
330
4FE0
100
AcDbEntity
  8
AM_0 外形線1
100
AcDbLine
 10
-43.0
 20
593.5
 30
0.0
 11
-49.06217800000013
 21
604.0
 31
0.0
  0
LINE
  5
4FFB
330
4FE0
100
AcDbEntity
  8
AM_4 細線
100
AcDbLine
 10
-37.10000000000036
 20
616.0
 30
0.0
 11
-36.10000000000037
 21
616.0
 31
0.0
  0
LINE
  5
4FFC
330
4FE0
100
AcDbEntity
  8
AM_4 細線
100
AcDbLine
 10
-37.10000000000036
 20
592.0
 30
0.0
 11
-36.10000000000037
 21
592.0
 31
0.0
  0
LINE
  5
4FFD
330
4FE0
100
AcDbEntity
  8
AM_0 外形線1
100
AcDbLine
 10
1.0
 20
538.0
 30
0.0
 11
1.0
 21
535.0
 31
0.0
  0
LINE
  5
4FFE
330
4FE0
100
AcDbEntity
  8
AM_0 外形線1
100
AcDbLine
 10
-8.0
 20
538.0
 30
0.0
 11
-8.0
 21
535.0
 31
0.0
  0
LINE
  5
4FFF
330
4FE0
100
AcDbEntity
  8
AM_0 外形線1
100
AcDbLine
 10
1.0
 20
551.6499999999999
 30
0.0
 11
1.0
 21
538.0
 31
0.0
  0
LINE
  5
5000
330
4FE0
100
AcDbEntity
  8
AM_0 外形線1
100
AcDbLine
 10
1.0
 20
538.0
 30
0.0
 11
-8.0
 21
538.0
 31
0.0
  0
LINE
  5
5001
330
4FE0
100
AcDbEntity
  8
AM_0 外形線1
100
AcDbLine
 10
-8.0
 20
538.0
 30
0.0
 11
-8.0
 21
578.0
 31
0.0
  0
LINE
  5
5003
330
4FE0
100
AcDbEntity
  8
AM_0 外形線1
100
AcDbLine
 10
38.0
 20
624.1999999999998
 30
0.0
 11
43.89999999999964
 21
624.1999999999998
 31
0.0
  0
LINE
  5
5004
330
4FE0
100
AcDbEntity
  8
AM_0 外形線1
100
AcDbLine
 10
43.89999999999964
 20
624.1999999999998
 30
0.0
 11
43.89999999999964
 21
583.8000000000001
 31
0.0
  0
LINE
  5
5005
330
4FE0
100
AcDbEntity
  8
AM_0 外形線1
100
AcDbLine
 10
43.89999999999964
 20
583.8000000000001
 30
0.0
 11
38.0
 21
583.8000000000001
 31
0.0
  0
LINE
  5
5006
330
4FE0
100
AcDbEntity
  8
AM_0 外形線1
100
AcDbLine
 10
43.89999999999964
 20
624.1999999999998
 30
0.0
 11
43.89999999999964
 21
624.8000000000001
 31
0.0
  0
LINE
  5
5007
330
4FE0
100
AcDbEntity
  8
AM_0 外形線1
100
AcDbLine
 10
43.89999999999964
 20
624.8000000000001
 30
0.0
 11
57.03680599999916
 21
624.8000000000001
 31
0.0
  0
ARC
  5
5008
330
4FE0
100
AcDbEntity
  8
AM_0 外形線1
100
AcDbCircle
 10
50.74755399999958
 20
619.6038480000002
 30
0.0
 40
8.158106
100
AcDbArc
 50
320.4366320000236
 51
39.56336799997636
  0
ARC
  5
5009
330
4FE0
100
AcDbEntity
  8
AM_0 外形線1
100
AcDbCircle
 10
28.89999999999965
 20
604.0
 30
0.0
 40
30.0
100
AcDbArc
 50
339.7007620000286
 51
20.29923799997135
  0
ARC
  5
500A
330
4FE0
100
AcDbEntity
  8
AM_0 外形線1
100
AcDbCircle
 10
50.74755399999958
 20
588.3961530000001
 30
0.0
 40
8.158106
100
AcDbArc
 50
320.4366320000236
 51
39.56336799997636
  0
LINE
  5
500B
330
4FE0
100
AcDbEntity
  8
AM_0 外形線1
100
AcDbLine
 10
57.03680599999916
 20
583.1999999999998
 30
0.0
 11
43.89999999999964
 21
583.1999999999998
 31
0.0
  0
LINE
  5
500C
330
4FE0
100
AcDbEntity
  8
AM_0 外形線1
100
AcDbLine
 10
43.89999999999964
 20
583.1999999999998
 30
0.0
 11
43.89999999999964
 21
583.9615510000002
 31
0.0
  0
LINE
  5
500D
330
4FE0
100
AcDbEntity
  8
AM_0 外形線1
100
AcDbLine
 10
57.03680599999916
 20
614.4076949999997
 30
0.0
 11
43.89999999999964
 21
614.4076949999997
 31
0.0
  0
LINE
  5
500E
330
4FE0
100
AcDbEntity
  8
AM_0 外形線1
100
AcDbLine
 10
43.89999999999964
 20
593.5923050000001
 30
0.0
 11
57.03680599999916
 21
593.5923050000001
 31
0.0
  0
LINE
  5
500F
330
4FE0
100
AcDbEntity
  8
AM_0 外形線1
100
AcDbLine
 10
58.89999999999964
 20
619.9076949999997
 30
0.0
 11
58.89999999999964
 21
588.6999999999998
 31
0.0
  0
LINE
  5
5010
330
4FE0
100
AcDbEntity
  8
AM_0 外形線1
100
AcDbLine
 10
38.0
 20
603.0
 30
0.0
 11
43.89999999999964
 21
607.0
 31
0.0
  0
LINE
  5
5011
330
4FE0
100
AcDbEntity
  8
AM_0 外形線1
100
AcDbLine
 10
43.89999999999964
 20
605.0
 30
0.0
 11
38.0
 21
601.0
 31
0.0
  0
LINE
  5
5012
330
4FE0
100
AcDbEntity
  8
AM_0 外形線1
100
AcDbLine
 10
38.0
 20
538.0
 30
0.0
 11
38.0
 21
535.0
 31
0.0
  0
LINE
  5
5013
330
4FE0
100
AcDbEntity
  8
AM_0 外形線1
100
AcDbLine
 10
38.0
 20
627.5
 30
0.0
 11
38.0
 21
538.0
 31
0.0
  0
LINE
  5
5014
330
4FE0
100
AcDbEntity
  8
AM_0 外形線1
100
AcDbLine
 10
29.0
 20
538.0
 30
0.0
 11
29.0
 21
535.0
 31
0.0
  0
LINE
  5
5015
330
4FE0
100
AcDbEntity
  8
AM_0 外形線1
100
AcDbLine
 10
29.0
 20
538.0
 30
0.0
 11
29.0
 21
551.6499999999999
 31
0.0
  0
LINE
  5
5016
330
4FE0
100
AcDbEntity
  8
AM_0 外形線1
100
AcDbLine
 10
38.0
 20
538.0
 30
0.0
 11
29.0
 21
538.0
 31
0.0
  0
LINE
  5
5017
330
4FE0
100
AcDbEntity
  8
AM_0 外形線1
100
AcDbLine
 10
4.5
 20
578.0
 30
0.0
 11
-8.0
 21
577.9999999999994
 31
0.0
  0
LINE
  5
5018
330
4FE0
100
AcDbEntity
  8
AM_0 外形線1
100
AcDbLine
 10
0.0
 20
627.5000000000003
 30
0.0
 11
38.0
 21
627.5
 31
0.0
  0
LINE
  5
5019
330
4FE0
100
AcDbEntity
  8
AM_0 外形線1
100
AcDbLine
 10
38.0
 20
-608.4999999999999
 30
0.0
 11
38.0
 21
0.0
 31
0.0
  0
LINE
  5
5098
330
4FE0
100
AcDbEntity
  8
AM_0 外形線1
100
AcDbLine
 10
0.0
 20
585.1999999999998
 30
0.0
 11
0.0
 21
592.0
 31
0.0
  0
LINE
  5
5099
330
4FE0
100
AcDbEntity
  8
AM_0 外形線1
100
AcDbLine
 10
0.0
 20
616.0
 30
0.0
 11
0.0
 21
627.5
 31
0.0
  0
LINE
  5
509A
330
4FE0
100
AcDbEntity
  8
AM_0 外形線1
100
AcDbLine
 10
0.0
 20
627.5
 30
0.0
 11
0.0
 21
625.3139957723655
 31
0.0
  0
LINE
  5
509B
330
4FE0
100
AcDbEntity
  8
AM_7 中心線
100
AcDbLine
 10
-23.34351264251836
 20
-603.9999999999986
 30
0.0
 11
64.46882900000537
 21
-603.9999999999983
 31
0.0
  0
ENDBLK
  5
4FE2
330
4FE0
100
AcDbEntity
  8
0
100
AcDbBlockEnd
  0
BLOCK
  5
55E5
330
55E4
100
AcDbEntity
  8
0
100
AcDbBlockBegin
  2
*D13
 70
     1
 10
0.0
 20
0.0
 30
0.0
  3
*D13
  1

  0
LINE
  5
5BF4
330
55E4
100
AcDbEntity
  8
AM_5 寸法線
 62
     3
100
AcDbLine
 10
2272.604397652279
 20
3844.857719138202
 30
0.0
 11
1942.604397652279
 21
3844.857719138202
 31
0.0
  0
LINE
  5
5BF5
330
55E4
100
AcDbEntity
  8
AM_5 寸法線
 62
     3
100
AcDbLine
 10
2272.604397652279
 20
2664.857719138203
 30
0.0
 11
1942.604397652279
 21
2664.857719138203
 31
0.0
  0
LINE
  5
5BF6
330
55E4
100
AcDbEntity
  8
AM_5 寸法線
 62
     3
100
AcDbLine
 10
1951.979397652279
 20
3807.357719138202
 30
0.0
 11
1951.979397652278
 21
2702.357719138202
 31
0.0
  0
INSERT
  5
5BF7
330
55E4
100
AcDbEntity
  8
AM_5 寸法線
 62
     3
100
AcDbBlockReference
  2
_Open30
 10
1951.979397652279
 20
3844.857719138202
 30
0.0
 41
37.5
 42
37.5
 43
37.5
 50
90.0
  0
INSERT
  5
5BF8
330
55E4
100
AcDbEntity
  8
AM_5 寸法線
 62
     3
100
AcDbBlockReference
  2
_Open30
 10
1951.979397652278
 20
2664.857719138203
 30
0.0
 41
37.5
 42
37.5
 43
37.5
 50
270.0
  0
MTEXT
  5
5BF9
330
55E4
100
AcDbEntity
  8
AM_5 寸法線
 62
     3
100
AcDbMText
 10
1903.229397652278
 20
3254.857719138203
 30
0.0
 40
52.5
 41
0.0
 46
0.0
 71
     5
 72
     1
  1
%%c1180
  7
SEISA
 11
0.0000000000000001
 21
1.0
 31
0.0
 73
     1
 44
1.0
  0
POINT
  5
5BFA
330
55E4
100
AcDbEntity
  8
Defpoints
 62
     0
100
AcDbPoint
 10
2281.979397652279
 20
3844.857719138202
 30
0.0
  0
POINT
  5
5BFB
330
55E4
100
AcDbEntity
  8
Defpoints
 62
     0
100
AcDbPoint
 10
2281.979397652279
 20
2664.857719138203
 30
0.0
  0
POINT
  5
5BFC
330
55E4
100
AcDbEntity
  8
Defpoints
 62
     0
100
AcDbPoint
 10
1951.979397652278
 20
2664.857719138203
 30
0.0
  0
ENDBLK
  5
55E6
330
55E4
100
AcDbEntity
  8
0
100
AcDbBlockEnd
  0
BLOCK
  5
562A
330
5629
100
AcDbEntity
  8
0
100
AcDbBlockBegin
  2
*D14
 70
     1
 10
0.0
 20
0.0
 30
0.0
  3
*D14
  1

  0
LINE
  5
5BFD
330
5629
100
AcDbEntity
  8
AM_5 寸法線
 62
     3
100
AcDbLine
 10
3051.979397652279
 20
3264.232719138203
 30
0.0
 11
3051.979397652279
 21
3390.853910138203
 31
0.0
  0
LINE
  5
5BFE
330
5629
100
AcDbEntity
  8
AM_5 寸法線
 62
     3
100
AcDbLine
 10
2251.979397652279
 20
3264.232719138203
 30
0.0
 11
2251.979397652279
 21
3390.853910138203
 31
0.0
  0
LINE
  5
5BFF
330
5629
100
AcDbEntity
  8
AM_5 寸法線
 62
     3
100
AcDbLine
 10
3014.479397652279
 20
3381.478910138203
 30
0.0
 11
2289.479397652279
 21
3381.478910138203
 31
0.0
  0
INSERT
  5
5C00
330
5629
100
AcDbEntity
  8
AM_5 寸法線
 62
     3
100
AcDbBlockReference
  2
_Open30
 10
3051.979397652279
 20
3381.478910138203
 30
0.0
 41
37.5
 42
37.5
 43
37.5
  0
INSERT
  5
5C01
330
5629
100
AcDbEntity
  8
AM_5 寸法線
 62
     3
100
AcDbBlockReference
  2
_Open30
 10
2251.979397652279
 20
3381.478910138203
 30
0.0
 41
37.5
 42
37.5
 43
37.5
 50
180.0
  0
MTEXT
  5
5C02
330
5629
100
AcDbEntity
  8
AM_5 寸法線
 62
     3
100
AcDbMText
 10
2651.979397652279
 20
3430.228910138203
 30
0.0
 40
52.5
 41
0.0
 46
0.0
 71
     5
 72
     1
  1
800
  7
SEISA
 73
     1
 44
1.0
  0
POINT
  5
5C03
330
5629
100
AcDbEntity
  8
Defpoints
 62
     0
100
AcDbPoint
 10
3051.979397652279
 20
3254.857719138203
 30
0.0
  0
POINT
  5
5C04
330
5629
100
AcDbEntity
  8
Defpoints
 62
     0
100
AcDbPoint
 10
2251.979397652279
 20
3254.857719138203
 30
0.0
  0
POINT
  5
5C05
330
5629
100
AcDbEntity
  8
Defpoints
 62
     0
100
AcDbPoint
 10
2251.979397652279
 20
3381.478910138203
 30
0.0
  0
ENDBLK
  5
562B
330
5629
100
AcDbEntity
  8
0
100
AcDbBlockEnd
  0
BLOCK
  5
5642
330
5641
100
AcDbEntity
  8
0
100
AcDbBlockBegin
  2
*D15
 70
     1
 10
0.0
 20
0.0
 30
0.0
  3
*D15
  1

  0
LINE
  5
5C06
330
5641
100
AcDbEntity
  8
AM_5 寸法線
 62
     3
100
AcDbLine
 10
3101.979397652279
 20
3264.232719138203
 30
0.0
 11
3101.979397652279
 21
3390.853910138203
 31
0.0
  0
LINE
  5
5C07
330
5641
100
AcDbEntity
  8
AM_5 寸法線
 62
     3
100
AcDbLine
 10
3051.979397652279
 20
3264.232719138203
 30
0.0
 11
3051.979397652279
 21
3390.853910138203
 31
0.0
  0
LINE
  5
5C08
330
5641
100
AcDbEntity
  8
AM_5 寸法線
 62
     3
100
AcDbLine
 10
3139.479397652279
 20
3381.478910138203
 30
0.0
 11
3176.979397652279
 21
3381.478910138203
 31
0.0
  0
LINE
  5
5C09
330
5641
100
AcDbEntity
  8
AM_5 寸法線
 62
     3
100
AcDbLine
 10
3014.479397652279
 20
3381.478910138203
 30
0.0
 11
2976.979397652279
 21
3381.478910138203
 31
0.0
  0
MTEXT
  5
5C0A
330
5641
100
AcDbEntity
  8
AM_5 寸法線
 62
     3
100
AcDbMText
 10
3191.989255368404
 20
3429.736166548073
 30
0.0
 40
52.5
 41
0.0
 46
0.0
 71
     5
 72
     1
  1
50
  7
SEISA
 73
     1
 44
1.0
  0
LINE
  5
5C0B
330
5641
100
AcDbEntity
  8
AM_5 寸法線
 62
     3
100
AcDbLine
 10
3101.979397652279
 20
3381.478910138203
 30
0.0
 11
3051.979397652279
 21
3381.478910138203
 31
0.0
  0
INSERT
  5
5C0C
330
5641
100
AcDbEntity
  8
AM_5 寸法線
 62
     3
100
AcDbBlockReference
  2
_Open30
 10
3101.979397652279
 20
3381.478910138203
 30
0.0
 41
37.5
 42
37.5
 43
37.5
 50
180.0
  0
INSERT
  5
5C0D
330
5641
100
AcDbEntity
  8
AM_5 寸法線
 62
     3
100
AcDbBlockReference
  2
_Open30
 10
3051.979397652279
 20
3381.478910138203
 30
0.0
 41
37.5
 42
37.5
 43
37.5
  0
POINT
  5
5C0E
330
5641
100
AcDbEntity
  8
Defpoints
 62
     0
100
AcDbPoint
 10
3101.979397652279
 20
3254.857719138203
 30
0.0
  0
POINT
  5
5C0F
330
5641
100
AcDbEntity
  8
Defpoints
 62
     0
100
AcDbPoint
 10
3051.979397652279
 20
3254.857719138203
 30
0.0
  0
POINT
  5
5C10
330
5641
100
AcDbEntity
  8
Defpoints
 62
     0
100
AcDbPoint
 10
3051.979397652279
 20
3381.478910138203
 30
0.0
  0
ENDBLK
  5
5643
330
5641
100
AcDbEntity
  8
0
100
AcDbBlockEnd
  0
BLOCK
  5
565E
330
565D
100
AcDbEntity
  8
0
100
AcDbBlockBegin
  2
*D16
 70
     1
 10
0.0
 20
0.0
 30
0.0
  3
*D16
  1

  0
LINE
  5
5C11
330
565D
100
AcDbEntity
  8
AM_5 寸法線
 62
     3
100
AcDbLine
 10
3101.979397652279
 20
3264.232719138203
 30
0.0
 11
3101.979397652279
 21
3390.853910138203
 31
0.0
  0
LINE
  5
5C12
330
565D
100
AcDbEntity
  8
AM_5 寸法線
 62
     3
100
AcDbLine
 10
3901.979397652279
 20
3264.232719138203
 30
0.0
 11
3901.979397652279
 21
3390.853910138203
 31
0.0
  0
LINE
  5
5C13
330
565D
100
AcDbEntity
  8
AM_5 寸法線
 62
     3
100
AcDbLine
 10
3139.479397652279
 20
3381.478910138203
 30
0.0
 11
3864.479397652279
 21
3381.478910138203
 31
0.0
  0
INSERT
  5
5C14
330
565D
100
AcDbEntity
  8
AM_5 寸法線
 62
     3
100
AcDbBlockReference
  2
_Open30
 10
3101.979397652279
 20
3381.478910138203
 30
0.0
 41
37.5
 42
37.5
 43
37.5
 50
180.0
  0
INSERT
  5
5C15
330
565D
100
AcDbEntity
  8
AM_5 寸法線
 62
     3
100
AcDbBlockReference
  2
_Open30
 10
3901.979397652279
 20
3381.478910138203
 30
0.0
 41
37.5
 42
37.5
 43
37.5
  0
MTEXT
  5
5C16
330
565D
100
AcDbEntity
  8
AM_5 寸法線
 62
     3
100
AcDbMText
 10
3501.979397652279
 20
3430.228910138203
 30
0.0
 40
52.5
 41
0.0
 46
0.0
 71
     5
 72
     1
  1
800
  7
SEISA
 73
     1
 44
1.0
  0
POINT
  5
5C17
330
565D
100
AcDbEntity
  8
Defpoints
 62
     0
100
AcDbPoint
 10
3101.979397652279
 20
3254.857719138203
 30
0.0
  0
POINT
  5
5C18
330
565D
100
AcDbEntity
  8
Defpoints
 62
     0
100
AcDbPoint
 10
3901.979397652279
 20
3254.857719138203
 30
0.0
  0
POINT
  5
5C19
330
565D
100
AcDbEntity
  8
Defpoints
 62
     0
100
AcDbPoint
 10
3901.979397652279
 20
3381.478910138203
 30
0.0
  0
ENDBLK
  5
565F
330
565D
100
AcDbEntity
  8
0
100
AcDbBlockEnd
  0
BLOCK
  5
5694
330
5693
100
AcDbEntity
  8
0
100
AcDbBlockBegin
  2
*D17
 70
     1
 10
0.0
 20
0.0
 30
0.0
  3
*D17
  1

  0
LINE
  5
5C1A
330
5693
100
AcDbEntity
  8
AM_5 寸法線
 62
     3
100
AcDbLine
 10
3479.979397652279
 20
3780.482719138202
 30
0.0
 11
3479.979397652279
 21
3651.125258157938
 31
0.0
  0
LINE
  5
5C1B
330
5693
100
AcDbEntity
  8
AM_5 寸法線
 62
     3
100
AcDbLine
 10
3463.479397652279
 20
3780.982719138203
 30
0.0
 11
3463.479397652279
 21
3651.125258157938
 31
0.0
  0
LINE
  5
5C1C
330
5693
100
AcDbEntity
  8
AM_5 寸法線
 62
     3
100
AcDbLine
 10
3425.979397652279
 20
3660.500258157938
 30
0.0
 11
3388.479397652279
 21
3660.500258157938
 31
0.0
  0
LINE
  5
5C1D
330
5693
100
AcDbEntity
  8
AM_5 寸法線
 62
     3
100
AcDbLine
 10
3517.479397652279
 20
3660.500258157938
 30
0.0
 11
3737.229397652279
 21
3660.500258157938
 31
0.0
  0
LINE
  5
5C1E
330
5693
100
AcDbEntity
  8
AM_5 寸法線
 62
     3
100
AcDbLine
 10
3463.479397652279
 20
3660.500258157938
 30
0.0
 11
3479.979397652279
 21
3660.500258157938
 31
0.0
  0
INSERT
  5
5C1F
330
5693
100
AcDbEntity
  8
AM_5 寸法線
 62
     3
100
AcDbBlockReference
  2
_Open30
 10
3463.479397652279
 20
3660.500258157938
 30
0.0
 41
37.5
 42
37.5
 43
37.5
  0
INSERT
  5
5C20
330
5693
100
AcDbEntity
  8
AM_5 寸法線
 62
     3
100
AcDbBlockReference
  2
_Open30
 10
3479.979397652279
 20
3660.500258157938
 30
0.0
 41
37.5
 42
37.5
 43
37.5
 50
180.0
  0
MTEXT
  5
5C21
330
5693
100
AcDbEntity
  8
AM_5 寸法線
 62
     3
100
AcDbMText
 10
3646.10439765228
 20
3709.250258157938
 30
0.0
 40
52.5
 41
0.0
 46
0.0
 71
     5
 72
     1
  1
16.5
  7
SEISA
 73
     1
 44
1.0
  0
POINT
  5
5C22
330
5693
100
AcDbEntity
  8
Defpoints
 62
     0
100
AcDbPoint
 10
3479.979397652279
 20
3789.857719138203
 30
0.0
  0
POINT
  5
5C23
102
{ACAD_REACTORS
330
6877
102
}
330
5693
100
AcDbEntity
  8
Defpoints
 62
     0
100
AcDbPoint
 10
3463.479397652279
 20
3790.357719138203
 30
0.0
  0
POINT
  5
5C24
330
5693
100
AcDbEntity
  8
Defpoints
 62
     0
100
AcDbPoint
 10
3463.479397652279
 20
3660.500258157938
 30
0.0
  0
ENDBLK
  5
5695
330
5693
100
AcDbEntity
  8
0
100
AcDbBlockEnd
  0
BLOCK
  5
56ED
330
56EC
100
AcDbEntity
  8
0
100
AcDbBlockBegin
  2
*D18
 70
     1
 10
0.0
 20
0.0
 30
0.0
  3
*D18
  1

  0
LINE
  5
5C25
330
56EC
100
AcDbEntity
  8
AM_5 寸法線
 62
     3
100
AcDbLine
 10
3076.979397652279
 20
2548.482719138204
 30
0.0
 11
3076.979397652279
 21
2365.482719138202
 31
0.0
  0
LINE
  5
5C26
330
56EC
100
AcDbEntity
  8
AM_5 寸法線
 62
     3
100
AcDbLine
 10
3006.979397652279
 20
2549.482719138203
 30
0.0
 11
3006.979397652279
 21
2365.482719138202
 31
0.0
  0
LINE
  5
5C27
330
56EC
100
AcDbEntity
  8
AM_5 寸法線
 62
     3
100
AcDbLine
 10
3114.479397652279
 20
2374.857719138202
 30
0.0
 11
3151.979397652279
 21
2374.857719138202
 31
0.0
  0
LINE
  5
5C28
330
56EC
100
AcDbEntity
  8
AM_5 寸法線
 62
     3
100
AcDbLine
 10
2969.479397652279
 20
2374.857719138202
 30
0.0
 11
2810.479397652279
 21
2374.857719138202
 31
0.0
  0
LINE
  5
5C29
330
56EC
100
AcDbEntity
  8
AM_5 寸法線
 62
     3
100
AcDbLine
 10
3076.979397652279
 20
2374.857719138202
 30
0.0
 11
3006.979397652279
 21
2374.857719138202
 31
0.0
  0
INSERT
  5
5C2A
330
56EC
100
AcDbEntity
  8
AM_5 寸法線
 62
     3
100
AcDbBlockReference
  2
GENDOT
 10
3076.979397652279
 20
2374.857719138202
 30
0.0
 41
37.5
 42
37.5
 43
37.5
 50
180.0
  0
INSERT
  5
5C2B
330
56EC
100
AcDbEntity
  8
AM_5 寸法線
 62
     3
100
AcDbBlockReference
  2
_Open30
 10
3006.979397652279
 20
2374.857719138202
 30
0.0
 41
37.5
 42
37.5
 43
37.5
  0
MTEXT
  5
5C2C
330
56EC
100
AcDbEntity
  8
AM_5 寸法線
 62
     3
100
AcDbMText
 10
2871.22939765228
 20
2423.607719138202
 30
0.0
 40
52.5
 41
0.0
 46
0.0
 71
     5
 72
     1
  1
70
  7
SEISA
 73
     1
 44
1.0
  0
POINT
  5
5C2D
330
56EC
100
AcDbEntity
  8
Defpoints
 62
     0
100
AcDbPoint
 10
3076.979397652279
 20
2557.857719138203
 30
0.0
  0
POINT
  5
5C2E
330
56EC
100
AcDbEntity
  8
Defpoints
 62
     0
100
AcDbPoint
 10
3006.979397652279
 20
2558.857719138203
 30
0.0
  0
POINT
  5
5C2F
330
56EC
100
AcDbEntity
  8
Defpoints
 62
     0
100
AcDbPoint
 10
3006.979397652279
 20
2374.857719138202
 30
0.0
  0
ENDBLK
  5
56EE
330
56EC
100
AcDbEntity
  8
0
100
AcDbBlockEnd
  0
BLOCK
  5
5709
330
5708
100
AcDbEntity
  8
0
100
AcDbBlockBegin
  2
*D19
 70
     1
 10
0.0
 20
0.0
 30
0.0
  3
*D19
  1

  0
LINE
  5
5C30
330
5708
100
AcDbEntity
  8
AM_5 寸法線
 62
     3
100
AcDbLine
 10
3076.979397652279
 20
2548.482719138204
 30
0.0
 11
3076.979397652279
 21
2365.482719138202
 31
0.0
  0
LINE
  5
5C31
330
5708
100
AcDbEntity
  8
AM_5 寸法線
 62
     3
100
AcDbLine
 10
3146.979397652279
 20
2548.482719138204
 30
0.0
 11
3146.979397652279
 21
2365.482719138202
 31
0.0
  0
LINE
  5
5C32
330
5708
100
AcDbEntity
  8
AM_5 寸法線
 62
     3
100
AcDbLine
 10
3039.479397652279
 20
2374.857719138202
 30
0.0
 11
3001.979397652279
 21
2374.857719138202
 31
0.0
  0
LINE
  5
5C33
330
5708
100
AcDbEntity
  8
AM_5 寸法線
 62
     3
100
AcDbLine
 10
3184.47939765228
 20
2374.857719138202
 30
0.0
 11
3343.479397652279
 21
2374.857719138202
 31
0.0
  0
LINE
  5
5C34
330
5708
100
AcDbEntity
  8
AM_5 寸法線
 62
     3
100
AcDbLine
 10
3076.979397652279
 20
2374.857719138202
 30
0.0
 11
3146.979397652279
 21
2374.857719138202
 31
0.0
  0
INSERT
  5
5C35
330
5708
100
AcDbEntity
  8
AM_5 寸法線
 62
     3
100
AcDbBlockReference
  2
GENDOT
 10
3076.979397652279
 20
2374.857719138202
 30
0.0
 41
37.5
 42
37.5
 43
37.5
  0
INSERT
  5
5C36
330
5708
100
AcDbEntity
  8
AM_5 寸法線
 62
     3
100
AcDbBlockReference
  2
_Open30
 10
3146.979397652279
 20
2374.857719138202
 30
0.0
 41
37.5
 42
37.5
 43
37.5
 50
180.0
  0
MTEXT
  5
5C37
330
5708
100
AcDbEntity
  8
AM_5 寸法線
 62
     3
100
AcDbMText
 10
3282.72939765228
 20
2423.607719138202
 30
0.0
 40
52.5
 41
0.0
 46
0.0
 71
     5
 72
     1
  1
70
  7
SEISA
 73
     1
 44
1.0
  0
POINT
  5
5C38
330
5708
100
AcDbEntity
  8
Defpoints
 62
     0
100
AcDbPoint
 10
3076.979397652279
 20
2557.857719138203
 30
0.0
  0
POINT
  5
5C39
330
5708
100
AcDbEntity
  8
Defpoints
 62
     0
100
AcDbPoint
 10
3146.979397652279
 20
2557.857719138203
 30
0.0
  0
POINT
  5
5C3A
330
5708
100
AcDbEntity
  8
Defpoints
 62
     0
100
AcDbPoint
 10
3146.979397652279
 20
2374.857719138202
 30
0.0
  0
ENDBLK
  5
570A
330
5708
100
AcDbEntity
  8
0
100
AcDbBlockEnd
  0
BLOCK
  5
5725
330
5724
100
AcDbEntity
  8
0
100
AcDbBlockBegin
  2
*D20
 70
     1
 10
0.0
 20
0.0
 30
0.0
  3
*D20
  1

  0
LINE
  5
5C3B
330
5724
100
AcDbEntity
  8
AM_5 寸法線
 62
     3
100
AcDbLine
 10
3076.979397652279
 20
2548.482719138204
 30
0.0
 11
3076.979397652279
 21
2245.482719138202
 31
0.0
  0
LINE
  5
5C3C
330
5724
100
AcDbEntity
  8
AM_5 寸法線
 62
     3
100
AcDbLine
 10
2251.979397652279
 20
2685.482719138204
 30
0.0
 11
2251.979397652279
 21
2245.482719138202
 31
0.0
  0
LINE
  5
5C3D
330
5724
100
AcDbEntity
  8
AM_5 寸法線
 62
     3
100
AcDbLine
 10
3039.479397652279
 20
2254.857719138202
 30
0.0
 11
2289.479397652279
 21
2254.857719138202
 31
0.0
  0
INSERT
  5
5C3E
330
5724
100
AcDbEntity
  8
AM_5 寸法線
 62
     3
100
AcDbBlockReference
  2
_Open30
 10
3076.979397652279
 20
2254.857719138202
 30
0.0
 41
37.5
 42
37.5
 43
37.5
  0
INSERT
  5
5C3F
330
5724
100
AcDbEntity
  8
AM_5 寸法線
 62
     3
100
AcDbBlockReference
  2
_Open30
 10
2251.979397652279
 20
2254.857719138202
 30
0.0
 41
37.5
 42
37.5
 43
37.5
 50
180.0
  0
MTEXT
  5
5C40
330
5724
100
AcDbEntity
  8
AM_5 寸法線
 62
     3
100
AcDbMText
 10
2664.479397652279
 20
2303.607719138202
 30
0.0
 40
52.5
 41
0.0
 46
0.0
 71
     5
 72
     1
  1
825
  7
SEISA
 73
     1
 44
1.0
  0
POINT
  5
5C41
330
5724
100
AcDbEntity
  8
Defpoints
 62
     0
100
AcDbPoint
 10
3076.979397652279
 20
2557.857719138203
 30
0.0
  0
POINT
  5
5C42
330
5724
100
AcDbEntity
  8
Defpoints
 62
     0
100
AcDbPoint
 10
2251.979397652279
 20
2694.857719138203
 30
0.0
  0
POINT
  5
5C43
330
5724
100
AcDbEntity
  8
Defpoints
 62
     0
100
AcDbPoint
 10
2251.979397652279
 20
2254.857719138202
 30
0.0
  0
ENDBLK
  5
5726
330
5724
100
AcDbEntity
  8
0
100
AcDbBlockEnd
  0
BLOCK
  5
573D
330
573C
100
AcDbEntity
  8
0
100
AcDbBlockBegin
  2
*D21
 70
     1
 10
0.0
 20
0.0
 30
0.0
  3
*D21
  1

  0
LINE
  5
5C44
330
573C
100
AcDbEntity
  8
AM_5 寸法線
 62
     3
100
AcDbLine
 10
3076.979397652279
 20
2548.482719138204
 30
0.0
 11
3076.979397652279
 21
2245.482719138202
 31
0.0
  0
LINE
  5
5C45
330
573C
100
AcDbEntity
  8
AM_5 寸法線
 62
     3
100
AcDbLine
 10
3525.979397652279
 20
2617.982719138203
 30
0.0
 11
3525.979397652279
 21
2245.482719138202
 31
0.0
  0
LINE
  5
5C46
330
573C
100
AcDbEntity
  8
AM_5 寸法線
 62
     3
100
AcDbLine
 10
3114.479397652279
 20
2254.857719138202
 30
0.0
 11
3488.479397652279
 21
2254.857719138202
 31
0.0
  0
INSERT
  5
5C47
330
573C
100
AcDbEntity
  8
AM_5 寸法線
 62
     3
100
AcDbBlockReference
  2
_Open30
 10
3076.979397652279
 20
2254.857719138202
 30
0.0
 41
37.5
 42
37.5
 43
37.5
 50
180.0
  0
INSERT
  5
5C48
330
573C
100
AcDbEntity
  8
AM_5 寸法線
 62
     3
100
AcDbBlockReference
  2
_Open30
 10
3525.979397652279
 20
2254.857719138202
 30
0.0
 41
37.5
 42
37.5
 43
37.5
  0
MTEXT
  5
5C49
330
573C
100
AcDbEntity
  8
AM_5 寸法線
 62
     3
100
AcDbMText
 10
3301.47939765228
 20
2303.607719138202
 30
0.0
 40
52.5
 41
0.0
 46
0.0
 71
     5
 72
     1
  1
449
  7
SEISA
 73
     1
 44
1.0
  0
POINT
  5
5C4A
330
573C
100
AcDbEntity
  8
Defpoints
 62
     0
100
AcDbPoint
 10
3076.979397652279
 20
2557.857719138203
 30
0.0
  0
POINT
  5
5C4B
330
573C
100
AcDbEntity
  8
Defpoints
 62
     0
100
AcDbPoint
 10
3525.979397652279
 20
2627.357719138203
 30
0.0
  0
POINT
  5
5C4C
330
573C
100
AcDbEntity
  8
Defpoints
 62
     0
100
AcDbPoint
 10
3525.979397652279
 20
2254.857719138202
 30
0.0
  0
ENDBLK
  5
573E
330
573C
100
AcDbEntity
  8
0
100
AcDbBlockEnd
  0
BLOCK
  5
5755
330
5754
100
AcDbEntity
  8
0
100
AcDbBlockBegin
  2
*D22
 70
     1
 10
0.0
 20
0.0
 30
0.0
  3
*D22
  1

  0
LINE
  5
5C4D
330
5754
100
AcDbEntity
  8
AM_5 寸法線
 62
     3
100
AcDbLine
 10
3525.979397652279
 20
2617.982719138203
 30
0.0
 11
3525.979397652279
 21
2245.482719138202
 31
0.0
  0
LINE
  5
5C4E
330
5754
100
AcDbEntity
  8
AM_5 寸法線
 62
     3
100
AcDbLine
 10
3901.979397652279
 20
2742.482719138203
 30
0.0
 11
3901.979397652279
 21
2245.482719138202
 31
0.0
  0
LINE
  5
5C4F
330
5754
100
AcDbEntity
  8
AM_5 寸法線
 62
     3
100
AcDbLine
 10
3563.47939765228
 20
2254.857719138202
 30
0.0
 11
3864.479397652279
 21
2254.857719138202
 31
0.0
  0
INSERT
  5
5C50
330
5754
100
AcDbEntity
  8
AM_5 寸法線
 62
     3
100
AcDbBlockReference
  2
_Open30
 10
3525.979397652279
 20
2254.857719138202
 30
0.0
 41
37.5
 42
37.5
 43
37.5
 50
180.0
  0
INSERT
  5
5C51
330
5754
100
AcDbEntity
  8
AM_5 寸法線
 62
     3
100
AcDbBlockReference
  2
_Open30
 10
3901.979397652279
 20
2254.857719138202
 30
0.0
 41
37.5
 42
37.5
 43
37.5
  0
MTEXT
  5
5C52
330
5754
100
AcDbEntity
  8
AM_5 寸法線
 62
     3
100
AcDbMText
 10
3713.97939765228
 20
2303.607719138202
 30
0.0
 40
52.5
 41
0.0
 46
0.0
 71
     5
 72
     1
  1
376
  7
SEISA
 73
     1
 44
1.0
  0
POINT
  5
5C53
330
5754
100
AcDbEntity
  8
Defpoints
 62
     0
100
AcDbPoint
 10
3525.979397652279
 20
2627.357719138203
 30
0.0
  0
POINT
  5
5C54
330
5754
100
AcDbEntity
  8
Defpoints
 62
     0
100
AcDbPoint
 10
3901.979397652279
 20
2751.857719138202
 30
0.0
  0
POINT
  5
5C55
330
5754
100
AcDbEntity
  8
Defpoints
 62
     0
100
AcDbPoint
 10
3901.979397652279
 20
2254.857719138202
 30
0.0
  0
ENDBLK
  5
5756
330
5754
100
AcDbEntity
  8
0
100
AcDbBlockEnd
  0
BLOCK
  5
576D
330
576C
100
AcDbEntity
  8
0
100
AcDbBlockBegin
  2
*D23
 70
     1
 10
0.0
 20
0.0
 30
0.0
  3
*D23
  1

  0
LINE
  5
5C56
330
576C
100
AcDbEntity
  8
AM_5 寸法線
 62
     3
100
AcDbLine
 10
2251.979397652279
 20
2685.482719138204
 30
0.0
 11
2251.979397652279
 21
2125.482719138203
 31
0.0
  0
LINE
  5
5C57
330
576C
100
AcDbEntity
  8
AM_5 寸法線
 62
     3
100
AcDbLine
 10
3901.979397652279
 20
2742.482719138203
 30
0.0
 11
3901.979397652279
 21
2125.482719138203
 31
0.0
  0
LINE
  5
5C58
330
576C
100
AcDbEntity
  8
AM_5 寸法線
 62
     3
100
AcDbLine
 10
2289.479397652279
 20
2134.857719138202
 30
0.0
 11
3864.479397652279
 21
2134.857719138202
 31
0.0
  0
INSERT
  5
5C59
330
576C
100
AcDbEntity
  8
AM_5 寸法線
 62
     3
100
AcDbBlockReference
  2
_Open30
 10
2251.979397652279
 20
2134.857719138202
 30
0.0
 41
37.5
 42
37.5
 43
37.5
 50
180.0
  0
INSERT
  5
5C5A
330
576C
100
AcDbEntity
  8
AM_5 寸法線
 62
     3
100
AcDbBlockReference
  2
_Open30
 10
3901.979397652279
 20
2134.857719138202
 30
0.0
 41
37.5
 42
37.5
 43
37.5
  0
MTEXT
  5
5C5B
330
576C
100
AcDbEntity
  8
AM_5 寸法線
 62
     3
100
AcDbMText
 10
3076.979397652279
 20
2183.607719138203
 30
0.0
 40
52.5
 41
0.0
 46
0.0
 71
     5
 72
     1
  1
1650
  7
SEISA
 73
     1
 44
1.0
  0
POINT
  5
5C5C
330
576C
100
AcDbEntity
  8
Defpoints
 62
     0
100
AcDbPoint
 10
2251.979397652279
 20
2694.857719138203
 30
0.0
  0
POINT
  5
5C5D
330
576C
100
AcDbEntity
  8
Defpoints
 62
     0
100
AcDbPoint
 10
3901.979397652279
 20
2751.857719138202
 30
0.0
  0
POINT
  5
5C5E
330
576C
100
AcDbEntity
  8
Defpoints
 62
     0
100
AcDbPoint
 10
3901.979397652279
 20
2134.857719138202
 30
0.0
  0
ENDBLK
  5
576E
330
576C
100
AcDbEntity
  8
0
100
AcDbBlockEnd
  0
BLOCK
  5
5934
330
5933
100
AcDbEntity
  8
0
100
AcDbBlockBegin
  2
*D24
 70
     1
 10
0.0
 20
0.0
 30
0.0
  3
*D24
  1

  0
LINE
  5
5C7A
330
5933
100
AcDbEntity
  8
AM_5 寸法線
 62
     3
100
AcDbLine
 10
3585.35439765228
 20
3789.857719138203
 30
0.0
 11
4211.354397652279
 21
3789.857719138203
 31
0.0
  0
LINE
  5
5C7B
330
5933
100
AcDbEntity
  8
AM_5 寸法線
 62
     3
100
AcDbLine
 10
3585.35439765228
 20
2719.857719138202
 30
0.0
 11
4211.354397652279
 21
2719.857719138202
 31
0.0
  0
LINE
  5
5C7C
330
5933
100
AcDbEntity
  8
AM_5 寸法線
 62
     3
100
AcDbLine
 10
4201.979397652279
 20
3752.357719138203
 30
0.0
 11
4201.979397652279
 21
2757.357719138203
 31
0.0
  0
INSERT
  5
5C7D
330
5933
100
AcDbEntity
  8
AM_5 寸法線
 62
     3
100
AcDbBlockReference
  2
_Open30
 10
4201.979397652279
 20
3789.857719138203
 30
0.0
 41
37.5
 42
37.5
 43
37.5
 50
90.0
  0
INSERT
  5
5C7E
330
5933
100
AcDbEntity
  8
AM_5 寸法線
 62
     3
100
AcDbBlockReference
  2
_Open30
 10
4201.979397652279
 20
2719.857719138202
 30
0.0
 41
37.5
 42
37.5
 43
37.5
 50
270.0
  0
MTEXT
  5
5C7F
330
5933
100
AcDbEntity
  8
AM_5 寸法線
 62
     3
100
AcDbMText
 10
4153.229397652277
 20
3254.857719138203
 30
0.0
 40
52.5
 41
0.0
 46
0.0
 71
     5
 72
     1
  1
%%c1070
  7
SEISA
 11
0.0000000000000001
 21
1.0
 31
0.0
 73
     1
 44
1.0
  0
POINT
  5
5C80
330
5933
100
AcDbEntity
  8
Defpoints
 62
     0
100
AcDbPoint
 10
3575.979397652279
 20
3789.857719138203
 30
0.0
  0
POINT
  5
5C81
330
5933
100
AcDbEntity
  8
Defpoints
 62
     0
100
AcDbPoint
 10
3575.979397652279
 20
2719.857719138202
 30
0.0
  0
POINT
  5
5C82
330
5933
100
AcDbEntity
  8
Defpoints
 62
     0
100
AcDbPoint
 10
4201.979397652279
 20
2719.857719138202
 30
0.0
  0
ENDBLK
  5
5935
330
5933
100
AcDbEntity
  8
0
100
AcDbBlockEnd
  0
BLOCK
  5
595E
330
595D
100
AcDbEntity
  8
0
100
AcDbBlockBegin
  2
*D25
 70
     1
 10
0.0
 20
0.0
 30
0.0
  3
*D25
  1

  0
LINE
  5
5C83
330
595D
100
AcDbEntity
  8
AM_5 寸法線
 62
     3
100
AcDbLine
 10
3535.354397652279
 20
3882.357719138202
 30
0.0
 11
4331.354397652279
 21
3882.357719138202
 31
0.0
  0
LINE
  5
5C84
330
595D
100
AcDbEntity
  8
AM_5 寸法線
 62
     3
100
AcDbLine
 10
3535.354397652279
 20
2627.357719138203
 30
0.0
 11
4331.354397652279
 21
2627.357719138203
 31
0.0
  0
LINE
  5
5C85
330
595D
100
AcDbEntity
  8
AM_5 寸法線
 62
     3
100
AcDbLine
 10
4321.979397652278
 20
3844.857719138202
 30
0.0
 11
4321.979397652278
 21
2664.857719138203
 31
0.0
  0
INSERT
  5
5C86
330
595D
100
AcDbEntity
  8
AM_5 寸法線
 62
     3
100
AcDbBlockReference
  2
_Open30
 10
4321.979397652278
 20
3882.357719138202
 30
0.0
 41
37.5
 42
37.5
 43
37.5
 50
90.0
  0
INSERT
  5
5C87
330
595D
100
AcDbEntity
  8
AM_5 寸法線
 62
     3
100
AcDbBlockReference
  2
_Open30
 10
4321.979397652278
 20
2627.357719138203
 30
0.0
 41
37.5
 42
37.5
 43
37.5
 50
270.0
  0
MTEXT
  5
5C88
330
595D
100
AcDbEntity
  8
AM_5 寸法線
 62
     3
100
AcDbMText
 10
4273.229397652277
 20
3254.857719138203
 30
0.0
 40
52.5
 41
0.0
 46
0.0
 71
     5
 72
     1
  1
%%c1255
  7
SEISA
 11
0.0000000000000001
 21
1.0
 31
0.0
 73
     1
 44
1.0
  0
POINT
  5
5C89
330
595D
100
AcDbEntity
  8
Defpoints
 62
     0
100
AcDbPoint
 10
3525.979397652279
 20
3882.357719138202
 30
0.0
  0
POINT
  5
5C8A
330
595D
100
AcDbEntity
  8
Defpoints
 62
     0
100
AcDbPoint
 10
3525.979397652279
 20
2627.357719138203
 30
0.0
  0
POINT
  5
5C8B
330
595D
100
AcDbEntity
  8
Defpoints
 62
     0
100
AcDbPoint
 10
4321.979397652278
 20
2627.357719138203
 30
0.0
  0
ENDBLK
  5
595F
330
595D
100
AcDbEntity
  8
0
100
AcDbBlockEnd
  0
BLOCK
  5
5976
330
5975
100
AcDbEntity
  8
0
100
AcDbBlockBegin
  2
*D26
 70
     1
 10
0.0
 20
0.0
 30
0.0
  3
*D26
  1

  0
LINE
  5
5C8C
330
5975
100
AcDbEntity
  8
AM_5 寸法線
 62
     3
100
AcDbLine
 10
3153.354397652279
 20
3954.857719138202
 30
0.0
 11
4451.35439765228
 21
3954.857719138202
 31
0.0
  0
LINE
  5
5C8D
330
5975
100
AcDbEntity
  8
AM_5 寸法線
 62
     3
100
AcDbLine
 10
3153.354397652279
 20
2554.857719138202
 30
0.0
 11
4451.35439765228
 21
2554.857719138202
 31
0.0
  0
LINE
  5
5C8E
330
5975
100
AcDbEntity
  8
AM_5 寸法線
 62
     3
100
AcDbLine
 10
4441.979397652279
 20
3917.357719138202
 30
0.0
 11
4441.979397652279
 21
2592.357719138203
 31
0.0
  0
INSERT
  5
5C8F
330
5975
100
AcDbEntity
  8
AM_5 寸法線
 62
     3
100
AcDbBlockReference
  2
_Open30
 10
4441.979397652279
 20
3954.857719138202
 30
0.0
 41
37.5
 42
37.5
 43
37.5
 50
90.0
  0
INSERT
  5
5C90
330
5975
100
AcDbEntity
  8
AM_5 寸法線
 62
     3
100
AcDbBlockReference
  2
_Open30
 10
4441.979397652279
 20
2554.857719138202
 30
0.0
 41
37.5
 42
37.5
 43
37.5
 50
270.0
  0
MTEXT
  5
5C91
330
5975
100
AcDbEntity
  8
AM_5 寸法線
 62
     3
100
AcDbMText
 10
4393.229397652278
 20
3254.857719138203
 30
0.0
 40
52.5
 41
0.0
 46
0.0
 71
     5
 72
     1
  1
%%c1400
  7
SEISA
 11
0.0000000000000001
 21
1.0
 31
0.0
 73
     1
 44
1.0
  0
POINT
  5
5C92
330
5975
100
AcDbEntity
  8
Defpoints
 62
     0
100
AcDbPoint
 10
3143.979397652279
 20
3954.857719138202
 30
0.0
  0
POINT
  5
5C93
330
5975
100
AcDbEntity
  8
Defpoints
 62
     0
100
AcDbPoint
 10
3143.979397652279
 20
2554.857719138202
 30
0.0
  0
POINT
  5
5C94
330
5975
100
AcDbEntity
  8
Defpoints
 62
     0
100
AcDbPoint
 10
4441.979397652279
 20
2554.857719138202
 30
0.0
  0
ENDBLK
  5
5977
330
5975
100
AcDbEntity
  8
0
100
AcDbBlockEnd
  0
BLOCK
  5
6841
330
6840
100
AcDbEntity
  8
0
100
AcDbBlockBegin
  2
*D27
 70
     1
 10
0.0
 20
0.0
 30
0.0
  3
*D27
  1

  0
LINE
  5
68C3
330
6840
100
AcDbEntity
  8
AM_5 寸法線
 62
     3
100
AcDbLine
 10
3101.979397652279
 20
3774.482719138202
 30
0.0
 11
3101.979397652279
 21
3651.125258157942
 31
0.0
  0
LINE
  5
68C4
330
6840
100
AcDbEntity
  8
AM_5 寸法線
 62
     3
100
AcDbLine
 10
3274.479397652279
 20
3780.982719138203
 30
0.0
 11
3274.479397652279
 21
3651.125258157942
 31
0.0
  0
LINE
  5
68C5
330
6840
100
AcDbEntity
  8
AM_5 寸法線
 62
     3
100
AcDbLine
 10
3139.479397652279
 20
3660.500258157942
 30
0.0
 11
3236.979397652279
 21
3660.500258157942
 31
0.0
  0
LINE
  5
68C6
330
6840
100
AcDbEntity
  8
AM_5 寸法線
 62
     3
100
AcDbLine
 10
3188.229397652279
 20
3660.500258157942
 30
0.0
 11
3302.839306497084
 21
3501.204661672182
 31
0.0
  0
LINE
  5
68C7
330
6840
100
AcDbEntity
  8
AM_5 寸法線
 62
     3
100
AcDbLine
 10
3302.839306497084
 20
3501.204661672182
 30
0.0
 11
3530.089306497084
 21
3501.204661672182
 31
0.0
  0
MTEXT
  5
68C8
330
6840
100
AcDbEntity
  8
AM_5 寸法線
 62
     3
100
AcDbMText
 10
3416.464306497084
 20
3549.954661672182
 30
0.0
 40
52.5
 41
0.0
 46
0.0
 71
     5
 72
     1
  1
172.5
  7
SEISA
 73
     1
 44
1.0
  0
INSERT
  5
68C9
330
6840
100
AcDbEntity
  8
AM_5 寸法線
 62
     3
100
AcDbBlockReference
  2
_Open30
 10
3101.979397652279
 20
3660.500258157942
 30
0.0
 41
37.5
 42
37.5
 43
37.5
 50
180.0
  0
INSERT
  5
68CA
330
6840
100
AcDbEntity
  8
AM_5 寸法線
 62
     3
100
AcDbBlockReference
  2
_Open30
 10
3274.479397652279
 20
3660.500258157942
 30
0.0
 41
37.5
 42
37.5
 43
37.5
  0
POINT
  5
68CB
330
6840
100
AcDbEntity
  8
Defpoints
 62
     0
100
AcDbPoint
 10
3101.979397652279
 20
3783.857719138204
 30
0.0
  0
POINT
  5
68CC
330
6840
100
AcDbEntity
  8
Defpoints
 62
     0
100
AcDbPoint
 10
3274.479397652279
 20
3790.357719138203
 30
0.0
  0
POINT
  5
68CD
330
6840
100
AcDbEntity
  8
Defpoints
 62
     0
100
AcDbPoint
 10
3274.479397652279
 20
3660.500258157942
 30
0.0
  0
ENDBLK
  5
6842
330
6840
100
AcDbEntity
  8
0
100
AcDbBlockEnd
  0
BLOCK
  5
686B
330
686A
100
AcDbEntity
  8
0
100
AcDbBlockBegin
  2
*D28
 70
     1
 10
0.0
 20
0.0
 30
0.0
  3
*D28
  1

  0
LINE
  5
688A
330
686A
100
AcDbEntity
  8
AM_5 寸法線
 62
     3
100
AcDbLine
 10
3274.479397652279
 20
3780.982719138203
 30
0.0
 11
3274.479397652279
 21
3651.125258157942
 31
0.0
  0
LINE
  5
688B
330
686A
100
AcDbEntity
  8
AM_5 寸法線
 62
     3
100
AcDbLine
 10
3463.479397652279
 20
3780.982719138203
 30
0.0
 11
3463.479397652279
 21
3651.125258157942
 31
0.0
  0
LINE
  5
688C
330
686A
100
AcDbEntity
  8
AM_5 寸法線
 62
     3
100
AcDbLine
 10
3311.979397652279
 20
3660.500258157942
 30
0.0
 11
3425.979397652279
 21
3660.500258157942
 31
0.0
  0
INSERT
  5
688D
330
686A
100
AcDbEntity
  8
AM_5 寸法線
 62
     3
100
AcDbBlockReference
  2
_Open30
 10
3274.479397652279
 20
3660.500258157942
 30
0.0
 41
37.5
 42
37.5
 43
37.5
 50
180.0
  0
INSERT
  5
688E
330
686A
100
AcDbEntity
  8
AM_5 寸法線
 62
     3
100
AcDbBlockReference
  2
_Open30
 10
3463.479397652279
 20
3660.500258157942
 30
0.0
 41
37.5
 42
37.5
 43
37.5
  0
MTEXT
  5
688F
330
686A
100
AcDbEntity
  8
AM_5 寸法線
 62
     3
100
AcDbMText
 10
3368.979397652279
 20
3709.250258157942
 30
0.0
 40
52.5
 41
0.0
 46
0.0
 71
     5
 72
     1
  1
189
  7
SEISA
 73
     1
 44
1.0
  0
POINT
  5
6890
330
686A
100
AcDbEntity
  8
Defpoints
 62
     0
100
AcDbPoint
 10
3274.479397652279
 20
3790.357719138203
 30
0.0
  0
POINT
  5
6891
330
686A
100
AcDbEntity
  8
Defpoints
 62
     0
100
AcDbPoint
 10
3463.479397652279
 20
3790.357719138203
 30
0.0
  0
POINT
  5
6892
330
686A
100
AcDbEntity
  8
Defpoints
 62
     0
100
AcDbPoint
 10
3463.479397652279
 20
3660.500258157942
 30
0.0
  0
ENDBLK
  5
686C
330
686A
100
AcDbEntity
  8
0
100
AcDbBlockEnd
  0
BLOCK
  5
6910
330
690F
100
AcDbEntity
  8
0
100
AcDbBlockBegin
  2
*D29
 70
     1
 10
0.0
 20
0.0
 30
0.0
  3
*D29
  1

  0
LINE
  5
6935
330
690F
100
AcDbEntity
  8
AM_5 寸法線
 62
     3
100
AcDbLine
 10
3901.979397652279
 20
3767.232719138203
 30
0.0
 11
3901.979397652279
 21
4069.732720138201
 31
0.0
  0
LINE
  5
6936
330
690F
100
AcDbEntity
  8
AM_5 寸法線
 62
     3
100
AcDbLine
 10
4001.979397652279
 20
3891.732719138202
 30
0.0
 11
4001.979397652279
 21
4069.732720138201
 31
0.0
  0
LINE
  5
6937
330
690F
100
AcDbEntity
  8
AM_5 寸法線
 62
     3
100
AcDbLine
 10
3864.479397652279
 20
4060.357720138202
 30
0.0
 11
3826.979397652279
 21
4060.357720138202
 31
0.0
  0
LINE
  5
6938
330
690F
100
AcDbEntity
  8
AM_5 寸法線
 62
     3
100
AcDbLine
 10
4039.479397652279
 20
4060.357720138202
 30
0.0
 11
4236.729397652278
 21
4060.357720138202
 31
0.0
  0
LINE
  5
6939
330
690F
100
AcDbEntity
  8
AM_5 寸法線
 62
     3
100
AcDbLine
 10
3901.979397652279
 20
4060.357720138202
 30
0.0
 11
4001.979397652279
 21
4060.357720138202
 31
0.0
  0
INSERT
  5
693A
330
690F
100
AcDbEntity
  8
AM_5 寸法線
 62
     3
100
AcDbBlockReference
  2
_Open30
 10
3901.979397652279
 20
4060.357720138202
 30
0.0
 41
37.5
 42
37.5
 43
37.5
  0
INSERT
  5
693B
330
690F
100
AcDbEntity
  8
AM_5 寸法線
 62
     3
100
AcDbBlockReference
  2
_Open30
 10
4001.979397652279
 20
4060.357720138202
 30
0.0
 41
37.5
 42
37.5
 43
37.5
 50
180.0
  0
MTEXT
  5
693C
330
690F
100
AcDbEntity
  8
AM_5 寸法線
 62
     3
100
AcDbMText
 10
4156.854397652279
 20
4109.107720138201
 30
0.0
 40
52.5
 41
0.0
 46
0.0
 71
     5
 72
     1
  1
100
  7
SEISA
 73
     1
 44
1.0
  0
POINT
  5
693D
330
690F
100
AcDbEntity
  8
Defpoints
 62
     0
100
AcDbPoint
 10
3901.979397652279
 20
3757.857719138203
 30
0.0
  0
POINT
  5
693E
330
690F
100
AcDbEntity
  8
Defpoints
 62
     0
100
AcDbPoint
 10
4001.979397652279
 20
3882.357719138202
 30
0.0
  0
POINT
  5
693F
330
690F
100
AcDbEntity
  8
Defpoints
 62
     0
100
AcDbPoint
 10
4001.979397652279
 20
4060.357720138202
 30
0.0
  0
ENDBLK
  5
6911
330
690F
100
AcDbEntity
  8
0
100
AcDbBlockEnd
  0
BLOCK
  5
6AE1
330
6AE0
100
AcDbEntity
  8
0
100
AcDbBlockBegin
  2
ＧＣサイドカバ－ CEM1400
 70
     0
 10
0.0
 20
0.0
 30
0.0
  3
ＧＣサイドカバ－ CEM1400
  1

  0
LINE
  5
6AE3
330
6AE0
100
AcDbEntity
  8
AM_11 想像線
 48
0.1
100
AcDbLine
 10
-9.0
 20
-75.84999999999991
 30
0.0
 11
-37.0
 21
-75.84999999999991
 31
0.0
  0
LINE
  5
6AE4
330
6AE0
100
AcDbEntity
  8
AM_11 想像線
 48
0.1
100
AcDbLine
 10
-46.0
 20
-23.5
 30
0.0
 11
7.300885666159956
 21
-23.5
 31
0.0
  0
LINE
  5
6AE5
330
6AE0
100
AcDbEntity
  8
AM_11 想像線
 48
0.1
100
AcDbLine
 10
-38.0
 20
-42.30000000000018
 30
0.0
 11
-33.5
 21
-42.30000000000018
 31
0.0
  0
LINE
  5
6AE6
330
6AE0
100
AcDbEntity
  8
AM_11 想像線
 48
0.1
100
AcDbLine
 10
-33.5
 20
-42.30000000000018
 30
0.0
 11
-33.5
 21
-49.5
 31
0.0
  0
LINE
  5
6AE7
330
6AE0
100
AcDbEntity
  8
AM_11 想像線
 48
0.1
100
AcDbLine
 10
-37.0
 20
-89.50000000000001
 30
0.0
 11
-37.0
 21
-92.5
 31
0.0
  0
LINE
  5
6AE8
330
6AE0
100
AcDbEntity
  8
AM_11 想像線
 48
0.1
100
AcDbLine
 10
-46.0
 20
-89.50000000000001
 30
0.0
 11
-46.0
 21
-92.5
 31
0.0
  0
LINE
  5
6AE9
330
6AE0
100
AcDbEntity
  8
AM_11 想像線
 48
0.1
100
AcDbLine
 10
-37.0
 20
-75.84999999999991
 30
0.0
 11
-37.0
 21
-89.50000000000001
 31
0.0
  0
LINE
  5
6AEA
330
6AE0
100
AcDbEntity
  8
AM_11 想像線
 48
0.1
100
AcDbLine
 10
-37.0
 20
-89.50000000000001
 30
0.0
 11
-46.0
 21
-89.50000000000001
 31
0.0
  0
LINE
  5
6AEB
330
6AE0
100
AcDbEntity
  8
AM_11 想像線
 48
0.1
100
AcDbLine
 10
-46.0
 20
-89.50000000000001
 30
0.0
 11
-46.0
 21
-49.5
 31
0.0
  0
LINE
  5
6AEC
330
6AE0
100
AcDbEntity
  8
AM_11 想像線
 48
0.1
100
AcDbLine
 10
0.0
 20
-89.50000000000001
 30
0.0
 11
0.0
 21
-92.5
 31
0.0
  0
LINE
  5
6AED
330
6AE0
100
AcDbEntity
  8
AM_11 想像線
 48
0.1
100
AcDbLine
 10
0.0
 20
0.0
 30
0.0
 11
0.0
 21
-89.50000000000001
 31
0.0
  0
LINE
  5
6AEE
330
6AE0
100
AcDbEntity
  8
AM_11 想像線
 48
0.1
100
AcDbLine
 10
-9.0
 20
-89.50000000000001
 30
0.0
 11
-9.0
 21
-92.5
 31
0.0
  0
LINE
  5
6AEF
330
6AE0
100
AcDbEntity
  8
AM_11 想像線
 48
0.1
100
AcDbLine
 10
-9.0
 20
-89.50000000000001
 30
0.0
 11
-9.0
 21
-75.84999999999991
 31
0.0
  0
LINE
  5
6AF0
330
6AE0
100
AcDbEntity
  8
AM_11 想像線
 48
0.1
100
AcDbLine
 10
0.0
 20
-89.50000000000001
 30
0.0
 11
-9.0
 21
-89.50000000000001
 31
0.0
  0
LINE
  5
6AF1
330
6AE0
100
AcDbEntity
  8
AM_11 想像線
 48
0.1
100
AcDbLine
 10
-33.5
 20
-49.5
 30
0.0
 11
-46.0
 21
-49.50000000000045
 31
0.0
  0
LINE
  5
6AF2
102
{ACAD_REACTORS
330
691E
102
}
330
6AE0
100
AcDbEntity
  8
AM_11 想像線
 48
0.1
100
AcDbLine
 10
-38.0
 20
0.0000000000004547
 30
0.0
 11
0.0
 21
0.0
 31
0.0
  0
LINE
  5
6AF3
330
6AE0
100
AcDbEntity
  8
AM_11 想像線
 48
0.1
100
AcDbLine
 10
-37.99999999999954
 20
-42.30000000000018
 30
0.0
 11
-38.0
 21
0.0
 31
0.0
  0
LINE
  5
6AF4
330
6AE0
100
AcDbEntity
  8
AM_11 想像線
 48
0.1
100
AcDbLine
 10
-38.0
 20
0.0
 30
0.0
 11
-38.0
 21
-2.186004227634383
 31
0.0
  0
ENDBLK
  5
6AE2
330
6AE0
100
AcDbEntity
  8
0
100
AcDbBlockEnd
  0
ENDSEC
  0
SECTION
  2
ENTITIES
  0
LINE
  5
4441
330
1F
100
AcDbEntity
  8
AM_0 外形線1
100
AcDbLine
 10
3487.979397652279
 20
3848.357719138203
 30
0.0
 11
3487.979397652279
 21
3840.057719138202
 31
0.0
  0
LINE
  5
4462
330
1F
100
AcDbEntity
  8
AM_0 外形線1
100
AcDbLine
 10
3146.979397652279
 20
3951.857719138202
 30
0.0
 11
3146.979397652279
 21
3936.857719138203
 31
0.0
  0
LINE
  5
4512
330
1F
100
AcDbEntity
  8
AM_7 中心線
100
AcDbLine
 10
3943.165729970959
 20
3254.857719138203
 30
0.0
 11
2211.222058652279
 21
3254.857719138203
 31
0.0
  0
INSERT
  5
4ADC
102
{ACAD_REACTORS
330
5706
330
5722
330
573A
330
5752
330
598B
102
}
330
1F
100
AcDbEntity
  8
AM_0 外形線1
100
AcDbBlockReference
  2
ケースＡ CEMH1400
 10
3077.19389431162
 20
3254.857719138203
 30
0.0
  0
INSERT
  5
4C00
102
{ACAD_REACTORS
330
55FA
330
563F
330
565B
330
5706
330
573A
330
5782
102
}
330
1F
100
AcDbEntity
  8
AM_0 外形線1
100
AcDbBlockReference
  2
リジット CEMH1400
 10
3077.19389431162
 20
3254.857719138203
 30
0.0
  0
INSERT
  5
4D14
330
1F
100
AcDbEntity
  8
AM_0 外形線1
100
AcDbBlockReference
  2
リーマボルト CEMH1400 M42
 10
3146.979397652279
 20
3914.857719138203
 30
0.0
  0
INSERT
  5
4E20
102
{ACAD_REACTORS
330
565B
330
5673
330
56AD
330
576A
330
5782
330
5949
330
6877
330
684D
330
691E
102
}
330
1F
100
AcDbEntity
  8
AM_0 外形線1
100
AcDbBlockReference
  2
センタ CEMH1400
 10
3101.979397652279
 20
3254.857719138203
 30
0.0
  0
INSERT
  5
501A
102
{ACAD_REACTORS
330
56AD
330
5752
330
576A
330
5973
102
}
330
1F
100
AcDbEntity
  8
AM_0 外形線1
100
AcDbBlockReference
  2
ＧＣサイドカバ－ CEMH1400
 10
3487.979397652279
 20
3254.857719138203
 30
0.0
  0
DIMENSION
  5
55E3
102
{ACAD_XDICTIONARY
360
55F0
102
}
102
{ACAD_REACTORS
330
55FA
102
}
330
1F
100
AcDbEntity
  8
AM_5 寸法線
100
AcDbDimension
  2
*D13
 10
1951.979397652278
 20
2664.857719138203
 30
0.0
 11
1903.229397652278
 21
3254.857719138203
 31
0.0
 70
    32
  1
%%c<>
 71
     5
 42
1180.0
 73
     0
 74
     0
 75
     0
  3
SEISA$0
100
AcDbAlignedDimension
 13
2281.979397652279
 23
3844.857719138202
 33
0.0
 14
2281.979397652279
 24
2664.857719138203
 34
0.0
 50
90.0
100
AcDbRotatedDimension
1001
ACAD_DSTYLE_DIMINSPECT
1070
   396
1000
100%
1070
   395
1000

1070
   394
1070
    33
1070
   393
1070
     0
  0
DIMENSION
  5
5628
102
{ACAD_XDICTIONARY
360
5635
102
}
102
{ACAD_REACTORS
330
563F
102
}
330
1F
100
AcDbEntity
  8
AM_5 寸法線
100
AcDbDimension
  2
*D14
 10
2251.979397652279
 20
3381.478910138203
 30
0.0
 11
2651.979397652279
 21
3430.228910138203
 31
0.0
 70
    32
 71
     5
 42
800.0
 73
     0
 74
     0
 75
     0
  3
SEISA$0
100
AcDbAlignedDimension
 13
3051.979397652279
 23
3254.857719138203
 33
0.0
 14
2251.979397652279
 24
3254.857719138203
 34
0.0
100
AcDbRotatedDimension
  0
DIMENSION
  5
5640
102
{ACAD_XDICTIONARY
360
564F
102
}
102
{ACAD_REACTORS
330
565B
102
}
330
1F
100
AcDbEntity
  8
AM_5 寸法線
100
AcDbDimension
  2
*D15
 10
3051.979397652279
 20
3381.478910138203
 30
0.0
 11
3191.989255368404
 21
3429.736166548073
 31
0.0
 70
   160
 71
     5
 42
50.0
 73
     0
 74
     0
 75
     0
  3
SEISA$0
100
AcDbAlignedDimension
 13
3101.979397652279
 23
3254.857719138203
 33
0.0
 14
3051.979397652279
 24
3254.857719138203
 34
0.0
100
AcDbRotatedDimension
1001
ACAD
1000
DSTYLE
1002
{
1070
   279
1070
     2
1002
}
  0
DIMENSION
  5
565C
102
{ACAD_XDICTIONARY
360
5669
102
}
102
{ACAD_REACTORS
330
5673
102
}
330
1F
100
AcDbEntity
  8
AM_5 寸法線
100
AcDbDimension
  2
*D16
 10
3901.979397652279
 20
3381.478910138203
 30
0.0
 11
3501.979397652279
 21
3430.228910138203
 31
0.0
 70
    32
 71
     5
 42
800.0
 73
     0
 74
     0
 75
     0
  3
SEISA$0
100
AcDbAlignedDimension
 13
3101.979397652279
 23
3254.857719138203
 33
0.0
 14
3901.979397652279
 24
3254.857719138203
 34
0.0
100
AcDbRotatedDimension
  0
DIMENSION
  5
5692
102
{ACAD_XDICTIONARY
360
56A1
102
}
102
{ACAD_REACTORS
330
56AD
330
6877
102
}
330
1F
100
AcDbEntity
  8
AM_5 寸法線
100
AcDbDimension
  2
*D17
 10
3463.479397652279
 20
3660.500258157938
 30
0.0
 11
3646.10439765228
 21
3660.500258157938
 31
0.0
 70
   160
 71
     5
 42
16.5
 73
     0
 74
     0
 75
     0
  3
SEISA$0
100
AcDbAlignedDimension
 13
3479.979397652279
 23
3789.857719138203
 33
0.0
 14
3463.479397652279
 24
3790.357719138203
 34
0.0
100
AcDbRotatedDimension
  0
DIMENSION
  5
56EB
102
{ACAD_XDICTIONARY
360
56FA
102
}
102
{ACAD_REACTORS
330
5706
102
}
330
1F
100
AcDbEntity
  8
AM_5 寸法線
100
AcDbDimension
  2
*D18
 10
3006.979397652279
 20
2374.857719138202
 30
0.0
 11
2871.22939765228
 21
2423.607719138202
 31
0.0
 70
    32
 71
     5
 42
70.0
 73
     0
 74
     0
 75
     0
  3
SEISA$0
100
AcDbAlignedDimension
 13
3076.979397652279
 23
2557.857719138203
 33
0.0
 14
3006.979397652279
 24
2558.857719138203
 34
0.0
100
AcDbRotatedDimension
1001
ACAD_DSTYLE_DIMINSPECT
1070
   396
1000
100%
1070
   395
1000

1070
   394
1070
    33
1070
   393
1070
     0
1001
ACAD
1000
DSTYLE
1002
{
1070
   173
1070
     1
1070
   342
1005
0
1070
   343
1005
3A13
1070
   344
1005
69
1002
}
  0
DIMENSION
  5
5707
102
{ACAD_XDICTIONARY
360
5716
102
}
102
{ACAD_REACTORS
330
5722
102
}
330
1F
100
AcDbEntity
  8
AM_5 寸法線
100
AcDbDimension
  2
*D19
 10
3146.979397652279
 20
2374.857719138202
 30
0.0
 11
3282.72939765228
 21
2423.607719138202
 31
0.0
 70
    32
 71
     5
 42
70.0
 73
     0
 74
     0
 75
     0
  3
SEISA$0
100
AcDbAlignedDimension
 13
3076.979397652279
 23
2557.857719138203
 33
0.0
 14
3146.979397652279
 24
2557.857719138203
 34
0.0
100
AcDbRotatedDimension
1001
ACAD_DSTYLE_DIMINSPECT
1070
   396
1000
100%
1070
   395
1000

1070
   394
1070
    33
1070
   393
1070
     0
1001
ACAD
1000
DSTYLE
1002
{
1070
   173
1070
     1
1070
   342
1005
0
1070
   343
1005
3A13
1070
   344
1005
69
1002
}
  0
DIMENSION
  5
5723
102
{ACAD_XDICTIONARY
360
5730
102
}
102
{ACAD_REACTORS
330
573A
102
}
330
1F
100
AcDbEntity
  8
AM_5 寸法線
100
AcDbDimension
  2
*D20
 10
2251.979397652279
 20
2254.857719138202
 30
0.0
 11
2664.479397652279
 21
2303.607719138202
 31
0.0
 70
    32
 71
     5
 42
825.0
 73
     0
 74
     0
 75
     0
  3
SEISA$0
100
AcDbAlignedDimension
 13
3076.979397652279
 23
2557.857719138203
 33
0.0
 14
2251.979397652279
 24
2694.857719138203
 34
0.0
100
AcDbRotatedDimension
  0
DIMENSION
  5
573B
102
{ACAD_XDICTIONARY
360
5748
102
}
102
{ACAD_REACTORS
330
5752
102
}
330
1F
100
AcDbEntity
  8
AM_5 寸法線
100
AcDbDimension
  2
*D21
 10
3525.979397652279
 20
2254.857719138202
 30
0.0
 11
3301.47939765228
 21
2303.607719138202
 31
0.0
 70
    32
 71
     5
 42
449.0
 73
     0
 74
     0
 75
     0
  3
SEISA$0
100
AcDbAlignedDimension
 13
3076.979397652279
 23
2557.857719138203
 33
0.0
 14
3525.979397652279
 24
2627.357719138203
 34
0.0
100
AcDbRotatedDimension
  0
DIMENSION
  5
5753
102
{ACAD_XDICTIONARY
360
5760
102
}
102
{ACAD_REACTORS
330
576A
102
}
330
1F
100
AcDbEntity
  8
AM_5 寸法線
100
AcDbDimension
  2
*D22
 10
3901.979397652279
 20
2254.857719138202
 30
0.0
 11
3713.97939765228
 21
2303.607719138202
 31
0.0
 70
    32
 71
     5
 42
376.0
 73
     0
 74
     0
 75
     0
  3
SEISA$0
100
AcDbAlignedDimension
 13
3525.979397652279
 23
2627.357719138203
 33
0.0
 14
3901.979397652279
 24
2751.857719138202
 34
0.0
100
AcDbRotatedDimension
  0
DIMENSION
  5
576B
102
{ACAD_XDICTIONARY
360
5778
102
}
102
{ACAD_REACTORS
330
5782
102
}
330
1F
100
AcDbEntity
  8
AM_5 寸法線
100
AcDbDimension
  2
*D23
 10
3901.979397652279
 20
2134.857719138202
 30
0.0
 11
3076.979397652279
 21
2183.607719138203
 31
0.0
 70
    32
 71
     5
 42
1650.0
 73
     0
 74
     0
 75
     0
  3
SEISA$0
100
AcDbAlignedDimension
 13
2251.979397652279
 23
2694.857719138203
 33
0.0
 14
3901.979397652279
 24
2751.857719138202
 34
0.0
100
AcDbRotatedDimension
  0
DIMENSION
  5
5932
102
{ACAD_XDICTIONARY
360
593F
102
}
102
{ACAD_REACTORS
330
5949
102
}
330
1F
100
AcDbEntity
  8
AM_5 寸法線
100
AcDbDimension
  2
*D24
 10
4201.979397652279
 20
2719.857719138202
 30
0.0
 11
4153.229397652277
 21
3254.857719138203
 31
0.0
 70
    32
  1
%%c<>
 71
     5
 42
1070.0
 73
     0
 74
     0
 75
     0
  3
SEISA$0
100
AcDbAlignedDimension
 13
3575.979397652279
 23
3789.857719138203
 33
0.0
 14
3575.979397652279
 24
2719.857719138202
 34
0.0
 50
90.0
100
AcDbRotatedDimension
1001
ACAD_DSTYLE_DIMINSPECT
1070
   396
1000
100%
1070
   395
1000

1070
   394
1070
    33
1070
   393
1070
     0
1001
ACAD
1000
DSTYLE
1002
{
1070
   279
1070
     0
1002
}
  0
DIMENSION
  5
595C
102
{ACAD_XDICTIONARY
360
5969
102
}
102
{ACAD_REACTORS
330
5973
102
}
330
1F
100
AcDbEntity
  8
AM_5 寸法線
100
AcDbDimension
  2
*D25
 10
4321.979397652278
 20
2627.357719138203
 30
0.0
 11
4321.979397652278
 21
3254.857719138203
 31
0.0
 70
   160
  1
%%c<>
 71
     5
 42
1255.0
 73
     0
 74
     0
 75
     0
  3
SEISA$0
100
AcDbAlignedDimension
 13
3525.979397652279
 23
3882.357719138202
 33
0.0
 14
3525.979397652279
 24
2627.357719138203
 34
0.0
 50
90.0
100
AcDbRotatedDimension
1001
ACAD_DSTYLE_DIMINSPECT
1070
   396
1000
100%
1070
   395
1000

1070
   394
1070
    33
1070
   393
1070
     0
1001
ACAD
1000
DSTYLE
1002
{
1070
   279
1070
     0
1002
}
  0
DIMENSION
  5
5974
102
{ACAD_XDICTIONARY
360
5981
102
}
102
{ACAD_REACTORS
330
598B
102
}
330
1F
100
AcDbEntity
  8
AM_5 寸法線
100
AcDbDimension
  2
*D26
 10
4441.979397652279
 20
2554.857719138202
 30
0.0
 11
4441.979397652279
 21
3254.857719138203
 31
0.0
 70
   160
  1
%%c<>
 71
     5
 42
1400.0
 73
     0
 74
     0
 75
     0
  3
SEISA$0
100
AcDbAlignedDimension
 13
3143.979397652279
 23
3954.857719138202
 33
0.0
 14
3143.979397652279
 24
2554.857719138202
 34
0.0
 50
90.0
100
AcDbRotatedDimension
1001
ACAD_DSTYLE_DIMINSPECT
1070
   396
1000
100%
1070
   395
1000

1070
   394
1070
    33
1070
   393
1070
     0
1001
ACAD
1000
DSTYLE
1002
{
1070
   279
1070
     0
1002
}
  0
TEXT
  5
66BA
330
1F
100
AcDbEntity
  8
AM_6 文字
100
AcDbText
 10
4032.192625035725
 20
1980.044501141318
 30
0.0
 40
60.00000120000006
  1
　
 41
0.9
  7
SEISA
100
AcDbText
  0
MTEXT
  5
6724
330
1F
100
AcDbEntity
  8
AM_6 文字
100
AcDbMText
 10
4050.111118364479
 20
2444.346264124226
 30
0.0
 40
52.5
 41
1419.800907118902
 46
227.347744563868
 71
     1
 72
     5
  1
{\W0.6;TYPE:CEM1400/CEMH1400\PSHAFT DIA:MAX/MIN \P RIGID SIDE φ900/φ560\P COUPLING CENTER SIDE φ800/φ560}
  7
SEISA
 73
     1
 44
1.0
  0
DIMENSION
  5
683F
102
{ACAD_XDICTIONARY
360
684C
102
}
102
{ACAD_REACTORS
330
684D
102
}
330
1F
100
AcDbEntity
  8
AM_5 寸法線
100
AcDbDimension
  2
*D27
 10
3274.479397652279
 20
3660.500258157942
 30
0.0
 11
3325.339306497085
 21
3501.204661672182
 31
0.0
 70
   160
 71
     5
 42
172.5
 73
     0
 74
     0
 75
     0
  3
SEISA$0
100
AcDbAlignedDimension
 13
3101.979397652279
 23
3783.857719138204
 33
0.0
 14
3274.479397652279
 24
3790.357719138203
 34
0.0
 50
0.0000000000001132
100
AcDbRotatedDimension
1001
ACAD_DSTYLE_DIMINSPECT
1070
   396
1000
100%
1070
   395
1000

1070
   394
1070
    33
1070
   393
1070
     0
1001
ACAD
1000
DSTYLE
1002
{
1070
   279
1070
     1
1002
}
  0
DIMENSION
  5
6869
102
{ACAD_XDICTIONARY
360
6876
102
}
102
{ACAD_REACTORS
330
6877
102
}
330
1F
100
AcDbEntity
  8
AM_5 寸法線
100
AcDbDimension
  2
*D28
 10
3463.479397652279
 20
3660.500258157942
 30
0.0
 11
3368.979397652279
 21
3709.250258157942
 31
0.0
 70
    32
 71
     5
 42
189.0
 73
     0
 74
     0
 75
     0
  3
SEISA$0
100
AcDbAlignedDimension
 13
3274.479397652279
 23
3790.357719138203
 33
0.0
 14
3463.479397652279
 24
3790.357719138203
 34
0.0
 50
0.0000000000001132
100
AcDbRotatedDimension
1001
ACAD_DSTYLE_DIMINSPECT
1070
   396
1000
100%
1070
   395
1000

1070
   394
1070
    33
1070
   393
1070
     0
  0
DIMENSION
  5
690E
102
{ACAD_XDICTIONARY
360
691D
102
}
102
{ACAD_REACTORS
330
691E
102
}
330
1F
100
AcDbEntity
  8
AM_5 寸法線
100
AcDbDimension
  2
*D29
 10
4001.979397652279
 20
4060.357720138202
 30
0.0
 11
4156.854397652279
 21
4109.107720138201
 31
0.0
 70
    32
 71
     5
 42
100.0
 73
     0
 74
     0
 75
     0
  3
SEISA$0
100
AcDbAlignedDimension
 13
3901.979397652279
 23
3757.857719138203
 33
0.0
 14
4001.979397652279
 24
3882.357719138202
 34
0.0
100
AcDbRotatedDimension
1001
ACAD_DSTYLE_DIMINSPECT
1070
   396
1000
100%
1070
   395
1000

1070
   394
1070
    33
1070
   393
1070
     0
  0
INSERT
  5
6AF5
330
1F
100
AcDbEntity
  8
AM_0 外形線1
100
AcDbBlockReference
  2
ＧＣサイドカバ－ CEM1400
 10
4001.979397652279
 20
3882.357719138202
 30
0.0
  0
ENDSEC
  0
SECTION
  2
OBJECTS
  0
DICTIONARY
  5
C
330
0
100
AcDbDictionary
281
     1
  3
ACAD_COLOR
350
C5
  3
ACAD_GROUP
350
D
  3
ACAD_LAYOUT
350
1A
  3
ACAD_MATERIAL
350
C4
  3
ACAD_MLEADERSTYLE
350
2D5
  3
ACAD_MLINESTYLE
350
17
  3
ACAD_PLOTSETTINGS
350
19
  3
ACAD_PLOTSTYLENAME
350
E
  3
ACAD_SCALELIST
350
2B3
  3
ACAD_TABLESTYLE
350
121
  3
ACAD_VISUALSTYLE
350
27F
  3
ACDB_RECOMPOSE_DATA
350
2F7
  3
AcDbVariableDictionary
350
34
  3
AcmDictionary
350
49
  3
AMG
350
2B
  3
AMGSNAPSETTINGS
350
1DE
  0
DICTIONARY
  5
BF
330
2
100
AcDbDictionary
280
     1
281
     1
  3
ACAD_LAYERSTATES
360
671B
  3
AMLAYER_GROUPCOLORS
360
C0
  0
DICTIONARY
  5
29F7
330
10
100
AcDbDictionary
280
     1
281
     1
  3
ADSK_XREC_LAYER_RECONCILED
360
29F8
  0
DICTIONARY
  5
29F9
330
81
100
AcDbDictionary
280
     1
281
     1
  3
ADSK_XREC_LAYER_RECONCILED
360
29FA
  0
DICTIONARY
  5
82
330
1F
100
AcDbDictionary
280
     1
281
     1
  3
ACAD_SORTENTS
360
A41
  0
DICTIONARY
  5
4A1A
330
49EE
100
AcDbDictionary
280
     1
281
     1
  3
ACAD_SORTENTS
360
5F2E
  0
DICTIONARY
  5
4B5C
330
4A9F
100
AcDbDictionary
280
     1
281
     1
  3
ACAD_SORTENTS
360
5FA5
  0
DICTIONARY
  5
4C69
330
4BCD
100
AcDbDictionary
280
     1
281
     1
  3
ACAD_SORTENTS
360
683E
  0
DICTIONARY
  5
4D81
330
4CE0
100
AcDbDictionary
280
     1
281
     1
  3
ACAD_SORTENTS
360
6AB7
  0
DICTIONARY
  5
4E95
330
4DEE
100
AcDbDictionary
280
     1
281
     1
  3
ACAD_SORTENTS
360
69B7
  0
DICTIONARY
  5
509C
330
4FE0
100
AcDbDictionary
280
     1
281
     1
  3
ACAD_SORTENTS
360
509D
  0
DICTIONARY
  5
55F0
330
55E3
100
AcDbDictionary
280
     1
281
     1
  3
ACAD_DIMASSOC
360
55FA
  0
DICTIONARY
  5
5635
330
5628
100
AcDbDictionary
280
     1
281
     1
  3
ACAD_DIMASSOC
360
563F
  0
DICTIONARY
  5
564F
330
5640
100
AcDbDictionary
280
     1
281
     1
  3
ACAD_DIMASSOC
360
565B
  0
DICTIONARY
  5
5669
330
565C
100
AcDbDictionary
280
     1
281
     1
  3
ACAD_DIMASSOC
360
5673
  0
DICTIONARY
  5
56A1
330
5692
100
AcDbDictionary
280
     1
281
     1
  3
ACAD_DIMASSOC
360
56AD
  0
DICTIONARY
  5
56FA
330
56EB
100
AcDbDictionary
280
     1
281
     1
  3
ACAD_DIMASSOC
360
5706
  0
DICTIONARY
  5
5716
330
5707
100
AcDbDictionary
280
     1
281
     1
  3
ACAD_DIMASSOC
360
5722
  0
DICTIONARY
  5
5730
330
5723
100
AcDbDictionary
280
     1
281
     1
  3
ACAD_DIMASSOC
360
573A
  0
DICTIONARY
  5
5748
330
573B
100
AcDbDictionary
280
     1
281
     1
  3
ACAD_DIMASSOC
360
5752
  0
DICTIONARY
  5
5760
330
5753
100
AcDbDictionary
280
     1
281
     1
  3
ACAD_DIMASSOC
360
576A
  0
DICTIONARY
  5
5778
330
576B
100
AcDbDictionary
280
     1
281
     1
  3
ACAD_DIMASSOC
360
5782
  0
DICTIONARY
  5
593F
330
5932
100
AcDbDictionary
280
     1
281
     1
  3
ACAD_DIMASSOC
360
5949
  0
DICTIONARY
  5
5969
330
595C
100
AcDbDictionary
280
     1
281
     1
  3
ACAD_DIMASSOC
360
5973
  0
DICTIONARY
  5
5981
330
5974
100
AcDbDictionary
280
     1
281
     1
  3
ACAD_DIMASSOC
360
598B
  0
DICTIONARY
  5
684C
330
683F
100
AcDbDictionary
280
     1
281
     1
  3
ACAD_DIMASSOC
360
684D
  0
DICTIONARY
  5
6876
330
6869
100
AcDbDictionary
280
     1
281
     1
  3
ACAD_DIMASSOC
360
6877
  0
DICTIONARY
  5
691D
330
690E
100
AcDbDictionary
280
     1
281
     1
  3
ACAD_DIMASSOC
360
691E
  0
DICTIONARY
  5
C5
102
{ACAD_REACTORS
330
C
102
}
330
C
100
AcDbDictionary
281
     1
  0
DICTIONARY
  5
D
102
{ACAD_REACTORS
330
C
102
}
330
C
100
AcDbDictionary
281
     1
  0
DICTIONARY
  5
1A
102
{ACAD_REACTORS
330
C
102
}
330
C
100
AcDbDictionary
281
     1
  3
Model
350
22
  3
レイアウト1
350
1E
  3
レイアウト2
350
26
  0
DICTIONARY
  5
C4
102
{ACAD_REACTORS
330
C
102
}
330
C
100
AcDbDictionary
281
     1
  3
ByBlock
350
27D
  3
ByLayer
350
27C
  3
Global
350
27E
  0
DICTIONARY
  5
2D5
102
{ACAD_REACTORS
330
C
102
}
330
C
100
AcDbDictionary
281
     1
  3
Standard
350
2D6
  0
DICTIONARY
  5
17
102
{ACAD_REACTORS
330
C
102
}
330
C
100
AcDbDictionary
281
     1
  3
Standard
350
18
  0
DICTIONARY
  5
19
102
{ACAD_REACTORS
330
C
102
}
330
C
100
AcDbDictionary
281
     1
  3
SEISA基本
350
1C7E
  0
ACDBDICTIONARYWDFLT
  5
E
102
{ACAD_REACTORS
330
C
102
}
330
C
100
AcDbDictionary
281
     1
  3
Normal
350
F
100
AcDbDictionaryWithDefault
340
F
  0
DICTIONARY
  5
2B3
102
{ACAD_REACTORS
330
C
102
}
330
C
100
AcDbDictionary
281
     1
  3
*A1
350
2A04
  3
*A2
350
6718
  3
*A3
350
6719
  3
*A4
350
671A
  3
A0
350
2B4
  3
A1
350
2B5
  3
A2
350
2B6
  3
A3
350
2B7
  3
A4
350
2B8
  3
A5
350
2B9
  3
A6
350
2BA
  3
A7
350
2BB
  3
A8
350
2BC
  3
A9
350
2BD
  3
B0
350
2BE
  3
B1
350
2BF
  3
B2
350
2C0
  3
B3
350
2C1
  3
B4
350
2C2
  3
B5
350
2C3
  3
B6
350
2C4
  3
B7
350
2C5
  3
B8
350
2C6
  3
B9
350
2C7
  3
C0
350
2C8
  3
C1
350
2C9
  3
C2
350
2CA
  3
C3
350
2CB
  3
C4
350
2CC
  3
C5
350
2CD
  3
C6
350
2CE
  3
C7
350
2CF
  3
C8
350
2D0
  3
C9
350
2D1
  3
D0
350
2D2
  3
D1
350
2D3
  3
D2
350
2D4
  0
DICTIONARY
  5
121
102
{ACAD_REACTORS
330
C
102
}
330
C
100
AcDbDictionary
281
     1
  3
Standard
350
122
  0
DICTIONARY
  5
27F
102
{ACAD_REACTORS
330
C
102
}
330
C
100
AcDbDictionary
281
     1
  3
2dWireframe
350
285
  3
3D Hidden
350
287
  3
3dWireframe
350
286
  3
Basic
350
284
  3
Brighten
350
28B
  3
ColorChange
350
28F
  3
Conceptual
350
288
  3
Dim
350
28A
  3
Facepattern
350
28E
  3
Flat
350
280
  3
FlatWithEdges
350
281
  3
Gouraud
350
282
  3
GouraudWithEdges
350
283
  3
Linepattern
350
28D
  3
Realistic
350
289
  3
Thicken
350
28C
  0
XRECORD
  5
2F7
102
{ACAD_REACTORS
330
C
102
}
330
C
100
AcDbXrecord
280
     1
 90
        1
330
122
  0
DICTIONARY
  5
34
102
{ACAD_REACTORS
330
C
102
}
330
C
100
AcDbDictionary
281
     1
  3
CANNOSCALE
350
2FA
  3
CMLEADERSTYLE
350
2F8
  3
CTABLESTYLE
350
140
  3
DIMASSOC
350
AC
  3
INDEXCTL
350
35
  3
LAYEREVAL
350
62AC
  3
LAYERNOTIFY
350
62AD
  3
LIGHTINGUNITS
350
2FB
  3
MSLTSCALE
350
2F9
  0
DICTIONARY
  5
49
102
{ACAD_REACTORS
330
C
102
}
330
C
100
AcDbDictionary
281
     1
  3
AcmBOM
350
161B
  3
AcmStdDictionary
350
4A
  3
AMDTSECTSYM_ARROWCOLOR
350
12B
  0
DICTIONARY
  5
2B
102
{ACAD_REACTORS
330
C
102
}
330
C
100
AcDbDictionary
281
     1
  0
DICTIONARY
  5
1DE
102
{ACAD_REACTORS
330
C
102
}
330
C
100
AcDbDictionary
281
     1
  0
DICTIONARY
  5
671B
102
{ACAD_REACTORS
330
BF
102
}
330
BF
100
AcDbDictionary
281
     1
  0
DICTIONARY
  5
C0
102
{ACAD_REACTORS
330
BF
102
}
330
BF
100
AcDbDictionary
280
     1
281
     1
  0
XRECORD
  5
29F8
102
{ACAD_REACTORS
330
29F7
102
}
330
29F7
100
AcDbXrecord
280
     1
290
     1
  0
XRECORD
  5
29FA
102
{ACAD_REACTORS
330
29F9
102
}
330
29F9
100
AcDbXrecord
280
     1
290
     1
  0
SORTENTSTABLE
  5
A41
102
{ACAD_REACTORS
330
82
102
}
330
82
100
AcDbSortentsTable
330
1F
331
5753
  5
5753
331
565C
  5
565C
331
5707
  5
5707
331
6869
  5
6869
331
5974
  5
5974
331
4ADC
  5
4ED4
331
501A
  5
51DE
331
5723
  5
5723
331
5640
  5
5640
331
55E3
  5
55E3
331
56EB
  5
56EB
331
4462
  5
4510
331
576B
  5
576B
331
4E20
  5
50F6
331
4D14
  5
501A
331
683F
  5
683F
331
573B
  5
573B
331
5692
  5
5692
331
4C00
  5
4F4C
331
4441
  5
4462
331
66BA
  5
66B8
331
6724
  5
6724
331
5628
  5
5628
331
5932
  5
5932
331
595C
  5
595C
331
4512
  5
4540
  0
SORTENTSTABLE
  5
5F2E
102
{ACAD_REACTORS
330
4A1A
102
}
330
4A1A
100
AcDbSortentsTable
330
49EE
331
49FB
  5
4A0D
331
49F9
  5
49FA
331
49F7
  5
49F8
331
49F5
  5
49F6
331
49F3
  5
49F4
331
49F1
  5
49F2
331
49FA
  5
49FB
331
49F8
  5
49F9
331
49F6
  5
49F7
331
49F4
  5
49F5
331
4A0D
  5
49F1
331
49F2
  5
49F3
  0
SORTENTSTABLE
  5
5FA5
102
{ACAD_REACTORS
330
4B5C
102
}
330
4B5C
100
AcDbSortentsTable
330
4A9F
331
4ACA
  5
4ACB
331
4AD4
  5
4AD6
331
4AB6
  5
4AB7
331
4ACF
  5
4AD0
331
4ABB
  5
4ABC
331
4AC5
  5
4AC6
331
4AC0
  5
4AC1
331
4B51
  5
4AB4
331
4AD0
  5
4AD1
331
4ACB
  5
4ACC
331
4AD8
  5
4AD9
331
4AC1
  5
4AC2
331
4ABC
  5
4ABD
331
4AC6
  5
4AC7
331
4AB7
  5
4AB8
331
4ACC
  5
4ACD
331
4AD6
  5
4AD7
331
4AB8
  5
4AB9
331
4AD1
  5
4AD2
331
4ABD
  5
4ABE
331
4AD9
  5
4ADA
331
4AC7
  5
4AC8
331
4AC2
  5
4AC3
331
4AD2
  5
4AD3
331
4AB4
  5
4AB5
331
4ACD
  5
4ACE
331
4AB9
  5
4ABA
331
4ADA
  5
4ADB
331
4AC3
  5
4AC4
331
4ABE
  5
4ABF
331
4AD7
  5
4AD8
331
4AC8
  5
4AC9
331
4ACE
  5
4ACF
331
4AC9
  5
4ACA
331
4AD3
  5
4AD4
331
4ABA
  5
4ABB
331
4ABF
  5
4AC0
331
4ADB
  5
4B51
331
4AC4
  5
4AC5
331
4AB5
  5
4AB6
  0
SORTENTSTABLE
  5
683E
102
{ACAD_REACTORS
330
4C69
102
}
330
4C69
100
AcDbSortentsTable
330
4BCD
  0
SORTENTSTABLE
  5
6AB7
102
{ACAD_REACTORS
330
4D81
102
}
330
4D81
100
AcDbSortentsTable
330
4CE0
  0
SORTENTSTABLE
  5
69B7
102
{ACAD_REACTORS
330
4E95
102
}
330
4E95
100
AcDbSortentsTable
330
4DEE
331
4E1F
  5
6787
331
4E01
  5
4E03
331
4E06
  5
4E08
331
6787
  5
4DF1
331
4E11
  5
4E13
331
4E16
  5
4E18
331
4DF8
  5
4DFA
331
4DFD
  5
4DFF
331
4E02
  5
4E04
331
4E07
  5
4E09
331
4E08
  5
4E0A
331
4E0D
  5
4E10
331
4DF4
  5
4DF7
331
4E12
  5
4E14
331
4E17
  5
4E1F
331
4DF9
  5
4DFB
331
4DFE
  5
4E00
331
4E03
  5
4E05
331
4E09
  5
4E0B
331
4E13
  5
4E15
331
4E18
  5
6786
331
4DFA
  5
4DFC
331
4DFF
  5
4E01
331
4E04
  5
4E06
331
4E0A
  5
4E0D
331
4E0F
  5
4E11
331
4DF1
  5
4DF4
331
4E14
  5
4E16
331
4DF6
  5
4DF8
331
4DFB
  5
4DFD
331
4E00
  5
4E02
331
4E05
  5
4E07
331
4E0B
  5
4E0F
331
6786
  5
4DF2
331
4DF2
  5
4DF6
331
4E10
  5
4E12
331
4E15
  5
4E17
331
4DF7
  5
4DF9
331
4DFC
  5
4DFE
  0
SORTENTSTABLE
  5
509D
102
{ACAD_REACTORS
330
509C
102
}
330
509C
100
AcDbSortentsTable
330
4FE0
  0
DIMASSOC
  5
55FA
102
{ACAD_REACTORS
330
55F0
102
}
330
55F0
100
AcDbDimAssoc
330
55E3
 90
        3
 70
     0
 71
     0
  1
AcDbOsnapPointRef
 72
    13
331
4C00
331
4BF8
 73
     2
 91
        0
 40
1.570796326794896
 10
0.0
 20
0.0
 30
2.000000000000000E+50
 75
     0
  1
AcDbOsnapPointRef
 72
     1
331
4C00
331
4BDB
 73
     2
 91
        0
 40
1.0
 10
0.0
 20
0.0
 30
2.000000000000000E+50
 75
     0
  0
DIMASSOC
  5
563F
102
{ACAD_REACTORS
330
5635
102
}
330
5635
100
AcDbDimAssoc
330
5628
 90
        3
 70
     0
 71
     0
  1
AcDbOsnapPointRef
 72
     1
331
4C00
331
4BF7
 73
     2
 91
        0
 40
1.0
 10
0.0
 20
0.0
 30
2.000000000000000E+50
 75
     0
  1
AcDbOsnapPointRef
 72
     2
331
4C00
331
4BD0
 73
     2
 91
        0
 40
0.5
 10
0.0
 20
0.0
 30
0.0
 75
     0
  0
DIMASSOC
  5
565B
102
{ACAD_REACTORS
330
564F
102
}
330
564F
100
AcDbDimAssoc
330
5640
 90
        3
 70
     0
 71
     0
  1
AcDbOsnapPointRef
 72
     1
331
4E20
331
4E0B
 73
     2
 91
        0
 40
1.0
 10
0.0
 20
0.0
 30
2.000000000000000E+50
 75
     0
  1
AcDbOsnapPointRef
 72
     1
331
4C00
331
4BF7
 73
     2
 91
        0
 40
1.0
 10
0.0
 20
0.0
 30
2.000000000000000E+50
 75
     0
  0
DIMASSOC
  5
5673
102
{ACAD_REACTORS
330
5669
102
}
330
5669
100
AcDbDimAssoc
330
565C
 90
        3
 70
     0
 71
     0
  1
AcDbOsnapPointRef
 72
     1
331
4E20
331
4E0B
 73
     2
 91
        0
 40
1.0
 10
0.0
 20
0.0
 30
2.000000000000000E+50
 75
     0
  1
AcDbOsnapPointRef
 72
     2
331
4E20
331
4DF4
 73
     2
 91
        0
 40
0.5
 10
0.0
 20
0.0
 30
0.0
 75
     0
  0
DIMASSOC
  5
56AD
102
{ACAD_REACTORS
330
56A1
102
}
330
56A1
100
AcDbDimAssoc
330
5692
 90
        3
 70
     0
 71
     0
  1
AcDbOsnapPointRef
 72
     1
331
501A
331
4FFE
 73
     2
 91
        0
 40
1.0
 10
0.0
 20
0.0
 30
2.000000000000000E+50
 75
     0
  1
AcDbOsnapPointRef
 72
    13
331
4E20
331
4DFC
 73
     2
 91
        0
 40
3.141592653589792
 10
0.0
 20
0.0
 30
2.000000000000000E+50
 75
     0
  0
DIMASSOC
  5
5706
102
{ACAD_REACTORS
330
56FA
102
}
330
56FA
100
AcDbDimAssoc
330
56EB
 90
        3
 70
     0
 71
     0
  1
AcDbOsnapPointRef
 72
     1
331
4ADC
331
4AA5
 73
     2
 91
        0
 40
1.0
 10
0.0
 20
0.0
 30
2.000000000000000E+50
 75
     0
  1
AcDbOsnapPointRef
 72
     1
331
4C00
331
4BD8
 73
     2
 91
        0
 40
0.9999999999999998
 10
0.0
 20
0.0
 30
2.000000000000000E+50
 75
     0
  0
DIMASSOC
  5
5722
102
{ACAD_REACTORS
330
5716
102
}
330
5716
100
AcDbDimAssoc
330
5707
 90
        3
 70
     0
 71
     0
  1
AcDbOsnapPointRef
 72
     1
331
4ADC
331
4AA5
 73
     2
 91
        0
 40
1.0
 10
0.0
 20
0.0
 30
2.000000000000000E+50
 75
     0
  1
AcDbOsnapPointRef
 72
    13
331
4ADC
331
4AA6
 73
     2
 91
        0
 40
0.0
 10
0.0
 20
0.0
 30
2.000000000000000E+50
 75
     0
  0
DIMASSOC
  5
573A
102
{ACAD_REACTORS
330
5730
102
}
330
5730
100
AcDbDimAssoc
330
5723
 90
        3
 70
     0
 71
     0
  1
AcDbOsnapPointRef
 72
     1
331
4ADC
331
4AA5
 73
     2
 91
        0
 40
1.0
 10
0.0
 20
0.0
 30
2.000000000000000E+50
 75
     0
  1
AcDbOsnapPointRef
 72
    13
331
4C00
331
4BD0
 73
     2
 91
        0
 40
0.0
 10
0.0
 20
0.0
 30
2.000000000000000E+50
 75
     0
  0
DIMASSOC
  5
5752
102
{ACAD_REACTORS
330
5748
102
}
330
5748
100
AcDbDimAssoc
330
573B
 90
        3
 70
     0
 71
     0
  1
AcDbOsnapPointRef
 72
     1
331
4ADC
331
4AA5
 73
     2
 91
        0
 40
1.0
 10
0.0
 20
0.0
 30
2.000000000000000E+50
 75
     0
  1
AcDbOsnapPointRef
 72
     1
331
501A
331
4FE3
 73
     2
 91
        0
 40
1.0
 10
0.0
 20
0.0
 30
2.000000000000000E+50
 75
     0
  0
DIMASSOC
  5
576A
102
{ACAD_REACTORS
330
5760
102
}
330
5760
100
AcDbDimAssoc
330
5753
 90
        3
 70
     0
 71
     0
  1
AcDbOsnapPointRef
 72
     1
331
501A
331
4FE3
 73
     2
 91
        0
 40
1.0
 10
0.0
 20
0.0
 30
2.000000000000000E+50
 75
     0
  1
AcDbOsnapPointRef
 72
    13
331
4E20
331
4DF4
 73
     2
 91
        0
 40
0.0
 10
0.0
 20
0.0
 30
2.000000000000000E+50
 75
     0
  0
DIMASSOC
  5
5782
102
{ACAD_REACTORS
330
5778
102
}
330
5778
100
AcDbDimAssoc
330
576B
 90
        3
 70
     0
 71
     0
  1
AcDbOsnapPointRef
 72
    13
331
4C00
331
4BD0
 73
     2
 91
        0
 40
0.0
 10
0.0
 20
0.0
 30
2.000000000000000E+50
 75
     0
  1
AcDbOsnapPointRef
 72
    13
331
4E20
331
4DF4
 73
     2
 91
        0
 40
0.0
 10
0.0
 20
0.0
 30
2.000000000000000E+50
 75
     0
  0
DIMASSOC
  5
5949
102
{ACAD_REACTORS
330
593F
102
}
330
593F
100
AcDbDimAssoc
330
5932
 90
        3
 70
     0
 71
     0
  1
AcDbOsnapPointRef
 72
    13
331
4E20
331
4DFA
 73
     2
 91
        0
 40
0.0
 10
0.0
 20
0.0
 30
2.000000000000000E+50
 75
     0
  1
AcDbOsnapPointRef
 72
    13
331
4E20
331
4DF1
 73
     2
 91
        0
 40
0.0
 10
0.0
 20
0.0
 30
2.000000000000000E+50
 75
     0
  0
DIMASSOC
  5
5973
102
{ACAD_REACTORS
330
5969
102
}
330
5969
100
AcDbDimAssoc
330
595C
 90
        3
 70
     0
 71
     0
  1
AcDbOsnapPointRef
 72
    13
331
501A
331
5013
 73
     2
 91
        0
 40
0.0
 10
0.0
 20
0.0
 30
2.000000000000000E+50
 75
     0
  1
AcDbOsnapPointRef
 72
     8
331
501A
331
4FE3
 73
     2
 91
        0
 40
0.9999999999999879
 10
0.0
 20
0.0
 30
0.0
 75
     1
  1
AcDbOsnapPointRef
 72
    13
331
501A
331
5013
 73
     2
 91
        0
 40
0.0
 10
0.0
 20
0.0
 30
2.000000000000000E+50
 75
     0
  0
DIMASSOC
  5
598B
102
{ACAD_REACTORS
330
5981
102
}
330
5981
100
AcDbDimAssoc
330
5974
 90
        3
 70
     0
 71
     0
  1
AcDbOsnapPointRef
 72
    13
331
4ADC
331
4AB7
 73
     2
 91
        0
 40
0.0
 10
0.0
 20
0.0
 30
2.000000000000000E+50
 75
     0
  1
AcDbOsnapPointRef
 72
    13
331
4ADC
331
4AA9
 73
     2
 91
        0
 40
0.0
 10
0.0
 20
0.0
 30
2.000000000000000E+50
 75
     0
  0
DIMASSOC
  5
684D
102
{ACAD_REACTORS
330
684C
102
}
330
684C
100
AcDbDimAssoc
330
683F
 90
        1
 70
     0
 71
     0
  1
AcDbOsnapPointRef
 72
     1
331
4E20
331
4E02
 73
     0
 91
        0
 40
0.0
 10
0.0
 20
0.0
 30
2.000000000000000E+50
 75
     0
  0
DIMASSOC
  5
6877
102
{ACAD_REACTORS
330
6876
102
}
330
6876
100
AcDbDimAssoc
330
6869
 90
        3
 70
     0
 71
     0
  1
AcDbOsnapPointRef
 72
     1
331
4E20
331
4E01
 73
     0
 91
        0
 40
0.0
 10
0.0
 20
0.0
 30
2.000000000000000E+50
 75
     0
  1
AcDbOsnapPointRef
 72
     4
331
5692
331
5C23
 73
     0
 91
        0
 40
0.0
 10
0.0
 20
0.0
 30
0.0
 75
     0
  0
DIMASSOC
  5
691E
102
{ACAD_REACTORS
330
691D
102
}
330
691D
100
AcDbDimAssoc
330
690E
 90
        1
 70
     0
 71
     0
  1
AcDbOsnapPointRef
 72
     1
331
4E20
331
4DF4
 73
     0
 91
        0
 40
0.0
 10
0.0
 20
0.0
 30
2.000000000000000E+50
 75
     0
  0
LAYOUT
  5
22
102
{ACAD_REACTORS
330
1A
102
}
330
1A
100
AcDbPlotSettings
  1

  2
KONICA MINOLTA 501 PCL
  4
A4
  6

 40
5.027082920074462
 41
5.027085781097412
 42
5.027069091796875
 43
5.027069091796875
 44
209.9733276367186
 45
296.9259948730469
 46
4.266446880221748
 47
0.0
 48
0.0
 49
0.0
140
0.0
141
0.0
142
1.0
143
10.7834750809363
 70
 11956
 72
     1
 73
     1
 74
     1
  7
SEISA.ctb
 75
     0
147
0.0927344842450522
 76
     0
 77
     2
 78
   300
148
-1876.753254587949
149
-2071.830615249093
100
AcDbLayout
  1
Model
 70
     1
 71
     0
 10
0.0
 20
0.0
 11
12.0
 21
9.0
 12
0.0
 22
0.0
 32
0.0
 14
0.0
 24
0.0
 34
0.0
 15
0.0
 25
0.0
 35
0.0
146
0.0
 13
0.0
 23
0.0
 33
0.0
 16
1.0
 26
0.0
 36
0.0
 17
0.0
 27
1.0
 37
0.0
 76
     0
330
1F
331
27A
1001
ACAD_PSEXT
1000
KONICA MINOLTA 501 PCL
1000
KONICA MINOLTA 501/421/361PCL
1000
IP_192.168.20.231_(1)
1000

1070
     0
  0
LAYOUT
  5
1E
102
{ACAD_REACTORS
330
1A
102
}
330
1A
100
AcDbPlotSettings
  1

  2
none_device
  4
Letter_(8.50_x_11.00_Inches)
  6

 40
6.349999904632567
 41
6.349999904632567
 42
6.350006103515625
 43
6.350006103515625
 44
215.8999938964844
 45
279.3999938964844
 46
0.0
 47
0.0
 48
0.0
 49
0.0
140
0.0
141
0.0
142
1.0
143
1.0
 70
 15024
 72
     1
 73
     1
 74
     5
  7
SEISA.ctb
 75
    16
147
1.0
 76
     0
 77
     2
 78
   300
148
0.0
149
0.0
100
AcDbLayout
  1
レイアウト1
 70
     1
 71
     1
 10
0.0
 20
0.0
 11
420.0
 21
297.0
 12
0.0
 22
0.0
 32
0.0
 14
1.000000000000000E+20
 24
1.000000000000000E+20
 34
1.000000000000000E+20
 15
-1.000000000000000E+20
 25
-1.000000000000000E+20
 35
-1.000000000000000E+20
146
0.0
 13
0.0
 23
0.0
 33
0.0
 16
1.0
 26
0.0
 36
0.0
 17
0.0
 27
1.0
 37
0.0
 76
     0
330
1B
  0
LAYOUT
  5
26
102
{ACAD_REACTORS
330
1A
102
}
330
1A
100
AcDbPlotSettings
  1

  2
none_device
  4
Letter_(8.50_x_11.00_Inches)
  6

 40
6.349999904632567
 41
6.349999904632567
 42
6.350006103515625
 43
6.350006103515625
 44
215.8999938964844
 45
279.3999938964844
 46
0.0
 47
0.0
 48
0.0
 49
0.0
140
0.0
141
0.0
142
1.0
143
1.0
 70
 15024
 72
     1
 73
     1
 74
     5
  7
SEISA.ctb
 75
    16
147
1.0
 76
     0
 77
     2
 78
   300
148
0.0
149
0.0
100
AcDbLayout
  1
レイアウト2
 70
     1
 71
     2
 10
0.0
 20
0.0
 11
12.0
 21
9.0
 12
0.0
 22
0.0
 32
0.0
 14
0.0
 24
0.0
 34
0.0
 15
0.0
 25
0.0
 35
0.0
146
0.0
 13
0.0
 23
0.0
 33
0.0
 16
1.0
 26
0.0
 36
0.0
 17
0.0
 27
1.0
 37
0.0
 76
     0
330
23
  0
MATERIAL
  5
27D
102
{ACAD_REACTORS
330
C4
102
}
330
C4
100
AcDbMaterial
  1
ByBlock
 73
     1
 78
     1
172
     1
176
     1
270
     1
274
     1
 94
       63
  0
MATERIAL
  5
27C
102
{ACAD_REACTORS
330
C4
102
}
330
C4
100
AcDbMaterial
  1
ByLayer
 73
     1
 78
     1
172
     1
176
     1
270
     1
274
     1
 94
       63
  0
MATERIAL
  5
27E
102
{ACAD_REACTORS
330
C4
102
}
330
C4
100
AcDbMaterial
  1
Global
 73
     1
 78
     1
172
     1
176
     1
270
     1
274
     1
 94
       63
  0
MLEADERSTYLE
  5
2D6
102
{ACAD_REACTORS
330
2D5
102
}
330
2D5
100
AcDbMLeaderStyle
170
     2
171
     1
172
     0
 90
        2
 40
0.0
 41
0.0
173
     1
 91
-1056964608
340
14
 92
       -2
290
     1
 42
2.0
291
     1
 43
0.36
  3
Standard
 44
4.0
300

342
11
174
     1
178
     6
175
     1
176
     0
 93
-1056964608
 45
4.0
292
     0
297
     0
 46
4.0
 94
-1056964608
 47
1.0
 49
1.0
140
1.0
293
     1
141
0.0
294
     1
177
     0
142
1.0
295
     0
296
     0
143
0.125
1001
ACAD_MLEADERVER
1070
     2
  0
MLINESTYLE
  5
18
102
{ACAD_REACTORS
330
17
102
}
330
17
100
AcDbMlineStyle
  2
STANDARD
 70
     0
  3

 62
   256
 51
90.0
 52
90.0
 71
     2
 49
0.5
 62
   256
  6
BYLAYER
 49
-0.5
 62
   256
  6
BYLAYER
  0
PLOTSETTINGS
  5
1C7E
102
{ACAD_REACTORS
330
19
102
}
330
19
100
AcDbPlotSettings
  1
SEISA基本
  2
none_device
  4
Letter_(8.50_x_11.00_Inches)
  6

 40
6.349999904632567
 41
6.349999904632567
 42
6.350006103515625
 43
6.350006103515625
 44
215.8999938964844
 45
279.3999938964844
 46
7.302498226506357
 47
0.0
 48
0.0
 49
0.0
140
0.0
141
0.0
142
1.0
143
1.574803221122935
 70
 11956
 72
     1
 73
     1
 74
     2
  7
SEISA.ctb
 75
     0
147
0.6349999711627054
 76
     0
 77
     2
 78
   300
148
0.0
149
0.0
1001
ACAD_PSEXT
1000
なし
1000
なし
1000
適切ではありません
1000
新しいプロッタ環境設定名を選択しない限り、レイアウトは印刷されません。
1070
     0
  0
ACDBPLACEHOLDER
  5
F
102
{ACAD_REACTORS
330
E
102
}
330
E
  0
SCALE
  5
2A04
102
{ACAD_REACTORS
330
2B3
102
}
330
2B3
100
AcDbScale
 70
     0
300
1:15
140
1.0
141
15.0
290
     0
  0
SCALE
  5
6718
102
{ACAD_REACTORS
330
2B3
102
}
330
2B3
100
AcDbScale
 70
     0
300
1:3
140
1.0
141
3.0
290
     0
  0
SCALE
  5
6719
102
{ACAD_REACTORS
330
2B3
102
}
330
2B3
100
AcDbScale
 70
     0
300
1:2.5
140
1.0
141
2.5
290
     0
  0
SCALE
  5
671A
102
{ACAD_REACTORS
330
2B3
102
}
330
2B3
100
AcDbScale
 70
     0
300
1:1.5
140
1.0
141
1.5
290
     0
  0
SCALE
  5
2B4
102
{ACAD_REACTORS
330
2B3
102
}
330
2B3
100
AcDbScale
 70
     0
300
1:1
140
1.0
141
1.0
290
     1
  0
SCALE
  5
2B5
102
{ACAD_REACTORS
330
2B3
102
}
330
2B3
100
AcDbScale
 70
     0
300
1:2
140
1.0
141
2.0
290
     0
  0
SCALE
  5
2B6
102
{ACAD_REACTORS
330
2B3
102
}
330
2B3
100
AcDbScale
 70
     0
300
1:4
140
1.0
141
4.0
290
     0
  0
SCALE
  5
2B7
102
{ACAD_REACTORS
330
2B3
102
}
330
2B3
100
AcDbScale
 70
     0
300
1:5
140
1.0
141
5.0
290
     0
  0
SCALE
  5
2B8
102
{ACAD_REACTORS
330
2B3
102
}
330
2B3
100
AcDbScale
 70
     0
300
1:8
140
1.0
141
8.0
290
     0
  0
SCALE
  5
2B9
102
{ACAD_REACTORS
330
2B3
102
}
330
2B3
100
AcDbScale
 70
     0
300
1:10
140
1.0
141
10.0
290
     0
  0
SCALE
  5
2BA
102
{ACAD_REACTORS
330
2B3
102
}
330
2B3
100
AcDbScale
 70
     0
300
1:16
140
1.0
141
16.0
290
     0
  0
SCALE
  5
2BB
102
{ACAD_REACTORS
330
2B3
102
}
330
2B3
100
AcDbScale
 70
     0
300
1:20
140
1.0
141
20.0
290
     0
  0
SCALE
  5
2BC
102
{ACAD_REACTORS
330
2B3
102
}
330
2B3
100
AcDbScale
 70
     0
300
1:30
140
1.0
141
30.0
290
     0
  0
SCALE
  5
2BD
102
{ACAD_REACTORS
330
2B3
102
}
330
2B3
100
AcDbScale
 70
     0
300
1:40
140
1.0
141
40.0
290
     0
  0
SCALE
  5
2BE
102
{ACAD_REACTORS
330
2B3
102
}
330
2B3
100
AcDbScale
 70
     0
300
1:50
140
1.0
141
50.0
290
     0
  0
SCALE
  5
2BF
102
{ACAD_REACTORS
330
2B3
102
}
330
2B3
100
AcDbScale
 70
     0
300
1:100
140
1.0
141
100.0
290
     0
  0
SCALE
  5
2C0
102
{ACAD_REACTORS
330
2B3
102
}
330
2B3
100
AcDbScale
 70
     0
300
2:1
140
2.0
141
1.0
290
     0
  0
SCALE
  5
2C1
102
{ACAD_REACTORS
330
2B3
102
}
330
2B3
100
AcDbScale
 70
     0
300
4:1
140
4.0
141
1.0
290
     0
  0
SCALE
  5
2C2
102
{ACAD_REACTORS
330
2B3
102
}
330
2B3
100
AcDbScale
 70
     0
300
8:1
140
8.0
141
1.0
290
     0
  0
SCALE
  5
2C3
102
{ACAD_REACTORS
330
2B3
102
}
330
2B3
100
AcDbScale
 70
     0
300
10:1
140
10.0
141
1.0
290
     0
  0
SCALE
  5
2C4
102
{ACAD_REACTORS
330
2B3
102
}
330
2B3
100
AcDbScale
 70
     0
300
100:1
140
100.0
141
1.0
290
     0
  0
SCALE
  5
2C5
102
{ACAD_REACTORS
330
2B3
102
}
330
2B3
100
AcDbScale
 70
     0
300
1/128" = 1'-0"
140
0.0078125
141
12.0
290
     0
  0
SCALE
  5
2C6
102
{ACAD_REACTORS
330
2B3
102
}
330
2B3
100
AcDbScale
 70
     0
300
1/64" = 1'-0"
140
0.015625
141
12.0
290
     0
  0
SCALE
  5
2C7
102
{ACAD_REACTORS
330
2B3
102
}
330
2B3
100
AcDbScale
 70
     0
300
1/32" = 1'-0"
140
0.03125
141
12.0
290
     0
  0
SCALE
  5
2C8
102
{ACAD_REACTORS
330
2B3
102
}
330
2B3
100
AcDbScale
 70
     0
300
1/16" = 1'-0"
140
0.0625
141
12.0
290
     0
  0
SCALE
  5
2C9
102
{ACAD_REACTORS
330
2B3
102
}
330
2B3
100
AcDbScale
 70
     0
300
3/32" = 1'-0"
140
0.09375
141
12.0
290
     0
  0
SCALE
  5
2CA
102
{ACAD_REACTORS
330
2B3
102
}
330
2B3
100
AcDbScale
 70
     0
300
1/8" = 1'-0"
140
0.125
141
12.0
290
     0
  0
SCALE
  5
2CB
102
{ACAD_REACTORS
330
2B3
102
}
330
2B3
100
AcDbScale
 70
     0
300
3/16" = 1'-0"
140
0.1875
141
12.0
290
     0
  0
SCALE
  5
2CC
102
{ACAD_REACTORS
330
2B3
102
}
330
2B3
100
AcDbScale
 70
     0
300
1/4" = 1'-0"
140
0.25
141
12.0
290
     0
  0
SCALE
  5
2CD
102
{ACAD_REACTORS
330
2B3
102
}
330
2B3
100
AcDbScale
 70
     0
300
3/8" = 1'-0"
140
0.375
141
12.0
290
     0
  0
SCALE
  5
2CE
102
{ACAD_REACTORS
330
2B3
102
}
330
2B3
100
AcDbScale
 70
     0
300
1/2" = 1'-0"
140
0.5
141
12.0
290
     0
  0
SCALE
  5
2CF
102
{ACAD_REACTORS
330
2B3
102
}
330
2B3
100
AcDbScale
 70
     0
300
3/4" = 1'-0"
140
0.75
141
12.0
290
     0
  0
SCALE
  5
2D0
102
{ACAD_REACTORS
330
2B3
102
}
330
2B3
100
AcDbScale
 70
     0
300
1" = 1'-0"
140
1.0
141
12.0
290
     0
  0
SCALE
  5
2D1
102
{ACAD_REACTORS
330
2B3
102
}
330
2B3
100
AcDbScale
 70
     0
300
1-1/2" = 1'-0"
140
1.5
141
12.0
290
     0
  0
SCALE
  5
2D2
102
{ACAD_REACTORS
330
2B3
102
}
330
2B3
100
AcDbScale
 70
     0
300
3" = 1'-0"
140
3.0
141
12.0
290
     0
  0
SCALE
  5
2D3
102
{ACAD_REACTORS
330
2B3
102
}
330
2B3
100
AcDbScale
 70
     0
300
6" = 1'-0"
140
6.0
141
12.0
290
     0
  0
SCALE
  5
2D4
102
{ACAD_REACTORS
330
2B3
102
}
330
2B3
100
AcDbScale
 70
     0
300
1'-0" = 1'-0"
140
12.0
141
12.0
290
     0
  0
TABLESTYLE
  5
122
102
{ACAD_XDICTIONARY
360
2F5
102
}
102
{ACAD_REACTORS
330
121
102
}
330
121
100
AcDbTableStyle
  3
Standard
 70
     0
 71
     0
 40
1.5
 41
1.5
280
     0
281
     0
  7
STANDARD
140
4.5
170
     2
 62
     0
 63
     7
283
     0
 90
      512
 91
        0
  1

274
    -2
284
     1
 64
     0
275
    -2
285
     1
 65
     0
276
    -2
286
     1
 66
     0
277
    -2
287
     1
 67
     0
278
    -2
288
     1
 68
     0
279
    -2
289
     1
 69
     0
  7
STANDARD
140
6.0
170
     5
 62
     0
 63
     7
283
     0
 90
      512
 91
        0
  1

274
    -2
284
     1
 64
     0
275
    -2
285
     1
 65
     0
276
    -2
286
     1
 66
     0
277
    -2
287
     1
 67
     0
278
    -2
288
     1
 68
     0
279
    -2
289
     1
 69
     0
  7
STANDARD
140
4.5
170
     5
 62
     0
 63
     7
283
     0
 90
      512
 91
        0
  1

274
    -2
284
     1
 64
     0
275
    -2
285
     1
 65
     0
276
    -2
286
     1
 66
     0
277
    -2
287
     1
 67
     0
278
    -2
288
     1
 68
     0
279
    -2
289
     1
 69
     0
  0
VISUALSTYLE
  5
285
102
{ACAD_REACTORS
330
27F
102
}
330
27F
100
AcDbVisualStyle
  2
2dWireframe
 70
     4
 71
     0
 72
     2
 73
     0
 90
        0
 40
-0.6
 41
-30.0
 62
     5
 63
     7
421
 16777215
 74
     1
 91
        4
 64
     7
 65
   257
 75
     1
175
     1
 42
1.0
 92
        0
 66
   257
 43
1.0
 76
     1
 77
     6
 78
     2
 67
     7
 79
     5
170
     0
171
     0
290
     0
174
     0
 93
        1
 44
0.0
173
     0
291
     0
 45
0.0
  0
VISUALSTYLE
  5
287
102
{ACAD_REACTORS
330
27F
102
}
330
27F
100
AcDbVisualStyle
  2
3D Hidden
 70
     6
 71
     1
 72
     2
 73
     2
 90
        0
 40
-0.6
 41
-30.0
 62
     5
 63
     7
421
 16777215
 74
     2
 91
        2
 64
     7
 65
   257
 75
     2
175
     1
 42
40.0
 92
        0
 66
   257
 43
1.0
 76
     1
 77
     6
 78
     2
 67
     7
 79
     3
170
     0
171
     0
290
     0
174
     0
 93
        1
 44
0.0
173
     0
291
     0
 45
0.0
  0
VISUALSTYLE
  5
286
102
{ACAD_REACTORS
330
27F
102
}
330
27F
100
AcDbVisualStyle
  2
3dWireframe
 70
     5
 71
     0
 72
     2
 73
     0
 90
        0
 40
-0.6
 41
-30.0
 62
     5
 63
     7
421
 16777215
 74
     1
 91
        4
 64
     7
 65
   257
 75
     1
175
     1
 42
1.0
 92
        0
 66
   257
 43
1.0
 76
     1
 77
     6
 78
     2
 67
     7
 79
     5
170
     0
171
     0
290
     0
174
     0
 93
        1
 44
0.0
173
     0
291
     0
 45
0.0
  0
VISUALSTYLE
  5
284
102
{ACAD_REACTORS
330
27F
102
}
330
27F
100
AcDbVisualStyle
  2
Basic
 70
     7
 71
     1
 72
     0
 73
     1
 90
        0
 40
-0.6
 41
-30.0
 62
     5
 63
     7
421
 16777215
 74
     0
 91
        4
 64
     7
 65
   257
 75
     1
175
     1
 42
1.0
 92
        8
 66
     7
 43
1.0
 76
     1
 77
     6
 78
     2
 67
     7
 79
     5
170
     0
171
     0
290
     0
174
     0
 93
        1
 44
0.0
173
     0
291
     1
 45
0.0
  0
VISUALSTYLE
  5
28B
102
{ACAD_REACTORS
330
27F
102
}
330
27F
100
AcDbVisualStyle
  2
Brighten
 70
    12
 71
     2
 72
     2
 73
     0
 90
        0
 40
-0.6
 41
-30.0
 62
     5
 63
     7
421
 16777215
 74
     1
 91
        4
 64
     7
 65
   257
 75
     1
175
     1
 42
1.0
 92
        8
 66
     7
 43
1.0
 76
     1
 77
     6
 78
     2
 67
     7
 79
     5
170
     0
171
     0
290
     0
174
     0
 93
        1
 44
50.0
173
     0
291
     1
 45
0.0
  0
VISUALSTYLE
  5
28F
102
{ACAD_REACTORS
330
27F
102
}
330
27F
100
AcDbVisualStyle
  2
ColorChange
 70
    16
 71
     2
 72
     2
 73
     3
 90
        0
 40
-0.6
 41
-30.0
 62
     5
 63
     8
421
  8421504
 74
     1
 91
        4
 64
     7
 65
   257
 75
     1
175
     1
 42
1.0
 92
        8
 66
     8
424
  8421504
 43
1.0
 76
     1
 77
     6
 78
     2
 67
     7
 79
     5
170
     0
171
     0
290
     0
174
     0
 93
        1
 44
0.0
173
     0
291
     1
 45
0.0
  0
VISUALSTYLE
  5
288
102
{ACAD_REACTORS
330
27F
102
}
330
27F
100
AcDbVisualStyle
  2
Conceptual
 70
     9
 71
     3
 72
     2
 73
     0
 90
        0
 40
-0.6
 41
-30.0
 62
     5
 63
     7
421
 16777215
 74
     2
 91
        2
 64
     7
 65
   257
 75
     1
175
     1
 42
40.0
 92
        8
 66
     7
 43
1.0
 76
     1
 77
     6
 78
     2
 67
     7
 79
     3
170
     0
171
     0
290
     0
174
     0
 93
        1
 44
0.0
173
     0
291
     0
 45
0.0
  0
VISUALSTYLE
  5
28A
102
{ACAD_REACTORS
330
27F
102
}
330
27F
100
AcDbVisualStyle
  2
Dim
 70
    11
 71
     2
 72
     2
 73
     0
 90
        0
 40
-0.6
 41
-30.0
 62
     5
 63
     7
421
 16777215
 74
     1
 91
        4
 64
     7
 65
   257
 75
     1
175
     1
 42
1.0
 92
        8
 66
     7
 43
1.0
 76
     1
 77
     6
 78
     2
 67
     7
 79
     5
170
     0
171
     0
290
     0
174
     0
 93
        1
 44
-50.0
173
     0
291
     1
 45
0.0
  0
VISUALSTYLE
  5
28E
102
{ACAD_REACTORS
330
27F
102
}
330
27F
100
AcDbVisualStyle
  2
Facepattern
 70
    15
 71
     2
 72
     2
 73
     0
 90
        0
 40
-0.6
 41
-30.0
 62
     5
 63
     7
421
 16777215
 74
     1
 91
        4
 64
     7
 65
   257
 75
     1
175
     1
 42
1.0
 92
        8
 66
     7
 43
1.0
 76
     1
 77
     6
 78
     2
 67
     7
 79
     5
170
     0
171
     0
290
     0
174
     0
 93
        1
 44
0.0
173
     0
291
     1
 45
0.0
  0
VISUALSTYLE
  5
280
102
{ACAD_REACTORS
330
27F
102
}
330
27F
100
AcDbVisualStyle
  2
Flat
 70
     0
 71
     2
 72
     1
 73
     1
 90
        2
 40
-0.6
 41
30.0
 62
     5
 63
     7
421
 16777215
 74
     0
 91
        4
 64
     7
 65
   257
 75
     1
175
     1
 42
1.0
 92
        8
 66
     7
 43
1.0
 76
     1
 77
     6
 78
     2
 67
     7
 79
     5
170
     0
171
     0
290
     0
174
     0
 93
       13
 44
0.0
173
     0
291
     1
 45
0.0
  0
VISUALSTYLE
  5
281
102
{ACAD_REACTORS
330
27F
102
}
330
27F
100
AcDbVisualStyle
  2
FlatWithEdges
 70
     1
 71
     2
 72
     1
 73
     1
 90
        2
 40
-0.6
 41
30.0
 62
     5
 63
     7
421
 16777215
 74
     1
 91
        4
 64
     7
 65
   257
 75
     1
175
     1
 42
1.0
 92
        0
 66
   257
 43
1.0
 76
     1
 77
     6
 78
     2
 67
     7
 79
     5
170
     0
171
     0
290
     0
174
     0
 93
       13
 44
0.0
173
     0
291
     1
 45
0.0
  0
VISUALSTYLE
  5
282
102
{ACAD_REACTORS
330
27F
102
}
330
27F
100
AcDbVisualStyle
  2
Gouraud
 70
     2
 71
     2
 72
     2
 73
     1
 90
        2
 40
-0.6
 41
30.0
 62
     5
 63
     7
421
 16777215
 74
     0
 91
        4
 64
     7
 65
   257
 75
     1
175
     1
 42
1.0
 92
        0
 66
     7
 43
1.0
 76
     1
 77
     6
 78
     2
 67
     7
 79
     5
170
     0
171
     0
290
     0
174
     0
 93
       13
 44
0.0
173
     0
291
     1
 45
0.0
  0
VISUALSTYLE
  5
283
102
{ACAD_REACTORS
330
27F
102
}
330
27F
100
AcDbVisualStyle
  2
GouraudWithEdges
 70
     3
 71
     2
 72
     2
 73
     1
 90
        2
 40
-0.6
 41
30.0
 62
     5
 63
     7
421
 16777215
 74
     1
 91
        4
 64
     7
 65
   257
 75
     1
175
     1
 42
1.0
 92
        0
 66
   257
 43
1.0
 76
     1
 77
     6
 78
     2
 67
     7
 79
     5
170
     0
171
     0
290
     0
174
     0
 93
       13
 44
0.0
173
     0
291
     1
 45
0.0
  0
VISUALSTYLE
  5
28D
102
{ACAD_REACTORS
330
27F
102
}
330
27F
100
AcDbVisualStyle
  2
Linepattern
 70
    14
 71
     2
 72
     2
 73
     0
 90
        0
 40
-0.6
 41
-30.0
 62
     5
 63
     7
421
 16777215
 74
     1
 91
        4
 64
     7
 65
   257
 75
     7
175
     7
 42
1.0
 92
        8
 66
     7
 43
1.0
 76
     1
 77
     6
 78
     2
 67
     7
 79
     5
170
     0
171
     0
290
     0
174
     0
 93
        1
 44
0.0
173
     0
291
     1
 45
0.0
  0
VISUALSTYLE
  5
289
102
{ACAD_REACTORS
330
27F
102
}
330
27F
100
AcDbVisualStyle
  2
Realistic
 70
     8
 71
     2
 72
     2
 73
     0
 90
        0
 40
-0.6
 41
-30.0
 62
     5
 63
     7
421
 16777215
 74
     1
 91
        0
 64
     7
 65
   257
 75
     1
175
     1
 42
1.0
 92
        8
 66
     8
424
  7895160
 43
1.0
 76
     1
 77
     6
 78
     2
 67
     7
 79
     5
170
     0
171
     0
290
     0
174
     0
 93
       13
 44
0.0
173
     0
291
     0
 45
0.0
  0
VISUALSTYLE
  5
28C
102
{ACAD_REACTORS
330
27F
102
}
330
27F
100
AcDbVisualStyle
  2
Thicken
 70
    13
 71
     2
 72
     2
 73
     0
 90
        0
 40
-0.6
 41
-30.0
 62
     5
 63
     7
421
 16777215
 74
     1
 91
        4
 64
     7
 65
   257
 75
     1
175
     1
 42
1.0
 92
       12
 66
     7
 43
1.0
 76
     1
 77
     6
 78
     2
 67
     7
 79
     5
170
     0
171
     0
290
     0
174
     0
 93
        1
 44
0.0
173
     0
291
     1
 45
0.0
  0
DICTIONARYVAR
  5
2FA
102
{ACAD_REACTORS
330
34
102
}
330
34
100
DictionaryVariables
280
     0
  1
1:15
  0
DICTIONARYVAR
  5
2F8
102
{ACAD_REACTORS
330
34
102
}
330
34
100
DictionaryVariables
280
     0
  1
STANDARD
  0
DICTIONARYVAR
  5
140
102
{ACAD_REACTORS
330
34
102
}
330
34
100
DictionaryVariables
280
     0
  1
STANDARD
  0
DICTIONARYVAR
  5
AC
102
{ACAD_REACTORS
330
34
102
}
330
34
100
DictionaryVariables
280
     0
  1
1
  0
DICTIONARYVAR
  5
35
102
{ACAD_REACTORS
330
34
102
}
330
34
100
DictionaryVariables
280
     0
  1
1
  0
DICTIONARYVAR
  5
62AC
102
{ACAD_REACTORS
330
34
102
}
330
34
100
DictionaryVariables
280
     0
  1
1
  0
DICTIONARYVAR
  5
62AD
102
{ACAD_REACTORS
330
34
102
}
330
34
100
DictionaryVariables
280
     0
  1
15
  0
DICTIONARYVAR
  5
2FB
102
{ACAD_REACTORS
330
34
102
}
330
34
100
DictionaryVariables
280
     0
  1
0
  0
DICTIONARYVAR
  5
2F9
102
{ACAD_REACTORS
330
34
102
}
330
34
100
DictionaryVariables
280
     0
  1
0
  0
DICTIONARY
  5
161B
102
{ACAD_REACTORS
330
49
102
}
330
49
100
AcDbDictionary
281
     1
  0
DICTIONARY
  5
4A
102
{ACAD_REACTORS
330
49
102
}
330
49
100
AcDbDictionary
281
     1
  0
XRECORD
  5
12B
102
{ACAD_REACTORS
330
49
102
}
330
49
100
AcDbXrecord
280
     1
 90
-1023410169
  0
DICTIONARY
  5
2F5
330
122
100
AcDbDictionary
280
     1
281
     1
  3
ACAD_ROUNDTRIP_2008_TABLESTYLE_CELLSTYLEMAP
360
6BA3
  0
CELLSTYLEMAP
  5
6BA3
102
{ACAD_REACTORS
330
2F5
102
}
330
2F5
100
AcDbCellStyleMap
 90
        3
300
CELLSTYLE
  1
TABLEFORMAT_BEGIN
 90
        5
170
     1
 91
        0
 92
    32768
 62
   257
 93
        1
300
CONTENTFORMAT
  1
CONTENTFORMAT_BEGIN
 90
        0
 91
        0
 92
      512
 93
        0
300

 40
0.0
140
1.0
 94
        5
 62
     0
340
11
144
6.0
309
CONTENTFORMAT_END
171
     1
301
MARGIN
  1
CELLMARGIN_BEGIN
 40
1.5
 40
1.5
 40
1.5
 40
1.5
 40
0.18
 40
0.18
309
CELLMARGIN_END
 94
        6
 95
        1
302
GRIDFORMAT
  1
GRIDFORMAT_BEGIN
 90
        0
 91
        1
 62
     0
 92
       -2
340
0
 93
        0
 40
0.045
309
GRIDFORMAT_END
 95
        2
302
GRIDFORMAT
  1
GRIDFORMAT_BEGIN
 90
        0
 91
        1
 62
     0
 92
       -2
340
0
 93
        0
 40
0.045
309
GRIDFORMAT_END
 95
        4
302
GRIDFORMAT
  1
GRIDFORMAT_BEGIN
 90
        0
 91
        1
 62
     0
 92
       -2
340
0
 93
        0
 40
0.045
309
GRIDFORMAT_END
 95
        8
302
GRIDFORMAT
  1
GRIDFORMAT_BEGIN
 90
        0
 91
        1
 62
     0
 92
       -2
340
0
 93
        0
 40
0.045
309
GRIDFORMAT_END
 95
       16
302
GRIDFORMAT
  1
GRIDFORMAT_BEGIN
 90
        0
 91
        1
 62
     0
 92
       -2
340
0
 93
        0
 40
0.045
309
GRIDFORMAT_END
 95
       32
302
GRIDFORMAT
  1
GRIDFORMAT_BEGIN
 90
        0
 91
        1
 62
     0
 92
       -2
340
0
 93
        0
 40
0.045
309
GRIDFORMAT_END
309
TABLEFORMAT_END
  1
CELLSTYLE_BEGIN
 90
        1
 91
        1
300
_TITLE
309
CELLSTYLE_END
300
CELLSTYLE
  1
TABLEFORMAT_BEGIN
 90
        5
170
     1
 91
        0
 92
        0
 62
   257
 93
        1
300
CONTENTFORMAT
  1
CONTENTFORMAT_BEGIN
 90
        0
 91
        0
 92
      512
 93
        0
300

 40
0.0
140
1.0
 94
        5
 62
     0
340
11
144
4.5
309
CONTENTFORMAT_END
171
     1
301
MARGIN
  1
CELLMARGIN_BEGIN
 40
1.5
 40
1.5
 40
1.5
 40
1.5
 40
0.18
 40
0.18
309
CELLMARGIN_END
 94
        6
 95
        1
302
GRIDFORMAT
  1
GRIDFORMAT_BEGIN
 90
        0
 91
        1
 62
     0
 92
       -2
340
0
 93
        0
 40
0.045
309
GRIDFORMAT_END
 95
        2
302
GRIDFORMAT
  1
GRIDFORMAT_BEGIN
 90
        0
 91
        1
 62
     0
 92
       -2
340
0
 93
        0
 40
0.045
309
GRIDFORMAT_END
 95
        4
302
GRIDFORMAT
  1
GRIDFORMAT_BEGIN
 90
        0
 91
        1
 62
     0
 92
       -2
340
0
 93
        0
 40
0.045
309
GRIDFORMAT_END
 95
        8
302
GRIDFORMAT
  1
GRIDFORMAT_BEGIN
 90
        0
 91
        1
 62
     0
 92
       -2
340
0
 93
        0
 40
0.045
309
GRIDFORMAT_END
 95
       16
302
GRIDFORMAT
  1
GRIDFORMAT_BEGIN
 90
        0
 91
        1
 62
     0
 92
       -2
340
0
 93
        0
 40
0.045
309
GRIDFORMAT_END
 95
       32
302
GRIDFORMAT
  1
GRIDFORMAT_BEGIN
 90
        0
 91
        1
 62
     0
 92
       -2
340
0
 93
        0
 40
0.045
309
GRIDFORMAT_END
309
TABLEFORMAT_END
  1
CELLSTYLE_BEGIN
 90
        2
 91
        1
300
_HEADER
309
CELLSTYLE_END
300
CELLSTYLE
  1
TABLEFORMAT_BEGIN
 90
        5
170
     1
 91
        0
 92
        0
 62
   257
 93
        1
300
CONTENTFORMAT
  1
CONTENTFORMAT_BEGIN
 90
        0
 91
        0
 92
      512
 93
        0
300

 40
0.0
140
1.0
 94
        2
 62
     0
340
11
144
4.5
309
CONTENTFORMAT_END
171
     1
301
MARGIN
  1
CELLMARGIN_BEGIN
 40
1.5
 40
1.5
 40
1.5
 40
1.5
 40
0.18
 40
0.18
309
CELLMARGIN_END
 94
        6
 95
        1
302
GRIDFORMAT
  1
GRIDFORMAT_BEGIN
 90
        0
 91
        1
 62
     0
 92
       -2
340
0
 93
        0
 40
0.045
309
GRIDFORMAT_END
 95
        2
302
GRIDFORMAT
  1
GRIDFORMAT_BEGIN
 90
        0
 91
        1
 62
     0
 92
       -2
340
0
 93
        0
 40
0.045
309
GRIDFORMAT_END
 95
        4
302
GRIDFORMAT
  1
GRIDFORMAT_BEGIN
 90
        0
 91
        1
 62
     0
 92
       -2
340
0
 93
        0
 40
0.045
309
GRIDFORMAT_END
 95
        8
302
GRIDFORMAT
  1
GRIDFORMAT_BEGIN
 90
        0
 91
        1
 62
     0
 92
       -2
340
0
 93
        0
 40
0.045
309
GRIDFORMAT_END
 95
       16
302
GRIDFORMAT
  1
GRIDFORMAT_BEGIN
 90
        0
 91
        1
 62
     0
 92
       -2
340
0
 93
        0
 40
0.045
309
GRIDFORMAT_END
 95
       32
302
GRIDFORMAT
  1
GRIDFORMAT_BEGIN
 90
        0
 91
        1
 62
     0
 92
       -2
340
0
 93
        0
 40
0.045
309
GRIDFORMAT_END
309
TABLEFORMAT_END
  1
CELLSTYLE_BEGIN
 90
        3
 91
        2
300
_DATA
309
CELLSTYLE_END
  0
ENDSEC
  0
EOF
