  0
SECTION
  2
HEADER
  9
$ACADVER
  1
AC1021
  9
$ACADMAINTVER
 70
    26
  9
$DWGCODEPAGE
  3
ANSI_932
  9
$LASTSAVEDBY
  1
Htm_Terada
  9
$CUSTOMPROPERTYTAG
  1
AmdtFileType
  9
$CUSTOMPROPERTY
  1
84
  9
$INSBASE
 10
0.0
 20
0.0
 30
0.0
  9
$EXTMIN
 10
1927.511584848826
 20
2230.589145845483
 30
0.0
  9
$EXTMAX
 10
4810.360515855055
 20
4136.453918771468
 30
0.0
  9
$LIMMIN
 10
0.0000028715078315
 20
0.0000055407309674
  9
$LIMMAX
 10
6300.000002871508
 20
4455.000005540731
  9
$ORTHOMODE
 70
     1
  9
$REGENMODE
 70
     1
  9
$FILLMODE
 70
     1
  9
$QTEXTMODE
 70
     0
  9
$MIRRTEXT
 70
     1
  9
$LTSCALE
 40
15.0
  9
$ATTMODE
 70
     1
  9
$TEXTSIZE
 40
25.0
  9
$TRACEWID
 40
1.0
  9
$TEXTSTYLE
  7
SEISA
  9
$CLAYER
  8
AM_0 外形線1
  9
$CELTYPE
  6
ByLayer
  9
$CECOLOR
 62
   256
  9
$CELTSCALE
 40
1.0
  9
$DISPSILH
 70
     0
  9
$DIMSCALE
 40
15.0
  9
$DIMASZ
 40
2.5
  9
$DIMEXO
 40
0.625
  9
$DIMDLI
 40
10.0
  9
$DIMRND
 40
0.0
  9
$DIMDLE
 40
0.0
  9
$DIMEXE
 40
0.625
  9
$DIMTP
 40
0.1
  9
$DIMTM
 40
0.1
  9
$DIMTXT
 40
3.5
  9
$DIMCEN
 40
0.0
  9
$DIMTSZ
 40
0.0
  9
$DIMTOL
 70
     0
  9
$DIMLIM
 70
     0
  9
$DIMTIH
 70
     0
  9
$DIMTOH
 70
     0
  9
$DIMSE1
 70
     0
  9
$DIMSE2
 70
     0
  9
$DIMTAD
 70
     3
  9
$DIMZIN
 70
     8
  9
$DIMBLK
  1
Open30
  9
$DIMASO
 70
     1
  9
$DIMSHO
 70
     1
  9
$DIMPOST
  1

  9
$DIMAPOST
  1
"
  9
$DIMALT
 70
     0
  9
$DIMALTD
 70
     2
  9
$DIMALTF
 40
0.0393701
  9
$DIMLFAC
 40
1.0
  9
$DIMTOFL
 70
     1
  9
$DIMTVP
 40
0.0
  9
$DIMTIX
 70
     0
  9
$DIMSOXD
 70
     0
  9
$DIMSAH
 70
     0
  9
$DIMBLK1
  1

  9
$DIMBLK2
  1

  9
$DIMSTYLE
  2
SEISA
  9
$DIMCLRD
 70
     3
  9
$DIMCLRE
 70
     3
  9
$DIMCLRT
 70
     3
  9
$DIMTFAC
 40
0.71
  9
$DIMGAP
 40
1.5
  9
$DIMJUST
 70
     0
  9
$DIMSD1
 70
     0
  9
$DIMSD2
 70
     0
  9
$DIMTOLJ
 70
     0
  9
$DIMTZIN
 70
     0
  9
$DIMALTZ
 70
     0
  9
$DIMALTTZ
 70
     8
  9
$DIMUPT
 70
     0
  9
$DIMDEC
 70
     2
  9
$DIMTDEC
 70
     2
  9
$DIMALTU
 70
     2
  9
$DIMALTTD
 70
     2
  9
$DIMTXSTY
  7
SEISA
  9
$DIMAUNIT
 70
     0
  9
$DIMADEC
 70
     0
  9
$DIMALTRND
 40
0.0
  9
$DIMAZIN
 70
     2
  9
$DIMDSEP
 70
    46
  9
$DIMATFIT
 70
     3
  9
$DIMFRAC
 70
     0
  9
$DIMLDRBLK
  1
Open30
  9
$DIMLUNIT
 70
     2
  9
$DIMLWD
 70
    -1
  9
$DIMLWE
 70
    -1
  9
$DIMTMOVE
 70
     0
  9
$DIMFXL
 40
1.0
  9
$DIMFXLON
 70
     0
  9
$DIMJOGANG
 40
0.7853981633974483
  9
$DIMTFILL
 70
     0
  9
$DIMTFILLCLR
 70
     0
  9
$DIMARCSYM
 70
     1
  9
$DIMLTYPE
  6

  9
$DIMLTEX1
  6

  9
$DIMLTEX2
  6

  9
$LUNITS
 70
     2
  9
$LUPREC
 70
     2
  9
$SKETCHINC
 40
1.0
  9
$FILLETRAD
 40
3.0
  9
$AUNITS
 70
     0
  9
$AUPREC
 70
     0
  9
$MENU
  1
.
  9
$ELEVATION
 40
0.0
  9
$PELEVATION
 40
0.0
  9
$THICKNESS
 40
0.0
  9
$LIMCHECK
 70
     0
  9
$CHAMFERA
 40
14.99999999999772
  9
$CHAMFERB
 40
14.99999999999863
  9
$CHAMFERC
 40
14.99999999999772
  9
$CHAMFERD
 40
0.7853981633974936
  9
$SKPOLY
 70
     0
  9
$TDCREATE
 40
2454946.619565000
  9
$TDUCREATE
 40
2454946.244565000
  9
$TDUPDATE
 40
2456478.719030486
  9
$TDUUPDATE
 40
2456478.344030486
  9
$TDINDWG
 40
0.2357580324
  9
$TDUSRTIMER
 40
0.2357571412
  9
$USRTIMER
 70
     1
  9
$ANGBASE
 50
0.0
  9
$ANGDIR
 70
     0
  9
$PDMODE
 70
     0
  9
$PDSIZE
 40
0.0
  9
$PLINEWID
 40
0.0
  9
$SPLFRAME
 70
     0
  9
$SPLINETYPE
 70
     6
  9
$SPLINESEGS
 70
     8
  9
$HANDSEED
  5
6F68
  9
$SURFTAB1
 70
     6
  9
$SURFTAB2
 70
     6
  9
$SURFTYPE
 70
     6
  9
$SURFU
 70
     6
  9
$SURFV
 70
     6
  9
$UCSBASE
  2

  9
$UCSNAME
  2

  9
$UCSORG
 10
0.0
 20
0.0
 30
0.0
  9
$UCSXDIR
 10
1.0
 20
0.0
 30
0.0
  9
$UCSYDIR
 10
0.0
 20
1.0
 30
0.0
  9
$UCSORTHOREF
  2

  9
$UCSORTHOVIEW
 70
     0
  9
$UCSORGTOP
 10
0.0
 20
0.0
 30
0.0
  9
$UCSORGBOTTOM
 10
0.0
 20
0.0
 30
0.0
  9
$UCSORGLEFT
 10
0.0
 20
0.0
 30
0.0
  9
$UCSORGRIGHT
 10
0.0
 20
0.0
 30
0.0
  9
$UCSORGFRONT
 10
0.0
 20
0.0
 30
0.0
  9
$UCSORGBACK
 10
0.0
 20
0.0
 30
0.0
  9
$PUCSBASE
  2

  9
$PUCSNAME
  2

  9
$PUCSORG
 10
0.0
 20
0.0
 30
0.0
  9
$PUCSXDIR
 10
1.0
 20
0.0
 30
0.0
  9
$PUCSYDIR
 10
0.0
 20
1.0
 30
0.0
  9
$PUCSORTHOREF
  2

  9
$PUCSORTHOVIEW
 70
     0
  9
$PUCSORGTOP
 10
0.0
 20
0.0
 30
0.0
  9
$PUCSORGBOTTOM
 10
0.0
 20
0.0
 30
0.0
  9
$PUCSORGLEFT
 10
0.0
 20
0.0
 30
0.0
  9
$PUCSORGRIGHT
 10
0.0
 20
0.0
 30
0.0
  9
$PUCSORGFRONT
 10
0.0
 20
0.0
 30
0.0
  9
$PUCSORGBACK
 10
0.0
 20
0.0
 30
0.0
  9
$USERI1
 70
     0
  9
$USERI2
 70
     0
  9
$USERI3
 70
     0
  9
$USERI4
 70
     0
  9
$USERI5
 70
     0
  9
$USERR1
 40
0.0
  9
$USERR2
 40
0.0
  9
$USERR3
 40
0.0
  9
$USERR4
 40
0.0
  9
$USERR5
 40
0.0
  9
$WORLDVIEW
 70
     1
  9
$SHADEDGE
 70
     3
  9
$SHADEDIF
 70
    70
  9
$TILEMODE
 70
     1
  9
$MAXACTVP
 70
    64
  9
$PINSBASE
 10
0.0
 20
0.0
 30
0.0
  9
$PLIMCHECK
 70
     0
  9
$PEXTMIN
 10
1.000000000000000E+20
 20
1.000000000000000E+20
 30
1.000000000000000E+20
  9
$PEXTMAX
 10
-1.000000000000000E+20
 20
-1.000000000000000E+20
 30
-1.000000000000000E+20
  9
$PLIMMIN
 10
0.0
 20
0.0
  9
$PLIMMAX
 10
420.0
 20
297.0
  9
$UNITMODE
 70
     0
  9
$VISRETAIN
 70
     1
  9
$PLINEGEN
 70
     0
  9
$PSLTSCALE
 70
     1
  9
$TREEDEPTH
 70
  3020
  9
$CMLSTYLE
  2
Standard
  9
$CMLJUST
 70
     0
  9
$CMLSCALE
 40
20.0
  9
$PROXYGRAPHICS
 70
     1
  9
$MEASUREMENT
 70
     1
  9
$CELWEIGHT
370
    -1
  9
$ENDCAPS
280
     0
  9
$JOINSTYLE
280
     0
  9
$LWDISPLAY
290
     0
  9
$INSUNITS
 70
     4
  9
$HYPERLINKBASE
  1

  9
$STYLESHEET
  1
SEISA.CTB
  9
$XEDIT
290
     1
  9
$CEPSNTYPE
380
     0
  9
$PSTYLEMODE
290
     1
  9
$FINGERPRINTGUID
  2
{6D8DCCD7-37B0-4783-BE00-30BE965AC09E}
  9
$VERSIONGUID
  2
{3C7CB8E4-5299-4B73-A086-C22F7C09547F}
  9
$EXTNAMES
290
     1
  9
$PSVPSCALE
 40
0.0
  9
$OLESTARTUP
290
     0
  9
$SORTENTS
280
   127
  9
$INDEXCTL
280
     0
  9
$HIDETEXT
280
     0
  9
$XCLIPFRAME
290
     0
  9
$HALOGAP
280
     0
  9
$OBSCOLOR
 70
   257
  9
$OBSLTYPE
280
     0
  9
$INTERSECTIONDISPLAY
280
     0
  9
$INTERSECTIONCOLOR
 70
   257
  9
$DIMASSOC
280
     2
  9
$PROJECTNAME
  1

  9
$CAMERADISPLAY
290
     0
  9
$LENSLENGTH
 40
50.0
  9
$CAMERAHEIGHT
 40
0.0
  9
$STEPSPERSEC
 40
2.0
  9
$STEPSIZE
 40
6.0
  9
$3DDWFPREC
 40
2.0
  9
$PSOLWIDTH
 40
0.25
  9
$PSOLHEIGHT
 40
4.0
  9
$LOFTANG1
 40
1.570796326794896
  9
$LOFTANG2
 40
1.570796326794896
  9
$LOFTMAG1
 40
0.0
  9
$LOFTMAG2
 40
0.0
  9
$LOFTPARAM
 70
     7
  9
$LOFTNORMALS
280
     1
  9
$LATITUDE
 40
37.795
  9
$LONGITUDE
 40
-122.394
  9
$NORTHDIRECTION
 40
0.0
  9
$TIMEZONE
 70
 -8000
  9
$LIGHTGLYPHDISPLAY
280
     1
  9
$TILEMODELIGHTSYNCH
280
     1
  9
$CMATERIAL
347
27C
  9
$SOLIDHIST
280
     1
  9
$SHOWHIST
280
     1
  9
$DWFFRAME
280
     2
  9
$DGNFRAME
280
     0
  9
$REALWORLDSCALE
290
     1
  9
$INTERFERECOLOR
 62
     1
  9
$INTERFEREOBJVS
345
289
  9
$INTERFEREVPVS
346
286
  9
$CSHADOW
280
     0
  9
$SHADOWPLANELOCATION
 40
0.0
  0
ENDSEC
  0
SECTION
  2
CLASSES
  0
CLASS
  1
ACDBDICTIONARYWDFLT
  2
AcDbDictionaryWithDefault
  3
ObjectDBX Classes
 90
        0
 91
        1
280
     0
281
     0
  0
CLASS
  1
AMGSETTINGSOBJ
  2
AmgSettingsObj
  3
"AcadM|Product Description: AutoCAD Mechanical|Company: Autodesk, Inc."
 90
     1024
 91
        2
280
     0
281
     0
  0
CLASS
  1
ACME_DOCUMENT
  2
AcMeDbDoc
  3
AcMeServices
 90
     1024
 91
        1
280
     0
281
     0
  0
CLASS
  1
ACMESCOPE
  2
AcMeScope
  3
AcMeServices
 90
     1024
 91
        1
280
     0
281
     0
  0
CLASS
  1
ACMECOMMANDHISTORY
  2
AcMeCommandHistory
  3
AcMeServices
 90
     1024
 91
        1
280
     0
281
     0
  0
CLASS
  1
DICTIONARYVAR
  2
AcDbDictionaryVar
  3
ObjectDBX Classes
 90
        0
 91
        9
280
     0
281
     0
  0
CLASS
  1
ACIMSYSVARMAN
  2
AcImSysVarManager
  3
AcMeServices
 90
     1024
 91
        5
280
     0
281
     0
  0
CLASS
  1
ACIMREALSYSVAR
  2
AcImRealSysVar
  3
AcMeServices
 90
     1024
 91
        1
280
     0
281
     0
  0
CLASS
  1
ACIMINTSYSVAR
  2
AcImIntSysVar
  3
AcMeServices
 90
     1024
 91
       27
280
     0
281
     0
  0
CLASS
  1
ACMEDRAWINGMAN
  2
AcMeDrawingMan
  3
AcMeServices
 90
     1024
 91
        1
280
     0
281
     0
  0
CLASS
  1
ACMEVIEW
  2
AcMeView
  3
AcMeServices
 90
     1024
 91
        1
280
     0
281
     0
  0
CLASS
  1
ACDBENTITYCACHE
  2
AcMeEntityCache
  3
AcMeServices
 90
     1024
 91
        1
280
     0
281
     0
  0
CLASS
  1
GSMANAGER
  2
AcMeGSManager
  3
AcMeServices
 90
     1024
 91
        1
280
     0
281
     0
  0
CLASS
  1
AMDTINTERNALREACTOR
  2
AmdtInternalReactor
  3
AcMeServices
 90
     1024
 91
        2
280
     0
281
     0
  0
CLASS
  1
ACMESTATEMGR
  2
AcMeStateMgr
  3
AcMeServices
 90
     1024
 91
        1
280
     0
281
     0
  0
CLASS
  1
ACGREFMASTER
  2
AcGrefMaster
  3
AcAttribServices
 90
     1024
 91
        1
280
     0
281
     0
  0
CLASS
  1
ACME_DATABASE
  2
AcMeDbDatabase
  3
AcMeServices
 90
     1024
 91
        1
280
     0
281
     0
  0
CLASS
  1
ACRFINSADJUSTERMGR
  2
AcRfInsAdjusterMgr
  3
AcMeServices
 90
     1024
 91
        1
280
     0
281
     0
  0
CLASS
  1
ACGREFACADMASTER
  2
AcGrefacadMaster
  3
AcGrefServices
 90
     1024
 91
        1
280
     0
281
     0
  0
CLASS
  1
AMIMASTER
  2
AmiMaster
  3
AmiServices
 90
     1024
 91
        1
280
     0
281
     0
  0
CLASS
  1
ACIMSTRSYSVAR
  2
AcImStrSysVar
  3
AcMeServices
 90
     1024
 91
        5
280
     0
281
     0
  0
CLASS
  1
ACMSTANDARDJIS
  2
AcmStandardJIS
  3
"Amdt_StdImp|Product Description: AutoCAD Mechanical|Company: Autodesk, Inc."
 90
     1024
 91
        0
280
     0
281
     0
  0
CLASS
  1
AMGOBJPROPCFG
  2
AmgObjPropCfg
  3
"AmgLay|Product Description: AutoCAD Mechanical|Company: Autodesk, Inc."
 90
     1025
 91
        1
280
     0
281
     0
  0
CLASS
  1
ACMSURFSTANDARDJIS
  2
AcmSurfTextStdJIS
  3
"Amdt_StdImp|Product Description: AutoCAD Mechanical|Company: Autodesk, Inc."
 90
     1024
 91
        0
280
     0
281
     0
  0
CLASS
  1
ACMFCFSTANDARDJIS
  2
AcmFCFStdJIS
  3
"Amdt_StdImp|Product Description: AutoCAD Mechanical|Company: Autodesk, Inc."
 90
     1024
 91
        0
280
     0
281
     0
  0
CLASS
  1
ACMWELDSTANDARDJIS
  2
AcmWeldingStdJIS
  3
"Amdt_StdImp|Product Description: AutoCAD Mechanical|Company: Autodesk, Inc."
 90
     1024
 91
        0
280
     0
281
     0
  0
CLASS
  1
ACMIDSTANDARDJIS
  2
AcmIdStdJIS
  3
"Amdt_StdImp|Product Description: AutoCAD Mechanical|Company: Autodesk, Inc."
 90
     1024
 91
        0
280
     0
281
     0
  0
CLASS
  1
ACMDATUMSTANDARDJIS
  2
AcmDatumStdJIS
  3
"Amdt_StdImp|Product Description: AutoCAD Mechanical|Company: Autodesk, Inc."
 90
     1024
 91
        0
280
     0
281
     0
  0
CLASS
  1
ACMBOMSTANDARDJIS
  2
AcmBOMStdJIS
  3
"Amdt_StdImp|Product Description: AutoCAD Mechanical|Company: Autodesk, Inc."
 90
     1024
 91
        0
280
     0
281
     0
  0
CLASS
  1
ACMDETAILSTANDARDJIS
  2
AmdtDetailSymStdJIS
  3
"Amdt_StdImp|Product Description: AutoCAD Mechanical|Company: Autodesk, Inc."
 90
     1024
 91
        0
280
     0
281
     0
  0
CLASS
  1
ACMSECTIONSTANDARDJIS
  2
AmdtSectionSymStdJIS
  3
"Amdt_StdImp|Product Description: AutoCAD Mechanical|Company: Autodesk, Inc."
 90
     1024
 91
        0
280
     0
281
     0
  0
CLASS
  1
ACMCENTERLINESTANDARDJIS
  2
AmdtCenterLineStdJIS
  3
"Amdt_StdImp|Product Description: AutoCAD Mechanical|Company: Autodesk, Inc."
 90
     1024
 91
        0
280
     0
281
     0
  0
CLASS
  1
ACMTHREADLINESTANDARDJIS
  2
AmdtThreadLineStdJIS
  3
"Amdt_StdImp|Product Description: AutoCAD Mechanical|Company: Autodesk, Inc."
 90
     1024
 91
        0
280
     0
281
     0
  0
CLASS
  1
ACAMGLAYSTD
  2
AcAmgLayStd
  3
"AmgLay|Product Description: AutoCAD Mechanical|Company: Autodesk, Inc."
 90
     1024
 91
        1
280
     0
281
     0
  0
CLASS
  1
ACAMGDIMSTD
  2
AcAmgDimStd
  3
"AmgDim|Product Description: AutoCAD Mechanical|Company: Autodesk, Inc."
 90
     1024
 91
        1
280
     0
281
     0
  0
CLASS
  1
ACAMGTITLESTD
  2
AcAmgTitleStd
  3
"AmgTitle|Product Description: AutoCAD Mechanical|Company: Autodesk, Inc."
 90
     4095
 91
        1
280
     0
281
     0
  0
CLASS
  1
ACMDATADICTIONARY
  2
AcmDataDictionary
  3
"AcmSymBB|Product Description: AutoCAD Mechanical|Company: Autodesk, Inc."
 90
     1024
 91
        1
280
     0
281
     0
  0
CLASS
  1
ACMDATAENTRYBLOCK
  2
AcmDataEntryBlock
  3
AcmSymBB|Product Description: AutoCAD Mechanical|Company: Autodesk, Inc.
 90
     1024
 91
        0
280
     0
281
     0
  0
CLASS
  1
LAYER_INDEX
  2
AcDbLayerIndex
  3
ObjectDBX Classes
 90
        0
 91
        0
280
     0
281
     0
  0
CLASS
  1
IDBUFFER
  2
AcDbIdBuffer
  3
ObjectDBX Classes
 90
        0
 91
        0
280
     0
281
     0
  0
CLASS
  1
ACMNOTESTANDARDJIS
  2
AmdtNoteStdJIS
  3
"Amdt_StdImp|Product Description: AutoCAD Mechanical|Company: Autodesk, Inc."
 90
     1024
 91
        0
280
     0
281
     0
  0
CLASS
  1
ACAMGHOLECHARTSTDJIS
  2
AcAmgHoleChartStdJIS
  3
AmgDim|Product Description: AutoCAD Mechanical|Company: Autodesk, Inc.
 90
     1024
 91
        0
280
     0
281
     0
  0
CLASS
  1
AM_DRAWING_MGR
  2
AcDmDwgMgr
  3
AcMechDwgViewMgmt
 90
     1024
 91
        1
280
     0
281
     0
  0
CLASS
  1
AM_DWG_DOCUMENT
  2
AcDmDwgDocument
  3
AcMechDwgViewMgmt
 90
     1024
 91
        1
280
     0
281
     0
  0
CLASS
  1
AM_DWG_SHEET
  2
AcDmSheet
  3
AcMechDwgViewMgmt
 90
     1024
 91
        2
280
     0
281
     0
  0
CLASS
  1
AM_VIEWDIMPARMAP
  2
AcDmViewDimParMap
  3
AcMechDwgViewMgmt
 90
     1024
 91
        2
280
     0
281
     0
  0
CLASS
  1
AM_DWGMGR_NAME
  2
AcDmDwgMgrName
  3
AcMechDwgViewMgmt
 90
     1024
 91
        1
280
     0
281
     0
  0
CLASS
  1
AMDTMENUSTATEMGR
  2
AmdtMenuStateMgr
  3
McadcomServices
 90
     1024
 91
        1
280
     0
281
     0
  0
CLASS
  1
AMDTMCOMMENUSTATE
  2
AmdtMcomMenuState
  3
McadcomServices
 90
     1024
 91
        1
280
     0
281
     0
  0
CLASS
  1
MAPIAMMOUDLE
  2
MApiAmModule
  3
MApiAmServices
 90
     1024
 91
        1
280
     0
281
     0
  0
CLASS
  1
AMDTADMENUSTATE
  2
AmdtAdMenuState
  3
DesignerServices
 90
     1024
 91
        1
280
     0
281
     0
  0
CLASS
  1
ADAPPL
  2
AcAdAppl
  3
DesignerServices
 90
     1024
 91
        1
280
     0
281
     0
  0
CLASS
  1
DEPMGR
  2
AcAdDepMgr
  3
DesignerServices
 90
     1024
 91
        1
280
     0
281
     0
  0
CLASS
  1
PARAMMGR
  2
AcAdParamMgr
  3
DesignerServices
 90
     1024
 91
        1
280
     0
281
     0
  0
CLASS
  1
PARAMSCOPE
  2
AcAdParamScope
  3
DesignerServices
 90
     1024
 91
        1
280
     0
281
     0
  0
CLASS
  1
NAMEDAPPL
  2
AcAdNamedAppl
  3
DesignerServices
 90
     1024
 91
        1
280
     0
281
     0
  0
CLASS
  1
AMDTDMMENUSTATE
  2
AmdtDmMenuState
  3
AcMechDwgViewMgmt
 90
     1024
 91
        1
280
     0
281
     0
  0
CLASS
  1
AMDTAMMENUSTATE
  2
AmdtAmMenuState
  3
DesignerAssemblies
 90
     1024
 91
        1
280
     0
281
     0
  0
CLASS
  1
ACAMPROJECT
  2
AcAmProject
  3
DesignerAssemblies
 90
     1024
 91
        1
280
     0
281
     0
  0
CLASS
  1
ACAMGRCOMPDEF
  2
AcAmGrCompDef
  3
DesignerAssemblies
 90
     1024
 91
        1
280
     0
281
     0
  0
CLASS
  1
ACCMCONTEXT
  2
AcCmContext
  3
DesignerAssemblies
 90
     1024
 91
        1
280
     0
281
     0
  0
CLASS
  1
ACAMCOMPDEF
  2
AcAmCompDef
  3
DesignerAssemblies
 90
     1024
 91
        1
280
     0
281
     0
  0
CLASS
  1
ACAMCOMPDEFMGR
  2
AcAmCompDefMgr
  3
DesignerAssemblies
 90
     1024
 91
        1
280
     0
281
     0
  0
CLASS
  1
AMCONTEXTMGR
  2
AcAmContextMgr
  3
DesignerAssemblies
 90
     1024
 91
        1
280
     0
281
     0
  0
CLASS
  1
ACAMCONTEXTMODELER
  2
AcAmContextModeler
  3
DesignerAssemblies
 90
     1024
 91
        1
280
     0
281
     0
  0
CLASS
  1
CATALOGSTATE
  2
AcAmCatalogState
  3
DesignerAssemblies
 90
     1024
 91
        1
280
     0
281
     0
  0
CLASS
  1
ACAMGRCOMPDEFSET
  2
AcAmGrCompDefSet
  3
DesignerAssemblies
 90
     1024
 91
        1
280
     0
281
     0
  0
CLASS
  1
AMDTBROWSERDBTAB
  2
AmdtBrowserDbTab
  3
McadcomServices
 90
     1024
 91
        1
280
     0
281
     0
  0
CLASS
  1
CBROWSERAPPOBJECT
  2
CBrowserAppObject
  3
McadcomServices
 90
     1024
 91
        3
280
     0
281
     0
  0
CLASS
  1
DM_PLACEHOLDER
  2
AcDmSelsetPlaceholder
  3
AcMechDwgViewMgmt
 90
     1024
 91
        1
280
     0
281
     0
  0
CLASS
  1
TABLESTYLE
  2
AcDbTableStyle
  3
ObjectDBX Classes
 90
     4095
 91
        1
280
     0
281
     0
  0
CLASS
  1
VAACXREFPANELOBJECT
  2
VaAcXREFPanelObject
  3
VAAC_ADDIN
 90
        0
 91
        0
280
     0
281
     0
  0
CLASS
  1
VAACIMAGEINVENTORY
  2
VaAcImageInventory
  3
VAAC_ADDIN
 90
        0
 91
        0
280
     0
281
     0
  0
CLASS
  1
AMDTNOTETEMPLATEDB
  2
AmdtNoteTemplateDB
  3
AcmSymBB|Product Description: AutoCAD Mechanical|Company: Autodesk, Inc.
 90
     1024
 91
        6
280
     0
281
     0
  0
CLASS
  1
ACAMGFILTERDAT
  2
AcAmgFilterDat
  3
"AcadM|Product Description: AutoCAD Mechanical|Company: Autodesk, Inc."
 90
     1024
 91
        0
280
     0
281
     0
  0
CLASS
  1
MATERIAL
  2
AcDbMaterial
  3
ObjectDBX Classes
 90
     1153
 91
        3
280
     0
281
     0
  0
CLASS
  1
VISUALSTYLE
  2
AcDbVisualStyle
  3
ObjectDBX Classes
 90
     4095
 91
       16
280
     0
281
     0
  0
CLASS
  1
ACRFATTGENMGR
  2
AcRfAttGeneralMgr
  3
AcAttribServices
 90
     1024
 91
        0
280
     0
281
     0
  0
CLASS
  1
ACRFOBJATTMGR
  2
AcRfObjAttGroupMgr
  3
AcAttribServices
 90
     1024
 91
        0
280
     0
281
     0
  0
CLASS
  1
ACRFMCADAPIATTHOLDER
  2
AcRfMCADAPIAttHolder
  3
AcAttribServices
 90
     1024
 91
        0
280
     0
281
     0
  0
CLASS
  1
AMDTSYSATTR
  2
AmdtSystemAttribute
  3
AcAttribServices
 90
     1024
 91
        0
280
     0
281
     0
  0
CLASS
  1
ACMTAPERSTANDARDJIS
  2
AcmTaperStdJIS
  3
"Amdt_StdImp|Product Description: AutoCAD Mechanical|Company: Autodesk, Inc."
 90
     1024
 91
        0
280
     0
281
     0
  0
CLASS
  1
CAMSSTRUCTBTNSTATE
  2
StructBtnState
  3
DesignerAssemblies
 90
     1024
 91
        0
280
     0
281
     0
  0
CLASS
  1
SCALE
  2
AcDbScale
  3
ObjectDBX Classes
 90
     1153
 91
       37
280
     0
281
     0
  0
CLASS
  1
MLEADERSTYLE
  2
AcDbMLeaderStyle
  3
ACDB_MLEADERSTYLE_CLASS
 90
     4095
 91
        1
280
     0
281
     0
  0
CLASS
  1
ACMANOOTATIONVIEWSTANDARDJIS
  2
AmdtAnViewStdJIS
  3
"Amdt_StdImp|Product Description: AutoCAD Mechanical|Company: Autodesk, Inc."
 90
     1024
 91
        0
280
     0
281
     0
  0
CLASS
  1
ACMSURFSTANDARDJIS2003
  2
AcmSurfTextStdJIS2003
  3
"Amdt_StdImp|Product Description: AutoCAD Mechanical|Company: Autodesk, Inc."
 90
     1024
 91
        0
280
     0
281
     0
  0
CLASS
  1
CELLSTYLEMAP
  2
AcDbCellStyleMap
  3
ObjectDBX Classes
 90
     1152
 91
        2
280
     0
281
     0
  0
CLASS
  1
ACMFCFSTANDARDJIS98
  2
AcmFCFStdJIS98
  3
"Amdt_StdImp|Product Description: AutoCAD Mechanical|Company: Autodesk, Inc."
 90
     1024
 91
        0
280
     0
281
     0
  0
CLASS
  1
SORTENTSTABLE
  2
AcDbSortentsTable
  3
ObjectDBX Classes
 90
        0
 91
       10
280
     0
281
     0
  0
CLASS
  1
DIMASSOC
  2
AcDbDimAssoc
  3
"AcDbDimAssoc|Product Desc:     AcDim ARX App For Dimension|Company:          Autodesk, Inc.|WEB Address:      www.autodesk.com"
 90
        0
 91
       17
280
     0
281
     0
  0
CLASS
  1
STDPART2D
  2
AmgStdPart
  3
AmgStdPart|Product Description: AutoCAD Mechanical|Company: Autodesk, Inc.
 90
     4095
 91
        0
280
     0
281
     1
  0
CLASS
  1
ACMDATAENTRYPART
  2
AcmDataEntryPart
  3
AcmSymBB|Product Description: AutoCAD Mechanical|Company: Autodesk, Inc.
 90
     1024
 91
        0
280
     0
281
     0
  0
CLASS
  1
ACMPARTREF
  2
AcmPartRef
  3
"AcmSymBB|Product Description: AutoCAD Mechanical|Company: Autodesk, Inc."
 90
     4095
 91
        0
280
     0
281
     1
  0
CLASS
  1
ACDBSTDPARTRES_LINE
  2
AcDbStdPartRes_Line
  3
AmgStdPart|Product Description: AutoCAD Mechanical|Company: Autodesk, Inc.
 90
     1024
 91
        0
280
     0
281
     0
  0
CLASS
  1
ACMBOM
  2
AcmBom
  3
"AcmSymBB|Product Description: AutoCAD Mechanical|Company: Autodesk, Inc."
 90
     1024
 91
        0
280
     0
281
     0
  0
CLASS
  1
AMDTFORMULAUPDATEDISPATCHER
  2
AmdtFormulaUpdateDispatcher
  3
AcMeServices
 90
     1024
 91
        0
280
     0
281
     0
  0
CLASS
  1
ACMBOMROW
  2
AcmBomRow
  3
"AcmSymBB|Product Description: AutoCAD Mechanical|Company: Autodesk, Inc."
 90
     1024
 91
        0
280
     0
281
     0
  0
CLASS
  1
ACMPARTLIST
  2
AcmPartList
  3
"AcmSymBB|Product Description: AutoCAD Mechanical|Company: Autodesk, Inc."
 90
     4095
 91
        0
280
     0
281
     1
  0
CLASS
  1
ACDBLINERES
  2
AcDbLineRes
  3
AcGrefServices
 90
     1024
 91
        0
280
     0
281
     0
  0
CLASS
  1
ACRFINSADJ
  2
AcRfInsAdjuster
  3
AcMeServices
 90
     1024
 91
        0
280
     0
281
     0
  0
CLASS
  1
ACMSTANDARDISO
  2
AcmStandardISO
  3
"Amdt_StdImp|Product Description: AutoCAD Mechanical|Company: Autodesk, Inc."
 90
     1024
 91
        1
280
     0
281
     0
  0
CLASS
  1
AMDTEDGESTANDARDISO13715
  2
AmdtEdgeStdISO13715
  3
"Amdt_StdImp|Product Description: AutoCAD Mechanical|Company: Autodesk, Inc."
 90
     1024
 91
        1
280
     0
281
     0
  0
CLASS
  1
ACMSURFSTANDARDISO2002
  2
AcmSurfTextStdISO2002
  3
"Amdt_StdImp|Product Description: AutoCAD Mechanical|Company: Autodesk, Inc."
 90
     1024
 91
        1
280
     0
281
     0
  0
CLASS
  1
ACMFCFSTANDARDISO
  2
AcmFCFStdISO
  3
"Amdt_StdImp|Product Description: AutoCAD Mechanical|Company: Autodesk, Inc."
 90
     1024
 91
        1
280
     0
281
     0
  0
CLASS
  1
ACMWELDSTANDARDISO
  2
AcmWeldingStdISO
  3
"Amdt_StdImp|Product Description: AutoCAD Mechanical|Company: Autodesk, Inc."
 90
     1024
 91
        1
280
     0
281
     0
  0
CLASS
  1
ACMIDSTANDARDISO
  2
AcmIdStdISO
  3
"Amdt_StdImp|Product Description: AutoCAD Mechanical|Company: Autodesk, Inc."
 90
     1024
 91
        1
280
     0
281
     0
  0
CLASS
  1
ACMDATUMSTANDARDISO
  2
AcmDatumStdISO
  3
"Amdt_StdImp|Product Description: AutoCAD Mechanical|Company: Autodesk, Inc."
 90
     1024
 91
        1
280
     0
281
     0
  0
CLASS
  1
ACMBOMSTANDARDISO
  2
AcmBOMStdISO
  3
"Amdt_StdImp|Product Description: AutoCAD Mechanical|Company: Autodesk, Inc."
 90
     1024
 91
        1
280
     0
281
     0
  0
CLASS
  1
ACMDETAILSTANDARDISO
  2
AmdtDetailSymStdISO
  3
"Amdt_StdImp|Product Description: AutoCAD Mechanical|Company: Autodesk, Inc."
 90
     1024
 91
        1
280
     0
281
     0
  0
CLASS
  1
ACMSECTIONSTANDARDISO2001
  2
AmdtSectionSymStdISO2001
  3
"Amdt_StdImp|Product Description: AutoCAD Mechanical|Company: Autodesk, Inc."
 90
     1024
 91
        1
280
     0
281
     0
  0
CLASS
  1
ACMCENTERLINESTANDARDISO
  2
AmdtCenterLineStdISO
  3
"Amdt_StdImp|Product Description: AutoCAD Mechanical|Company: Autodesk, Inc."
 90
     1024
 91
        1
280
     0
281
     0
  0
CLASS
  1
ACMTHREADLINESTANDARDISO
  2
AmdtThreadLineStdISO
  3
"Amdt_StdImp|Product Description: AutoCAD Mechanical|Company: Autodesk, Inc."
 90
     1024
 91
        1
280
     0
281
     0
  0
CLASS
  1
ACMNOTESTANDARDISO
  2
AmdtNoteStdISO
  3
"Amdt_StdImp|Product Description: AutoCAD Mechanical|Company: Autodesk, Inc."
 90
     1024
 91
        1
280
     0
281
     0
  0
CLASS
  1
ACMTAPERSTANDARDISO
  2
AcmTaperStdISO
  3
"Amdt_StdImp|Product Description: AutoCAD Mechanical|Company: Autodesk, Inc."
 90
     1024
 91
        1
280
     0
281
     0
  0
CLASS
  1
ACMANOOTATIONVIEWSTANDARDISO
  2
AmdtAnViewStdISO
  3
"Amdt_StdImp|Product Description: AutoCAD Mechanical|Company: Autodesk, Inc."
 90
     1024
 91
        1
280
     0
281
     0
  0
CLASS
  1
ACAMGHOLECHARTSTDISO
  2
AcAmgHoleChartStdISO
  3
AmgDim|Product Description: AutoCAD Mechanical|Company: Autodesk, Inc.
 90
     1024
 91
        1
280
     0
281
     0
  0
CLASS
  1
EXACXREFPANELOBJECT
  2
ExAcXREFPanelObject
  3
EXAC_ESW
 90
     1025
 91
        0
280
     0
281
     0
  0
CLASS
  1
NPOCOLLECTION
  2
AcDbImpNonPersistentObjectsCollection
  3
ObjectDBX Classes
 90
     1153
 91
        0
280
     0
281
     0
  0
CLASS
  1
ACDBSTDPARTRES_ARC
  2
AcDbStdPartRes_Arc
  3
AmgStdPart|Product Description: AutoCAD Mechanical|Company: Autodesk, Inc.
 90
     1024
 91
        0
280
     0
281
     0
  0
CLASS
  1
AMDTNOTE
  2
AmdtNote
  3
"AcmSymBB|Product Description: AutoCAD Mechanical|Company: Autodesk, Inc."
 90
     4095
 91
        0
280
     0
281
     1
  0
CLASS
  1
PLOTSETTINGS
  2
AcDbPlotSettings
  3
ObjectDBX Classes
 90
        0
 91
        1
280
     0
281
     0
  0
CLASS
  1
ACMSTANDARDANSI
  2
AcmStandardANSI
  3
"Amdt_StdImp|Product Description: AutoCAD Mechanical|Company: Autodesk, Inc."
 90
     1024
 91
        0
280
     0
281
     0
  0
CLASS
  1
ACMSURFSTANDARDANSI
  2
AcmSurfTextStdANSI
  3
"Amdt_StdImp|Product Description: AutoCAD Mechanical|Company: Autodesk, Inc."
 90
     1024
 91
        0
280
     0
281
     0
  0
CLASS
  1
ACMFCFSTANDARDANSI
  2
AcmFCFStdANSI
  3
"Amdt_StdImp|Product Description: AutoCAD Mechanical|Company: Autodesk, Inc."
 90
     1024
 91
        0
280
     0
281
     0
  0
CLASS
  1
ACMWELDSTANDARDANSI
  2
AcmWeldingStdANSI
  3
"Amdt_StdImp|Product Description: AutoCAD Mechanical|Company: Autodesk, Inc."
 90
     1024
 91
        0
280
     0
281
     0
  0
CLASS
  1
ACMIDSTANDARDANSI
  2
AcmIdStdANSI
  3
"Amdt_StdImp|Product Description: AutoCAD Mechanical|Company: Autodesk, Inc."
 90
     1024
 91
        0
280
     0
281
     0
  0
CLASS
  1
ACMDATUMSTANDARDANSI
  2
AcmDatumStdANSI
  3
"Amdt_StdImp|Product Description: AutoCAD Mechanical|Company: Autodesk, Inc."
 90
     1024
 91
        0
280
     0
281
     0
  0
CLASS
  1
ACMBOMSTANDARDANSI
  2
AcmBOMStdANSI
  3
"Amdt_StdImp|Product Description: AutoCAD Mechanical|Company: Autodesk, Inc."
 90
     1024
 91
        0
280
     0
281
     0
  0
CLASS
  1
ACMDETAILSTANDARDANSI
  2
AmdtDetailSymStdANSI
  3
"Amdt_StdImp|Product Description: AutoCAD Mechanical|Company: Autodesk, Inc."
 90
     1024
 91
        0
280
     0
281
     0
  0
CLASS
  1
ACMSECTIONSTANDARDANSI
  2
AmdtSectionSymStdANSI
  3
"Amdt_StdImp|Product Description: AutoCAD Mechanical|Company: Autodesk, Inc."
 90
     1024
 91
        0
280
     0
281
     0
  0
CLASS
  1
ACMCENTERLINESTANDARDANSI
  2
AmdtCenterLineStdANSI
  3
"Amdt_StdImp|Product Description: AutoCAD Mechanical|Company: Autodesk, Inc."
 90
     1024
 91
        0
280
     0
281
     0
  0
CLASS
  1
ACMTHREADLINESTANDARDANSI
  2
AmdtThreadLineStdANSI
  3
"Amdt_StdImp|Product Description: AutoCAD Mechanical|Company: Autodesk, Inc."
 90
     1024
 91
        0
280
     0
281
     0
  0
CLASS
  1
ACMNOTESTANDARDANSI
  2
AmdtNoteStdANSI
  3
"Amdt_StdImp|Product Description: AutoCAD Mechanical|Company: Autodesk, Inc."
 90
     1024
 91
        0
280
     0
281
     0
  0
CLASS
  1
ACMTAPERSTANDARDANSI
  2
AcmTaperStdANSI
  3
"Amdt_StdImp|Product Description: AutoCAD Mechanical|Company: Autodesk, Inc."
 90
     1024
 91
        0
280
     0
281
     0
  0
CLASS
  1
ACMANOOTATIONVIEWSTANDARDANSI
  2
AmdtAnViewStdANSI
  3
"Amdt_StdImp|Product Description: AutoCAD Mechanical|Company: Autodesk, Inc."
 90
     1024
 91
        0
280
     0
281
     0
  0
CLASS
  1
ACAMGHOLECHARTSTDANSI
  2
AcAmgHoleChartStdANSI
  3
AmgDim|Product Description: AutoCAD Mechanical|Company: Autodesk, Inc.
 90
     1024
 91
        0
280
     0
281
     0
  0
CLASS
  1
ACMSTANDARDBSI
  2
AcmStandardBSI
  3
"Amdt_StdImp|Product Description: AutoCAD Mechanical|Company: Autodesk, Inc."
 90
     1024
 91
        0
280
     0
281
     0
  0
CLASS
  1
ACMSURFSTANDARDBSI2002
  2
AcmSurfTextStdBSI2002
  3
"Amdt_StdImp|Product Description: AutoCAD Mechanical|Company: Autodesk, Inc."
 90
     1024
 91
        0
280
     0
281
     0
  0
CLASS
  1
ACMFCFSTANDARDBSI
  2
AcmFCFStdBSI
  3
"Amdt_StdImp|Product Description: AutoCAD Mechanical|Company: Autodesk, Inc."
 90
     1024
 91
        0
280
     0
281
     0
  0
CLASS
  1
ACMWELDSTANDARDBSI
  2
AcmWeldingStdBSI
  3
"Amdt_StdImp|Product Description: AutoCAD Mechanical|Company: Autodesk, Inc."
 90
     1024
 91
        0
280
     0
281
     0
  0
CLASS
  1
ACMIDSTANDARDBSI
  2
AcmIdStdBSI
  3
"Amdt_StdImp|Product Description: AutoCAD Mechanical|Company: Autodesk, Inc."
 90
     1024
 91
        0
280
     0
281
     0
  0
CLASS
  1
ACMDATUMSTANDARDBSI
  2
AcmDatumStdBSI
  3
"Amdt_StdImp|Product Description: AutoCAD Mechanical|Company: Autodesk, Inc."
 90
     1024
 91
        0
280
     0
281
     0
  0
CLASS
  1
ACMBOMSTANDARDBSI
  2
AcmBOMStdBSI
  3
"Amdt_StdImp|Product Description: AutoCAD Mechanical|Company: Autodesk, Inc."
 90
     1024
 91
        0
280
     0
281
     0
  0
CLASS
  1
ACMDETAILSTANDARDBSI
  2
AmdtDetailSymStdBSI
  3
"Amdt_StdImp|Product Description: AutoCAD Mechanical|Company: Autodesk, Inc."
 90
     1024
 91
        0
280
     0
281
     0
  0
CLASS
  1
ACMSECTIONSTANDARDBSI2001
  2
AmdtSectionSymStdBSI2001
  3
"Amdt_StdImp|Product Description: AutoCAD Mechanical|Company: Autodesk, Inc."
 90
     1024
 91
        0
280
     0
281
     0
  0
CLASS
  1
ACMCENTERLINESTANDARDBSI
  2
AmdtCenterLineStdBSI
  3
"Amdt_StdImp|Product Description: AutoCAD Mechanical|Company: Autodesk, Inc."
 90
     1024
 91
        0
280
     0
281
     0
  0
CLASS
  1
ACMTHREADLINESTANDARDBSI
  2
AmdtThreadLineStdBSI
  3
"Amdt_StdImp|Product Description: AutoCAD Mechanical|Company: Autodesk, Inc."
 90
     1024
 91
        0
280
     0
281
     0
  0
CLASS
  1
ACMNOTESTANDARDBSI
  2
AmdtNoteStdBSI
  3
"Amdt_StdImp|Product Description: AutoCAD Mechanical|Company: Autodesk, Inc."
 90
     1024
 91
        0
280
     0
281
     0
  0
CLASS
  1
ACMTAPERSTANDARDBSI
  2
AcmTaperStdBSI
  3
"Amdt_StdImp|Product Description: AutoCAD Mechanical|Company: Autodesk, Inc."
 90
     1024
 91
        0
280
     0
281
     0
  0
CLASS
  1
ACMANOOTATIONVIEWSTANDARDBSI
  2
AmdtAnViewStdBSI
  3
"Amdt_StdImp|Product Description: AutoCAD Mechanical|Company: Autodesk, Inc."
 90
     1024
 91
        0
280
     0
281
     0
  0
CLASS
  1
ACAMGHOLECHARTSTDBSI
  2
AcAmgHoleChartStdBSI
  3
AmgDim|Product Description: AutoCAD Mechanical|Company: Autodesk, Inc.
 90
     1024
 91
        0
280
     0
281
     0
  0
CLASS
  1
AMDTEDGESTANDARDJIS
  2
AmdtEdgeStdJIS
  3
"Amdt_StdImp|Product Description: AutoCAD Mechanical|Company: Autodesk, Inc."
 90
     1024
 91
        0
280
     0
281
     0
  0
CLASS
  1
ACDBOPPOLYLINERES
  2
AcDbOpPolylineRes
  3
AcGrefServices
 90
     1024
 91
        0
280
     0
281
     0
  0
CLASS
  1
AMDTACMWBLOCKBOMENTITY
  2
AmdtAcmWblockBomEntity
  3
"AcmSymBB|Product Description: AutoCAD Mechanical|Company: Autodesk, Inc."
 90
     4095
 91
        0
280
     0
281
     1
  0
CLASS
  1
ACMSURFSYM
  2
AcmSurfaceTexture
  3
"AcmSymBB|Product Description: AutoCAD Mechanical|Company: Autodesk, Inc."
 90
     4095
 91
        0
280
     0
281
     1
  0
CLASS
  1
ACDBDIMENSIONRES
  2
AcDbDimensionRes
  3
AcmSymBB|Product Description: AutoCAD Mechanical|Company: Autodesk, Inc.
 90
     1024
 91
        0
280
     0
281
     0
  0
CLASS
  1
ACDBCIRCARCRES
  2
AcDbCircArcRes
  3
AcGrefServices
 90
     1024
 91
        0
280
     0
281
     0
  0
CLASS
  1
ACDB_BLKREFOBJECTCONTEXTDATA_CLASS
  2
AcDbBlkRefObjectContextData
  3
ObjectDBX Classes
 90
     1153
 91
        0
280
     0
281
     0
  0
CLASS
  1
ACMPICKOBJ
  2
AcmPickEnt
  3
"AcmSymBB|Product Description: AutoCAD Mechanical|Company: Autodesk, Inc."
 90
     1024
 91
        0
280
     0
281
     1
  0
CLASS
  1
ACMBALLOON
  2
AcmBalloon
  3
"AcmSymBB|Product Description: AutoCAD Mechanical|Company: Autodesk, Inc."
 90
     4095
 91
        0
280
     0
281
     1
  0
ENDSEC
  0
SECTION
  2
TABLES
  0
TABLE
  2
VPORT
  5
8
330
0
100
AcDbSymbolTable
 70
     1
  0
VPORT
  5
27A
330
8
100
AcDbSymbolTableRecord
100
AcDbViewportTableRecord
  2
*Active
 70
     0
 10
0.0
 20
0.0
 11
1.0
 21
1.0
 12
4459.545061135395
 22
3183.609254697293
 13
0.0
 23
0.0
 14
37.5
 24
37.5
 15
150.0
 25
150.0
 16
0.0
 26
0.0
 36
1.0
 17
0.0
 27
0.0
 37
0.0
 40
2256.406955005507
 41
1.966728280961183
 42
50.0
 43
0.0
 44
0.0
 50
0.0
 51
0.0
 71
    16
 72
 20000
 73
     1
 74
     3
 75
     0
 76
     0
 77
     0
 78
     0
281
     0
 65
     0
110
0.0
120
0.0
130
0.0
111
1.0
121
0.0
131
0.0
112
0.0
122
1.0
132
0.0
 79
     0
146
0.0
348
285
 60
     3
 61
     5
292
     1
282
     0
141
0.0
142
0.0
 63
   250
421
  3355443
  0
ENDTAB
  0
TABLE
  2
LTYPE
  5
5
330
0
100
AcDbSymbolTable
 70
    22
  0
LTYPE
  5
14
330
5
100
AcDbSymbolTableRecord
100
AcDbLinetypeTableRecord
  2
ByBlock
 70
     0
  3

 72
    65
 73
     0
 40
0.0
  0
LTYPE
  5
15
330
5
100
AcDbSymbolTableRecord
100
AcDbLinetypeTableRecord
  2
ByLayer
 70
     0
  3

 72
    65
 73
     0
 40
0.0
  0
LTYPE
  5
16
330
5
100
AcDbSymbolTableRecord
100
AcDbLinetypeTableRecord
  2
Continuous
 70
     0
  3
Solid line
 72
    65
 73
     0
 40
0.0
  0
LTYPE
  5
4D
330
5
100
AcDbSymbolTableRecord
100
AcDbLinetypeTableRecord
  2
AM_ISO02W050
 70
     0
  3
__ __ __ __ __ __ __ __ __ __ __ __ __ __ __
 72
    65
 73
     2
 40
7.5
 49
6.0
 74
     0
 49
-1.5
 74
     0
  0
LTYPE
  5
4E
330
5
100
AcDbSymbolTableRecord
100
AcDbLinetypeTableRecord
  2
AM_ISO08W050
 70
     0
  3
____ . ____ . ____ . ____ . ____ . ____ . ____
 72
    65
 73
     4
 40
18.0
 49
12.0
 74
     0
 49
-1.5
 74
     0
 49
3.0
 74
     0
 49
-1.5
 74
     0
  0
LTYPE
  5
4F
330
5
100
AcDbSymbolTableRecord
100
AcDbLinetypeTableRecord
  2
AM_ISO09W050
 70
     0
  3
_____ . . _____ . . _____ . . ____ .. ____
 72
    65
 73
     6
 40
22.5
 49
12.0
 74
     0
 49
-1.5
 74
     0
 49
3.0
 74
     0
 49
-1.5
 74
     0
 49
3.0
 74
     0
 49
-1.5
 74
     0
  0
LTYPE
  5
50
330
5
100
AcDbSymbolTableRecord
100
AcDbLinetypeTableRecord
  2
Amconstr
 70
     0
  3
_______________________
 72
    65
 73
     2
 40
9999.0
 49
9999.0
 74
     0
 49
0.0
 74
     0
  0
LTYPE
  5
51
330
5
100
AcDbSymbolTableRecord
100
AcDbLinetypeTableRecord
  2
AM_ISO08W050x2
 70
     0
  3
__ . __ . __ . __ . __ . __
 72
    65
 73
     4
 40
9.0
 49
6.0
 74
     0
 49
-0.75
 74
     0
 49
1.5
 74
     0
 49
-0.75
 74
     0
  0
LTYPE
  5
52
330
5
100
AcDbSymbolTableRecord
100
AcDbLinetypeTableRecord
  2
AM_ISO02W050x2
 70
     0
  3
 _ _ _ _ _ _ _ _ _ _ _ _
 72
    65
 73
     2
 40
3.75
 49
3.0
 74
     0
 49
-0.75
 74
     0
  0
LTYPE
  5
55
330
5
100
AcDbSymbolTableRecord
100
AcDbLinetypeTableRecord
  2
Amzigzag
 70
     0
  3
/\/-/\/-/\/-/\/-/\/-/\/
 72
    65
 73
     2
 40
11.0001
 49
0.0001
 74
     4
 75
   136
340
23D
 46
0.04
 50
0.0
 44
0.0
 45
0.0
 49
-11.0
 74
     0
  0
LTYPE
  5
65
330
5
100
AcDbSymbolTableRecord
100
AcDbLinetypeTableRecord
  2
CENTER
 70
     0
  3
__ . __
 72
    65
 73
     4
 40
7.0
 49
4.0
 74
     0
 49
-1.0
 74
     0
 49
1.0
 74
     0
 49
-1.0
 74
     0
  0
LTYPE
  5
E0
330
5
100
AcDbSymbolTableRecord
100
AcDbLinetypeTableRecord
  2
HIDDEN
 70
     0
  3
Hidden __ __ __ __ __ __ __ __ __ __ __ __ __ _
 72
    65
 73
     2
 40
9.524999999999996
 49
6.349999999999998
 74
     0
 49
-3.174999999999998
 74
     0
  0
LTYPE
  5
E1
330
5
100
AcDbSymbolTableRecord
100
AcDbLinetypeTableRecord
  2
PHANTOM2
 70
     0
  3
Phantom (.5x) ___ _ _ ___ _ _ ___ _ _ ___ _ _
 72
    65
 73
     6
 40
31.75
 49
15.875
 74
     0
 49
-3.174999999999998
 74
     0
 49
3.174999999999998
 74
     0
 49
-3.174999999999998
 74
     0
 49
3.174999999999998
 74
     0
 49
-3.174999999999998
 74
     0
  0
LTYPE
  5
5A2
330
5
100
AcDbSymbolTableRecord
100
AcDbLinetypeTableRecord
  2
ACJISWELD
 70
     0
  3
_ _ _ _ _
 72
    65
 73
     2
 40
2.0
 49
2.0
 74
     0
 49
-1.0
 74
     0
  0
LTYPE
  5
6F53
330
5
100
AcDbSymbolTableRecord
100
AcDbLinetypeTableRecord
  2
ACISOWELD
 70
     0
  3
_ _ _ _ _
 72
    65
 73
     2
 40
2.0
 49
2.0
 74
     0
 49
-1.0
 74
     0
  0
LTYPE
  5
6F54
330
5
100
AcDbSymbolTableRecord
100
AcDbLinetypeTableRecord
  2
ACISOTGB
 70
     0
  3
__ . . __ . .
 72
    65
 73
     6
 40
9.0
 49
4.0
 74
     0
 49
-1.0
 74
     0
 49
1.0
 74
     0
 49
-1.0
 74
     0
 49
1.0
 74
     0
 49
-1.0
 74
     0
  0
LTYPE
  5
6F55
330
5
100
AcDbSymbolTableRecord
100
AcDbLinetypeTableRecord
  2
ACISOTGL
 70
     0
  3
_ _ _ _ _
 72
    65
 73
     2
 40
3.0
 49
2.0
 74
     0
 49
-1.0
 74
     0
  0
ENDTAB
  0
TABLE
  2
LAYER
  5
2
102
{ACAD_XDICTIONARY
360
BF
102
}
330
0
100
AcDbSymbolTable
 70
    10
  0
LAYER
  5
10
102
{ACAD_XDICTIONARY
360
29F7
102
}
330
2
100
AcDbSymbolTableRecord
100
AcDbLayerTableRecord
  2
0
 70
     0
 62
     7
  6
Continuous
370
    -3
390
F
347
27E
  0
LAYER
  5
81
102
{ACAD_XDICTIONARY
360
29F9
102
}
330
2
100
AcDbSymbolTableRecord
100
AcDbLayerTableRecord
  2
AM_0 外形線1
 70
     0
 62
     7
  6
Continuous
370
    25
390
F
347
27E
  0
LAYER
  5
427
330
2
100
AcDbSymbolTableRecord
100
AcDbLayerTableRecord
  2
Defpoints
 70
     0
 62
     7
  6
Continuous
290
     0
370
    -3
390
F
347
27E
  0
LAYER
  5
3B2F
330
2
100
AcDbSymbolTableRecord
100
AcDbLayerTableRecord
  2
AM_5 寸法線
 70
     0
 62
     3
  6
Continuous
370
    13
390
F
347
27E
1001
AcAecLayerStandard
1000

1000

  0
LAYER
  5
3B30
330
2
100
AcDbSymbolTableRecord
100
AcDbLayerTableRecord
  2
AM_4 細線
 70
     0
 62
     4
  6
Continuous
370
    13
390
F
347
27E
1001
AcAecLayerStandard
1000

1000

  0
LAYER
  5
3B31
330
2
100
AcDbSymbolTableRecord
100
AcDbLayerTableRecord
  2
AM_7 中心線
 70
     0
 62
     1
  6
AM_ISO08W050
370
    13
390
F
347
27E
1001
AcAecLayerStandard
1000

1000

  0
LAYER
  5
3B32
330
2
100
AcDbSymbolTableRecord
100
AcDbLayerTableRecord
  2
AM_3 隠れ線
 70
     0
 62
     8
  6
ACJISWELD
370
    13
390
F
347
27E
1001
AcAecLayerStandard
1000

1000

  0
LAYER
  5
3B34
330
2
100
AcDbSymbolTableRecord
100
AcDbLayerTableRecord
  2
AM_6 文字
 70
     0
 62
     2
  6
Continuous
370
    13
390
F
347
27E
1001
AcAecLayerStandard
1000

1000

  0
LAYER
  5
6B17
330
2
100
AcDbSymbolTableRecord
100
AcDbLayerTableRecord
  2
AM_11 想像線
 70
     0
 62
     5
  6
AM_ISO09W050
370
    13
390
F
347
27E
1001
AcAecLayerStandard
1000

1000

  0
ENDTAB
  0
TABLE
  2
STYLE
  5
3
330
0
100
AcDbSymbolTable
 70
    11
  0
STYLE
  5
11
330
3
100
AcDbSymbolTableRecord
100
AcDbTextStyleTableRecord
  2
STANDARD
 70
     0
 40
0.0
 41
1.0
 50
0.0
 71
     0
 42
25.0
  3
ISOCP.SHX
  4
EXTFONT.SHX
  0
STYLE
  5
23D
330
3
100
AcDbSymbolTableRecord
100
AcDbTextStyleTableRecord
  2

 70
     1
 40
0.0
 41
1.0
 50
0.0
 71
     0
 42
2.5
  3
genltshp.shx
  4

  0
STYLE
  5
5D5
330
3
100
AcDbSymbolTableRecord
100
AcDbTextStyleTableRecord
  2
SEISA
 70
     0
 40
0.0
 41
0.9
 50
0.0
 71
     0
 42
25.0
  3
romans.shx
  4
extfont2.shx
  0
STYLE
  5
6F43
330
3
100
AcDbSymbolTableRecord
100
AcDbTextStyleTableRecord
  2
ACISOTS
 70
     0
 40
1.0
 41
1.0
 50
0.0
 71
     0
 42
25.0
  3
isocp.shx
  4
extfont.shx
  0
STYLE
  5
6F52
330
3
100
AcDbSymbolTableRecord
100
AcDbTextStyleTableRecord
  2
ACISOGDT
 70
     0
 40
0.0
 41
1.0
 50
0.0
 71
     0
 42
25.0
  3
amgdt.shx
  4

  0
ENDTAB
  0
TABLE
  2
VIEW
  5
6
330
0
100
AcDbSymbolTable
 70
     6
  0
VIEW
  5
91B
330
6
100
AcDbSymbolTableRecord
100
AcDbViewTableRecord
  2
AM_VIEW1
 70
     0
 40
2227.5
 10
2153.432884644907
 20
3341.250005540732
 41
4306.865763546799
 11
0.0
 21
0.0
 31
1.0
 12
0.0
 22
0.0
 32
0.0
 42
50.0
 43
0.0
 44
0.0
 50
0.0
 71
    16
281
     0
 72
     0
 73
     0
  0
VIEW
  5
91C
330
6
100
AcDbSymbolTableRecord
100
AcDbViewTableRecord
  2
AM_VIEW2
 70
     0
 40
2227.5
 10
4146.567121098108
 20
3341.250005540732
 41
4306.865763546799
 11
0.0
 21
0.0
 31
1.0
 12
0.0
 22
0.0
 32
0.0
 42
50.0
 43
0.0
 44
0.0
 50
0.0
 71
    16
281
     0
 72
     0
 73
     0
  0
VIEW
  5
91D
330
6
100
AcDbSymbolTableRecord
100
AcDbViewTableRecord
  2
AM_VIEW3
 70
     0
 40
2227.5
 10
2153.432884644907
 20
1113.750005540731
 41
4306.865763546799
 11
0.0
 21
0.0
 31
1.0
 12
0.0
 22
0.0
 32
0.0
 42
50.0
 43
0.0
 44
0.0
 50
0.0
 71
    16
281
     0
 72
     0
 73
     0
  0
VIEW
  5
91E
330
6
100
AcDbSymbolTableRecord
100
AcDbViewTableRecord
  2
AM_VIEW4
 70
     0
 40
2227.5
 10
4146.567121098108
 20
1113.750005540731
 41
4306.865763546799
 11
0.0
 21
0.0
 31
1.0
 12
0.0
 22
0.0
 32
0.0
 42
50.0
 43
0.0
 44
0.0
 50
0.0
 71
    16
281
     0
 72
     0
 73
     0
  0
VIEW
  5
91F
330
6
100
AcDbSymbolTableRecord
100
AcDbViewTableRecord
  2
AM_VIEW5
 70
     0
 40
2227.500000000001
 10
3150.000002871508
 20
2227.500005540731
 41
4306.865763546799
 11
0.0
 21
0.0
 31
1.0
 12
0.0
 22
0.0
 32
0.0
 42
50.0
 43
0.0
 44
0.0
 50
0.0
 71
    16
281
     0
 72
     0
 73
     0
  0
VIEW
  5
920
330
6
100
AcDbSymbolTableRecord
100
AcDbViewTableRecord
  2
AM_VIEW6
 70
     0
 40
4454.955450000001
 10
3150.000002871508
 20
2227.500005540731
 41
8613.645389778326
 11
0.0
 21
0.0
 31
1.0
 12
0.0
 22
0.0
 32
0.0
 42
50.0
 43
0.0
 44
0.0
 50
0.0
 71
    16
281
     0
 72
     0
 73
     0
  0
ENDTAB
  0
TABLE
  2
UCS
  5
7
330
0
100
AcDbSymbolTable
 70
     0
  0
ENDTAB
  0
TABLE
  2
APPID
  5
9
330
0
100
AcDbSymbolTable
 70
   396
  0
APPID
  5
12
330
9
100
AcDbSymbolTableRecord
100
AcDbRegAppTableRecord
  2
ACAD
 70
     0
  0
APPID
  5
30
330
9
100
AcDbSymbolTableRecord
100
AcDbRegAppTableRecord
  2
MCAD_NO_VIS
 70
     0
  0
APPID
  5
31
330
9
100
AcDbSymbolTableRecord
100
AcDbRegAppTableRecord
  2
ACAD_TEMP_GRAPHIC
 70
     0
  0
APPID
  5
44
330
9
100
AcDbSymbolTableRecord
100
AcDbRegAppTableRecord
  2
ACATTRIBSERVICES
 70
     0
  0
APPID
  5
F6
330
9
100
AcDbSymbolTableRecord
100
AcDbRegAppTableRecord
  2
AD_DRAW
 70
     0
  0
APPID
  5
114
330
9
100
AcDbSymbolTableRecord
100
AcDbRegAppTableRecord
  2
DESIGNERASSEMBLIES
 70
     0
  0
APPID
  5
118
330
9
100
AcDbSymbolTableRecord
100
AcDbRegAppTableRecord
  2
ACADM_DIM_EDIT
 70
     0
  0
APPID
  5
119
330
9
100
AcDbSymbolTableRecord
100
AcDbRegAppTableRecord
  2
AMDT_DM_ADJ
 70
     0
  0
APPID
  5
1AF
330
9
100
AcDbSymbolTableRecord
100
AcDbRegAppTableRecord
  2
ACAD_DSTYLE_DIMARC_LENGTH_SYMBOL
 70
     0
  0
APPID
  5
1B0
330
9
100
AcDbSymbolTableRecord
100
AcDbRegAppTableRecord
  2
ACAD_DSTYLE_DIMJOGGED_JOGANGLE_SYMBOL
 70
     0
  0
APPID
  5
2D7
330
9
100
AcDbSymbolTableRecord
100
AcDbRegAppTableRecord
  2
ACAD_MLEADERVER
 70
     0
  0
APPID
  5
355
330
9
100
AcDbSymbolTableRecord
100
AcDbRegAppTableRecord
  2
AcadAnnoPO
 70
     0
  0
APPID
  5
428
330
9
100
AcDbSymbolTableRecord
100
AcDbRegAppTableRecord
  2
ACAD_DSTYLE_DIMTEXT_FILL
 70
     0
  0
APPID
  5
429
330
9
100
AcDbSymbolTableRecord
100
AcDbRegAppTableRecord
  2
GENIUS_GENSCREG_15
 70
     0
  0
APPID
  5
42A
330
9
100
AcDbSymbolTableRecord
100
AcDbRegAppTableRecord
  2
GENIUS_GENOBJ-N-SDF_13
 70
     0
  0
APPID
  5
42B
330
9
100
AcDbSymbolTableRecord
100
AcDbRegAppTableRecord
  2
GENIUS_GENODEF_13
 70
     0
  0
APPID
  5
42C
330
9
100
AcDbSymbolTableRecord
100
AcDbRegAppTableRecord
  2
ACAD_EXEMPT_FROM_CAD_STANDARDS
 70
     0
  0
APPID
  5
42D
330
9
100
AcDbSymbolTableRecord
100
AcDbRegAppTableRecord
  2
AcAecLayerStandard
 70
     0
  0
APPID
  5
42E
330
9
100
AcDbSymbolTableRecord
100
AcDbRegAppTableRecord
  2
GENIUS_GENOBJ-N-CEN_13
 70
     0
  0
APPID
  5
42F
330
9
100
AcDbSymbolTableRecord
100
AcDbRegAppTableRecord
  2
GENIUS_GENCEN_19
 70
     0
  0
APPID
  5
430
330
9
100
AcDbSymbolTableRecord
100
AcDbRegAppTableRecord
  2
ACAD_DSTYLE_DIMINSPECT
 70
     0
  0
APPID
  5
431
330
9
100
AcDbSymbolTableRecord
100
AcDbRegAppTableRecord
  2
GENIUS_AMGTXT_16
 70
     0
  0
APPID
  5
432
330
9
100
AcDbSymbolTableRecord
100
AcDbRegAppTableRecord
  2
GENIUS_GENFIL_13
 70
     0
  0
APPID
  5
433
330
9
100
AcDbSymbolTableRecord
100
AcDbRegAppTableRecord
  2
GENIUS_GENOLIS_13
 70
     0
  0
APPID
  5
434
330
9
100
AcDbSymbolTableRecord
100
AcDbRegAppTableRecord
  2
GENIUS_GENOBJ-N-CHA_13
 70
     0
  0
APPID
  5
435
330
9
100
AcDbSymbolTableRecord
100
AcDbRegAppTableRecord
  2
GENIUS_GENOENT_13
 70
     0
  0
APPID
  5
436
330
9
100
AcDbSymbolTableRecord
100
AcDbRegAppTableRecord
  2
GENIUS_GENOREF_13
 70
     0
  0
APPID
  5
437
330
9
100
AcDbSymbolTableRecord
100
AcDbRegAppTableRecord
  2
GENIUS_GENOBJ-N-FIL_13
 70
     0
  0
APPID
  5
438
330
9
100
AcDbSymbolTableRecord
100
AcDbRegAppTableRecord
  2
GEVID1208829536
 70
     0
  0
APPID
  5
439
330
9
100
AcDbSymbolTableRecord
100
AcDbRegAppTableRecord
  2
GEVDC
 70
     0
  0
APPID
  5
43A
330
9
100
AcDbSymbolTableRecord
100
AcDbRegAppTableRecord
  2
GEVRADREF
 70
     0
  0
APPID
  5
43B
330
9
100
AcDbSymbolTableRecord
100
AcDbRegAppTableRecord
  2
GENIUS_GENBH_13
 70
     0
  0
APPID
  5
43C
330
9
100
AcDbSymbolTableRecord
100
AcDbRegAppTableRecord
  2
GENIUS_GENOBJ-NBEHI-BHF_13
 70
     0
  0
APPID
  5
43D
330
9
100
AcDbSymbolTableRecord
100
AcDbRegAppTableRecord
  2
GENIUS_GENOBJ-NBEHI-BHB_13
 70
     0
  0
APPID
  5
43E
330
9
100
AcDbSymbolTableRecord
100
AcDbRegAppTableRecord
  2
GEVID1208829537
 70
     0
  0
APPID
  5
43F
330
9
100
AcDbSymbolTableRecord
100
AcDbRegAppTableRecord
  2
ACAD_DSTYLE_DIMJAG
 70
     0
  0
APPID
  5
440
330
9
100
AcDbSymbolTableRecord
100
AcDbRegAppTableRecord
  2
ACAD_DSTYLE_DIMTALN
 70
     0
  0
APPID
  5
441
330
9
100
AcDbSymbolTableRecord
100
AcDbRegAppTableRecord
  2
AMG_2DHIDE
 70
     0
  0
APPID
  5
442
330
9
100
AcDbSymbolTableRecord
100
AcDbRegAppTableRecord
  2
AMG_2DSTRUCT_BTR
 70
     0
  0
APPID
  5
443
330
9
100
AcDbSymbolTableRecord
100
AcDbRegAppTableRecord
  2
GEVID1208845772
 70
     0
  0
APPID
  5
444
330
9
100
AcDbSymbolTableRecord
100
AcDbRegAppTableRecord
  2
GEVID1208845773
 70
     0
  0
APPID
  5
445
330
9
100
AcDbSymbolTableRecord
100
AcDbRegAppTableRecord
  2
ACADM_2DVIEW_IGN_NOTIFY
 70
     0
  0
APPID
  5
446
330
9
100
AcDbSymbolTableRecord
100
AcDbRegAppTableRecord
  2
GEVID1208845774
 70
     0
  0
APPID
  5
447
330
9
100
AcDbSymbolTableRecord
100
AcDbRegAppTableRecord
  2
GEVID1208845775
 70
     0
  0
APPID
  5
448
330
9
100
AcDbSymbolTableRecord
100
AcDbRegAppTableRecord
  2
GEVID1208845776
 70
     0
  0
APPID
  5
449
330
9
100
AcDbSymbolTableRecord
100
AcDbRegAppTableRecord
  2
GEVID1208845777
 70
     0
  0
APPID
  5
44A
330
9
100
AcDbSymbolTableRecord
100
AcDbRegAppTableRecord
  2
GEVCON
 70
     0
  0
APPID
  5
44B
330
9
100
AcDbSymbolTableRecord
100
AcDbRegAppTableRecord
  2
GENIUS_GENOBJ-F-SCPASSM_13
 70
     0
  0
APPID
  5
44C
330
9
100
AcDbSymbolTableRecord
100
AcDbRegAppTableRecord
  2
GEVID1208845778
 70
     0
  0
APPID
  5
44D
330
9
100
AcDbSymbolTableRecord
100
AcDbRegAppTableRecord
  2
GEVID1208845779
 70
     0
  0
APPID
  5
44E
330
9
100
AcDbSymbolTableRecord
100
AcDbRegAppTableRecord
  2
GEVID1208845780
 70
     0
  0
APPID
  5
44F
330
9
100
AcDbSymbolTableRecord
100
AcDbRegAppTableRecord
  2
GEVID1208845781
 70
     0
  0
APPID
  5
450
330
9
100
AcDbSymbolTableRecord
100
AcDbRegAppTableRecord
  2
GEVID1208845782
 70
     0
  0
APPID
  5
451
330
9
100
AcDbSymbolTableRecord
100
AcDbRegAppTableRecord
  2
GEVID1208845783
 70
     0
  0
APPID
  5
452
330
9
100
AcDbSymbolTableRecord
100
AcDbRegAppTableRecord
  2
GEVID1208845784
 70
     0
  0
APPID
  5
453
330
9
100
AcDbSymbolTableRecord
100
AcDbRegAppTableRecord
  2
GEVID1208845785
 70
     0
  0
APPID
  5
454
330
9
100
AcDbSymbolTableRecord
100
AcDbRegAppTableRecord
  2
GEVID1208845787
 70
     0
  0
APPID
  5
455
330
9
100
AcDbSymbolTableRecord
100
AcDbRegAppTableRecord
  2
GEVID1208845788
 70
     0
  0
APPID
  5
456
330
9
100
AcDbSymbolTableRecord
100
AcDbRegAppTableRecord
  2
GEVID1208845789
 70
     0
  0
APPID
  5
457
330
9
100
AcDbSymbolTableRecord
100
AcDbRegAppTableRecord
  2
GEVID1208845790
 70
     0
  0
APPID
  5
458
330
9
100
AcDbSymbolTableRecord
100
AcDbRegAppTableRecord
  2
GEVID1208845791
 70
     0
  0
APPID
  5
459
330
9
100
AcDbSymbolTableRecord
100
AcDbRegAppTableRecord
  2
GEVID1208845792
 70
     0
  0
APPID
  5
45A
330
9
100
AcDbSymbolTableRecord
100
AcDbRegAppTableRecord
  2
GEVID1208845793
 70
     0
  0
APPID
  5
45B
330
9
100
AcDbSymbolTableRecord
100
AcDbRegAppTableRecord
  2
GEVID1208845794
 70
     0
  0
APPID
  5
45C
330
9
100
AcDbSymbolTableRecord
100
AcDbRegAppTableRecord
  2
GEVID1208845795
 70
     0
  0
APPID
  5
45D
330
9
100
AcDbSymbolTableRecord
100
AcDbRegAppTableRecord
  2
GEVID1208845796
 70
     0
  0
APPID
  5
45E
330
9
100
AcDbSymbolTableRecord
100
AcDbRegAppTableRecord
  2
GEVID1208845797
 70
     0
  0
APPID
  5
45F
330
9
100
AcDbSymbolTableRecord
100
AcDbRegAppTableRecord
  2
GEVID1208845798
 70
     0
  0
APPID
  5
460
330
9
100
AcDbSymbolTableRecord
100
AcDbRegAppTableRecord
  2
GEVID1208845799
 70
     0
  0
APPID
  5
461
330
9
100
AcDbSymbolTableRecord
100
AcDbRegAppTableRecord
  2
GEVID1208845800
 70
     0
  0
APPID
  5
462
330
9
100
AcDbSymbolTableRecord
100
AcDbRegAppTableRecord
  2
GEVID1208845801
 70
     0
  0
APPID
  5
463
330
9
100
AcDbSymbolTableRecord
100
AcDbRegAppTableRecord
  2
GEVID1208845802
 70
     0
  0
APPID
  5
464
330
9
100
AcDbSymbolTableRecord
100
AcDbRegAppTableRecord
  2
GENIUS_GENOBJ-N-DIM_13
 70
     0
  0
APPID
  5
465
330
9
100
AcDbSymbolTableRecord
100
AcDbRegAppTableRecord
  2
GENIUS_GENDIM_13
 70
     0
  0
APPID
  5
466
330
9
100
AcDbSymbolTableRecord
100
AcDbRegAppTableRecord
  2
GENIUS_GENDIMSH_14
 70
     0
  0
APPID
  5
467
330
9
100
AcDbSymbolTableRecord
100
AcDbRegAppTableRecord
  2
GEVID1208845803
 70
     0
  0
APPID
  5
468
330
9
100
AcDbSymbolTableRecord
100
AcDbRegAppTableRecord
  2
GEVID1208845804
 70
     0
  0
APPID
  5
469
330
9
100
AcDbSymbolTableRecord
100
AcDbRegAppTableRecord
  2
GEVID1208845805
 70
     0
  0
APPID
  5
46A
330
9
100
AcDbSymbolTableRecord
100
AcDbRegAppTableRecord
  2
GEVID1208845806
 70
     0
  0
APPID
  5
46B
330
9
100
AcDbSymbolTableRecord
100
AcDbRegAppTableRecord
  2
GEVID1208845807
 70
     0
  0
APPID
  5
46C
330
9
100
AcDbSymbolTableRecord
100
AcDbRegAppTableRecord
  2
GEVID1208845808
 70
     0
  0
APPID
  5
46D
330
9
100
AcDbSymbolTableRecord
100
AcDbRegAppTableRecord
  2
GEVID1208845809
 70
     0
  0
APPID
  5
46E
330
9
100
AcDbSymbolTableRecord
100
AcDbRegAppTableRecord
  2
GEVID1208845810
 70
     0
  0
APPID
  5
46F
330
9
100
AcDbSymbolTableRecord
100
AcDbRegAppTableRecord
  2
GEVID1208845811
 70
     0
  0
APPID
  5
470
330
9
100
AcDbSymbolTableRecord
100
AcDbRegAppTableRecord
  2
GEVID1208845813
 70
     0
  0
APPID
  5
471
330
9
100
AcDbSymbolTableRecord
100
AcDbRegAppTableRecord
  2
GEVID1208845814
 70
     0
  0
APPID
  5
472
330
9
100
AcDbSymbolTableRecord
100
AcDbRegAppTableRecord
  2
GEVID1208845815
 70
     0
  0
APPID
  5
473
330
9
100
AcDbSymbolTableRecord
100
AcDbRegAppTableRecord
  2
GEVID1208845816
 70
     0
  0
APPID
  5
474
330
9
100
AcDbSymbolTableRecord
100
AcDbRegAppTableRecord
  2
GEVID1208845817
 70
     0
  0
APPID
  5
475
330
9
100
AcDbSymbolTableRecord
100
AcDbRegAppTableRecord
  2
GEVID1208845818
 70
     0
  0
APPID
  5
476
330
9
100
AcDbSymbolTableRecord
100
AcDbRegAppTableRecord
  2
GEVID1208845819
 70
     0
  0
APPID
  5
477
330
9
100
AcDbSymbolTableRecord
100
AcDbRegAppTableRecord
  2
GEVID1208845820
 70
     0
  0
APPID
  5
478
330
9
100
AcDbSymbolTableRecord
100
AcDbRegAppTableRecord
  2
GENIUS_GENOBJ-F-SHCL_13
 70
     0
  0
APPID
  5
479
330
9
100
AcDbSymbolTableRecord
100
AcDbRegAppTableRecord
  2
GENIUS_GEFMSH_13
 70
     0
  0
APPID
  5
47A
330
9
100
AcDbSymbolTableRecord
100
AcDbRegAppTableRecord
  2
GENIUS_GENOBJ-F-SHCA_13
 70
     0
  0
APPID
  5
47B
330
9
100
AcDbSymbolTableRecord
100
AcDbRegAppTableRecord
  2
GENIUS_GEFSH_13
 70
     0
  0
APPID
  5
47C
330
9
100
AcDbSymbolTableRecord
100
AcDbRegAppTableRecord
  2
GENIUS_GEFSHP_13
 70
     0
  0
APPID
  5
47D
330
9
100
AcDbSymbolTableRecord
100
AcDbRegAppTableRecord
  2
GENIUS_GEFSHP0_13
 70
     0
  0
APPID
  5
47E
330
9
100
AcDbSymbolTableRecord
100
AcDbRegAppTableRecord
  2
GENIUS_GEFSH0_13
 70
     0
  0
APPID
  5
47F
330
9
100
AcDbSymbolTableRecord
100
AcDbRegAppTableRecord
  2
GENIUS_GEFSHP1_13
 70
     0
  0
APPID
  5
480
330
9
100
AcDbSymbolTableRecord
100
AcDbRegAppTableRecord
  2
GENIUS_GEFSH1_13
 70
     0
  0
APPID
  5
481
330
9
100
AcDbSymbolTableRecord
100
AcDbRegAppTableRecord
  2
GEVID1208866337
 70
     0
  0
APPID
  5
482
330
9
100
AcDbSymbolTableRecord
100
AcDbRegAppTableRecord
  2
GEVID1208866338
 70
     0
  0
APPID
  5
483
330
9
100
AcDbSymbolTableRecord
100
AcDbRegAppTableRecord
  2
GEVID1208866339
 70
     0
  0
APPID
  5
484
330
9
100
AcDbSymbolTableRecord
100
AcDbRegAppTableRecord
  2
GEVID1208866340
 70
     0
  0
APPID
  5
485
330
9
100
AcDbSymbolTableRecord
100
AcDbRegAppTableRecord
  2
GEVID1208866341
 70
     0
  0
APPID
  5
486
330
9
100
AcDbSymbolTableRecord
100
AcDbRegAppTableRecord
  2
ACAD_PSEXT
 70
     0
  0
APPID
  5
487
330
9
100
AcDbSymbolTableRecord
100
AcDbRegAppTableRecord
  2
GEVID1208866342
 70
     0
  0
APPID
  5
488
330
9
100
AcDbSymbolTableRecord
100
AcDbRegAppTableRecord
  2
GEVID1208913836
 70
     0
  0
APPID
  5
489
330
9
100
AcDbSymbolTableRecord
100
AcDbRegAppTableRecord
  2
GEVID1208913837
 70
     0
  0
APPID
  5
48A
330
9
100
AcDbSymbolTableRecord
100
AcDbRegAppTableRecord
  2
GEVID1208913838
 70
     0
  0
APPID
  5
48B
330
9
100
AcDbSymbolTableRecord
100
AcDbRegAppTableRecord
  2
GEVID1208913839
 70
     0
  0
APPID
  5
48C
330
9
100
AcDbSymbolTableRecord
100
AcDbRegAppTableRecord
  2
GENIUS_GENDTOL_13
 70
     0
  0
APPID
  5
48D
330
9
100
AcDbSymbolTableRecord
100
AcDbRegAppTableRecord
  2
GEVID1208928889
 70
     0
  0
APPID
  5
48E
330
9
100
AcDbSymbolTableRecord
100
AcDbRegAppTableRecord
  2
GEVID1208928890
 70
     0
  0
APPID
  5
48F
330
9
100
AcDbSymbolTableRecord
100
AcDbRegAppTableRecord
  2
GEVID1208928891
 70
     0
  0
APPID
  5
490
330
9
100
AcDbSymbolTableRecord
100
AcDbRegAppTableRecord
  2
GEVID1208928892
 70
     0
  0
APPID
  5
491
330
9
100
AcDbSymbolTableRecord
100
AcDbRegAppTableRecord
  2
GEVID1208933827
 70
     0
  0
APPID
  5
492
330
9
100
AcDbSymbolTableRecord
100
AcDbRegAppTableRecord
  2
GEVID1208933829
 70
     0
  0
APPID
  5
493
330
9
100
AcDbSymbolTableRecord
100
AcDbRegAppTableRecord
  2
GEVID1208933830
 70
     0
  0
APPID
  5
494
330
9
100
AcDbSymbolTableRecord
100
AcDbRegAppTableRecord
  2
GEVID1208933831
 70
     0
  0
APPID
  5
495
330
9
100
AcDbSymbolTableRecord
100
AcDbRegAppTableRecord
  2
GEVID1208933832
 70
     0
  0
APPID
  5
496
330
9
100
AcDbSymbolTableRecord
100
AcDbRegAppTableRecord
  2
GEVID1208933833
 70
     0
  0
APPID
  5
497
330
9
100
AcDbSymbolTableRecord
100
AcDbRegAppTableRecord
  2
GEVID1208933834
 70
     0
  0
APPID
  5
498
330
9
100
AcDbSymbolTableRecord
100
AcDbRegAppTableRecord
  2
GEVID1208933835
 70
     0
  0
APPID
  5
499
330
9
100
AcDbSymbolTableRecord
100
AcDbRegAppTableRecord
  2
GEVID1208933836
 70
     0
  0
APPID
  5
49A
330
9
100
AcDbSymbolTableRecord
100
AcDbRegAppTableRecord
  2
GEVID1208933837
 70
     0
  0
APPID
  5
49B
330
9
100
AcDbSymbolTableRecord
100
AcDbRegAppTableRecord
  2
GEVID1208933838
 70
     0
  0
APPID
  5
49C
330
9
100
AcDbSymbolTableRecord
100
AcDbRegAppTableRecord
  2
GEVID1208933840
 70
     0
  0
APPID
  5
49D
330
9
100
AcDbSymbolTableRecord
100
AcDbRegAppTableRecord
  2
GEVID1208933842
 70
     0
  0
APPID
  5
49E
330
9
100
AcDbSymbolTableRecord
100
AcDbRegAppTableRecord
  2
GEVID1208933843
 70
     0
  0
APPID
  5
49F
330
9
100
AcDbSymbolTableRecord
100
AcDbRegAppTableRecord
  2
GEVID1208933844
 70
     0
  0
APPID
  5
4A0
330
9
100
AcDbSymbolTableRecord
100
AcDbRegAppTableRecord
  2
GEVID1208933845
 70
     0
  0
APPID
  5
4A1
330
9
100
AcDbSymbolTableRecord
100
AcDbRegAppTableRecord
  2
GEVID1208933846
 70
     0
  0
APPID
  5
4A2
330
9
100
AcDbSymbolTableRecord
100
AcDbRegAppTableRecord
  2
GEVID1208933847
 70
     0
  0
APPID
  5
4A3
330
9
100
AcDbSymbolTableRecord
100
AcDbRegAppTableRecord
  2
GEVID1208933848
 70
     0
  0
APPID
  5
4A4
330
9
100
AcDbSymbolTableRecord
100
AcDbRegAppTableRecord
  2
GEVID1208933849
 70
     0
  0
APPID
  5
4A5
330
9
100
AcDbSymbolTableRecord
100
AcDbRegAppTableRecord
  2
GEVID1208933850
 70
     0
  0
APPID
  5
4A6
330
9
100
AcDbSymbolTableRecord
100
AcDbRegAppTableRecord
  2
GEVID1208933851
 70
     0
  0
APPID
  5
4A7
330
9
100
AcDbSymbolTableRecord
100
AcDbRegAppTableRecord
  2
GEVID1208933852
 70
     0
  0
APPID
  5
4A8
330
9
100
AcDbSymbolTableRecord
100
AcDbRegAppTableRecord
  2
GEVID1208933853
 70
     0
  0
APPID
  5
4A9
330
9
100
AcDbSymbolTableRecord
100
AcDbRegAppTableRecord
  2
GEVID1208933854
 70
     0
  0
APPID
  5
4AA
330
9
100
AcDbSymbolTableRecord
100
AcDbRegAppTableRecord
  2
GEVID1208933855
 70
     0
  0
APPID
  5
4AB
330
9
100
AcDbSymbolTableRecord
100
AcDbRegAppTableRecord
  2
GEVID1208933856
 70
     0
  0
APPID
  5
4AC
330
9
100
AcDbSymbolTableRecord
100
AcDbRegAppTableRecord
  2
GEVID1208933857
 70
     0
  0
APPID
  5
4AD
330
9
100
AcDbSymbolTableRecord
100
AcDbRegAppTableRecord
  2
GEVID1208933858
 70
     0
  0
APPID
  5
4AE
330
9
100
AcDbSymbolTableRecord
100
AcDbRegAppTableRecord
  2
GEVID1208933859
 70
     0
  0
APPID
  5
4AF
330
9
100
AcDbSymbolTableRecord
100
AcDbRegAppTableRecord
  2
GEVID1208933860
 70
     0
  0
APPID
  5
4B0
330
9
100
AcDbSymbolTableRecord
100
AcDbRegAppTableRecord
  2
GEVID1208933861
 70
     0
  0
APPID
  5
4B1
330
9
100
AcDbSymbolTableRecord
100
AcDbRegAppTableRecord
  2
GEVID1208933862
 70
     0
  0
APPID
  5
4B2
330
9
100
AcDbSymbolTableRecord
100
AcDbRegAppTableRecord
  2
GEVID1208933863
 70
     0
  0
APPID
  5
4B3
330
9
100
AcDbSymbolTableRecord
100
AcDbRegAppTableRecord
  2
GEVID1208933864
 70
     0
  0
APPID
  5
4B4
330
9
100
AcDbSymbolTableRecord
100
AcDbRegAppTableRecord
  2
GEVID1208933865
 70
     0
  0
APPID
  5
4B5
330
9
100
AcDbSymbolTableRecord
100
AcDbRegAppTableRecord
  2
GEVID1208933866
 70
     0
  0
APPID
  5
4B6
330
9
100
AcDbSymbolTableRecord
100
AcDbRegAppTableRecord
  2
GEVID1208933867
 70
     0
  0
APPID
  5
4B7
330
9
100
AcDbSymbolTableRecord
100
AcDbRegAppTableRecord
  2
GEVID1208933868
 70
     0
  0
APPID
  5
4B8
330
9
100
AcDbSymbolTableRecord
100
AcDbRegAppTableRecord
  2
GEVID1208933869
 70
     0
  0
APPID
  5
4B9
330
9
100
AcDbSymbolTableRecord
100
AcDbRegAppTableRecord
  2
GEVID1208933870
 70
     0
  0
APPID
  5
4BA
330
9
100
AcDbSymbolTableRecord
100
AcDbRegAppTableRecord
  2
GEVID1208933871
 70
     0
  0
APPID
  5
4BB
330
9
100
AcDbSymbolTableRecord
100
AcDbRegAppTableRecord
  2
GEVID1208933872
 70
     0
  0
APPID
  5
4BC
330
9
100
AcDbSymbolTableRecord
100
AcDbRegAppTableRecord
  2
GEVID1208933873
 70
     0
  0
APPID
  5
4BD
330
9
100
AcDbSymbolTableRecord
100
AcDbRegAppTableRecord
  2
GEVID1208933874
 70
     0
  0
APPID
  5
4BE
330
9
100
AcDbSymbolTableRecord
100
AcDbRegAppTableRecord
  2
GEVID1208933875
 70
     0
  0
APPID
  5
4BF
330
9
100
AcDbSymbolTableRecord
100
AcDbRegAppTableRecord
  2
GEVID1208933876
 70
     0
  0
APPID
  5
4C0
330
9
100
AcDbSymbolTableRecord
100
AcDbRegAppTableRecord
  2
ACAD_DSTYLE_DIMRADIAL_EXTENSION
 70
     0
  0
APPID
  5
4C1
330
9
100
AcDbSymbolTableRecord
100
AcDbRegAppTableRecord
  2
GEVID1208999100
 70
     0
  0
APPID
  5
4C2
330
9
100
AcDbSymbolTableRecord
100
AcDbRegAppTableRecord
  2
GEVID1208999101
 70
     0
  0
APPID
  5
4C3
330
9
100
AcDbSymbolTableRecord
100
AcDbRegAppTableRecord
  2
GEVID1208999102
 70
     0
  0
APPID
  5
4C4
330
9
100
AcDbSymbolTableRecord
100
AcDbRegAppTableRecord
  2
GEVID1208999103
 70
     0
  0
APPID
  5
4C5
330
9
100
AcDbSymbolTableRecord
100
AcDbRegAppTableRecord
  2
GEVID1208999105
 70
     0
  0
APPID
  5
4C6
330
9
100
AcDbSymbolTableRecord
100
AcDbRegAppTableRecord
  2
GEVID1208999106
 70
     0
  0
APPID
  5
4C7
330
9
100
AcDbSymbolTableRecord
100
AcDbRegAppTableRecord
  2
GEVID1208999108
 70
     0
  0
APPID
  5
4C8
330
9
100
AcDbSymbolTableRecord
100
AcDbRegAppTableRecord
  2
GEVID1208999109
 70
     0
  0
APPID
  5
4C9
330
9
100
AcDbSymbolTableRecord
100
AcDbRegAppTableRecord
  2
GEVID1208999110
 70
     0
  0
APPID
  5
4CA
330
9
100
AcDbSymbolTableRecord
100
AcDbRegAppTableRecord
  2
GEVID1208999111
 70
     0
  0
APPID
  5
4CB
330
9
100
AcDbSymbolTableRecord
100
AcDbRegAppTableRecord
  2
GEVID1208999112
 70
     0
  0
APPID
  5
4CC
330
9
100
AcDbSymbolTableRecord
100
AcDbRegAppTableRecord
  2
GEVID1208999113
 70
     0
  0
APPID
  5
4CD
330
9
100
AcDbSymbolTableRecord
100
AcDbRegAppTableRecord
  2
GEVID1208999114
 70
     0
  0
APPID
  5
4CE
330
9
100
AcDbSymbolTableRecord
100
AcDbRegAppTableRecord
  2
GEVID1210218799
 70
     0
  0
APPID
  5
4CF
330
9
100
AcDbSymbolTableRecord
100
AcDbRegAppTableRecord
  2
GEVID1210218800
 70
     0
  0
APPID
  5
4D0
330
9
100
AcDbSymbolTableRecord
100
AcDbRegAppTableRecord
  2
GENIUS_GEFWELD_13
 70
     0
  0
APPID
  5
4D1
330
9
100
AcDbSymbolTableRecord
100
AcDbRegAppTableRecord
  2
GENIUS_GENOBJ-F-WELS_13
 70
     0
  0
APPID
  5
4D2
330
9
100
AcDbSymbolTableRecord
100
AcDbRegAppTableRecord
  2
AcadAnnotative
 70
     0
  0
APPID
  5
4D3
330
9
100
AcDbSymbolTableRecord
100
AcDbRegAppTableRecord
  2
GEVID1210145339
 70
     0
  0
APPID
  5
4D4
330
9
100
AcDbSymbolTableRecord
100
AcDbRegAppTableRecord
  2
ACAD_DSTYLE_DIMBREAK
 70
     0
  0
APPID
  5
4D5
330
9
100
AcDbSymbolTableRecord
100
AcDbRegAppTableRecord
  2
GEVID1210145340
 70
     0
  0
APPID
  5
4D6
330
9
100
AcDbSymbolTableRecord
100
AcDbRegAppTableRecord
  2
GEVID1210145341
 70
     0
  0
APPID
  5
4D7
330
9
100
AcDbSymbolTableRecord
100
AcDbRegAppTableRecord
  2
GEVID1210145342
 70
     0
  0
APPID
  5
4D8
330
9
100
AcDbSymbolTableRecord
100
AcDbRegAppTableRecord
  2
GEVID1210145343
 70
     0
  0
APPID
  5
4D9
330
9
100
AcDbSymbolTableRecord
100
AcDbRegAppTableRecord
  2
GEVID1210145344
 70
     0
  0
APPID
  5
4DA
330
9
100
AcDbSymbolTableRecord
100
AcDbRegAppTableRecord
  2
GEVID1210145345
 70
     0
  0
APPID
  5
4DB
330
9
100
AcDbSymbolTableRecord
100
AcDbRegAppTableRecord
  2
GEVID1210152816
 70
     0
  0
APPID
  5
4DC
330
9
100
AcDbSymbolTableRecord
100
AcDbRegAppTableRecord
  2
GEVID1210153850
 70
     0
  0
APPID
  5
4DD
330
9
100
AcDbSymbolTableRecord
100
AcDbRegAppTableRecord
  2
GEVID1210153851
 70
     0
  0
APPID
  5
4DE
330
9
100
AcDbSymbolTableRecord
100
AcDbRegAppTableRecord
  2
GEVID1210153852
 70
     0
  0
APPID
  5
4DF
330
9
100
AcDbSymbolTableRecord
100
AcDbRegAppTableRecord
  2
GEVID1210549898
 70
     0
  0
APPID
  5
4E0
330
9
100
AcDbSymbolTableRecord
100
AcDbRegAppTableRecord
  2
GEVID1210549899
 70
     0
  0
APPID
  5
4E1
330
9
100
AcDbSymbolTableRecord
100
AcDbRegAppTableRecord
  2
GEVID1210549900
 70
     0
  0
APPID
  5
4E2
330
9
100
AcDbSymbolTableRecord
100
AcDbRegAppTableRecord
  2
GEVID1210549901
 70
     0
  0
APPID
  5
4E3
330
9
100
AcDbSymbolTableRecord
100
AcDbRegAppTableRecord
  2
GEVID1210549902
 70
     0
  0
APPID
  5
4E4
330
9
100
AcDbSymbolTableRecord
100
AcDbRegAppTableRecord
  2
GEVID1210549903
 70
     0
  0
APPID
  5
4E5
330
9
100
AcDbSymbolTableRecord
100
AcDbRegAppTableRecord
  2
GEVID1210549904
 70
     0
  0
APPID
  5
4E6
330
9
100
AcDbSymbolTableRecord
100
AcDbRegAppTableRecord
  2
GEVID1210549905
 70
     0
  0
APPID
  5
4E7
330
9
100
AcDbSymbolTableRecord
100
AcDbRegAppTableRecord
  2
GEVID1210549906
 70
     0
  0
APPID
  5
4E8
330
9
100
AcDbSymbolTableRecord
100
AcDbRegAppTableRecord
  2
GEVID1210549907
 70
     0
  0
APPID
  5
4E9
330
9
100
AcDbSymbolTableRecord
100
AcDbRegAppTableRecord
  2
GEVID1210549908
 70
     0
  0
APPID
  5
4EA
330
9
100
AcDbSymbolTableRecord
100
AcDbRegAppTableRecord
  2
GEVID1210549909
 70
     0
  0
APPID
  5
4EB
330
9
100
AcDbSymbolTableRecord
100
AcDbRegAppTableRecord
  2
GEVID1210549910
 70
     0
  0
APPID
  5
4EC
330
9
100
AcDbSymbolTableRecord
100
AcDbRegAppTableRecord
  2
GEVID1210549911
 70
     0
  0
APPID
  5
4ED
330
9
100
AcDbSymbolTableRecord
100
AcDbRegAppTableRecord
  2
GEVID1210549912
 70
     0
  0
APPID
  5
4EE
330
9
100
AcDbSymbolTableRecord
100
AcDbRegAppTableRecord
  2
GEVID1210549913
 70
     0
  0
APPID
  5
4EF
330
9
100
AcDbSymbolTableRecord
100
AcDbRegAppTableRecord
  2
GEVID1210549914
 70
     0
  0
APPID
  5
4F0
330
9
100
AcDbSymbolTableRecord
100
AcDbRegAppTableRecord
  2
GEVID1210549915
 70
     0
  0
APPID
  5
4F1
330
9
100
AcDbSymbolTableRecord
100
AcDbRegAppTableRecord
  2
GEVID1210549916
 70
     0
  0
APPID
  5
4F2
330
9
100
AcDbSymbolTableRecord
100
AcDbRegAppTableRecord
  2
GEVID1210549917
 70
     0
  0
APPID
  5
4F3
330
9
100
AcDbSymbolTableRecord
100
AcDbRegAppTableRecord
  2
GENIUS_GENOBJ-N-CRS_13
 70
     0
  0
APPID
  5
4F4
330
9
100
AcDbSymbolTableRecord
100
AcDbRegAppTableRecord
  2
GEVID1210549918
 70
     0
  0
APPID
  5
4F5
330
9
100
AcDbSymbolTableRecord
100
AcDbRegAppTableRecord
  2
GENIUS_GENOBJ-N-CRC_13
 70
     0
  0
APPID
  5
4F6
330
9
100
AcDbSymbolTableRecord
100
AcDbRegAppTableRecord
  2
GENIUS_GENCRC_14
 70
     0
  0
APPID
  5
4F7
330
9
100
AcDbSymbolTableRecord
100
AcDbRegAppTableRecord
  2
GEVID1210549919
 70
     0
  0
APPID
  5
4F8
330
9
100
AcDbSymbolTableRecord
100
AcDbRegAppTableRecord
  2
GEVID1210549921
 70
     0
  0
APPID
  5
4F9
330
9
100
AcDbSymbolTableRecord
100
AcDbRegAppTableRecord
  2
GEVID1210549922
 70
     0
  0
APPID
  5
4FA
330
9
100
AcDbSymbolTableRecord
100
AcDbRegAppTableRecord
  2
GEVID1210635173
 70
     0
  0
APPID
  5
4FB
330
9
100
AcDbSymbolTableRecord
100
AcDbRegAppTableRecord
  2
GEVID1210635174
 70
     0
  0
APPID
  5
4FC
330
9
100
AcDbSymbolTableRecord
100
AcDbRegAppTableRecord
  2
GEVID1210635175
 70
     0
  0
APPID
  5
4FD
330
9
100
AcDbSymbolTableRecord
100
AcDbRegAppTableRecord
  2
GEVID1210635176
 70
     0
  0
APPID
  5
4FE
330
9
100
AcDbSymbolTableRecord
100
AcDbRegAppTableRecord
  2
GEVID1210635177
 70
     0
  0
APPID
  5
4FF
330
9
100
AcDbSymbolTableRecord
100
AcDbRegAppTableRecord
  2
GEVID1210635178
 70
     0
  0
APPID
  5
500
330
9
100
AcDbSymbolTableRecord
100
AcDbRegAppTableRecord
  2
GENIUS_GENIUS_GENBHEDTMP_13
 70
     0
  0
APPID
  5
501
330
9
100
AcDbSymbolTableRecord
100
AcDbRegAppTableRecord
  2
GEVID1210635179
 70
     0
  0
APPID
  5
502
330
9
100
AcDbSymbolTableRecord
100
AcDbRegAppTableRecord
  2
GEVID1210635180
 70
     0
  0
APPID
  5
503
330
9
100
AcDbSymbolTableRecord
100
AcDbRegAppTableRecord
  2
GEVID1210635181
 70
     0
  0
APPID
  5
504
330
9
100
AcDbSymbolTableRecord
100
AcDbRegAppTableRecord
  2
GEVID1210635182
 70
     0
  0
APPID
  5
505
330
9
100
AcDbSymbolTableRecord
100
AcDbRegAppTableRecord
  2
GEVID1210635184
 70
     0
  0
APPID
  5
506
330
9
100
AcDbSymbolTableRecord
100
AcDbRegAppTableRecord
  2
GEVID1210635185
 70
     0
  0
APPID
  5
507
330
9
100
AcDbSymbolTableRecord
100
AcDbRegAppTableRecord
  2
GEVID1210635186
 70
     0
  0
APPID
  5
508
330
9
100
AcDbSymbolTableRecord
100
AcDbRegAppTableRecord
  2
GEVID1210635187
 70
     0
  0
APPID
  5
509
330
9
100
AcDbSymbolTableRecord
100
AcDbRegAppTableRecord
  2
GEVID1210635188
 70
     0
  0
APPID
  5
50A
330
9
100
AcDbSymbolTableRecord
100
AcDbRegAppTableRecord
  2
GEVID1210635189
 70
     0
  0
APPID
  5
50B
330
9
100
AcDbSymbolTableRecord
100
AcDbRegAppTableRecord
  2
GEVID1210635190
 70
     0
  0
APPID
  5
50C
330
9
100
AcDbSymbolTableRecord
100
AcDbRegAppTableRecord
  2
GENIUS_GENREC_14
 70
     0
  0
APPID
  5
50D
330
9
100
AcDbSymbolTableRecord
100
AcDbRegAppTableRecord
  2
GENIUS_GENOBJ-N-REC_13
 70
     0
  0
APPID
  5
50E
330
9
100
AcDbSymbolTableRecord
100
AcDbRegAppTableRecord
  2
GEVID1210676655
 70
     0
  0
APPID
  5
50F
330
9
100
AcDbSymbolTableRecord
100
AcDbRegAppTableRecord
  2
GEVID1210676656
 70
     0
  0
APPID
  5
510
330
9
100
AcDbSymbolTableRecord
100
AcDbRegAppTableRecord
  2
GEVID1210676657
 70
     0
  0
APPID
  5
511
330
9
100
AcDbSymbolTableRecord
100
AcDbRegAppTableRecord
  2
GEVID1210676659
 70
     0
  0
APPID
  5
512
330
9
100
AcDbSymbolTableRecord
100
AcDbRegAppTableRecord
  2
GEVID1210676660
 70
     0
  0
APPID
  5
513
330
9
100
AcDbSymbolTableRecord
100
AcDbRegAppTableRecord
  2
GEVID1210676661
 70
     0
  0
APPID
  5
514
330
9
100
AcDbSymbolTableRecord
100
AcDbRegAppTableRecord
  2
GEVID1210676662
 70
     0
  0
APPID
  5
515
330
9
100
AcDbSymbolTableRecord
100
AcDbRegAppTableRecord
  2
GEVID1210721646
 70
     0
  0
APPID
  5
516
330
9
100
AcDbSymbolTableRecord
100
AcDbRegAppTableRecord
  2
GEVID1210721647
 70
     0
  0
APPID
  5
517
330
9
100
AcDbSymbolTableRecord
100
AcDbRegAppTableRecord
  2
GEVID1210721648
 70
     0
  0
APPID
  5
518
330
9
100
AcDbSymbolTableRecord
100
AcDbRegAppTableRecord
  2
GEVID1210721649
 70
     0
  0
APPID
  5
519
330
9
100
AcDbSymbolTableRecord
100
AcDbRegAppTableRecord
  2
GEVID1210721650
 70
     0
  0
APPID
  5
51A
330
9
100
AcDbSymbolTableRecord
100
AcDbRegAppTableRecord
  2
GEVID1210721651
 70
     0
  0
APPID
  5
51B
330
9
100
AcDbSymbolTableRecord
100
AcDbRegAppTableRecord
  2
GEVID1210721652
 70
     0
  0
APPID
  5
51C
330
9
100
AcDbSymbolTableRecord
100
AcDbRegAppTableRecord
  2
GEVID1210721653
 70
     0
  0
APPID
  5
51D
330
9
100
AcDbSymbolTableRecord
100
AcDbRegAppTableRecord
  2
PE_URL
 70
     0
  0
APPID
  5
51E
330
9
100
AcDbSymbolTableRecord
100
AcDbRegAppTableRecord
  2
GEVID1210825555
 70
     0
  0
APPID
  5
51F
330
9
100
AcDbSymbolTableRecord
100
AcDbRegAppTableRecord
  2
GEVID1210825556
 70
     0
  0
APPID
  5
520
330
9
100
AcDbSymbolTableRecord
100
AcDbRegAppTableRecord
  2
GEVID1210825557
 70
     0
  0
APPID
  5
521
330
9
100
AcDbSymbolTableRecord
100
AcDbRegAppTableRecord
  2
GEVID1210825558
 70
     0
  0
APPID
  5
522
330
9
100
AcDbSymbolTableRecord
100
AcDbRegAppTableRecord
  2
GEVID1210825559
 70
     0
  0
APPID
  5
523
330
9
100
AcDbSymbolTableRecord
100
AcDbRegAppTableRecord
  2
GEVID1210825560
 70
     0
  0
APPID
  5
524
330
9
100
AcDbSymbolTableRecord
100
AcDbRegAppTableRecord
  2
GEVID1210825561
 70
     0
  0
APPID
  5
525
330
9
100
AcDbSymbolTableRecord
100
AcDbRegAppTableRecord
  2
GEVID1210825562
 70
     0
  0
APPID
  5
526
330
9
100
AcDbSymbolTableRecord
100
AcDbRegAppTableRecord
  2
GEVID1210825563
 70
     0
  0
APPID
  5
527
330
9
100
AcDbSymbolTableRecord
100
AcDbRegAppTableRecord
  2
GEVID1210825564
 70
     0
  0
APPID
  5
528
330
9
100
AcDbSymbolTableRecord
100
AcDbRegAppTableRecord
  2
GEVID1210825565
 70
     0
  0
APPID
  5
529
330
9
100
AcDbSymbolTableRecord
100
AcDbRegAppTableRecord
  2
GEVID1210825566
 70
     0
  0
APPID
  5
52A
330
9
100
AcDbSymbolTableRecord
100
AcDbRegAppTableRecord
  2
GEVID1210825567
 70
     0
  0
APPID
  5
52B
330
9
100
AcDbSymbolTableRecord
100
AcDbRegAppTableRecord
  2
GENIUS_GENOBJ-N-ZOO_13
 70
     0
  0
APPID
  5
52C
330
9
100
AcDbSymbolTableRecord
100
AcDbRegAppTableRecord
  2
GENIUS_GENZOO_17
 70
     0
  0
APPID
  5
52D
330
9
100
AcDbSymbolTableRecord
100
AcDbRegAppTableRecord
  2
ACADANNOTATIVEDECOMPOSITION
 70
     0
  0
APPID
  5
52E
330
9
100
AcDbSymbolTableRecord
100
AcDbRegAppTableRecord
  2
GENIUS_GENOBJ-N-HTC_13
 70
     0
  0
APPID
  5
52F
330
9
100
AcDbSymbolTableRecord
100
AcDbRegAppTableRecord
  2
GENIUS_GENHATCH_13
 70
     0
  0
APPID
  5
530
330
9
100
AcDbSymbolTableRecord
100
AcDbRegAppTableRecord
  2
GEVID1210896020
 70
     0
  0
APPID
  5
531
330
9
100
AcDbSymbolTableRecord
100
AcDbRegAppTableRecord
  2
GEVID1210896021
 70
     0
  0
APPID
  5
532
330
9
100
AcDbSymbolTableRecord
100
AcDbRegAppTableRecord
  2
GEVID1209083540
 70
     0
  0
APPID
  5
533
330
9
100
AcDbSymbolTableRecord
100
AcDbRegAppTableRecord
  2
GEVMK
 70
     0
  0
APPID
  5
534
330
9
100
AcDbSymbolTableRecord
100
AcDbRegAppTableRecord
  2
GEVID1209083542
 70
     0
  0
APPID
  5
535
330
9
100
AcDbSymbolTableRecord
100
AcDbRegAppTableRecord
  2
GEVID1209083543
 70
     0
  0
APPID
  5
536
330
9
100
AcDbSymbolTableRecord
100
AcDbRegAppTableRecord
  2
GEVID1209083544
 70
     0
  0
APPID
  5
537
330
9
100
AcDbSymbolTableRecord
100
AcDbRegAppTableRecord
  2
GEVID1209083545
 70
     0
  0
APPID
  5
538
330
9
100
AcDbSymbolTableRecord
100
AcDbRegAppTableRecord
  2
GEVID1209083546
 70
     0
  0
APPID
  5
539
330
9
100
AcDbSymbolTableRecord
100
AcDbRegAppTableRecord
  2
GEVID1209083547
 70
     0
  0
APPID
  5
53A
330
9
100
AcDbSymbolTableRecord
100
AcDbRegAppTableRecord
  2
GEVID1209083548
 70
     0
  0
APPID
  5
53B
330
9
100
AcDbSymbolTableRecord
100
AcDbRegAppTableRecord
  2
GEVID1209083549
 70
     0
  0
APPID
  5
53C
330
9
100
AcDbSymbolTableRecord
100
AcDbRegAppTableRecord
  2
GEVID1209083550
 70
     0
  0
APPID
  5
53D
330
9
100
AcDbSymbolTableRecord
100
AcDbRegAppTableRecord
  2
GEVID1209083551
 70
     0
  0
APPID
  5
53E
330
9
100
AcDbSymbolTableRecord
100
AcDbRegAppTableRecord
  2
GEVID1209083552
 70
     0
  0
APPID
  5
53F
330
9
100
AcDbSymbolTableRecord
100
AcDbRegAppTableRecord
  2
GEVID1209083553
 70
     0
  0
APPID
  5
540
330
9
100
AcDbSymbolTableRecord
100
AcDbRegAppTableRecord
  2
GEVID1210896022
 70
     0
  0
APPID
  5
541
330
9
100
AcDbSymbolTableRecord
100
AcDbRegAppTableRecord
  2
GEVID1211508364
 70
     0
  0
APPID
  5
542
330
9
100
AcDbSymbolTableRecord
100
AcDbRegAppTableRecord
  2
GEVID1211414908
 70
     0
  0
APPID
  5
543
330
9
100
AcDbSymbolTableRecord
100
AcDbRegAppTableRecord
  2
GEVID1211414909
 70
     0
  0
APPID
  5
544
330
9
100
AcDbSymbolTableRecord
100
AcDbRegAppTableRecord
  2
GEVID1211508359
 70
     0
  0
APPID
  5
545
330
9
100
AcDbSymbolTableRecord
100
AcDbRegAppTableRecord
  2
GEVID1211508360
 70
     0
  0
APPID
  5
546
330
9
100
AcDbSymbolTableRecord
100
AcDbRegAppTableRecord
  2
GEVID1211508361
 70
     0
  0
APPID
  5
547
330
9
100
AcDbSymbolTableRecord
100
AcDbRegAppTableRecord
  2
GEVID1211508362
 70
     0
  0
APPID
  5
548
330
9
100
AcDbSymbolTableRecord
100
AcDbRegAppTableRecord
  2
GEVID1211508363
 70
     0
  0
APPID
  5
549
330
9
100
AcDbSymbolTableRecord
100
AcDbRegAppTableRecord
  2
GEVID1211878469
 70
     0
  0
APPID
  5
54A
330
9
100
AcDbSymbolTableRecord
100
AcDbRegAppTableRecord
  2
GEVID1212642819
 70
     0
  0
APPID
  5
54B
330
9
100
AcDbSymbolTableRecord
100
AcDbRegAppTableRecord
  2
GEVID1212642820
 70
     0
  0
APPID
  5
54C
330
9
100
AcDbSymbolTableRecord
100
AcDbRegAppTableRecord
  2
GEVID1212642821
 70
     0
  0
APPID
  5
54D
330
9
100
AcDbSymbolTableRecord
100
AcDbRegAppTableRecord
  2
GEVID1212642822
 70
     0
  0
APPID
  5
54E
330
9
100
AcDbSymbolTableRecord
100
AcDbRegAppTableRecord
  2
GEVID1212642823
 70
     0
  0
APPID
  5
54F
330
9
100
AcDbSymbolTableRecord
100
AcDbRegAppTableRecord
  2
GEVID1212642825
 70
     0
  0
APPID
  5
550
330
9
100
AcDbSymbolTableRecord
100
AcDbRegAppTableRecord
  2
GEVID1212642826
 70
     0
  0
APPID
  5
551
330
9
100
AcDbSymbolTableRecord
100
AcDbRegAppTableRecord
  2
GEVID1212642827
 70
     0
  0
APPID
  5
552
330
9
100
AcDbSymbolTableRecord
100
AcDbRegAppTableRecord
  2
GEVID1212642828
 70
     0
  0
APPID
  5
553
330
9
100
AcDbSymbolTableRecord
100
AcDbRegAppTableRecord
  2
GEVID1212642831
 70
     0
  0
APPID
  5
554
330
9
100
AcDbSymbolTableRecord
100
AcDbRegAppTableRecord
  2
GEVID1212642834
 70
     0
  0
APPID
  5
555
330
9
100
AcDbSymbolTableRecord
100
AcDbRegAppTableRecord
  2
GEVID1212642835
 70
     0
  0
APPID
  5
556
330
9
100
AcDbSymbolTableRecord
100
AcDbRegAppTableRecord
  2
GEVID1212642836
 70
     0
  0
APPID
  5
557
330
9
100
AcDbSymbolTableRecord
100
AcDbRegAppTableRecord
  2
GEVID1212642837
 70
     0
  0
APPID
  5
558
330
9
100
AcDbSymbolTableRecord
100
AcDbRegAppTableRecord
  2
GEVID1212642839
 70
     0
  0
APPID
  5
559
330
9
100
AcDbSymbolTableRecord
100
AcDbRegAppTableRecord
  2
GEVID1212642840
 70
     0
  0
APPID
  5
55A
330
9
100
AcDbSymbolTableRecord
100
AcDbRegAppTableRecord
  2
GEVID1212642841
 70
     0
  0
APPID
  5
55B
330
9
100
AcDbSymbolTableRecord
100
AcDbRegAppTableRecord
  2
GEVID1212655312
 70
     0
  0
APPID
  5
55C
330
9
100
AcDbSymbolTableRecord
100
AcDbRegAppTableRecord
  2
GEVID1212655313
 70
     0
  0
APPID
  5
55D
330
9
100
AcDbSymbolTableRecord
100
AcDbRegAppTableRecord
  2
GEVID1212656533
 70
     0
  0
APPID
  5
55E
330
9
100
AcDbSymbolTableRecord
100
AcDbRegAppTableRecord
  2
GEVID1212656534
 70
     0
  0
APPID
  5
55F
330
9
100
AcDbSymbolTableRecord
100
AcDbRegAppTableRecord
  2
GEVID1212656535
 70
     0
  0
APPID
  5
560
330
9
100
AcDbSymbolTableRecord
100
AcDbRegAppTableRecord
  2
GEVID1212656536
 70
     0
  0
APPID
  5
561
330
9
100
AcDbSymbolTableRecord
100
AcDbRegAppTableRecord
  2
GEVID1212656538
 70
     0
  0
APPID
  5
562
330
9
100
AcDbSymbolTableRecord
100
AcDbRegAppTableRecord
  2
GEVID1212656541
 70
     0
  0
APPID
  5
563
330
9
100
AcDbSymbolTableRecord
100
AcDbRegAppTableRecord
  2
GEVID1212656543
 70
     0
  0
APPID
  5
564
330
9
100
AcDbSymbolTableRecord
100
AcDbRegAppTableRecord
  2
GENIUS_GENOBJ-F-PFASSM_13
 70
     0
  0
APPID
  5
565
330
9
100
AcDbSymbolTableRecord
100
AcDbRegAppTableRecord
  2
GEVID1212656544
 70
     0
  0
APPID
  5
566
330
9
100
AcDbSymbolTableRecord
100
AcDbRegAppTableRecord
  2
GEVID1212656545
 70
     0
  0
APPID
  5
567
330
9
100
AcDbSymbolTableRecord
100
AcDbRegAppTableRecord
  2
GEVID1212656546
 70
     0
  0
APPID
  5
568
330
9
100
AcDbSymbolTableRecord
100
AcDbRegAppTableRecord
  2
GEVID1212656547
 70
     0
  0
APPID
  5
569
330
9
100
AcDbSymbolTableRecord
100
AcDbRegAppTableRecord
  2
GEVID1212656548
 70
     0
  0
APPID
  5
56A
330
9
100
AcDbSymbolTableRecord
100
AcDbRegAppTableRecord
  2
GEVID1212656549
 70
     0
  0
APPID
  5
56B
330
9
100
AcDbSymbolTableRecord
100
AcDbRegAppTableRecord
  2
GEVID1212656550
 70
     0
  0
APPID
  5
56C
330
9
100
AcDbSymbolTableRecord
100
AcDbRegAppTableRecord
  2
GEVID1212656552
 70
     0
  0
APPID
  5
56D
330
9
100
AcDbSymbolTableRecord
100
AcDbRegAppTableRecord
  2
GEVID1212656553
 70
     0
  0
APPID
  5
56E
330
9
100
AcDbSymbolTableRecord
100
AcDbRegAppTableRecord
  2
GEVID1212656554
 70
     0
  0
APPID
  5
56F
330
9
100
AcDbSymbolTableRecord
100
AcDbRegAppTableRecord
  2
GEVID1212656555
 70
     0
  0
APPID
  5
570
330
9
100
AcDbSymbolTableRecord
100
AcDbRegAppTableRecord
  2
GEVID1212656556
 70
     0
  0
APPID
  5
571
330
9
100
AcDbSymbolTableRecord
100
AcDbRegAppTableRecord
  2
GEVID1212656557
 70
     0
  0
APPID
  5
572
330
9
100
AcDbSymbolTableRecord
100
AcDbRegAppTableRecord
  2
GEVID1212656559
 70
     0
  0
APPID
  5
573
330
9
100
AcDbSymbolTableRecord
100
AcDbRegAppTableRecord
  2
GEVID1212656560
 70
     0
  0
APPID
  5
574
330
9
100
AcDbSymbolTableRecord
100
AcDbRegAppTableRecord
  2
GEVID1212656561
 70
     0
  0
APPID
  5
575
330
9
100
AcDbSymbolTableRecord
100
AcDbRegAppTableRecord
  2
GEVID1212656562
 70
     0
  0
APPID
  5
576
330
9
100
AcDbSymbolTableRecord
100
AcDbRegAppTableRecord
  2
GEVID1212656563
 70
     0
  0
APPID
  5
577
330
9
100
AcDbSymbolTableRecord
100
AcDbRegAppTableRecord
  2
GEVID1212711781
 70
     0
  0
APPID
  5
578
330
9
100
AcDbSymbolTableRecord
100
AcDbRegAppTableRecord
  2
GEVID1212711782
 70
     0
  0
APPID
  5
579
330
9
100
AcDbSymbolTableRecord
100
AcDbRegAppTableRecord
  2
GEVID1212711783
 70
     0
  0
APPID
  5
57A
330
9
100
AcDbSymbolTableRecord
100
AcDbRegAppTableRecord
  2
GEVID1212711784
 70
     0
  0
APPID
  5
57B
330
9
100
AcDbSymbolTableRecord
100
AcDbRegAppTableRecord
  2
GEVID1212711788
 70
     0
  0
APPID
  5
57C
330
9
100
AcDbSymbolTableRecord
100
AcDbRegAppTableRecord
  2
GEVID1212711789
 70
     0
  0
APPID
  5
57D
330
9
100
AcDbSymbolTableRecord
100
AcDbRegAppTableRecord
  2
GEVID1212711790
 70
     0
  0
APPID
  5
57E
330
9
100
AcDbSymbolTableRecord
100
AcDbRegAppTableRecord
  2
GEVID1212711791
 70
     0
  0
APPID
  5
57F
330
9
100
AcDbSymbolTableRecord
100
AcDbRegAppTableRecord
  2
GEVID1212711792
 70
     0
  0
APPID
  5
580
330
9
100
AcDbSymbolTableRecord
100
AcDbRegAppTableRecord
  2
GEVID1212711793
 70
     0
  0
APPID
  5
581
330
9
100
AcDbSymbolTableRecord
100
AcDbRegAppTableRecord
  2
GEVID1212711794
 70
     0
  0
APPID
  5
582
330
9
100
AcDbSymbolTableRecord
100
AcDbRegAppTableRecord
  2
GEVID1212711795
 70
     0
  0
APPID
  5
583
330
9
100
AcDbSymbolTableRecord
100
AcDbRegAppTableRecord
  2
GEVID1212711797
 70
     0
  0
APPID
  5
584
330
9
100
AcDbSymbolTableRecord
100
AcDbRegAppTableRecord
  2
GEVID1212711798
 70
     0
  0
APPID
  5
585
330
9
100
AcDbSymbolTableRecord
100
AcDbRegAppTableRecord
  2
GEVID1212711799
 70
     0
  0
APPID
  5
586
330
9
100
AcDbSymbolTableRecord
100
AcDbRegAppTableRecord
  2
GEVID1212711800
 70
     0
  0
APPID
  5
587
330
9
100
AcDbSymbolTableRecord
100
AcDbRegAppTableRecord
  2
GEVID1212711801
 70
     0
  0
APPID
  5
588
330
9
100
AcDbSymbolTableRecord
100
AcDbRegAppTableRecord
  2
GEVID1212711802
 70
     0
  0
APPID
  5
589
330
9
100
AcDbSymbolTableRecord
100
AcDbRegAppTableRecord
  2
GEVID1212711803
 70
     0
  0
APPID
  5
58A
330
9
100
AcDbSymbolTableRecord
100
AcDbRegAppTableRecord
  2
GEVID1212711804
 70
     0
  0
APPID
  5
58B
330
9
100
AcDbSymbolTableRecord
100
AcDbRegAppTableRecord
  2
GEVID1212711805
 70
     0
  0
APPID
  5
58C
330
9
100
AcDbSymbolTableRecord
100
AcDbRegAppTableRecord
  2
GEVID1212711806
 70
     0
  0
APPID
  5
58D
330
9
100
AcDbSymbolTableRecord
100
AcDbRegAppTableRecord
  2
GEVID1212711807
 70
     0
  0
APPID
  5
58E
330
9
100
AcDbSymbolTableRecord
100
AcDbRegAppTableRecord
  2
GEVID1212711808
 70
     0
  0
APPID
  5
58F
330
9
100
AcDbSymbolTableRecord
100
AcDbRegAppTableRecord
  2
GEVID1212711809
 70
     0
  0
APPID
  5
590
330
9
100
AcDbSymbolTableRecord
100
AcDbRegAppTableRecord
  2
GEVID1212711810
 70
     0
  0
APPID
  5
591
330
9
100
AcDbSymbolTableRecord
100
AcDbRegAppTableRecord
  2
GEVID1212711811
 70
     0
  0
APPID
  5
90A
330
9
100
AcDbSymbolTableRecord
100
AcDbRegAppTableRecord
  2
GENIUS_GENTRA_14
 70
     0
  0
APPID
  5
919
330
9
100
AcDbSymbolTableRecord
100
AcDbRegAppTableRecord
  2
GENIUS_GENOBJ-N-TIT_13
 70
     0
  0
APPID
  5
91A
330
9
100
AcDbSymbolTableRecord
100
AcDbRegAppTableRecord
  2
GENIUS_GENTITLE_13
 70
     0
  0
APPID
  5
949
330
9
100
AcDbSymbolTableRecord
100
AcDbRegAppTableRecord
  2
GENIUS_GENBLLY_14
 70
     0
  0
APPID
  5
DDD
330
9
100
AcDbSymbolTableRecord
100
AcDbRegAppTableRecord
  2
GEVID1213165152
 70
     0
  0
APPID
  5
12F9
330
9
100
AcDbSymbolTableRecord
100
AcDbRegAppTableRecord
  2
AcDbDynamicBlockTrueName
 70
     0
  0
APPID
  5
12FA
330
9
100
AcDbSymbolTableRecord
100
AcDbRegAppTableRecord
  2
ACDBBLOCKREPETAG
 70
     0
  0
APPID
  5
1C15
330
9
100
AcDbSymbolTableRecord
100
AcDbRegAppTableRecord
  2
GEVID1214872427
 70
     0
  0
APPID
  5
1C2A
330
9
100
AcDbSymbolTableRecord
100
AcDbRegAppTableRecord
  2
GEVID1214872428
 70
     0
  0
APPID
  5
1C2F
330
9
100
AcDbSymbolTableRecord
100
AcDbRegAppTableRecord
  2
GEVID1214872429
 70
     0
  0
APPID
  5
1C33
330
9
100
AcDbSymbolTableRecord
100
AcDbRegAppTableRecord
  2
GEVID1214872430
 70
     0
  0
APPID
  5
1C3F
330
9
100
AcDbSymbolTableRecord
100
AcDbRegAppTableRecord
  2
GEVID1214872432
 70
     0
  0
APPID
  5
1C4E
330
9
100
AcDbSymbolTableRecord
100
AcDbRegAppTableRecord
  2
GEVID1214872433
 70
     0
  0
APPID
  5
20DC
330
9
100
AcDbSymbolTableRecord
100
AcDbRegAppTableRecord
  2
AcDbDynamicBlockGUID
 70
     0
  0
APPID
  5
20FD
330
9
100
AcDbSymbolTableRecord
100
AcDbRegAppTableRecord
  2
GENIUS_GENOBJ-N-REV_13
 70
     0
  0
APPID
  5
20FE
330
9
100
AcDbSymbolTableRecord
100
AcDbRegAppTableRecord
  2
GENIUS_GENOBJ-N-RSSYM_13
 70
     0
  0
APPID
  5
20FF
330
9
100
AcDbSymbolTableRecord
100
AcDbRegAppTableRecord
  2
GENIUS_GENSYMENT_13
 70
     0
  0
APPID
  5
2100
330
9
100
AcDbSymbolTableRecord
100
AcDbRegAppTableRecord
  2
GENIUS_GENSCSYM_13
 70
     0
  0
APPID
  5
545C
330
9
100
AcDbSymbolTableRecord
100
AcDbRegAppTableRecord
  2
GEVID1240537876
 70
     0
  0
APPID
  5
546A
330
9
100
AcDbSymbolTableRecord
100
AcDbRegAppTableRecord
  2
GEVID1240537877
 70
     0
  0
APPID
  5
5539
330
9
100
AcDbSymbolTableRecord
100
AcDbRegAppTableRecord
  2
GEVID1240537878
 70
     0
  0
APPID
  5
553D
330
9
100
AcDbSymbolTableRecord
100
AcDbRegAppTableRecord
  2
GEVID1240537879
 70
     0
  0
ENDTAB
  0
TABLE
  2
DIMSTYLE
  5
A
330
0
100
AcDbSymbolTable
 70
    29
100
AcDbDimStyleTable
 71
     1
340
5AB
  0
DIMSTYLE
105
5AB
330
A
100
AcDbSymbolTableRecord
100
AcDbDimStyleTableRecord
  2
SEISA
 70
     0
  4
"
 40
15.0
 41
2.5
 42
0.625
 43
10.0
 44
0.625
 47
0.1
 48
0.1
 73
     0
 74
     0
 77
     3
 78
     8
 79
     2
 90
     1
140
3.5
141
0.0
143
0.0393701
146
0.71
147
1.5
172
     1
176
     3
177
     3
178
     3
271
     2
272
     2
283
     0
286
     8
340
5D5
341
69
342
69
371
    -1
372
    -1
1001
ACAD_DSTYLE_DIMJAG
1070
   388
1040
1.5
1001
ACAD_DSTYLE_DIMTALN
1070
   392
1070
     1
  0
DIMSTYLE
105
5E9
102
{ACAD_REACTORS
330
57E0
330
580B
330
5823
330
5855
330
588B
330
5930
330
5948
330
5960
330
59F0
330
5A0C
330
5A28
330
5A40
330
5A58
330
5A70
330
6C27
330
6CB3
330
6CE1
102
}
330
A
100
AcDbSymbolTableRecord
100
AcDbDimStyleTableRecord
  2
SEISA$0
 70
     0
  4
"
 40
15.0
 41
2.5
 42
0.625
 43
10.0
 44
0.625
 47
0.1
 48
0.1
 73
     0
 74
     0
 77
     3
 78
     8
 79
     2
 90
     1
140
3.5
141
0.0
143
0.0393701
146
0.71
147
1.5
172
     1
176
     3
177
     3
178
     3
271
     2
272
     2
283
     0
286
     8
340
5D5
341
69
342
69
371
    -1
372
    -1
  0
DIMSTYLE
105
6F5E
330
A
100
AcDbSymbolTableRecord
100
AcDbDimStyleTableRecord
  2
AM_ISO
 70
     0
  4
"
 41
2.5
 42
1.0
 43
10.0
 44
1.0
 47
0.1
 48
0.1
 73
     0
 74
     0
 77
     1
 78
     8
 79
     2
 90
     1
140
3.5
141
0.0
143
0.0393701
146
0.71
147
1.5
172
     1
176
   256
177
   256
178
     2
271
     2
272
     3
274
     4
283
     0
284
     8
340
11
371
    -1
372
    -1
  0
DIMSTYLE
105
6F5F
330
A
100
AcDbSymbolTableRecord
100
AcDbDimStyleTableRecord
  2
AM_ISO$3
 70
     0
  4
"
 41
2.5
 42
1.0
 43
10.0
 44
1.0
 47
0.1
 48
0.1
 73
     0
 77
     1
 78
     8
 79
     2
 90
     1
140
3.5
141
0.0
143
0.0393701
146
0.71
147
1.5
176
   256
177
   256
178
     2
271
     2
272
     3
274
     4
283
     0
284
     8
288
     1
289
     0
340
11
371
    -1
372
    -1
  0
DIMSTYLE
105
6F60
330
A
100
AcDbSymbolTableRecord
100
AcDbDimStyleTableRecord
  2
AM_ISO$4
 70
     0
  4
"
 41
2.5
 42
1.0
 43
10.0
 44
1.0
 47
0.1
 48
0.1
 73
     0
 77
     1
 78
     8
 79
     2
 90
     1
140
3.5
141
0.0
143
0.0393701
146
0.71
147
1.5
176
   256
177
   256
178
     2
271
     2
272
     3
274
     4
283
     0
284
     8
288
     1
289
     0
340
11
371
    -1
372
    -1
  0
DIMSTYLE
105
6F61
330
A
100
AcDbSymbolTableRecord
100
AcDbDimStyleTableRecord
  2
AM_ISO$6
 70
     0
  4
"
 41
2.5
 42
1.0
 43
10.0
 44
1.0
 47
0.1
 48
0.1
 73
     0
 74
     0
 78
     8
 79
     2
 90
     1
140
3.5
141
0.0
143
0.0393701
146
0.71
147
1.5
172
     1
176
   256
177
   256
178
     2
271
     2
272
     3
274
     4
283
     0
284
     8
340
11
371
    -1
372
    -1
  0
DIMSTYLE
105
6F62
330
A
100
AcDbSymbolTableRecord
100
AcDbDimStyleTableRecord
  2
AM_ISO$7
 70
     0
  4
"
 41
2.5
 42
1.0
 43
10.0
 44
1.0
 47
0.1
 48
0.1
 73
     0
 74
     0
 77
     1
 78
     8
 79
     2
 90
     1
140
5.0
141
0.0
143
0.0393701
146
0.71
147
1.5
172
     1
176
   256
177
   256
178
     2
271
     2
272
     3
274
     4
283
     0
284
     8
340
11
371
    -1
372
    -1
  0
DIMSTYLE
105
6F63
330
A
100
AcDbSymbolTableRecord
100
AcDbDimStyleTableRecord
  2
AM_ISO$SF
 70
     0
  4
"
 41
2.5
 42
1.0
 43
10.0
 44
1.0
 47
0.1
 48
0.1
 73
     0
 74
     0
 75
     1
 76
     1
 77
     1
 78
     8
 79
     2
 90
     1
140
3.5
141
0.0
143
0.0393701
146
0.71
147
1.5
172
     1
176
   256
177
   256
178
     2
271
     2
272
     3
274
     4
283
     0
284
     8
340
11
371
    -1
372
    -1
  0
DIMSTYLE
105
6F64
330
A
100
AcDbSymbolTableRecord
100
AcDbDimStyleTableRecord
  2
AM_ISO$SH
 70
     0
  4
"
 41
2.5
 42
1.0
 43
10.0
 44
1.0
 47
0.1
 48
0.1
 73
     0
 74
     0
 75
     1
 76
     1
 77
     1
 78
     8
 79
     2
 90
     1
140
3.5
141
0.0
143
0.0393701
144
2.0
146
0.71
147
1.5
172
     1
173
     1
176
   256
177
   256
178
     2
271
     2
272
     3
274
     4
283
     0
284
     8
340
11
343
74
371
    -1
372
    -1
  0
ENDTAB
  0
TABLE
  2
BLOCK_RECORD
  5
1
330
0
100
AcDbSymbolTable
 70
    32
  0
BLOCK_RECORD
  5
1F
102
{ACAD_XDICTIONARY
360
82
102
}
330
1
100
AcDbSymbolTableRecord
100
AcDbBlockTableRecord
  2
*Model_Space
340
22
 70
     0
280
     1
281
     0
  0
BLOCK_RECORD
  5
1B
330
1
100
AcDbSymbolTableRecord
100
AcDbBlockTableRecord
  2
*Paper_Space
340
1E
 70
     0
280
     1
281
     0
  0
BLOCK_RECORD
  5
23
330
1
100
AcDbSymbolTableRecord
100
AcDbBlockTableRecord
  2
*Paper_Space0
340
26
 70
     0
280
     1
281
     0
  0
BLOCK_RECORD
  5
69
330
1
100
AcDbSymbolTableRecord
100
AcDbBlockTableRecord
  2
_Open30
340
0
102
{BLKREFS
331
5E61
331
5E62
331
5E6A
331
5E6B
331
5E76
331
5E77
331
5E7E
331
5E7F
331
5E99
331
5E9A
331
5EA2
331
5EA3
331
5EAB
331
5EAC
331
5EB7
331
5EC2
331
5ECA
331
5ECB
331
5ED3
331
5ED4
331
5EDC
331
5EDD
331
5EE5
331
5EE6
331
6C53
331
6C54
331
6D05
331
6D06
331
6D0E
331
6D0F
331
6D19
331
6D1A
102
}
 70
     0
280
     1
281
     0
  0
BLOCK_RECORD
  5
74
330
1
100
AcDbSymbolTableRecord
100
AcDbBlockTableRecord
  2
GENAXEH
340
0
 70
     0
280
     1
281
     0
  0
BLOCK_RECORD
  5
3B2A
330
1
100
AcDbSymbolTableRecord
100
AcDbBlockTableRecord
  2
GENDOT
340
0
102
{BLKREFS
331
5EB6
331
5EC1
102
}
 70
     0
280
     1
281
     0
  0
BLOCK_RECORD
  5
4B1C
102
{ACAD_XDICTIONARY
360
4B49
102
}
330
1
100
AcDbSymbolTableRecord
100
AcDbBlockTableRecord
  2
ロッカクアナツキプラグ R1
340
0
310
2800000020000000200000000100080000000000000400000000000000000000000000000000000000000000000080000080000000808000800000008000800080800000C0C0C000C0DCC000F0CAA6000020400000206000002080000020A0000020C0000020E00000400000004020000040400000406000004080000040A0
310
000040C0000040E00000600000006020000060400000606000006080000060A0000060C0000060E00000800000008020000080400000806000008080000080A0000080C0000080E00000A0000000A0200000A0400000A0600000A0800000A0A00000A0C00000A0E00000C0000000C0200000C0400000C0600000C0800000C0
310
A00000C0C00000C0E00000E0000000E0200000E0400000E0600000E0800000E0A00000E0C00000E0E00040000000400020004000400040006000400080004000A0004000C0004000E00040200000402020004020400040206000402080004020A0004020C0004020E000404000004040200040404000404060004040800040
310
40A0004040C0004040E00040600000406020004060400040606000406080004060A0004060C0004060E00040800000408020004080400040806000408080004080A0004080C0004080E00040A0000040A0200040A0400040A0600040A0800040A0A00040A0C00040A0E00040C0000040C0200040C0400040C0600040C08000
310
40C0A00040C0C00040C0E00040E0000040E0200040E0400040E0600040E0800040E0A00040E0C00040E0E00080000000800020008000400080006000800080008000A0008000C0008000E00080200000802020008020400080206000802080008020A0008020C0008020E00080400000804020008040400080406000804080
310
008040A0008040C0008040E00080600000806020008060400080606000806080008060A0008060C0008060E00080800000808020008080400080806000808080008080A0008080C0008080E00080A0000080A0200080A0400080A0600080A0800080A0A00080A0C00080A0E00080C0000080C0200080C0400080C0600080C0
310
800080C0A00080C0C00080C0E00080E0000080E0200080E0400080E0600080E0800080E0A00080E0C00080E0E000C0000000C0002000C0004000C0006000C0008000C000A000C000C000C000E000C0200000C0202000C0204000C0206000C0208000C020A000C020C000C020E000C0400000C0402000C0404000C0406000C0
310
408000C040A000C040C000C040E000C0600000C0602000C0604000C0606000C0608000C060A000C060C000C060E000C0800000C0802000C0804000C0806000C0808000C080A000C080C000C080E000C0A00000C0A02000C0A04000C0A06000C0A08000C0A0A000C0A0C000C0A0E000C0C00000C0C02000C0C04000C0C06000
310
C0C08000C0C0A000F0FBFF00A4A0A000808080000000FF0000FF000000FFFF00FF000000FF00FF00FFFF0000FFFFFF00000000000000000000000000000000000000000000000000000000000000000000000000000000000000000000000000F9000000000000000000000000000000000000000000000000000000000000
310
00F900000000000000000000000000000000000000000000000000000000000000F900000000000000000000000000000000000000000000000000000000000000F900000000000000000000000000000000000000000000000000000000000000F90000000000000000000000000000000000000000000000000000000000
310
0000F900000000000000000000000000000000000000000000000000000000000000F900000000000000000000000000000000000000000000000000000000000000F900000000000000000000000000000000000000000000000000000000000000F900000000000000000000000000000000000000000000000000000000
310
000000F900000000000000000000000000000000000000000000000000000000000000F900000000000000000000000000000000000000000000000000000000000000F90000000000000000000000000000000000000000000000FFFFFFFFFFFFFFFFFFFFFFFFFFFFFFFF0000000000000000000000000000FFFF00000000
310
00000000F900000000000000FFFF00000000000000000000FFFFFFFFFFFFFFFFFFFFFFFFFFFFFFFFFFFFFFFFFFFFFFFF0000000000000000FFFE00000000000000000000F9000000000000000000FE000000000000000000FFFE00000000000000000000F9000000000000000000FE000000000000000000FFFE0000000000
310
0000000000F9000000000000000000FE000000000000000000FFFE00000000000000000000F9000000000000000000FE000000000000000000FFFE00000000000000000000F9000000000000000000FE000000000000000000FFFE00000000000000000000F9000000000000000000FE000000000000000000FFFE00000000
310
000000000000F9000000000000000000FE000000000000000000FFFE00000000000000000000F9000000000000000000FE000000000000000000FFFEFFFFFFFFFFFFFFFFFFFFFFFFFFFFFFFFFFFFFFFFFEFF000000000000000000FF00000000000000000000F9000000000000000000FF0000000000000000000000FF0000
310
00000000000000F90000000000000000FF00000000000000000000000000000000000000000000F900000000000000000000000000000000000000000000000000000000000000F900000000000000000000000000000000000000000000000000000000000000F90000000000000000000000000000000000000000000000
310
0000000000000000F90000000000000000000000000000000000000000000000000000000000000000000000000000000000000000000000
102
{BLKREFS
331
4C09
102
}
 70
     4
280
     1
281
     0
  0
BLOCK_RECORD
  5
4BC6
102
{ACAD_XDICTIONARY
360
4CA0
102
}
330
1
100
AcDbSymbolTableRecord
100
AcDbBlockTableRecord
  2
ケースＡ CEMH1250
340
0
310
2800000020000000200000000100080000000000000400000000000000000000000000000000000000000000000080000080000000808000800000008000800080800000C0C0C000C0DCC000F0CAA6000020400000206000002080000020A0000020C0000020E00000400000004020000040400000406000004080000040A0
310
000040C0000040E00000600000006020000060400000606000006080000060A0000060C0000060E00000800000008020000080400000806000008080000080A0000080C0000080E00000A0000000A0200000A0400000A0600000A0800000A0A00000A0C00000A0E00000C0000000C0200000C0400000C0600000C0800000C0
310
A00000C0C00000C0E00000E0000000E0200000E0400000E0600000E0800000E0A00000E0C00000E0E00040000000400020004000400040006000400080004000A0004000C0004000E00040200000402020004020400040206000402080004020A0004020C0004020E000404000004040200040404000404060004040800040
310
40A0004040C0004040E00040600000406020004060400040606000406080004060A0004060C0004060E00040800000408020004080400040806000408080004080A0004080C0004080E00040A0000040A0200040A0400040A0600040A0800040A0A00040A0C00040A0E00040C0000040C0200040C0400040C0600040C08000
310
40C0A00040C0C00040C0E00040E0000040E0200040E0400040E0600040E0800040E0A00040E0C00040E0E00080000000800020008000400080006000800080008000A0008000C0008000E00080200000802020008020400080206000802080008020A0008020C0008020E00080400000804020008040400080406000804080
310
008040A0008040C0008040E00080600000806020008060400080606000806080008060A0008060C0008060E00080800000808020008080400080806000808080008080A0008080C0008080E00080A0000080A0200080A0400080A0600080A0800080A0A00080A0C00080A0E00080C0000080C0200080C0400080C0600080C0
310
800080C0A00080C0C00080C0E00080E0000080E0200080E0400080E0600080E0800080E0A00080E0C00080E0E000C0000000C0002000C0004000C0006000C0008000C000A000C000C000C000E000C0200000C0202000C0204000C0206000C0208000C020A000C020C000C020E000C0400000C0402000C0404000C0406000C0
310
408000C040A000C040C000C040E000C0600000C0602000C0604000C0606000C0608000C060A000C060C000C060E000C0800000C0802000C0804000C0806000C0808000C080A000C080C000C080E000C0A00000C0A02000C0A04000C0A06000C0A08000C0A0A000C0A0C000C0A0E000C0C00000C0C02000C0C04000C0C06000
310
C0C08000C0C0A000F0FBFF00A4A0A000808080000000FF0000FF000000FFFF00FF000000FF00FF00FFFF0000FFFFFF00000000000000000000000000000000000000000000000000000000000000000000000000000000000000000000FFFF000000000000000000000000000000000000000000000000000000000000FFFF
310
000000000000000000000000000000000000000000000000000000000000FFFFFFFFFFFFFFFFFF0000000000000000000000000000000000000000000000FFFF00000000FFFFFF0000000000000000000000000000000000000000000000FFFF00000000FFFFFF0000000000000000000000000000000000000000000000FF
310
FF00000000FFFFFF0000000000000000000000000000000000000000000000FFFF00000000FFFFFF0000000000000000000000000000000000000000000000FFFF00000000FFFFFF0000000000000000000000000000000000000000000000FFFF00000000FFFFFF0000000000000000000000000000000000000000000000
310
FFFF00000000FFFFFF0000000000000000000000000000000000000000000000FFFF00000000FFFFFF0000000000000000000000000000000000000000000000FFFF00000000FFFFFF0000000000000000000000000000000000000000000000FFFF00000000FFFFFF00000000000000000000000000000000000000000000
310
00FFFF00000000FFFFFF0000000000000000000000000000000000000000000000FFFF00000000FFFFFF0000000000000000000000000000000000000000000000A4A4A4000000FFFFFF0000000000000000000000000000000000000000000000000000000000000000000000000000000000000000000000000000000000
310
00000000000000000000000000000000000000000000000000000000000000000000000000000000000000000000000000000000000000000000000000000000000000000000000000000000000000000000000000000000000000000000000000000000000000000000000000000000000000000000000000000000000000
310
00000000000000000000000000000000000000000000000000000000000000000000000000000000000000000000000000000000000000000000000000000000000000000000000000000000000000000000000000000000000000000000000000000000000000000000000000000000000000000000000000000000000000
310
0000000000000000000000000000000000000000000000000000000000000000000000FFFFFEFFFFFFFFFFFFFF000000000000000000000000000000000000000000FFFFFFFFFFFFFFFFFFFFFF0000000000000000000000000000000000000000F9FFFFFFFFF9000000000000000000000000000000000000000000000000
310
0000000000FFFF00000000000000000000000000000000000000000000000000000000000000000000000000000000000000000000000000
102
{BLKREFS
331
4C0C
102
}
 70
     4
280
     1
281
     0
  0
BLOCK_RECORD
  5
4D09
102
{ACAD_XDICTIONARY
360
4DA4
102
}
330
1
100
AcDbSymbolTableRecord
100
AcDbBlockTableRecord
  2
リジット CEMH1250
340
0
310
2800000020000000200000000100080000000000000400000000000000000000000000000000000000000000000080000080000000808000800000008000800080800000C0C0C000C0DCC000F0CAA6000020400000206000002080000020A0000020C0000020E00000400000004020000040400000406000004080000040A0
310
000040C0000040E00000600000006020000060400000606000006080000060A0000060C0000060E00000800000008020000080400000806000008080000080A0000080C0000080E00000A0000000A0200000A0400000A0600000A0800000A0A00000A0C00000A0E00000C0000000C0200000C0400000C0600000C0800000C0
310
A00000C0C00000C0E00000E0000000E0200000E0400000E0600000E0800000E0A00000E0C00000E0E00040000000400020004000400040006000400080004000A0004000C0004000E00040200000402020004020400040206000402080004020A0004020C0004020E000404000004040200040404000404060004040800040
310
40A0004040C0004040E00040600000406020004060400040606000406080004060A0004060C0004060E00040800000408020004080400040806000408080004080A0004080C0004080E00040A0000040A0200040A0400040A0600040A0800040A0A00040A0C00040A0E00040C0000040C0200040C0400040C0600040C08000
310
40C0A00040C0C00040C0E00040E0000040E0200040E0400040E0600040E0800040E0A00040E0C00040E0E00080000000800020008000400080006000800080008000A0008000C0008000E00080200000802020008020400080206000802080008020A0008020C0008020E00080400000804020008040400080406000804080
310
008040A0008040C0008040E00080600000806020008060400080606000806080008060A0008060C0008060E00080800000808020008080400080806000808080008080A0008080C0008080E00080A0000080A0200080A0400080A0600080A0800080A0A00080A0C00080A0E00080C0000080C0200080C0400080C0600080C0
310
800080C0A00080C0C00080C0E00080E0000080E0200080E0400080E0600080E0800080E0A00080E0C00080E0E000C0000000C0002000C0004000C0006000C0008000C000A000C000C000C000E000C0200000C0202000C0204000C0206000C0208000C020A000C020C000C020E000C0400000C0402000C0404000C0406000C0
310
408000C040A000C040C000C040E000C0600000C0602000C0604000C0606000C0608000C060A000C060C000C060E000C0800000C0802000C0804000C0806000C0808000C080A000C080C000C080E000C0A00000C0A02000C0A04000C0A06000C0A08000C0A0A000C0A0C000C0A0E000C0C00000C0C02000C0C04000C0C06000
310
C0C08000C0C0A000F0FBFF00A4A0A000808080000000FF0000FF000000FFFF00FF000000FF00FF00FFFF0000FFFFFF000000000000000000000000000000000000000000000000000000000000000000000000000000000000000000000000000000000000FFFFFF0000000000000000000000000000000000000000000000
310
000000000000F9F9F9F9F9000000000000000000000000000000000000000000000000000000FF00000000000000000000000000000000FFFFFFFFFFFFFFFFFFFFFFFFFFFFFFFF00000000000000000000000000000000FF0000000000000000000000000000FF00000000000000000000000000000000FF00000000000000
310
00000000000000FF00000000000000000000000000000000FF0000000000000000000000000000FF00000000000000000000000000000000FF0000000000000000000000000000FF00000000000000000000000000000000FF0000000000000000000000000000FF00000000000000000000000000000000FF000000000000
310
0000000000000000FF00000000000000000000000000000000FF0000000000000000000000000000FF00000000000000000000000000000000FF0000000000000000000000000000FF00000000000000000000000000000000FF0000000000000000000000000000FF00000000000000000000000000000000FF0000000000
310
000000000000000000FF00000000000000000000000000000000FF0000000000000000000000000000FF00000000000000000000000000000000FFFFA4A400000000000000000000A4A4A4000000000000000000000000000000FFFF0000000000000000000000000000FF000000000000000000000000000000FFFF000000
310
0000000000000000000000FF000000000000000000000000000000FFFF0000000000000000000000000000FF000000000000000000000000000000FFFF0000000000000000000000000000FF000000000000000000000000000000FFFF0000000000000000000000000000FF000000000000000000000000000000FFFFFFFF
310
FFFFFFFFFFFFFFFFFFFFFFFFFF000000000000000000000000000000FFFFFFFFFFFFFFFFFFFFFFFFFFFFFFFFFF000000000000000000000000000000FF000000000000000000000000000000FF000000000000000000000000000000FF000000000000000000000000000000FF000000000000000000000000000000FF0000
310
00000000000000000000000000FF000000000000000000000000000000FFFFFFFFFFFFFFFFFFFFFFFFFFFFFFFFFF000000000000000000000000000000000000000000000000000000000000FFFFFF0000000000000000000000000000000000000000000000000000000000FF000000000000000000000000000000000000
310
00000000000000000000000000FFFFFF00000000000000000000000000000000000000000000000000000000000000000000000000000000
102
{BLKREFS
331
4E67
102
}
 70
     4
280
     1
281
     0
  0
BLOCK_RECORD
  5
4F10
102
{ACAD_XDICTIONARY
360
4FA1
102
}
330
1
100
AcDbSymbolTableRecord
100
AcDbBlockTableRecord
  2
リーマボルト CEMH1250 M36
340
0
310
2800000020000000200000000100080000000000000400000000000000000000000000000000000000000000000080000080000000808000800000008000800080800000C0C0C000C0DCC000F0CAA6000020400000206000002080000020A0000020C0000020E00000400000004020000040400000406000004080000040A0
310
000040C0000040E00000600000006020000060400000606000006080000060A0000060C0000060E00000800000008020000080400000806000008080000080A0000080C0000080E00000A0000000A0200000A0400000A0600000A0800000A0A00000A0C00000A0E00000C0000000C0200000C0400000C0600000C0800000C0
310
A00000C0C00000C0E00000E0000000E0200000E0400000E0600000E0800000E0A00000E0C00000E0E00040000000400020004000400040006000400080004000A0004000C0004000E00040200000402020004020400040206000402080004020A0004020C0004020E000404000004040200040404000404060004040800040
310
40A0004040C0004040E00040600000406020004060400040606000406080004060A0004060C0004060E00040800000408020004080400040806000408080004080A0004080C0004080E00040A0000040A0200040A0400040A0600040A0800040A0A00040A0C00040A0E00040C0000040C0200040C0400040C0600040C08000
310
40C0A00040C0C00040C0E00040E0000040E0200040E0400040E0600040E0800040E0A00040E0C00040E0E00080000000800020008000400080006000800080008000A0008000C0008000E00080200000802020008020400080206000802080008020A0008020C0008020E00080400000804020008040400080406000804080
310
008040A0008040C0008040E00080600000806020008060400080606000806080008060A0008060C0008060E00080800000808020008080400080806000808080008080A0008080C0008080E00080A0000080A0200080A0400080A0600080A0800080A0A00080A0C00080A0E00080C0000080C0200080C0400080C0600080C0
310
800080C0A00080C0C00080C0E00080E0000080E0200080E0400080E0600080E0800080E0A00080E0C00080E0E000C0000000C0002000C0004000C0006000C0008000C000A000C000C000C000E000C0200000C0202000C0204000C0206000C0208000C020A000C020C000C020E000C0400000C0402000C0404000C0406000C0
310
408000C040A000C040C000C040E000C0600000C0602000C0604000C0606000C0608000C060A000C060C000C060E000C0800000C0802000C0804000C0806000C0808000C080A000C080C000C080E000C0A00000C0A02000C0A04000C0A06000C0A08000C0A0A000C0A0C000C0A0E000C0C00000C0C02000C0C04000C0C06000
310
C0C08000C0C0A000F0FBFF00A4A0A000808080000000FF0000FF000000FFFF00FF000000FF00FF00FFFF0000FFFFFF0000000000000000000000000000000000000000000000000000000000000000000000000000000000000000000000000000000000000000000000000000000000000000000000000000000000000000
310
00000000000000000000000000000000000000000000000000000000000000000000000000000000000000000000000000000000000000000000000000000000000000000000000000000000000000000000000000000000000000000000000000000000000000000000000000000000000000000000000000000000000000
310
00000000000000000000000000000000000000000000000000000000000000000000000000000000000000000000000000000000000000000000000000000000000000000000000000000000000000000000000000000000000000000000000000000000000000000000000000000000000000000000000000000000000000
310
00000000000000000000000000000000000000000000FFFFFFFFFFFFFF00000000000000000000000000000000FFFFFFFFFF00000000FF000000FF000000000000000000000000000000000000000000FFFF0000FFFFFFFFFFFFFF00FF00000000000000000000000000000000FFFFFFFFFF0000FFFFFF000000FF00FF0000
310
0000000000000000000000000000FF0000FFFF0000FFFFFF000000FF00FF00000000000000000000000000000000FF0000FFFF0000FFFFFF000000FFFFFF00000000000000000000000000000000FF0000FFFF0000FFFFFF000000FF00FF00000000000000000000000000000000FF0000FFFF0000FFFFFFFFFFFFFF00FF00
310
000000000000000000000000000000FFFFFFFFFF00000000FF000000FF000000000000000000000000000000000000000000FFFF00000000FFFFFFFFFFFFFF00000000000000000000000000000000FFFFFFFFFF00000000000000000000000000000000000000000000000000000000000000000000000000000000000000
310
00000000000000000000000000000000000000000000000000000000000000000000000000000000000000000000000000000000000000000000000000000000000000000000000000000000000000000000000000000000000000000000000000000000000000000000000000000000000000000000000000000000000000
310
00000000000000000000000000000000000000000000000000000000000000000000000000000000000000000000000000000000000000000000000000000000000000000000000000000000000000000000000000000000000000000000000000000000000000000000000000000000000000000000000000000000000000
310
0000000000000000000000000000000000000000000000000000000000000000000000000000000000000000000000000000000000000000
102
{BLKREFS
331
4F3E
102
}
 70
     4
280
     1
281
     0
  0
BLOCK_RECORD
  5
501E
102
{ACAD_XDICTIONARY
360
50C8
102
}
330
1
100
AcDbSymbolTableRecord
100
AcDbBlockTableRecord
  2
ＧＣサイドカバ－ CEMH1250
340
0
310
2800000020000000200000000100080000000000000400000000000000000000000000000000000000000000000080000080000000808000800000008000800080800000C0C0C000C0DCC000F0CAA6000020400000206000002080000020A0000020C0000020E00000400000004020000040400000406000004080000040A0
310
000040C0000040E00000600000006020000060400000606000006080000060A0000060C0000060E00000800000008020000080400000806000008080000080A0000080C0000080E00000A0000000A0200000A0400000A0600000A0800000A0A00000A0C00000A0E00000C0000000C0200000C0400000C0600000C0800000C0
310
A00000C0C00000C0E00000E0000000E0200000E0400000E0600000E0800000E0A00000E0C00000E0E00040000000400020004000400040006000400080004000A0004000C0004000E00040200000402020004020400040206000402080004020A0004020C0004020E000404000004040200040404000404060004040800040
310
40A0004040C0004040E00040600000406020004060400040606000406080004060A0004060C0004060E00040800000408020004080400040806000408080004080A0004080C0004080E00040A0000040A0200040A0400040A0600040A0800040A0A00040A0C00040A0E00040C0000040C0200040C0400040C0600040C08000
310
40C0A00040C0C00040C0E00040E0000040E0200040E0400040E0600040E0800040E0A00040E0C00040E0E00080000000800020008000400080006000800080008000A0008000C0008000E00080200000802020008020400080206000802080008020A0008020C0008020E00080400000804020008040400080406000804080
310
008040A0008040C0008040E00080600000806020008060400080606000806080008060A0008060C0008060E00080800000808020008080400080806000808080008080A0008080C0008080E00080A0000080A0200080A0400080A0600080A0800080A0A00080A0C00080A0E00080C0000080C0200080C0400080C0600080C0
310
800080C0A00080C0C00080C0E00080E0000080E0200080E0400080E0600080E0800080E0A00080E0C00080E0E000C0000000C0002000C0004000C0006000C0008000C000A000C000C000C000E000C0200000C0202000C0204000C0206000C0208000C020A000C020C000C020E000C0400000C0402000C0404000C0406000C0
310
408000C040A000C040C000C040E000C0600000C0602000C0604000C0606000C0608000C060A000C060C000C060E000C0800000C0802000C0804000C0806000C0808000C080A000C080C000C080E000C0A00000C0A02000C0A04000C0A06000C0A08000C0A0A000C0A0C000C0A0E000C0C00000C0C02000C0C04000C0C06000
310
C0C08000C0C0A000F0FBFF00A4A0A000808080000000FF0000FF000000FFFF00FF000000FF00FF00FFFF0000FFFFFF000000000000000000000000000000000000000000000000000000000000000000000000000000000000000000000000FFFF000000000000000000000000000000000000000000000000000000000000
310
00FF00000000000000000000000000000000000000000000000000000000000000FF00000000000000000000000000000000000000000000000000000000000000FF00000000000000000000000000000000000000000000000000000000000000FF0000000000000000000000000000000000000000000000000000000000
310
0000FF00000000000000000000000000000000000000000000000000000000000000FF00000000000000000000000000000000000000000000000000000000000000FF00000000000000000000000000000000000000000000000000000000000000FF00000000000000000000000000000000000000000000000000000000
310
000000FF00000000000000000000000000000000000000000000000000000000000000FF00000000000000000000000000000000000000000000000000000000000000FF00000000000000000000000000000000000000000000000000000000000000FF000000000000000000000000000000000000000000000000000000
310
00000000FF00000000000000000000000000000000000000000000000000000000000000FF00000000000000000000000000000000000000000000000000000000000000FF00000000000000000000000000000000000000000000000000000000000000000000000000000000000000000000000000000000000000000000
310
00000000000000000000000000000000000000000000000000000000000000000000000000000000000000000000000000000000000000000000000000000000000000000000000000000000000000000000000000000000000000000000000000000000000000000000000000000000000000000000000000000000000000
310
00000000000000000000000000000000000000000000000000000000000000000000000000000000000000000000000000000000000000000000000000000000000000000000000000000000000000000000000000000000000000000000000000000000000000000000000000000000000000000000000000000000000000
310
00000000000000000000000000000000000000000000000000000000000000000000000000000000000000000000000000000000000000000000000000000000000000000000FFFF0000000000000000000000000000000000000000000000000000000000FFFFFFFF00000000000000000000000000000000000000000000
310
00000000000000FFFF0000000000000000000000000000000000000000000000000000000000000000000000000000000000000000000000
102
{BLKREFS
331
5056
102
}
 70
     4
280
     1
281
     0
  0
BLOCK_RECORD
  5
512D
102
{ACAD_XDICTIONARY
360
51C4
102
}
330
1
100
AcDbSymbolTableRecord
100
AcDbBlockTableRecord
  2
センタ CEMH1250
340
0
310
2800000020000000200000000100080000000000000400000000000000000000000000000000000000000000000080000080000000808000800000008000800080800000C0C0C000C0DCC000F0CAA6000020400000206000002080000020A0000020C0000020E00000400000004020000040400000406000004080000040A0
310
000040C0000040E00000600000006020000060400000606000006080000060A0000060C0000060E00000800000008020000080400000806000008080000080A0000080C0000080E00000A0000000A0200000A0400000A0600000A0800000A0A00000A0C00000A0E00000C0000000C0200000C0400000C0600000C0800000C0
310
A00000C0C00000C0E00000E0000000E0200000E0400000E0600000E0800000E0A00000E0C00000E0E00040000000400020004000400040006000400080004000A0004000C0004000E00040200000402020004020400040206000402080004020A0004020C0004020E000404000004040200040404000404060004040800040
310
40A0004040C0004040E00040600000406020004060400040606000406080004060A0004060C0004060E00040800000408020004080400040806000408080004080A0004080C0004080E00040A0000040A0200040A0400040A0600040A0800040A0A00040A0C00040A0E00040C0000040C0200040C0400040C0600040C08000
310
40C0A00040C0C00040C0E00040E0000040E0200040E0400040E0600040E0800040E0A00040E0C00040E0E00080000000800020008000400080006000800080008000A0008000C0008000E00080200000802020008020400080206000802080008020A0008020C0008020E00080400000804020008040400080406000804080
310
008040A0008040C0008040E00080600000806020008060400080606000806080008060A0008060C0008060E00080800000808020008080400080806000808080008080A0008080C0008080E00080A0000080A0200080A0400080A0600080A0800080A0A00080A0C00080A0E00080C0000080C0200080C0400080C0600080C0
310
800080C0A00080C0C00080C0E00080E0000080E0200080E0400080E0600080E0800080E0A00080E0C00080E0E000C0000000C0002000C0004000C0006000C0008000C000A000C000C000C000E000C0200000C0202000C0204000C0206000C0208000C020A000C020C000C020E000C0400000C0402000C0404000C0406000C0
310
408000C040A000C040C000C040E000C0600000C0602000C0604000C0606000C0608000C060A000C060C000C060E000C0800000C0802000C0804000C0806000C0808000C080A000C080C000C080E000C0A00000C0A02000C0A04000C0A06000C0A08000C0A0A000C0A0C000C0A0E000C0C00000C0C02000C0C04000C0C06000
310
C0C08000C0C0A000F0FBFF00A4A0A000808080000000FF0000FF000000FFFF00FF000000FF00FF00FFFF0000FFFFFF00000000000000000000000000000000000000000000000000000000000000000000000000000000000000000000000000FFFFFFFFFFFFFFFFFFFF000000000000000000000000000000000000000000
310
0000FF00000000000000FF0000000000000000000000000000000000000000000000FF00000000000000FF0000000000000000000000000000000000000000000000FF00000000000000FF0000000000000000000000000000000000000000000000FF00000000000000FF0000000000000000000000000000000000000000
310
000000FF00000000000000FF0000000000000000000000000000000000000000000000FF00000000000000FF0000000000000000000000000000000000000000000000FF00000000000000FF0000000000000000000000000000000000000000000000FF00000000000000FF00000000000000000000000000000000000000
310
00000000FF00000000000000FF0000000000000000000000000000000000000000000000FF00000000000000FF0000000000000000000000000000000000000000000000FF00000000000000FF0000000000000000000000000000000000000000000000FF00000000000000FF000000000000000000000000000000000000
310
0000000000FF00000000000000FF000000000000000000000000A4A4A40000000000000000FF0000000000A4A4FF000000000000000000000000A4A4A40000000000000000000000000000A4A4FF000000000000000000000000FF000000000000000000000000000000000000FF000000000000000000000000FF00000000
310
0000000000000000000000000000FF000000000000000000000000FF000000000000000000000000000000000000FF000000000000000000000000FF000000000000000000000000000000000000FF000000000000000000000000FF000000000000000000000000000000000000FF000000000000000000000000FF000000
310
000000000000000000000000000000FF000000000000000000000000FFFF0000FFFFFFFFFFFFFFFFFFFFFFFFFFFFFFFF000000000000000000000000FFFF0000FFFFFFFFFFFFFFFFFFFFFFFFFFFFFFFF000000000000000000000000FF000000000000000000000000000000000000FF000000000000000000000000FF0000
310
00000000000000000000000000000000FF000000000000000000000000FF000000000000000000000000000000000000FF000000000000000000000000FFFFFFFFFF00000000FFFFFFFFFFFFFFFFFFFFFF00000000000000000000000000000000FFA4F9A4A4FF000000000000000000000000000000000000000000000000
310
00000000F9000000000000000000000000000000000000000000000000000000000000000000000000000000000000000000000000000000
102
{BLKREFS
331
515D
102
}
 70
     4
280
     1
281
     0
  0
BLOCK_RECORD
  5
57E1
330
1
100
AcDbSymbolTableRecord
100
AcDbBlockTableRecord
  2
*D13
340
0
 70
     0
280
     1
281
     0
  0
BLOCK_RECORD
  5
580C
330
1
100
AcDbSymbolTableRecord
100
AcDbBlockTableRecord
  2
*D14
340
0
 70
     0
280
     1
281
     0
  0
BLOCK_RECORD
  5
5824
330
1
100
AcDbSymbolTableRecord
100
AcDbBlockTableRecord
  2
*D15
340
0
 70
     0
280
     1
281
     0
  0
BLOCK_RECORD
  5
5856
330
1
100
AcDbSymbolTableRecord
100
AcDbBlockTableRecord
  2
*D16
340
0
 70
     0
280
     1
281
     0
  0
BLOCK_RECORD
  5
588C
330
1
100
AcDbSymbolTableRecord
100
AcDbBlockTableRecord
  2
*D17
340
0
 70
     0
280
     1
281
     0
  0
BLOCK_RECORD
  5
5931
330
1
100
AcDbSymbolTableRecord
100
AcDbBlockTableRecord
  2
*D18
340
0
 70
     0
280
     1
281
     0
  0
BLOCK_RECORD
  5
5949
330
1
100
AcDbSymbolTableRecord
100
AcDbBlockTableRecord
  2
*D19
340
0
 70
     0
280
     1
281
     0
  0
BLOCK_RECORD
  5
5961
330
1
100
AcDbSymbolTableRecord
100
AcDbBlockTableRecord
  2
*D20
340
0
 70
     0
280
     1
281
     0
  0
BLOCK_RECORD
  5
59F1
330
1
100
AcDbSymbolTableRecord
100
AcDbBlockTableRecord
  2
*D21
340
0
 70
     0
280
     1
281
     0
  0
BLOCK_RECORD
  5
5A0D
330
1
100
AcDbSymbolTableRecord
100
AcDbBlockTableRecord
  2
*D22
340
0
 70
     0
280
     1
281
     0
  0
BLOCK_RECORD
  5
5A29
330
1
100
AcDbSymbolTableRecord
100
AcDbBlockTableRecord
  2
*D23
340
0
 70
     0
280
     1
281
     0
  0
BLOCK_RECORD
  5
5A41
330
1
100
AcDbSymbolTableRecord
100
AcDbBlockTableRecord
  2
*D24
340
0
 70
     0
280
     1
281
     0
  0
BLOCK_RECORD
  5
5A59
330
1
100
AcDbSymbolTableRecord
100
AcDbBlockTableRecord
  2
*D25
340
0
 70
     0
280
     1
281
     0
  0
BLOCK_RECORD
  5
5A71
330
1
100
AcDbSymbolTableRecord
100
AcDbBlockTableRecord
  2
*D26
340
0
 70
     0
280
     1
281
     0
  0
BLOCK_RECORD
  5
6C28
330
1
100
AcDbSymbolTableRecord
100
AcDbBlockTableRecord
  2
*D27
340
0
 70
     0
280
     1
281
     0
  0
BLOCK_RECORD
  5
6CB4
330
1
100
AcDbSymbolTableRecord
100
AcDbBlockTableRecord
  2
*D28
340
0
 70
     0
280
     1
281
     0
  0
BLOCK_RECORD
  5
6CE2
330
1
100
AcDbSymbolTableRecord
100
AcDbBlockTableRecord
  2
*D29
340
0
 70
     0
280
     1
281
     0
  0
BLOCK_RECORD
  5
6EA5
330
1
100
AcDbSymbolTableRecord
100
AcDbBlockTableRecord
  2
ＧＣサイドカバ－ CEM1250
340
0
310
2800000020000000200000000100080000000000000400000000000000000000000000000000000000000000000080000080000000808000800000008000800080800000C0C0C000C0DCC000F0CAA6000020400000206000002080000020A0000020C0000020E00000400000004020000040400000406000004080000040A0
310
000040C0000040E00000600000006020000060400000606000006080000060A0000060C0000060E00000800000008020000080400000806000008080000080A0000080C0000080E00000A0000000A0200000A0400000A0600000A0800000A0A00000A0C00000A0E00000C0000000C0200000C0400000C0600000C0800000C0
310
A00000C0C00000C0E00000E0000000E0200000E0400000E0600000E0800000E0A00000E0C00000E0E00040000000400020004000400040006000400080004000A0004000C0004000E00040200000402020004020400040206000402080004020A0004020C0004020E000404000004040200040404000404060004040800040
310
40A0004040C0004040E00040600000406020004060400040606000406080004060A0004060C0004060E00040800000408020004080400040806000408080004080A0004080C0004080E00040A0000040A0200040A0400040A0600040A0800040A0A00040A0C00040A0E00040C0000040C0200040C0400040C0600040C08000
310
40C0A00040C0C00040C0E00040E0000040E0200040E0400040E0600040E0800040E0A00040E0C00040E0E00080000000800020008000400080006000800080008000A0008000C0008000E00080200000802020008020400080206000802080008020A0008020C0008020E00080400000804020008040400080406000804080
310
008040A0008040C0008040E00080600000806020008060400080606000806080008060A0008060C0008060E00080800000808020008080400080806000808080008080A0008080C0008080E00080A0000080A0200080A0400080A0600080A0800080A0A00080A0C00080A0E00080C0000080C0200080C0400080C0600080C0
310
800080C0A00080C0C00080C0E00080E0000080E0200080E0400080E0600080E0800080E0A00080E0C00080E0E000C0000000C0002000C0004000C0006000C0008000C000A000C000C000C000E000C0200000C0202000C0204000C0206000C0208000C020A000C020C000C020E000C0400000C0402000C0404000C0406000C0
310
408000C040A000C040C000C040E000C0600000C0602000C0604000C0606000C0608000C060A000C060C000C060E000C0800000C0802000C0804000C0806000C0808000C080A000C080C000C080E000C0A00000C0A02000C0A04000C0A06000C0A08000C0A0A000C0A0C000C0A0E000C0C00000C0C02000C0C04000C0C06000
310
C0C08000C0C0A000F0FBFF00A4A0A000808080000000FF0000FF000000FFFF00FF000000FF00FF00FFFF0000FFFFFF000000000000000000000000000000000000000000000000000000000000000000000000000000000000FC00FC000000000000FC0000FC00000000000000000000000000000000000000FCFCFC000000
310
000000FCFCFCFC00000000000000000000000000000000000000FC00FC000000000000FC0000FC00000000000000000000000000000000000000FC00FC000000000000FC0000FC00000000000000000000000000000000000000FC00FC000000000000FC0000FC00000000000000000000000000000000000000FC00FCFCFC
310
FCFCFCFCFC0000FC00000000000000000000000000000000000000FC0000000000000000000000FC00000000000000000000000000000000000000FC0000000000000000000000FC00000000000000000000000000000000000000FC0000000000000000000000FC00000000000000000000000000000000000000FC000000
310
0000000000000000FC00000000000000000000000000000000000000FC0000000000000000000000FC00000000000000000000000000000000000000FC0000000000000000000000FC00000000000000000000000000000000000000FC0000000000000000000000FC00000000000000000000000000000000000000FCFCFC
310
FCFC00000000000000FC0000000000000000000000000000000000000000000000FC00000000000000FC0000000000000000000000000000000000000000000000FC00000000000000FC000000000000000000000000000000000000000000FCFCFC00000000000000FC000000000000000000000000000000000000000000
310
FC000000000000000000FC000000000000000000000000000000000000000000FC000000000000000000FC000000000000000000000000000000000000000000FC000000000000000000FC000000000000000000000000000000000000000000FC000000000000000000FC00000000000000000000000000000000000000FC
310
FCFCFCFCFCFCFCFCFCFCFCFCFC0000000000000000000000000000000000000000FC000000000000000000FC000000000000000000000000000000000000000000FC000000000000000000FC000000000000000000000000000000000000000000FC000000000000000000FC00000000000000000000000000000000000000
310
0000FC000000000000000000FC000000000000000000000000000000000000000000FC000000000000000000FC000000000000000000000000000000000000000000FC000000000000000000FC000000000000000000000000000000000000000000FC000000000000000000FC000000000000000000000000000000000000
310
000000FCFCFCFCFCFCFCFCFCFCFC000000000000000000000000000000000000000000000000000000000000000000000000000000000000
102
{BLKREFS
331
6EB9
102
}
 70
     4
280
     1
281
     1
  0
ENDTAB
  0
ENDSEC
  0
SECTION
  2
BLOCKS
  0
BLOCK
  5
20
330
1F
100
AcDbEntity
  8
0
100
AcDbBlockBegin
  2
*Model_Space
 70
     0
 10
0.0
 20
0.0
 30
0.0
  3
*Model_Space
  1

  0
ENDBLK
  5
21
330
1F
100
AcDbEntity
  8
0
100
AcDbBlockEnd
  0
BLOCK
  5
1C
330
1B
100
AcDbEntity
 67
     1
  8
0
100
AcDbBlockBegin
  2
*Paper_Space
 70
     0
 10
0.0
 20
0.0
 30
0.0
  3
*Paper_Space
  1

  0
ENDBLK
  5
1D
330
1B
100
AcDbEntity
 67
     1
  8
0
100
AcDbBlockEnd
  0
BLOCK
  5
24
330
23
100
AcDbEntity
 67
     1
  8
0
100
AcDbBlockBegin
  2
*Paper_Space0
 70
     0
 10
0.0
 20
0.0
 30
0.0
  3
*Paper_Space0
  1

  0
ENDBLK
  5
25
330
23
100
AcDbEntity
 67
     1
  8
0
100
AcDbBlockEnd
  0
BLOCK
  5
6D
330
69
100
AcDbEntity
  8
0
100
AcDbBlockBegin
  2
_Open30
 70
     0
 10
0.0
 20
0.0
 30
0.0
  3
_Open30
  1

  0
LINE
  5
6A
330
69
100
AcDbEntity
  8
0
  6
ByBlock
 62
     0
370
    -2
100
AcDbLine
 10
-1.0
 20
0.26794919
 30
0.0
 11
0.0
 21
0.0
 31
0.0
  0
LINE
  5
6B
330
69
100
AcDbEntity
  8
0
  6
ByBlock
 62
     0
370
    -2
100
AcDbLine
 10
0.0
 20
0.0
 30
0.0
 11
-1.0
 21
-0.26794919
 31
0.0
  0
LINE
  5
6C
330
69
100
AcDbEntity
  8
0
  6
ByBlock
 62
     0
370
    -2
100
AcDbLine
 10
0.0
 20
0.0
 30
0.0
 11
-1.0
 21
0.0
 31
0.0
  0
ENDBLK
  5
6E
330
69
100
AcDbEntity
  8
0
100
AcDbBlockEnd
  0
BLOCK
  5
76
330
74
100
AcDbEntity
  8
0
100
AcDbBlockBegin
  2
GENAXEH
 70
     0
 10
0.0
 20
0.0
 30
0.0
  3
GENAXEH
  1

  0
LINE
  5
75
330
74
100
AcDbEntity
  8
0
100
AcDbLine
 10
-1.0
 20
0.0
 30
0.0
 11
1.0
 21
0.0
 31
0.0
  0
ENDBLK
  5
77
330
74
100
AcDbEntity
  8
0
100
AcDbBlockEnd
  0
BLOCK
  5
3B2B
330
3B2A
100
AcDbEntity
  8
0
100
AcDbBlockBegin
  2
GENDOT
 70
     0
 10
0.0
 20
0.0
 30
0.0
  3
GENDOT
  1

  0
LINE
  5
3B2C
330
3B2A
100
AcDbEntity
  8
0
100
AcDbLine
 10
0.0
 20
0.0
 30
0.0
 11
-1.0
 21
0.0
 31
0.0
  0
LWPOLYLINE
  5
3B2D
330
3B2A
100
AcDbEntity
  8
0
100
AcDbPolyline
 90
        2
 70
     1
 43
0.25
 10
-0.125
 20
0.0
 42
1.0
 10
0.125
 20
0.0
 42
1.0
  0
ENDBLK
  5
3B2E
330
3B2A
100
AcDbEntity
  8
0
100
AcDbBlockEnd
  0
BLOCK
  5
4B1D
330
4B1C
100
AcDbEntity
  8
0
100
AcDbBlockBegin
  2
ロッカクアナツキプラグ R1
 70
     0
 10
0.0
 20
0.0
 30
0.0
  3
ロッカクアナツキプラグ R1
  1

  0
LINE
  5
4B1F
330
4B1C
100
AcDbEntity
  8
AM_7 中心線
100
AcDbLine
 10
0.0
 20
5.609928999999738
 30
0.0
 11
0.0
 21
-35.24113500000022
 31
0.0
  0
LINE
  5
4B20
330
4B1C
100
AcDbEntity
  8
AM_0 外形線1
100
AcDbLine
 10
-16.18798999999944
 20
-15.0
 30
0.0
 11
16.18799100000069
 21
-15.0
 31
0.0
  0
LINE
  5
4B21
330
4B1C
100
AcDbEntity
  8
AM_0 外形線1
100
AcDbLine
 10
16.6244999999999
 20
-2.5
 30
0.0
 11
-16.6244999999999
 21
-2.5
 31
0.0
  0
LINE
  5
4B22
330
4B1C
100
AcDbEntity
  8
AM_0 外形線1
100
AcDbLine
 10
-9.25978699999905
 20
-19.0
 30
0.0
 11
9.259788000001208
 21
-19.0
 31
0.0
  0
LINE
  5
4B23
330
4B1C
100
AcDbEntity
  8
AM_4 細線
100
AcDbLine
 10
-15.19540499999948
 20
-1.070905000000492
 30
0.0
 11
-14.67855799999961
 21
-15.87147100000038
 31
0.0
  0
LINE
  5
4B24
330
4B1C
100
AcDbEntity
  8
AM_0 外形線1
100
AcDbLine
 10
-16.18798999999944
 20
-15.0
 30
0.0
 11
-9.25978699999905
 21
-19.0
 31
0.0
  0
LINE
  5
4B25
330
4B1C
100
AcDbEntity
  8
AM_0 外形線1
100
AcDbLine
 10
-16.6244999999999
 20
-2.5
 30
0.0
 11
-16.18798999999944
 21
-15.0
 31
0.0
  0
LINE
  5
4B26
330
4B1C
100
AcDbEntity
  8
AM_0 外形線1
100
AcDbLine
 10
-14.1244999999999
 20
0.0
 30
0.0
 11
-16.6244999999999
 21
-2.5
 31
0.0
  0
LINE
  5
4B27
330
4B1C
100
AcDbEntity
  8
AM_4 細線
100
AcDbLine
 10
15.19540500000039
 20
-1.070905000000492
 30
0.0
 11
14.67855800000052
 21
-15.87147100000038
 31
0.0
  0
LINE
  5
4B28
330
4B1C
100
AcDbEntity
  8
AM_0 外形線1
100
AcDbLine
 10
16.6244999999999
 20
-2.5
 30
0.0
 11
14.1244999999999
 21
0.0
 31
0.0
  0
LINE
  5
4B29
330
4B1C
100
AcDbEntity
  8
AM_0 外形線1
100
AcDbLine
 10
9.259788000001208
 20
-19.0
 30
0.0
 11
16.18799100000069
 21
-15.0
 31
0.0
  0
LINE
  5
4B48
330
4B1C
100
AcDbEntity
  8
AM_0 外形線1
100
AcDbLine
 10
-14.1244999999999
 20
0.0
 30
0.0
 11
14.1244999999999
 21
0.0
 31
0.0
  0
LINE
  5
6006
330
4B1C
100
AcDbEntity
  8
AM_0 外形線1
100
AcDbLine
 10
16.6244999999999
 20
-2.5
 30
0.0
 11
16.18798999999944
 21
-15.0
 31
0.0
  0
ENDBLK
  5
4B1E
330
4B1C
100
AcDbEntity
  8
0
100
AcDbBlockEnd
  0
BLOCK
  5
4BC7
330
4BC6
100
AcDbEntity
  8
0
100
AcDbBlockBegin
  2
ケースＡ CEMH1250
 70
     0
 10
0.0
 20
0.0
 30
0.0
  3
ケースＡ CEMH1250
  1

  0
LINE
  5
4BC9
330
4BC6
100
AcDbEntity
  8
AM_3 隠れ線
100
AcDbLine
 10
350.0000000000004
 20
494.3999999999996
 30
0.0
 11
185.0
 21
494.3999999999996
 31
0.0
  0
LINE
  5
4BCA
330
4BC6
100
AcDbEntity
  8
AM_7 中心線
100
AcDbLine
 10
169.0
 20
504.0
 30
0.0
 11
365.0000000000005
 21
504.0
 31
0.0
  0
LINE
  5
4BCB
330
4BC6
100
AcDbEntity
  8
AM_0 外形線1
100
AcDbLine
 10
60.5
 20
-548.0
 30
0.0
 11
296.0
 21
-548.0
 31
0.0
  0
LINE
  5
4BCC
330
4BC6
100
AcDbEntity
  8
AM_0 外形線1
100
AcDbLine
 10
68.0
 20
548.0
 30
0.0
 11
296.0
 21
548.0
 31
0.0
  0
LINE
  5
4BCD
330
4BC6
100
AcDbEntity
  8
AM_0 外形線1
100
AcDbLine
 10
171.0
 20
516.0
 30
0.0
 11
363.0000000000005
 21
516.0
 31
0.0
  0
LINE
  5
4BCE
330
4BC6
100
AcDbEntity
  8
AM_0 外形線1
100
AcDbLine
 10
60.0
 20
-623.0
 30
0.0
 11
60.0
 21
0.0
 31
0.0
  0
LINE
  5
4BCF
330
4BC6
100
AcDbEntity
  8
AM_0 外形線1
100
AcDbLine
 10
0.0
 20
0.0
 30
0.0
 11
0.0
 21
-623.0
 31
0.0
  0
LINE
  5
4BD0
330
4BC6
100
AcDbEntity
  8
AM_0 外形線1
100
AcDbLine
 10
2.0
 20
-625.0
 30
0.0
 11
58.0
 21
-625.0
 31
0.0
  0
LINE
  5
4BD1
330
4BC6
100
AcDbEntity
  8
AM_0 外形線1
100
AcDbLine
 10
0.0
 20
-623.0
 30
0.0
 11
2.0
 21
-625.0
 31
0.0
  0
LINE
  5
4BD2
330
4BC6
100
AcDbEntity
  8
AM_0 外形線1
100
AcDbLine
 10
58.0
 20
-625.0
 30
0.0
 11
60.0
 21
-623.0
 31
0.0
  0
ARC
  5
4BD3
330
4BC6
100
AcDbEntity
  8
AM_0 外形線1
100
AcDbCircle
 10
60.5
 20
-548.5
 30
0.0
 40
0.5
100
AcDbArc
 50
90.0
 51
180.0
  0
LINE
  5
4BDB
330
4BC6
100
AcDbEntity
  8
AM_7 中心線
100
AcDbLine
 10
-122.0526549999995
 20
591.0
 30
0.0
 11
97.49346100000003
 21
591.0
 31
0.0
  0
LINE
  5
4BDC
330
4BC6
100
AcDbEntity
  8
AM_0 外形線1
100
AcDbLine
 10
170.0
 20
518.0
 30
0.0
 11
-12.0
 21
518.0
 31
0.0
  0
LINE
  5
4BDD
330
4BC6
100
AcDbEntity
  8
AM_0 外形線1
100
AcDbLine
 10
2.0
 20
625.0
 30
0.0
 11
58.0
 21
625.0
 31
0.0
  0
LINE
  5
4BE0
330
4BC6
100
AcDbEntity
  8
AM_0 外形線1
100
AcDbLine
 10
-12.0
 20
518.0
 30
0.0
 11
-12.0
 21
537.0
 31
0.0
  0
LWPOLYLINE
  5
4BE1
330
4BC6
100
AcDbEntity
  8
AM_0 外形線1
100
AcDbPolyline
 90
       73
 70
     0
 43
0.0
 10
3.350000000000362
 20
540.0
 10
3.641972000001259
 20
540.0199779999993
 10
3.931722000001173
 20
540.0797599999996
 10
4.217044000000896
 20
540.1788899999997
 10
4.495768000000679
 20
540.3166139999994
 10
4.765772000000652
 20
540.4918839999996
 10
5.025000000000544
 20
540.7033669999996
 10
5.271481000000675
 20
540.9494519999998
 10
5.503339000000778
 20
541.2282669999995
 10
5.718808000000535
 20
541.5376899999996
 10
5.916249000000789
 20
541.8753649999998
 10
6.094160000000556
 20
542.2387239999998
 10
6.251185000000987
 20
542.625
 10
6.386131000001113
 20
543.0312539999994
 10
6.497971000000688
 20
543.4543939999993
 10
6.585852000000159
 20
543.8912
 10
6.649106000000755
 20
544.3383469999998
 10
6.687253000000055
 20
544.7924329999996
 10
6.700000000000727
 20
545.2499999999998
 10
6.687253000000055
 20
545.7075679999998
 10
6.649106000000755
 20
546.1616529999997
 10
6.585852000000159
 20
546.6088
 10
6.497971000000688
 20
547.0456059999995
 10
6.386131000001113
 20
547.4687459999994
 10
6.251185000000987
 20
547.8749999999998
 10
6.094160000000556
 20
548.2612769999994
 10
5.916249000000789
 20
548.6246349999996
 10
5.718808000000535
 20
548.9623109999996
 10
5.503339000000778
 20
549.2717339999997
 10
5.271481000000675
 20
549.5505479999997
 10
5.025000000000544
 20
549.7966339999996
 10
4.765772000000652
 20
550.0081159999998
 10
4.495768000000679
 20
550.1833859999996
 10
4.217044000000896
 20
550.3211109999997
 10
3.931722000001173
 20
550.4202409999996
 10
3.641972000001259
 20
550.4800219999997
 10
3.350000000000362
 20
550.4999999999999
 10
3.058029000000714
 20
550.4800219999997
 10
2.768279000000801
 20
550.4202409999996
 10
2.482957000000169
 20
550.3211109999997
 10
2.204233000000384
 20
550.1833859999996
 10
1.934229000000413
 20
550.0081159999998
 10
1.675000000000181
 20
549.7966339999996
 10
1.428519000000959
 20
549.5505479999997
 10
1.196662000000287
 20
549.2717339999997
 10
0.9811930000005304
 20
548.9623109999996
 10
0.7837510000008479
 20
548.6246349999996
 10
0.6058410000005097
 20
548.2612769999994
 10
0.4488150000006499
 20
547.8749999999998
 10
0.3138690000005226
 20
547.4687459999994
 10
0.2020300000003772
 20
547.0456059999995
 10
0.1141490000009071
 20
546.6088
 10
0.0508939999999711
 20
546.1616529999997
 10
0.012748000001011
 20
545.7075679999998
 10
0.0
 20
545.2499999999998
 10
0.012748000001011
 20
544.7924329999996
 10
0.0508939999999711
 20
544.3383469999998
 10
0.1141490000009071
 20
543.8912
 10
0.2020300000003772
 20
543.4543939999993
 10
0.3138690000005226
 20
543.0312539999994
 10
0.4488150000006499
 20
542.625
 10
0.6058410000005097
 20
542.2387239999998
 10
0.7837510000008479
 20
541.8753649999998
 10
0.9811930000005304
 20
541.5376899999996
 10
1.196662000000287
 20
541.2282669999995
 10
1.428519000000959
 20
540.9494519999998
 10
1.675000000000181
 20
540.7033669999996
 10
1.934229000000413
 20
540.4918839999996
 10
2.204233000000384
 20
540.3166139999994
 10
2.482957000000169
 20
540.1788899999997
 10
2.768279000000801
 20
540.0797599999996
 10
3.058029000000714
 20
540.0199779999993
 10
3.350000000000362
 20
540.0
  0
LINE
  5
4BE2
330
4BC6
100
AcDbEntity
  8
AM_0 外形線1
100
AcDbLine
 10
0.0
 20
550.4999999999999
 30
0.0
 11
0.0
 21
572.0
 31
0.0
  0
LINE
  5
4BE3
330
4BC6
100
AcDbEntity
  8
AM_0 外形線1
100
AcDbLine
 10
6.200000000000727
 20
550.4999999999999
 30
0.0
 11
0.0
 21
550.4999999999999
 31
0.0
  0
ARC
  5
4BE4
330
4BC6
100
AcDbEntity
  8
AM_0 外形線1
100
AcDbCircle
 10
6.200000000000727
 20
550.0
 30
0.0
 40
0.5
100
AcDbArc
 50
0.0
 51
90.0
  0
LINE
  5
4BE5
330
4BC6
100
AcDbEntity
  8
AM_0 外形線1
100
AcDbLine
 10
6.700000000000727
 20
540.5
 30
0.0
 11
6.700000000000727
 21
550.0
 31
0.0
  0
ARC
  5
4BE6
330
4BC6
100
AcDbEntity
  8
AM_0 外形線1
100
AcDbCircle
 10
6.200000000000727
 20
540.5
 30
0.0
 40
0.5
100
AcDbArc
 50
270.0
 51
0.0
  0
LINE
  5
4BE7
330
4BC6
100
AcDbEntity
  8
AM_0 外形線1
100
AcDbLine
 10
-9.0
 20
540.0
 30
0.0
 11
6.200000000000727
 21
540.0
 31
0.0
  0
LINE
  5
4BE8
330
4BC6
100
AcDbEntity
  8
AM_0 外形線1
100
AcDbLine
 10
-12.0
 20
537.0
 30
0.0
 11
-9.0
 21
540.0
 31
0.0
  0
LINE
  5
4BE9
330
4BC6
100
AcDbEntity
  8
AM_0 外形線1
100
AcDbLine
 10
0.0
 20
623.0
 30
0.0
 11
2.0
 21
625.0
 31
0.0
  0
LINE
  5
4BEA
330
4BC6
100
AcDbEntity
  8
AM_0 外形線1
100
AcDbLine
 10
0.0
 20
610.0
 30
0.0
 11
0.0
 21
623.0
 31
0.0
  0
LINE
  5
4BEB
330
4BC6
100
AcDbEntity
  8
AM_0 外形線1
100
AcDbLine
 10
60.0
 20
556.0
 30
0.0
 11
60.0
 21
623.0
 31
0.0
  0
LINE
  5
4BEC
330
4BC6
100
AcDbEntity
  8
AM_0 外形線1
100
AcDbLine
 10
111.1879910000007
 20
533.0
 30
0.0
 11
110.6641790000012
 21
518.0
 31
0.0
  0
LINE
  5
4BED
330
4BC6
100
AcDbEntity
  8
AM_0 外形線1
100
AcDbLine
 10
78.81201000000054
 20
533.0
 30
0.0
 11
79.33582200000093
 21
518.0
 31
0.0
  0
LINE
  5
4BEE
330
4BC6
100
AcDbEntity
  8
AM_0 外形線1
100
AcDbLine
 10
80.32144200000038
 20
532.1285289999996
 30
0.0
 11
80.81482200000028
 21
518.0
 31
0.0
  0
LINE
  5
4BEF
330
4BC6
100
AcDbEntity
  8
AM_0 外形線1
100
AcDbLine
 10
109.6785580000005
 20
532.1285289999996
 30
0.0
 11
109.185179
 21
518.0
 31
0.0
  0
LINE
  5
4BF0
330
4BC6
100
AcDbEntity
  8
AM_0 外形線1
100
AcDbLine
 10
78.28819800000019
 20
548.0
 30
0.0
 11
78.3755000000001
 21
545.5
 31
0.0
  0
ARC
  5
4BF1
330
4BC6
100
AcDbEntity
  8
AM_0 外形線1
100
AcDbCircle
 10
68.0
 20
556.0
 30
0.0
 40
8.0
100
AcDbArc
 50
180.0
 51
270.0
  0
LINE
  5
4BF2
330
4BC6
100
AcDbEntity
  8
AM_0 外形線1
100
AcDbLine
 10
111.6244999999999
 20
545.5
 30
0.0
 11
111.7118020000007
 21
548.0
 31
0.0
  0
LINE
  5
4BF3
330
4BC6
100
AcDbEntity
  8
AM_0 外形線1
100
AcDbLine
 10
111.1879910000007
 20
533.0
 30
0.0
 11
111.6244999999999
 21
545.5
 31
0.0
  0
LINE
  5
4BF4
330
4BC6
100
AcDbEntity
  8
AM_0 外形線1
100
AcDbLine
 10
185.0
 20
494.3999999999996
 30
0.0
 11
173.0
 21
494.3999999999996
 31
0.0
  0
ARC
  5
4BF5
330
4BC6
100
AcDbEntity
  8
AM_0 外形線1
100
AcDbCircle
 10
170.0
 20
517.0
 30
0.0
 40
1.0
100
AcDbArc
 50
0.0
 51
90.0
  0
LINE
  5
4BF6
330
4BC6
100
AcDbEntity
  8
AM_0 外形線1
100
AcDbLine
 10
171.0
 20
496.3999999999996
 30
0.0
 11
171.0
 21
517.0
 31
0.0
  0
LINE
  5
4BF7
330
4BC6
100
AcDbEntity
  8
AM_0 外形線1
100
AcDbLine
 10
173.0
 20
494.3999999999996
 30
0.0
 11
171.0
 21
496.3999999999996
 31
0.0
  0
LINE
  5
4BF8
330
4BC6
100
AcDbEntity
  8
AM_0 外形線1
100
AcDbLine
 10
58.0
 20
625.0
 30
0.0
 11
60.0
 21
623.0
 31
0.0
  0
LINE
  5
4BF9
330
4BC6
100
AcDbEntity
  8
AM_0 外形線1
100
AcDbLine
 10
371.0000000000004
 20
-563.0
 30
0.0
 11
371.0000000000004
 21
0.0
 31
0.0
  0
LINE
  5
4BFA
330
4BC6
100
AcDbEntity
  8
AM_0 外形線1
100
AcDbLine
 10
311.0
 20
-563.0
 30
0.0
 11
311.0
 21
0.0
 31
0.0
  0
LINE
  5
4BFB
330
4BC6
100
AcDbEntity
  8
AM_0 外形線1
100
AcDbLine
 10
296.0
 20
-548.0
 30
0.0
 11
296.0
 21
0.0
 31
0.0
  0
LINE
  5
4BFC
330
4BC6
100
AcDbEntity
  8
AM_0 外形線1
100
AcDbLine
 10
371.0000000000004
 20
-563.0
 30
0.0
 11
311.0
 21
-563.0
 31
0.0
  0
LINE
  5
4BFD
330
4BC6
100
AcDbEntity
  8
AM_0 外形線1
100
AcDbLine
 10
311.0
 20
-563.0
 30
0.0
 11
296.0
 21
-548.0
 31
0.0
  0
LINE
  5
4BFE
330
4BC6
100
AcDbEntity
  8
AM_0 外形線1
100
AcDbLine
 10
371.0000000000004
 20
531.0000000000003
 30
0.0
 11
371.0000000000004
 21
518.0
 31
0.0
  0
LINE
  5
4BFF
330
4BC6
100
AcDbEntity
  8
AM_0 外形線1
100
AcDbLine
 10
350.0000000000004
 20
494.3999999999996
 30
0.0
 11
361.0000000000005
 21
494.3999999999996
 31
0.0
  0
ARC
  5
4C00
330
4BC6
100
AcDbEntity
  8
AM_0 外形線1
100
AcDbCircle
 10
364.0000000000005
 20
517.0
 30
0.0
 40
1.0
100
AcDbArc
 50
90.0
 51
135.0
  0
LINE
  5
4C01
330
4BC6
100
AcDbEntity
  8
AM_0 外形線1
100
AcDbLine
 10
363.0000000000005
 20
496.3999999999996
 30
0.0
 11
361.0000000000005
 21
494.3999999999996
 31
0.0
  0
LINE
  5
4C02
330
4BC6
100
AcDbEntity
  8
AM_0 外形線1
100
AcDbLine
 10
363.0000000000005
 20
517.0
 30
0.0
 11
363.0000000000005
 21
496.3999999999996
 31
0.0
  0
ARC
  5
4C03
330
4BC6
100
AcDbEntity
  8
AM_0 外形線1
100
AcDbCircle
 10
364.0000000000005
 20
517.0
 30
0.0
 40
1.0
100
AcDbArc
 50
135.0
 51
180.0
  0
LINE
  5
4C05
330
4BC6
100
AcDbEntity
  8
AM_0 外形線1
100
AcDbLine
 10
371.0000000000004
 20
563.0
 30
0.0
 11
311.0
 21
563.0
 31
0.0
  0
LINE
  5
4C06
330
4BC6
100
AcDbEntity
  8
AM_0 外形線1
100
AcDbLine
 10
311.0
 20
563.0
 30
0.0
 11
296.0
 21
548.0
 31
0.0
  0
LINE
  5
4C08
330
4BC6
100
AcDbEntity
  8
AM_0 外形線1
100
AcDbLine
 10
371.0000000000004
 20
563.0
 30
0.0
 11
371.0000000000004
 21
551.0
 31
0.0
  0
INSERT
  5
4C09
330
4BC6
100
AcDbEntity
  8
AM_0 外形線1
100
AcDbBlockReference
  2
ロッカクアナツキプラグ R1
 10
95.0
 20
548.0
 30
0.0
  0
LINE
  5
4C0A
330
4BC6
100
AcDbEntity
  8
AM_0 外形線1
100
AcDbLine
 10
79.76719814067656
 20
548.0000000000003
 30
0.0
 11
79.80459500000051
 21
546.9290949999995
 31
0.0
  0
LINE
  5
4C0B
330
4BC6
100
AcDbEntity
  8
AM_0 外形線1
100
AcDbLine
 10
110.2328018593234
 20
548.0000000000003
 30
0.0
 11
110.1954049999995
 21
546.9290949999995
 31
0.0
  0
LINE
  5
4C9D
330
4BC6
100
AcDbEntity
  8
AM_0 外形線1
100
AcDbLine
 10
0.0
 20
572.0
 30
0.0
 11
60.0
 21
572.0
 31
0.0
  0
LINE
  5
4C9E
330
4BC6
100
AcDbEntity
  8
AM_0 外形線1
100
AcDbLine
 10
0.0
 20
610.0
 30
0.0
 11
60.0
 21
610.0
 31
0.0
  0
LINE
  5
4C9F
330
4BC6
100
AcDbEntity
  8
AM_0 外形線1
100
AcDbLine
 10
371.0
 20
518.0
 30
0.0
 11
364.0000000000005
 21
518.0
 31
0.0
  0
ENDBLK
  5
4BC8
330
4BC6
100
AcDbEntity
  8
0
100
AcDbBlockEnd
  0
BLOCK
  5
4D0A
330
4D09
100
AcDbEntity
  8
0
100
AcDbBlockBegin
  2
リジット CEMH1250
 70
     0
 10
0.0
 20
0.0
 30
0.0
  3
リジット CEMH1250
  1

  0
LINE
  5
4D0C
330
4D09
100
AcDbEntity
  8
AM_0 外形線1
100
AcDbLine
 10
-60.0
 20
-622.0
 30
0.0
 11
-60.0
 21
-552.9442720000006
 31
0.0
  0
LINE
  5
4D0D
330
4D09
100
AcDbEntity
  8
AM_0 外形線1
100
AcDbLine
 10
-3.0
 20
-625.0
 30
0.0
 11
-57.0
 21
-625.0
 31
0.0
  0
LINE
  5
4D0E
330
4D09
100
AcDbEntity
  8
AM_0 外形線1
100
AcDbLine
 10
-57.0
 20
-625.0
 30
0.0
 11
-60.0
 21
-622.0
 31
0.0
  0
LINE
  5
4D0F
330
4D09
100
AcDbEntity
  8
AM_0 外形線1
100
AcDbLine
 10
0.0
 20
-622.0
 30
0.0
 11
-3.0
 21
-625.0
 31
0.0
  0
LINE
  5
4D10
330
4D09
100
AcDbEntity
  8
AM_3 隠れ線
100
AcDbLine
 10
-729.999999999999
 20
18.75
 30
0.0
 11
-635.9999999999992
 21
18.75
 31
0.0
  0
LINE
  5
4D11
330
4D09
100
AcDbEntity
  8
AM_3 隠れ線
100
AcDbLine
 10
-729.999999999999
 20
21.0
 30
0.0
 11
-652.9999999999992
 21
21.0
 31
0.0
  0
ARC
  5
4D12
330
4D09
100
AcDbEntity
  8
AM_0 外形線1
100
AcDbCircle
 10
-709.9999999999989
 20
510.0
 30
0.0
 40
20.0
100
AcDbArc
 50
90.0
 51
180.0
  0
ARC
  5
4D13
330
4D09
100
AcDbEntity
  8
AM_0 外形線1
100
AcDbCircle
 10
-709.9999999999989
 20
-510.0
 30
0.0
 40
20.0
100
AcDbArc
 50
180.0
 51
270.0
  0
LINE
  5
4D14
330
4D09
100
AcDbEntity
  8
AM_0 外形線1
100
AcDbLine
 10
-729.999999999999
 20
-510.0
 30
0.0
 11
-729.999999999999
 21
510.0
 31
0.0
  0
LINE
  5
4D15
330
4D09
100
AcDbEntity
  8
AM_0 外形線1
100
AcDbLine
 10
-19.99999999999953
 20
447.0
 30
0.0
 11
-20.0
 21
0.0
 31
0.0
  0
LINE
  5
4D16
330
4D09
100
AcDbEntity
  8
AM_0 外形線1
100
AcDbLine
 10
-99.54101899999932
 20
-530.0
 30
0.0
 11
-709.9999999999989
 21
-530.0
 31
0.0
  0
LINE
  5
4D17
330
4D09
100
AcDbEntity
  8
AM_3 隠れ線
100
AcDbLine
 10
-652.9999999999992
 20
21.0
 30
0.0
 11
-651.7009619999997
 21
18.75
 31
0.0
  0
LINE
  5
4D18
330
4D09
100
AcDbEntity
  8
AM_3 隠れ線
100
AcDbLine
 10
-652.9999999999992
 20
0.0
 30
0.0
 11
-652.9999999999992
 21
21.0
 31
0.0
  0
LINE
  5
4D19
330
4D09
100
AcDbEntity
  8
AM_3 隠れ線
100
AcDbLine
 10
-651.7009619999997
 20
18.75
 30
0.0
 11
-651.7009619999997
 21
0.0
 31
0.0
  0
LINE
  5
4D1A
330
4D09
100
AcDbEntity
  8
AM_3 隠れ線
100
AcDbLine
 10
-635.9999999999992
 20
18.75
 30
0.0
 11
-625.1746819999988
 21
0.0
 31
0.0
  0
LINE
  5
4D1B
330
4D09
100
AcDbEntity
  8
AM_3 隠れ線
100
AcDbLine
 10
-635.9999999999992
 20
18.75
 30
0.0
 11
-635.9999999999992
 21
0.0
 31
0.0
  0
LINE
  5
4D1C
330
4D09
100
AcDbEntity
  8
AM_0 外形線1
100
AcDbLine
 10
-60.0
 20
-552.9442720000006
 30
0.0
 11
-60.0
 21
0.0
 31
0.0
  0
LINE
  5
4D1D
330
4D09
100
AcDbEntity
  8
AM_0 外形線1
100
AcDbLine
 10
-96.0
 20
-530.0
 30
0.0
 11
-96.0
 21
0.0
 31
0.0
  0
LINE
  5
4D1E
330
4D09
100
AcDbEntity
  8
AM_7 中心線
100
AcDbLine
 10
-85.71040307151269
 20
-590.9999999999994
 30
0.0
 11
85.71040307151269
 21
-590.9999999999994
 31
0.0
  0
ARC
  5
4D1F
330
4D09
100
AcDbEntity
  8
AM_0 外形線1
100
AcDbCircle
 10
-99.54101899999932
 20
-545.0
 30
0.0
 40
15.0
100
AcDbArc
 50
63.43494900002375
 51
90.0
  0
LINE
  5
4D20
330
4D09
100
AcDbEntity
  8
AM_0 外形線1
100
AcDbLine
 10
-64.42229099999986
 20
-545.7888540000003
 30
0.0
 11
-92.83281499999977
 21
-531.5835920000004
 31
0.0
  0
ARC
  5
4D21
330
4D09
100
AcDbEntity
  8
AM_0 外形線1
100
AcDbCircle
 10
-68.0
 20
-552.9442720000006
 30
0.0
 40
8.0
100
AcDbArc
 50
0.0
 51
63.43494900002375
  0
LINE
  5
4D22
330
4D09
100
AcDbEntity
  8
AM_3 隠れ線
100
AcDbLine
 10
-97.0
 20
21.0
 30
0.0
 11
-98.2990379999992
 21
18.75
 31
0.0
  0
LINE
  5
4D23
330
4D09
100
AcDbEntity
  8
AM_3 隠れ線
100
AcDbLine
 10
-20.0
 20
18.75
 30
0.0
 11
-114.0
 21
18.75
 31
0.0
  0
LINE
  5
4D24
330
4D09
100
AcDbEntity
  8
AM_3 隠れ線
100
AcDbLine
 10
-98.2990379999992
 20
18.75
 30
0.0
 11
-98.2990379999992
 21
0.0
 31
0.0
  0
LINE
  5
4D25
330
4D09
100
AcDbEntity
  8
AM_3 隠れ線
100
AcDbLine
 10
-114.0
 20
18.75
 30
0.0
 11
-114.0
 21
0.0
 31
0.0
  0
LINE
  5
4D26
330
4D09
100
AcDbEntity
  8
AM_3 隠れ線
100
AcDbLine
 10
-114.0
 20
18.75
 30
0.0
 11
-124.8253169999989
 21
0.0
 31
0.0
  0
LINE
  5
4D27
330
4D09
100
AcDbEntity
  8
AM_3 隠れ線
100
AcDbLine
 10
-20.0
 20
21.0
 30
0.0
 11
-97.0
 21
21.0
 31
0.0
  0
LINE
  5
4D28
330
4D09
100
AcDbEntity
  8
AM_3 隠れ線
100
AcDbLine
 10
-97.0
 20
0.0
 30
0.0
 11
-97.0
 21
21.0
 31
0.0
  0
LINE
  5
4D29
330
4D09
100
AcDbEntity
  8
AM_0 外形線1
100
AcDbLine
 10
-709.9999999999989
 20
530.0
 30
0.0
 11
-99.54101899999932
 21
530.0
 31
0.0
  0
LINE
  5
4D2A
330
4D09
100
AcDbEntity
  8
AM_0 外形線1
100
AcDbLine
 10
-60.0
 20
552.9442719999997
 30
0.0
 11
-60.0
 21
622.0
 31
0.0
  0
ARC
  5
4D2B
330
4D09
100
AcDbEntity
  8
AM_0 外形線1
100
AcDbCircle
 10
-99.54101899999932
 20
545.0
 30
0.0
 40
15.0
100
AcDbArc
 50
270.0
 51
296.5650509999763
  0
LINE
  5
4D2C
330
4D09
100
AcDbEntity
  8
AM_0 外形線1
100
AcDbLine
 10
-14.0
 20
540.0
 30
0.0
 11
-14.0
 21
518.0
 31
0.0
  0
LINE
  5
4D2D
330
4D09
100
AcDbEntity
  8
AM_0 外形線1
100
AcDbLine
 10
-20.0
 20
518.0
 30
0.0
 11
-20.0
 21
463.0
 31
0.0
  0
LINE
  5
4D2E
330
4D09
100
AcDbEntity
  8
AM_0 外形線1
100
AcDbLine
 10
-14.0
 20
518.0
 30
0.0
 11
-20.0
 21
518.0
 31
0.0
  0
ARC
  5
4D2F
330
4D09
100
AcDbEntity
  8
AM_0 外形線1
100
AcDbCircle
 10
-68.0
 20
552.9442719999997
 30
0.0
 40
8.0
100
AcDbArc
 50
296.5650509999763
 51
0.0
  0
LINE
  5
4D30
330
4D09
100
AcDbEntity
  8
AM_0 外形線1
100
AcDbLine
 10
-92.83281499999977
 20
531.5835919999995
 30
0.0
 11
-64.42229099999986
 21
545.7888549999993
 31
0.0
  0
LINE
  5
4D31
330
4D09
100
AcDbEntity
  8
AM_0 外形線1
100
AcDbLine
 10
0.0
 20
540.0
 30
0.0
 11
-14.0
 21
540.0
 31
0.0
  0
LINE
  5
4D32
330
4D09
100
AcDbEntity
  8
AM_0 外形線1
100
AcDbLine
 10
-57.0
 20
625.0
 30
0.0
 11
-3.0
 21
625.0
 31
0.0
  0
LINE
  5
4D33
330
4D09
100
AcDbEntity
  8
AM_0 外形線1
100
AcDbLine
 10
-60.0
 20
622.0
 30
0.0
 11
-57.0
 21
625.0
 31
0.0
  0
LINE
  5
4D34
330
4D09
100
AcDbEntity
  8
AM_0 外形線1
100
AcDbLine
 10
-3.0
 20
625.0
 30
0.0
 11
0.0
 21
622.0
 31
0.0
  0
LINE
  5
4D35
330
4D09
100
AcDbEntity
  8
AM_0 外形線1
100
AcDbLine
 10
-729.999999999999
 20
302.5000000000009
 30
0.0
 11
-19.99999999999909
 21
302.5
 31
0.0
  0
LINE
  5
4D9E
330
4D09
100
AcDbEntity
  8
AM_0 外形線1
100
AcDbLine
 10
0.0
 20
-622.0
 30
0.0
 11
0.0
 21
0.0
 31
0.0
  0
LINE
  5
4D9F
330
4D09
100
AcDbEntity
  8
AM_0 外形線1
100
AcDbLine
 10
-20.00000000000046
 20
463.0
 30
0.0
 11
-19.99999999999953
 21
447.0
 31
0.0
  0
LINE
  5
4DA0
330
4D09
100
AcDbEntity
  8
AM_0 外形線1
100
AcDbLine
 10
0.0
 20
622.0
 30
0.0
 11
0.0
 21
610.0
 31
0.0
  0
LINE
  5
4DA1
330
4D09
100
AcDbEntity
  8
AM_0 外形線1
100
AcDbLine
 10
0.0
 20
610.0
 30
0.0
 11
-60.0
 21
610.0
 31
0.0
  0
LINE
  5
4DA2
330
4D09
100
AcDbEntity
  8
AM_0 外形線1
100
AcDbLine
 10
0.0
 20
572.0000000000005
 30
0.0
 11
0.0
 21
540.0
 31
0.0
  0
LINE
  5
4DA3
330
4D09
100
AcDbEntity
  8
AM_0 外形線1
100
AcDbLine
 10
0.0
 20
572.0
 30
0.0
 11
-60.0
 21
572.0000000000005
 31
0.0
  0
ENDBLK
  5
4D0B
330
4D09
100
AcDbEntity
  8
0
100
AcDbBlockEnd
  0
BLOCK
  5
4F11
330
4F10
100
AcDbEntity
  8
0
100
AcDbBlockBegin
  2
リーマボルト CEMH1250 M36
 70
     0
 10
0.0
 20
0.0
 30
0.0
  3
リーマボルト CEMH1250 M36
  1

  0
LINE
  5
4F13
330
4F10
100
AcDbEntity
  8
AM_0 外形線1
100
AcDbLine
 10
-166.0
 20
18.0
 30
0.0
 11
-166.0
 21
-18.0
 31
0.0
  0
LINE
  5
4F14
330
4F10
100
AcDbEntity
  8
AM_0 外形線1
100
AcDbLine
 10
-166.0
 20
18.0
 30
0.0
 11
-169.0
 21
15.0
 31
0.0
  0
ARC
  5
4F15
330
4F10
100
AcDbEntity
  8
AM_0 外形線1
100
AcDbCircle
 10
-105.4059369999995
 20
0.0
 30
0.0
 40
52.594062
100
AcDbArc
 50
162.4294029999824
 51
197.5705970000175
  0
LINE
  5
4F16
330
4F10
100
AcDbEntity
  8
AM_0 外形線1
100
AcDbLine
 10
-129.0
 20
-31.75
 30
0.0
 11
-129.0
 21
31.75
 31
0.0
  0
LINE
  5
4F17
330
4F10
100
AcDbEntity
  8
AM_0 外形線1
100
AcDbLine
 10
-158.0
 20
27.5
 30
0.0
 11
-158.0
 21
-27.5
 31
0.0
  0
LINE
  5
4F18
330
4F10
100
AcDbEntity
  8
AM_0 外形線1
100
AcDbLine
 10
-116.0
 20
19.0
 30
0.0
 11
-116.0
 21
-19.0
 31
0.0
  0
LINE
  5
4F19
330
4F10
100
AcDbEntity
  8
AM_0 外形線1
100
AcDbLine
 10
-118.0
 20
17.84529999999995
 30
0.0
 11
-118.0
 21
-17.84529900000052
 31
0.0
  0
ARC
  5
4F1A
330
4F10
100
AcDbEntity
  8
AM_0 外形線1
100
AcDbCircle
 10
-143.9382299999997
 20
-23.81356600000026
 30
0.0
 40
14.06177
100
AcDbArc
 50
145.6395059999856
 51
214.3604940000144
  0
LINE
  5
4F1B
330
4F10
100
AcDbEntity
  8
AM_4 細線
100
AcDbLine
 10
-158.0
 20
-16.0
 30
0.0
 11
-168.0
 21
-16.0
 31
0.0
  0
LINE
  5
4F1C
330
4F10
100
AcDbEntity
  8
AM_0 外形線1
100
AcDbLine
 10
-166.0
 20
-18.0
 30
0.0
 11
-158.0
 21
-18.0
 31
0.0
  0
LINE
  5
4F1D
330
4F10
100
AcDbEntity
  8
AM_0 外形線1
100
AcDbLine
 10
-169.0
 20
-15.0
 30
0.0
 11
-166.0
 21
-18.0
 31
0.0
  0
LINE
  5
4F1E
330
4F10
100
AcDbEntity
  8
AM_0 外形線1
100
AcDbLine
 10
-169.0
 20
15.0
 30
0.0
 11
-169.0
 21
-15.0
 31
0.0
  0
LINE
  5
4F1F
330
4F10
100
AcDbEntity
  8
AM_0 外形線1
100
AcDbLine
 10
-120.0
 20
-29.75
 30
0.0
 11
-129.0
 21
-29.75
 31
0.0
  0
LINE
  5
4F20
330
4F10
100
AcDbEntity
  8
AM_0 外形線1
100
AcDbLine
 10
-120.0
 20
-18.0
 30
0.0
 11
-117.7320499999996
 21
-18.0
 31
0.0
  0
LINE
  5
4F21
330
4F10
100
AcDbEntity
  8
AM_0 外形線1
100
AcDbLine
 10
-120.0
 20
3.0
 30
0.0
 11
-129.0
 21
-6.0
 31
0.0
  0
LINE
  5
4F22
330
4F10
100
AcDbEntity
  8
AM_0 外形線1
100
AcDbLine
 10
-120.0
 20
6.0
 30
0.0
 11
-129.0
 21
-3.0
 31
0.0
  0
LINE
  5
4F23
330
4F10
100
AcDbEntity
  8
AM_0 外形線1
100
AcDbLine
 10
-129.0
 20
-15.87713200000007
 30
0.0
 11
-155.5462609999995
 21
-15.87713200000007
 31
0.0
  0
LINE
  5
4F24
330
4F10
100
AcDbEntity
  8
AM_0 外形線1
100
AcDbLine
 10
-155.5462609999995
 20
-31.75
 30
0.0
 11
-129.0
 21
-31.75
 31
0.0
  0
LINE
  5
4F25
330
4F10
100
AcDbEntity
  8
AM_0 外形線1
100
AcDbLine
 10
-118.0
 20
-17.84529900000052
 30
0.0
 11
-116.0
 21
-19.0
 31
0.0
  0
ARC
  5
4F26
330
4F10
100
AcDbEntity
  8
AM_0 外形線1
100
AcDbCircle
 10
-143.9382299999997
 20
23.81356599999981
 30
0.0
 40
14.06177
100
AcDbArc
 50
145.6395059999856
 51
214.3604940000144
  0
LINE
  5
4F27
330
4F10
100
AcDbEntity
  8
AM_0 外形線1
100
AcDbLine
 10
-155.5462609999995
 20
31.75
 30
0.0
 11
-158.0
 21
27.5
 31
0.0
  0
LINE
  5
4F28
330
4F10
100
AcDbEntity
  8
AM_4 細線
100
AcDbLine
 10
-158.0
 20
16.0
 30
0.0
 11
-168.0
 21
16.0
 31
0.0
  0
LINE
  5
4F29
330
4F10
100
AcDbEntity
  8
AM_0 外形線1
100
AcDbLine
 10
-158.0
 20
18.0
 30
0.0
 11
-166.0
 21
18.0
 31
0.0
  0
LINE
  5
4F2A
330
4F10
100
AcDbEntity
  8
AM_0 外形線1
100
AcDbLine
 10
-129.0
 20
29.75
 30
0.0
 11
-120.0
 21
29.75
 31
0.0
  0
LINE
  5
4F2B
330
4F10
100
AcDbEntity
  8
AM_0 外形線1
100
AcDbLine
 10
-120.0
 20
18.0
 30
0.0
 11
-117.7320499999996
 21
18.0
 31
0.0
  0
LINE
  5
4F2C
330
4F10
100
AcDbEntity
  8
AM_0 外形線1
100
AcDbLine
 10
-129.0
 20
15.8771329999995
 30
0.0
 11
-155.5462609999995
 21
15.8771329999995
 31
0.0
  0
LINE
  5
4F2D
330
4F10
100
AcDbEntity
  8
AM_0 外形線1
100
AcDbLine
 10
-129.0
 20
31.75
 30
0.0
 11
-155.5462609999995
 21
31.75
 31
0.0
  0
LINE
  5
4F2E
330
4F10
100
AcDbEntity
  8
AM_0 外形線1
100
AcDbLine
 10
-116.0
 20
19.0
 30
0.0
 11
-118.0
 21
17.84529999999995
 31
0.0
  0
LINE
  5
4F2F
330
4F10
100
AcDbEntity
  8
AM_0 外形線1
100
AcDbLine
 10
-3.0
 20
-19.0
 30
0.0
 11
-3.0
 21
19.0
 31
0.0
  0
ARC
  5
4F30
330
4F10
100
AcDbEntity
  8
AM_0 外形線1
100
AcDbCircle
 10
-29.59406199999921
 20
0.0
 30
0.0
 40
52.594062
100
AcDbArc
 50
342.4294029999825
 51
17.57059700001753
  0
LINE
  5
4F31
330
4F10
100
AcDbEntity
  8
AM_0 外形線1
100
AcDbLine
 10
23.0
 20
27.5
 30
0.0
 11
23.0
 21
-27.5
 31
0.0
  0
ARC
  5
4F32
330
4F10
100
AcDbEntity
  8
AM_0 外形線1
100
AcDbCircle
 10
-2.0
 20
-19.5
 30
0.0
 40
2.0
100
AcDbArc
 50
14.03624300000194
 51
75.52248800001485
  0
ARC
  5
4F33
330
4F10
100
AcDbEntity
  8
AM_0 外形線1
100
AcDbCircle
 10
-1.0
 20
-19.5
 30
0.0
 40
2.0
100
AcDbArc
 50
104.4775119999851
 51
165.963756999998
  0
ARC
  5
4F34
330
4F10
100
AcDbEntity
  8
AM_0 外形線1
100
AcDbCircle
 10
8.938231000000088
 20
-23.81356600000026
 30
0.0
 40
14.06177
100
AcDbArc
 50
325.6395059999856
 51
34.3604940000144
  0
LINE
  5
4F35
330
4F10
100
AcDbEntity
  8
AM_0 外形線1
100
AcDbLine
 10
0.0
 20
-15.87713200000007
 30
0.0
 11
20.54626199999984
 21
-15.87713200000007
 31
0.0
  0
LINE
  5
4F36
330
4F10
100
AcDbEntity
  8
AM_0 外形線1
100
AcDbLine
 10
20.54626199999984
 20
-31.75
 30
0.0
 11
0.0
 21
-31.75
 31
0.0
  0
LINE
  5
4F37
330
4F10
100
AcDbEntity
  8
AM_0 外形線1
100
AcDbLine
 10
23.0
 20
-27.5
 30
0.0
 11
20.54626199999984
 21
-31.75
 31
0.0
  0
ARC
  5
4F38
330
4F10
100
AcDbEntity
  8
AM_0 外形線1
100
AcDbCircle
 10
-1.0
 20
19.5
 30
0.0
 40
2.0
100
AcDbArc
 50
194.0362430000019
 51
255.5224880000149
  0
ARC
  5
4F39
330
4F10
100
AcDbEntity
  8
AM_0 外形線1
100
AcDbCircle
 10
-2.0
 20
19.5
 30
0.0
 40
2.0
100
AcDbArc
 50
284.4775119999852
 51
345.963756999998
  0
ARC
  5
4F3A
330
4F10
100
AcDbEntity
  8
AM_0 外形線1
100
AcDbCircle
 10
8.938231000000088
 20
23.81356599999981
 30
0.0
 40
14.06177
100
AcDbArc
 50
325.6395059999856
 51
34.3604940000144
  0
LINE
  5
4F3B
330
4F10
100
AcDbEntity
  8
AM_0 外形線1
100
AcDbLine
 10
0.0
 20
15.8771329999995
 30
0.0
 11
20.54626199999984
 21
15.8771329999995
 31
0.0
  0
LINE
  5
4F3C
330
4F10
100
AcDbEntity
  8
AM_0 外形線1
100
AcDbLine
 10
20.54626199999984
 20
31.75
 30
0.0
 11
23.0
 21
27.5
 31
0.0
  0
LINE
  5
4F3D
330
4F10
100
AcDbEntity
  8
AM_0 外形線1
100
AcDbLine
 10
0.0
 20
31.75
 30
0.0
 11
20.54626199999984
 21
31.75
 31
0.0
  0
LINE
  5
4F9D
330
4F10
100
AcDbEntity
  8
AM_0 外形線1
100
AcDbLine
 10
-120.0
 20
29.75
 30
0.0
 11
-120.0
 21
-29.75
 31
0.0
  0
LINE
  5
4F9E
330
4F10
100
AcDbEntity
  8
AM_0 外形線1
100
AcDbLine
 10
-116.0
 20
19.0
 30
0.0
 11
-3.0
 21
19.0
 31
0.0
  0
LINE
  5
4F9F
330
4F10
100
AcDbEntity
  8
AM_0 外形線1
100
AcDbLine
 10
-116.0
 20
-19.0
 30
0.0
 11
-3.0
 21
-19.0
 31
0.0
  0
LINE
  5
4FA0
330
4F10
100
AcDbEntity
  8
AM_0 外形線1
100
AcDbLine
 10
0.0
 20
31.75
 30
0.0
 11
0.0
 21
-31.75
 31
0.0
  0
LINE
  5
6635
330
4F10
100
AcDbEntity
  8
AM_0 外形線1
100
AcDbLine
 10
-158.0
 20
-27.5
 30
0.0
 11
-155.5462609999995
 21
-31.75
 31
0.0
  0
ENDBLK
  5
4F12
330
4F10
100
AcDbEntity
  8
0
100
AcDbBlockEnd
  0
BLOCK
  5
501F
330
501E
100
AcDbEntity
  8
0
100
AcDbBlockBegin
  2
ＧＣサイドカバ－ CEMH1250
 70
     0
 10
0.0
 20
0.0
 30
0.0
  3
ＧＣサイドカバ－ CEMH1250
  1

  0
LINE
  5
5022
330
501E
100
AcDbEntity
  8
AM_0 外形線1
100
AcDbLine
 10
28.0
 20
-563.0
 30
0.0
 11
0.0
 21
-563.0
 31
0.0
  0
LINE
  5
5024
330
501E
100
AcDbEntity
  8
AM_0 外形線1
100
AcDbLine
 10
28.0
 20
0.0
 30
0.0
 11
28.0
 21
-563.0
 31
0.0
  0
LINE
  5
5025
330
501E
100
AcDbEntity
  8
AM_4 細線
100
AcDbLine
 10
-28.90000000000009
 20
532.2499999999998
 30
0.0
 11
28.0
 21
532.2499999999998
 31
0.0
  0
LINE
  5
5026
330
501E
100
AcDbEntity
  8
AM_4 細線
100
AcDbLine
 10
28.0
 20
549.75
 30
0.0
 11
-28.90000000000009
 21
549.75
 31
0.0
  0
LINE
  5
5027
330
501E
100
AcDbEntity
  8
AM_7 中心線
100
AcDbLine
 10
-45.16501199999993
 20
541.0
 30
0.0
 11
49.94232200000032
 21
541.0
 31
0.0
  0
LINE
  5
5028
330
501E
100
AcDbEntity
  8
AM_0 外形線1
100
AcDbLine
 10
28.0
 20
482.5
 30
0.0
 11
21.0
 21
482.5
 31
0.0
  0
LINE
  5
5029
330
501E
100
AcDbEntity
  8
AM_0 外形線1
100
AcDbLine
 10
28.0
 20
563.0
 30
0.0
 11
0.0
 21
563.0
 31
0.0
  0
LINE
  5
502A
330
501E
100
AcDbEntity
  8
AM_0 外形線1
100
AcDbLine
 10
-28.90000000000009
 20
531.0
 30
0.0
 11
28.0
 21
531.0
 31
0.0
  0
LINE
  5
502B
330
501E
100
AcDbEntity
  8
AM_0 外形線1
100
AcDbLine
 10
28.0
 20
551.0
 30
0.0
 11
-28.90000000000009
 21
551.0
 31
0.0
  0
LWPOLYLINE
  5
502C
330
501E
100
AcDbEntity
  8
AM_0 外形線1
100
AcDbPolyline
 90
       73
 70
     0
 43
0.0
 10
2.25
 20
518.0
 10
2.446100999999997
 20
518.0136989999996
 10
2.640708999999787
 20
518.0546919999995
 10
2.832343000000037
 20
518.1226669999996
 10
3.019545999999991
 20
518.2171069999998
 10
3.200890999999955
 20
518.3372919999997
 10
3.375
 20
518.482309
 10
3.54054700000006
 20
518.6510529999996
 10
3.696272000000134
 20
518.8422399999994
 10
3.84099100000003
 20
519.0544159999998
 10
3.973599999999805
 20
519.2859649999994
 10
4.093092000000068
 20
519.5351249999998
 10
4.198558000000048
 20
519.7999999999997
 10
4.289193000000068
 20
520.0785739999997
 10
4.364309000000048
 20
520.3687279999995
 10
4.423333000000183
 20
520.6682519999998
 10
4.465818000000125
 20
520.9748669999993
 10
4.491438000000016
 20
521.2862399999993
 10
4.5
 20
521.5999999999998
 10
4.491438000000016
 20
521.9137609999997
 10
4.465818000000125
 20
522.2251339999997
 10
4.423333000000183
 20
522.5317489999996
 10
4.364309000000048
 20
522.8312729999998
 10
4.289193000000068
 20
523.1214259999997
 10
4.198558000000048
 20
523.3999999999996
 10
4.093092000000068
 20
523.6648749999998
 10
3.973599999999805
 20
523.9140359999996
 10
3.84099100000003
 20
524.1455849999996
 10
3.696272000000134
 20
524.3577599999992
 10
3.54054700000006
 20
524.5489479999996
 10
3.375
 20
524.7176919999997
 10
3.200890999999955
 20
524.8627079999996
 10
3.019545999999991
 20
524.9828939999996
 10
2.832343000000037
 20
525.0773329999997
 10
2.640708999999787
 20
525.1453079999996
 10
2.446100999999997
 20
525.1863009999997
 10
2.25
 20
525.1999999999998
 10
2.053899999999885
 20
525.1863009999997
 10
1.859292000000094
 20
525.1453079999996
 10
1.6676580000003
 20
525.0773329999997
 10
1.480454999999891
 20
524.9828939999996
 10
1.299109000000044
 20
524.8627079999996
 10
1.125
 20
524.7176919999997
 10
0.9594529999999393
 20
524.5489479999996
 10
0.8037279999998645
 20
524.3577599999992
 10
0.6590099999998529
 20
524.1455849999996
 10
0.5263999999997396
 20
523.9140359999996
 10
0.4069079999999305
 20
523.6648749999998
 10
0.3014430000002903
 20
523.3999999999996
 10
0.2108080000002701
 20
523.1214259999997
 10
0.1356920000002901
 20
522.8312729999998
 10
0.0766670000002705
 20
522.5317489999996
 10
0.0341830000002119
 20
522.2251339999997
 10
0.0085619999999835
 20
521.9137609999997
 10
0.0
 20
521.5999999999998
 10
0.0085619999999835
 20
521.2862399999993
 10
0.0341830000002119
 20
520.9748669999993
 10
0.0766670000002705
 20
520.6682519999998
 10
0.1356920000002901
 20
520.3687279999995
 10
0.2108080000002701
 20
520.0785739999997
 10
0.3014430000002903
 20
519.7999999999997
 10
0.4069079999999305
 20
519.5351249999998
 10
0.5263999999997396
 20
519.2859649999994
 10
0.6590099999998529
 20
519.0544159999998
 10
0.8037279999998645
 20
518.8422399999994
 10
0.9594529999999393
 20
518.6510529999996
 10
1.125
 20
518.482309
 10
1.299109000000044
 20
518.3372919999997
 10
1.480454999999891
 20
518.2171069999998
 10
1.6676580000003
 20
518.1226669999996
 10
1.859292000000094
 20
518.0546919999995
 10
2.053899999999885
 20
518.0136989999996
 10
2.25
 20
518.0
  0
LINE
  5
502D
330
501E
100
AcDbEntity
  8
AM_0 外形線1
100
AcDbLine
 10
4.5
 20
525.1999999999998
 30
0.0
 11
4.5
 21
518.0
 31
0.0
  0
LWPOLYLINE
  5
502E
330
501E
100
AcDbEntity
  8
AM_0 外形線1
100
AcDbPolyline
 90
       73
 70
     0
 43
0.0
 10
21.0
 20
486.1499999999996
 10
20.96004500000026
 20
486.6860079999995
 10
20.84048200000006
 20
487.2179369999994
 10
20.64222199999995
 20
487.7417369999993
 10
20.36677299999974
 20
488.2534239999994
 10
20.01623199999995
 20
488.7491029999996
 10
19.59326700000019
 20
489.2249999999998
 10
19.10109700000021
 20
489.6774949999998
 10
18.54346699999996
 20
490.1031439999997
 10
17.924622
 20
490.4987069999997
 10
17.24927000000025
 20
490.8611739999996
 10
16.52255300000024
 20
491.1877849999996
 10
15.75
 20
491.4760559999995
 10
14.93749200000002
 20
491.7237929999997
 10
14.09121199999981
 20
491.9291099999996
 10
13.21759999999995
 20
492.0904439999993
 10
12.32330600000023
 20
492.2065679999994
 10
11.41513600000007
 20
492.2765979999998
 10
10.5
 20
492.2999999999996
 10
9.584865000000263
 20
492.2765979999998
 10
8.676695000000107
 20
492.2065679999994
 10
7.782400000000052
 20
492.0904439999993
 10
6.908789000000068
 20
491.9291099999996
 10
6.062508999999861
 20
491.7237929999997
 10
5.25
 20
491.4760559999995
 10
4.477448000000094
 20
491.1877849999996
 10
3.750730000000203
 20
490.8611739999996
 10
3.075379000000339
 20
490.4987069999997
 10
2.456533999999918
 20
490.1031439999997
 10
1.898904000000128
 20
489.6774949999998
 10
1.406733999999687
 20
489.2249999999998
 10
0.9837689999999383
 20
488.7491029999996
 10
0.6332280000001447
 20
488.2534239999994
 10
0.3577790000003915
 20
487.7417369999993
 10
0.1595190000002731
 20
487.2179369999994
 10
0.0399560000000747
 20
486.6860079999995
 10
0.0
 20
486.1499999999996
 10
0.0399560000000747
 20
485.6139919999995
 10
0.1595190000002731
 20
485.0820639999993
 10
0.3577790000003915
 20
484.5582629999998
 10
0.6332280000001447
 20
484.0465759999997
 10
0.9837689999999383
 20
483.5508979999998
 10
1.406733999999687
 20
483.0749999999999
 10
1.898904000000128
 20
482.6225049999993
 10
2.456533999999918
 20
482.1968559999994
 10
3.075379000000339
 20
481.8012939999994
 10
3.750730000000203
 20
481.4388269999998
 10
4.477448000000094
 20
481.1122149999995
 10
5.25
 20
480.8239439999996
 10
6.062508999999861
 20
480.5762069999996
 10
6.908789000000068
 20
480.370891
 10
7.782400000000052
 20
480.2095559999997
 10
8.676695000000107
 20
480.0934329999996
 10
9.584865000000263
 20
480.0234029999996
 10
10.5
 20
480.0
 10
11.41513600000007
 20
480.0234029999996
 10
12.32330600000023
 20
480.0934329999996
 10
13.21759999999995
 20
480.2095559999997
 10
14.09121199999981
 20
480.370891
 10
14.93749200000002
 20
480.5762069999996
 10
15.75
 20
480.8239439999996
 10
16.52255300000024
 20
481.1122149999995
 10
17.24927000000025
 20
481.4388269999998
 10
17.924622
 20
481.8012939999994
 10
18.54346699999996
 20
482.1968559999994
 10
19.10109700000021
 20
482.6225049999993
 10
19.59326700000019
 20
483.0749999999999
 10
20.01623199999995
 20
483.5508979999998
 10
20.36677299999974
 20
484.0465759999997
 10
20.64222199999995
 20
484.5582629999998
 10
20.84048200000006
 20
485.0820639999993
 10
20.96004500000026
 20
485.6139919999995
 10
21.0
 20
486.1499999999996
  0
LINE
  5
502F
330
501E
100
AcDbEntity
  8
AM_0 外形線1
100
AcDbLine
 10
-7.0
 20
482.5
 30
0.0
 11
-7.0
 21
518.0
 31
0.0
  0
LINE
  5
5030
330
501E
100
AcDbEntity
  8
AM_0 外形線1
100
AcDbLine
 10
0.0
 20
482.5
 30
0.0
 11
-7.0
 21
482.5
 31
0.0
  0
LINE
  5
5031
330
501E
100
AcDbEntity
  8
AM_0 外形線1
100
AcDbLine
 10
0.0
 20
492.2999999999996
 30
0.0
 11
0.0
 21
482.5
 31
0.0
  0
LINE
  5
5032
330
501E
100
AcDbEntity
  8
AM_0 外形線1
100
AcDbLine
 10
21.0
 20
492.2999999999996
 30
0.0
 11
0.0
 21
492.2999999999996
 31
0.0
  0
LINE
  5
5033
330
501E
100
AcDbEntity
  8
AM_0 外形線1
100
AcDbLine
 10
21.0
 20
482.5
 30
0.0
 11
21.0
 21
492.2999999999996
 31
0.0
  0
LINE
  5
5034
330
501E
100
AcDbEntity
  8
AM_0 外形線1
100
AcDbLine
 10
-7.0
 20
482.5
 30
0.0
 11
-7.0
 21
480.0
 31
0.0
  0
LINE
  5
5035
330
501E
100
AcDbEntity
  8
AM_0 外形線1
100
AcDbLine
 10
0.0
 20
482.5
 30
0.0
 11
0.0
 21
480.0
 31
0.0
  0
LINE
  5
5036
330
501E
100
AcDbEntity
  8
AM_0 外形線1
100
AcDbLine
 10
21.0
 20
482.5
 30
0.0
 11
21.0
 21
480.0
 31
0.0
  0
LINE
  5
5037
330
501E
100
AcDbEntity
  8
AM_0 外形線1
100
AcDbLine
 10
-42.05181399999992
 20
541.0
 30
0.0
 11
-37.0
 21
532.2499999999998
 31
0.0
  0
LINE
  5
5038
330
501E
100
AcDbEntity
  8
AM_0 外形線1
100
AcDbLine
 10
-37.0
 20
549.75
 30
0.0
 11
-42.05181399999992
 21
541.0
 31
0.0
  0
LINE
  5
5039
330
501E
100
AcDbEntity
  8
AM_0 外形線1
100
AcDbLine
 10
-31.90000000000009
 20
531.0
 30
0.0
 11
-28.90000000000009
 21
531.0
 31
0.0
  0
LINE
  5
503A
330
501E
100
AcDbEntity
  8
AM_0 外形線1
100
AcDbLine
 10
-28.90000000000009
 20
551.0
 30
0.0
 11
-31.90000000000009
 21
551.0
 31
0.0
  0
LINE
  5
503B
330
501E
100
AcDbEntity
  8
AM_0 外形線1
100
AcDbLine
 10
0.0
 20
525.1999999999998
 30
0.0
 11
4.5
 21
525.1999999999998
 31
0.0
  0
LINE
  5
503C
330
501E
100
AcDbEntity
  8
AM_0 外形線1
100
AcDbLine
 10
-31.90000000000009
 20
551.0
 30
0.0
 11
-31.90000000000009
 21
531.0
 31
0.0
  0
LINE
  5
503D
330
501E
100
AcDbEntity
  8
AM_0 外形線1
100
AcDbLine
 10
-37.0
 20
532.2499999999998
 30
0.0
 11
-28.90000000000009
 21
532.2499999999998
 31
0.0
  0
LINE
  5
503E
330
501E
100
AcDbEntity
  8
AM_0 外形線1
100
AcDbLine
 10
-37.0
 20
549.75
 30
0.0
 11
-37.0
 21
532.2499999999998
 31
0.0
  0
LINE
  5
503F
330
501E
100
AcDbEntity
  8
AM_0 外形線1
100
AcDbLine
 10
-28.90000000000009
 20
549.75
 30
0.0
 11
-37.0
 21
549.75
 31
0.0
  0
LINE
  5
5040
330
501E
100
AcDbEntity
  8
AM_0 外形線1
100
AcDbLine
 10
-28.90000000000009
 20
551.0
 30
0.0
 11
-28.90000000000009
 21
531.0
 31
0.0
  0
LINE
  5
5042
330
501E
100
AcDbEntity
  8
AM_0 外形線1
100
AcDbLine
 10
28.0
 20
482.5
 30
0.0
 11
28.0
 21
480.0
 31
0.0
  0
LINE
  5
5045
330
501E
100
AcDbEntity
  8
AM_0 外形線1
100
AcDbLine
 10
28.0
 20
563.0
 30
0.0
 11
28.0
 21
482.5
 31
0.0
  0
LINE
  5
5046
330
501E
100
AcDbEntity
  8
AM_0 外形線1
100
AcDbLine
 10
33.09999999999991
 20
544.0
 30
0.0
 11
28.0
 21
536.0
 31
0.0
  0
LINE
  5
5047
330
501E
100
AcDbEntity
  8
AM_0 外形線1
100
AcDbLine
 10
28.0
 20
538.0
 30
0.0
 11
33.09999999999991
 21
546.0
 31
0.0
  0
LINE
  5
5048
330
501E
100
AcDbEntity
  8
AM_0 外形線1
100
AcDbLine
 10
46.0999999999999
 20
554.3398629999995
 30
0.0
 11
46.0999999999999
 21
528.4001169999997
 31
0.0
  0
LINE
  5
5049
330
501E
100
AcDbEntity
  8
AM_0 外形線1
100
AcDbLine
 10
33.09999999999991
 20
532.3602539999995
 30
0.0
 11
44.62253700000019
 21
532.3602539999995
 31
0.0
  0
LINE
  5
504A
330
501E
100
AcDbEntity
  8
AM_0 外形線1
100
AcDbLine
 10
44.62253700000019
 20
549.6397459999992
 30
0.0
 11
33.09999999999991
 21
549.6397459999992
 31
0.0
  0
LINE
  5
504B
330
501E
100
AcDbEntity
  8
AM_0 外形線1
100
AcDbLine
 10
33.09999999999991
 20
523.6999999999998
 30
0.0
 11
33.09999999999991
 21
523.9499999999998
 31
0.0
  0
LINE
  5
504C
330
501E
100
AcDbEntity
  8
AM_0 外形線1
100
AcDbLine
 10
44.62253700000019
 20
523.6999999999998
 30
0.0
 11
33.09999999999991
 21
523.6999999999998
 31
0.0
  0
ARC
  5
504D
330
501E
100
AcDbEntity
  8
AM_0 外形線1
100
AcDbCircle
 10
39.06226199999993
 20
528.0301269999994
 30
0.0
 40
7.047457999999998
100
AcDbArc
 50
322.0899220000364
 51
37.91007799996356
  0
ARC
  5
504E
330
501E
100
AcDbEntity
  8
AM_0 外形線1
100
AcDbCircle
 10
20.09999999999991
 20
541.0
 30
0.0
 40
26.0
100
AcDbArc
 50
340.591690999988
 51
19.40830900001197
  0
ARC
  5
504F
330
501E
100
AcDbEntity
  8
AM_0 外形線1
100
AcDbCircle
 10
39.06226199999993
 20
553.969873
 30
0.0
 40
7.047457999999998
100
AcDbArc
 50
322.0899220000364
 51
37.91007799996356
  0
LINE
  5
5050
330
501E
100
AcDbEntity
  8
AM_0 外形線1
100
AcDbLine
 10
33.09999999999991
 20
558.2999999999997
 30
0.0
 11
44.62253700000019
 21
558.2999999999997
 31
0.0
  0
LINE
  5
5051
330
501E
100
AcDbEntity
  8
AM_0 外形線1
100
AcDbLine
 10
33.09999999999991
 20
558.0499999999997
 30
0.0
 11
33.09999999999991
 21
558.2999999999997
 31
0.0
  0
LINE
  5
5052
330
501E
100
AcDbEntity
  8
AM_0 外形線1
100
AcDbLine
 10
33.09999999999991
 20
523.9499999999998
 30
0.0
 11
28.0
 21
523.9499999999998
 31
0.0
  0
LINE
  5
5053
330
501E
100
AcDbEntity
  8
AM_0 外形線1
100
AcDbLine
 10
33.09999999999991
 20
558.0499999999997
 30
0.0
 11
33.09999999999991
 21
523.9499999999998
 31
0.0
  0
LINE
  5
5054
330
501E
100
AcDbEntity
  8
AM_0 外形線1
100
AcDbLine
 10
28.0
 20
558.0499999999997
 30
0.0
 11
33.09999999999991
 21
558.0499999999997
 31
0.0
  0
LINE
  5
5055
330
501E
100
AcDbEntity
  8
AM_0 外形線1
100
AcDbLine
 10
4.5
 20
518.0
 30
0.0
 11
-7.0
 21
518.0
 31
0.0
  0
LINE
  5
5099
330
501E
100
AcDbEntity
  8
AM_0 外形線1
100
AcDbLine
 10
0.0
 20
-563.0
 30
0.0
 11
0.0
 21
0.0
 31
0.0
  0
LINE
  5
509A
330
501E
100
AcDbEntity
  8
AM_0 外形線1
100
AcDbLine
 10
0.0
 20
563.0
 30
0.0
 11
0.0
 21
551.0
 31
0.0
  0
LINE
  5
509B
330
501E
100
AcDbEntity
  8
AM_0 外形線1
100
AcDbLine
 10
0.0
 20
525.1999999999998
 30
0.0
 11
0.0
 21
531.0
 31
0.0
  0
LINE
  5
509C
330
501E
100
AcDbEntity
  8
AM_7 中心線
100
AcDbLine
 10
-28.48147411969558
 20
-541.0
 30
0.0
 11
49.94232200000032
 21
-541.0
 31
0.0
  0
ENDBLK
  5
5020
330
501E
100
AcDbEntity
  8
0
100
AcDbBlockEnd
  0
BLOCK
  5
512E
330
512D
100
AcDbEntity
  8
0
100
AcDbBlockBegin
  2
センタ CEMH1250
 70
     0
 10
0.0
 20
0.0
 30
0.0
  3
センタ CEMH1250
  1

  0
ARC
  5
5131
330
512D
100
AcDbEntity
  8
AM_0 外形線1
100
AcDbCircle
 10
247.5
 20
0.0
 30
0.0
 40
515.5
100
AcDbArc
 50
81.01597500000345
 51
98.98402499999654
  0
LINE
  5
5133
330
512D
100
AcDbEntity
  8
AM_0 外形線1
100
AcDbLine
 10
0.0
 20
388.0
 30
0.0
 11
0.0
 21
0.0
 31
0.0
  0
LINE
  5
5134
330
512D
100
AcDbEntity
  8
AM_0 外形線1
100
AcDbLine
 10
0.0
 20
474.5
 30
0.0
 11
0.0
 21
388.0
 31
0.0
  0
LINE
  5
5135
330
512D
100
AcDbEntity
  8
AM_0 外形線1
100
AcDbLine
 10
164.5
 20
479.4999999999998
 30
0.0
 11
5.0
 21
479.4999999999998
 31
0.0
  0
LINE
  5
5136
330
512D
100
AcDbEntity
  8
AM_0 外形線1
100
AcDbLine
 10
5.0
 20
479.4999999999998
 30
0.0
 11
0.0
 21
474.5
 31
0.0
  0
LINE
  5
5137
330
512D
100
AcDbEntity
  8
AM_7 中心線
100
AcDbLine
 10
247.5
 20
520.5
 30
0.0
 11
247.5
 21
487.0
 31
0.0
  0
ARC
  5
5138
330
512D
100
AcDbEntity
  8
AM_0 外形線1
100
AcDbCircle
 10
164.5
 20
480.0
 30
0.0
 40
0.5
100
AcDbArc
 50
270.0
 51
0.0
  0
LINE
  5
5139
330
512D
100
AcDbEntity
  8
AM_0 外形線1
100
AcDbLine
 10
165.0
 20
506.8555789999996
 30
0.0
 11
165.0
 21
480.0
 31
0.0
  0
LINE
  5
513A
330
512D
100
AcDbEntity
  8
AM_0 外形線1
100
AcDbLine
 10
167.0
 20
509.1758049999993
 30
0.0
 11
165.0
 21
506.8555789999996
 31
0.0
  0
LINE
  5
513B
330
512D
100
AcDbEntity
  8
AM_0 外形線1
100
AcDbLine
 10
710.0000000000003
 20
-458.0
 30
0.0
 11
710.0000000000003
 21
458.0
 31
0.0
  0
LINE
  5
513C
330
512D
100
AcDbEntity
  8
AM_0 外形線1
100
AcDbLine
 10
425.0000000000004
 20
-478.0
 30
0.0
 11
425.0000000000004
 21
0.0
 31
0.0
  0
LINE
  5
513D
330
512D
100
AcDbEntity
  8
AM_0 外形線1
100
AcDbLine
 10
419.0000000000003
 20
-480.0
 30
0.0
 11
419.0000000000003
 21
0.0
 31
0.0
  0
LINE
  5
513E
330
512D
100
AcDbEntity
  8
AM_0 外形線1
100
AcDbLine
 10
425.0000000000004
 20
-478.0
 30
0.0
 11
690.0000000000003
 21
-478.0
 31
0.0
  0
LINE
  5
513F
330
512D
100
AcDbEntity
  8
AM_0 外形線1
100
AcDbLine
 10
419.0000000000003
 20
-480.0
 30
0.0
 11
425.0000000000004
 21
-478.0
 31
0.0
  0
LINE
  5
5140
330
512D
100
AcDbEntity
  8
AM_0 外形線1
100
AcDbLine
 10
379.0000000000004
 20
-480.0
 30
0.0
 11
419.0000000000003
 21
-480.0
 31
0.0
  0
ARC
  5
5141
330
512D
100
AcDbEntity
  8
AM_0 外形線1
100
AcDbCircle
 10
690.0000000000003
 20
-458.0
 30
0.0
 40
20.0
100
AcDbArc
 50
270.0
 51
0.0
  0
LINE
  5
5142
330
512D
100
AcDbEntity
  8
AM_3 隠れ線
100
AcDbLine
 10
710.0000000000003
 20
18.75
 30
0.0
 11
616.0000000000003
 21
18.75
 31
0.0
  0
LINE
  5
5143
330
512D
100
AcDbEntity
  8
AM_3 隠れ線
100
AcDbLine
 10
616.0000000000003
 20
18.75
 30
0.0
 11
605.1746830000006
 21
0.0
 31
0.0
  0
LINE
  5
5144
330
512D
100
AcDbEntity
  8
AM_3 隠れ線
100
AcDbLine
 10
616.0000000000003
 20
18.75
 30
0.0
 11
616.0000000000003
 21
0.0
 31
0.0
  0
LINE
  5
5145
330
512D
100
AcDbEntity
  8
AM_3 隠れ線
100
AcDbLine
 10
710.0000000000003
 20
21.0
 30
0.0
 11
633.0000000000003
 21
21.0
 31
0.0
  0
LINE
  5
5146
330
512D
100
AcDbEntity
  8
AM_3 隠れ線
100
AcDbLine
 10
633.0000000000003
 20
21.0
 30
0.0
 11
631.7009620000002
 21
18.75
 31
0.0
  0
LINE
  5
5147
330
512D
100
AcDbEntity
  8
AM_3 隠れ線
100
AcDbLine
 10
633.0000000000003
 20
0.0
 30
0.0
 11
633.0000000000003
 21
21.0
 31
0.0
  0
LINE
  5
5148
330
512D
100
AcDbEntity
  8
AM_3 隠れ線
100
AcDbLine
 10
631.7009620000002
 20
18.75
 30
0.0
 11
631.7009620000002
 21
0.0
 31
0.0
  0
LINE
  5
5149
330
512D
100
AcDbEntity
  8
AM_0 外形線1
100
AcDbLine
 10
690.0000000000003
 20
478.0
 30
0.0
 11
425.0000000000004
 21
478.0
 31
0.0
  0
LINE
  5
514A
330
512D
100
AcDbEntity
  8
AM_0 外形線1
100
AcDbLine
 10
419.0000000000003
 20
480.0
 30
0.0
 11
330.5000000000005
 21
480.0
 31
0.0
  0
LINE
  5
514B
330
512D
100
AcDbEntity
  8
AM_0 外形線1
100
AcDbLine
 10
330.0000000000005
 20
506.8555789999996
 30
0.0
 11
328.0000000000005
 21
509.1758049999993
 31
0.0
  0
LINE
  5
514C
330
512D
100
AcDbEntity
  8
AM_0 外形線1
100
AcDbLine
 10
330.0000000000005
 20
480.4999999999998
 30
0.0
 11
330.0000000000005
 21
506.8555789999996
 31
0.0
  0
ARC
  5
514D
330
512D
100
AcDbEntity
  8
AM_0 外形線1
100
AcDbCircle
 10
330.5000000000005
 20
480.4999999999998
 30
0.0
 40
0.5
100
AcDbArc
 50
180.0
 51
270.0
  0
LINE
  5
514E
330
512D
100
AcDbEntity
  8
AM_0 外形線1
100
AcDbLine
 10
425.0000000000004
 20
478.0
 30
0.0
 11
419.0000000000003
 21
480.0
 31
0.0
  0
ARC
  5
514F
330
512D
100
AcDbEntity
  8
AM_0 外形線1
100
AcDbCircle
 10
690.0000000000003
 20
458.0
 30
0.0
 40
20.0
100
AcDbArc
 50
0.0
 51
90.0
  0
LINE
  5
5153
330
512D
100
AcDbEntity
  8
AM_0 外形線1
100
AcDbLine
 10
0.0
 20
302.5
 30
0.0
 11
710.0000000000003
 21
302.5
 31
0.0
  0
LINE
  5
5156
330
512D
100
AcDbEntity
  8
AM_3 隠れ線
100
AcDbLine
 10
0.0
 20
21.0
 30
0.0
 11
77.0
 21
21.0
 31
0.0
  0
LINE
  5
5157
330
512D
100
AcDbEntity
  8
AM_3 隠れ線
100
AcDbLine
 10
0.0
 20
18.75
 30
0.0
 11
94.0
 21
18.75
 31
0.0
  0
LINE
  5
5158
330
512D
100
AcDbEntity
  8
AM_3 隠れ線
100
AcDbLine
 10
77.0
 20
0.0
 30
0.0
 11
77.0
 21
21.0
 31
0.0
  0
LINE
  5
5159
330
512D
100
AcDbEntity
  8
AM_3 隠れ線
100
AcDbLine
 10
78.299038000001
 20
18.75
 30
0.0
 11
78.299038000001
 21
0.0
 31
0.0
  0
LINE
  5
515A
330
512D
100
AcDbEntity
  8
AM_3 隠れ線
100
AcDbLine
 10
94.0
 20
18.75
 30
0.0
 11
104.825318000001
 21
0.0
 31
0.0
  0
LINE
  5
515B
330
512D
100
AcDbEntity
  8
AM_3 隠れ線
100
AcDbLine
 10
94.0
 20
18.75
 30
0.0
 11
94.0
 21
0.0
 31
0.0
  0
LINE
  5
515C
330
512D
100
AcDbEntity
  8
AM_3 隠れ線
100
AcDbLine
 10
77.0
 20
21.0
 30
0.0
 11
78.299038000001
 21
18.75
 31
0.0
  0
ARC
  5
6CB0
330
512D
100
AcDbEntity
  8
AM_7 中心線
100
AcDbCircle
 10
247.5
 20
0.0
 30
0.0
 40
503.75
100
AcDbArc
 50
80.07037042906533
 51
100.1228152841032
  0
ARC
  5
6CB1
330
512D
100
AcDbEntity
  8
AM_0 外形線1
100
AcDbCircle
 10
247.5
 20
0.0
 30
0.0
 40
492.0
100
AcDbArc
 50
80.34687323746334
 51
99.65312676253667
  0
ENDBLK
  5
512F
330
512D
100
AcDbEntity
  8
0
100
AcDbBlockEnd
  0
BLOCK
  5
57E2
330
57E1
100
AcDbEntity
  8
0
100
AcDbBlockBegin
  2
*D13
 70
     1
 10
0.0
 20
0.0
 30
0.0
  3
*D13
  1

  0
LINE
  5
5E5E
330
57E1
100
AcDbEntity
  8
AM_5 寸法線
 62
     3
100
AcDbLine
 10
2313.136584848827
 20
3845.953917771467
 30
0.0
 11
1993.136584848827
 21
3845.953917771467
 31
0.0
  0
LINE
  5
5E5F
330
57E1
100
AcDbEntity
  8
AM_5 寸法線
 62
     3
100
AcDbLine
 10
2313.136584848827
 20
2785.953917771467
 30
0.0
 11
1993.136584848826
 21
2785.953917771467
 31
0.0
  0
LINE
  5
5E60
330
57E1
100
AcDbEntity
  8
AM_5 寸法線
 62
     3
100
AcDbLine
 10
2002.511584848827
 20
3808.453917771468
 30
0.0
 11
2002.511584848827
 21
2823.453917771468
 31
0.0
  0
INSERT
  5
5E61
330
57E1
100
AcDbEntity
  8
AM_5 寸法線
 62
     3
100
AcDbBlockReference
  2
_Open30
 10
2002.511584848827
 20
3845.953917771467
 30
0.0
 41
37.5
 42
37.5
 43
37.5
 50
90.0
  0
INSERT
  5
5E62
330
57E1
100
AcDbEntity
  8
AM_5 寸法線
 62
     3
100
AcDbBlockReference
  2
_Open30
 10
2002.511584848827
 20
2785.953917771467
 30
0.0
 41
37.5
 42
37.5
 43
37.5
 50
270.0
  0
MTEXT
  5
5E63
330
57E1
100
AcDbEntity
  8
AM_5 寸法線
 62
     3
100
AcDbMText
 10
1953.761584848826
 20
3315.953917771468
 30
0.0
 40
52.5
 41
0.0
 46
0.0
 71
     5
 72
     1
  1
%%c1060
  7
SEISA
 11
0.0000000000000001
 21
1.0
 31
0.0
 73
     1
 44
1.0
  0
POINT
  5
5E64
330
57E1
100
AcDbEntity
  8
Defpoints
 62
     0
100
AcDbPoint
 10
2322.511584848827
 20
3845.953917771467
 30
0.0
  0
POINT
  5
5E65
330
57E1
100
AcDbEntity
  8
Defpoints
 62
     0
100
AcDbPoint
 10
2322.511584848827
 20
2785.953917771467
 30
0.0
  0
POINT
  5
5E66
330
57E1
100
AcDbEntity
  8
Defpoints
 62
     0
100
AcDbPoint
 10
2002.511584848827
 20
2785.953917771467
 30
0.0
  0
ENDBLK
  5
57E3
330
57E1
100
AcDbEntity
  8
0
100
AcDbBlockEnd
  0
BLOCK
  5
580D
330
580C
100
AcDbEntity
  8
0
100
AcDbBlockBegin
  2
*D14
 70
     1
 10
0.0
 20
0.0
 30
0.0
  3
*D14
  1

  0
LINE
  5
5E67
330
580C
100
AcDbEntity
  8
AM_5 寸法線
 62
     3
100
AcDbLine
 10
3012.511584848827
 20
3325.328917771468
 30
0.0
 11
3012.511584848827
 21
3426.020847771468
 31
0.0
  0
LINE
  5
5E68
330
580C
100
AcDbEntity
  8
AM_5 寸法線
 62
     3
100
AcDbLine
 10
2302.511584848827
 20
3325.328917771468
 30
0.0
 11
2302.511584848827
 21
3426.020847771468
 31
0.0
  0
LINE
  5
5E69
330
580C
100
AcDbEntity
  8
AM_5 寸法線
 62
     3
100
AcDbLine
 10
2975.011584848827
 20
3416.645847771466
 30
0.0
 11
2340.011584848827
 21
3416.645847771466
 31
0.0
  0
INSERT
  5
5E6A
330
580C
100
AcDbEntity
  8
AM_5 寸法線
 62
     3
100
AcDbBlockReference
  2
_Open30
 10
3012.511584848827
 20
3416.645847771466
 30
0.0
 41
37.5
 42
37.5
 43
37.5
  0
INSERT
  5
5E6B
330
580C
100
AcDbEntity
  8
AM_5 寸法線
 62
     3
100
AcDbBlockReference
  2
_Open30
 10
2302.511584848827
 20
3416.645847771466
 30
0.0
 41
37.5
 42
37.5
 43
37.5
 50
180.0
  0
MTEXT
  5
5E6C
330
580C
100
AcDbEntity
  8
AM_5 寸法線
 62
     3
100
AcDbMText
 10
2657.511584848827
 20
3465.395847771468
 30
0.0
 40
52.5
 41
0.0
 46
0.0
 71
     5
 72
     1
  1
710
  7
SEISA
 73
     1
 44
1.0
  0
POINT
  5
5E6D
330
580C
100
AcDbEntity
  8
Defpoints
 62
     0
100
AcDbPoint
 10
3012.511584848827
 20
3315.953917771468
 30
0.0
  0
POINT
  5
5E6E
330
580C
100
AcDbEntity
  8
Defpoints
 62
     0
100
AcDbPoint
 10
2302.511584848827
 20
3315.953917771468
 30
0.0
  0
POINT
  5
5E6F
330
580C
100
AcDbEntity
  8
Defpoints
 62
     0
100
AcDbPoint
 10
2302.511584848827
 20
3416.645847771466
 30
0.0
  0
ENDBLK
  5
580E
330
580C
100
AcDbEntity
  8
0
100
AcDbBlockEnd
  0
BLOCK
  5
5825
330
5824
100
AcDbEntity
  8
0
100
AcDbBlockBegin
  2
*D15
 70
     1
 10
0.0
 20
0.0
 30
0.0
  3
*D15
  1

  0
LINE
  5
5E70
330
5824
100
AcDbEntity
  8
AM_5 寸法線
 62
     3
100
AcDbLine
 10
3052.511584848826
 20
3325.328917771468
 30
0.0
 11
3052.511584848826
 21
3426.020847771468
 31
0.0
  0
LINE
  5
5E71
330
5824
100
AcDbEntity
  8
AM_5 寸法線
 62
     3
100
AcDbLine
 10
3012.511584848827
 20
3325.328917771468
 30
0.0
 11
3012.511584848827
 21
3426.020847771468
 31
0.0
  0
LINE
  5
5E72
330
5824
100
AcDbEntity
  8
AM_5 寸法線
 62
     3
100
AcDbLine
 10
3090.011584848826
 20
3416.645847771466
 30
0.0
 11
3127.511584848826
 21
3416.645847771466
 31
0.0
  0
LINE
  5
5E73
330
5824
100
AcDbEntity
  8
AM_5 寸法線
 62
     3
100
AcDbLine
 10
2975.011584848827
 20
3416.645847771466
 30
0.0
 11
2937.511584848826
 21
3416.645847771466
 31
0.0
  0
MTEXT
  5
5E74
330
5824
100
AcDbEntity
  8
AM_5 寸法線
 62
     3
100
AcDbMText
 10
3140.275175546405
 20
3464.791728230135
 30
0.0
 40
52.5
 41
0.0
 46
0.0
 71
     5
 72
     1
  1
40
  7
SEISA
 73
     1
 44
1.0
  0
LINE
  5
5E75
330
5824
100
AcDbEntity
  8
AM_5 寸法線
 62
     3
100
AcDbLine
 10
3052.511584848826
 20
3416.645847771466
 30
0.0
 11
3012.511584848827
 21
3416.645847771466
 31
0.0
  0
INSERT
  5
5E76
330
5824
100
AcDbEntity
  8
AM_5 寸法線
 62
     3
100
AcDbBlockReference
  2
_Open30
 10
3052.511584848826
 20
3416.645847771466
 30
0.0
 41
37.5
 42
37.5
 43
37.5
 50
180.0
  0
INSERT
  5
5E77
330
5824
100
AcDbEntity
  8
AM_5 寸法線
 62
     3
100
AcDbBlockReference
  2
_Open30
 10
3012.511584848827
 20
3416.645847771466
 30
0.0
 41
37.5
 42
37.5
 43
37.5
  0
POINT
  5
5E78
330
5824
100
AcDbEntity
  8
Defpoints
 62
     0
100
AcDbPoint
 10
3052.511584848826
 20
3315.953917771468
 30
0.0
  0
POINT
  5
5E79
330
5824
100
AcDbEntity
  8
Defpoints
 62
     0
100
AcDbPoint
 10
3012.511584848827
 20
3315.953917771466
 30
0.0
  0
POINT
  5
5E7A
330
5824
100
AcDbEntity
  8
Defpoints
 62
     0
100
AcDbPoint
 10
3012.511584848827
 20
3416.645847771466
 30
0.0
  0
ENDBLK
  5
5826
330
5824
100
AcDbEntity
  8
0
100
AcDbBlockEnd
  0
BLOCK
  5
5857
330
5856
100
AcDbEntity
  8
0
100
AcDbBlockBegin
  2
*D16
 70
     1
 10
0.0
 20
0.0
 30
0.0
  3
*D16
  1

  0
LINE
  5
5E7B
330
5856
100
AcDbEntity
  8
AM_5 寸法線
 62
     3
100
AcDbLine
 10
3762.511584848827
 20
3325.328917771468
 30
0.0
 11
3762.511584848827
 21
3426.020847771468
 31
0.0
  0
LINE
  5
5E7C
330
5856
100
AcDbEntity
  8
AM_5 寸法線
 62
     3
100
AcDbLine
 10
3052.511584848826
 20
3325.328917771468
 30
0.0
 11
3052.511584848826
 21
3426.020847771468
 31
0.0
  0
LINE
  5
5E7D
330
5856
100
AcDbEntity
  8
AM_5 寸法線
 62
     3
100
AcDbLine
 10
3725.011584848826
 20
3416.645847771466
 30
0.0
 11
3090.011584848826
 21
3416.645847771466
 31
0.0
  0
INSERT
  5
5E7E
330
5856
100
AcDbEntity
  8
AM_5 寸法線
 62
     3
100
AcDbBlockReference
  2
_Open30
 10
3762.511584848827
 20
3416.645847771466
 30
0.0
 41
37.5
 42
37.5
 43
37.5
  0
INSERT
  5
5E7F
330
5856
100
AcDbEntity
  8
AM_5 寸法線
 62
     3
100
AcDbBlockReference
  2
_Open30
 10
3052.511584848826
 20
3416.645847771466
 30
0.0
 41
37.5
 42
37.5
 43
37.5
 50
180.0
  0
MTEXT
  5
5E80
330
5856
100
AcDbEntity
  8
AM_5 寸法線
 62
     3
100
AcDbMText
 10
3407.511584848827
 20
3465.395847771468
 30
0.0
 40
52.5
 41
0.0
 46
0.0
 71
     5
 72
     1
  1
710
  7
SEISA
 73
     1
 44
1.0
  0
POINT
  5
5E81
330
5856
100
AcDbEntity
  8
Defpoints
 62
     0
100
AcDbPoint
 10
3762.511584848827
 20
3315.953917771468
 30
0.0
  0
POINT
  5
5E82
330
5856
100
AcDbEntity
  8
Defpoints
 62
     0
100
AcDbPoint
 10
3052.511584848826
 20
3315.953917771468
 30
0.0
  0
POINT
  5
5E83
330
5856
100
AcDbEntity
  8
Defpoints
 62
     0
100
AcDbPoint
 10
3052.511584848826
 20
3416.645847771466
 30
0.0
  0
ENDBLK
  5
5858
330
5856
100
AcDbEntity
  8
0
100
AcDbBlockEnd
  0
BLOCK
  5
588D
330
588C
100
AcDbEntity
  8
0
100
AcDbBlockBegin
  2
*D17
 70
     1
 10
0.0
 20
0.0
 30
0.0
  3
*D17
  1

  0
LINE
  5
6D14
330
588C
100
AcDbEntity
  8
AM_5 寸法線
 62
     3
100
AcDbLine
 10
3396.511584848826
 20
3786.578917771468
 30
0.0
 11
3396.511584848826
 21
3647.431665790271
 31
0.0
  0
LINE
  5
6D15
330
588C
100
AcDbEntity
  8
AM_5 寸法線
 62
     3
100
AcDbLine
 10
3382.511584848827
 20
3787.078917771468
 30
0.0
 11
3382.511584848827
 21
3647.431665790271
 31
0.0
  0
LINE
  5
6D16
330
588C
100
AcDbEntity
  8
AM_5 寸法線
 62
     3
100
AcDbLine
 10
3345.011584848827
 20
3656.80666579027
 30
0.0
 11
3307.511584848827
 21
3656.80666579027
 31
0.0
  0
LINE
  5
6D17
330
588C
100
AcDbEntity
  8
AM_5 寸法線
 62
     3
100
AcDbLine
 10
3434.011584848826
 20
3656.80666579027
 30
0.0
 11
3588.511584848826
 21
3656.80666579027
 31
0.0
  0
LINE
  5
6D18
330
588C
100
AcDbEntity
  8
AM_5 寸法線
 62
     3
100
AcDbLine
 10
3382.511584848827
 20
3656.80666579027
 30
0.0
 11
3396.511584848826
 21
3656.80666579027
 31
0.0
  0
INSERT
  5
6D19
330
588C
100
AcDbEntity
  8
AM_5 寸法線
 62
     3
100
AcDbBlockReference
  2
_Open30
 10
3382.511584848827
 20
3656.80666579027
 30
0.0
 41
37.5
 42
37.5
 43
37.5
  0
INSERT
  5
6D1A
330
588C
100
AcDbEntity
  8
AM_5 寸法線
 62
     3
100
AcDbBlockReference
  2
_Open30
 10
3396.511584848826
 20
3656.80666579027
 30
0.0
 41
37.5
 42
37.5
 43
37.5
 50
180.0
  0
MTEXT
  5
6D1B
330
588C
100
AcDbEntity
  8
AM_5 寸法線
 62
     3
100
AcDbMText
 10
3530.011584848826
 20
3705.556665790271
 30
0.0
 40
52.5
 41
0.0
 46
0.0
 71
     5
 72
     1
  1
14
  7
SEISA
 73
     1
 44
1.0
  0
POINT
  5
6D1C
330
588C
100
AcDbEntity
  8
Defpoints
 62
     0
100
AcDbPoint
 10
3396.511584848826
 20
3795.953917771468
 30
0.0
  0
POINT
  5
6D1D
330
588C
100
AcDbEntity
  8
Defpoints
 62
     0
100
AcDbPoint
 10
3382.511584848827
 20
3796.453917771468
 30
0.0
  0
POINT
  5
6D1E
330
588C
100
AcDbEntity
  8
Defpoints
 62
     0
100
AcDbPoint
 10
3382.511584848827
 20
3656.80666579027
 30
0.0
  0
ENDBLK
  5
588E
330
588C
100
AcDbEntity
  8
0
100
AcDbBlockEnd
  0
BLOCK
  5
5932
330
5931
100
AcDbEntity
  8
0
100
AcDbBlockBegin
  2
*D18
 70
     1
 10
0.0
 20
0.0
 30
0.0
  3
*D18
  1

  0
LINE
  5
5E96
330
5931
100
AcDbEntity
  8
AM_5 寸法線
 62
     3
100
AcDbLine
 10
3480.886584848826
 20
3795.953917771468
 30
0.0
 11
4071.886584848827
 21
3795.953917771468
 31
0.0
  0
LINE
  5
5E97
330
5931
100
AcDbEntity
  8
AM_5 寸法線
 62
     3
100
AcDbLine
 10
3480.886584848826
 20
2835.953917771468
 30
0.0
 11
4071.886584848826
 21
2835.953917771468
 31
0.0
  0
LINE
  5
5E98
330
5931
100
AcDbEntity
  8
AM_5 寸法線
 62
     3
100
AcDbLine
 10
4062.511584848826
 20
3758.453917771467
 30
0.0
 11
4062.511584848826
 21
2873.453917771467
 31
0.0
  0
INSERT
  5
5E99
330
5931
100
AcDbEntity
  8
AM_5 寸法線
 62
     3
100
AcDbBlockReference
  2
_Open30
 10
4062.511584848826
 20
3795.953917771468
 30
0.0
 41
37.5
 42
37.5
 43
37.5
 50
90.0
  0
INSERT
  5
5E9A
330
5931
100
AcDbEntity
  8
AM_5 寸法線
 62
     3
100
AcDbBlockReference
  2
_Open30
 10
4062.511584848826
 20
2835.953917771468
 30
0.0
 41
37.5
 42
37.5
 43
37.5
 50
270.0
  0
MTEXT
  5
5E9B
330
5931
100
AcDbEntity
  8
AM_5 寸法線
 62
     3
100
AcDbMText
 10
4013.761584848825
 20
3315.953917771468
 30
0.0
 40
52.5
 41
0.0
 46
0.0
 71
     5
 72
     1
  1
%%c960
  7
SEISA
 11
0.0000000000000001
 21
1.0
 31
0.0
 73
     1
 44
1.0
  0
POINT
  5
5E9C
330
5931
100
AcDbEntity
  8
Defpoints
 62
     0
100
AcDbPoint
 10
3471.511584848826
 20
3795.953917771468
 30
0.0
  0
POINT
  5
5E9D
330
5931
100
AcDbEntity
  8
Defpoints
 62
     0
100
AcDbPoint
 10
3471.511584848826
 20
2835.953917771468
 30
0.0
  0
POINT
  5
5E9E
330
5931
100
AcDbEntity
  8
Defpoints
 62
     0
100
AcDbPoint
 10
4062.511584848826
 20
2835.953917771468
 30
0.0
  0
ENDBLK
  5
5933
330
5931
100
AcDbEntity
  8
0
100
AcDbBlockEnd
  0
BLOCK
  5
594A
330
5949
100
AcDbEntity
  8
0
100
AcDbBlockBegin
  2
*D19
 70
     1
 10
0.0
 20
0.0
 30
0.0
  3
*D19
  1

  0
LINE
  5
5E9F
330
5949
100
AcDbEntity
  8
AM_5 寸法線
 62
     3
100
AcDbLine
 10
3440.886584848826
 20
3878.953917771467
 30
0.0
 11
4191.886584848826
 21
3878.953917771467
 31
0.0
  0
LINE
  5
5EA0
330
5949
100
AcDbEntity
  8
AM_5 寸法線
 62
     3
100
AcDbLine
 10
3440.886584848826
 20
2752.953917771467
 30
0.0
 11
4191.886584848826
 21
2752.953917771467
 31
0.0
  0
LINE
  5
5EA1
330
5949
100
AcDbEntity
  8
AM_5 寸法線
 62
     3
100
AcDbLine
 10
4182.511584848827
 20
3841.453917771467
 30
0.0
 11
4182.511584848827
 21
2790.453917771468
 31
0.0
  0
INSERT
  5
5EA2
330
5949
100
AcDbEntity
  8
AM_5 寸法線
 62
     3
100
AcDbBlockReference
  2
_Open30
 10
4182.511584848827
 20
3878.953917771467
 30
0.0
 41
37.5
 42
37.5
 43
37.5
 50
90.0
  0
INSERT
  5
5EA3
330
5949
100
AcDbEntity
  8
AM_5 寸法線
 62
     3
100
AcDbBlockReference
  2
_Open30
 10
4182.511584848827
 20
2752.953917771467
 30
0.0
 41
37.5
 42
37.5
 43
37.5
 50
270.0
  0
MTEXT
  5
5EA4
330
5949
100
AcDbEntity
  8
AM_5 寸法線
 62
     3
100
AcDbMText
 10
4133.761584848826
 20
3315.953917771468
 30
0.0
 40
52.5
 41
0.0
 46
0.0
 71
     5
 72
     1
  1
%%c1126
  7
SEISA
 11
0.0000000000000001
 21
1.0
 31
0.0
 73
     1
 44
1.0
  0
POINT
  5
5EA5
330
5949
100
AcDbEntity
  8
Defpoints
 62
     0
100
AcDbPoint
 10
3431.511584848826
 20
3878.953917771467
 30
0.0
  0
POINT
  5
5EA6
330
5949
100
AcDbEntity
  8
Defpoints
 62
     0
100
AcDbPoint
 10
3431.511584848826
 20
2752.953917771467
 30
0.0
  0
POINT
  5
5EA7
330
5949
100
AcDbEntity
  8
Defpoints
 62
     0
100
AcDbPoint
 10
4182.511584848827
 20
2752.953917771467
 30
0.0
  0
ENDBLK
  5
594B
330
5949
100
AcDbEntity
  8
0
100
AcDbBlockEnd
  0
BLOCK
  5
5962
330
5961
100
AcDbEntity
  8
0
100
AcDbBlockBegin
  2
*D20
 70
     1
 10
0.0
 20
0.0
 30
0.0
  3
*D20
  1

  0
LINE
  5
5EA8
330
5961
100
AcDbEntity
  8
AM_5 寸法線
 62
     3
100
AcDbLine
 10
3099.886584848827
 20
3940.953917771468
 30
0.0
 11
4311.886584848827
 21
3940.953917771468
 31
0.0
  0
LINE
  5
5EA9
330
5961
100
AcDbEntity
  8
AM_5 寸法線
 62
     3
100
AcDbLine
 10
3099.886584848825
 20
2690.953917771467
 30
0.0
 11
4311.886584848827
 21
2690.953917771467
 31
0.0
  0
LINE
  5
5EAA
330
5961
100
AcDbEntity
  8
AM_5 寸法線
 62
     3
100
AcDbLine
 10
4302.511584848827
 20
3903.453917771468
 30
0.0
 11
4302.511584848827
 21
2728.453917771467
 31
0.0
  0
INSERT
  5
5EAB
330
5961
100
AcDbEntity
  8
AM_5 寸法線
 62
     3
100
AcDbBlockReference
  2
_Open30
 10
4302.511584848827
 20
3940.953917771468
 30
0.0
 41
37.5
 42
37.5
 43
37.5
 50
90.0
  0
INSERT
  5
5EAC
330
5961
100
AcDbEntity
  8
AM_5 寸法線
 62
     3
100
AcDbBlockReference
  2
_Open30
 10
4302.511584848827
 20
2690.953917771467
 30
0.0
 41
37.5
 42
37.5
 43
37.5
 50
270.0
  0
MTEXT
  5
5EAD
330
5961
100
AcDbEntity
  8
AM_5 寸法線
 62
     3
100
AcDbMText
 10
4253.761584848827
 20
3315.953917771468
 30
0.0
 40
52.5
 41
0.0
 46
0.0
 71
     5
 72
     1
  1
%%c1250
  7
SEISA
 11
0.0000000000000001
 21
1.0
 31
0.0
 73
     1
 44
1.0
  0
POINT
  5
5EAE
330
5961
100
AcDbEntity
  8
Defpoints
 62
     0
100
AcDbPoint
 10
3090.511584848826
 20
3940.953917771468
 30
0.0
  0
POINT
  5
5EAF
330
5961
100
AcDbEntity
  8
Defpoints
 62
     0
100
AcDbPoint
 10
3090.511584848826
 20
2690.953917771467
 30
0.0
  0
POINT
  5
5EB0
330
5961
100
AcDbEntity
  8
Defpoints
 62
     0
100
AcDbPoint
 10
4302.511584848827
 20
2690.953917771467
 30
0.0
  0
ENDBLK
  5
5963
330
5961
100
AcDbEntity
  8
0
100
AcDbBlockEnd
  0
BLOCK
  5
59F2
330
59F1
100
AcDbEntity
  8
0
100
AcDbBlockBegin
  2
*D21
 70
     1
 10
0.0
 20
0.0
 30
0.0
  3
*D21
  1

  0
LINE
  5
5EB1
330
59F1
100
AcDbEntity
  8
AM_5 寸法線
 62
     3
100
AcDbLine
 10
3032.511584848827
 20
2683.578917771467
 30
0.0
 11
3032.511584848827
 21
2501.578917771467
 31
0.0
  0
LINE
  5
5EB2
330
59F1
100
AcDbEntity
  8
AM_5 寸法線
 62
     3
100
AcDbLine
 10
2972.511584848826
 20
2684.578917771467
 30
0.0
 11
2972.511584848826
 21
2501.578917771467
 31
0.0
  0
LINE
  5
5EB3
330
59F1
100
AcDbEntity
  8
AM_5 寸法線
 62
     3
100
AcDbLine
 10
3070.011584848826
 20
2510.953917771467
 30
0.0
 11
3107.511584848826
 21
2510.953917771467
 31
0.0
  0
LINE
  5
5EB4
330
59F1
100
AcDbEntity
  8
AM_5 寸法線
 62
     3
100
AcDbLine
 10
2935.011584848826
 20
2510.953917771467
 30
0.0
 11
2778.261584848826
 21
2510.953917771467
 31
0.0
  0
LINE
  5
5EB5
330
59F1
100
AcDbEntity
  8
AM_5 寸法線
 62
     3
100
AcDbLine
 10
3032.511584848827
 20
2510.953917771467
 30
0.0
 11
2972.511584848826
 21
2510.953917771467
 31
0.0
  0
INSERT
  5
5EB6
330
59F1
100
AcDbEntity
  8
AM_5 寸法線
 62
     3
100
AcDbBlockReference
  2
GENDOT
 10
3032.511584848827
 20
2510.953917771467
 30
0.0
 41
37.5
 42
37.5
 43
37.5
 50
180.0
  0
INSERT
  5
5EB7
330
59F1
100
AcDbEntity
  8
AM_5 寸法線
 62
     3
100
AcDbBlockReference
  2
_Open30
 10
2972.511584848826
 20
2510.953917771467
 30
0.0
 41
37.5
 42
37.5
 43
37.5
  0
MTEXT
  5
5EB8
330
59F1
100
AcDbEntity
  8
AM_5 寸法線
 62
     3
100
AcDbMText
 10
2837.886584848826
 20
2559.703917771467
 30
0.0
 40
52.5
 41
0.0
 46
0.0
 71
     5
 72
     1
  1
60
  7
SEISA
 73
     1
 44
1.0
  0
POINT
  5
5EB9
330
59F1
100
AcDbEntity
  8
Defpoints
 62
     0
100
AcDbPoint
 10
3032.511584848827
 20
2692.953917771467
 30
0.0
  0
POINT
  5
5EBA
330
59F1
100
AcDbEntity
  8
Defpoints
 62
     0
100
AcDbPoint
 10
2972.511584848826
 20
2693.953917771467
 30
0.0
  0
POINT
  5
5EBB
330
59F1
100
AcDbEntity
  8
Defpoints
 62
     0
100
AcDbPoint
 10
2972.511584848826
 20
2510.953917771467
 30
0.0
  0
ENDBLK
  5
59F3
330
59F1
100
AcDbEntity
  8
0
100
AcDbBlockEnd
  0
BLOCK
  5
5A0E
330
5A0D
100
AcDbEntity
  8
0
100
AcDbBlockBegin
  2
*D22
 70
     1
 10
0.0
 20
0.0
 30
0.0
  3
*D22
  1

  0
LINE
  5
5EBC
330
5A0D
100
AcDbEntity
  8
AM_5 寸法線
 62
     3
100
AcDbLine
 10
3032.511584848827
 20
2683.578917771467
 30
0.0
 11
3032.511584848827
 21
2501.578917771467
 31
0.0
  0
LINE
  5
5EBD
330
5A0D
100
AcDbEntity
  8
AM_5 寸法線
 62
     3
100
AcDbLine
 10
3092.511584848827
 20
2683.578917771467
 30
0.0
 11
3092.511584848827
 21
2501.578917771467
 31
0.0
  0
LINE
  5
5EBE
330
5A0D
100
AcDbEntity
  8
AM_5 寸法線
 62
     3
100
AcDbLine
 10
2995.011584848827
 20
2510.953917771467
 30
0.0
 11
2957.511584848827
 21
2510.953917771467
 31
0.0
  0
LINE
  5
5EBF
330
5A0D
100
AcDbEntity
  8
AM_5 寸法線
 62
     3
100
AcDbLine
 10
3130.011584848827
 20
2510.953917771467
 30
0.0
 11
3286.761584848826
 21
2510.953917771467
 31
0.0
  0
LINE
  5
5EC0
330
5A0D
100
AcDbEntity
  8
AM_5 寸法線
 62
     3
100
AcDbLine
 10
3032.511584848827
 20
2510.953917771467
 30
0.0
 11
3092.511584848827
 21
2510.953917771467
 31
0.0
  0
INSERT
  5
5EC1
330
5A0D
100
AcDbEntity
  8
AM_5 寸法線
 62
     3
100
AcDbBlockReference
  2
GENDOT
 10
3032.511584848827
 20
2510.953917771467
 30
0.0
 41
37.5
 42
37.5
 43
37.5
  0
INSERT
  5
5EC2
330
5A0D
100
AcDbEntity
  8
AM_5 寸法線
 62
     3
100
AcDbBlockReference
  2
_Open30
 10
3092.511584848827
 20
2510.953917771467
 30
0.0
 41
37.5
 42
37.5
 43
37.5
 50
180.0
  0
MTEXT
  5
5EC3
330
5A0D
100
AcDbEntity
  8
AM_5 寸法線
 62
     3
100
AcDbMText
 10
3227.136584848827
 20
2559.703917771467
 30
0.0
 40
52.5
 41
0.0
 46
0.0
 71
     5
 72
     1
  1
60
  7
SEISA
 73
     1
 44
1.0
  0
POINT
  5
5EC4
330
5A0D
100
AcDbEntity
  8
Defpoints
 62
     0
100
AcDbPoint
 10
3032.511584848827
 20
2692.953917771467
 30
0.0
  0
POINT
  5
5EC5
330
5A0D
100
AcDbEntity
  8
Defpoints
 62
     0
100
AcDbPoint
 10
3092.511584848827
 20
2692.953917771467
 30
0.0
  0
POINT
  5
5EC6
330
5A0D
100
AcDbEntity
  8
Defpoints
 62
     0
100
AcDbPoint
 10
3092.511584848827
 20
2510.953917771467
 30
0.0
  0
ENDBLK
  5
5A0F
330
5A0D
100
AcDbEntity
  8
0
100
AcDbBlockEnd
  0
BLOCK
  5
5A2A
330
5A29
100
AcDbEntity
  8
0
100
AcDbBlockBegin
  2
*D23
 70
     1
 10
0.0
 20
0.0
 30
0.0
  3
*D23
  1

  0
LINE
  5
5EC7
330
5A29
100
AcDbEntity
  8
AM_5 寸法線
 62
     3
100
AcDbLine
 10
3032.511584848827
 20
2683.578917771467
 30
0.0
 11
3032.511584848827
 21
2381.578917771467
 31
0.0
  0
LINE
  5
5EC8
330
5A29
100
AcDbEntity
  8
AM_5 寸法線
 62
     3
100
AcDbLine
 10
2302.511584848827
 20
2796.578917771467
 30
0.0
 11
2302.511584848827
 21
2381.578917771467
 31
0.0
  0
LINE
  5
5EC9
330
5A29
100
AcDbEntity
  8
AM_5 寸法線
 62
     3
100
AcDbLine
 10
2995.011584848827
 20
2390.953917771467
 30
0.0
 11
2340.011584848827
 21
2390.953917771467
 31
0.0
  0
INSERT
  5
5ECA
330
5A29
100
AcDbEntity
  8
AM_5 寸法線
 62
     3
100
AcDbBlockReference
  2
_Open30
 10
3032.511584848827
 20
2390.953917771467
 30
0.0
 41
37.5
 42
37.5
 43
37.5
  0
INSERT
  5
5ECB
330
5A29
100
AcDbEntity
  8
AM_5 寸法線
 62
     3
100
AcDbBlockReference
  2
_Open30
 10
2302.511584848827
 20
2390.953917771467
 30
0.0
 41
37.5
 42
37.5
 43
37.5
 50
180.0
  0
MTEXT
  5
5ECC
330
5A29
100
AcDbEntity
  8
AM_5 寸法線
 62
     3
100
AcDbMText
 10
2667.511584848826
 20
2439.703917771467
 30
0.0
 40
52.5
 41
0.0
 46
0.0
 71
     5
 72
     1
  1
730
  7
SEISA
 73
     1
 44
1.0
  0
POINT
  5
5ECD
330
5A29
100
AcDbEntity
  8
Defpoints
 62
     0
100
AcDbPoint
 10
3032.511584848827
 20
2692.953917771467
 30
0.0
  0
POINT
  5
5ECE
330
5A29
100
AcDbEntity
  8
Defpoints
 62
     0
100
AcDbPoint
 10
2302.511584848827
 20
2805.953917771467
 30
0.0
  0
POINT
  5
5ECF
330
5A29
100
AcDbEntity
  8
Defpoints
 62
     0
100
AcDbPoint
 10
2302.511584848827
 20
2390.953917771467
 30
0.0
  0
ENDBLK
  5
5A2B
330
5A29
100
AcDbEntity
  8
0
100
AcDbBlockEnd
  0
BLOCK
  5
5A42
330
5A41
100
AcDbEntity
  8
0
100
AcDbBlockBegin
  2
*D24
 70
     1
 10
0.0
 20
0.0
 30
0.0
  3
*D24
  1

  0
LINE
  5
5ED0
330
5A41
100
AcDbEntity
  8
AM_5 寸法線
 62
     3
100
AcDbLine
 10
3032.511584848827
 20
2683.578917771467
 30
0.0
 11
3032.511584848827
 21
2381.578917771467
 31
0.0
  0
LINE
  5
5ED1
330
5A41
100
AcDbEntity
  8
AM_5 寸法線
 62
     3
100
AcDbLine
 10
3431.511584848826
 20
2743.578917771467
 30
0.0
 11
3431.511584848826
 21
2381.578917771467
 31
0.0
  0
LINE
  5
5ED2
330
5A41
100
AcDbEntity
  8
AM_5 寸法線
 62
     3
100
AcDbLine
 10
3070.011584848826
 20
2390.953917771467
 30
0.0
 11
3394.011584848826
 21
2390.953917771467
 31
0.0
  0
INSERT
  5
5ED3
330
5A41
100
AcDbEntity
  8
AM_5 寸法線
 62
     3
100
AcDbBlockReference
  2
_Open30
 10
3032.511584848827
 20
2390.953917771467
 30
0.0
 41
37.5
 42
37.5
 43
37.5
 50
180.0
  0
INSERT
  5
5ED4
330
5A41
100
AcDbEntity
  8
AM_5 寸法線
 62
     3
100
AcDbBlockReference
  2
_Open30
 10
3431.511584848826
 20
2390.953917771467
 30
0.0
 41
37.5
 42
37.5
 43
37.5
  0
MTEXT
  5
5ED5
330
5A41
100
AcDbEntity
  8
AM_5 寸法線
 62
     3
100
AcDbMText
 10
3232.011584848827
 20
2439.703917771467
 30
0.0
 40
52.5
 41
0.0
 46
0.0
 71
     5
 72
     1
  1
399
  7
SEISA
 73
     1
 44
1.0
  0
POINT
  5
5ED6
330
5A41
100
AcDbEntity
  8
Defpoints
 62
     0
100
AcDbPoint
 10
3032.511584848827
 20
2692.953917771467
 30
0.0
  0
POINT
  5
5ED7
330
5A41
100
AcDbEntity
  8
Defpoints
 62
     0
100
AcDbPoint
 10
3431.511584848826
 20
2752.953917771467
 30
0.0
  0
POINT
  5
5ED8
330
5A41
100
AcDbEntity
  8
Defpoints
 62
     0
100
AcDbPoint
 10
3431.511584848826
 20
2390.953917771467
 30
0.0
  0
ENDBLK
  5
5A43
330
5A41
100
AcDbEntity
  8
0
100
AcDbBlockEnd
  0
BLOCK
  5
5A5A
330
5A59
100
AcDbEntity
  8
0
100
AcDbBlockBegin
  2
*D25
 70
     1
 10
0.0
 20
0.0
 30
0.0
  3
*D25
  1

  0
LINE
  5
5ED9
330
5A59
100
AcDbEntity
  8
AM_5 寸法線
 62
     3
100
AcDbLine
 10
3431.511584848826
 20
2743.578917771467
 30
0.0
 11
3431.511584848826
 21
2381.578917771467
 31
0.0
  0
LINE
  5
5EDA
330
5A59
100
AcDbEntity
  8
AM_5 寸法線
 62
     3
100
AcDbLine
 10
3762.511584848827
 20
2848.578917771467
 30
0.0
 11
3762.511584848827
 21
2381.578917771467
 31
0.0
  0
LINE
  5
5EDB
330
5A59
100
AcDbEntity
  8
AM_5 寸法線
 62
     3
100
AcDbLine
 10
3469.011584848826
 20
2390.953917771467
 30
0.0
 11
3725.011584848826
 21
2390.953917771467
 31
0.0
  0
INSERT
  5
5EDC
330
5A59
100
AcDbEntity
  8
AM_5 寸法線
 62
     3
100
AcDbBlockReference
  2
_Open30
 10
3431.511584848826
 20
2390.953917771467
 30
0.0
 41
37.5
 42
37.5
 43
37.5
 50
180.0
  0
INSERT
  5
5EDD
330
5A59
100
AcDbEntity
  8
AM_5 寸法線
 62
     3
100
AcDbBlockReference
  2
_Open30
 10
3762.511584848827
 20
2390.953917771467
 30
0.0
 41
37.5
 42
37.5
 43
37.5
  0
MTEXT
  5
5EDE
330
5A59
100
AcDbEntity
  8
AM_5 寸法線
 62
     3
100
AcDbMText
 10
3597.011584848826
 20
2439.703917771467
 30
0.0
 40
52.5
 41
0.0
 46
0.0
 71
     5
 72
     1
  1
331
  7
SEISA
 73
     1
 44
1.0
  0
POINT
  5
5EDF
330
5A59
100
AcDbEntity
  8
Defpoints
 62
     0
100
AcDbPoint
 10
3431.511584848826
 20
2752.953917771467
 30
0.0
  0
POINT
  5
5EE0
330
5A59
100
AcDbEntity
  8
Defpoints
 62
     0
100
AcDbPoint
 10
3762.511584848827
 20
2857.953917771468
 30
0.0
  0
POINT
  5
5EE1
330
5A59
100
AcDbEntity
  8
Defpoints
 62
     0
100
AcDbPoint
 10
3762.511584848827
 20
2390.953917771467
 30
0.0
  0
ENDBLK
  5
5A5B
330
5A59
100
AcDbEntity
  8
0
100
AcDbBlockEnd
  0
BLOCK
  5
5A72
330
5A71
100
AcDbEntity
  8
0
100
AcDbBlockBegin
  2
*D26
 70
     1
 10
0.0
 20
0.0
 30
0.0
  3
*D26
  1

  0
LINE
  5
5EE2
330
5A71
100
AcDbEntity
  8
AM_5 寸法線
 62
     3
100
AcDbLine
 10
2302.511584848827
 20
2796.578917771467
 30
0.0
 11
2302.511584848827
 21
2261.578917771467
 31
0.0
  0
LINE
  5
5EE3
330
5A71
100
AcDbEntity
  8
AM_5 寸法線
 62
     3
100
AcDbLine
 10
3762.511584848827
 20
2848.578917771467
 30
0.0
 11
3762.511584848827
 21
2261.578917771467
 31
0.0
  0
LINE
  5
5EE4
330
5A71
100
AcDbEntity
  8
AM_5 寸法線
 62
     3
100
AcDbLine
 10
2340.011584848827
 20
2270.953917771467
 30
0.0
 11
3725.011584848826
 21
2270.953917771467
 31
0.0
  0
INSERT
  5
5EE5
330
5A71
100
AcDbEntity
  8
AM_5 寸法線
 62
     3
100
AcDbBlockReference
  2
_Open30
 10
2302.511584848827
 20
2270.953917771467
 30
0.0
 41
37.5
 42
37.5
 43
37.5
 50
180.0
  0
INSERT
  5
5EE6
330
5A71
100
AcDbEntity
  8
AM_5 寸法線
 62
     3
100
AcDbBlockReference
  2
_Open30
 10
3762.511584848827
 20
2270.953917771467
 30
0.0
 41
37.5
 42
37.5
 43
37.5
  0
MTEXT
  5
5EE7
330
5A71
100
AcDbEntity
  8
AM_5 寸法線
 62
     3
100
AcDbMText
 10
3032.511584848827
 20
2319.703917771467
 30
0.0
 40
52.5
 41
0.0
 46
0.0
 71
     5
 72
     1
  1
1460
  7
SEISA
 73
     1
 44
1.0
  0
POINT
  5
5EE8
330
5A71
100
AcDbEntity
  8
Defpoints
 62
     0
100
AcDbPoint
 10
2302.511584848827
 20
2805.953917771467
 30
0.0
  0
POINT
  5
5EE9
330
5A71
100
AcDbEntity
  8
Defpoints
 62
     0
100
AcDbPoint
 10
3762.511584848827
 20
2857.953917771468
 30
0.0
  0
POINT
  5
5EEA
330
5A71
100
AcDbEntity
  8
Defpoints
 62
     0
100
AcDbPoint
 10
3762.511584848827
 20
2270.953917771467
 30
0.0
  0
ENDBLK
  5
5A73
330
5A71
100
AcDbEntity
  8
0
100
AcDbBlockEnd
  0
BLOCK
  5
6C29
330
6C28
100
AcDbEntity
  8
0
100
AcDbBlockBegin
  2
*D27
 70
     1
 10
0.0
 20
0.0
 30
0.0
  3
*D27
  1

  0
LINE
  5
6C4E
330
6C28
100
AcDbEntity
  8
AM_5 寸法線
 62
     3
100
AcDbLine
 10
3762.511584848827
 20
3783.328917771468
 30
0.0
 11
3762.511584848827
 21
4070.828918771466
 31
0.0
  0
LINE
  5
6C4F
330
6C28
100
AcDbEntity
  8
AM_5 寸法線
 62
     3
100
AcDbLine
 10
3862.511584848827
 20
3888.328917771467
 30
0.0
 11
3862.511584848827
 21
4070.828918771466
 31
0.0
  0
LINE
  5
6C50
330
6C28
100
AcDbEntity
  8
AM_5 寸法線
 62
     3
100
AcDbLine
 10
3725.011584848826
 20
4061.453918771466
 30
0.0
 11
3687.511584848826
 21
4061.453918771466
 31
0.0
  0
LINE
  5
6C51
330
6C28
100
AcDbEntity
  8
AM_5 寸法線
 62
     3
100
AcDbLine
 10
3900.011584848826
 20
4061.453918771466
 30
0.0
 11
4097.261584848825
 21
4061.453918771466
 31
0.0
  0
LINE
  5
6C52
330
6C28
100
AcDbEntity
  8
AM_5 寸法線
 62
     3
100
AcDbLine
 10
3762.511584848827
 20
4061.453918771466
 30
0.0
 11
3862.511584848827
 21
4061.453918771466
 31
0.0
  0
INSERT
  5
6C53
330
6C28
100
AcDbEntity
  8
AM_5 寸法線
 62
     3
100
AcDbBlockReference
  2
_Open30
 10
3762.511584848827
 20
4061.453918771466
 30
0.0
 41
37.5
 42
37.5
 43
37.5
  0
INSERT
  5
6C54
330
6C28
100
AcDbEntity
  8
AM_5 寸法線
 62
     3
100
AcDbBlockReference
  2
_Open30
 10
3862.511584848827
 20
4061.453918771466
 30
0.0
 41
37.5
 42
37.5
 43
37.5
 50
180.0
  0
MTEXT
  5
6C55
330
6C28
100
AcDbEntity
  8
AM_5 寸法線
 62
     3
100
AcDbMText
 10
4017.386584848826
 20
4110.203918771467
 30
0.0
 40
52.5
 41
0.0
 46
0.0
 71
     5
 72
     1
  1
100
  7
SEISA
 73
     1
 44
1.0
  0
POINT
  5
6C56
330
6C28
100
AcDbEntity
  8
Defpoints
 62
     0
100
AcDbPoint
 10
3762.511584848827
 20
3773.953917771468
 30
0.0
  0
POINT
  5
6C57
330
6C28
100
AcDbEntity
  8
Defpoints
 62
     0
100
AcDbPoint
 10
3862.511584848827
 20
3878.953917771467
 30
0.0
  0
POINT
  5
6C58
330
6C28
100
AcDbEntity
  8
Defpoints
 62
     0
100
AcDbPoint
 10
3862.511584848827
 20
4061.453918771466
 30
0.0
  0
ENDBLK
  5
6C2A
330
6C28
100
AcDbEntity
  8
0
100
AcDbBlockEnd
  0
BLOCK
  5
6CB5
330
6CB4
100
AcDbEntity
  8
0
100
AcDbBlockBegin
  2
*D28
 70
     1
 10
0.0
 20
0.0
 30
0.0
  3
*D28
  1

  0
LINE
  5
6D0B
330
6CB4
100
AcDbEntity
  8
AM_5 寸法線
 62
     3
100
AcDbLine
 10
3052.511584848826
 20
3781.078917771468
 30
0.0
 11
3052.511584848826
 21
3647.431665790271
 31
0.0
  0
LINE
  5
6D0C
330
6CB4
100
AcDbEntity
  8
AM_5 寸法線
 62
     3
100
AcDbLine
 10
3217.511584848826
 20
3786.578917771468
 30
0.0
 11
3217.511584848826
 21
3647.431665790271
 31
0.0
  0
LINE
  5
6D0D
330
6CB4
100
AcDbEntity
  8
AM_5 寸法線
 62
     3
100
AcDbLine
 10
3090.011584848826
 20
3656.806665790271
 30
0.0
 11
3180.011584848827
 21
3656.806665790271
 31
0.0
  0
INSERT
  5
6D0E
330
6CB4
100
AcDbEntity
  8
AM_5 寸法線
 62
     3
100
AcDbBlockReference
  2
_Open30
 10
3052.511584848826
 20
3656.806665790271
 30
0.0
 41
37.5
 42
37.5
 43
37.5
 50
180.0
  0
INSERT
  5
6D0F
330
6CB4
100
AcDbEntity
  8
AM_5 寸法線
 62
     3
100
AcDbBlockReference
  2
_Open30
 10
3217.511584848826
 20
3656.806665790271
 30
0.0
 41
37.5
 42
37.5
 43
37.5
  0
MTEXT
  5
6D10
330
6CB4
100
AcDbEntity
  8
AM_5 寸法線
 62
     3
100
AcDbMText
 10
3135.011584848826
 20
3705.556665790272
 30
0.0
 40
52.5
 41
0.0
 46
0.0
 71
     5
 72
     1
  1
165
  7
SEISA
 73
     1
 44
1.0
  0
POINT
  5
6D11
330
6CB4
100
AcDbEntity
  8
Defpoints
 62
     0
100
AcDbPoint
 10
3052.511584848826
 20
3790.453917771468
 30
0.0
  0
POINT
  5
6D12
330
6CB4
100
AcDbEntity
  8
Defpoints
 62
     0
100
AcDbPoint
 10
3217.511584848826
 20
3795.953917771468
 30
0.0
  0
POINT
  5
6D13
330
6CB4
100
AcDbEntity
  8
Defpoints
 62
     0
100
AcDbPoint
 10
3217.511584848826
 20
3656.806665790271
 30
0.0
  0
ENDBLK
  5
6CB6
330
6CB4
100
AcDbEntity
  8
0
100
AcDbBlockEnd
  0
BLOCK
  5
6CE3
330
6CE2
100
AcDbEntity
  8
0
100
AcDbBlockBegin
  2
*D29
 70
     1
 10
0.0
 20
0.0
 30
0.0
  3
*D29
  1

  0
LINE
  5
6D02
330
6CE2
100
AcDbEntity
  8
AM_5 寸法線
 62
     3
100
AcDbLine
 10
3217.511584848826
 20
3786.578917771468
 30
0.0
 11
3217.511584848826
 21
3647.431665790271
 31
0.0
  0
LINE
  5
6D03
330
6CE2
100
AcDbEntity
  8
AM_5 寸法線
 62
     3
100
AcDbLine
 10
3382.511584848827
 20
3787.078917771468
 30
0.0
 11
3382.511584848827
 21
3647.431665790271
 31
0.0
  0
LINE
  5
6D04
330
6CE2
100
AcDbEntity
  8
AM_5 寸法線
 62
     3
100
AcDbLine
 10
3255.011584848826
 20
3656.80666579027
 30
0.0
 11
3345.011584848827
 21
3656.80666579027
 31
0.0
  0
INSERT
  5
6D05
330
6CE2
100
AcDbEntity
  8
AM_5 寸法線
 62
     3
100
AcDbBlockReference
  2
_Open30
 10
3217.511584848826
 20
3656.80666579027
 30
0.0
 41
37.5
 42
37.5
 43
37.5
 50
180.0
  0
INSERT
  5
6D06
330
6CE2
100
AcDbEntity
  8
AM_5 寸法線
 62
     3
100
AcDbBlockReference
  2
_Open30
 10
3382.511584848827
 20
3656.80666579027
 30
0.0
 41
37.5
 42
37.5
 43
37.5
  0
MTEXT
  5
6D07
330
6CE2
100
AcDbEntity
  8
AM_5 寸法線
 62
     3
100
AcDbMText
 10
3300.011584848827
 20
3705.556665790271
 30
0.0
 40
52.5
 41
0.0
 46
0.0
 71
     5
 72
     1
  1
165
  7
SEISA
 73
     1
 44
1.0
  0
POINT
  5
6D08
330
6CE2
100
AcDbEntity
  8
Defpoints
 62
     0
100
AcDbPoint
 10
3217.511584848826
 20
3795.953917771468
 30
0.0
  0
POINT
  5
6D09
330
6CE2
100
AcDbEntity
  8
Defpoints
 62
     0
100
AcDbPoint
 10
3382.511584848827
 20
3796.453917771468
 30
0.0
  0
POINT
  5
6D0A
330
6CE2
100
AcDbEntity
  8
Defpoints
 62
     0
100
AcDbPoint
 10
3382.511584848827
 20
3656.80666579027
 30
0.0
  0
ENDBLK
  5
6CE4
330
6CE2
100
AcDbEntity
  8
0
100
AcDbBlockEnd
  0
BLOCK
  5
6EA6
330
6EA5
100
AcDbEntity
  8
0
100
AcDbBlockBegin
  2
ＧＣサイドカバ－ CEM1250
 70
     0
 10
0.0
 20
0.0
 30
0.0
  3
ＧＣサイドカバ－ CEM1250
  1

  0
LINE
  5
6EA8
330
6EA5
100
AcDbEntity
  8
AM_11 想像線
 48
0.1
100
AcDbLine
 10
-35.0
 20
-22.0
 30
0.0
 11
4.109147343959648
 21
-22.0
 31
0.0
  0
LINE
  5
6EA9
330
6EA5
100
AcDbEntity
  8
AM_11 想像線
 48
0.1
100
AcDbLine
 10
0.0
 20
-80.5
 30
0.0
 11
-7.0
 21
-80.5
 31
0.0
  0
LINE
  5
6EAA
330
6EA5
100
AcDbEntity
  8
AM_11 想像線
 48
0.1
100
AcDbLine
 10
0.0
 20
0.0
 30
0.0
 11
-28.0
 21
0.0
 31
0.0
  0
LINE
  5
6EAB
330
6EA5
100
AcDbEntity
  8
AM_11 想像線
 48
0.1
100
AcDbLine
 10
-23.5
 20
-37.80000000000018
 30
0.0
 11
-23.5
 21
-45.0
 31
0.0
  0
LINE
  5
6EAC
330
6EA5
100
AcDbEntity
  8
AM_11 想像線
 48
0.1
100
AcDbLine
 10
-35.0
 20
-80.5
 30
0.0
 11
-35.0
 21
-45.0
 31
0.0
  0
LINE
  5
6EAD
330
6EA5
100
AcDbEntity
  8
AM_11 想像線
 48
0.1
100
AcDbLine
 10
-28.0
 20
-80.5
 30
0.0
 11
-35.0
 21
-80.5
 31
0.0
  0
LINE
  5
6EAE
330
6EA5
100
AcDbEntity
  8
AM_11 想像線
 48
0.1
100
AcDbLine
 10
-28.0
 20
-70.70000000000027
 30
0.0
 11
-28.0
 21
-80.5
 31
0.0
  0
LINE
  5
6EAF
330
6EA5
100
AcDbEntity
  8
AM_11 想像線
 48
0.1
100
AcDbLine
 10
-7.0
 20
-70.70000000000027
 30
0.0
 11
-28.0
 21
-70.70000000000027
 31
0.0
  0
LINE
  5
6EB0
330
6EA5
100
AcDbEntity
  8
AM_11 想像線
 48
0.1
100
AcDbLine
 10
-7.0
 20
-80.5
 30
0.0
 11
-7.0
 21
-70.70000000000027
 31
0.0
  0
LINE
  5
6EB1
330
6EA5
100
AcDbEntity
  8
AM_11 想像線
 48
0.1
100
AcDbLine
 10
-35.0
 20
-80.5
 30
0.0
 11
-35.0
 21
-83.0
 31
0.0
  0
LINE
  5
6EB2
330
6EA5
100
AcDbEntity
  8
AM_11 想像線
 48
0.1
100
AcDbLine
 10
-28.0
 20
-80.5
 30
0.0
 11
-28.0
 21
-83.0
 31
0.0
  0
LINE
  5
6EB3
330
6EA5
100
AcDbEntity
  8
AM_11 想像線
 48
0.1
100
AcDbLine
 10
-7.0
 20
-80.5
 30
0.0
 11
-7.0
 21
-83.0
 31
0.0
  0
LINE
  5
6EB4
330
6EA5
100
AcDbEntity
  8
AM_11 想像線
 48
0.1
100
AcDbLine
 10
-28.0
 20
-37.80000000000018
 30
0.0
 11
-23.5
 21
-37.80000000000018
 31
0.0
  0
LINE
  5
6EB5
330
6EA5
100
AcDbEntity
  8
AM_11 想像線
 48
0.1
100
AcDbLine
 10
0.0
 20
-80.5
 30
0.0
 11
0.0
 21
-83.0
 31
0.0
  0
LINE
  5
6EB6
102
{ACAD_REACTORS
330
6C37
102
}
330
6EA5
100
AcDbEntity
  8
AM_11 想像線
 48
0.1
100
AcDbLine
 10
0.0
 20
0.0
 30
0.0
 11
0.0
 21
-80.5
 31
0.0
  0
LINE
  5
6EB7
330
6EA5
100
AcDbEntity
  8
AM_11 想像線
 48
0.1
100
AcDbLine
 10
-23.5
 20
-45.0
 30
0.0
 11
-35.0
 21
-45.0
 31
0.0
  0
LINE
  5
6EB8
330
6EA5
100
AcDbEntity
  8
AM_11 想像線
 48
0.1
100
AcDbLine
 10
-28.0
 20
0.0
 30
0.0
 11
-28.0
 21
-37.80000000000018
 31
0.0
  0
ENDBLK
  5
6EA7
330
6EA5
100
AcDbEntity
  8
0
100
AcDbBlockEnd
  0
ENDSEC
  0
SECTION
  2
ENTITIES
  0
LINE
  5
444D
330
1F
100
AcDbEntity
  8
AM_7 中心線
100
AcDbLine
 10
3829.177402860172
 20
3315.953917771468
 30
0.0
 11
2254.282154848826
 21
3315.953917771468
 31
0.0
  0
INSERT
  5
4C0C
102
{ACAD_REACTORS
330
5977
330
5A0B
330
5A27
330
5A3F
330
5A57
102
}
330
1F
100
AcDbEntity
  8
AM_0 外形線1
100
AcDbBlockReference
  2
ケースＡ CEMH1250
 10
3032.511584848827
 20
3315.953917771468
 30
0.0
  0
LINE
  5
4C2B
330
1F
100
AcDbEntity
  8
AM_0 外形線1
100
AcDbLine
 10
2976.511584848827
 20
3887.953917771468
 30
0.0
 11
3032.511584848827
 21
3887.953917771468
 31
0.0
  0
LINE
  5
4C2C
330
1F
100
AcDbEntity
  8
AM_0 外形線1
100
AcDbLine
 10
2976.511584848827
 20
3925.953917771467
 30
0.0
 11
3032.511584848827
 21
3925.953917771467
 31
0.0
  0
INSERT
  5
4E67
102
{ACAD_REACTORS
330
57F7
330
5822
330
583E
330
5A0B
330
5A3F
330
5A87
102
}
330
1F
100
AcDbEntity
  8
AM_0 外形線1
100
AcDbBlockReference
  2
リジット CEMH1250
 10
3032.511584848827
 20
3315.953917771468
 30
0.0
  0
INSERT
  5
4F3E
330
1F
100
AcDbEntity
  8
AM_0 外形線1
100
AcDbBlockReference
  2
リーマボルト CEMH1250 M36
 10
3092.511584848827
 20
3906.953917771467
 30
0.0
  0
INSERT
  5
5056
102
{ACAD_REACTORS
330
58A6
330
595F
330
5A57
330
5A6F
102
}
330
1F
100
AcDbEntity
  8
AM_0 外形線1
100
AcDbBlockReference
  2
ＧＣサイドカバ－ CEMH1250
 10
3403.511584848826
 20
3315.953917771468
 30
0.0
  0
INSERT
  5
515D
102
{ACAD_REACTORS
330
583E
330
586C
330
58A6
330
5947
330
5A6F
330
5A87
330
6C37
330
6CEF
330
6CC2
102
}
330
1F
100
AcDbEntity
  8
AM_0 外形線1
100
AcDbBlockReference
  2
センタ CEMH1250
 10
3052.511584848826
 20
3315.953917771468
 30
0.0
  0
DIMENSION
  5
57E0
102
{ACAD_XDICTIONARY
360
57ED
102
}
102
{ACAD_REACTORS
330
57F7
102
}
330
1F
100
AcDbEntity
  8
AM_5 寸法線
100
AcDbDimension
  2
*D13
 10
2002.511584848827
 20
2785.953917771467
 30
0.0
 11
1953.761584848826
 21
3315.953917771468
 31
0.0
 70
    32
  1
%%c<>
 71
     5
 42
1060.0
 73
     0
 74
     0
 75
     0
  3
SEISA$0
100
AcDbAlignedDimension
 13
2322.511584848827
 23
3845.953917771467
 33
0.0
 14
2322.511584848827
 24
2785.953917771467
 34
0.0
 50
90.0
100
AcDbRotatedDimension
1001
ACAD_DSTYLE_DIMINSPECT
1070
   396
1000
100%
1070
   395
1000

1070
   394
1070
    33
1070
   393
1070
     0
  0
DIMENSION
  5
580B
102
{ACAD_XDICTIONARY
360
5818
102
}
102
{ACAD_REACTORS
330
5822
102
}
330
1F
100
AcDbEntity
  8
AM_5 寸法線
100
AcDbDimension
  2
*D14
 10
2302.511584848827
 20
3416.645847771466
 30
0.0
 11
2657.511584848827
 21
3465.395847771468
 31
0.0
 70
    32
 71
     5
 42
709.9999999999989
 73
     0
 74
     0
 75
     0
  3
SEISA$0
100
AcDbAlignedDimension
 13
3012.511584848827
 23
3315.953917771468
 33
0.0
 14
2302.511584848827
 24
3315.953917771468
 34
0.0
100
AcDbRotatedDimension
  0
DIMENSION
  5
5823
102
{ACAD_XDICTIONARY
360
5832
102
}
102
{ACAD_REACTORS
330
583E
102
}
330
1F
100
AcDbEntity
  8
AM_5 寸法線
100
AcDbDimension
  2
*D15
 10
3012.511584848827
 20
3416.645847771466
 30
0.0
 11
3140.275175546405
 21
3464.791728230135
 31
0.0
 70
   160
 71
     5
 42
40.0
 73
     0
 74
     0
 75
     0
  3
SEISA$0
100
AcDbAlignedDimension
 13
3052.511584848826
 23
3315.953917771468
 33
0.0
 14
3012.511584848827
 24
3315.953917771466
 34
0.0
100
AcDbRotatedDimension
1001
ACAD
1000
DSTYLE
1002
{
1070
   279
1070
     2
1002
}
  0
DIMENSION
  5
5855
102
{ACAD_XDICTIONARY
360
5862
102
}
102
{ACAD_REACTORS
330
586C
102
}
330
1F
100
AcDbEntity
  8
AM_5 寸法線
100
AcDbDimension
  2
*D16
 10
3052.511584848826
 20
3416.645847771466
 30
0.0
 11
3407.511584848827
 21
3465.395847771468
 31
0.0
 70
    32
 71
     5
 42
710.0000000000003
 73
     0
 74
     0
 75
     0
  3
SEISA$0
100
AcDbAlignedDimension
 13
3762.511584848827
 23
3315.953917771468
 33
0.0
 14
3052.511584848826
 24
3315.953917771468
 34
0.0
100
AcDbRotatedDimension
  0
DIMENSION
  5
588B
102
{ACAD_XDICTIONARY
360
589A
102
}
102
{ACAD_REACTORS
330
58A6
102
}
330
1F
100
AcDbEntity
  8
AM_5 寸法線
100
AcDbDimension
  2
*D17
 10
3382.511584848827
 20
3656.80666579027
 30
0.0
 11
3530.011584848826
 21
3656.80666579027
 31
0.0
 70
   160
 71
     5
 42
14.0
 73
     0
 74
     0
 75
     0
  3
SEISA$0
100
AcDbAlignedDimension
 13
3396.511584848826
 23
3795.953917771468
 33
0.0
 14
3382.511584848827
 24
3796.453917771468
 34
0.0
100
AcDbRotatedDimension
  0
DIMENSION
  5
5930
102
{ACAD_XDICTIONARY
360
593D
102
}
102
{ACAD_REACTORS
330
5947
102
}
330
1F
100
AcDbEntity
  8
AM_5 寸法線
100
AcDbDimension
  2
*D18
 10
4062.511584848826
 20
2835.953917771468
 30
0.0
 11
4013.761584848825
 21
3315.953917771468
 31
0.0
 70
    32
  1
%%c<>
 71
     5
 42
960.0
 73
     0
 74
     0
 75
     0
  3
SEISA$0
100
AcDbAlignedDimension
 13
3471.511584848826
 23
3795.953917771468
 33
0.0
 14
3471.511584848826
 24
2835.953917771468
 34
0.0
 50
90.0
100
AcDbRotatedDimension
1001
ACAD_DSTYLE_DIMINSPECT
1070
   396
1000
100%
1070
   395
1000

1070
   394
1070
    33
1070
   393
1070
     0
1001
ACAD
1000
DSTYLE
1002
{
1070
   279
1070
     0
1002
}
  0
DIMENSION
  5
5948
102
{ACAD_XDICTIONARY
360
5955
102
}
102
{ACAD_REACTORS
330
595F
102
}
330
1F
100
AcDbEntity
  8
AM_5 寸法線
100
AcDbDimension
  2
*D19
 10
4182.511584848827
 20
2752.953917771467
 30
0.0
 11
4182.511584848827
 21
3315.953917771468
 31
0.0
 70
   160
  1
%%c<>
 71
     5
 42
1126.0
 73
     0
 74
     0
 75
     0
  3
SEISA$0
100
AcDbAlignedDimension
 13
3431.511584848826
 23
3878.953917771467
 33
0.0
 14
3431.511584848826
 24
2752.953917771467
 34
0.0
 50
90.0
100
AcDbRotatedDimension
1001
ACAD_DSTYLE_DIMINSPECT
1070
   396
1000
100%
1070
   395
1000

1070
   394
1070
    33
1070
   393
1070
     0
1001
ACAD
1000
DSTYLE
1002
{
1070
   279
1070
     0
1002
}
  0
DIMENSION
  5
5960
102
{ACAD_XDICTIONARY
360
596D
102
}
102
{ACAD_REACTORS
330
5977
102
}
330
1F
100
AcDbEntity
  8
AM_5 寸法線
100
AcDbDimension
  2
*D20
 10
4302.511584848827
 20
2690.953917771467
 30
0.0
 11
4302.511584848827
 21
3315.953917771468
 31
0.0
 70
   160
  1
%%c<>
 71
     5
 42
1250.0
 73
     0
 74
     0
 75
     0
  3
SEISA$0
100
AcDbAlignedDimension
 13
3090.511584848826
 23
3940.953917771468
 33
0.0
 14
3090.511584848826
 24
2690.953917771467
 34
0.0
 50
90.0
100
AcDbRotatedDimension
1001
ACAD_DSTYLE_DIMINSPECT
1070
   396
1000
100%
1070
   395
1000

1070
   394
1070
    33
1070
   393
1070
     0
1001
ACAD
1000
DSTYLE
1002
{
1070
   279
1070
     0
1002
}
  0
DIMENSION
  5
59F0
102
{ACAD_XDICTIONARY
360
59FF
102
}
102
{ACAD_REACTORS
330
5A0B
102
}
330
1F
100
AcDbEntity
  8
AM_5 寸法線
100
AcDbDimension
  2
*D21
 10
2972.511584848826
 20
2510.953917771467
 30
0.0
 11
2837.886584848826
 21
2559.703917771467
 31
0.0
 70
    32
 71
     5
 42
60.0
 73
     0
 74
     0
 75
     0
  3
SEISA$0
100
AcDbAlignedDimension
 13
3032.511584848827
 23
2692.953917771467
 33
0.0
 14
2972.511584848826
 24
2693.953917771467
 34
0.0
100
AcDbRotatedDimension
1001
ACAD_DSTYLE_DIMINSPECT
1070
   396
1000
100%
1070
   395
1000

1070
   394
1070
    33
1070
   393
1070
     0
1001
ACAD
1000
DSTYLE
1002
{
1070
   173
1070
     1
1070
   342
1005
0
1070
   343
1005
3B2A
1070
   344
1005
69
1002
}
  0
DIMENSION
  5
5A0C
102
{ACAD_XDICTIONARY
360
5A1B
102
}
102
{ACAD_REACTORS
330
5A27
102
}
330
1F
100
AcDbEntity
  8
AM_5 寸法線
100
AcDbDimension
  2
*D22
 10
3092.511584848827
 20
2510.953917771467
 30
0.0
 11
3227.136584848827
 21
2559.703917771467
 31
0.0
 70
    32
 71
     5
 42
60.0
 73
     0
 74
     0
 75
     0
  3
SEISA$0
100
AcDbAlignedDimension
 13
3032.511584848827
 23
2692.953917771467
 33
0.0
 14
3092.511584848827
 24
2692.953917771467
 34
0.0
100
AcDbRotatedDimension
1001
ACAD_DSTYLE_DIMINSPECT
1070
   396
1000
100%
1070
   395
1000

1070
   394
1070
    33
1070
   393
1070
     0
1001
ACAD
1000
DSTYLE
1002
{
1070
   173
1070
     1
1070
   342
1005
0
1070
   343
1005
3B2A
1070
   344
1005
69
1002
}
  0
DIMENSION
  5
5A28
102
{ACAD_XDICTIONARY
360
5A35
102
}
102
{ACAD_REACTORS
330
5A3F
102
}
330
1F
100
AcDbEntity
  8
AM_5 寸法線
100
AcDbDimension
  2
*D23
 10
2302.511584848827
 20
2390.953917771467
 30
0.0
 11
2667.511584848826
 21
2439.703917771467
 31
0.0
 70
    32
 71
     5
 42
729.999999999999
 73
     0
 74
     0
 75
     0
  3
SEISA$0
100
AcDbAlignedDimension
 13
3032.511584848827
 23
2692.953917771467
 33
0.0
 14
2302.511584848827
 24
2805.953917771467
 34
0.0
100
AcDbRotatedDimension
  0
DIMENSION
  5
5A40
102
{ACAD_XDICTIONARY
360
5A4D
102
}
102
{ACAD_REACTORS
330
5A57
102
}
330
1F
100
AcDbEntity
  8
AM_5 寸法線
100
AcDbDimension
  2
*D24
 10
3431.511584848826
 20
2390.953917771467
 30
0.0
 11
3232.011584848827
 21
2439.703917771467
 31
0.0
 70
    32
 71
     5
 42
399.0000000000005
 73
     0
 74
     0
 75
     0
  3
SEISA$0
100
AcDbAlignedDimension
 13
3032.511584848827
 23
2692.953917771467
 33
0.0
 14
3431.511584848826
 24
2752.953917771467
 34
0.0
100
AcDbRotatedDimension
  0
DIMENSION
  5
5A58
102
{ACAD_XDICTIONARY
360
5A65
102
}
102
{ACAD_REACTORS
330
5A6F
102
}
330
1F
100
AcDbEntity
  8
AM_5 寸法線
100
AcDbDimension
  2
*D25
 10
3762.511584848827
 20
2390.953917771467
 30
0.0
 11
3597.011584848826
 21
2439.703917771467
 31
0.0
 70
    32
 71
     5
 42
331.0
 73
     0
 74
     0
 75
     0
  3
SEISA$0
100
AcDbAlignedDimension
 13
3431.511584848826
 23
2752.953917771467
 33
0.0
 14
3762.511584848827
 24
2857.953917771468
 34
0.0
100
AcDbRotatedDimension
  0
DIMENSION
  5
5A70
102
{ACAD_XDICTIONARY
360
5A7D
102
}
102
{ACAD_REACTORS
330
5A87
102
}
330
1F
100
AcDbEntity
  8
AM_5 寸法線
100
AcDbDimension
  2
*D26
 10
3762.511584848827
 20
2270.953917771467
 30
0.0
 11
3032.511584848827
 21
2319.703917771467
 31
0.0
 70
    32
 71
     5
 42
1459.999999999999
 73
     0
 74
     0
 75
     0
  3
SEISA$0
100
AcDbAlignedDimension
 13
2302.511584848827
 23
2805.953917771467
 33
0.0
 14
3762.511584848827
 24
2857.953917771468
 34
0.0
100
AcDbRotatedDimension
  0
MTEXT
  5
6B24
330
1F
100
AcDbEntity
  8
AM_6 文字
100
AcDbMText
 10
3874.510515855057
 20
2603.089145845483
 30
0.0
 40
52.5
 41
1178.184025455949
 46
317.8769059412573
 71
     1
 72
     5
  1
{\W0.6;TYPE:CEM1250/CEMH1250\PSHAFT DIA:MAX/MIN \P RIGID SIDE φ800/φ500\P COUPLING CENTER SIDE{\W0.9; }φ710/φ500}
  7
SEISA
 73
     1
 44
1.0
  0
DIMENSION
  5
6C27
102
{ACAD_XDICTIONARY
360
6C36
102
}
102
{ACAD_REACTORS
330
6C37
102
}
330
1F
100
AcDbEntity
  8
AM_5 寸法線
100
AcDbDimension
  2
*D27
 10
3862.511584848827
 20
4061.453918771466
 30
0.0
 11
4017.386584848826
 21
4110.203918771467
 31
0.0
 70
    32
 71
     5
 42
100.0
 73
     0
 74
     0
 75
     0
  3
SEISA$0
100
AcDbAlignedDimension
 13
3762.511584848827
 23
3773.953917771468
 33
0.0
 14
3862.511584848827
 24
3878.953917771467
 34
0.0
100
AcDbRotatedDimension
1001
ACAD_DSTYLE_DIMINSPECT
1070
   396
1000
100%
1070
   395
1000

1070
   394
1070
    33
1070
   393
1070
     0
  0
DIMENSION
  5
6CB3
102
{ACAD_XDICTIONARY
360
6CC1
102
}
102
{ACAD_REACTORS
330
6CC2
102
}
330
1F
100
AcDbEntity
  8
AM_5 寸法線
100
AcDbDimension
  2
*D28
 10
3217.511584848826
 20
3656.806665790271
 30
0.0
 11
3135.011584848826
 21
3705.556665790272
 31
0.0
 70
    32
 71
     5
 42
165.0
 73
     0
 74
     0
 75
     0
  3
SEISA$0
100
AcDbAlignedDimension
 13
3052.511584848826
 23
3790.453917771468
 33
0.0
 14
3217.511584848826
 24
3795.953917771468
 34
0.0
 50
0.0000000000001132
100
AcDbRotatedDimension
1001
ACAD_DSTYLE_DIMINSPECT
1070
   396
1000
100%
1070
   395
1000

1070
   394
1070
    33
1070
   393
1070
     0
  0
DIMENSION
  5
6CE1
102
{ACAD_XDICTIONARY
360
6CEE
102
}
102
{ACAD_REACTORS
330
6CEF
102
}
330
1F
100
AcDbEntity
  8
AM_5 寸法線
100
AcDbDimension
  2
*D29
 10
3382.511584848827
 20
3656.80666579027
 30
0.0
 11
3300.011584848827
 21
3705.556665790271
 31
0.0
 70
    32
 71
     5
 42
165.0000000000004
 73
     0
 74
     0
 75
     0
  3
SEISA$0
100
AcDbAlignedDimension
 13
3217.511584848826
 23
3795.953917771468
 33
0.0
 14
3382.511584848827
 24
3796.453917771468
 34
0.0
 50
0.0000000000001132
100
AcDbRotatedDimension
1001
ACAD_DSTYLE_DIMINSPECT
1070
   396
1000
100%
1070
   395
1000

1070
   394
1070
    33
1070
   393
1070
     0
  0
INSERT
  5
6EB9
330
1F
100
AcDbEntity
  8
AM_0 外形線1
100
AcDbBlockReference
  2
ＧＣサイドカバ－ CEM1250
 10
3862.511584848827
 20
3878.953917771467
 30
0.0
  0
ENDSEC
  0
SECTION
  2
OBJECTS
  0
DICTIONARY
  5
C
330
0
100
AcDbDictionary
281
     1
  3
ACAD_COLOR
350
C5
  3
ACAD_GROUP
350
D
  3
ACAD_LAYOUT
350
1A
  3
ACAD_MATERIAL
350
C4
  3
ACAD_MLEADERSTYLE
350
2D5
  3
ACAD_MLINESTYLE
350
17
  3
ACAD_PLOTSETTINGS
350
19
  3
ACAD_PLOTSTYLENAME
350
E
  3
ACAD_SCALELIST
350
2B3
  3
ACAD_TABLESTYLE
350
121
  3
ACAD_VISUALSTYLE
350
27F
  3
ACDB_RECOMPOSE_DATA
350
2F7
  3
AcDbVariableDictionary
350
34
  3
AcmDictionary
350
49
  3
AMG
350
2B
  3
AMGSNAPSETTINGS
350
1DE
  0
DICTIONARY
  5
BF
330
2
100
AcDbDictionary
280
     1
281
     1
  3
ACAD_LAYERSTATES
360
6B1B
  3
AMLAYER_GROUPCOLORS
360
C0
  0
DICTIONARY
  5
29F7
330
10
100
AcDbDictionary
280
     1
281
     1
  3
ADSK_XREC_LAYER_RECONCILED
360
29F8
  0
DICTIONARY
  5
29F9
330
81
100
AcDbDictionary
280
     1
281
     1
  3
ADSK_XREC_LAYER_RECONCILED
360
29FA
  0
DICTIONARY
  5
82
330
1F
100
AcDbDictionary
280
     1
281
     1
  3
ACAD_SORTENTS
360
A41
  0
DICTIONARY
  5
4B49
330
4B1C
100
AcDbDictionary
280
     1
281
     1
  3
ACAD_SORTENTS
360
6007
  0
DICTIONARY
  5
4CA0
330
4BC6
100
AcDbDictionary
280
     1
281
     1
  3
ACAD_SORTENTS
360
6146
  0
DICTIONARY
  5
4DA4
330
4D09
100
AcDbDictionary
280
     1
281
     1
  3
ACAD_SORTENTS
360
6B93
  0
DICTIONARY
  5
4FA1
330
4F10
100
AcDbDictionary
280
     1
281
     1
  3
ACAD_SORTENTS
360
6665
  0
DICTIONARY
  5
50C8
330
501E
100
AcDbDictionary
280
     1
281
     1
  3
ACAD_SORTENTS
360
6EA4
  0
DICTIONARY
  5
51C4
330
512D
100
AcDbDictionary
280
     1
281
     1
  3
ACAD_SORTENTS
360
6D99
  0
DICTIONARY
  5
57ED
330
57E0
100
AcDbDictionary
280
     1
281
     1
  3
ACAD_DIMASSOC
360
57F7
  0
DICTIONARY
  5
5818
330
580B
100
AcDbDictionary
280
     1
281
     1
  3
ACAD_DIMASSOC
360
5822
  0
DICTIONARY
  5
5832
330
5823
100
AcDbDictionary
280
     1
281
     1
  3
ACAD_DIMASSOC
360
583E
  0
DICTIONARY
  5
5862
330
5855
100
AcDbDictionary
280
     1
281
     1
  3
ACAD_DIMASSOC
360
586C
  0
DICTIONARY
  5
589A
330
588B
100
AcDbDictionary
280
     1
281
     1
  3
ACAD_DIMASSOC
360
58A6
  0
DICTIONARY
  5
593D
330
5930
100
AcDbDictionary
280
     1
281
     1
  3
ACAD_DIMASSOC
360
5947
  0
DICTIONARY
  5
5955
330
5948
100
AcDbDictionary
280
     1
281
     1
  3
ACAD_DIMASSOC
360
595F
  0
DICTIONARY
  5
596D
330
5960
100
AcDbDictionary
280
     1
281
     1
  3
ACAD_DIMASSOC
360
5977
  0
DICTIONARY
  5
59FF
330
59F0
100
AcDbDictionary
280
     1
281
     1
  3
ACAD_DIMASSOC
360
5A0B
  0
DICTIONARY
  5
5A1B
330
5A0C
100
AcDbDictionary
280
     1
281
     1
  3
ACAD_DIMASSOC
360
5A27
  0
DICTIONARY
  5
5A35
330
5A28
100
AcDbDictionary
280
     1
281
     1
  3
ACAD_DIMASSOC
360
5A3F
  0
DICTIONARY
  5
5A4D
330
5A40
100
AcDbDictionary
280
     1
281
     1
  3
ACAD_DIMASSOC
360
5A57
  0
DICTIONARY
  5
5A65
330
5A58
100
AcDbDictionary
280
     1
281
     1
  3
ACAD_DIMASSOC
360
5A6F
  0
DICTIONARY
  5
5A7D
330
5A70
100
AcDbDictionary
280
     1
281
     1
  3
ACAD_DIMASSOC
360
5A87
  0
DICTIONARY
  5
6C36
330
6C27
100
AcDbDictionary
280
     1
281
     1
  3
ACAD_DIMASSOC
360
6C37
  0
DICTIONARY
  5
6CC1
330
6CB3
100
AcDbDictionary
280
     1
281
     1
  3
ACAD_DIMASSOC
360
6CC2
  0
DICTIONARY
  5
6CEE
330
6CE1
100
AcDbDictionary
280
     1
281
     1
  3
ACAD_DIMASSOC
360
6CEF
  0
DICTIONARY
  5
C5
102
{ACAD_REACTORS
330
C
102
}
330
C
100
AcDbDictionary
281
     1
  0
DICTIONARY
  5
D
102
{ACAD_REACTORS
330
C
102
}
330
C
100
AcDbDictionary
281
     1
  0
DICTIONARY
  5
1A
102
{ACAD_REACTORS
330
C
102
}
330
C
100
AcDbDictionary
281
     1
  3
Model
350
22
  3
レイアウト1
350
1E
  3
レイアウト2
350
26
  0
DICTIONARY
  5
C4
102
{ACAD_REACTORS
330
C
102
}
330
C
100
AcDbDictionary
281
     1
  3
ByBlock
350
27D
  3
ByLayer
350
27C
  3
Global
350
27E
  0
DICTIONARY
  5
2D5
102
{ACAD_REACTORS
330
C
102
}
330
C
100
AcDbDictionary
281
     1
  3
Standard
350
2D6
  0
DICTIONARY
  5
17
102
{ACAD_REACTORS
330
C
102
}
330
C
100
AcDbDictionary
281
     1
  3
Standard
350
18
  0
DICTIONARY
  5
19
102
{ACAD_REACTORS
330
C
102
}
330
C
100
AcDbDictionary
281
     1
  3
SEISA基本
350
1C7E
  0
ACDBDICTIONARYWDFLT
  5
E
102
{ACAD_REACTORS
330
C
102
}
330
C
100
AcDbDictionary
281
     1
  3
Normal
350
F
100
AcDbDictionaryWithDefault
340
F
  0
DICTIONARY
  5
2B3
102
{ACAD_REACTORS
330
C
102
}
330
C
100
AcDbDictionary
281
     1
  3
*A1
350
2A04
  3
*A2
350
6B18
  3
*A3
350
6B19
  3
*A4
350
6B1A
  3
A0
350
2B4
  3
A1
350
2B5
  3
A2
350
2B6
  3
A3
350
2B7
  3
A4
350
2B8
  3
A5
350
2B9
  3
A6
350
2BA
  3
A7
350
2BB
  3
A8
350
2BC
  3
A9
350
2BD
  3
B0
350
2BE
  3
B1
350
2BF
  3
B2
350
2C0
  3
B3
350
2C1
  3
B4
350
2C2
  3
B5
350
2C3
  3
B6
350
2C4
  3
B7
350
2C5
  3
B8
350
2C6
  3
B9
350
2C7
  3
C0
350
2C8
  3
C1
350
2C9
  3
C2
350
2CA
  3
C3
350
2CB
  3
C4
350
2CC
  3
C5
350
2CD
  3
C6
350
2CE
  3
C7
350
2CF
  3
C8
350
2D0
  3
C9
350
2D1
  3
D0
350
2D2
  3
D1
350
2D3
  3
D2
350
2D4
  0
DICTIONARY
  5
121
102
{ACAD_REACTORS
330
C
102
}
330
C
100
AcDbDictionary
281
     1
  3
Standard
350
122
  0
DICTIONARY
  5
27F
102
{ACAD_REACTORS
330
C
102
}
330
C
100
AcDbDictionary
281
     1
  3
2dWireframe
350
285
  3
3D Hidden
350
287
  3
3dWireframe
350
286
  3
Basic
350
284
  3
Brighten
350
28B
  3
ColorChange
350
28F
  3
Conceptual
350
288
  3
Dim
350
28A
  3
Facepattern
350
28E
  3
Flat
350
280
  3
FlatWithEdges
350
281
  3
Gouraud
350
282
  3
GouraudWithEdges
350
283
  3
Linepattern
350
28D
  3
Realistic
350
289
  3
Thicken
350
28C
  0
XRECORD
  5
2F7
102
{ACAD_REACTORS
330
C
102
}
330
C
100
AcDbXrecord
280
     1
 90
        1
330
122
  0
DICTIONARY
  5
34
102
{ACAD_REACTORS
330
C
102
}
330
C
100
AcDbDictionary
281
     1
  3
CANNOSCALE
350
2FA
  3
CMLEADERSTYLE
350
2F8
  3
CTABLESTYLE
350
140
  3
DIMASSOC
350
AC
  3
INDEXCTL
350
35
  3
LAYEREVAL
350
65B3
  3
LAYERNOTIFY
350
65B4
  3
LIGHTINGUNITS
350
2FB
  3
MSLTSCALE
350
2F9
  0
DICTIONARY
  5
49
102
{ACAD_REACTORS
330
C
102
}
330
C
100
AcDbDictionary
281
     1
  3
AcmBOM
350
161B
  3
AcmStdDictionary
350
4A
  3
AMDTSECTSYM_ARROWCOLOR
350
12B
  0
DICTIONARY
  5
2B
102
{ACAD_REACTORS
330
C
102
}
330
C
100
AcDbDictionary
281
     1
  0
DICTIONARY
  5
1DE
102
{ACAD_REACTORS
330
C
102
}
330
C
100
AcDbDictionary
281
     1
  0
DICTIONARY
  5
6B1B
102
{ACAD_REACTORS
330
BF
102
}
330
BF
100
AcDbDictionary
281
     1
  0
DICTIONARY
  5
C0
102
{ACAD_REACTORS
330
BF
102
}
330
BF
100
AcDbDictionary
280
     1
281
     1
  0
XRECORD
  5
29F8
102
{ACAD_REACTORS
330
29F7
102
}
330
29F7
100
AcDbXrecord
280
     1
290
     1
  0
XRECORD
  5
29FA
102
{ACAD_REACTORS
330
29F9
102
}
330
29F9
100
AcDbXrecord
280
     1
290
     1
  0
SORTENTSTABLE
  5
A41
102
{ACAD_REACTORS
330
82
102
}
330
82
100
AcDbSortentsTable
330
1F
331
5930
  5
5930
331
588B
  5
588B
331
4F3E
  5
521A
331
4C2C
  5
5204
331
4C0C
  5
515D
331
515D
  5
5222
331
5948
  5
5948
331
5960
  5
5960
331
59F0
  5
59F0
331
5056
  5
521D
331
57E0
  5
57E0
331
5A28
  5
5A28
331
6B24
  5
6B24
331
4C2B
  5
51FF
331
5A40
  5
5A40
331
580B
  5
580B
331
4E67
  5
520F
331
5855
  5
5855
331
5A58
  5
5A58
331
5823
  5
5823
331
5A70
  5
5A70
331
444D
  5
444D
331
5A0C
  5
5A0C
  0
SORTENTSTABLE
  5
6007
102
{ACAD_REACTORS
330
4B49
102
}
330
4B49
100
AcDbSortentsTable
330
4B1C
  0
SORTENTSTABLE
  5
6146
102
{ACAD_REACTORS
330
4CA0
102
}
330
4CA0
100
AcDbSortentsTable
330
4BC6
331
4BE9
  5
4BEB
331
4BF5
  5
4BF7
331
4C06
  5
4C0A
331
4BEF
  5
4BF1
331
4BFB
  5
4BFD
331
4BE4
  5
4BE6
331
4BF0
  5
4BF2
331
4C01
  5
4C03
331
4C09
  5
4C9D
331
4BEA
  5
4BEC
331
4BF6
  5
4BF8
331
4BFC
  5
4BFE
331
4BE5
  5
4BE7
331
4C9D
  5
4BE0
331
4BF1
  5
4BF3
331
4C0A
  5
4C9E
331
4C02
  5
4C05
331
4BEB
  5
4BED
331
4BF7
  5
4BF9
331
4BE0
  5
4BE2
331
4BFD
  5
4BFF
331
4C9E
  5
4BE1
331
4BE6
  5
4BE8
331
4BF2
  5
4BF4
331
4C0B
  5
4C9F
331
4C03
  5
4C06
331
4BEC
  5
4BEE
331
4BF8
  5
4BFA
331
4BE1
  5
4BE3
331
4BFE
  5
4C00
331
4BE7
  5
4BE9
331
4C9F
  5
4C08
331
4BF3
  5
4BF5
331
4BED
  5
4BEF
331
4BF9
  5
4BFB
331
4BE2
  5
4BE4
331
4BFF
  5
4C01
331
4BE8
  5
4BEA
331
4BF4
  5
4BF6
331
4C05
  5
4C09
331
4BEE
  5
4BF0
331
4BFA
  5
4BFC
331
4BE3
  5
4BE5
331
4C08
  5
4C0B
331
4C00
  5
4C02
  0
SORTENTSTABLE
  5
6B93
102
{ACAD_REACTORS
330
4DA4
102
}
330
4DA4
100
AcDbSortentsTable
330
4D09
331
4D9F
  5
4D2E
331
4D2E
  5
4D2F
331
4D35
  5
4D9E
331
4D33
  5
4D34
331
4D31
  5
4D32
331
4D2F
  5
4D30
331
4D9E
  5
4D9F
331
4D34
  5
4D35
331
4D32
  5
4D33
331
4D30
  5
4D31
  0
SORTENTSTABLE
  5
6665
102
{ACAD_REACTORS
330
4FA1
102
}
330
4FA1
100
AcDbSortentsTable
330
4F10
331
4F29
  5
4F2A
331
4F2C
  5
4F2D
331
4F17
  5
4F18
331
6635
  5
4F13
331
4F32
  5
4F33
331
4F2F
  5
4F30
331
4F14
  5
4F15
331
4F1D
  5
4F1E
331
4F1A
  5
4F1B
331
4F38
  5
4F39
331
4F9E
  5
4F9F
331
4F20
  5
4F21
331
4F35
  5
4F36
331
4F23
  5
4F24
331
4F26
  5
4F27
331
4F3B
  5
4F3C
331
4F13
  5
4F14
331
4F2B
  5
4F2C
331
4F2E
  5
4F2F
331
4F34
  5
4F35
331
4F31
  5
4F32
331
4F16
  5
4F17
331
4F19
  5
4F1A
331
4F9D
  5
4F9E
331
4F1F
  5
4F20
331
4F3A
  5
4F3B
331
4F1C
  5
4F1D
331
4F3D
  5
4F9D
331
4F25
  5
4F26
331
4F22
  5
4F23
331
4F37
  5
4F38
331
4F28
  5
4F29
331
4F2A
  5
4F2B
331
4F15
  5
4F16
331
4F30
  5
4F31
331
4F2D
  5
4F2E
331
4FA0
  5
6635
331
4F36
  5
4F37
331
4F1B
  5
4F1C
331
4F18
  5
4F19
331
4F9F
  5
4FA0
331
4F1E
  5
4F1F
331
4F33
  5
4F34
331
4F21
  5
4F22
331
4F3C
  5
4F3D
331
4F27
  5
4F28
331
4F24
  5
4F25
331
4F39
  5
4F3A
  0
SORTENTSTABLE
  5
6EA4
102
{ACAD_REACTORS
330
50C8
102
}
330
50C8
100
AcDbSortentsTable
330
501E
  0
SORTENTSTABLE
  5
6D99
102
{ACAD_REACTORS
330
51C4
102
}
330
51C4
100
AcDbSortentsTable
330
512D
331
513D
  5
513F
331
5138
  5
513A
331
514C
  5
514E
331
5147
  5
5149
331
5142
  5
5144
331
5156
  5
5158
331
5133
  5
5135
331
5158
  5
515A
331
5139
  5
513B
331
5148
  5
514A
331
6CB0
  5
5133
331
5143
  5
5145
331
5134
  5
5136
331
5159
  5
515B
331
514D
  5
514F
331
513E
  5
5140
331
5157
  5
5159
331
513F
  5
5141
331
513A
  5
513C
331
514E
  5
5153
331
5149
  5
514B
331
6CB1
  5
5131
331
5144
  5
5146
331
5153
  5
5157
331
5135
  5
5137
331
515A
  5
515C
331
513B
  5
513D
331
514A
  5
514C
331
5145
  5
5147
331
514F
  5
5156
331
5140
  5
5142
331
515B
  5
6CB0
331
5136
  5
5138
331
5131
  5
5134
331
5141
  5
5143
331
513C
  5
513E
331
515C
  5
6CB1
331
5137
  5
5139
331
514B
  5
514D
331
5146
  5
5148
  0
DIMASSOC
  5
57F7
102
{ACAD_REACTORS
330
57ED
102
}
330
57ED
100
AcDbDimAssoc
330
57E0
 90
        3
 70
     0
 71
     0
  1
AcDbOsnapPointRef
 72
    13
331
4E67
331
4D12
 73
     2
 91
        0
 40
1.570796326794896
 10
0.0
 20
0.0
 30
2.000000000000000E+50
 75
     0
  1
AcDbOsnapPointRef
 72
     1
331
4E67
331
4D13
 73
     2
 91
        0
 40
4.712388980384688
 10
0.0
 20
0.0
 30
2.000000000000000E+50
 75
     0
  0
DIMASSOC
  5
5822
102
{ACAD_REACTORS
330
5818
102
}
330
5818
100
AcDbDimAssoc
330
580B
 90
        3
 70
     0
 71
     0
  1
AcDbOsnapPointRef
 72
     1
331
4E67
331
4D15
 73
     2
 91
        0
 40
1.0
 10
0.0
 20
0.0
 30
2.000000000000000E+50
 75
     0
  1
AcDbOsnapPointRef
 72
     2
331
4E67
331
4D14
 73
     2
 91
        0
 40
0.5
 10
0.0
 20
0.0
 30
0.0
 75
     0
  0
DIMASSOC
  5
583E
102
{ACAD_REACTORS
330
5832
102
}
330
5832
100
AcDbDimAssoc
330
5823
 90
        3
 70
     0
 71
     0
  1
AcDbOsnapPointRef
 72
     1
331
515D
331
5133
 73
     2
 91
        0
 40
1.0
 10
0.0
 20
0.0
 30
2.000000000000000E+50
 75
     0
  1
AcDbOsnapPointRef
 72
     8
331
4E67
331
4D15
 73
     2
 91
        0
 40
1.0
 10
0.0
 20
0.0
 30
0.0
 75
     1
  1
AcDbOsnapPointRef
 72
     1
331
515D
331
5133
 73
     2
 91
        0
 40
1.0
 10
0.0
 20
0.0
 30
2.000000000000000E+50
 75
     0
  0
DIMASSOC
  5
586C
102
{ACAD_REACTORS
330
5862
102
}
330
5862
100
AcDbDimAssoc
330
5855
 90
        3
 70
     0
 71
     0
  1
AcDbOsnapPointRef
 72
     2
331
515D
331
513B
 73
     2
 91
        0
 40
0.5
 10
0.0
 20
0.0
 30
0.0
 75
     0
  1
AcDbOsnapPointRef
 72
     1
331
515D
331
5133
 73
     2
 91
        0
 40
1.0
 10
0.0
 20
0.0
 30
2.000000000000000E+50
 75
     0
  0
DIMASSOC
  5
58A6
102
{ACAD_REACTORS
330
589A
102
}
330
589A
100
AcDbDimAssoc
330
588B
 90
        3
 70
     0
 71
     0
  1
AcDbOsnapPointRef
 72
     1
331
5056
331
5034
 73
     2
 91
        0
 40
1.0
 10
0.0
 20
0.0
 30
2.000000000000000E+50
 75
     0
  1
AcDbOsnapPointRef
 72
    13
331
515D
331
514C
 73
     2
 91
        0
 40
0.0
 10
0.0
 20
0.0
 30
2.000000000000000E+50
 75
     0
  0
DIMASSOC
  5
5947
102
{ACAD_REACTORS
330
593D
102
}
330
593D
100
AcDbDimAssoc
330
5930
 90
        3
 70
     0
 71
     0
  1
AcDbOsnapPointRef
 72
    13
331
515D
331
514A
 73
     2
 91
        0
 40
0.0
 10
0.0
 20
0.0
 30
2.000000000000000E+50
 75
     0
  1
AcDbOsnapPointRef
 72
    13
331
515D
331
513D
 73
     2
 91
        0
 40
0.0
 10
0.0
 20
0.0
 30
2.000000000000000E+50
 75
     0
  0
DIMASSOC
  5
595F
102
{ACAD_REACTORS
330
5955
102
}
330
5955
100
AcDbDimAssoc
330
5948
 90
        3
 70
     0
 71
     0
  1
AcDbOsnapPointRef
 72
    13
331
5056
331
5029
 73
     2
 91
        0
 40
0.0
 10
0.0
 20
0.0
 30
2.000000000000000E+50
 75
     0
  1
AcDbOsnapPointRef
 72
    13
331
5056
331
5022
 73
     2
 91
        0
 40
0.0
 10
0.0
 20
0.0
 30
2.000000000000000E+50
 75
     0
  0
DIMASSOC
  5
5977
102
{ACAD_REACTORS
330
596D
102
}
330
596D
100
AcDbDimAssoc
330
5960
 90
        3
 70
     0
 71
     0
  1
AcDbOsnapPointRef
 72
     1
331
4C0C
331
4BDD
 73
     2
 91
        0
 40
1.0
 10
0.0
 20
0.0
 30
2.000000000000000E+50
 75
     0
  1
AcDbOsnapPointRef
 72
     8
331
4C0C
331
4BD0
 73
     2
 91
        0
 40
0.9999999999999918
 10
0.0
 20
0.0
 30
0.0
 75
     1
  1
AcDbOsnapPointRef
 72
     1
331
4C0C
331
4BDD
 73
     2
 91
        0
 40
1.0
 10
0.0
 20
0.0
 30
2.000000000000000E+50
 75
     0
  0
DIMASSOC
  5
5A0B
102
{ACAD_REACTORS
330
59FF
102
}
330
59FF
100
AcDbDimAssoc
330
59F0
 90
        3
 70
     0
 71
     0
  1
AcDbOsnapPointRef
 72
     1
331
4C0C
331
4BCF
 73
     2
 91
        0
 40
1.0
 10
0.0
 20
0.0
 30
2.000000000000000E+50
 75
     0
  1
AcDbOsnapPointRef
 72
    13
331
4E67
331
4D0C
 73
     2
 91
        0
 40
0.0
 10
0.0
 20
0.0
 30
2.000000000000000E+50
 75
     0
  0
DIMASSOC
  5
5A27
102
{ACAD_REACTORS
330
5A1B
102
}
330
5A1B
100
AcDbDimAssoc
330
5A0C
 90
        3
 70
     0
 71
     0
  1
AcDbOsnapPointRef
 72
     1
331
4C0C
331
4BCF
 73
     2
 91
        0
 40
1.0
 10
0.0
 20
0.0
 30
2.000000000000000E+50
 75
     0
  1
AcDbOsnapPointRef
 72
    13
331
4C0C
331
4BCE
 73
     2
 91
        0
 40
0.0
 10
0.0
 20
0.0
 30
2.000000000000000E+50
 75
     0
  0
DIMASSOC
  5
5A3F
102
{ACAD_REACTORS
330
5A35
102
}
330
5A35
100
AcDbDimAssoc
330
5A28
 90
        3
 70
     0
 71
     0
  1
AcDbOsnapPointRef
 72
     1
331
4C0C
331
4BCF
 73
     2
 91
        0
 40
1.0
 10
0.0
 20
0.0
 30
2.000000000000000E+50
 75
     0
  1
AcDbOsnapPointRef
 72
    13
331
4E67
331
4D13
 73
     2
 91
        0
 40
3.141592653589792
 10
0.0
 20
0.0
 30
2.000000000000000E+50
 75
     0
  0
DIMASSOC
  5
5A57
102
{ACAD_REACTORS
330
5A4D
102
}
330
5A4D
100
AcDbDimAssoc
330
5A40
 90
        3
 70
     0
 71
     0
  1
AcDbOsnapPointRef
 72
     1
331
4C0C
331
4BCF
 73
     2
 91
        0
 40
1.0
 10
0.0
 20
0.0
 30
2.000000000000000E+50
 75
     0
  1
AcDbOsnapPointRef
 72
    13
331
5056
331
5022
 73
     2
 91
        0
 40
0.0
 10
0.0
 20
0.0
 30
2.000000000000000E+50
 75
     0
  0
DIMASSOC
  5
5A6F
102
{ACAD_REACTORS
330
5A65
102
}
330
5A65
100
AcDbDimAssoc
330
5A58
 90
        3
 70
     0
 71
     0
  1
AcDbOsnapPointRef
 72
    13
331
5056
331
5022
 73
     2
 91
        0
 40
0.0
 10
0.0
 20
0.0
 30
2.000000000000000E+50
 75
     0
  1
AcDbOsnapPointRef
 72
    13
331
515D
331
513B
 73
     2
 91
        0
 40
0.0
 10
0.0
 20
0.0
 30
2.000000000000000E+50
 75
     0
  0
DIMASSOC
  5
5A87
102
{ACAD_REACTORS
330
5A7D
102
}
330
5A7D
100
AcDbDimAssoc
330
5A70
 90
        3
 70
     0
 71
     0
  1
AcDbOsnapPointRef
 72
    13
331
4E67
331
4D13
 73
     2
 91
        0
 40
3.141592653589792
 10
0.0
 20
0.0
 30
2.000000000000000E+50
 75
     0
  1
AcDbOsnapPointRef
 72
    13
331
515D
331
513B
 73
     2
 91
        0
 40
0.0
 10
0.0
 20
0.0
 30
2.000000000000000E+50
 75
     0
  0
DIMASSOC
  5
6C37
102
{ACAD_REACTORS
330
6C36
102
}
330
6C36
100
AcDbDimAssoc
330
6C27
 90
        1
 70
     0
 71
     0
  1
AcDbOsnapPointRef
 72
     1
331
515D
331
513B
 73
     0
 91
        0
 40
0.0
 10
0.0
 20
0.0
 30
2.000000000000000E+50
 75
     0
  0
DIMASSOC
  5
6CC2
102
{ACAD_REACTORS
330
6CC1
102
}
330
6CC1
100
AcDbDimAssoc
330
6CB3
 90
        1
 70
     0
 71
     0
  1
AcDbOsnapPointRef
 72
    13
331
515D
331
5134
 73
     0
 91
        0
 40
0.0
 10
0.0
 20
0.0
 30
2.000000000000000E+50
 75
     0
  0
DIMASSOC
  5
6CEF
102
{ACAD_REACTORS
330
6CEE
102
}
330
6CEE
100
AcDbDimAssoc
330
6CE1
 90
        1
 70
     0
 71
     0
  1
AcDbOsnapPointRef
 72
     1
331
515D
331
5138
 73
     0
 91
        0
 40
0.0
 10
0.0
 20
0.0
 30
2.000000000000000E+50
 75
     0
  0
LAYOUT
  5
22
102
{ACAD_REACTORS
330
1A
102
}
330
1A
100
AcDbPlotSettings
  1

  2
KONICA MINOLTA 501 PCL
  4
A4
  6

 40
5.027082920074462
 41
5.027085781097412
 42
5.027069091796875
 43
5.027069091796875
 44
209.9733276367186
 45
296.9259948730469
 46
6.78715856351414
 47
0.0
 48
0.0
 49
0.0
140
0.0
141
0.0
142
1.0
143
10.22888678692569
 70
 11956
 72
     1
 73
     1
 74
     1
  7
SEISA.ctb
 75
     0
147
0.097762349005385
 76
     0
 77
     2
 78
   300
148
-1927.221699470921
149
-2230.559024247353
100
AcDbLayout
  1
Model
 70
     1
 71
     0
 10
0.0
 20
0.0
 11
12.0
 21
9.0
 12
0.0
 22
0.0
 32
0.0
 14
0.0
 24
0.0
 34
0.0
 15
0.0
 25
0.0
 35
0.0
146
0.0
 13
0.0
 23
0.0
 33
0.0
 16
1.0
 26
0.0
 36
0.0
 17
0.0
 27
1.0
 37
0.0
 76
     0
330
1F
331
27A
1001
ACAD_PSEXT
1000
KONICA MINOLTA 501 PCL
1000
KONICA MINOLTA 501/421/361PCL
1000
IP_192.168.20.231_(1)
1000

1070
     0
  0
LAYOUT
  5
1E
102
{ACAD_REACTORS
330
1A
102
}
330
1A
100
AcDbPlotSettings
  1

  2
none_device
  4
Letter_(8.50_x_11.00_Inches)
  6

 40
6.349999904632567
 41
6.349999904632567
 42
6.350006103515625
 43
6.350006103515625
 44
215.8999938964844
 45
279.3999938964844
 46
0.0
 47
0.0
 48
0.0
 49
0.0
140
0.0
141
0.0
142
1.0
143
1.0
 70
 15024
 72
     1
 73
     1
 74
     5
  7
SEISA.ctb
 75
    16
147
1.0
 76
     0
 77
     2
 78
   300
148
0.0
149
0.0
100
AcDbLayout
  1
レイアウト1
 70
     1
 71
     1
 10
0.0
 20
0.0
 11
420.0
 21
297.0
 12
0.0
 22
0.0
 32
0.0
 14
1.000000000000000E+20
 24
1.000000000000000E+20
 34
1.000000000000000E+20
 15
-1.000000000000000E+20
 25
-1.000000000000000E+20
 35
-1.000000000000000E+20
146
0.0
 13
0.0
 23
0.0
 33
0.0
 16
1.0
 26
0.0
 36
0.0
 17
0.0
 27
1.0
 37
0.0
 76
     0
330
1B
  0
LAYOUT
  5
26
102
{ACAD_REACTORS
330
1A
102
}
330
1A
100
AcDbPlotSettings
  1

  2
none_device
  4
Letter_(8.50_x_11.00_Inches)
  6

 40
6.349999904632567
 41
6.349999904632567
 42
6.350006103515625
 43
6.350006103515625
 44
215.8999938964844
 45
279.3999938964844
 46
0.0
 47
0.0
 48
0.0
 49
0.0
140
0.0
141
0.0
142
1.0
143
1.0
 70
 15024
 72
     1
 73
     1
 74
     5
  7
SEISA.ctb
 75
    16
147
1.0
 76
     0
 77
     2
 78
   300
148
0.0
149
0.0
100
AcDbLayout
  1
レイアウト2
 70
     1
 71
     2
 10
0.0
 20
0.0
 11
12.0
 21
9.0
 12
0.0
 22
0.0
 32
0.0
 14
0.0
 24
0.0
 34
0.0
 15
0.0
 25
0.0
 35
0.0
146
0.0
 13
0.0
 23
0.0
 33
0.0
 16
1.0
 26
0.0
 36
0.0
 17
0.0
 27
1.0
 37
0.0
 76
     0
330
23
  0
MATERIAL
  5
27D
102
{ACAD_REACTORS
330
C4
102
}
330
C4
100
AcDbMaterial
  1
ByBlock
 73
     1
 78
     1
172
     1
176
     1
270
     1
274
     1
 94
       63
  0
MATERIAL
  5
27C
102
{ACAD_REACTORS
330
C4
102
}
330
C4
100
AcDbMaterial
  1
ByLayer
 73
     1
 78
     1
172
     1
176
     1
270
     1
274
     1
 94
       63
  0
MATERIAL
  5
27E
102
{ACAD_REACTORS
330
C4
102
}
330
C4
100
AcDbMaterial
  1
Global
 73
     1
 78
     1
172
     1
176
     1
270
     1
274
     1
 94
       63
  0
MLEADERSTYLE
  5
2D6
102
{ACAD_REACTORS
330
2D5
102
}
330
2D5
100
AcDbMLeaderStyle
170
     2
171
     1
172
     0
 90
        2
 40
0.0
 41
0.0
173
     1
 91
-1056964608
340
14
 92
       -2
290
     1
 42
2.0
291
     1
 43
0.36
  3
Standard
 44
4.0
300

342
11
174
     1
178
     6
175
     1
176
     0
 93
-1056964608
 45
4.0
292
     0
297
     0
 46
4.0
 94
-1056964608
 47
1.0
 49
1.0
140
1.0
293
     1
141
0.0
294
     1
177
     0
142
1.0
295
     0
296
     0
143
0.125
1001
ACAD_MLEADERVER
1070
     2
  0
MLINESTYLE
  5
18
102
{ACAD_REACTORS
330
17
102
}
330
17
100
AcDbMlineStyle
  2
STANDARD
 70
     0
  3

 62
   256
 51
90.0
 52
90.0
 71
     2
 49
0.5
 62
   256
  6
BYLAYER
 49
-0.5
 62
   256
  6
BYLAYER
  0
PLOTSETTINGS
  5
1C7E
102
{ACAD_REACTORS
330
19
102
}
330
19
100
AcDbPlotSettings
  1
SEISA基本
  2
none_device
  4
Letter_(8.50_x_11.00_Inches)
  6

 40
6.349999904632567
 41
6.349999904632567
 42
6.350006103515625
 43
6.350006103515625
 44
215.8999938964844
 45
279.3999938964844
 46
7.302498226506357
 47
0.0
 48
0.0
 49
0.0
140
0.0
141
0.0
142
1.0
143
1.574803221122935
 70
 11956
 72
     1
 73
     1
 74
     2
  7
SEISA.ctb
 75
     0
147
0.6349999711627054
 76
     0
 77
     2
 78
   300
148
0.0
149
0.0
1001
ACAD_PSEXT
1000
なし
1000
なし
1000
適切ではありません
1000
新しいプロッタ環境設定名を選択しない限り、レイアウトは印刷されません。
1070
     0
  0
ACDBPLACEHOLDER
  5
F
102
{ACAD_REACTORS
330
E
102
}
330
E
  0
SCALE
  5
2A04
102
{ACAD_REACTORS
330
2B3
102
}
330
2B3
100
AcDbScale
 70
     0
300
1:15
140
1.0
141
15.0
290
     0
  0
SCALE
  5
6B18
102
{ACAD_REACTORS
330
2B3
102
}
330
2B3
100
AcDbScale
 70
     0
300
1:3
140
1.0
141
3.0
290
     0
  0
SCALE
  5
6B19
102
{ACAD_REACTORS
330
2B3
102
}
330
2B3
100
AcDbScale
 70
     0
300
1:2.5
140
1.0
141
2.5
290
     0
  0
SCALE
  5
6B1A
102
{ACAD_REACTORS
330
2B3
102
}
330
2B3
100
AcDbScale
 70
     0
300
1:1.5
140
1.0
141
1.5
290
     0
  0
SCALE
  5
2B4
102
{ACAD_REACTORS
330
2B3
102
}
330
2B3
100
AcDbScale
 70
     0
300
1:1
140
1.0
141
1.0
290
     1
  0
SCALE
  5
2B5
102
{ACAD_REACTORS
330
2B3
102
}
330
2B3
100
AcDbScale
 70
     0
300
1:2
140
1.0
141
2.0
290
     0
  0
SCALE
  5
2B6
102
{ACAD_REACTORS
330
2B3
102
}
330
2B3
100
AcDbScale
 70
     0
300
1:4
140
1.0
141
4.0
290
     0
  0
SCALE
  5
2B7
102
{ACAD_REACTORS
330
2B3
102
}
330
2B3
100
AcDbScale
 70
     0
300
1:5
140
1.0
141
5.0
290
     0
  0
SCALE
  5
2B8
102
{ACAD_REACTORS
330
2B3
102
}
330
2B3
100
AcDbScale
 70
     0
300
1:8
140
1.0
141
8.0
290
     0
  0
SCALE
  5
2B9
102
{ACAD_REACTORS
330
2B3
102
}
330
2B3
100
AcDbScale
 70
     0
300
1:10
140
1.0
141
10.0
290
     0
  0
SCALE
  5
2BA
102
{ACAD_REACTORS
330
2B3
102
}
330
2B3
100
AcDbScale
 70
     0
300
1:16
140
1.0
141
16.0
290
     0
  0
SCALE
  5
2BB
102
{ACAD_REACTORS
330
2B3
102
}
330
2B3
100
AcDbScale
 70
     0
300
1:20
140
1.0
141
20.0
290
     0
  0
SCALE
  5
2BC
102
{ACAD_REACTORS
330
2B3
102
}
330
2B3
100
AcDbScale
 70
     0
300
1:30
140
1.0
141
30.0
290
     0
  0
SCALE
  5
2BD
102
{ACAD_REACTORS
330
2B3
102
}
330
2B3
100
AcDbScale
 70
     0
300
1:40
140
1.0
141
40.0
290
     0
  0
SCALE
  5
2BE
102
{ACAD_REACTORS
330
2B3
102
}
330
2B3
100
AcDbScale
 70
     0
300
1:50
140
1.0
141
50.0
290
     0
  0
SCALE
  5
2BF
102
{ACAD_REACTORS
330
2B3
102
}
330
2B3
100
AcDbScale
 70
     0
300
1:100
140
1.0
141
100.0
290
     0
  0
SCALE
  5
2C0
102
{ACAD_REACTORS
330
2B3
102
}
330
2B3
100
AcDbScale
 70
     0
300
2:1
140
2.0
141
1.0
290
     0
  0
SCALE
  5
2C1
102
{ACAD_REACTORS
330
2B3
102
}
330
2B3
100
AcDbScale
 70
     0
300
4:1
140
4.0
141
1.0
290
     0
  0
SCALE
  5
2C2
102
{ACAD_REACTORS
330
2B3
102
}
330
2B3
100
AcDbScale
 70
     0
300
8:1
140
8.0
141
1.0
290
     0
  0
SCALE
  5
2C3
102
{ACAD_REACTORS
330
2B3
102
}
330
2B3
100
AcDbScale
 70
     0
300
10:1
140
10.0
141
1.0
290
     0
  0
SCALE
  5
2C4
102
{ACAD_REACTORS
330
2B3
102
}
330
2B3
100
AcDbScale
 70
     0
300
100:1
140
100.0
141
1.0
290
     0
  0
SCALE
  5
2C5
102
{ACAD_REACTORS
330
2B3
102
}
330
2B3
100
AcDbScale
 70
     0
300
1/128" = 1'-0"
140
0.0078125
141
12.0
290
     0
  0
SCALE
  5
2C6
102
{ACAD_REACTORS
330
2B3
102
}
330
2B3
100
AcDbScale
 70
     0
300
1/64" = 1'-0"
140
0.015625
141
12.0
290
     0
  0
SCALE
  5
2C7
102
{ACAD_REACTORS
330
2B3
102
}
330
2B3
100
AcDbScale
 70
     0
300
1/32" = 1'-0"
140
0.03125
141
12.0
290
     0
  0
SCALE
  5
2C8
102
{ACAD_REACTORS
330
2B3
102
}
330
2B3
100
AcDbScale
 70
     0
300
1/16" = 1'-0"
140
0.0625
141
12.0
290
     0
  0
SCALE
  5
2C9
102
{ACAD_REACTORS
330
2B3
102
}
330
2B3
100
AcDbScale
 70
     0
300
3/32" = 1'-0"
140
0.09375
141
12.0
290
     0
  0
SCALE
  5
2CA
102
{ACAD_REACTORS
330
2B3
102
}
330
2B3
100
AcDbScale
 70
     0
300
1/8" = 1'-0"
140
0.125
141
12.0
290
     0
  0
SCALE
  5
2CB
102
{ACAD_REACTORS
330
2B3
102
}
330
2B3
100
AcDbScale
 70
     0
300
3/16" = 1'-0"
140
0.1875
141
12.0
290
     0
  0
SCALE
  5
2CC
102
{ACAD_REACTORS
330
2B3
102
}
330
2B3
100
AcDbScale
 70
     0
300
1/4" = 1'-0"
140
0.25
141
12.0
290
     0
  0
SCALE
  5
2CD
102
{ACAD_REACTORS
330
2B3
102
}
330
2B3
100
AcDbScale
 70
     0
300
3/8" = 1'-0"
140
0.375
141
12.0
290
     0
  0
SCALE
  5
2CE
102
{ACAD_REACTORS
330
2B3
102
}
330
2B3
100
AcDbScale
 70
     0
300
1/2" = 1'-0"
140
0.5
141
12.0
290
     0
  0
SCALE
  5
2CF
102
{ACAD_REACTORS
330
2B3
102
}
330
2B3
100
AcDbScale
 70
     0
300
3/4" = 1'-0"
140
0.75
141
12.0
290
     0
  0
SCALE
  5
2D0
102
{ACAD_REACTORS
330
2B3
102
}
330
2B3
100
AcDbScale
 70
     0
300
1" = 1'-0"
140
1.0
141
12.0
290
     0
  0
SCALE
  5
2D1
102
{ACAD_REACTORS
330
2B3
102
}
330
2B3
100
AcDbScale
 70
     0
300
1-1/2" = 1'-0"
140
1.5
141
12.0
290
     0
  0
SCALE
  5
2D2
102
{ACAD_REACTORS
330
2B3
102
}
330
2B3
100
AcDbScale
 70
     0
300
3" = 1'-0"
140
3.0
141
12.0
290
     0
  0
SCALE
  5
2D3
102
{ACAD_REACTORS
330
2B3
102
}
330
2B3
100
AcDbScale
 70
     0
300
6" = 1'-0"
140
6.0
141
12.0
290
     0
  0
SCALE
  5
2D4
102
{ACAD_REACTORS
330
2B3
102
}
330
2B3
100
AcDbScale
 70
     0
300
1'-0" = 1'-0"
140
12.0
141
12.0
290
     0
  0
TABLESTYLE
  5
122
102
{ACAD_XDICTIONARY
360
2F5
102
}
102
{ACAD_REACTORS
330
121
102
}
330
121
100
AcDbTableStyle
  3
Standard
 70
     0
 71
     0
 40
1.5
 41
1.5
280
     0
281
     0
  7
STANDARD
140
4.5
170
     2
 62
     0
 63
     7
283
     0
 90
      512
 91
        0
  1

274
    -2
284
     1
 64
     0
275
    -2
285
     1
 65
     0
276
    -2
286
     1
 66
     0
277
    -2
287
     1
 67
     0
278
    -2
288
     1
 68
     0
279
    -2
289
     1
 69
     0
  7
STANDARD
140
6.0
170
     5
 62
     0
 63
     7
283
     0
 90
      512
 91
        0
  1

274
    -2
284
     1
 64
     0
275
    -2
285
     1
 65
     0
276
    -2
286
     1
 66
     0
277
    -2
287
     1
 67
     0
278
    -2
288
     1
 68
     0
279
    -2
289
     1
 69
     0
  7
STANDARD
140
4.5
170
     5
 62
     0
 63
     7
283
     0
 90
      512
 91
        0
  1

274
    -2
284
     1
 64
     0
275
    -2
285
     1
 65
     0
276
    -2
286
     1
 66
     0
277
    -2
287
     1
 67
     0
278
    -2
288
     1
 68
     0
279
    -2
289
     1
 69
     0
  0
VISUALSTYLE
  5
285
102
{ACAD_REACTORS
330
27F
102
}
330
27F
100
AcDbVisualStyle
  2
2dWireframe
 70
     4
 71
     0
 72
     2
 73
     0
 90
        0
 40
-0.6
 41
-30.0
 62
     5
 63
     7
421
 16777215
 74
     1
 91
        4
 64
     7
 65
   257
 75
     1
175
     1
 42
1.0
 92
        0
 66
   257
 43
1.0
 76
     1
 77
     6
 78
     2
 67
     7
 79
     5
170
     0
171
     0
290
     0
174
     0
 93
        1
 44
0.0
173
     0
291
     0
 45
0.0
  0
VISUALSTYLE
  5
287
102
{ACAD_REACTORS
330
27F
102
}
330
27F
100
AcDbVisualStyle
  2
3D Hidden
 70
     6
 71
     1
 72
     2
 73
     2
 90
        0
 40
-0.6
 41
-30.0
 62
     5
 63
     7
421
 16777215
 74
     2
 91
        2
 64
     7
 65
   257
 75
     2
175
     1
 42
40.0
 92
        0
 66
   257
 43
1.0
 76
     1
 77
     6
 78
     2
 67
     7
 79
     3
170
     0
171
     0
290
     0
174
     0
 93
        1
 44
0.0
173
     0
291
     0
 45
0.0
  0
VISUALSTYLE
  5
286
102
{ACAD_REACTORS
330
27F
102
}
330
27F
100
AcDbVisualStyle
  2
3dWireframe
 70
     5
 71
     0
 72
     2
 73
     0
 90
        0
 40
-0.6
 41
-30.0
 62
     5
 63
     7
421
 16777215
 74
     1
 91
        4
 64
     7
 65
   257
 75
     1
175
     1
 42
1.0
 92
        0
 66
   257
 43
1.0
 76
     1
 77
     6
 78
     2
 67
     7
 79
     5
170
     0
171
     0
290
     0
174
     0
 93
        1
 44
0.0
173
     0
291
     0
 45
0.0
  0
VISUALSTYLE
  5
284
102
{ACAD_REACTORS
330
27F
102
}
330
27F
100
AcDbVisualStyle
  2
Basic
 70
     7
 71
     1
 72
     0
 73
     1
 90
        0
 40
-0.6
 41
-30.0
 62
     5
 63
     7
421
 16777215
 74
     0
 91
        4
 64
     7
 65
   257
 75
     1
175
     1
 42
1.0
 92
        8
 66
     7
 43
1.0
 76
     1
 77
     6
 78
     2
 67
     7
 79
     5
170
     0
171
     0
290
     0
174
     0
 93
        1
 44
0.0
173
     0
291
     1
 45
0.0
  0
VISUALSTYLE
  5
28B
102
{ACAD_REACTORS
330
27F
102
}
330
27F
100
AcDbVisualStyle
  2
Brighten
 70
    12
 71
     2
 72
     2
 73
     0
 90
        0
 40
-0.6
 41
-30.0
 62
     5
 63
     7
421
 16777215
 74
     1
 91
        4
 64
     7
 65
   257
 75
     1
175
     1
 42
1.0
 92
        8
 66
     7
 43
1.0
 76
     1
 77
     6
 78
     2
 67
     7
 79
     5
170
     0
171
     0
290
     0
174
     0
 93
        1
 44
50.0
173
     0
291
     1
 45
0.0
  0
VISUALSTYLE
  5
28F
102
{ACAD_REACTORS
330
27F
102
}
330
27F
100
AcDbVisualStyle
  2
ColorChange
 70
    16
 71
     2
 72
     2
 73
     3
 90
        0
 40
-0.6
 41
-30.0
 62
     5
 63
     8
421
  8421504
 74
     1
 91
        4
 64
     7
 65
   257
 75
     1
175
     1
 42
1.0
 92
        8
 66
     8
424
  8421504
 43
1.0
 76
     1
 77
     6
 78
     2
 67
     7
 79
     5
170
     0
171
     0
290
     0
174
     0
 93
        1
 44
0.0
173
     0
291
     1
 45
0.0
  0
VISUALSTYLE
  5
288
102
{ACAD_REACTORS
330
27F
102
}
330
27F
100
AcDbVisualStyle
  2
Conceptual
 70
     9
 71
     3
 72
     2
 73
     0
 90
        0
 40
-0.6
 41
-30.0
 62
     5
 63
     7
421
 16777215
 74
     2
 91
        2
 64
     7
 65
   257
 75
     1
175
     1
 42
40.0
 92
        8
 66
     7
 43
1.0
 76
     1
 77
     6
 78
     2
 67
     7
 79
     3
170
     0
171
     0
290
     0
174
     0
 93
        1
 44
0.0
173
     0
291
     0
 45
0.0
  0
VISUALSTYLE
  5
28A
102
{ACAD_REACTORS
330
27F
102
}
330
27F
100
AcDbVisualStyle
  2
Dim
 70
    11
 71
     2
 72
     2
 73
     0
 90
        0
 40
-0.6
 41
-30.0
 62
     5
 63
     7
421
 16777215
 74
     1
 91
        4
 64
     7
 65
   257
 75
     1
175
     1
 42
1.0
 92
        8
 66
     7
 43
1.0
 76
     1
 77
     6
 78
     2
 67
     7
 79
     5
170
     0
171
     0
290
     0
174
     0
 93
        1
 44
-50.0
173
     0
291
     1
 45
0.0
  0
VISUALSTYLE
  5
28E
102
{ACAD_REACTORS
330
27F
102
}
330
27F
100
AcDbVisualStyle
  2
Facepattern
 70
    15
 71
     2
 72
     2
 73
     0
 90
        0
 40
-0.6
 41
-30.0
 62
     5
 63
     7
421
 16777215
 74
     1
 91
        4
 64
     7
 65
   257
 75
     1
175
     1
 42
1.0
 92
        8
 66
     7
 43
1.0
 76
     1
 77
     6
 78
     2
 67
     7
 79
     5
170
     0
171
     0
290
     0
174
     0
 93
        1
 44
0.0
173
     0
291
     1
 45
0.0
  0
VISUALSTYLE
  5
280
102
{ACAD_REACTORS
330
27F
102
}
330
27F
100
AcDbVisualStyle
  2
Flat
 70
     0
 71
     2
 72
     1
 73
     1
 90
        2
 40
-0.6
 41
30.0
 62
     5
 63
     7
421
 16777215
 74
     0
 91
        4
 64
     7
 65
   257
 75
     1
175
     1
 42
1.0
 92
        8
 66
     7
 43
1.0
 76
     1
 77
     6
 78
     2
 67
     7
 79
     5
170
     0
171
     0
290
     0
174
     0
 93
       13
 44
0.0
173
     0
291
     1
 45
0.0
  0
VISUALSTYLE
  5
281
102
{ACAD_REACTORS
330
27F
102
}
330
27F
100
AcDbVisualStyle
  2
FlatWithEdges
 70
     1
 71
     2
 72
     1
 73
     1
 90
        2
 40
-0.6
 41
30.0
 62
     5
 63
     7
421
 16777215
 74
     1
 91
        4
 64
     7
 65
   257
 75
     1
175
     1
 42
1.0
 92
        0
 66
   257
 43
1.0
 76
     1
 77
     6
 78
     2
 67
     7
 79
     5
170
     0
171
     0
290
     0
174
     0
 93
       13
 44
0.0
173
     0
291
     1
 45
0.0
  0
VISUALSTYLE
  5
282
102
{ACAD_REACTORS
330
27F
102
}
330
27F
100
AcDbVisualStyle
  2
Gouraud
 70
     2
 71
     2
 72
     2
 73
     1
 90
        2
 40
-0.6
 41
30.0
 62
     5
 63
     7
421
 16777215
 74
     0
 91
        4
 64
     7
 65
   257
 75
     1
175
     1
 42
1.0
 92
        0
 66
     7
 43
1.0
 76
     1
 77
     6
 78
     2
 67
     7
 79
     5
170
     0
171
     0
290
     0
174
     0
 93
       13
 44
0.0
173
     0
291
     1
 45
0.0
  0
VISUALSTYLE
  5
283
102
{ACAD_REACTORS
330
27F
102
}
330
27F
100
AcDbVisualStyle
  2
GouraudWithEdges
 70
     3
 71
     2
 72
     2
 73
     1
 90
        2
 40
-0.6
 41
30.0
 62
     5
 63
     7
421
 16777215
 74
     1
 91
        4
 64
     7
 65
   257
 75
     1
175
     1
 42
1.0
 92
        0
 66
   257
 43
1.0
 76
     1
 77
     6
 78
     2
 67
     7
 79
     5
170
     0
171
     0
290
     0
174
     0
 93
       13
 44
0.0
173
     0
291
     1
 45
0.0
  0
VISUALSTYLE
  5
28D
102
{ACAD_REACTORS
330
27F
102
}
330
27F
100
AcDbVisualStyle
  2
Linepattern
 70
    14
 71
     2
 72
     2
 73
     0
 90
        0
 40
-0.6
 41
-30.0
 62
     5
 63
     7
421
 16777215
 74
     1
 91
        4
 64
     7
 65
   257
 75
     7
175
     7
 42
1.0
 92
        8
 66
     7
 43
1.0
 76
     1
 77
     6
 78
     2
 67
     7
 79
     5
170
     0
171
     0
290
     0
174
     0
 93
        1
 44
0.0
173
     0
291
     1
 45
0.0
  0
VISUALSTYLE
  5
289
102
{ACAD_REACTORS
330
27F
102
}
330
27F
100
AcDbVisualStyle
  2
Realistic
 70
     8
 71
     2
 72
     2
 73
     0
 90
        0
 40
-0.6
 41
-30.0
 62
     5
 63
     7
421
 16777215
 74
     1
 91
        0
 64
     7
 65
   257
 75
     1
175
     1
 42
1.0
 92
        8
 66
     8
424
  7895160
 43
1.0
 76
     1
 77
     6
 78
     2
 67
     7
 79
     5
170
     0
171
     0
290
     0
174
     0
 93
       13
 44
0.0
173
     0
291
     0
 45
0.0
  0
VISUALSTYLE
  5
28C
102
{ACAD_REACTORS
330
27F
102
}
330
27F
100
AcDbVisualStyle
  2
Thicken
 70
    13
 71
     2
 72
     2
 73
     0
 90
        0
 40
-0.6
 41
-30.0
 62
     5
 63
     7
421
 16777215
 74
     1
 91
        4
 64
     7
 65
   257
 75
     1
175
     1
 42
1.0
 92
       12
 66
     7
 43
1.0
 76
     1
 77
     6
 78
     2
 67
     7
 79
     5
170
     0
171
     0
290
     0
174
     0
 93
        1
 44
0.0
173
     0
291
     1
 45
0.0
  0
DICTIONARYVAR
  5
2FA
102
{ACAD_REACTORS
330
34
102
}
330
34
100
DictionaryVariables
280
     0
  1
1:15
  0
DICTIONARYVAR
  5
2F8
102
{ACAD_REACTORS
330
34
102
}
330
34
100
DictionaryVariables
280
     0
  1
STANDARD
  0
DICTIONARYVAR
  5
140
102
{ACAD_REACTORS
330
34
102
}
330
34
100
DictionaryVariables
280
     0
  1
STANDARD
  0
DICTIONARYVAR
  5
AC
102
{ACAD_REACTORS
330
34
102
}
330
34
100
DictionaryVariables
280
     0
  1
1
  0
DICTIONARYVAR
  5
35
102
{ACAD_REACTORS
330
34
102
}
330
34
100
DictionaryVariables
280
     0
  1
1
  0
DICTIONARYVAR
  5
65B3
102
{ACAD_REACTORS
330
34
102
}
330
34
100
DictionaryVariables
280
     0
  1
1
  0
DICTIONARYVAR
  5
65B4
102
{ACAD_REACTORS
330
34
102
}
330
34
100
DictionaryVariables
280
     0
  1
15
  0
DICTIONARYVAR
  5
2FB
102
{ACAD_REACTORS
330
34
102
}
330
34
100
DictionaryVariables
280
     0
  1
0
  0
DICTIONARYVAR
  5
2F9
102
{ACAD_REACTORS
330
34
102
}
330
34
100
DictionaryVariables
280
     0
  1
0
  0
DICTIONARY
  5
161B
102
{ACAD_REACTORS
330
49
102
}
330
49
100
AcDbDictionary
281
     1
  0
DICTIONARY
  5
4A
102
{ACAD_REACTORS
330
49
102
}
330
49
100
AcDbDictionary
281
     1
  0
XRECORD
  5
12B
102
{ACAD_REACTORS
330
49
102
}
330
49
100
AcDbXrecord
280
     1
 90
-1023410169
  0
DICTIONARY
  5
2F5
330
122
100
AcDbDictionary
280
     1
281
     1
  3
ACAD_ROUNDTRIP_2008_TABLESTYLE_CELLSTYLEMAP
360
6F67
  0
CELLSTYLEMAP
  5
6F67
102
{ACAD_REACTORS
330
2F5
102
}
330
2F5
100
AcDbCellStyleMap
 90
        3
300
CELLSTYLE
  1
TABLEFORMAT_BEGIN
 90
        5
170
     1
 91
        0
 92
    32768
 62
   257
 93
        1
300
CONTENTFORMAT
  1
CONTENTFORMAT_BEGIN
 90
        0
 91
        0
 92
      512
 93
        0
300

 40
0.0
140
1.0
 94
        5
 62
     0
340
11
144
6.0
309
CONTENTFORMAT_END
171
     1
301
MARGIN
  1
CELLMARGIN_BEGIN
 40
1.5
 40
1.5
 40
1.5
 40
1.5
 40
0.18
 40
0.18
309
CELLMARGIN_END
 94
        6
 95
        1
302
GRIDFORMAT
  1
GRIDFORMAT_BEGIN
 90
        0
 91
        1
 62
     0
 92
       -2
340
0
 93
        0
 40
0.045
309
GRIDFORMAT_END
 95
        2
302
GRIDFORMAT
  1
GRIDFORMAT_BEGIN
 90
        0
 91
        1
 62
     0
 92
       -2
340
0
 93
        0
 40
0.045
309
GRIDFORMAT_END
 95
        4
302
GRIDFORMAT
  1
GRIDFORMAT_BEGIN
 90
        0
 91
        1
 62
     0
 92
       -2
340
0
 93
        0
 40
0.045
309
GRIDFORMAT_END
 95
        8
302
GRIDFORMAT
  1
GRIDFORMAT_BEGIN
 90
        0
 91
        1
 62
     0
 92
       -2
340
0
 93
        0
 40
0.045
309
GRIDFORMAT_END
 95
       16
302
GRIDFORMAT
  1
GRIDFORMAT_BEGIN
 90
        0
 91
        1
 62
     0
 92
       -2
340
0
 93
        0
 40
0.045
309
GRIDFORMAT_END
 95
       32
302
GRIDFORMAT
  1
GRIDFORMAT_BEGIN
 90
        0
 91
        1
 62
     0
 92
       -2
340
0
 93
        0
 40
0.045
309
GRIDFORMAT_END
309
TABLEFORMAT_END
  1
CELLSTYLE_BEGIN
 90
        1
 91
        1
300
_TITLE
309
CELLSTYLE_END
300
CELLSTYLE
  1
TABLEFORMAT_BEGIN
 90
        5
170
     1
 91
        0
 92
        0
 62
   257
 93
        1
300
CONTENTFORMAT
  1
CONTENTFORMAT_BEGIN
 90
        0
 91
        0
 92
      512
 93
        0
300

 40
0.0
140
1.0
 94
        5
 62
     0
340
11
144
4.5
309
CONTENTFORMAT_END
171
     1
301
MARGIN
  1
CELLMARGIN_BEGIN
 40
1.5
 40
1.5
 40
1.5
 40
1.5
 40
0.18
 40
0.18
309
CELLMARGIN_END
 94
        6
 95
        1
302
GRIDFORMAT
  1
GRIDFORMAT_BEGIN
 90
        0
 91
        1
 62
     0
 92
       -2
340
0
 93
        0
 40
0.045
309
GRIDFORMAT_END
 95
        2
302
GRIDFORMAT
  1
GRIDFORMAT_BEGIN
 90
        0
 91
        1
 62
     0
 92
       -2
340
0
 93
        0
 40
0.045
309
GRIDFORMAT_END
 95
        4
302
GRIDFORMAT
  1
GRIDFORMAT_BEGIN
 90
        0
 91
        1
 62
     0
 92
       -2
340
0
 93
        0
 40
0.045
309
GRIDFORMAT_END
 95
        8
302
GRIDFORMAT
  1
GRIDFORMAT_BEGIN
 90
        0
 91
        1
 62
     0
 92
       -2
340
0
 93
        0
 40
0.045
309
GRIDFORMAT_END
 95
       16
302
GRIDFORMAT
  1
GRIDFORMAT_BEGIN
 90
        0
 91
        1
 62
     0
 92
       -2
340
0
 93
        0
 40
0.045
309
GRIDFORMAT_END
 95
       32
302
GRIDFORMAT
  1
GRIDFORMAT_BEGIN
 90
        0
 91
        1
 62
     0
 92
       -2
340
0
 93
        0
 40
0.045
309
GRIDFORMAT_END
309
TABLEFORMAT_END
  1
CELLSTYLE_BEGIN
 90
        2
 91
        1
300
_HEADER
309
CELLSTYLE_END
300
CELLSTYLE
  1
TABLEFORMAT_BEGIN
 90
        5
170
     1
 91
        0
 92
        0
 62
   257
 93
        1
300
CONTENTFORMAT
  1
CONTENTFORMAT_BEGIN
 90
        0
 91
        0
 92
      512
 93
        0
300

 40
0.0
140
1.0
 94
        2
 62
     0
340
11
144
4.5
309
CONTENTFORMAT_END
171
     1
301
MARGIN
  1
CELLMARGIN_BEGIN
 40
1.5
 40
1.5
 40
1.5
 40
1.5
 40
0.18
 40
0.18
309
CELLMARGIN_END
 94
        6
 95
        1
302
GRIDFORMAT
  1
GRIDFORMAT_BEGIN
 90
        0
 91
        1
 62
     0
 92
       -2
340
0
 93
        0
 40
0.045
309
GRIDFORMAT_END
 95
        2
302
GRIDFORMAT
  1
GRIDFORMAT_BEGIN
 90
        0
 91
        1
 62
     0
 92
       -2
340
0
 93
        0
 40
0.045
309
GRIDFORMAT_END
 95
        4
302
GRIDFORMAT
  1
GRIDFORMAT_BEGIN
 90
        0
 91
        1
 62
     0
 92
       -2
340
0
 93
        0
 40
0.045
309
GRIDFORMAT_END
 95
        8
302
GRIDFORMAT
  1
GRIDFORMAT_BEGIN
 90
        0
 91
        1
 62
     0
 92
       -2
340
0
 93
        0
 40
0.045
309
GRIDFORMAT_END
 95
       16
302
GRIDFORMAT
  1
GRIDFORMAT_BEGIN
 90
        0
 91
        1
 62
     0
 92
       -2
340
0
 93
        0
 40
0.045
309
GRIDFORMAT_END
 95
       32
302
GRIDFORMAT
  1
GRIDFORMAT_BEGIN
 90
        0
 91
        1
 62
     0
 92
       -2
340
0
 93
        0
 40
0.045
309
GRIDFORMAT_END
309
TABLEFORMAT_END
  1
CELLSTYLE_BEGIN
 90
        3
 91
        2
300
_DATA
309
CELLSTYLE_END
  0
ENDSEC
  0
EOF
