  0
SECTION
  2
HEADER
  9
$ACADVER
  1
AC1021
  9
$ACADMAINTVER
 70
    26
  9
$DWGCODEPAGE
  3
ANSI_932
  9
$LASTSAVEDBY
  1
Htm_Terada
  9
$CUSTOMPROPERTYTAG
  1
AmdtFileType
  9
$CUSTOMPROPERTY
  1
84
  9
$INSBASE
 10
0.0
 20
0.0
 30
0.0
  9
$EXTMIN
 10
2210.638497318024
 20
2172.736014043786
 30
0.0
  9
$EXTMAX
 10
4681.600197325567
 20
3987.089829419159
 30
0.0
  9
$LIMMIN
 10
0.0000028715078315
 20
0.0000055407309674
  9
$LIMMAX
 10
6300.000002871508
 20
4455.000005540731
  9
$ORTHOMODE
 70
     1
  9
$REGENMODE
 70
     1
  9
$FILLMODE
 70
     1
  9
$QTEXTMODE
 70
     0
  9
$MIRRTEXT
 70
     1
  9
$LTSCALE
 40
15.0
  9
$ATTMODE
 70
     1
  9
$TEXTSIZE
 40
25.0
  9
$TRACEWID
 40
1.0
  9
$TEXTSTYLE
  7
SEISA
  9
$CLAYER
  8
AM_11 想像線
  9
$CELTYPE
  6
ByLayer
  9
$CECOLOR
 62
   256
  9
$CELTSCALE
 40
1.0
  9
$DISPSILH
 70
     0
  9
$DIMSCALE
 40
15.0
  9
$DIMASZ
 40
2.5
  9
$DIMEXO
 40
0.625
  9
$DIMDLI
 40
10.0
  9
$DIMRND
 40
0.0
  9
$DIMDLE
 40
0.0
  9
$DIMEXE
 40
0.625
  9
$DIMTP
 40
0.1
  9
$DIMTM
 40
0.1
  9
$DIMTXT
 40
3.5
  9
$DIMCEN
 40
0.0
  9
$DIMTSZ
 40
0.0
  9
$DIMTOL
 70
     0
  9
$DIMLIM
 70
     0
  9
$DIMTIH
 70
     0
  9
$DIMTOH
 70
     0
  9
$DIMSE1
 70
     0
  9
$DIMSE2
 70
     0
  9
$DIMTAD
 70
     3
  9
$DIMZIN
 70
     8
  9
$DIMBLK
  1
Open30
  9
$DIMASO
 70
     1
  9
$DIMSHO
 70
     1
  9
$DIMPOST
  1

  9
$DIMAPOST
  1
"
  9
$DIMALT
 70
     0
  9
$DIMALTD
 70
     2
  9
$DIMALTF
 40
0.0393701
  9
$DIMLFAC
 40
1.0
  9
$DIMTOFL
 70
     1
  9
$DIMTVP
 40
0.0
  9
$DIMTIX
 70
     0
  9
$DIMSOXD
 70
     0
  9
$DIMSAH
 70
     0
  9
$DIMBLK1
  1

  9
$DIMBLK2
  1

  9
$DIMSTYLE
  2
SEISA
  9
$DIMCLRD
 70
     3
  9
$DIMCLRE
 70
     3
  9
$DIMCLRT
 70
     3
  9
$DIMTFAC
 40
0.71
  9
$DIMGAP
 40
1.5
  9
$DIMJUST
 70
     0
  9
$DIMSD1
 70
     0
  9
$DIMSD2
 70
     0
  9
$DIMTOLJ
 70
     0
  9
$DIMTZIN
 70
     0
  9
$DIMALTZ
 70
     0
  9
$DIMALTTZ
 70
     8
  9
$DIMUPT
 70
     0
  9
$DIMDEC
 70
     2
  9
$DIMTDEC
 70
     2
  9
$DIMALTU
 70
     2
  9
$DIMALTTD
 70
     2
  9
$DIMTXSTY
  7
SEISA
  9
$DIMAUNIT
 70
     0
  9
$DIMADEC
 70
     0
  9
$DIMALTRND
 40
0.0
  9
$DIMAZIN
 70
     2
  9
$DIMDSEP
 70
    46
  9
$DIMATFIT
 70
     3
  9
$DIMFRAC
 70
     0
  9
$DIMLDRBLK
  1
Open30
  9
$DIMLUNIT
 70
     2
  9
$DIMLWD
 70
    -1
  9
$DIMLWE
 70
    -1
  9
$DIMTMOVE
 70
     0
  9
$DIMFXL
 40
1.0
  9
$DIMFXLON
 70
     0
  9
$DIMJOGANG
 40
0.7853981633974483
  9
$DIMTFILL
 70
     0
  9
$DIMTFILLCLR
 70
     0
  9
$DIMARCSYM
 70
     1
  9
$DIMLTYPE
  6

  9
$DIMLTEX1
  6

  9
$DIMLTEX2
  6

  9
$LUNITS
 70
     2
  9
$LUPREC
 70
     2
  9
$SKETCHINC
 40
1.0
  9
$FILLETRAD
 40
2.5
  9
$AUNITS
 70
     0
  9
$AUPREC
 70
     0
  9
$MENU
  1
.
  9
$ELEVATION
 40
0.0
  9
$PELEVATION
 40
0.0
  9
$THICKNESS
 40
0.0
  9
$LIMCHECK
 70
     0
  9
$CHAMFERA
 40
1.999999999999544
  9
$CHAMFERB
 40
1.999999999999544
  9
$CHAMFERC
 40
2.0
  9
$CHAMFERD
 40
0.7853981633973346
  9
$SKPOLY
 70
     0
  9
$TDCREATE
 40
2454949.410965984
  9
$TDUCREATE
 40
2454949.035965984
  9
$TDUPDATE
 40
2456478.719308808
  9
$TDUUPDATE
 40
2456478.344308808
  9
$TDINDWG
 40
0.1810448032
  9
$TDUSRTIMER
 40
0.1810431829
  9
$USRTIMER
 70
     1
  9
$ANGBASE
 50
0.0
  9
$ANGDIR
 70
     0
  9
$PDMODE
 70
     0
  9
$PDSIZE
 40
0.0
  9
$PLINEWID
 40
0.0
  9
$SPLFRAME
 70
     0
  9
$SPLINETYPE
 70
     6
  9
$SPLINESEGS
 70
     8
  9
$HANDSEED
  5
6E58
  9
$SURFTAB1
 70
     6
  9
$SURFTAB2
 70
     6
  9
$SURFTYPE
 70
     6
  9
$SURFU
 70
     6
  9
$SURFV
 70
     6
  9
$UCSBASE
  2

  9
$UCSNAME
  2

  9
$UCSORG
 10
0.0
 20
0.0
 30
0.0
  9
$UCSXDIR
 10
1.0
 20
0.0
 30
0.0
  9
$UCSYDIR
 10
0.0
 20
1.0
 30
0.0
  9
$UCSORTHOREF
  2

  9
$UCSORTHOVIEW
 70
     0
  9
$UCSORGTOP
 10
0.0
 20
0.0
 30
0.0
  9
$UCSORGBOTTOM
 10
0.0
 20
0.0
 30
0.0
  9
$UCSORGLEFT
 10
0.0
 20
0.0
 30
0.0
  9
$UCSORGRIGHT
 10
0.0
 20
0.0
 30
0.0
  9
$UCSORGFRONT
 10
0.0
 20
0.0
 30
0.0
  9
$UCSORGBACK
 10
0.0
 20
0.0
 30
0.0
  9
$PUCSBASE
  2

  9
$PUCSNAME
  2

  9
$PUCSORG
 10
0.0
 20
0.0
 30
0.0
  9
$PUCSXDIR
 10
1.0
 20
0.0
 30
0.0
  9
$PUCSYDIR
 10
0.0
 20
1.0
 30
0.0
  9
$PUCSORTHOREF
  2

  9
$PUCSORTHOVIEW
 70
     0
  9
$PUCSORGTOP
 10
0.0
 20
0.0
 30
0.0
  9
$PUCSORGBOTTOM
 10
0.0
 20
0.0
 30
0.0
  9
$PUCSORGLEFT
 10
0.0
 20
0.0
 30
0.0
  9
$PUCSORGRIGHT
 10
0.0
 20
0.0
 30
0.0
  9
$PUCSORGFRONT
 10
0.0
 20
0.0
 30
0.0
  9
$PUCSORGBACK
 10
0.0
 20
0.0
 30
0.0
  9
$USERI1
 70
     0
  9
$USERI2
 70
     0
  9
$USERI3
 70
     0
  9
$USERI4
 70
     0
  9
$USERI5
 70
     0
  9
$USERR1
 40
0.0
  9
$USERR2
 40
0.0
  9
$USERR3
 40
0.0
  9
$USERR4
 40
0.0
  9
$USERR5
 40
0.0
  9
$WORLDVIEW
 70
     1
  9
$SHADEDGE
 70
     3
  9
$SHADEDIF
 70
    70
  9
$TILEMODE
 70
     1
  9
$MAXACTVP
 70
    64
  9
$PINSBASE
 10
0.0
 20
0.0
 30
0.0
  9
$PLIMCHECK
 70
     0
  9
$PEXTMIN
 10
1.000000000000000E+20
 20
1.000000000000000E+20
 30
1.000000000000000E+20
  9
$PEXTMAX
 10
-1.000000000000000E+20
 20
-1.000000000000000E+20
 30
-1.000000000000000E+20
  9
$PLIMMIN
 10
0.0
 20
0.0
  9
$PLIMMAX
 10
420.0
 20
297.0
  9
$UNITMODE
 70
     0
  9
$VISRETAIN
 70
     1
  9
$PLINEGEN
 70
     0
  9
$PSLTSCALE
 70
     1
  9
$TREEDEPTH
 70
  3020
  9
$CMLSTYLE
  2
Standard
  9
$CMLJUST
 70
     0
  9
$CMLSCALE
 40
20.0
  9
$PROXYGRAPHICS
 70
     1
  9
$MEASUREMENT
 70
     1
  9
$CELWEIGHT
370
    -1
  9
$ENDCAPS
280
     0
  9
$JOINSTYLE
280
     0
  9
$LWDISPLAY
290
     0
  9
$INSUNITS
 70
     4
  9
$HYPERLINKBASE
  1

  9
$STYLESHEET
  1
SEISA.CTB
  9
$XEDIT
290
     1
  9
$CEPSNTYPE
380
     0
  9
$PSTYLEMODE
290
     1
  9
$FINGERPRINTGUID
  2
{0944EB72-8DAC-4F90-A89D-D035E56B2072}
  9
$VERSIONGUID
  2
{DFCBC5F9-40CB-4206-A8A4-B9EBC834C12A}
  9
$EXTNAMES
290
     1
  9
$PSVPSCALE
 40
0.0
  9
$OLESTARTUP
290
     0
  9
$SORTENTS
280
   127
  9
$INDEXCTL
280
     0
  9
$HIDETEXT
280
     0
  9
$XCLIPFRAME
290
     0
  9
$HALOGAP
280
     0
  9
$OBSCOLOR
 70
   257
  9
$OBSLTYPE
280
     0
  9
$INTERSECTIONDISPLAY
280
     0
  9
$INTERSECTIONCOLOR
 70
   257
  9
$DIMASSOC
280
     2
  9
$PROJECTNAME
  1

  9
$CAMERADISPLAY
290
     0
  9
$LENSLENGTH
 40
50.0
  9
$CAMERAHEIGHT
 40
0.0
  9
$STEPSPERSEC
 40
2.0
  9
$STEPSIZE
 40
6.0
  9
$3DDWFPREC
 40
2.0
  9
$PSOLWIDTH
 40
0.25
  9
$PSOLHEIGHT
 40
4.0
  9
$LOFTANG1
 40
1.570796326794896
  9
$LOFTANG2
 40
1.570796326794896
  9
$LOFTMAG1
 40
0.0
  9
$LOFTMAG2
 40
0.0
  9
$LOFTPARAM
 70
     7
  9
$LOFTNORMALS
280
     1
  9
$LATITUDE
 40
37.795
  9
$LONGITUDE
 40
-122.394
  9
$NORTHDIRECTION
 40
0.0
  9
$TIMEZONE
 70
 -8000
  9
$LIGHTGLYPHDISPLAY
280
     1
  9
$TILEMODELIGHTSYNCH
280
     1
  9
$CMATERIAL
347
27C
  9
$SOLIDHIST
280
     1
  9
$SHOWHIST
280
     1
  9
$DWFFRAME
280
     2
  9
$DGNFRAME
280
     0
  9
$REALWORLDSCALE
290
     1
  9
$INTERFERECOLOR
 62
     1
  9
$INTERFEREOBJVS
345
289
  9
$INTERFEREVPVS
346
286
  9
$CSHADOW
280
     0
  9
$SHADOWPLANELOCATION
 40
0.0
  0
ENDSEC
  0
SECTION
  2
CLASSES
  0
CLASS
  1
ACDBDICTIONARYWDFLT
  2
AcDbDictionaryWithDefault
  3
ObjectDBX Classes
 90
        0
 91
        1
280
     0
281
     0
  0
CLASS
  1
AMGSETTINGSOBJ
  2
AmgSettingsObj
  3
"AcadM|Product Description: AutoCAD Mechanical|Company: Autodesk, Inc."
 90
     1024
 91
        2
280
     0
281
     0
  0
CLASS
  1
ACME_DOCUMENT
  2
AcMeDbDoc
  3
AcMeServices
 90
     1024
 91
        1
280
     0
281
     0
  0
CLASS
  1
ACMESCOPE
  2
AcMeScope
  3
AcMeServices
 90
     1024
 91
        1
280
     0
281
     0
  0
CLASS
  1
ACMECOMMANDHISTORY
  2
AcMeCommandHistory
  3
AcMeServices
 90
     1024
 91
        1
280
     0
281
     0
  0
CLASS
  1
DICTIONARYVAR
  2
AcDbDictionaryVar
  3
ObjectDBX Classes
 90
        0
 91
        9
280
     0
281
     0
  0
CLASS
  1
ACIMSYSVARMAN
  2
AcImSysVarManager
  3
AcMeServices
 90
     1024
 91
        5
280
     0
281
     0
  0
CLASS
  1
ACIMREALSYSVAR
  2
AcImRealSysVar
  3
AcMeServices
 90
     1024
 91
        1
280
     0
281
     0
  0
CLASS
  1
ACIMINTSYSVAR
  2
AcImIntSysVar
  3
AcMeServices
 90
     1024
 91
       27
280
     0
281
     0
  0
CLASS
  1
ACMEDRAWINGMAN
  2
AcMeDrawingMan
  3
AcMeServices
 90
     1024
 91
        1
280
     0
281
     0
  0
CLASS
  1
ACMEVIEW
  2
AcMeView
  3
AcMeServices
 90
     1024
 91
        1
280
     0
281
     0
  0
CLASS
  1
ACDBENTITYCACHE
  2
AcMeEntityCache
  3
AcMeServices
 90
     1024
 91
        1
280
     0
281
     0
  0
CLASS
  1
GSMANAGER
  2
AcMeGSManager
  3
AcMeServices
 90
     1024
 91
        1
280
     0
281
     0
  0
CLASS
  1
AMDTINTERNALREACTOR
  2
AmdtInternalReactor
  3
AcMeServices
 90
     1024
 91
        2
280
     0
281
     0
  0
CLASS
  1
ACMESTATEMGR
  2
AcMeStateMgr
  3
AcMeServices
 90
     1024
 91
        1
280
     0
281
     0
  0
CLASS
  1
ACGREFMASTER
  2
AcGrefMaster
  3
AcAttribServices
 90
     1024
 91
        1
280
     0
281
     0
  0
CLASS
  1
ACME_DATABASE
  2
AcMeDbDatabase
  3
AcMeServices
 90
     1024
 91
        1
280
     0
281
     0
  0
CLASS
  1
ACRFINSADJUSTERMGR
  2
AcRfInsAdjusterMgr
  3
AcMeServices
 90
     1024
 91
        1
280
     0
281
     0
  0
CLASS
  1
ACGREFACADMASTER
  2
AcGrefacadMaster
  3
AcGrefServices
 90
     1024
 91
        1
280
     0
281
     0
  0
CLASS
  1
AMIMASTER
  2
AmiMaster
  3
AmiServices
 90
     1024
 91
        1
280
     0
281
     0
  0
CLASS
  1
ACIMSTRSYSVAR
  2
AcImStrSysVar
  3
AcMeServices
 90
     1024
 91
        5
280
     0
281
     0
  0
CLASS
  1
ACMSTANDARDJIS
  2
AcmStandardJIS
  3
"Amdt_StdImp|Product Description: AutoCAD Mechanical|Company: Autodesk, Inc."
 90
     1024
 91
        0
280
     0
281
     0
  0
CLASS
  1
AMGOBJPROPCFG
  2
AmgObjPropCfg
  3
"AmgLay|Product Description: AutoCAD Mechanical|Company: Autodesk, Inc."
 90
     1025
 91
        1
280
     0
281
     0
  0
CLASS
  1
ACMSURFSTANDARDJIS
  2
AcmSurfTextStdJIS
  3
"Amdt_StdImp|Product Description: AutoCAD Mechanical|Company: Autodesk, Inc."
 90
     1024
 91
        0
280
     0
281
     0
  0
CLASS
  1
ACMFCFSTANDARDJIS
  2
AcmFCFStdJIS
  3
"Amdt_StdImp|Product Description: AutoCAD Mechanical|Company: Autodesk, Inc."
 90
     1024
 91
        0
280
     0
281
     0
  0
CLASS
  1
ACMWELDSTANDARDJIS
  2
AcmWeldingStdJIS
  3
"Amdt_StdImp|Product Description: AutoCAD Mechanical|Company: Autodesk, Inc."
 90
     1024
 91
        0
280
     0
281
     0
  0
CLASS
  1
ACMIDSTANDARDJIS
  2
AcmIdStdJIS
  3
"Amdt_StdImp|Product Description: AutoCAD Mechanical|Company: Autodesk, Inc."
 90
     1024
 91
        0
280
     0
281
     0
  0
CLASS
  1
ACMDATUMSTANDARDJIS
  2
AcmDatumStdJIS
  3
"Amdt_StdImp|Product Description: AutoCAD Mechanical|Company: Autodesk, Inc."
 90
     1024
 91
        0
280
     0
281
     0
  0
CLASS
  1
ACMBOMSTANDARDJIS
  2
AcmBOMStdJIS
  3
"Amdt_StdImp|Product Description: AutoCAD Mechanical|Company: Autodesk, Inc."
 90
     1024
 91
        0
280
     0
281
     0
  0
CLASS
  1
ACMDETAILSTANDARDJIS
  2
AmdtDetailSymStdJIS
  3
"Amdt_StdImp|Product Description: AutoCAD Mechanical|Company: Autodesk, Inc."
 90
     1024
 91
        0
280
     0
281
     0
  0
CLASS
  1
ACMSECTIONSTANDARDJIS
  2
AmdtSectionSymStdJIS
  3
"Amdt_StdImp|Product Description: AutoCAD Mechanical|Company: Autodesk, Inc."
 90
     1024
 91
        0
280
     0
281
     0
  0
CLASS
  1
ACMCENTERLINESTANDARDJIS
  2
AmdtCenterLineStdJIS
  3
"Amdt_StdImp|Product Description: AutoCAD Mechanical|Company: Autodesk, Inc."
 90
     1024
 91
        0
280
     0
281
     0
  0
CLASS
  1
ACMTHREADLINESTANDARDJIS
  2
AmdtThreadLineStdJIS
  3
"Amdt_StdImp|Product Description: AutoCAD Mechanical|Company: Autodesk, Inc."
 90
     1024
 91
        0
280
     0
281
     0
  0
CLASS
  1
ACAMGLAYSTD
  2
AcAmgLayStd
  3
"AmgLay|Product Description: AutoCAD Mechanical|Company: Autodesk, Inc."
 90
     1024
 91
        1
280
     0
281
     0
  0
CLASS
  1
ACAMGDIMSTD
  2
AcAmgDimStd
  3
"AmgDim|Product Description: AutoCAD Mechanical|Company: Autodesk, Inc."
 90
     1024
 91
        1
280
     0
281
     0
  0
CLASS
  1
ACAMGTITLESTD
  2
AcAmgTitleStd
  3
"AmgTitle|Product Description: AutoCAD Mechanical|Company: Autodesk, Inc."
 90
     4095
 91
        1
280
     0
281
     0
  0
CLASS
  1
ACMDATADICTIONARY
  2
AcmDataDictionary
  3
"AcmSymBB|Product Description: AutoCAD Mechanical|Company: Autodesk, Inc."
 90
     1024
 91
        1
280
     0
281
     0
  0
CLASS
  1
ACMDATAENTRYBLOCK
  2
AcmDataEntryBlock
  3
AcmSymBB|Product Description: AutoCAD Mechanical|Company: Autodesk, Inc.
 90
     1024
 91
        0
280
     0
281
     0
  0
CLASS
  1
LAYER_INDEX
  2
AcDbLayerIndex
  3
ObjectDBX Classes
 90
        0
 91
        0
280
     0
281
     0
  0
CLASS
  1
IDBUFFER
  2
AcDbIdBuffer
  3
ObjectDBX Classes
 90
        0
 91
        0
280
     0
281
     0
  0
CLASS
  1
ACMNOTESTANDARDJIS
  2
AmdtNoteStdJIS
  3
"Amdt_StdImp|Product Description: AutoCAD Mechanical|Company: Autodesk, Inc."
 90
     1024
 91
        0
280
     0
281
     0
  0
CLASS
  1
ACAMGHOLECHARTSTDJIS
  2
AcAmgHoleChartStdJIS
  3
AmgDim|Product Description: AutoCAD Mechanical|Company: Autodesk, Inc.
 90
     1024
 91
        0
280
     0
281
     0
  0
CLASS
  1
AM_DRAWING_MGR
  2
AcDmDwgMgr
  3
AcMechDwgViewMgmt
 90
     1024
 91
        1
280
     0
281
     0
  0
CLASS
  1
AM_DWG_DOCUMENT
  2
AcDmDwgDocument
  3
AcMechDwgViewMgmt
 90
     1024
 91
        1
280
     0
281
     0
  0
CLASS
  1
AM_DWG_SHEET
  2
AcDmSheet
  3
AcMechDwgViewMgmt
 90
     1024
 91
        2
280
     0
281
     0
  0
CLASS
  1
AM_VIEWDIMPARMAP
  2
AcDmViewDimParMap
  3
AcMechDwgViewMgmt
 90
     1024
 91
        2
280
     0
281
     0
  0
CLASS
  1
AM_DWGMGR_NAME
  2
AcDmDwgMgrName
  3
AcMechDwgViewMgmt
 90
     1024
 91
        1
280
     0
281
     0
  0
CLASS
  1
AMDTMENUSTATEMGR
  2
AmdtMenuStateMgr
  3
McadcomServices
 90
     1024
 91
        1
280
     0
281
     0
  0
CLASS
  1
AMDTMCOMMENUSTATE
  2
AmdtMcomMenuState
  3
McadcomServices
 90
     1024
 91
        1
280
     0
281
     0
  0
CLASS
  1
MAPIAMMOUDLE
  2
MApiAmModule
  3
MApiAmServices
 90
     1024
 91
        1
280
     0
281
     0
  0
CLASS
  1
AMDTADMENUSTATE
  2
AmdtAdMenuState
  3
DesignerServices
 90
     1024
 91
        1
280
     0
281
     0
  0
CLASS
  1
ADAPPL
  2
AcAdAppl
  3
DesignerServices
 90
     1024
 91
        1
280
     0
281
     0
  0
CLASS
  1
DEPMGR
  2
AcAdDepMgr
  3
DesignerServices
 90
     1024
 91
        1
280
     0
281
     0
  0
CLASS
  1
PARAMMGR
  2
AcAdParamMgr
  3
DesignerServices
 90
     1024
 91
        1
280
     0
281
     0
  0
CLASS
  1
PARAMSCOPE
  2
AcAdParamScope
  3
DesignerServices
 90
     1024
 91
        1
280
     0
281
     0
  0
CLASS
  1
NAMEDAPPL
  2
AcAdNamedAppl
  3
DesignerServices
 90
     1024
 91
        1
280
     0
281
     0
  0
CLASS
  1
AMDTDMMENUSTATE
  2
AmdtDmMenuState
  3
AcMechDwgViewMgmt
 90
     1024
 91
        1
280
     0
281
     0
  0
CLASS
  1
AMDTAMMENUSTATE
  2
AmdtAmMenuState
  3
DesignerAssemblies
 90
     1024
 91
        1
280
     0
281
     0
  0
CLASS
  1
ACAMPROJECT
  2
AcAmProject
  3
DesignerAssemblies
 90
     1024
 91
        1
280
     0
281
     0
  0
CLASS
  1
ACAMGRCOMPDEF
  2
AcAmGrCompDef
  3
DesignerAssemblies
 90
     1024
 91
        1
280
     0
281
     0
  0
CLASS
  1
ACCMCONTEXT
  2
AcCmContext
  3
DesignerAssemblies
 90
     1024
 91
        1
280
     0
281
     0
  0
CLASS
  1
ACAMCOMPDEF
  2
AcAmCompDef
  3
DesignerAssemblies
 90
     1024
 91
        1
280
     0
281
     0
  0
CLASS
  1
ACAMCOMPDEFMGR
  2
AcAmCompDefMgr
  3
DesignerAssemblies
 90
     1024
 91
        1
280
     0
281
     0
  0
CLASS
  1
AMCONTEXTMGR
  2
AcAmContextMgr
  3
DesignerAssemblies
 90
     1024
 91
        1
280
     0
281
     0
  0
CLASS
  1
ACAMCONTEXTMODELER
  2
AcAmContextModeler
  3
DesignerAssemblies
 90
     1024
 91
        1
280
     0
281
     0
  0
CLASS
  1
CATALOGSTATE
  2
AcAmCatalogState
  3
DesignerAssemblies
 90
     1024
 91
        1
280
     0
281
     0
  0
CLASS
  1
ACAMGRCOMPDEFSET
  2
AcAmGrCompDefSet
  3
DesignerAssemblies
 90
     1024
 91
        1
280
     0
281
     0
  0
CLASS
  1
AMDTBROWSERDBTAB
  2
AmdtBrowserDbTab
  3
McadcomServices
 90
     1024
 91
        1
280
     0
281
     0
  0
CLASS
  1
CBROWSERAPPOBJECT
  2
CBrowserAppObject
  3
McadcomServices
 90
     1024
 91
        3
280
     0
281
     0
  0
CLASS
  1
DM_PLACEHOLDER
  2
AcDmSelsetPlaceholder
  3
AcMechDwgViewMgmt
 90
     1024
 91
        1
280
     0
281
     0
  0
CLASS
  1
TABLESTYLE
  2
AcDbTableStyle
  3
ObjectDBX Classes
 90
     4095
 91
        1
280
     0
281
     0
  0
CLASS
  1
VAACXREFPANELOBJECT
  2
VaAcXREFPanelObject
  3
VAAC_ADDIN
 90
        0
 91
        0
280
     0
281
     0
  0
CLASS
  1
VAACIMAGEINVENTORY
  2
VaAcImageInventory
  3
VAAC_ADDIN
 90
        0
 91
        0
280
     0
281
     0
  0
CLASS
  1
AMDTNOTETEMPLATEDB
  2
AmdtNoteTemplateDB
  3
AcmSymBB|Product Description: AutoCAD Mechanical|Company: Autodesk, Inc.
 90
     1024
 91
        6
280
     0
281
     0
  0
CLASS
  1
ACAMGFILTERDAT
  2
AcAmgFilterDat
  3
"AcadM|Product Description: AutoCAD Mechanical|Company: Autodesk, Inc."
 90
     1024
 91
        0
280
     0
281
     0
  0
CLASS
  1
MATERIAL
  2
AcDbMaterial
  3
ObjectDBX Classes
 90
     1153
 91
        3
280
     0
281
     0
  0
CLASS
  1
VISUALSTYLE
  2
AcDbVisualStyle
  3
ObjectDBX Classes
 90
     4095
 91
       16
280
     0
281
     0
  0
CLASS
  1
ACRFATTGENMGR
  2
AcRfAttGeneralMgr
  3
AcAttribServices
 90
     1024
 91
        0
280
     0
281
     0
  0
CLASS
  1
ACRFOBJATTMGR
  2
AcRfObjAttGroupMgr
  3
AcAttribServices
 90
     1024
 91
        0
280
     0
281
     0
  0
CLASS
  1
ACRFMCADAPIATTHOLDER
  2
AcRfMCADAPIAttHolder
  3
AcAttribServices
 90
     1024
 91
        0
280
     0
281
     0
  0
CLASS
  1
AMDTSYSATTR
  2
AmdtSystemAttribute
  3
AcAttribServices
 90
     1024
 91
        0
280
     0
281
     0
  0
CLASS
  1
ACMTAPERSTANDARDJIS
  2
AcmTaperStdJIS
  3
"Amdt_StdImp|Product Description: AutoCAD Mechanical|Company: Autodesk, Inc."
 90
     1024
 91
        0
280
     0
281
     0
  0
CLASS
  1
CAMSSTRUCTBTNSTATE
  2
StructBtnState
  3
DesignerAssemblies
 90
     1024
 91
        0
280
     0
281
     0
  0
CLASS
  1
SCALE
  2
AcDbScale
  3
ObjectDBX Classes
 90
     1153
 91
       37
280
     0
281
     0
  0
CLASS
  1
MLEADERSTYLE
  2
AcDbMLeaderStyle
  3
ACDB_MLEADERSTYLE_CLASS
 90
     4095
 91
        1
280
     0
281
     0
  0
CLASS
  1
ACMANOOTATIONVIEWSTANDARDJIS
  2
AmdtAnViewStdJIS
  3
"Amdt_StdImp|Product Description: AutoCAD Mechanical|Company: Autodesk, Inc."
 90
     1024
 91
        0
280
     0
281
     0
  0
CLASS
  1
ACMSURFSTANDARDJIS2003
  2
AcmSurfTextStdJIS2003
  3
"Amdt_StdImp|Product Description: AutoCAD Mechanical|Company: Autodesk, Inc."
 90
     1024
 91
        0
280
     0
281
     0
  0
CLASS
  1
CELLSTYLEMAP
  2
AcDbCellStyleMap
  3
ObjectDBX Classes
 90
     1152
 91
        2
280
     0
281
     0
  0
CLASS
  1
ACMFCFSTANDARDJIS98
  2
AcmFCFStdJIS98
  3
"Amdt_StdImp|Product Description: AutoCAD Mechanical|Company: Autodesk, Inc."
 90
     1024
 91
        0
280
     0
281
     0
  0
CLASS
  1
SORTENTSTABLE
  2
AcDbSortentsTable
  3
ObjectDBX Classes
 90
        0
 91
       10
280
     0
281
     0
  0
CLASS
  1
DIMASSOC
  2
AcDbDimAssoc
  3
"AcDbDimAssoc|Product Desc:     AcDim ARX App For Dimension|Company:          Autodesk, Inc.|WEB Address:      www.autodesk.com"
 90
        0
 91
       17
280
     0
281
     0
  0
CLASS
  1
STDPART2D
  2
AmgStdPart
  3
AmgStdPart|Product Description: AutoCAD Mechanical|Company: Autodesk, Inc.
 90
     4095
 91
        0
280
     0
281
     1
  0
CLASS
  1
ACMDATAENTRYPART
  2
AcmDataEntryPart
  3
AcmSymBB|Product Description: AutoCAD Mechanical|Company: Autodesk, Inc.
 90
     1024
 91
        0
280
     0
281
     0
  0
CLASS
  1
ACMPARTREF
  2
AcmPartRef
  3
"AcmSymBB|Product Description: AutoCAD Mechanical|Company: Autodesk, Inc."
 90
     4095
 91
        0
280
     0
281
     1
  0
CLASS
  1
ACDBSTDPARTRES_LINE
  2
AcDbStdPartRes_Line
  3
AmgStdPart|Product Description: AutoCAD Mechanical|Company: Autodesk, Inc.
 90
     1024
 91
        0
280
     0
281
     0
  0
CLASS
  1
ACMBOM
  2
AcmBom
  3
"AcmSymBB|Product Description: AutoCAD Mechanical|Company: Autodesk, Inc."
 90
     1024
 91
        0
280
     0
281
     0
  0
CLASS
  1
AMDTFORMULAUPDATEDISPATCHER
  2
AmdtFormulaUpdateDispatcher
  3
AcMeServices
 90
     1024
 91
        0
280
     0
281
     0
  0
CLASS
  1
ACMBOMROW
  2
AcmBomRow
  3
"AcmSymBB|Product Description: AutoCAD Mechanical|Company: Autodesk, Inc."
 90
     1024
 91
        0
280
     0
281
     0
  0
CLASS
  1
ACMPARTLIST
  2
AcmPartList
  3
"AcmSymBB|Product Description: AutoCAD Mechanical|Company: Autodesk, Inc."
 90
     4095
 91
        0
280
     0
281
     1
  0
CLASS
  1
ACDBLINERES
  2
AcDbLineRes
  3
AcGrefServices
 90
     1024
 91
        0
280
     0
281
     0
  0
CLASS
  1
ACRFINSADJ
  2
AcRfInsAdjuster
  3
AcMeServices
 90
     1024
 91
        0
280
     0
281
     0
  0
CLASS
  1
ACMSTANDARDISO
  2
AcmStandardISO
  3
"Amdt_StdImp|Product Description: AutoCAD Mechanical|Company: Autodesk, Inc."
 90
     1024
 91
        1
280
     0
281
     0
  0
CLASS
  1
AMDTEDGESTANDARDISO13715
  2
AmdtEdgeStdISO13715
  3
"Amdt_StdImp|Product Description: AutoCAD Mechanical|Company: Autodesk, Inc."
 90
     1024
 91
        1
280
     0
281
     0
  0
CLASS
  1
ACMSURFSTANDARDISO2002
  2
AcmSurfTextStdISO2002
  3
"Amdt_StdImp|Product Description: AutoCAD Mechanical|Company: Autodesk, Inc."
 90
     1024
 91
        1
280
     0
281
     0
  0
CLASS
  1
ACMFCFSTANDARDISO
  2
AcmFCFStdISO
  3
"Amdt_StdImp|Product Description: AutoCAD Mechanical|Company: Autodesk, Inc."
 90
     1024
 91
        1
280
     0
281
     0
  0
CLASS
  1
ACMWELDSTANDARDISO
  2
AcmWeldingStdISO
  3
"Amdt_StdImp|Product Description: AutoCAD Mechanical|Company: Autodesk, Inc."
 90
     1024
 91
        1
280
     0
281
     0
  0
CLASS
  1
ACMIDSTANDARDISO
  2
AcmIdStdISO
  3
"Amdt_StdImp|Product Description: AutoCAD Mechanical|Company: Autodesk, Inc."
 90
     1024
 91
        1
280
     0
281
     0
  0
CLASS
  1
ACMDATUMSTANDARDISO
  2
AcmDatumStdISO
  3
"Amdt_StdImp|Product Description: AutoCAD Mechanical|Company: Autodesk, Inc."
 90
     1024
 91
        1
280
     0
281
     0
  0
CLASS
  1
ACMBOMSTANDARDISO
  2
AcmBOMStdISO
  3
"Amdt_StdImp|Product Description: AutoCAD Mechanical|Company: Autodesk, Inc."
 90
     1024
 91
        1
280
     0
281
     0
  0
CLASS
  1
ACMDETAILSTANDARDISO
  2
AmdtDetailSymStdISO
  3
"Amdt_StdImp|Product Description: AutoCAD Mechanical|Company: Autodesk, Inc."
 90
     1024
 91
        1
280
     0
281
     0
  0
CLASS
  1
ACMSECTIONSTANDARDISO2001
  2
AmdtSectionSymStdISO2001
  3
"Amdt_StdImp|Product Description: AutoCAD Mechanical|Company: Autodesk, Inc."
 90
     1024
 91
        1
280
     0
281
     0
  0
CLASS
  1
ACMCENTERLINESTANDARDISO
  2
AmdtCenterLineStdISO
  3
"Amdt_StdImp|Product Description: AutoCAD Mechanical|Company: Autodesk, Inc."
 90
     1024
 91
        1
280
     0
281
     0
  0
CLASS
  1
ACMTHREADLINESTANDARDISO
  2
AmdtThreadLineStdISO
  3
"Amdt_StdImp|Product Description: AutoCAD Mechanical|Company: Autodesk, Inc."
 90
     1024
 91
        1
280
     0
281
     0
  0
CLASS
  1
ACMNOTESTANDARDISO
  2
AmdtNoteStdISO
  3
"Amdt_StdImp|Product Description: AutoCAD Mechanical|Company: Autodesk, Inc."
 90
     1024
 91
        1
280
     0
281
     0
  0
CLASS
  1
ACMTAPERSTANDARDISO
  2
AcmTaperStdISO
  3
"Amdt_StdImp|Product Description: AutoCAD Mechanical|Company: Autodesk, Inc."
 90
     1024
 91
        1
280
     0
281
     0
  0
CLASS
  1
ACMANOOTATIONVIEWSTANDARDISO
  2
AmdtAnViewStdISO
  3
"Amdt_StdImp|Product Description: AutoCAD Mechanical|Company: Autodesk, Inc."
 90
     1024
 91
        1
280
     0
281
     0
  0
CLASS
  1
ACAMGHOLECHARTSTDISO
  2
AcAmgHoleChartStdISO
  3
AmgDim|Product Description: AutoCAD Mechanical|Company: Autodesk, Inc.
 90
     1024
 91
        1
280
     0
281
     0
  0
CLASS
  1
EXACXREFPANELOBJECT
  2
ExAcXREFPanelObject
  3
EXAC_ESW
 90
     1025
 91
        0
280
     0
281
     0
  0
CLASS
  1
NPOCOLLECTION
  2
AcDbImpNonPersistentObjectsCollection
  3
ObjectDBX Classes
 90
     1153
 91
        0
280
     0
281
     0
  0
CLASS
  1
ACDBSTDPARTRES_ARC
  2
AcDbStdPartRes_Arc
  3
AmgStdPart|Product Description: AutoCAD Mechanical|Company: Autodesk, Inc.
 90
     1024
 91
        0
280
     0
281
     0
  0
CLASS
  1
AMDTNOTE
  2
AmdtNote
  3
"AcmSymBB|Product Description: AutoCAD Mechanical|Company: Autodesk, Inc."
 90
     4095
 91
        0
280
     0
281
     1
  0
CLASS
  1
PLOTSETTINGS
  2
AcDbPlotSettings
  3
ObjectDBX Classes
 90
        0
 91
        1
280
     0
281
     0
  0
CLASS
  1
ACMSTANDARDANSI
  2
AcmStandardANSI
  3
"Amdt_StdImp|Product Description: AutoCAD Mechanical|Company: Autodesk, Inc."
 90
     1024
 91
        0
280
     0
281
     0
  0
CLASS
  1
ACMSURFSTANDARDANSI
  2
AcmSurfTextStdANSI
  3
"Amdt_StdImp|Product Description: AutoCAD Mechanical|Company: Autodesk, Inc."
 90
     1024
 91
        0
280
     0
281
     0
  0
CLASS
  1
ACMFCFSTANDARDANSI
  2
AcmFCFStdANSI
  3
"Amdt_StdImp|Product Description: AutoCAD Mechanical|Company: Autodesk, Inc."
 90
     1024
 91
        0
280
     0
281
     0
  0
CLASS
  1
ACMWELDSTANDARDANSI
  2
AcmWeldingStdANSI
  3
"Amdt_StdImp|Product Description: AutoCAD Mechanical|Company: Autodesk, Inc."
 90
     1024
 91
        0
280
     0
281
     0
  0
CLASS
  1
ACMIDSTANDARDANSI
  2
AcmIdStdANSI
  3
"Amdt_StdImp|Product Description: AutoCAD Mechanical|Company: Autodesk, Inc."
 90
     1024
 91
        0
280
     0
281
     0
  0
CLASS
  1
ACMDATUMSTANDARDANSI
  2
AcmDatumStdANSI
  3
"Amdt_StdImp|Product Description: AutoCAD Mechanical|Company: Autodesk, Inc."
 90
     1024
 91
        0
280
     0
281
     0
  0
CLASS
  1
ACMBOMSTANDARDANSI
  2
AcmBOMStdANSI
  3
"Amdt_StdImp|Product Description: AutoCAD Mechanical|Company: Autodesk, Inc."
 90
     1024
 91
        0
280
     0
281
     0
  0
CLASS
  1
ACMDETAILSTANDARDANSI
  2
AmdtDetailSymStdANSI
  3
"Amdt_StdImp|Product Description: AutoCAD Mechanical|Company: Autodesk, Inc."
 90
     1024
 91
        0
280
     0
281
     0
  0
CLASS
  1
ACMSECTIONSTANDARDANSI
  2
AmdtSectionSymStdANSI
  3
"Amdt_StdImp|Product Description: AutoCAD Mechanical|Company: Autodesk, Inc."
 90
     1024
 91
        0
280
     0
281
     0
  0
CLASS
  1
ACMCENTERLINESTANDARDANSI
  2
AmdtCenterLineStdANSI
  3
"Amdt_StdImp|Product Description: AutoCAD Mechanical|Company: Autodesk, Inc."
 90
     1024
 91
        0
280
     0
281
     0
  0
CLASS
  1
ACMTHREADLINESTANDARDANSI
  2
AmdtThreadLineStdANSI
  3
"Amdt_StdImp|Product Description: AutoCAD Mechanical|Company: Autodesk, Inc."
 90
     1024
 91
        0
280
     0
281
     0
  0
CLASS
  1
ACMNOTESTANDARDANSI
  2
AmdtNoteStdANSI
  3
"Amdt_StdImp|Product Description: AutoCAD Mechanical|Company: Autodesk, Inc."
 90
     1024
 91
        0
280
     0
281
     0
  0
CLASS
  1
ACMTAPERSTANDARDANSI
  2
AcmTaperStdANSI
  3
"Amdt_StdImp|Product Description: AutoCAD Mechanical|Company: Autodesk, Inc."
 90
     1024
 91
        0
280
     0
281
     0
  0
CLASS
  1
ACMANOOTATIONVIEWSTANDARDANSI
  2
AmdtAnViewStdANSI
  3
"Amdt_StdImp|Product Description: AutoCAD Mechanical|Company: Autodesk, Inc."
 90
     1024
 91
        0
280
     0
281
     0
  0
CLASS
  1
ACAMGHOLECHARTSTDANSI
  2
AcAmgHoleChartStdANSI
  3
AmgDim|Product Description: AutoCAD Mechanical|Company: Autodesk, Inc.
 90
     1024
 91
        0
280
     0
281
     0
  0
CLASS
  1
ACMSTANDARDBSI
  2
AcmStandardBSI
  3
"Amdt_StdImp|Product Description: AutoCAD Mechanical|Company: Autodesk, Inc."
 90
     1024
 91
        0
280
     0
281
     0
  0
CLASS
  1
ACMSURFSTANDARDBSI2002
  2
AcmSurfTextStdBSI2002
  3
"Amdt_StdImp|Product Description: AutoCAD Mechanical|Company: Autodesk, Inc."
 90
     1024
 91
        0
280
     0
281
     0
  0
CLASS
  1
ACMFCFSTANDARDBSI
  2
AcmFCFStdBSI
  3
"Amdt_StdImp|Product Description: AutoCAD Mechanical|Company: Autodesk, Inc."
 90
     1024
 91
        0
280
     0
281
     0
  0
CLASS
  1
ACMWELDSTANDARDBSI
  2
AcmWeldingStdBSI
  3
"Amdt_StdImp|Product Description: AutoCAD Mechanical|Company: Autodesk, Inc."
 90
     1024
 91
        0
280
     0
281
     0
  0
CLASS
  1
ACMIDSTANDARDBSI
  2
AcmIdStdBSI
  3
"Amdt_StdImp|Product Description: AutoCAD Mechanical|Company: Autodesk, Inc."
 90
     1024
 91
        0
280
     0
281
     0
  0
CLASS
  1
ACMDATUMSTANDARDBSI
  2
AcmDatumStdBSI
  3
"Amdt_StdImp|Product Description: AutoCAD Mechanical|Company: Autodesk, Inc."
 90
     1024
 91
        0
280
     0
281
     0
  0
CLASS
  1
ACMBOMSTANDARDBSI
  2
AcmBOMStdBSI
  3
"Amdt_StdImp|Product Description: AutoCAD Mechanical|Company: Autodesk, Inc."
 90
     1024
 91
        0
280
     0
281
     0
  0
CLASS
  1
ACMDETAILSTANDARDBSI
  2
AmdtDetailSymStdBSI
  3
"Amdt_StdImp|Product Description: AutoCAD Mechanical|Company: Autodesk, Inc."
 90
     1024
 91
        0
280
     0
281
     0
  0
CLASS
  1
ACMSECTIONSTANDARDBSI2001
  2
AmdtSectionSymStdBSI2001
  3
"Amdt_StdImp|Product Description: AutoCAD Mechanical|Company: Autodesk, Inc."
 90
     1024
 91
        0
280
     0
281
     0
  0
CLASS
  1
ACMCENTERLINESTANDARDBSI
  2
AmdtCenterLineStdBSI
  3
"Amdt_StdImp|Product Description: AutoCAD Mechanical|Company: Autodesk, Inc."
 90
     1024
 91
        0
280
     0
281
     0
  0
CLASS
  1
ACMTHREADLINESTANDARDBSI
  2
AmdtThreadLineStdBSI
  3
"Amdt_StdImp|Product Description: AutoCAD Mechanical|Company: Autodesk, Inc."
 90
     1024
 91
        0
280
     0
281
     0
  0
CLASS
  1
ACMNOTESTANDARDBSI
  2
AmdtNoteStdBSI
  3
"Amdt_StdImp|Product Description: AutoCAD Mechanical|Company: Autodesk, Inc."
 90
     1024
 91
        0
280
     0
281
     0
  0
CLASS
  1
ACMTAPERSTANDARDBSI
  2
AcmTaperStdBSI
  3
"Amdt_StdImp|Product Description: AutoCAD Mechanical|Company: Autodesk, Inc."
 90
     1024
 91
        0
280
     0
281
     0
  0
CLASS
  1
ACMANOOTATIONVIEWSTANDARDBSI
  2
AmdtAnViewStdBSI
  3
"Amdt_StdImp|Product Description: AutoCAD Mechanical|Company: Autodesk, Inc."
 90
     1024
 91
        0
280
     0
281
     0
  0
CLASS
  1
ACAMGHOLECHARTSTDBSI
  2
AcAmgHoleChartStdBSI
  3
AmgDim|Product Description: AutoCAD Mechanical|Company: Autodesk, Inc.
 90
     1024
 91
        0
280
     0
281
     0
  0
CLASS
  1
AMDTEDGESTANDARDJIS
  2
AmdtEdgeStdJIS
  3
"Amdt_StdImp|Product Description: AutoCAD Mechanical|Company: Autodesk, Inc."
 90
     1024
 91
        0
280
     0
281
     0
  0
CLASS
  1
ACDBOPPOLYLINERES
  2
AcDbOpPolylineRes
  3
AcGrefServices
 90
     1024
 91
        0
280
     0
281
     0
  0
CLASS
  1
AMDTACMWBLOCKBOMENTITY
  2
AmdtAcmWblockBomEntity
  3
"AcmSymBB|Product Description: AutoCAD Mechanical|Company: Autodesk, Inc."
 90
     4095
 91
        0
280
     0
281
     1
  0
CLASS
  1
ACMSURFSYM
  2
AcmSurfaceTexture
  3
"AcmSymBB|Product Description: AutoCAD Mechanical|Company: Autodesk, Inc."
 90
     4095
 91
        0
280
     0
281
     1
  0
CLASS
  1
ACDBDIMENSIONRES
  2
AcDbDimensionRes
  3
AcmSymBB|Product Description: AutoCAD Mechanical|Company: Autodesk, Inc.
 90
     1024
 91
        0
280
     0
281
     0
  0
CLASS
  1
ACDBCIRCARCRES
  2
AcDbCircArcRes
  3
AcGrefServices
 90
     1024
 91
        0
280
     0
281
     0
  0
CLASS
  1
ACDB_BLKREFOBJECTCONTEXTDATA_CLASS
  2
AcDbBlkRefObjectContextData
  3
ObjectDBX Classes
 90
     1153
 91
        0
280
     0
281
     0
  0
CLASS
  1
ACMPICKOBJ
  2
AcmPickEnt
  3
"AcmSymBB|Product Description: AutoCAD Mechanical|Company: Autodesk, Inc."
 90
     1024
 91
        0
280
     0
281
     1
  0
CLASS
  1
ACMBALLOON
  2
AcmBalloon
  3
"AcmSymBB|Product Description: AutoCAD Mechanical|Company: Autodesk, Inc."
 90
     4095
 91
        0
280
     0
281
     1
  0
ENDSEC
  0
SECTION
  2
TABLES
  0
TABLE
  2
VPORT
  5
8
330
0
100
AcDbSymbolTable
 70
     1
  0
VPORT
  5
27A
330
8
100
AcDbSymbolTableRecord
100
AcDbViewportTableRecord
  2
*Active
 70
     0
 10
0.0
 20
0.0
 11
1.0
 21
1.0
 12
4321.449809841579
 22
3079.773004271237
 13
0.0
 23
0.0
 14
37.5
 24
37.5
 15
150.0
 25
150.0
 16
0.0
 26
0.0
 36
1.0
 17
0.0
 27
0.0
 37
0.0
 40
1934.063103470534
 41
1.905263157894736
 42
50.0
 43
0.0
 44
0.0
 50
0.0
 51
0.0
 71
    16
 72
 20000
 73
     1
 74
     3
 75
     0
 76
     0
 77
     0
 78
     0
281
     0
 65
     0
110
0.0
120
0.0
130
0.0
111
1.0
121
0.0
131
0.0
112
0.0
122
1.0
132
0.0
 79
     0
146
0.0
348
285
 60
     3
 61
     5
292
     1
282
     0
141
0.0
142
0.0
 63
   250
421
  3355443
  0
ENDTAB
  0
TABLE
  2
LTYPE
  5
5
330
0
100
AcDbSymbolTable
 70
    22
  0
LTYPE
  5
14
330
5
100
AcDbSymbolTableRecord
100
AcDbLinetypeTableRecord
  2
ByBlock
 70
     0
  3

 72
    65
 73
     0
 40
0.0
  0
LTYPE
  5
15
330
5
100
AcDbSymbolTableRecord
100
AcDbLinetypeTableRecord
  2
ByLayer
 70
     0
  3

 72
    65
 73
     0
 40
0.0
  0
LTYPE
  5
16
330
5
100
AcDbSymbolTableRecord
100
AcDbLinetypeTableRecord
  2
Continuous
 70
     0
  3
Solid line
 72
    65
 73
     0
 40
0.0
  0
LTYPE
  5
4D
330
5
100
AcDbSymbolTableRecord
100
AcDbLinetypeTableRecord
  2
AM_ISO02W050
 70
     0
  3
__ __ __ __ __ __ __ __ __ __ __ __ __ __ __
 72
    65
 73
     2
 40
7.5
 49
6.0
 74
     0
 49
-1.5
 74
     0
  0
LTYPE
  5
4E
330
5
100
AcDbSymbolTableRecord
100
AcDbLinetypeTableRecord
  2
AM_ISO08W050
 70
     0
  3
____ . ____ . ____ . ____ . ____ . ____ . ____
 72
    65
 73
     4
 40
18.0
 49
12.0
 74
     0
 49
-1.5
 74
     0
 49
3.0
 74
     0
 49
-1.5
 74
     0
  0
LTYPE
  5
4F
330
5
100
AcDbSymbolTableRecord
100
AcDbLinetypeTableRecord
  2
AM_ISO09W050
 70
     0
  3
_____ . . _____ . . _____ . . ____ .. ____
 72
    65
 73
     6
 40
22.5
 49
12.0
 74
     0
 49
-1.5
 74
     0
 49
3.0
 74
     0
 49
-1.5
 74
     0
 49
3.0
 74
     0
 49
-1.5
 74
     0
  0
LTYPE
  5
50
330
5
100
AcDbSymbolTableRecord
100
AcDbLinetypeTableRecord
  2
Amconstr
 70
     0
  3
_______________________
 72
    65
 73
     2
 40
9999.0
 49
9999.0
 74
     0
 49
0.0
 74
     0
  0
LTYPE
  5
51
330
5
100
AcDbSymbolTableRecord
100
AcDbLinetypeTableRecord
  2
AM_ISO08W050x2
 70
     0
  3
__ . __ . __ . __ . __ . __
 72
    65
 73
     4
 40
9.0
 49
6.0
 74
     0
 49
-0.75
 74
     0
 49
1.5
 74
     0
 49
-0.75
 74
     0
  0
LTYPE
  5
52
330
5
100
AcDbSymbolTableRecord
100
AcDbLinetypeTableRecord
  2
AM_ISO02W050x2
 70
     0
  3
 _ _ _ _ _ _ _ _ _ _ _ _
 72
    65
 73
     2
 40
3.75
 49
3.0
 74
     0
 49
-0.75
 74
     0
  0
LTYPE
  5
55
330
5
100
AcDbSymbolTableRecord
100
AcDbLinetypeTableRecord
  2
Amzigzag
 70
     0
  3
/\/-/\/-/\/-/\/-/\/-/\/
 72
    65
 73
     2
 40
11.0001
 49
0.0001
 74
     4
 75
   136
340
23D
 46
0.04
 50
0.0
 44
0.0
 45
0.0
 49
-11.0
 74
     0
  0
LTYPE
  5
65
330
5
100
AcDbSymbolTableRecord
100
AcDbLinetypeTableRecord
  2
CENTER
 70
     0
  3
__ . __
 72
    65
 73
     4
 40
7.0
 49
4.0
 74
     0
 49
-1.0
 74
     0
 49
1.0
 74
     0
 49
-1.0
 74
     0
  0
LTYPE
  5
E0
330
5
100
AcDbSymbolTableRecord
100
AcDbLinetypeTableRecord
  2
HIDDEN
 70
     0
  3
Hidden __ __ __ __ __ __ __ __ __ __ __ __ __ _
 72
    65
 73
     2
 40
9.524999999999996
 49
6.349999999999998
 74
     0
 49
-3.174999999999998
 74
     0
  0
LTYPE
  5
E1
330
5
100
AcDbSymbolTableRecord
100
AcDbLinetypeTableRecord
  2
PHANTOM2
 70
     0
  3
Phantom (.5x) ___ _ _ ___ _ _ ___ _ _ ___ _ _
 72
    65
 73
     6
 40
31.75
 49
15.875
 74
     0
 49
-3.174999999999998
 74
     0
 49
3.174999999999998
 74
     0
 49
-3.174999999999998
 74
     0
 49
3.174999999999998
 74
     0
 49
-3.174999999999998
 74
     0
  0
LTYPE
  5
5A2
330
5
100
AcDbSymbolTableRecord
100
AcDbLinetypeTableRecord
  2
ACJISWELD
 70
     0
  3
_ _ _ _ _
 72
    65
 73
     2
 40
2.0
 49
2.0
 74
     0
 49
-1.0
 74
     0
  0
LTYPE
  5
6E43
330
5
100
AcDbSymbolTableRecord
100
AcDbLinetypeTableRecord
  2
ACISOWELD
 70
     0
  3
_ _ _ _ _
 72
    65
 73
     2
 40
2.0
 49
2.0
 74
     0
 49
-1.0
 74
     0
  0
LTYPE
  5
6E44
330
5
100
AcDbSymbolTableRecord
100
AcDbLinetypeTableRecord
  2
ACISOTGB
 70
     0
  3
__ . . __ . .
 72
    65
 73
     6
 40
9.0
 49
4.0
 74
     0
 49
-1.0
 74
     0
 49
1.0
 74
     0
 49
-1.0
 74
     0
 49
1.0
 74
     0
 49
-1.0
 74
     0
  0
LTYPE
  5
6E45
330
5
100
AcDbSymbolTableRecord
100
AcDbLinetypeTableRecord
  2
ACISOTGL
 70
     0
  3
_ _ _ _ _
 72
    65
 73
     2
 40
3.0
 49
2.0
 74
     0
 49
-1.0
 74
     0
  0
ENDTAB
  0
TABLE
  2
LAYER
  5
2
102
{ACAD_XDICTIONARY
360
BF
102
}
330
0
100
AcDbSymbolTable
 70
    10
  0
LAYER
  5
10
102
{ACAD_XDICTIONARY
360
29F7
102
}
330
2
100
AcDbSymbolTableRecord
100
AcDbLayerTableRecord
  2
0
 70
     0
 62
     7
  6
Continuous
370
    -3
390
F
347
27E
  0
LAYER
  5
81
102
{ACAD_XDICTIONARY
360
29F9
102
}
330
2
100
AcDbSymbolTableRecord
100
AcDbLayerTableRecord
  2
AM_0 外形線1
 70
     0
 62
     7
  6
Continuous
370
    25
390
F
347
27E
  0
LAYER
  5
427
330
2
100
AcDbSymbolTableRecord
100
AcDbLayerTableRecord
  2
Defpoints
 70
     0
 62
     7
  6
Continuous
290
     0
370
    -3
390
F
347
27E
  0
LAYER
  5
3B20
330
2
100
AcDbSymbolTableRecord
100
AcDbLayerTableRecord
  2
AM_5 寸法線
 70
     0
 62
     3
  6
Continuous
370
    13
390
F
347
27E
1001
AcAecLayerStandard
1000

1000

  0
LAYER
  5
3B21
330
2
100
AcDbSymbolTableRecord
100
AcDbLayerTableRecord
  2
AM_4 細線
 70
     0
 62
     4
  6
Continuous
370
    13
390
F
347
27E
1001
AcAecLayerStandard
1000

1000

  0
LAYER
  5
3B22
330
2
100
AcDbSymbolTableRecord
100
AcDbLayerTableRecord
  2
AM_7 中心線
 70
     0
 62
     1
  6
AM_ISO08W050
370
    13
390
F
347
27E
1001
AcAecLayerStandard
1000

1000

  0
LAYER
  5
3B23
330
2
100
AcDbSymbolTableRecord
100
AcDbLayerTableRecord
  2
AM_3 隠れ線
 70
     0
 62
     8
  6
ACJISWELD
370
    13
390
F
347
27E
1001
AcAecLayerStandard
1000

1000

  0
LAYER
  5
3B25
330
2
100
AcDbSymbolTableRecord
100
AcDbLayerTableRecord
  2
AM_6 文字
 70
     0
 62
     2
  6
Continuous
370
    13
390
F
347
27E
1001
AcAecLayerStandard
1000

1000

  0
LAYER
  5
6B6C
330
2
100
AcDbSymbolTableRecord
100
AcDbLayerTableRecord
  2
AM_11 想像線
 70
     0
 62
     5
  6
AM_ISO09W050
370
    13
390
F
347
27E
1001
AcAecLayerStandard
1000

1000

  0
ENDTAB
  0
TABLE
  2
STYLE
  5
3
330
0
100
AcDbSymbolTable
 70
    11
  0
STYLE
  5
11
330
3
100
AcDbSymbolTableRecord
100
AcDbTextStyleTableRecord
  2
STANDARD
 70
     0
 40
0.0
 41
1.0
 50
0.0
 71
     0
 42
25.0
  3
ISOCP.SHX
  4
EXTFONT.SHX
  0
STYLE
  5
23D
330
3
100
AcDbSymbolTableRecord
100
AcDbTextStyleTableRecord
  2

 70
     1
 40
0.0
 41
1.0
 50
0.0
 71
     0
 42
2.5
  3
genltshp.shx
  4

  0
STYLE
  5
5D5
330
3
100
AcDbSymbolTableRecord
100
AcDbTextStyleTableRecord
  2
SEISA
 70
     0
 40
0.0
 41
0.9
 50
0.0
 71
     0
 42
25.0
  3
romans.shx
  4
extfont2.shx
  0
STYLE
  5
6E33
330
3
100
AcDbSymbolTableRecord
100
AcDbTextStyleTableRecord
  2
ACISOTS
 70
     0
 40
1.0
 41
1.0
 50
0.0
 71
     0
 42
25.0
  3
isocp.shx
  4
extfont.shx
  0
STYLE
  5
6E42
330
3
100
AcDbSymbolTableRecord
100
AcDbTextStyleTableRecord
  2
ACISOGDT
 70
     0
 40
0.0
 41
1.0
 50
0.0
 71
     0
 42
25.0
  3
amgdt.shx
  4

  0
ENDTAB
  0
TABLE
  2
VIEW
  5
6
330
0
100
AcDbSymbolTable
 70
     6
  0
VIEW
  5
91B
330
6
100
AcDbSymbolTableRecord
100
AcDbViewTableRecord
  2
AM_VIEW1
 70
     0
 40
2227.5
 10
2153.432884644907
 20
3341.250005540732
 41
4306.865763546799
 11
0.0
 21
0.0
 31
1.0
 12
0.0
 22
0.0
 32
0.0
 42
50.0
 43
0.0
 44
0.0
 50
0.0
 71
    16
281
     0
 72
     0
 73
     0
  0
VIEW
  5
91C
330
6
100
AcDbSymbolTableRecord
100
AcDbViewTableRecord
  2
AM_VIEW2
 70
     0
 40
2227.5
 10
4146.567121098108
 20
3341.250005540732
 41
4306.865763546799
 11
0.0
 21
0.0
 31
1.0
 12
0.0
 22
0.0
 32
0.0
 42
50.0
 43
0.0
 44
0.0
 50
0.0
 71
    16
281
     0
 72
     0
 73
     0
  0
VIEW
  5
91D
330
6
100
AcDbSymbolTableRecord
100
AcDbViewTableRecord
  2
AM_VIEW3
 70
     0
 40
2227.5
 10
2153.432884644907
 20
1113.750005540731
 41
4306.865763546799
 11
0.0
 21
0.0
 31
1.0
 12
0.0
 22
0.0
 32
0.0
 42
50.0
 43
0.0
 44
0.0
 50
0.0
 71
    16
281
     0
 72
     0
 73
     0
  0
VIEW
  5
91E
330
6
100
AcDbSymbolTableRecord
100
AcDbViewTableRecord
  2
AM_VIEW4
 70
     0
 40
2227.5
 10
4146.567121098108
 20
1113.750005540731
 41
4306.865763546799
 11
0.0
 21
0.0
 31
1.0
 12
0.0
 22
0.0
 32
0.0
 42
50.0
 43
0.0
 44
0.0
 50
0.0
 71
    16
281
     0
 72
     0
 73
     0
  0
VIEW
  5
91F
330
6
100
AcDbSymbolTableRecord
100
AcDbViewTableRecord
  2
AM_VIEW5
 70
     0
 40
2227.500000000001
 10
3150.000002871508
 20
2227.500005540731
 41
4306.865763546799
 11
0.0
 21
0.0
 31
1.0
 12
0.0
 22
0.0
 32
0.0
 42
50.0
 43
0.0
 44
0.0
 50
0.0
 71
    16
281
     0
 72
     0
 73
     0
  0
VIEW
  5
920
330
6
100
AcDbSymbolTableRecord
100
AcDbViewTableRecord
  2
AM_VIEW6
 70
     0
 40
4454.955450000001
 10
3150.000002871508
 20
2227.500005540731
 41
8613.645389778326
 11
0.0
 21
0.0
 31
1.0
 12
0.0
 22
0.0
 32
0.0
 42
50.0
 43
0.0
 44
0.0
 50
0.0
 71
    16
281
     0
 72
     0
 73
     0
  0
ENDTAB
  0
TABLE
  2
UCS
  5
7
330
0
100
AcDbSymbolTable
 70
     0
  0
ENDTAB
  0
TABLE
  2
APPID
  5
9
330
0
100
AcDbSymbolTable
 70
   396
  0
APPID
  5
12
330
9
100
AcDbSymbolTableRecord
100
AcDbRegAppTableRecord
  2
ACAD
 70
     0
  0
APPID
  5
30
330
9
100
AcDbSymbolTableRecord
100
AcDbRegAppTableRecord
  2
MCAD_NO_VIS
 70
     0
  0
APPID
  5
31
330
9
100
AcDbSymbolTableRecord
100
AcDbRegAppTableRecord
  2
ACAD_TEMP_GRAPHIC
 70
     0
  0
APPID
  5
44
330
9
100
AcDbSymbolTableRecord
100
AcDbRegAppTableRecord
  2
ACATTRIBSERVICES
 70
     0
  0
APPID
  5
F6
330
9
100
AcDbSymbolTableRecord
100
AcDbRegAppTableRecord
  2
AD_DRAW
 70
     0
  0
APPID
  5
114
330
9
100
AcDbSymbolTableRecord
100
AcDbRegAppTableRecord
  2
DESIGNERASSEMBLIES
 70
     0
  0
APPID
  5
118
330
9
100
AcDbSymbolTableRecord
100
AcDbRegAppTableRecord
  2
ACADM_DIM_EDIT
 70
     0
  0
APPID
  5
119
330
9
100
AcDbSymbolTableRecord
100
AcDbRegAppTableRecord
  2
AMDT_DM_ADJ
 70
     0
  0
APPID
  5
1AF
330
9
100
AcDbSymbolTableRecord
100
AcDbRegAppTableRecord
  2
ACAD_DSTYLE_DIMARC_LENGTH_SYMBOL
 70
     0
  0
APPID
  5
1B0
330
9
100
AcDbSymbolTableRecord
100
AcDbRegAppTableRecord
  2
ACAD_DSTYLE_DIMJOGGED_JOGANGLE_SYMBOL
 70
     0
  0
APPID
  5
2D7
330
9
100
AcDbSymbolTableRecord
100
AcDbRegAppTableRecord
  2
ACAD_MLEADERVER
 70
     0
  0
APPID
  5
355
330
9
100
AcDbSymbolTableRecord
100
AcDbRegAppTableRecord
  2
AcadAnnoPO
 70
     0
  0
APPID
  5
428
330
9
100
AcDbSymbolTableRecord
100
AcDbRegAppTableRecord
  2
ACAD_DSTYLE_DIMTEXT_FILL
 70
     0
  0
APPID
  5
429
330
9
100
AcDbSymbolTableRecord
100
AcDbRegAppTableRecord
  2
GENIUS_GENSCREG_15
 70
     0
  0
APPID
  5
42A
330
9
100
AcDbSymbolTableRecord
100
AcDbRegAppTableRecord
  2
GENIUS_GENOBJ-N-SDF_13
 70
     0
  0
APPID
  5
42B
330
9
100
AcDbSymbolTableRecord
100
AcDbRegAppTableRecord
  2
GENIUS_GENODEF_13
 70
     0
  0
APPID
  5
42C
330
9
100
AcDbSymbolTableRecord
100
AcDbRegAppTableRecord
  2
ACAD_EXEMPT_FROM_CAD_STANDARDS
 70
     0
  0
APPID
  5
42D
330
9
100
AcDbSymbolTableRecord
100
AcDbRegAppTableRecord
  2
AcAecLayerStandard
 70
     0
  0
APPID
  5
42E
330
9
100
AcDbSymbolTableRecord
100
AcDbRegAppTableRecord
  2
GENIUS_GENOBJ-N-CEN_13
 70
     0
  0
APPID
  5
42F
330
9
100
AcDbSymbolTableRecord
100
AcDbRegAppTableRecord
  2
GENIUS_GENCEN_19
 70
     0
  0
APPID
  5
430
330
9
100
AcDbSymbolTableRecord
100
AcDbRegAppTableRecord
  2
ACAD_DSTYLE_DIMINSPECT
 70
     0
  0
APPID
  5
431
330
9
100
AcDbSymbolTableRecord
100
AcDbRegAppTableRecord
  2
GENIUS_AMGTXT_16
 70
     0
  0
APPID
  5
432
330
9
100
AcDbSymbolTableRecord
100
AcDbRegAppTableRecord
  2
GENIUS_GENFIL_13
 70
     0
  0
APPID
  5
433
330
9
100
AcDbSymbolTableRecord
100
AcDbRegAppTableRecord
  2
GENIUS_GENOLIS_13
 70
     0
  0
APPID
  5
434
330
9
100
AcDbSymbolTableRecord
100
AcDbRegAppTableRecord
  2
GENIUS_GENOBJ-N-CHA_13
 70
     0
  0
APPID
  5
435
330
9
100
AcDbSymbolTableRecord
100
AcDbRegAppTableRecord
  2
GENIUS_GENOENT_13
 70
     0
  0
APPID
  5
436
330
9
100
AcDbSymbolTableRecord
100
AcDbRegAppTableRecord
  2
GENIUS_GENOREF_13
 70
     0
  0
APPID
  5
437
330
9
100
AcDbSymbolTableRecord
100
AcDbRegAppTableRecord
  2
GENIUS_GENOBJ-N-FIL_13
 70
     0
  0
APPID
  5
438
330
9
100
AcDbSymbolTableRecord
100
AcDbRegAppTableRecord
  2
GEVID1208829536
 70
     0
  0
APPID
  5
439
330
9
100
AcDbSymbolTableRecord
100
AcDbRegAppTableRecord
  2
GEVDC
 70
     0
  0
APPID
  5
43A
330
9
100
AcDbSymbolTableRecord
100
AcDbRegAppTableRecord
  2
GEVRADREF
 70
     0
  0
APPID
  5
43B
330
9
100
AcDbSymbolTableRecord
100
AcDbRegAppTableRecord
  2
GENIUS_GENBH_13
 70
     0
  0
APPID
  5
43C
330
9
100
AcDbSymbolTableRecord
100
AcDbRegAppTableRecord
  2
GENIUS_GENOBJ-NBEHI-BHF_13
 70
     0
  0
APPID
  5
43D
330
9
100
AcDbSymbolTableRecord
100
AcDbRegAppTableRecord
  2
GENIUS_GENOBJ-NBEHI-BHB_13
 70
     0
  0
APPID
  5
43E
330
9
100
AcDbSymbolTableRecord
100
AcDbRegAppTableRecord
  2
GEVID1208829537
 70
     0
  0
APPID
  5
43F
330
9
100
AcDbSymbolTableRecord
100
AcDbRegAppTableRecord
  2
ACAD_DSTYLE_DIMJAG
 70
     0
  0
APPID
  5
440
330
9
100
AcDbSymbolTableRecord
100
AcDbRegAppTableRecord
  2
ACAD_DSTYLE_DIMTALN
 70
     0
  0
APPID
  5
441
330
9
100
AcDbSymbolTableRecord
100
AcDbRegAppTableRecord
  2
AMG_2DHIDE
 70
     0
  0
APPID
  5
442
330
9
100
AcDbSymbolTableRecord
100
AcDbRegAppTableRecord
  2
AMG_2DSTRUCT_BTR
 70
     0
  0
APPID
  5
443
330
9
100
AcDbSymbolTableRecord
100
AcDbRegAppTableRecord
  2
GEVID1208845772
 70
     0
  0
APPID
  5
444
330
9
100
AcDbSymbolTableRecord
100
AcDbRegAppTableRecord
  2
GEVID1208845773
 70
     0
  0
APPID
  5
445
330
9
100
AcDbSymbolTableRecord
100
AcDbRegAppTableRecord
  2
ACADM_2DVIEW_IGN_NOTIFY
 70
     0
  0
APPID
  5
446
330
9
100
AcDbSymbolTableRecord
100
AcDbRegAppTableRecord
  2
GEVID1208845774
 70
     0
  0
APPID
  5
447
330
9
100
AcDbSymbolTableRecord
100
AcDbRegAppTableRecord
  2
GEVID1208845775
 70
     0
  0
APPID
  5
448
330
9
100
AcDbSymbolTableRecord
100
AcDbRegAppTableRecord
  2
GEVID1208845776
 70
     0
  0
APPID
  5
449
330
9
100
AcDbSymbolTableRecord
100
AcDbRegAppTableRecord
  2
GEVID1208845777
 70
     0
  0
APPID
  5
44A
330
9
100
AcDbSymbolTableRecord
100
AcDbRegAppTableRecord
  2
GEVCON
 70
     0
  0
APPID
  5
44B
330
9
100
AcDbSymbolTableRecord
100
AcDbRegAppTableRecord
  2
GENIUS_GENOBJ-F-SCPASSM_13
 70
     0
  0
APPID
  5
44C
330
9
100
AcDbSymbolTableRecord
100
AcDbRegAppTableRecord
  2
GEVID1208845778
 70
     0
  0
APPID
  5
44D
330
9
100
AcDbSymbolTableRecord
100
AcDbRegAppTableRecord
  2
GEVID1208845779
 70
     0
  0
APPID
  5
44E
330
9
100
AcDbSymbolTableRecord
100
AcDbRegAppTableRecord
  2
GEVID1208845780
 70
     0
  0
APPID
  5
44F
330
9
100
AcDbSymbolTableRecord
100
AcDbRegAppTableRecord
  2
GEVID1208845781
 70
     0
  0
APPID
  5
450
330
9
100
AcDbSymbolTableRecord
100
AcDbRegAppTableRecord
  2
GEVID1208845782
 70
     0
  0
APPID
  5
451
330
9
100
AcDbSymbolTableRecord
100
AcDbRegAppTableRecord
  2
GEVID1208845783
 70
     0
  0
APPID
  5
452
330
9
100
AcDbSymbolTableRecord
100
AcDbRegAppTableRecord
  2
GEVID1208845784
 70
     0
  0
APPID
  5
453
330
9
100
AcDbSymbolTableRecord
100
AcDbRegAppTableRecord
  2
GEVID1208845785
 70
     0
  0
APPID
  5
454
330
9
100
AcDbSymbolTableRecord
100
AcDbRegAppTableRecord
  2
GEVID1208845787
 70
     0
  0
APPID
  5
455
330
9
100
AcDbSymbolTableRecord
100
AcDbRegAppTableRecord
  2
GEVID1208845788
 70
     0
  0
APPID
  5
456
330
9
100
AcDbSymbolTableRecord
100
AcDbRegAppTableRecord
  2
GEVID1208845789
 70
     0
  0
APPID
  5
457
330
9
100
AcDbSymbolTableRecord
100
AcDbRegAppTableRecord
  2
GEVID1208845790
 70
     0
  0
APPID
  5
458
330
9
100
AcDbSymbolTableRecord
100
AcDbRegAppTableRecord
  2
GEVID1208845791
 70
     0
  0
APPID
  5
459
330
9
100
AcDbSymbolTableRecord
100
AcDbRegAppTableRecord
  2
GEVID1208845792
 70
     0
  0
APPID
  5
45A
330
9
100
AcDbSymbolTableRecord
100
AcDbRegAppTableRecord
  2
GEVID1208845793
 70
     0
  0
APPID
  5
45B
330
9
100
AcDbSymbolTableRecord
100
AcDbRegAppTableRecord
  2
GEVID1208845794
 70
     0
  0
APPID
  5
45C
330
9
100
AcDbSymbolTableRecord
100
AcDbRegAppTableRecord
  2
GEVID1208845795
 70
     0
  0
APPID
  5
45D
330
9
100
AcDbSymbolTableRecord
100
AcDbRegAppTableRecord
  2
GEVID1208845796
 70
     0
  0
APPID
  5
45E
330
9
100
AcDbSymbolTableRecord
100
AcDbRegAppTableRecord
  2
GEVID1208845797
 70
     0
  0
APPID
  5
45F
330
9
100
AcDbSymbolTableRecord
100
AcDbRegAppTableRecord
  2
GEVID1208845798
 70
     0
  0
APPID
  5
460
330
9
100
AcDbSymbolTableRecord
100
AcDbRegAppTableRecord
  2
GEVID1208845799
 70
     0
  0
APPID
  5
461
330
9
100
AcDbSymbolTableRecord
100
AcDbRegAppTableRecord
  2
GEVID1208845800
 70
     0
  0
APPID
  5
462
330
9
100
AcDbSymbolTableRecord
100
AcDbRegAppTableRecord
  2
GEVID1208845801
 70
     0
  0
APPID
  5
463
330
9
100
AcDbSymbolTableRecord
100
AcDbRegAppTableRecord
  2
GEVID1208845802
 70
     0
  0
APPID
  5
464
330
9
100
AcDbSymbolTableRecord
100
AcDbRegAppTableRecord
  2
GENIUS_GENOBJ-N-DIM_13
 70
     0
  0
APPID
  5
465
330
9
100
AcDbSymbolTableRecord
100
AcDbRegAppTableRecord
  2
GENIUS_GENDIM_13
 70
     0
  0
APPID
  5
466
330
9
100
AcDbSymbolTableRecord
100
AcDbRegAppTableRecord
  2
GENIUS_GENDIMSH_14
 70
     0
  0
APPID
  5
467
330
9
100
AcDbSymbolTableRecord
100
AcDbRegAppTableRecord
  2
GEVID1208845803
 70
     0
  0
APPID
  5
468
330
9
100
AcDbSymbolTableRecord
100
AcDbRegAppTableRecord
  2
GEVID1208845804
 70
     0
  0
APPID
  5
469
330
9
100
AcDbSymbolTableRecord
100
AcDbRegAppTableRecord
  2
GEVID1208845805
 70
     0
  0
APPID
  5
46A
330
9
100
AcDbSymbolTableRecord
100
AcDbRegAppTableRecord
  2
GEVID1208845806
 70
     0
  0
APPID
  5
46B
330
9
100
AcDbSymbolTableRecord
100
AcDbRegAppTableRecord
  2
GEVID1208845807
 70
     0
  0
APPID
  5
46C
330
9
100
AcDbSymbolTableRecord
100
AcDbRegAppTableRecord
  2
GEVID1208845808
 70
     0
  0
APPID
  5
46D
330
9
100
AcDbSymbolTableRecord
100
AcDbRegAppTableRecord
  2
GEVID1208845809
 70
     0
  0
APPID
  5
46E
330
9
100
AcDbSymbolTableRecord
100
AcDbRegAppTableRecord
  2
GEVID1208845810
 70
     0
  0
APPID
  5
46F
330
9
100
AcDbSymbolTableRecord
100
AcDbRegAppTableRecord
  2
GEVID1208845811
 70
     0
  0
APPID
  5
470
330
9
100
AcDbSymbolTableRecord
100
AcDbRegAppTableRecord
  2
GEVID1208845813
 70
     0
  0
APPID
  5
471
330
9
100
AcDbSymbolTableRecord
100
AcDbRegAppTableRecord
  2
GEVID1208845814
 70
     0
  0
APPID
  5
472
330
9
100
AcDbSymbolTableRecord
100
AcDbRegAppTableRecord
  2
GEVID1208845815
 70
     0
  0
APPID
  5
473
330
9
100
AcDbSymbolTableRecord
100
AcDbRegAppTableRecord
  2
GEVID1208845816
 70
     0
  0
APPID
  5
474
330
9
100
AcDbSymbolTableRecord
100
AcDbRegAppTableRecord
  2
GEVID1208845817
 70
     0
  0
APPID
  5
475
330
9
100
AcDbSymbolTableRecord
100
AcDbRegAppTableRecord
  2
GEVID1208845818
 70
     0
  0
APPID
  5
476
330
9
100
AcDbSymbolTableRecord
100
AcDbRegAppTableRecord
  2
GEVID1208845819
 70
     0
  0
APPID
  5
477
330
9
100
AcDbSymbolTableRecord
100
AcDbRegAppTableRecord
  2
GEVID1208845820
 70
     0
  0
APPID
  5
478
330
9
100
AcDbSymbolTableRecord
100
AcDbRegAppTableRecord
  2
GENIUS_GENOBJ-F-SHCL_13
 70
     0
  0
APPID
  5
479
330
9
100
AcDbSymbolTableRecord
100
AcDbRegAppTableRecord
  2
GENIUS_GEFMSH_13
 70
     0
  0
APPID
  5
47A
330
9
100
AcDbSymbolTableRecord
100
AcDbRegAppTableRecord
  2
GENIUS_GENOBJ-F-SHCA_13
 70
     0
  0
APPID
  5
47B
330
9
100
AcDbSymbolTableRecord
100
AcDbRegAppTableRecord
  2
GENIUS_GEFSH_13
 70
     0
  0
APPID
  5
47C
330
9
100
AcDbSymbolTableRecord
100
AcDbRegAppTableRecord
  2
GENIUS_GEFSHP_13
 70
     0
  0
APPID
  5
47D
330
9
100
AcDbSymbolTableRecord
100
AcDbRegAppTableRecord
  2
GENIUS_GEFSHP0_13
 70
     0
  0
APPID
  5
47E
330
9
100
AcDbSymbolTableRecord
100
AcDbRegAppTableRecord
  2
GENIUS_GEFSH0_13
 70
     0
  0
APPID
  5
47F
330
9
100
AcDbSymbolTableRecord
100
AcDbRegAppTableRecord
  2
GENIUS_GEFSHP1_13
 70
     0
  0
APPID
  5
480
330
9
100
AcDbSymbolTableRecord
100
AcDbRegAppTableRecord
  2
GENIUS_GEFSH1_13
 70
     0
  0
APPID
  5
481
330
9
100
AcDbSymbolTableRecord
100
AcDbRegAppTableRecord
  2
GEVID1208866337
 70
     0
  0
APPID
  5
482
330
9
100
AcDbSymbolTableRecord
100
AcDbRegAppTableRecord
  2
GEVID1208866338
 70
     0
  0
APPID
  5
483
330
9
100
AcDbSymbolTableRecord
100
AcDbRegAppTableRecord
  2
GEVID1208866339
 70
     0
  0
APPID
  5
484
330
9
100
AcDbSymbolTableRecord
100
AcDbRegAppTableRecord
  2
GEVID1208866340
 70
     0
  0
APPID
  5
485
330
9
100
AcDbSymbolTableRecord
100
AcDbRegAppTableRecord
  2
GEVID1208866341
 70
     0
  0
APPID
  5
486
330
9
100
AcDbSymbolTableRecord
100
AcDbRegAppTableRecord
  2
ACAD_PSEXT
 70
     0
  0
APPID
  5
487
330
9
100
AcDbSymbolTableRecord
100
AcDbRegAppTableRecord
  2
GEVID1208866342
 70
     0
  0
APPID
  5
488
330
9
100
AcDbSymbolTableRecord
100
AcDbRegAppTableRecord
  2
GEVID1208913836
 70
     0
  0
APPID
  5
489
330
9
100
AcDbSymbolTableRecord
100
AcDbRegAppTableRecord
  2
GEVID1208913837
 70
     0
  0
APPID
  5
48A
330
9
100
AcDbSymbolTableRecord
100
AcDbRegAppTableRecord
  2
GEVID1208913838
 70
     0
  0
APPID
  5
48B
330
9
100
AcDbSymbolTableRecord
100
AcDbRegAppTableRecord
  2
GEVID1208913839
 70
     0
  0
APPID
  5
48C
330
9
100
AcDbSymbolTableRecord
100
AcDbRegAppTableRecord
  2
GENIUS_GENDTOL_13
 70
     0
  0
APPID
  5
48D
330
9
100
AcDbSymbolTableRecord
100
AcDbRegAppTableRecord
  2
GEVID1208928889
 70
     0
  0
APPID
  5
48E
330
9
100
AcDbSymbolTableRecord
100
AcDbRegAppTableRecord
  2
GEVID1208928890
 70
     0
  0
APPID
  5
48F
330
9
100
AcDbSymbolTableRecord
100
AcDbRegAppTableRecord
  2
GEVID1208928891
 70
     0
  0
APPID
  5
490
330
9
100
AcDbSymbolTableRecord
100
AcDbRegAppTableRecord
  2
GEVID1208928892
 70
     0
  0
APPID
  5
491
330
9
100
AcDbSymbolTableRecord
100
AcDbRegAppTableRecord
  2
GEVID1208933827
 70
     0
  0
APPID
  5
492
330
9
100
AcDbSymbolTableRecord
100
AcDbRegAppTableRecord
  2
GEVID1208933829
 70
     0
  0
APPID
  5
493
330
9
100
AcDbSymbolTableRecord
100
AcDbRegAppTableRecord
  2
GEVID1208933830
 70
     0
  0
APPID
  5
494
330
9
100
AcDbSymbolTableRecord
100
AcDbRegAppTableRecord
  2
GEVID1208933831
 70
     0
  0
APPID
  5
495
330
9
100
AcDbSymbolTableRecord
100
AcDbRegAppTableRecord
  2
GEVID1208933832
 70
     0
  0
APPID
  5
496
330
9
100
AcDbSymbolTableRecord
100
AcDbRegAppTableRecord
  2
GEVID1208933833
 70
     0
  0
APPID
  5
497
330
9
100
AcDbSymbolTableRecord
100
AcDbRegAppTableRecord
  2
GEVID1208933834
 70
     0
  0
APPID
  5
498
330
9
100
AcDbSymbolTableRecord
100
AcDbRegAppTableRecord
  2
GEVID1208933835
 70
     0
  0
APPID
  5
499
330
9
100
AcDbSymbolTableRecord
100
AcDbRegAppTableRecord
  2
GEVID1208933836
 70
     0
  0
APPID
  5
49A
330
9
100
AcDbSymbolTableRecord
100
AcDbRegAppTableRecord
  2
GEVID1208933837
 70
     0
  0
APPID
  5
49B
330
9
100
AcDbSymbolTableRecord
100
AcDbRegAppTableRecord
  2
GEVID1208933838
 70
     0
  0
APPID
  5
49C
330
9
100
AcDbSymbolTableRecord
100
AcDbRegAppTableRecord
  2
GEVID1208933840
 70
     0
  0
APPID
  5
49D
330
9
100
AcDbSymbolTableRecord
100
AcDbRegAppTableRecord
  2
GEVID1208933842
 70
     0
  0
APPID
  5
49E
330
9
100
AcDbSymbolTableRecord
100
AcDbRegAppTableRecord
  2
GEVID1208933843
 70
     0
  0
APPID
  5
49F
330
9
100
AcDbSymbolTableRecord
100
AcDbRegAppTableRecord
  2
GEVID1208933844
 70
     0
  0
APPID
  5
4A0
330
9
100
AcDbSymbolTableRecord
100
AcDbRegAppTableRecord
  2
GEVID1208933845
 70
     0
  0
APPID
  5
4A1
330
9
100
AcDbSymbolTableRecord
100
AcDbRegAppTableRecord
  2
GEVID1208933846
 70
     0
  0
APPID
  5
4A2
330
9
100
AcDbSymbolTableRecord
100
AcDbRegAppTableRecord
  2
GEVID1208933847
 70
     0
  0
APPID
  5
4A3
330
9
100
AcDbSymbolTableRecord
100
AcDbRegAppTableRecord
  2
GEVID1208933848
 70
     0
  0
APPID
  5
4A4
330
9
100
AcDbSymbolTableRecord
100
AcDbRegAppTableRecord
  2
GEVID1208933849
 70
     0
  0
APPID
  5
4A5
330
9
100
AcDbSymbolTableRecord
100
AcDbRegAppTableRecord
  2
GEVID1208933850
 70
     0
  0
APPID
  5
4A6
330
9
100
AcDbSymbolTableRecord
100
AcDbRegAppTableRecord
  2
GEVID1208933851
 70
     0
  0
APPID
  5
4A7
330
9
100
AcDbSymbolTableRecord
100
AcDbRegAppTableRecord
  2
GEVID1208933852
 70
     0
  0
APPID
  5
4A8
330
9
100
AcDbSymbolTableRecord
100
AcDbRegAppTableRecord
  2
GEVID1208933853
 70
     0
  0
APPID
  5
4A9
330
9
100
AcDbSymbolTableRecord
100
AcDbRegAppTableRecord
  2
GEVID1208933854
 70
     0
  0
APPID
  5
4AA
330
9
100
AcDbSymbolTableRecord
100
AcDbRegAppTableRecord
  2
GEVID1208933855
 70
     0
  0
APPID
  5
4AB
330
9
100
AcDbSymbolTableRecord
100
AcDbRegAppTableRecord
  2
GEVID1208933856
 70
     0
  0
APPID
  5
4AC
330
9
100
AcDbSymbolTableRecord
100
AcDbRegAppTableRecord
  2
GEVID1208933857
 70
     0
  0
APPID
  5
4AD
330
9
100
AcDbSymbolTableRecord
100
AcDbRegAppTableRecord
  2
GEVID1208933858
 70
     0
  0
APPID
  5
4AE
330
9
100
AcDbSymbolTableRecord
100
AcDbRegAppTableRecord
  2
GEVID1208933859
 70
     0
  0
APPID
  5
4AF
330
9
100
AcDbSymbolTableRecord
100
AcDbRegAppTableRecord
  2
GEVID1208933860
 70
     0
  0
APPID
  5
4B0
330
9
100
AcDbSymbolTableRecord
100
AcDbRegAppTableRecord
  2
GEVID1208933861
 70
     0
  0
APPID
  5
4B1
330
9
100
AcDbSymbolTableRecord
100
AcDbRegAppTableRecord
  2
GEVID1208933862
 70
     0
  0
APPID
  5
4B2
330
9
100
AcDbSymbolTableRecord
100
AcDbRegAppTableRecord
  2
GEVID1208933863
 70
     0
  0
APPID
  5
4B3
330
9
100
AcDbSymbolTableRecord
100
AcDbRegAppTableRecord
  2
GEVID1208933864
 70
     0
  0
APPID
  5
4B4
330
9
100
AcDbSymbolTableRecord
100
AcDbRegAppTableRecord
  2
GEVID1208933865
 70
     0
  0
APPID
  5
4B5
330
9
100
AcDbSymbolTableRecord
100
AcDbRegAppTableRecord
  2
GEVID1208933866
 70
     0
  0
APPID
  5
4B6
330
9
100
AcDbSymbolTableRecord
100
AcDbRegAppTableRecord
  2
GEVID1208933867
 70
     0
  0
APPID
  5
4B7
330
9
100
AcDbSymbolTableRecord
100
AcDbRegAppTableRecord
  2
GEVID1208933868
 70
     0
  0
APPID
  5
4B8
330
9
100
AcDbSymbolTableRecord
100
AcDbRegAppTableRecord
  2
GEVID1208933869
 70
     0
  0
APPID
  5
4B9
330
9
100
AcDbSymbolTableRecord
100
AcDbRegAppTableRecord
  2
GEVID1208933870
 70
     0
  0
APPID
  5
4BA
330
9
100
AcDbSymbolTableRecord
100
AcDbRegAppTableRecord
  2
GEVID1208933871
 70
     0
  0
APPID
  5
4BB
330
9
100
AcDbSymbolTableRecord
100
AcDbRegAppTableRecord
  2
GEVID1208933872
 70
     0
  0
APPID
  5
4BC
330
9
100
AcDbSymbolTableRecord
100
AcDbRegAppTableRecord
  2
GEVID1208933873
 70
     0
  0
APPID
  5
4BD
330
9
100
AcDbSymbolTableRecord
100
AcDbRegAppTableRecord
  2
GEVID1208933874
 70
     0
  0
APPID
  5
4BE
330
9
100
AcDbSymbolTableRecord
100
AcDbRegAppTableRecord
  2
GEVID1208933875
 70
     0
  0
APPID
  5
4BF
330
9
100
AcDbSymbolTableRecord
100
AcDbRegAppTableRecord
  2
GEVID1208933876
 70
     0
  0
APPID
  5
4C0
330
9
100
AcDbSymbolTableRecord
100
AcDbRegAppTableRecord
  2
ACAD_DSTYLE_DIMRADIAL_EXTENSION
 70
     0
  0
APPID
  5
4C1
330
9
100
AcDbSymbolTableRecord
100
AcDbRegAppTableRecord
  2
GEVID1208999100
 70
     0
  0
APPID
  5
4C2
330
9
100
AcDbSymbolTableRecord
100
AcDbRegAppTableRecord
  2
GEVID1208999101
 70
     0
  0
APPID
  5
4C3
330
9
100
AcDbSymbolTableRecord
100
AcDbRegAppTableRecord
  2
GEVID1208999102
 70
     0
  0
APPID
  5
4C4
330
9
100
AcDbSymbolTableRecord
100
AcDbRegAppTableRecord
  2
GEVID1208999103
 70
     0
  0
APPID
  5
4C5
330
9
100
AcDbSymbolTableRecord
100
AcDbRegAppTableRecord
  2
GEVID1208999105
 70
     0
  0
APPID
  5
4C6
330
9
100
AcDbSymbolTableRecord
100
AcDbRegAppTableRecord
  2
GEVID1208999106
 70
     0
  0
APPID
  5
4C7
330
9
100
AcDbSymbolTableRecord
100
AcDbRegAppTableRecord
  2
GEVID1208999108
 70
     0
  0
APPID
  5
4C8
330
9
100
AcDbSymbolTableRecord
100
AcDbRegAppTableRecord
  2
GEVID1208999109
 70
     0
  0
APPID
  5
4C9
330
9
100
AcDbSymbolTableRecord
100
AcDbRegAppTableRecord
  2
GEVID1208999110
 70
     0
  0
APPID
  5
4CA
330
9
100
AcDbSymbolTableRecord
100
AcDbRegAppTableRecord
  2
GEVID1208999111
 70
     0
  0
APPID
  5
4CB
330
9
100
AcDbSymbolTableRecord
100
AcDbRegAppTableRecord
  2
GEVID1208999112
 70
     0
  0
APPID
  5
4CC
330
9
100
AcDbSymbolTableRecord
100
AcDbRegAppTableRecord
  2
GEVID1208999113
 70
     0
  0
APPID
  5
4CD
330
9
100
AcDbSymbolTableRecord
100
AcDbRegAppTableRecord
  2
GEVID1208999114
 70
     0
  0
APPID
  5
4CE
330
9
100
AcDbSymbolTableRecord
100
AcDbRegAppTableRecord
  2
GEVID1210218799
 70
     0
  0
APPID
  5
4CF
330
9
100
AcDbSymbolTableRecord
100
AcDbRegAppTableRecord
  2
GEVID1210218800
 70
     0
  0
APPID
  5
4D0
330
9
100
AcDbSymbolTableRecord
100
AcDbRegAppTableRecord
  2
GENIUS_GEFWELD_13
 70
     0
  0
APPID
  5
4D1
330
9
100
AcDbSymbolTableRecord
100
AcDbRegAppTableRecord
  2
GENIUS_GENOBJ-F-WELS_13
 70
     0
  0
APPID
  5
4D2
330
9
100
AcDbSymbolTableRecord
100
AcDbRegAppTableRecord
  2
AcadAnnotative
 70
     0
  0
APPID
  5
4D3
330
9
100
AcDbSymbolTableRecord
100
AcDbRegAppTableRecord
  2
GEVID1210145339
 70
     0
  0
APPID
  5
4D4
330
9
100
AcDbSymbolTableRecord
100
AcDbRegAppTableRecord
  2
ACAD_DSTYLE_DIMBREAK
 70
     0
  0
APPID
  5
4D5
330
9
100
AcDbSymbolTableRecord
100
AcDbRegAppTableRecord
  2
GEVID1210145340
 70
     0
  0
APPID
  5
4D6
330
9
100
AcDbSymbolTableRecord
100
AcDbRegAppTableRecord
  2
GEVID1210145341
 70
     0
  0
APPID
  5
4D7
330
9
100
AcDbSymbolTableRecord
100
AcDbRegAppTableRecord
  2
GEVID1210145342
 70
     0
  0
APPID
  5
4D8
330
9
100
AcDbSymbolTableRecord
100
AcDbRegAppTableRecord
  2
GEVID1210145343
 70
     0
  0
APPID
  5
4D9
330
9
100
AcDbSymbolTableRecord
100
AcDbRegAppTableRecord
  2
GEVID1210145344
 70
     0
  0
APPID
  5
4DA
330
9
100
AcDbSymbolTableRecord
100
AcDbRegAppTableRecord
  2
GEVID1210145345
 70
     0
  0
APPID
  5
4DB
330
9
100
AcDbSymbolTableRecord
100
AcDbRegAppTableRecord
  2
GEVID1210152816
 70
     0
  0
APPID
  5
4DC
330
9
100
AcDbSymbolTableRecord
100
AcDbRegAppTableRecord
  2
GEVID1210153850
 70
     0
  0
APPID
  5
4DD
330
9
100
AcDbSymbolTableRecord
100
AcDbRegAppTableRecord
  2
GEVID1210153851
 70
     0
  0
APPID
  5
4DE
330
9
100
AcDbSymbolTableRecord
100
AcDbRegAppTableRecord
  2
GEVID1210153852
 70
     0
  0
APPID
  5
4DF
330
9
100
AcDbSymbolTableRecord
100
AcDbRegAppTableRecord
  2
GEVID1210549898
 70
     0
  0
APPID
  5
4E0
330
9
100
AcDbSymbolTableRecord
100
AcDbRegAppTableRecord
  2
GEVID1210549899
 70
     0
  0
APPID
  5
4E1
330
9
100
AcDbSymbolTableRecord
100
AcDbRegAppTableRecord
  2
GEVID1210549900
 70
     0
  0
APPID
  5
4E2
330
9
100
AcDbSymbolTableRecord
100
AcDbRegAppTableRecord
  2
GEVID1210549901
 70
     0
  0
APPID
  5
4E3
330
9
100
AcDbSymbolTableRecord
100
AcDbRegAppTableRecord
  2
GEVID1210549902
 70
     0
  0
APPID
  5
4E4
330
9
100
AcDbSymbolTableRecord
100
AcDbRegAppTableRecord
  2
GEVID1210549903
 70
     0
  0
APPID
  5
4E5
330
9
100
AcDbSymbolTableRecord
100
AcDbRegAppTableRecord
  2
GEVID1210549904
 70
     0
  0
APPID
  5
4E6
330
9
100
AcDbSymbolTableRecord
100
AcDbRegAppTableRecord
  2
GEVID1210549905
 70
     0
  0
APPID
  5
4E7
330
9
100
AcDbSymbolTableRecord
100
AcDbRegAppTableRecord
  2
GEVID1210549906
 70
     0
  0
APPID
  5
4E8
330
9
100
AcDbSymbolTableRecord
100
AcDbRegAppTableRecord
  2
GEVID1210549907
 70
     0
  0
APPID
  5
4E9
330
9
100
AcDbSymbolTableRecord
100
AcDbRegAppTableRecord
  2
GEVID1210549908
 70
     0
  0
APPID
  5
4EA
330
9
100
AcDbSymbolTableRecord
100
AcDbRegAppTableRecord
  2
GEVID1210549909
 70
     0
  0
APPID
  5
4EB
330
9
100
AcDbSymbolTableRecord
100
AcDbRegAppTableRecord
  2
GEVID1210549910
 70
     0
  0
APPID
  5
4EC
330
9
100
AcDbSymbolTableRecord
100
AcDbRegAppTableRecord
  2
GEVID1210549911
 70
     0
  0
APPID
  5
4ED
330
9
100
AcDbSymbolTableRecord
100
AcDbRegAppTableRecord
  2
GEVID1210549912
 70
     0
  0
APPID
  5
4EE
330
9
100
AcDbSymbolTableRecord
100
AcDbRegAppTableRecord
  2
GEVID1210549913
 70
     0
  0
APPID
  5
4EF
330
9
100
AcDbSymbolTableRecord
100
AcDbRegAppTableRecord
  2
GEVID1210549914
 70
     0
  0
APPID
  5
4F0
330
9
100
AcDbSymbolTableRecord
100
AcDbRegAppTableRecord
  2
GEVID1210549915
 70
     0
  0
APPID
  5
4F1
330
9
100
AcDbSymbolTableRecord
100
AcDbRegAppTableRecord
  2
GEVID1210549916
 70
     0
  0
APPID
  5
4F2
330
9
100
AcDbSymbolTableRecord
100
AcDbRegAppTableRecord
  2
GEVID1210549917
 70
     0
  0
APPID
  5
4F3
330
9
100
AcDbSymbolTableRecord
100
AcDbRegAppTableRecord
  2
GENIUS_GENOBJ-N-CRS_13
 70
     0
  0
APPID
  5
4F4
330
9
100
AcDbSymbolTableRecord
100
AcDbRegAppTableRecord
  2
GEVID1210549918
 70
     0
  0
APPID
  5
4F5
330
9
100
AcDbSymbolTableRecord
100
AcDbRegAppTableRecord
  2
GENIUS_GENOBJ-N-CRC_13
 70
     0
  0
APPID
  5
4F6
330
9
100
AcDbSymbolTableRecord
100
AcDbRegAppTableRecord
  2
GENIUS_GENCRC_14
 70
     0
  0
APPID
  5
4F7
330
9
100
AcDbSymbolTableRecord
100
AcDbRegAppTableRecord
  2
GEVID1210549919
 70
     0
  0
APPID
  5
4F8
330
9
100
AcDbSymbolTableRecord
100
AcDbRegAppTableRecord
  2
GEVID1210549921
 70
     0
  0
APPID
  5
4F9
330
9
100
AcDbSymbolTableRecord
100
AcDbRegAppTableRecord
  2
GEVID1210549922
 70
     0
  0
APPID
  5
4FA
330
9
100
AcDbSymbolTableRecord
100
AcDbRegAppTableRecord
  2
GEVID1210635173
 70
     0
  0
APPID
  5
4FB
330
9
100
AcDbSymbolTableRecord
100
AcDbRegAppTableRecord
  2
GEVID1210635174
 70
     0
  0
APPID
  5
4FC
330
9
100
AcDbSymbolTableRecord
100
AcDbRegAppTableRecord
  2
GEVID1210635175
 70
     0
  0
APPID
  5
4FD
330
9
100
AcDbSymbolTableRecord
100
AcDbRegAppTableRecord
  2
GEVID1210635176
 70
     0
  0
APPID
  5
4FE
330
9
100
AcDbSymbolTableRecord
100
AcDbRegAppTableRecord
  2
GEVID1210635177
 70
     0
  0
APPID
  5
4FF
330
9
100
AcDbSymbolTableRecord
100
AcDbRegAppTableRecord
  2
GEVID1210635178
 70
     0
  0
APPID
  5
500
330
9
100
AcDbSymbolTableRecord
100
AcDbRegAppTableRecord
  2
GENIUS_GENIUS_GENBHEDTMP_13
 70
     0
  0
APPID
  5
501
330
9
100
AcDbSymbolTableRecord
100
AcDbRegAppTableRecord
  2
GEVID1210635179
 70
     0
  0
APPID
  5
502
330
9
100
AcDbSymbolTableRecord
100
AcDbRegAppTableRecord
  2
GEVID1210635180
 70
     0
  0
APPID
  5
503
330
9
100
AcDbSymbolTableRecord
100
AcDbRegAppTableRecord
  2
GEVID1210635181
 70
     0
  0
APPID
  5
504
330
9
100
AcDbSymbolTableRecord
100
AcDbRegAppTableRecord
  2
GEVID1210635182
 70
     0
  0
APPID
  5
505
330
9
100
AcDbSymbolTableRecord
100
AcDbRegAppTableRecord
  2
GEVID1210635184
 70
     0
  0
APPID
  5
506
330
9
100
AcDbSymbolTableRecord
100
AcDbRegAppTableRecord
  2
GEVID1210635185
 70
     0
  0
APPID
  5
507
330
9
100
AcDbSymbolTableRecord
100
AcDbRegAppTableRecord
  2
GEVID1210635186
 70
     0
  0
APPID
  5
508
330
9
100
AcDbSymbolTableRecord
100
AcDbRegAppTableRecord
  2
GEVID1210635187
 70
     0
  0
APPID
  5
509
330
9
100
AcDbSymbolTableRecord
100
AcDbRegAppTableRecord
  2
GEVID1210635188
 70
     0
  0
APPID
  5
50A
330
9
100
AcDbSymbolTableRecord
100
AcDbRegAppTableRecord
  2
GEVID1210635189
 70
     0
  0
APPID
  5
50B
330
9
100
AcDbSymbolTableRecord
100
AcDbRegAppTableRecord
  2
GEVID1210635190
 70
     0
  0
APPID
  5
50C
330
9
100
AcDbSymbolTableRecord
100
AcDbRegAppTableRecord
  2
GENIUS_GENREC_14
 70
     0
  0
APPID
  5
50D
330
9
100
AcDbSymbolTableRecord
100
AcDbRegAppTableRecord
  2
GENIUS_GENOBJ-N-REC_13
 70
     0
  0
APPID
  5
50E
330
9
100
AcDbSymbolTableRecord
100
AcDbRegAppTableRecord
  2
GEVID1210676655
 70
     0
  0
APPID
  5
50F
330
9
100
AcDbSymbolTableRecord
100
AcDbRegAppTableRecord
  2
GEVID1210676656
 70
     0
  0
APPID
  5
510
330
9
100
AcDbSymbolTableRecord
100
AcDbRegAppTableRecord
  2
GEVID1210676657
 70
     0
  0
APPID
  5
511
330
9
100
AcDbSymbolTableRecord
100
AcDbRegAppTableRecord
  2
GEVID1210676659
 70
     0
  0
APPID
  5
512
330
9
100
AcDbSymbolTableRecord
100
AcDbRegAppTableRecord
  2
GEVID1210676660
 70
     0
  0
APPID
  5
513
330
9
100
AcDbSymbolTableRecord
100
AcDbRegAppTableRecord
  2
GEVID1210676661
 70
     0
  0
APPID
  5
514
330
9
100
AcDbSymbolTableRecord
100
AcDbRegAppTableRecord
  2
GEVID1210676662
 70
     0
  0
APPID
  5
515
330
9
100
AcDbSymbolTableRecord
100
AcDbRegAppTableRecord
  2
GEVID1210721646
 70
     0
  0
APPID
  5
516
330
9
100
AcDbSymbolTableRecord
100
AcDbRegAppTableRecord
  2
GEVID1210721647
 70
     0
  0
APPID
  5
517
330
9
100
AcDbSymbolTableRecord
100
AcDbRegAppTableRecord
  2
GEVID1210721648
 70
     0
  0
APPID
  5
518
330
9
100
AcDbSymbolTableRecord
100
AcDbRegAppTableRecord
  2
GEVID1210721649
 70
     0
  0
APPID
  5
519
330
9
100
AcDbSymbolTableRecord
100
AcDbRegAppTableRecord
  2
GEVID1210721650
 70
     0
  0
APPID
  5
51A
330
9
100
AcDbSymbolTableRecord
100
AcDbRegAppTableRecord
  2
GEVID1210721651
 70
     0
  0
APPID
  5
51B
330
9
100
AcDbSymbolTableRecord
100
AcDbRegAppTableRecord
  2
GEVID1210721652
 70
     0
  0
APPID
  5
51C
330
9
100
AcDbSymbolTableRecord
100
AcDbRegAppTableRecord
  2
GEVID1210721653
 70
     0
  0
APPID
  5
51D
330
9
100
AcDbSymbolTableRecord
100
AcDbRegAppTableRecord
  2
PE_URL
 70
     0
  0
APPID
  5
51E
330
9
100
AcDbSymbolTableRecord
100
AcDbRegAppTableRecord
  2
GEVID1210825555
 70
     0
  0
APPID
  5
51F
330
9
100
AcDbSymbolTableRecord
100
AcDbRegAppTableRecord
  2
GEVID1210825556
 70
     0
  0
APPID
  5
520
330
9
100
AcDbSymbolTableRecord
100
AcDbRegAppTableRecord
  2
GEVID1210825557
 70
     0
  0
APPID
  5
521
330
9
100
AcDbSymbolTableRecord
100
AcDbRegAppTableRecord
  2
GEVID1210825558
 70
     0
  0
APPID
  5
522
330
9
100
AcDbSymbolTableRecord
100
AcDbRegAppTableRecord
  2
GEVID1210825559
 70
     0
  0
APPID
  5
523
330
9
100
AcDbSymbolTableRecord
100
AcDbRegAppTableRecord
  2
GEVID1210825560
 70
     0
  0
APPID
  5
524
330
9
100
AcDbSymbolTableRecord
100
AcDbRegAppTableRecord
  2
GEVID1210825561
 70
     0
  0
APPID
  5
525
330
9
100
AcDbSymbolTableRecord
100
AcDbRegAppTableRecord
  2
GEVID1210825562
 70
     0
  0
APPID
  5
526
330
9
100
AcDbSymbolTableRecord
100
AcDbRegAppTableRecord
  2
GEVID1210825563
 70
     0
  0
APPID
  5
527
330
9
100
AcDbSymbolTableRecord
100
AcDbRegAppTableRecord
  2
GEVID1210825564
 70
     0
  0
APPID
  5
528
330
9
100
AcDbSymbolTableRecord
100
AcDbRegAppTableRecord
  2
GEVID1210825565
 70
     0
  0
APPID
  5
529
330
9
100
AcDbSymbolTableRecord
100
AcDbRegAppTableRecord
  2
GEVID1210825566
 70
     0
  0
APPID
  5
52A
330
9
100
AcDbSymbolTableRecord
100
AcDbRegAppTableRecord
  2
GEVID1210825567
 70
     0
  0
APPID
  5
52B
330
9
100
AcDbSymbolTableRecord
100
AcDbRegAppTableRecord
  2
GENIUS_GENOBJ-N-ZOO_13
 70
     0
  0
APPID
  5
52C
330
9
100
AcDbSymbolTableRecord
100
AcDbRegAppTableRecord
  2
GENIUS_GENZOO_17
 70
     0
  0
APPID
  5
52D
330
9
100
AcDbSymbolTableRecord
100
AcDbRegAppTableRecord
  2
ACADANNOTATIVEDECOMPOSITION
 70
     0
  0
APPID
  5
52E
330
9
100
AcDbSymbolTableRecord
100
AcDbRegAppTableRecord
  2
GENIUS_GENOBJ-N-HTC_13
 70
     0
  0
APPID
  5
52F
330
9
100
AcDbSymbolTableRecord
100
AcDbRegAppTableRecord
  2
GENIUS_GENHATCH_13
 70
     0
  0
APPID
  5
530
330
9
100
AcDbSymbolTableRecord
100
AcDbRegAppTableRecord
  2
GEVID1210896020
 70
     0
  0
APPID
  5
531
330
9
100
AcDbSymbolTableRecord
100
AcDbRegAppTableRecord
  2
GEVID1210896021
 70
     0
  0
APPID
  5
532
330
9
100
AcDbSymbolTableRecord
100
AcDbRegAppTableRecord
  2
GEVID1209083540
 70
     0
  0
APPID
  5
533
330
9
100
AcDbSymbolTableRecord
100
AcDbRegAppTableRecord
  2
GEVMK
 70
     0
  0
APPID
  5
534
330
9
100
AcDbSymbolTableRecord
100
AcDbRegAppTableRecord
  2
GEVID1209083542
 70
     0
  0
APPID
  5
535
330
9
100
AcDbSymbolTableRecord
100
AcDbRegAppTableRecord
  2
GEVID1209083543
 70
     0
  0
APPID
  5
536
330
9
100
AcDbSymbolTableRecord
100
AcDbRegAppTableRecord
  2
GEVID1209083544
 70
     0
  0
APPID
  5
537
330
9
100
AcDbSymbolTableRecord
100
AcDbRegAppTableRecord
  2
GEVID1209083545
 70
     0
  0
APPID
  5
538
330
9
100
AcDbSymbolTableRecord
100
AcDbRegAppTableRecord
  2
GEVID1209083546
 70
     0
  0
APPID
  5
539
330
9
100
AcDbSymbolTableRecord
100
AcDbRegAppTableRecord
  2
GEVID1209083547
 70
     0
  0
APPID
  5
53A
330
9
100
AcDbSymbolTableRecord
100
AcDbRegAppTableRecord
  2
GEVID1209083548
 70
     0
  0
APPID
  5
53B
330
9
100
AcDbSymbolTableRecord
100
AcDbRegAppTableRecord
  2
GEVID1209083549
 70
     0
  0
APPID
  5
53C
330
9
100
AcDbSymbolTableRecord
100
AcDbRegAppTableRecord
  2
GEVID1209083550
 70
     0
  0
APPID
  5
53D
330
9
100
AcDbSymbolTableRecord
100
AcDbRegAppTableRecord
  2
GEVID1209083551
 70
     0
  0
APPID
  5
53E
330
9
100
AcDbSymbolTableRecord
100
AcDbRegAppTableRecord
  2
GEVID1209083552
 70
     0
  0
APPID
  5
53F
330
9
100
AcDbSymbolTableRecord
100
AcDbRegAppTableRecord
  2
GEVID1209083553
 70
     0
  0
APPID
  5
540
330
9
100
AcDbSymbolTableRecord
100
AcDbRegAppTableRecord
  2
GEVID1210896022
 70
     0
  0
APPID
  5
541
330
9
100
AcDbSymbolTableRecord
100
AcDbRegAppTableRecord
  2
GEVID1211508364
 70
     0
  0
APPID
  5
542
330
9
100
AcDbSymbolTableRecord
100
AcDbRegAppTableRecord
  2
GEVID1211414908
 70
     0
  0
APPID
  5
543
330
9
100
AcDbSymbolTableRecord
100
AcDbRegAppTableRecord
  2
GEVID1211414909
 70
     0
  0
APPID
  5
544
330
9
100
AcDbSymbolTableRecord
100
AcDbRegAppTableRecord
  2
GEVID1211508359
 70
     0
  0
APPID
  5
545
330
9
100
AcDbSymbolTableRecord
100
AcDbRegAppTableRecord
  2
GEVID1211508360
 70
     0
  0
APPID
  5
546
330
9
100
AcDbSymbolTableRecord
100
AcDbRegAppTableRecord
  2
GEVID1211508361
 70
     0
  0
APPID
  5
547
330
9
100
AcDbSymbolTableRecord
100
AcDbRegAppTableRecord
  2
GEVID1211508362
 70
     0
  0
APPID
  5
548
330
9
100
AcDbSymbolTableRecord
100
AcDbRegAppTableRecord
  2
GEVID1211508363
 70
     0
  0
APPID
  5
549
330
9
100
AcDbSymbolTableRecord
100
AcDbRegAppTableRecord
  2
GEVID1211878469
 70
     0
  0
APPID
  5
54A
330
9
100
AcDbSymbolTableRecord
100
AcDbRegAppTableRecord
  2
GEVID1212642819
 70
     0
  0
APPID
  5
54B
330
9
100
AcDbSymbolTableRecord
100
AcDbRegAppTableRecord
  2
GEVID1212642820
 70
     0
  0
APPID
  5
54C
330
9
100
AcDbSymbolTableRecord
100
AcDbRegAppTableRecord
  2
GEVID1212642821
 70
     0
  0
APPID
  5
54D
330
9
100
AcDbSymbolTableRecord
100
AcDbRegAppTableRecord
  2
GEVID1212642822
 70
     0
  0
APPID
  5
54E
330
9
100
AcDbSymbolTableRecord
100
AcDbRegAppTableRecord
  2
GEVID1212642823
 70
     0
  0
APPID
  5
54F
330
9
100
AcDbSymbolTableRecord
100
AcDbRegAppTableRecord
  2
GEVID1212642825
 70
     0
  0
APPID
  5
550
330
9
100
AcDbSymbolTableRecord
100
AcDbRegAppTableRecord
  2
GEVID1212642826
 70
     0
  0
APPID
  5
551
330
9
100
AcDbSymbolTableRecord
100
AcDbRegAppTableRecord
  2
GEVID1212642827
 70
     0
  0
APPID
  5
552
330
9
100
AcDbSymbolTableRecord
100
AcDbRegAppTableRecord
  2
GEVID1212642828
 70
     0
  0
APPID
  5
553
330
9
100
AcDbSymbolTableRecord
100
AcDbRegAppTableRecord
  2
GEVID1212642831
 70
     0
  0
APPID
  5
554
330
9
100
AcDbSymbolTableRecord
100
AcDbRegAppTableRecord
  2
GEVID1212642834
 70
     0
  0
APPID
  5
555
330
9
100
AcDbSymbolTableRecord
100
AcDbRegAppTableRecord
  2
GEVID1212642835
 70
     0
  0
APPID
  5
556
330
9
100
AcDbSymbolTableRecord
100
AcDbRegAppTableRecord
  2
GEVID1212642836
 70
     0
  0
APPID
  5
557
330
9
100
AcDbSymbolTableRecord
100
AcDbRegAppTableRecord
  2
GEVID1212642837
 70
     0
  0
APPID
  5
558
330
9
100
AcDbSymbolTableRecord
100
AcDbRegAppTableRecord
  2
GEVID1212642839
 70
     0
  0
APPID
  5
559
330
9
100
AcDbSymbolTableRecord
100
AcDbRegAppTableRecord
  2
GEVID1212642840
 70
     0
  0
APPID
  5
55A
330
9
100
AcDbSymbolTableRecord
100
AcDbRegAppTableRecord
  2
GEVID1212642841
 70
     0
  0
APPID
  5
55B
330
9
100
AcDbSymbolTableRecord
100
AcDbRegAppTableRecord
  2
GEVID1212655312
 70
     0
  0
APPID
  5
55C
330
9
100
AcDbSymbolTableRecord
100
AcDbRegAppTableRecord
  2
GEVID1212655313
 70
     0
  0
APPID
  5
55D
330
9
100
AcDbSymbolTableRecord
100
AcDbRegAppTableRecord
  2
GEVID1212656533
 70
     0
  0
APPID
  5
55E
330
9
100
AcDbSymbolTableRecord
100
AcDbRegAppTableRecord
  2
GEVID1212656534
 70
     0
  0
APPID
  5
55F
330
9
100
AcDbSymbolTableRecord
100
AcDbRegAppTableRecord
  2
GEVID1212656535
 70
     0
  0
APPID
  5
560
330
9
100
AcDbSymbolTableRecord
100
AcDbRegAppTableRecord
  2
GEVID1212656536
 70
     0
  0
APPID
  5
561
330
9
100
AcDbSymbolTableRecord
100
AcDbRegAppTableRecord
  2
GEVID1212656538
 70
     0
  0
APPID
  5
562
330
9
100
AcDbSymbolTableRecord
100
AcDbRegAppTableRecord
  2
GEVID1212656541
 70
     0
  0
APPID
  5
563
330
9
100
AcDbSymbolTableRecord
100
AcDbRegAppTableRecord
  2
GEVID1212656543
 70
     0
  0
APPID
  5
564
330
9
100
AcDbSymbolTableRecord
100
AcDbRegAppTableRecord
  2
GENIUS_GENOBJ-F-PFASSM_13
 70
     0
  0
APPID
  5
565
330
9
100
AcDbSymbolTableRecord
100
AcDbRegAppTableRecord
  2
GEVID1212656544
 70
     0
  0
APPID
  5
566
330
9
100
AcDbSymbolTableRecord
100
AcDbRegAppTableRecord
  2
GEVID1212656545
 70
     0
  0
APPID
  5
567
330
9
100
AcDbSymbolTableRecord
100
AcDbRegAppTableRecord
  2
GEVID1212656546
 70
     0
  0
APPID
  5
568
330
9
100
AcDbSymbolTableRecord
100
AcDbRegAppTableRecord
  2
GEVID1212656547
 70
     0
  0
APPID
  5
569
330
9
100
AcDbSymbolTableRecord
100
AcDbRegAppTableRecord
  2
GEVID1212656548
 70
     0
  0
APPID
  5
56A
330
9
100
AcDbSymbolTableRecord
100
AcDbRegAppTableRecord
  2
GEVID1212656549
 70
     0
  0
APPID
  5
56B
330
9
100
AcDbSymbolTableRecord
100
AcDbRegAppTableRecord
  2
GEVID1212656550
 70
     0
  0
APPID
  5
56C
330
9
100
AcDbSymbolTableRecord
100
AcDbRegAppTableRecord
  2
GEVID1212656552
 70
     0
  0
APPID
  5
56D
330
9
100
AcDbSymbolTableRecord
100
AcDbRegAppTableRecord
  2
GEVID1212656553
 70
     0
  0
APPID
  5
56E
330
9
100
AcDbSymbolTableRecord
100
AcDbRegAppTableRecord
  2
GEVID1212656554
 70
     0
  0
APPID
  5
56F
330
9
100
AcDbSymbolTableRecord
100
AcDbRegAppTableRecord
  2
GEVID1212656555
 70
     0
  0
APPID
  5
570
330
9
100
AcDbSymbolTableRecord
100
AcDbRegAppTableRecord
  2
GEVID1212656556
 70
     0
  0
APPID
  5
571
330
9
100
AcDbSymbolTableRecord
100
AcDbRegAppTableRecord
  2
GEVID1212656557
 70
     0
  0
APPID
  5
572
330
9
100
AcDbSymbolTableRecord
100
AcDbRegAppTableRecord
  2
GEVID1212656559
 70
     0
  0
APPID
  5
573
330
9
100
AcDbSymbolTableRecord
100
AcDbRegAppTableRecord
  2
GEVID1212656560
 70
     0
  0
APPID
  5
574
330
9
100
AcDbSymbolTableRecord
100
AcDbRegAppTableRecord
  2
GEVID1212656561
 70
     0
  0
APPID
  5
575
330
9
100
AcDbSymbolTableRecord
100
AcDbRegAppTableRecord
  2
GEVID1212656562
 70
     0
  0
APPID
  5
576
330
9
100
AcDbSymbolTableRecord
100
AcDbRegAppTableRecord
  2
GEVID1212656563
 70
     0
  0
APPID
  5
577
330
9
100
AcDbSymbolTableRecord
100
AcDbRegAppTableRecord
  2
GEVID1212711781
 70
     0
  0
APPID
  5
578
330
9
100
AcDbSymbolTableRecord
100
AcDbRegAppTableRecord
  2
GEVID1212711782
 70
     0
  0
APPID
  5
579
330
9
100
AcDbSymbolTableRecord
100
AcDbRegAppTableRecord
  2
GEVID1212711783
 70
     0
  0
APPID
  5
57A
330
9
100
AcDbSymbolTableRecord
100
AcDbRegAppTableRecord
  2
GEVID1212711784
 70
     0
  0
APPID
  5
57B
330
9
100
AcDbSymbolTableRecord
100
AcDbRegAppTableRecord
  2
GEVID1212711788
 70
     0
  0
APPID
  5
57C
330
9
100
AcDbSymbolTableRecord
100
AcDbRegAppTableRecord
  2
GEVID1212711789
 70
     0
  0
APPID
  5
57D
330
9
100
AcDbSymbolTableRecord
100
AcDbRegAppTableRecord
  2
GEVID1212711790
 70
     0
  0
APPID
  5
57E
330
9
100
AcDbSymbolTableRecord
100
AcDbRegAppTableRecord
  2
GEVID1212711791
 70
     0
  0
APPID
  5
57F
330
9
100
AcDbSymbolTableRecord
100
AcDbRegAppTableRecord
  2
GEVID1212711792
 70
     0
  0
APPID
  5
580
330
9
100
AcDbSymbolTableRecord
100
AcDbRegAppTableRecord
  2
GEVID1212711793
 70
     0
  0
APPID
  5
581
330
9
100
AcDbSymbolTableRecord
100
AcDbRegAppTableRecord
  2
GEVID1212711794
 70
     0
  0
APPID
  5
582
330
9
100
AcDbSymbolTableRecord
100
AcDbRegAppTableRecord
  2
GEVID1212711795
 70
     0
  0
APPID
  5
583
330
9
100
AcDbSymbolTableRecord
100
AcDbRegAppTableRecord
  2
GEVID1212711797
 70
     0
  0
APPID
  5
584
330
9
100
AcDbSymbolTableRecord
100
AcDbRegAppTableRecord
  2
GEVID1212711798
 70
     0
  0
APPID
  5
585
330
9
100
AcDbSymbolTableRecord
100
AcDbRegAppTableRecord
  2
GEVID1212711799
 70
     0
  0
APPID
  5
586
330
9
100
AcDbSymbolTableRecord
100
AcDbRegAppTableRecord
  2
GEVID1212711800
 70
     0
  0
APPID
  5
587
330
9
100
AcDbSymbolTableRecord
100
AcDbRegAppTableRecord
  2
GEVID1212711801
 70
     0
  0
APPID
  5
588
330
9
100
AcDbSymbolTableRecord
100
AcDbRegAppTableRecord
  2
GEVID1212711802
 70
     0
  0
APPID
  5
589
330
9
100
AcDbSymbolTableRecord
100
AcDbRegAppTableRecord
  2
GEVID1212711803
 70
     0
  0
APPID
  5
58A
330
9
100
AcDbSymbolTableRecord
100
AcDbRegAppTableRecord
  2
GEVID1212711804
 70
     0
  0
APPID
  5
58B
330
9
100
AcDbSymbolTableRecord
100
AcDbRegAppTableRecord
  2
GEVID1212711805
 70
     0
  0
APPID
  5
58C
330
9
100
AcDbSymbolTableRecord
100
AcDbRegAppTableRecord
  2
GEVID1212711806
 70
     0
  0
APPID
  5
58D
330
9
100
AcDbSymbolTableRecord
100
AcDbRegAppTableRecord
  2
GEVID1212711807
 70
     0
  0
APPID
  5
58E
330
9
100
AcDbSymbolTableRecord
100
AcDbRegAppTableRecord
  2
GEVID1212711808
 70
     0
  0
APPID
  5
58F
330
9
100
AcDbSymbolTableRecord
100
AcDbRegAppTableRecord
  2
GEVID1212711809
 70
     0
  0
APPID
  5
590
330
9
100
AcDbSymbolTableRecord
100
AcDbRegAppTableRecord
  2
GEVID1212711810
 70
     0
  0
APPID
  5
591
330
9
100
AcDbSymbolTableRecord
100
AcDbRegAppTableRecord
  2
GEVID1212711811
 70
     0
  0
APPID
  5
90A
330
9
100
AcDbSymbolTableRecord
100
AcDbRegAppTableRecord
  2
GENIUS_GENTRA_14
 70
     0
  0
APPID
  5
919
330
9
100
AcDbSymbolTableRecord
100
AcDbRegAppTableRecord
  2
GENIUS_GENOBJ-N-TIT_13
 70
     0
  0
APPID
  5
91A
330
9
100
AcDbSymbolTableRecord
100
AcDbRegAppTableRecord
  2
GENIUS_GENTITLE_13
 70
     0
  0
APPID
  5
949
330
9
100
AcDbSymbolTableRecord
100
AcDbRegAppTableRecord
  2
GENIUS_GENBLLY_14
 70
     0
  0
APPID
  5
DDD
330
9
100
AcDbSymbolTableRecord
100
AcDbRegAppTableRecord
  2
GEVID1213165152
 70
     0
  0
APPID
  5
12F9
330
9
100
AcDbSymbolTableRecord
100
AcDbRegAppTableRecord
  2
AcDbDynamicBlockTrueName
 70
     0
  0
APPID
  5
12FA
330
9
100
AcDbSymbolTableRecord
100
AcDbRegAppTableRecord
  2
ACDBBLOCKREPETAG
 70
     0
  0
APPID
  5
1C15
330
9
100
AcDbSymbolTableRecord
100
AcDbRegAppTableRecord
  2
GEVID1214872427
 70
     0
  0
APPID
  5
1C2A
330
9
100
AcDbSymbolTableRecord
100
AcDbRegAppTableRecord
  2
GEVID1214872428
 70
     0
  0
APPID
  5
1C2F
330
9
100
AcDbSymbolTableRecord
100
AcDbRegAppTableRecord
  2
GEVID1214872429
 70
     0
  0
APPID
  5
1C33
330
9
100
AcDbSymbolTableRecord
100
AcDbRegAppTableRecord
  2
GEVID1214872430
 70
     0
  0
APPID
  5
1C3F
330
9
100
AcDbSymbolTableRecord
100
AcDbRegAppTableRecord
  2
GEVID1214872432
 70
     0
  0
APPID
  5
1C4E
330
9
100
AcDbSymbolTableRecord
100
AcDbRegAppTableRecord
  2
GEVID1214872433
 70
     0
  0
APPID
  5
20DC
330
9
100
AcDbSymbolTableRecord
100
AcDbRegAppTableRecord
  2
AcDbDynamicBlockGUID
 70
     0
  0
APPID
  5
20FD
330
9
100
AcDbSymbolTableRecord
100
AcDbRegAppTableRecord
  2
GENIUS_GENOBJ-N-REV_13
 70
     0
  0
APPID
  5
20FE
330
9
100
AcDbSymbolTableRecord
100
AcDbRegAppTableRecord
  2
GENIUS_GENOBJ-N-RSSYM_13
 70
     0
  0
APPID
  5
20FF
330
9
100
AcDbSymbolTableRecord
100
AcDbRegAppTableRecord
  2
GENIUS_GENSYMENT_13
 70
     0
  0
APPID
  5
2100
330
9
100
AcDbSymbolTableRecord
100
AcDbRegAppTableRecord
  2
GENIUS_GENSCSYM_13
 70
     0
  0
APPID
  5
53EC
330
9
100
AcDbSymbolTableRecord
100
AcDbRegAppTableRecord
  2
GEVID1240796102
 70
     0
  0
APPID
  5
53F1
330
9
100
AcDbSymbolTableRecord
100
AcDbRegAppTableRecord
  2
GEVID1240796103
 70
     0
  0
APPID
  5
5ADD
330
9
100
AcDbSymbolTableRecord
100
AcDbRegAppTableRecord
  2
GEVID1240796104
 70
     0
  0
APPID
  5
5AE1
330
9
100
AcDbSymbolTableRecord
100
AcDbRegAppTableRecord
  2
GEVID1240796105
 70
     0
  0
ENDTAB
  0
TABLE
  2
DIMSTYLE
  5
A
330
0
100
AcDbSymbolTable
 70
    30
100
AcDbDimStyleTable
 71
     1
340
5AB
  0
DIMSTYLE
105
5AB
330
A
100
AcDbSymbolTableRecord
100
AcDbDimStyleTableRecord
  2
SEISA
 70
     0
  4
"
 40
15.0
 41
2.5
 42
0.625
 43
10.0
 44
0.625
 47
0.1
 48
0.1
 73
     0
 74
     0
 77
     3
 78
     8
 79
     2
 90
     1
140
3.5
141
0.0
143
0.0393701
146
0.71
147
1.5
172
     1
176
     3
177
     3
178
     3
271
     2
272
     2
283
     0
286
     8
340
5D5
341
69
342
69
371
    -1
372
    -1
1001
ACAD_DSTYLE_DIMJAG
1070
   388
1040
1.5
1001
ACAD_DSTYLE_DIMTALN
1070
   392
1070
     1
  0
DIMSTYLE
105
5E9
102
{ACAD_REACTORS
330
546A
330
5482
330
549E
330
5579
330
56D5
330
56ED
330
5705
330
57B7
330
57D3
330
57EF
330
5807
330
581F
330
5837
330
6A54
330
6A82
330
6B6D
330
6CA3
102
}
330
A
100
AcDbSymbolTableRecord
100
AcDbDimStyleTableRecord
  2
SEISA$0
 70
     0
  4
"
 40
15.0
 41
2.5
 42
0.625
 43
10.0
 44
0.625
 47
0.1
 48
0.1
 73
     0
 74
     0
 77
     3
 78
     8
 79
     2
 90
     1
140
3.5
141
0.0
143
0.0393701
146
0.71
147
1.5
172
     1
176
     3
177
     3
178
     3
271
     2
272
     2
283
     0
286
     8
340
5D5
341
69
342
69
371
    -1
372
    -1
  0
DIMSTYLE
105
697D
330
A
100
AcDbSymbolTableRecord
100
AcDbDimStyleTableRecord
  2
STANDARD
 70
     0
340
11
  0
DIMSTYLE
105
6E4E
330
A
100
AcDbSymbolTableRecord
100
AcDbDimStyleTableRecord
  2
AM_ISO
 70
     0
  4
"
 41
2.5
 42
1.0
 43
10.0
 44
1.0
 47
0.1
 48
0.1
 73
     0
 74
     0
 77
     1
 78
     8
 79
     2
 90
     1
140
3.5
141
0.0
143
0.0393701
146
0.71
147
1.5
172
     1
176
   256
177
   256
178
     2
271
     2
272
     3
274
     4
283
     0
284
     8
340
11
371
    -1
372
    -1
  0
DIMSTYLE
105
6E4F
330
A
100
AcDbSymbolTableRecord
100
AcDbDimStyleTableRecord
  2
AM_ISO$3
 70
     0
  4
"
 41
2.5
 42
1.0
 43
10.0
 44
1.0
 47
0.1
 48
0.1
 73
     0
 77
     1
 78
     8
 79
     2
 90
     1
140
3.5
141
0.0
143
0.0393701
146
0.71
147
1.5
176
   256
177
   256
178
     2
271
     2
272
     3
274
     4
283
     0
284
     8
288
     1
289
     0
340
11
371
    -1
372
    -1
  0
DIMSTYLE
105
6E50
330
A
100
AcDbSymbolTableRecord
100
AcDbDimStyleTableRecord
  2
AM_ISO$4
 70
     0
  4
"
 41
2.5
 42
1.0
 43
10.0
 44
1.0
 47
0.1
 48
0.1
 73
     0
 77
     1
 78
     8
 79
     2
 90
     1
140
3.5
141
0.0
143
0.0393701
146
0.71
147
1.5
176
   256
177
   256
178
     2
271
     2
272
     3
274
     4
283
     0
284
     8
288
     1
289
     0
340
11
371
    -1
372
    -1
  0
DIMSTYLE
105
6E51
330
A
100
AcDbSymbolTableRecord
100
AcDbDimStyleTableRecord
  2
AM_ISO$6
 70
     0
  4
"
 41
2.5
 42
1.0
 43
10.0
 44
1.0
 47
0.1
 48
0.1
 73
     0
 74
     0
 78
     8
 79
     2
 90
     1
140
3.5
141
0.0
143
0.0393701
146
0.71
147
1.5
172
     1
176
   256
177
   256
178
     2
271
     2
272
     3
274
     4
283
     0
284
     8
340
11
371
    -1
372
    -1
  0
DIMSTYLE
105
6E52
330
A
100
AcDbSymbolTableRecord
100
AcDbDimStyleTableRecord
  2
AM_ISO$7
 70
     0
  4
"
 41
2.5
 42
1.0
 43
10.0
 44
1.0
 47
0.1
 48
0.1
 73
     0
 74
     0
 77
     1
 78
     8
 79
     2
 90
     1
140
5.0
141
0.0
143
0.0393701
146
0.71
147
1.5
172
     1
176
   256
177
   256
178
     2
271
     2
272
     3
274
     4
283
     0
284
     8
340
11
371
    -1
372
    -1
  0
DIMSTYLE
105
6E53
330
A
100
AcDbSymbolTableRecord
100
AcDbDimStyleTableRecord
  2
AM_ISO$SF
 70
     0
  4
"
 41
2.5
 42
1.0
 43
10.0
 44
1.0
 47
0.1
 48
0.1
 73
     0
 74
     0
 75
     1
 76
     1
 77
     1
 78
     8
 79
     2
 90
     1
140
3.5
141
0.0
143
0.0393701
146
0.71
147
1.5
172
     1
176
   256
177
   256
178
     2
271
     2
272
     3
274
     4
283
     0
284
     8
340
11
371
    -1
372
    -1
  0
DIMSTYLE
105
6E54
330
A
100
AcDbSymbolTableRecord
100
AcDbDimStyleTableRecord
  2
AM_ISO$SH
 70
     0
  4
"
 41
2.5
 42
1.0
 43
10.0
 44
1.0
 47
0.1
 48
0.1
 73
     0
 74
     0
 75
     1
 76
     1
 77
     1
 78
     8
 79
     2
 90
     1
140
3.5
141
0.0
143
0.0393701
144
2.0
146
0.71
147
1.5
172
     1
173
     1
176
   256
177
   256
178
     2
271
     2
272
     3
274
     4
283
     0
284
     8
340
11
343
74
371
    -1
372
    -1
  0
ENDTAB
  0
TABLE
  2
BLOCK_RECORD
  5
1
330
0
100
AcDbSymbolTable
 70
    33
  0
BLOCK_RECORD
  5
1F
102
{ACAD_XDICTIONARY
360
82
102
}
330
1
100
AcDbSymbolTableRecord
100
AcDbBlockTableRecord
  2
*Model_Space
340
22
 70
     0
280
     1
281
     0
  0
BLOCK_RECORD
  5
1B
330
1
100
AcDbSymbolTableRecord
100
AcDbBlockTableRecord
  2
*Paper_Space
340
1E
 70
     0
280
     1
281
     0
  0
BLOCK_RECORD
  5
23
330
1
100
AcDbSymbolTableRecord
100
AcDbBlockTableRecord
  2
*Paper_Space0
340
26
 70
     0
280
     1
281
     0
  0
BLOCK_RECORD
  5
69
330
1
100
AcDbSymbolTableRecord
100
AcDbBlockTableRecord
  2
_Open30
340
0
102
{BLKREFS
331
547B
331
547C
331
54B9
331
54BA
331
54EE
331
54EF
331
5755
331
5756
331
5779
331
577A
331
578B
331
578C
331
5800
331
5801
331
5818
331
5819
331
5830
331
5831
331
5848
331
5849
331
587E
331
58AA
331
6B2D
331
6B99
331
6B9A
331
6C4F
331
6CD0
331
6CD1
102
}
 70
     0
280
     1
281
     0
  0
BLOCK_RECORD
  5
74
330
1
100
AcDbSymbolTableRecord
100
AcDbBlockTableRecord
  2
GENAXEH
340
0
 70
     0
280
     1
281
     0
  0
BLOCK_RECORD
  5
3B1B
330
1
100
AcDbSymbolTableRecord
100
AcDbBlockTableRecord
  2
GENDOT
340
0
102
{BLKREFS
331
587D
331
58A9
102
}
 70
     0
280
     1
281
     0
  0
BLOCK_RECORD
  5
4AD8
102
{ACAD_XDICTIONARY
360
4B06
102
}
330
1
100
AcDbSymbolTableRecord
100
AcDbBlockTableRecord
  2
ロッカクアナツキプラグ R1
340
0
310
2800000020000000200000000100080000000000000400000000000000000000000000000000000000000000000080000080000000808000800000008000800080800000C0C0C000C0DCC000F0CAA6000020400000206000002080000020A0000020C0000020E00000400000004020000040400000406000004080000040A0
310
000040C0000040E00000600000006020000060400000606000006080000060A0000060C0000060E00000800000008020000080400000806000008080000080A0000080C0000080E00000A0000000A0200000A0400000A0600000A0800000A0A00000A0C00000A0E00000C0000000C0200000C0400000C0600000C0800000C0
310
A00000C0C00000C0E00000E0000000E0200000E0400000E0600000E0800000E0A00000E0C00000E0E00040000000400020004000400040006000400080004000A0004000C0004000E00040200000402020004020400040206000402080004020A0004020C0004020E000404000004040200040404000404060004040800040
310
40A0004040C0004040E00040600000406020004060400040606000406080004060A0004060C0004060E00040800000408020004080400040806000408080004080A0004080C0004080E00040A0000040A0200040A0400040A0600040A0800040A0A00040A0C00040A0E00040C0000040C0200040C0400040C0600040C08000
310
40C0A00040C0C00040C0E00040E0000040E0200040E0400040E0600040E0800040E0A00040E0C00040E0E00080000000800020008000400080006000800080008000A0008000C0008000E00080200000802020008020400080206000802080008020A0008020C0008020E00080400000804020008040400080406000804080
310
008040A0008040C0008040E00080600000806020008060400080606000806080008060A0008060C0008060E00080800000808020008080400080806000808080008080A0008080C0008080E00080A0000080A0200080A0400080A0600080A0800080A0A00080A0C00080A0E00080C0000080C0200080C0400080C0600080C0
310
800080C0A00080C0C00080C0E00080E0000080E0200080E0400080E0600080E0800080E0A00080E0C00080E0E000C0000000C0002000C0004000C0006000C0008000C000A000C000C000C000E000C0200000C0202000C0204000C0206000C0208000C020A000C020C000C020E000C0400000C0402000C0404000C0406000C0
310
408000C040A000C040C000C040E000C0600000C0602000C0604000C0606000C0608000C060A000C060C000C060E000C0800000C0802000C0804000C0806000C0808000C080A000C080C000C080E000C0A00000C0A02000C0A04000C0A06000C0A08000C0A0A000C0A0C000C0A0E000C0C00000C0C02000C0C04000C0C06000
310
C0C08000C0C0A000F0FBFF00A4A0A000808080000000FF0000FF000000FFFF00FF000000FF00FF00FFFF0000FFFFFF00000000000000000000000000000000000000000000000000000000000000000000000000000000000000000000000000F9000000000000000000000000000000000000000000000000000000000000
310
00F900000000000000000000000000000000000000000000000000000000000000F900000000000000000000000000000000000000000000000000000000000000F900000000000000000000000000000000000000000000000000000000000000F90000000000000000000000000000000000000000000000000000000000
310
0000F900000000000000000000000000000000000000000000000000000000000000F900000000000000000000000000000000000000000000000000000000000000F900000000000000000000000000000000000000000000000000000000000000F900000000000000000000000000000000000000000000000000000000
310
000000F900000000000000000000000000000000000000000000000000000000000000F900000000000000000000000000000000000000000000000000000000000000F90000000000000000000000000000000000000000000000FFFFFFFFFFFFFFFFFFFFFFFFFFFFFFFF0000000000000000000000000000FFFF00000000
310
00000000F900000000000000FFFF00000000000000000000FFFFFFFFFFFFFFFFFFFFFFFFFFFFFFFFFFFFFFFFFFFFFFFF0000000000000000FFFE00000000000000000000F9000000000000000000FEFF0000000000000000FFFE00000000000000000000F9000000000000000000FEFF0000000000000000FFFE0000000000
310
0000000000F9000000000000000000FEFF0000000000000000FFFE00000000000000000000F9000000000000000000FEFF0000000000000000FFFE00000000000000000000F9000000000000000000FEFF0000000000000000FFFE00000000000000000000F9000000000000000000FEFF0000000000000000FFFE00000000
310
000000000000F9000000000000000000FEFF0000000000000000FFFE00000000000000000000F9000000000000000000FEFF0000000000000000FFFFFFFFFFFFFFFFFFFFFFFFFFFFFFFFFFFFFFFFFFFFFFFF000000000000000000FF00000000000000000000F9000000000000000000FF0000000000000000000000FF0000
310
00000000000000F90000000000000000FF00000000000000000000000000000000000000000000F900000000000000000000000000000000000000000000000000000000000000F900000000000000000000000000000000000000000000000000000000000000F90000000000000000000000000000000000000000000000
310
0000000000000000F90000000000000000000000000000000000000000000000000000000000000000000000000000000000000000000000
102
{BLKREFS
331
4BCD
102
}
 70
     4
280
     1
281
     0
  0
BLOCK_RECORD
  5
4B93
102
{ACAD_XDICTIONARY
360
4C60
102
}
330
1
100
AcDbSymbolTableRecord
100
AcDbBlockTableRecord
  2
ケースＡ CEMH1120
340
0
310
2800000020000000200000000100080000000000000400000000000000000000000000000000000000000000000080000080000000808000800000008000800080800000C0C0C000C0DCC000F0CAA6000020400000206000002080000020A0000020C0000020E00000400000004020000040400000406000004080000040A0
310
000040C0000040E00000600000006020000060400000606000006080000060A0000060C0000060E00000800000008020000080400000806000008080000080A0000080C0000080E00000A0000000A0200000A0400000A0600000A0800000A0A00000A0C00000A0E00000C0000000C0200000C0400000C0600000C0800000C0
310
A00000C0C00000C0E00000E0000000E0200000E0400000E0600000E0800000E0A00000E0C00000E0E00040000000400020004000400040006000400080004000A0004000C0004000E00040200000402020004020400040206000402080004020A0004020C0004020E000404000004040200040404000404060004040800040
310
40A0004040C0004040E00040600000406020004060400040606000406080004060A0004060C0004060E00040800000408020004080400040806000408080004080A0004080C0004080E00040A0000040A0200040A0400040A0600040A0800040A0A00040A0C00040A0E00040C0000040C0200040C0400040C0600040C08000
310
40C0A00040C0C00040C0E00040E0000040E0200040E0400040E0600040E0800040E0A00040E0C00040E0E00080000000800020008000400080006000800080008000A0008000C0008000E00080200000802020008020400080206000802080008020A0008020C0008020E00080400000804020008040400080406000804080
310
008040A0008040C0008040E00080600000806020008060400080606000806080008060A0008060C0008060E00080800000808020008080400080806000808080008080A0008080C0008080E00080A0000080A0200080A0400080A0600080A0800080A0A00080A0C00080A0E00080C0000080C0200080C0400080C0600080C0
310
800080C0A00080C0C00080C0E00080E0000080E0200080E0400080E0600080E0800080E0A00080E0C00080E0E000C0000000C0002000C0004000C0006000C0008000C000A000C000C000C000E000C0200000C0202000C0204000C0206000C0208000C020A000C020C000C020E000C0400000C0402000C0404000C0406000C0
310
408000C040A000C040C000C040E000C0600000C0602000C0604000C0606000C0608000C060A000C060C000C060E000C0800000C0802000C0804000C0806000C0808000C080A000C080C000C080E000C0A00000C0A02000C0A04000C0A06000C0A08000C0A0A000C0A0C000C0A0E000C0C00000C0C02000C0C04000C0C06000
310
C0C08000C0C0A000F0FBFF00A4A0A000808080000000FF0000FF000000FFFF00FF000000FF00FF00FFFF0000FFFFFF000000000000000000000000000000000000000000000000000000000000000000000000000000000000000000FFFFFF0000000000000000000000000000000000000000000000000000000000FF00FF
310
0000000000000000000000000000000000000000000000000000000000FF00FFFFFFFFFFFFFFFF00000000000000000000000000000000000000000000FF00FF00000000FFFF0000000000000000000000000000000000000000000000FF00FF00000000FFFF0000000000000000000000000000000000000000000000FF00
310
FF00000000FFFF0000000000000000000000000000000000000000000000FF00FF00000000FFFF0000000000000000000000000000000000000000000000FF00FF00000000FFFF0000000000000000000000000000000000000000000000FF00FF00000000FFFF0000000000000000000000000000000000000000000000FF
310
00FF00000000FFFF0000000000000000000000000000000000000000000000FF00FF00000000FFFF0000000000000000000000000000000000000000000000FF00FF00000000FFFF0000000000000000000000000000000000000000000000FF00FF00000000FFFF0000000000000000000000000000000000000000000000
310
FF00FF00000000FFFF0000000000000000000000000000000000000000000000FF00FF00000000FFFF0000000000000000000000000000000000000000000000FF00FF00000000FFFF000000000000000000000000000000000000000000000000000000000000000000000000000000000000000000000000000000000000
310
00000000000000000000000000000000000000000000000000000000000000000000000000000000000000000000000000000000000000000000000000000000000000000000000000000000000000000000000000000000000000000000000000000000000000000000000000000000000000000000000000000000000000
310
00000000000000000000000000000000000000000000000000000000000000000000000000000000000000000000000000000000000000000000000000000000000000000000000000000000000000000000000000000000000000000000000000000000000000000000000000000000000000000000000000000000000000
310
00000000000000FFFFFFFFFFFF00000000000000000000000000000000000000000000FFFFFFFFFFFFFFFFFFFF000000000000000000000000000000000000000000FFFFFFFFFFFFFFFFFFFFFF0000000000000000000000000000000000000000F9FFFFFFFFF9000000000000000000000000000000000000000000000000
310
00000000FFFFFF00000000000000000000000000000000000000000000000000000000000000000000000000000000000000000000000000
102
{BLKREFS
331
4BCE
102
}
 70
     4
280
     1
281
     0
  0
BLOCK_RECORD
  5
4CEA
102
{ACAD_XDICTIONARY
360
4D85
102
}
330
1
100
AcDbSymbolTableRecord
100
AcDbBlockTableRecord
  2
リジット CEMH1120
340
0
310
2800000020000000200000000100080000000000000400000000000000000000000000000000000000000000000080000080000000808000800000008000800080800000C0C0C000C0DCC000F0CAA6000020400000206000002080000020A0000020C0000020E00000400000004020000040400000406000004080000040A0
310
000040C0000040E00000600000006020000060400000606000006080000060A0000060C0000060E00000800000008020000080400000806000008080000080A0000080C0000080E00000A0000000A0200000A0400000A0600000A0800000A0A00000A0C00000A0E00000C0000000C0200000C0400000C0600000C0800000C0
310
A00000C0C00000C0E00000E0000000E0200000E0400000E0600000E0800000E0A00000E0C00000E0E00040000000400020004000400040006000400080004000A0004000C0004000E00040200000402020004020400040206000402080004020A0004020C0004020E000404000004040200040404000404060004040800040
310
40A0004040C0004040E00040600000406020004060400040606000406080004060A0004060C0004060E00040800000408020004080400040806000408080004080A0004080C0004080E00040A0000040A0200040A0400040A0600040A0800040A0A00040A0C00040A0E00040C0000040C0200040C0400040C0600040C08000
310
40C0A00040C0C00040C0E00040E0000040E0200040E0400040E0600040E0800040E0A00040E0C00040E0E00080000000800020008000400080006000800080008000A0008000C0008000E00080200000802020008020400080206000802080008020A0008020C0008020E00080400000804020008040400080406000804080
310
008040A0008040C0008040E00080600000806020008060400080606000806080008060A0008060C0008060E00080800000808020008080400080806000808080008080A0008080C0008080E00080A0000080A0200080A0400080A0600080A0800080A0A00080A0C00080A0E00080C0000080C0200080C0400080C0600080C0
310
800080C0A00080C0C00080C0E00080E0000080E0200080E0400080E0600080E0800080E0A00080E0C00080E0E000C0000000C0002000C0004000C0006000C0008000C000A000C000C000C000E000C0200000C0202000C0204000C0206000C0208000C020A000C020C000C020E000C0400000C0402000C0404000C0406000C0
310
408000C040A000C040C000C040E000C0600000C0602000C0604000C0606000C0608000C060A000C060C000C060E000C0800000C0802000C0804000C0806000C0808000C080A000C080C000C080E000C0A00000C0A02000C0A04000C0A06000C0A08000C0A0A000C0A0C000C0A0E000C0C00000C0C02000C0C04000C0C06000
310
C0C08000C0C0A000F0FBFF00A4A0A000808080000000FF0000FF000000FFFF00FF000000FF00FF00FFFF0000FFFFFF0000000000000000000000000000000000000000000000000000000000000000000000000000000000000000000000000000000000FFFFFF000000000000000000000000000000000000000000000000
310
0000000000F9F9F9F9F9000000000000000000000000000000000000000000000000000000FF00000000000000000000000000000000000000FFFFFFFFFFFFFFFFFFFFFFFFFF000000000000000000000000000000000000FF0000000000000000000000FFFF000000000000000000000000000000000000FF000000000000
310
0000000000FFFF000000000000000000000000000000000000FF0000000000000000000000FFFF000000000000000000000000000000000000FF0000000000000000000000FFFF000000000000000000000000000000000000FF0000000000000000000000FFFF000000000000000000000000000000000000FF0000000000
310
000000000000FFFF000000000000000000000000000000000000FF0000000000000000000000FFFF000000000000000000000000000000000000FF0000000000000000000000FFFF000000000000000000000000000000000000FF0000000000000000000000FFFF000000000000000000000000000000000000FF00000000
310
00000000000000FFFF000000000000000000000000000000000000FF0000000000000000000000FFFF000000000000000000000000000000000000A4A4A4000000000000000000A4A4A40000000000000000000000000000000000FF00000000000000000000000000FF0000000000000000000000000000000000FF000000
310
00000000000000000000FF0000000000000000000000000000000000FF00000000000000000000000000FF0000000000000000000000000000000000FF00000000000000000000000000FF0000000000000000000000000000000000FF00000000000000000000000000FF0000000000000000000000000000000000FFFFFF
310
FFFFFFFFFFFFFFFFFFFFFFFF0000000000000000000000000000000000FF00000000000000000000000000FF0000000000000000000000000000000000FF00000000000000000000000000FF0000000000000000000000000000000000FF00000000000000000000000000FF0000000000000000000000000000000000FF00
310
000000000000000000000000FF000000000000000000000000000000000000FFFFFFFFFFFFFFFFFFFFFFFF00FFFF0000000000000000000000000000000000000000000000000000000000FFFFFF0000000000000000000000000000000000000000000000000000000000FFFFFF0000000000000000000000000000000000
310
000000000000000000000000FFFFFF0000000000000000000000000000000000000000000000000000000000000000000000000000000000
102
{BLKREFS
331
4D1A
102
}
 70
     4
280
     1
281
     0
  0
BLOCK_RECORD
  5
4E04
102
{ACAD_XDICTIONARY
360
4EA0
102
}
330
1
100
AcDbSymbolTableRecord
100
AcDbBlockTableRecord
  2
リーマボルト CEMH1120 M36
340
0
310
2800000020000000200000000100080000000000000400000000000000000000000000000000000000000000000080000080000000808000800000008000800080800000C0C0C000C0DCC000F0CAA6000020400000206000002080000020A0000020C0000020E00000400000004020000040400000406000004080000040A0
310
000040C0000040E00000600000006020000060400000606000006080000060A0000060C0000060E00000800000008020000080400000806000008080000080A0000080C0000080E00000A0000000A0200000A0400000A0600000A0800000A0A00000A0C00000A0E00000C0000000C0200000C0400000C0600000C0800000C0
310
A00000C0C00000C0E00000E0000000E0200000E0400000E0600000E0800000E0A00000E0C00000E0E00040000000400020004000400040006000400080004000A0004000C0004000E00040200000402020004020400040206000402080004020A0004020C0004020E000404000004040200040404000404060004040800040
310
40A0004040C0004040E00040600000406020004060400040606000406080004060A0004060C0004060E00040800000408020004080400040806000408080004080A0004080C0004080E00040A0000040A0200040A0400040A0600040A0800040A0A00040A0C00040A0E00040C0000040C0200040C0400040C0600040C08000
310
40C0A00040C0C00040C0E00040E0000040E0200040E0400040E0600040E0800040E0A00040E0C00040E0E00080000000800020008000400080006000800080008000A0008000C0008000E00080200000802020008020400080206000802080008020A0008020C0008020E00080400000804020008040400080406000804080
310
008040A0008040C0008040E00080600000806020008060400080606000806080008060A0008060C0008060E00080800000808020008080400080806000808080008080A0008080C0008080E00080A0000080A0200080A0400080A0600080A0800080A0A00080A0C00080A0E00080C0000080C0200080C0400080C0600080C0
310
800080C0A00080C0C00080C0E00080E0000080E0200080E0400080E0600080E0800080E0A00080E0C00080E0E000C0000000C0002000C0004000C0006000C0008000C000A000C000C000C000E000C0200000C0202000C0204000C0206000C0208000C020A000C020C000C020E000C0400000C0402000C0404000C0406000C0
310
408000C040A000C040C000C040E000C0600000C0602000C0604000C0606000C0608000C060A000C060C000C060E000C0800000C0802000C0804000C0806000C0808000C080A000C080C000C080E000C0A00000C0A02000C0A04000C0A06000C0A08000C0A0A000C0A0C000C0A0E000C0C00000C0C02000C0C04000C0C06000
310
C0C08000C0C0A000F0FBFF00A4A0A000808080000000FF0000FF000000FFFF00FF000000FF00FF00FFFF0000FFFFFF0000000000000000000000000000000000000000000000000000000000000000000000000000000000000000000000000000000000000000000000000000000000000000000000000000000000000000
310
00000000000000000000000000000000000000000000000000000000000000000000000000000000000000000000000000000000000000000000000000000000000000000000000000000000000000000000000000000000000000000000000000000000000000000000000000000000000000000000000000000000000000
310
00000000000000000000000000000000000000000000000000000000000000000000000000000000000000000000000000000000000000000000000000000000000000000000000000000000000000000000000000000000000000000000000000000000000000000000000000000000000000000000000000000000000000
310
00000000000000000000000000000000000000000000FFFFFFFFFFFFFF00000000000000000000000000000000FFFFFFFFFF00000000FF000000FF000000000000000000000000000000000000000000FFFF0000FFFFFFFFFFFFFF00FF00000000000000000000000000000000FFFFFFFFFF0000FFFFFF000000FF00FF0000
310
0000000000000000000000000000FF0000FFFF0000FFFFFF000000FF00FF00000000000000000000000000000000FF0000FFFF0000FFFFFF000000FFFFFF00000000000000000000000000000000FF0000FFFF0000FFFFFF000000FF00FF00000000000000000000000000000000FF0000FFFF0000FFFFFFFFFFFFFF00FF00
310
000000000000000000000000000000FFFFFFFFFF00000000FF000000FF000000000000000000000000000000000000000000FFFF00000000FFFFFFFFFFFFFF00000000000000000000000000000000FFFFFFFFFF00000000000000000000000000000000000000000000000000000000000000000000000000000000000000
310
00000000000000000000000000000000000000000000000000000000000000000000000000000000000000000000000000000000000000000000000000000000000000000000000000000000000000000000000000000000000000000000000000000000000000000000000000000000000000000000000000000000000000
310
00000000000000000000000000000000000000000000000000000000000000000000000000000000000000000000000000000000000000000000000000000000000000000000000000000000000000000000000000000000000000000000000000000000000000000000000000000000000000000000000000000000000000
310
0000000000000000000000000000000000000000000000000000000000000000000000000000000000000000000000000000000000000000
102
{BLKREFS
331
4E33
102
}
 70
     4
280
     1
281
     0
  0
BLOCK_RECORD
  5
4F45
102
{ACAD_XDICTIONARY
360
6212
102
}
330
1
100
AcDbSymbolTableRecord
100
AcDbBlockTableRecord
  2
センタ CEMH1120
340
0
310
2800000020000000200000000100080000000000000400000000000000000000000000000000000000000000000080000080000000808000800000008000800080800000C0C0C000C0DCC000F0CAA6000020400000206000002080000020A0000020C0000020E00000400000004020000040400000406000004080000040A0
310
000040C0000040E00000600000006020000060400000606000006080000060A0000060C0000060E00000800000008020000080400000806000008080000080A0000080C0000080E00000A0000000A0200000A0400000A0600000A0800000A0A00000A0C00000A0E00000C0000000C0200000C0400000C0600000C0800000C0
310
A00000C0C00000C0E00000E0000000E0200000E0400000E0600000E0800000E0A00000E0C00000E0E00040000000400020004000400040006000400080004000A0004000C0004000E00040200000402020004020400040206000402080004020A0004020C0004020E000404000004040200040404000404060004040800040
310
40A0004040C0004040E00040600000406020004060400040606000406080004060A0004060C0004060E00040800000408020004080400040806000408080004080A0004080C0004080E00040A0000040A0200040A0400040A0600040A0800040A0A00040A0C00040A0E00040C0000040C0200040C0400040C0600040C08000
310
40C0A00040C0C00040C0E00040E0000040E0200040E0400040E0600040E0800040E0A00040E0C00040E0E00080000000800020008000400080006000800080008000A0008000C0008000E00080200000802020008020400080206000802080008020A0008020C0008020E00080400000804020008040400080406000804080
310
008040A0008040C0008040E00080600000806020008060400080606000806080008060A0008060C0008060E00080800000808020008080400080806000808080008080A0008080C0008080E00080A0000080A0200080A0400080A0600080A0800080A0A00080A0C00080A0E00080C0000080C0200080C0400080C0600080C0
310
800080C0A00080C0C00080C0E00080E0000080E0200080E0400080E0600080E0800080E0A00080E0C00080E0E000C0000000C0002000C0004000C0006000C0008000C000A000C000C000C000E000C0200000C0202000C0204000C0206000C0208000C020A000C020C000C020E000C0400000C0402000C0404000C0406000C0
310
408000C040A000C040C000C040E000C0600000C0602000C0604000C0606000C0608000C060A000C060C000C060E000C0800000C0802000C0804000C0806000C0808000C080A000C080C000C080E000C0A00000C0A02000C0A04000C0A06000C0A08000C0A0A000C0A0C000C0A0E000C0C00000C0C02000C0C04000C0C06000
310
C0C08000C0C0A000F0FBFF00A4A0A000808080000000FF0000FF000000FFFF00FF000000FF00FF00FFFF0000FFFFFF0000000000000000000000000000000000000000000000000000000000000000000000000000000000000000000000000000FFFFFFFFFFFFFFFF00000000000000000000000000000000000000000000
310
00000000FF0000000000FF00000000000000000000000000000000000000000000000000FF0000000000FF00000000000000000000000000000000000000000000000000FF0000000000FF00000000000000000000000000000000000000000000000000FF0000000000FF0000000000000000000000000000000000000000
310
0000000000FF0000000000FF00000000000000000000000000000000000000000000000000FF0000000000FF00000000000000000000000000000000000000000000000000FF0000000000FF00000000000000000000000000000000000000000000000000FF0000000000FF00000000000000000000000000000000000000
310
000000000000FF0000000000FF00000000000000000000000000000000000000000000000000FF0000000000FF00000000000000000000000000000000000000000000000000FF0000000000FF00000000000000000000000000000000000000000000000000FF0000000000FF000000000000000000000000000000000000
310
00000000000000FF0000000000FF000000000000000000000000FFA4A4A4000000000000000000FF0000A4A4A4A4000000000000000000000000FFA4A4A4000000000000000000000000A4A4A4A4000000000000000000000000FF0000000000000000000000000000000000FFFF000000000000000000000000FF00000000
310
00000000000000000000000000FFFF000000000000000000000000FF0000000000000000000000000000000000FFFF000000000000000000000000FF0000000000000000000000000000000000FFFF000000000000000000000000FF0000000000000000000000000000000000FFFF000000000000000000000000FF000000
310
0000000000000000000000000000FFFF000000000000000000000000FFFFFF0000FFFFFFFFFFFFFFFFFFFFFFFFFFFFFF000000000000000000000000FFFFFF0000FFFFFFFFFFFFFFFFFFFFFFFFFFFFFF000000000000000000000000FF000000000000000000000000000000000000FF000000000000000000000000FF0000
310
00000000000000000000000000000000FF000000000000000000000000FF000000000000000000000000000000000000FF000000000000000000000000FFFFFFFFFFFF00000000FFFFFFFFFFFFFFFFFFFF0000000000000000000000000000000000FFFFFFFFFFFF0000000000000000000000000000000000000000000000
310
0000000000F90000000000000000000000000000000000000000000000000000000000000000000000000000000000000000000000000000
102
{BLKREFS
331
4F75
102
}
 70
     4
280
     1
281
     0
  0
BLOCK_RECORD
  5
50AF
102
{ACAD_XDICTIONARY
360
5153
102
}
330
1
100
AcDbSymbolTableRecord
100
AcDbBlockTableRecord
  2
ＧＣサイドカバ－ CEMH1120
340
0
310
2800000020000000200000000100080000000000000400000000000000000000000000000000000000000000000080000080000000808000800000008000800080800000C0C0C000C0DCC000F0CAA6000020400000206000002080000020A0000020C0000020E00000400000004020000040400000406000004080000040A0
310
000040C0000040E00000600000006020000060400000606000006080000060A0000060C0000060E00000800000008020000080400000806000008080000080A0000080C0000080E00000A0000000A0200000A0400000A0600000A0800000A0A00000A0C00000A0E00000C0000000C0200000C0400000C0600000C0800000C0
310
A00000C0C00000C0E00000E0000000E0200000E0400000E0600000E0800000E0A00000E0C00000E0E00040000000400020004000400040006000400080004000A0004000C0004000E00040200000402020004020400040206000402080004020A0004020C0004020E000404000004040200040404000404060004040800040
310
40A0004040C0004040E00040600000406020004060400040606000406080004060A0004060C0004060E00040800000408020004080400040806000408080004080A0004080C0004080E00040A0000040A0200040A0400040A0600040A0800040A0A00040A0C00040A0E00040C0000040C0200040C0400040C0600040C08000
310
40C0A00040C0C00040C0E00040E0000040E0200040E0400040E0600040E0800040E0A00040E0C00040E0E00080000000800020008000400080006000800080008000A0008000C0008000E00080200000802020008020400080206000802080008020A0008020C0008020E00080400000804020008040400080406000804080
310
008040A0008040C0008040E00080600000806020008060400080606000806080008060A0008060C0008060E00080800000808020008080400080806000808080008080A0008080C0008080E00080A0000080A0200080A0400080A0600080A0800080A0A00080A0C00080A0E00080C0000080C0200080C0400080C0600080C0
310
800080C0A00080C0C00080C0E00080E0000080E0200080E0400080E0600080E0800080E0A00080E0C00080E0E000C0000000C0002000C0004000C0006000C0008000C000A000C000C000C000E000C0200000C0202000C0204000C0206000C0208000C020A000C020C000C020E000C0400000C0402000C0404000C0406000C0
310
408000C040A000C040C000C040E000C0600000C0602000C0604000C0606000C0608000C060A000C060C000C060E000C0800000C0802000C0804000C0806000C0808000C080A000C080C000C080E000C0A00000C0A02000C0A04000C0A06000C0A08000C0A0A000C0A0C000C0A0E000C0C00000C0C02000C0C04000C0C06000
310
C0C08000C0C0A000F0FBFF00A4A0A000808080000000FF0000FF000000FFFF00FF000000FF00FF00FFFF0000FFFFFF00000000000000000000000000000000000000000000000000000000000000000000000000000000000000000000000000FF000000000000000000000000000000000000000000000000000000000000
310
00FF00000000000000000000000000000000000000000000000000000000000000FF00000000000000000000000000000000000000000000000000000000000000FF00000000000000000000000000000000000000000000000000000000000000FF0000000000000000000000000000000000000000000000000000000000
310
0000FF00000000000000000000000000000000000000000000000000000000000000FF00000000000000000000000000000000000000000000000000000000000000FF00000000000000000000000000000000000000000000000000000000000000FF00000000000000000000000000000000000000000000000000000000
310
000000FF00000000000000000000000000000000000000000000000000000000000000FF00000000000000000000000000000000000000000000000000000000000000FF00000000000000000000000000000000000000000000000000000000000000FF000000000000000000000000000000000000000000000000000000
310
00000000FF00000000000000000000000000000000000000000000000000000000000000FF00000000000000000000000000000000000000000000000000000000000000FF00000000000000000000000000000000000000000000000000000000000000000000000000000000000000000000000000000000000000000000
310
00000000000000000000000000000000000000000000000000000000000000000000000000000000000000000000000000000000000000000000000000000000000000000000000000000000000000000000000000000000000000000000000000000000000000000000000000000000000000000000000000000000000000
310
00000000000000000000000000000000000000000000000000000000000000000000000000000000000000000000000000000000000000000000000000000000000000000000000000000000000000000000000000000000000000000000000000000000000000000000000000000000000000000000000000000000000000
310
0000000000000000000000000000000000000000000000000000000000000000000000000000FFFF000000000000000000000000000000000000000000000000000000000000FFFF0000000000000000000000000000000000000000000000000000000000FFFFFFFF00000000000000000000000000000000000000000000
310
00000000000000FFFF0000000000000000000000000000000000000000000000000000000000000000000000000000000000000000000000
102
{BLKREFS
331
50E4
102
}
 70
     4
280
     1
281
     0
  0
BLOCK_RECORD
  5
546B
330
1
100
AcDbSymbolTableRecord
100
AcDbBlockTableRecord
  2
*D13
340
0
 70
     0
280
     1
281
     0
  0
BLOCK_RECORD
  5
5483
330
1
100
AcDbSymbolTableRecord
100
AcDbBlockTableRecord
  2
*D14
340
0
 70
     0
280
     1
281
     0
  0
BLOCK_RECORD
  5
549F
330
1
100
AcDbSymbolTableRecord
100
AcDbBlockTableRecord
  2
*D15
340
0
 70
     0
280
     1
281
     0
  0
BLOCK_RECORD
  5
557A
330
1
100
AcDbSymbolTableRecord
100
AcDbBlockTableRecord
  2
*D16
340
0
 70
     0
280
     1
281
     0
  0
BLOCK_RECORD
  5
56D6
330
1
100
AcDbSymbolTableRecord
100
AcDbBlockTableRecord
  2
*D17
340
0
 70
     0
280
     1
281
     0
  0
BLOCK_RECORD
  5
56EE
330
1
100
AcDbSymbolTableRecord
100
AcDbBlockTableRecord
  2
*D18
340
0
 70
     0
280
     1
281
     0
  0
BLOCK_RECORD
  5
5706
330
1
100
AcDbSymbolTableRecord
100
AcDbBlockTableRecord
  2
*D19
340
0
 70
     0
280
     1
281
     0
  0
BLOCK_RECORD
  5
57B8
330
1
100
AcDbSymbolTableRecord
100
AcDbBlockTableRecord
  2
*D20
340
0
 70
     0
280
     1
281
     0
  0
BLOCK_RECORD
  5
57D4
330
1
100
AcDbSymbolTableRecord
100
AcDbBlockTableRecord
  2
*D21
340
0
 70
     0
280
     1
281
     0
  0
BLOCK_RECORD
  5
57F0
330
1
100
AcDbSymbolTableRecord
100
AcDbBlockTableRecord
  2
*D22
340
0
 70
     0
280
     1
281
     0
  0
BLOCK_RECORD
  5
5808
330
1
100
AcDbSymbolTableRecord
100
AcDbBlockTableRecord
  2
*D23
340
0
 70
     0
280
     1
281
     0
  0
BLOCK_RECORD
  5
5820
330
1
100
AcDbSymbolTableRecord
100
AcDbBlockTableRecord
  2
*D24
340
0
 70
     0
280
     1
281
     0
  0
BLOCK_RECORD
  5
5838
330
1
100
AcDbSymbolTableRecord
100
AcDbBlockTableRecord
  2
*D25
340
0
 70
     0
280
     1
281
     0
  0
BLOCK_RECORD
  5
6A55
330
1
100
AcDbSymbolTableRecord
100
AcDbBlockTableRecord
  2
*D26
340
0
 70
     0
280
     1
281
     0
  0
BLOCK_RECORD
  5
6A83
330
1
100
AcDbSymbolTableRecord
100
AcDbBlockTableRecord
  2
*D27
340
0
 70
     0
280
     1
281
     0
  0
BLOCK_RECORD
  5
6AED
330
1
100
AcDbSymbolTableRecord
100
AcDbBlockTableRecord
  2
_DotSmall
340
0
102
{BLKREFS
331
6B2C
331
6C2B
331
6C2C
331
6C52
102
}
 70
     0
280
     1
281
     0
  0
BLOCK_RECORD
  5
6B6E
330
1
100
AcDbSymbolTableRecord
100
AcDbBlockTableRecord
  2
*D29
340
0
 70
     0
280
     1
281
     0
  0
BLOCK_RECORD
  5
6CA4
330
1
100
AcDbSymbolTableRecord
100
AcDbBlockTableRecord
  2
*D30
340
0
 70
     0
280
     1
281
     0
  0
BLOCK_RECORD
  5
6D8B
330
1
100
AcDbSymbolTableRecord
100
AcDbBlockTableRecord
  2
ＧＣサイドカバ－ CEM1120
340
0
310
2800000020000000200000000100080000000000000400000000000000000000000000000000000000000000000080000080000000808000800000008000800080800000C0C0C000C0DCC000F0CAA6000020400000206000002080000020A0000020C0000020E00000400000004020000040400000406000004080000040A0
310
000040C0000040E00000600000006020000060400000606000006080000060A0000060C0000060E00000800000008020000080400000806000008080000080A0000080C0000080E00000A0000000A0200000A0400000A0600000A0800000A0A00000A0C00000A0E00000C0000000C0200000C0400000C0600000C0800000C0
310
A00000C0C00000C0E00000E0000000E0200000E0400000E0600000E0800000E0A00000E0C00000E0E00040000000400020004000400040006000400080004000A0004000C0004000E00040200000402020004020400040206000402080004020A0004020C0004020E000404000004040200040404000404060004040800040
310
40A0004040C0004040E00040600000406020004060400040606000406080004060A0004060C0004060E00040800000408020004080400040806000408080004080A0004080C0004080E00040A0000040A0200040A0400040A0600040A0800040A0A00040A0C00040A0E00040C0000040C0200040C0400040C0600040C08000
310
40C0A00040C0C00040C0E00040E0000040E0200040E0400040E0600040E0800040E0A00040E0C00040E0E00080000000800020008000400080006000800080008000A0008000C0008000E00080200000802020008020400080206000802080008020A0008020C0008020E00080400000804020008040400080406000804080
310
008040A0008040C0008040E00080600000806020008060400080606000806080008060A0008060C0008060E00080800000808020008080400080806000808080008080A0008080C0008080E00080A0000080A0200080A0400080A0600080A0800080A0A00080A0C00080A0E00080C0000080C0200080C0400080C0600080C0
310
800080C0A00080C0C00080C0E00080E0000080E0200080E0400080E0600080E0800080E0A00080E0C00080E0E000C0000000C0002000C0004000C0006000C0008000C000A000C000C000C000E000C0200000C0202000C0204000C0206000C0208000C020A000C020C000C020E000C0400000C0402000C0404000C0406000C0
310
408000C040A000C040C000C040E000C0600000C0602000C0604000C0606000C0608000C060A000C060C000C060E000C0800000C0802000C0804000C0806000C0808000C080A000C080C000C080E000C0A00000C0A02000C0A04000C0A06000C0A08000C0A0A000C0A0C000C0A0E000C0C00000C0C02000C0C04000C0C06000
310
C0C08000C0C0A000F0FBFF00A4A0A000808080000000FF0000FF000000FFFF00FF000000FF00FF00FFFF0000FFFFFF0000000000000000000000000000000000000000000000000000000000000000000000000000000000FC00FC00000000000000FC0000FC000000000000000000000000000000000000FCFCFC00000000
310
000000FCFCFCFC000000000000000000000000000000000000FC00FC00000000000000FC0000FC000000000000000000000000000000000000FC00FC00000000000000FC0000FC000000000000000000000000000000000000FC00FC00000000000000FC0000FC000000000000000000000000000000000000FC00FCFCFCFC
310
FCFCFCFCFC0000FC000000000000000000000000000000000000FC000000000000000000000000FC000000000000000000000000000000000000FC000000000000000000000000FC000000000000000000000000000000000000FC000000000000000000000000FC000000000000000000000000000000000000FC00000000
310
0000000000000000FC000000000000000000000000000000000000FC000000000000000000000000FC000000000000000000000000000000000000FC000000000000000000000000FC000000000000000000000000000000000000FCFCFCFCFC0000000000000000FC00000000000000000000000000000000000000000000
310
FC0000000000000000FC00000000000000000000000000000000000000000000FC0000000000000000FC0000000000000000000000000000000000000000FCFCFC0000000000000000FC0000000000000000000000000000000000000000FC00000000000000000000FC0000000000000000000000000000000000000000FC
310
00000000000000000000FC0000000000000000000000000000000000000000FC00000000000000000000FC0000000000000000000000000000000000000000FC00000000000000000000FC0000000000000000000000000000000000000000FC00000000000000000000FC000000000000000000000000000000000000FCFC
310
FCFCFCFCFCFCFCFCFCFCFCFCFCFC000000000000000000000000000000000000FC00000000000000000000FC0000000000000000000000000000000000000000FC00000000000000000000FC0000000000000000000000000000000000000000FC00000000000000000000FC00000000000000000000000000000000000000
310
00FC00000000000000000000FC0000000000000000000000000000000000000000FC00000000000000000000FC0000000000000000000000000000000000000000FC00000000000000000000FC0000000000000000000000000000000000000000FC00000000000000000000FC000000000000000000000000000000000000
310
0000FCFCFCFCFCFCFCFCFCFCFCFC000000000000000000000000000000000000000000000000000000000000000000000000000000000000
102
{BLKREFS
331
6DA0
102
}
 70
     4
280
     1
281
     1
  0
ENDTAB
  0
ENDSEC
  0
SECTION
  2
BLOCKS
  0
BLOCK
  5
20
330
1F
100
AcDbEntity
  8
0
100
AcDbBlockBegin
  2
*Model_Space
 70
     0
 10
0.0
 20
0.0
 30
0.0
  3
*Model_Space
  1

  0
ENDBLK
  5
21
330
1F
100
AcDbEntity
  8
0
100
AcDbBlockEnd
  0
BLOCK
  5
1C
330
1B
100
AcDbEntity
 67
     1
  8
0
100
AcDbBlockBegin
  2
*Paper_Space
 70
     0
 10
0.0
 20
0.0
 30
0.0
  3
*Paper_Space
  1

  0
ENDBLK
  5
1D
330
1B
100
AcDbEntity
 67
     1
  8
0
100
AcDbBlockEnd
  0
BLOCK
  5
24
330
23
100
AcDbEntity
 67
     1
  8
0
100
AcDbBlockBegin
  2
*Paper_Space0
 70
     0
 10
0.0
 20
0.0
 30
0.0
  3
*Paper_Space0
  1

  0
ENDBLK
  5
25
330
23
100
AcDbEntity
 67
     1
  8
0
100
AcDbBlockEnd
  0
BLOCK
  5
6D
330
69
100
AcDbEntity
  8
0
100
AcDbBlockBegin
  2
_Open30
 70
     0
 10
0.0
 20
0.0
 30
0.0
  3
_Open30
  1

  0
LINE
  5
6A
330
69
100
AcDbEntity
  8
0
  6
ByBlock
 62
     0
370
    -2
100
AcDbLine
 10
-1.0
 20
0.26794919
 30
0.0
 11
0.0
 21
0.0
 31
0.0
  0
LINE
  5
6B
330
69
100
AcDbEntity
  8
0
  6
ByBlock
 62
     0
370
    -2
100
AcDbLine
 10
0.0
 20
0.0
 30
0.0
 11
-1.0
 21
-0.26794919
 31
0.0
  0
LINE
  5
6C
330
69
100
AcDbEntity
  8
0
  6
ByBlock
 62
     0
370
    -2
100
AcDbLine
 10
0.0
 20
0.0
 30
0.0
 11
-1.0
 21
0.0
 31
0.0
  0
ENDBLK
  5
6E
330
69
100
AcDbEntity
  8
0
100
AcDbBlockEnd
  0
BLOCK
  5
76
330
74
100
AcDbEntity
  8
0
100
AcDbBlockBegin
  2
GENAXEH
 70
     0
 10
0.0
 20
0.0
 30
0.0
  3
GENAXEH
  1

  0
LINE
  5
75
330
74
100
AcDbEntity
  8
0
100
AcDbLine
 10
-1.0
 20
0.0
 30
0.0
 11
1.0
 21
0.0
 31
0.0
  0
ENDBLK
  5
77
330
74
100
AcDbEntity
  8
0
100
AcDbBlockEnd
  0
BLOCK
  5
3B1C
330
3B1B
100
AcDbEntity
  8
0
100
AcDbBlockBegin
  2
GENDOT
 70
     0
 10
0.0
 20
0.0
 30
0.0
  3
GENDOT
  1

  0
LINE
  5
3B1D
330
3B1B
100
AcDbEntity
  8
0
100
AcDbLine
 10
0.0
 20
0.0
 30
0.0
 11
-1.0
 21
0.0
 31
0.0
  0
LWPOLYLINE
  5
3B1E
330
3B1B
100
AcDbEntity
  8
0
100
AcDbPolyline
 90
        2
 70
     1
 43
0.25
 10
-0.125
 20
0.0
 42
1.0
 10
0.125
 20
0.0
 42
1.0
  0
ENDBLK
  5
3B1F
330
3B1B
100
AcDbEntity
  8
0
100
AcDbBlockEnd
  0
BLOCK
  5
4AD9
330
4AD8
100
AcDbEntity
  8
0
100
AcDbBlockBegin
  2
ロッカクアナツキプラグ R1
 70
     0
 10
0.0
 20
0.0
 30
0.0
  3
ロッカクアナツキプラグ R1
  1

  0
LINE
  5
4ADB
330
4AD8
100
AcDbEntity
  8
AM_4 細線
100
AcDbLine
 10
15.19540500000085
 20
-1.070905000000037
 30
0.0
 11
14.67855800000006
 21
-15.87147099999993
 31
0.0
  0
LINE
  5
4ADC
330
4AD8
100
AcDbEntity
  8
AM_4 細線
100
AcDbLine
 10
-15.19540499999993
 20
-1.070905000000037
 30
0.0
 11
-14.67855799999916
 21
-15.87147099999993
 31
0.0
  0
LINE
  5
4ADD
330
4AD8
100
AcDbEntity
  8
AM_7 中心線
100
AcDbLine
 10
0.0000000000004547
 20
5.609929000000192
 30
0.0
 11
0.0000000000004547
 21
-35.24113499999976
 31
0.0
  0
LINE
  5
4ADE
330
4AD8
100
AcDbEntity
  8
AM_0 外形線1
100
AcDbLine
 10
-16.1879899999999
 20
-14.99999999999954
 30
0.0
 11
16.18799100000024
 21
-14.99999999999954
 31
0.0
  0
LINE
  5
4ADF
330
4AD8
100
AcDbEntity
  8
AM_0 外形線1
100
AcDbLine
 10
16.62450000000035
 20
-2.499999999999544
 30
0.0
 11
-16.62449999999944
 21
-2.499999999999544
 31
0.0
  0
LINE
  5
4AE0
330
4AD8
100
AcDbEntity
  8
AM_0 外形線1
100
AcDbLine
 10
16.62450000000035
 20
-2.499999999999544
 30
0.0
 11
14.12450000000035
 21
0.0000000000004547
 31
0.0
  0
LINE
  5
4AE1
330
4AD8
100
AcDbEntity
  8
AM_0 外形線1
100
AcDbLine
 10
16.18799100000024
 20
-14.99999999999954
 30
0.0
 11
16.62450000000035
 21
-2.499999999999544
 31
0.0
  0
LINE
  5
4AE2
330
4AD8
100
AcDbEntity
  8
AM_0 外形線1
100
AcDbLine
 10
9.259787000000413
 20
-18.99999999999954
 30
0.0
 11
16.18799100000024
 21
-14.99999999999954
 31
0.0
  0
LINE
  5
4AE3
330
4AD8
100
AcDbEntity
  8
AM_0 外形線1
100
AcDbLine
 10
-9.259786999999503
 20
-18.99999999999954
 30
0.0
 11
9.259787000000413
 21
-18.99999999999954
 31
0.0
  0
LINE
  5
4AE4
330
4AD8
100
AcDbEntity
  8
AM_0 外形線1
100
AcDbLine
 10
-16.1879899999999
 20
-14.99999999999954
 30
0.0
 11
-9.259786999999503
 21
-18.99999999999954
 31
0.0
  0
LINE
  5
4AE5
330
4AD8
100
AcDbEntity
  8
AM_0 外形線1
100
AcDbLine
 10
-16.62449999999944
 20
-2.499999999999544
 30
0.0
 11
-16.1879899999999
 21
-14.99999999999954
 31
0.0
  0
LINE
  5
4AE6
330
4AD8
100
AcDbEntity
  8
AM_0 外形線1
100
AcDbLine
 10
-14.12449999999944
 20
0.0000000000004547
 30
0.0
 11
-16.62449999999944
 21
-2.499999999999544
 31
0.0
  0
LINE
  5
4B05
330
4AD8
100
AcDbEntity
  8
AM_0 外形線1
100
AcDbLine
 10
-14.12449999999944
 20
0.0000000000004547
 30
0.0
 11
14.12450000000035
 21
0.0000000000004547
 31
0.0
  0
ENDBLK
  5
4ADA
330
4AD8
100
AcDbEntity
  8
0
100
AcDbBlockEnd
  0
BLOCK
  5
4B94
330
4B93
100
AcDbEntity
  8
0
100
AcDbBlockBegin
  2
ケースＡ CEMH1120
 70
     0
 10
0.0
 20
0.0
 30
0.0
  3
ケースＡ CEMH1120
  1

  0
LINE
  5
4B96
330
4B93
100
AcDbEntity
  8
AM_7 中心線
100
AcDbLine
 10
-116.1443264020672
 20
526.0
 30
0.0
 11
91.19586583415005
 21
526.0
 31
0.0
  0
LINE
  5
4B97
330
4B93
100
AcDbEntity
  8
AM_0 外形線1
100
AcDbLine
 10
68.0
 20
-480.0
 30
0.0
 11
267.0
 21
-480.0
 31
0.0
  0
LINE
  5
4B98
330
4B93
100
AcDbEntity
  8
AM_0 外形線1
100
AcDbLine
 10
146.0
 20
451.4999999999998
 30
0.0
 11
-12.0
 21
451.4999999999998
 31
0.0
  0
LINE
  5
4B99
330
4B93
100
AcDbEntity
  8
AM_0 外形線1
100
AcDbLine
 10
68.0
 20
480.0
 30
0.0
 11
267.0
 21
480.0
 31
0.0
  0
LINE
  5
4B9A
330
4B93
100
AcDbEntity
  8
AM_0 外形線1
100
AcDbLine
 10
60.0
 20
-558.0
 30
0.0
 11
60.0
 21
0.0
 31
0.0
  0
LINE
  5
4B9B
330
4B93
100
AcDbEntity
  8
AM_0 外形線1
100
AcDbLine
 10
0.0
 20
0.0
 30
0.0
 11
0.0
 21
-558.0
 31
0.0
  0
LINE
  5
4B9C
330
4B93
100
AcDbEntity
  8
AM_0 外形線1
100
AcDbLine
 10
2.0
 20
-560.0
 30
0.0
 11
58.0
 21
-560.0
 31
0.0
  0
LINE
  5
4B9D
330
4B93
100
AcDbEntity
  8
AM_0 外形線1
100
AcDbLine
 10
0.0
 20
-558.0
 30
0.0
 11
2.0
 21
-560.0
 31
0.0
  0
LINE
  5
4B9E
330
4B93
100
AcDbEntity
  8
AM_0 外形線1
100
AcDbLine
 10
58.0
 20
-560.0
 30
0.0
 11
60.0
 21
-558.0
 31
0.0
  0
ARC
  5
4B9F
330
4B93
100
AcDbEntity
  8
AM_0 外形線1
100
AcDbCircle
 10
68.0
 20
-488.0
 30
0.0
 40
8.0
100
AcDbArc
 50
90.0
 51
180.0
  0
LINE
  5
4BA2
330
4B93
100
AcDbEntity
  8
AM_0 外形線1
100
AcDbLine
 10
60.0
 20
488.0
 30
0.0
 11
60.0
 21
558.0
 31
0.0
  0
LWPOLYLINE
  5
4BA3
330
4B93
100
AcDbEntity
  8
AM_0 外形線1
100
AcDbPolyline
 90
       73
 70
     0
 43
0.0
 10
3.338072999999893
 20
472.5153649999996
 10
3.631175999999868
 20
472.5340039999996
 10
3.922230000000126
 20
472.5924559999998
 10
4.209022000000004
 20
472.6902779999996
 10
4.489367000000128
 20
472.8267239999994
 10
4.761132999999971
 20
473.0007559999994
 10
5.022251000000323
 20
473.2110489999994
 10
5.270735000000058
 20
473.4560039999997
 10
5.504692000000431
 20
473.7337549999993
 10
5.722342000000026
 20
474.0421899999995
 10
5.922029999999722
 20
474.3789599999994
 10
6.102233999999952
 20
474.7415029999997
 10
6.261583999999857
 20
475.1270589999998
 10
6.398866999999881
 20
475.5326939999995
 10
6.51303899999948
 20
475.9553209999993
 10
6.603229000000282
 20
476.3917239999996
 10
6.668751999999584
 20
476.8385809999994
 10
6.709109999999781
 20
477.2924909999996
 10
6.723993999999947
 20
477.7499999999998
 10
6.713292000000365
 20
478.2076259999993
 10
6.677084999999351
 20
478.6618869999997
 10
6.615648999999391
 20
479.1093239999994
 10
6.529451000000334
 20
479.5465329999997
 10
6.41914799999995
 20
479.9701859999994
 10
6.285577999999986
 20
480.3770589999998
 10
6.129758999999467
 20
480.7640549999996
 10
5.952874999999949
 20
481.1282299999994
 10
5.756274999999733
 20
481.4668109999997
 10
5.54145199999948
 20
481.7772219999997
 10
5.310043999999833
 20
482.0571
 10
5.063809999999648
 20
482.3043159999996
 10
4.804624999999759
 20
482.5169869999994
 10
4.534460999999282
 20
482.6934959999994
 10
4.2553740000003
 20
482.8324989999996
 10
3.969488999999156
 20
482.9329379999999
 10
3.678981000000021
 20
482.994048
 10
3.386060999999243
 20
483.0153649999997
 10
3.092958999999609
 20
482.9967259999993
 10
2.801903999999921
 20
482.9382739999996
 10
2.515112999999473
 20
482.8404519999998
 10
2.234766999999918
 20
482.7040059999993
 10
1.963001000000075
 20
482.5299739999994
 10
1.701882999999725
 20
482.3196809999995
 10
1.453400000000328
 20
482.0747259999992
 10
1.219442999999955
 20
481.7969749999996
 10
1.001792000000022
 20
481.4885399999998
 10
0.8021049999997558
 20
481.1517699999998
 10
0.6219000000000962
 20
480.7892269999997
 10
0.4625500000001921
 20
480.4036709999994
 10
0.3252670000001672
 20
479.9980359999998
 10
0.2110959999999977
 20
479.5754089999994
 10
0.1209060000001045
 20
479.1390059999998
 10
0.055381999999554
 20
478.6921489999994
 10
0.0150249999996959
 20
478.2382389999993
 10
0.0001410000004398
 20
477.7807299999993
 10
0.0108430000000226
 20
477.3231039999996
 10
0.0470489999997881
 20
476.8688439999996
 10
0.1084849999997459
 20
476.4214059999995
 10
0.1946829999997135
 20
475.9841979999996
 10
0.304986999999528
 20
475.5605439999993
 10
0.4385560000000625
 20
475.1536709999994
 10
0.5943760000000112
 20
474.7666749999998
 10
0.7712589999991906
 20
474.4024999999997
 10
0.9678599999997461
 20
474.0639189999996
 10
1.182681999999658
 20
473.7535079999998
 10
1.414090999999642
 20
473.4736299999994
 10
1.660324999999829
 20
473.2264139999991
 10
1.919509999999718
 20
473.013743
 10
2.189673999999286
 20
472.8372339999996
 10
2.468759999999746
 20
472.6982309999998
 10
2.754645999999411
 20
472.5977919999994
 10
3.045153999999455
 20
472.5366819999998
 10
3.338072999999893
 20
472.5153649999996
  0
LINE
  5
4BA4
330
4B93
100
AcDbEntity
  8
AM_0 外形線1
100
AcDbLine
 10
0.0
 20
483.0
 30
0.0
 11
0.0
 21
507.0
 31
0.0
  0
LINE
  5
4BA5
330
4B93
100
AcDbEntity
  8
AM_0 外形線1
100
AcDbLine
 10
6.199999999999817
 20
483.0
 30
0.0
 11
0.0
 21
483.0
 31
0.0
  0
ARC
  5
4BA6
330
4B93
100
AcDbEntity
  8
AM_0 外形線1
100
AcDbCircle
 10
6.199999999999817
 20
482.5
 30
0.0
 40
0.5
100
AcDbArc
 50
0.0
 51
90.0
  0
LINE
  5
4BA7
330
4B93
100
AcDbEntity
  8
AM_0 外形線1
100
AcDbLine
 10
6.699999999999817
 20
473.0
 30
0.0
 11
6.699999999999817
 21
482.5
 31
0.0
  0
ARC
  5
4BA8
330
4B93
100
AcDbEntity
  8
AM_0 外形線1
100
AcDbCircle
 10
6.199999999999817
 20
473.0
 30
0.0
 40
0.5
100
AcDbArc
 50
270.0
 51
0.0
  0
LINE
  5
4BA9
330
4B93
100
AcDbEntity
  8
AM_0 外形線1
100
AcDbLine
 10
-9.0
 20
472.5
 30
0.0
 11
6.199999999999817
 21
472.5
 31
0.0
  0
LINE
  5
4BAA
330
4B93
100
AcDbEntity
  8
AM_0 外形線1
100
AcDbLine
 10
-12.0
 20
469.5
 30
0.0
 11
-9.0
 21
472.5
 31
0.0
  0
LINE
  5
4BAB
330
4B93
100
AcDbEntity
  8
AM_0 外形線1
100
AcDbLine
 10
-12.0
 20
451.4999999999998
 30
0.0
 11
-12.0
 21
469.5
 31
0.0
  0
ARC
  5
4BAC
330
4B93
100
AcDbEntity
  8
AM_0 外形線1
100
AcDbCircle
 10
68.0
 20
488.0
 30
0.0
 40
8.0
100
AcDbArc
 50
180.0
 51
270.0
  0
LINE
  5
4BAD
330
4B93
100
AcDbEntity
  8
AM_0 外形線1
100
AcDbLine
 10
2.0
 20
560.0
 30
0.0
 11
58.0
 21
560.0
 31
0.0
  0
LINE
  5
4BAE
330
4B93
100
AcDbEntity
  8
AM_0 外形線1
100
AcDbLine
 10
0.0
 20
558.0
 30
0.0
 11
2.0
 21
560.0
 31
0.0
  0
LINE
  5
4BAF
330
4B93
100
AcDbEntity
  8
AM_0 外形線1
100
AcDbLine
 10
0.0
 20
545.0
 30
0.0
 11
0.0
 21
558.0
 31
0.0
  0
LINE
  5
4BB0
330
4B93
100
AcDbEntity
  8
AM_0 外形線1
100
AcDbLine
 10
58.0
 20
560.0
 30
0.0
 11
60.0
 21
558.0
 31
0.0
  0
LINE
  5
4BB1
330
4B93
100
AcDbEntity
  8
AM_0 外形線1
100
AcDbLine
 10
282.0
 20
-495.0
 30
0.0
 11
282.0
 21
0.0
 31
0.0
  0
LINE
  5
4BB2
330
4B93
100
AcDbEntity
  8
AM_0 外形線1
100
AcDbLine
 10
267.0
 20
-480.0
 30
0.0
 11
267.0
 21
0.0
 31
0.0
  0
LINE
  5
4BB3
330
4B93
100
AcDbEntity
  8
AM_0 外形線1
100
AcDbLine
 10
332.0
 20
-495.0000000000003
 30
0.0
 11
282.0
 21
-495.0
 31
0.0
  0
LINE
  5
4BB4
330
4B93
100
AcDbEntity
  8
AM_0 外形線1
100
AcDbLine
 10
282.0
 20
-495.0
 30
0.0
 11
267.0
 21
-480.0
 31
0.0
  0
LINE
  5
4BB5
330
4B93
100
AcDbEntity
  8
AM_0 外形線1
100
AcDbLine
 10
324.0
 20
433.0
 30
0.0
 11
323.0
 21
432.0
 31
0.0
  0
LINE
  5
4BB6
330
4B93
100
AcDbEntity
  8
AM_0 外形線1
100
AcDbLine
 10
148.0
 20
432.0
 30
0.0
 11
147.0
 21
433.0
 31
0.0
  0
LINE
  5
4BB7
330
4B93
100
AcDbEntity
  8
AM_0 外形線1
100
AcDbLine
 10
312.0
 20
432.0
 30
0.0
 11
323.0
 21
432.0
 31
0.0
  0
LINE
  5
4BB8
330
4B93
100
AcDbEntity
  8
AM_3 隠れ線
100
AcDbLine
 10
160.0
 20
432.0
 30
0.0
 11
312.0
 21
432.0
 31
0.0
  0
LINE
  5
4BB9
330
4B93
100
AcDbEntity
  8
AM_0 外形線1
100
AcDbLine
 10
160.0
 20
432.0
 30
0.0
 11
148.0
 21
432.0
 31
0.0
  0
LINE
  5
4BBA
330
4B93
100
AcDbEntity
  8
AM_7 中心線
100
AcDbLine
 10
145.0
 20
440.0
 30
0.0
 11
326.0
 21
440.0
 31
0.0
  0
LINE
  5
4BBC
330
4B93
100
AcDbEntity
  8
AM_0 外形線1
100
AcDbLine
 10
147.0
 20
450.0
 30
0.0
 11
324.0
 21
450.0
 31
0.0
  0
LINE
  5
4BBD
330
4B93
100
AcDbEntity
  8
AM_0 外形線1
100
AcDbLine
 10
111.6244999999999
 20
477.5
 30
0.0
 11
111.7118019999998
 21
480.0
 31
0.0
  0
LINE
  5
4BBE
330
4B93
100
AcDbEntity
  8
AM_0 外形線1
100
AcDbLine
 10
111.1879909999998
 20
465.0
 30
0.0
 11
110.7165599999998
 21
451.4999999999998
 31
0.0
  0
LINE
  5
4BBF
330
4B93
100
AcDbEntity
  8
AM_0 外形線1
100
AcDbLine
 10
78.81200999999966
 20
465.0
 30
0.0
 11
79.28344000000016
 21
451.4999999999998
 31
0.0
  0
LINE
  5
4BC0
330
4B93
100
AcDbEntity
  8
AM_0 外形線1
100
AcDbLine
 10
78.28819800000019
 20
480.0
 30
0.0
 11
78.3755000000001
 21
477.5
 31
0.0
  0
LINE
  5
4BC1
330
4B93
100
AcDbEntity
  8
AM_0 外形線1
100
AcDbLine
 10
80.32144200000038
 20
464.1285289999996
 30
0.0
 11
80.76244000000043
 21
451.4999999999998
 31
0.0
  0
LINE
  5
4BC2
330
4B93
100
AcDbEntity
  8
AM_0 外形線1
100
AcDbLine
 10
109.6785579999996
 20
464.1285289999996
 30
0.0
 11
109.2375599999996
 21
451.4999999999998
 31
0.0
  0
ARC
  5
4BC3
330
4B93
100
AcDbEntity
  8
AM_0 外形線1
100
AcDbCircle
 10
146.0
 20
450.4999999999998
 30
0.0
 40
1.0
100
AcDbArc
 50
0.0
 51
90.0
  0
LINE
  5
4BC4
330
4B93
100
AcDbEntity
  8
AM_0 外形線1
100
AcDbLine
 10
147.0
 20
433.0
 30
0.0
 11
147.0
 21
450.4999999999998
 31
0.0
  0
LINE
  5
4BC5
330
4B93
100
AcDbEntity
  8
AM_0 外形線1
100
AcDbLine
 10
282.0
 20
495.0
 30
0.0
 11
267.0
 21
480.0
 31
0.0
  0
LINE
  5
4BC6
330
4B93
100
AcDbEntity
  8
AM_0 外形線1
100
AcDbLine
 10
324.0
 20
450.4999999999998
 30
0.0
 11
324.0
 21
433.0
 31
0.0
  0
LINE
  5
4BC7
330
4B93
100
AcDbEntity
  8
AM_0 外形線1
100
AcDbLine
 10
332.0
 20
451.4999999999998
 30
0.0
 11
325.0
 21
451.4999999999998
 31
0.0
  0
LINE
  5
4BC8
330
4B93
100
AcDbEntity
  8
AM_0 外形線1
100
AcDbLine
 10
332.0
 20
495.0
 30
0.0
 11
332.0
 21
484.0
 31
0.0
  0
LINE
  5
4BC9
330
4B93
100
AcDbEntity
  8
AM_0 外形線1
100
AcDbLine
 10
331.9999999999995
 20
464.0
 30
0.0
 11
332.0
 21
451.4999999999998
 31
0.0
  0
ARC
  5
4BCA
330
4B93
100
AcDbEntity
  8
AM_0 外形線1
100
AcDbCircle
 10
325.0
 20
450.4999999999998
 30
0.0
 40
1.0
100
AcDbArc
 50
90.0
 51
180.0
  0
LINE
  5
4BCB
330
4B93
100
AcDbEntity
  8
AM_0 外形線1
100
AcDbLine
 10
79.76719814067564
 20
480.0000000000004
 30
0.0
 11
79.80459499999961
 21
478.9290949999994
 31
0.0
  0
LINE
  5
4BCC
330
4B93
100
AcDbEntity
  8
AM_0 外形線1
100
AcDbLine
 10
110.2328018593212
 20
480.0000000000039
 30
0.0
 11
110.1954049999976
 21
478.9290950000031
 31
0.0
  0
INSERT
  5
4BCD
330
4B93
100
AcDbEntity
  8
AM_0 外形線1
100
AcDbBlockReference
  2
ロッカクアナツキプラグ R1
 10
94.99999999999955
 20
479.9999999999995
 30
0.0
  0
LINE
  5
4C5C
330
4B93
100
AcDbEntity
  8
AM_0 外形線1
100
AcDbLine
 10
0.0
 20
545.0
 30
0.0
 11
60.0
 21
545.0
 31
0.0
  0
LINE
  5
4C5D
330
4B93
100
AcDbEntity
  8
AM_0 外形線1
100
AcDbLine
 10
0.0
 20
507.0
 30
0.0
 11
60.0
 21
507.0
 31
0.0
  0
LINE
  5
4C5E
330
4B93
100
AcDbEntity
  8
AM_0 外形線1
100
AcDbLine
 10
332.0
 20
495.0
 30
0.0
 11
282.0
 21
495.0
 31
0.0
  0
LINE
  5
4C5F
330
4B93
100
AcDbEntity
  8
AM_0 外形線1
100
AcDbLine
 10
332.0
 20
-495.0
 30
0.0
 11
332.0
 21
0.0
 31
0.0
  0
ENDBLK
  5
4B95
330
4B93
100
AcDbEntity
  8
0
100
AcDbBlockEnd
  0
BLOCK
  5
4CEB
330
4CEA
100
AcDbEntity
  8
0
100
AcDbBlockBegin
  2
リジット CEMH1120
 70
     0
 10
0.0
 20
0.0
 30
0.0
  3
リジット CEMH1120
  1

  0
LINE
  5
4CED
330
4CEA
100
AcDbEntity
  8
AM_0 外形線1
100
AcDbLine
 10
-20.0
 20
451.4999999999998
 30
0.0
 11
-20.0
 21
0.0
 31
0.0
  0
LINE
  5
4CEE
330
4CEA
100
AcDbEntity
  8
AM_0 外形線1
100
AcDbLine
 10
-580.0
 20
-430.0
 30
0.0
 11
-580.0
 21
430.0
 31
0.0
  0
LINE
  5
4CEF
330
4CEA
100
AcDbEntity
  8
AM_0 外形線1
100
AcDbLine
 10
-123.5410190000002
 20
-450.0
 30
0.0
 11
-560.0
 21
-450.0
 31
0.0
  0
ARC
  5
4CF0
330
4CEA
100
AcDbEntity
  8
AM_0 外形線1
100
AcDbCircle
 10
-560.0
 20
-430.0
 30
0.0
 40
20.0
100
AcDbArc
 50
180.0
 51
270.0
  0
LINE
  5
4CF1
330
4CEA
100
AcDbEntity
  8
AM_3 隠れ線
100
AcDbLine
 10
-580.0
 20
16.0
 30
0.0
 11
-500.0
 21
16.0
 31
0.0
  0
LINE
  5
4CF2
330
4CEA
100
AcDbEntity
  8
AM_3 隠れ線
100
AcDbLine
 10
-580.0
 20
18.0
 30
0.0
 11
-514.0
 21
18.0
 31
0.0
  0
LINE
  5
4CF3
330
4CEA
100
AcDbEntity
  8
AM_3 隠れ線
100
AcDbLine
 10
-500.0
 20
16.0
 30
0.0
 11
-490.7623960000001
 21
0.0
 31
0.0
  0
LINE
  5
4CF4
330
4CEA
100
AcDbEntity
  8
AM_3 隠れ線
100
AcDbLine
 10
-500.0
 20
16.0
 30
0.0
 11
-500.0
 21
0.0
 31
0.0
  0
LINE
  5
4CF5
330
4CEA
100
AcDbEntity
  8
AM_3 隠れ線
100
AcDbLine
 10
-514.0
 20
18.0
 30
0.0
 11
-512.8452990000005
 21
16.0
 31
0.0
  0
LINE
  5
4CF6
330
4CEA
100
AcDbEntity
  8
AM_3 隠れ線
100
AcDbLine
 10
-512.8452990000005
 20
16.0
 30
0.0
 11
-512.8452990000005
 21
0.0
 31
0.0
  0
LINE
  5
4CF7
330
4CEA
100
AcDbEntity
  8
AM_3 隠れ線
100
AcDbLine
 10
-514.0
 20
0.0
 30
0.0
 11
-514.0
 21
18.0
 31
0.0
  0
LINE
  5
4CF8
330
4CEA
100
AcDbEntity
  8
AM_0 外形線1
100
AcDbLine
 10
-60.0
 20
-557.0
 30
0.0
 11
-60.0
 21
0.0
 31
0.0
  0
LINE
  5
4CF9
330
4CEA
100
AcDbEntity
  8
AM_0 外形線1
100
AcDbLine
 10
-120.0
 20
-450.0
 30
0.0
 11
-120.0
 21
0.0
 31
0.0
  0
LINE
  5
4CFA
330
4CEA
100
AcDbEntity
  8
AM_0 外形線1
100
AcDbLine
 10
-3.0
 20
-560.0
 30
0.0
 11
-57.0
 21
-560.0
 31
0.0
  0
LINE
  5
4CFC
330
4CEA
100
AcDbEntity
  8
AM_0 外形線1
100
AcDbLine
 10
-57.0
 20
-560.0
 30
0.0
 11
-60.0
 21
-557.0
 31
0.0
  0
LINE
  5
4CFD
330
4CEA
100
AcDbEntity
  8
AM_0 外形線1
100
AcDbLine
 10
-64.42229100000075
 20
-477.7888540000002
 30
0.0
 11
-116.8328160000001
 21
-451.5835920000004
 31
0.0
  0
ARC
  5
4CFE
330
4CEA
100
AcDbEntity
  8
AM_0 外形線1
100
AcDbCircle
 10
-123.5410190000002
 20
-465.0
 30
0.0
 40
15.0
100
AcDbArc
 50
63.43494900002375
 51
90.0
  0
ARC
  5
4CFF
330
4CEA
100
AcDbEntity
  8
AM_0 外形線1
100
AcDbCircle
 10
-68.0
 20
-484.9442720000006
 30
0.0
 40
8.0
100
AcDbArc
 50
0.0
 51
63.43494900002375
  0
LINE
  5
4D00
330
4CEA
100
AcDbEntity
  8
AM_7 中心線
 48
0.6
100
AcDbLine
 10
-80.43969883830595
 20
-526.0
 30
0.0
 11
80.43969883830595
 21
-526.0
 31
0.0
  0
LINE
  5
4D01
330
4CEA
100
AcDbEntity
  8
AM_0 外形線1
100
AcDbLine
 10
0.0
 20
-557.0
 30
0.0
 11
-3.0
 21
-560.0
 31
0.0
  0
LINE
  5
4D02
330
4CEA
100
AcDbEntity
  8
AM_3 隠れ線
100
AcDbLine
 10
-20.0
 20
18.0
 30
0.0
 11
-86.0
 21
18.0
 31
0.0
  0
LINE
  5
4D03
330
4CEA
100
AcDbEntity
  8
AM_3 隠れ線
100
AcDbLine
 10
-20.0
 20
16.0
 30
0.0
 11
-100.0
 21
16.0
 31
0.0
  0
LINE
  5
4D04
330
4CEA
100
AcDbEntity
  8
AM_3 隠れ線
100
AcDbLine
 10
-86.0
 20
18.0
 30
0.0
 11
-87.15470000000003
 21
16.0
 31
0.0
  0
LINE
  5
4D05
330
4CEA
100
AcDbEntity
  8
AM_3 隠れ線
100
AcDbLine
 10
-87.15470000000003
 20
16.0
 30
0.0
 11
-87.15470000000003
 21
0.0
 31
0.0
  0
LINE
  5
4D06
330
4CEA
100
AcDbEntity
  8
AM_3 隠れ線
100
AcDbLine
 10
-86.0
 20
0.0
 30
0.0
 11
-86.0
 21
18.0
 31
0.0
  0
LINE
  5
4D07
330
4CEA
100
AcDbEntity
  8
AM_3 隠れ線
100
AcDbLine
 10
-100.0
 20
16.0
 30
0.0
 11
-109.2376039999999
 21
0.0
 31
0.0
  0
LINE
  5
4D08
330
4CEA
100
AcDbEntity
  8
AM_3 隠れ線
100
AcDbLine
 10
-100.0
 20
16.0
 30
0.0
 11
-100.0
 21
0.0
 31
0.0
  0
LINE
  5
4D09
330
4CEA
100
AcDbEntity
  8
AM_0 外形線1
100
AcDbLine
 10
-560.0
 20
450.0
 30
0.0
 11
-123.5410190000002
 21
450.0
 31
0.0
  0
ARC
  5
4D0A
330
4CEA
100
AcDbEntity
  8
AM_0 外形線1
100
AcDbCircle
 10
-560.0
 20
430.0
 30
0.0
 40
20.0
100
AcDbArc
 50
90.0
 51
180.0
  0
LINE
  5
4D0C
330
4CEA
100
AcDbEntity
  8
AM_0 外形線1
100
AcDbLine
 10
-57.0
 20
560.0
 30
0.0
 11
-3.0
 21
560.0
 31
0.0
  0
LINE
  5
4D0D
330
4CEA
100
AcDbEntity
  8
AM_0 外形線1
100
AcDbLine
 10
-60.0
 20
484.9442719999997
 30
0.0
 11
-60.0
 21
557.0
 31
0.0
  0
LINE
  5
4D0E
330
4CEA
100
AcDbEntity
  8
AM_0 外形線1
100
AcDbLine
 10
-116.8328160000001
 20
451.5835919999994
 30
0.0
 11
-64.42229100000075
 21
477.7888549999993
 31
0.0
  0
ARC
  5
4D0F
330
4CEA
100
AcDbEntity
  8
AM_0 外形線1
100
AcDbCircle
 10
-123.5410190000002
 20
465.0
 30
0.0
 40
15.0
100
AcDbArc
 50
270.0
 51
296.5650509999763
  0
ARC
  5
4D10
330
4CEA
100
AcDbEntity
  8
AM_0 外形線1
100
AcDbCircle
 10
-68.0
 20
484.9442719999997
 30
0.0
 40
8.0
100
AcDbArc
 50
296.5650509999763
 51
0.0
  0
LINE
  5
4D11
330
4CEA
100
AcDbEntity
  8
AM_0 外形線1
100
AcDbLine
 10
-60.0
 20
557.0
 30
0.0
 11
-57.0
 21
560.0
 31
0.0
  0
LINE
  5
4D12
330
4CEA
100
AcDbEntity
  8
AM_0 外形線1
100
AcDbLine
 10
0.0
 20
507.0
 30
0.0
 11
0.0
 21
472.5
 31
0.0
  0
LINE
  5
4D13
330
4CEA
100
AcDbEntity
  8
AM_0 外形線1
100
AcDbLine
 10
-14.0
 20
472.5
 30
0.0
 11
-14.0
 21
451.4999999999998
 31
0.0
  0
LINE
  5
4D14
330
4CEA
100
AcDbEntity
  8
AM_0 外形線1
100
AcDbLine
 10
0.0
 20
472.4999999999995
 30
0.0
 11
-14.0
 21
472.5
 31
0.0
  0
LINE
  5
4D15
330
4CEA
100
AcDbEntity
  8
AM_0 外形線1
100
AcDbLine
 10
-14.0
 20
451.4999999999998
 30
0.0
 11
-20.0
 21
451.4999999999998
 31
0.0
  0
LINE
  5
4D16
330
4CEA
100
AcDbEntity
  8
AM_0 外形線1
100
AcDbLine
 10
-3.0
 20
560.0
 30
0.0
 11
0.0
 21
557.0
 31
0.0
  0
LINE
  5
4D17
330
4CEA
100
AcDbEntity
  8
AM_0 外形線1
100
AcDbLine
 10
-20.0
 20
260.0000000000004
 30
0.0
 11
-580.0
 21
260.0
 31
0.0
  0
LINE
  5
4D18
330
4CEA
100
AcDbEntity
  8
AM_0 外形線1
100
AcDbLine
 10
-60.0
 20
507.0000000000003
 30
0.0
 11
0.0
 21
507.0
 31
0.0
  0
LINE
  5
4D19
330
4CEA
100
AcDbEntity
  8
AM_0 外形線1
100
AcDbLine
 10
-60.0
 20
545.0
 30
0.0
 11
0.0
 21
545.0
 31
0.0
  0
LINE
  5
4D83
330
4CEA
100
AcDbEntity
  8
AM_0 外形線1
100
AcDbLine
 10
0.0
 20
-557.0
 30
0.0
 11
0.0
 21
0.0
 31
0.0
  0
LINE
  5
4D84
330
4CEA
100
AcDbEntity
  8
AM_0 外形線1
100
AcDbLine
 10
0.0
 20
557.0
 30
0.0
 11
0.0
 21
545.0
 31
0.0
  0
ENDBLK
  5
4CEC
330
4CEA
100
AcDbEntity
  8
0
100
AcDbBlockEnd
  0
BLOCK
  5
4E05
330
4E04
100
AcDbEntity
  8
0
100
AcDbBlockBegin
  2
リーマボルト CEMH1120 M36
 70
     0
 10
0.0
 20
0.0
 30
0.0
  3
リーマボルト CEMH1120 M36
  1

  0
LINE
  5
4E07
330
4E04
100
AcDbEntity
  8
AM_0 外形線1
100
AcDbLine
 10
0.0
 20
-15.87713200000007
 30
0.0
 11
20.54626199999984
 21
-15.87713200000007
 31
0.0
  0
LINE
  5
4E08
330
4E04
100
AcDbEntity
  8
AM_0 外形線1
100
AcDbLine
 10
0.0
 20
15.8771329999995
 30
0.0
 11
20.54626199999984
 21
15.8771329999995
 31
0.0
  0
LINE
  5
4E09
330
4E04
100
AcDbEntity
  8
AM_0 外形線1
100
AcDbLine
 10
20.54626199999984
 20
-31.75
 30
0.0
 11
0.0
 21
-31.75
 31
0.0
  0
LINE
  5
4E0A
330
4E04
100
AcDbEntity
  8
AM_0 外形線1
100
AcDbLine
 10
0.0
 20
31.75
 30
0.0
 11
20.54626199999984
 21
31.75
 31
0.0
  0
LINE
  5
4E0B
330
4E04
100
AcDbEntity
  8
AM_0 外形線1
100
AcDbLine
 10
-166.0
 20
18.0
 30
0.0
 11
-166.0
 21
-18.0
 31
0.0
  0
LINE
  5
4E0C
330
4E04
100
AcDbEntity
  8
AM_0 外形線1
100
AcDbLine
 10
-169.0
 20
15.0
 30
0.0
 11
-169.0
 21
-15.0
 31
0.0
  0
ARC
  5
4E0D
330
4E04
100
AcDbEntity
  8
AM_0 外形線1
100
AcDbCircle
 10
-105.4059369999995
 20
0.0
 30
0.0
 40
52.594062
100
AcDbArc
 50
162.4294029999824
 51
197.5705970000175
  0
LINE
  5
4E0E
330
4E04
100
AcDbEntity
  8
AM_0 外形線1
100
AcDbLine
 10
-129.0
 20
-31.75
 30
0.0
 11
-129.0
 21
31.75
 31
0.0
  0
LINE
  5
4E0F
330
4E04
100
AcDbEntity
  8
AM_0 外形線1
100
AcDbLine
 10
-158.0
 20
27.5
 30
0.0
 11
-158.0
 21
-27.5
 31
0.0
  0
LINE
  5
4E10
330
4E04
100
AcDbEntity
  8
AM_0 外形線1
100
AcDbLine
 10
-116.0
 20
19.0
 30
0.0
 11
-116.0
 21
-19.0
 31
0.0
  0
LINE
  5
4E11
330
4E04
100
AcDbEntity
  8
AM_0 外形線1
100
AcDbLine
 10
-118.0
 20
17.84529999999995
 30
0.0
 11
-118.0
 21
-17.84529900000052
 31
0.0
  0
LINE
  5
4E12
330
4E04
100
AcDbEntity
  8
AM_4 細線
100
AcDbLine
 10
-158.0
 20
-16.0
 30
0.0
 11
-168.0
 21
-16.0
 31
0.0
  0
LINE
  5
4E13
330
4E04
100
AcDbEntity
  8
AM_0 外形線1
100
AcDbLine
 10
-120.0
 20
-29.75
 30
0.0
 11
-129.0
 21
-29.75
 31
0.0
  0
LINE
  5
4E14
330
4E04
100
AcDbEntity
  8
AM_0 外形線1
100
AcDbLine
 10
-120.0
 20
-18.0
 30
0.0
 11
-117.7320509999999
 21
-18.0
 31
0.0
  0
LINE
  5
4E15
330
4E04
100
AcDbEntity
  8
AM_0 外形線1
100
AcDbLine
 10
-166.0
 20
-18.0
 30
0.0
 11
-158.0
 21
-18.0
 31
0.0
  0
LINE
  5
4E16
330
4E04
100
AcDbEntity
  8
AM_0 外形線1
100
AcDbLine
 10
-169.0
 20
-15.0
 30
0.0
 11
-166.0
 21
-18.0
 31
0.0
  0
LINE
  5
4E17
330
4E04
100
AcDbEntity
  8
AM_0 外形線1
100
AcDbLine
 10
-129.0
 20
-15.87713200000007
 30
0.0
 11
-155.5462610000004
 21
-15.87713200000007
 31
0.0
  0
ARC
  5
4E18
330
4E04
100
AcDbEntity
  8
AM_0 外形線1
100
AcDbCircle
 10
-143.9382299999997
 20
-23.81356600000026
 30
0.0
 40
14.06177
100
AcDbArc
 50
145.6395059999856
 51
214.3604940000144
  0
LINE
  5
4E19
330
4E04
100
AcDbEntity
  8
AM_0 外形線1
100
AcDbLine
 10
-155.5462610000004
 20
-31.75
 30
0.0
 11
-129.0
 21
-31.75
 31
0.0
  0
LINE
  5
4E1A
330
4E04
100
AcDbEntity
  8
AM_0 外形線1
100
AcDbLine
 10
-158.0
 20
-27.5
 30
0.0
 11
-155.5462610000004
 21
-31.75
 31
0.0
  0
LINE
  5
4E1B
330
4E04
100
AcDbEntity
  8
AM_0 外形線1
100
AcDbLine
 10
-118.0
 20
-17.84529900000052
 30
0.0
 11
-116.0
 21
-19.0
 31
0.0
  0
LINE
  5
4E1C
330
4E04
100
AcDbEntity
  8
AM_4 細線
100
AcDbLine
 10
-158.0
 20
16.0
 30
0.0
 11
-168.0
 21
16.0
 31
0.0
  0
LINE
  5
4E1D
330
4E04
100
AcDbEntity
  8
AM_0 外形線1
100
AcDbLine
 10
-129.0
 20
29.75
 30
0.0
 11
-120.0
 21
29.75
 31
0.0
  0
LINE
  5
4E1E
330
4E04
100
AcDbEntity
  8
AM_0 外形線1
100
AcDbLine
 10
-120.0
 20
18.0
 30
0.0
 11
-117.7320509999999
 21
18.0
 31
0.0
  0
LINE
  5
4E1F
330
4E04
100
AcDbEntity
  8
AM_0 外形線1
100
AcDbLine
 10
-120.0
 20
3.0
 30
0.0
 11
-129.0
 21
-6.0
 31
0.0
  0
LINE
  5
4E20
330
4E04
100
AcDbEntity
  8
AM_0 外形線1
100
AcDbLine
 10
-120.0
 20
6.0
 30
0.0
 11
-129.0
 21
-3.0
 31
0.0
  0
LINE
  5
4E21
330
4E04
100
AcDbEntity
  8
AM_0 外形線1
100
AcDbLine
 10
-166.0
 20
18.0
 30
0.0
 11
-169.0
 21
15.0
 31
0.0
  0
LINE
  5
4E22
330
4E04
100
AcDbEntity
  8
AM_0 外形線1
100
AcDbLine
 10
-158.0
 20
18.0
 30
0.0
 11
-166.0
 21
18.0
 31
0.0
  0
LINE
  5
4E23
330
4E04
100
AcDbEntity
  8
AM_0 外形線1
100
AcDbLine
 10
-129.0
 20
15.8771329999995
 30
0.0
 11
-155.5462610000004
 21
15.8771329999995
 31
0.0
  0
ARC
  5
4E24
330
4E04
100
AcDbEntity
  8
AM_0 外形線1
100
AcDbCircle
 10
-143.9382299999997
 20
23.81356599999981
 30
0.0
 40
14.06177
100
AcDbArc
 50
145.6395059999856
 51
214.3604940000144
  0
LINE
  5
4E25
330
4E04
100
AcDbEntity
  8
AM_0 外形線1
100
AcDbLine
 10
-155.5462610000004
 20
31.75
 30
0.0
 11
-158.0
 21
27.5
 31
0.0
  0
LINE
  5
4E26
330
4E04
100
AcDbEntity
  8
AM_0 外形線1
100
AcDbLine
 10
-129.0
 20
31.75
 30
0.0
 11
-155.5462610000004
 21
31.75
 31
0.0
  0
LINE
  5
4E27
330
4E04
100
AcDbEntity
  8
AM_0 外形線1
100
AcDbLine
 10
-116.0
 20
19.0
 30
0.0
 11
-118.0
 21
17.84529999999995
 31
0.0
  0
LINE
  5
4E28
330
4E04
100
AcDbEntity
  8
AM_0 外形線1
100
AcDbLine
 10
-3.0
 20
-19.0
 30
0.0
 11
-3.0
 21
19.0
 31
0.0
  0
ARC
  5
4E29
330
4E04
100
AcDbEntity
  8
AM_0 外形線1
100
AcDbCircle
 10
-2.12459111512362
 20
-19.71711693771476
 30
0.0
 40
2.242352360540071
100
AcDbArc
 50
18.65117138709097
 51
73.8267462005394
  0
ARC
  5
4E2A
330
4E04
100
AcDbEntity
  8
AM_0 外形線1
100
AcDbCircle
 10
-0.875408884875469
 20
-19.71711693771476
 30
0.0
 40
2.242352360540656
100
AcDbArc
 50
106.1732537994606
 51
161.3488286129337
  0
ARC
  5
4E2B
330
4E04
100
AcDbEntity
  8
AM_0 外形線1
100
AcDbCircle
 10
-0.875408884875469
 20
19.71711693771567
 30
0.0
 40
2.242352360541224
100
AcDbArc
 50
198.6511713870909
 51
253.8267462005394
  0
ARC
  5
4E2C
330
4E04
100
AcDbEntity
  8
AM_0 外形線1
100
AcDbCircle
 10
-2.12459111512453
 20
19.71711693771657
 30
0.0
 40
2.242352360542404
100
AcDbArc
 50
286.1732537994607
 51
341.3488286128843
  0
ARC
  5
4E2D
330
4E04
100
AcDbEntity
  8
AM_0 外形線1
100
AcDbCircle
 10
-29.59406200000012
 20
0.0
 30
0.0
 40
52.594062
100
AcDbArc
 50
342.4294029999825
 51
17.57059700001753
  0
LINE
  5
4E2E
330
4E04
100
AcDbEntity
  8
AM_0 外形線1
100
AcDbLine
 10
23.0
 20
27.5
 30
0.0
 11
23.0
 21
-27.5
 31
0.0
  0
ARC
  5
4E2F
330
4E04
100
AcDbEntity
  8
AM_0 外形線1
100
AcDbCircle
 10
8.938231000000088
 20
-23.81356600000026
 30
0.0
 40
14.06177
100
AcDbArc
 50
325.6395059999856
 51
34.3604940000144
  0
LINE
  5
4E30
330
4E04
100
AcDbEntity
  8
AM_0 外形線1
100
AcDbLine
 10
23.0
 20
-27.5
 30
0.0
 11
20.54626199999984
 21
-31.75
 31
0.0
  0
ARC
  5
4E31
330
4E04
100
AcDbEntity
  8
AM_0 外形線1
100
AcDbCircle
 10
8.938231000000088
 20
23.81356599999981
 30
0.0
 40
14.06177
100
AcDbArc
 50
325.6395059999856
 51
34.3604940000144
  0
LINE
  5
4E32
330
4E04
100
AcDbEntity
  8
AM_0 外形線1
100
AcDbLine
 10
20.54626199999984
 20
31.75
 30
0.0
 11
23.0
 21
27.5
 31
0.0
  0
LINE
  5
4E9C
330
4E04
100
AcDbEntity
  8
AM_0 外形線1
100
AcDbLine
 10
-120.0
 20
29.75
 30
0.0
 11
-120.0
 21
-29.75
 31
0.0
  0
LINE
  5
4E9D
330
4E04
100
AcDbEntity
  8
AM_0 外形線1
100
AcDbLine
 10
-116.0
 20
19.0
 30
0.0
 11
-3.0
 21
19.0
 31
0.0
  0
LINE
  5
4E9E
330
4E04
100
AcDbEntity
  8
AM_0 外形線1
100
AcDbLine
 10
-116.0
 20
-19.0
 30
0.0
 11
-3.0
 21
-19.0
 31
0.0
  0
LINE
  5
4E9F
330
4E04
100
AcDbEntity
  8
AM_0 外形線1
100
AcDbLine
 10
0.0
 20
31.75
 30
0.0
 11
0.0
 21
-31.75
 31
0.0
  0
ENDBLK
  5
4E06
330
4E04
100
AcDbEntity
  8
0
100
AcDbBlockEnd
  0
BLOCK
  5
4F46
330
4F45
100
AcDbEntity
  8
0
100
AcDbBlockBegin
  2
センタ CEMH1120
 70
     0
 10
0.0
 20
0.0
 30
0.0
  3
センタ CEMH1120
  1

  0
LINE
  5
4F48
330
4F45
100
AcDbEntity
  8
AM_3 隠れ線
100
AcDbLine
 10
0.0
 20
18.0
 30
0.0
 11
66.0
 21
18.0
 31
0.0
  0
LINE
  5
4F49
330
4F45
100
AcDbEntity
  8
AM_3 隠れ線
100
AcDbLine
 10
0.0
 20
16.0
 30
0.0
 11
80.0
 21
16.0
 31
0.0
  0
LINE
  5
4F4A
330
4F45
100
AcDbEntity
  8
AM_0 外形線1
100
AcDbLine
 10
139.5
 20
420.0
 30
0.0
 11
5.0
 21
420.0
 31
0.0
  0
LINE
  5
4F4B
330
4F45
100
AcDbEntity
  8
AM_0 外形線1
100
AcDbLine
 10
0.0
 20
362.0
 30
0.0
 11
0.0
 21
0.0
 31
0.0
  0
LINE
  5
4F4C
330
4F45
100
AcDbEntity
  8
AM_0 外形線1
100
AcDbLine
 10
0.0
 20
415.0
 30
0.0
 11
0.0
 21
362.0
 31
0.0
  0
LINE
  5
4F4D
330
4F45
100
AcDbEntity
  8
AM_0 外形線1
100
AcDbLine
 10
5.0
 20
420.0
 30
0.0
 11
0.0
 21
415.0
 31
0.0
  0
LINE
  5
4F4F
330
4F45
100
AcDbEntity
  8
AM_0 外形線1
100
AcDbLine
 10
560.0
 20
-398.0
 30
0.0
 11
560.0
 21
398.0
 31
0.0
  0
LINE
  5
4F50
330
4F45
100
AcDbEntity
  8
AM_3 隠れ線
100
AcDbLine
 10
560.0
 20
16.0
 30
0.0
 11
480.0
 21
16.0
 31
0.0
  0
LINE
  5
4F51
330
4F45
100
AcDbEntity
  8
AM_3 隠れ線
100
AcDbLine
 10
560.0
 20
18.0
 30
0.0
 11
494.0
 21
18.0
 31
0.0
  0
ARC
  5
4F52
330
4F45
100
AcDbEntity
  8
AM_0 外形線1
100
AcDbCircle
 10
540.0
 20
-398.0
 30
0.0
 40
20.0
100
AcDbArc
 50
270.0
 51
0.0
  0
LINE
  5
4F53
330
4F45
100
AcDbEntity
  8
AM_0 外形線1
100
AcDbLine
 10
386.0
 20
-418.0
 30
0.0
 11
386.0
 21
0.0
 31
0.0
  0
LINE
  5
4F54
330
4F45
100
AcDbEntity
  8
AM_0 外形線1
100
AcDbLine
 10
380.0
 20
-420.0
 30
0.0
 11
380.0
 21
0.0
 31
0.0
  0
LINE
  5
4F55
330
4F45
100
AcDbEntity
  8
AM_0 外形線1
100
AcDbLine
 10
386.0
 20
-418.0
 30
0.0
 11
540.0
 21
-418.0
 31
0.0
  0
LINE
  5
4F56
330
4F45
100
AcDbEntity
  8
AM_0 外形線1
100
AcDbLine
 10
340.0
 20
-420.0
 30
0.0
 11
380.0
 21
-420.0
 31
0.0
  0
LINE
  5
4F57
330
4F45
100
AcDbEntity
  8
AM_0 外形線1
100
AcDbLine
 10
380.0
 20
-420.0
 30
0.0
 11
386.0
 21
-418.0
 31
0.0
  0
LINE
  5
4F58
330
4F45
100
AcDbEntity
  8
AM_3 隠れ線
100
AcDbLine
 10
66.0
 20
18.0
 30
0.0
 11
67.15470099999946
 21
16.0
 31
0.0
  0
LINE
  5
4F59
330
4F45
100
AcDbEntity
  8
AM_3 隠れ線
100
AcDbLine
 10
67.15470099999946
 20
16.0
 30
0.0
 11
67.15470099999946
 21
0.0
 31
0.0
  0
LINE
  5
4F5A
330
4F45
100
AcDbEntity
  8
AM_3 隠れ線
100
AcDbLine
 10
66.0
 20
0.0
 30
0.0
 11
66.0
 21
18.0
 31
0.0
  0
LINE
  5
4F5B
330
4F45
100
AcDbEntity
  8
AM_3 隠れ線
100
AcDbLine
 10
80.0
 20
16.0
 30
0.0
 11
89.2376039999999
 21
0.0
 31
0.0
  0
LINE
  5
4F5C
330
4F45
100
AcDbEntity
  8
AM_3 隠れ線
100
AcDbLine
 10
80.0
 20
16.0
 30
0.0
 11
80.0
 21
0.0
 31
0.0
  0
LINE
  5
4F5D
330
4F45
100
AcDbEntity
  8
AM_3 隠れ線
100
AcDbLine
 10
480.0
 20
16.0
 30
0.0
 11
480.0
 21
0.0
 31
0.0
  0
LINE
  5
4F5E
330
4F45
100
AcDbEntity
  8
AM_3 隠れ線
100
AcDbLine
 10
480.0
 20
16.0
 30
0.0
 11
470.7623960000001
 21
0.0
 31
0.0
  0
LINE
  5
4F5F
330
4F45
100
AcDbEntity
  8
AM_3 隠れ線
100
AcDbLine
 10
494.0
 20
18.0
 30
0.0
 11
492.8452999999998
 21
16.0
 31
0.0
  0
LINE
  5
4F60
330
4F45
100
AcDbEntity
  8
AM_3 隠れ線
100
AcDbLine
 10
494.0
 20
0.0
 30
0.0
 11
494.0
 21
18.0
 31
0.0
  0
LINE
  5
4F61
330
4F45
100
AcDbEntity
  8
AM_3 隠れ線
100
AcDbLine
 10
492.8452999999998
 20
16.0
 30
0.0
 11
492.8452999999998
 21
0.0
 31
0.0
  0
ARC
  5
4F62
330
4F45
100
AcDbEntity
  8
AM_0 外形線1
100
AcDbCircle
 10
540.0
 20
398.0
 30
0.0
 40
20.0
100
AcDbArc
 50
0.0
 51
90.0
  0
LINE
  5
4F63
330
4F45
100
AcDbEntity
  8
AM_7 中心線
100
AcDbLine
 10
216.0
 20
454.5999999999998
 30
0.0
 11
216.0
 21
425.0
 31
0.0
  0
LINE
  5
4F64
330
4F45
100
AcDbEntity
  8
AM_0 外形線1
100
AcDbLine
 10
140.0
 20
442.1299589999998
 30
0.0
 11
140.0
 21
420.5
 31
0.0
  0
LINE
  5
4F65
330
4F45
100
AcDbEntity
  8
AM_0 外形線1
100
AcDbLine
 10
292.0
 20
420.5
 30
0.0
 11
292.0
 21
442.1299589999998
 31
0.0
  0
LINE
  5
4F66
330
4F45
100
AcDbEntity
  8
AM_0 外形線1
100
AcDbLine
 10
380.0
 20
420.0
 30
0.0
 11
292.5
 21
420.0
 31
0.0
  0
ARC
  5
4F68
330
4F45
100
AcDbEntity
  8
AM_0 外形線1
100
AcDbCircle
 10
139.5
 20
420.5
 30
0.0
 40
0.5
100
AcDbArc
 50
270.0
 51
0.0
  0
ARC
  5
4F69
330
4F45
100
AcDbEntity
  8
AM_0 外形線1
100
AcDbCircle
 10
292.5
 20
420.5
 30
0.0
 40
0.5
100
AcDbArc
 50
180.0
 51
270.0
  0
LINE
  5
4F6A
330
4F45
100
AcDbEntity
  8
AM_0 外形線1
100
AcDbLine
 10
540.0
 20
418.0
 30
0.0
 11
386.0
 21
418.0
 31
0.0
  0
LINE
  5
4F6B
330
4F45
100
AcDbEntity
  8
AM_0 外形線1
100
AcDbLine
 10
386.0
 20
418.0
 30
0.0
 11
380.0
 21
420.0
 31
0.0
  0
ARC
  5
4F6D
330
4F45
100
AcDbEntity
  8
AM_0 外形線1
100
AcDbCircle
 10
216.0
 20
0.0
 30
0.0
 40
449.6
100
AcDbArc
 50
80.39731499999737
 51
99.60268500000264
  0
LINE
  5
4F6E
330
4F45
100
AcDbEntity
  8
AM_0 外形線1
100
AcDbLine
 10
141.0
 20
443.3003049999991
 30
0.0
 11
140.0
 21
442.1299589999998
 31
0.0
  0
LINE
  5
4F6F
330
4F45
100
AcDbEntity
  8
AM_0 外形線1
100
AcDbLine
 10
292.0
 20
442.1299589999998
 30
0.0
 11
291.0
 21
443.3003049999991
 31
0.0
  0
LINE
  5
4F72
330
4F45
100
AcDbEntity
  8
AM_0 外形線1
100
AcDbLine
 10
0.0
 20
250.0
 30
0.0
 11
560.0000000000003
 21
250.0000000000004
 31
0.0
  0
ARC
  5
6A51
330
4F45
100
AcDbEntity
  8
AM_7 中心線
100
AcDbCircle
 10
216.0
 20
0.0
 30
0.0
 40
440.0002840908173
100
AcDbArc
 50
79.23572261242471
 51
100.7210638658646
  0
ARC
  5
6A52
330
4F45
100
AcDbEntity
  8
AM_0 外形線1
100
AcDbCircle
 10
216.0000000000005
 20
0.0
 30
0.0
 40
430.0
100
AcDbArc
 50
79.8198250382289
 51
100.1801749617711
  0
ENDBLK
  5
4F47
330
4F45
100
AcDbEntity
  8
0
100
AcDbBlockEnd
  0
BLOCK
  5
50B0
330
50AF
100
AcDbEntity
  8
0
100
AcDbBlockBegin
  2
ＧＣサイドカバ－ CEMH1120
 70
     0
 10
0.0
 20
0.0
 30
0.0
  3
ＧＣサイドカバ－ CEMH1120
  1

  0
LINE
  5
50B2
330
50AF
100
AcDbEntity
  8
AM_0 外形線1
100
AcDbLine
 10
28.0
 20
-495.0
 30
0.0
 11
28.0
 21
0.0
 31
0.0
  0
LINE
  5
50B3
330
50AF
100
AcDbEntity
  8
AM_0 外形線1
100
AcDbLine
 10
28.0
 20
-495.0
 30
0.0
 11
0.0
 21
-495.0
 31
0.0
  0
LINE
  5
50B5
330
50AF
100
AcDbEntity
  8
AM_0 外形線1
100
AcDbLine
 10
-7.0
 20
422.4999999999998
 30
0.0
 11
-7.0
 21
451.4999999999998
 31
0.0
  0
LINE
  5
50B6
330
50AF
100
AcDbEntity
  8
AM_0 外形線1
100
AcDbLine
 10
28.0
 20
458.6999999999997
 30
0.0
 11
28.0
 21
422.4999999999998
 31
0.0
  0
LWPOLYLINE
  5
50B7
330
50AF
100
AcDbEntity
  8
AM_0 外形線1
100
AcDbPolyline
 90
       73
 70
     0
 43
0.0
 10
0.0
 20
426.1499999999996
 10
0.0399560000005295
 20
425.6139919999996
 10
0.1595189999998183
 20
425.0820639999991
 10
0.3577789999999368
 20
424.5582629999998
 10
0.63322799999969
 20
424.0465759999996
 10
0.9837680000000544
 20
423.5508979999998
 10
1.406732999999803
 20
423.0749999999998
 10
1.898903999999673
 20
422.6225049999992
 10
2.456533999999918
 20
422.1968559999996
 10
3.075378999999883
 20
421.8012939999994
 10
3.750729999999747
 20
421.4388269999998
 10
4.477447999999639
 20
421.1122149999996
 10
5.25
 20
420.8239439999998
 10
6.062507999999978
 20
420.5762069999996
 10
6.908788999999159
 20
420.370891
 10
7.782400000000052
 20
420.2095559999998
 10
8.67669399999977
 20
420.0934329999994
 10
9.584864999999807
 20
420.0234029999997
 10
10.5
 20
420.0
 10
11.41513499999928
 20
420.0234029999997
 10
12.32330600000023
 20
420.0934329999994
 10
13.21759999999995
 20
420.2095559999998
 10
14.09121199999936
 20
420.370891
 10
14.93749200000002
 20
420.5762069999996
 10
15.75
 20
420.8239439999998
 10
16.52255299999979
 20
421.1122149999996
 10
17.24927000000025
 20
421.4388269999998
 10
17.92462100000011
 20
421.8012939999994
 10
18.54346699999951
 20
422.1968559999996
 10
19.10109700000066
 20
422.6225049999992
 10
19.59326700000019
 20
423.0749999999998
 10
20.01623199999995
 20
423.5508979999998
 10
20.36677299999974
 20
424.0465759999996
 10
20.64222100000006
 20
424.5582629999998
 10
20.84048199999961
 20
425.0820639999991
 10
20.96004399999947
 20
425.6139919999996
 10
21.0
 20
426.1499999999996
 10
20.96004399999947
 20
426.6860079999997
 10
20.84048199999961
 20
427.2179369999993
 10
20.64222100000006
 20
427.7417369999994
 10
20.36677299999974
 20
428.2534239999995
 10
20.01623199999995
 20
428.7491029999996
 10
19.59326700000019
 20
429.2249999999998
 10
19.10109700000066
 20
429.6774949999998
 10
18.54346699999951
 20
430.1031439999997
 10
17.92462100000011
 20
430.4987069999996
 10
17.24927000000025
 20
430.8611739999996
 10
16.52255299999979
 20
431.1877849999996
 10
15.75
 20
431.4760559999994
 10
14.93749200000002
 20
431.7237929999996
 10
14.09121199999936
 20
431.9291099999994
 10
13.21759999999995
 20
432.0904439999995
 10
12.32330600000023
 20
432.2065679999996
 10
11.41513499999928
 20
432.2765979999998
 10
10.5
 20
432.2999999999996
 10
9.584864999999807
 20
432.2765979999998
 10
8.67669399999977
 20
432.2065679999996
 10
7.782400000000052
 20
432.0904439999995
 10
6.908788999999159
 20
431.9291099999994
 10
6.062507999999978
 20
431.7237929999996
 10
5.25
 20
431.4760559999994
 10
4.477447999999639
 20
431.1877849999996
 10
3.750729999999747
 20
430.8611739999996
 10
3.075378999999883
 20
430.4987069999996
 10
2.456533999999918
 20
430.1031439999997
 10
1.898903999999673
 20
429.6774949999998
 10
1.406732999999803
 20
429.2249999999998
 10
0.9837680000000544
 20
428.7491029999996
 10
0.63322799999969
 20
428.2534239999995
 10
0.3577789999999368
 20
427.7417369999994
 10
0.1595189999998183
 20
427.2179369999993
 10
0.0399560000005295
 20
426.6860079999997
 10
0.0
 20
426.1499999999996
  0
LINE
  5
50B8
330
50AF
100
AcDbEntity
  8
AM_0 外形線1
100
AcDbLine
 10
0.0
 20
422.4999999999998
 30
0.0
 11
-7.0
 21
422.4999999999998
 31
0.0
  0
LINE
  5
50B9
330
50AF
100
AcDbEntity
  8
AM_0 外形線1
100
AcDbLine
 10
0.0
 20
432.2999999999996
 30
0.0
 11
0.0
 21
422.4999999999998
 31
0.0
  0
LINE
  5
50BA
330
50AF
100
AcDbEntity
  8
AM_0 外形線1
100
AcDbLine
 10
21.0
 20
432.2999999999996
 30
0.0
 11
0.0
 21
432.2999999999996
 31
0.0
  0
LINE
  5
50BB
330
50AF
100
AcDbEntity
  8
AM_0 外形線1
100
AcDbLine
 10
21.0
 20
422.4999999999998
 30
0.0
 11
21.0
 21
432.2999999999996
 31
0.0
  0
LINE
  5
50BC
330
50AF
100
AcDbEntity
  8
AM_0 外形線1
100
AcDbLine
 10
28.0
 20
422.4999999999998
 30
0.0
 11
21.0
 21
422.4999999999998
 31
0.0
  0
LINE
  5
50BD
330
50AF
100
AcDbEntity
  8
AM_0 外形線1
100
AcDbLine
 10
-7.0
 20
422.4999999999998
 30
0.0
 11
-7.0
 21
420.0
 31
0.0
  0
LINE
  5
50BE
330
50AF
100
AcDbEntity
  8
AM_0 外形線1
100
AcDbLine
 10
0.0
 20
422.4999999999998
 30
0.0
 11
0.0
 21
420.0
 31
0.0
  0
LINE
  5
50BF
330
50AF
100
AcDbEntity
  8
AM_0 外形線1
100
AcDbLine
 10
21.0
 20
422.4999999999998
 30
0.0
 11
21.0
 21
420.0
 31
0.0
  0
LINE
  5
50C0
330
50AF
100
AcDbEntity
  8
AM_0 外形線1
100
AcDbLine
 10
28.0
 20
422.4999999999998
 30
0.0
 11
28.0
 21
420.0
 31
0.0
  0
LINE
  5
50C1
330
50AF
100
AcDbEntity
  8
AM_0 外形線1
100
AcDbLine
 10
-28.89999999999965
 20
465.2499999999998
 30
0.0
 11
28.0
 21
465.2499999999998
 31
0.0
  0
LINE
  5
50C2
330
50AF
100
AcDbEntity
  8
AM_0 外形線1
100
AcDbLine
 10
28.0
 20
482.7499999999998
 30
0.0
 11
-28.89999999999965
 21
482.7499999999998
 31
0.0
  0
LINE
  5
50C3
330
50AF
100
AcDbEntity
  8
AM_7 中心線
100
AcDbLine
 10
-45.16501299999982
 20
474.0
 30
0.0
 11
49.94232100000044
 21
474.0
 31
0.0
  0
LINE
  5
50C4
330
50AF
100
AcDbEntity
  8
AM_4 細線
100
AcDbLine
 10
-28.89999999999965
 20
464.0
 30
0.0
 11
28.0
 21
464.0
 31
0.0
  0
LINE
  5
50C5
330
50AF
100
AcDbEntity
  8
AM_4 細線
100
AcDbLine
 10
28.0
 20
484.0
 30
0.0
 11
-28.89999999999965
 21
484.0
 31
0.0
  0
LINE
  5
50C6
330
50AF
100
AcDbEntity
  8
AM_0 外形線1
100
AcDbLine
 10
-31.89999999999964
 20
464.0
 30
0.0
 11
-28.89999999999965
 21
464.0
 31
0.0
  0
LINE
  5
50C7
330
50AF
100
AcDbEntity
  8
AM_0 外形線1
100
AcDbLine
 10
-28.89999999999965
 20
484.0
 30
0.0
 11
-31.89999999999964
 21
484.0
 31
0.0
  0
LINE
  5
50C8
330
50AF
100
AcDbEntity
  8
AM_0 外形線1
100
AcDbLine
 10
-31.89999999999964
 20
484.0
 30
0.0
 11
-31.89999999999964
 21
464.0
 31
0.0
  0
LINE
  5
50C9
330
50AF
100
AcDbEntity
  8
AM_0 外形線1
100
AcDbLine
 10
-42.05181500000072
 20
474.0
 30
0.0
 11
-37.0
 21
465.2499999999998
 31
0.0
  0
LINE
  5
50CA
330
50AF
100
AcDbEntity
  8
AM_0 外形線1
100
AcDbLine
 10
-37.0
 20
482.7499999999998
 30
0.0
 11
-42.05181500000072
 21
474.0
 31
0.0
  0
LINE
  5
50CB
330
50AF
100
AcDbEntity
  8
AM_0 外形線1
100
AcDbLine
 10
-37.0
 20
465.2499999999998
 30
0.0
 11
-28.89999999999965
 21
465.2499999999998
 31
0.0
  0
LINE
  5
50CC
330
50AF
100
AcDbEntity
  8
AM_0 外形線1
100
AcDbLine
 10
-37.0
 20
482.7499999999998
 30
0.0
 11
-37.0
 21
465.2499999999998
 31
0.0
  0
LINE
  5
50CD
330
50AF
100
AcDbEntity
  8
AM_0 外形線1
100
AcDbLine
 10
-28.89999999999965
 20
482.7499999999998
 30
0.0
 11
-37.0
 21
482.7499999999998
 31
0.0
  0
LINE
  5
50CE
330
50AF
100
AcDbEntity
  8
AM_0 外形線1
100
AcDbLine
 10
-28.89999999999965
 20
484.0
 30
0.0
 11
-28.89999999999965
 21
464.0
 31
0.0
  0
LWPOLYLINE
  5
50CF
330
50AF
100
AcDbEntity
  8
AM_0 外形線1
100
AcDbPolyline
 90
       73
 70
     0
 43
0.0
 10
2.25
 20
451.4999999999998
 10
2.446100999999544
 20
451.5136989999996
 10
2.640708999999333
 20
451.5546919999997
 10
2.832343000000037
 20
451.6226669999996
 10
3.019544999999196
 20
451.7171069999998
 10
3.20089100000041
 20
451.8372919999997
 10
3.375
 20
451.982309
 10
3.540547000000514
 20
452.1510529999996
 10
3.696272000000134
 20
452.3422399999994
 10
3.8409900000006
 20
452.5544159999998
 10
3.97359999999935
 20
452.7859649999994
 10
4.093092000000068
 20
453.0351249999998
 10
4.198556999999708
 20
453.2999999999996
 10
4.289192999999612
 20
453.5785739999997
 10
4.364308999999593
 20
453.8687279999995
 10
4.423332999999728
 20
454.1682519999998
 10
4.46581799999967
 20
454.4748669999994
 10
4.491438000000016
 20
454.7862399999994
 10
4.5
 20
455.0999999999998
 10
4.491438000000016
 20
455.4137609999997
 10
4.46581799999967
 20
455.7251339999996
 10
4.423332999999728
 20
456.0317489999997
 10
4.364308999999593
 20
456.3312729999998
 10
4.289192999999612
 20
456.6214259999997
 10
4.198556999999708
 20
456.8999999999996
 10
4.093092000000068
 20
457.1648749999998
 10
3.97359999999935
 20
457.4140359999995
 10
3.8409900000006
 20
457.6455849999996
 10
3.696272000000134
 20
457.8577599999994
 10
3.540547000000514
 20
458.0489479999996
 10
3.375
 20
458.2176919999997
 10
3.20089100000041
 20
458.3627079999995
 10
3.019544999999196
 20
458.4828939999996
 10
2.832343000000037
 20
458.5773329999996
 10
2.640708999999333
 20
458.6453079999996
 10
2.446100999999544
 20
458.6863009999996
 10
2.25
 20
458.6999999999997
 10
2.053899999999885
 20
458.6863009999996
 10
1.859292000000094
 20
458.6453079999996
 10
1.667656999999961
 20
458.5773329999996
 10
1.480454999999891
 20
458.4828939999996
 10
1.299108999999589
 20
458.3627079999995
 10
1.125
 20
458.2176919999997
 10
0.9594529999994847
 20
458.0489479999996
 10
0.8037279999998645
 20
457.8577599999994
 10
0.6590099999993983
 20
457.6455849999996
 10
0.5263999999997396
 20
457.4140359999995
 10
0.4069079999999305
 20
457.1648749999998
 10
0.3014430000002903
 20
456.8999999999996
 10
0.2108079999998154
 20
456.6214259999997
 10
0.1356919999998354
 20
456.3312729999998
 10
0.076666999999361
 20
456.0317489999997
 10
0.0341829999997572
 20
455.7251339999996
 10
0.0085619999999835
 20
455.4137609999997
 10
0.0
 20
455.0999999999998
 10
0.0085619999999835
 20
454.7862399999994
 10
0.0341829999997572
 20
454.4748669999994
 10
0.076666999999361
 20
454.1682519999998
 10
0.1356919999998354
 20
453.8687279999995
 10
0.2108079999998154
 20
453.5785739999997
 10
0.3014430000002903
 20
453.2999999999996
 10
0.4069079999999305
 20
453.0351249999998
 10
0.5263999999997396
 20
452.7859649999994
 10
0.6590099999993983
 20
452.5544159999998
 10
0.8037279999998645
 20
452.3422399999994
 10
0.9594529999994847
 20
452.1510529999996
 10
1.125
 20
451.982309
 10
1.299108999999589
 20
451.8372919999997
 10
1.480454999999891
 20
451.7171069999998
 10
1.667656999999961
 20
451.6226669999996
 10
1.859292000000094
 20
451.5546919999997
 10
2.053899999999885
 20
451.5136989999996
 10
2.25
 20
451.4999999999998
  0
LINE
  5
50D0
330
50AF
100
AcDbEntity
  8
AM_0 外形線1
100
AcDbLine
 10
33.10000000000036
 20
477.0
 30
0.0
 11
28.0
 21
469.0
 31
0.0
  0
LINE
  5
50D1
330
50AF
100
AcDbEntity
  8
AM_0 外形線1
100
AcDbLine
 10
28.0
 20
471.0
 30
0.0
 11
33.10000000000036
 21
479.0
 31
0.0
  0
LINE
  5
50D2
330
50AF
100
AcDbEntity
  8
AM_0 外形線1
100
AcDbLine
 10
46.10000000000036
 20
487.3398629999996
 30
0.0
 11
46.10000000000036
 21
461.4001169999997
 31
0.0
  0
LINE
  5
50D3
330
50AF
100
AcDbEntity
  8
AM_0 外形線1
100
AcDbLine
 10
33.10000000000036
 20
465.3602539999996
 30
0.0
 11
44.62253699999928
 21
465.3602539999996
 31
0.0
  0
LINE
  5
50D4
330
50AF
100
AcDbEntity
  8
AM_0 外形線1
100
AcDbLine
 10
44.62253699999928
 20
482.6397459999993
 30
0.0
 11
33.10000000000036
 21
482.6397459999993
 31
0.0
  0
LINE
  5
50D5
330
50AF
100
AcDbEntity
  8
AM_0 外形線1
100
AcDbLine
 10
33.10000000000036
 20
456.6999999999999
 30
0.0
 11
33.10000000000036
 21
456.9499999999997
 31
0.0
  0
LINE
  5
50D6
330
50AF
100
AcDbEntity
  8
AM_0 外形線1
100
AcDbLine
 10
44.62253699999928
 20
456.6999999999999
 30
0.0
 11
33.10000000000036
 21
456.6999999999999
 31
0.0
  0
ARC
  5
50D7
330
50AF
100
AcDbEntity
  8
AM_0 外形線1
100
AcDbCircle
 10
39.06226099999912
 20
461.0301269999994
 30
0.0
 40
7.047457999999998
100
AcDbArc
 50
322.0899220000364
 51
37.91007799996356
  0
ARC
  5
50D8
330
50AF
100
AcDbEntity
  8
AM_0 外形線1
100
AcDbCircle
 10
20.10000000000037
 20
474.0
 30
0.0
 40
26.0
100
AcDbArc
 50
340.591690999988
 51
19.40830900001197
  0
ARC
  5
50D9
330
50AF
100
AcDbEntity
  8
AM_0 外形線1
100
AcDbCircle
 10
39.06226099999912
 20
486.969873
 30
0.0
 40
7.047457999999998
100
AcDbArc
 50
322.0899220000364
 51
37.91007799996356
  0
LINE
  5
50DA
330
50AF
100
AcDbEntity
  8
AM_0 外形線1
100
AcDbLine
 10
33.10000000000036
 20
491.2999999999996
 30
0.0
 11
44.62253699999928
 21
491.2999999999996
 31
0.0
  0
LINE
  5
50DB
330
50AF
100
AcDbEntity
  8
AM_0 外形線1
100
AcDbLine
 10
33.10000000000036
 20
456.9499999999997
 30
0.0
 11
28.0
 21
456.9499999999997
 31
0.0
  0
LINE
  5
50DC
330
50AF
100
AcDbEntity
  8
AM_0 外形線1
100
AcDbLine
 10
33.10000000000036
 20
491.0499999999997
 30
0.0
 11
33.10000000000036
 21
456.9499999999997
 31
0.0
  0
LINE
  5
50DD
330
50AF
100
AcDbEntity
  8
AM_0 外形線1
100
AcDbLine
 10
28.0
 20
491.0499999999997
 30
0.0
 11
33.10000000000036
 21
491.0499999999997
 31
0.0
  0
LINE
  5
50DF
330
50AF
100
AcDbEntity
  8
AM_0 外形線1
100
AcDbLine
 10
4.5
 20
451.4999999999998
 30
0.0
 11
-7.0
 21
451.4999999999998
 31
0.0
  0
LINE
  5
50E0
330
50AF
100
AcDbEntity
  8
AM_0 外形線1
100
AcDbLine
 10
4.5
 20
458.6999999999997
 30
0.0
 11
4.5
 21
451.4999999999998
 31
0.0
  0
LINE
  5
50E1
330
50AF
100
AcDbEntity
  8
AM_0 外形線1
100
AcDbLine
 10
0.0
 20
458.6999999999997
 30
0.0
 11
4.5
 21
458.6999999999997
 31
0.0
  0
LINE
  5
50E2
330
50AF
100
AcDbEntity
  8
AM_0 外形線1
100
AcDbLine
 10
28.0
 20
458.6999999999997
 30
0.0
 11
28.0
 21
495.0
 31
0.0
  0
LINE
  5
50E3
330
50AF
100
AcDbEntity
  8
AM_0 外形線1
100
AcDbLine
 10
28.0
 20
495.0
 30
0.0
 11
0.0
 21
495.0
 31
0.0
  0
LINE
  5
514F
330
50AF
100
AcDbEntity
  8
AM_0 外形線1
100
AcDbLine
 10
0.0
 20
-495.0
 30
0.0
 11
0.0
 21
0.0
 31
0.0
  0
LINE
  5
5150
330
50AF
100
AcDbEntity
  8
AM_0 外形線1
100
AcDbLine
 10
-0.0000000000004547
 20
464.0
 30
0.0
 11
-0.0000000000009095
 21
458.6999999999997
 31
0.0
  0
LINE
  5
5151
330
50AF
100
AcDbEntity
  8
AM_0 外形線1
100
AcDbLine
 10
0.0
 20
495.0
 30
0.0
 11
0.0
 21
484.0
 31
0.0
  0
LINE
  5
5152
330
50AF
100
AcDbEntity
  8
AM_7 中心線
100
AcDbLine
 10
-17.51686393162527
 20
-474.0
 30
0.0
 11
49.94232100000044
 21
-474.0
 31
0.0
  0
ENDBLK
  5
50B1
330
50AF
100
AcDbEntity
  8
0
100
AcDbBlockEnd
  0
BLOCK
  5
546C
330
546B
100
AcDbEntity
  8
0
100
AcDbBlockBegin
  2
*D13
 70
     1
 10
0.0
 20
0.0
 30
0.0
  3
*D13
  1

  0
LINE
  5
5478
330
546B
100
AcDbEntity
  8
AM_5 寸法線
 62
     3
100
AcDbLine
 10
3050.638497318025
 20
3201.464829419159
 30
0.0
 11
3050.638497318025
 21
3298.729886419157
 31
0.0
  0
LINE
  5
5479
330
546B
100
AcDbEntity
  8
AM_5 寸法線
 62
     3
100
AcDbLine
 10
2490.638497318025
 20
3201.464829419159
 30
0.0
 11
2490.638497318025
 21
3298.729886419157
 31
0.0
  0
LINE
  5
547A
330
546B
100
AcDbEntity
  8
AM_5 寸法線
 62
     3
100
AcDbLine
 10
3013.138497318025
 20
3289.354886419157
 30
0.0
 11
2528.138497318025
 21
3289.354886419157
 31
0.0
  0
INSERT
  5
547B
330
546B
100
AcDbEntity
  8
AM_5 寸法線
 62
     3
100
AcDbBlockReference
  2
_Open30
 10
3050.638497318025
 20
3289.354886419157
 30
0.0
 41
37.5
 42
37.5
 43
37.5
  0
INSERT
  5
547C
330
546B
100
AcDbEntity
  8
AM_5 寸法線
 62
     3
100
AcDbBlockReference
  2
_Open30
 10
2490.638497318025
 20
3289.354886419157
 30
0.0
 41
37.5
 42
37.5
 43
37.5
 50
180.0
  0
MTEXT
  5
547D
330
546B
100
AcDbEntity
  8
AM_5 寸法線
 62
     3
100
AcDbMText
 10
2770.638497318025
 20
3338.104886419158
 30
0.0
 40
52.5
 41
0.0
 46
0.0
 71
     5
 72
     1
  1
560
  7
SEISA
 73
     1
 44
1.0
  0
POINT
  5
547E
330
546B
100
AcDbEntity
  8
Defpoints
 62
     0
100
AcDbPoint
 10
3050.638497318025
 20
3192.089829419158
 30
0.0
  0
POINT
  5
547F
330
546B
100
AcDbEntity
  8
Defpoints
 62
     0
100
AcDbPoint
 10
2490.638497318025
 20
3192.089829419158
 30
0.0
  0
POINT
  5
5480
330
546B
100
AcDbEntity
  8
Defpoints
 62
     0
100
AcDbPoint
 10
2490.638497318025
 20
3289.354886419157
 30
0.0
  0
ENDBLK
  5
546D
330
546B
100
AcDbEntity
  8
0
100
AcDbBlockEnd
  0
BLOCK
  5
5484
330
5483
100
AcDbEntity
  8
0
100
AcDbBlockBegin
  2
*D14
 70
     1
 10
0.0
 20
0.0
 30
0.0
  3
*D14
  1

  0
LINE
  5
54E8
330
5483
100
AcDbEntity
  8
AM_5 寸法線
 62
     3
100
AcDbLine
 10
3090.638497318025
 20
3201.464829419159
 30
0.0
 11
3090.638497318025
 21
3298.729886419157
 31
0.0
  0
LINE
  5
54E9
330
5483
100
AcDbEntity
  8
AM_5 寸法線
 62
     3
100
AcDbLine
 10
3050.638497318025
 20
3201.464829419159
 30
0.0
 11
3050.638497318025
 21
3298.729886419157
 31
0.0
  0
LINE
  5
54EA
330
5483
100
AcDbEntity
  8
AM_5 寸法線
 62
     3
100
AcDbLine
 10
3128.138497318025
 20
3289.354886419157
 30
0.0
 11
3165.638497318025
 21
3289.354886419157
 31
0.0
  0
LINE
  5
54EB
330
5483
100
AcDbEntity
  8
AM_5 寸法線
 62
     3
100
AcDbLine
 10
3013.138497318025
 20
3289.354886419157
 30
0.0
 11
2975.638497318025
 21
3289.354886419157
 31
0.0
  0
MTEXT
  5
54EC
330
5483
100
AcDbEntity
  8
AM_5 寸法線
 62
     3
100
AcDbMText
 10
3170.47860587269
 20
3336.768378934361
 30
0.0
 40
52.5
 41
0.0
 46
0.0
 71
     5
 72
     1
  1
40
  7
SEISA
 73
     1
 44
1.0
  0
LINE
  5
54ED
330
5483
100
AcDbEntity
  8
AM_5 寸法線
 62
     3
100
AcDbLine
 10
3090.638497318025
 20
3289.354886419157
 30
0.0
 11
3050.638497318025
 21
3289.354886419157
 31
0.0
  0
INSERT
  5
54EE
330
5483
100
AcDbEntity
  8
AM_5 寸法線
 62
     3
100
AcDbBlockReference
  2
_Open30
 10
3090.638497318025
 20
3289.354886419157
 30
0.0
 41
37.5
 42
37.5
 43
37.5
 50
180.0
  0
INSERT
  5
54EF
330
5483
100
AcDbEntity
  8
AM_5 寸法線
 62
     3
100
AcDbBlockReference
  2
_Open30
 10
3050.638497318025
 20
3289.354886419157
 30
0.0
 41
37.5
 42
37.5
 43
37.5
  0
POINT
  5
54F0
330
5483
100
AcDbEntity
  8
Defpoints
 62
     0
100
AcDbPoint
 10
3090.638497318025
 20
3192.089829419158
 30
0.0
  0
POINT
  5
54F1
330
5483
100
AcDbEntity
  8
Defpoints
 62
     0
100
AcDbPoint
 10
3050.638497318025
 20
3192.089829419158
 30
0.0
  0
POINT
  5
54F2
330
5483
100
AcDbEntity
  8
Defpoints
 62
     0
100
AcDbPoint
 10
3050.638497318025
 20
3289.354886419157
 30
0.0
  0
ENDBLK
  5
5485
330
5483
100
AcDbEntity
  8
0
100
AcDbBlockEnd
  0
BLOCK
  5
54A0
330
549F
100
AcDbEntity
  8
0
100
AcDbBlockBegin
  2
*D15
 70
     1
 10
0.0
 20
0.0
 30
0.0
  3
*D15
  1

  0
LINE
  5
54B6
330
549F
100
AcDbEntity
  8
AM_5 寸法線
 62
     3
100
AcDbLine
 10
3090.638497318025
 20
3201.464829419159
 30
0.0
 11
3090.638497318025
 21
3298.729886419157
 31
0.0
  0
LINE
  5
54B7
330
549F
100
AcDbEntity
  8
AM_5 寸法線
 62
     3
100
AcDbLine
 10
3650.638497318026
 20
3201.464829419159
 30
0.0
 11
3650.638497318026
 21
3298.729886419157
 31
0.0
  0
LINE
  5
54B8
330
549F
100
AcDbEntity
  8
AM_5 寸法線
 62
     3
100
AcDbLine
 10
3128.138497318025
 20
3289.354886419157
 30
0.0
 11
3613.138497318026
 21
3289.354886419157
 31
0.0
  0
INSERT
  5
54B9
330
549F
100
AcDbEntity
  8
AM_5 寸法線
 62
     3
100
AcDbBlockReference
  2
_Open30
 10
3090.638497318025
 20
3289.354886419157
 30
0.0
 41
37.5
 42
37.5
 43
37.5
 50
180.0
  0
INSERT
  5
54BA
330
549F
100
AcDbEntity
  8
AM_5 寸法線
 62
     3
100
AcDbBlockReference
  2
_Open30
 10
3650.638497318026
 20
3289.354886419157
 30
0.0
 41
37.5
 42
37.5
 43
37.5
  0
MTEXT
  5
54BB
330
549F
100
AcDbEntity
  8
AM_5 寸法線
 62
     3
100
AcDbMText
 10
3370.638497318025
 20
3338.104886419158
 30
0.0
 40
52.5
 41
0.0
 46
0.0
 71
     5
 72
     1
  1
560
  7
SEISA
 73
     1
 44
1.0
  0
POINT
  5
54BC
330
549F
100
AcDbEntity
  8
Defpoints
 62
     0
100
AcDbPoint
 10
3090.638497318025
 20
3192.089829419158
 30
0.0
  0
POINT
  5
54BD
330
549F
100
AcDbEntity
  8
Defpoints
 62
     0
100
AcDbPoint
 10
3650.638497318026
 20
3192.089829419158
 30
0.0
  0
POINT
  5
54BE
330
549F
100
AcDbEntity
  8
Defpoints
 62
     0
100
AcDbPoint
 10
3650.638497318026
 20
3289.354886419157
 30
0.0
  0
ENDBLK
  5
54A1
330
549F
100
AcDbEntity
  8
0
100
AcDbBlockEnd
  0
BLOCK
  5
557B
330
557A
100
AcDbEntity
  8
0
100
AcDbBlockBegin
  2
*D16
 70
     1
 10
0.0
 20
0.0
 30
0.0
  3
*D16
  1

  0
LINE
  5
6B27
330
557A
100
AcDbEntity
  8
AM_5 寸法線
 62
     3
100
AcDbLine
 10
3395.638497318025
 20
3602.714829419158
 30
0.0
 11
3395.638497318025
 21
3492.156150081298
 31
0.0
  0
LINE
  5
6B28
330
557A
100
AcDbEntity
  8
AM_5 寸法線
 62
     3
100
AcDbLine
 10
3382.638497318025
 20
3603.214829419159
 30
0.0
 11
3382.638497318025
 21
3492.156150081298
 31
0.0
  0
LINE
  5
6B29
330
557A
100
AcDbEntity
  8
AM_5 寸法線
 62
     3
100
AcDbLine
 10
3382.638497318025
 20
3501.531150081298
 30
0.0
 11
3307.638497318025
 21
3501.531150081298
 31
0.0
  0
LINE
  5
6B2A
330
557A
100
AcDbEntity
  8
AM_5 寸法線
 62
     3
100
AcDbLine
 10
3433.138497318025
 20
3501.531150081298
 30
0.0
 11
3585.388497318025
 21
3501.531150081298
 31
0.0
  0
LINE
  5
6B2B
330
557A
100
AcDbEntity
  8
AM_5 寸法線
 62
     3
100
AcDbLine
 10
3382.638497318025
 20
3501.531150081298
 30
0.0
 11
3395.638497318025
 21
3501.531150081298
 31
0.0
  0
INSERT
  5
6B2C
330
557A
100
AcDbEntity
  8
AM_5 寸法線
 62
     3
100
AcDbBlockReference
  2
_DotSmall
 10
3382.638497318025
 20
3501.531150081298
 30
0.0
 41
37.5
 42
37.5
 43
37.5
  0
INSERT
  5
6B2D
330
557A
100
AcDbEntity
  8
AM_5 寸法線
 62
     3
100
AcDbBlockReference
  2
_Open30
 10
3395.638497318025
 20
3501.531150081298
 30
0.0
 41
37.5
 42
37.5
 43
37.5
 50
180.0
  0
MTEXT
  5
6B2E
330
557A
100
AcDbEntity
  8
AM_5 寸法線
 62
     3
100
AcDbMText
 10
3528.013497318025
 20
3550.281150081299
 30
0.0
 40
52.5
 41
0.0
 46
0.0
 71
     5
 72
     1
  1
13
  7
SEISA
 73
     1
 44
1.0
  0
POINT
  5
6B2F
330
557A
100
AcDbEntity
  8
Defpoints
 62
     0
100
AcDbPoint
 10
3395.638497318025
 20
3612.089829419158
 30
0.0
  0
POINT
  5
6B30
330
557A
100
AcDbEntity
  8
Defpoints
 62
     0
100
AcDbPoint
 10
3382.638497318025
 20
3612.589829419159
 30
0.0
  0
POINT
  5
6B31
330
557A
100
AcDbEntity
  8
Defpoints
 62
     0
100
AcDbPoint
 10
3382.638497318025
 20
3501.531150081298
 30
0.0
  0
ENDBLK
  5
557C
330
557A
100
AcDbEntity
  8
0
100
AcDbBlockEnd
  0
BLOCK
  5
56D7
330
56D6
100
AcDbEntity
  8
0
100
AcDbBlockBegin
  2
*D17
 70
     1
 10
0.0
 20
0.0
 30
0.0
  3
*D17
  1

  0
LINE
  5
5752
330
56D6
100
AcDbEntity
  8
AM_5 寸法線
 62
     3
100
AcDbLine
 10
3480.013497318025
 20
3612.089829419158
 30
0.0
 11
3960.013497318025
 21
3612.089829419158
 31
0.0
  0
LINE
  5
5753
330
56D6
100
AcDbEntity
  8
AM_5 寸法線
 62
     3
100
AcDbLine
 10
3480.013497318025
 20
2772.089829419159
 30
0.0
 11
3960.013497318025
 21
2772.089829419159
 31
0.0
  0
LINE
  5
5754
330
56D6
100
AcDbEntity
  8
AM_5 寸法線
 62
     3
100
AcDbLine
 10
3950.638497318026
 20
3574.589829419159
 30
0.0
 11
3950.638497318024
 21
2809.589829419159
 31
0.0
  0
INSERT
  5
5755
330
56D6
100
AcDbEntity
  8
AM_5 寸法線
 62
     3
100
AcDbBlockReference
  2
_Open30
 10
3950.638497318026
 20
3612.089829419158
 30
0.0
 41
37.5
 42
37.5
 43
37.5
 50
90.0
  0
INSERT
  5
5756
330
56D6
100
AcDbEntity
  8
AM_5 寸法線
 62
     3
100
AcDbBlockReference
  2
_Open30
 10
3950.638497318024
 20
2772.089829419159
 30
0.0
 41
37.5
 42
37.5
 43
37.5
 50
270.0
  0
MTEXT
  5
5757
330
56D6
100
AcDbEntity
  8
AM_5 寸法線
 62
     3
100
AcDbMText
 10
3901.888497318024
 20
3192.089829419159
 30
0.0
 40
52.5
 41
0.0
 46
0.0
 71
     5
 72
     1
  1
%%c840
  7
SEISA
 11
0.0000000000000001
 21
1.0
 31
0.0
 73
     1
 44
1.0
  0
POINT
  5
5758
330
56D6
100
AcDbEntity
  8
Defpoints
 62
     0
100
AcDbPoint
 10
3470.638497318025
 20
3612.089829419158
 30
0.0
  0
POINT
  5
5759
330
56D6
100
AcDbEntity
  8
Defpoints
 62
     0
100
AcDbPoint
 10
3470.638497318025
 20
2772.089829419159
 30
0.0
  0
POINT
  5
575A
330
56D6
100
AcDbEntity
  8
Defpoints
 62
     0
100
AcDbPoint
 10
3950.638497318024
 20
2772.089829419159
 30
0.0
  0
ENDBLK
  5
56D8
330
56D6
100
AcDbEntity
  8
0
100
AcDbBlockEnd
  0
BLOCK
  5
56EF
330
56EE
100
AcDbEntity
  8
0
100
AcDbBlockBegin
  2
*D18
 70
     1
 10
0.0
 20
0.0
 30
0.0
  3
*D18
  1

  0
LINE
  5
5776
330
56EE
100
AcDbEntity
  8
AM_5 寸法線
 62
     3
100
AcDbLine
 10
3440.013497318025
 20
3687.089829419158
 30
0.0
 11
4080.013497318025
 21
3687.089829419158
 31
0.0
  0
LINE
  5
5777
330
56EE
100
AcDbEntity
  8
AM_5 寸法線
 62
     3
100
AcDbLine
 10
3440.013497318025
 20
2697.089829419159
 30
0.0
 11
4080.013497318025
 21
2697.089829419159
 31
0.0
  0
LINE
  5
5778
330
56EE
100
AcDbEntity
  8
AM_5 寸法線
 62
     3
100
AcDbLine
 10
4070.638497318024
 20
3649.589829419158
 30
0.0
 11
4070.638497318024
 21
2734.589829419159
 31
0.0
  0
INSERT
  5
5779
330
56EE
100
AcDbEntity
  8
AM_5 寸法線
 62
     3
100
AcDbBlockReference
  2
_Open30
 10
4070.638497318024
 20
3687.089829419158
 30
0.0
 41
37.5
 42
37.5
 43
37.5
 50
90.0
  0
INSERT
  5
577A
330
56EE
100
AcDbEntity
  8
AM_5 寸法線
 62
     3
100
AcDbBlockReference
  2
_Open30
 10
4070.638497318024
 20
2697.089829419159
 30
0.0
 41
37.5
 42
37.5
 43
37.5
 50
270.0
  0
MTEXT
  5
577B
330
56EE
100
AcDbEntity
  8
AM_5 寸法線
 62
     3
100
AcDbMText
 10
4021.888497318024
 20
3192.089829419159
 30
0.0
 40
52.5
 41
0.0
 46
0.0
 71
     5
 72
     1
  1
%%c990
  7
SEISA
 11
0.0000000000000001
 21
1.0
 31
0.0
 73
     1
 44
1.0
  0
POINT
  5
577C
330
56EE
100
AcDbEntity
  8
Defpoints
 62
     0
100
AcDbPoint
 10
3430.638497318025
 20
3687.089829419158
 30
0.0
  0
POINT
  5
577D
330
56EE
100
AcDbEntity
  8
Defpoints
 62
     0
100
AcDbPoint
 10
3430.638497318025
 20
2697.089829419159
 30
0.0
  0
POINT
  5
577E
330
56EE
100
AcDbEntity
  8
Defpoints
 62
     0
100
AcDbPoint
 10
4070.638497318024
 20
2697.089829419159
 30
0.0
  0
ENDBLK
  5
56F0
330
56EE
100
AcDbEntity
  8
0
100
AcDbBlockEnd
  0
BLOCK
  5
5707
330
5706
100
AcDbEntity
  8
0
100
AcDbBlockBegin
  2
*D19
 70
     1
 10
0.0
 20
0.0
 30
0.0
  3
*D19
  1

  0
LINE
  5
5788
330
5706
100
AcDbEntity
  8
AM_5 寸法線
 62
     3
100
AcDbLine
 10
3138.013497318025
 20
3752.089829419158
 30
0.0
 11
4200.013497318026
 21
3752.089829419158
 31
0.0
  0
LINE
  5
5789
330
5706
100
AcDbEntity
  8
AM_5 寸法線
 62
     3
100
AcDbLine
 10
3138.013497318025
 20
2632.089829419158
 30
0.0
 11
4200.013497318026
 21
2632.089829419158
 31
0.0
  0
LINE
  5
578A
330
5706
100
AcDbEntity
  8
AM_5 寸法線
 62
     3
100
AcDbLine
 10
4190.638497318024
 20
3714.589829419158
 30
0.0
 11
4190.638497318024
 21
2669.589829419158
 31
0.0
  0
INSERT
  5
578B
330
5706
100
AcDbEntity
  8
AM_5 寸法線
 62
     3
100
AcDbBlockReference
  2
_Open30
 10
4190.638497318024
 20
3752.089829419158
 30
0.0
 41
37.5
 42
37.5
 43
37.5
 50
90.0
  0
INSERT
  5
578C
330
5706
100
AcDbEntity
  8
AM_5 寸法線
 62
     3
100
AcDbBlockReference
  2
_Open30
 10
4190.638497318024
 20
2632.089829419158
 30
0.0
 41
37.5
 42
37.5
 43
37.5
 50
270.0
  0
MTEXT
  5
578D
330
5706
100
AcDbEntity
  8
AM_5 寸法線
 62
     3
100
AcDbMText
 10
4141.888497318023
 20
3192.089829419159
 30
0.0
 40
52.5
 41
0.0
 46
0.0
 71
     5
 72
     1
  1
%%c1120
  7
SEISA
 11
0.0000000000000001
 21
1.0
 31
0.0
 73
     1
 44
1.0
  0
POINT
  5
578E
330
5706
100
AcDbEntity
  8
Defpoints
 62
     0
100
AcDbPoint
 10
3128.638497318025
 20
3752.089829419158
 30
0.0
  0
POINT
  5
578F
330
5706
100
AcDbEntity
  8
Defpoints
 62
     0
100
AcDbPoint
 10
3128.638497318025
 20
2632.089829419158
 30
0.0
  0
POINT
  5
5790
330
5706
100
AcDbEntity
  8
Defpoints
 62
     0
100
AcDbPoint
 10
4190.638497318024
 20
2632.089829419158
 30
0.0
  0
ENDBLK
  5
5708
330
5706
100
AcDbEntity
  8
0
100
AcDbBlockEnd
  0
BLOCK
  5
57B9
330
57B8
100
AcDbEntity
  8
0
100
AcDbBlockBegin
  2
*D20
 70
     1
 10
0.0
 20
0.0
 30
0.0
  3
*D20
  1

  0
LINE
  5
5878
330
57B8
100
AcDbEntity
  8
AM_5 寸法線
 62
     3
100
AcDbLine
 10
3070.638497318025
 20
2624.714829419159
 30
0.0
 11
3070.638497318025
 21
2442.714829419159
 31
0.0
  0
LINE
  5
5879
330
57B8
100
AcDbEntity
  8
AM_5 寸法線
 62
     3
100
AcDbLine
 10
3010.638497318025
 20
2625.714829419159
 30
0.0
 11
3010.638497318025
 21
2442.714829419159
 31
0.0
  0
LINE
  5
587A
330
57B8
100
AcDbEntity
  8
AM_5 寸法線
 62
     3
100
AcDbLine
 10
3108.138497318025
 20
2452.089829419159
 30
0.0
 11
3145.638497318025
 21
2452.089829419159
 31
0.0
  0
LINE
  5
587B
330
57B8
100
AcDbEntity
  8
AM_5 寸法線
 62
     3
100
AcDbLine
 10
2973.138497318025
 20
2452.089829419159
 30
0.0
 11
2816.388497318025
 21
2452.089829419159
 31
0.0
  0
LINE
  5
587C
330
57B8
100
AcDbEntity
  8
AM_5 寸法線
 62
     3
100
AcDbLine
 10
3070.638497318025
 20
2452.089829419159
 30
0.0
 11
3010.638497318025
 21
2452.089829419159
 31
0.0
  0
INSERT
  5
587D
330
57B8
100
AcDbEntity
  8
AM_5 寸法線
 62
     3
100
AcDbBlockReference
  2
GENDOT
 10
3070.638497318025
 20
2452.089829419159
 30
0.0
 41
37.5
 42
37.5
 43
37.5
 50
180.0
  0
INSERT
  5
587E
330
57B8
100
AcDbEntity
  8
AM_5 寸法線
 62
     3
100
AcDbBlockReference
  2
_Open30
 10
3010.638497318025
 20
2452.089829419159
 30
0.0
 41
37.5
 42
37.5
 43
37.5
  0
MTEXT
  5
587F
330
57B8
100
AcDbEntity
  8
AM_5 寸法線
 62
     3
100
AcDbMText
 10
2876.013497318025
 20
2500.839829419158
 30
0.0
 40
52.5
 41
0.0
 46
0.0
 71
     5
 72
     1
  1
60
  7
SEISA
 73
     1
 44
1.0
  0
POINT
  5
5880
330
57B8
100
AcDbEntity
  8
Defpoints
 62
     0
100
AcDbPoint
 10
3070.638497318025
 20
2634.089829419159
 30
0.0
  0
POINT
  5
5881
330
57B8
100
AcDbEntity
  8
Defpoints
 62
     0
100
AcDbPoint
 10
3010.638497318025
 20
2635.089829419158
 30
0.0
  0
POINT
  5
5882
330
57B8
100
AcDbEntity
  8
Defpoints
 62
     0
100
AcDbPoint
 10
3010.638497318025
 20
2452.089829419159
 30
0.0
  0
ENDBLK
  5
57BA
330
57B8
100
AcDbEntity
  8
0
100
AcDbBlockEnd
  0
BLOCK
  5
57D5
330
57D4
100
AcDbEntity
  8
0
100
AcDbBlockBegin
  2
*D21
 70
     1
 10
0.0
 20
0.0
 30
0.0
  3
*D21
  1

  0
LINE
  5
58A4
330
57D4
100
AcDbEntity
  8
AM_5 寸法線
 62
     3
100
AcDbLine
 10
3070.638497318025
 20
2624.714829419159
 30
0.0
 11
3070.638497318025
 21
2442.714829419159
 31
0.0
  0
LINE
  5
58A5
330
57D4
100
AcDbEntity
  8
AM_5 寸法線
 62
     3
100
AcDbLine
 10
3130.638497318025
 20
2624.714829419159
 30
0.0
 11
3130.638497318025
 21
2442.714829419159
 31
0.0
  0
LINE
  5
58A6
330
57D4
100
AcDbEntity
  8
AM_5 寸法線
 62
     3
100
AcDbLine
 10
3033.138497318025
 20
2452.089829419159
 30
0.0
 11
2995.638497318025
 21
2452.089829419159
 31
0.0
  0
LINE
  5
58A7
330
57D4
100
AcDbEntity
  8
AM_5 寸法線
 62
     3
100
AcDbLine
 10
3168.138497318025
 20
2452.089829419159
 30
0.0
 11
3324.888497318025
 21
2452.089829419159
 31
0.0
  0
LINE
  5
58A8
330
57D4
100
AcDbEntity
  8
AM_5 寸法線
 62
     3
100
AcDbLine
 10
3070.638497318025
 20
2452.089829419159
 30
0.0
 11
3130.638497318025
 21
2452.089829419159
 31
0.0
  0
INSERT
  5
58A9
330
57D4
100
AcDbEntity
  8
AM_5 寸法線
 62
     3
100
AcDbBlockReference
  2
GENDOT
 10
3070.638497318025
 20
2452.089829419159
 30
0.0
 41
37.5
 42
37.5
 43
37.5
  0
INSERT
  5
58AA
330
57D4
100
AcDbEntity
  8
AM_5 寸法線
 62
     3
100
AcDbBlockReference
  2
_Open30
 10
3130.638497318025
 20
2452.089829419159
 30
0.0
 41
37.5
 42
37.5
 43
37.5
 50
180.0
  0
MTEXT
  5
58AB
330
57D4
100
AcDbEntity
  8
AM_5 寸法線
 62
     3
100
AcDbMText
 10
3265.263497318025
 20
2500.839829419158
 30
0.0
 40
52.5
 41
0.0
 46
0.0
 71
     5
 72
     1
  1
60
  7
SEISA
 73
     1
 44
1.0
  0
POINT
  5
58AC
330
57D4
100
AcDbEntity
  8
Defpoints
 62
     0
100
AcDbPoint
 10
3070.638497318025
 20
2634.089829419159
 30
0.0
  0
POINT
  5
58AD
330
57D4
100
AcDbEntity
  8
Defpoints
 62
     0
100
AcDbPoint
 10
3130.638497318025
 20
2634.089829419159
 30
0.0
  0
POINT
  5
58AE
330
57D4
100
AcDbEntity
  8
Defpoints
 62
     0
100
AcDbPoint
 10
3130.638497318025
 20
2452.089829419159
 30
0.0
  0
ENDBLK
  5
57D6
330
57D4
100
AcDbEntity
  8
0
100
AcDbBlockEnd
  0
BLOCK
  5
57F1
330
57F0
100
AcDbEntity
  8
0
100
AcDbBlockBegin
  2
*D22
 70
     1
 10
0.0
 20
0.0
 30
0.0
  3
*D22
  1

  0
LINE
  5
57FD
330
57F0
100
AcDbEntity
  8
AM_5 寸法線
 62
     3
100
AcDbLine
 10
3070.638497318025
 20
2624.714829419159
 30
0.0
 11
3070.638497318025
 21
2327.714829419158
 31
0.0
  0
LINE
  5
57FE
330
57F0
100
AcDbEntity
  8
AM_5 寸法線
 62
     3
100
AcDbLine
 10
2490.638497318025
 20
2752.714829419158
 30
0.0
 11
2490.638497318025
 21
2327.714829419158
 31
0.0
  0
LINE
  5
57FF
330
57F0
100
AcDbEntity
  8
AM_5 寸法線
 62
     3
100
AcDbLine
 10
3033.138497318025
 20
2337.089829419158
 30
0.0
 11
2528.138497318025
 21
2337.089829419158
 31
0.0
  0
INSERT
  5
5800
330
57F0
100
AcDbEntity
  8
AM_5 寸法線
 62
     3
100
AcDbBlockReference
  2
_Open30
 10
3070.638497318025
 20
2337.089829419158
 30
0.0
 41
37.5
 42
37.5
 43
37.5
  0
INSERT
  5
5801
330
57F0
100
AcDbEntity
  8
AM_5 寸法線
 62
     3
100
AcDbBlockReference
  2
_Open30
 10
2490.638497318025
 20
2337.089829419158
 30
0.0
 41
37.5
 42
37.5
 43
37.5
 50
180.0
  0
MTEXT
  5
5802
330
57F0
100
AcDbEntity
  8
AM_5 寸法線
 62
     3
100
AcDbMText
 10
2780.638497318025
 20
2385.839829419158
 30
0.0
 40
52.5
 41
0.0
 46
0.0
 71
     5
 72
     1
  1
580
  7
SEISA
 73
     1
 44
1.0
  0
POINT
  5
5803
330
57F0
100
AcDbEntity
  8
Defpoints
 62
     0
100
AcDbPoint
 10
3070.638497318025
 20
2634.089829419159
 30
0.0
  0
POINT
  5
5804
330
57F0
100
AcDbEntity
  8
Defpoints
 62
     0
100
AcDbPoint
 10
2490.638497318025
 20
2762.089829419159
 30
0.0
  0
POINT
  5
5805
330
57F0
100
AcDbEntity
  8
Defpoints
 62
     0
100
AcDbPoint
 10
2490.638497318025
 20
2337.089829419158
 30
0.0
  0
ENDBLK
  5
57F2
330
57F0
100
AcDbEntity
  8
0
100
AcDbBlockEnd
  0
BLOCK
  5
5809
330
5808
100
AcDbEntity
  8
0
100
AcDbBlockBegin
  2
*D23
 70
     1
 10
0.0
 20
0.0
 30
0.0
  3
*D23
  1

  0
LINE
  5
5815
330
5808
100
AcDbEntity
  8
AM_5 寸法線
 62
     3
100
AcDbLine
 10
3070.638497318025
 20
2624.714829419159
 30
0.0
 11
3070.638497318025
 21
2327.714829419158
 31
0.0
  0
LINE
  5
5816
330
5808
100
AcDbEntity
  8
AM_5 寸法線
 62
     3
100
AcDbLine
 10
3430.638497318025
 20
2687.714829419159
 30
0.0
 11
3430.638497318025
 21
2327.714829419158
 31
0.0
  0
LINE
  5
5817
330
5808
100
AcDbEntity
  8
AM_5 寸法線
 62
     3
100
AcDbLine
 10
3108.138497318025
 20
2337.089829419158
 30
0.0
 11
3393.138497318025
 21
2337.089829419158
 31
0.0
  0
INSERT
  5
5818
330
5808
100
AcDbEntity
  8
AM_5 寸法線
 62
     3
100
AcDbBlockReference
  2
_Open30
 10
3070.638497318025
 20
2337.089829419158
 30
0.0
 41
37.5
 42
37.5
 43
37.5
 50
180.0
  0
INSERT
  5
5819
330
5808
100
AcDbEntity
  8
AM_5 寸法線
 62
     3
100
AcDbBlockReference
  2
_Open30
 10
3430.638497318025
 20
2337.089829419158
 30
0.0
 41
37.5
 42
37.5
 43
37.5
  0
MTEXT
  5
581A
330
5808
100
AcDbEntity
  8
AM_5 寸法線
 62
     3
100
AcDbMText
 10
3250.638497318025
 20
2385.839829419158
 30
0.0
 40
52.5
 41
0.0
 46
0.0
 71
     5
 72
     1
  1
360
  7
SEISA
 73
     1
 44
1.0
  0
POINT
  5
581B
330
5808
100
AcDbEntity
  8
Defpoints
 62
     0
100
AcDbPoint
 10
3070.638497318025
 20
2634.089829419159
 30
0.0
  0
POINT
  5
581C
330
5808
100
AcDbEntity
  8
Defpoints
 62
     0
100
AcDbPoint
 10
3430.638497318025
 20
2697.089829419159
 30
0.0
  0
POINT
  5
581D
330
5808
100
AcDbEntity
  8
Defpoints
 62
     0
100
AcDbPoint
 10
3430.638497318025
 20
2337.089829419158
 30
0.0
  0
ENDBLK
  5
580A
330
5808
100
AcDbEntity
  8
0
100
AcDbBlockEnd
  0
BLOCK
  5
5821
330
5820
100
AcDbEntity
  8
0
100
AcDbBlockBegin
  2
*D24
 70
     1
 10
0.0
 20
0.0
 30
0.0
  3
*D24
  1

  0
LINE
  5
582D
330
5820
100
AcDbEntity
  8
AM_5 寸法線
 62
     3
100
AcDbLine
 10
3430.638497318025
 20
2687.714829419159
 30
0.0
 11
3430.638497318025
 21
2327.714829419158
 31
0.0
  0
LINE
  5
582E
330
5820
100
AcDbEntity
  8
AM_5 寸法線
 62
     3
100
AcDbLine
 10
3650.638497318025
 20
2784.714829419158
 30
0.0
 11
3650.638497318025
 21
2327.714829419158
 31
0.0
  0
LINE
  5
582F
330
5820
100
AcDbEntity
  8
AM_5 寸法線
 62
     3
100
AcDbLine
 10
3468.138497318025
 20
2337.089829419158
 30
0.0
 11
3613.138497318025
 21
2337.089829419158
 31
0.0
  0
INSERT
  5
5830
330
5820
100
AcDbEntity
  8
AM_5 寸法線
 62
     3
100
AcDbBlockReference
  2
_Open30
 10
3430.638497318025
 20
2337.089829419158
 30
0.0
 41
37.5
 42
37.5
 43
37.5
 50
180.0
  0
INSERT
  5
5831
330
5820
100
AcDbEntity
  8
AM_5 寸法線
 62
     3
100
AcDbBlockReference
  2
_Open30
 10
3650.638497318025
 20
2337.089829419158
 30
0.0
 41
37.5
 42
37.5
 43
37.5
  0
MTEXT
  5
5832
330
5820
100
AcDbEntity
  8
AM_5 寸法線
 62
     3
100
AcDbMText
 10
3540.638497318024
 20
2385.839829419158
 30
0.0
 40
52.5
 41
0.0
 46
0.0
 71
     5
 72
     1
  1
220
  7
SEISA
 73
     1
 44
1.0
  0
POINT
  5
5833
330
5820
100
AcDbEntity
  8
Defpoints
 62
     0
100
AcDbPoint
 10
3430.638497318025
 20
2697.089829419159
 30
0.0
  0
POINT
  5
5834
330
5820
100
AcDbEntity
  8
Defpoints
 62
     0
100
AcDbPoint
 10
3650.638497318025
 20
2794.089829419159
 30
0.0
  0
POINT
  5
5835
330
5820
100
AcDbEntity
  8
Defpoints
 62
     0
100
AcDbPoint
 10
3650.638497318025
 20
2337.089829419158
 30
0.0
  0
ENDBLK
  5
5822
330
5820
100
AcDbEntity
  8
0
100
AcDbBlockEnd
  0
BLOCK
  5
5839
330
5838
100
AcDbEntity
  8
0
100
AcDbBlockBegin
  2
*D25
 70
     1
 10
0.0
 20
0.0
 30
0.0
  3
*D25
  1

  0
LINE
  5
5845
330
5838
100
AcDbEntity
  8
AM_5 寸法線
 62
     3
100
AcDbLine
 10
2490.638497318025
 20
2752.714829419158
 30
0.0
 11
2490.638497318025
 21
2212.714829419159
 31
0.0
  0
LINE
  5
5846
330
5838
100
AcDbEntity
  8
AM_5 寸法線
 62
     3
100
AcDbLine
 10
3650.638497318025
 20
2784.714829419158
 30
0.0
 11
3650.638497318025
 21
2212.714829419159
 31
0.0
  0
LINE
  5
5847
330
5838
100
AcDbEntity
  8
AM_5 寸法線
 62
     3
100
AcDbLine
 10
2528.138497318025
 20
2222.089829419159
 30
0.0
 11
3613.138497318025
 21
2222.089829419159
 31
0.0
  0
INSERT
  5
5848
330
5838
100
AcDbEntity
  8
AM_5 寸法線
 62
     3
100
AcDbBlockReference
  2
_Open30
 10
2490.638497318025
 20
2222.089829419159
 30
0.0
 41
37.5
 42
37.5
 43
37.5
 50
180.0
  0
INSERT
  5
5849
330
5838
100
AcDbEntity
  8
AM_5 寸法線
 62
     3
100
AcDbBlockReference
  2
_Open30
 10
3650.638497318025
 20
2222.089829419159
 30
0.0
 41
37.5
 42
37.5
 43
37.5
  0
MTEXT
  5
584A
330
5838
100
AcDbEntity
  8
AM_5 寸法線
 62
     3
100
AcDbMText
 10
3070.638497318025
 20
2270.839829419159
 30
0.0
 40
52.5
 41
0.0
 46
0.0
 71
     5
 72
     1
  1
1160
  7
SEISA
 73
     1
 44
1.0
  0
POINT
  5
584B
330
5838
100
AcDbEntity
  8
Defpoints
 62
     0
100
AcDbPoint
 10
2490.638497318025
 20
2762.089829419159
 30
0.0
  0
POINT
  5
584C
330
5838
100
AcDbEntity
  8
Defpoints
 62
     0
100
AcDbPoint
 10
3650.638497318025
 20
2794.089829419159
 30
0.0
  0
POINT
  5
584D
330
5838
100
AcDbEntity
  8
Defpoints
 62
     0
100
AcDbPoint
 10
3650.638497318025
 20
2222.089829419159
 30
0.0
  0
ENDBLK
  5
583A
330
5838
100
AcDbEntity
  8
0
100
AcDbBlockEnd
  0
BLOCK
  5
6A56
330
6A55
100
AcDbEntity
  8
0
100
AcDbBlockBegin
  2
*D26
 70
     1
 10
0.0
 20
0.0
 30
0.0
  3
*D26
  1

  0
LINE
  5
6C4B
330
6A55
100
AcDbEntity
  8
AM_5 寸法線
 62
     3
100
AcDbLine
 10
3090.638497318025
 20
3597.714829419159
 30
0.0
 11
3090.638497318025
 21
3492.156150081298
 31
0.0
  0
LINE
  5
6C4C
330
6A55
100
AcDbEntity
  8
AM_5 寸法線
 62
     3
100
AcDbLine
 10
3230.638497318025
 20
3603.214829419159
 30
0.0
 11
3230.638497318025
 21
3492.156150081298
 31
0.0
  0
LINE
  5
6C4D
330
6A55
100
AcDbEntity
  8
AM_5 寸法線
 62
     3
100
AcDbLine
 10
3128.138497318025
 20
3501.531150081298
 30
0.0
 11
3230.638497318025
 21
3501.531150081298
 31
0.0
  0
MTEXT
  5
6C4E
330
6A55
100
AcDbEntity
  8
AM_5 寸法線
 62
     3
100
AcDbMText
 10
3156.316983075035
 20
3544.314550560572
 30
0.0
 40
52.5
 41
0.0
 46
0.0
 71
     5
 72
     1
  1
140
  7
SEISA
 73
     1
 44
1.0
  0
INSERT
  5
6C4F
330
6A55
100
AcDbEntity
  8
AM_5 寸法線
 62
     3
100
AcDbBlockReference
  2
_Open30
 10
3090.638497318025
 20
3501.531150081298
 30
0.0
 41
37.5
 42
37.5
 43
37.5
  0
LINE
  5
6C50
330
6A55
100
AcDbEntity
  8
AM_5 寸法線
 62
     3
100
AcDbLine
 10
3053.138497318025
 20
3501.531150081298
 30
0.0
 11
3015.638497318025
 21
3501.531150081298
 31
0.0
  0
LINE
  5
6C51
330
6A55
100
AcDbEntity
  8
AM_5 寸法線
 62
     3
100
AcDbLine
 10
3090.638497318025
 20
3501.531150081298
 30
0.0
 11
3128.138497318025
 21
3501.531150081298
 31
0.0
  0
INSERT
  5
6C52
330
6A55
100
AcDbEntity
  8
AM_5 寸法線
 62
     3
100
AcDbBlockReference
  2
_DotSmall
 10
3230.638497318025
 20
3501.531150081298
 30
0.0
 41
37.5
 42
37.5
 43
37.5
  0
POINT
  5
6C53
330
6A55
100
AcDbEntity
  8
Defpoints
 62
     0
100
AcDbPoint
 10
3090.638497318025
 20
3607.089829419159
 30
0.0
  0
POINT
  5
6C54
330
6A55
100
AcDbEntity
  8
Defpoints
 62
     0
100
AcDbPoint
 10
3230.638497318025
 20
3612.589829419159
 30
0.0
  0
POINT
  5
6C55
330
6A55
100
AcDbEntity
  8
Defpoints
 62
     0
100
AcDbPoint
 10
3230.638497318025
 20
3501.531150081298
 30
0.0
  0
ENDBLK
  5
6A57
330
6A55
100
AcDbEntity
  8
0
100
AcDbBlockEnd
  0
BLOCK
  5
6A84
330
6A83
100
AcDbEntity
  8
0
100
AcDbBlockBegin
  2
*D27
 70
     1
 10
0.0
 20
0.0
 30
0.0
  3
*D27
  1

  0
LINE
  5
6C25
330
6A83
100
AcDbEntity
  8
AM_5 寸法線
 62
     3
100
AcDbLine
 10
3230.638497318025
 20
3603.214829419159
 30
0.0
 11
3230.638497318025
 21
3492.156150081298
 31
0.0
  0
LINE
  5
6C26
330
6A83
100
AcDbEntity
  8
AM_5 寸法線
 62
     3
100
AcDbLine
 10
3382.638497318025
 20
3603.214829419159
 30
0.0
 11
3382.638497318025
 21
3492.156150081298
 31
0.0
  0
LINE
  5
6C27
330
6A83
100
AcDbEntity
  8
AM_5 寸法線
 62
     3
100
AcDbLine
 10
3230.638497318025
 20
3501.531150081298
 30
0.0
 11
3193.138497318025
 21
3501.531150081298
 31
0.0
  0
LINE
  5
6C28
330
6A83
100
AcDbEntity
  8
AM_5 寸法線
 62
     3
100
AcDbLine
 10
3382.638497318025
 20
3501.531150081298
 30
0.0
 11
3420.138497318025
 21
3501.531150081298
 31
0.0
  0
MTEXT
  5
6C29
330
6A83
100
AcDbEntity
  8
AM_5 寸法線
 62
     3
100
AcDbMText
 10
3300.345668275463
 20
3545.280031563738
 30
0.0
 40
52.5
 41
0.0
 46
0.0
 71
     5
 72
     1
  1
152
  7
SEISA
 73
     1
 44
1.0
  0
LINE
  5
6C2A
330
6A83
100
AcDbEntity
  8
AM_5 寸法線
 62
     3
100
AcDbLine
 10
3230.638497318025
 20
3501.531150081298
 30
0.0
 11
3382.638497318025
 21
3501.531150081298
 31
0.0
  0
INSERT
  5
6C2B
330
6A83
100
AcDbEntity
  8
AM_5 寸法線
 62
     3
100
AcDbBlockReference
  2
_DotSmall
 10
3230.638497318025
 20
3501.531150081298
 30
0.0
 41
37.5
 42
37.5
 43
37.5
  0
INSERT
  5
6C2C
330
6A83
100
AcDbEntity
  8
AM_5 寸法線
 62
     3
100
AcDbBlockReference
  2
_DotSmall
 10
3382.638497318025
 20
3501.531150081298
 30
0.0
 41
37.5
 42
37.5
 43
37.5
 50
180.0
  0
POINT
  5
6C2D
330
6A83
100
AcDbEntity
  8
Defpoints
 62
     0
100
AcDbPoint
 10
3230.638497318025
 20
3612.589829419159
 30
0.0
  0
POINT
  5
6C2E
330
6A83
100
AcDbEntity
  8
Defpoints
 62
     0
100
AcDbPoint
 10
3382.638497318025
 20
3612.589829419159
 30
0.0
  0
POINT
  5
6C2F
330
6A83
100
AcDbEntity
  8
Defpoints
 62
     0
100
AcDbPoint
 10
3382.638497318025
 20
3501.531150081298
 30
0.0
  0
ENDBLK
  5
6A85
330
6A83
100
AcDbEntity
  8
0
100
AcDbBlockEnd
  0
BLOCK
  5
6AEF
330
6AED
100
AcDbEntity
  8
0
100
AcDbBlockBegin
  2
_DotSmall
 70
     0
 10
0.0
 20
0.0
 30
0.0
  3
_DotSmall
  1

  0
LWPOLYLINE
  5
6AEE
330
6AED
100
AcDbEntity
  8
0
  6
ByBlock
 62
     0
100
AcDbPolyline
 90
        2
 70
     1
 43
0.5
 10
-0.0625
 20
0.0
 42
1.0
 10
0.0625
 20
0.0
 42
1.0
  0
ENDBLK
  5
6AF0
330
6AED
100
AcDbEntity
  8
0
100
AcDbBlockEnd
  0
BLOCK
  5
6B6F
330
6B6E
100
AcDbEntity
  8
0
100
AcDbBlockBegin
  2
*D29
 70
     1
 10
0.0
 20
0.0
 30
0.0
  3
*D29
  1

  0
LINE
  5
6B94
330
6B6E
100
AcDbEntity
  8
AM_5 寸法線
 62
     3
100
AcDbLine
 10
3650.638497318025
 20
3599.464829419158
 30
0.0
 11
3650.638497318025
 21
3921.464829419159
 31
0.0
  0
LINE
  5
6B95
330
6B6E
100
AcDbEntity
  8
AM_5 寸法線
 62
     3
100
AcDbLine
 10
3750.638497318025
 20
3696.464829419158
 30
0.0
 11
3750.638497318025
 21
3921.464829419159
 31
0.0
  0
LINE
  5
6B96
330
6B6E
100
AcDbEntity
  8
AM_5 寸法線
 62
     3
100
AcDbLine
 10
3613.138497318025
 20
3912.089829419159
 30
0.0
 11
3575.638497318025
 21
3912.089829419159
 31
0.0
  0
LINE
  5
6B97
330
6B6E
100
AcDbEntity
  8
AM_5 寸法線
 62
     3
100
AcDbLine
 10
3788.138497318025
 20
3912.089829419159
 30
0.0
 11
3985.388497318025
 21
3912.089829419159
 31
0.0
  0
LINE
  5
6B98
330
6B6E
100
AcDbEntity
  8
AM_5 寸法線
 62
     3
100
AcDbLine
 10
3650.638497318025
 20
3912.089829419159
 30
0.0
 11
3750.638497318025
 21
3912.089829419159
 31
0.0
  0
INSERT
  5
6B99
330
6B6E
100
AcDbEntity
  8
AM_5 寸法線
 62
     3
100
AcDbBlockReference
  2
_Open30
 10
3650.638497318025
 20
3912.089829419159
 30
0.0
 41
37.5
 42
37.5
 43
37.5
  0
INSERT
  5
6B9A
330
6B6E
100
AcDbEntity
  8
AM_5 寸法線
 62
     3
100
AcDbBlockReference
  2
_Open30
 10
3750.638497318025
 20
3912.089829419159
 30
0.0
 41
37.5
 42
37.5
 43
37.5
 50
180.0
  0
MTEXT
  5
6B9B
330
6B6E
100
AcDbEntity
  8
AM_5 寸法線
 62
     3
100
AcDbMText
 10
3905.513497318025
 20
3960.839829419159
 30
0.0
 40
52.5
 41
0.0
 46
0.0
 71
     5
 72
     1
  1
100
  7
SEISA
 73
     1
 44
1.0
  0
POINT
  5
6B9C
330
6B6E
100
AcDbEntity
  8
Defpoints
 62
     0
100
AcDbPoint
 10
3650.638497318025
 20
3590.089829419158
 30
0.0
  0
POINT
  5
6B9D
330
6B6E
100
AcDbEntity
  8
Defpoints
 62
     0
100
AcDbPoint
 10
3750.638497318025
 20
3687.089829419158
 30
0.0
  0
POINT
  5
6B9E
330
6B6E
100
AcDbEntity
  8
Defpoints
 62
     0
100
AcDbPoint
 10
3750.638497318025
 20
3912.089829419159
 30
0.0
  0
ENDBLK
  5
6B70
330
6B6E
100
AcDbEntity
  8
0
100
AcDbBlockEnd
  0
BLOCK
  5
6CA5
330
6CA4
100
AcDbEntity
  8
0
100
AcDbBlockBegin
  2
*D30
 70
     1
 10
0.0
 20
0.0
 30
0.0
  3
*D30
  1

  0
LINE
  5
6CCD
330
6CA4
100
AcDbEntity
  8
AM_5 寸法線
 62
     3
100
AcDbLine
 10
2501.263497318025
 20
3642.089829419159
 30
0.0
 11
2276.263497318025
 21
3642.089829419159
 31
0.0
  0
LINE
  5
6CCE
330
6CA4
100
AcDbEntity
  8
AM_5 寸法線
 62
     3
100
AcDbLine
 10
2501.263497318025
 20
2742.089829419159
 30
0.0
 11
2276.263497318025
 21
2742.089829419159
 31
0.0
  0
LINE
  5
6CCF
330
6CA4
100
AcDbEntity
  8
AM_5 寸法線
 62
     3
100
AcDbLine
 10
2285.638497318025
 20
3604.589829419159
 30
0.0
 11
2285.638497318025
 21
2779.589829419159
 31
0.0
  0
INSERT
  5
6CD0
330
6CA4
100
AcDbEntity
  8
AM_5 寸法線
 62
     3
100
AcDbBlockReference
  2
_Open30
 10
2285.638497318025
 20
3642.089829419159
 30
0.0
 41
37.5
 42
37.5
 43
37.5
 50
90.0
  0
INSERT
  5
6CD1
330
6CA4
100
AcDbEntity
  8
AM_5 寸法線
 62
     3
100
AcDbBlockReference
  2
_Open30
 10
2285.638497318025
 20
2742.089829419159
 30
0.0
 41
37.5
 42
37.5
 43
37.5
 50
270.0
  0
MTEXT
  5
6CD2
330
6CA4
100
AcDbEntity
  8
AM_5 寸法線
 62
     3
100
AcDbMText
 10
2236.888497318024
 20
3192.089829419159
 30
0.0
 40
52.5
 41
0.0
 46
0.0
 71
     5
 72
     1
  1
%%c900
  7
SEISA
 11
0.0000000000000001
 21
1.0
 31
0.0
 73
     1
 44
1.0
  0
POINT
  5
6CD3
330
6CA4
100
AcDbEntity
  8
Defpoints
 62
     0
100
AcDbPoint
 10
2510.638497318025
 20
3642.089829419159
 30
0.0
  0
POINT
  5
6CD4
330
6CA4
100
AcDbEntity
  8
Defpoints
 62
     0
100
AcDbPoint
 10
2510.638497318025
 20
2742.089829419159
 30
0.0
  0
POINT
  5
6CD5
330
6CA4
100
AcDbEntity
  8
Defpoints
 62
     0
100
AcDbPoint
 10
2285.638497318025
 20
2742.089829419159
 30
0.0
  0
ENDBLK
  5
6CA6
330
6CA4
100
AcDbEntity
  8
0
100
AcDbBlockEnd
  0
BLOCK
  5
6D8C
330
6D8B
100
AcDbEntity
  8
0
100
AcDbBlockBegin
  2
ＧＣサイドカバ－ CEM1120
 70
     0
 10
0.0
 20
0.0
 30
0.0
  3
ＧＣサイドカバ－ CEM1120
  1

  0
LINE
  5
6D8E
330
6D8B
100
AcDbEntity
  8
AM_11 想像線
 48
0.1
100
AcDbLine
 10
-35.0
 20
-72.5
 30
0.0
 11
-35.0
 21
-43.5
 31
0.0
  0
LINE
  5
6D8F
330
6D8B
100
AcDbEntity
  8
AM_11 想像線
 48
0.1
100
AcDbLine
 10
0.0
 20
-36.30000000000018
 30
0.0
 11
0.0
 21
-72.5
 31
0.0
  0
LINE
  5
6D90
330
6D8B
100
AcDbEntity
  8
AM_11 想像線
 48
0.1
100
AcDbLine
 10
-28.0
 20
-72.5
 30
0.0
 11
-35.0
 21
-72.5
 31
0.0
  0
LINE
  5
6D91
330
6D8B
100
AcDbEntity
  8
AM_11 想像線
 48
0.1
100
AcDbLine
 10
-28.0
 20
-62.70000000000027
 30
0.0
 11
-28.0
 21
-72.5
 31
0.0
  0
LINE
  5
6D92
330
6D8B
100
AcDbEntity
  8
AM_11 想像線
 48
0.1
100
AcDbLine
 10
-7.0
 20
-62.70000000000027
 30
0.0
 11
-28.0
 21
-62.70000000000027
 31
0.0
  0
LINE
  5
6D93
330
6D8B
100
AcDbEntity
  8
AM_11 想像線
 48
0.1
100
AcDbLine
 10
-7.0
 20
-72.5
 30
0.0
 11
-7.0
 21
-62.70000000000027
 31
0.0
  0
LINE
  5
6D94
330
6D8B
100
AcDbEntity
  8
AM_11 想像線
 48
0.1
100
AcDbLine
 10
0.0
 20
-72.5
 30
0.0
 11
-7.0
 21
-72.5
 31
0.0
  0
LINE
  5
6D95
330
6D8B
100
AcDbEntity
  8
AM_11 想像線
 48
0.1
100
AcDbLine
 10
-35.0
 20
-72.5
 30
0.0
 11
-35.0
 21
-75.0
 31
0.0
  0
LINE
  5
6D96
330
6D8B
100
AcDbEntity
  8
AM_11 想像線
 48
0.1
100
AcDbLine
 10
-28.0
 20
-72.5
 30
0.0
 11
-28.0
 21
-75.0
 31
0.0
  0
LINE
  5
6D97
330
6D8B
100
AcDbEntity
  8
AM_11 想像線
 48
0.1
100
AcDbLine
 10
-7.0
 20
-72.5
 30
0.0
 11
-7.0
 21
-75.0
 31
0.0
  0
LINE
  5
6D98
330
6D8B
100
AcDbEntity
  8
AM_11 想像線
 48
0.1
100
AcDbLine
 10
0.0
 20
-72.5
 30
0.0
 11
0.0
 21
-75.0
 31
0.0
  0
LINE
  5
6D99
330
6D8B
100
AcDbEntity
  8
AM_11 想像線
 48
0.1
100
AcDbLine
 10
-35.0
 20
-21.0
 30
0.0
 11
6.008259554700543
 21
-21.0
 31
0.0
  0
LINE
  5
6D9A
330
6D8B
100
AcDbEntity
  8
AM_11 想像線
 48
0.1
100
AcDbLine
 10
-23.5
 20
-43.5
 30
0.0
 11
-35.0
 21
-43.5
 31
0.0
  0
LINE
  5
6D9B
330
6D8B
100
AcDbEntity
  8
AM_11 想像線
 48
0.1
100
AcDbLine
 10
-23.5
 20
-36.30000000000018
 30
0.0
 11
-23.5
 21
-43.5
 31
0.0
  0
LINE
  5
6D9C
330
6D8B
100
AcDbEntity
  8
AM_11 想像線
 48
0.1
100
AcDbLine
 10
-28.0
 20
-36.30000000000018
 30
0.0
 11
-23.5
 21
-36.30000000000018
 31
0.0
  0
LINE
  5
6D9D
330
6D8B
100
AcDbEntity
  8
AM_11 想像線
 48
0.1
100
AcDbLine
 10
0.0
 20
-36.30000000000018
 30
0.0
 11
0.0
 21
0.0
 31
0.0
  0
LINE
  5
6D9E
102
{ACAD_REACTORS
330
6B7D
102
}
330
6D8B
100
AcDbEntity
  8
AM_11 想像線
 48
0.1
100
AcDbLine
 10
0.0
 20
0.0
 30
0.0
 11
-28.0
 21
0.0
 31
0.0
  0
LINE
  5
6D9F
330
6D8B
100
AcDbEntity
  8
AM_11 想像線
 48
0.1
100
AcDbLine
 10
-28.0
 20
0.0
 30
0.0
 11
-28.0
 21
-36.30000000000018
 31
0.0
  0
ENDBLK
  5
6D8D
330
6D8B
100
AcDbEntity
  8
0
100
AcDbBlockEnd
  0
ENDSEC
  0
SECTION
  2
ENTITIES
  0
LINE
  5
4475
330
1F
100
AcDbEntity
  8
AM_7 中心線
100
AcDbLine
 10
3697.786202224208
 20
3192.089829419158
 30
0.0
 11
2449.485906318025
 21
3192.089829419158
 31
0.0
  0
LINE
  5
451F
330
1F
100
AcDbEntity
  8
AM_0 外形線1
100
AcDbLine
 10
3402.638497318025
 20
3192.089829419158
 30
0.0
 11
3402.638497318025
 21
2697.089829419159
 31
0.0
  0
INSERT
  5
4BCE
102
{ACAD_REACTORS
330
571C
330
57D2
330
57EE
330
5806
330
581E
102
}
330
1F
100
AcDbEntity
  8
AM_0 外形線1
100
AcDbBlockReference
  2
ケースＡ CEMH1120
 10
3070.638497318025
 20
3192.089829419158
 30
0.0
  0
INSERT
  5
4D1A
102
{ACAD_REACTORS
330
5481
330
549D
330
57D2
330
5806
330
584E
330
6CB1
102
}
330
1F
100
AcDbEntity
  8
AM_0 外形線1
100
AcDbBlockReference
  2
リジット CEMH1120
 10
3070.638497318025
 20
3192.089829419158
 30
0.0
  0
INSERT
  5
4E33
330
1F
100
AcDbEntity
  8
AM_0 外形線1
100
AcDbBlockReference
  2
リーマボルト CEMH1120 M36
 10
3130.638497318025
 20
3718.089829419159
 30
0.0
  0
INSERT
  5
4F75
102
{ACAD_REACTORS
330
549D
330
54B5
330
5594
330
56EC
330
5836
330
584E
330
6A63
330
6A91
330
6B7D
102
}
330
1F
100
AcDbEntity
  8
AM_0 外形線1
100
AcDbBlockReference
  2
センタ CEMH1120
 10
3090.638497318025
 20
3192.089829419158
 30
0.0
  0
INSERT
  5
50E4
102
{ACAD_REACTORS
330
5594
330
5704
330
581E
330
5836
102
}
330
1F
100
AcDbEntity
  8
AM_0 外形線1
100
AcDbBlockReference
  2
ＧＣサイドカバ－ CEMH1120
 10
3402.638497318025
 20
3192.089829419158
 30
0.0
  0
DIMENSION
  5
546A
102
{ACAD_XDICTIONARY
360
5477
102
}
102
{ACAD_REACTORS
330
5481
102
}
330
1F
100
AcDbEntity
  8
AM_5 寸法線
100
AcDbDimension
  2
*D13
 10
2490.638497318025
 20
3289.354886419157
 30
0.0
 11
2770.638497318025
 21
3338.104886419158
 31
0.0
 70
    32
 71
     5
 42
560.0
 73
     0
 74
     0
 75
     0
  3
SEISA$0
100
AcDbAlignedDimension
 13
3050.638497318025
 23
3192.089829419158
 33
0.0
 14
2490.638497318025
 24
3192.089829419158
 34
0.0
100
AcDbRotatedDimension
  0
DIMENSION
  5
5482
102
{ACAD_XDICTIONARY
360
5491
102
}
102
{ACAD_REACTORS
330
549D
102
}
330
1F
100
AcDbEntity
  8
AM_5 寸法線
100
AcDbDimension
  2
*D14
 10
3050.638497318025
 20
3289.354886419157
 30
0.0
 11
3170.47860587269
 21
3336.768378934361
 31
0.0
 70
   160
 71
     5
 42
40.0
 73
     0
 74
     0
 75
     0
  3
SEISA$0
100
AcDbAlignedDimension
 13
3090.638497318025
 23
3192.089829419158
 33
0.0
 14
3050.638497318025
 24
3192.089829419158
 34
0.0
100
AcDbRotatedDimension
1001
ACAD
1000
DSTYLE
1002
{
1070
   279
1070
     2
1002
}
  0
DIMENSION
  5
549E
102
{ACAD_XDICTIONARY
360
54AB
102
}
102
{ACAD_REACTORS
330
54B5
102
}
330
1F
100
AcDbEntity
  8
AM_5 寸法線
100
AcDbDimension
  2
*D15
 10
3650.638497318026
 20
3289.354886419157
 30
0.0
 11
3370.638497318025
 21
3338.104886419158
 31
0.0
 70
    32
 71
     5
 42
560.0000000000003
 73
     0
 74
     0
 75
     0
  3
SEISA$0
100
AcDbAlignedDimension
 13
3090.638497318025
 23
3192.089829419158
 33
0.0
 14
3650.638497318026
 24
3192.089829419158
 34
0.0
100
AcDbRotatedDimension
  0
DIMENSION
  5
5579
102
{ACAD_XDICTIONARY
360
5588
102
}
102
{ACAD_REACTORS
330
5594
102
}
330
1F
100
AcDbEntity
  8
AM_5 寸法線
100
AcDbDimension
  2
*D16
 10
3382.638497318025
 20
3501.531150081298
 30
0.0
 11
3528.013497318025
 21
3501.531150081298
 31
0.0
 70
   160
 71
     5
 42
13.0
 73
     0
 74
     0
 75
     0
  3
SEISA$0
100
AcDbAlignedDimension
 13
3395.638497318025
 23
3612.089829419158
 33
0.0
 14
3382.638497318025
 24
3612.589829419159
 34
0.0
100
AcDbRotatedDimension
1001
ACAD
1000
DSTYLE
1002
{
1070
   343
1005
69
1070
   342
1005
0
1070
   173
1070
     1
1070
   344
1005
6AED
1002
}
  0
DIMENSION
  5
56D5
102
{ACAD_XDICTIONARY
360
56E2
102
}
102
{ACAD_REACTORS
330
56EC
102
}
330
1F
100
AcDbEntity
  8
AM_5 寸法線
100
AcDbDimension
  2
*D17
 10
3950.638497318024
 20
2772.089829419159
 30
0.0
 11
3901.888497318024
 21
3192.089829419159
 31
0.0
 70
    32
  1
%%c<>
 71
     5
 42
839.9999999999995
 73
     0
 74
     0
 75
     0
  3
SEISA$0
100
AcDbAlignedDimension
 13
3470.638497318025
 23
3612.089829419158
 33
0.0
 14
3470.638497318025
 24
2772.089829419159
 34
0.0
 50
90.0
100
AcDbRotatedDimension
1001
ACAD_DSTYLE_DIMINSPECT
1070
   396
1000
100%
1070
   395
1000

1070
   394
1070
    33
1070
   393
1070
     0
1001
ACAD
1000
DSTYLE
1002
{
1070
   279
1070
     0
1002
}
  0
DIMENSION
  5
56ED
102
{ACAD_XDICTIONARY
360
56FA
102
}
102
{ACAD_REACTORS
330
5704
102
}
330
1F
100
AcDbEntity
  8
AM_5 寸法線
100
AcDbDimension
  2
*D18
 10
4070.638497318024
 20
2697.089829419159
 30
0.0
 11
4070.638497318024
 21
3192.089829419159
 31
0.0
 70
   160
  1
%%c<>
 71
     5
 42
989.9999999999996
 73
     0
 74
     0
 75
     0
  3
SEISA$0
100
AcDbAlignedDimension
 13
3430.638497318025
 23
3687.089829419158
 33
0.0
 14
3430.638497318025
 24
2697.089829419159
 34
0.0
 50
90.0
100
AcDbRotatedDimension
1001
ACAD
1000
DSTYLE
1002
{
1070
   279
1070
     0
1002
}
1001
ACAD_DSTYLE_DIMINSPECT
1070
   396
1000
100%
1070
   395
1000

1070
   394
1070
    33
1070
   393
1070
     0
  0
DIMENSION
  5
5705
102
{ACAD_XDICTIONARY
360
5712
102
}
102
{ACAD_REACTORS
330
571C
102
}
330
1F
100
AcDbEntity
  8
AM_5 寸法線
100
AcDbDimension
  2
*D19
 10
4190.638497318024
 20
2632.089829419158
 30
0.0
 11
4190.638497318023
 21
3192.089829419159
 31
0.0
 70
   160
  1
%%c<>
 71
     5
 42
1120.0
 73
     0
 74
     0
 75
     0
  3
SEISA$0
100
AcDbAlignedDimension
 13
3128.638497318025
 23
3752.089829419158
 33
0.0
 14
3128.638497318025
 24
2632.089829419158
 34
0.0
 50
90.0
100
AcDbRotatedDimension
1001
ACAD
1000
DSTYLE
1002
{
1070
   279
1070
     0
1002
}
1001
ACAD_DSTYLE_DIMINSPECT
1070
   396
1000
100%
1070
   395
1000

1070
   394
1070
    33
1070
   393
1070
     0
  0
DIMENSION
  5
57B7
102
{ACAD_XDICTIONARY
360
57C6
102
}
102
{ACAD_REACTORS
330
57D2
102
}
330
1F
100
AcDbEntity
  8
AM_5 寸法線
100
AcDbDimension
  2
*D20
 10
3010.638497318025
 20
2452.089829419159
 30
0.0
 11
2876.013497318025
 21
2500.839829419158
 31
0.0
 70
    32
 71
     5
 42
60.0
 73
     0
 74
     0
 75
     0
  3
SEISA$0
100
AcDbAlignedDimension
 13
3070.638497318025
 23
2634.089829419159
 33
0.0
 14
3010.638497318025
 24
2635.089829419158
 34
0.0
100
AcDbRotatedDimension
1001
ACAD_DSTYLE_DIMINSPECT
1070
   396
1000
100%
1070
   395
1000

1070
   394
1070
    33
1070
   393
1070
     0
1001
ACAD
1000
DSTYLE
1002
{
1070
   173
1070
     1
1070
   342
1005
0
1070
   343
1005
3B1B
1070
   344
1005
69
1002
}
  0
DIMENSION
  5
57D3
102
{ACAD_XDICTIONARY
360
57E2
102
}
102
{ACAD_REACTORS
330
57EE
102
}
330
1F
100
AcDbEntity
  8
AM_5 寸法線
100
AcDbDimension
  2
*D21
 10
3130.638497318025
 20
2452.089829419159
 30
0.0
 11
3265.263497318025
 21
2500.839829419158
 31
0.0
 70
    32
 71
     5
 42
60.0
 73
     0
 74
     0
 75
     0
  3
SEISA$0
100
AcDbAlignedDimension
 13
3070.638497318025
 23
2634.089829419159
 33
0.0
 14
3130.638497318025
 24
2634.089829419159
 34
0.0
100
AcDbRotatedDimension
1001
ACAD_DSTYLE_DIMINSPECT
1070
   396
1000
100%
1070
   395
1000

1070
   394
1070
    33
1070
   393
1070
     0
1001
ACAD
1000
DSTYLE
1002
{
1070
   173
1070
     1
1070
   342
1005
0
1070
   343
1005
3B1B
1070
   344
1005
69
1002
}
  0
DIMENSION
  5
57EF
102
{ACAD_XDICTIONARY
360
57FC
102
}
102
{ACAD_REACTORS
330
5806
102
}
330
1F
100
AcDbEntity
  8
AM_5 寸法線
100
AcDbDimension
  2
*D22
 10
2490.638497318025
 20
2337.089829419158
 30
0.0
 11
2780.638497318025
 21
2385.839829419158
 31
0.0
 70
    32
 71
     5
 42
580.0
 73
     0
 74
     0
 75
     0
  3
SEISA$0
100
AcDbAlignedDimension
 13
3070.638497318025
 23
2634.089829419159
 33
0.0
 14
2490.638497318025
 24
2762.089829419159
 34
0.0
100
AcDbRotatedDimension
  0
DIMENSION
  5
5807
102
{ACAD_XDICTIONARY
360
5814
102
}
102
{ACAD_REACTORS
330
581E
102
}
330
1F
100
AcDbEntity
  8
AM_5 寸法線
100
AcDbDimension
  2
*D23
 10
3430.638497318025
 20
2337.089829419158
 30
0.0
 11
3250.638497318025
 21
2385.839829419158
 31
0.0
 70
    32
 71
     5
 42
360.0
 73
     0
 74
     0
 75
     0
  3
SEISA$0
100
AcDbAlignedDimension
 13
3070.638497318025
 23
2634.089829419159
 33
0.0
 14
3430.638497318025
 24
2697.089829419159
 34
0.0
100
AcDbRotatedDimension
  0
DIMENSION
  5
581F
102
{ACAD_XDICTIONARY
360
582C
102
}
102
{ACAD_REACTORS
330
5836
102
}
330
1F
100
AcDbEntity
  8
AM_5 寸法線
100
AcDbDimension
  2
*D24
 10
3650.638497318025
 20
2337.089829419158
 30
0.0
 11
3540.638497318024
 21
2385.839829419158
 31
0.0
 70
    32
 71
     5
 42
220.0
 73
     0
 74
     0
 75
     0
  3
SEISA$0
100
AcDbAlignedDimension
 13
3430.638497318025
 23
2697.089829419159
 33
0.0
 14
3650.638497318025
 24
2794.089829419159
 34
0.0
100
AcDbRotatedDimension
  0
DIMENSION
  5
5837
102
{ACAD_XDICTIONARY
360
5844
102
}
102
{ACAD_REACTORS
330
584E
102
}
330
1F
100
AcDbEntity
  8
AM_5 寸法線
100
AcDbDimension
  2
*D25
 10
3650.638497318025
 20
2222.089829419159
 30
0.0
 11
3070.638497318025
 21
2270.839829419159
 31
0.0
 70
    32
 71
     5
 42
1160.0
 73
     0
 74
     0
 75
     0
  3
SEISA$0
100
AcDbAlignedDimension
 13
2490.638497318025
 23
2762.089829419159
 33
0.0
 14
3650.638497318025
 24
2794.089829419159
 34
0.0
100
AcDbRotatedDimension
  0
MTEXT
  5
698A
330
1F
100
AcDbEntity
  8
AM_6 文字
100
AcDbMText
 10
3761.500197325569
 20
2545.236014043786
 30
0.0
 40
52.5
 41
1316.331543888581
 46
272.7271195727019
 71
     1
 72
     5
  1
{\W0.6;TYPE:CEM1120/CEMH1120\PSHAFT DIA:MAX/MIN \P RIGID SIDE φ640/φ400\P COUPLING CENTER SIDE φ600/φ400}
  7
SEISA
 73
     1
 44
1.0
  0
DIMENSION
  5
6A54
102
{ACAD_XDICTIONARY
360
6A62
102
}
102
{ACAD_REACTORS
330
6A63
102
}
330
1F
100
AcDbEntity
  8
AM_5 寸法線
100
AcDbDimension
  2
*D26
 10
3230.638497318025
 20
3501.531150081298
 30
0.0
 11
3156.316983075035
 21
3544.314550560572
 31
0.0
 70
   160
 71
     5
 42
140.0
 73
     0
 74
     1
 75
     0
  3
SEISA$0
100
AcDbAlignedDimension
 13
3090.638497318025
 23
3607.089829419159
 33
0.0
 14
3230.638497318025
 24
3612.589829419159
 34
0.0
 50
0.0000000000001132
100
AcDbRotatedDimension
1001
ACAD_DSTYLE_DIMINSPECT
1070
   396
1000
100%
1070
   395
1000

1070
   394
1070
    33
1070
   393
1070
     0
1001
ACAD
1000
DSTYLE
1002
{
1070
   343
1005
69
1070
   342
1005
0
1070
   173
1070
     1
1070
   344
1005
6AED
1070
   279
1070
     2
1002
}
  0
DIMENSION
  5
6A82
102
{ACAD_XDICTIONARY
360
6A90
102
}
102
{ACAD_REACTORS
330
6A91
102
}
330
1F
100
AcDbEntity
  8
AM_5 寸法線
100
AcDbDimension
  2
*D27
 10
3382.638497318025
 20
3501.531150081298
 30
0.0
 11
3300.345668275463
 21
3545.280031563738
 31
0.0
 70
   160
 71
     5
 42
151.9999999999995
 73
     0
 74
     0
 75
     0
  3
SEISA$0
100
AcDbAlignedDimension
 13
3230.638497318025
 23
3612.589829419159
 33
0.0
 14
3382.638497318025
 24
3612.589829419159
 34
0.0
 50
0.0000000000001132
100
AcDbRotatedDimension
1001
ACAD_DSTYLE_DIMINSPECT
1070
   396
1000
100%
1070
   395
1000

1070
   394
1070
    33
1070
   393
1070
     0
1001
ACAD
1000
DSTYLE
1002
{
1070
   344
1005
6AED
1070
   342
1005
0
1070
   173
1070
     1
1070
   343
1005
6AED
1070
   279
1070
     2
1002
}
  0
DIMENSION
  5
6B6D
102
{ACAD_XDICTIONARY
360
6B7C
102
}
102
{ACAD_REACTORS
330
6B7D
102
}
330
1F
100
AcDbEntity
  8
AM_5 寸法線
100
AcDbDimension
  2
*D29
 10
3750.638497318025
 20
3912.089829419159
 30
0.0
 11
3905.513497318025
 21
3960.839829419159
 31
0.0
 70
    32
 71
     5
 42
100.0
 73
     0
 74
     0
 75
     0
  3
SEISA$0
100
AcDbAlignedDimension
 13
3650.638497318025
 23
3590.089829419158
 33
0.0
 14
3750.638497318025
 24
3687.089829419158
 34
0.0
100
AcDbRotatedDimension
1001
ACAD_DSTYLE_DIMINSPECT
1070
   396
1000
100%
1070
   395
1000

1070
   394
1070
    33
1070
   393
1070
     0
  0
DIMENSION
  5
6CA3
102
{ACAD_XDICTIONARY
360
6CB0
102
}
102
{ACAD_REACTORS
330
6CB1
102
}
330
1F
100
AcDbEntity
  8
AM_5 寸法線
100
AcDbDimension
  2
*D30
 10
2285.638497318025
 20
2742.089829419159
 30
0.0
 11
2236.888497318024
 21
3192.089829419159
 31
0.0
 70
    32
  1
%%c<>
 71
     5
 42
900.0
 73
     0
 74
     0
 75
     0
  3
SEISA$0
100
AcDbAlignedDimension
 13
2510.638497318025
 23
3642.089829419159
 33
0.0
 14
2510.638497318025
 24
2742.089829419159
 34
0.0
 50
90.00000000000005
100
AcDbRotatedDimension
1001
ACAD_DSTYLE_DIMINSPECT
1070
   396
1000
100%
1070
   395
1000

1070
   394
1070
    33
1070
   393
1070
     0
  0
INSERT
  5
6DA0
330
1F
100
AcDbEntity
  8
AM_11 想像線
100
AcDbBlockReference
  2
ＧＣサイドカバ－ CEM1120
 10
3750.638497318025
 20
3687.089829419158
 30
0.0
  0
ENDSEC
  0
SECTION
  2
OBJECTS
  0
DICTIONARY
  5
C
330
0
100
AcDbDictionary
281
     1
  3
ACAD_COLOR
350
C5
  3
ACAD_GROUP
350
D
  3
ACAD_LAYOUT
350
1A
  3
ACAD_MATERIAL
350
C4
  3
ACAD_MLEADERSTYLE
350
2D5
  3
ACAD_MLINESTYLE
350
17
  3
ACAD_PLOTSETTINGS
350
19
  3
ACAD_PLOTSTYLENAME
350
E
  3
ACAD_SCALELIST
350
2B3
  3
ACAD_TABLESTYLE
350
121
  3
ACAD_VISUALSTYLE
350
27F
  3
ACDB_RECOMPOSE_DATA
350
2F7
  3
AcDbVariableDictionary
350
34
  3
AcmDictionary
350
49
  3
AMG
350
2B
  3
AMGSNAPSETTINGS
350
1DE
  0
DICTIONARY
  5
BF
330
2
100
AcDbDictionary
280
     1
281
     1
  3
ACAD_LAYERSTATES
360
6982
  3
AMLAYER_GROUPCOLORS
360
C0
  0
DICTIONARY
  5
29F7
330
10
100
AcDbDictionary
280
     1
281
     1
  3
ADSK_XREC_LAYER_RECONCILED
360
29F8
  0
DICTIONARY
  5
29F9
330
81
100
AcDbDictionary
280
     1
281
     1
  3
ADSK_XREC_LAYER_RECONCILED
360
29FA
  0
DICTIONARY
  5
82
330
1F
100
AcDbDictionary
280
     1
281
     1
  3
ACAD_SORTENTS
360
A41
  0
DICTIONARY
  5
4B06
330
4AD8
100
AcDbDictionary
280
     1
281
     1
  3
ACAD_SORTENTS
360
60B5
  0
DICTIONARY
  5
4C60
330
4B93
100
AcDbDictionary
280
     1
281
     1
  3
ACAD_SORTENTS
360
612C
  0
DICTIONARY
  5
4D85
330
4CEA
100
AcDbDictionary
280
     1
281
     1
  3
ACAD_SORTENTS
360
69F4
  0
DICTIONARY
  5
4EA0
330
4E04
100
AcDbDictionary
280
     1
281
     1
  3
ACAD_SORTENTS
360
6287
  0
DICTIONARY
  5
6212
330
4F45
100
AcDbDictionary
280
     1
281
     1
  3
ACAD_SORTENTS
360
6C19
  0
DICTIONARY
  5
5153
330
50AF
100
AcDbDictionary
280
     1
281
     1
  3
ACAD_SORTENTS
360
6D8A
  0
DICTIONARY
  5
5477
330
546A
100
AcDbDictionary
280
     1
281
     1
  3
ACAD_DIMASSOC
360
5481
  0
DICTIONARY
  5
5491
330
5482
100
AcDbDictionary
280
     1
281
     1
  3
ACAD_DIMASSOC
360
549D
  0
DICTIONARY
  5
54AB
330
549E
100
AcDbDictionary
280
     1
281
     1
  3
ACAD_DIMASSOC
360
54B5
  0
DICTIONARY
  5
5588
330
5579
100
AcDbDictionary
280
     1
281
     1
  3
ACAD_DIMASSOC
360
5594
  0
DICTIONARY
  5
56E2
330
56D5
100
AcDbDictionary
280
     1
281
     1
  3
ACAD_DIMASSOC
360
56EC
  0
DICTIONARY
  5
56FA
330
56ED
100
AcDbDictionary
280
     1
281
     1
  3
ACAD_DIMASSOC
360
5704
  0
DICTIONARY
  5
5712
330
5705
100
AcDbDictionary
280
     1
281
     1
  3
ACAD_DIMASSOC
360
571C
  0
DICTIONARY
  5
57C6
330
57B7
100
AcDbDictionary
280
     1
281
     1
  3
ACAD_DIMASSOC
360
57D2
  0
DICTIONARY
  5
57E2
330
57D3
100
AcDbDictionary
280
     1
281
     1
  3
ACAD_DIMASSOC
360
57EE
  0
DICTIONARY
  5
57FC
330
57EF
100
AcDbDictionary
280
     1
281
     1
  3
ACAD_DIMASSOC
360
5806
  0
DICTIONARY
  5
5814
330
5807
100
AcDbDictionary
280
     1
281
     1
  3
ACAD_DIMASSOC
360
581E
  0
DICTIONARY
  5
582C
330
581F
100
AcDbDictionary
280
     1
281
     1
  3
ACAD_DIMASSOC
360
5836
  0
DICTIONARY
  5
5844
330
5837
100
AcDbDictionary
280
     1
281
     1
  3
ACAD_DIMASSOC
360
584E
  0
DICTIONARY
  5
6A62
330
6A54
100
AcDbDictionary
280
     1
281
     1
  3
ACAD_DIMASSOC
360
6A63
  0
DICTIONARY
  5
6A90
330
6A82
100
AcDbDictionary
280
     1
281
     1
  3
ACAD_DIMASSOC
360
6A91
  0
DICTIONARY
  5
6B7C
330
6B6D
100
AcDbDictionary
280
     1
281
     1
  3
ACAD_DIMASSOC
360
6B7D
  0
DICTIONARY
  5
6CB0
330
6CA3
100
AcDbDictionary
280
     1
281
     1
  3
ACAD_DIMASSOC
360
6CB1
  0
DICTIONARY
  5
C5
102
{ACAD_REACTORS
330
C
102
}
330
C
100
AcDbDictionary
281
     1
  0
DICTIONARY
  5
D
102
{ACAD_REACTORS
330
C
102
}
330
C
100
AcDbDictionary
281
     1
  0
DICTIONARY
  5
1A
102
{ACAD_REACTORS
330
C
102
}
330
C
100
AcDbDictionary
281
     1
  3
Model
350
22
  3
レイアウト1
350
1E
  3
レイアウト2
350
26
  0
DICTIONARY
  5
C4
102
{ACAD_REACTORS
330
C
102
}
330
C
100
AcDbDictionary
281
     1
  3
ByBlock
350
27D
  3
ByLayer
350
27C
  3
Global
350
27E
  0
DICTIONARY
  5
2D5
102
{ACAD_REACTORS
330
C
102
}
330
C
100
AcDbDictionary
281
     1
  3
Standard
350
2D6
  0
DICTIONARY
  5
17
102
{ACAD_REACTORS
330
C
102
}
330
C
100
AcDbDictionary
281
     1
  3
Standard
350
18
  0
DICTIONARY
  5
19
102
{ACAD_REACTORS
330
C
102
}
330
C
100
AcDbDictionary
281
     1
  3
SEISA基本
350
1C7E
  0
ACDBDICTIONARYWDFLT
  5
E
102
{ACAD_REACTORS
330
C
102
}
330
C
100
AcDbDictionary
281
     1
  3
Normal
350
F
100
AcDbDictionaryWithDefault
340
F
  0
DICTIONARY
  5
2B3
102
{ACAD_REACTORS
330
C
102
}
330
C
100
AcDbDictionary
281
     1
  3
*A1
350
2A04
  3
*A2
350
697F
  3
*A3
350
6980
  3
*A4
350
6981
  3
A0
350
2B4
  3
A1
350
2B5
  3
A2
350
2B6
  3
A3
350
2B7
  3
A4
350
2B8
  3
A5
350
2B9
  3
A6
350
2BA
  3
A7
350
2BB
  3
A8
350
2BC
  3
A9
350
2BD
  3
B0
350
2BE
  3
B1
350
2BF
  3
B2
350
2C0
  3
B3
350
2C1
  3
B4
350
2C2
  3
B5
350
2C3
  3
B6
350
2C4
  3
B7
350
2C5
  3
B8
350
2C6
  3
B9
350
2C7
  3
C0
350
2C8
  3
C1
350
2C9
  3
C2
350
2CA
  3
C3
350
2CB
  3
C4
350
2CC
  3
C5
350
2CD
  3
C6
350
2CE
  3
C7
350
2CF
  3
C8
350
2D0
  3
C9
350
2D1
  3
D0
350
2D2
  3
D1
350
2D3
  3
D2
350
2D4
  0
DICTIONARY
  5
121
102
{ACAD_REACTORS
330
C
102
}
330
C
100
AcDbDictionary
281
     1
  3
Standard
350
122
  0
DICTIONARY
  5
27F
102
{ACAD_REACTORS
330
C
102
}
330
C
100
AcDbDictionary
281
     1
  3
2dWireframe
350
285
  3
3D Hidden
350
287
  3
3dWireframe
350
286
  3
Basic
350
284
  3
Brighten
350
28B
  3
ColorChange
350
28F
  3
Conceptual
350
288
  3
Dim
350
28A
  3
Facepattern
350
28E
  3
Flat
350
280
  3
FlatWithEdges
350
281
  3
Gouraud
350
282
  3
GouraudWithEdges
350
283
  3
Linepattern
350
28D
  3
Realistic
350
289
  3
Thicken
350
28C
  0
XRECORD
  5
2F7
102
{ACAD_REACTORS
330
C
102
}
330
C
100
AcDbXrecord
280
     1
 90
        1
330
122
  0
DICTIONARY
  5
34
102
{ACAD_REACTORS
330
C
102
}
330
C
100
AcDbDictionary
281
     1
  3
CANNOSCALE
350
2FA
  3
CMLEADERSTYLE
350
2F8
  3
CTABLESTYLE
350
140
  3
DIMASSOC
350
AC
  3
INDEXCTL
350
35
  3
LAYEREVAL
350
644C
  3
LAYERNOTIFY
350
644D
  3
LIGHTINGUNITS
350
2FB
  3
MSLTSCALE
350
2F9
  0
DICTIONARY
  5
49
102
{ACAD_REACTORS
330
C
102
}
330
C
100
AcDbDictionary
281
     1
  3
AcmBOM
350
161B
  3
AcmStdDictionary
350
4A
  3
AMDTSECTSYM_ARROWCOLOR
350
12B
  0
DICTIONARY
  5
2B
102
{ACAD_REACTORS
330
C
102
}
330
C
100
AcDbDictionary
281
     1
  0
DICTIONARY
  5
1DE
102
{ACAD_REACTORS
330
C
102
}
330
C
100
AcDbDictionary
281
     1
  0
DICTIONARY
  5
6982
102
{ACAD_REACTORS
330
BF
102
}
330
BF
100
AcDbDictionary
281
     1
  0
DICTIONARY
  5
C0
102
{ACAD_REACTORS
330
BF
102
}
330
BF
100
AcDbDictionary
280
     1
281
     1
  0
XRECORD
  5
29F8
102
{ACAD_REACTORS
330
29F7
102
}
330
29F7
100
AcDbXrecord
280
     1
290
     1
  0
XRECORD
  5
29FA
102
{ACAD_REACTORS
330
29F9
102
}
330
29F9
100
AcDbXrecord
280
     1
290
     1
  0
SORTENTSTABLE
  5
A41
102
{ACAD_REACTORS
330
82
102
}
330
82
100
AcDbSortentsTable
330
1F
331
4F75
  5
5313
331
5837
  5
5954
331
4475
  5
4504
331
56D5
  5
57B7
331
698A
  5
698A
331
6A82
  5
6A82
331
56ED
  5
57D3
331
57B7
  5
5807
331
5705
  5
57EF
331
549E
  5
5630
331
57EF
  5
5837
331
4E33
  5
5312
331
546A
  5
5505
331
5807
  5
58BF
331
5579
  5
56D5
331
5482
  5
5579
331
57D3
  5
581F
331
6A54
  5
6A54
331
581F
  5
58DB
331
50E4
  5
5338
331
4D1A
  5
5311
331
4BCE
  5
5279
331
451F
  5
4541
  0
SORTENTSTABLE
  5
60B5
102
{ACAD_REACTORS
330
4B06
102
}
330
4B06
100
AcDbSortentsTable
330
4AD8
  0
SORTENTSTABLE
  5
612C
102
{ACAD_REACTORS
330
4C60
102
}
330
4C60
100
AcDbSortentsTable
330
4B93
331
4BC2
  5
4BC5
331
4BA3
  5
4BA5
331
4BB0
  5
4BB2
331
4BB8
  5
4BBA
331
4BA6
  5
4BA8
331
4BC5
  5
4BC8
331
4BB3
  5
4BB5
331
4BCA
  5
4BCD
331
4BA9
  5
4BAB
331
4BBE
  5
4BC1
331
4BB6
  5
4BB8
331
4BCD
  5
4C5E
331
4BAC
  5
4BAE
331
4BA2
  5
4BA4
331
4BC1
  5
4BC4
331
4BAF
  5
4BB1
331
4C5E
  5
4BBE
331
4BC4
  5
4BC7
331
4BA5
  5
4BA7
331
4BB2
  5
4BB4
331
4BBA
  5
4BBD
331
4BC9
  5
4BCC
331
4BA8
  5
4BAA
331
4BC7
  5
4BCA
331
4BB5
  5
4BB7
331
4BBD
  5
4BC0
331
4BAB
  5
4BAD
331
4BCC
  5
4C5D
331
4BC0
  5
4BC3
331
4C5D
  5
4BA2
331
4BAE
  5
4BB0
331
4BA4
  5
4BA6
331
4BC3
  5
4BC6
331
4BB1
  5
4BB3
331
4BB9
  5
4BBC
331
4BC6
  5
4BC9
331
4BC8
  5
4BCB
331
4BA7
  5
4BA9
331
4BBC
  5
4BBF
331
4BB4
  5
4BB6
331
4BCB
  5
4C5C
331
4BAA
  5
4BAC
331
4BB7
  5
4BB9
331
4BBF
  5
4BC2
331
4BAD
  5
4BAF
331
4C5C
  5
4BA3
  0
SORTENTSTABLE
  5
69F4
102
{ACAD_REACTORS
330
4D85
102
}
330
4D85
100
AcDbSortentsTable
330
4CEA
  0
SORTENTSTABLE
  5
6287
102
{ACAD_REACTORS
330
4EA0
102
}
330
4EA0
100
AcDbSortentsTable
330
4E04
  0
SORTENTSTABLE
  5
6C19
102
{ACAD_REACTORS
330
6212
102
}
330
6212
100
AcDbSortentsTable
330
4F45
331
4F69
  5
4F6B
331
4F53
  5
4F55
331
4F6E
  5
4F72
331
4F62
  5
4F64
331
4F5D
  5
4F5F
331
4F58
  5
4F5A
331
4F49
  5
4F4B
331
4F72
  5
6A52
331
4F6A
  5
4F6D
331
4F6F
  5
6A51
331
4F5E
  5
4F60
331
4F59
  5
4F5B
331
4F4F
  5
4F51
331
4F4A
  5
4F4C
331
4F63
  5
4F65
331
4F54
  5
4F56
331
4F6B
  5
4F6E
331
4F55
  5
4F57
331
4F50
  5
4F52
331
4F4B
  5
4F4D
331
4F64
  5
4F66
331
4F5F
  5
4F61
331
4F5A
  5
4F5C
331
4F51
  5
4F53
331
6A51
  5
4F49
331
4F60
  5
4F62
331
4F5B
  5
4F5D
331
4F4C
  5
4F4F
331
4F65
  5
4F68
331
4F56
  5
4F58
331
4F68
  5
4F6A
331
4F6D
  5
4F6F
331
6A52
  5
4F48
331
4F5C
  5
4F5E
331
4F57
  5
4F59
331
4F66
  5
4F69
331
4F4D
  5
4F50
331
4F48
  5
4F4A
331
4F61
  5
4F63
331
4F52
  5
4F54
  0
SORTENTSTABLE
  5
6D8A
102
{ACAD_REACTORS
330
5153
102
}
330
5153
100
AcDbSortentsTable
330
50AF
  0
DIMASSOC
  5
5481
102
{ACAD_REACTORS
330
5477
102
}
330
5477
100
AcDbDimAssoc
330
546A
 90
        3
 70
     0
 71
     0
  1
AcDbOsnapPointRef
 72
     1
331
4D1A
331
4CED
 73
     2
 91
        0
 40
1.0
 10
0.0
 20
0.0
 30
2.000000000000000E+50
 75
     0
  1
AcDbOsnapPointRef
 72
     2
331
4D1A
331
4CEE
 73
     2
 91
        0
 40
0.5
 10
0.0
 20
0.0
 30
0.0
 75
     0
  0
DIMASSOC
  5
549D
102
{ACAD_REACTORS
330
5491
102
}
330
5491
100
AcDbDimAssoc
330
5482
 90
        3
 70
     0
 71
     0
  1
AcDbOsnapPointRef
 72
     1
331
4F75
331
4F4B
 73
     2
 91
        0
 40
1.0
 10
0.0
 20
0.0
 30
2.000000000000000E+50
 75
     0
  1
AcDbOsnapPointRef
 72
     1
331
4D1A
331
4CED
 73
     2
 91
        0
 40
1.0
 10
0.0
 20
0.0
 30
2.000000000000000E+50
 75
     0
  0
DIMASSOC
  5
54B5
102
{ACAD_REACTORS
330
54AB
102
}
330
54AB
100
AcDbDimAssoc
330
549E
 90
        3
 70
     0
 71
     0
  1
AcDbOsnapPointRef
 72
     1
331
4F75
331
4F4B
 73
     2
 91
        0
 40
1.0
 10
0.0
 20
0.0
 30
2.000000000000000E+50
 75
     0
  1
AcDbOsnapPointRef
 72
     8
331
4F75
331
4F4F
 73
     2
 91
        0
 40
0.5
 10
0.0
 20
0.0
 30
0.0
 75
     1
  1
AcDbOsnapPointRef
 72
     1
331
4F75
331
4F4B
 73
     2
 91
        0
 40
1.0
 10
0.0
 20
0.0
 30
2.000000000000000E+50
 75
     0
  0
DIMASSOC
  5
5594
102
{ACAD_REACTORS
330
5588
102
}
330
5588
100
AcDbDimAssoc
330
5579
 90
        3
 70
     0
 71
     0
  1
AcDbOsnapPointRef
 72
     1
331
50E4
331
50BD
 73
     2
 91
        0
 40
1.0
 10
0.0
 20
0.0
 30
2.000000000000000E+50
 75
     0
  1
AcDbOsnapPointRef
 72
    13
331
4F75
331
4F65
 73
     2
 91
        0
 40
0.0
 10
0.0
 20
0.0
 30
2.000000000000000E+50
 75
     0
  0
DIMASSOC
  5
56EC
102
{ACAD_REACTORS
330
56E2
102
}
330
56E2
100
AcDbDimAssoc
330
56D5
 90
        3
 70
     0
 71
     0
  1
AcDbOsnapPointRef
 72
    13
331
4F75
331
4F66
 73
     2
 91
        0
 40
0.0
 10
0.0
 20
0.0
 30
2.000000000000000E+50
 75
     0
  1
AcDbOsnapPointRef
 72
     8
331
4F75
331
4F56
 73
     2
 91
        0
 40
1.0
 10
0.0
 20
0.0
 30
0.0
 75
     1
  1
AcDbOsnapPointRef
 72
    13
331
4F75
331
4F66
 73
     2
 91
        0
 40
0.0
 10
0.0
 20
0.0
 30
2.000000000000000E+50
 75
     0
  0
DIMASSOC
  5
5704
102
{ACAD_REACTORS
330
56FA
102
}
330
56FA
100
AcDbDimAssoc
330
56ED
 90
        3
 70
     0
 71
     0
  1
AcDbOsnapPointRef
 72
     1
331
50E4
331
50E2
 73
     2
 91
        0
 40
1.0
 10
0.0
 20
0.0
 30
2.000000000000000E+50
 75
     0
  1
AcDbOsnapPointRef
 72
     8
331
50E4
331
50B3
 73
     2
 91
        0
 40
0.0
 10
0.0
 20
0.0
 30
0.0
 75
     1
  1
AcDbOsnapPointRef
 72
     1
331
50E4
331
50E2
 73
     2
 91
        0
 40
1.0
 10
0.0
 20
0.0
 30
2.000000000000000E+50
 75
     0
  0
DIMASSOC
  5
571C
102
{ACAD_REACTORS
330
5712
102
}
330
5712
100
AcDbDimAssoc
330
5705
 90
        3
 70
     0
 71
     0
  1
AcDbOsnapPointRef
 72
     1
331
4BCE
331
4BAD
 73
     2
 91
        0
 40
1.0
 10
0.0
 20
0.0
 30
2.000000000000000E+50
 75
     0
  1
AcDbOsnapPointRef
 72
     1
331
4BCE
331
4B9C
 73
     2
 91
        0
 40
1.0
 10
0.0
 20
0.0
 30
2.000000000000000E+50
 75
     0
  0
DIMASSOC
  5
57D2
102
{ACAD_REACTORS
330
57C6
102
}
330
57C6
100
AcDbDimAssoc
330
57B7
 90
        1
 70
     0
 71
     0
  1
AcDbOsnapPointRef
 72
     1
331
4BCE
331
4B9B
 73
     2
 91
        0
 40
1.0
 10
0.0
 20
0.0
 30
2.000000000000000E+50
 75
     0
  0
DIMASSOC
  5
57EE
102
{ACAD_REACTORS
330
57E2
102
}
330
57E2
100
AcDbDimAssoc
330
57D3
 90
        3
 70
     0
 71
     0
  1
AcDbOsnapPointRef
 72
     1
331
4BCE
331
4B9B
 73
     2
 91
        0
 40
1.0
 10
0.0
 20
0.0
 30
2.000000000000000E+50
 75
     0
  1
AcDbOsnapPointRef
 72
    13
331
4BCE
331
4B9A
 73
     2
 91
        0
 40
0.0
 10
0.0
 20
0.0
 30
2.000000000000000E+50
 75
     0
  0
DIMASSOC
  5
5806
102
{ACAD_REACTORS
330
57FC
102
}
330
57FC
100
AcDbDimAssoc
330
57EF
 90
        3
 70
     0
 71
     0
  1
AcDbOsnapPointRef
 72
     1
331
4BCE
331
4B9B
 73
     2
 91
        0
 40
1.0
 10
0.0
 20
0.0
 30
2.000000000000000E+50
 75
     0
  1
AcDbOsnapPointRef
 72
    13
331
4D1A
331
4CEE
 73
     2
 91
        0
 40
0.0
 10
0.0
 20
0.0
 30
2.000000000000000E+50
 75
     0
  0
DIMASSOC
  5
581E
102
{ACAD_REACTORS
330
5814
102
}
330
5814
100
AcDbDimAssoc
330
5807
 90
        3
 70
     0
 71
     0
  1
AcDbOsnapPointRef
 72
     1
331
4BCE
331
4B9B
 73
     2
 91
        0
 40
1.0
 10
0.0
 20
0.0
 30
2.000000000000000E+50
 75
     0
  1
AcDbOsnapPointRef
 72
    13
331
50E4
331
50B2
 73
     2
 91
        0
 40
0.0
 10
0.0
 20
0.0
 30
2.000000000000000E+50
 75
     0
  0
DIMASSOC
  5
5836
102
{ACAD_REACTORS
330
582C
102
}
330
582C
100
AcDbDimAssoc
330
581F
 90
        3
 70
     0
 71
     0
  1
AcDbOsnapPointRef
 72
    13
331
50E4
331
50B2
 73
     2
 91
        0
 40
0.0
 10
0.0
 20
0.0
 30
2.000000000000000E+50
 75
     0
  1
AcDbOsnapPointRef
 72
    13
331
4F75
331
4F4F
 73
     2
 91
        0
 40
0.0
 10
0.0
 20
0.0
 30
2.000000000000000E+50
 75
     0
  0
DIMASSOC
  5
584E
102
{ACAD_REACTORS
330
5844
102
}
330
5844
100
AcDbDimAssoc
330
5837
 90
        3
 70
     0
 71
     0
  1
AcDbOsnapPointRef
 72
    13
331
4D1A
331
4CEE
 73
     2
 91
        0
 40
0.0
 10
0.0
 20
0.0
 30
2.000000000000000E+50
 75
     0
  1
AcDbOsnapPointRef
 72
    13
331
4F75
331
4F4F
 73
     2
 91
        0
 40
0.0
 10
0.0
 20
0.0
 30
2.000000000000000E+50
 75
     0
  0
DIMASSOC
  5
6A63
102
{ACAD_REACTORS
330
6A62
102
}
330
6A62
100
AcDbDimAssoc
330
6A54
 90
        3
 70
     0
 71
     0
  1
AcDbOsnapPointRef
 72
    13
331
4F75
331
4F4C
 73
     0
 91
        0
 40
0.0
 10
0.0
 20
0.0
 30
2.000000000000000E+50
 75
     0
  1
AcDbOsnapPointRef
 72
     1
331
4F75
331
4F64
 73
     0
 91
        0
 40
0.0
 10
0.0
 20
0.0
 30
2.000000000000000E+50
 75
     0
  0
DIMASSOC
  5
6A91
102
{ACAD_REACTORS
330
6A90
102
}
330
6A90
100
AcDbDimAssoc
330
6A82
 90
        2
 70
     0
 71
     0
  1
AcDbOsnapPointRef
 72
     6
331
4F75
331
4F69
 73
     0
 91
        0
 40
3.141592653589792
 10
0.0
 20
0.0
 30
0.0
332
4F75
332
4F65
 74
     0
 92
        0
 75
     0
  0
DIMASSOC
  5
6B7D
102
{ACAD_REACTORS
330
6B7C
102
}
330
6B7C
100
AcDbDimAssoc
330
6B6D
 90
        1
 70
     0
 71
     0
  1
AcDbOsnapPointRef
 72
    13
331
4F75
331
4F62
 73
     0
 91
        0
 40
0.0
 10
0.0
 20
0.0
 30
2.000000000000000E+50
 75
     0
  0
DIMASSOC
  5
6CB1
102
{ACAD_REACTORS
330
6CB0
102
}
330
6CB0
100
AcDbDimAssoc
330
6CA3
 90
        3
 70
     0
 71
     0
  1
AcDbOsnapPointRef
 72
    13
331
4D1A
331
4D09
 73
     0
 91
        0
 40
0.0
 10
0.0
 20
0.0
 30
2.000000000000000E+50
 75
     0
  1
AcDbOsnapPointRef
 72
     1
331
4D1A
331
4CEF
 73
     0
 91
        0
 40
0.0
 10
0.0
 20
0.0
 30
2.000000000000000E+50
 75
     0
  0
LAYOUT
  5
22
102
{ACAD_REACTORS
330
1A
102
}
330
1A
100
AcDbPlotSettings
  1

  2
KONICA MINOLTA 501 PCL
  4
A4
  6

 40
5.027082920074462
 41
5.027085781097412
 42
5.027069091796875
 43
5.027069091796875
 44
209.9733276367186
 45
296.9259948730469
 46
0.0
 47
20.4534829177677
 48
0.0
 49
0.0
140
0.0
141
0.0
142
1.0
143
9.077019112993607
 70
 11956
 72
     1
 73
     1
 74
     1
  7
SEISA.ctb
 75
     0
147
0.1101683259175378
 76
     0
 77
     2
 78
   300
148
-2449.209615117658
149
-2172.437915170904
100
AcDbLayout
  1
Model
 70
     1
 71
     0
 10
0.0
 20
0.0
 11
12.0
 21
9.0
 12
0.0
 22
0.0
 32
0.0
 14
0.0
 24
0.0
 34
0.0
 15
0.0
 25
0.0
 35
0.0
146
0.0
 13
0.0
 23
0.0
 33
0.0
 16
1.0
 26
0.0
 36
0.0
 17
0.0
 27
1.0
 37
0.0
 76
     0
330
1F
331
27A
1001
ACAD_PSEXT
1000
KONICA MINOLTA 501 PCL
1000
KONICA MINOLTA 501/421/361PCL
1000
IP_192.168.20.231_(1)
1000

1070
     0
  0
LAYOUT
  5
1E
102
{ACAD_REACTORS
330
1A
102
}
330
1A
100
AcDbPlotSettings
  1

  2
none_device
  4
Letter_(8.50_x_11.00_Inches)
  6

 40
6.349999904632567
 41
6.349999904632567
 42
6.350006103515625
 43
6.350006103515625
 44
215.8999938964844
 45
279.3999938964844
 46
0.0
 47
0.0
 48
0.0
 49
0.0
140
0.0
141
0.0
142
1.0
143
1.0
 70
 15024
 72
     1
 73
     1
 74
     5
  7
SEISA.ctb
 75
    16
147
1.0
 76
     0
 77
     2
 78
   300
148
0.0
149
0.0
100
AcDbLayout
  1
レイアウト1
 70
     1
 71
     1
 10
0.0
 20
0.0
 11
420.0
 21
297.0
 12
0.0
 22
0.0
 32
0.0
 14
1.000000000000000E+20
 24
1.000000000000000E+20
 34
1.000000000000000E+20
 15
-1.000000000000000E+20
 25
-1.000000000000000E+20
 35
-1.000000000000000E+20
146
0.0
 13
0.0
 23
0.0
 33
0.0
 16
1.0
 26
0.0
 36
0.0
 17
0.0
 27
1.0
 37
0.0
 76
     0
330
1B
  0
LAYOUT
  5
26
102
{ACAD_REACTORS
330
1A
102
}
330
1A
100
AcDbPlotSettings
  1

  2
none_device
  4
Letter_(8.50_x_11.00_Inches)
  6

 40
6.349999904632567
 41
6.349999904632567
 42
6.350006103515625
 43
6.350006103515625
 44
215.8999938964844
 45
279.3999938964844
 46
0.0
 47
0.0
 48
0.0
 49
0.0
140
0.0
141
0.0
142
1.0
143
1.0
 70
 15024
 72
     1
 73
     1
 74
     5
  7
SEISA.ctb
 75
    16
147
1.0
 76
     0
 77
     2
 78
   300
148
0.0
149
0.0
100
AcDbLayout
  1
レイアウト2
 70
     1
 71
     2
 10
0.0
 20
0.0
 11
12.0
 21
9.0
 12
0.0
 22
0.0
 32
0.0
 14
0.0
 24
0.0
 34
0.0
 15
0.0
 25
0.0
 35
0.0
146
0.0
 13
0.0
 23
0.0
 33
0.0
 16
1.0
 26
0.0
 36
0.0
 17
0.0
 27
1.0
 37
0.0
 76
     0
330
23
  0
MATERIAL
  5
27D
102
{ACAD_REACTORS
330
C4
102
}
330
C4
100
AcDbMaterial
  1
ByBlock
 73
     1
 78
     1
172
     1
176
     1
270
     1
274
     1
 94
       63
  0
MATERIAL
  5
27C
102
{ACAD_REACTORS
330
C4
102
}
330
C4
100
AcDbMaterial
  1
ByLayer
 73
     1
 78
     1
172
     1
176
     1
270
     1
274
     1
 94
       63
  0
MATERIAL
  5
27E
102
{ACAD_REACTORS
330
C4
102
}
330
C4
100
AcDbMaterial
  1
Global
 73
     1
 78
     1
172
     1
176
     1
270
     1
274
     1
 94
       63
  0
MLEADERSTYLE
  5
2D6
102
{ACAD_REACTORS
330
2D5
102
}
330
2D5
100
AcDbMLeaderStyle
170
     2
171
     1
172
     0
 90
        2
 40
0.0
 41
0.0
173
     1
 91
-1056964608
340
14
 92
       -2
290
     1
 42
2.0
291
     1
 43
0.36
  3
Standard
 44
4.0
300

342
11
174
     1
178
     6
175
     1
176
     0
 93
-1056964608
 45
4.0
292
     0
297
     0
 46
4.0
 94
-1056964608
 47
1.0
 49
1.0
140
1.0
293
     1
141
0.0
294
     1
177
     0
142
1.0
295
     0
296
     0
143
0.125
1001
ACAD_MLEADERVER
1070
     2
  0
MLINESTYLE
  5
18
102
{ACAD_REACTORS
330
17
102
}
330
17
100
AcDbMlineStyle
  2
STANDARD
 70
     0
  3

 62
   256
 51
90.0
 52
90.0
 71
     2
 49
0.5
 62
   256
  6
BYLAYER
 49
-0.5
 62
   256
  6
BYLAYER
  0
PLOTSETTINGS
  5
1C7E
102
{ACAD_REACTORS
330
19
102
}
330
19
100
AcDbPlotSettings
  1
SEISA基本
  2
none_device
  4
Letter_(8.50_x_11.00_Inches)
  6

 40
6.349999904632567
 41
6.349999904632567
 42
6.350006103515625
 43
6.350006103515625
 44
215.8999938964844
 45
279.3999938964844
 46
7.302498226506357
 47
0.0
 48
0.0
 49
0.0
140
0.0
141
0.0
142
1.0
143
1.574803221122935
 70
 11956
 72
     1
 73
     1
 74
     2
  7
SEISA.ctb
 75
     0
147
0.6349999711627054
 76
     0
 77
     2
 78
   300
148
0.0
149
0.0
1001
ACAD_PSEXT
1000
なし
1000
なし
1000
適切ではありません
1000
新しいプロッタ環境設定名を選択しない限り、レイアウトは印刷されません。
1070
     0
  0
ACDBPLACEHOLDER
  5
F
102
{ACAD_REACTORS
330
E
102
}
330
E
  0
SCALE
  5
2A04
102
{ACAD_REACTORS
330
2B3
102
}
330
2B3
100
AcDbScale
 70
     0
300
1:15
140
1.0
141
15.0
290
     0
  0
SCALE
  5
697F
102
{ACAD_REACTORS
330
2B3
102
}
330
2B3
100
AcDbScale
 70
     0
300
1:3
140
1.0
141
3.0
290
     0
  0
SCALE
  5
6980
102
{ACAD_REACTORS
330
2B3
102
}
330
2B3
100
AcDbScale
 70
     0
300
1:2.5
140
1.0
141
2.5
290
     0
  0
SCALE
  5
6981
102
{ACAD_REACTORS
330
2B3
102
}
330
2B3
100
AcDbScale
 70
     0
300
1:1.5
140
1.0
141
1.5
290
     0
  0
SCALE
  5
2B4
102
{ACAD_REACTORS
330
2B3
102
}
330
2B3
100
AcDbScale
 70
     0
300
1:1
140
1.0
141
1.0
290
     1
  0
SCALE
  5
2B5
102
{ACAD_REACTORS
330
2B3
102
}
330
2B3
100
AcDbScale
 70
     0
300
1:2
140
1.0
141
2.0
290
     0
  0
SCALE
  5
2B6
102
{ACAD_REACTORS
330
2B3
102
}
330
2B3
100
AcDbScale
 70
     0
300
1:4
140
1.0
141
4.0
290
     0
  0
SCALE
  5
2B7
102
{ACAD_REACTORS
330
2B3
102
}
330
2B3
100
AcDbScale
 70
     0
300
1:5
140
1.0
141
5.0
290
     0
  0
SCALE
  5
2B8
102
{ACAD_REACTORS
330
2B3
102
}
330
2B3
100
AcDbScale
 70
     0
300
1:8
140
1.0
141
8.0
290
     0
  0
SCALE
  5
2B9
102
{ACAD_REACTORS
330
2B3
102
}
330
2B3
100
AcDbScale
 70
     0
300
1:10
140
1.0
141
10.0
290
     0
  0
SCALE
  5
2BA
102
{ACAD_REACTORS
330
2B3
102
}
330
2B3
100
AcDbScale
 70
     0
300
1:16
140
1.0
141
16.0
290
     0
  0
SCALE
  5
2BB
102
{ACAD_REACTORS
330
2B3
102
}
330
2B3
100
AcDbScale
 70
     0
300
1:20
140
1.0
141
20.0
290
     0
  0
SCALE
  5
2BC
102
{ACAD_REACTORS
330
2B3
102
}
330
2B3
100
AcDbScale
 70
     0
300
1:30
140
1.0
141
30.0
290
     0
  0
SCALE
  5
2BD
102
{ACAD_REACTORS
330
2B3
102
}
330
2B3
100
AcDbScale
 70
     0
300
1:40
140
1.0
141
40.0
290
     0
  0
SCALE
  5
2BE
102
{ACAD_REACTORS
330
2B3
102
}
330
2B3
100
AcDbScale
 70
     0
300
1:50
140
1.0
141
50.0
290
     0
  0
SCALE
  5
2BF
102
{ACAD_REACTORS
330
2B3
102
}
330
2B3
100
AcDbScale
 70
     0
300
1:100
140
1.0
141
100.0
290
     0
  0
SCALE
  5
2C0
102
{ACAD_REACTORS
330
2B3
102
}
330
2B3
100
AcDbScale
 70
     0
300
2:1
140
2.0
141
1.0
290
     0
  0
SCALE
  5
2C1
102
{ACAD_REACTORS
330
2B3
102
}
330
2B3
100
AcDbScale
 70
     0
300
4:1
140
4.0
141
1.0
290
     0
  0
SCALE
  5
2C2
102
{ACAD_REACTORS
330
2B3
102
}
330
2B3
100
AcDbScale
 70
     0
300
8:1
140
8.0
141
1.0
290
     0
  0
SCALE
  5
2C3
102
{ACAD_REACTORS
330
2B3
102
}
330
2B3
100
AcDbScale
 70
     0
300
10:1
140
10.0
141
1.0
290
     0
  0
SCALE
  5
2C4
102
{ACAD_REACTORS
330
2B3
102
}
330
2B3
100
AcDbScale
 70
     0
300
100:1
140
100.0
141
1.0
290
     0
  0
SCALE
  5
2C5
102
{ACAD_REACTORS
330
2B3
102
}
330
2B3
100
AcDbScale
 70
     0
300
1/128" = 1'-0"
140
0.0078125
141
12.0
290
     0
  0
SCALE
  5
2C6
102
{ACAD_REACTORS
330
2B3
102
}
330
2B3
100
AcDbScale
 70
     0
300
1/64" = 1'-0"
140
0.015625
141
12.0
290
     0
  0
SCALE
  5
2C7
102
{ACAD_REACTORS
330
2B3
102
}
330
2B3
100
AcDbScale
 70
     0
300
1/32" = 1'-0"
140
0.03125
141
12.0
290
     0
  0
SCALE
  5
2C8
102
{ACAD_REACTORS
330
2B3
102
}
330
2B3
100
AcDbScale
 70
     0
300
1/16" = 1'-0"
140
0.0625
141
12.0
290
     0
  0
SCALE
  5
2C9
102
{ACAD_REACTORS
330
2B3
102
}
330
2B3
100
AcDbScale
 70
     0
300
3/32" = 1'-0"
140
0.09375
141
12.0
290
     0
  0
SCALE
  5
2CA
102
{ACAD_REACTORS
330
2B3
102
}
330
2B3
100
AcDbScale
 70
     0
300
1/8" = 1'-0"
140
0.125
141
12.0
290
     0
  0
SCALE
  5
2CB
102
{ACAD_REACTORS
330
2B3
102
}
330
2B3
100
AcDbScale
 70
     0
300
3/16" = 1'-0"
140
0.1875
141
12.0
290
     0
  0
SCALE
  5
2CC
102
{ACAD_REACTORS
330
2B3
102
}
330
2B3
100
AcDbScale
 70
     0
300
1/4" = 1'-0"
140
0.25
141
12.0
290
     0
  0
SCALE
  5
2CD
102
{ACAD_REACTORS
330
2B3
102
}
330
2B3
100
AcDbScale
 70
     0
300
3/8" = 1'-0"
140
0.375
141
12.0
290
     0
  0
SCALE
  5
2CE
102
{ACAD_REACTORS
330
2B3
102
}
330
2B3
100
AcDbScale
 70
     0
300
1/2" = 1'-0"
140
0.5
141
12.0
290
     0
  0
SCALE
  5
2CF
102
{ACAD_REACTORS
330
2B3
102
}
330
2B3
100
AcDbScale
 70
     0
300
3/4" = 1'-0"
140
0.75
141
12.0
290
     0
  0
SCALE
  5
2D0
102
{ACAD_REACTORS
330
2B3
102
}
330
2B3
100
AcDbScale
 70
     0
300
1" = 1'-0"
140
1.0
141
12.0
290
     0
  0
SCALE
  5
2D1
102
{ACAD_REACTORS
330
2B3
102
}
330
2B3
100
AcDbScale
 70
     0
300
1-1/2" = 1'-0"
140
1.5
141
12.0
290
     0
  0
SCALE
  5
2D2
102
{ACAD_REACTORS
330
2B3
102
}
330
2B3
100
AcDbScale
 70
     0
300
3" = 1'-0"
140
3.0
141
12.0
290
     0
  0
SCALE
  5
2D3
102
{ACAD_REACTORS
330
2B3
102
}
330
2B3
100
AcDbScale
 70
     0
300
6" = 1'-0"
140
6.0
141
12.0
290
     0
  0
SCALE
  5
2D4
102
{ACAD_REACTORS
330
2B3
102
}
330
2B3
100
AcDbScale
 70
     0
300
1'-0" = 1'-0"
140
12.0
141
12.0
290
     0
  0
TABLESTYLE
  5
122
102
{ACAD_XDICTIONARY
360
2F5
102
}
102
{ACAD_REACTORS
330
121
102
}
330
121
100
AcDbTableStyle
  3
Standard
 70
     0
 71
     0
 40
1.5
 41
1.5
280
     0
281
     0
  7
STANDARD
140
4.5
170
     2
 62
     0
 63
     7
283
     0
 90
      512
 91
        0
  1

274
    -2
284
     1
 64
     0
275
    -2
285
     1
 65
     0
276
    -2
286
     1
 66
     0
277
    -2
287
     1
 67
     0
278
    -2
288
     1
 68
     0
279
    -2
289
     1
 69
     0
  7
STANDARD
140
6.0
170
     5
 62
     0
 63
     7
283
     0
 90
      512
 91
        0
  1

274
    -2
284
     1
 64
     0
275
    -2
285
     1
 65
     0
276
    -2
286
     1
 66
     0
277
    -2
287
     1
 67
     0
278
    -2
288
     1
 68
     0
279
    -2
289
     1
 69
     0
  7
STANDARD
140
4.5
170
     5
 62
     0
 63
     7
283
     0
 90
      512
 91
        0
  1

274
    -2
284
     1
 64
     0
275
    -2
285
     1
 65
     0
276
    -2
286
     1
 66
     0
277
    -2
287
     1
 67
     0
278
    -2
288
     1
 68
     0
279
    -2
289
     1
 69
     0
  0
VISUALSTYLE
  5
285
102
{ACAD_REACTORS
330
27F
102
}
330
27F
100
AcDbVisualStyle
  2
2dWireframe
 70
     4
 71
     0
 72
     2
 73
     0
 90
        0
 40
-0.6
 41
-30.0
 62
     5
 63
     7
421
 16777215
 74
     1
 91
        4
 64
     7
 65
   257
 75
     1
175
     1
 42
1.0
 92
        0
 66
   257
 43
1.0
 76
     1
 77
     6
 78
     2
 67
     7
 79
     5
170
     0
171
     0
290
     0
174
     0
 93
        1
 44
0.0
173
     0
291
     0
 45
0.0
  0
VISUALSTYLE
  5
287
102
{ACAD_REACTORS
330
27F
102
}
330
27F
100
AcDbVisualStyle
  2
3D Hidden
 70
     6
 71
     1
 72
     2
 73
     2
 90
        0
 40
-0.6
 41
-30.0
 62
     5
 63
     7
421
 16777215
 74
     2
 91
        2
 64
     7
 65
   257
 75
     2
175
     1
 42
40.0
 92
        0
 66
   257
 43
1.0
 76
     1
 77
     6
 78
     2
 67
     7
 79
     3
170
     0
171
     0
290
     0
174
     0
 93
        1
 44
0.0
173
     0
291
     0
 45
0.0
  0
VISUALSTYLE
  5
286
102
{ACAD_REACTORS
330
27F
102
}
330
27F
100
AcDbVisualStyle
  2
3dWireframe
 70
     5
 71
     0
 72
     2
 73
     0
 90
        0
 40
-0.6
 41
-30.0
 62
     5
 63
     7
421
 16777215
 74
     1
 91
        4
 64
     7
 65
   257
 75
     1
175
     1
 42
1.0
 92
        0
 66
   257
 43
1.0
 76
     1
 77
     6
 78
     2
 67
     7
 79
     5
170
     0
171
     0
290
     0
174
     0
 93
        1
 44
0.0
173
     0
291
     0
 45
0.0
  0
VISUALSTYLE
  5
284
102
{ACAD_REACTORS
330
27F
102
}
330
27F
100
AcDbVisualStyle
  2
Basic
 70
     7
 71
     1
 72
     0
 73
     1
 90
        0
 40
-0.6
 41
-30.0
 62
     5
 63
     7
421
 16777215
 74
     0
 91
        4
 64
     7
 65
   257
 75
     1
175
     1
 42
1.0
 92
        8
 66
     7
 43
1.0
 76
     1
 77
     6
 78
     2
 67
     7
 79
     5
170
     0
171
     0
290
     0
174
     0
 93
        1
 44
0.0
173
     0
291
     1
 45
0.0
  0
VISUALSTYLE
  5
28B
102
{ACAD_REACTORS
330
27F
102
}
330
27F
100
AcDbVisualStyle
  2
Brighten
 70
    12
 71
     2
 72
     2
 73
     0
 90
        0
 40
-0.6
 41
-30.0
 62
     5
 63
     7
421
 16777215
 74
     1
 91
        4
 64
     7
 65
   257
 75
     1
175
     1
 42
1.0
 92
        8
 66
     7
 43
1.0
 76
     1
 77
     6
 78
     2
 67
     7
 79
     5
170
     0
171
     0
290
     0
174
     0
 93
        1
 44
50.0
173
     0
291
     1
 45
0.0
  0
VISUALSTYLE
  5
28F
102
{ACAD_REACTORS
330
27F
102
}
330
27F
100
AcDbVisualStyle
  2
ColorChange
 70
    16
 71
     2
 72
     2
 73
     3
 90
        0
 40
-0.6
 41
-30.0
 62
     5
 63
     8
421
  8421504
 74
     1
 91
        4
 64
     7
 65
   257
 75
     1
175
     1
 42
1.0
 92
        8
 66
     8
424
  8421504
 43
1.0
 76
     1
 77
     6
 78
     2
 67
     7
 79
     5
170
     0
171
     0
290
     0
174
     0
 93
        1
 44
0.0
173
     0
291
     1
 45
0.0
  0
VISUALSTYLE
  5
288
102
{ACAD_REACTORS
330
27F
102
}
330
27F
100
AcDbVisualStyle
  2
Conceptual
 70
     9
 71
     3
 72
     2
 73
     0
 90
        0
 40
-0.6
 41
-30.0
 62
     5
 63
     7
421
 16777215
 74
     2
 91
        2
 64
     7
 65
   257
 75
     1
175
     1
 42
40.0
 92
        8
 66
     7
 43
1.0
 76
     1
 77
     6
 78
     2
 67
     7
 79
     3
170
     0
171
     0
290
     0
174
     0
 93
        1
 44
0.0
173
     0
291
     0
 45
0.0
  0
VISUALSTYLE
  5
28A
102
{ACAD_REACTORS
330
27F
102
}
330
27F
100
AcDbVisualStyle
  2
Dim
 70
    11
 71
     2
 72
     2
 73
     0
 90
        0
 40
-0.6
 41
-30.0
 62
     5
 63
     7
421
 16777215
 74
     1
 91
        4
 64
     7
 65
   257
 75
     1
175
     1
 42
1.0
 92
        8
 66
     7
 43
1.0
 76
     1
 77
     6
 78
     2
 67
     7
 79
     5
170
     0
171
     0
290
     0
174
     0
 93
        1
 44
-50.0
173
     0
291
     1
 45
0.0
  0
VISUALSTYLE
  5
28E
102
{ACAD_REACTORS
330
27F
102
}
330
27F
100
AcDbVisualStyle
  2
Facepattern
 70
    15
 71
     2
 72
     2
 73
     0
 90
        0
 40
-0.6
 41
-30.0
 62
     5
 63
     7
421
 16777215
 74
     1
 91
        4
 64
     7
 65
   257
 75
     1
175
     1
 42
1.0
 92
        8
 66
     7
 43
1.0
 76
     1
 77
     6
 78
     2
 67
     7
 79
     5
170
     0
171
     0
290
     0
174
     0
 93
        1
 44
0.0
173
     0
291
     1
 45
0.0
  0
VISUALSTYLE
  5
280
102
{ACAD_REACTORS
330
27F
102
}
330
27F
100
AcDbVisualStyle
  2
Flat
 70
     0
 71
     2
 72
     1
 73
     1
 90
        2
 40
-0.6
 41
30.0
 62
     5
 63
     7
421
 16777215
 74
     0
 91
        4
 64
     7
 65
   257
 75
     1
175
     1
 42
1.0
 92
        8
 66
     7
 43
1.0
 76
     1
 77
     6
 78
     2
 67
     7
 79
     5
170
     0
171
     0
290
     0
174
     0
 93
       13
 44
0.0
173
     0
291
     1
 45
0.0
  0
VISUALSTYLE
  5
281
102
{ACAD_REACTORS
330
27F
102
}
330
27F
100
AcDbVisualStyle
  2
FlatWithEdges
 70
     1
 71
     2
 72
     1
 73
     1
 90
        2
 40
-0.6
 41
30.0
 62
     5
 63
     7
421
 16777215
 74
     1
 91
        4
 64
     7
 65
   257
 75
     1
175
     1
 42
1.0
 92
        0
 66
   257
 43
1.0
 76
     1
 77
     6
 78
     2
 67
     7
 79
     5
170
     0
171
     0
290
     0
174
     0
 93
       13
 44
0.0
173
     0
291
     1
 45
0.0
  0
VISUALSTYLE
  5
282
102
{ACAD_REACTORS
330
27F
102
}
330
27F
100
AcDbVisualStyle
  2
Gouraud
 70
     2
 71
     2
 72
     2
 73
     1
 90
        2
 40
-0.6
 41
30.0
 62
     5
 63
     7
421
 16777215
 74
     0
 91
        4
 64
     7
 65
   257
 75
     1
175
     1
 42
1.0
 92
        0
 66
     7
 43
1.0
 76
     1
 77
     6
 78
     2
 67
     7
 79
     5
170
     0
171
     0
290
     0
174
     0
 93
       13
 44
0.0
173
     0
291
     1
 45
0.0
  0
VISUALSTYLE
  5
283
102
{ACAD_REACTORS
330
27F
102
}
330
27F
100
AcDbVisualStyle
  2
GouraudWithEdges
 70
     3
 71
     2
 72
     2
 73
     1
 90
        2
 40
-0.6
 41
30.0
 62
     5
 63
     7
421
 16777215
 74
     1
 91
        4
 64
     7
 65
   257
 75
     1
175
     1
 42
1.0
 92
        0
 66
   257
 43
1.0
 76
     1
 77
     6
 78
     2
 67
     7
 79
     5
170
     0
171
     0
290
     0
174
     0
 93
       13
 44
0.0
173
     0
291
     1
 45
0.0
  0
VISUALSTYLE
  5
28D
102
{ACAD_REACTORS
330
27F
102
}
330
27F
100
AcDbVisualStyle
  2
Linepattern
 70
    14
 71
     2
 72
     2
 73
     0
 90
        0
 40
-0.6
 41
-30.0
 62
     5
 63
     7
421
 16777215
 74
     1
 91
        4
 64
     7
 65
   257
 75
     7
175
     7
 42
1.0
 92
        8
 66
     7
 43
1.0
 76
     1
 77
     6
 78
     2
 67
     7
 79
     5
170
     0
171
     0
290
     0
174
     0
 93
        1
 44
0.0
173
     0
291
     1
 45
0.0
  0
VISUALSTYLE
  5
289
102
{ACAD_REACTORS
330
27F
102
}
330
27F
100
AcDbVisualStyle
  2
Realistic
 70
     8
 71
     2
 72
     2
 73
     0
 90
        0
 40
-0.6
 41
-30.0
 62
     5
 63
     7
421
 16777215
 74
     1
 91
        0
 64
     7
 65
   257
 75
     1
175
     1
 42
1.0
 92
        8
 66
     8
424
  7895160
 43
1.0
 76
     1
 77
     6
 78
     2
 67
     7
 79
     5
170
     0
171
     0
290
     0
174
     0
 93
       13
 44
0.0
173
     0
291
     0
 45
0.0
  0
VISUALSTYLE
  5
28C
102
{ACAD_REACTORS
330
27F
102
}
330
27F
100
AcDbVisualStyle
  2
Thicken
 70
    13
 71
     2
 72
     2
 73
     0
 90
        0
 40
-0.6
 41
-30.0
 62
     5
 63
     7
421
 16777215
 74
     1
 91
        4
 64
     7
 65
   257
 75
     1
175
     1
 42
1.0
 92
       12
 66
     7
 43
1.0
 76
     1
 77
     6
 78
     2
 67
     7
 79
     5
170
     0
171
     0
290
     0
174
     0
 93
        1
 44
0.0
173
     0
291
     1
 45
0.0
  0
DICTIONARYVAR
  5
2FA
102
{ACAD_REACTORS
330
34
102
}
330
34
100
DictionaryVariables
280
     0
  1
1:15
  0
DICTIONARYVAR
  5
2F8
102
{ACAD_REACTORS
330
34
102
}
330
34
100
DictionaryVariables
280
     0
  1
STANDARD
  0
DICTIONARYVAR
  5
140
102
{ACAD_REACTORS
330
34
102
}
330
34
100
DictionaryVariables
280
     0
  1
STANDARD
  0
DICTIONARYVAR
  5
AC
102
{ACAD_REACTORS
330
34
102
}
330
34
100
DictionaryVariables
280
     0
  1
1
  0
DICTIONARYVAR
  5
35
102
{ACAD_REACTORS
330
34
102
}
330
34
100
DictionaryVariables
280
     0
  1
1
  0
DICTIONARYVAR
  5
644C
102
{ACAD_REACTORS
330
34
102
}
330
34
100
DictionaryVariables
280
     0
  1
1
  0
DICTIONARYVAR
  5
644D
102
{ACAD_REACTORS
330
34
102
}
330
34
100
DictionaryVariables
280
     0
  1
15
  0
DICTIONARYVAR
  5
2FB
102
{ACAD_REACTORS
330
34
102
}
330
34
100
DictionaryVariables
280
     0
  1
0
  0
DICTIONARYVAR
  5
2F9
102
{ACAD_REACTORS
330
34
102
}
330
34
100
DictionaryVariables
280
     0
  1
0
  0
DICTIONARY
  5
161B
102
{ACAD_REACTORS
330
49
102
}
330
49
100
AcDbDictionary
281
     1
  0
DICTIONARY
  5
4A
102
{ACAD_REACTORS
330
49
102
}
330
49
100
AcDbDictionary
281
     1
  0
XRECORD
  5
12B
102
{ACAD_REACTORS
330
49
102
}
330
49
100
AcDbXrecord
280
     1
 90
-1023410169
  0
DICTIONARY
  5
2F5
330
122
100
AcDbDictionary
280
     1
281
     1
  3
ACAD_ROUNDTRIP_2008_TABLESTYLE_CELLSTYLEMAP
360
6E57
  0
CELLSTYLEMAP
  5
6E57
102
{ACAD_REACTORS
330
2F5
102
}
330
2F5
100
AcDbCellStyleMap
 90
        3
300
CELLSTYLE
  1
TABLEFORMAT_BEGIN
 90
        5
170
     1
 91
        0
 92
    32768
 62
   257
 93
        1
300
CONTENTFORMAT
  1
CONTENTFORMAT_BEGIN
 90
        0
 91
        0
 92
      512
 93
        0
300

 40
0.0
140
1.0
 94
        5
 62
     0
340
11
144
6.0
309
CONTENTFORMAT_END
171
     1
301
MARGIN
  1
CELLMARGIN_BEGIN
 40
1.5
 40
1.5
 40
1.5
 40
1.5
 40
0.18
 40
0.18
309
CELLMARGIN_END
 94
        6
 95
        1
302
GRIDFORMAT
  1
GRIDFORMAT_BEGIN
 90
        0
 91
        1
 62
     0
 92
       -2
340
0
 93
        0
 40
0.045
309
GRIDFORMAT_END
 95
        2
302
GRIDFORMAT
  1
GRIDFORMAT_BEGIN
 90
        0
 91
        1
 62
     0
 92
       -2
340
0
 93
        0
 40
0.045
309
GRIDFORMAT_END
 95
        4
302
GRIDFORMAT
  1
GRIDFORMAT_BEGIN
 90
        0
 91
        1
 62
     0
 92
       -2
340
0
 93
        0
 40
0.045
309
GRIDFORMAT_END
 95
        8
302
GRIDFORMAT
  1
GRIDFORMAT_BEGIN
 90
        0
 91
        1
 62
     0
 92
       -2
340
0
 93
        0
 40
0.045
309
GRIDFORMAT_END
 95
       16
302
GRIDFORMAT
  1
GRIDFORMAT_BEGIN
 90
        0
 91
        1
 62
     0
 92
       -2
340
0
 93
        0
 40
0.045
309
GRIDFORMAT_END
 95
       32
302
GRIDFORMAT
  1
GRIDFORMAT_BEGIN
 90
        0
 91
        1
 62
     0
 92
       -2
340
0
 93
        0
 40
0.045
309
GRIDFORMAT_END
309
TABLEFORMAT_END
  1
CELLSTYLE_BEGIN
 90
        1
 91
        1
300
_TITLE
309
CELLSTYLE_END
300
CELLSTYLE
  1
TABLEFORMAT_BEGIN
 90
        5
170
     1
 91
        0
 92
        0
 62
   257
 93
        1
300
CONTENTFORMAT
  1
CONTENTFORMAT_BEGIN
 90
        0
 91
        0
 92
      512
 93
        0
300

 40
0.0
140
1.0
 94
        5
 62
     0
340
11
144
4.5
309
CONTENTFORMAT_END
171
     1
301
MARGIN
  1
CELLMARGIN_BEGIN
 40
1.5
 40
1.5
 40
1.5
 40
1.5
 40
0.18
 40
0.18
309
CELLMARGIN_END
 94
        6
 95
        1
302
GRIDFORMAT
  1
GRIDFORMAT_BEGIN
 90
        0
 91
        1
 62
     0
 92
       -2
340
0
 93
        0
 40
0.045
309
GRIDFORMAT_END
 95
        2
302
GRIDFORMAT
  1
GRIDFORMAT_BEGIN
 90
        0
 91
        1
 62
     0
 92
       -2
340
0
 93
        0
 40
0.045
309
GRIDFORMAT_END
 95
        4
302
GRIDFORMAT
  1
GRIDFORMAT_BEGIN
 90
        0
 91
        1
 62
     0
 92
       -2
340
0
 93
        0
 40
0.045
309
GRIDFORMAT_END
 95
        8
302
GRIDFORMAT
  1
GRIDFORMAT_BEGIN
 90
        0
 91
        1
 62
     0
 92
       -2
340
0
 93
        0
 40
0.045
309
GRIDFORMAT_END
 95
       16
302
GRIDFORMAT
  1
GRIDFORMAT_BEGIN
 90
        0
 91
        1
 62
     0
 92
       -2
340
0
 93
        0
 40
0.045
309
GRIDFORMAT_END
 95
       32
302
GRIDFORMAT
  1
GRIDFORMAT_BEGIN
 90
        0
 91
        1
 62
     0
 92
       -2
340
0
 93
        0
 40
0.045
309
GRIDFORMAT_END
309
TABLEFORMAT_END
  1
CELLSTYLE_BEGIN
 90
        2
 91
        1
300
_HEADER
309
CELLSTYLE_END
300
CELLSTYLE
  1
TABLEFORMAT_BEGIN
 90
        5
170
     1
 91
        0
 92
        0
 62
   257
 93
        1
300
CONTENTFORMAT
  1
CONTENTFORMAT_BEGIN
 90
        0
 91
        0
 92
      512
 93
        0
300

 40
0.0
140
1.0
 94
        2
 62
     0
340
11
144
4.5
309
CONTENTFORMAT_END
171
     1
301
MARGIN
  1
CELLMARGIN_BEGIN
 40
1.5
 40
1.5
 40
1.5
 40
1.5
 40
0.18
 40
0.18
309
CELLMARGIN_END
 94
        6
 95
        1
302
GRIDFORMAT
  1
GRIDFORMAT_BEGIN
 90
        0
 91
        1
 62
     0
 92
       -2
340
0
 93
        0
 40
0.045
309
GRIDFORMAT_END
 95
        2
302
GRIDFORMAT
  1
GRIDFORMAT_BEGIN
 90
        0
 91
        1
 62
     0
 92
       -2
340
0
 93
        0
 40
0.045
309
GRIDFORMAT_END
 95
        4
302
GRIDFORMAT
  1
GRIDFORMAT_BEGIN
 90
        0
 91
        1
 62
     0
 92
       -2
340
0
 93
        0
 40
0.045
309
GRIDFORMAT_END
 95
        8
302
GRIDFORMAT
  1
GRIDFORMAT_BEGIN
 90
        0
 91
        1
 62
     0
 92
       -2
340
0
 93
        0
 40
0.045
309
GRIDFORMAT_END
 95
       16
302
GRIDFORMAT
  1
GRIDFORMAT_BEGIN
 90
        0
 91
        1
 62
     0
 92
       -2
340
0
 93
        0
 40
0.045
309
GRIDFORMAT_END
 95
       32
302
GRIDFORMAT
  1
GRIDFORMAT_BEGIN
 90
        0
 91
        1
 62
     0
 92
       -2
340
0
 93
        0
 40
0.045
309
GRIDFORMAT_END
309
TABLEFORMAT_END
  1
CELLSTYLE_BEGIN
 90
        3
 91
        2
300
_DATA
309
CELLSTYLE_END
  0
ENDSEC
  0
EOF
