  0
SECTION
  2
HEADER
  9
$ACADVER
  1
AC1021
  9
$ACADMAINTVER
 70
    26
  9
$DWGCODEPAGE
  3
ANSI_932
  9
$AUTHOR
  1
技術部_日野
  9
$LASTSAVEDBY
  1
Htm_Terada
  9
$INSBASE
 10
0.0
 20
0.0
 30
0.0
  9
$EXTMIN
 10
1391.921042735364
 20
1977.586955223083
 30
-0.0000000349181948
  9
$EXTMAX
 10
3828.825945464694
 20
3692.329612555467
 30
0.0000000814935747
  9
$LIMMIN
 10
-794.8526561193321
 20
24.37779035496351
  9
$LIMMAX
 10
5505.147343880668
 20
4479.377790354964
  9
$ORTHOMODE
 70
     1
  9
$REGENMODE
 70
     1
  9
$FILLMODE
 70
     1
  9
$QTEXTMODE
 70
     0
  9
$MIRRTEXT
 70
     0
  9
$LTSCALE
 40
10.0
  9
$ATTMODE
 70
     1
  9
$TEXTSIZE
 40
25.0
  9
$TRACEWID
 40
0.05
  9
$TEXTSTYLE
  7
SEISA
  9
$CLAYER
  8
AM_5 寸法線
  9
$CELTYPE
  6
BYLAYER
  9
$CECOLOR
 62
   256
  9
$CELTSCALE
 40
1.0
  9
$DISPSILH
 70
     0
  9
$DIMSCALE
 40
1.0
  9
$DIMASZ
 40
2.5
  9
$DIMEXO
 40
0.625
  9
$DIMDLI
 40
10.0
  9
$DIMRND
 40
0.0
  9
$DIMDLE
 40
0.0
  9
$DIMEXE
 40
0.625
  9
$DIMTP
 40
0.1
  9
$DIMTM
 40
0.1
  9
$DIMTXT
 40
3.5
  9
$DIMCEN
 40
0.0
  9
$DIMTSZ
 40
0.0
  9
$DIMTOL
 70
     0
  9
$DIMLIM
 70
     0
  9
$DIMTIH
 70
     0
  9
$DIMTOH
 70
     0
  9
$DIMSE1
 70
     0
  9
$DIMSE2
 70
     0
  9
$DIMTAD
 70
     3
  9
$DIMZIN
 70
     8
  9
$DIMBLK
  1
Open30
  9
$DIMASO
 70
     1
  9
$DIMSHO
 70
     0
  9
$DIMPOST
  1

  9
$DIMAPOST
  1
"
  9
$DIMALT
 70
     0
  9
$DIMALTD
 70
     2
  9
$DIMALTF
 40
0.0393701
  9
$DIMLFAC
 40
1.0
  9
$DIMTOFL
 70
     1
  9
$DIMTVP
 40
0.0
  9
$DIMTIX
 70
     0
  9
$DIMSOXD
 70
     0
  9
$DIMSAH
 70
     0
  9
$DIMBLK1
  1

  9
$DIMBLK2
  1

  9
$DIMSTYLE
  2
SEISA
  9
$DIMCLRD
 70
     3
  9
$DIMCLRE
 70
     3
  9
$DIMCLRT
 70
     3
  9
$DIMTFAC
 40
0.71
  9
$DIMGAP
 40
1.5
  9
$DIMJUST
 70
     0
  9
$DIMSD1
 70
     0
  9
$DIMSD2
 70
     0
  9
$DIMTOLJ
 70
     0
  9
$DIMTZIN
 70
     0
  9
$DIMALTZ
 70
     0
  9
$DIMALTTZ
 70
     8
  9
$DIMUPT
 70
     0
  9
$DIMDEC
 70
     2
  9
$DIMTDEC
 70
     3
  9
$DIMALTU
 70
     2
  9
$DIMALTTD
 70
     2
  9
$DIMTXSTY
  7
SEISA
  9
$DIMAUNIT
 70
     0
  9
$DIMADEC
 70
     0
  9
$DIMALTRND
 40
0.0
  9
$DIMAZIN
 70
     2
  9
$DIMDSEP
 70
    46
  9
$DIMATFIT
 70
     3
  9
$DIMFRAC
 70
     0
  9
$DIMLDRBLK
  1
Open30
  9
$DIMLUNIT
 70
     2
  9
$DIMLWD
 70
    -1
  9
$DIMLWE
 70
    -1
  9
$DIMTMOVE
 70
     0
  9
$DIMFXL
 40
1.0
  9
$DIMFXLON
 70
     0
  9
$DIMJOGANG
 40
0.7853981633974483
  9
$DIMTFILL
 70
     0
  9
$DIMTFILLCLR
 70
     0
  9
$DIMARCSYM
 70
     1
  9
$DIMLTYPE
  6

  9
$DIMLTEX1
  6

  9
$DIMLTEX2
  6

  9
$LUNITS
 70
     2
  9
$LUPREC
 70
     2
  9
$SKETCHINC
 40
0.1
  9
$FILLETRAD
 40
2.5
  9
$AUNITS
 70
     0
  9
$AUPREC
 70
     3
  9
$MENU
  1
ACAD
  9
$ELEVATION
 40
0.0
  9
$PELEVATION
 40
0.0
  9
$THICKNESS
 40
0.0
  9
$LIMCHECK
 70
     0
  9
$CHAMFERA
 40
2.5
  9
$CHAMFERB
 40
2.5
  9
$CHAMFERC
 40
0.0
  9
$CHAMFERD
 40
0.0
  9
$SKPOLY
 70
     0
  9
$TDCREATE
 40
2450570.407364005
  9
$TDUCREATE
 40
2450570.032364005
  9
$TDUPDATE
 40
2456479.575173426
  9
$TDUUPDATE
 40
2456479.200173426
  9
$TDINDWG
 40
2.0875429398
  9
$TDUSRTIMER
 40
2.0875406019
  9
$USRTIMER
 70
     1
  9
$ANGBASE
 50
0.0
  9
$ANGDIR
 70
     0
  9
$PDMODE
 70
     0
  9
$PDSIZE
 40
0.0
  9
$PLINEWID
 40
0.0
  9
$SPLFRAME
 70
     0
  9
$SPLINETYPE
 70
     6
  9
$SPLINESEGS
 70
     8
  9
$HANDSEED
  5
113FD
  9
$SURFTAB1
 70
     6
  9
$SURFTAB2
 70
     6
  9
$SURFTYPE
 70
     6
  9
$SURFU
 70
     6
  9
$SURFV
 70
     6
  9
$UCSBASE
  2

  9
$UCSNAME
  2

  9
$UCSORG
 10
0.0
 20
0.0
 30
0.0
  9
$UCSXDIR
 10
1.0
 20
0.0
 30
0.0
  9
$UCSYDIR
 10
0.0
 20
1.0
 30
0.0
  9
$UCSORTHOREF
  2

  9
$UCSORTHOVIEW
 70
     0
  9
$UCSORGTOP
 10
0.0
 20
0.0
 30
0.0
  9
$UCSORGBOTTOM
 10
0.0
 20
0.0
 30
0.0
  9
$UCSORGLEFT
 10
0.0
 20
0.0
 30
0.0
  9
$UCSORGRIGHT
 10
0.0
 20
0.0
 30
0.0
  9
$UCSORGFRONT
 10
0.0
 20
0.0
 30
0.0
  9
$UCSORGBACK
 10
0.0
 20
0.0
 30
0.0
  9
$PUCSBASE
  2

  9
$PUCSNAME
  2

  9
$PUCSORG
 10
0.0
 20
0.0
 30
0.0
  9
$PUCSXDIR
 10
1.0
 20
0.0
 30
0.0
  9
$PUCSYDIR
 10
0.0
 20
1.0
 30
0.0
  9
$PUCSORTHOREF
  2

  9
$PUCSORTHOVIEW
 70
     0
  9
$PUCSORGTOP
 10
0.0
 20
0.0
 30
0.0
  9
$PUCSORGBOTTOM
 10
0.0
 20
0.0
 30
0.0
  9
$PUCSORGLEFT
 10
0.0
 20
0.0
 30
0.0
  9
$PUCSORGRIGHT
 10
0.0
 20
0.0
 30
0.0
  9
$PUCSORGFRONT
 10
0.0
 20
0.0
 30
0.0
  9
$PUCSORGBACK
 10
0.0
 20
0.0
 30
0.0
  9
$USERI1
 70
     0
  9
$USERI2
 70
     0
  9
$USERI3
 70
     0
  9
$USERI4
 70
     0
  9
$USERI5
 70
     0
  9
$USERR1
 40
25.4
  9
$USERR2
 40
1.0
  9
$USERR3
 40
111111111111111.0
  9
$USERR4
 40
9.0
  9
$USERR5
 40
1122112.0
  9
$WORLDVIEW
 70
     1
  9
$SHADEDGE
 70
     3
  9
$SHADEDIF
 70
    70
  9
$TILEMODE
 70
     1
  9
$MAXACTVP
 70
    16
  9
$PINSBASE
 10
0.0
 20
0.0
 30
0.0
  9
$PLIMCHECK
 70
     0
  9
$PEXTMIN
 10
1.12308328358207
 20
0.7804166500962629
 30
0.0
  9
$PEXTMAX
 10
10.10774955223864
 20
7.023749850866361
 30
0.0
  9
$PLIMMIN
 10
-0.2312499519408218
 20
-0.2312499894870548
  9
$PLIMMAX
 10
11.4620827502153
 20
8.035416452903447
  9
$UNITMODE
 70
     0
  9
$VISRETAIN
 70
     0
  9
$PLINEGEN
 70
     0
  9
$PSLTSCALE
 70
     0
  9
$TREEDEPTH
 70
  3020
  9
$CMLSTYLE
  2
STANDARD
  9
$CMLJUST
 70
     0
  9
$CMLSCALE
 40
1.0
  9
$PROXYGRAPHICS
 70
     1
  9
$MEASUREMENT
 70
     0
  9
$CELWEIGHT
370
    -1
  9
$ENDCAPS
280
     0
  9
$JOINSTYLE
280
     0
  9
$LWDISPLAY
290
     0
  9
$INSUNITS
 70
     4
  9
$HYPERLINKBASE
  1

  9
$STYLESHEET
  1
SEISA.ctb
  9
$XEDIT
290
     1
  9
$CEPSNTYPE
380
     0
  9
$PSTYLEMODE
290
     1
  9
$FINGERPRINTGUID
  2
{6A3D63E2-4DC2-11D5-AB86-003005066AB5}
  9
$VERSIONGUID
  2
{4594DCC5-4D2D-495D-92DD-106850ACB61D}
  9
$EXTNAMES
290
     1
  9
$PSVPSCALE
 40
0.0
  9
$OLESTARTUP
290
     0
  9
$SORTENTS
280
    96
  9
$INDEXCTL
280
     0
  9
$HIDETEXT
280
     0
  9
$XCLIPFRAME
290
     0
  9
$HALOGAP
280
     0
  9
$OBSCOLOR
 70
   257
  9
$OBSLTYPE
280
     0
  9
$INTERSECTIONDISPLAY
280
     0
  9
$INTERSECTIONCOLOR
 70
   257
  9
$DIMASSOC
280
     2
  9
$PROJECTNAME
  1

  9
$CAMERADISPLAY
290
     0
  9
$LENSLENGTH
 40
50.0
  9
$CAMERAHEIGHT
 40
0.0
  9
$STEPSPERSEC
 40
2.0
  9
$STEPSIZE
 40
6.0
  9
$3DDWFPREC
 40
2.0
  9
$PSOLWIDTH
 40
0.25
  9
$PSOLHEIGHT
 40
4.0
  9
$LOFTANG1
 40
1.570796326794896
  9
$LOFTANG2
 40
1.570796326794896
  9
$LOFTMAG1
 40
0.0
  9
$LOFTMAG2
 40
0.0
  9
$LOFTPARAM
 70
     7
  9
$LOFTNORMALS
280
     1
  9
$LATITUDE
 40
37.795
  9
$LONGITUDE
 40
-122.394
  9
$NORTHDIRECTION
 40
0.0
  9
$TIMEZONE
 70
 -8000
  9
$LIGHTGLYPHDISPLAY
280
     1
  9
$TILEMODELIGHTSYNCH
280
     1
  9
$CMATERIAL
347
104E6
  9
$SOLIDHIST
280
     1
  9
$SHOWHIST
280
     1
  9
$DWFFRAME
280
     2
  9
$DGNFRAME
280
     0
  9
$REALWORLDSCALE
290
     1
  9
$INTERFERECOLOR
 62
     1
  9
$INTERFEREOBJVS
345
10508
  9
$INTERFEREVPVS
346
10505
  9
$CSHADOW
280
     0
  9
$SHADOWPLANELOCATION
 40
0.0
  0
ENDSEC
  0
SECTION
  2
CLASSES
  0
CLASS
  1
ACDBDICTIONARYWDFLT
  2
AcDbDictionaryWithDefault
  3
ObjectDBX Classes
 90
        0
 91
        1
280
     0
281
     0
  0
CLASS
  1
DICTIONARYVAR
  2
AcDbDictionaryVar
  3
ObjectDBX Classes
 90
        0
 91
        8
280
     0
281
     0
  0
CLASS
  1
TABLESTYLE
  2
AcDbTableStyle
  3
ObjectDBX Classes
 90
     4095
 91
        1
280
     0
281
     0
  0
CLASS
  1
SORTENTSTABLE
  2
AcDbSortentsTable
  3
ObjectDBX Classes
 90
        0
 91
        5
280
     0
281
     0
  0
CLASS
  1
MATERIAL
  2
AcDbMaterial
  3
ObjectDBX Classes
 90
     1153
 91
        3
280
     0
281
     0
  0
CLASS
  1
VISUALSTYLE
  2
AcDbVisualStyle
  3
ObjectDBX Classes
 90
     4095
 91
       16
280
     0
281
     0
  0
CLASS
  1
SCALE
  2
AcDbScale
  3
ObjectDBX Classes
 90
     1153
 91
       36
280
     0
281
     0
  0
CLASS
  1
MLEADERSTYLE
  2
AcDbMLeaderStyle
  3
ACDB_MLEADERSTYLE_CLASS
 90
     4095
 91
        1
280
     0
281
     0
  0
CLASS
  1
ACME_DOCUMENT
  2
AcMeDbDoc
  3
AcMeServices
 90
     1024
 91
        1
280
     0
281
     0
  0
CLASS
  1
AMGSETTINGSOBJ
  2
AmgSettingsObj
  3
"AcadM|Product Description: AutoCAD Mechanical|Company: Autodesk, Inc."
 90
     1024
 91
        2
280
     0
281
     0
  0
CLASS
  1
ACMESCOPE
  2
AcMeScope
  3
AcMeServices
 90
     1024
 91
        1
280
     0
281
     0
  0
CLASS
  1
ACMECOMMANDHISTORY
  2
AcMeCommandHistory
  3
AcMeServices
 90
     1024
 91
        1
280
     0
281
     0
  0
CLASS
  1
ACIMSYSVARMAN
  2
AcImSysVarManager
  3
AcMeServices
 90
     1024
 91
        5
280
     0
281
     0
  0
CLASS
  1
ACIMINTSYSVAR
  2
AcImIntSysVar
  3
AcMeServices
 90
     1024
 91
       27
280
     0
281
     0
  0
CLASS
  1
ACMEDRAWINGMAN
  2
AcMeDrawingMan
  3
AcMeServices
 90
     1024
 91
        1
280
     0
281
     0
  0
CLASS
  1
ACMEVIEW
  2
AcMeView
  3
AcMeServices
 90
     1024
 91
        1
280
     0
281
     0
  0
CLASS
  1
ACDBENTITYCACHE
  2
AcMeEntityCache
  3
AcMeServices
 90
     1024
 91
        1
280
     0
281
     0
  0
CLASS
  1
GSMANAGER
  2
AcMeGSManager
  3
AcMeServices
 90
     1024
 91
        1
280
     0
281
     0
  0
CLASS
  1
AMDTINTERNALREACTOR
  2
AmdtInternalReactor
  3
AcMeServices
 90
     1024
 91
        2
280
     0
281
     0
  0
CLASS
  1
ACMESTATEMGR
  2
AcMeStateMgr
  3
AcMeServices
 90
     1024
 91
        1
280
     0
281
     0
  0
CLASS
  1
ACGREFMASTER
  2
AcGrefMaster
  3
AcAttribServices
 90
     1024
 91
        1
280
     0
281
     0
  0
CLASS
  1
AM_DRAWING_MGR
  2
AcDmDwgMgr
  3
AcMechDwgViewMgmt
 90
     1024
 91
        1
280
     0
281
     0
  0
CLASS
  1
AM_DWG_DOCUMENT
  2
AcDmDwgDocument
  3
AcMechDwgViewMgmt
 90
     1024
 91
        1
280
     0
281
     0
  0
CLASS
  1
AM_DWG_SHEET
  2
AcDmSheet
  3
AcMechDwgViewMgmt
 90
     1024
 91
        1
280
     0
281
     0
  0
CLASS
  1
AM_VIEWDIMPARMAP
  2
AcDmViewDimParMap
  3
AcMechDwgViewMgmt
 90
     1024
 91
        1
280
     0
281
     0
  0
CLASS
  1
ACIMREALSYSVAR
  2
AcImRealSysVar
  3
AcMeServices
 90
     1024
 91
        1
280
     0
281
     0
  0
CLASS
  1
AM_DWGMGR_NAME
  2
AcDmDwgMgrName
  3
AcMechDwgViewMgmt
 90
     1024
 91
        1
280
     0
281
     0
  0
CLASS
  1
ACME_DATABASE
  2
AcMeDbDatabase
  3
AcMeServices
 90
     1024
 91
        1
280
     0
281
     0
  0
CLASS
  1
ACRFINSADJUSTERMGR
  2
AcRfInsAdjusterMgr
  3
AcMeServices
 90
     1024
 91
        1
280
     0
281
     0
  0
CLASS
  1
ACGREFACADMASTER
  2
AcGrefacadMaster
  3
AcGrefServices
 90
     1024
 91
        1
280
     0
281
     0
  0
CLASS
  1
AMDTMENUSTATEMGR
  2
AmdtMenuStateMgr
  3
McadcomServices
 90
     1024
 91
        1
280
     0
281
     0
  0
CLASS
  1
AMDTMCOMMENUSTATE
  2
AmdtMcomMenuState
  3
McadcomServices
 90
     1024
 91
        1
280
     0
281
     0
  0
CLASS
  1
AMIMASTER
  2
AmiMaster
  3
AmiServices
 90
     1024
 91
        1
280
     0
281
     0
  0
CLASS
  1
MAPIAMMOUDLE
  2
MApiAmModule
  3
MApiAmServices
 90
     1024
 91
        1
280
     0
281
     0
  0
CLASS
  1
ACIMSTRSYSVAR
  2
AcImStrSysVar
  3
AcMeServices
 90
     1024
 91
        5
280
     0
281
     0
  0
CLASS
  1
AMDTADMENUSTATE
  2
AmdtAdMenuState
  3
DesignerServices
 90
     1024
 91
        1
280
     0
281
     0
  0
CLASS
  1
ADAPPL
  2
AcAdAppl
  3
DesignerServices
 90
     1024
 91
        1
280
     0
281
     0
  0
CLASS
  1
DEPMGR
  2
AcAdDepMgr
  3
DesignerServices
 90
     1024
 91
        1
280
     0
281
     0
  0
CLASS
  1
PARAMMGR
  2
AcAdParamMgr
  3
DesignerServices
 90
     1024
 91
        1
280
     0
281
     0
  0
CLASS
  1
PARAMSCOPE
  2
AcAdParamScope
  3
DesignerServices
 90
     1024
 91
        1
280
     0
281
     0
  0
CLASS
  1
NAMEDAPPL
  2
AcAdNamedAppl
  3
DesignerServices
 90
     1024
 91
        1
280
     0
281
     0
  0
CLASS
  1
AMDTDMMENUSTATE
  2
AmdtDmMenuState
  3
AcMechDwgViewMgmt
 90
     1024
 91
        1
280
     0
281
     0
  0
CLASS
  1
AMDTAMMENUSTATE
  2
AmdtAmMenuState
  3
DesignerAssemblies
 90
     1024
 91
        1
280
     0
281
     0
  0
CLASS
  1
ACAMPROJECT
  2
AcAmProject
  3
DesignerAssemblies
 90
     1024
 91
        1
280
     0
281
     0
  0
CLASS
  1
ACAMGRCOMPDEF
  2
AcAmGrCompDef
  3
DesignerAssemblies
 90
     1024
 91
        1
280
     0
281
     0
  0
CLASS
  1
ACCMCONTEXT
  2
AcCmContext
  3
DesignerAssemblies
 90
     1024
 91
        1
280
     0
281
     0
  0
CLASS
  1
ACAMCOMPDEF
  2
AcAmCompDef
  3
DesignerAssemblies
 90
     1024
 91
        1
280
     0
281
     0
  0
CLASS
  1
ACAMCOMPDEFMGR
  2
AcAmCompDefMgr
  3
DesignerAssemblies
 90
     1024
 91
        1
280
     0
281
     0
  0
CLASS
  1
AMCONTEXTMGR
  2
AcAmContextMgr
  3
DesignerAssemblies
 90
     1024
 91
        1
280
     0
281
     0
  0
CLASS
  1
ACAMCONTEXTMODELER
  2
AcAmContextModeler
  3
DesignerAssemblies
 90
     1024
 91
        1
280
     0
281
     0
  0
CLASS
  1
ACMDATADICTIONARY
  2
AcmDataDictionary
  3
"AcmSymBB|Product Description: AutoCAD Mechanical|Company: Autodesk, Inc."
 90
     1024
 91
        1
280
     0
281
     0
  0
CLASS
  1
CATALOGSTATE
  2
AcAmCatalogState
  3
DesignerAssemblies
 90
     1024
 91
        1
280
     0
281
     0
  0
CLASS
  1
ACAMGRCOMPDEFSET
  2
AcAmGrCompDefSet
  3
DesignerAssemblies
 90
     1024
 91
        1
280
     0
281
     0
  0
CLASS
  1
AMDTBROWSERDBTAB
  2
AmdtBrowserDbTab
  3
McadcomServices
 90
     1024
 91
        1
280
     0
281
     0
  0
CLASS
  1
CBROWSERAPPOBJECT
  2
CBrowserAppObject
  3
McadcomServices
 90
     1024
 91
        3
280
     0
281
     0
  0
CLASS
  1
DM_PLACEHOLDER
  2
AcDmSelsetPlaceholder
  3
AcMechDwgViewMgmt
 90
     1024
 91
        1
280
     0
281
     0
  0
CLASS
  1
ACMSTANDARDANSI
  2
AcmStandardANSI
  3
"Amdt_StdImp|Product Description: AutoCAD Mechanical|Company: Autodesk, Inc."
 90
     1024
 91
        1
280
     0
281
     0
  0
CLASS
  1
AMGOBJPROPCFG
  2
AmgObjPropCfg
  3
"AmgLay|Product Description: AutoCAD Mechanical|Company: Autodesk, Inc."
 90
     1025
 91
        1
280
     0
281
     0
  0
CLASS
  1
ACMSURFSTANDARDANSI
  2
AcmSurfTextStdANSI
  3
"Amdt_StdImp|Product Description: AutoCAD Mechanical|Company: Autodesk, Inc."
 90
     1024
 91
        1
280
     0
281
     0
  0
CLASS
  1
ACMFCFSTANDARDANSI
  2
AcmFCFStdANSI
  3
"Amdt_StdImp|Product Description: AutoCAD Mechanical|Company: Autodesk, Inc."
 90
     1024
 91
        1
280
     0
281
     0
  0
CLASS
  1
ACMWELDSTANDARDANSI
  2
AcmWeldingStdANSI
  3
"Amdt_StdImp|Product Description: AutoCAD Mechanical|Company: Autodesk, Inc."
 90
     1024
 91
        1
280
     0
281
     0
  0
CLASS
  1
ACMIDSTANDARDANSI
  2
AcmIdStdANSI
  3
"Amdt_StdImp|Product Description: AutoCAD Mechanical|Company: Autodesk, Inc."
 90
     1024
 91
        1
280
     0
281
     0
  0
CLASS
  1
ACMDATUMSTANDARDANSI
  2
AcmDatumStdANSI
  3
"Amdt_StdImp|Product Description: AutoCAD Mechanical|Company: Autodesk, Inc."
 90
     1024
 91
        1
280
     0
281
     0
  0
CLASS
  1
ACMBOMSTANDARDANSI
  2
AcmBOMStdANSI
  3
"Amdt_StdImp|Product Description: AutoCAD Mechanical|Company: Autodesk, Inc."
 90
     1024
 91
        1
280
     0
281
     0
  0
CLASS
  1
ACMDETAILSTANDARDANSI
  2
AmdtDetailSymStdANSI
  3
"Amdt_StdImp|Product Description: AutoCAD Mechanical|Company: Autodesk, Inc."
 90
     1024
 91
        1
280
     0
281
     0
  0
CLASS
  1
ACMSECTIONSTANDARDANSI
  2
AmdtSectionSymStdANSI
  3
"Amdt_StdImp|Product Description: AutoCAD Mechanical|Company: Autodesk, Inc."
 90
     1024
 91
        1
280
     0
281
     0
  0
CLASS
  1
ACMCENTERLINESTANDARDANSI
  2
AmdtCenterLineStdANSI
  3
"Amdt_StdImp|Product Description: AutoCAD Mechanical|Company: Autodesk, Inc."
 90
     1024
 91
        1
280
     0
281
     0
  0
CLASS
  1
ACMTHREADLINESTANDARDANSI
  2
AmdtThreadLineStdANSI
  3
"Amdt_StdImp|Product Description: AutoCAD Mechanical|Company: Autodesk, Inc."
 90
     1024
 91
        1
280
     0
281
     0
  0
CLASS
  1
ACMNOTESTANDARDANSI
  2
AmdtNoteStdANSI
  3
"Amdt_StdImp|Product Description: AutoCAD Mechanical|Company: Autodesk, Inc."
 90
     1024
 91
        1
280
     0
281
     0
  0
CLASS
  1
ACMTAPERSTANDARDANSI
  2
AcmTaperStdANSI
  3
"Amdt_StdImp|Product Description: AutoCAD Mechanical|Company: Autodesk, Inc."
 90
     1024
 91
        1
280
     0
281
     0
  0
CLASS
  1
ACMANOOTATIONVIEWSTANDARDANSI
  2
AmdtAnViewStdANSI
  3
"Amdt_StdImp|Product Description: AutoCAD Mechanical|Company: Autodesk, Inc."
 90
     1024
 91
        1
280
     0
281
     0
  0
CLASS
  1
AMDTNOTETEMPLATEDB
  2
AmdtNoteTemplateDB
  3
AcmSymBB|Product Description: AutoCAD Mechanical|Company: Autodesk, Inc.
 90
     1024
 91
        6
280
     0
281
     0
  0
CLASS
  1
ACAMGLAYSTD
  2
AcAmgLayStd
  3
"AmgLay|Product Description: AutoCAD Mechanical|Company: Autodesk, Inc."
 90
     1024
 91
        1
280
     0
281
     0
  0
CLASS
  1
ACAMGDIMSTD
  2
AcAmgDimStd
  3
"AmgDim|Product Description: AutoCAD Mechanical|Company: Autodesk, Inc."
 90
     1024
 91
        1
280
     0
281
     0
  0
CLASS
  1
ACAMGHOLECHARTSTDANSI
  2
AcAmgHoleChartStdANSI
  3
AmgDim|Product Description: AutoCAD Mechanical|Company: Autodesk, Inc.
 90
     1024
 91
        1
280
     0
281
     0
  0
CLASS
  1
ACAMGTITLESTD
  2
AcAmgTitleStd
  3
"AmgTitle|Product Description: AutoCAD Mechanical|Company: Autodesk, Inc."
 90
     4095
 91
        1
280
     0
281
     0
  0
CLASS
  1
ACAMGFILTERDAT
  2
AcAmgFilterDat
  3
"AcadM|Product Description: AutoCAD Mechanical|Company: Autodesk, Inc."
 90
     1024
 91
        0
280
     0
281
     0
  0
CLASS
  1
CAMSSTRUCTBTNSTATE
  2
StructBtnState
  3
DesignerAssemblies
 90
     1024
 91
        0
280
     0
281
     0
  0
CLASS
  1
CELLSTYLEMAP
  2
AcDbCellStyleMap
  3
ObjectDBX Classes
 90
     1152
 91
        2
280
     0
281
     0
  0
CLASS
  1
ACMSTANDARDJIS
  2
AcmStandardJIS
  3
"Amdt_StdImp|Product Description: AutoCAD Mechanical|Company: Autodesk, Inc."
 90
     1024
 91
        0
280
     0
281
     0
  0
CLASS
  1
ACMSURFSTANDARDJIS
  2
AcmSurfTextStdJIS
  3
"Amdt_StdImp|Product Description: AutoCAD Mechanical|Company: Autodesk, Inc."
 90
     1024
 91
        0
280
     0
281
     0
  0
CLASS
  1
ACMSURFSTANDARDJIS2003
  2
AcmSurfTextStdJIS2003
  3
"Amdt_StdImp|Product Description: AutoCAD Mechanical|Company: Autodesk, Inc."
 90
     1024
 91
        0
280
     0
281
     0
  0
CLASS
  1
ACMFCFSTANDARDJIS98
  2
AcmFCFStdJIS98
  3
"Amdt_StdImp|Product Description: AutoCAD Mechanical|Company: Autodesk, Inc."
 90
     1024
 91
        0
280
     0
281
     0
  0
CLASS
  1
ACMWELDSTANDARDJIS
  2
AcmWeldingStdJIS
  3
"Amdt_StdImp|Product Description: AutoCAD Mechanical|Company: Autodesk, Inc."
 90
     1024
 91
        0
280
     0
281
     0
  0
CLASS
  1
ACMIDSTANDARDJIS
  2
AcmIdStdJIS
  3
"Amdt_StdImp|Product Description: AutoCAD Mechanical|Company: Autodesk, Inc."
 90
     1024
 91
        0
280
     0
281
     0
  0
CLASS
  1
ACMDATUMSTANDARDJIS
  2
AcmDatumStdJIS
  3
"Amdt_StdImp|Product Description: AutoCAD Mechanical|Company: Autodesk, Inc."
 90
     1024
 91
        0
280
     0
281
     0
  0
CLASS
  1
ACMBOMSTANDARDJIS
  2
AcmBOMStdJIS
  3
"Amdt_StdImp|Product Description: AutoCAD Mechanical|Company: Autodesk, Inc."
 90
     1024
 91
        0
280
     0
281
     0
  0
CLASS
  1
ACMDETAILSTANDARDJIS
  2
AmdtDetailSymStdJIS
  3
"Amdt_StdImp|Product Description: AutoCAD Mechanical|Company: Autodesk, Inc."
 90
     1024
 91
        0
280
     0
281
     0
  0
CLASS
  1
ACMSECTIONSTANDARDJIS
  2
AmdtSectionSymStdJIS
  3
"Amdt_StdImp|Product Description: AutoCAD Mechanical|Company: Autodesk, Inc."
 90
     1024
 91
        0
280
     0
281
     0
  0
CLASS
  1
ACMCENTERLINESTANDARDJIS
  2
AmdtCenterLineStdJIS
  3
"Amdt_StdImp|Product Description: AutoCAD Mechanical|Company: Autodesk, Inc."
 90
     1024
 91
        0
280
     0
281
     0
  0
CLASS
  1
ACMTHREADLINESTANDARDJIS
  2
AmdtThreadLineStdJIS
  3
"Amdt_StdImp|Product Description: AutoCAD Mechanical|Company: Autodesk, Inc."
 90
     1024
 91
        0
280
     0
281
     0
  0
CLASS
  1
ACMNOTESTANDARDJIS
  2
AmdtNoteStdJIS
  3
"Amdt_StdImp|Product Description: AutoCAD Mechanical|Company: Autodesk, Inc."
 90
     1024
 91
        0
280
     0
281
     0
  0
CLASS
  1
ACMTAPERSTANDARDJIS
  2
AcmTaperStdJIS
  3
"Amdt_StdImp|Product Description: AutoCAD Mechanical|Company: Autodesk, Inc."
 90
     1024
 91
        0
280
     0
281
     0
  0
CLASS
  1
ACMANOOTATIONVIEWSTANDARDJIS
  2
AmdtAnViewStdJIS
  3
"Amdt_StdImp|Product Description: AutoCAD Mechanical|Company: Autodesk, Inc."
 90
     1024
 91
        0
280
     0
281
     0
  0
CLASS
  1
ACAMGHOLECHARTSTDJIS
  2
AcAmgHoleChartStdJIS
  3
AmgDim|Product Description: AutoCAD Mechanical|Company: Autodesk, Inc.
 90
     1024
 91
        0
280
     0
281
     0
  0
CLASS
  1
ACMFCFSTANDARDJIS
  2
AcmFCFStdJIS
  3
"Amdt_StdImp|Product Description: AutoCAD Mechanical|Company: Autodesk, Inc."
 90
     1024
 91
        0
280
     0
281
     0
  0
CLASS
  1
DIMASSOC
  2
AcDbDimAssoc
  3
"AcDbDimAssoc|Product Desc:     AcDim ARX App For Dimension|Company:          Autodesk, Inc.|WEB Address:      www.autodesk.com"
 90
        0
 91
        1
280
     0
281
     0
  0
ENDSEC
  0
SECTION
  2
TABLES
  0
TABLE
  2
VPORT
  5
8
330
0
100
AcDbSymbolTable
 70
     1
  0
VPORT
  5
104E4
330
8
100
AcDbSymbolTableRecord
100
AcDbViewportTableRecord
  2
*Active
 70
     0
 10
0.0
 20
0.0
 11
1.0
 21
1.0
 12
2613.411689799102
 22
2841.845419634894
 13
0.0
 23
0.0
 14
0.125
 24
0.125
 15
1.0
 25
1.0
 16
0.0
 26
0.0
 36
1.0
 17
0.0
 27
0.0
 37
0.0
 40
1921.726074771664
 41
1.571428571428571
 42
50.0
 43
0.0
 44
0.0
 50
0.0
 51
0.0
 71
     0
 72
   100
 73
     1
 74
     0
 75
     0
 76
     0
 77
     0
 78
     0
281
     0
 65
     0
110
0.0
120
0.0
130
0.0
111
1.0
121
0.0
131
0.0
112
0.0
122
1.0
132
0.0
 79
     0
146
0.0
348
10504
 60
     3
 61
     5
292
     1
282
     1
141
0.0
142
0.0
 63
   250
421
  3355443
  0
ENDTAB
  0
TABLE
  2
LTYPE
  5
5
330
0
100
AcDbSymbolTable
 70
    17
  0
LTYPE
  5
12
330
5
100
AcDbSymbolTableRecord
100
AcDbLinetypeTableRecord
  2
BYBLOCK
 70
     0
  3

 72
    65
 73
     0
 40
0.0
  0
LTYPE
  5
13
330
5
100
AcDbSymbolTableRecord
100
AcDbLinetypeTableRecord
  2
BYLAYER
 70
     0
  3

 72
    65
 73
     0
 40
0.0
  0
LTYPE
  5
14
330
5
100
AcDbSymbolTableRecord
100
AcDbLinetypeTableRecord
  2
CONTINUOUS
 70
     0
  3
Solid line
 72
    65
 73
     0
 40
0.0
  0
LTYPE
  5
22
330
5
100
AcDbSymbolTableRecord
100
AcDbLinetypeTableRecord
  2
CENTER
 70
     0
  3
__ . __
 72
    65
 73
     4
 40
7.0
 49
4.0
 74
     0
 49
-1.0
 74
     0
 49
1.0
 74
     0
 49
-1.0
 74
     0
  0
LTYPE
  5
24
330
5
100
AcDbSymbolTableRecord
100
AcDbLinetypeTableRecord
  2
HIDDEN
 70
     0
  3
Hidden __ __ __ __ __ __ __ __ __ __ __ __ __ _
 72
    65
 73
     2
 40
9.524999999999996
 49
6.349999999999997
 74
     0
 49
-3.174999999999998
 74
     0
  0
LTYPE
  5
1056C
330
5
100
AcDbSymbolTableRecord
100
AcDbLinetypeTableRecord
  2
PHANTOM2
 70
     0
  3
Phantom (.5x) ___ _ _ ___ _ _ ___ _ _ ___ _ _
 72
    65
 73
     6
 40
1.25
 49
0.625
 74
     0
 49
-0.125
 74
     0
 49
0.125
 74
     0
 49
-0.125
 74
     0
 49
0.125
 74
     0
 49
-0.125
 74
     0
  0
LTYPE
  5
105A4
330
5
100
AcDbSymbolTableRecord
100
AcDbLinetypeTableRecord
  2
Amconstr
 70
     0
  3
_______________________
 72
    65
 73
     2
 40
9999.0
 49
9999.0
 74
     0
 49
0.0
 74
     0
  0
LTYPE
  5
105AA
330
5
100
AcDbSymbolTableRecord
100
AcDbLinetypeTableRecord
  2
CENTER2
 70
     0
  3
Center (.5x) ___ _ ___ _ ___ _ ___ _ ___ _ ___
 72
    65
 73
     4
 40
28.575
 49
19.05
 74
     0
 49
-3.174999999999998
 74
     0
 49
3.174999999999998
 74
     0
 49
-3.174999999999998
 74
     0
  0
LTYPE
  5
105BC
330
5
100
AcDbSymbolTableRecord
100
AcDbLinetypeTableRecord
  2
ACANSTGB
 70
     0
  3
__ . . __ . .
 72
    65
 73
     6
 40
0.35433070866
 49
0.15748031496
 74
     0
 49
-0.03937007874
 74
     0
 49
0.03937007874
 74
     0
 49
-0.03937007874
 74
     0
 49
0.03937007874
 74
     0
 49
-0.03937007874
 74
     0
  0
LTYPE
  5
105BD
330
5
100
AcDbSymbolTableRecord
100
AcDbLinetypeTableRecord
  2
ACANSTGL
 70
     0
  3
_ _ _ _ _
 72
    65
 73
     2
 40
0.11811023622
 49
0.07874015748
 74
     0
 49
-0.03937007874
 74
     0
  0
LTYPE
  5
10674
330
5
100
AcDbSymbolTableRecord
100
AcDbLinetypeTableRecord
  2
AM_ISO08W050
 70
     0
  3
____ . ____ . ____ . ____ . ____ . ____ . ____
 72
    65
 73
     4
 40
18.0
 49
12.0
 74
     0
 49
-1.5
 74
     0
 49
3.0
 74
     0
 49
-1.5
 74
     0
  0
LTYPE
  5
10675
330
5
100
AcDbSymbolTableRecord
100
AcDbLinetypeTableRecord
  2
AM_ISO09W050
 70
     0
  3
_____ . . _____ . . _____ . . ____ .. ____
 72
    65
 73
     6
 40
22.5
 49
12.0
 74
     0
 49
-1.5
 74
     0
 49
3.0
 74
     0
 49
-1.5
 74
     0
 49
3.0
 74
     0
 49
-1.5
 74
     0
  0
LTYPE
  5
1067B
330
5
100
AcDbSymbolTableRecord
100
AcDbLinetypeTableRecord
  2
ACJISWELD
 70
     0
  3
_ _ _ _ _
 72
    65
 73
     2
 40
2.0
 49
2.0
 74
     0
 49
-1.0
 74
     0
  0
LTYPE
  5
11272
330
5
100
AcDbSymbolTableRecord
100
AcDbLinetypeTableRecord
  2
HIDDEN2
 70
     0
  3
Hidden (.5x) _ _ _ _ _ _ _ _ _ _ _ _ _ _ _ _ _
 72
    65
 73
     2
 40
0.1875
 49
0.125
 74
     0
 49
-0.0625
 74
     0
  0
LTYPE
  5
11273
330
5
100
AcDbSymbolTableRecord
100
AcDbLinetypeTableRecord
  2
Amzigzag2
 70
     0
  3
/\/-/\/-/\/-/\/-/\/-/\/
 72
    65
 73
     2
 40
0.4401
 49
0.0001
 74
     4
 75
   136
340
105A8
 46
0.0016
 50
0.0
 44
0.0
 45
0.0
 49
-0.4400000000000003
 74
     0
  0
LTYPE
  5
112F4
330
5
100
AcDbSymbolTableRecord
100
AcDbLinetypeTableRecord
  2
AM_ISO02W050
 70
     0
  3
__ __ __ __ __ __ __ __ __ __ __ __ __ __ __
 72
    65
 73
     2
 40
7.5
 49
6.0
 74
     0
 49
-1.5
 74
     0
  0
LTYPE
  5
112F5
330
5
100
AcDbSymbolTableRecord
100
AcDbLinetypeTableRecord
  2
AM_ISO08W050x2
 70
     0
  3
__ . __ . __ . __ . __ . __
 72
    65
 73
     4
 40
9.0
 49
6.0
 74
     0
 49
-0.75
 74
     0
 49
1.5
 74
     0
 49
-0.75
 74
     0
  0
LTYPE
  5
112F6
330
5
100
AcDbSymbolTableRecord
100
AcDbLinetypeTableRecord
  2
AM_ISO02W050x2
 70
     0
  3
 _ _ _ _ _ _ _ _ _ _ _ _
 72
    65
 73
     2
 40
3.75
 49
3.0
 74
     0
 49
-0.75
 74
     0
  0
LTYPE
  5
112F7
330
5
100
AcDbSymbolTableRecord
100
AcDbLinetypeTableRecord
  2
Amzigzag
 70
     0
  3
/\/-/\/-/\/-/\/-/\/-/\/
 72
    65
 73
     2
 40
11.0001
 49
0.0001
 74
     4
 75
   136
340
105A8
 46
0.04
 50
0.0
 44
0.0
 45
0.0
 49
-11.0
 74
     0
  0
ENDTAB
  0
TABLE
  2
LAYER
  5
2
102
{ACAD_XDICTIONARY
360
10693
102
}
330
0
100
AcDbSymbolTable
 70
    13
  0
LAYER
  5
F
102
{ACAD_XDICTIONARY
360
105DF
102
}
330
2
100
AcDbSymbolTableRecord
100
AcDbLayerTableRecord
  2
0
 70
     0
 62
     3
  6
CONTINUOUS
370
    13
390
28B
347
104F6
  0
LAYER
  5
2B0
102
{ACAD_XDICTIONARY
360
105E1
102
}
330
2
100
AcDbSymbolTableRecord
100
AcDbLayerTableRecord
  2
図面枠(太線)
 70
     0
 62
    40
  6
CONTINUOUS
370
    25
390
28B
347
104F6
  0
LAYER
  5
2B2
102
{ACAD_XDICTIONARY
360
105E5
102
}
330
2
100
AcDbSymbolTableRecord
100
AcDbLayerTableRecord
  2
図面枠(文字_細線)
 70
     0
 62
     2
  6
CONTINUOUS
370
    13
390
28B
347
104F6
  0
LAYER
  5
AC5
330
2
100
AcDbSymbolTableRecord
100
AcDbLayerTableRecord
  2
Defpoints
 70
     0
 62
     7
  6
CONTINUOUS
290
     0
370
    25
390
28B
347
104F6
  0
LAYER
  5
AD7
102
{ACAD_XDICTIONARY
360
105F3
102
}
330
2
100
AcDbSymbolTableRecord
100
AcDbLayerTableRecord
  2
断面､詳細
 70
     0
 62
     3
  6
CONTINUOUS
370
    13
390
28B
347
104F6
  0
LAYER
  5
AD8
102
{ACAD_XDICTIONARY
360
105F5
102
}
330
2
100
AcDbSymbolTableRecord
100
AcDbLayerTableRecord
  2
中心線
 70
     0
 62
     1
  6
CENTER
370
    13
390
28B
347
104F6
  0
LAYER
  5
1067C
102
{ACAD_XDICTIONARY
360
1067D
102
}
330
2
100
AcDbSymbolTableRecord
100
AcDbLayerTableRecord
  2
AM_0 外形線1
 70
     0
 62
     7
  6
CONTINUOUS
370
    25
390
28B
347
104F6
  0
LAYER
  5
10680
330
2
100
AcDbSymbolTableRecord
100
AcDbLayerTableRecord
  2
AM_6 文字
 70
     0
 62
     2
  6
CONTINUOUS
370
    13
390
28B
347
104F6
1001
AcAecLayerStandard
1000

1000

  0
LAYER
  5
10681
330
2
100
AcDbSymbolTableRecord
100
AcDbLayerTableRecord
  2
AM_11 想像線
 70
     0
 62
     5
  6
AM_ISO09W050
370
    13
390
28B
347
104F6
1001
AcAecLayerStandard
1000

1000

  0
LAYER
  5
108F7
330
2
100
AcDbSymbolTableRecord
100
AcDbLayerTableRecord
  2
AM_3 隠れ線
 70
     0
 62
     8
  6
ACJISWELD
370
    13
390
28B
347
104F6
1001
AcAecLayerStandard
1000

1000

  0
LAYER
  5
108F8
330
2
100
AcDbSymbolTableRecord
100
AcDbLayerTableRecord
  2
AM_4 細線
 70
     0
 62
     4
  6
CONTINUOUS
370
    13
390
28B
347
104F6
1001
AcAecLayerStandard
1000

1000

  0
LAYER
  5
108F9
330
2
100
AcDbSymbolTableRecord
100
AcDbLayerTableRecord
  2
AM_7 中心線
 70
     0
 62
     1
  6
AM_ISO08W050
370
    13
390
28B
347
104F6
1001
AcAecLayerStandard
1000

1000

  0
LAYER
  5
10A39
330
2
100
AcDbSymbolTableRecord
100
AcDbLayerTableRecord
  2
AM_5 寸法線
 70
     0
 62
     3
  6
CONTINUOUS
370
    13
390
28B
347
104F6
1001
AcAecLayerStandard
1000

1000

  0
ENDTAB
  0
TABLE
  2
STYLE
  5
3
330
0
100
AcDbSymbolTable
 70
     6
  0
STYLE
  5
10
330
3
100
AcDbSymbolTableRecord
100
AcDbTextStyleTableRecord
  2
STANDARD
 70
     0
 40
0.0
 41
1.0
 50
0.0
 71
     0
 42
25.0
  3
ISOCP.SHX
  4
EXTFONT.SHX
  0
STYLE
  5
306
330
3
100
AcDbSymbolTableRecord
100
AcDbTextStyleTableRecord
  2
SEISA
 70
     0
 40
0.0
 41
0.9
 50
0.0
 71
     0
 42
25.0
  3
romans.shx
  4
extfont2.shx
  0
STYLE
  5
105A8
330
3
100
AcDbSymbolTableRecord
100
AcDbTextStyleTableRecord
  2

 70
     1
 40
0.0
 41
1.0
 50
0.0
 71
     0
 42
3.174999999999998
  3
genltshp.shx
  4

  0
STYLE
  5
105AD
330
3
100
AcDbSymbolTableRecord
100
AcDbTextStyleTableRecord
  2
ACANSTS
 70
     0
 40
1.0
 41
1.0
 50
0.0
 71
     0
 42
3.174999999999998
  3
romans.shx
  4
extfont.shx
  0
STYLE
  5
105BB
330
3
100
AcDbSymbolTableRecord
100
AcDbTextStyleTableRecord
  2
ACANSGDT
 70
     0
 40
0.0
 41
1.0
 50
0.0
 71
     0
 42
3.174999999999998
  3
amgdt.shx
  4

  0
ENDTAB
  0
TABLE
  2
VIEW
  5
6
330
0
100
AcDbSymbolTable
 70
     0
  0
ENDTAB
  0
TABLE
  2
UCS
  5
7
330
0
100
AcDbSymbolTable
 70
     0
  0
ENDTAB
  0
TABLE
  2
APPID
  5
9
330
0
100
AcDbSymbolTable
 70
   392
  0
APPID
  5
11
330
9
100
AcDbSymbolTableRecord
100
AcDbRegAppTableRecord
  2
ACAD
 70
     0
  0
APPID
  5
F9A1
330
9
100
AcDbSymbolTableRecord
100
AcDbRegAppTableRecord
  2
ACAD_PSEXT
 70
     0
  0
APPID
  5
10533
330
9
100
AcDbSymbolTableRecord
100
AcDbRegAppTableRecord
  2
ACAD_MLEADERVER
 70
     0
  0
APPID
  5
1053F
330
9
100
AcDbSymbolTableRecord
100
AcDbRegAppTableRecord
  2
MCAD_NO_VIS
 70
     0
  0
APPID
  5
10540
330
9
100
AcDbSymbolTableRecord
100
AcDbRegAppTableRecord
  2
ACAD_TEMP_GRAPHIC
 70
     0
  0
APPID
  5
1056E
330
9
100
AcDbSymbolTableRecord
100
AcDbRegAppTableRecord
  2
AD_DRAW
 70
     0
  0
APPID
  5
10571
330
9
100
AcDbSymbolTableRecord
100
AcDbRegAppTableRecord
  2
ACATTRIBSERVICES
 70
     0
  0
APPID
  5
10592
330
9
100
AcDbSymbolTableRecord
100
AcDbRegAppTableRecord
  2
DESIGNERASSEMBLIES
 70
     0
  0
APPID
  5
10598
330
9
100
AcDbSymbolTableRecord
100
AcDbRegAppTableRecord
  2
ACADM_DIM_EDIT
 70
     0
  0
APPID
  5
10599
330
9
100
AcDbSymbolTableRecord
100
AcDbRegAppTableRecord
  2
AMDT_DM_ADJ
 70
     0
  0
APPID
  5
105D4
330
9
100
AcDbSymbolTableRecord
100
AcDbRegAppTableRecord
  2
GENIUS_GENSCREG_15
 70
     0
  0
APPID
  5
105D5
330
9
100
AcDbSymbolTableRecord
100
AcDbRegAppTableRecord
  2
GENIUS_GENOBJ-N-SDF_13
 70
     0
  0
APPID
  5
105D6
330
9
100
AcDbSymbolTableRecord
100
AcDbRegAppTableRecord
  2
GENIUS_GENODEF_13
 70
     0
  0
APPID
  5
1068D
330
9
100
AcDbSymbolTableRecord
100
AcDbRegAppTableRecord
  2
AcAecLayerStandard
 70
     0
  0
APPID
  5
1068E
330
9
100
AcDbSymbolTableRecord
100
AcDbRegAppTableRecord
  2
ACAD_DSTYLE_DIMJAG
 70
     0
  0
APPID
  5
1068F
330
9
100
AcDbSymbolTableRecord
100
AcDbRegAppTableRecord
  2
ACAD_DSTYLE_DIMTALN
 70
     0
  0
APPID
  5
106BA
330
9
100
AcDbSymbolTableRecord
100
AcDbRegAppTableRecord
  2
ACAD_DSTYLE_DIMARC_LENGTH_SYMBOL
 70
     0
  0
APPID
  5
106BB
330
9
100
AcDbSymbolTableRecord
100
AcDbRegAppTableRecord
  2
ACAD_DSTYLE_DIMJOGGED_JOGANGLE_SYMBOL
 70
     0
  0
APPID
  5
106BC
330
9
100
AcDbSymbolTableRecord
100
AcDbRegAppTableRecord
  2
AcadAnnoPO
 70
     0
  0
APPID
  5
106BD
330
9
100
AcDbSymbolTableRecord
100
AcDbRegAppTableRecord
  2
ACAD_DSTYLE_DIMTEXT_FILL
 70
     0
  0
APPID
  5
106BE
330
9
100
AcDbSymbolTableRecord
100
AcDbRegAppTableRecord
  2
ACAD_EXEMPT_FROM_CAD_STANDARDS
 70
     0
  0
APPID
  5
106BF
330
9
100
AcDbSymbolTableRecord
100
AcDbRegAppTableRecord
  2
GENIUS_GENOBJ-N-CEN_13
 70
     0
  0
APPID
  5
106C0
330
9
100
AcDbSymbolTableRecord
100
AcDbRegAppTableRecord
  2
GENIUS_GENCEN_19
 70
     0
  0
APPID
  5
106C1
330
9
100
AcDbSymbolTableRecord
100
AcDbRegAppTableRecord
  2
ACAD_DSTYLE_DIMINSPECT
 70
     0
  0
APPID
  5
106C2
330
9
100
AcDbSymbolTableRecord
100
AcDbRegAppTableRecord
  2
GENIUS_AMGTXT_16
 70
     0
  0
APPID
  5
106C3
330
9
100
AcDbSymbolTableRecord
100
AcDbRegAppTableRecord
  2
GENIUS_GENFIL_13
 70
     0
  0
APPID
  5
106C4
330
9
100
AcDbSymbolTableRecord
100
AcDbRegAppTableRecord
  2
GENIUS_GENOLIS_13
 70
     0
  0
APPID
  5
106C5
330
9
100
AcDbSymbolTableRecord
100
AcDbRegAppTableRecord
  2
GENIUS_GENOBJ-N-CHA_13
 70
     0
  0
APPID
  5
106C6
330
9
100
AcDbSymbolTableRecord
100
AcDbRegAppTableRecord
  2
GENIUS_GENOENT_13
 70
     0
  0
APPID
  5
106C7
330
9
100
AcDbSymbolTableRecord
100
AcDbRegAppTableRecord
  2
GENIUS_GENOREF_13
 70
     0
  0
APPID
  5
106C8
330
9
100
AcDbSymbolTableRecord
100
AcDbRegAppTableRecord
  2
GENIUS_GENOBJ-N-FIL_13
 70
     0
  0
APPID
  5
106C9
330
9
100
AcDbSymbolTableRecord
100
AcDbRegAppTableRecord
  2
GEVID1208829536
 70
     0
  0
APPID
  5
106CA
330
9
100
AcDbSymbolTableRecord
100
AcDbRegAppTableRecord
  2
GEVDC
 70
     0
  0
APPID
  5
106CB
330
9
100
AcDbSymbolTableRecord
100
AcDbRegAppTableRecord
  2
GEVRADREF
 70
     0
  0
APPID
  5
106CC
330
9
100
AcDbSymbolTableRecord
100
AcDbRegAppTableRecord
  2
GENIUS_GENBH_13
 70
     0
  0
APPID
  5
106CD
330
9
100
AcDbSymbolTableRecord
100
AcDbRegAppTableRecord
  2
GENIUS_GENOBJ-NBEHI-BHF_13
 70
     0
  0
APPID
  5
106CE
330
9
100
AcDbSymbolTableRecord
100
AcDbRegAppTableRecord
  2
GENIUS_GENOBJ-NBEHI-BHB_13
 70
     0
  0
APPID
  5
106CF
330
9
100
AcDbSymbolTableRecord
100
AcDbRegAppTableRecord
  2
GEVID1208829537
 70
     0
  0
APPID
  5
106D0
330
9
100
AcDbSymbolTableRecord
100
AcDbRegAppTableRecord
  2
AMG_2DHIDE
 70
     0
  0
APPID
  5
106D1
330
9
100
AcDbSymbolTableRecord
100
AcDbRegAppTableRecord
  2
AMG_2DSTRUCT_BTR
 70
     0
  0
APPID
  5
106D2
330
9
100
AcDbSymbolTableRecord
100
AcDbRegAppTableRecord
  2
GEVID1208845772
 70
     0
  0
APPID
  5
106D3
330
9
100
AcDbSymbolTableRecord
100
AcDbRegAppTableRecord
  2
GEVID1208845773
 70
     0
  0
APPID
  5
106D4
330
9
100
AcDbSymbolTableRecord
100
AcDbRegAppTableRecord
  2
ACADM_2DVIEW_IGN_NOTIFY
 70
     0
  0
APPID
  5
106D5
330
9
100
AcDbSymbolTableRecord
100
AcDbRegAppTableRecord
  2
GEVID1208845774
 70
     0
  0
APPID
  5
106D6
330
9
100
AcDbSymbolTableRecord
100
AcDbRegAppTableRecord
  2
GEVID1208845775
 70
     0
  0
APPID
  5
106D7
330
9
100
AcDbSymbolTableRecord
100
AcDbRegAppTableRecord
  2
GEVID1208845776
 70
     0
  0
APPID
  5
106D8
330
9
100
AcDbSymbolTableRecord
100
AcDbRegAppTableRecord
  2
GEVID1208845777
 70
     0
  0
APPID
  5
106D9
330
9
100
AcDbSymbolTableRecord
100
AcDbRegAppTableRecord
  2
GEVCON
 70
     0
  0
APPID
  5
106DA
330
9
100
AcDbSymbolTableRecord
100
AcDbRegAppTableRecord
  2
GENIUS_GENOBJ-F-SCPASSM_13
 70
     0
  0
APPID
  5
106DB
330
9
100
AcDbSymbolTableRecord
100
AcDbRegAppTableRecord
  2
GEVID1208845778
 70
     0
  0
APPID
  5
106DC
330
9
100
AcDbSymbolTableRecord
100
AcDbRegAppTableRecord
  2
GEVID1208845779
 70
     0
  0
APPID
  5
106DD
330
9
100
AcDbSymbolTableRecord
100
AcDbRegAppTableRecord
  2
GEVID1208845780
 70
     0
  0
APPID
  5
106DE
330
9
100
AcDbSymbolTableRecord
100
AcDbRegAppTableRecord
  2
GEVID1208845781
 70
     0
  0
APPID
  5
106DF
330
9
100
AcDbSymbolTableRecord
100
AcDbRegAppTableRecord
  2
GEVID1208845782
 70
     0
  0
APPID
  5
106E0
330
9
100
AcDbSymbolTableRecord
100
AcDbRegAppTableRecord
  2
GEVID1208845783
 70
     0
  0
APPID
  5
106E1
330
9
100
AcDbSymbolTableRecord
100
AcDbRegAppTableRecord
  2
GEVID1208845784
 70
     0
  0
APPID
  5
106E2
330
9
100
AcDbSymbolTableRecord
100
AcDbRegAppTableRecord
  2
GEVID1208845785
 70
     0
  0
APPID
  5
106E3
330
9
100
AcDbSymbolTableRecord
100
AcDbRegAppTableRecord
  2
GEVID1208845787
 70
     0
  0
APPID
  5
106E4
330
9
100
AcDbSymbolTableRecord
100
AcDbRegAppTableRecord
  2
GEVID1208845788
 70
     0
  0
APPID
  5
106E5
330
9
100
AcDbSymbolTableRecord
100
AcDbRegAppTableRecord
  2
GEVID1208845789
 70
     0
  0
APPID
  5
106E6
330
9
100
AcDbSymbolTableRecord
100
AcDbRegAppTableRecord
  2
GEVID1208845790
 70
     0
  0
APPID
  5
106E7
330
9
100
AcDbSymbolTableRecord
100
AcDbRegAppTableRecord
  2
GEVID1208845791
 70
     0
  0
APPID
  5
106E8
330
9
100
AcDbSymbolTableRecord
100
AcDbRegAppTableRecord
  2
GEVID1208845792
 70
     0
  0
APPID
  5
106E9
330
9
100
AcDbSymbolTableRecord
100
AcDbRegAppTableRecord
  2
GEVID1208845793
 70
     0
  0
APPID
  5
106EA
330
9
100
AcDbSymbolTableRecord
100
AcDbRegAppTableRecord
  2
GEVID1208845794
 70
     0
  0
APPID
  5
106EB
330
9
100
AcDbSymbolTableRecord
100
AcDbRegAppTableRecord
  2
GEVID1208845795
 70
     0
  0
APPID
  5
106EC
330
9
100
AcDbSymbolTableRecord
100
AcDbRegAppTableRecord
  2
GEVID1208845796
 70
     0
  0
APPID
  5
106ED
330
9
100
AcDbSymbolTableRecord
100
AcDbRegAppTableRecord
  2
GEVID1208845797
 70
     0
  0
APPID
  5
106EE
330
9
100
AcDbSymbolTableRecord
100
AcDbRegAppTableRecord
  2
GEVID1208845798
 70
     0
  0
APPID
  5
106EF
330
9
100
AcDbSymbolTableRecord
100
AcDbRegAppTableRecord
  2
GEVID1208845799
 70
     0
  0
APPID
  5
106F0
330
9
100
AcDbSymbolTableRecord
100
AcDbRegAppTableRecord
  2
GEVID1208845800
 70
     0
  0
APPID
  5
106F1
330
9
100
AcDbSymbolTableRecord
100
AcDbRegAppTableRecord
  2
GEVID1208845801
 70
     0
  0
APPID
  5
106F2
330
9
100
AcDbSymbolTableRecord
100
AcDbRegAppTableRecord
  2
GEVID1208845802
 70
     0
  0
APPID
  5
106F3
330
9
100
AcDbSymbolTableRecord
100
AcDbRegAppTableRecord
  2
GENIUS_GENOBJ-N-DIM_13
 70
     0
  0
APPID
  5
106F4
330
9
100
AcDbSymbolTableRecord
100
AcDbRegAppTableRecord
  2
GENIUS_GENDIM_13
 70
     0
  0
APPID
  5
106F5
330
9
100
AcDbSymbolTableRecord
100
AcDbRegAppTableRecord
  2
GENIUS_GENDIMSH_14
 70
     0
  0
APPID
  5
106F6
330
9
100
AcDbSymbolTableRecord
100
AcDbRegAppTableRecord
  2
GEVID1208845803
 70
     0
  0
APPID
  5
106F7
330
9
100
AcDbSymbolTableRecord
100
AcDbRegAppTableRecord
  2
GEVID1208845804
 70
     0
  0
APPID
  5
106F8
330
9
100
AcDbSymbolTableRecord
100
AcDbRegAppTableRecord
  2
GEVID1208845805
 70
     0
  0
APPID
  5
106F9
330
9
100
AcDbSymbolTableRecord
100
AcDbRegAppTableRecord
  2
GEVID1208845806
 70
     0
  0
APPID
  5
106FA
330
9
100
AcDbSymbolTableRecord
100
AcDbRegAppTableRecord
  2
GEVID1208845807
 70
     0
  0
APPID
  5
106FB
330
9
100
AcDbSymbolTableRecord
100
AcDbRegAppTableRecord
  2
GEVID1208845808
 70
     0
  0
APPID
  5
106FC
330
9
100
AcDbSymbolTableRecord
100
AcDbRegAppTableRecord
  2
GEVID1208845809
 70
     0
  0
APPID
  5
106FD
330
9
100
AcDbSymbolTableRecord
100
AcDbRegAppTableRecord
  2
GEVID1208845810
 70
     0
  0
APPID
  5
106FE
330
9
100
AcDbSymbolTableRecord
100
AcDbRegAppTableRecord
  2
GEVID1208845811
 70
     0
  0
APPID
  5
106FF
330
9
100
AcDbSymbolTableRecord
100
AcDbRegAppTableRecord
  2
GEVID1208845813
 70
     0
  0
APPID
  5
10700
330
9
100
AcDbSymbolTableRecord
100
AcDbRegAppTableRecord
  2
GEVID1208845814
 70
     0
  0
APPID
  5
10701
330
9
100
AcDbSymbolTableRecord
100
AcDbRegAppTableRecord
  2
GEVID1208845815
 70
     0
  0
APPID
  5
10702
330
9
100
AcDbSymbolTableRecord
100
AcDbRegAppTableRecord
  2
GEVID1208845816
 70
     0
  0
APPID
  5
10703
330
9
100
AcDbSymbolTableRecord
100
AcDbRegAppTableRecord
  2
GEVID1208845817
 70
     0
  0
APPID
  5
10704
330
9
100
AcDbSymbolTableRecord
100
AcDbRegAppTableRecord
  2
GEVID1208845818
 70
     0
  0
APPID
  5
10705
330
9
100
AcDbSymbolTableRecord
100
AcDbRegAppTableRecord
  2
GEVID1208845819
 70
     0
  0
APPID
  5
10706
330
9
100
AcDbSymbolTableRecord
100
AcDbRegAppTableRecord
  2
GEVID1208845820
 70
     0
  0
APPID
  5
10707
330
9
100
AcDbSymbolTableRecord
100
AcDbRegAppTableRecord
  2
GENIUS_GENOBJ-F-SHCL_13
 70
     0
  0
APPID
  5
10708
330
9
100
AcDbSymbolTableRecord
100
AcDbRegAppTableRecord
  2
GENIUS_GEFMSH_13
 70
     0
  0
APPID
  5
10709
330
9
100
AcDbSymbolTableRecord
100
AcDbRegAppTableRecord
  2
GENIUS_GENOBJ-F-SHCA_13
 70
     0
  0
APPID
  5
1070A
330
9
100
AcDbSymbolTableRecord
100
AcDbRegAppTableRecord
  2
GENIUS_GEFSH_13
 70
     0
  0
APPID
  5
1070B
330
9
100
AcDbSymbolTableRecord
100
AcDbRegAppTableRecord
  2
GENIUS_GEFSHP_13
 70
     0
  0
APPID
  5
1070C
330
9
100
AcDbSymbolTableRecord
100
AcDbRegAppTableRecord
  2
GENIUS_GEFSHP0_13
 70
     0
  0
APPID
  5
1070D
330
9
100
AcDbSymbolTableRecord
100
AcDbRegAppTableRecord
  2
GENIUS_GEFSH0_13
 70
     0
  0
APPID
  5
1070E
330
9
100
AcDbSymbolTableRecord
100
AcDbRegAppTableRecord
  2
GENIUS_GEFSHP1_13
 70
     0
  0
APPID
  5
1070F
330
9
100
AcDbSymbolTableRecord
100
AcDbRegAppTableRecord
  2
GENIUS_GEFSH1_13
 70
     0
  0
APPID
  5
10710
330
9
100
AcDbSymbolTableRecord
100
AcDbRegAppTableRecord
  2
GEVID1208866337
 70
     0
  0
APPID
  5
10711
330
9
100
AcDbSymbolTableRecord
100
AcDbRegAppTableRecord
  2
GEVID1208866338
 70
     0
  0
APPID
  5
10712
330
9
100
AcDbSymbolTableRecord
100
AcDbRegAppTableRecord
  2
GEVID1208866339
 70
     0
  0
APPID
  5
10713
330
9
100
AcDbSymbolTableRecord
100
AcDbRegAppTableRecord
  2
GEVID1208866340
 70
     0
  0
APPID
  5
10714
330
9
100
AcDbSymbolTableRecord
100
AcDbRegAppTableRecord
  2
GEVID1208866341
 70
     0
  0
APPID
  5
10715
330
9
100
AcDbSymbolTableRecord
100
AcDbRegAppTableRecord
  2
GEVID1208866342
 70
     0
  0
APPID
  5
10716
330
9
100
AcDbSymbolTableRecord
100
AcDbRegAppTableRecord
  2
GEVID1208913836
 70
     0
  0
APPID
  5
10717
330
9
100
AcDbSymbolTableRecord
100
AcDbRegAppTableRecord
  2
GEVID1208913837
 70
     0
  0
APPID
  5
10718
330
9
100
AcDbSymbolTableRecord
100
AcDbRegAppTableRecord
  2
GEVID1208913838
 70
     0
  0
APPID
  5
10719
330
9
100
AcDbSymbolTableRecord
100
AcDbRegAppTableRecord
  2
GEVID1208913839
 70
     0
  0
APPID
  5
1071A
330
9
100
AcDbSymbolTableRecord
100
AcDbRegAppTableRecord
  2
GENIUS_GENDTOL_13
 70
     0
  0
APPID
  5
1071B
330
9
100
AcDbSymbolTableRecord
100
AcDbRegAppTableRecord
  2
GEVID1208928889
 70
     0
  0
APPID
  5
1071C
330
9
100
AcDbSymbolTableRecord
100
AcDbRegAppTableRecord
  2
GEVID1208928890
 70
     0
  0
APPID
  5
1071D
330
9
100
AcDbSymbolTableRecord
100
AcDbRegAppTableRecord
  2
GEVID1208928891
 70
     0
  0
APPID
  5
1071E
330
9
100
AcDbSymbolTableRecord
100
AcDbRegAppTableRecord
  2
GEVID1208928892
 70
     0
  0
APPID
  5
1071F
330
9
100
AcDbSymbolTableRecord
100
AcDbRegAppTableRecord
  2
GEVID1208933827
 70
     0
  0
APPID
  5
10720
330
9
100
AcDbSymbolTableRecord
100
AcDbRegAppTableRecord
  2
GEVID1208933829
 70
     0
  0
APPID
  5
10721
330
9
100
AcDbSymbolTableRecord
100
AcDbRegAppTableRecord
  2
GEVID1208933830
 70
     0
  0
APPID
  5
10722
330
9
100
AcDbSymbolTableRecord
100
AcDbRegAppTableRecord
  2
GEVID1208933831
 70
     0
  0
APPID
  5
10723
330
9
100
AcDbSymbolTableRecord
100
AcDbRegAppTableRecord
  2
GEVID1208933832
 70
     0
  0
APPID
  5
10724
330
9
100
AcDbSymbolTableRecord
100
AcDbRegAppTableRecord
  2
GEVID1208933833
 70
     0
  0
APPID
  5
10725
330
9
100
AcDbSymbolTableRecord
100
AcDbRegAppTableRecord
  2
GEVID1208933834
 70
     0
  0
APPID
  5
10726
330
9
100
AcDbSymbolTableRecord
100
AcDbRegAppTableRecord
  2
GEVID1208933835
 70
     0
  0
APPID
  5
10727
330
9
100
AcDbSymbolTableRecord
100
AcDbRegAppTableRecord
  2
GEVID1208933836
 70
     0
  0
APPID
  5
10728
330
9
100
AcDbSymbolTableRecord
100
AcDbRegAppTableRecord
  2
GEVID1208933837
 70
     0
  0
APPID
  5
10729
330
9
100
AcDbSymbolTableRecord
100
AcDbRegAppTableRecord
  2
GEVID1208933838
 70
     0
  0
APPID
  5
1072A
330
9
100
AcDbSymbolTableRecord
100
AcDbRegAppTableRecord
  2
GEVID1208933840
 70
     0
  0
APPID
  5
1072B
330
9
100
AcDbSymbolTableRecord
100
AcDbRegAppTableRecord
  2
GEVID1208933842
 70
     0
  0
APPID
  5
1072C
330
9
100
AcDbSymbolTableRecord
100
AcDbRegAppTableRecord
  2
GEVID1208933843
 70
     0
  0
APPID
  5
1072D
330
9
100
AcDbSymbolTableRecord
100
AcDbRegAppTableRecord
  2
GEVID1208933844
 70
     0
  0
APPID
  5
1072E
330
9
100
AcDbSymbolTableRecord
100
AcDbRegAppTableRecord
  2
GEVID1208933845
 70
     0
  0
APPID
  5
1072F
330
9
100
AcDbSymbolTableRecord
100
AcDbRegAppTableRecord
  2
GEVID1208933846
 70
     0
  0
APPID
  5
10730
330
9
100
AcDbSymbolTableRecord
100
AcDbRegAppTableRecord
  2
GEVID1208933847
 70
     0
  0
APPID
  5
10731
330
9
100
AcDbSymbolTableRecord
100
AcDbRegAppTableRecord
  2
GEVID1208933848
 70
     0
  0
APPID
  5
10732
330
9
100
AcDbSymbolTableRecord
100
AcDbRegAppTableRecord
  2
GEVID1208933849
 70
     0
  0
APPID
  5
10733
330
9
100
AcDbSymbolTableRecord
100
AcDbRegAppTableRecord
  2
GEVID1208933850
 70
     0
  0
APPID
  5
10734
330
9
100
AcDbSymbolTableRecord
100
AcDbRegAppTableRecord
  2
GEVID1208933851
 70
     0
  0
APPID
  5
10735
330
9
100
AcDbSymbolTableRecord
100
AcDbRegAppTableRecord
  2
GEVID1208933852
 70
     0
  0
APPID
  5
10736
330
9
100
AcDbSymbolTableRecord
100
AcDbRegAppTableRecord
  2
GEVID1208933853
 70
     0
  0
APPID
  5
10737
330
9
100
AcDbSymbolTableRecord
100
AcDbRegAppTableRecord
  2
GEVID1208933854
 70
     0
  0
APPID
  5
10738
330
9
100
AcDbSymbolTableRecord
100
AcDbRegAppTableRecord
  2
GEVID1208933855
 70
     0
  0
APPID
  5
10739
330
9
100
AcDbSymbolTableRecord
100
AcDbRegAppTableRecord
  2
GEVID1208933856
 70
     0
  0
APPID
  5
1073A
330
9
100
AcDbSymbolTableRecord
100
AcDbRegAppTableRecord
  2
GEVID1208933857
 70
     0
  0
APPID
  5
1073B
330
9
100
AcDbSymbolTableRecord
100
AcDbRegAppTableRecord
  2
GEVID1208933858
 70
     0
  0
APPID
  5
1073C
330
9
100
AcDbSymbolTableRecord
100
AcDbRegAppTableRecord
  2
GEVID1208933859
 70
     0
  0
APPID
  5
1073D
330
9
100
AcDbSymbolTableRecord
100
AcDbRegAppTableRecord
  2
GEVID1208933860
 70
     0
  0
APPID
  5
1073E
330
9
100
AcDbSymbolTableRecord
100
AcDbRegAppTableRecord
  2
GEVID1208933861
 70
     0
  0
APPID
  5
1073F
330
9
100
AcDbSymbolTableRecord
100
AcDbRegAppTableRecord
  2
GEVID1208933862
 70
     0
  0
APPID
  5
10740
330
9
100
AcDbSymbolTableRecord
100
AcDbRegAppTableRecord
  2
GEVID1208933863
 70
     0
  0
APPID
  5
10741
330
9
100
AcDbSymbolTableRecord
100
AcDbRegAppTableRecord
  2
GEVID1208933864
 70
     0
  0
APPID
  5
10742
330
9
100
AcDbSymbolTableRecord
100
AcDbRegAppTableRecord
  2
GEVID1208933865
 70
     0
  0
APPID
  5
10743
330
9
100
AcDbSymbolTableRecord
100
AcDbRegAppTableRecord
  2
GEVID1208933866
 70
     0
  0
APPID
  5
10744
330
9
100
AcDbSymbolTableRecord
100
AcDbRegAppTableRecord
  2
GEVID1208933867
 70
     0
  0
APPID
  5
10745
330
9
100
AcDbSymbolTableRecord
100
AcDbRegAppTableRecord
  2
GEVID1208933868
 70
     0
  0
APPID
  5
10746
330
9
100
AcDbSymbolTableRecord
100
AcDbRegAppTableRecord
  2
GEVID1208933869
 70
     0
  0
APPID
  5
10747
330
9
100
AcDbSymbolTableRecord
100
AcDbRegAppTableRecord
  2
GEVID1208933870
 70
     0
  0
APPID
  5
10748
330
9
100
AcDbSymbolTableRecord
100
AcDbRegAppTableRecord
  2
GEVID1208933871
 70
     0
  0
APPID
  5
10749
330
9
100
AcDbSymbolTableRecord
100
AcDbRegAppTableRecord
  2
GEVID1208933872
 70
     0
  0
APPID
  5
1074A
330
9
100
AcDbSymbolTableRecord
100
AcDbRegAppTableRecord
  2
GEVID1208933873
 70
     0
  0
APPID
  5
1074B
330
9
100
AcDbSymbolTableRecord
100
AcDbRegAppTableRecord
  2
GEVID1208933874
 70
     0
  0
APPID
  5
1074C
330
9
100
AcDbSymbolTableRecord
100
AcDbRegAppTableRecord
  2
GEVID1208933875
 70
     0
  0
APPID
  5
1074D
330
9
100
AcDbSymbolTableRecord
100
AcDbRegAppTableRecord
  2
GEVID1208933876
 70
     0
  0
APPID
  5
1074E
330
9
100
AcDbSymbolTableRecord
100
AcDbRegAppTableRecord
  2
ACAD_DSTYLE_DIMRADIAL_EXTENSION
 70
     0
  0
APPID
  5
1074F
330
9
100
AcDbSymbolTableRecord
100
AcDbRegAppTableRecord
  2
GEVID1208999100
 70
     0
  0
APPID
  5
10750
330
9
100
AcDbSymbolTableRecord
100
AcDbRegAppTableRecord
  2
GEVID1208999101
 70
     0
  0
APPID
  5
10751
330
9
100
AcDbSymbolTableRecord
100
AcDbRegAppTableRecord
  2
GEVID1208999102
 70
     0
  0
APPID
  5
10752
330
9
100
AcDbSymbolTableRecord
100
AcDbRegAppTableRecord
  2
GEVID1208999103
 70
     0
  0
APPID
  5
10753
330
9
100
AcDbSymbolTableRecord
100
AcDbRegAppTableRecord
  2
GEVID1208999105
 70
     0
  0
APPID
  5
10754
330
9
100
AcDbSymbolTableRecord
100
AcDbRegAppTableRecord
  2
GEVID1208999106
 70
     0
  0
APPID
  5
10755
330
9
100
AcDbSymbolTableRecord
100
AcDbRegAppTableRecord
  2
GEVID1208999108
 70
     0
  0
APPID
  5
10756
330
9
100
AcDbSymbolTableRecord
100
AcDbRegAppTableRecord
  2
GEVID1208999109
 70
     0
  0
APPID
  5
10757
330
9
100
AcDbSymbolTableRecord
100
AcDbRegAppTableRecord
  2
GEVID1208999110
 70
     0
  0
APPID
  5
10758
330
9
100
AcDbSymbolTableRecord
100
AcDbRegAppTableRecord
  2
GEVID1208999111
 70
     0
  0
APPID
  5
10759
330
9
100
AcDbSymbolTableRecord
100
AcDbRegAppTableRecord
  2
GEVID1208999112
 70
     0
  0
APPID
  5
1075A
330
9
100
AcDbSymbolTableRecord
100
AcDbRegAppTableRecord
  2
GEVID1208999113
 70
     0
  0
APPID
  5
1075B
330
9
100
AcDbSymbolTableRecord
100
AcDbRegAppTableRecord
  2
GEVID1208999114
 70
     0
  0
APPID
  5
1075C
330
9
100
AcDbSymbolTableRecord
100
AcDbRegAppTableRecord
  2
GEVID1210218799
 70
     0
  0
APPID
  5
1075D
330
9
100
AcDbSymbolTableRecord
100
AcDbRegAppTableRecord
  2
GEVID1210218800
 70
     0
  0
APPID
  5
1075E
330
9
100
AcDbSymbolTableRecord
100
AcDbRegAppTableRecord
  2
GENIUS_GEFWELD_13
 70
     0
  0
APPID
  5
1075F
330
9
100
AcDbSymbolTableRecord
100
AcDbRegAppTableRecord
  2
GENIUS_GENOBJ-F-WELS_13
 70
     0
  0
APPID
  5
10760
330
9
100
AcDbSymbolTableRecord
100
AcDbRegAppTableRecord
  2
AcadAnnotative
 70
     0
  0
APPID
  5
10761
330
9
100
AcDbSymbolTableRecord
100
AcDbRegAppTableRecord
  2
GEVID1210145339
 70
     0
  0
APPID
  5
10762
330
9
100
AcDbSymbolTableRecord
100
AcDbRegAppTableRecord
  2
ACAD_DSTYLE_DIMBREAK
 70
     0
  0
APPID
  5
10763
330
9
100
AcDbSymbolTableRecord
100
AcDbRegAppTableRecord
  2
GEVID1210145340
 70
     0
  0
APPID
  5
10764
330
9
100
AcDbSymbolTableRecord
100
AcDbRegAppTableRecord
  2
GEVID1210145341
 70
     0
  0
APPID
  5
10765
330
9
100
AcDbSymbolTableRecord
100
AcDbRegAppTableRecord
  2
GEVID1210145342
 70
     0
  0
APPID
  5
10766
330
9
100
AcDbSymbolTableRecord
100
AcDbRegAppTableRecord
  2
GEVID1210145343
 70
     0
  0
APPID
  5
10767
330
9
100
AcDbSymbolTableRecord
100
AcDbRegAppTableRecord
  2
GEVID1210145344
 70
     0
  0
APPID
  5
10768
330
9
100
AcDbSymbolTableRecord
100
AcDbRegAppTableRecord
  2
GEVID1210145345
 70
     0
  0
APPID
  5
10769
330
9
100
AcDbSymbolTableRecord
100
AcDbRegAppTableRecord
  2
GEVID1210152816
 70
     0
  0
APPID
  5
1076A
330
9
100
AcDbSymbolTableRecord
100
AcDbRegAppTableRecord
  2
GEVID1210153850
 70
     0
  0
APPID
  5
1076B
330
9
100
AcDbSymbolTableRecord
100
AcDbRegAppTableRecord
  2
GEVID1210153851
 70
     0
  0
APPID
  5
1076C
330
9
100
AcDbSymbolTableRecord
100
AcDbRegAppTableRecord
  2
GEVID1210153852
 70
     0
  0
APPID
  5
1076D
330
9
100
AcDbSymbolTableRecord
100
AcDbRegAppTableRecord
  2
GEVID1210549898
 70
     0
  0
APPID
  5
1076E
330
9
100
AcDbSymbolTableRecord
100
AcDbRegAppTableRecord
  2
GEVID1210549899
 70
     0
  0
APPID
  5
1076F
330
9
100
AcDbSymbolTableRecord
100
AcDbRegAppTableRecord
  2
GEVID1210549900
 70
     0
  0
APPID
  5
10770
330
9
100
AcDbSymbolTableRecord
100
AcDbRegAppTableRecord
  2
GEVID1210549901
 70
     0
  0
APPID
  5
10771
330
9
100
AcDbSymbolTableRecord
100
AcDbRegAppTableRecord
  2
GEVID1210549902
 70
     0
  0
APPID
  5
10772
330
9
100
AcDbSymbolTableRecord
100
AcDbRegAppTableRecord
  2
GEVID1210549903
 70
     0
  0
APPID
  5
10773
330
9
100
AcDbSymbolTableRecord
100
AcDbRegAppTableRecord
  2
GEVID1210549904
 70
     0
  0
APPID
  5
10774
330
9
100
AcDbSymbolTableRecord
100
AcDbRegAppTableRecord
  2
GEVID1210549905
 70
     0
  0
APPID
  5
10775
330
9
100
AcDbSymbolTableRecord
100
AcDbRegAppTableRecord
  2
GEVID1210549906
 70
     0
  0
APPID
  5
10776
330
9
100
AcDbSymbolTableRecord
100
AcDbRegAppTableRecord
  2
GEVID1210549907
 70
     0
  0
APPID
  5
10777
330
9
100
AcDbSymbolTableRecord
100
AcDbRegAppTableRecord
  2
GEVID1210549908
 70
     0
  0
APPID
  5
10778
330
9
100
AcDbSymbolTableRecord
100
AcDbRegAppTableRecord
  2
GEVID1210549909
 70
     0
  0
APPID
  5
10779
330
9
100
AcDbSymbolTableRecord
100
AcDbRegAppTableRecord
  2
GEVID1210549910
 70
     0
  0
APPID
  5
1077A
330
9
100
AcDbSymbolTableRecord
100
AcDbRegAppTableRecord
  2
GEVID1210549911
 70
     0
  0
APPID
  5
1077B
330
9
100
AcDbSymbolTableRecord
100
AcDbRegAppTableRecord
  2
GEVID1210549912
 70
     0
  0
APPID
  5
1077C
330
9
100
AcDbSymbolTableRecord
100
AcDbRegAppTableRecord
  2
GEVID1210549913
 70
     0
  0
APPID
  5
1077D
330
9
100
AcDbSymbolTableRecord
100
AcDbRegAppTableRecord
  2
GEVID1210549914
 70
     0
  0
APPID
  5
1077E
330
9
100
AcDbSymbolTableRecord
100
AcDbRegAppTableRecord
  2
GEVID1210549915
 70
     0
  0
APPID
  5
1077F
330
9
100
AcDbSymbolTableRecord
100
AcDbRegAppTableRecord
  2
GEVID1210549916
 70
     0
  0
APPID
  5
10780
330
9
100
AcDbSymbolTableRecord
100
AcDbRegAppTableRecord
  2
GEVID1210549917
 70
     0
  0
APPID
  5
10781
330
9
100
AcDbSymbolTableRecord
100
AcDbRegAppTableRecord
  2
GENIUS_GENOBJ-N-CRS_13
 70
     0
  0
APPID
  5
10782
330
9
100
AcDbSymbolTableRecord
100
AcDbRegAppTableRecord
  2
GEVID1210549918
 70
     0
  0
APPID
  5
10783
330
9
100
AcDbSymbolTableRecord
100
AcDbRegAppTableRecord
  2
GENIUS_GENOBJ-N-CRC_13
 70
     0
  0
APPID
  5
10784
330
9
100
AcDbSymbolTableRecord
100
AcDbRegAppTableRecord
  2
GENIUS_GENCRC_14
 70
     0
  0
APPID
  5
10785
330
9
100
AcDbSymbolTableRecord
100
AcDbRegAppTableRecord
  2
GEVID1210549919
 70
     0
  0
APPID
  5
10786
330
9
100
AcDbSymbolTableRecord
100
AcDbRegAppTableRecord
  2
GEVID1210549921
 70
     0
  0
APPID
  5
10787
330
9
100
AcDbSymbolTableRecord
100
AcDbRegAppTableRecord
  2
GEVID1210549922
 70
     0
  0
APPID
  5
10788
330
9
100
AcDbSymbolTableRecord
100
AcDbRegAppTableRecord
  2
GEVID1210635173
 70
     0
  0
APPID
  5
10789
330
9
100
AcDbSymbolTableRecord
100
AcDbRegAppTableRecord
  2
GEVID1210635174
 70
     0
  0
APPID
  5
1078A
330
9
100
AcDbSymbolTableRecord
100
AcDbRegAppTableRecord
  2
GEVID1210635175
 70
     0
  0
APPID
  5
1078B
330
9
100
AcDbSymbolTableRecord
100
AcDbRegAppTableRecord
  2
GEVID1210635176
 70
     0
  0
APPID
  5
1078C
330
9
100
AcDbSymbolTableRecord
100
AcDbRegAppTableRecord
  2
GEVID1210635177
 70
     0
  0
APPID
  5
1078D
330
9
100
AcDbSymbolTableRecord
100
AcDbRegAppTableRecord
  2
GEVID1210635178
 70
     0
  0
APPID
  5
1078E
330
9
100
AcDbSymbolTableRecord
100
AcDbRegAppTableRecord
  2
GENIUS_GENIUS_GENBHEDTMP_13
 70
     0
  0
APPID
  5
1078F
330
9
100
AcDbSymbolTableRecord
100
AcDbRegAppTableRecord
  2
GEVID1210635179
 70
     0
  0
APPID
  5
10790
330
9
100
AcDbSymbolTableRecord
100
AcDbRegAppTableRecord
  2
GEVID1210635180
 70
     0
  0
APPID
  5
10791
330
9
100
AcDbSymbolTableRecord
100
AcDbRegAppTableRecord
  2
GEVID1210635181
 70
     0
  0
APPID
  5
10792
330
9
100
AcDbSymbolTableRecord
100
AcDbRegAppTableRecord
  2
GEVID1210635182
 70
     0
  0
APPID
  5
10793
330
9
100
AcDbSymbolTableRecord
100
AcDbRegAppTableRecord
  2
GEVID1210635184
 70
     0
  0
APPID
  5
10794
330
9
100
AcDbSymbolTableRecord
100
AcDbRegAppTableRecord
  2
GEVID1210635185
 70
     0
  0
APPID
  5
10795
330
9
100
AcDbSymbolTableRecord
100
AcDbRegAppTableRecord
  2
GEVID1210635186
 70
     0
  0
APPID
  5
10796
330
9
100
AcDbSymbolTableRecord
100
AcDbRegAppTableRecord
  2
GEVID1210635187
 70
     0
  0
APPID
  5
10797
330
9
100
AcDbSymbolTableRecord
100
AcDbRegAppTableRecord
  2
GEVID1210635188
 70
     0
  0
APPID
  5
10798
330
9
100
AcDbSymbolTableRecord
100
AcDbRegAppTableRecord
  2
GEVID1210635189
 70
     0
  0
APPID
  5
10799
330
9
100
AcDbSymbolTableRecord
100
AcDbRegAppTableRecord
  2
GEVID1210635190
 70
     0
  0
APPID
  5
1079A
330
9
100
AcDbSymbolTableRecord
100
AcDbRegAppTableRecord
  2
GENIUS_GENREC_14
 70
     0
  0
APPID
  5
1079B
330
9
100
AcDbSymbolTableRecord
100
AcDbRegAppTableRecord
  2
GENIUS_GENOBJ-N-REC_13
 70
     0
  0
APPID
  5
1079C
330
9
100
AcDbSymbolTableRecord
100
AcDbRegAppTableRecord
  2
GEVID1210676655
 70
     0
  0
APPID
  5
1079D
330
9
100
AcDbSymbolTableRecord
100
AcDbRegAppTableRecord
  2
GEVID1210676656
 70
     0
  0
APPID
  5
1079E
330
9
100
AcDbSymbolTableRecord
100
AcDbRegAppTableRecord
  2
GEVID1210676657
 70
     0
  0
APPID
  5
1079F
330
9
100
AcDbSymbolTableRecord
100
AcDbRegAppTableRecord
  2
GEVID1210676659
 70
     0
  0
APPID
  5
107A0
330
9
100
AcDbSymbolTableRecord
100
AcDbRegAppTableRecord
  2
GEVID1210676660
 70
     0
  0
APPID
  5
107A1
330
9
100
AcDbSymbolTableRecord
100
AcDbRegAppTableRecord
  2
GEVID1210676661
 70
     0
  0
APPID
  5
107A2
330
9
100
AcDbSymbolTableRecord
100
AcDbRegAppTableRecord
  2
GEVID1210676662
 70
     0
  0
APPID
  5
107A3
330
9
100
AcDbSymbolTableRecord
100
AcDbRegAppTableRecord
  2
GEVID1210721646
 70
     0
  0
APPID
  5
107A4
330
9
100
AcDbSymbolTableRecord
100
AcDbRegAppTableRecord
  2
GEVID1210721647
 70
     0
  0
APPID
  5
107A5
330
9
100
AcDbSymbolTableRecord
100
AcDbRegAppTableRecord
  2
GEVID1210721648
 70
     0
  0
APPID
  5
107A6
330
9
100
AcDbSymbolTableRecord
100
AcDbRegAppTableRecord
  2
GEVID1210721649
 70
     0
  0
APPID
  5
107A7
330
9
100
AcDbSymbolTableRecord
100
AcDbRegAppTableRecord
  2
GEVID1210721650
 70
     0
  0
APPID
  5
107A8
330
9
100
AcDbSymbolTableRecord
100
AcDbRegAppTableRecord
  2
GEVID1210721651
 70
     0
  0
APPID
  5
107A9
330
9
100
AcDbSymbolTableRecord
100
AcDbRegAppTableRecord
  2
GEVID1210721652
 70
     0
  0
APPID
  5
107AA
330
9
100
AcDbSymbolTableRecord
100
AcDbRegAppTableRecord
  2
GEVID1210721653
 70
     0
  0
APPID
  5
107AB
330
9
100
AcDbSymbolTableRecord
100
AcDbRegAppTableRecord
  2
PE_URL
 70
     0
  0
APPID
  5
107AC
330
9
100
AcDbSymbolTableRecord
100
AcDbRegAppTableRecord
  2
GEVID1210825555
 70
     0
  0
APPID
  5
107AD
330
9
100
AcDbSymbolTableRecord
100
AcDbRegAppTableRecord
  2
GEVID1210825556
 70
     0
  0
APPID
  5
107AE
330
9
100
AcDbSymbolTableRecord
100
AcDbRegAppTableRecord
  2
GEVID1210825557
 70
     0
  0
APPID
  5
107AF
330
9
100
AcDbSymbolTableRecord
100
AcDbRegAppTableRecord
  2
GEVID1210825558
 70
     0
  0
APPID
  5
107B0
330
9
100
AcDbSymbolTableRecord
100
AcDbRegAppTableRecord
  2
GEVID1210825559
 70
     0
  0
APPID
  5
107B1
330
9
100
AcDbSymbolTableRecord
100
AcDbRegAppTableRecord
  2
GEVID1210825560
 70
     0
  0
APPID
  5
107B2
330
9
100
AcDbSymbolTableRecord
100
AcDbRegAppTableRecord
  2
GEVID1210825561
 70
     0
  0
APPID
  5
107B3
330
9
100
AcDbSymbolTableRecord
100
AcDbRegAppTableRecord
  2
GEVID1210825562
 70
     0
  0
APPID
  5
107B4
330
9
100
AcDbSymbolTableRecord
100
AcDbRegAppTableRecord
  2
GEVID1210825563
 70
     0
  0
APPID
  5
107B5
330
9
100
AcDbSymbolTableRecord
100
AcDbRegAppTableRecord
  2
GEVID1210825564
 70
     0
  0
APPID
  5
107B6
330
9
100
AcDbSymbolTableRecord
100
AcDbRegAppTableRecord
  2
GEVID1210825565
 70
     0
  0
APPID
  5
107B7
330
9
100
AcDbSymbolTableRecord
100
AcDbRegAppTableRecord
  2
GEVID1210825566
 70
     0
  0
APPID
  5
107B8
330
9
100
AcDbSymbolTableRecord
100
AcDbRegAppTableRecord
  2
GEVID1210825567
 70
     0
  0
APPID
  5
107B9
330
9
100
AcDbSymbolTableRecord
100
AcDbRegAppTableRecord
  2
GENIUS_GENOBJ-N-ZOO_13
 70
     0
  0
APPID
  5
107BA
330
9
100
AcDbSymbolTableRecord
100
AcDbRegAppTableRecord
  2
GENIUS_GENZOO_17
 70
     0
  0
APPID
  5
107BB
330
9
100
AcDbSymbolTableRecord
100
AcDbRegAppTableRecord
  2
ACADANNOTATIVEDECOMPOSITION
 70
     0
  0
APPID
  5
107BC
330
9
100
AcDbSymbolTableRecord
100
AcDbRegAppTableRecord
  2
GENIUS_GENOBJ-N-HTC_13
 70
     0
  0
APPID
  5
107BD
330
9
100
AcDbSymbolTableRecord
100
AcDbRegAppTableRecord
  2
GENIUS_GENHATCH_13
 70
     0
  0
APPID
  5
107BE
330
9
100
AcDbSymbolTableRecord
100
AcDbRegAppTableRecord
  2
GEVID1210896020
 70
     0
  0
APPID
  5
107BF
330
9
100
AcDbSymbolTableRecord
100
AcDbRegAppTableRecord
  2
GEVID1210896021
 70
     0
  0
APPID
  5
107C0
330
9
100
AcDbSymbolTableRecord
100
AcDbRegAppTableRecord
  2
GEVID1209083540
 70
     0
  0
APPID
  5
107C1
330
9
100
AcDbSymbolTableRecord
100
AcDbRegAppTableRecord
  2
GEVMK
 70
     0
  0
APPID
  5
107C2
330
9
100
AcDbSymbolTableRecord
100
AcDbRegAppTableRecord
  2
GEVID1209083542
 70
     0
  0
APPID
  5
107C3
330
9
100
AcDbSymbolTableRecord
100
AcDbRegAppTableRecord
  2
GEVID1209083543
 70
     0
  0
APPID
  5
107C4
330
9
100
AcDbSymbolTableRecord
100
AcDbRegAppTableRecord
  2
GEVID1209083544
 70
     0
  0
APPID
  5
107C5
330
9
100
AcDbSymbolTableRecord
100
AcDbRegAppTableRecord
  2
GEVID1209083545
 70
     0
  0
APPID
  5
107C6
330
9
100
AcDbSymbolTableRecord
100
AcDbRegAppTableRecord
  2
GEVID1209083546
 70
     0
  0
APPID
  5
107C7
330
9
100
AcDbSymbolTableRecord
100
AcDbRegAppTableRecord
  2
GEVID1209083547
 70
     0
  0
APPID
  5
107C8
330
9
100
AcDbSymbolTableRecord
100
AcDbRegAppTableRecord
  2
GEVID1209083548
 70
     0
  0
APPID
  5
107C9
330
9
100
AcDbSymbolTableRecord
100
AcDbRegAppTableRecord
  2
GEVID1209083549
 70
     0
  0
APPID
  5
107CA
330
9
100
AcDbSymbolTableRecord
100
AcDbRegAppTableRecord
  2
GEVID1209083550
 70
     0
  0
APPID
  5
107CB
330
9
100
AcDbSymbolTableRecord
100
AcDbRegAppTableRecord
  2
GEVID1209083551
 70
     0
  0
APPID
  5
107CC
330
9
100
AcDbSymbolTableRecord
100
AcDbRegAppTableRecord
  2
GEVID1209083552
 70
     0
  0
APPID
  5
107CD
330
9
100
AcDbSymbolTableRecord
100
AcDbRegAppTableRecord
  2
GEVID1209083553
 70
     0
  0
APPID
  5
107CE
330
9
100
AcDbSymbolTableRecord
100
AcDbRegAppTableRecord
  2
GEVID1210896022
 70
     0
  0
APPID
  5
107CF
330
9
100
AcDbSymbolTableRecord
100
AcDbRegAppTableRecord
  2
GEVID1211508364
 70
     0
  0
APPID
  5
107D0
330
9
100
AcDbSymbolTableRecord
100
AcDbRegAppTableRecord
  2
GEVID1211414908
 70
     0
  0
APPID
  5
107D1
330
9
100
AcDbSymbolTableRecord
100
AcDbRegAppTableRecord
  2
GEVID1211414909
 70
     0
  0
APPID
  5
107D2
330
9
100
AcDbSymbolTableRecord
100
AcDbRegAppTableRecord
  2
GEVID1211508359
 70
     0
  0
APPID
  5
107D3
330
9
100
AcDbSymbolTableRecord
100
AcDbRegAppTableRecord
  2
GEVID1211508360
 70
     0
  0
APPID
  5
107D4
330
9
100
AcDbSymbolTableRecord
100
AcDbRegAppTableRecord
  2
GEVID1211508361
 70
     0
  0
APPID
  5
107D5
330
9
100
AcDbSymbolTableRecord
100
AcDbRegAppTableRecord
  2
GEVID1211508362
 70
     0
  0
APPID
  5
107D6
330
9
100
AcDbSymbolTableRecord
100
AcDbRegAppTableRecord
  2
GEVID1211508363
 70
     0
  0
APPID
  5
107D7
330
9
100
AcDbSymbolTableRecord
100
AcDbRegAppTableRecord
  2
GEVID1211878469
 70
     0
  0
APPID
  5
107D8
330
9
100
AcDbSymbolTableRecord
100
AcDbRegAppTableRecord
  2
GEVID1212642819
 70
     0
  0
APPID
  5
107D9
330
9
100
AcDbSymbolTableRecord
100
AcDbRegAppTableRecord
  2
GEVID1212642820
 70
     0
  0
APPID
  5
107DA
330
9
100
AcDbSymbolTableRecord
100
AcDbRegAppTableRecord
  2
GEVID1212642821
 70
     0
  0
APPID
  5
107DB
330
9
100
AcDbSymbolTableRecord
100
AcDbRegAppTableRecord
  2
GEVID1212642822
 70
     0
  0
APPID
  5
107DC
330
9
100
AcDbSymbolTableRecord
100
AcDbRegAppTableRecord
  2
GEVID1212642823
 70
     0
  0
APPID
  5
107DD
330
9
100
AcDbSymbolTableRecord
100
AcDbRegAppTableRecord
  2
GEVID1212642825
 70
     0
  0
APPID
  5
107DE
330
9
100
AcDbSymbolTableRecord
100
AcDbRegAppTableRecord
  2
GEVID1212642826
 70
     0
  0
APPID
  5
107DF
330
9
100
AcDbSymbolTableRecord
100
AcDbRegAppTableRecord
  2
GEVID1212642827
 70
     0
  0
APPID
  5
107E0
330
9
100
AcDbSymbolTableRecord
100
AcDbRegAppTableRecord
  2
GEVID1212642828
 70
     0
  0
APPID
  5
107E1
330
9
100
AcDbSymbolTableRecord
100
AcDbRegAppTableRecord
  2
GEVID1212642831
 70
     0
  0
APPID
  5
107E2
330
9
100
AcDbSymbolTableRecord
100
AcDbRegAppTableRecord
  2
GEVID1212642834
 70
     0
  0
APPID
  5
107E3
330
9
100
AcDbSymbolTableRecord
100
AcDbRegAppTableRecord
  2
GEVID1212642835
 70
     0
  0
APPID
  5
107E4
330
9
100
AcDbSymbolTableRecord
100
AcDbRegAppTableRecord
  2
GEVID1212642836
 70
     0
  0
APPID
  5
107E5
330
9
100
AcDbSymbolTableRecord
100
AcDbRegAppTableRecord
  2
GEVID1212642837
 70
     0
  0
APPID
  5
107E6
330
9
100
AcDbSymbolTableRecord
100
AcDbRegAppTableRecord
  2
GEVID1212642839
 70
     0
  0
APPID
  5
107E7
330
9
100
AcDbSymbolTableRecord
100
AcDbRegAppTableRecord
  2
GEVID1212642840
 70
     0
  0
APPID
  5
107E8
330
9
100
AcDbSymbolTableRecord
100
AcDbRegAppTableRecord
  2
GEVID1212642841
 70
     0
  0
APPID
  5
107E9
330
9
100
AcDbSymbolTableRecord
100
AcDbRegAppTableRecord
  2
GEVID1212655312
 70
     0
  0
APPID
  5
107EA
330
9
100
AcDbSymbolTableRecord
100
AcDbRegAppTableRecord
  2
GEVID1212655313
 70
     0
  0
APPID
  5
107EB
330
9
100
AcDbSymbolTableRecord
100
AcDbRegAppTableRecord
  2
GEVID1212656533
 70
     0
  0
APPID
  5
107EC
330
9
100
AcDbSymbolTableRecord
100
AcDbRegAppTableRecord
  2
GEVID1212656534
 70
     0
  0
APPID
  5
107ED
330
9
100
AcDbSymbolTableRecord
100
AcDbRegAppTableRecord
  2
GEVID1212656535
 70
     0
  0
APPID
  5
107EE
330
9
100
AcDbSymbolTableRecord
100
AcDbRegAppTableRecord
  2
GEVID1212656536
 70
     0
  0
APPID
  5
107EF
330
9
100
AcDbSymbolTableRecord
100
AcDbRegAppTableRecord
  2
GEVID1212656538
 70
     0
  0
APPID
  5
107F0
330
9
100
AcDbSymbolTableRecord
100
AcDbRegAppTableRecord
  2
GEVID1212656541
 70
     0
  0
APPID
  5
107F1
330
9
100
AcDbSymbolTableRecord
100
AcDbRegAppTableRecord
  2
GEVID1212656543
 70
     0
  0
APPID
  5
107F2
330
9
100
AcDbSymbolTableRecord
100
AcDbRegAppTableRecord
  2
GENIUS_GENOBJ-F-PFASSM_13
 70
     0
  0
APPID
  5
107F3
330
9
100
AcDbSymbolTableRecord
100
AcDbRegAppTableRecord
  2
GEVID1212656544
 70
     0
  0
APPID
  5
107F4
330
9
100
AcDbSymbolTableRecord
100
AcDbRegAppTableRecord
  2
GEVID1212656545
 70
     0
  0
APPID
  5
107F5
330
9
100
AcDbSymbolTableRecord
100
AcDbRegAppTableRecord
  2
GEVID1212656546
 70
     0
  0
APPID
  5
107F6
330
9
100
AcDbSymbolTableRecord
100
AcDbRegAppTableRecord
  2
GEVID1212656547
 70
     0
  0
APPID
  5
107F7
330
9
100
AcDbSymbolTableRecord
100
AcDbRegAppTableRecord
  2
GEVID1212656548
 70
     0
  0
APPID
  5
107F8
330
9
100
AcDbSymbolTableRecord
100
AcDbRegAppTableRecord
  2
GEVID1212656549
 70
     0
  0
APPID
  5
107F9
330
9
100
AcDbSymbolTableRecord
100
AcDbRegAppTableRecord
  2
GEVID1212656550
 70
     0
  0
APPID
  5
107FA
330
9
100
AcDbSymbolTableRecord
100
AcDbRegAppTableRecord
  2
GEVID1212656552
 70
     0
  0
APPID
  5
107FB
330
9
100
AcDbSymbolTableRecord
100
AcDbRegAppTableRecord
  2
GEVID1212656553
 70
     0
  0
APPID
  5
107FC
330
9
100
AcDbSymbolTableRecord
100
AcDbRegAppTableRecord
  2
GEVID1212656554
 70
     0
  0
APPID
  5
107FD
330
9
100
AcDbSymbolTableRecord
100
AcDbRegAppTableRecord
  2
GEVID1212656555
 70
     0
  0
APPID
  5
107FE
330
9
100
AcDbSymbolTableRecord
100
AcDbRegAppTableRecord
  2
GEVID1212656556
 70
     0
  0
APPID
  5
107FF
330
9
100
AcDbSymbolTableRecord
100
AcDbRegAppTableRecord
  2
GEVID1212656557
 70
     0
  0
APPID
  5
10800
330
9
100
AcDbSymbolTableRecord
100
AcDbRegAppTableRecord
  2
GEVID1212656559
 70
     0
  0
APPID
  5
10801
330
9
100
AcDbSymbolTableRecord
100
AcDbRegAppTableRecord
  2
GEVID1212656560
 70
     0
  0
APPID
  5
10802
330
9
100
AcDbSymbolTableRecord
100
AcDbRegAppTableRecord
  2
GEVID1212656561
 70
     0
  0
APPID
  5
10803
330
9
100
AcDbSymbolTableRecord
100
AcDbRegAppTableRecord
  2
GEVID1212656562
 70
     0
  0
APPID
  5
10804
330
9
100
AcDbSymbolTableRecord
100
AcDbRegAppTableRecord
  2
GEVID1212656563
 70
     0
  0
APPID
  5
10805
330
9
100
AcDbSymbolTableRecord
100
AcDbRegAppTableRecord
  2
GEVID1212711781
 70
     0
  0
APPID
  5
10806
330
9
100
AcDbSymbolTableRecord
100
AcDbRegAppTableRecord
  2
GEVID1212711782
 70
     0
  0
APPID
  5
10807
330
9
100
AcDbSymbolTableRecord
100
AcDbRegAppTableRecord
  2
GEVID1212711783
 70
     0
  0
APPID
  5
10808
330
9
100
AcDbSymbolTableRecord
100
AcDbRegAppTableRecord
  2
GEVID1212711784
 70
     0
  0
APPID
  5
10809
330
9
100
AcDbSymbolTableRecord
100
AcDbRegAppTableRecord
  2
GEVID1212711788
 70
     0
  0
APPID
  5
1080A
330
9
100
AcDbSymbolTableRecord
100
AcDbRegAppTableRecord
  2
GEVID1212711789
 70
     0
  0
APPID
  5
1080B
330
9
100
AcDbSymbolTableRecord
100
AcDbRegAppTableRecord
  2
GEVID1212711790
 70
     0
  0
APPID
  5
1080C
330
9
100
AcDbSymbolTableRecord
100
AcDbRegAppTableRecord
  2
GEVID1212711791
 70
     0
  0
APPID
  5
1080D
330
9
100
AcDbSymbolTableRecord
100
AcDbRegAppTableRecord
  2
GEVID1212711792
 70
     0
  0
APPID
  5
1080E
330
9
100
AcDbSymbolTableRecord
100
AcDbRegAppTableRecord
  2
GEVID1212711793
 70
     0
  0
APPID
  5
1080F
330
9
100
AcDbSymbolTableRecord
100
AcDbRegAppTableRecord
  2
GEVID1212711794
 70
     0
  0
APPID
  5
10810
330
9
100
AcDbSymbolTableRecord
100
AcDbRegAppTableRecord
  2
GEVID1212711795
 70
     0
  0
APPID
  5
10811
330
9
100
AcDbSymbolTableRecord
100
AcDbRegAppTableRecord
  2
GEVID1212711797
 70
     0
  0
APPID
  5
10812
330
9
100
AcDbSymbolTableRecord
100
AcDbRegAppTableRecord
  2
GEVID1212711798
 70
     0
  0
APPID
  5
10813
330
9
100
AcDbSymbolTableRecord
100
AcDbRegAppTableRecord
  2
GEVID1212711799
 70
     0
  0
APPID
  5
10814
330
9
100
AcDbSymbolTableRecord
100
AcDbRegAppTableRecord
  2
GEVID1212711800
 70
     0
  0
APPID
  5
10815
330
9
100
AcDbSymbolTableRecord
100
AcDbRegAppTableRecord
  2
GEVID1212711801
 70
     0
  0
APPID
  5
10816
330
9
100
AcDbSymbolTableRecord
100
AcDbRegAppTableRecord
  2
GEVID1212711802
 70
     0
  0
APPID
  5
10817
330
9
100
AcDbSymbolTableRecord
100
AcDbRegAppTableRecord
  2
GEVID1212711803
 70
     0
  0
APPID
  5
10818
330
9
100
AcDbSymbolTableRecord
100
AcDbRegAppTableRecord
  2
GEVID1212711804
 70
     0
  0
APPID
  5
10819
330
9
100
AcDbSymbolTableRecord
100
AcDbRegAppTableRecord
  2
GEVID1212711805
 70
     0
  0
APPID
  5
1081A
330
9
100
AcDbSymbolTableRecord
100
AcDbRegAppTableRecord
  2
GEVID1212711806
 70
     0
  0
APPID
  5
1081B
330
9
100
AcDbSymbolTableRecord
100
AcDbRegAppTableRecord
  2
GEVID1212711807
 70
     0
  0
APPID
  5
1081C
330
9
100
AcDbSymbolTableRecord
100
AcDbRegAppTableRecord
  2
GEVID1212711808
 70
     0
  0
APPID
  5
1081D
330
9
100
AcDbSymbolTableRecord
100
AcDbRegAppTableRecord
  2
GEVID1212711809
 70
     0
  0
APPID
  5
1081E
330
9
100
AcDbSymbolTableRecord
100
AcDbRegAppTableRecord
  2
GEVID1212711810
 70
     0
  0
APPID
  5
1081F
330
9
100
AcDbSymbolTableRecord
100
AcDbRegAppTableRecord
  2
GEVID1212711811
 70
     0
  0
APPID
  5
10820
330
9
100
AcDbSymbolTableRecord
100
AcDbRegAppTableRecord
  2
GENIUS_GENTRA_14
 70
     0
  0
APPID
  5
10821
330
9
100
AcDbSymbolTableRecord
100
AcDbRegAppTableRecord
  2
GENIUS_GENOBJ-N-TIT_13
 70
     0
  0
APPID
  5
10822
330
9
100
AcDbSymbolTableRecord
100
AcDbRegAppTableRecord
  2
GENIUS_GENTITLE_13
 70
     0
  0
APPID
  5
10823
330
9
100
AcDbSymbolTableRecord
100
AcDbRegAppTableRecord
  2
GENIUS_GENBLLY_14
 70
     0
  0
APPID
  5
10824
330
9
100
AcDbSymbolTableRecord
100
AcDbRegAppTableRecord
  2
GEVID1213165152
 70
     0
  0
APPID
  5
10825
330
9
100
AcDbSymbolTableRecord
100
AcDbRegAppTableRecord
  2
AcDbDynamicBlockTrueName
 70
     0
  0
APPID
  5
10826
330
9
100
AcDbSymbolTableRecord
100
AcDbRegAppTableRecord
  2
ACDBBLOCKREPETAG
 70
     0
  0
APPID
  5
10827
330
9
100
AcDbSymbolTableRecord
100
AcDbRegAppTableRecord
  2
GEVID1214872427
 70
     0
  0
APPID
  5
10828
330
9
100
AcDbSymbolTableRecord
100
AcDbRegAppTableRecord
  2
GEVID1214872428
 70
     0
  0
APPID
  5
10829
330
9
100
AcDbSymbolTableRecord
100
AcDbRegAppTableRecord
  2
GEVID1214872429
 70
     0
  0
APPID
  5
1082A
330
9
100
AcDbSymbolTableRecord
100
AcDbRegAppTableRecord
  2
GEVID1214872430
 70
     0
  0
APPID
  5
1082B
330
9
100
AcDbSymbolTableRecord
100
AcDbRegAppTableRecord
  2
GEVID1214872432
 70
     0
  0
APPID
  5
1082C
330
9
100
AcDbSymbolTableRecord
100
AcDbRegAppTableRecord
  2
GEVID1214872433
 70
     0
  0
APPID
  5
1082D
330
9
100
AcDbSymbolTableRecord
100
AcDbRegAppTableRecord
  2
AcDbDynamicBlockGUID
 70
     0
  0
APPID
  5
1082E
330
9
100
AcDbSymbolTableRecord
100
AcDbRegAppTableRecord
  2
GENIUS_GENOBJ-N-REV_13
 70
     0
  0
APPID
  5
1082F
330
9
100
AcDbSymbolTableRecord
100
AcDbRegAppTableRecord
  2
GENIUS_GENOBJ-N-RSSYM_13
 70
     0
  0
APPID
  5
10830
330
9
100
AcDbSymbolTableRecord
100
AcDbRegAppTableRecord
  2
GENIUS_GENSYMENT_13
 70
     0
  0
APPID
  5
10831
330
9
100
AcDbSymbolTableRecord
100
AcDbRegAppTableRecord
  2
GENIUS_GENSCSYM_13
 70
     0
  0
ENDTAB
  0
TABLE
  2
DIMSTYLE
  5
A
330
0
100
AcDbSymbolTable
 70
    10
100
AcDbDimStyleTable
 71
     3
340
10684
340
AE0
340
250
  0
DIMSTYLE
105
250
330
A
100
AcDbSymbolTableRecord
100
AcDbDimStyleTableRecord
  2
STANDARD
 70
     0
340
10
  0
DIMSTYLE
105
AE0
102
{ACAD_REACTORS
330
EA72
330
E962
330
EBD3
330
E963
330
E964
330
E969
330
E967
330
E968
330
EB58
330
E965
330
EAA3
330
EBF6
330
10B57
330
10BD9
330
10C63
330
10FAF
330
10FC6
102
}
330
A
100
AcDbSymbolTableRecord
100
AcDbDimStyleTableRecord
  2
ISO-25
 70
     0
 40
15.0
 41
2.5
 42
0.625
 43
10.0
 44
1.25
 73
     0
 74
     0
 77
     3
 78
     8
 79
     2
140
3.5
141
2.5
143
0.03937007874016
147
1.0
171
     3
172
     1
176
   256
177
   256
178
   256
179
     3
271
     3
272
     3
274
     3
283
     0
284
     8
289
     1
340
306
341
322
342
322
371
    -1
372
    -1
  0
DIMSTYLE
105
105C8
330
A
100
AcDbSymbolTableRecord
100
AcDbDimStyleTableRecord
  2
AM_ANSI
 70
     0
  4
mm
 41
0.1
 42
0.05
 43
0.5
 44
0.1
 47
0.1
 48
0.1
 78
     7
 79
     2
 90
     1
140
0.12
141
0.0
146
0.71
147
0.06
176
   256
177
   256
178
     2
274
     4
284
     7
340
10
371
    -1
372
    -1
  0
DIMSTYLE
105
105C9
330
A
100
AcDbSymbolTableRecord
100
AcDbDimStyleTableRecord
  2
AM_ANSI$3
 70
     0
  4
mm
 41
0.1
 42
0.05
 43
0.5
 44
0.1
 47
0.1
 48
0.1
 78
     7
 79
     2
 90
     1
140
0.12
141
0.0
146
0.71
147
0.06
176
   256
177
   256
178
     2
274
     4
284
     7
288
     1
289
     0
340
10
371
    -1
372
    -1
  0
DIMSTYLE
105
105CA
330
A
100
AcDbSymbolTableRecord
100
AcDbDimStyleTableRecord
  2
AM_ANSI$4
 70
     0
  4
mm
 41
0.1
 42
0.05
 43
0.5
 44
0.1
 47
0.1
 48
0.1
 78
     7
 79
     2
 90
     1
140
0.12
141
0.0
146
0.71
147
0.06
176
   256
177
   256
178
     2
274
     4
284
     7
288
     1
289
     0
340
10
371
    -1
372
    -1
  0
DIMSTYLE
105
105CB
330
A
100
AcDbSymbolTableRecord
100
AcDbDimStyleTableRecord
  2
AM_ANSI$7
 70
     0
  4
mm
 41
0.1
 42
0.05
 43
0.5
 44
0.1
 47
0.1
 48
0.1
 78
     7
 79
     2
 90
     1
140
0.24
141
0.0
146
0.71
147
0.06
176
   256
177
   256
178
     2
274
     4
284
     7
340
10
371
    -1
372
    -1
  0
DIMSTYLE
105
105CC
330
A
100
AcDbSymbolTableRecord
100
AcDbDimStyleTableRecord
  2
AM_ANSI$SF
 70
     0
  4
mm
 41
0.1
 42
0.05
 43
0.5
 44
0.1
 47
0.1
 48
0.1
 75
     1
 76
     1
 78
     7
 79
     2
 90
     1
140
0.12
141
0.0
146
0.71
147
0.06
176
   256
177
   256
178
     2
274
     4
284
     7
340
10
371
    -1
372
    -1
  0
DIMSTYLE
105
105D1
330
A
100
AcDbSymbolTableRecord
100
AcDbDimStyleTableRecord
  2
AM_ANSI$SH
 70
     0
  4
mm
 41
0.1
 42
0.05
 43
0.5
 44
0.1
 47
0.1
 48
0.1
 75
     1
 76
     1
 78
     7
 79
     2
 90
     1
140
0.12
141
0.0
146
0.71
147
0.06
173
     1
176
   256
177
   256
178
     2
274
     4
284
     7
340
10
343
105CD
371
    -1
372
    -1
  0
DIMSTYLE
105
10684
330
A
100
AcDbSymbolTableRecord
100
AcDbDimStyleTableRecord
  2
SEISA
 70
     0
  4
"
 41
2.5
 42
0.625
 43
10.0
 44
0.625
 47
0.1
 48
0.1
 73
     0
 74
     0
 77
     3
 78
     8
 79
     2
 90
     1
140
3.5
141
0.0
143
0.0393701
146
0.71
147
1.5
172
     1
176
     3
177
     3
178
     3
271
     2
272
     3
283
     0
286
     8
340
306
341
322
342
322
371
    -1
372
    -1
1001
ACAD_DSTYLE_DIMJAG
1070
   388
1040
1.5
1001
ACAD_DSTYLE_DIMTALN
1070
   392
1070
     1
  0
ENDTAB
  0
TABLE
  2
BLOCK_RECORD
  5
1
330
0
100
AcDbSymbolTable
 70
    30
  0
BLOCK_RECORD
  5
18
102
{ACAD_XDICTIONARY
360
1017C
102
}
330
1
100
AcDbSymbolTableRecord
100
AcDbBlockTableRecord
  2
*MODEL_SPACE
340
28E
 70
     0
280
     1
281
     0
  0
BLOCK_RECORD
  5
15
330
1
100
AcDbSymbolTableRecord
100
AcDbBlockTableRecord
  2
*PAPER_SPACE
340
28F
 70
     0
280
     1
281
     0
  0
BLOCK_RECORD
  5
322
330
1
100
AcDbSymbolTableRecord
100
AcDbBlockTableRecord
  2
_Open30
340
0
102
{BLKREFS
331
10A3D
331
10A3E
331
10A46
331
10A47
331
10A58
331
10A59
331
10A61
331
10A62
331
10A6A
331
10A6B
331
10A89
331
10A8A
331
10AA8
331
10AA9
331
10AC5
331
10AC6
331
10AD0
331
10AD1
331
10B13
331
10B1E
331
10C2F
331
10C30
331
10C90
331
10C91
331
10D79
331
10D7A
331
10F97
331
10F98
331
10FD9
331
10FDA
331
10FFB
331
10FFC
102
}
 70
     0
280
     1
281
     0
  0
BLOCK_RECORD
  5
2F48
330
1
100
AcDbSymbolTableRecord
100
AcDbBlockTableRecord
  2
_DotSmall
340
0
102
{BLKREFS
331
10B12
331
10B1D
102
}
 70
     0
280
     1
281
     0
  0
BLOCK_RECORD
  5
ED0F
330
1
100
AcDbSymbolTableRecord
100
AcDbBlockTableRecord
  2
*D2
340
0
 70
     0
280
     1
281
     0
  0
BLOCK_RECORD
  5
ED1C
330
1
100
AcDbSymbolTableRecord
100
AcDbBlockTableRecord
  2
*D3
340
0
 70
     0
280
     1
281
     0
  0
BLOCK_RECORD
  5
ED29
330
1
100
AcDbSymbolTableRecord
100
AcDbBlockTableRecord
  2
*D4
340
0
 70
     0
280
     1
281
     0
  0
BLOCK_RECORD
  5
ED36
330
1
100
AcDbSymbolTableRecord
100
AcDbBlockTableRecord
  2
*D5
340
0
 70
     0
280
     1
281
     0
  0
BLOCK_RECORD
  5
ED43
330
1
100
AcDbSymbolTableRecord
100
AcDbBlockTableRecord
  2
*D6
340
0
 70
     0
280
     1
281
     0
  0
BLOCK_RECORD
  5
ED50
330
1
100
AcDbSymbolTableRecord
100
AcDbBlockTableRecord
  2
*D7
340
0
 70
     0
280
     1
281
     0
  0
BLOCK_RECORD
  5
ED5D
330
1
100
AcDbSymbolTableRecord
100
AcDbBlockTableRecord
  2
*D8
340
0
 70
     0
280
     1
281
     0
  0
BLOCK_RECORD
  5
ED8F
330
1
100
AcDbSymbolTableRecord
100
AcDbBlockTableRecord
  2
*D9
340
0
 70
     0
280
     1
281
     0
  0
BLOCK_RECORD
  5
ED9C
330
1
100
AcDbSymbolTableRecord
100
AcDbBlockTableRecord
  2
*D10
340
0
 70
     0
280
     1
281
     0
  0
BLOCK_RECORD
  5
EDD0
330
1
100
AcDbSymbolTableRecord
100
AcDbBlockTableRecord
  2
*D11
340
0
 70
     0
280
     1
281
     0
  0
BLOCK_RECORD
  5
EDFF
330
1
100
AcDbSymbolTableRecord
100
AcDbBlockTableRecord
  2
*D12
340
0
 70
     0
280
     1
281
     0
  0
BLOCK_RECORD
  5
EE0C
330
1
100
AcDbSymbolTableRecord
100
AcDbBlockTableRecord
  2
*D13
340
0
 70
     0
280
     1
281
     0
  0
BLOCK_RECORD
  5
105CD
330
1
100
AcDbSymbolTableRecord
100
AcDbBlockTableRecord
  2
GENAXEH
340
0
 70
     0
280
     1
281
     0
  0
BLOCK_RECORD
  5
10B58
330
1
100
AcDbSymbolTableRecord
100
AcDbBlockTableRecord
  2
*D15
340
0
 70
     0
280
     1
281
     0
  0
BLOCK_RECORD
  5
10BDA
330
1
100
AcDbSymbolTableRecord
100
AcDbBlockTableRecord
  2
*D16
340
0
 70
     0
280
     1
281
     0
  0
BLOCK_RECORD
  5
10C64
330
1
100
AcDbSymbolTableRecord
100
AcDbBlockTableRecord
  2
*D17
340
0
 70
     0
280
     1
281
     0
  0
BLOCK_RECORD
  5
10E21
330
1
100
AcDbSymbolTableRecord
100
AcDbBlockTableRecord
  2
ﾘｼﾞｯﾄ　CEM1000
340
0
310
2800000020000000200000000100080000000000000400000000000000000000000000000000000000000000000080000080000000808000800000008000800080800000C0C0C000C0DCC000F0CAA6000020400000206000002080000020A0000020C0000020E00000400000004020000040400000406000004080000040A0
310
000040C0000040E00000600000006020000060400000606000006080000060A0000060C0000060E00000800000008020000080400000806000008080000080A0000080C0000080E00000A0000000A0200000A0400000A0600000A0800000A0A00000A0C00000A0E00000C0000000C0200000C0400000C0600000C0800000C0
310
A00000C0C00000C0E00000E0000000E0200000E0400000E0600000E0800000E0A00000E0C00000E0E00040000000400020004000400040006000400080004000A0004000C0004000E00040200000402020004020400040206000402080004020A0004020C0004020E000404000004040200040404000404060004040800040
310
40A0004040C0004040E00040600000406020004060400040606000406080004060A0004060C0004060E00040800000408020004080400040806000408080004080A0004080C0004080E00040A0000040A0200040A0400040A0600040A0800040A0A00040A0C00040A0E00040C0000040C0200040C0400040C0600040C08000
310
40C0A00040C0C00040C0E00040E0000040E0200040E0400040E0600040E0800040E0A00040E0C00040E0E00080000000800020008000400080006000800080008000A0008000C0008000E00080200000802020008020400080206000802080008020A0008020C0008020E00080400000804020008040400080406000804080
310
008040A0008040C0008040E00080600000806020008060400080606000806080008060A0008060C0008060E00080800000808020008080400080806000808080008080A0008080C0008080E00080A0000080A0200080A0400080A0600080A0800080A0A00080A0C00080A0E00080C0000080C0200080C0400080C0600080C0
310
800080C0A00080C0C00080C0E00080E0000080E0200080E0400080E0600080E0800080E0A00080E0C00080E0E000C0000000C0002000C0004000C0006000C0008000C000A000C000C000C000E000C0200000C0202000C0204000C0206000C0208000C020A000C020C000C020E000C0400000C0402000C0404000C0406000C0
310
408000C040A000C040C000C040E000C0600000C0602000C0604000C0606000C0608000C060A000C060C000C060E000C0800000C0802000C0804000C0806000C0808000C080A000C080C000C080E000C0A00000C0A02000C0A04000C0A06000C0A08000C0A0A000C0A0C000C0A0E000C0C00000C0C02000C0C04000C0C06000
310
C0C08000C0C0A000F0FBFF00A4A0A000808080000000FF0000FF000000FFFF00FF000000FF00FF00FFFF0000FFFFFF000000000000000000000000000000000000000000000000000000000000000000000000000000000000000000000000000000000000FFFFFF0000000000000000000000000000000000000000000000
310
000000000000FF00000000000000000000000000000000000000000000000000000000000000FF00000000000000000000000000000000000000FFFFFFFFFFFFFFFFFFFFFFFFFF000000000000000000000000000000000000FF0000000000000000000000FFFF000000000000000000000000000000000000FF0000000000
310
000000000000FFFF000000000000000000000000000000000000FF0000000000000000000000FFFF000000000000000000000000000000000000FF0000000000000000000000FFFF000000000000000000000000000000000000FF0000000000000000000000FFFF000000000000000000000000000000000000FF00000000
310
00000000000000FFFF000000000000000000000000000000000000FF0000000000000000000000FFFF000000000000000000000000000000000000FF0000000000000000000000FFFF000000000000000000000000000000000000FF0000000000000000000000FFFF000000000000000000000000000000000000FF000000
310
0000000000000000FFFF000000000000000000000000000000000000FF0000000000000000000000FFFF000000000000000000000000000000000000A4A4A4A40000000000000000A4FFA40000000000000000000000000000000000FF00000000000000000000000000FF0000000000000000000000000000000000FF0000
310
0000000000000000000000FF0000000000000000000000000000000000FF00000000000000000000000000FF0000000000000000000000000000000000FF00000000000000000000000000FF0000000000000000000000000000000000FF00000000000000000000000000FF0000000000000000000000000000000000FFFF
310
FFFFFFFFFFFFFFFFFFFFFFFFFF0000000000000000000000000000000000FF00000000000000000000000000FF0000000000000000000000000000000000FF00000000000000000000000000FF0000000000000000000000000000000000FF00000000000000000000000000FF0000000000000000000000000000000000FF
310
00000000000000000000000000FF000000000000000000000000000000000000FFFFFFFFFFFFFFFFFFFFFFFFFFFFFF0000000000000000000000000000000000000000000000000000000000FF00FF0000000000000000000000000000000000000000000000000000000000FF000000000000000000000000000000000000
310
00000000000000000000000000FFFFFF00000000000000000000000000000000000000000000000000000000000000000000000000000000
102
{BLKREFS
331
10E52
102
}
 70
     4
280
     1
281
     1
  0
BLOCK_RECORD
  5
10E5A
102
{ACAD_XDICTIONARY
360
10F1B
102
}
330
1
100
AcDbSymbolTableRecord
100
AcDbBlockTableRecord
  2
ケースＡ-E CEMH1000
340
0
310
2800000020000000200000000100080000000000000400000000000000000000000000000000000000000000000080000080000000808000800000008000800080800000C0C0C000C0DCC000F0CAA6000020400000206000002080000020A0000020C0000020E00000400000004020000040400000406000004080000040A0
310
000040C0000040E00000600000006020000060400000606000006080000060A0000060C0000060E00000800000008020000080400000806000008080000080A0000080C0000080E00000A0000000A0200000A0400000A0600000A0800000A0A00000A0C00000A0E00000C0000000C0200000C0400000C0600000C0800000C0
310
A00000C0C00000C0E00000E0000000E0200000E0400000E0600000E0800000E0A00000E0C00000E0E00040000000400020004000400040006000400080004000A0004000C0004000E00040200000402020004020400040206000402080004020A0004020C0004020E000404000004040200040404000404060004040800040
310
40A0004040C0004040E00040600000406020004060400040606000406080004060A0004060C0004060E00040800000408020004080400040806000408080004080A0004080C0004080E00040A0000040A0200040A0400040A0600040A0800040A0A00040A0C00040A0E00040C0000040C0200040C0400040C0600040C08000
310
40C0A00040C0C00040C0E00040E0000040E0200040E0400040E0600040E0800040E0A00040E0C00040E0E00080000000800020008000400080006000800080008000A0008000C0008000E00080200000802020008020400080206000802080008020A0008020C0008020E00080400000804020008040400080406000804080
310
008040A0008040C0008040E00080600000806020008060400080606000806080008060A0008060C0008060E00080800000808020008080400080806000808080008080A0008080C0008080E00080A0000080A0200080A0400080A0600080A0800080A0A00080A0C00080A0E00080C0000080C0200080C0400080C0600080C0
310
800080C0A00080C0C00080C0E00080E0000080E0200080E0400080E0600080E0800080E0A00080E0C00080E0E000C0000000C0002000C0004000C0006000C0008000C000A000C000C000C000E000C0200000C0202000C0204000C0206000C0208000C020A000C020C000C020E000C0400000C0402000C0404000C0406000C0
310
408000C040A000C040C000C040E000C0600000C0602000C0604000C0606000C0608000C060A000C060C000C060E000C0800000C0802000C0804000C0806000C0808000C080A000C080C000C080E000C0A00000C0A02000C0A04000C0A06000C0A08000C0A0A000C0A0C000C0A0E000C0C00000C0C02000C0C04000C0C06000
310
C0C08000C0C0A000F0FBFF00A4A0A000808080000000FF0000FF000000FFFF00FF000000FF00FF00FFFF0000FFFFFF0000000000000000000000000000000000000000000000000000000000000000000000000000000000000000FFFFFF0000000000000000000000000000000000000000000000000000000000FF00FF00
310
00000000000000000000000000000000000000000000000000000000FF00FF00000000FFFFFF00000000000000000000000000000000000000000000FF00FFFFFFFFFFFF00FF00000000000000000000000000000000000000000000FF00FF00000000FF00FF00000000000000000000000000000000000000000000FF00FF
310
00000000FF00FF00000000000000000000000000000000000000000000FF00FF00000000FF00FF00000000000000000000000000000000000000000000FF00FF00000000FF00FF00000000000000000000000000000000000000000000FF00FF00000000FF00FF00000000000000000000000000000000000000000000FF00
310
FF00000000FF00FF00000000000000000000000000000000000000000000FF00FF00000000FF00FF00000000000000000000000000000000000000000000FF00FF00000000FF00FF00000000000000000000000000000000000000000000FF00FF00000000FF00FF00000000000000000000000000000000000000000000FF
310
00FF00000000FF00FF00000000000000000000000000000000000000000000FF00FF00000000FF00FF00000000000000000000000000000000000000000000FF00FF00000000FF00FF000000000000000000000000000000000000000000000000000000000000000000000000000000000000000000000000000000000000
310
00000000000000000000000000000000000000000000000000000000000000000000000000000000000000000000000000000000000000000000000000000000000000000000000000000000000000000000000000000000000000000000000000000000000000000000000000000000000000000000000000000000000000
310
00000000000000000000000000000000000000000000000000000000000000000000000000000000000000000000000000000000000000000000000000000000000000000000000000000000000000000000000000000000000000000000000000000000000000000000000000000000000000000000000000000000000000
310
0000000000F9FFA4A4A4A40000000000000000000000000000000000000000000000FFFFFFFFFFFFFFFFFFFF000000000000000000000000000000000000000000000000FF00000000FFFFFF00000000000000000000000000000000000000000000FF00000000000000000000000000000000000000000000000000000000
310
000000FFFFFF0000000000000000000000000000000000000000000000000000000000000000000000000000000000000000000000000000
102
{BLKREFS
331
10E9A
102
}
 70
     4
280
     1
281
     1
  0
BLOCK_RECORD
  5
10F1D
330
1
100
AcDbSymbolTableRecord
100
AcDbBlockTableRecord
  2
ＧＣサイドカバ－1000
340
0
102
{BLKREFS
331
10F20
102
}
 70
     4
280
     1
281
     1
  0
BLOCK_RECORD
  5
10F21
102
{ACAD_XDICTIONARY
360
10F5F
102
}
330
1
100
AcDbSymbolTableRecord
100
AcDbBlockTableRecord
  2
ＧＣサイドカバ CEMH900
340
0
310
2800000020000000200000000100080000000000000400000000000000000000000000000000000000000000000080000080000000808000800000008000800080800000C0C0C000C0DCC000F0CAA6000020400000206000002080000020A0000020C0000020E00000400000004020000040400000406000004080000040A0
310
000040C0000040E00000600000006020000060400000606000006080000060A0000060C0000060E00000800000008020000080400000806000008080000080A0000080C0000080E00000A0000000A0200000A0400000A0600000A0800000A0A00000A0C00000A0E00000C0000000C0200000C0400000C0600000C0800000C0
310
A00000C0C00000C0E00000E0000000E0200000E0400000E0600000E0800000E0A00000E0C00000E0E00040000000400020004000400040006000400080004000A0004000C0004000E00040200000402020004020400040206000402080004020A0004020C0004020E000404000004040200040404000404060004040800040
310
40A0004040C0004040E00040600000406020004060400040606000406080004060A0004060C0004060E00040800000408020004080400040806000408080004080A0004080C0004080E00040A0000040A0200040A0400040A0600040A0800040A0A00040A0C00040A0E00040C0000040C0200040C0400040C0600040C08000
310
40C0A00040C0C00040C0E00040E0000040E0200040E0400040E0600040E0800040E0A00040E0C00040E0E00080000000800020008000400080006000800080008000A0008000C0008000E00080200000802020008020400080206000802080008020A0008020C0008020E00080400000804020008040400080406000804080
310
008040A0008040C0008040E00080600000806020008060400080606000806080008060A0008060C0008060E00080800000808020008080400080806000808080008080A0008080C0008080E00080A0000080A0200080A0400080A0600080A0800080A0A00080A0C00080A0E00080C0000080C0200080C0400080C0600080C0
310
800080C0A00080C0C00080C0E00080E0000080E0200080E0400080E0600080E0800080E0A00080E0C00080E0E000C0000000C0002000C0004000C0006000C0008000C000A000C000C000C000E000C0200000C0202000C0204000C0206000C0208000C020A000C020C000C020E000C0400000C0402000C0404000C0406000C0
310
408000C040A000C040C000C040E000C0600000C0602000C0604000C0606000C0608000C060A000C060C000C060E000C0800000C0802000C0804000C0806000C0808000C080A000C080C000C080E000C0A00000C0A02000C0A04000C0A06000C0A08000C0A0A000C0A0C000C0A0E000C0C00000C0C02000C0C04000C0C06000
310
C0C08000C0C0A000F0FBFF00A4A0A000808080000000FF0000FF000000FFFF00FF000000FF00FF00FFFF0000FFFFFF00000000000000000000000000000000000000000000000000000000000000000000000000FC0000FC0000000000000000FC0000FC00000000000000000000000000000000FCFCFCFC00000000000000
310
00FCFCFCFC00000000000000000000000000000000FC0000FC0000000000000000FC0000FC00000000000000000000000000000000FC0000FC0000000000000000FC0000FC00000000000000000000000000000000FC0000FC0000000000000000FC0000FC00000000000000000000000000000000FC0000FCFCFCFCFCFCFC
310
FCFCFC0000FC00000000000000000000000000000000FC0000000000000000000000000000FC00000000000000000000000000000000FC0000000000000000000000000000FC00000000000000000000000000000000FC0000000000000000000000000000FC00000000000000000000000000000000FC0000000000000000
310
000000000000FC00000000000000000000000000000000FC0000000000000000000000000000FC00000000000000000000000000000000FC0000000000000000000000000000FC00000000000000000000000000000000FC0000000000000000000000000000FC00000000000000000000000000000000FCFCFCFCFCFC0000
310
00000000000000FC000000000000000000000000000000000000000000FC000000000000000000FC000000000000000000000000000000000000000000FC000000000000000000FC00000000000000000000000000000000000000FCFCFC000000000000000000FC00000000000000000000000000000000000000FC000000
310
0000000000000000FC00000000000000000000000000000000000000FC0000000000000000000000FC00000000000000000000000000000000000000FC0000000000000000000000FC00000000000000000000000000000000000000FC0000000000000000000000FC00000000000000000000000000000000000000FCFCFC
310
FCFCFCFCFCFCFCFCFCFCFCFCFCFCFCFCFCFC0000000000000000000000FC0000000000000000000000FC00000000000000000000000000000000000000FC0000000000000000000000FC00000000000000000000000000000000000000FC0000000000000000000000FC00000000000000000000000000000000000000FC00
310
00000000000000000000FC00000000000000000000000000000000000000FC0000000000000000000000FC00000000000000000000000000000000000000FC0000000000000000000000FC00000000000000000000000000000000000000FC0000000000000000000000FC00000000000000000000000000000000000000FC
310
FCFCFCFCFCFCFCFCFCFCFCFC0000000000000000000000000000000000000000000000000000000000000000000000000000000000000000
102
{BLKREFS
331
10F36
102
}
 70
     4
280
     1
281
     1
  0
BLOCK_RECORD
  5
10F61
330
1
100
AcDbSymbolTableRecord
100
AcDbBlockTableRecord
  2
センタ-E CEMH1000
340
0
102
{BLKREFS
331
10F64
102
}
 70
     4
280
     1
281
     1
  0
BLOCK_RECORD
  5
10F65
102
{ACAD_XDICTIONARY
360
11026
102
}
330
1
100
AcDbSymbolTableRecord
100
AcDbBlockTableRecord
  2
センタ-E CEM1000
340
0
310
2800000020000000200000000100080000000000000400000000000000000000000000000000000000000000000080000080000000808000800000008000800080800000C0C0C000C0DCC000F0CAA6000020400000206000002080000020A0000020C0000020E00000400000004020000040400000406000004080000040A0
310
000040C0000040E00000600000006020000060400000606000006080000060A0000060C0000060E00000800000008020000080400000806000008080000080A0000080C0000080E00000A0000000A0200000A0400000A0600000A0800000A0A00000A0C00000A0E00000C0000000C0200000C0400000C0600000C0800000C0
310
A00000C0C00000C0E00000E0000000E0200000E0400000E0600000E0800000E0A00000E0C00000E0E00040000000400020004000400040006000400080004000A0004000C0004000E00040200000402020004020400040206000402080004020A0004020C0004020E000404000004040200040404000404060004040800040
310
40A0004040C0004040E00040600000406020004060400040606000406080004060A0004060C0004060E00040800000408020004080400040806000408080004080A0004080C0004080E00040A0000040A0200040A0400040A0600040A0800040A0A00040A0C00040A0E00040C0000040C0200040C0400040C0600040C08000
310
40C0A00040C0C00040C0E00040E0000040E0200040E0400040E0600040E0800040E0A00040E0C00040E0E00080000000800020008000400080006000800080008000A0008000C0008000E00080200000802020008020400080206000802080008020A0008020C0008020E00080400000804020008040400080406000804080
310
008040A0008040C0008040E00080600000806020008060400080606000806080008060A0008060C0008060E00080800000808020008080400080806000808080008080A0008080C0008080E00080A0000080A0200080A0400080A0600080A0800080A0A00080A0C00080A0E00080C0000080C0200080C0400080C0600080C0
310
800080C0A00080C0C00080C0E00080E0000080E0200080E0400080E0600080E0800080E0A00080E0C00080E0E000C0000000C0002000C0004000C0006000C0008000C000A000C000C000C000E000C0200000C0202000C0204000C0206000C0208000C020A000C020C000C020E000C0400000C0402000C0404000C0406000C0
310
408000C040A000C040C000C040E000C0600000C0602000C0604000C0606000C0608000C060A000C060C000C060E000C0800000C0802000C0804000C0806000C0808000C080A000C080C000C080E000C0A00000C0A02000C0A04000C0A06000C0A08000C0A0A000C0A0C000C0A0E000C0C00000C0C02000C0C04000C0C06000
310
C0C08000C0C0A000F0FBFF00A4A0A000808080000000FF0000FF000000FFFF00FF000000FF00FF00FFFF0000FFFFFF0000000000000000000000000000000000000000000000000000000000000000000000000000000000000000000000000000000000000000000000000000000000000000000000000000000000000000
310
0000000000000000000000000000000000000000000000000000000000000000000000000000000000000000000000000000000000000000000000000000FFFFFFFAFAFAFAFAFAFAFAFAFAFAFAFAFAFA00000000000000000000000000000000FF00000000FF0000000000000000FA00000000000000000000000000000000
310
00FF00000000FF0000000000000000FA0000000000000000000000000000000000FF00000000FF0000000000000000FA0000000000000000000000000000000000FF00000000FF0000000000000000FA0000000000000000000000000000000000FF00000000FF0000000000000000FA000000000000000000000000000000
310
0000FF00000000FF0000000000000000FA0000000000000000000000000000000000FF00000000FF0000000000000000FA0000000000000000000000000000000000FF00000000FF00000000000000FAFA0000000000000000000000000000000000FF00000000FF000000000000FAFAFA0000000000000000000000000000
310
000000FF00000000FF000000000000FA00FA000000000000FF00A4A400000000000000FF00A40000FF000000000000FAFAFA000000000000A4A4A400000000000000000000A4A4A4A4000000000000FAFAFA000000000000FF000000000000000000000000000000FF000000000000FAFAFA000000000000FF000000000000
310
000000000000000000FF000000000000FAFAFA000000000000FF000000FAFAFAFAFA00000000000000FF0000000000000000FA000000000000FF000000FAFAFAFAFA00000000000000FF0000000000000000FA000000000000FF0000FAFAFAFAFAFA00000000000000FF0000000000000000FA000000000000FFFFFFFAFFFF
310
FFFFFFFFFFFFFFFFFFFFFF0000000000000000FA000000FAFAFAFFFAFAFAFAFAFA000000000000000000FF0000000000000000FA0000000000FAFF0000FAFA0000000000000000000000FF0000000000000000FA000000000000FF0000FA000000000000000000000000FF0000000000000000FA000000000000FFFFFFFA00
310
000000FFFFFFFAFAFAFAFAFAFAFAFAFAFAFAFAFAFAFA0000000000000000FFFFFFFFFFFF00000000000000000000000000000000000000000000000000000000000000000000000000000000000000000000000000000000000000000000000000000000000000000000000000000000000000000000000000000000000000
310
0000000000000000000000000000000000000000000000000000000000000000000000000000000000000000000000000000000000000000
102
{BLKREFS
331
10F9D
102
}
 70
     4
280
     1
281
     1
  0
BLOCK_RECORD
  5
10FC9
330
1
100
AcDbSymbolTableRecord
100
AcDbBlockTableRecord
  2
*D24
340
0
 70
     0
280
     1
281
     0
  0
BLOCK_RECORD
  5
10FDF
330
1
100
AcDbSymbolTableRecord
100
AcDbBlockTableRecord
  2
*D25
340
0
 70
     0
280
     1
281
     0
  0
BLOCK_RECORD
  5
11028
102
{ACAD_XDICTIONARY
360
11370
102
}
330
1
100
AcDbSymbolTableRecord
100
AcDbBlockTableRecord
  2
ＧＣサイドカバ－- CEM1000
340
0
310
2800000020000000200000000100080000000000000400000000000000000000000000000000000000000000000080000080000000808000800000008000800080800000C0C0C000C0DCC000F0CAA6000020400000206000002080000020A0000020C0000020E00000400000004020000040400000406000004080000040A0
310
000040C0000040E00000600000006020000060400000606000006080000060A0000060C0000060E00000800000008020000080400000806000008080000080A0000080C0000080E00000A0000000A0200000A0400000A0600000A0800000A0A00000A0C00000A0E00000C0000000C0200000C0400000C0600000C0800000C0
310
A00000C0C00000C0E00000E0000000E0200000E0400000E0600000E0800000E0A00000E0C00000E0E00040000000400020004000400040006000400080004000A0004000C0004000E00040200000402020004020400040206000402080004020A0004020C0004020E000404000004040200040404000404060004040800040
310
40A0004040C0004040E00040600000406020004060400040606000406080004060A0004060C0004060E00040800000408020004080400040806000408080004080A0004080C0004080E00040A0000040A0200040A0400040A0600040A0800040A0A00040A0C00040A0E00040C0000040C0200040C0400040C0600040C08000
310
40C0A00040C0C00040C0E00040E0000040E0200040E0400040E0600040E0800040E0A00040E0C00040E0E00080000000800020008000400080006000800080008000A0008000C0008000E00080200000802020008020400080206000802080008020A0008020C0008020E00080400000804020008040400080406000804080
310
008040A0008040C0008040E00080600000806020008060400080606000806080008060A0008060C0008060E00080800000808020008080400080806000808080008080A0008080C0008080E00080A0000080A0200080A0400080A0600080A0800080A0A00080A0C00080A0E00080C0000080C0200080C0400080C0600080C0
310
800080C0A00080C0C00080C0E00080E0000080E0200080E0400080E0600080E0800080E0A00080E0C00080E0E000C0000000C0002000C0004000C0006000C0008000C000A000C000C000C000E000C0200000C0202000C0204000C0206000C0208000C020A000C020C000C020E000C0400000C0402000C0404000C0406000C0
310
408000C040A000C040C000C040E000C0600000C0602000C0604000C0606000C0608000C060A000C060C000C060E000C0800000C0802000C0804000C0806000C0808000C080A000C080C000C080E000C0A00000C0A02000C0A04000C0A06000C0A08000C0A0A000C0A0C000C0A0E000C0C00000C0C02000C0C04000C0C06000
310
C0C08000C0C0A000F0FBFF00A4A0A000808080000000FF0000FF000000FFFF00FF000000FF00FF00FFFF0000FFFFFF000000000000000000000000000000000000000000000000000000000000000000000000000000000000000000000000FFFF000000000000000000000000000000000000000000000000000000000000
310
00FF00000000000000000000000000000000000000000000000000000000000000FF00000000000000000000000000000000000000000000000000000000000000FF00000000000000000000000000000000000000000000000000000000000000FF0000000000000000000000000000000000000000000000000000000000
310
0000FF00000000000000000000000000000000000000000000000000000000000000FF00000000000000000000000000000000000000000000000000000000000000FF00000000000000000000000000000000000000000000000000000000000000FF00000000000000000000000000000000000000000000000000000000
310
000000FF00000000000000000000000000000000000000000000000000000000000000FF00000000000000000000000000000000000000000000000000000000000000FF00000000000000000000000000000000000000000000000000000000000000FF000000000000000000000000000000000000000000000000000000
310
00000000FF00000000000000000000000000000000000000000000000000000000000000FF000000000000000000000000000000000000000000000000000000000000000000000000000000000000000000000000000000000000000000000000000000000000000000000000000000000000000000000000000000000000
310
00000000000000000000000000000000000000000000000000000000000000000000000000000000000000000000000000000000000000000000000000000000000000000000000000000000000000000000000000000000000000000000000000000000000000000000000000000000000000000000000000000000000000
310
00000000000000000000000000000000000000000000000000000000000000000000000000000000000000000000000000000000000000000000000000000000000000000000000000000000000000000000000000000000000000000000000000000000000000000000000000000000000000000000000000000000000000
310
0000000000000000000000000000000000000000000000000000000000000000000000000000FFFF000000000000000000000000000000000000000000000000000000000000FFFF0000000000000000000000000000000000000000000000000000000000FFFFFFFF00000000000000000000000000000000000000000000
310
00000000000000FFFF0000000000000000000000000000000000000000000000000000000000000000000000000000000000000000000000
102
{BLKREFS
331
11059
102
}
 70
     4
280
     1
281
     1
  0
BLOCK_RECORD
  5
110AD
330
1
100
AcDbSymbolTableRecord
100
AcDbBlockTableRecord
  2
リーマボルト-E CEMH1000
340
0
310
2800000020000000200000000100080000000000000400000000000000000000000000000000000000000000000080000080000000808000800000008000800080800000C0C0C000C0DCC000F0CAA6000020400000206000002080000020A0000020C0000020E00000400000004020000040400000406000004080000040A0
310
000040C0000040E00000600000006020000060400000606000006080000060A0000060C0000060E00000800000008020000080400000806000008080000080A0000080C0000080E00000A0000000A0200000A0400000A0600000A0800000A0A00000A0C00000A0E00000C0000000C0200000C0400000C0600000C0800000C0
310
A00000C0C00000C0E00000E0000000E0200000E0400000E0600000E0800000E0A00000E0C00000E0E00040000000400020004000400040006000400080004000A0004000C0004000E00040200000402020004020400040206000402080004020A0004020C0004020E000404000004040200040404000404060004040800040
310
40A0004040C0004040E00040600000406020004060400040606000406080004060A0004060C0004060E00040800000408020004080400040806000408080004080A0004080C0004080E00040A0000040A0200040A0400040A0600040A0800040A0A00040A0C00040A0E00040C0000040C0200040C0400040C0600040C08000
310
40C0A00040C0C00040C0E00040E0000040E0200040E0400040E0600040E0800040E0A00040E0C00040E0E00080000000800020008000400080006000800080008000A0008000C0008000E00080200000802020008020400080206000802080008020A0008020C0008020E00080400000804020008040400080406000804080
310
008040A0008040C0008040E00080600000806020008060400080606000806080008060A0008060C0008060E00080800000808020008080400080806000808080008080A0008080C0008080E00080A0000080A0200080A0400080A0600080A0800080A0A00080A0C00080A0E00080C0000080C0200080C0400080C0600080C0
310
800080C0A00080C0C00080C0E00080E0000080E0200080E0400080E0600080E0800080E0A00080E0C00080E0E000C0000000C0002000C0004000C0006000C0008000C000A000C000C000C000E000C0200000C0202000C0204000C0206000C0208000C020A000C020C000C020E000C0400000C0402000C0404000C0406000C0
310
408000C040A000C040C000C040E000C0600000C0602000C0604000C0606000C0608000C060A000C060C000C060E000C0800000C0802000C0804000C0806000C0808000C080A000C080C000C080E000C0A00000C0A02000C0A04000C0A06000C0A08000C0A0A000C0A0C000C0A0E000C0C00000C0C02000C0C04000C0C06000
310
C0C08000C0C0A000F0FBFF00A4A0A000808080000000FF0000FF000000FFFF00FF000000FF00FF00FFFF0000FFFFFF0000000000000000000000000000000000000000000000000000000000000000000000000000000000000000000000000000000000000000000000000000000000000000000000000000000000000000
310
00000000000000000000000000000000000000000000000000000000000000000000000000000000000000000000000000000000000000000000000000000000000000000000000000000000000000000000000000000000000000000000000000000000000000000000000000000000000000000000000000000000000000
310
00000000000000000000000000000000000000000000000000000000000000000000000000000000000000000000000000000000000000000000000000000000000000000000000000000000000000000000000000000000000000000000000000000000000000000000000000000000000000000000000000000000000000
310
0000000000000000000000000000000000000000000000FFFFFFFFFFFF00000000000000000000000000000000FFFFFFFF000000000000FF000000FFFF00000000000000000000000000000000FF0000FF00000000FFFFFFFFFFFFFFFFFFFFFFFFFFFFFFFFFFFFFFFFFFFFFFFFFFFFFFFF00000000FFFFFF000000FFFFFF00
310
00000000000000000000000000FFFF0000FF000000F9F9F9F9F9F9F9F9F9F9F9F9F9F9F9F9F9F9F9F9F9F9F9F9FFFFF9F9FFF9000000FFFFFF000000FFFFFF0000000000000000000000000000FFFF0000FF00000000FFFFFF000000FFFFFF0000000000000000000000000000FFFF0000FF00000000FFFFFFFFFFFFFFFFFF
310
FFFFFFFFFFFFFFFFFFFFFFFFFFFFFFFFFFFFFF000000000000FF000000FFFF00000000000000000000000000000000FF0000FF000000000000FFFFFFFFFFFF00000000000000000000000000000000FFFFFFFF0000000000000000000000000000000000000000000000000000000000000000000000000000000000000000
310
00000000000000000000000000000000000000000000000000000000000000000000000000000000000000000000000000000000000000000000000000000000000000000000000000000000000000000000000000000000000000000000000000000000000000000000000000000000000000000000000000000000000000
310
00000000000000000000000000000000000000000000000000000000000000000000000000000000000000000000000000000000000000000000000000000000000000000000000000000000000000000000000000000000000000000000000000000000000000000000000000000000000000000000000000000000000000
310
0000000000000000000000000000000000000000000000000000000000000000000000000000000000000000000000000000000000000000
102
{BLKREFS
331
110E2
102
}
 70
     4
280
     1
281
     1
  0
ENDTAB
  0
ENDSEC
  0
SECTION
  2
BLOCKS
  0
BLOCK
  5
4F
330
18
100
AcDbEntity
  8
0
100
AcDbBlockBegin
  2
*MODEL_SPACE
 70
     0
 10
0.0
 20
0.0
 30
0.0
  3
*MODEL_SPACE
  1

  0
ENDBLK
  5
50
330
18
100
AcDbEntity
  8
0
100
AcDbBlockEnd
  0
BLOCK
  5
4D
330
15
100
AcDbEntity
 67
     1
  8
0
100
AcDbBlockBegin
  2
*PAPER_SPACE
 70
     0
 10
0.0
 20
0.0
 30
0.0
  3
*PAPER_SPACE
  1

  0
ENDBLK
  5
4E
330
15
100
AcDbEntity
 67
     1
  8
0
100
AcDbBlockEnd
  0
BLOCK
  5
10853
330
322
100
AcDbEntity
  8
0
100
AcDbBlockBegin
  2
_Open30
 70
     0
 10
0.0
 20
0.0
 30
0.0
  3
_Open30
  1

  0
LINE
  5
10854
330
322
100
AcDbEntity
  8
0
  6
ByBlock
 62
     0
370
    -2
100
AcDbLine
 10
-1.0
 20
0.26794919
 30
0.0
 11
0.0
 21
0.0
 31
0.0
  0
LINE
  5
10855
330
322
100
AcDbEntity
  8
0
  6
ByBlock
 62
     0
370
    -2
100
AcDbLine
 10
0.0
 20
0.0
 30
0.0
 11
-1.0
 21
-0.26794919
 31
0.0
  0
LINE
  5
10856
330
322
100
AcDbEntity
  8
0
  6
ByBlock
 62
     0
370
    -2
100
AcDbLine
 10
0.0
 20
0.0
 30
0.0
 11
-1.0
 21
0.0
 31
0.0
  0
ENDBLK
  5
10857
330
322
100
AcDbEntity
  8
0
100
AcDbBlockEnd
  0
BLOCK
  5
2F4A
330
2F48
100
AcDbEntity
  8
0
100
AcDbBlockBegin
  2
_DotSmall
 70
     0
 10
0.0
 20
0.0
 30
0.0
  3
_DotSmall
  1

  0
LWPOLYLINE
  5
2F49
330
2F48
100
AcDbEntity
  8
中心線
 62
     0
100
AcDbPolyline
 90
        2
 70
     1
 43
0.5
 10
-0.0625
 20
0.0
 42
1.0
 10
0.0625
 20
0.0
 42
1.0
  0
ENDBLK
  5
2F4B
330
2F48
100
AcDbEntity
  8
0
100
AcDbBlockEnd
  0
BLOCK
  5
ED1A
330
ED0F
100
AcDbEntity
  8
0
100
AcDbBlockBegin
  2
*D2
 70
     1
 10
0.0
 20
0.0
 30
0.0
  3
*D2
  1

  0
LINE
  5
10A43
330
ED0F
100
AcDbEntity
  8
AM_5 寸法線
100
AcDbLine
 10
2347.245455143429
 20
2541.342095996246
 30
0.0
 11
3388.620455143429
 21
2541.342095996246
 31
0.0
  0
LINE
  5
10A44
330
ED0F
100
AcDbEntity
  8
AM_5 寸法線
100
AcDbLine
 10
2347.245455143429
 20
3541.342095996246
 30
0.0
 11
3388.62045514343
 21
3541.342095996246
 31
0.0
  0
LINE
  5
10A45
330
ED0F
100
AcDbEntity
  8
AM_5 寸法線
100
AcDbLine
 10
3369.870455143429
 20
2578.842095996245
 30
0.0
 11
3369.870455143431
 21
3503.842095996246
 31
0.0
  0
INSERT
  5
10A46
330
ED0F
100
AcDbEntity
  8
AM_5 寸法線
100
AcDbBlockReference
  2
_Open30
 10
3369.870455143429
 20
2541.342095996246
 30
0.0
 41
37.5
 42
37.5
 43
37.5
 50
270.0
  0
INSERT
  5
10A47
330
ED0F
100
AcDbEntity
  8
AM_5 寸法線
100
AcDbBlockReference
  2
_Open30
 10
3369.870455143431
 20
3541.342095996246
 30
0.0
 41
37.5
 42
37.5
 43
37.5
 50
90.0
  0
MTEXT
  5
10A48
330
ED0F
100
AcDbEntity
  8
AM_5 寸法線
100
AcDbMText
 10
3328.620455143429
 20
3041.342095996247
 30
0.0
 40
52.5
 41
0.0
 46
0.0
 71
     5
 72
     1
  1
%%C1000
  7
SEISA
 11
0.0000000000000001
 21
1.0
 31
0.0
 73
     1
 44
1.0
  0
POINT
  5
10A49
330
ED0F
100
AcDbEntity
  8
Defpoints
 62
     0
100
AcDbPoint
 10
2337.870455143429
 20
2541.342095996246
 30
0.0
  0
POINT
  5
10A4A
330
ED0F
100
AcDbEntity
  8
Defpoints
 62
     0
100
AcDbPoint
 10
2337.870455143429
 20
3541.342095996246
 30
0.0
  0
POINT
  5
10A4B
330
ED0F
100
AcDbEntity
  8
Defpoints
 62
     0
100
AcDbPoint
 10
3369.870455143431
 20
3541.342095996246
 30
0.0
  0
ENDBLK
  5
ED1B
330
ED0F
100
AcDbEntity
  8
0
100
AcDbBlockEnd
  0
BLOCK
  5
ED27
330
ED1C
100
AcDbEntity
  8
0
100
AcDbBlockBegin
  2
*D3
 70
     1
 10
0.0
 20
0.0
 30
0.0
  3
*D3
  1

  0
LINE
  5
10A5E
330
ED1C
100
AcDbEntity
  8
AM_5 寸法線
100
AcDbLine
 10
1759.870455143429
 20
2651.967095996246
 30
0.0
 11
1759.870455143429
 21
1977.592095996246
 31
0.0
  0
LINE
  5
10A5F
330
ED1C
100
AcDbEntity
  8
AM_5 寸法線
100
AcDbLine
 10
2799.870455143429
 20
2693.967095996246
 30
0.0
 11
2799.870455143429
 21
1977.592095996246
 31
0.0
  0
LINE
  5
10A60
330
ED1C
100
AcDbEntity
  8
AM_5 寸法線
100
AcDbLine
 10
1797.370455143429
 20
1996.342095996246
 30
0.0
 11
2762.370455143429
 21
1996.342095996246
 31
0.0
  0
INSERT
  5
10A61
330
ED1C
100
AcDbEntity
  8
AM_5 寸法線
100
AcDbBlockReference
  2
_Open30
 10
1759.870455143429
 20
1996.342095996246
 30
0.0
 41
37.5
 42
37.5
 43
37.5
 50
180.0
  0
INSERT
  5
10A62
330
ED1C
100
AcDbEntity
  8
AM_5 寸法線
100
AcDbBlockReference
  2
_Open30
 10
2799.870455143429
 20
1996.342095996246
 30
0.0
 41
37.5
 42
37.5
 43
37.5
  0
MTEXT
  5
10A63
330
ED1C
100
AcDbEntity
  8
AM_5 寸法線
100
AcDbMText
 10
2279.870455143429
 20
2037.592095996246
 30
0.0
 40
52.5
 41
0.0
 46
0.0
 71
     5
 72
     1
  1
1040
  7
SEISA
 73
     1
 44
1.0
  0
POINT
  5
10A64
330
ED1C
100
AcDbEntity
  8
Defpoints
 62
     0
100
AcDbPoint
 10
1759.870455143429
 20
2661.342095996246
 30
0.0
  0
POINT
  5
10A65
330
ED1C
100
AcDbEntity
  8
Defpoints
 62
     0
100
AcDbPoint
 10
2799.870455143429
 20
2703.342095996246
 30
0.0
  0
POINT
  5
10A66
330
ED1C
100
AcDbEntity
  8
Defpoints
 62
     0
100
AcDbPoint
 10
2799.870455143429
 20
1996.342095996246
 30
0.0
  0
ENDBLK
  5
ED28
330
ED1C
100
AcDbEntity
  8
0
100
AcDbBlockEnd
  0
BLOCK
  5
ED34
330
ED29
100
AcDbEntity
  8
0
100
AcDbBlockBegin
  2
*D4
 70
     1
 10
0.0
 20
0.0
 30
0.0
  3
*D4
  1

  0
LINE
  5
10A67
330
ED29
100
AcDbEntity
  8
AM_5 寸法線
100
AcDbLine
 10
2279.870455143429
 20
2533.967095996246
 30
0.0
 11
2279.870455143429
 21
2112.592095996246
 31
0.0
  0
LINE
  5
10A68
330
ED29
100
AcDbEntity
  8
AM_5 寸法線
100
AcDbLine
 10
2601.870455143429
 20
2602.967095996246
 30
0.0
 11
2601.870455143429
 21
2112.592095996246
 31
0.0
  0
LINE
  5
10A69
330
ED29
100
AcDbEntity
  8
AM_5 寸法線
100
AcDbLine
 10
2317.370455143429
 20
2131.342095996246
 30
0.0
 11
2564.370455143429
 21
2131.342095996246
 31
0.0
  0
INSERT
  5
10A6A
330
ED29
100
AcDbEntity
  8
AM_5 寸法線
100
AcDbBlockReference
  2
_Open30
 10
2279.870455143429
 20
2131.342095996246
 30
0.0
 41
37.5
 42
37.5
 43
37.5
 50
180.0
  0
INSERT
  5
10A6B
330
ED29
100
AcDbEntity
  8
AM_5 寸法線
100
AcDbBlockReference
  2
_Open30
 10
2601.870455143429
 20
2131.342095996246
 30
0.0
 41
37.5
 42
37.5
 43
37.5
  0
MTEXT
  5
10A6C
330
ED29
100
AcDbEntity
  8
AM_5 寸法線
100
AcDbMText
 10
2440.870455143429
 20
2172.592095996246
 30
0.0
 40
52.5
 41
0.0
 46
0.0
 71
     5
 72
     1
  1
322
  7
SEISA
 73
     1
 44
1.0
  0
POINT
  5
10A6D
330
ED29
100
AcDbEntity
  8
Defpoints
 62
     0
100
AcDbPoint
 10
2279.870455143429
 20
2543.342095996246
 30
0.0
  0
POINT
  5
10A6E
330
ED29
100
AcDbEntity
  8
Defpoints
 62
     0
100
AcDbPoint
 10
2601.870455143429
 20
2612.342095996246
 30
0.0
  0
POINT
  5
10A6F
330
ED29
100
AcDbEntity
  8
Defpoints
 62
     0
100
AcDbPoint
 10
2601.870455143429
 20
2131.342095996246
 30
0.0
  0
ENDBLK
  5
ED35
330
ED29
100
AcDbEntity
  8
0
100
AcDbBlockEnd
  0
BLOCK
  5
ED41
330
ED36
100
AcDbEntity
  8
0
100
AcDbBlockBegin
  2
*D5
 70
     1
 10
0.0
 20
0.0
 30
0.0
  3
*D5
  1

  0
LINE
  5
10C2B
330
ED36
100
AcDbEntity
  8
AM_5 寸法線
100
AcDbLine
 10
2299.870455143429
 20
3123.270588996246
 30
0.0
 11
2299.870455143429
 21
3132.645588996246
 31
0.0
  0
LINE
  5
10C2C
330
ED36
100
AcDbEntity
  8
AM_5 寸法線
100
AcDbLine
 10
2799.870455143429
 20
3123.270588996246
 30
0.0
 11
2799.870455143429
 21
3132.645588996246
 31
0.0
  0
LINE
  5
10C2D
330
ED36
100
AcDbEntity
  8
AM_5 寸法線
100
AcDbLine
 10
2337.37045514343
 20
3113.895588996246
 30
0.0
 11
2762.370455143429
 21
3113.895588996246
 31
0.0
  0
MTEXT
  5
10C2E
330
ED36
100
AcDbEntity
  8
AM_5 寸法線
100
AcDbMText
 10
2686.97491196358
 20
3164.361216200809
 30
0.0
 40
52.5
 41
0.0
 46
0.0
 71
     5
 72
     1
  1
500
  7
SEISA
 73
     1
 44
1.0
  0
INSERT
  5
10C2F
330
ED36
100
AcDbEntity
  8
AM_5 寸法線
100
AcDbBlockReference
  2
_Open30
 10
2299.870455143429
 20
3113.895588996246
 30
0.0
 41
37.5
 42
37.5
 43
37.5
 50
180.0
  0
INSERT
  5
10C30
330
ED36
100
AcDbEntity
  8
AM_5 寸法線
100
AcDbBlockReference
  2
_Open30
 10
2799.870455143429
 20
3113.895588996246
 30
0.0
 41
37.5
 42
37.5
 43
37.5
  0
POINT
  5
10C31
330
ED36
100
AcDbEntity
  8
Defpoints
 62
     0
100
AcDbPoint
 10
2299.870455143429
 20
3113.895588996246
 30
0.0
  0
POINT
  5
10C32
330
ED36
100
AcDbEntity
  8
Defpoints
 62
     0
100
AcDbPoint
 10
2799.870455143429
 20
3113.895588996246
 30
0.0
  0
POINT
  5
10C33
330
ED36
100
AcDbEntity
  8
Defpoints
 62
     0
100
AcDbPoint
 10
2799.870455143429
 20
3113.895588996246
 30
0.0
  0
ENDBLK
  5
ED42
330
ED36
100
AcDbEntity
  8
0
100
AcDbBlockEnd
  0
BLOCK
  5
ED4E
330
ED43
100
AcDbEntity
  8
0
100
AcDbBlockBegin
  2
*D6
 70
     1
 10
0.0
 20
0.0
 30
0.0
  3
*D6
  1

  0
LINE
  5
10B0D
330
ED43
100
AcDbEntity
  8
AM_5 寸法線
100
AcDbLine
 10
2219.870455143429
 20
2533.967095996246
 30
0.0
 11
2219.870455143429
 21
2252.560227117962
 31
0.0
  0
LINE
  5
10B0E
330
ED43
100
AcDbEntity
  8
AM_5 寸法線
100
AcDbLine
 10
2279.870455143429
 20
2533.967095996246
 30
0.0
 11
2279.870455143429
 21
2252.560227117962
 31
0.0
  0
LINE
  5
10B0F
330
ED43
100
AcDbEntity
  8
AM_5 寸法線
100
AcDbLine
 10
2279.870455143429
 20
2271.310227117961
 30
0.0
 11
2354.87045514343
 21
2271.310227117961
 31
0.0
  0
LINE
  5
10B10
330
ED43
100
AcDbEntity
  8
AM_5 寸法線
100
AcDbLine
 10
2182.370455143429
 20
2271.310227117961
 30
0.0
 11
2040.620455143429
 21
2271.310227117961
 31
0.0
  0
LINE
  5
10B11
330
ED43
100
AcDbEntity
  8
AM_5 寸法線
100
AcDbLine
 10
2279.870455143429
 20
2271.310227117961
 30
0.0
 11
2219.870455143429
 21
2271.310227117961
 31
0.0
  0
INSERT
  5
10B12
330
ED43
100
AcDbEntity
  8
AM_5 寸法線
100
AcDbBlockReference
  2
_DotSmall
 10
2279.870455143429
 20
2271.310227117961
 30
0.0
 41
37.5
 42
37.5
 43
37.5
 50
180.0
  0
INSERT
  5
10B13
330
ED43
100
AcDbEntity
  8
AM_5 寸法線
100
AcDbBlockReference
  2
_Open30
 10
2219.870455143429
 20
2271.310227117961
 30
0.0
 41
37.5
 42
37.5
 43
37.5
  0
MTEXT
  5
10B14
330
ED43
100
AcDbEntity
  8
AM_5 寸法線
100
AcDbMText
 10
2092.745455143429
 20
2312.560227117961
 30
0.0
 40
52.5
 41
0.0
 46
0.0
 71
     5
 72
     1
  1
60
  7
SEISA
 73
     1
 44
1.0
  0
POINT
  5
10B15
330
ED43
100
AcDbEntity
  8
Defpoints
 62
     0
100
AcDbPoint
 10
2219.870455143429
 20
2543.342095996246
 30
0.0
  0
POINT
  5
10B16
330
ED43
100
AcDbEntity
  8
Defpoints
 62
     0
100
AcDbPoint
 10
2279.870455143429
 20
2543.342095996246
 30
0.0
  0
POINT
  5
10B17
330
ED43
100
AcDbEntity
  8
Defpoints
 62
     0
100
AcDbPoint
 10
2279.870455143429
 20
2271.310227117961
 30
0.0
  0
ENDBLK
  5
ED4F
330
ED43
100
AcDbEntity
  8
0
100
AcDbBlockEnd
  0
BLOCK
  5
ED5B
330
ED50
100
AcDbEntity
  8
0
100
AcDbBlockBegin
  2
*D7
 70
     1
 10
0.0
 20
0.0
 30
0.0
  3
*D7
  1

  0
LINE
  5
10A86
330
ED50
100
AcDbEntity
  8
AM_5 寸法線
100
AcDbLine
 10
1759.870455143429
 20
2534.967095996246
 30
0.0
 11
1759.870455143429
 21
2112.592095996246
 31
0.0
  0
LINE
  5
10A87
330
ED50
100
AcDbEntity
  8
AM_5 寸法線
100
AcDbLine
 10
2279.870455143429
 20
2534.967095996246
 30
0.0
 11
2279.870455143429
 21
2112.592095996246
 31
0.0
  0
LINE
  5
10A88
330
ED50
100
AcDbEntity
  8
AM_5 寸法線
100
AcDbLine
 10
1797.370455143429
 20
2131.342095996246
 30
0.0
 11
2242.370455143429
 21
2131.342095996246
 31
0.0
  0
INSERT
  5
10A89
330
ED50
100
AcDbEntity
  8
AM_5 寸法線
100
AcDbBlockReference
  2
_Open30
 10
1759.870455143429
 20
2131.342095996246
 30
0.0
 41
37.5
 42
37.5
 43
37.5
 50
180.0
  0
INSERT
  5
10A8A
330
ED50
100
AcDbEntity
  8
AM_5 寸法線
100
AcDbBlockReference
  2
_Open30
 10
2279.870455143429
 20
2131.342095996246
 30
0.0
 41
37.5
 42
37.5
 43
37.5
  0
MTEXT
  5
10A8B
330
ED50
100
AcDbEntity
  8
AM_5 寸法線
100
AcDbMText
 10
2019.870455143429
 20
2172.592095996246
 30
0.0
 40
52.5
 41
0.0
 46
0.0
 71
     5
 72
     1
  1
520
  7
SEISA
 73
     1
 44
1.0
  0
POINT
  5
10A8C
330
ED50
100
AcDbEntity
  8
Defpoints
 62
     0
100
AcDbPoint
 10
1759.870455143429
 20
2544.342095996246
 30
0.0
  0
POINT
  5
10A8D
330
ED50
100
AcDbEntity
  8
Defpoints
 62
     0
100
AcDbPoint
 10
2279.870455143429
 20
2544.342095996246
 30
0.0
  0
POINT
  5
10A8E
330
ED50
100
AcDbEntity
  8
Defpoints
 62
     0
100
AcDbPoint
 10
2279.870455143429
 20
2131.342095996246
 30
0.0
  0
ENDBLK
  5
ED5C
330
ED50
100
AcDbEntity
  8
0
100
AcDbBlockEnd
  0
BLOCK
  5
ED68
330
ED5D
100
AcDbEntity
  8
0
100
AcDbBlockBegin
  2
*D8
 70
     1
 10
0.0
 20
0.0
 30
0.0
  3
*D8
  1

  0
LINE
  5
10B18
330
ED5D
100
AcDbEntity
  8
AM_5 寸法線
100
AcDbLine
 10
2279.870455143429
 20
2533.967095996246
 30
0.0
 11
2279.870455143429
 21
2252.227425443107
 31
0.0
  0
LINE
  5
10B19
330
ED5D
100
AcDbEntity
  8
AM_5 寸法線
100
AcDbLine
 10
2339.870455143429
 20
2533.967095996246
 30
0.0
 11
2339.870455143429
 21
2252.227425443107
 31
0.0
  0
LINE
  5
10B1A
330
ED5D
100
AcDbEntity
  8
AM_5 寸法線
100
AcDbLine
 10
2279.870455143429
 20
2270.977425443107
 30
0.0
 11
2242.370455143429
 21
2270.977425443107
 31
0.0
  0
LINE
  5
10B1B
330
ED5D
100
AcDbEntity
  8
AM_5 寸法線
100
AcDbLine
 10
2377.370455143429
 20
2270.977425443107
 30
0.0
 11
2519.12045514343
 21
2270.977425443107
 31
0.0
  0
LINE
  5
10B1C
330
ED5D
100
AcDbEntity
  8
AM_5 寸法線
100
AcDbLine
 10
2279.870455143429
 20
2270.977425443107
 30
0.0
 11
2339.870455143429
 21
2270.977425443107
 31
0.0
  0
INSERT
  5
10B1D
330
ED5D
100
AcDbEntity
  8
AM_5 寸法線
100
AcDbBlockReference
  2
_DotSmall
 10
2279.870455143429
 20
2270.977425443107
 30
0.0
 41
37.5
 42
37.5
 43
37.5
  0
INSERT
  5
10B1E
330
ED5D
100
AcDbEntity
  8
AM_5 寸法線
100
AcDbBlockReference
  2
_Open30
 10
2339.870455143429
 20
2270.977425443107
 30
0.0
 41
37.5
 42
37.5
 43
37.5
 50
180.0
  0
MTEXT
  5
10B1F
330
ED5D
100
AcDbEntity
  8
AM_5 寸法線
100
AcDbMText
 10
2466.995455143429
 20
2312.227425443107
 30
0.0
 40
52.5
 41
0.0
 46
0.0
 71
     5
 72
     1
  1
60
  7
SEISA
 73
     1
 44
1.0
  0
POINT
  5
10B20
330
ED5D
100
AcDbEntity
  8
Defpoints
 62
     0
100
AcDbPoint
 10
2279.870455143429
 20
2543.342095996246
 30
0.0
  0
POINT
  5
10B21
330
ED5D
100
AcDbEntity
  8
Defpoints
 62
     0
100
AcDbPoint
 10
2339.870455143429
 20
2543.342095996246
 30
0.0
  0
POINT
  5
10B22
330
ED5D
100
AcDbEntity
  8
Defpoints
 62
     0
100
AcDbPoint
 10
2339.870455143429
 20
2270.977425443107
 30
0.0
  0
ENDBLK
  5
ED69
330
ED5D
100
AcDbEntity
  8
0
100
AcDbBlockEnd
  0
BLOCK
  5
ED9A
330
ED8F
100
AcDbEntity
  8
0
100
AcDbBlockBegin
  2
*D9
 70
     1
 10
0.0
 20
0.0
 30
0.0
  3
*D9
  1

  0
LINE
  5
10A3A
330
ED8F
100
AcDbEntity
  8
AM_5 寸法線
100
AcDbLine
 10
1770.495455143429
 20
2641.342095996246
 30
0.0
 11
1441.120455143429
 21
2641.342095996246
 31
0.0
  0
LINE
  5
10A3B
330
ED8F
100
AcDbEntity
  8
AM_5 寸法線
100
AcDbLine
 10
1770.495455143429
 20
3441.342095996246
 30
0.0
 11
1441.120455143429
 21
3441.342095996246
 31
0.0
  0
LINE
  5
10A3C
330
ED8F
100
AcDbEntity
  8
AM_5 寸法線
100
AcDbLine
 10
1459.870455143429
 20
2678.842095996246
 30
0.0
 11
1459.870455143429
 21
3403.842095996246
 31
0.0
  0
INSERT
  5
10A3D
330
ED8F
100
AcDbEntity
  8
AM_5 寸法線
100
AcDbBlockReference
  2
_Open30
 10
1459.870455143429
 20
2641.342095996246
 30
0.0
 41
37.5
 42
37.5
 43
37.5
 50
270.0
  0
INSERT
  5
10A3E
330
ED8F
100
AcDbEntity
  8
AM_5 寸法線
100
AcDbBlockReference
  2
_Open30
 10
1459.870455143429
 20
3441.342095996246
 30
0.0
 41
37.5
 42
37.5
 43
37.5
 50
90.0
  0
MTEXT
  5
10A3F
330
ED8F
100
AcDbEntity
  8
AM_5 寸法線
100
AcDbMText
 10
1418.620455143429
 20
3041.342095996247
 30
0.0
 40
52.5
 41
0.0
 46
0.0
 71
     5
 72
     1
  1
%%C800
  7
SEISA
 11
0.0000000000000001
 21
1.0
 31
0.0
 73
     1
 44
1.0
  0
POINT
  5
10A40
330
ED8F
100
AcDbEntity
  8
Defpoints
 62
     0
100
AcDbPoint
 10
1779.870455143429
 20
2641.342095996246
 30
0.0
  0
POINT
  5
10A41
330
ED8F
100
AcDbEntity
  8
Defpoints
 62
     0
100
AcDbPoint
 10
1779.870455143429
 20
3441.342095996246
 30
0.0
  0
POINT
  5
10A42
330
ED8F
100
AcDbEntity
  8
Defpoints
 62
     0
100
AcDbPoint
 10
1459.870455143429
 20
3441.342095996246
 30
0.0
  0
ENDBLK
  5
ED9B
330
ED8F
100
AcDbEntity
  8
0
100
AcDbBlockEnd
  0
BLOCK
  5
EDA7
330
ED9C
100
AcDbEntity
  8
0
100
AcDbBlockBegin
  2
*D10
 70
     1
 10
0.0
 20
0.0
 30
0.0
  3
*D10
  1

  0
LINE
  5
10AC2
330
ED9C
100
AcDbEntity
  8
AM_5 寸法線
100
AcDbLine
 10
1759.870455143429
 20
3123.270588996246
 30
0.0
 11
1759.870455143429
 21
3132.645588996246
 31
0.0
  0
LINE
  5
10AC3
330
ED9C
100
AcDbEntity
  8
AM_5 寸法線
100
AcDbLine
 10
2259.870455143429
 20
3123.270588996246
 30
0.0
 11
2259.870455143429
 21
3132.645588996246
 31
0.0
  0
LINE
  5
10AC4
330
ED9C
100
AcDbEntity
  8
AM_5 寸法線
100
AcDbLine
 10
1797.370455143429
 20
3113.895588996246
 30
0.0
 11
2222.37045514343
 21
3113.895588996246
 31
0.0
  0
INSERT
  5
10AC5
330
ED9C
100
AcDbEntity
  8
AM_5 寸法線
100
AcDbBlockReference
  2
_Open30
 10
1759.870455143429
 20
3113.895588996246
 30
0.0
 41
37.5
 42
37.5
 43
37.5
 50
180.0
  0
INSERT
  5
10AC6
330
ED9C
100
AcDbEntity
  8
AM_5 寸法線
100
AcDbBlockReference
  2
_Open30
 10
2259.870455143429
 20
3113.895588996246
 30
0.0
 41
37.5
 42
37.5
 43
37.5
  0
MTEXT
  5
10AC7
330
ED9C
100
AcDbEntity
  8
AM_5 寸法線
100
AcDbMText
 10
2009.870455143429
 20
3155.145588996246
 30
0.0
 40
52.5
 41
0.0
 46
0.0
 71
     5
 72
     1
  1
500
  7
SEISA
 73
     1
 44
1.0
  0
POINT
  5
10AC8
330
ED9C
100
AcDbEntity
  8
Defpoints
 62
     0
100
AcDbPoint
 10
1759.870455143429
 20
3113.895588996246
 30
0.0
  0
POINT
  5
10AC9
330
ED9C
100
AcDbEntity
  8
Defpoints
 62
     0
100
AcDbPoint
 10
2259.870455143429
 20
3113.895588996246
 30
0.0
  0
POINT
  5
10ACA
330
ED9C
100
AcDbEntity
  8
Defpoints
 62
     0
100
AcDbPoint
 10
2259.870455143429
 20
3113.895588996246
 30
0.0
  0
ENDBLK
  5
EDA8
330
ED9C
100
AcDbEntity
  8
0
100
AcDbBlockEnd
  0
BLOCK
  5
EDDB
330
EDD0
100
AcDbEntity
  8
0
100
AcDbBlockBegin
  2
*D11
 70
     1
 10
0.0
 20
0.0
 30
0.0
  3
*D11
  1

  0
LINE
  5
10AA5
330
EDD0
100
AcDbEntity
  8
AM_5 寸法線
100
AcDbLine
 10
2601.870455143429
 20
2602.967095996246
 30
0.0
 11
2601.870455143429
 21
2112.592095996246
 31
0.0
  0
LINE
  5
10AA6
330
EDD0
100
AcDbEntity
  8
AM_5 寸法線
100
AcDbLine
 10
2799.870455143429
 20
2693.967095996246
 30
0.0
 11
2799.870455143429
 21
2112.592095996246
 31
0.0
  0
LINE
  5
10AA7
330
EDD0
100
AcDbEntity
  8
AM_5 寸法線
100
AcDbLine
 10
2639.37045514343
 20
2131.342095996246
 30
0.0
 11
2762.370455143429
 21
2131.342095996246
 31
0.0
  0
INSERT
  5
10AA8
330
EDD0
100
AcDbEntity
  8
AM_5 寸法線
100
AcDbBlockReference
  2
_Open30
 10
2601.870455143429
 20
2131.342095996246
 30
0.0
 41
37.5
 42
37.5
 43
37.5
 50
180.0
  0
INSERT
  5
10AA9
330
EDD0
100
AcDbEntity
  8
AM_5 寸法線
100
AcDbBlockReference
  2
_Open30
 10
2799.870455143429
 20
2131.342095996246
 30
0.0
 41
37.5
 42
37.5
 43
37.5
  0
MTEXT
  5
10AAA
330
EDD0
100
AcDbEntity
  8
AM_5 寸法線
100
AcDbMText
 10
2700.870455143431
 20
2172.592095996246
 30
0.0
 40
52.5
 41
0.0
 46
0.0
 71
     5
 72
     1
  1
198
  7
SEISA
 73
     1
 44
1.0
  0
POINT
  5
10AAB
330
EDD0
100
AcDbEntity
  8
Defpoints
 62
     0
100
AcDbPoint
 10
2601.870455143429
 20
2612.342095996246
 30
0.0
  0
POINT
  5
10AAC
330
EDD0
100
AcDbEntity
  8
Defpoints
 62
     0
100
AcDbPoint
 10
2799.870455143429
 20
2703.342095996246
 30
0.0
  0
POINT
  5
10AAD
330
EDD0
100
AcDbEntity
  8
Defpoints
 62
     0
100
AcDbPoint
 10
2799.870455143429
 20
2131.342095996246
 30
0.0
  0
ENDBLK
  5
EDDC
330
EDD0
100
AcDbEntity
  8
0
100
AcDbBlockEnd
  0
BLOCK
  5
EE0A
330
EDFF
100
AcDbEntity
  8
0
100
AcDbBlockBegin
  2
*D12
 70
     1
 10
0.0
 20
0.0
 30
0.0
  3
*D12
  1

  0
LINE
  5
10A55
330
EDFF
100
AcDbEntity
  8
AM_5 寸法線
100
AcDbLine
 10
2611.245455143429
 20
2612.342095996246
 30
0.0
 11
3253.620455143429
 21
2612.342095996246
 31
0.0
  0
LINE
  5
10A56
330
EDFF
100
AcDbEntity
  8
AM_5 寸法線
100
AcDbLine
 10
2611.245455143429
 20
3470.342095996246
 30
0.0
 11
3253.62045514343
 21
3470.342095996246
 31
0.0
  0
LINE
  5
10A57
330
EDFF
100
AcDbEntity
  8
AM_5 寸法線
100
AcDbLine
 10
3234.870455143429
 20
2649.842095996246
 30
0.0
 11
3234.870455143429
 21
3432.842095996246
 31
0.0
  0
INSERT
  5
10A58
330
EDFF
100
AcDbEntity
  8
AM_5 寸法線
100
AcDbBlockReference
  2
_Open30
 10
3234.870455143429
 20
2612.342095996246
 30
0.0
 41
37.5
 42
37.5
 43
37.5
 50
270.0
  0
INSERT
  5
10A59
330
EDFF
100
AcDbEntity
  8
AM_5 寸法線
100
AcDbBlockReference
  2
_Open30
 10
3234.870455143429
 20
3470.342095996246
 30
0.0
 41
37.5
 42
37.5
 43
37.5
 50
90.0
  0
MTEXT
  5
10A5A
330
EDFF
100
AcDbEntity
  8
AM_5 寸法線
100
AcDbMText
 10
3193.620455143429
 20
3041.342095996247
 30
0.0
 40
52.5
 41
0.0
 46
0.0
 71
     5
 72
     1
  1
%%C858
  7
SEISA
 11
0.0000000000000001
 21
1.0
 31
0.0
 73
     1
 44
1.0
  0
POINT
  5
10A5B
330
EDFF
100
AcDbEntity
  8
Defpoints
 62
     0
100
AcDbPoint
 10
2601.870455143429
 20
2612.342095996246
 30
0.0
  0
POINT
  5
10A5C
330
EDFF
100
AcDbEntity
  8
Defpoints
 62
     0
100
AcDbPoint
 10
2601.870455143429
 20
3470.342095996246
 30
0.0
  0
POINT
  5
10A5D
330
EDFF
100
AcDbEntity
  8
Defpoints
 62
     0
100
AcDbPoint
 10
3234.870455143429
 20
3470.342095996246
 30
0.0
  0
ENDBLK
  5
EE0B
330
EDFF
100
AcDbEntity
  8
0
100
AcDbBlockEnd
  0
BLOCK
  5
EE17
330
EE0C
100
AcDbEntity
  8
0
100
AcDbBlockBegin
  2
*D13
 70
     1
 10
0.0
 20
0.0
 30
0.0
  3
*D13
  1

  0
LINE
  5
10ACB
330
EE0C
100
AcDbEntity
  8
AM_5 寸法線
100
AcDbLine
 10
2554.87045514343
 20
3392.467095996246
 30
0.0
 11
2554.87045514343
 21
3288.277354996246
 31
0.0
  0
LINE
  5
10ACC
330
EE0C
100
AcDbEntity
  8
AM_5 寸法線
100
AcDbLine
 10
2566.87045514343
 20
3391.967095996246
 30
0.0
 11
2566.87045514343
 21
3288.277354996246
 31
0.0
  0
LINE
  5
10ACD
330
EE0C
100
AcDbEntity
  8
AM_5 寸法線
100
AcDbLine
 10
2517.37045514343
 20
3307.027354996246
 30
0.0
 11
2479.87045514343
 21
3307.027354996246
 31
0.0
  0
LINE
  5
10ACE
330
EE0C
100
AcDbEntity
  8
AM_5 寸法線
100
AcDbLine
 10
2604.37045514343
 20
3307.027354996246
 30
0.0
 11
2741.620455143432
 21
3307.027354996246
 31
0.0
  0
LINE
  5
10ACF
330
EE0C
100
AcDbEntity
  8
AM_5 寸法線
100
AcDbLine
 10
2554.87045514343
 20
3307.027354996246
 30
0.0
 11
2566.87045514343
 21
3307.027354996246
 31
0.0
  0
INSERT
  5
10AD0
330
EE0C
100
AcDbEntity
  8
AM_5 寸法線
100
AcDbBlockReference
  2
_Open30
 10
2554.87045514343
 20
3307.027354996246
 30
0.0
 41
37.5
 42
37.5
 43
37.5
  0
INSERT
  5
10AD1
330
EE0C
100
AcDbEntity
  8
AM_5 寸法線
100
AcDbBlockReference
  2
_Open30
 10
2566.87045514343
 20
3307.027354996246
 30
0.0
 41
37.5
 42
37.5
 43
37.5
 50
180.0
  0
MTEXT
  5
10AD2
330
EE0C
100
AcDbEntity
  8
AM_5 寸法線
100
AcDbMText
 10
2691.74545514343
 20
3348.277354996246
 30
0.0
 40
52.5
 41
0.0
 46
0.0
 71
     5
 72
     1
  1
12
  7
SEISA
 73
     1
 44
1.0
  0
POINT
  5
10AD3
102
{ACAD_REACTORS
330
10C71
102
}
330
EE0C
100
AcDbEntity
  8
Defpoints
 62
     0
100
AcDbPoint
 10
2554.87045514343
 20
3401.842095996246
 30
0.0
  0
POINT
  5
10AD4
330
EE0C
100
AcDbEntity
  8
Defpoints
 62
     0
100
AcDbPoint
 10
2566.87045514343
 20
3401.342095996246
 30
0.0
  0
POINT
  5
10AD5
330
EE0C
100
AcDbEntity
  8
Defpoints
 62
     0
100
AcDbPoint
 10
2566.87045514343
 20
3307.027354996246
 30
0.0
  0
ENDBLK
  5
EE18
330
EE0C
100
AcDbEntity
  8
0
100
AcDbBlockEnd
  0
BLOCK
  5
1085F
330
105CD
100
AcDbEntity
  8
0
100
AcDbBlockBegin
  2
GENAXEH
 70
     0
 10
0.0
 20
0.0
 30
0.0
  3
GENAXEH
  1

  0
LINE
  5
10860
330
105CD
100
AcDbEntity
  8
0
100
AcDbLine
 10
-1.0
 20
0.0
 30
0.0
 11
1.0
 21
0.0
 31
0.0
  0
ENDBLK
  5
10861
330
105CD
100
AcDbEntity
  8
0
100
AcDbBlockEnd
  0
BLOCK
  5
10B59
330
10B58
100
AcDbEntity
  8
0
100
AcDbBlockBegin
  2
*D15
 70
     1
 10
0.0
 20
0.0
 30
0.0
  3
*D15
  1

  0
LINE
  5
10F92
330
10B58
100
AcDbEntity
  8
AM_5 寸法線
100
AcDbLine
 10
2799.870455143429
 20
3388.717095996246
 30
0.0
 11
2799.870455143429
 21
3643.42535355932
 31
0.0
  0
LINE
  5
10F93
330
10B58
100
AcDbEntity
  8
AM_5 寸法線
100
AcDbLine
 10
2899.87045514343
 20
3479.717095996246
 30
0.0
 11
2899.87045514343
 21
3643.42535355932
 31
0.0
  0
LINE
  5
10F94
330
10B58
100
AcDbEntity
  8
AM_5 寸法線
100
AcDbLine
 10
2762.370455143429
 20
3624.67535355932
 30
0.0
 11
2724.870455143431
 21
3624.67535355932
 31
0.0
  0
LINE
  5
10F95
330
10B58
100
AcDbEntity
  8
AM_5 寸法線
100
AcDbLine
 10
2937.37045514343
 20
3624.67535355932
 30
0.0
 11
3119.62045514343
 21
3624.67535355932
 31
0.0
  0
LINE
  5
10F96
330
10B58
100
AcDbEntity
  8
AM_5 寸法線
100
AcDbLine
 10
2799.870455143429
 20
3624.67535355932
 30
0.0
 11
2899.87045514343
 21
3624.67535355932
 31
0.0
  0
INSERT
  5
10F97
330
10B58
100
AcDbEntity
  8
AM_5 寸法線
100
AcDbBlockReference
  2
_Open30
 10
2799.870455143429
 20
3624.67535355932
 30
0.0
 41
37.5
 42
37.5
 43
37.5
  0
INSERT
  5
10F98
330
10B58
100
AcDbEntity
  8
AM_5 寸法線
100
AcDbBlockReference
  2
_Open30
 10
2899.87045514343
 20
3624.67535355932
 30
0.0
 41
37.5
 42
37.5
 43
37.5
 50
180.0
  0
MTEXT
  5
10F99
330
10B58
100
AcDbEntity
  8
AM_5 寸法線
100
AcDbMText
 10
3047.245455143429
 20
3665.92535355932
 30
0.0
 40
52.5
 41
0.0
 46
0.0
 71
     5
 72
     1
  1
100
  7
SEISA
 73
     1
 44
1.0
  0
POINT
  5
10F9A
330
10B58
100
AcDbEntity
  8
Defpoints
 62
     0
100
AcDbPoint
 10
2799.870455143429
 20
3379.342095996246
 30
0.0
  0
POINT
  5
10F9B
330
10B58
100
AcDbEntity
  8
Defpoints
 62
     0
100
AcDbPoint
 10
2899.87045514343
 20
3470.342095996246
 30
0.0
  0
POINT
  5
10F9C
330
10B58
100
AcDbEntity
  8
Defpoints
 62
     0
100
AcDbPoint
 10
2899.87045514343
 20
3624.67535355932
 30
0.0
  0
ENDBLK
  5
10B5A
330
10B58
100
AcDbEntity
  8
0
100
AcDbBlockEnd
  0
BLOCK
  5
10BDB
330
10BDA
100
AcDbEntity
  8
0
100
AcDbBlockBegin
  2
*D16
 70
     1
 10
0.0
 20
0.0
 30
0.0
  3
*D16
  1

  0
LINE
  5
10D73
330
10BDA
100
AcDbEntity
  8
AM_5 寸法線
100
AcDbLine
 10
2259.870455143429
 20
3123.270588996246
 30
0.0
 11
2259.870455143429
 21
3132.645588996246
 31
0.0
  0
LINE
  5
10D74
330
10BDA
100
AcDbEntity
  8
AM_5 寸法線
100
AcDbLine
 10
2299.870455143429
 20
3123.270588996246
 30
0.0
 11
2299.870455143429
 21
3132.645588996246
 31
0.0
  0
LINE
  5
10D75
330
10BDA
100
AcDbEntity
  8
AM_5 寸法線
100
AcDbLine
 10
2222.37045514343
 20
3113.895588996246
 30
0.0
 11
2184.87045514343
 21
3113.895588996246
 31
0.0
  0
LINE
  5
10D76
330
10BDA
100
AcDbEntity
  8
AM_5 寸法線
100
AcDbLine
 10
2337.37045514343
 20
3113.895588996246
 30
0.0
 11
2374.87045514343
 21
3113.895588996246
 31
0.0
  0
MTEXT
  5
10D77
330
10BDA
100
AcDbEntity
  8
AM_5 寸法線
100
AcDbMText
 10
2195.978182822081
 20
3164.296149446154
 30
0.0
 40
52.5
 41
0.0
 46
0.0
 71
     5
 72
     1
  1
40
  7
SEISA
 73
     1
 44
1.0
  0
LINE
  5
10D78
330
10BDA
100
AcDbEntity
  8
AM_5 寸法線
100
AcDbLine
 10
2259.870455143429
 20
3113.895588996246
 30
0.0
 11
2299.870455143429
 21
3113.895588996246
 31
0.0
  0
INSERT
  5
10D79
330
10BDA
100
AcDbEntity
  8
AM_5 寸法線
100
AcDbBlockReference
  2
_Open30
 10
2259.870455143429
 20
3113.895588996246
 30
0.0
 41
37.5
 42
37.5
 43
37.5
  0
INSERT
  5
10D7A
330
10BDA
100
AcDbEntity
  8
AM_5 寸法線
100
AcDbBlockReference
  2
_Open30
 10
2299.870455143429
 20
3113.895588996246
 30
0.0
 41
37.5
 42
37.5
 43
37.5
 50
180.0
  0
POINT
  5
10D7B
330
10BDA
100
AcDbEntity
  8
Defpoints
 62
     0
100
AcDbPoint
 10
2259.870455143429
 20
3113.895588996246
 30
0.0
  0
POINT
  5
10D7C
330
10BDA
100
AcDbEntity
  8
Defpoints
 62
     0
100
AcDbPoint
 10
2299.870455143429
 20
3113.895588996246
 30
0.0
  0
POINT
  5
10D7D
330
10BDA
100
AcDbEntity
  8
Defpoints
 62
     0
100
AcDbPoint
 10
2299.870455143429
 20
3113.895588996246
 30
0.0
  0
ENDBLK
  5
10BDC
330
10BDA
100
AcDbEntity
  8
0
100
AcDbBlockEnd
  0
BLOCK
  5
10C65
330
10C64
100
AcDbEntity
  8
0
100
AcDbBlockBegin
  2
*D17
 70
     1
 10
0.0
 20
0.0
 30
0.0
  3
*D17
  1

  0
LINE
  5
10C8D
330
10C64
100
AcDbEntity
  8
AM_5 寸法線
100
AcDbLine
 10
2409.87045514343
 20
3392.467095996246
 30
0.0
 11
2409.87045514343
 21
3288.27735499625
 31
0.0
  0
LINE
  5
10C8E
330
10C64
100
AcDbEntity
  8
AM_5 寸法線
100
AcDbLine
 10
2554.87045514343
 20
3392.467095996246
 30
0.0
 11
2554.87045514343
 21
3288.27735499625
 31
0.0
  0
LINE
  5
10C8F
330
10C64
100
AcDbEntity
  8
AM_5 寸法線
100
AcDbLine
 10
2447.37045514343
 20
3307.027354996249
 30
0.0
 11
2517.37045514343
 21
3307.027354996249
 31
0.0
  0
INSERT
  5
10C90
330
10C64
100
AcDbEntity
  8
AM_5 寸法線
100
AcDbBlockReference
  2
_Open30
 10
2409.87045514343
 20
3307.027354996249
 30
0.0
 41
37.5
 42
37.5
 43
37.5
 50
180.0
  0
INSERT
  5
10C91
330
10C64
100
AcDbEntity
  8
AM_5 寸法線
100
AcDbBlockReference
  2
_Open30
 10
2554.87045514343
 20
3307.027354996249
 30
0.0
 41
37.5
 42
37.5
 43
37.5
  0
MTEXT
  5
10C92
330
10C64
100
AcDbEntity
  8
AM_5 寸法線
100
AcDbMText
 10
2482.37045514343
 20
3348.277354996249
 30
0.0
 40
52.5
 41
0.0
 46
0.0
 71
     5
 72
     1
  1
145
  7
SEISA
 73
     1
 44
1.0
  0
POINT
  5
10C93
330
10C64
100
AcDbEntity
  8
Defpoints
 62
     0
100
AcDbPoint
 10
2409.87045514343
 20
3401.842095996246
 30
0.0
  0
POINT
  5
10C94
330
10C64
100
AcDbEntity
  8
Defpoints
 62
     0
100
AcDbPoint
 10
2554.87045514343
 20
3401.842095996246
 30
0.0
  0
POINT
  5
10C95
330
10C64
100
AcDbEntity
  8
Defpoints
 62
     0
100
AcDbPoint
 10
2554.87045514343
 20
3307.027354996249
 30
0.0
  0
ENDBLK
  5
10C66
330
10C64
100
AcDbEntity
  8
0
100
AcDbBlockEnd
  0
BLOCK
  5
10E22
330
10E21
100
AcDbEntity
  8
0
100
AcDbBlockBegin
  2
ﾘｼﾞｯﾄ　CEM1000
 70
     0
 10
0.0
 20
0.0
 30
0.0
  3
ﾘｼﾞｯﾄ　CEM1000
  1

  0
LINE
  5
10E24
330
10E21
100
AcDbEntity
  8
AM_0 外形線1
100
AcDbLine
 10
-520.0
 20
-877.0
 30
0.0
 11
-520.0
 21
-117.0
 31
0.0
  0
LINE
  5
10E25
330
10E21
100
AcDbEntity
  8
AM_0 外形線1
100
AcDbLine
 10
-20.0
 20
-105.5
 30
0.0
 11
-20.0
 21
-497.0
 31
0.0
  0
LINE
  5
10E26
330
10E21
100
AcDbEntity
  8
AM_0 外形線1
100
AcDbLine
 10
-101.5410199999996
 20
-897.0
 30
0.0
 11
-500.0
 21
-897.0
 31
0.0
  0
ARC
  5
10E27
330
10E21
100
AcDbEntity
  8
AM_0 外形線1
100
AcDbCircle
 10
-500.0
 20
-877.0
 30
0.0
 40
20.0
100
AcDbArc
 50
180.0
 51
270.0
  0
LINE
  5
10E28
330
10E21
100
AcDbEntity
  8
AM_3 隠れ線
100
AcDbLine
 10
-520.0
 20
-481.0
 30
0.0
 11
-440.0
 21
-481.0
 31
0.0
  0
LINE
  5
10E29
330
10E21
100
AcDbEntity
  8
AM_3 隠れ線
100
AcDbLine
 10
-520.0
 20
-479.0
 30
0.0
 11
-454.0
 21
-479.0
 31
0.0
  0
LINE
  5
10E2A
330
10E21
100
AcDbEntity
  8
AM_3 隠れ線
100
AcDbLine
 10
-440.0
 20
-481.0
 30
0.0
 11
-430.7623959999999
 21
-497.0
 31
0.0
  0
LINE
  5
10E2B
330
10E21
100
AcDbEntity
  8
AM_3 隠れ線
100
AcDbLine
 10
-440.0
 20
-481.0
 30
0.0
 11
-440.0
 21
-497.0
 31
0.0
  0
LINE
  5
10E2C
330
10E21
100
AcDbEntity
  8
AM_3 隠れ線
100
AcDbLine
 10
-454.0
 20
-479.0
 30
0.0
 11
-452.8452989999996
 21
-481.0
 31
0.0
  0
LINE
  5
10E2D
330
10E21
100
AcDbEntity
  8
AM_3 隠れ線
100
AcDbLine
 10
-452.8452989999996
 20
-481.0
 30
0.0
 11
-452.8452989999996
 21
-497.0
 31
0.0
  0
LINE
  5
10E2E
330
10E21
100
AcDbEntity
  8
AM_3 隠れ線
100
AcDbLine
 10
-454.0
 20
-497.0
 30
0.0
 11
-454.0
 21
-479.0
 31
0.0
  0
LINE
  5
10E2F
330
10E21
100
AcDbEntity
  8
AM_0 外形線1
100
AcDbLine
 10
-60.0
 20
-920.944272
 30
0.0
 11
-60.0
 21
-497.0
 31
0.0
  0
LINE
  5
10E30
330
10E21
100
AcDbEntity
  8
AM_0 外形線1
100
AcDbLine
 10
-98.0
 20
-897.0
 30
0.0
 11
-98.0
 21
-497.0
 31
0.0
  0
LINE
  5
10E31
330
10E21
100
AcDbEntity
  8
AM_0 外形線1
100
AcDbLine
 10
-60.0
 20
-995.0
 30
0.0
 11
-60.0
 21
-920.944272
 31
0.0
  0
LINE
  5
10E32
330
10E21
100
AcDbEntity
  8
AM_0 外形線1
100
AcDbLine
 10
-40.0
 20
-997.0
 30
0.0
 11
-58.0
 21
-997.0
 31
0.0
  0
LINE
  5
10E33
330
10E21
100
AcDbEntity
  8
AM_0 外形線1
100
AcDbLine
 10
-58.0
 20
-997.0
 30
0.0
 11
-60.0
 21
-995.0
 31
0.0
  0
LINE
  5
10E34
330
10E21
100
AcDbEntity
  8
AM_0 外形線1
100
AcDbLine
 10
-20.0
 20
-997.0
 30
0.0
 11
-40.0
 21
-997.0
 31
0.0
  0
LINE
  5
10E35
330
10E21
100
AcDbEntity
  8
AM_0 外形線1
100
AcDbLine
 10
-3.0
 20
-997.0
 30
0.0
 11
-20.0
 21
-997.0
 31
0.0
  0
LINE
  5
10E36
330
10E21
100
AcDbEntity
  8
AM_0 外形線1
100
AcDbLine
 10
0.0
 20
-994.0
 30
0.0
 11
-3.0
 21
-997.0
 31
0.0
  0
ARC
  5
10E37
330
10E21
100
AcDbEntity
  8
AM_0 外形線1
100
AcDbCircle
 10
-101.5410199999996
 20
-912.0
 30
0.0
 40
15.0
100
AcDbArc
 50
63.43494900002375
 51
90.0
  0
LINE
  5
10E38
330
10E21
100
AcDbEntity
  8
AM_0 外形線1
100
AcDbLine
 10
-64.42229099999986
 20
-913.7888539999996
 30
0.0
 11
-94.8328160000001
 21
-898.5835920000003
 31
0.0
  0
ARC
  5
10E39
330
10E21
100
AcDbEntity
  8
AM_0 外形線1
100
AcDbCircle
 10
-68.0
 20
-920.944272
 30
0.0
 40
8.0
100
AcDbArc
 50
0.0
 51
63.43494900002375
  0
LINE
  5
10E3A
330
10E21
100
AcDbEntity
  8
AM_3 隠れ線
100
AcDbLine
 10
-20.0
 20
-479.0
 30
0.0
 11
-86.0
 21
-479.0
 31
0.0
  0
LINE
  5
10E3B
330
10E21
100
AcDbEntity
  8
AM_3 隠れ線
100
AcDbLine
 10
-20.0
 20
-481.0
 30
0.0
 11
-100.0
 21
-481.0
 31
0.0
  0
LINE
  5
10E3C
330
10E21
100
AcDbEntity
  8
AM_3 隠れ線
100
AcDbLine
 10
-86.0
 20
-479.0
 30
0.0
 11
-87.15470100000038
 21
-481.0
 31
0.0
  0
LINE
  5
10E3D
330
10E21
100
AcDbEntity
  8
AM_3 隠れ線
100
AcDbLine
 10
-87.15470100000038
 20
-481.0
 30
0.0
 11
-87.15470100000038
 21
-497.0
 31
0.0
  0
LINE
  5
10E3E
330
10E21
100
AcDbEntity
  8
AM_3 隠れ線
100
AcDbLine
 10
-86.0
 20
-497.0
 30
0.0
 11
-86.0
 21
-479.0
 31
0.0
  0
LINE
  5
10E3F
330
10E21
100
AcDbEntity
  8
AM_3 隠れ線
100
AcDbLine
 10
-100.0
 20
-481.0
 30
0.0
 11
-109.2376039999999
 21
-497.0
 31
0.0
  0
LINE
  5
10E40
330
10E21
100
AcDbEntity
  8
AM_3 隠れ線
100
AcDbLine
 10
-100.0
 20
-481.0
 30
0.0
 11
-100.0
 21
-497.0
 31
0.0
  0
LINE
  5
10E41
330
10E21
100
AcDbEntity
  8
AM_0 外形線1
100
AcDbLine
 10
-500.0
 20
-97.0
 30
0.0
 11
-101.5410199999996
 21
-97.0
 31
0.0
  0
ARC
  5
10E42
330
10E21
100
AcDbEntity
  8
AM_0 外形線1
100
AcDbCircle
 10
-500.0
 20
-117.0
 30
0.0
 40
20.0
100
AcDbArc
 50
90.0
 51
180.0
  0
LINE
  5
10E43
330
10E21
100
AcDbEntity
  8
AM_0 外形線1
100
AcDbLine
 10
-14.0
 20
-87.0
 30
0.0
 11
-14.0
 21
-105.5
 31
0.0
  0
LINE
  5
10E44
330
10E21
100
AcDbEntity
  8
AM_0 外形線1
100
AcDbLine
 10
-14.0
 20
-105.5
 30
0.0
 11
-20.0
 21
-105.5
 31
0.0
  0
LINE
  5
10E45
330
10E21
100
AcDbEntity
  8
AM_0 外形線1
100
AcDbLine
 10
-60.0
 20
-73.05572800000027
 30
0.0
 11
-60.0
 21
-60.75
 31
0.0
  0
ARC
  5
10E46
330
10E21
100
AcDbEntity
  8
AM_0 外形線1
100
AcDbCircle
 10
-68.0
 20
-73.05572800000027
 30
0.0
 40
8.0
100
AcDbArc
 50
296.5650509999763
 51
0.0
  0
LINE
  5
10E47
330
10E21
100
AcDbEntity
  8
AM_0 外形線1
100
AcDbLine
 10
-94.8328160000001
 20
-95.41640800000051
 30
0.0
 11
-64.42229099999986
 21
-80.21114500000022
 31
0.0
  0
ARC
  5
10E48
330
10E21
100
AcDbEntity
  8
AM_0 外形線1
100
AcDbCircle
 10
-101.5410199999996
 20
-82.0
 30
0.0
 40
15.0
100
AcDbArc
 50
270.0
 51
296.5650509999763
  0
LINE
  5
10E49
330
10E21
100
AcDbEntity
  8
AM_0 外形線1
100
AcDbLine
 10
-2.0
 20
-87.0
 30
0.0
 11
-14.0
 21
-87.0
 31
0.0
  0
LINE
  5
10E4A
330
10E21
100
AcDbEntity
  8
AM_0 外形線1
100
AcDbLine
 10
0.0
 20
-87.0
 30
0.0
 11
0.0
 21
-50.0
 31
0.0
  0
LINE
  5
10E4B
330
10E21
100
AcDbEntity
  8
AM_0 外形線1
100
AcDbLine
 10
-58.0
 20
3.0
 30
0.0
 11
-40.0
 21
3.0
 31
0.0
  0
LINE
  5
10E4C
330
10E21
100
AcDbEntity
  8
AM_0 外形線1
100
AcDbLine
 10
-60.0
 20
1.0
 30
0.0
 11
-58.0
 21
3.0
 31
0.0
  0
LINE
  5
10E4D
330
10E21
100
AcDbEntity
  8
AM_0 外形線1
100
AcDbLine
 10
-60.0
 20
-1.25
 30
0.0
 11
-60.0
 21
1.0
 31
0.0
  0
LINE
  5
10E4E
330
10E21
100
AcDbEntity
  8
AM_0 外形線1
100
AcDbLine
 10
-3.0
 20
3.0
 30
0.0
 11
0.0
 21
0.0
 31
0.0
  0
LINE
  5
10E4F
330
10E21
100
AcDbEntity
  8
AM_0 外形線1
100
AcDbLine
 10
-20.0
 20
3.0
 30
0.0
 11
-3.0
 21
3.0
 31
0.0
  0
LINE
  5
10E50
330
10E21
100
AcDbEntity
  8
AM_0 外形線1
100
AcDbLine
 10
-40.0
 20
3.0
 30
0.0
 11
-20.0
 21
3.0
 31
0.0
  0
LINE
  5
10E51
330
10E21
100
AcDbEntity
  8
AM_0 外形線1
100
AcDbLine
 10
-20.0
 20
-265.9999999999996
 30
0.0
 11
-520.0
 21
-266.0
 31
0.0
  0
ENDBLK
  5
10E23
330
10E21
100
AcDbEntity
  8
0
100
AcDbBlockEnd
  0
BLOCK
  5
10E5B
330
10E5A
100
AcDbEntity
  8
0
100
AcDbBlockBegin
  2
ケースＡ-E CEMH1000
 70
     0
 10
0.0
 20
0.0
 30
0.0
  3
ケースＡ-E CEMH1000
  1

  0
LINE
  5
10E5D
330
10E5A
100
AcDbEntity
  8
AM_3 隠れ線
100
AcDbLine
 10
-19.0
 20
-57.0
 30
0.0
 11
-164.0
 21
-57.0
 31
0.0
  0
LINE
  5
10E5E
330
10E5A
100
AcDbEntity
  8
AM_7 中心線
100
AcDbLine
 10
-178.0
 20
-49.0
 30
0.0
 11
-6.0
 21
-49.0
 31
0.0
  0
LINE
  5
10E5F
330
10E5A
100
AcDbEntity
  8
AM_0 外形線1
100
AcDbLine
 10
-226.0
 20
-848.0
 30
0.0
 11
-50.0
 21
-848.0
 31
0.0
  0
LINE
  5
10E60
330
10E5A
100
AcDbEntity
  8
AM_0 外形線1
100
AcDbLine
 10
-226.0
 20
-10.0
 30
0.0
 11
-50.0
 21
-10.0
 31
0.0
  0
LINE
  5
10E61
330
10E5A
100
AcDbEntity
  8
AM_0 外形線1
100
AcDbLine
 10
-176.0
 20
-39.0
 30
0.0
 11
-8.0
 21
-39.0
 31
0.0
  0
LINE
  5
10E62
330
10E5A
100
AcDbEntity
  8
AM_0 外形線1
100
AcDbLine
 10
-234.0
 20
-927.0
 30
0.0
 11
-234.0
 21
-429.0
 31
0.0
  0
LINE
  5
10E63
330
10E5A
100
AcDbEntity
  8
AM_0 外形線1
100
AcDbLine
 10
-294.0
 20
-429.0
 30
0.0
 11
-294.0
 21
-927.0
 31
0.0
  0
LINE
  5
10E64
330
10E5A
100
AcDbEntity
  8
AM_0 外形線1
100
AcDbLine
 10
-292.0
 20
-929.0
 30
0.0
 11
-236.0
 21
-929.0
 31
0.0
  0
LINE
  5
10E65
330
10E5A
100
AcDbEntity
  8
AM_0 外形線1
100
AcDbLine
 10
-294.0
 20
-927.0
 30
0.0
 11
-292.0
 21
-929.0
 31
0.0
  0
LINE
  5
10E66
330
10E5A
100
AcDbEntity
  8
AM_0 外形線1
100
AcDbLine
 10
-236.0
 20
-929.0
 30
0.0
 11
-234.0
 21
-927.0
 31
0.0
  0
ARC
  5
10E67
330
10E5A
100
AcDbEntity
  8
AM_0 外形線1
100
AcDbCircle
 10
-226.0
 20
-856.0
 30
0.0
 40
8.0
100
AcDbArc
 50
90.0
 51
180.0
  0
LINE
  5
10E68
330
10E5A
100
AcDbEntity
  8
AM_0 外形線1
100
AcDbLine
 10
-182.8120100000005
 20
-25.0
 30
0.0
 11
-183.2485189999997
 21
-37.5
 31
0.0
  0
LINE
  5
10E69
330
10E5A
100
AcDbEntity
  8
AM_0 外形線1
100
AcDbLine
 10
-215.1879899999995
 20
-25.0
 30
0.0
 11
-214.7514810000002
 21
-37.5
 31
0.0
  0
LINE
  5
10E6A
330
10E5A
100
AcDbEntity
  8
AM_7 中心線
100
AcDbLine
 10
-199.0
 20
-4.39007100000026
 30
0.0
 11
-199.0
 21
-45.24113500000021
 31
0.0
  0
LINE
  5
10E6B
330
10E5A
100
AcDbEntity
  8
AM_0 外形線1
100
AcDbLine
 10
-213.6785579999996
 20
-25.87147100000038
 30
0.0
 11
-213.272481
 21
-37.5
 31
0.0
  0
LINE
  5
10E6C
330
10E5A
100
AcDbEntity
  8
AM_0 外形線1
100
AcDbLine
 10
-184.3214420000004
 20
-25.87147100000038
 30
0.0
 11
-184.727519
 21
-37.5
 31
0.0
  0
LINE
  5
10E6D
330
10E5A
100
AcDbEntity
  8
AM_0 外形線1
100
AcDbLine
 10
-306.0
 20
-37.5
 30
0.0
 11
-306.0
 21
-22.0
 31
0.0
  0
LINE
  5
10E6E
330
10E5A
100
AcDbEntity
  8
AM_0 外形線1
100
AcDbLine
 10
-177.0
 20
-37.5
 30
0.0
 11
-306.0
 21
-37.5
 31
0.0
  0
LINE
  5
10E6F
330
10E5A
100
AcDbEntity
  8
AM_0 外形線1
100
AcDbLine
 10
-164.0
 20
-57.0
 30
0.0
 11
-175.0
 21
-57.0
 31
0.0
  0
ARC
  5
10E70
330
10E5A
100
AcDbEntity
  8
AM_0 外形線1
100
AcDbCircle
 10
-177.0
 20
-38.5
 30
0.0
 40
1.0
100
AcDbArc
 50
0.0
 51
90.0
  0
LINE
  5
10E71
330
10E5A
100
AcDbEntity
  8
AM_0 外形線1
100
AcDbLine
 10
-176.0
 20
-56.0
 30
0.0
 11
-176.0
 21
-38.5
 31
0.0
  0
LINE
  5
10E72
330
10E5A
100
AcDbEntity
  8
AM_0 外形線1
100
AcDbLine
 10
-175.0
 20
-57.0
 30
0.0
 11
-176.0
 21
-56.0
 31
0.0
  0
LINE
  5
10E73
330
10E5A
100
AcDbEntity
  8
AM_0 外形線1
100
AcDbLine
 10
-292.0
 20
71.0
 30
0.0
 11
-236.0
 21
71.0
 31
0.0
  0
LWPOLYLINE
  5
10E74
330
10E5A
100
AcDbEntity
  8
AM_0 外形線1
100
AcDbPolyline
 90
       73
 70
     0
 43
0.0
 10
-290.6500000000006
 20
-19.0
 10
-290.3580279999996
 20
-18.98002200000019
 10
-290.0682790000001
 20
-18.92024100000026
 10
-289.782956
 20
-18.82111000000032
 10
-289.5042329999997
 20
-18.68338600000015
 10
-289.2342289999997
 20
-18.50811599999997
 10
-288.9749999999994
 20
-18.29663300000038
 10
-288.7285190000002
 20
-18.05054800000016
 10
-288.4966620000005
 20
-17.77173300000049
 10
-288.2811920000004
 20
-17.46231000000034
 10
-288.0837510000001
 20
-17.12463500000012
 10
-287.9058410000007
 20
-16.76127600000018
 10
-287.7488149999999
 20
-16.375
 10
-287.6138689999998
 20
-15.96874600000001
 10
-287.5020300000006
 20
-15.54560600000013
 10
-287.4141479999998
 20
-15.10879999999997
 10
-287.3508940000002
 20
-14.66165300000011
 10
-287.3127479999994
 20
-14.20756700000038
 10
-287.3000000000002
 20
-13.75
 10
-287.3127479999994
 20
-13.29243200000019
 10
-287.3508940000002
 20
-12.83834699999988
 10
-287.4141479999998
 20
-12.39120000000002
 10
-287.5020300000006
 20
-11.95439400000032
 10
-287.6138689999998
 20
-11.53125399999999
 10
-287.7488149999999
 20
-11.125
 10
-287.9058410000007
 20
-10.73872399999982
 10
-288.0837510000001
 20
-10.37536499999987
 10
-288.2811920000004
 20
-10.03768900000022
 10
-288.4966620000005
 20
-9.728266000000076
 10
-288.7285190000002
 20
-9.449451999999835
 10
-288.9749999999994
 20
-9.203366000000187
 10
-289.2342289999997
 20
-8.991884000000027
 10
-289.5042329999997
 20
-8.816614000000299
 10
-289.782956
 20
-8.678889000000252
 10
-290.0682790000001
 20
-8.579759000000191
 10
-290.3580279999996
 20
-8.519978000000262
 10
-290.6500000000006
 20
-8.5
 10
-290.9419719999996
 20
-8.519978000000262
 10
-291.2317210000001
 20
-8.579759000000191
 10
-291.5170440000002
 20
-8.678889000000252
 10
-291.7957670000005
 20
-8.816614000000299
 10
-292.0657710000005
 20
-8.991884000000027
 10
-292.3249999999998
 20
-9.203366000000187
 10
-292.571481
 20
-9.449451999999835
 10
-292.8033379999997
 20
-9.728266000000076
 10
-293.0188079999998
 20
-10.03768900000022
 10
-293.2162490000001
 20
-10.37536499999987
 10
-293.3941590000004
 20
-10.73872399999982
 10
-293.5511850000003
 20
-11.125
 10
-293.6861309999995
 20
-11.53125399999999
 10
-293.7979700000005
 20
-11.95439400000032
 10
-293.8858520000003
 20
-12.39120000000002
 10
-293.949106
 20
-12.83834699999988
 10
-293.9872519999999
 20
-13.29243200000019
 10
-294.0
 20
-13.75
 10
-293.9872519999999
 20
-14.20756700000038
 10
-293.949106
 20
-14.66165300000011
 10
-293.8858520000003
 20
-15.10879999999997
 10
-293.7979700000005
 20
-15.54560600000013
 10
-293.6861309999995
 20
-15.96874600000001
 10
-293.5511850000003
 20
-16.375
 10
-293.3941590000004
 20
-16.76127600000018
 10
-293.2162490000001
 20
-17.12463500000012
 10
-293.0188079999998
 20
-17.46231000000034
 10
-292.8033379999997
 20
-17.77173300000049
 10
-292.571481
 20
-18.05054800000016
 10
-292.3249999999998
 20
-18.29663300000038
 10
-292.0657710000005
 20
-18.50811599999997
 10
-291.7957670000005
 20
-18.68338600000015
 10
-291.5170440000002
 20
-18.82111000000032
 10
-291.2317210000001
 20
-18.92024100000026
 10
-290.9419719999996
 20
-18.98002200000019
 10
-290.6500000000006
 20
-19.0
  0
LINE
  5
10E75
330
10E5A
100
AcDbEntity
  8
AM_0 外形線1
100
AcDbLine
 10
-287.8000000000002
 20
-8.5
 30
0.0
 11
-294.0
 21
-8.5
 31
0.0
  0
ARC
  5
10E76
330
10E5A
100
AcDbEntity
  8
AM_0 外形線1
100
AcDbCircle
 10
-287.8000000000002
 20
-9.0
 30
0.0
 40
0.5
100
AcDbArc
 50
0.0
 51
90.0
  0
LINE
  5
10E77
330
10E5A
100
AcDbEntity
  8
AM_0 外形線1
100
AcDbLine
 10
-287.3000000000002
 20
-18.5
 30
0.0
 11
-287.3000000000002
 21
-9.0
 31
0.0
  0
ARC
  5
10E78
330
10E5A
100
AcDbEntity
  8
AM_0 外形線1
100
AcDbCircle
 10
-287.8000000000002
 20
-18.5
 30
0.0
 40
0.5
100
AcDbArc
 50
270.0
 51
0.0
  0
LINE
  5
10E79
330
10E5A
100
AcDbEntity
  8
AM_0 外形線1
100
AcDbLine
 10
-303.0
 20
-19.0
 30
0.0
 11
-287.8000000000002
 21
-19.0
 31
0.0
  0
LINE
  5
10E7A
330
10E5A
100
AcDbEntity
  8
AM_0 外形線1
100
AcDbLine
 10
-306.0
 20
-22.0
 30
0.0
 11
-303.0
 21
-19.0
 31
0.0
  0
LINE
  5
10E7B
330
10E5A
100
AcDbEntity
  8
AM_0 外形線1
100
AcDbLine
 10
-294.0
 20
69.0
 30
0.0
 11
-292.0
 21
71.0
 31
0.0
  0
LINE
  5
10E7C
330
10E5A
100
AcDbEntity
  8
AM_0 外形線1
100
AcDbLine
 10
-294.0
 20
56.0
 30
0.0
 11
-294.0
 21
69.0
 31
0.0
  0
ARC
  5
10E7D
330
10E5A
100
AcDbEntity
  8
AM_0 外形線1
100
AcDbCircle
 10
-226.0
 20
-2.0
 30
0.0
 40
8.0
100
AcDbArc
 50
180.0
 51
270.0
  0
LINE
  5
10E7E
330
10E5A
100
AcDbEntity
  8
AM_0 外形線1
100
AcDbLine
 10
-183.8045950000005
 20
-11.07090500000004
 30
0.0
 11
-184.3214420000004
 21
-25.87147100000038
 31
0.0
  0
LINE
  5
10E7F
330
10E5A
100
AcDbEntity
  8
AM_0 外形線1
100
AcDbLine
 10
-182.3755
 20
-12.5
 30
0.0
 11
-182.2881980000002
 21
-10.0
 31
0.0
  0
LINE
  5
10E80
330
10E5A
100
AcDbEntity
  8
AM_0 外形線1
100
AcDbLine
 10
-214.1954049999995
 20
-11.07090500000004
 30
0.0
 11
-213.6785579999996
 21
-25.87147100000038
 31
0.0
  0
LINE
  5
10E81
330
10E5A
100
AcDbEntity
  8
AM_0 外形線1
100
AcDbLine
 10
-215.7118019999998
 20
-10.0
 30
0.0
 11
-215.6244999999999
 21
-12.5
 31
0.0
  0
LINE
  5
10E82
330
10E5A
100
AcDbEntity
  8
AM_0 外形線1
100
AcDbLine
 10
-215.1879899999995
 20
-25.0
 30
0.0
 11
-182.8120100000005
 21
-25.0
 31
0.0
  0
LINE
  5
10E83
330
10E5A
100
AcDbEntity
  8
AM_0 外形線1
100
AcDbLine
 10
-182.3755
 20
-12.5
 30
0.0
 11
-215.6244999999999
 21
-12.5
 31
0.0
  0
LINE
  5
10E84
330
10E5A
100
AcDbEntity
  8
AM_0 外形線1
100
AcDbLine
 10
-182.3755
 20
-12.5
 30
0.0
 11
-184.8755
 21
-10.0
 31
0.0
  0
LINE
  5
10E85
330
10E5A
100
AcDbEntity
  8
AM_0 外形線1
100
AcDbLine
 10
-182.8120100000005
 20
-25.0
 30
0.0
 11
-182.3755
 21
-12.5
 31
0.0
  0
LINE
  5
10E86
330
10E5A
100
AcDbEntity
  8
AM_0 外形線1
100
AcDbLine
 10
-189.740213
 20
-29.0
 30
0.0
 11
-182.8120100000005
 21
-25.0
 31
0.0
  0
LINE
  5
10E87
330
10E5A
100
AcDbEntity
  8
AM_0 外形線1
100
AcDbLine
 10
-208.259787
 20
-29.0
 30
0.0
 11
-189.740213
 21
-29.0
 31
0.0
  0
LINE
  5
10E88
330
10E5A
100
AcDbEntity
  8
AM_0 外形線1
100
AcDbLine
 10
-215.1879899999995
 20
-25.0
 30
0.0
 11
-208.259787
 21
-29.0
 31
0.0
  0
LINE
  5
10E89
330
10E5A
100
AcDbEntity
  8
AM_0 外形線1
100
AcDbLine
 10
-215.6244999999999
 20
-12.5
 30
0.0
 11
-215.1879899999995
 21
-25.0
 31
0.0
  0
LINE
  5
10E8A
330
10E5A
100
AcDbEntity
  8
AM_0 外形線1
100
AcDbLine
 10
-213.1244999999999
 20
-10.0
 30
0.0
 11
-215.6244999999999
 21
-12.5
 31
0.0
  0
LINE
  5
10E8B
330
10E5A
100
AcDbEntity
  8
AM_0 外形線1
100
AcDbLine
 10
-236.0
 20
71.0
 30
0.0
 11
-234.0
 21
69.0
 31
0.0
  0
LINE
  5
10E8C
330
10E5A
100
AcDbEntity
  8
AM_0 外形線1
100
AcDbLine
 10
-40.0
 20
-858.0
 30
0.0
 11
-40.0
 21
-429.0
 31
0.0
  0
LINE
  5
10E8D
330
10E5A
100
AcDbEntity
  8
AM_0 外形線1
100
AcDbLine
 10
-50.0
 20
-848.0
 30
0.0
 11
-50.0
 21
-429.0
 31
0.0
  0
LINE
  5
10E8E
330
10E5A
100
AcDbEntity
  8
AM_0 外形線1
100
AcDbLine
 10
0.0
 20
-858.0
 30
0.0
 11
0.0
 21
-429.0
 31
0.0
  0
LINE
  5
10E8F
330
10E5A
100
AcDbEntity
  8
AM_0 外形線1
100
AcDbLine
 10
0.0
 20
-858.0
 30
0.0
 11
-40.0
 21
-858.0
 31
0.0
  0
LINE
  5
10E90
330
10E5A
100
AcDbEntity
  8
AM_0 外形線1
100
AcDbLine
 10
-40.0
 20
-858.0
 30
0.0
 11
-50.0
 21
-848.0
 31
0.0
  0
LINE
  5
10E91
330
10E5A
100
AcDbEntity
  8
AM_0 外形線1
100
AcDbLine
 10
0.0
 20
-30.30000000000018
 30
0.0
 11
0.0
 21
-37.5
 31
0.0
  0
LINE
  5
10E92
330
10E5A
100
AcDbEntity
  8
AM_0 外形線1
100
AcDbLine
 10
-19.0
 20
-57.0
 30
0.0
 11
-9.0
 21
-57.0
 31
0.0
  0
LINE
  5
10E93
330
10E5A
100
AcDbEntity
  8
AM_0 外形線1
100
AcDbLine
 10
-8.0
 20
-56.0
 30
0.0
 11
-9.0
 21
-57.0
 31
0.0
  0
LINE
  5
10E94
330
10E5A
100
AcDbEntity
  8
AM_0 外形線1
100
AcDbLine
 10
-8.0
 20
-38.5
 30
0.0
 11
-8.0
 21
-56.0
 31
0.0
  0
ARC
  5
10E95
330
10E5A
100
AcDbEntity
  8
AM_0 外形線1
100
AcDbCircle
 10
-7.0
 20
-38.5
 30
0.0
 40
1.0
100
AcDbArc
 50
90.0
 51
180.0
  0
LINE
  5
10E96
330
10E5A
100
AcDbEntity
  8
AM_0 外形線1
100
AcDbLine
 10
-40.0
 20
0.0
 30
0.0
 11
-50.0
 21
-10.0
 31
0.0
  0
LINE
  5
10E97
330
10E5A
100
AcDbEntity
  8
AM_0 外形線1
100
AcDbLine
 10
0.0
 20
-25.0
 30
0.0
 11
0.0
 21
-30.30000000000018
 31
0.0
  0
LINE
  5
10E98
330
10E5A
100
AcDbEntity
  8
AM_0 外形線1
100
AcDbLine
 10
0.0
 20
0.0
 30
0.0
 11
0.0
 21
-11.0
 31
0.0
  0
LINE
  5
10E99
330
10E5A
100
AcDbEntity
  8
AM_0 外形線1
100
AcDbLine
 10
0.0
 20
0.0
 30
0.0
 11
-40.0
 21
0.0
 31
0.0
  0
LINE
  5
11161
330
10E5A
100
AcDbEntity
  8
AM_0 外形線1
100
AcDbLine
 10
-294.0
 20
18.0
 30
0.0
 11
-234.0
 21
18.0
 31
0.0
  0
LINE
  5
111E3
330
10E5A
100
AcDbEntity
  8
AM_0 外形線1
100
AcDbLine
 10
-234.0
 20
56.0
 30
0.0
 11
-294.0
 21
56.0
 31
0.0
  0
ENDBLK
  5
10E5C
330
10E5A
100
AcDbEntity
  8
0
100
AcDbBlockEnd
  0
BLOCK
  5
10F1E
330
10F1D
100
AcDbEntity
  8
0
100
AcDbBlockBegin
  2
ＧＣサイドカバ－1000
 70
     0
 10
0.0
 20
0.0
 30
0.0
  3
ＧＣサイドカバ－1000
  1

  0
ENDBLK
  5
10F1F
330
10F1D
100
AcDbEntity
  8
0
100
AcDbBlockEnd
  0
BLOCK
  5
10F22
330
10F21
100
AcDbEntity
  8
0
100
AcDbBlockBegin
  2
ＧＣサイドカバ CEMH900
 70
     0
 10
0.0
 20
0.0
 30
0.0
  3
ＧＣサイドカバ CEMH900
  1

  0
LINE
  5
10F24
330
10F21
100
AcDbEntity
  8
AM_11 想像線
 48
0.1
100
AcDbLine
 10
-23.5
 20
-30.30000000000018
 30
0.0
 11
-23.5
 21
-37.5
 31
0.0
  0
LINE
  5
10F25
330
10F21
100
AcDbEntity
  8
AM_11 想像線
 48
0.1
100
AcDbLine
 10
0.0
 20
-30.30000000000018
 30
0.0
 11
0.0
 21
-66.5
 31
0.0
  0
LINE
  5
10F26
330
10F21
100
AcDbEntity
  8
AM_11 想像線
 48
0.1
100
AcDbLine
 10
0.0
 20
-66.5
 30
0.0
 11
-7.0
 21
-66.5
 31
0.0
  0
LINE
  5
10F27
330
10F21
100
AcDbEntity
  8
AM_11 想像線
 48
0.1
100
AcDbLine
 10
-23.5
 20
-37.5
 30
0.0
 11
-35.0
 21
-37.5
 31
0.0
  0
LINE
  5
10F28
330
10F21
100
AcDbEntity
  8
AM_11 想像線
 48
0.1
100
AcDbLine
 10
-35.0
 20
-66.5
 30
0.0
 11
-35.0
 21
-37.5
 31
0.0
  0
LINE
  5
10F29
330
10F21
100
AcDbEntity
  8
AM_11 想像線
 48
0.1
100
AcDbLine
 10
-28.0
 20
-66.5
 30
0.0
 11
-35.0
 21
-66.5
 31
0.0
  0
LINE
  5
10F2A
330
10F21
100
AcDbEntity
  8
AM_11 想像線
 48
0.1
100
AcDbLine
 10
-28.0
 20
-56.70000000000028
 30
0.0
 11
-28.0
 21
-66.5
 31
0.0
  0
LINE
  5
10F2B
330
10F21
100
AcDbEntity
  8
AM_11 想像線
 48
0.1
100
AcDbLine
 10
-7.0
 20
-56.70000000000028
 30
0.0
 11
-28.0
 21
-56.70000000000028
 31
0.0
  0
LINE
  5
10F2C
330
10F21
100
AcDbEntity
  8
AM_11 想像線
 48
0.1
100
AcDbLine
 10
-7.0
 20
-66.5
 30
0.0
 11
-7.0
 21
-56.70000000000028
 31
0.0
  0
LINE
  5
10F2D
330
10F21
100
AcDbEntity
  8
AM_11 想像線
 48
0.1
100
AcDbLine
 10
-35.0
 20
-66.5
 30
0.0
 11
-35.0
 21
-69.0
 31
0.0
  0
LINE
  5
10F2E
330
10F21
100
AcDbEntity
  8
AM_11 想像線
 48
0.1
100
AcDbLine
 10
-28.0
 20
-66.5
 30
0.0
 11
-28.0
 21
-69.0
 31
0.0
  0
LINE
  5
10F2F
330
10F21
100
AcDbEntity
  8
AM_11 想像線
 48
0.1
100
AcDbLine
 10
-7.0
 20
-66.5
 30
0.0
 11
-7.0
 21
-69.0
 31
0.0
  0
LINE
  5
10F30
330
10F21
100
AcDbEntity
  8
AM_11 想像線
 48
0.1
100
AcDbLine
 10
0.0
 20
-66.5
 30
0.0
 11
0.0
 21
-69.0
 31
0.0
  0
LINE
  5
10F31
330
10F21
100
AcDbEntity
  8
AM_11 想像線
 48
0.1
100
AcDbLine
 10
-39.58526004490887
 20
-18.0
 30
0.0
 11
18.90241400000013
 21
-18.0
 31
0.0
  0
LINE
  5
10F32
330
10F21
100
AcDbEntity
  8
AM_11 想像線
 48
0.1
100
AcDbLine
 10
-28.0
 20
-30.30000000000018
 30
0.0
 11
-23.5
 21
-30.30000000000018
 31
0.0
  0
LINE
  5
10F33
330
10F21
100
AcDbEntity
  8
AM_11 想像線
 48
0.1
100
AcDbLine
 10
-28.0
 20
0.0
 30
0.0
 11
-28.0
 21
-30.30000000000018
 31
0.0
  0
LINE
  5
10F34
330
10F21
100
AcDbEntity
  8
AM_11 想像線
 48
0.1
100
AcDbLine
 10
0.0
 20
-30.30000000000018
 30
0.0
 11
0.0
 21
0.0
 31
0.0
  0
LINE
  5
10F35
330
10F21
100
AcDbEntity
  8
AM_11 想像線
 48
0.1
100
AcDbLine
 10
-28.0
 20
0.0
 30
0.0
 11
0.0
 21
0.0
 31
0.0
  0
ENDBLK
  5
10F23
330
10F21
100
AcDbEntity
  8
0
100
AcDbBlockEnd
  0
BLOCK
  5
10F62
330
10F61
100
AcDbEntity
  8
0
100
AcDbBlockBegin
  2
センタ-E CEMH1000
 70
     0
 10
0.0
 20
0.0
 30
0.0
  3
センタ-E CEMH1000
  1

  0
ENDBLK
  5
10F63
330
10F61
100
AcDbEntity
  8
0
100
AcDbBlockEnd
  0
BLOCK
  5
10F66
330
10F65
100
AcDbEntity
  8
0
100
AcDbBlockBegin
  2
センタ-E CEM1000
 70
     0
 10
0.0
 20
0.0
 30
0.0
  3
センタ-E CEM1000
  1

  0
ARC
  5
10F68
330
10F65
100
AcDbEntity
  8
AM_0 外形線1
100
AcDbCircle
 10
-317.5
 20
-338.0
 30
0.0
 40
389.6
100
AcDbArc
 50
79.42505200000585
 51
100.5749479999941
  0
LINE
  5
10F69
330
10F65
100
AcDbEntity
  8
AM_0 外形線1
100
AcDbLine
 10
-500.0
 20
-25.0
 30
0.0
 11
-500.0
 21
-338.0
 31
0.0
  0
LINE
  5
10F6A
330
10F65
100
AcDbEntity
  8
AM_3 隠れ線
100
AcDbLine
 10
-500.0
 20
-320.0
 30
0.0
 11
-434.0
 21
-320.0
 31
0.0
  0
LINE
  5
10F6B
330
10F65
100
AcDbEntity
  8
AM_3 隠れ線
100
AcDbLine
 10
-500.0
 20
-322.0
 30
0.0
 11
-420.0
 21
-322.0
 31
0.0
  0
LINE
  5
10F6C
330
10F65
100
AcDbEntity
  8
AM_3 隠れ線
100
AcDbLine
 10
-434.0
 20
-320.0
 30
0.0
 11
-432.8452989999996
 21
-322.0
 31
0.0
  0
LINE
  5
10F6D
330
10F65
100
AcDbEntity
  8
AM_3 隠れ線
100
AcDbLine
 10
-434.0
 20
-338.0
 30
0.0
 11
-434.0
 21
-320.0
 31
0.0
  0
LINE
  5
10F6E
330
10F65
100
AcDbEntity
  8
AM_3 隠れ線
100
AcDbLine
 10
-432.8452989999996
 20
-322.0
 30
0.0
 11
-432.8452989999996
 21
-338.0
 31
0.0
  0
LINE
  5
10F6F
330
10F65
100
AcDbEntity
  8
AM_3 隠れ線
100
AcDbLine
 10
-420.0
 20
-322.0
 30
0.0
 11
-410.762396
 21
-338.0
 31
0.0
  0
LINE
  5
10F70
330
10F65
100
AcDbEntity
  8
AM_3 隠れ線
100
AcDbLine
 10
-420.0
 20
-322.0
 30
0.0
 11
-420.0
 21
-338.0
 31
0.0
  0
LINE
  5
10F71
330
10F65
100
AcDbEntity
  8
AM_0 外形線1
100
AcDbLine
 10
-390.5
 20
22.0
 30
0.0
 11
-495.0
 21
22.0
 31
0.0
  0
LINE
  5
10F72
330
10F65
100
AcDbEntity
  8
AM_0 外形線1
100
AcDbLine
 10
-500.0
 20
17.0
 30
0.0
 11
-500.0
 21
-25.0
 31
0.0
  0
LINE
  5
10F73
330
10F65
100
AcDbEntity
  8
AM_0 外形線1
100
AcDbLine
 10
-495.0
 20
22.0
 30
0.0
 11
-500.0
 21
17.0
 31
0.0
  0
ARC
  5
10F74
330
10F65
100
AcDbEntity
  8
AM_0 外形線1
100
AcDbCircle
 10
-390.5
 20
22.5
 30
0.0
 40
0.5
100
AcDbArc
 50
270.0
 51
0.0
  0
LINE
  5
10F75
330
10F65
100
AcDbEntity
  8
AM_0 外形線1
100
AcDbLine
 10
-390.0
 20
43.79486699999961
 30
0.0
 11
-390.0
 21
22.5
 31
0.0
  0
LINE
  5
10F76
330
10F65
100
AcDbEntity
  8
AM_0 外形線1
100
AcDbLine
 10
-389.0
 20
44.98291100000005
 30
0.0
 11
-390.0
 21
43.79486699999961
 31
0.0
  0
LINE
  5
10F77
330
10F65
100
AcDbEntity
  8
AM_0 外形線1
100
AcDbLine
 10
0.0
 20
-676.0
 30
0.0
 11
0.0
 21
0.0
 31
0.0
  0
LINE
  5
10F79
330
10F65
100
AcDbEntity
  8
AM_0 外形線1
100
AcDbLine
 10
-152.0
 20
-696.0
 30
0.0
 11
-152.0
 21
-338.0
 31
0.0
  0
LINE
  5
10F7A
330
10F65
100
AcDbEntity
  8
AM_0 外形線1
100
AcDbLine
 10
-158.0
 20
-698.0
 30
0.0
 11
-158.0
 21
-338.0
 31
0.0
  0
LINE
  5
10F7B
330
10F65
100
AcDbEntity
  8
AM_0 外形線1
100
AcDbLine
 10
-158.0
 20
-698.0
 30
0.0
 11
-152.0
 21
-696.0
 31
0.0
  0
LINE
  5
10F7C
330
10F65
100
AcDbEntity
  8
AM_0 外形線1
100
AcDbLine
 10
-198.0
 20
-698.0
 30
0.0
 11
-158.0
 21
-698.0
 31
0.0
  0
ARC
  5
10F7D
330
10F65
100
AcDbEntity
  8
AM_0 外形線1
100
AcDbCircle
 10
-20.0
 20
-676.0
 30
0.0
 40
20.0
100
AcDbArc
 50
270.0
 51
0.0
  0
LINE
  5
10F7E
330
10F65
100
AcDbEntity
  8
AM_3 隠れ線
100
AcDbLine
 10
0.0
 20
-322.0
 30
0.0
 11
-80.0
 21
-322.0
 31
0.0
  0
LINE
  5
10F7F
330
10F65
100
AcDbEntity
  8
AM_3 隠れ線
100
AcDbLine
 10
0.0
 20
-320.0
 30
0.0
 11
-66.0
 21
-320.0
 31
0.0
  0
LINE
  5
10F80
330
10F65
100
AcDbEntity
  8
AM_3 隠れ線
100
AcDbLine
 10
-80.0
 20
-322.0
 30
0.0
 11
-89.2376039999999
 21
-338.0
 31
0.0
  0
LINE
  5
10F81
330
10F65
100
AcDbEntity
  8
AM_3 隠れ線
100
AcDbLine
 10
-80.0
 20
-322.0
 30
0.0
 11
-80.0
 21
-338.0
 31
0.0
  0
LINE
  5
10F82
330
10F65
100
AcDbEntity
  8
AM_3 隠れ線
100
AcDbLine
 10
-66.0
 20
-320.0
 30
0.0
 11
-67.15470100000039
 21
-322.0
 31
0.0
  0
LINE
  5
10F83
330
10F65
100
AcDbEntity
  8
AM_3 隠れ線
100
AcDbLine
 10
-67.15470100000039
 20
-322.0
 30
0.0
 11
-67.15470100000039
 21
-338.0
 31
0.0
  0
LINE
  5
10F84
330
10F65
100
AcDbEntity
  8
AM_3 隠れ線
100
AcDbLine
 10
-66.0
 20
-338.0
 30
0.0
 11
-66.0
 21
-320.0
 31
0.0
  0
LINE
  5
10F85
330
10F65
100
AcDbEntity
  8
AM_0 外形線1
100
AcDbLine
 10
-20.0
 20
20.0
 30
0.0
 11
-152.0
 21
20.0
 31
0.0
  0
LINE
  5
10F86
330
10F65
100
AcDbEntity
  8
AM_0 外形線1
100
AcDbLine
 10
-158.0
 20
22.0
 30
0.0
 11
-244.5
 21
22.0
 31
0.0
  0
LINE
  5
10F87
330
10F65
100
AcDbEntity
  8
AM_0 外形線1
100
AcDbLine
 10
-245.0
 20
43.79486699999961
 30
0.0
 11
-246.0
 21
44.98291100000005
 31
0.0
  0
LINE
  5
10F88
330
10F65
100
AcDbEntity
  8
AM_0 外形線1
100
AcDbLine
 10
-245.0
 20
22.5
 30
0.0
 11
-245.0
 21
43.79486699999961
 31
0.0
  0
ARC
  5
10F89
330
10F65
100
AcDbEntity
  8
AM_0 外形線1
100
AcDbCircle
 10
-244.5
 20
22.5
 30
0.0
 40
0.5
100
AcDbArc
 50
180.0
 51
270.0
  0
LINE
  5
10F8A
330
10F65
100
AcDbEntity
  8
AM_0 外形線1
100
AcDbLine
 10
-152.0
 20
20.0
 30
0.0
 11
-158.0
 21
22.0
 31
0.0
  0
ARC
  5
10F8B
330
10F65
100
AcDbEntity
  8
AM_0 外形線1
100
AcDbCircle
 10
-20.0
 20
0.0
 30
0.0
 40
20.0
100
AcDbArc
 50
0.0
 51
90.0
  0
LINE
  5
10F8C
330
10F65
100
AcDbEntity
  8
AM_0 外形線1
100
AcDbLine
 10
-500.0
 20
-121.9999999999995
 30
0.0
 11
0.0
 21
-121.9999999999995
 31
0.0
  0
ARC
  5
10F8D
330
10F65
100
AcDbEntity
  8
AM_0 外形線1
100
AcDbCircle
 10
-317.5
 20
-338.0
 30
0.0
 40
371.9999999999995
100
AcDbArc
 50
78.76155775857711
 51
101.2384422414229
  0
ARC
  5
10F8E
330
10F65
100
AcDbEntity
  8
AM_7 中心線
100
AcDbCircle
 10
-317.5
 20
-338.0
 30
0.0
 40
380.0
100
AcDbArc
 50
77.95326334936065
 51
101.8259891178191
  0
LINE
  5
110AB
330
10F65
100
AcDbEntity
  8
AM_0 外形線1
100
AcDbLine
 10
-152.0
 20
-696.0
 30
0.0
 11
-20.0
 21
-696.0
 31
0.0
  0
ENDBLK
  5
10F67
330
10F65
100
AcDbEntity
  8
0
100
AcDbBlockEnd
  0
BLOCK
  5
10FCA
330
10FC9
100
AcDbEntity
  8
0
100
AcDbBlockBegin
  2
*D24
 70
     1
 10
0.0
 20
0.0
 30
0.0
  3
*D24
  1

  0
LINE
  5
10FD6
330
10FC9
100
AcDbEntity
  8
AM_5 寸法線
100
AcDbLine
 10
2651.24545514343
 20
2681.342095996246
 30
0.0
 11
3118.620455143429
 21
2681.342095996246
 31
0.0
  0
LINE
  5
10FD7
330
10FC9
100
AcDbEntity
  8
AM_5 寸法線
100
AcDbLine
 10
2651.24545514343
 20
3401.342095996246
 30
0.0
 11
3118.62045514343
 21
3401.342095996245
 31
0.0
  0
LINE
  5
10FD8
330
10FC9
100
AcDbEntity
  8
AM_5 寸法線
100
AcDbLine
 10
3099.870455143429
 20
2718.842095996246
 30
0.0
 11
3099.870455143431
 21
3363.842095996246
 31
0.0
  0
INSERT
  5
10FD9
330
10FC9
100
AcDbEntity
  8
AM_5 寸法線
100
AcDbBlockReference
  2
_Open30
 10
3099.870455143429
 20
2681.342095996246
 30
0.0
 41
37.5
 42
37.5
 43
37.5
 50
270.0
  0
INSERT
  5
10FDA
330
10FC9
100
AcDbEntity
  8
AM_5 寸法線
100
AcDbBlockReference
  2
_Open30
 10
3099.870455143431
 20
3401.342095996245
 30
0.0
 41
37.5
 42
37.5
 43
37.5
 50
90.0
  0
MTEXT
  5
10FDB
330
10FC9
100
AcDbEntity
  8
AM_5 寸法線
100
AcDbMText
 10
3058.620455143429
 20
3041.342095996247
 30
0.0
 40
52.5
 41
0.0
 46
0.0
 71
     5
 72
     1
  1
%%C720
  7
SEISA
 11
0.0000000000000001
 21
1.0
 31
0.0
 73
     1
 44
1.0
  0
POINT
  5
10FDC
330
10FC9
100
AcDbEntity
  8
Defpoints
 62
     0
100
AcDbPoint
 10
2641.870455143429
 20
2681.342095996246
 30
0.0
  0
POINT
  5
10FDD
330
10FC9
100
AcDbEntity
  8
Defpoints
 62
     0
100
AcDbPoint
 10
2641.870455143429
 20
3401.342095996246
 30
0.0
  0
POINT
  5
10FDE
330
10FC9
100
AcDbEntity
  8
Defpoints
 62
     0
100
AcDbPoint
 10
3099.870455143431
 20
3401.342095996245
 30
0.0
  0
ENDBLK
  5
10FCB
330
10FC9
100
AcDbEntity
  8
0
100
AcDbBlockEnd
  0
BLOCK
  5
10FE0
330
10FDF
100
AcDbEntity
  8
0
100
AcDbBlockBegin
  2
*D25
 70
     1
 10
0.0
 20
0.0
 30
0.0
  3
*D25
  1

  0
LINE
  5
10FF2
330
10FDF
100
AcDbEntity
  8
AM_5 寸法線
100
AcDbLine
 10
2299.870455143429
 20
3386.967095996246
 30
0.0
 11
2299.870455143429
 21
3288.27735499625
 31
0.0
  0
LINE
  5
10FF3
330
10FDF
100
AcDbEntity
  8
AM_5 寸法線
100
AcDbLine
 10
2409.87045514343
 20
3392.467095996246
 30
0.0
 11
2409.87045514343
 21
3288.27735499625
 31
0.0
  0
LINE
  5
10FF4
330
10FDF
100
AcDbEntity
  8
AM_5 寸法線
100
AcDbLine
 10
2262.370455143429
 20
3307.027354996249
 30
0.0
 11
2224.870455143429
 21
3307.027354996249
 31
0.0
  0
LINE
  5
10FF5
330
10FDF
100
AcDbEntity
  8
AM_5 寸法線
100
AcDbLine
 10
2447.37045514343
 20
3307.027354996249
 30
0.0
 11
2484.870455143429
 21
3307.027354996249
 31
0.0
  0
LINE
  5
10FF6
330
10FDF
100
AcDbEntity
  8
AM_5 寸法線
100
AcDbLine
 10
2354.87045514343
 20
3307.027354996249
 30
0.0
 11
2430.522969609649
 21
3175.396693487977
 31
0.0
  0
LINE
  5
10FF7
330
10FDF
100
AcDbEntity
  8
AM_5 寸法線
100
AcDbLine
 10
2430.522969609649
 20
3175.396693487977
 30
0.0
 11
2575.272969609649
 21
3175.396693487977
 31
0.0
  0
MTEXT
  5
10FF8
330
10FDF
100
AcDbEntity
  8
AM_5 寸法線
100
AcDbMText
 10
2502.897969609648
 20
3216.646693487977
 30
0.0
 40
52.5
 41
0.0
 46
0.0
 71
     5
 72
     1
  1
110
  7
SEISA
 73
     1
 44
1.0
  0
LINE
  5
10FF9
330
10FDF
100
AcDbEntity
  8
AM_5 寸法線
100
AcDbLine
 10
2299.870455143429
 20
3307.027354996249
 30
0.0
 11
2409.87045514343
 21
3307.027354996249
 31
0.0
  0
LINE
  5
10FFA
330
10FDF
100
AcDbEntity
  8
AM_5 寸法線
100
AcDbLine
 10
2299.870455143429
 20
3307.027354996249
 30
0.0
 11
2409.87045514343
 21
3307.027354996249
 31
0.0
  0
INSERT
  5
10FFB
330
10FDF
100
AcDbEntity
  8
AM_5 寸法線
100
AcDbBlockReference
  2
_Open30
 10
2299.870455143429
 20
3307.027354996249
 30
0.0
 41
37.5
 42
37.5
 43
37.5
  0
INSERT
  5
10FFC
330
10FDF
100
AcDbEntity
  8
AM_5 寸法線
100
AcDbBlockReference
  2
_Open30
 10
2409.87045514343
 20
3307.027354996249
 30
0.0
 41
37.5
 42
37.5
 43
37.5
 50
180.0
  0
POINT
  5
10FFD
330
10FDF
100
AcDbEntity
  8
Defpoints
 62
     0
100
AcDbPoint
 10
2299.870455143429
 20
3396.342095996246
 30
0.0
  0
POINT
  5
10FFE
330
10FDF
100
AcDbEntity
  8
Defpoints
 62
     0
100
AcDbPoint
 10
2409.87045514343
 20
3401.842095996246
 30
0.0
  0
POINT
  5
10FFF
330
10FDF
100
AcDbEntity
  8
Defpoints
 62
     0
100
AcDbPoint
 10
2409.87045514343
 20
3307.027354996249
 30
0.0
  0
ENDBLK
  5
10FE1
330
10FDF
100
AcDbEntity
  8
0
100
AcDbBlockEnd
  0
BLOCK
  5
11029
330
11028
100
AcDbEntity
  8
0
100
AcDbBlockBegin
  2
ＧＣサイドカバ－- CEM1000
 70
     0
 10
0.0
 20
0.0
 30
0.0
  3
ＧＣサイドカバ－- CEM1000
  1

  0
LINE
  5
1102B
330
11028
100
AcDbEntity
  8
AM_0 外形線1
100
AcDbLine
 10
0.0
 20
-840.0
 30
0.0
 11
0.0
 21
-429.0
 31
0.0
  0
LINE
  5
1102C
330
11028
100
AcDbEntity
  8
AM_0 外形線1
100
AcDbLine
 10
0.0
 20
-827.7000000000002
 30
0.0
 11
0.0
 21
-858.0
 31
0.0
  0
LWPOLYLINE
  5
1102D
330
11028
100
AcDbEntity
  8
AM_0 外形線1
100
AcDbPolyline
 90
       73
 70
     0
 43
0.0
 10
-25.75
 20
-37.5
 10
-25.55389999999988
 20
-37.48630100000037
 10
-25.3592920000001
 20
-37.4453080000003
 10
-25.16765699999996
 20
-37.37733300000036
 10
-24.98045499999989
 20
-37.28289300000007
 10
-24.7991090000005
 20
-37.16270800000029
 10
-24.625
 20
-37.01769100000002
 10
-24.45945300000039
 20
-36.84894699999996
 10
-24.30372799999986
 20
-36.65776000000005
 10
-24.15901000000031
 20
-36.44558400000005
 10
-24.02639999999974
 20
-36.21403500000042
 10
-23.90690799999993
 20
-35.96487500000012
 10
-23.80144299999938
 20
-35.70000000000027
 10
-23.71080700000039
 20
-35.42142600000035
 10
-23.63569200000075
 20
-35.13127200000007
 10
-23.57666700000027
 20
-34.83174800000006
 10
-23.53418299999976
 20
-34.5251330000001
 10
-23.50856199999999
 20
-34.21376000000009
 10
-23.5
 20
-33.90000000000009
 10
-23.50856199999999
 20
-33.58623900000021
 10
-23.53418299999976
 20
-33.2748660000002
 10
-23.57666700000027
 20
-32.96825100000024
 10
-23.63569200000075
 20
-32.66872700000022
 10
-23.71080700000039
 20
-32.37857399999985
 10
-23.80144299999938
 20
-32.09999999999991
 10
-23.90690799999993
 20
-31.83512500000006
 10
-24.02639999999974
 20
-31.58596400000033
 10
-24.15901000000031
 20
-31.35441499999979
 10
-24.30372799999986
 20
-31.14224000000013
 10
-24.45945300000039
 20
-30.95105199999989
 10
-24.625
 20
-30.78230800000028
 10
-24.7991090000005
 20
-30.63729200000036
 10
-24.98045499999989
 20
-30.51710599999978
 10
-25.16765699999996
 20
-30.42266700000027
 10
-25.3592920000001
 20
-30.35469200000034
 10
-25.55389999999988
 20
-30.31369899999982
 10
-25.75
 20
-30.30000000000018
 10
-25.94610000000012
 20
-30.31369899999982
 10
-26.14070799999991
 20
-30.35469200000034
 10
-26.33234300000004
 20
-30.42266700000027
 10
-26.51954500000011
 20
-30.51710599999978
 10
-26.7008909999995
 20
-30.63729200000036
 10
-26.875
 20
-30.78230800000028
 10
-27.04054699999961
 20
-30.95105199999989
 10
-27.19627200000014
 20
-31.14224000000013
 10
-27.34098999999969
 20
-31.35441499999979
 10
-27.47360000000027
 20
-31.58596400000033
 10
-27.59309200000008
 20
-31.83512500000006
 10
-27.69855700000062
 20
-32.09999999999991
 10
-27.78919299999961
 20
-32.37857399999985
 10
-27.86430799999926
 20
-32.66872700000022
 10
-27.92333299999973
 20
-32.96825100000024
 10
-27.96581700000024
 20
-33.2748660000002
 10
-27.99143800000002
 20
-33.58623900000021
 10
-28.0
 20
-33.90000000000009
 10
-27.99143800000002
 20
-34.21376000000009
 10
-27.96581700000024
 20
-34.5251330000001
 10
-27.92333299999973
 20
-34.83174800000006
 10
-27.86430799999926
 20
-35.13127200000007
 10
-27.78919299999961
 20
-35.42142600000035
 10
-27.69855700000062
 20
-35.70000000000027
 10
-27.59309200000008
 20
-35.96487500000012
 10
-27.47360000000027
 20
-36.21403500000042
 10
-27.34098999999969
 20
-36.44558400000005
 10
-27.19627200000014
 20
-36.65776000000005
 10
-27.04054699999961
 20
-36.84894699999996
 10
-26.875
 20
-37.01769100000002
 10
-26.7008909999995
 20
-37.16270800000029
 10
-26.51954500000011
 20
-37.28289300000007
 10
-26.33234300000004
 20
-37.37733300000036
 10
-26.14070799999991
 20
-37.4453080000003
 10
-25.94610000000012
 20
-37.48630100000037
 10
-25.75
 20
-37.5
  0
LINE
  5
1102E
330
11028
100
AcDbEntity
  8
AM_0 外形線1
100
AcDbLine
 10
-23.5
 20
-30.30000000000018
 30
0.0
 11
-23.5
 21
-37.5
 31
0.0
  0
LINE
  5
1102F
330
11028
100
AcDbEntity
  8
AM_0 外形線1
100
AcDbLine
 10
0.0
 20
-30.30000000000018
 30
0.0
 11
0.0
 21
-66.5
 31
0.0
  0
ARC
  5
11030
330
11028
100
AcDbEntity
  8
AM_0 外形線1
100
AcDbCircle
 10
8.527537999999367
 20
-28.385898
 30
0.0
 40
5.472462999999997
100
AcDbArc
 50
320.7277500000099
 51
39.27224999999017
  0
LINE
  5
11031
330
11028
100
AcDbEntity
  8
AM_0 外形線1
100
AcDbLine
 10
4.0
 20
-3.90000000000009
 30
0.0
 11
4.0
 21
-31.84999999999991
 31
0.0
  0
LINE
  5
11032
330
11028
100
AcDbEntity
  8
AM_0 外形線1
100
AcDbLine
 10
0.0
 20
-66.5
 30
0.0
 11
-7.0
 21
-66.5
 31
0.0
  0
LWPOLYLINE
  5
11033
330
11028
100
AcDbEntity
  8
AM_0 外形線1
100
AcDbPolyline
 90
       73
 70
     0
 43
0.0
 10
-7.0
 20
-62.8499999999999
 10
-7.039955999999619
 20
-62.31399200000033
 10
-7.159518999999817
 20
-61.78206399999999
 10
-7.357778999999936
 20
-61.25826300000017
 10
-7.633226999999351
 20
-60.74657600000046
 10
-7.983768000000053
 20
-60.25089800000023
 10
-8.406732999999803
 20
-59.77500000000009
 10
-8.898904000000584
 20
-59.32250500000009
 10
-9.456532999999581
 20
-58.89685599999985
 10
-10.07537899999988
 20
-58.50129300000026
 10
-10.75073000000066
 20
-58.13882600000034
 10
-11.47744700000021
 20
-57.81221499999992
 10
-12.25
 20
-57.52394400000003
 10
-13.06250799999998
 20
-57.27620700000034
 10
-13.90878799999973
 20
-57.07088999999996
 10
-14.78240000000005
 20
-56.90955600000006
 10
-15.67669400000068
 20
-56.79343199999993
 10
-16.58486499999981
 20
-56.72340200000006
 10
-17.5
 20
-56.70000000000028
 10
-18.41513500000019
 20
-56.72340200000006
 10
-19.32330599999932
 20
-56.79343199999993
 10
-20.21759999999995
 20
-56.90955600000006
 10
-21.09121200000027
 20
-57.07088999999996
 10
-21.93749200000002
 20
-57.27620700000034
 10
-22.75
 20
-57.52394400000003
 10
-23.52255299999979
 20
-57.81221499999992
 10
-24.24926999999934
 20
-58.13882600000034
 10
-24.92462100000012
 20
-58.50129300000026
 10
-25.54346700000042
 20
-58.89685599999985
 10
-26.10109599999943
 20
-59.32250500000009
 10
-26.5932670000002
 20
-59.77500000000009
 10
-27.01623199999995
 20
-60.25089800000023
 10
-27.36677300000065
 20
-60.74657600000046
 10
-27.64222100000007
 20
-61.25826300000017
 10
-27.84048100000018
 20
-61.78206399999999
 10
-27.96004400000038
 20
-62.31399200000033
 10
-28.0
 20
-62.8499999999999
 10
-27.96004400000038
 20
-63.3860080000004
 10
-27.84048100000018
 20
-63.91793599999981
 10
-27.64222100000007
 20
-64.4417370000001
 10
-27.36677300000065
 20
-64.95342399999981
 10
-27.01623199999995
 20
-65.44910200000003
 10
-26.5932670000002
 20
-65.92500000000018
 10
-26.10109599999943
 20
-66.37749500000018
 10
-25.54346700000042
 20
-66.80314400000042
 10
-24.92462100000012
 20
-67.19870700000001
 10
-24.24926999999934
 20
-67.56117300000005
 10
-23.52255299999979
 20
-67.88778500000034
 10
-22.75
 20
-68.17605599999978
 10
-21.93749200000002
 20
-68.42379299999993
 10
-21.09121200000027
 20
-68.62910899999997
 10
-20.21759999999995
 20
-68.79044400000021
 10
-19.32330599999932
 20
-68.90656700000047
 10
-18.41513500000019
 20
-68.97659699999984
 10
-17.5
 20
-69.0
 10
-16.58486499999981
 20
-68.97659699999984
 10
-15.67669400000068
 20
-68.90656700000047
 10
-14.78240000000005
 20
-68.79044400000021
 10
-13.90878799999973
 20
-68.62910899999997
 10
-13.06250799999998
 20
-68.42379299999993
 10
-12.25
 20
-68.17605599999978
 10
-11.47744700000021
 20
-67.88778500000034
 10
-10.75073000000066
 20
-67.56117300000005
 10
-10.07537899999988
 20
-67.19870700000001
 10
-9.456532999999581
 20
-66.80314400000042
 10
-8.898904000000584
 20
-66.37749500000018
 10
-8.406732999999803
 20
-65.92500000000018
 10
-7.983768000000053
 20
-65.44910200000003
 10
-7.633226999999351
 20
-64.95342399999981
 10
-7.357778999999936
 20
-64.4417370000001
 10
-7.159518999999817
 20
-63.91793599999981
 10
-7.039955999999619
 20
-63.3860080000004
 10
-7.0
 20
-62.8499999999999
  0
LINE
  5
11034
330
11028
100
AcDbEntity
  8
AM_0 外形線1
100
AcDbLine
 10
-23.5
 20
-37.5
 30
0.0
 11
-35.0
 21
-37.5
 31
0.0
  0
LINE
  5
11035
330
11028
100
AcDbEntity
  8
AM_0 外形線1
100
AcDbLine
 10
-35.0
 20
-66.5
 30
0.0
 11
-35.0
 21
-37.5
 31
0.0
  0
LINE
  5
11036
330
11028
100
AcDbEntity
  8
AM_0 外形線1
100
AcDbLine
 10
-28.0
 20
-66.5
 30
0.0
 11
-35.0
 21
-66.5
 31
0.0
  0
LINE
  5
11037
330
11028
100
AcDbEntity
  8
AM_0 外形線1
100
AcDbLine
 10
-28.0
 20
-56.70000000000028
 30
0.0
 11
-28.0
 21
-66.5
 31
0.0
  0
LINE
  5
11038
330
11028
100
AcDbEntity
  8
AM_0 外形線1
100
AcDbLine
 10
-7.0
 20
-56.70000000000028
 30
0.0
 11
-28.0
 21
-56.70000000000028
 31
0.0
  0
LINE
  5
11039
330
11028
100
AcDbEntity
  8
AM_0 外形線1
100
AcDbLine
 10
-7.0
 20
-66.5
 30
0.0
 11
-7.0
 21
-56.70000000000028
 31
0.0
  0
LINE
  5
1103A
330
11028
100
AcDbEntity
  8
AM_0 外形線1
100
AcDbLine
 10
-28.0
 20
-66.5
 30
0.0
 11
-28.0
 21
-69.0
 31
0.0
  0
LINE
  5
1103B
330
11028
100
AcDbEntity
  8
AM_0 外形線1
100
AcDbLine
 10
-7.0
 20
-66.5
 30
0.0
 11
-7.0
 21
-69.0
 31
0.0
  0
LINE
  5
1103C
330
11028
100
AcDbEntity
  8
AM_0 外形線1
100
AcDbLine
 10
12.76402800000051
 20
-31.84999999999991
 30
0.0
 11
4.0
 21
-31.84999999999991
 31
0.0
  0
LINE
  5
1103D
330
11028
100
AcDbEntity
  8
AM_0 外形線1
100
AcDbLine
 10
4.0
 20
-32.09999999999991
 30
0.0
 11
0.0
 21
-32.09999999999991
 31
0.0
  0
LINE
  5
1103E
330
11028
100
AcDbEntity
  8
AM_0 外形線1
100
AcDbLine
 10
4.0
 20
-31.84999999999991
 30
0.0
 11
4.0
 21
-32.09999999999991
 31
0.0
  0
LINE
  5
1103F
330
11028
100
AcDbEntity
  8
AM_7 中心線
100
AcDbLine
 10
-65.29609900000014
 20
-18.0
 30
0.0
 11
18.90241400000013
 21
-18.0
 31
0.0
  0
LINE
  5
11040
330
11028
100
AcDbEntity
  8
AM_0 外形線1
100
AcDbLine
 10
0.0
 20
0.0
 30
0.0
 11
-28.0
 21
0.0
 31
0.0
  0
LINE
  5
11041
330
11028
100
AcDbEntity
  8
AM_0 外形線1
100
AcDbLine
 10
0.0
 20
-25.0
 30
0.0
 11
-51.0
 21
-25.0
 31
0.0
  0
LINE
  5
11042
330
11028
100
AcDbEntity
  8
AM_0 外形線1
100
AcDbLine
 10
0.0
 20
-11.0
 30
0.0
 11
-51.0
 21
-11.0
 31
0.0
  0
LINE
  5
11043
330
11028
100
AcDbEntity
  8
AM_4 細線
100
AcDbLine
 10
-51.0
 20
-26.0
 30
0.0
 11
0.0
 21
-26.0
 31
0.0
  0
LINE
  5
11044
330
11028
100
AcDbEntity
  8
AM_4 細線
100
AcDbLine
 10
0.0
 20
-10.0
 30
0.0
 11
-51.0
 21
-10.0
 31
0.0
  0
LINE
  5
11045
330
11028
100
AcDbEntity
  8
AM_0 外形線1
100
AcDbLine
 10
0.0
 20
-27.0
 30
0.0
 11
-28.0
 21
-27.0
 31
0.0
  0
LINE
  5
11046
330
11028
100
AcDbEntity
  8
AM_0 外形線1
100
AcDbLine
 10
0.0
 20
-9.0
 30
0.0
 11
-28.0
 21
-9.0
 31
0.0
  0
LINE
  5
11047
330
11028
100
AcDbEntity
  8
AM_0 外形線1
100
AcDbLine
 10
-28.0
 20
-30.30000000000018
 30
0.0
 11
-23.5
 21
-30.30000000000018
 31
0.0
  0
LINE
  5
11048
330
11028
100
AcDbEntity
  8
AM_0 外形線1
100
AcDbLine
 10
-58.0
 20
-25.0
 30
0.0
 11
-51.0
 21
-25.0
 31
0.0
  0
LINE
  5
11049
330
11028
100
AcDbEntity
  8
AM_0 外形線1
100
AcDbLine
 10
-62.04145200000039
 20
-18.0
 30
0.0
 11
-58.0
 21
-25.0
 31
0.0
  0
LINE
  5
1104A
330
11028
100
AcDbEntity
  8
AM_0 外形線1
100
AcDbLine
 10
-58.0
 20
-11.0
 30
0.0
 11
-62.04145200000039
 21
-18.0
 31
0.0
  0
LINE
  5
1104B
330
11028
100
AcDbEntity
  8
AM_0 外形線1
100
AcDbLine
 10
-51.0
 20
-11.0
 30
0.0
 11
-58.0
 21
-11.0
 31
0.0
  0
LINE
  5
1104C
330
11028
100
AcDbEntity
  8
AM_0 外形線1
100
AcDbLine
 10
-58.0
 20
-11.0
 30
0.0
 11
-58.0
 21
-25.0
 31
0.0
  0
LINE
  5
1104D
330
11028
100
AcDbEntity
  8
AM_0 外形線1
100
AcDbLine
 10
-51.0
 20
-10.0
 30
0.0
 11
-51.0
 21
-26.0
 31
0.0
  0
LINE
  5
1104E
330
11028
100
AcDbEntity
  8
AM_0 外形線1
100
AcDbLine
 10
0.0
 20
-30.30000000000018
 30
0.0
 11
0.0
 21
0.0
 31
0.0
  0
LINE
  5
1104F
330
11028
100
AcDbEntity
  8
AM_0 外形線1
100
AcDbLine
 10
4.0
 20
-17.25651685071989
 30
0.0
 11
0.0
 21
-20.75651685071989
 31
0.0
  0
LINE
  5
11050
330
11028
100
AcDbEntity
  8
AM_0 外形線1
100
AcDbLine
 10
0.0
 20
-18.38435585459228
 30
0.0
 11
4.0
 21
-14.88435585459228
 31
0.0
  0
LINE
  5
11051
330
11028
100
AcDbEntity
  8
AM_0 外形線1
100
AcDbLine
 10
14.0
 20
-7.614101000000117
 30
0.0
 11
14.0
 21
-28.385898
 31
0.0
  0
LINE
  5
11052
330
11028
100
AcDbEntity
  8
AM_0 外形線1
100
AcDbLine
 10
12.76402800000051
 20
-11.07820300000003
 30
0.0
 11
4.0
 21
-11.07820300000003
 31
0.0
  0
LINE
  5
11053
330
11028
100
AcDbEntity
  8
AM_0 外形線1
100
AcDbLine
 10
12.76402800000051
 20
-24.92179699999997
 30
0.0
 11
4.0
 21
-24.92179699999997
 31
0.0
  0
ARC
  5
11054
330
11028
100
AcDbEntity
  8
AM_0 外形線1
100
AcDbCircle
 10
-6.0
 20
-18.0
 30
0.0
 40
20.0
100
AcDbArc
 50
339.7516619999837
 51
20.24833800001628
  0
ARC
  5
11055
330
11028
100
AcDbEntity
  8
AM_0 外形線1
100
AcDbCircle
 10
8.527536999999938
 20
-7.614101000000117
 30
0.0
 40
5.472462999999997
100
AcDbArc
 50
320.7277569999982
 51
39.27224300000185
  0
LINE
  5
11056
330
11028
100
AcDbEntity
  8
AM_0 外形線1
100
AcDbLine
 10
4.0
 20
-4.15000000000009
 30
0.0
 11
12.76402800000051
 21
-4.15000000000009
 31
0.0
  0
LINE
  5
11057
330
11028
100
AcDbEntity
  8
AM_0 外形線1
100
AcDbLine
 10
0.0
 20
-3.90000000000009
 30
0.0
 11
4.0
 21
-3.90000000000009
 31
0.0
  0
LINE
  5
11058
330
11028
100
AcDbEntity
  8
AM_0 外形線1
100
AcDbLine
 10
-28.0
 20
-858.0
 30
0.0
 11
0.0
 21
-858.0
 31
0.0
  0
ENDBLK
  5
1102A
330
11028
100
AcDbEntity
  8
0
100
AcDbBlockEnd
  0
BLOCK
  5
110AE
330
110AD
100
AcDbEntity
  8
0
100
AcDbBlockBegin
  2
リーマボルト-E CEMH1000
 70
     0
 10
0.0
 20
0.0
 30
0.0
  3
リーマボルト-E CEMH1000
  1

  0
LINE
  5
110B0
330
110AD
100
AcDbEntity
  8
AM_7 中心線
100
AcDbLine
 10
197.0
 20
0.0
 30
0.0
 11
-5.0
 21
0.0
 31
0.0
  0
LINE
  5
110B1
330
110AD
100
AcDbEntity
  8
AM_0 外形線1
100
AcDbLine
 10
53.0
 20
-19.0
 30
0.0
 11
166.0
 21
-19.0
 31
0.0
  0
LINE
  5
110B2
330
110AD
100
AcDbEntity
  8
AM_0 外形線1
100
AcDbLine
 10
166.0
 20
19.0
 30
0.0
 11
53.0
 21
19.0
 31
0.0
  0
ARC
  5
110B3
330
110AD
100
AcDbEntity
  8
AM_0 外形線1
100
AcDbCircle
 10
25.06176999999934
 20
23.81356599999981
 30
0.0
 40
14.06177
100
AcDbArc
 50
145.6395059999856
 51
214.3604940000144
  0
LINE
  5
110B4
330
110AD
100
AcDbEntity
  8
AM_0 外形線1
100
AcDbLine
 10
40.0
 20
-31.75
 30
0.0
 11
40.0
 21
31.75
 31
0.0
  0
LINE
  5
110B5
330
110AD
100
AcDbEntity
  8
AM_0 外形線1
100
AcDbLine
 10
11.0
 20
27.5
 30
0.0
 11
11.0
 21
-27.5
 31
0.0
  0
LINE
  5
110B6
330
110AD
100
AcDbEntity
  8
AM_0 外形線1
100
AcDbLine
 10
49.0
 20
29.75
 30
0.0
 11
49.0
 21
-29.75
 31
0.0
  0
LINE
  5
110B7
330
110AD
100
AcDbEntity
  8
AM_0 外形線1
100
AcDbLine
 10
53.0
 20
19.0
 30
0.0
 11
53.0
 21
-19.0
 31
0.0
  0
LINE
  5
110B8
330
110AD
100
AcDbEntity
  8
AM_0 外形線1
100
AcDbLine
 10
53.0
 20
19.0
 30
0.0
 11
51.0
 21
17.84529999999995
 31
0.0
  0
LINE
  5
110B9
330
110AD
100
AcDbEntity
  8
AM_4 細線
100
AcDbLine
 10
11.0
 20
-16.0
 30
0.0
 11
1.0
 21
-16.0
 31
0.0
  0
LINE
  5
110BA
330
110AD
100
AcDbEntity
  8
AM_4 細線
100
AcDbLine
 10
11.0
 20
16.0
 30
0.0
 11
1.0
 21
16.0
 31
0.0
  0
LINE
  5
110BB
330
110AD
100
AcDbEntity
  8
AM_0 外形線1
100
AcDbLine
 10
49.0
 20
-18.0
 30
0.0
 11
51.26794900000003
 21
-18.0
 31
0.0
  0
LINE
  5
110BC
330
110AD
100
AcDbEntity
  8
AM_0 外形線1
100
AcDbLine
 10
49.0
 20
18.0
 30
0.0
 11
51.26794900000003
 21
18.0
 31
0.0
  0
LINE
  5
110BD
330
110AD
100
AcDbEntity
  8
AM_0 外形線1
100
AcDbLine
 10
49.0
 20
3.0
 30
0.0
 11
40.0
 21
-6.0
 31
0.0
  0
LINE
  5
110BE
330
110AD
100
AcDbEntity
  8
AM_0 外形線1
100
AcDbLine
 10
49.0
 20
6.0
 30
0.0
 11
40.0
 21
-3.0
 31
0.0
  0
LINE
  5
110BF
330
110AD
100
AcDbEntity
  8
AM_0 外形線1
100
AcDbLine
 10
3.0
 20
18.0
 30
0.0
 11
3.0
 21
-18.0
 31
0.0
  0
LINE
  5
110C0
330
110AD
100
AcDbEntity
  8
AM_0 外形線1
100
AcDbLine
 10
3.0
 20
-18.0
 30
0.0
 11
11.0
 21
-18.0
 31
0.0
  0
LINE
  5
110C1
330
110AD
100
AcDbEntity
  8
AM_0 外形線1
100
AcDbLine
 10
0.0
 20
-15.0
 30
0.0
 11
3.0
 21
-18.0
 31
0.0
  0
LINE
  5
110C2
330
110AD
100
AcDbEntity
  8
AM_0 外形線1
100
AcDbLine
 10
0.0
 20
15.0
 30
0.0
 11
0.0
 21
-15.0
 31
0.0
  0
LINE
  5
110C3
330
110AD
100
AcDbEntity
  8
AM_0 外形線1
100
AcDbLine
 10
3.0
 20
18.0
 30
0.0
 11
0.0
 21
15.0
 31
0.0
  0
LINE
  5
110C4
330
110AD
100
AcDbEntity
  8
AM_0 外形線1
100
AcDbLine
 10
11.0
 20
18.0
 30
0.0
 11
3.0
 21
18.0
 31
0.0
  0
LINE
  5
110C5
330
110AD
100
AcDbEntity
  8
AM_0 外形線1
100
AcDbLine
 10
40.0
 20
-15.87713200000007
 30
0.0
 11
13.45373899999958
 21
-15.87713200000007
 31
0.0
  0
LINE
  5
110C6
330
110AD
100
AcDbEntity
  8
AM_0 外形線1
100
AcDbLine
 10
40.0
 20
15.8771329999995
 30
0.0
 11
13.45373899999958
 21
15.8771329999995
 31
0.0
  0
ARC
  5
110C7
330
110AD
100
AcDbEntity
  8
AM_0 外形線1
100
AcDbCircle
 10
25.06176999999934
 20
-23.81356600000026
 30
0.0
 40
14.06177
100
AcDbArc
 50
145.6395059999856
 51
214.3604940000144
  0
ARC
  5
110C8
330
110AD
100
AcDbEntity
  8
AM_0 外形線1
100
AcDbCircle
 10
63.59406200000011
 20
0.0
 30
0.0
 40
52.594062
100
AcDbArc
 50
162.4294029999824
 51
197.5705970000175
  0
LINE
  5
110C9
330
110AD
100
AcDbEntity
  8
AM_0 外形線1
100
AcDbLine
 10
13.45373899999958
 20
-31.75
 30
0.0
 11
40.0
 21
-31.75
 31
0.0
  0
LINE
  5
110CA
330
110AD
100
AcDbEntity
  8
AM_0 外形線1
100
AcDbLine
 10
11.0
 20
-27.5
 30
0.0
 11
13.45373899999958
 21
-31.75
 31
0.0
  0
LINE
  5
110CB
330
110AD
100
AcDbEntity
  8
AM_0 外形線1
100
AcDbLine
 10
49.0
 20
-29.75
 30
0.0
 11
40.0
 21
-29.75
 31
0.0
  0
LINE
  5
110CC
330
110AD
100
AcDbEntity
  8
AM_0 外形線1
100
AcDbLine
 10
51.0
 20
-17.84529900000007
 30
0.0
 11
53.0
 21
-19.0
 31
0.0
  0
LINE
  5
110CD
330
110AD
100
AcDbEntity
  8
AM_0 外形線1
100
AcDbLine
 10
51.0
 20
17.84529999999995
 30
0.0
 11
51.0
 21
-17.84529900000007
 31
0.0
  0
LINE
  5
110CE
330
110AD
100
AcDbEntity
  8
AM_0 外形線1
100
AcDbLine
 10
13.45373899999958
 20
31.75
 30
0.0
 11
11.0
 21
27.5
 31
0.0
  0
LINE
  5
110CF
330
110AD
100
AcDbEntity
  8
AM_0 外形線1
100
AcDbLine
 10
40.0
 20
31.75
 30
0.0
 11
13.45373899999958
 21
31.75
 31
0.0
  0
LINE
  5
110D0
330
110AD
100
AcDbEntity
  8
AM_0 外形線1
100
AcDbLine
 10
40.0
 20
29.75
 30
0.0
 11
49.0
 21
29.75
 31
0.0
  0
ARC
  5
110D1
330
110AD
100
AcDbEntity
  8
AM_0 外形線1
100
AcDbCircle
 10
168.0
 20
19.5
 30
0.0
 40
2.0
100
AcDbArc
 50
194.0362430000019
 51
255.5224880000149
  0
ARC
  5
110D2
330
110AD
100
AcDbEntity
  8
AM_0 外形線1
100
AcDbCircle
 10
167.0
 20
19.5
 30
0.0
 40
2.0
100
AcDbArc
 50
284.4775119999852
 51
345.963756999998
  0
LINE
  5
110D3
330
110AD
100
AcDbEntity
  8
AM_0 外形線1
100
AcDbLine
 10
166.0
 20
-19.0
 30
0.0
 11
166.0
 21
19.0
 31
0.0
  0
ARC
  5
110D4
330
110AD
100
AcDbEntity
  8
AM_0 外形線1
100
AcDbCircle
 10
177.9382300000006
 20
23.81356599999981
 30
0.0
 40
14.06177
100
AcDbArc
 50
325.6395059999856
 51
34.3604940000144
  0
LINE
  5
110D5
330
110AD
100
AcDbEntity
  8
AM_0 外形線1
100
AcDbLine
 10
169.0
 20
-31.75
 30
0.0
 11
169.0
 21
31.75
 31
0.0
  0
LINE
  5
110D6
330
110AD
100
AcDbEntity
  8
AM_0 外形線1
100
AcDbLine
 10
192.0
 20
27.5
 30
0.0
 11
192.0
 21
-27.5
 31
0.0
  0
LINE
  5
110D7
330
110AD
100
AcDbEntity
  8
AM_0 外形線1
100
AcDbLine
 10
169.0
 20
-15.87713200000007
 30
0.0
 11
189.5462610000004
 21
-15.87713200000007
 31
0.0
  0
LINE
  5
110D8
330
110AD
100
AcDbEntity
  8
AM_0 外形線1
100
AcDbLine
 10
169.0
 20
15.8771329999995
 30
0.0
 11
189.5462610000004
 21
15.8771329999995
 31
0.0
  0
LINE
  5
110D9
330
110AD
100
AcDbEntity
  8
AM_0 外形線1
100
AcDbLine
 10
189.5462610000004
 20
-31.75
 30
0.0
 11
169.0
 21
-31.75
 31
0.0
  0
ARC
  5
110DA
330
110AD
100
AcDbEntity
  8
AM_0 外形線1
100
AcDbCircle
 10
167.0
 20
-19.5
 30
0.0
 40
2.0
100
AcDbArc
 50
14.03624300000194
 51
75.52248800001485
  0
ARC
  5
110DB
330
110AD
100
AcDbEntity
  8
AM_0 外形線1
100
AcDbCircle
 10
168.0
 20
-19.5
 30
0.0
 40
2.0
100
AcDbArc
 50
104.4775119999851
 51
165.963756999998
  0
ARC
  5
110DC
330
110AD
100
AcDbEntity
  8
AM_0 外形線1
100
AcDbCircle
 10
177.9382300000006
 20
-23.81356600000026
 30
0.0
 40
14.06177
100
AcDbArc
 50
325.6395059999856
 51
34.3604940000144
  0
ARC
  5
110DD
330
110AD
100
AcDbEntity
  8
AM_0 外形線1
100
AcDbCircle
 10
139.4059379999998
 20
0.0
 30
0.0
 40
52.594062
100
AcDbArc
 50
342.4294029999825
 51
17.57059700001753
  0
LINE
  5
110DE
330
110AD
100
AcDbEntity
  8
AM_0 外形線1
100
AcDbLine
 10
192.0
 20
-27.5
 30
0.0
 11
189.5462610000004
 21
-31.75
 31
0.0
  0
LINE
  5
110DF
330
110AD
100
AcDbEntity
  8
AM_0 外形線1
100
AcDbLine
 10
169.0
 20
31.75
 30
0.0
 11
189.5462610000004
 21
31.75
 31
0.0
  0
LINE
  5
110E0
330
110AD
100
AcDbEntity
  8
AM_0 外形線1
100
AcDbLine
 10
169.0
 20
32.0
 30
0.0
 11
169.0
 21
19.0
 31
0.0
  0
LINE
  5
110E1
330
110AD
100
AcDbEntity
  8
AM_0 外形線1
100
AcDbLine
 10
189.5462610000004
 20
31.75
 30
0.0
 11
192.0
 21
27.5
 31
0.0
  0
ENDBLK
  5
110AF
330
110AD
100
AcDbEntity
  8
0
100
AcDbBlockEnd
  0
ENDSEC
  0
SECTION
  2
ENTITIES
  0
TEXT
  5
354E
330
18
100
AcDbEntity
  8
図面枠(文字_細線)
100
AcDbText
 10
876.0
 20
691.9999999999986
 30
0.0
 40
28.0
  1

 41
0.85
  7
SEISA
100
AcDbText
  0
TEXT
  5
354F
330
18
100
AcDbEntity
  8
図面枠(文字_細線)
100
AcDbText
 10
876.0
 20
747.9999999999986
 30
0.0
 40
28.0
  1

 41
0.85
  7
SEISA
100
AcDbText
  0
TEXT
  5
3B50
330
18
100
AcDbEntity
  8
図面枠(文字_細線)
100
AcDbText
 10
-1785.697940451455
 20
765.6340418765494
 30
0.0
 40
35.0
  1

 41
0.9
  7
SEISA
100
AcDbText
  0
DIMENSION
  5
E962
330
18
100
AcDbEntity
  8
AM_5 寸法線
100
AcDbDimension
  2
*D2
 10
3369.870455143431
 20
3541.342095996246
 30
0.0
 11
3328.620455143429
 21
3041.342095996247
 31
0.0
 70
    32
  1
%%C<>
 71
     5
 42
1000.0
 73
     0
 74
     0
 75
     0
  3
ISO-25
100
AcDbAlignedDimension
 13
2337.870455143429
 23
2541.342095996246
 33
0.0
 14
2337.870455143429
 24
3541.342095996246
 34
0.0
 50
90.0
100
AcDbRotatedDimension
1001
ACAD
1000
DSTYLE
1002
{
1070
   271
1070
     6
1002
}
  0
DIMENSION
  5
E963
330
18
100
AcDbEntity
  8
AM_5 寸法線
100
AcDbDimension
  2
*D3
 10
2799.870455143429
 20
1996.342095996246
 30
0.0
 11
2279.870455143429
 21
2037.592095996246
 31
0.0
 70
    32
 71
     5
 42
1040.0
 73
     0
 74
     0
 75
     0
  3
ISO-25
100
AcDbAlignedDimension
 13
1759.870455143429
 23
2661.342095996246
 33
0.0
 14
2799.870455143429
 24
2703.342095996246
 34
0.0
100
AcDbRotatedDimension
1001
ACAD
1000
DSTYLE
1002
{
1070
   271
1070
     6
1002
}
  0
DIMENSION
  5
E964
330
18
100
AcDbEntity
  8
AM_5 寸法線
100
AcDbDimension
  2
*D4
 10
2601.870455143429
 20
2131.342095996246
 30
0.0
 11
2440.870455143429
 21
2172.592095996246
 31
0.0
 70
    32
 71
     5
 42
322.0
 73
     0
 74
     0
 75
     0
  3
ISO-25
100
AcDbAlignedDimension
 13
2279.870455143429
 23
2543.342095996246
 33
0.0
 14
2601.870455143429
 24
2612.342095996246
 34
0.0
100
AcDbRotatedDimension
1001
ACAD
1000
DSTYLE
1002
{
1070
   271
1070
     6
1002
}
  0
DIMENSION
  5
E965
330
18
100
AcDbEntity
  8
AM_5 寸法線
100
AcDbDimension
  2
*D5
 10
2799.870455143429
 20
3113.895588996246
 30
0.0
 11
2686.97491196358
 21
3164.361216200809
 31
0.0
 70
   160
 71
     5
 42
500.0
 73
     0
 74
     0
 75
     0
  3
ISO-25
100
AcDbAlignedDimension
 13
2299.870455143429
 23
3113.895588996246
 33
0.0
 14
2799.870455143429
 24
3113.895588996246
 34
0.0
100
AcDbRotatedDimension
1001
ACAD
1000
DSTYLE
1002
{
1070
   271
1070
     6
1070
   279
1070
     2
1002
}
  0
DIMENSION
  5
E967
330
18
100
AcDbEntity
  8
AM_5 寸法線
100
AcDbDimension
  2
*D6
 10
2279.870455143429
 20
2271.310227117961
 30
0.0
 11
2092.745455143429
 21
2271.310227117961
 31
0.0
 70
   160
 71
     5
 42
60.0
 73
     0
 74
     0
 75
     0
  3
ISO-25
100
AcDbAlignedDimension
 13
2219.870455143429
 23
2543.342095996246
 33
0.0
 14
2279.870455143429
 24
2543.342095996246
 34
0.0
100
AcDbRotatedDimension
1001
ACAD
1000
DSTYLE
1002
{
1070
   344
1005
2F48
1070
   342
1005
0
1070
   173
1070
     1
1070
   343
1005
322
1070
   271
1070
     6
1002
}
  0
DIMENSION
  5
E968
330
18
100
AcDbEntity
  8
AM_5 寸法線
100
AcDbDimension
  2
*D7
 10
2279.870455143429
 20
2131.342095996246
 30
0.0
 11
2019.870455143429
 21
2172.592095996246
 31
0.0
 70
    32
 71
     5
 42
520.0
 73
     0
 74
     0
 75
     0
  3
ISO-25
100
AcDbAlignedDimension
 13
1759.870455143429
 23
2544.342095996246
 33
0.0
 14
2279.870455143429
 24
2544.342095996246
 34
0.0
100
AcDbRotatedDimension
1001
ACAD
1000
DSTYLE
1002
{
1070
   271
1070
     6
1002
}
  0
DIMENSION
  5
E969
330
18
100
AcDbEntity
  8
AM_5 寸法線
100
AcDbDimension
  2
*D8
 10
2339.870455143429
 20
2270.977425443107
 30
0.0
 11
2466.995455143429
 21
2312.227425443107
 31
0.0
 70
    32
 71
     5
 42
60.0
 73
     0
 74
     0
 75
     0
  3
ISO-25
100
AcDbAlignedDimension
 13
2279.870455143429
 23
2543.342095996246
 33
0.0
 14
2339.870455143429
 24
2543.342095996246
 34
0.0
100
AcDbRotatedDimension
1001
ACAD
1000
DSTYLE
1002
{
1070
   343
1005
2F48
1070
   342
1005
0
1070
   173
1070
     1
1070
   344
1005
322
1070
   271
1070
     6
1002
}
  0
LINE
  5
EA6F
330
18
100
AcDbEntity
  8
AM_0 外形線1
100
AcDbLine
 10
2259.870455143429
 20
3389.342095996247
 30
0.0
 11
2259.870455143429
 21
3041.342095996246
 31
0.0
  0
DIMENSION
  5
EA72
330
18
100
AcDbEntity
  8
AM_5 寸法線
100
AcDbDimension
  2
*D9
 10
1459.870455143429
 20
3441.342095996246
 30
0.0
 11
1418.620455143429
 21
3041.342095996247
 31
0.0
 70
    32
  1
%%C<>
 71
     5
 42
800.0
 73
     0
 74
     0
 75
     0
  3
ISO-25
100
AcDbAlignedDimension
 13
1779.870455143429
 23
2641.342095996246
 33
0.0
 14
1779.870455143429
 24
3441.342095996246
 34
0.0
 50
90.0
100
AcDbRotatedDimension
1001
ACAD
1000
DSTYLE
1002
{
1070
   271
1070
     6
1002
}
  0
LINE
  5
EA73
330
18
100
AcDbEntity
  8
AM_7 中心線
100
AcDbLine
 10
2842.191508551827
 20
3041.342095996246
 30
0.0
 11
1723.994527143429
 21
3041.342095996246
 31
0.0
  0
LINE
  5
EA8B
330
18
100
AcDbEntity
  8
AM_7 中心線
100
AcDbLine
 10
2358.625079342782
 20
2575.342095996246
 30
0.0
 11
2201.115830944076
 21
2575.342095996246
 31
0.0
  0
DIMENSION
  5
EAA3
330
18
100
AcDbEntity
  8
AM_5 寸法線
100
AcDbDimension
  2
*D10
 10
2259.870455143429
 20
3113.895588996246
 30
0.0
 11
2009.870455143429
 21
3155.145588996246
 31
0.0
 70
    32
 71
     5
 42
500.0
 73
     0
 74
     0
 75
     0
  3
ISO-25
100
AcDbAlignedDimension
 13
1759.870455143429
 23
3113.895588996246
 33
0.0
 14
2259.870455143429
 24
3113.895588996246
 34
0.0
100
AcDbRotatedDimension
1001
ACAD
1000
DSTYLE
1002
{
1070
   271
1070
     6
1002
}
  0
LINE
  5
EB3A
330
18
100
AcDbEntity
  8
AM_0 外形線1
100
AcDbLine
 10
2339.870455143429
 20
3488.342095996246
 30
0.0
 11
2339.870455143429
 21
3468.342095996246
 31
0.0
  0
DIMENSION
  5
EB58
330
18
100
AcDbEntity
  8
AM_5 寸法線
100
AcDbDimension
  2
*D11
 10
2799.870455143429
 20
2131.342095996246
 30
0.0
 11
2700.870455143431
 21
2172.592095996246
 31
0.0
 70
    32
 71
     5
 42
198.0
 73
     0
 74
     0
 75
     0
  3
ISO-25
100
AcDbAlignedDimension
 13
2601.870455143429
 23
2612.342095996246
 33
0.0
 14
2799.870455143429
 24
2703.342095996246
 34
0.0
100
AcDbRotatedDimension
1001
ACAD
1000
DSTYLE
1002
{
1070
   271
1070
     6
1002
}
  0
LINE
  5
EBD1
330
18
100
AcDbEntity
  8
AM_0 外形線1
100
AcDbLine
 10
2799.870455143429
 20
3216.342095996246
 30
0.0
 11
2799.870455143429
 21
3041.342095996246
 31
0.0
  0
DIMENSION
  5
EBD3
330
18
100
AcDbEntity
  8
AM_5 寸法線
100
AcDbDimension
  2
*D12
 10
3234.870455143429
 20
3470.342095996246
 30
0.0
 11
3193.620455143429
 21
3041.342095996247
 31
0.0
 70
    32
  1
%%C<>
 71
     5
 42
858.0
 73
     0
 74
     0
 75
     0
  3
ISO-25
100
AcDbAlignedDimension
 13
2601.870455143429
 23
2612.342095996246
 33
0.0
 14
2601.870455143429
 24
3470.342095996246
 34
0.0
 50
90.0
100
AcDbRotatedDimension
1001
ACAD
1000
DSTYLE
1002
{
1070
   271
1070
     6
1002
}
  0
LINE
  5
EBF5
330
18
100
AcDbEntity
  8
AM_7 中心線
100
AcDbLine
 10
2482.37045514343
 20
3435.942095996246
 30
0.0
 11
2482.37045514343
 21
3406.342095996246
 31
0.0
  0
DIMENSION
  5
EBF6
102
{ACAD_REACTORS
330
10C71
102
}
330
18
100
AcDbEntity
  8
AM_5 寸法線
100
AcDbDimension
  2
*D13
 10
2566.87045514343
 20
3307.027354996246
 30
0.0
 11
2691.74545514343
 21
3348.277354996246
 31
0.0
 70
    32
 71
     5
 42
12.0
 73
     0
 74
     0
 75
     0
  3
ISO-25
100
AcDbAlignedDimension
 13
2554.87045514343
 23
3401.842095996246
 33
0.0
 14
2566.87045514343
 24
3401.342095996246
 34
0.0
100
AcDbRotatedDimension
1001
ACAD
1000
DSTYLE
1002
{
1070
   271
1070
     6
1002
}
  0
LINE
  5
EC08
330
18
100
AcDbEntity
  8
AM_0 外形線1
100
AcDbLine
 10
2566.87045514343
 20
3403.842095996246
 30
0.0
 11
2566.87045514343
 21
3401.342095996246
 31
0.0
  0
LINE
  5
EC0C
330
18
100
AcDbEntity
  8
AM_0 外形線1
100
AcDbLine
 10
2601.870455143429
 20
3403.842095996246
 30
0.0
 11
2601.870455143429
 21
3401.342095996246
 31
0.0
  0
TEXT
  5
1015F
330
18
100
AcDbEntity
  8
断面､詳細
100
AcDbText
 10
-21606.09106290871
 20
-28929.168075517
 30
0.0
 40
625.0
  1

 41
0.9
  7
SEISA
100
AcDbText
  0
MTEXT
  5
106B9
330
18
100
AcDbEntity
  8
AM_6 文字
100
AcDbMText
 10
2908.377109314703
 20
2445.692479743005
 30
0.0
 40
52.5
 41
1260.612244477853
 46
345.2385902569525
 71
     1
 72
     5
  1
{\W0.6;TYPE:CEM1000/CEMH1000\PSHAFT DIA:MAX/MIN \P RIGID SIDE φ570/φ355\P COUPLING CENTER SIDE φ510/φ355}
  7
SEISA
 73
     1
 44
1.0
  0
DIMENSION
  5
10B57
330
18
100
AcDbEntity
  8
AM_5 寸法線
100
AcDbDimension
  2
*D15
 10
2899.87045514343
 20
3624.67535355932
 30
0.0
 11
3047.245455143429
 21
3665.92535355932
 31
0.0
 70
    32
 71
     5
 42
100.0
 73
     0
 74
     0
 75
     0
  3
ISO-25
100
AcDbAlignedDimension
 13
2799.870455143429
 23
3379.342095996246
 33
0.0
 14
2899.87045514343
 24
3470.342095996246
 34
0.0
100
AcDbRotatedDimension
1001
ACAD_DSTYLE_DIMINSPECT
1070
   396
1000
100%
1070
   395
1000

1070
   394
1070
    33
1070
   393
1070
     0
1001
ACAD
1000
DSTYLE
1002
{
1070
   271
1070
     6
1002
}
  0
DIMENSION
  5
10BD9
330
18
100
AcDbEntity
  8
AM_5 寸法線
100
AcDbDimension
  2
*D16
 10
2299.870455143429
 20
3113.895588996246
 30
0.0
 11
2195.978182822081
 21
3164.296149446154
 31
0.0
 70
   160
 71
     5
 42
40.0
 73
     0
 74
     0
 75
     0
  3
ISO-25
100
AcDbAlignedDimension
 13
2259.870455143429
 23
3113.895588996246
 33
0.0
 14
2299.870455143429
 24
3113.895588996246
 34
0.0
100
AcDbRotatedDimension
1001
ACAD_DSTYLE_DIMINSPECT
1070
   396
1000
100%
1070
   395
1000

1070
   394
1070
    33
1070
   393
1070
     0
1001
ACAD
1000
DSTYLE
1002
{
1070
   271
1070
     6
1070
   279
1070
     2
1002
}
  0
DIMENSION
  5
10C63
102
{ACAD_XDICTIONARY
360
10C70
102
}
102
{ACAD_REACTORS
330
10C71
102
}
330
18
100
AcDbEntity
  8
AM_5 寸法線
100
AcDbDimension
  2
*D17
 10
2554.87045514343
 20
3307.027354996249
 30
0.0
 11
2482.37045514343
 21
3348.277354996249
 31
0.0
 70
    32
 71
     5
 42
145.0
 73
     0
 74
     0
 75
     0
  3
ISO-25
100
AcDbAlignedDimension
 13
2409.87045514343
 23
3401.842095996246
 33
0.0
 14
2554.87045514343
 24
3401.842095996246
 34
0.0
 50
0.0000000000001132
100
AcDbRotatedDimension
1001
ACAD_DSTYLE_DIMINSPECT
1070
   396
1000
100%
1070
   395
1000

1070
   394
1070
    33
1070
   393
1070
     0
1001
ACAD
1000
DSTYLE
1002
{
1070
   271
1070
     6
1002
}
  0
INSERT
  5
10E52
330
18
100
AcDbEntity
  8
AM_5 寸法線
100
AcDbBlockReference
  2
ﾘｼﾞｯﾄ　CEM1000
 10
2279.870455143429
 20
3538.342095996246
 30
0.0
  0
INSERT
  5
10E9A
330
18
100
AcDbEntity
  8
AM_5 寸法線
100
AcDbBlockReference
  2
ケースＡ-E CEMH1000
 10
2573.87045514343
 20
3470.342095996246
 30
0.0
  0
INSERT
  5
10F20
330
18
100
AcDbEntity
  8
AM_5 寸法線
100
AcDbBlockReference
  2
ＧＣサイドカバ－1000
 10
0.0
 20
0.0
 30
0.0
  0
INSERT
  5
10F36
330
18
100
AcDbEntity
  8
AM_5 寸法線
100
AcDbBlockReference
  2
ＧＣサイドカバ CEMH900
 10
2899.87045514343
 20
3470.342095996246
 30
0.0
  0
INSERT
  5
10F64
330
18
100
AcDbEntity
  8
AM_5 寸法線
100
AcDbBlockReference
  2
センタ-E CEMH1000
 10
2799.870455143429
 20
3379.342095996246
 30
0.0
  0
INSERT
  5
10F9D
330
18
100
AcDbEntity
  8
AM_5 寸法線
100
AcDbBlockReference
  2
センタ-E CEM1000
 10
2799.870455143429
 20
3379.342095996246
 30
0.0
  0
DIMENSION
  5
10FAF
330
18
100
AcDbEntity
  8
AM_5 寸法線
100
AcDbDimension
  2
*D24
 10
3099.870455143431
 20
3401.342095996245
 30
0.0
 11
3058.620455143429
 21
3041.342095996247
 31
0.0
 70
    32
  1
%%C<>
 71
     5
 42
720.0
 73
     0
 74
     0
 75
     0
  3
ISO-25
100
AcDbAlignedDimension
 13
2641.870455143429
 23
2681.342095996246
 33
0.0
 14
2641.870455143429
 24
3401.342095996246
 34
0.0
 50
90.0
100
AcDbRotatedDimension
1001
ACAD
1000
DSTYLE
1002
{
1070
   271
1070
     6
1002
}
  0
DIMENSION
  5
10FC6
330
18
100
AcDbEntity
  8
AM_5 寸法線
100
AcDbDimension
  2
*D25
 10
2409.87045514343
 20
3307.027354996249
 30
0.0
 11
2445.522969609648
 21
3175.396693487977
 31
0.0
 70
   160
 71
     5
 42
110.0
 73
     0
 74
     0
 75
     0
  3
ISO-25
100
AcDbAlignedDimension
 13
2299.870455143429
 23
3396.342095996246
 33
0.0
 14
2409.87045514343
 24
3401.842095996246
 34
0.0
100
AcDbRotatedDimension
1001
ACAD_DSTYLE_DIMINSPECT
1070
   396
1000
100%
1070
   395
1000

1070
   394
1070
    33
1070
   393
1070
     0
1001
ACAD
1000
DSTYLE
1002
{
1070
   271
1070
     6
1070
   279
1070
     1
1002
}
  0
INSERT
  5
11059
330
18
100
AcDbEntity
  8
AM_5 寸法線
100
AcDbBlockReference
  2
ＧＣサイドカバ－- CEM1000
 10
2601.870455143429
 20
3470.342095996246
 30
0.0
  0
INSERT
  5
110E2
330
18
100
AcDbEntity
  8
AM_5 寸法線
100
AcDbBlockReference
  2
リーマボルト-E CEMH1000
 10
2170.870455143429
 20
3507.342095996246
 30
0.0
  0
VIEWPORT
  5
2BA
330
15
100
AcDbEntity
 67
     1
  8
0
100
AcDbViewport
 10
5.615416399137242
 20
3.902083231708196
 30
0.0
 40
14.90560945389522
 41
8.746133096049151
 68
     1
 69
     1
 12
5.615416399137242
 22
3.902083231708196
 13
0.0
 23
0.0
 14
10.0
 24
10.0
 15
10.0
 25
10.0
 16
0.0
 26
0.0
 36
1.0
 17
0.0
 27
0.0
 37
0.0
 42
50.0
 43
0.0
 44
0.0
 45
8.746133096049151
 50
0.0
 51
0.0
 72
   100
 90
    32800
  1

281
     0
 71
     1
 74
     0
110
0.0
120
0.0
130
0.0
111
1.0
121
0.0
131
0.0
112
0.0
122
1.0
132
0.0
 79
     0
146
0.0
170
     0
 61
     5
348
10504
292
     1
282
     1
141
0.0
142
0.0
 63
   250
421
  3355443
1001
GENIUS_GENOBJ-N-SDF_13
1002
{
1000
OWNER
1000
GEN
1002
}
1001
GENIUS_GENODEF_13
1002
{
1000
HIER
1070
     0
1002
}
1002
{
1000
MANEDIT
1070
     0
1002
}
1002
{
1000
NOSEL
1070
     0
1002
}
1002
{
1000
BEHIND
1070
     0
1002
}
1002
{
1000
OTHER
1070
     0
1002
}
1002
{
1000
REACTOR
1002
}
1001
GENIUS_GENSCREG_15
1000
PF
1040
1.0
1000
DF
1040
1.0
1000
MIN
1011
-1.837388327810367
1021
-0.4709833163163797
1031
0.0
1000
MAX
1011
13.06822112608485
1021
8.275149779732771
1031
0.0
1000
FLAGS
1070
     2
  0
VIEWPORT
  5
2BC
330
15
100
AcDbEntity
 67
     1
  8
図面枠(太線)
100
AcDbViewport
 10
5.615416417910358
 20
3.902083250481312
 30
0.0
 40
8.984666268656575
 41
6.243333200770099
 68
     2
 69
     2
 12
425.4930627244785
 22
297.0000041492955
 13
0.0
 23
0.0
 14
10.0
 24
10.0
 15
10.0
 25
10.0
 16
0.0
 26
0.0
 36
1.0
 17
0.0
 27
0.0
 37
0.0
 42
50.0
 43
0.0
 44
0.0
 45
603.2515653422467
 50
0.0
 51
0.0
 72
   100
 90
    32768
  1

281
     0
 71
     1
 74
     0
110
0.0
120
0.0
130
0.0
111
1.0
121
0.0
131
0.0
112
0.0
122
1.0
132
0.0
 79
     0
146
0.0
170
     0
 61
     5
348
10504
292
     1
282
     1
141
0.0
142
0.0
 63
   250
421
  3355443
1001
GENIUS_GENODEF_13
1002
{
1000
HIER
1070
     0
1002
}
1002
{
1000
MANEDIT
1070
     0
1002
}
1002
{
1000
NOSEL
1070
     0
1002
}
1002
{
1000
BEHIND
1070
     0
1002
}
1002
{
1000
OTHER
1070
     0
1002
}
1002
{
1000
REACTOR
1002
}
1001
GENIUS_GENOBJ-N-SDF_13
1002
{
1000
OWNER
1000
GEN
1002
}
1001
GENIUS_GENSCREG_15
1000
PF
1040
0.0
1000
DF
1040
0.0
1000
MIN
1011
1.12308328358207
1021
0.7804166500962629
1031
0.0
1000
MAX
1011
10.10774955223864
1021
7.023749850866361
1031
0.0
1000
FLAGS
1070
     2
  0
ENDSEC
  0
SECTION
  2
OBJECTS
  0
DICTIONARY
  5
C
330
0
100
AcDbDictionary
281
     1
  3
ACAD_COLOR
350
F665
  3
ACAD_GROUP
350
D
  3
ACAD_LAYOUT
350
28C
  3
ACAD_MATERIAL
350
F664
  3
ACAD_MLEADERSTYLE
350
10531
  3
ACAD_MLINESTYLE
350
E
  3
ACAD_PLOTSETTINGS
350
28D
  3
ACAD_PLOTSTYLENAME
350
28A
  3
ACAD_SCALELIST
350
1050F
  3
ACAD_TABLESTYLE
350
F666
  3
ACAD_VISUALSTYLE
350
104FE
  3
AcadDim
350
F511
  3
ACDB_RECOMPOSE_DATA
350
105F9
  3
AcDbVariableDictionary
350
29E
  3
AcmDictionary
350
10593
  3
AMG
350
1053A
  3
AMGSNAPSETTINGS
350
105D7
  0
DICTIONARY
  5
10693
330
2
100
AcDbDictionary
280
     1
281
     1
  3
ACAD_LAYERSTATES
360
10694
  3
AMLAYER_GROUPCOLORS
360
108EE
  0
DICTIONARY
  5
105DF
330
F
100
AcDbDictionary
280
     1
281
     1
  3
ADSK_XREC_LAYER_RECONCILED
360
105E0
  0
DICTIONARY
  5
105E1
330
2B0
100
AcDbDictionary
280
     1
281
     1
  3
ADSK_XREC_LAYER_RECONCILED
360
105E2
  0
DICTIONARY
  5
105E5
330
2B2
100
AcDbDictionary
280
     1
281
     1
  3
ADSK_XREC_LAYER_RECONCILED
360
105E6
  0
DICTIONARY
  5
105F3
330
AD7
100
AcDbDictionary
280
     1
281
     1
  3
ADSK_XREC_LAYER_RECONCILED
360
105F4
  0
DICTIONARY
  5
105F5
330
AD8
100
AcDbDictionary
280
     1
281
     1
  3
ADSK_XREC_LAYER_RECONCILED
360
105F6
  0
DICTIONARY
  5
1067D
330
1067C
100
AcDbDictionary
280
     1
281
     1
  0
DICTIONARY
  5
1017C
330
18
100
AcDbDictionary
280
     1
281
     1
  3
ACAD_SORTENTS
360
1017D
  0
DICTIONARY
  5
10F1B
330
10E5A
100
AcDbDictionary
280
     1
281
     1
  3
ACAD_SORTENTS
360
111E4
  0
DICTIONARY
  5
10F5F
330
10F21
100
AcDbDictionary
280
     1
281
     1
  3
ACAD_SORTENTS
360
10F60
  0
DICTIONARY
  5
11026
330
10F65
100
AcDbDictionary
280
     1
281
     1
  3
ACAD_SORTENTS
360
110AC
  0
DICTIONARY
  5
11370
330
11028
100
AcDbDictionary
280
     1
281
     1
  3
ACAD_SORTENTS
360
11371
  0
DICTIONARY
  5
10C70
330
10C63
100
AcDbDictionary
280
     1
281
     1
  3
ACAD_DIMASSOC
360
10C71
  0
DICTIONARY
  5
F665
102
{ACAD_REACTORS
330
C
102
}
330
C
100
AcDbDictionary
281
     1
  0
DICTIONARY
  5
D
102
{ACAD_REACTORS
330
C
102
}
330
C
100
AcDbDictionary
281
     1
  3
*A1
350
7C2E
  3
*A10
350
1011C
  3
*A11
350
100FA
  3
*A12
350
10110
  3
*A13
350
10120
  3
*A14
350
10133
  3
*A15
350
10134
  3
*A16
350
1011A
  3
*A17
350
1010B
  3
*A18
350
10121
  3
*A19
350
10102
  3
*A2
350
10116
  3
*A20
350
10125
  3
*A21
350
10136
  3
*A22
350
10137
  3
*A23
350
100FC
  3
*A24
350
10112
  3
*A25
350
10126
  3
*A26
350
1010A
  3
*A27
350
100FD
  3
*A28
350
10139
  3
*A29
350
100FF
  3
*A3
350
10104
  3
*A30
350
10118
  3
*A31
350
1012A
  3
*A32
350
10111
  3
*A33
350
10105
  3
*A34
350
10101
  3
*A35
350
10107
  3
*A36
350
1011E
  3
*A37
350
1012E
  3
*A38
350
10117
  3
*A39
350
1010C
  3
*A4
350
10109
  3
*A40
350
1010E
  3
*A41
350
10123
  3
*A42
350
10132
  3
*A43
350
1011D
  3
*A44
350
10113
  3
*A45
350
10115
  3
*A46
350
10128
  3
*A47
350
10135
  3
*A48
350
10122
  3
*A49
350
10119
  3
*A5
350
1011B
  3
*A50
350
1012C
  3
*A51
350
10138
  3
*A52
350
10127
  3
*A53
350
1011F
  3
*A54
350
10130
  3
*A55
350
10100
  3
*A56
350
1012B
  3
*A57
350
10124
  3
*A58
350
100FE
  3
*A59
350
10108
  3
*A6
350
1012F
  3
*A60
350
10129
  3
*A61
350
10106
  3
*A62
350
1010F
  3
*A63
350
1012D
  3
*A64
350
1010D
  3
*A65
350
100FB
  3
*A7
350
10131
  3
*A8
350
10114
  3
*A9
350
10103
  0
DICTIONARY
  5
28C
102
{ACAD_REACTORS
330
C
102
}
330
C
100
AcDbDictionary
281
     1
  3
Model
350
28E
  3
ﾚｲｱｳﾄ1
350
28F
  0
DICTIONARY
  5
F664
102
{ACAD_REACTORS
330
C
102
}
330
C
100
AcDbDictionary
281
     1
  3
ByBlock
350
104EE
  3
ByLayer
350
104E6
  3
Global
350
104F6
  0
DICTIONARY
  5
10531
102
{ACAD_REACTORS
330
C
102
}
330
C
100
AcDbDictionary
281
     1
  3
Standard
350
10532
  0
DICTIONARY
  5
E
102
{ACAD_REACTORS
330
C
102
}
330
C
100
AcDbDictionary
281
     1
  3
STANDARD
350
1B
  0
DICTIONARY
  5
28D
102
{ACAD_REACTORS
330
C
102
}
330
C
100
AcDbDictionary
281
     1
  0
ACDBDICTIONARYWDFLT
  5
28A
102
{ACAD_REACTORS
330
C
102
}
330
C
100
AcDbDictionary
281
     1
  3
Normal
350
28B
100
AcDbDictionaryWithDefault
340
28B
  0
DICTIONARY
  5
1050F
102
{ACAD_REACTORS
330
C
102
}
330
C
100
AcDbDictionary
281
     1
  3
*A1
350
10690
  3
*A2
350
10691
  3
*A3
350
10692
  3
A0
350
10510
  3
A1
350
10511
  3
A2
350
10512
  3
A3
350
10513
  3
A4
350
10514
  3
A5
350
10515
  3
A6
350
10516
  3
A7
350
10517
  3
A8
350
10518
  3
A9
350
10519
  3
B0
350
1051A
  3
B1
350
1051B
  3
B2
350
1051C
  3
B3
350
1051D
  3
B4
350
1051E
  3
B5
350
1051F
  3
B6
350
10520
  3
B7
350
10521
  3
B8
350
10522
  3
B9
350
10523
  3
C0
350
10524
  3
C1
350
10525
  3
C2
350
10526
  3
C3
350
10527
  3
C4
350
10528
  3
C5
350
10529
  3
C6
350
1052A
  3
C7
350
1052B
  3
C8
350
1052C
  3
C9
350
1052D
  3
D0
350
1052E
  3
D1
350
1052F
  3
D2
350
10530
  0
DICTIONARY
  5
F666
102
{ACAD_REACTORS
330
C
102
}
330
C
100
AcDbDictionary
281
     1
  3
Standard
350
F667
  0
DICTIONARY
  5
104FE
102
{ACAD_REACTORS
330
C
102
}
330
C
100
AcDbDictionary
281
     1
  3
2dWireframe
350
10504
  3
3D Hidden
350
10506
  3
3dWireframe
350
10505
  3
Basic
350
10503
  3
Brighten
350
1050A
  3
ColorChange
350
1050E
  3
Conceptual
350
10507
  3
Dim
350
10509
  3
Facepattern
350
1050D
  3
Flat
350
104FF
  3
FlatWithEdges
350
10500
  3
Gouraud
350
10501
  3
GouraudWithEdges
350
10502
  3
Linepattern
350
1050C
  3
Realistic
350
10508
  3
Thicken
350
1050B
  0
XRECORD
  5
F511
102
{ACAD_REACTORS
330
C
102
}
330
C
100
AcDbXrecord
280
     1
 90
   990106
  3

 60
     0
 61
     0
 62
     4
 63
     4
 64
     1
 65
     0
 66
     0
 67
     3
 68
     1
 69
     0
 70
     0
 71
     0
 72
     0
 40
0.0
170
     2
  0
XRECORD
  5
105F9
102
{ACAD_REACTORS
330
C
102
}
330
C
100
AcDbXrecord
280
     1
 90
        1
330
F667
  0
DICTIONARY
  5
29E
102
{ACAD_REACTORS
330
C
102
}
330
C
100
AcDbDictionary
281
     1
  3
CANNOSCALE
350
105FC
  3
CMLEADERSTYLE
350
105FA
  3
CTABLESTYLE
350
103CB
  3
DIMASSOC
350
103DA
  3
LIGHTINGUNITS
350
105FD
  3
MSLTSCALE
350
105FB
  3
PROJECTNAME
350
103DB
  3
SORTENTS
350
29F
  0
DICTIONARY
  5
10593
102
{ACAD_REACTORS
330
C
102
}
330
C
100
AcDbDictionary
281
     1
  3
AcmStdDictionary
350
1059E
  3
AMDTSECTSYM_ARROWCOLOR
350
105BF
  0
DICTIONARY
  5
1053A
102
{ACAD_REACTORS
330
C
102
}
330
C
100
AcDbDictionary
281
     1
  0
DICTIONARY
  5
105D7
102
{ACAD_REACTORS
330
C
102
}
330
C
100
AcDbDictionary
281
     1
  0
DICTIONARY
  5
10694
102
{ACAD_REACTORS
330
10693
102
}
330
10693
100
AcDbDictionary
281
     1
  0
DICTIONARY
  5
108EE
102
{ACAD_REACTORS
330
10693
102
}
330
10693
100
AcDbDictionary
280
     1
281
     1
  0
XRECORD
  5
105E0
102
{ACAD_REACTORS
330
105DF
102
}
330
105DF
100
AcDbXrecord
280
     1
290
     1
  0
XRECORD
  5
105E2
102
{ACAD_REACTORS
330
105E1
102
}
330
105E1
100
AcDbXrecord
280
     1
290
     1
  0
XRECORD
  5
105E6
102
{ACAD_REACTORS
330
105E5
102
}
330
105E5
100
AcDbXrecord
280
     1
290
     1
  0
XRECORD
  5
105F4
102
{ACAD_REACTORS
330
105F3
102
}
330
105F3
100
AcDbXrecord
280
     1
290
     1
  0
XRECORD
  5
105F6
102
{ACAD_REACTORS
330
105F5
102
}
330
105F5
100
AcDbXrecord
280
     1
290
     1
  0
SORTENTSTABLE
  5
1017D
102
{ACAD_REACTORS
330
1017C
102
}
330
1017C
100
AcDbSortentsTable
330
18
331
E963
  5
E963
331
EB58
  5
EB58
331
106B9
  5
106B9
331
EC08
  5
EC0A
331
E962
  5
E962
331
EA6F
  5
EA6F
331
10BD9
  5
10BD9
331
3B50
  5
3B50
331
354F
  5
354F
331
10B57
  5
10B57
331
354E
  5
354E
331
E969
  5
E969
331
EA73
  5
EA73
331
E968
  5
E968
331
EA72
  5
EA72
331
1015F
  5
10169
331
EAA3
  5
EAA3
331
EBF6
  5
EBF9
331
EB3A
  5
EB3A
331
EBF5
  5
EBF8
331
EBD3
  5
EBD5
331
EBD1
  5
EBD3
331
EC0C
  5
EC0E
331
E967
  5
E967
331
EA8B
  5
EA8B
331
E965
  5
E965
331
E964
  5
E964
  0
SORTENTSTABLE
  5
111E4
102
{ACAD_REACTORS
330
10F1B
102
}
330
10F1B
100
AcDbSortentsTable
330
10E5A
331
10E8B
  5
10E8D
331
10E6D
  5
10E6F
331
10E93
  5
10E95
331
10E75
  5
10E77
331
10E7D
  5
10E7F
331
111E3
  5
10E5D
331
10E85
  5
10E87
331
10E67
  5
10E69
331
10E99
  5
111E3
331
10E6E
  5
10E70
331
10E8C
  5
10E8E
331
10E94
  5
10E96
331
10E76
  5
10E78
331
10E7E
  5
10E80
331
10E60
  5
10E62
331
10E86
  5
10E88
331
10E8D
  5
10E8F
331
10E6F
  5
10E71
331
10E95
  5
10E97
331
10E77
  5
10E79
331
10E7F
  5
10E81
331
10E61
  5
10E63
331
10E87
  5
10E89
331
10E68
  5
10E6A
331
10E8E
  5
10E90
331
10E70
  5
10E72
331
10E96
  5
10E98
331
10E78
  5
10E7A
331
10E80
  5
10E82
331
10E62
  5
10E64
331
10E69
  5
10E6B
331
10E8F
  5
10E91
331
10E71
  5
10E73
331
10E97
  5
10E99
331
10E79
  5
10E7B
331
10E81
  5
10E83
331
10E63
  5
10E65
331
10E5D
  5
10E5F
331
10E88
  5
10E8A
331
10E6A
  5
10E6C
331
10E90
  5
10E92
331
10E72
  5
10E74
331
10E7A
  5
10E7C
331
10E82
  5
10E84
331
10E64
  5
10E66
331
10E5E
  5
10E60
331
10E89
  5
10E8B
331
10E6B
  5
10E6D
331
10E91
  5
10E93
331
10E73
  5
10E75
331
11161
  5
10E5E
331
10E7B
  5
10E7D
331
10E83
  5
10E85
331
10E65
  5
10E67
331
10E5F
  5
10E61
331
10E6C
  5
10E6E
331
10E8A
  5
10E8C
331
10E92
  5
10E94
331
10E74
  5
10E76
331
10E7C
  5
10E7E
331
10E84
  5
10E86
331
10E66
  5
10E68
331
10E98
  5
11161
  0
SORTENTSTABLE
  5
10F60
102
{ACAD_REACTORS
330
10F5F
102
}
330
10F5F
100
AcDbSortentsTable
330
10F21
  0
SORTENTSTABLE
  5
110AC
102
{ACAD_REACTORS
330
11026
102
}
330
11026
100
AcDbSortentsTable
330
10F65
331
10F80
  5
10F81
331
10F73
  5
10F74
331
10F85
  5
10F86
331
10F8A
  5
10F8B
331
10F6A
  5
10F6B
331
10F7C
  5
10F7D
331
10F6F
  5
10F70
331
10F74
  5
10F75
331
10F81
  5
10F82
331
10F86
  5
10F87
331
10F8B
  5
10F8C
331
10F6B
  5
10F6C
331
10F70
  5
10F71
331
10F7D
  5
10F7E
331
10F82
  5
10F83
331
10F75
  5
10F76
331
10F87
  5
10F88
331
10F8C
  5
10F8D
331
10F6C
  5
10F6D
331
110AB
  5
10F68
331
10F79
  5
10F7A
331
10F7E
  5
10F7F
331
10F71
  5
10F72
331
10F83
  5
10F84
331
10F76
  5
10F77
331
10F88
  5
10F89
331
10F8D
  5
10F8E
331
10F68
  5
10F69
331
10F7A
  5
10F7B
331
10F6D
  5
10F6E
331
10F72
  5
10F73
331
10F7F
  5
10F80
331
10F84
  5
10F85
331
10F77
  5
10F79
331
10F89
  5
10F8A
331
10F8E
  5
110AB
331
10F69
  5
10F6A
331
10F6E
  5
10F6F
331
10F7B
  5
10F7C
  0
SORTENTSTABLE
  5
11371
102
{ACAD_REACTORS
330
11370
102
}
330
11370
100
AcDbSortentsTable
330
11028
  0
DIMASSOC
  5
10C71
102
{ACAD_REACTORS
330
10C70
102
}
330
10C70
100
AcDbDimAssoc
330
10C63
 90
        2
 70
     0
 71
     0
  1
AcDbOsnapPointRef
 72
     4
331
EBF6
331
10AD3
 73
     0
 91
        0
 40
0.0
 10
0.0
 20
0.0
 30
0.0
 75
     0
  0
GROUP
  5
7C2E
102
{ACAD_REACTORS
330
D
102
}
330
D
100
AcDbGroup
300

 70
     1
 71
     1
  0
GROUP
  5
1011C
102
{ACAD_REACTORS
330
D
102
}
330
D
100
AcDbGroup
300

 70
     1
 71
     1
  0
GROUP
  5
100FA
102
{ACAD_REACTORS
330
D
102
}
330
D
100
AcDbGroup
300

 70
     1
 71
     1
  0
GROUP
  5
10110
102
{ACAD_REACTORS
330
D
102
}
330
D
100
AcDbGroup
300

 70
     1
 71
     1
  0
GROUP
  5
10120
102
{ACAD_REACTORS
330
D
102
}
330
D
100
AcDbGroup
300

 70
     1
 71
     1
  0
GROUP
  5
10133
102
{ACAD_REACTORS
330
D
102
}
330
D
100
AcDbGroup
300

 70
     1
 71
     1
  0
GROUP
  5
10134
102
{ACAD_REACTORS
330
D
102
}
330
D
100
AcDbGroup
300

 70
     1
 71
     1
  0
GROUP
  5
1011A
102
{ACAD_REACTORS
330
D
102
}
330
D
100
AcDbGroup
300

 70
     1
 71
     1
  0
GROUP
  5
1010B
102
{ACAD_REACTORS
330
D
102
}
330
D
100
AcDbGroup
300

 70
     1
 71
     1
  0
GROUP
  5
10121
102
{ACAD_REACTORS
330
D
102
}
330
D
100
AcDbGroup
300

 70
     1
 71
     1
  0
GROUP
  5
10102
102
{ACAD_REACTORS
330
D
102
}
330
D
100
AcDbGroup
300

 70
     1
 71
     1
  0
GROUP
  5
10116
102
{ACAD_REACTORS
330
D
102
}
330
D
100
AcDbGroup
300

 70
     1
 71
     1
  0
GROUP
  5
10125
102
{ACAD_REACTORS
330
D
102
}
330
D
100
AcDbGroup
300

 70
     1
 71
     1
  0
GROUP
  5
10136
102
{ACAD_REACTORS
330
D
102
}
330
D
100
AcDbGroup
300

 70
     1
 71
     1
  0
GROUP
  5
10137
102
{ACAD_REACTORS
330
D
102
}
330
D
100
AcDbGroup
300

 70
     1
 71
     1
  0
GROUP
  5
100FC
102
{ACAD_REACTORS
330
D
102
}
330
D
100
AcDbGroup
300

 70
     1
 71
     1
  0
GROUP
  5
10112
102
{ACAD_REACTORS
330
D
102
}
330
D
100
AcDbGroup
300

 70
     1
 71
     1
  0
GROUP
  5
10126
102
{ACAD_REACTORS
330
D
102
}
330
D
100
AcDbGroup
300

 70
     1
 71
     1
  0
GROUP
  5
1010A
102
{ACAD_REACTORS
330
D
102
}
330
D
100
AcDbGroup
300

 70
     1
 71
     1
  0
GROUP
  5
100FD
102
{ACAD_REACTORS
330
D
102
}
330
D
100
AcDbGroup
300

 70
     1
 71
     1
  0
GROUP
  5
10139
102
{ACAD_REACTORS
330
D
102
}
330
D
100
AcDbGroup
300

 70
     1
 71
     1
  0
GROUP
  5
100FF
102
{ACAD_REACTORS
330
D
102
}
330
D
100
AcDbGroup
300

 70
     1
 71
     1
  0
GROUP
  5
10104
102
{ACAD_REACTORS
330
D
102
}
330
D
100
AcDbGroup
300

 70
     1
 71
     1
  0
GROUP
  5
10118
102
{ACAD_REACTORS
330
D
102
}
330
D
100
AcDbGroup
300

 70
     1
 71
     1
  0
GROUP
  5
1012A
102
{ACAD_REACTORS
330
D
102
}
330
D
100
AcDbGroup
300

 70
     1
 71
     1
  0
GROUP
  5
10111
102
{ACAD_REACTORS
330
D
102
}
330
D
100
AcDbGroup
300

 70
     1
 71
     1
  0
GROUP
  5
10105
102
{ACAD_REACTORS
330
D
102
}
330
D
100
AcDbGroup
300

 70
     1
 71
     1
  0
GROUP
  5
10101
102
{ACAD_REACTORS
330
D
102
}
330
D
100
AcDbGroup
300

 70
     1
 71
     1
  0
GROUP
  5
10107
102
{ACAD_REACTORS
330
D
102
}
330
D
100
AcDbGroup
300

 70
     1
 71
     1
  0
GROUP
  5
1011E
102
{ACAD_REACTORS
330
D
102
}
330
D
100
AcDbGroup
300

 70
     1
 71
     1
  0
GROUP
  5
1012E
102
{ACAD_REACTORS
330
D
102
}
330
D
100
AcDbGroup
300

 70
     1
 71
     1
  0
GROUP
  5
10117
102
{ACAD_REACTORS
330
D
102
}
330
D
100
AcDbGroup
300

 70
     1
 71
     1
  0
GROUP
  5
1010C
102
{ACAD_REACTORS
330
D
102
}
330
D
100
AcDbGroup
300

 70
     1
 71
     1
  0
GROUP
  5
10109
102
{ACAD_REACTORS
330
D
102
}
330
D
100
AcDbGroup
300

 70
     1
 71
     1
  0
GROUP
  5
1010E
102
{ACAD_REACTORS
330
D
102
}
330
D
100
AcDbGroup
300

 70
     1
 71
     1
  0
GROUP
  5
10123
102
{ACAD_REACTORS
330
D
102
}
330
D
100
AcDbGroup
300

 70
     1
 71
     1
  0
GROUP
  5
10132
102
{ACAD_REACTORS
330
D
102
}
330
D
100
AcDbGroup
300

 70
     1
 71
     1
  0
GROUP
  5
1011D
102
{ACAD_REACTORS
330
D
102
}
330
D
100
AcDbGroup
300

 70
     1
 71
     1
  0
GROUP
  5
10113
102
{ACAD_REACTORS
330
D
102
}
330
D
100
AcDbGroup
300

 70
     1
 71
     1
  0
GROUP
  5
10115
102
{ACAD_REACTORS
330
D
102
}
330
D
100
AcDbGroup
300

 70
     1
 71
     1
  0
GROUP
  5
10128
102
{ACAD_REACTORS
330
D
102
}
330
D
100
AcDbGroup
300

 70
     1
 71
     1
  0
GROUP
  5
10135
102
{ACAD_REACTORS
330
D
102
}
330
D
100
AcDbGroup
300

 70
     1
 71
     1
  0
GROUP
  5
10122
102
{ACAD_REACTORS
330
D
102
}
330
D
100
AcDbGroup
300

 70
     1
 71
     1
  0
GROUP
  5
10119
102
{ACAD_REACTORS
330
D
102
}
330
D
100
AcDbGroup
300

 70
     1
 71
     1
  0
GROUP
  5
1011B
102
{ACAD_REACTORS
330
D
102
}
330
D
100
AcDbGroup
300

 70
     1
 71
     1
  0
GROUP
  5
1012C
102
{ACAD_REACTORS
330
D
102
}
330
D
100
AcDbGroup
300

 70
     1
 71
     1
  0
GROUP
  5
10138
102
{ACAD_REACTORS
330
D
102
}
330
D
100
AcDbGroup
300

 70
     1
 71
     1
  0
GROUP
  5
10127
102
{ACAD_REACTORS
330
D
102
}
330
D
100
AcDbGroup
300

 70
     1
 71
     1
  0
GROUP
  5
1011F
102
{ACAD_REACTORS
330
D
102
}
330
D
100
AcDbGroup
300

 70
     1
 71
     1
  0
GROUP
  5
10130
102
{ACAD_REACTORS
330
D
102
}
330
D
100
AcDbGroup
300

 70
     1
 71
     1
  0
GROUP
  5
10100
102
{ACAD_REACTORS
330
D
102
}
330
D
100
AcDbGroup
300

 70
     1
 71
     1
  0
GROUP
  5
1012B
102
{ACAD_REACTORS
330
D
102
}
330
D
100
AcDbGroup
300

 70
     1
 71
     1
  0
GROUP
  5
10124
102
{ACAD_REACTORS
330
D
102
}
330
D
100
AcDbGroup
300

 70
     1
 71
     1
  0
GROUP
  5
100FE
102
{ACAD_REACTORS
330
D
102
}
330
D
100
AcDbGroup
300

 70
     1
 71
     1
  0
GROUP
  5
10108
102
{ACAD_REACTORS
330
D
102
}
330
D
100
AcDbGroup
300

 70
     1
 71
     1
  0
GROUP
  5
1012F
102
{ACAD_REACTORS
330
D
102
}
330
D
100
AcDbGroup
300

 70
     1
 71
     1
  0
GROUP
  5
10129
102
{ACAD_REACTORS
330
D
102
}
330
D
100
AcDbGroup
300

 70
     1
 71
     1
  0
GROUP
  5
10106
102
{ACAD_REACTORS
330
D
102
}
330
D
100
AcDbGroup
300

 70
     1
 71
     1
  0
GROUP
  5
1010F
102
{ACAD_REACTORS
330
D
102
}
330
D
100
AcDbGroup
300

 70
     1
 71
     1
  0
GROUP
  5
1012D
102
{ACAD_REACTORS
330
D
102
}
330
D
100
AcDbGroup
300

 70
     1
 71
     1
  0
GROUP
  5
1010D
102
{ACAD_REACTORS
330
D
102
}
330
D
100
AcDbGroup
300

 70
     1
 71
     1
  0
GROUP
  5
100FB
102
{ACAD_REACTORS
330
D
102
}
330
D
100
AcDbGroup
300

 70
     1
 71
     1
  0
GROUP
  5
10131
102
{ACAD_REACTORS
330
D
102
}
330
D
100
AcDbGroup
300

 70
     1
 71
     1
  0
GROUP
  5
10114
102
{ACAD_REACTORS
330
D
102
}
330
D
100
AcDbGroup
300

 70
     1
 71
     1
  0
GROUP
  5
10103
102
{ACAD_REACTORS
330
D
102
}
330
D
100
AcDbGroup
300

 70
     1
 71
     1
  0
LAYOUT
  5
28E
102
{ACAD_REACTORS
330
28C
102
}
330
28C
100
AcDbPlotSettings
  1

  2
KONICA MINOLTA 501 PCL
  4
A4
  6

 40
5.027082920074462
 41
5.027085781097412
 42
5.027069091796875
 43
5.027069091796875
 44
209.9733276367186
 45
296.9259948730469
 46
0.0
 47
1.378446493320922
 48
-2517.608488813301
 49
-302.9801866558801
140
-154.2024796111691
141
1509.573954990258
142
1.0
143
8.577179512535275
 70
 11956
 72
     1
 73
     1
 74
     1
  7
SEISA.ctb
 75
     0
147
0.116588442452269
 76
     0
 77
     2
 78
   300
148
-1391.921042735364
149
-1977.586955223083
100
AcDbLayout
  1
Model
 70
     1
 71
     0
 10
0.0
 20
0.0
 11
12.0
 21
9.0
 12
0.0
 22
0.0
 32
0.0
 14
0.0
 24
0.0
 34
0.0
 15
0.0
 25
0.0
 35
0.0
146
0.0
 13
0.0
 23
0.0
 33
0.0
 16
1.0
 26
0.0
 36
0.0
 17
0.0
 27
1.0
 37
0.0
 76
     0
330
18
331
104E4
1001
ACAD_PSEXT
1000
KONICA MINOLTA 501 PCL
1000
KONICA MINOLTA 501/421/361PCL
1000
IP_192.168.20.231_(1)
1000

1070
     0
  0
LAYOUT
  5
28F
102
{ACAD_REACTORS
330
28C
102
}
330
28C
100
AcDbPlotSettings
  1

  2
EPSON LP-8300S
  4
A4
  6

 40
5.873749732971191
 41
5.873747825622557
 42
5.873748779296875
 43
5.873748779296875
 44
209.9733276367186
 45
297.0106506347656
 46
0.0
 47
0.0
 48
0.0
 49
0.0
140
0.0
141
0.0
142
1.0
143
1.0
 70
   688
 72
     0
 73
     1
 74
     5
  7
SEISA.ctb
 75
    16
147
1.0
 76
     0
 77
     2
 78
   300
148
0.0
149
0.0
100
AcDbLayout
  1
ﾚｲｱｳﾄ1
 70
     0
 71
     1
 10
-0.2312499519408218
 20
-0.2312499894870548
 11
11.4620827502153
 21
8.035416452903447
 12
0.0
 22
0.0
 32
0.0
 14
1.12308328358207
 24
0.7804166500962629
 34
0.0
 15
10.10774955223864
 25
7.023749850866361
 35
0.0
146
0.0
 13
0.0
 23
0.0
 33
0.0
 16
1.0
 26
0.0
 36
0.0
 17
0.0
 27
1.0
 37
0.0
 76
     0
330
15
331
2BA
  0
MATERIAL
  5
104EE
102
{ACAD_XDICTIONARY
360
104EF
102
}
102
{ACAD_REACTORS
330
F664
102
}
330
F664
100
AcDbMaterial
  1
ByBlock
 72
     0
 43
0.0008202099737533
 43
0.0
 43
0.0
 43
0.0
 43
0.0
 43
0.0008202099737533
 43
0.0
 43
0.0
 43
0.0
 43
0.0
 43
1.0
 43
0.0
 43
0.0
 43
0.0
 43
0.0
 43
1.0
 77
     0
 47
0.0008202099737533
 47
0.0
 47
0.0
 47
0.0
 47
0.0
 47
0.0008202099737533
 47
0.0
 47
0.0
 47
0.0
 47
0.0
 47
1.0
 47
0.0
 47
0.0
 47
0.0
 47
0.0
 47
1.0
171
     0
 49
0.0008202099737533
 49
0.0
 49
0.0
 49
0.0
 49
0.0
 49
0.0008202099737533
 49
0.0
 49
0.0
 49
0.0
 49
0.0
 49
1.0
 49
0.0
 49
0.0
 49
0.0
 49
0.0
 49
1.0
175
     0
142
0.0008202099737533
142
0.0
142
0.0
142
0.0
142
0.0
142
0.0008202099737533
142
0.0
142
0.0
142
0.0
142
0.0
142
1.0
142
0.0
142
0.0
142
0.0
142
0.0
142
1.0
179
     0
144
0.0008202099737533
144
0.0
144
0.0
144
0.0
144
0.0
144
0.0008202099737533
144
0.0
144
0.0
144
0.0
144
0.0
144
1.0
144
0.0
144
0.0
144
0.0
144
0.0
144
1.0
147
0.0008202099737533
147
0.0
147
0.0
147
0.0
147
0.0
147
0.0008202099737533
147
0.0
147
0.0
147
0.0
147
0.0
147
1.0
147
0.0
147
0.0
147
0.0
147
0.0
147
1.0
  0
MATERIAL
  5
104E6
102
{ACAD_XDICTIONARY
360
104E7
102
}
102
{ACAD_REACTORS
330
F664
102
}
330
F664
100
AcDbMaterial
  1
ByLayer
 72
     0
 43
0.0008202099737533
 43
0.0
 43
0.0
 43
0.0
 43
0.0
 43
0.0008202099737533
 43
0.0
 43
0.0
 43
0.0
 43
0.0
 43
1.0
 43
0.0
 43
0.0
 43
0.0
 43
0.0
 43
1.0
 77
     0
 47
0.0008202099737533
 47
0.0
 47
0.0
 47
0.0
 47
0.0
 47
0.0008202099737533
 47
0.0
 47
0.0
 47
0.0
 47
0.0
 47
1.0
 47
0.0
 47
0.0
 47
0.0
 47
0.0
 47
1.0
171
     0
 49
0.0008202099737533
 49
0.0
 49
0.0
 49
0.0
 49
0.0
 49
0.0008202099737533
 49
0.0
 49
0.0
 49
0.0
 49
0.0
 49
1.0
 49
0.0
 49
0.0
 49
0.0
 49
0.0
 49
1.0
175
     0
142
0.0008202099737533
142
0.0
142
0.0
142
0.0
142
0.0
142
0.0008202099737533
142
0.0
142
0.0
142
0.0
142
0.0
142
1.0
142
0.0
142
0.0
142
0.0
142
0.0
142
1.0
179
     0
144
0.0008202099737533
144
0.0
144
0.0
144
0.0
144
0.0
144
0.0008202099737533
144
0.0
144
0.0
144
0.0
144
0.0
144
1.0
144
0.0
144
0.0
144
0.0
144
0.0
144
1.0
147
0.0008202099737533
147
0.0
147
0.0
147
0.0
147
0.0
147
0.0008202099737533
147
0.0
147
0.0
147
0.0
147
0.0
147
1.0
147
0.0
147
0.0
147
0.0
147
0.0
147
1.0
  0
MATERIAL
  5
104F6
102
{ACAD_XDICTIONARY
360
104F7
102
}
102
{ACAD_REACTORS
330
F664
102
}
330
F664
100
AcDbMaterial
  1
Global
 72
     0
 43
0.0008202099737533
 43
0.0
 43
0.0
 43
0.0
 43
0.0
 43
0.0008202099737533
 43
0.0
 43
0.0
 43
0.0
 43
0.0
 43
1.0
 43
0.0
 43
0.0
 43
0.0
 43
0.0
 43
1.0
 77
     0
 47
0.0008202099737533
 47
0.0
 47
0.0
 47
0.0
 47
0.0
 47
0.0008202099737533
 47
0.0
 47
0.0
 47
0.0
 47
0.0
 47
1.0
 47
0.0
 47
0.0
 47
0.0
 47
0.0
 47
1.0
171
     0
 49
0.0008202099737533
 49
0.0
 49
0.0
 49
0.0
 49
0.0
 49
0.0008202099737533
 49
0.0
 49
0.0
 49
0.0
 49
0.0
 49
1.0
 49
0.0
 49
0.0
 49
0.0
 49
0.0
 49
1.0
175
     0
142
0.0008202099737533
142
0.0
142
0.0
142
0.0
142
0.0
142
0.0008202099737533
142
0.0
142
0.0
142
0.0
142
0.0
142
1.0
142
0.0
142
0.0
142
0.0
142
0.0
142
1.0
179
     0
144
0.0008202099737533
144
0.0
144
0.0
144
0.0
144
0.0
144
0.0008202099737533
144
0.0
144
0.0
144
0.0
144
0.0
144
1.0
144
0.0
144
0.0
144
0.0
144
0.0
144
1.0
147
0.0008202099737533
147
0.0
147
0.0
147
0.0
147
0.0
147
0.0008202099737533
147
0.0
147
0.0
147
0.0
147
0.0
147
1.0
147
0.0
147
0.0
147
0.0
147
0.0
147
1.0
  0
MLEADERSTYLE
  5
10532
102
{ACAD_REACTORS
330
10531
102
}
330
10531
100
AcDbMLeaderStyle
170
     2
171
     1
172
     0
 90
        2
 40
0.0
 41
0.0
173
     1
 91
-1056964608
340
12
 92
       -2
290
     1
 42
0.09
291
     1
 43
0.36
  3
Standard
 44
0.18
300

342
10
174
     1
178
     6
175
     1
176
     0
 93
-1056964608
 45
0.18
292
     0
297
     0
 46
0.18
 94
-1056964608
 47
1.0
 49
1.0
140
1.0
293
     1
141
0.0
294
     1
177
     0
142
1.0
295
     0
296
     0
143
0.125
1001
ACAD_MLEADERVER
1070
     2
  0
MLINESTYLE
  5
1B
102
{ACAD_REACTORS
330
E
102
}
330
E
100
AcDbMlineStyle
  2
STANDARD
 70
     0
  3

 62
     0
 51
90.0
 52
90.0
 71
     2
 49
0.5
 62
   256
  6
BYLAYER
 49
-0.5
 62
   256
  6
BYLAYER
  0
ACDBPLACEHOLDER
  5
28B
102
{ACAD_REACTORS
330
28A
102
}
330
28A
  0
SCALE
  5
10690
102
{ACAD_REACTORS
330
1050F
102
}
330
1050F
100
AcDbScale
 70
     0
300
1:3
140
1.0
141
3.0
290
     0
  0
SCALE
  5
10691
102
{ACAD_REACTORS
330
1050F
102
}
330
1050F
100
AcDbScale
 70
     0
300
1:2.5
140
1.0
141
2.5
290
     0
  0
SCALE
  5
10692
102
{ACAD_REACTORS
330
1050F
102
}
330
1050F
100
AcDbScale
 70
     0
300
1:1.5
140
1.0
141
1.5
290
     0
  0
SCALE
  5
10510
102
{ACAD_REACTORS
330
1050F
102
}
330
1050F
100
AcDbScale
 70
     0
300
1:1
140
1.0
141
1.0
290
     1
  0
SCALE
  5
10511
102
{ACAD_REACTORS
330
1050F
102
}
330
1050F
100
AcDbScale
 70
     0
300
1:2
140
1.0
141
2.0
290
     0
  0
SCALE
  5
10512
102
{ACAD_REACTORS
330
1050F
102
}
330
1050F
100
AcDbScale
 70
     0
300
1:4
140
1.0
141
4.0
290
     0
  0
SCALE
  5
10513
102
{ACAD_REACTORS
330
1050F
102
}
330
1050F
100
AcDbScale
 70
     0
300
1:5
140
1.0
141
5.0
290
     0
  0
SCALE
  5
10514
102
{ACAD_REACTORS
330
1050F
102
}
330
1050F
100
AcDbScale
 70
     0
300
1:8
140
1.0
141
8.0
290
     0
  0
SCALE
  5
10515
102
{ACAD_REACTORS
330
1050F
102
}
330
1050F
100
AcDbScale
 70
     0
300
1:10
140
1.0
141
10.0
290
     0
  0
SCALE
  5
10516
102
{ACAD_REACTORS
330
1050F
102
}
330
1050F
100
AcDbScale
 70
     0
300
1:16
140
1.0
141
16.0
290
     0
  0
SCALE
  5
10517
102
{ACAD_REACTORS
330
1050F
102
}
330
1050F
100
AcDbScale
 70
     0
300
1:20
140
1.0
141
20.0
290
     0
  0
SCALE
  5
10518
102
{ACAD_REACTORS
330
1050F
102
}
330
1050F
100
AcDbScale
 70
     0
300
1:30
140
1.0
141
30.0
290
     0
  0
SCALE
  5
10519
102
{ACAD_REACTORS
330
1050F
102
}
330
1050F
100
AcDbScale
 70
     0
300
1:40
140
1.0
141
40.0
290
     0
  0
SCALE
  5
1051A
102
{ACAD_REACTORS
330
1050F
102
}
330
1050F
100
AcDbScale
 70
     0
300
1:50
140
1.0
141
50.0
290
     0
  0
SCALE
  5
1051B
102
{ACAD_REACTORS
330
1050F
102
}
330
1050F
100
AcDbScale
 70
     0
300
1:100
140
1.0
141
100.0
290
     0
  0
SCALE
  5
1051C
102
{ACAD_REACTORS
330
1050F
102
}
330
1050F
100
AcDbScale
 70
     0
300
2:1
140
2.0
141
1.0
290
     0
  0
SCALE
  5
1051D
102
{ACAD_REACTORS
330
1050F
102
}
330
1050F
100
AcDbScale
 70
     0
300
4:1
140
4.0
141
1.0
290
     0
  0
SCALE
  5
1051E
102
{ACAD_REACTORS
330
1050F
102
}
330
1050F
100
AcDbScale
 70
     0
300
8:1
140
8.0
141
1.0
290
     0
  0
SCALE
  5
1051F
102
{ACAD_REACTORS
330
1050F
102
}
330
1050F
100
AcDbScale
 70
     0
300
10:1
140
10.0
141
1.0
290
     0
  0
SCALE
  5
10520
102
{ACAD_REACTORS
330
1050F
102
}
330
1050F
100
AcDbScale
 70
     0
300
100:1
140
100.0
141
1.0
290
     0
  0
SCALE
  5
10521
102
{ACAD_REACTORS
330
1050F
102
}
330
1050F
100
AcDbScale
 70
     0
300
1/128" = 1'-0"
140
0.0078125
141
12.0
290
     0
  0
SCALE
  5
10522
102
{ACAD_REACTORS
330
1050F
102
}
330
1050F
100
AcDbScale
 70
     0
300
1/64" = 1'-0"
140
0.015625
141
12.0
290
     0
  0
SCALE
  5
10523
102
{ACAD_REACTORS
330
1050F
102
}
330
1050F
100
AcDbScale
 70
     0
300
1/32" = 1'-0"
140
0.03125
141
12.0
290
     0
  0
SCALE
  5
10524
102
{ACAD_REACTORS
330
1050F
102
}
330
1050F
100
AcDbScale
 70
     0
300
1/16" = 1'-0"
140
0.0625
141
12.0
290
     0
  0
SCALE
  5
10525
102
{ACAD_REACTORS
330
1050F
102
}
330
1050F
100
AcDbScale
 70
     0
300
3/32" = 1'-0"
140
0.09375
141
12.0
290
     0
  0
SCALE
  5
10526
102
{ACAD_REACTORS
330
1050F
102
}
330
1050F
100
AcDbScale
 70
     0
300
1/8" = 1'-0"
140
0.125
141
12.0
290
     0
  0
SCALE
  5
10527
102
{ACAD_REACTORS
330
1050F
102
}
330
1050F
100
AcDbScale
 70
     0
300
3/16" = 1'-0"
140
0.1875
141
12.0
290
     0
  0
SCALE
  5
10528
102
{ACAD_REACTORS
330
1050F
102
}
330
1050F
100
AcDbScale
 70
     0
300
1/4" = 1'-0"
140
0.25
141
12.0
290
     0
  0
SCALE
  5
10529
102
{ACAD_REACTORS
330
1050F
102
}
330
1050F
100
AcDbScale
 70
     0
300
3/8" = 1'-0"
140
0.375
141
12.0
290
     0
  0
SCALE
  5
1052A
102
{ACAD_REACTORS
330
1050F
102
}
330
1050F
100
AcDbScale
 70
     0
300
1/2" = 1'-0"
140
0.5
141
12.0
290
     0
  0
SCALE
  5
1052B
102
{ACAD_REACTORS
330
1050F
102
}
330
1050F
100
AcDbScale
 70
     0
300
3/4" = 1'-0"
140
0.75
141
12.0
290
     0
  0
SCALE
  5
1052C
102
{ACAD_REACTORS
330
1050F
102
}
330
1050F
100
AcDbScale
 70
     0
300
1" = 1'-0"
140
1.0
141
12.0
290
     0
  0
SCALE
  5
1052D
102
{ACAD_REACTORS
330
1050F
102
}
330
1050F
100
AcDbScale
 70
     0
300
1-1/2" = 1'-0"
140
1.5
141
12.0
290
     0
  0
SCALE
  5
1052E
102
{ACAD_REACTORS
330
1050F
102
}
330
1050F
100
AcDbScale
 70
     0
300
3" = 1'-0"
140
3.0
141
12.0
290
     0
  0
SCALE
  5
1052F
102
{ACAD_REACTORS
330
1050F
102
}
330
1050F
100
AcDbScale
 70
     0
300
6" = 1'-0"
140
6.0
141
12.0
290
     0
  0
SCALE
  5
10530
102
{ACAD_REACTORS
330
1050F
102
}
330
1050F
100
AcDbScale
 70
     0
300
1'-0" = 1'-0"
140
12.0
141
12.0
290
     0
  0
TABLESTYLE
  5
F667
102
{ACAD_XDICTIONARY
360
105F7
102
}
102
{ACAD_REACTORS
330
F666
102
}
330
F666
100
AcDbTableStyle
  3
Standard
 70
     0
 71
     0
 40
0.06
 41
0.06
280
     0
281
     0
  7
STANDARD
140
0.18
170
     2
 62
     0
 63
     7
283
     0
 90
        4
 91
        0
  1

274
    -2
284
     1
 64
     0
275
    -2
285
     1
 65
     0
276
    -2
286
     1
 66
     0
277
    -2
287
     1
 67
     0
278
    -2
288
     1
 68
     0
279
    -2
289
     1
 69
     0
  7
STANDARD
140
0.25
170
     5
 62
     0
 63
     7
283
     0
 90
        4
 91
        0
  1

274
    -2
284
     1
 64
     0
275
    -2
285
     1
 65
     0
276
    -2
286
     1
 66
     0
277
    -2
287
     1
 67
     0
278
    -2
288
     1
 68
     0
279
    -2
289
     1
 69
     0
  7
STANDARD
140
0.18
170
     5
 62
     0
 63
     7
283
     0
 90
        4
 91
        0
  1

274
    -2
284
     1
 64
     0
275
    -2
285
     1
 65
     0
276
    -2
286
     1
 66
     0
277
    -2
287
     1
 67
     0
278
    -2
288
     1
 68
     0
279
    -2
289
     1
 69
     0
  0
VISUALSTYLE
  5
10504
102
{ACAD_REACTORS
330
104FE
102
}
330
104FE
100
AcDbVisualStyle
  2
2dWireframe
 70
     4
 71
     0
 72
     2
 73
     0
 90
        0
 40
-0.6
 41
-30.0
 62
     5
 63
     7
421
 16777215
 74
     1
 91
        4
 64
     7
 65
   257
 75
     1
175
     1
 42
1.0
 92
        0
 66
   257
 43
1.0
 76
     1
 77
     6
 78
     2
 67
     7
 79
     5
170
     0
171
     0
290
     0
174
     0
 93
        1
 44
0.0
173
     0
291
     0
 45
0.0
  0
VISUALSTYLE
  5
10506
102
{ACAD_REACTORS
330
104FE
102
}
330
104FE
100
AcDbVisualStyle
  2
3D Hidden
 70
     6
 71
     1
 72
     2
 73
     2
 90
        0
 40
-0.6
 41
-30.0
 62
     5
 63
     7
421
 16777215
 74
     2
 91
        2
 64
     7
 65
   257
 75
     2
175
     1
 42
40.0
 92
        0
 66
   257
 43
1.0
 76
     1
 77
     6
 78
     2
 67
     7
 79
     3
170
     0
171
     0
290
     0
174
     0
 93
        1
 44
0.0
173
     0
291
     0
 45
0.0
  0
VISUALSTYLE
  5
10505
102
{ACAD_REACTORS
330
104FE
102
}
330
104FE
100
AcDbVisualStyle
  2
3dWireframe
 70
     5
 71
     0
 72
     2
 73
     0
 90
        0
 40
-0.6
 41
-30.0
 62
     5
 63
     7
421
 16777215
 74
     1
 91
        4
 64
     7
 65
   257
 75
     1
175
     1
 42
1.0
 92
        0
 66
   257
 43
1.0
 76
     1
 77
     6
 78
     2
 67
     7
 79
     5
170
     0
171
     0
290
     0
174
     0
 93
        1
 44
0.0
173
     0
291
     0
 45
0.0
  0
VISUALSTYLE
  5
10503
102
{ACAD_REACTORS
330
104FE
102
}
330
104FE
100
AcDbVisualStyle
  2
Basic
 70
     7
 71
     1
 72
     0
 73
     1
 90
        0
 40
-0.6
 41
-30.0
 62
     5
 63
     7
421
 16777215
 74
     0
 91
        4
 64
     7
 65
   257
 75
     1
175
     1
 42
1.0
 92
        8
 66
     7
 43
1.0
 76
     1
 77
     6
 78
     2
 67
     7
 79
     5
170
     0
171
     0
290
     0
174
     0
 93
        1
 44
0.0
173
     0
291
     1
 45
0.0
  0
VISUALSTYLE
  5
1050A
102
{ACAD_REACTORS
330
104FE
102
}
330
104FE
100
AcDbVisualStyle
  2
Brighten
 70
    12
 71
     2
 72
     2
 73
     0
 90
        0
 40
-0.6
 41
-30.0
 62
     5
 63
     7
421
 16777215
 74
     1
 91
        4
 64
     7
 65
   257
 75
     1
175
     1
 42
1.0
 92
        8
 66
     7
 43
1.0
 76
     1
 77
     6
 78
     2
 67
     7
 79
     5
170
     0
171
     0
290
     0
174
     0
 93
        1
 44
50.0
173
     0
291
     1
 45
0.0
  0
VISUALSTYLE
  5
1050E
102
{ACAD_REACTORS
330
104FE
102
}
330
104FE
100
AcDbVisualStyle
  2
ColorChange
 70
    16
 71
     2
 72
     2
 73
     3
 90
        0
 40
-0.6
 41
-30.0
 62
     5
 63
     8
421
  8421504
 74
     1
 91
        4
 64
     7
 65
   257
 75
     1
175
     1
 42
1.0
 92
        8
 66
     8
424
  8421504
 43
1.0
 76
     1
 77
     6
 78
     2
 67
     7
 79
     5
170
     0
171
     0
290
     0
174
     0
 93
        1
 44
0.0
173
     0
291
     1
 45
0.0
  0
VISUALSTYLE
  5
10507
102
{ACAD_REACTORS
330
104FE
102
}
330
104FE
100
AcDbVisualStyle
  2
Conceptual
 70
     9
 71
     3
 72
     2
 73
     0
 90
        0
 40
-0.6
 41
-30.0
 62
     5
 63
     7
421
 16777215
 74
     2
 91
        2
 64
     7
 65
   257
 75
     1
175
     1
 42
40.0
 92
        8
 66
     7
 43
1.0
 76
     1
 77
     6
 78
     2
 67
     7
 79
     3
170
     0
171
     0
290
     0
174
     0
 93
        1
 44
0.0
173
     0
291
     0
 45
0.0
  0
VISUALSTYLE
  5
10509
102
{ACAD_REACTORS
330
104FE
102
}
330
104FE
100
AcDbVisualStyle
  2
Dim
 70
    11
 71
     2
 72
     2
 73
     0
 90
        0
 40
-0.6
 41
-30.0
 62
     5
 63
     7
421
 16777215
 74
     1
 91
        4
 64
     7
 65
   257
 75
     1
175
     1
 42
1.0
 92
        8
 66
     7
 43
1.0
 76
     1
 77
     6
 78
     2
 67
     7
 79
     5
170
     0
171
     0
290
     0
174
     0
 93
        1
 44
-50.0
173
     0
291
     1
 45
0.0
  0
VISUALSTYLE
  5
1050D
102
{ACAD_REACTORS
330
104FE
102
}
330
104FE
100
AcDbVisualStyle
  2
Facepattern
 70
    15
 71
     2
 72
     2
 73
     0
 90
        0
 40
-0.6
 41
-30.0
 62
     5
 63
     7
421
 16777215
 74
     1
 91
        4
 64
     7
 65
   257
 75
     1
175
     1
 42
1.0
 92
        8
 66
     7
 43
1.0
 76
     1
 77
     6
 78
     2
 67
     7
 79
     5
170
     0
171
     0
290
     0
174
     0
 93
        1
 44
0.0
173
     0
291
     1
 45
0.0
  0
VISUALSTYLE
  5
104FF
102
{ACAD_REACTORS
330
104FE
102
}
330
104FE
100
AcDbVisualStyle
  2
Flat
 70
     0
 71
     2
 72
     1
 73
     1
 90
        2
 40
-0.6
 41
30.0
 62
     5
 63
     7
421
 16777215
 74
     0
 91
        4
 64
     7
 65
   257
 75
     1
175
     1
 42
1.0
 92
        8
 66
     7
 43
1.0
 76
     1
 77
     6
 78
     2
 67
     7
 79
     5
170
     0
171
     0
290
     0
174
     0
 93
       13
 44
0.0
173
     0
291
     1
 45
0.0
  0
VISUALSTYLE
  5
10500
102
{ACAD_REACTORS
330
104FE
102
}
330
104FE
100
AcDbVisualStyle
  2
FlatWithEdges
 70
     1
 71
     2
 72
     1
 73
     1
 90
        2
 40
-0.6
 41
30.0
 62
     5
 63
     7
421
 16777215
 74
     1
 91
        4
 64
     7
 65
   257
 75
     1
175
     1
 42
1.0
 92
        0
 66
   257
 43
1.0
 76
     1
 77
     6
 78
     2
 67
     7
 79
     5
170
     0
171
     0
290
     0
174
     0
 93
       13
 44
0.0
173
     0
291
     1
 45
0.0
  0
VISUALSTYLE
  5
10501
102
{ACAD_REACTORS
330
104FE
102
}
330
104FE
100
AcDbVisualStyle
  2
Gouraud
 70
     2
 71
     2
 72
     2
 73
     1
 90
        2
 40
-0.6
 41
30.0
 62
     5
 63
     7
421
 16777215
 74
     0
 91
        4
 64
     7
 65
   257
 75
     1
175
     1
 42
1.0
 92
        0
 66
     7
 43
1.0
 76
     1
 77
     6
 78
     2
 67
     7
 79
     5
170
     0
171
     0
290
     0
174
     0
 93
       13
 44
0.0
173
     0
291
     1
 45
0.0
  0
VISUALSTYLE
  5
10502
102
{ACAD_REACTORS
330
104FE
102
}
330
104FE
100
AcDbVisualStyle
  2
GouraudWithEdges
 70
     3
 71
     2
 72
     2
 73
     1
 90
        2
 40
-0.6
 41
30.0
 62
     5
 63
     7
421
 16777215
 74
     1
 91
        4
 64
     7
 65
   257
 75
     1
175
     1
 42
1.0
 92
        0
 66
   257
 43
1.0
 76
     1
 77
     6
 78
     2
 67
     7
 79
     5
170
     0
171
     0
290
     0
174
     0
 93
       13
 44
0.0
173
     0
291
     1
 45
0.0
  0
VISUALSTYLE
  5
1050C
102
{ACAD_REACTORS
330
104FE
102
}
330
104FE
100
AcDbVisualStyle
  2
Linepattern
 70
    14
 71
     2
 72
     2
 73
     0
 90
        0
 40
-0.6
 41
-30.0
 62
     5
 63
     7
421
 16777215
 74
     1
 91
        4
 64
     7
 65
   257
 75
     7
175
     7
 42
1.0
 92
        8
 66
     7
 43
1.0
 76
     1
 77
     6
 78
     2
 67
     7
 79
     5
170
     0
171
     0
290
     0
174
     0
 93
        1
 44
0.0
173
     0
291
     1
 45
0.0
  0
VISUALSTYLE
  5
10508
102
{ACAD_REACTORS
330
104FE
102
}
330
104FE
100
AcDbVisualStyle
  2
Realistic
 70
     8
 71
     2
 72
     2
 73
     0
 90
        0
 40
-0.6
 41
-30.0
 62
     5
 63
     7
421
 16777215
 74
     1
 91
        0
 64
     7
 65
   257
 75
     1
175
     1
 42
1.0
 92
        8
 66
     8
424
  7895160
 43
1.0
 76
     1
 77
     6
 78
     2
 67
     7
 79
     5
170
     0
171
     0
290
     0
174
     0
 93
       13
 44
0.0
173
     0
291
     0
 45
0.0
  0
VISUALSTYLE
  5
1050B
102
{ACAD_REACTORS
330
104FE
102
}
330
104FE
100
AcDbVisualStyle
  2
Thicken
 70
    13
 71
     2
 72
     2
 73
     0
 90
        0
 40
-0.6
 41
-30.0
 62
     5
 63
     7
421
 16777215
 74
     1
 91
        4
 64
     7
 65
   257
 75
     1
175
     1
 42
1.0
 92
       12
 66
     7
 43
1.0
 76
     1
 77
     6
 78
     2
 67
     7
 79
     5
170
     0
171
     0
290
     0
174
     0
 93
        1
 44
0.0
173
     0
291
     1
 45
0.0
  0
DICTIONARYVAR
  5
105FC
102
{ACAD_REACTORS
330
29E
102
}
330
29E
100
DictionaryVariables
280
     0
  1
1:1
  0
DICTIONARYVAR
  5
105FA
102
{ACAD_REACTORS
330
29E
102
}
330
29E
100
DictionaryVariables
280
     0
  1
STANDARD
  0
DICTIONARYVAR
  5
103CB
102
{ACAD_REACTORS
330
29E
102
}
330
29E
100
DictionaryVariables
280
     0
  1
STANDARD
  0
DICTIONARYVAR
  5
103DA
102
{ACAD_REACTORS
330
29E
102
}
330
29E
100
DictionaryVariables
280
     0
  1
1
  0
DICTIONARYVAR
  5
105FD
102
{ACAD_REACTORS
330
29E
102
}
330
29E
100
DictionaryVariables
280
     0
  1
0
  0
DICTIONARYVAR
  5
105FB
102
{ACAD_REACTORS
330
29E
102
}
330
29E
100
DictionaryVariables
280
     0
  1
0
  0
DICTIONARYVAR
  5
103DB
102
{ACAD_REACTORS
330
29E
102
}
330
29E
100
DictionaryVariables
280
     0
  1

  0
DICTIONARYVAR
  5
29F
102
{ACAD_REACTORS
330
29E
102
}
330
29E
100
DictionaryVariables
280
     0
  1
96
  0
DICTIONARY
  5
1059E
102
{ACAD_REACTORS
330
10593
102
}
330
10593
100
AcDbDictionary
281
     1
  0
XRECORD
  5
105BF
102
{ACAD_REACTORS
330
10593
102
}
330
10593
100
AcDbXrecord
280
     1
 90
-1023410169
  0
DICTIONARY
  5
104EF
330
104EE
100
AcDbDictionary
280
     1
281
     1
  3
BUMPTILE
360
104F1
  3
DIFFUSETILE
360
104F0
  3
OPACITYTILE
360
104F4
  3
REFLECTIONTILE
360
104F3
  3
REFRACTIONTILE
360
104F5
  3
SPECULARTILE
360
104F2
  0
DICTIONARY
  5
104E7
330
104E6
100
AcDbDictionary
280
     1
281
     1
  3
BUMPTILE
360
104E9
  3
DIFFUSETILE
360
104E8
  3
OPACITYTILE
360
104EC
  3
REFLECTIONTILE
360
104EB
  3
REFRACTIONTILE
360
104ED
  3
SPECULARTILE
360
104EA
  0
DICTIONARY
  5
104F7
330
104F6
100
AcDbDictionary
280
     1
281
     1
  3
BUMPTILE
360
104F9
  3
DIFFUSETILE
360
104F8
  3
OPACITYTILE
360
104FC
  3
REFLECTIONTILE
360
104FB
  3
REFRACTIONTILE
360
104FD
  3
SPECULARTILE
360
104FA
  0
DICTIONARY
  5
105F7
330
F667
100
AcDbDictionary
280
     1
281
     1
  3
ACAD_ROUNDTRIP_2008_TABLESTYLE_CELLSTYLEMAP
360
113FC
  0
XRECORD
  5
104F1
102
{ACAD_REACTORS
330
104EF
102
}
330
104EF
100
AcDbXrecord
280
     1
270
     1
271
     1
  0
XRECORD
  5
104F0
102
{ACAD_REACTORS
330
104EF
102
}
330
104EF
100
AcDbXrecord
280
     1
270
     1
271
     1
  0
XRECORD
  5
104F4
102
{ACAD_REACTORS
330
104EF
102
}
330
104EF
100
AcDbXrecord
280
     1
270
     1
271
     1
  0
XRECORD
  5
104F3
102
{ACAD_REACTORS
330
104EF
102
}
330
104EF
100
AcDbXrecord
280
     1
270
     1
271
     1
  0
XRECORD
  5
104F5
102
{ACAD_REACTORS
330
104EF
102
}
330
104EF
100
AcDbXrecord
280
     1
270
     1
271
     1
  0
XRECORD
  5
104F2
102
{ACAD_REACTORS
330
104EF
102
}
330
104EF
100
AcDbXrecord
280
     1
270
     1
271
     1
  0
XRECORD
  5
104E9
102
{ACAD_REACTORS
330
104E7
102
}
330
104E7
100
AcDbXrecord
280
     1
270
     1
271
     1
  0
XRECORD
  5
104E8
102
{ACAD_REACTORS
330
104E7
102
}
330
104E7
100
AcDbXrecord
280
     1
270
     1
271
     1
  0
XRECORD
  5
104EC
102
{ACAD_REACTORS
330
104E7
102
}
330
104E7
100
AcDbXrecord
280
     1
270
     1
271
     1
  0
XRECORD
  5
104EB
102
{ACAD_REACTORS
330
104E7
102
}
330
104E7
100
AcDbXrecord
280
     1
270
     1
271
     1
  0
XRECORD
  5
104ED
102
{ACAD_REACTORS
330
104E7
102
}
330
104E7
100
AcDbXrecord
280
     1
270
     1
271
     1
  0
XRECORD
  5
104EA
102
{ACAD_REACTORS
330
104E7
102
}
330
104E7
100
AcDbXrecord
280
     1
270
     1
271
     1
  0
XRECORD
  5
104F9
102
{ACAD_REACTORS
330
104F7
102
}
330
104F7
100
AcDbXrecord
280
     1
270
     1
271
     1
  0
XRECORD
  5
104F8
102
{ACAD_REACTORS
330
104F7
102
}
330
104F7
100
AcDbXrecord
280
     1
270
     1
271
     1
  0
XRECORD
  5
104FC
102
{ACAD_REACTORS
330
104F7
102
}
330
104F7
100
AcDbXrecord
280
     1
270
     1
271
     1
  0
XRECORD
  5
104FB
102
{ACAD_REACTORS
330
104F7
102
}
330
104F7
100
AcDbXrecord
280
     1
270
     1
271
     1
  0
XRECORD
  5
104FD
102
{ACAD_REACTORS
330
104F7
102
}
330
104F7
100
AcDbXrecord
280
     1
270
     1
271
     1
  0
XRECORD
  5
104FA
102
{ACAD_REACTORS
330
104F7
102
}
330
104F7
100
AcDbXrecord
280
     1
270
     1
271
     1
  0
CELLSTYLEMAP
  5
113FC
102
{ACAD_REACTORS
330
105F7
102
}
330
105F7
100
AcDbCellStyleMap
 90
        3
300
CELLSTYLE
  1
TABLEFORMAT_BEGIN
 90
        5
170
     1
 91
        0
 92
    32768
 62
   257
 93
        1
300
CONTENTFORMAT
  1
CONTENTFORMAT_BEGIN
 90
        0
 91
        0
 92
        4
 93
        0
300

 40
0.0
140
1.0
 94
        5
 62
     0
340
10
144
0.25
309
CONTENTFORMAT_END
171
     1
301
MARGIN
  1
CELLMARGIN_BEGIN
 40
0.06
 40
0.06
 40
0.06
 40
0.06
 40
0.18
 40
0.18
309
CELLMARGIN_END
 94
        6
 95
        1
302
GRIDFORMAT
  1
GRIDFORMAT_BEGIN
 90
        0
 91
        1
 62
     0
 92
       -2
340
0
 93
        0
 40
0.045
309
GRIDFORMAT_END
 95
        2
302
GRIDFORMAT
  1
GRIDFORMAT_BEGIN
 90
        0
 91
        1
 62
     0
 92
       -2
340
0
 93
        0
 40
0.045
309
GRIDFORMAT_END
 95
        4
302
GRIDFORMAT
  1
GRIDFORMAT_BEGIN
 90
        0
 91
        1
 62
     0
 92
       -2
340
0
 93
        0
 40
0.045
309
GRIDFORMAT_END
 95
        8
302
GRIDFORMAT
  1
GRIDFORMAT_BEGIN
 90
        0
 91
        1
 62
     0
 92
       -2
340
0
 93
        0
 40
0.045
309
GRIDFORMAT_END
 95
       16
302
GRIDFORMAT
  1
GRIDFORMAT_BEGIN
 90
        0
 91
        1
 62
     0
 92
       -2
340
0
 93
        0
 40
0.045
309
GRIDFORMAT_END
 95
       32
302
GRIDFORMAT
  1
GRIDFORMAT_BEGIN
 90
        0
 91
        1
 62
     0
 92
       -2
340
0
 93
        0
 40
0.045
309
GRIDFORMAT_END
309
TABLEFORMAT_END
  1
CELLSTYLE_BEGIN
 90
        1
 91
        1
300
_TITLE
309
CELLSTYLE_END
300
CELLSTYLE
  1
TABLEFORMAT_BEGIN
 90
        5
170
     1
 91
        0
 92
        0
 62
   257
 93
        1
300
CONTENTFORMAT
  1
CONTENTFORMAT_BEGIN
 90
        0
 91
        0
 92
        4
 93
        0
300

 40
0.0
140
1.0
 94
        5
 62
     0
340
10
144
0.18
309
CONTENTFORMAT_END
171
     1
301
MARGIN
  1
CELLMARGIN_BEGIN
 40
0.06
 40
0.06
 40
0.06
 40
0.06
 40
0.18
 40
0.18
309
CELLMARGIN_END
 94
        6
 95
        1
302
GRIDFORMAT
  1
GRIDFORMAT_BEGIN
 90
        0
 91
        1
 62
     0
 92
       -2
340
0
 93
        0
 40
0.045
309
GRIDFORMAT_END
 95
        2
302
GRIDFORMAT
  1
GRIDFORMAT_BEGIN
 90
        0
 91
        1
 62
     0
 92
       -2
340
0
 93
        0
 40
0.045
309
GRIDFORMAT_END
 95
        4
302
GRIDFORMAT
  1
GRIDFORMAT_BEGIN
 90
        0
 91
        1
 62
     0
 92
       -2
340
0
 93
        0
 40
0.045
309
GRIDFORMAT_END
 95
        8
302
GRIDFORMAT
  1
GRIDFORMAT_BEGIN
 90
        0
 91
        1
 62
     0
 92
       -2
340
0
 93
        0
 40
0.045
309
GRIDFORMAT_END
 95
       16
302
GRIDFORMAT
  1
GRIDFORMAT_BEGIN
 90
        0
 91
        1
 62
     0
 92
       -2
340
0
 93
        0
 40
0.045
309
GRIDFORMAT_END
 95
       32
302
GRIDFORMAT
  1
GRIDFORMAT_BEGIN
 90
        0
 91
        1
 62
     0
 92
       -2
340
0
 93
        0
 40
0.045
309
GRIDFORMAT_END
309
TABLEFORMAT_END
  1
CELLSTYLE_BEGIN
 90
        2
 91
        1
300
_HEADER
309
CELLSTYLE_END
300
CELLSTYLE
  1
TABLEFORMAT_BEGIN
 90
        5
170
     1
 91
        0
 92
        0
 62
   257
 93
        1
300
CONTENTFORMAT
  1
CONTENTFORMAT_BEGIN
 90
        0
 91
        0
 92
        4
 93
        0
300

 40
0.0
140
1.0
 94
        2
 62
     0
340
10
144
0.18
309
CONTENTFORMAT_END
171
     1
301
MARGIN
  1
CELLMARGIN_BEGIN
 40
0.06
 40
0.06
 40
0.06
 40
0.06
 40
0.18
 40
0.18
309
CELLMARGIN_END
 94
        6
 95
        1
302
GRIDFORMAT
  1
GRIDFORMAT_BEGIN
 90
        0
 91
        1
 62
     0
 92
       -2
340
0
 93
        0
 40
0.045
309
GRIDFORMAT_END
 95
        2
302
GRIDFORMAT
  1
GRIDFORMAT_BEGIN
 90
        0
 91
        1
 62
     0
 92
       -2
340
0
 93
        0
 40
0.045
309
GRIDFORMAT_END
 95
        4
302
GRIDFORMAT
  1
GRIDFORMAT_BEGIN
 90
        0
 91
        1
 62
     0
 92
       -2
340
0
 93
        0
 40
0.045
309
GRIDFORMAT_END
 95
        8
302
GRIDFORMAT
  1
GRIDFORMAT_BEGIN
 90
        0
 91
        1
 62
     0
 92
       -2
340
0
 93
        0
 40
0.045
309
GRIDFORMAT_END
 95
       16
302
GRIDFORMAT
  1
GRIDFORMAT_BEGIN
 90
        0
 91
        1
 62
     0
 92
       -2
340
0
 93
        0
 40
0.045
309
GRIDFORMAT_END
 95
       32
302
GRIDFORMAT
  1
GRIDFORMAT_BEGIN
 90
        0
 91
        1
 62
     0
 92
       -2
340
0
 93
        0
 40
0.045
309
GRIDFORMAT_END
309
TABLEFORMAT_END
  1
CELLSTYLE_BEGIN
 90
        3
 91
        2
300
_DATA
309
CELLSTYLE_END
  0
ENDSEC
  0
EOF
