  0
SECTION
  2
HEADER
  9
$ACADVER
  1
AC1021
  9
$ACADMAINTVER
 70
    26
  9
$DWGCODEPAGE
  3
ANSI_932
  9
$LASTSAVEDBY
  1
Htm_Terada
  9
$CUSTOMPROPERTYTAG
  1
AmdtFileType
  9
$CUSTOMPROPERTY
  1
84
  9
$INSBASE
 10
0.0
 20
0.0
 30
0.0
  9
$EXTMIN
 10
1341.692784047279
 20
1394.17248505163
 30
0.0
  9
$EXTMAX
 10
3100.744026466866
 20
2580.87121480163
 30
0.0
  9
$LIMMIN
 10
0.0000019143385543
 20
0.0000036938206449
  9
$LIMMAX
 10
4200.000001914339
 20
2970.000003693821
  9
$ORTHOMODE
 70
     1
  9
$REGENMODE
 70
     1
  9
$FILLMODE
 70
     1
  9
$QTEXTMODE
 70
     0
  9
$MIRRTEXT
 70
     1
  9
$LTSCALE
 40
10.0
  9
$ATTMODE
 70
     1
  9
$TEXTSIZE
 40
25.0
  9
$TRACEWID
 40
1.0
  9
$TEXTSTYLE
  7
SEISA
  9
$CLAYER
  8
AM_0 外形線1
  9
$CELTYPE
  6
ByLayer
  9
$CECOLOR
 62
   256
  9
$CELTSCALE
 40
1.0
  9
$DISPSILH
 70
     0
  9
$DIMSCALE
 40
10.0
  9
$DIMASZ
 40
2.5
  9
$DIMEXO
 40
0.625
  9
$DIMDLI
 40
10.0
  9
$DIMRND
 40
0.0
  9
$DIMDLE
 40
0.0
  9
$DIMEXE
 40
0.625
  9
$DIMTP
 40
0.1
  9
$DIMTM
 40
0.1
  9
$DIMTXT
 40
3.5
  9
$DIMCEN
 40
0.0
  9
$DIMTSZ
 40
0.0
  9
$DIMTOL
 70
     0
  9
$DIMLIM
 70
     0
  9
$DIMTIH
 70
     0
  9
$DIMTOH
 70
     0
  9
$DIMSE1
 70
     0
  9
$DIMSE2
 70
     0
  9
$DIMTAD
 70
     3
  9
$DIMZIN
 70
     8
  9
$DIMBLK
  1
Open30
  9
$DIMASO
 70
     1
  9
$DIMSHO
 70
     1
  9
$DIMPOST
  1

  9
$DIMAPOST
  1
"
  9
$DIMALT
 70
     0
  9
$DIMALTD
 70
     2
  9
$DIMALTF
 40
0.0393701
  9
$DIMLFAC
 40
1.0
  9
$DIMTOFL
 70
     1
  9
$DIMTVP
 40
0.0
  9
$DIMTIX
 70
     0
  9
$DIMSOXD
 70
     0
  9
$DIMSAH
 70
     0
  9
$DIMBLK1
  1

  9
$DIMBLK2
  1

  9
$DIMSTYLE
  2
SEISA
  9
$DIMCLRD
 70
     3
  9
$DIMCLRE
 70
     3
  9
$DIMCLRT
 70
     3
  9
$DIMTFAC
 40
0.71
  9
$DIMGAP
 40
1.5
  9
$DIMJUST
 70
     0
  9
$DIMSD1
 70
     0
  9
$DIMSD2
 70
     0
  9
$DIMTOLJ
 70
     0
  9
$DIMTZIN
 70
     0
  9
$DIMALTZ
 70
     0
  9
$DIMALTTZ
 70
     8
  9
$DIMUPT
 70
     0
  9
$DIMDEC
 70
     2
  9
$DIMTDEC
 70
     2
  9
$DIMALTU
 70
     2
  9
$DIMALTTD
 70
     2
  9
$DIMTXSTY
  7
SEISA
  9
$DIMAUNIT
 70
     0
  9
$DIMADEC
 70
     0
  9
$DIMALTRND
 40
0.0
  9
$DIMAZIN
 70
     2
  9
$DIMDSEP
 70
    46
  9
$DIMATFIT
 70
     3
  9
$DIMFRAC
 70
     0
  9
$DIMLDRBLK
  1
Open30
  9
$DIMLUNIT
 70
     2
  9
$DIMLWD
 70
    -1
  9
$DIMLWE
 70
    -1
  9
$DIMTMOVE
 70
     0
  9
$DIMFXL
 40
1.0
  9
$DIMFXLON
 70
     0
  9
$DIMJOGANG
 40
0.7853981633974483
  9
$DIMTFILL
 70
     0
  9
$DIMTFILLCLR
 70
     0
  9
$DIMARCSYM
 70
     1
  9
$DIMLTYPE
  6

  9
$DIMLTEX1
  6

  9
$DIMLTEX2
  6

  9
$LUNITS
 70
     2
  9
$LUPREC
 70
     2
  9
$SKETCHINC
 40
1.0
  9
$FILLETRAD
 40
2.5
  9
$AUNITS
 70
     0
  9
$AUPREC
 70
     0
  9
$MENU
  1
.
  9
$ELEVATION
 40
0.0
  9
$PELEVATION
 40
0.0
  9
$THICKNESS
 40
0.0
  9
$LIMCHECK
 70
     0
  9
$CHAMFERA
 40
10.0
  9
$CHAMFERB
 40
10.0
  9
$CHAMFERC
 40
9.999999999999543
  9
$CHAMFERD
 40
0.7853981633974258
  9
$SKPOLY
 70
     0
  9
$TDCREATE
 40
2454938.859259884
  9
$TDUCREATE
 40
2454938.484259884
  9
$TDUPDATE
 40
2456479.694392535
  9
$TDUUPDATE
 40
2456479.319392535
  9
$TDINDWG
 40
0.2002979514
  9
$TDUSRTIMER
 40
0.2002965046
  9
$USRTIMER
 70
     1
  9
$ANGBASE
 50
0.0
  9
$ANGDIR
 70
     0
  9
$PDMODE
 70
     0
  9
$PDSIZE
 40
0.0
  9
$PLINEWID
 40
0.0
  9
$SPLFRAME
 70
     0
  9
$SPLINETYPE
 70
     6
  9
$SPLINESEGS
 70
     8
  9
$HANDSEED
  5
7680
  9
$SURFTAB1
 70
     6
  9
$SURFTAB2
 70
     6
  9
$SURFTYPE
 70
     6
  9
$SURFU
 70
     6
  9
$SURFV
 70
     6
  9
$UCSBASE
  2

  9
$UCSNAME
  2

  9
$UCSORG
 10
0.0
 20
0.0
 30
0.0
  9
$UCSXDIR
 10
1.0
 20
0.0
 30
0.0
  9
$UCSYDIR
 10
0.0
 20
1.0
 30
0.0
  9
$UCSORTHOREF
  2

  9
$UCSORTHOVIEW
 70
     0
  9
$UCSORGTOP
 10
0.0
 20
0.0
 30
0.0
  9
$UCSORGBOTTOM
 10
0.0
 20
0.0
 30
0.0
  9
$UCSORGLEFT
 10
0.0
 20
0.0
 30
0.0
  9
$UCSORGRIGHT
 10
0.0
 20
0.0
 30
0.0
  9
$UCSORGFRONT
 10
0.0
 20
0.0
 30
0.0
  9
$UCSORGBACK
 10
0.0
 20
0.0
 30
0.0
  9
$PUCSBASE
  2

  9
$PUCSNAME
  2

  9
$PUCSORG
 10
0.0
 20
0.0
 30
0.0
  9
$PUCSXDIR
 10
1.0
 20
0.0
 30
0.0
  9
$PUCSYDIR
 10
0.0
 20
1.0
 30
0.0
  9
$PUCSORTHOREF
  2

  9
$PUCSORTHOVIEW
 70
     0
  9
$PUCSORGTOP
 10
0.0
 20
0.0
 30
0.0
  9
$PUCSORGBOTTOM
 10
0.0
 20
0.0
 30
0.0
  9
$PUCSORGLEFT
 10
0.0
 20
0.0
 30
0.0
  9
$PUCSORGRIGHT
 10
0.0
 20
0.0
 30
0.0
  9
$PUCSORGFRONT
 10
0.0
 20
0.0
 30
0.0
  9
$PUCSORGBACK
 10
0.0
 20
0.0
 30
0.0
  9
$USERI1
 70
     0
  9
$USERI2
 70
     0
  9
$USERI3
 70
     0
  9
$USERI4
 70
     0
  9
$USERI5
 70
     0
  9
$USERR1
 40
0.0
  9
$USERR2
 40
0.0
  9
$USERR3
 40
0.0
  9
$USERR4
 40
0.0
  9
$USERR5
 40
0.0
  9
$WORLDVIEW
 70
     1
  9
$SHADEDGE
 70
     3
  9
$SHADEDIF
 70
    70
  9
$TILEMODE
 70
     1
  9
$MAXACTVP
 70
    64
  9
$PINSBASE
 10
0.0
 20
0.0
 30
0.0
  9
$PLIMCHECK
 70
     0
  9
$PEXTMIN
 10
1.000000000000000E+20
 20
1.000000000000000E+20
 30
1.000000000000000E+20
  9
$PEXTMAX
 10
-1.000000000000000E+20
 20
-1.000000000000000E+20
 30
-1.000000000000000E+20
  9
$PLIMMIN
 10
0.0
 20
0.0
  9
$PLIMMAX
 10
420.0
 20
297.0
  9
$UNITMODE
 70
     0
  9
$VISRETAIN
 70
     1
  9
$PLINEGEN
 70
     0
  9
$PSLTSCALE
 70
     1
  9
$TREEDEPTH
 70
  3020
  9
$CMLSTYLE
  2
Standard
  9
$CMLJUST
 70
     0
  9
$CMLSCALE
 40
20.0
  9
$PROXYGRAPHICS
 70
     1
  9
$MEASUREMENT
 70
     1
  9
$CELWEIGHT
370
    -1
  9
$ENDCAPS
280
     0
  9
$JOINSTYLE
280
     0
  9
$LWDISPLAY
290
     0
  9
$INSUNITS
 70
     4
  9
$HYPERLINKBASE
  1

  9
$STYLESHEET
  1
SEISA.CTB
  9
$XEDIT
290
     1
  9
$CEPSNTYPE
380
     0
  9
$PSTYLEMODE
290
     1
  9
$FINGERPRINTGUID
  2
{67C85DC1-886C-437D-AF1A-9EFD82443846}
  9
$VERSIONGUID
  2
{22A5E5F9-C9BA-41EF-8501-B6851677A3C1}
  9
$EXTNAMES
290
     1
  9
$PSVPSCALE
 40
0.0
  9
$OLESTARTUP
290
     0
  9
$SORTENTS
280
   127
  9
$INDEXCTL
280
     0
  9
$HIDETEXT
280
     0
  9
$XCLIPFRAME
290
     0
  9
$HALOGAP
280
     0
  9
$OBSCOLOR
 70
   257
  9
$OBSLTYPE
280
     0
  9
$INTERSECTIONDISPLAY
280
     0
  9
$INTERSECTIONCOLOR
 70
   257
  9
$DIMASSOC
280
     2
  9
$PROJECTNAME
  1

  9
$CAMERADISPLAY
290
     0
  9
$LENSLENGTH
 40
50.0
  9
$CAMERAHEIGHT
 40
0.0
  9
$STEPSPERSEC
 40
2.0
  9
$STEPSIZE
 40
6.0
  9
$3DDWFPREC
 40
2.0
  9
$PSOLWIDTH
 40
0.25
  9
$PSOLHEIGHT
 40
4.0
  9
$LOFTANG1
 40
1.570796326794896
  9
$LOFTANG2
 40
1.570796326794896
  9
$LOFTMAG1
 40
0.0
  9
$LOFTMAG2
 40
0.0
  9
$LOFTPARAM
 70
     7
  9
$LOFTNORMALS
280
     1
  9
$LATITUDE
 40
37.795
  9
$LONGITUDE
 40
-122.394
  9
$NORTHDIRECTION
 40
0.0
  9
$TIMEZONE
 70
 -8000
  9
$LIGHTGLYPHDISPLAY
280
     1
  9
$TILEMODELIGHTSYNCH
280
     1
  9
$CMATERIAL
347
27C
  9
$SOLIDHIST
280
     1
  9
$SHOWHIST
280
     1
  9
$DWFFRAME
280
     2
  9
$DGNFRAME
280
     0
  9
$REALWORLDSCALE
290
     1
  9
$INTERFERECOLOR
 62
     1
  9
$INTERFEREOBJVS
345
289
  9
$INTERFEREVPVS
346
286
  9
$CSHADOW
280
     0
  9
$SHADOWPLANELOCATION
 40
0.0
  0
ENDSEC
  0
SECTION
  2
CLASSES
  0
CLASS
  1
ACDBDICTIONARYWDFLT
  2
AcDbDictionaryWithDefault
  3
ObjectDBX Classes
 90
        0
 91
        1
280
     0
281
     0
  0
CLASS
  1
AMGSETTINGSOBJ
  2
AmgSettingsObj
  3
"AcadM|Product Description: AutoCAD Mechanical|Company: Autodesk, Inc."
 90
     1024
 91
        2
280
     0
281
     0
  0
CLASS
  1
ACME_DOCUMENT
  2
AcMeDbDoc
  3
AcMeServices
 90
     1024
 91
        1
280
     0
281
     0
  0
CLASS
  1
ACMESCOPE
  2
AcMeScope
  3
AcMeServices
 90
     1024
 91
        1
280
     0
281
     0
  0
CLASS
  1
ACMECOMMANDHISTORY
  2
AcMeCommandHistory
  3
AcMeServices
 90
     1024
 91
        1
280
     0
281
     0
  0
CLASS
  1
DICTIONARYVAR
  2
AcDbDictionaryVar
  3
ObjectDBX Classes
 90
        0
 91
        9
280
     0
281
     0
  0
CLASS
  1
ACIMSYSVARMAN
  2
AcImSysVarManager
  3
AcMeServices
 90
     1024
 91
        5
280
     0
281
     0
  0
CLASS
  1
ACIMREALSYSVAR
  2
AcImRealSysVar
  3
AcMeServices
 90
     1024
 91
        1
280
     0
281
     0
  0
CLASS
  1
ACIMINTSYSVAR
  2
AcImIntSysVar
  3
AcMeServices
 90
     1024
 91
       27
280
     0
281
     0
  0
CLASS
  1
ACMEDRAWINGMAN
  2
AcMeDrawingMan
  3
AcMeServices
 90
     1024
 91
        1
280
     0
281
     0
  0
CLASS
  1
ACMEVIEW
  2
AcMeView
  3
AcMeServices
 90
     1024
 91
        1
280
     0
281
     0
  0
CLASS
  1
ACDBENTITYCACHE
  2
AcMeEntityCache
  3
AcMeServices
 90
     1024
 91
        1
280
     0
281
     0
  0
CLASS
  1
GSMANAGER
  2
AcMeGSManager
  3
AcMeServices
 90
     1024
 91
        1
280
     0
281
     0
  0
CLASS
  1
AMDTINTERNALREACTOR
  2
AmdtInternalReactor
  3
AcMeServices
 90
     1024
 91
        2
280
     0
281
     0
  0
CLASS
  1
ACMESTATEMGR
  2
AcMeStateMgr
  3
AcMeServices
 90
     1024
 91
        1
280
     0
281
     0
  0
CLASS
  1
ACGREFMASTER
  2
AcGrefMaster
  3
AcAttribServices
 90
     1024
 91
        1
280
     0
281
     0
  0
CLASS
  1
ACME_DATABASE
  2
AcMeDbDatabase
  3
AcMeServices
 90
     1024
 91
        1
280
     0
281
     0
  0
CLASS
  1
ACRFINSADJUSTERMGR
  2
AcRfInsAdjusterMgr
  3
AcMeServices
 90
     1024
 91
        1
280
     0
281
     0
  0
CLASS
  1
ACGREFACADMASTER
  2
AcGrefacadMaster
  3
AcGrefServices
 90
     1024
 91
        1
280
     0
281
     0
  0
CLASS
  1
AMIMASTER
  2
AmiMaster
  3
AmiServices
 90
     1024
 91
        1
280
     0
281
     0
  0
CLASS
  1
ACIMSTRSYSVAR
  2
AcImStrSysVar
  3
AcMeServices
 90
     1024
 91
        5
280
     0
281
     0
  0
CLASS
  1
ACMSTANDARDJIS
  2
AcmStandardJIS
  3
"Amdt_StdImp|Product Description: AutoCAD Mechanical|Company: Autodesk, Inc."
 90
     1024
 91
        0
280
     0
281
     0
  0
CLASS
  1
AMGOBJPROPCFG
  2
AmgObjPropCfg
  3
"AmgLay|Product Description: AutoCAD Mechanical|Company: Autodesk, Inc."
 90
     1025
 91
        1
280
     0
281
     0
  0
CLASS
  1
ACMSURFSTANDARDJIS
  2
AcmSurfTextStdJIS
  3
"Amdt_StdImp|Product Description: AutoCAD Mechanical|Company: Autodesk, Inc."
 90
     1024
 91
        0
280
     0
281
     0
  0
CLASS
  1
ACMFCFSTANDARDJIS
  2
AcmFCFStdJIS
  3
"Amdt_StdImp|Product Description: AutoCAD Mechanical|Company: Autodesk, Inc."
 90
     1024
 91
        0
280
     0
281
     0
  0
CLASS
  1
ACMWELDSTANDARDJIS
  2
AcmWeldingStdJIS
  3
"Amdt_StdImp|Product Description: AutoCAD Mechanical|Company: Autodesk, Inc."
 90
     1024
 91
        0
280
     0
281
     0
  0
CLASS
  1
ACMIDSTANDARDJIS
  2
AcmIdStdJIS
  3
"Amdt_StdImp|Product Description: AutoCAD Mechanical|Company: Autodesk, Inc."
 90
     1024
 91
        0
280
     0
281
     0
  0
CLASS
  1
ACMDATUMSTANDARDJIS
  2
AcmDatumStdJIS
  3
"Amdt_StdImp|Product Description: AutoCAD Mechanical|Company: Autodesk, Inc."
 90
     1024
 91
        0
280
     0
281
     0
  0
CLASS
  1
ACMBOMSTANDARDJIS
  2
AcmBOMStdJIS
  3
"Amdt_StdImp|Product Description: AutoCAD Mechanical|Company: Autodesk, Inc."
 90
     1024
 91
        0
280
     0
281
     0
  0
CLASS
  1
ACMDETAILSTANDARDJIS
  2
AmdtDetailSymStdJIS
  3
"Amdt_StdImp|Product Description: AutoCAD Mechanical|Company: Autodesk, Inc."
 90
     1024
 91
        0
280
     0
281
     0
  0
CLASS
  1
ACMSECTIONSTANDARDJIS
  2
AmdtSectionSymStdJIS
  3
"Amdt_StdImp|Product Description: AutoCAD Mechanical|Company: Autodesk, Inc."
 90
     1024
 91
        0
280
     0
281
     0
  0
CLASS
  1
ACMCENTERLINESTANDARDJIS
  2
AmdtCenterLineStdJIS
  3
"Amdt_StdImp|Product Description: AutoCAD Mechanical|Company: Autodesk, Inc."
 90
     1024
 91
        0
280
     0
281
     0
  0
CLASS
  1
ACMTHREADLINESTANDARDJIS
  2
AmdtThreadLineStdJIS
  3
"Amdt_StdImp|Product Description: AutoCAD Mechanical|Company: Autodesk, Inc."
 90
     1024
 91
        0
280
     0
281
     0
  0
CLASS
  1
ACAMGLAYSTD
  2
AcAmgLayStd
  3
"AmgLay|Product Description: AutoCAD Mechanical|Company: Autodesk, Inc."
 90
     1024
 91
        1
280
     0
281
     0
  0
CLASS
  1
ACAMGDIMSTD
  2
AcAmgDimStd
  3
"AmgDim|Product Description: AutoCAD Mechanical|Company: Autodesk, Inc."
 90
     1024
 91
        1
280
     0
281
     0
  0
CLASS
  1
ACAMGTITLESTD
  2
AcAmgTitleStd
  3
"AmgTitle|Product Description: AutoCAD Mechanical|Company: Autodesk, Inc."
 90
     4095
 91
        1
280
     0
281
     0
  0
CLASS
  1
ACMDATADICTIONARY
  2
AcmDataDictionary
  3
"AcmSymBB|Product Description: AutoCAD Mechanical|Company: Autodesk, Inc."
 90
     1024
 91
        1
280
     0
281
     0
  0
CLASS
  1
ACMDATAENTRYBLOCK
  2
AcmDataEntryBlock
  3
AcmSymBB|Product Description: AutoCAD Mechanical|Company: Autodesk, Inc.
 90
     1024
 91
        0
280
     0
281
     0
  0
CLASS
  1
LAYER_INDEX
  2
AcDbLayerIndex
  3
ObjectDBX Classes
 90
        0
 91
        0
280
     0
281
     0
  0
CLASS
  1
IDBUFFER
  2
AcDbIdBuffer
  3
ObjectDBX Classes
 90
        0
 91
        0
280
     0
281
     0
  0
CLASS
  1
ACMNOTESTANDARDJIS
  2
AmdtNoteStdJIS
  3
"Amdt_StdImp|Product Description: AutoCAD Mechanical|Company: Autodesk, Inc."
 90
     1024
 91
        0
280
     0
281
     0
  0
CLASS
  1
ACAMGHOLECHARTSTDJIS
  2
AcAmgHoleChartStdJIS
  3
AmgDim|Product Description: AutoCAD Mechanical|Company: Autodesk, Inc.
 90
     1024
 91
        0
280
     0
281
     0
  0
CLASS
  1
AM_DRAWING_MGR
  2
AcDmDwgMgr
  3
AcMechDwgViewMgmt
 90
     1024
 91
        1
280
     0
281
     0
  0
CLASS
  1
AM_DWG_DOCUMENT
  2
AcDmDwgDocument
  3
AcMechDwgViewMgmt
 90
     1024
 91
        1
280
     0
281
     0
  0
CLASS
  1
AM_DWG_SHEET
  2
AcDmSheet
  3
AcMechDwgViewMgmt
 90
     1024
 91
        2
280
     0
281
     0
  0
CLASS
  1
AM_VIEWDIMPARMAP
  2
AcDmViewDimParMap
  3
AcMechDwgViewMgmt
 90
     1024
 91
        2
280
     0
281
     0
  0
CLASS
  1
AM_DWGMGR_NAME
  2
AcDmDwgMgrName
  3
AcMechDwgViewMgmt
 90
     1024
 91
        1
280
     0
281
     0
  0
CLASS
  1
AMDTMENUSTATEMGR
  2
AmdtMenuStateMgr
  3
McadcomServices
 90
     1024
 91
        1
280
     0
281
     0
  0
CLASS
  1
AMDTMCOMMENUSTATE
  2
AmdtMcomMenuState
  3
McadcomServices
 90
     1024
 91
        1
280
     0
281
     0
  0
CLASS
  1
MAPIAMMOUDLE
  2
MApiAmModule
  3
MApiAmServices
 90
     1024
 91
        1
280
     0
281
     0
  0
CLASS
  1
AMDTADMENUSTATE
  2
AmdtAdMenuState
  3
DesignerServices
 90
     1024
 91
        1
280
     0
281
     0
  0
CLASS
  1
ADAPPL
  2
AcAdAppl
  3
DesignerServices
 90
     1024
 91
        1
280
     0
281
     0
  0
CLASS
  1
DEPMGR
  2
AcAdDepMgr
  3
DesignerServices
 90
     1024
 91
        1
280
     0
281
     0
  0
CLASS
  1
PARAMMGR
  2
AcAdParamMgr
  3
DesignerServices
 90
     1024
 91
        1
280
     0
281
     0
  0
CLASS
  1
PARAMSCOPE
  2
AcAdParamScope
  3
DesignerServices
 90
     1024
 91
        1
280
     0
281
     0
  0
CLASS
  1
NAMEDAPPL
  2
AcAdNamedAppl
  3
DesignerServices
 90
     1024
 91
        1
280
     0
281
     0
  0
CLASS
  1
AMDTDMMENUSTATE
  2
AmdtDmMenuState
  3
AcMechDwgViewMgmt
 90
     1024
 91
        1
280
     0
281
     0
  0
CLASS
  1
AMDTAMMENUSTATE
  2
AmdtAmMenuState
  3
DesignerAssemblies
 90
     1024
 91
        1
280
     0
281
     0
  0
CLASS
  1
ACAMPROJECT
  2
AcAmProject
  3
DesignerAssemblies
 90
     1024
 91
        1
280
     0
281
     0
  0
CLASS
  1
ACAMGRCOMPDEF
  2
AcAmGrCompDef
  3
DesignerAssemblies
 90
     1024
 91
        1
280
     0
281
     0
  0
CLASS
  1
ACCMCONTEXT
  2
AcCmContext
  3
DesignerAssemblies
 90
     1024
 91
        1
280
     0
281
     0
  0
CLASS
  1
ACAMCOMPDEF
  2
AcAmCompDef
  3
DesignerAssemblies
 90
     1024
 91
        1
280
     0
281
     0
  0
CLASS
  1
ACAMCOMPDEFMGR
  2
AcAmCompDefMgr
  3
DesignerAssemblies
 90
     1024
 91
        1
280
     0
281
     0
  0
CLASS
  1
AMCONTEXTMGR
  2
AcAmContextMgr
  3
DesignerAssemblies
 90
     1024
 91
        1
280
     0
281
     0
  0
CLASS
  1
ACAMCONTEXTMODELER
  2
AcAmContextModeler
  3
DesignerAssemblies
 90
     1024
 91
        1
280
     0
281
     0
  0
CLASS
  1
CATALOGSTATE
  2
AcAmCatalogState
  3
DesignerAssemblies
 90
     1024
 91
        1
280
     0
281
     0
  0
CLASS
  1
ACAMGRCOMPDEFSET
  2
AcAmGrCompDefSet
  3
DesignerAssemblies
 90
     1024
 91
        1
280
     0
281
     0
  0
CLASS
  1
AMDTBROWSERDBTAB
  2
AmdtBrowserDbTab
  3
McadcomServices
 90
     1024
 91
        1
280
     0
281
     0
  0
CLASS
  1
CBROWSERAPPOBJECT
  2
CBrowserAppObject
  3
McadcomServices
 90
     1024
 91
        3
280
     0
281
     0
  0
CLASS
  1
DM_PLACEHOLDER
  2
AcDmSelsetPlaceholder
  3
AcMechDwgViewMgmt
 90
     1024
 91
        1
280
     0
281
     0
  0
CLASS
  1
TABLESTYLE
  2
AcDbTableStyle
  3
ObjectDBX Classes
 90
     4095
 91
        1
280
     0
281
     0
  0
CLASS
  1
VAACXREFPANELOBJECT
  2
VaAcXREFPanelObject
  3
VAAC_ADDIN
 90
        0
 91
        0
280
     0
281
     0
  0
CLASS
  1
VAACIMAGEINVENTORY
  2
VaAcImageInventory
  3
VAAC_ADDIN
 90
        0
 91
        0
280
     0
281
     0
  0
CLASS
  1
AMDTNOTETEMPLATEDB
  2
AmdtNoteTemplateDB
  3
AcmSymBB|Product Description: AutoCAD Mechanical|Company: Autodesk, Inc.
 90
     1024
 91
        6
280
     0
281
     0
  0
CLASS
  1
ACAMGFILTERDAT
  2
AcAmgFilterDat
  3
"AcadM|Product Description: AutoCAD Mechanical|Company: Autodesk, Inc."
 90
     1024
 91
        0
280
     0
281
     0
  0
CLASS
  1
MATERIAL
  2
AcDbMaterial
  3
ObjectDBX Classes
 90
     1153
 91
        3
280
     0
281
     0
  0
CLASS
  1
VISUALSTYLE
  2
AcDbVisualStyle
  3
ObjectDBX Classes
 90
     4095
 91
       16
280
     0
281
     0
  0
CLASS
  1
ACRFATTGENMGR
  2
AcRfAttGeneralMgr
  3
AcAttribServices
 90
     1024
 91
        0
280
     0
281
     0
  0
CLASS
  1
ACRFOBJATTMGR
  2
AcRfObjAttGroupMgr
  3
AcAttribServices
 90
     1024
 91
        0
280
     0
281
     0
  0
CLASS
  1
ACRFMCADAPIATTHOLDER
  2
AcRfMCADAPIAttHolder
  3
AcAttribServices
 90
     1024
 91
        0
280
     0
281
     0
  0
CLASS
  1
AMDTSYSATTR
  2
AmdtSystemAttribute
  3
AcAttribServices
 90
     1024
 91
        0
280
     0
281
     0
  0
CLASS
  1
ACMTAPERSTANDARDJIS
  2
AcmTaperStdJIS
  3
"Amdt_StdImp|Product Description: AutoCAD Mechanical|Company: Autodesk, Inc."
 90
     1024
 91
        0
280
     0
281
     0
  0
CLASS
  1
CAMSSTRUCTBTNSTATE
  2
StructBtnState
  3
DesignerAssemblies
 90
     1024
 91
        0
280
     0
281
     0
  0
CLASS
  1
SCALE
  2
AcDbScale
  3
ObjectDBX Classes
 90
     1153
 91
       37
280
     0
281
     0
  0
CLASS
  1
MLEADERSTYLE
  2
AcDbMLeaderStyle
  3
ACDB_MLEADERSTYLE_CLASS
 90
     4095
 91
        1
280
     0
281
     0
  0
CLASS
  1
ACMANOOTATIONVIEWSTANDARDJIS
  2
AmdtAnViewStdJIS
  3
"Amdt_StdImp|Product Description: AutoCAD Mechanical|Company: Autodesk, Inc."
 90
     1024
 91
        0
280
     0
281
     0
  0
CLASS
  1
ACMSURFSTANDARDJIS2003
  2
AcmSurfTextStdJIS2003
  3
"Amdt_StdImp|Product Description: AutoCAD Mechanical|Company: Autodesk, Inc."
 90
     1024
 91
        0
280
     0
281
     0
  0
CLASS
  1
CELLSTYLEMAP
  2
AcDbCellStyleMap
  3
ObjectDBX Classes
 90
     1152
 91
        2
280
     0
281
     0
  0
CLASS
  1
ACMFCFSTANDARDJIS98
  2
AcmFCFStdJIS98
  3
"Amdt_StdImp|Product Description: AutoCAD Mechanical|Company: Autodesk, Inc."
 90
     1024
 91
        0
280
     0
281
     0
  0
CLASS
  1
SORTENTSTABLE
  2
AcDbSortentsTable
  3
ObjectDBX Classes
 90
        0
 91
       13
280
     0
281
     0
  0
CLASS
  1
DIMASSOC
  2
AcDbDimAssoc
  3
"AcDbDimAssoc|Product Desc:     AcDim ARX App For Dimension|Company:          Autodesk, Inc.|WEB Address:      www.autodesk.com"
 90
        0
 91
       14
280
     0
281
     0
  0
CLASS
  1
STDPART2D
  2
AmgStdPart
  3
AmgStdPart|Product Description: AutoCAD Mechanical|Company: Autodesk, Inc.
 90
     4095
 91
        0
280
     0
281
     1
  0
CLASS
  1
ACMDATAENTRYPART
  2
AcmDataEntryPart
  3
AcmSymBB|Product Description: AutoCAD Mechanical|Company: Autodesk, Inc.
 90
     1024
 91
        0
280
     0
281
     0
  0
CLASS
  1
ACMPARTREF
  2
AcmPartRef
  3
"AcmSymBB|Product Description: AutoCAD Mechanical|Company: Autodesk, Inc."
 90
     4095
 91
        0
280
     0
281
     1
  0
CLASS
  1
ACDBSTDPARTRES_LINE
  2
AcDbStdPartRes_Line
  3
AmgStdPart|Product Description: AutoCAD Mechanical|Company: Autodesk, Inc.
 90
     1024
 91
        0
280
     0
281
     0
  0
CLASS
  1
ACMBOM
  2
AcmBom
  3
"AcmSymBB|Product Description: AutoCAD Mechanical|Company: Autodesk, Inc."
 90
     1024
 91
        0
280
     0
281
     0
  0
CLASS
  1
AMDTFORMULAUPDATEDISPATCHER
  2
AmdtFormulaUpdateDispatcher
  3
AcMeServices
 90
     1024
 91
        0
280
     0
281
     0
  0
CLASS
  1
ACMBOMROW
  2
AcmBomRow
  3
"AcmSymBB|Product Description: AutoCAD Mechanical|Company: Autodesk, Inc."
 90
     1024
 91
        0
280
     0
281
     0
  0
CLASS
  1
ACMPARTLIST
  2
AcmPartList
  3
"AcmSymBB|Product Description: AutoCAD Mechanical|Company: Autodesk, Inc."
 90
     4095
 91
        0
280
     0
281
     1
  0
CLASS
  1
ACDBLINERES
  2
AcDbLineRes
  3
AcGrefServices
 90
     1024
 91
        0
280
     0
281
     0
  0
CLASS
  1
ACRFINSADJ
  2
AcRfInsAdjuster
  3
AcMeServices
 90
     1024
 91
        0
280
     0
281
     0
  0
CLASS
  1
ACMSTANDARDISO
  2
AcmStandardISO
  3
"Amdt_StdImp|Product Description: AutoCAD Mechanical|Company: Autodesk, Inc."
 90
     1024
 91
        1
280
     0
281
     0
  0
CLASS
  1
AMDTEDGESTANDARDISO13715
  2
AmdtEdgeStdISO13715
  3
"Amdt_StdImp|Product Description: AutoCAD Mechanical|Company: Autodesk, Inc."
 90
     1024
 91
        1
280
     0
281
     0
  0
CLASS
  1
ACMSURFSTANDARDISO2002
  2
AcmSurfTextStdISO2002
  3
"Amdt_StdImp|Product Description: AutoCAD Mechanical|Company: Autodesk, Inc."
 90
     1024
 91
        1
280
     0
281
     0
  0
CLASS
  1
ACMFCFSTANDARDISO
  2
AcmFCFStdISO
  3
"Amdt_StdImp|Product Description: AutoCAD Mechanical|Company: Autodesk, Inc."
 90
     1024
 91
        1
280
     0
281
     0
  0
CLASS
  1
ACMWELDSTANDARDISO
  2
AcmWeldingStdISO
  3
"Amdt_StdImp|Product Description: AutoCAD Mechanical|Company: Autodesk, Inc."
 90
     1024
 91
        1
280
     0
281
     0
  0
CLASS
  1
ACMIDSTANDARDISO
  2
AcmIdStdISO
  3
"Amdt_StdImp|Product Description: AutoCAD Mechanical|Company: Autodesk, Inc."
 90
     1024
 91
        1
280
     0
281
     0
  0
CLASS
  1
ACMDATUMSTANDARDISO
  2
AcmDatumStdISO
  3
"Amdt_StdImp|Product Description: AutoCAD Mechanical|Company: Autodesk, Inc."
 90
     1024
 91
        1
280
     0
281
     0
  0
CLASS
  1
ACMBOMSTANDARDISO
  2
AcmBOMStdISO
  3
"Amdt_StdImp|Product Description: AutoCAD Mechanical|Company: Autodesk, Inc."
 90
     1024
 91
        1
280
     0
281
     0
  0
CLASS
  1
ACMDETAILSTANDARDISO
  2
AmdtDetailSymStdISO
  3
"Amdt_StdImp|Product Description: AutoCAD Mechanical|Company: Autodesk, Inc."
 90
     1024
 91
        1
280
     0
281
     0
  0
CLASS
  1
ACMSECTIONSTANDARDISO2001
  2
AmdtSectionSymStdISO2001
  3
"Amdt_StdImp|Product Description: AutoCAD Mechanical|Company: Autodesk, Inc."
 90
     1024
 91
        1
280
     0
281
     0
  0
CLASS
  1
ACMCENTERLINESTANDARDISO
  2
AmdtCenterLineStdISO
  3
"Amdt_StdImp|Product Description: AutoCAD Mechanical|Company: Autodesk, Inc."
 90
     1024
 91
        1
280
     0
281
     0
  0
CLASS
  1
ACMTHREADLINESTANDARDISO
  2
AmdtThreadLineStdISO
  3
"Amdt_StdImp|Product Description: AutoCAD Mechanical|Company: Autodesk, Inc."
 90
     1024
 91
        1
280
     0
281
     0
  0
CLASS
  1
ACMNOTESTANDARDISO
  2
AmdtNoteStdISO
  3
"Amdt_StdImp|Product Description: AutoCAD Mechanical|Company: Autodesk, Inc."
 90
     1024
 91
        1
280
     0
281
     0
  0
CLASS
  1
ACMTAPERSTANDARDISO
  2
AcmTaperStdISO
  3
"Amdt_StdImp|Product Description: AutoCAD Mechanical|Company: Autodesk, Inc."
 90
     1024
 91
        1
280
     0
281
     0
  0
CLASS
  1
ACMANOOTATIONVIEWSTANDARDISO
  2
AmdtAnViewStdISO
  3
"Amdt_StdImp|Product Description: AutoCAD Mechanical|Company: Autodesk, Inc."
 90
     1024
 91
        1
280
     0
281
     0
  0
CLASS
  1
ACAMGHOLECHARTSTDISO
  2
AcAmgHoleChartStdISO
  3
AmgDim|Product Description: AutoCAD Mechanical|Company: Autodesk, Inc.
 90
     1024
 91
        1
280
     0
281
     0
  0
CLASS
  1
EXACXREFPANELOBJECT
  2
ExAcXREFPanelObject
  3
EXAC_ESW
 90
     1025
 91
        0
280
     0
281
     0
  0
CLASS
  1
NPOCOLLECTION
  2
AcDbImpNonPersistentObjectsCollection
  3
ObjectDBX Classes
 90
     1153
 91
        0
280
     0
281
     0
  0
CLASS
  1
ACDBSTDPARTRES_ARC
  2
AcDbStdPartRes_Arc
  3
AmgStdPart|Product Description: AutoCAD Mechanical|Company: Autodesk, Inc.
 90
     1024
 91
        0
280
     0
281
     0
  0
CLASS
  1
AMDTNOTE
  2
AmdtNote
  3
"AcmSymBB|Product Description: AutoCAD Mechanical|Company: Autodesk, Inc."
 90
     4095
 91
        0
280
     0
281
     1
  0
CLASS
  1
PLOTSETTINGS
  2
AcDbPlotSettings
  3
ObjectDBX Classes
 90
        0
 91
        1
280
     0
281
     0
  0
CLASS
  1
ACMSTANDARDANSI
  2
AcmStandardANSI
  3
"Amdt_StdImp|Product Description: AutoCAD Mechanical|Company: Autodesk, Inc."
 90
     1024
 91
        0
280
     0
281
     0
  0
CLASS
  1
ACMSURFSTANDARDANSI
  2
AcmSurfTextStdANSI
  3
"Amdt_StdImp|Product Description: AutoCAD Mechanical|Company: Autodesk, Inc."
 90
     1024
 91
        0
280
     0
281
     0
  0
CLASS
  1
ACMFCFSTANDARDANSI
  2
AcmFCFStdANSI
  3
"Amdt_StdImp|Product Description: AutoCAD Mechanical|Company: Autodesk, Inc."
 90
     1024
 91
        0
280
     0
281
     0
  0
CLASS
  1
ACMWELDSTANDARDANSI
  2
AcmWeldingStdANSI
  3
"Amdt_StdImp|Product Description: AutoCAD Mechanical|Company: Autodesk, Inc."
 90
     1024
 91
        0
280
     0
281
     0
  0
CLASS
  1
ACMIDSTANDARDANSI
  2
AcmIdStdANSI
  3
"Amdt_StdImp|Product Description: AutoCAD Mechanical|Company: Autodesk, Inc."
 90
     1024
 91
        0
280
     0
281
     0
  0
CLASS
  1
ACMDATUMSTANDARDANSI
  2
AcmDatumStdANSI
  3
"Amdt_StdImp|Product Description: AutoCAD Mechanical|Company: Autodesk, Inc."
 90
     1024
 91
        0
280
     0
281
     0
  0
CLASS
  1
ACMBOMSTANDARDANSI
  2
AcmBOMStdANSI
  3
"Amdt_StdImp|Product Description: AutoCAD Mechanical|Company: Autodesk, Inc."
 90
     1024
 91
        0
280
     0
281
     0
  0
CLASS
  1
ACMDETAILSTANDARDANSI
  2
AmdtDetailSymStdANSI
  3
"Amdt_StdImp|Product Description: AutoCAD Mechanical|Company: Autodesk, Inc."
 90
     1024
 91
        0
280
     0
281
     0
  0
CLASS
  1
ACMSECTIONSTANDARDANSI
  2
AmdtSectionSymStdANSI
  3
"Amdt_StdImp|Product Description: AutoCAD Mechanical|Company: Autodesk, Inc."
 90
     1024
 91
        0
280
     0
281
     0
  0
CLASS
  1
ACMCENTERLINESTANDARDANSI
  2
AmdtCenterLineStdANSI
  3
"Amdt_StdImp|Product Description: AutoCAD Mechanical|Company: Autodesk, Inc."
 90
     1024
 91
        0
280
     0
281
     0
  0
CLASS
  1
ACMTHREADLINESTANDARDANSI
  2
AmdtThreadLineStdANSI
  3
"Amdt_StdImp|Product Description: AutoCAD Mechanical|Company: Autodesk, Inc."
 90
     1024
 91
        0
280
     0
281
     0
  0
CLASS
  1
ACMNOTESTANDARDANSI
  2
AmdtNoteStdANSI
  3
"Amdt_StdImp|Product Description: AutoCAD Mechanical|Company: Autodesk, Inc."
 90
     1024
 91
        0
280
     0
281
     0
  0
CLASS
  1
ACMTAPERSTANDARDANSI
  2
AcmTaperStdANSI
  3
"Amdt_StdImp|Product Description: AutoCAD Mechanical|Company: Autodesk, Inc."
 90
     1024
 91
        0
280
     0
281
     0
  0
CLASS
  1
ACMANOOTATIONVIEWSTANDARDANSI
  2
AmdtAnViewStdANSI
  3
"Amdt_StdImp|Product Description: AutoCAD Mechanical|Company: Autodesk, Inc."
 90
     1024
 91
        0
280
     0
281
     0
  0
CLASS
  1
ACAMGHOLECHARTSTDANSI
  2
AcAmgHoleChartStdANSI
  3
AmgDim|Product Description: AutoCAD Mechanical|Company: Autodesk, Inc.
 90
     1024
 91
        0
280
     0
281
     0
  0
CLASS
  1
ACMSTANDARDBSI
  2
AcmStandardBSI
  3
"Amdt_StdImp|Product Description: AutoCAD Mechanical|Company: Autodesk, Inc."
 90
     1024
 91
        0
280
     0
281
     0
  0
CLASS
  1
ACMSURFSTANDARDBSI2002
  2
AcmSurfTextStdBSI2002
  3
"Amdt_StdImp|Product Description: AutoCAD Mechanical|Company: Autodesk, Inc."
 90
     1024
 91
        0
280
     0
281
     0
  0
CLASS
  1
ACMFCFSTANDARDBSI
  2
AcmFCFStdBSI
  3
"Amdt_StdImp|Product Description: AutoCAD Mechanical|Company: Autodesk, Inc."
 90
     1024
 91
        0
280
     0
281
     0
  0
CLASS
  1
ACMWELDSTANDARDBSI
  2
AcmWeldingStdBSI
  3
"Amdt_StdImp|Product Description: AutoCAD Mechanical|Company: Autodesk, Inc."
 90
     1024
 91
        0
280
     0
281
     0
  0
CLASS
  1
ACMIDSTANDARDBSI
  2
AcmIdStdBSI
  3
"Amdt_StdImp|Product Description: AutoCAD Mechanical|Company: Autodesk, Inc."
 90
     1024
 91
        0
280
     0
281
     0
  0
CLASS
  1
ACMDATUMSTANDARDBSI
  2
AcmDatumStdBSI
  3
"Amdt_StdImp|Product Description: AutoCAD Mechanical|Company: Autodesk, Inc."
 90
     1024
 91
        0
280
     0
281
     0
  0
CLASS
  1
ACMBOMSTANDARDBSI
  2
AcmBOMStdBSI
  3
"Amdt_StdImp|Product Description: AutoCAD Mechanical|Company: Autodesk, Inc."
 90
     1024
 91
        0
280
     0
281
     0
  0
CLASS
  1
ACMDETAILSTANDARDBSI
  2
AmdtDetailSymStdBSI
  3
"Amdt_StdImp|Product Description: AutoCAD Mechanical|Company: Autodesk, Inc."
 90
     1024
 91
        0
280
     0
281
     0
  0
CLASS
  1
ACMSECTIONSTANDARDBSI2001
  2
AmdtSectionSymStdBSI2001
  3
"Amdt_StdImp|Product Description: AutoCAD Mechanical|Company: Autodesk, Inc."
 90
     1024
 91
        0
280
     0
281
     0
  0
CLASS
  1
ACMCENTERLINESTANDARDBSI
  2
AmdtCenterLineStdBSI
  3
"Amdt_StdImp|Product Description: AutoCAD Mechanical|Company: Autodesk, Inc."
 90
     1024
 91
        0
280
     0
281
     0
  0
CLASS
  1
ACMTHREADLINESTANDARDBSI
  2
AmdtThreadLineStdBSI
  3
"Amdt_StdImp|Product Description: AutoCAD Mechanical|Company: Autodesk, Inc."
 90
     1024
 91
        0
280
     0
281
     0
  0
CLASS
  1
ACMNOTESTANDARDBSI
  2
AmdtNoteStdBSI
  3
"Amdt_StdImp|Product Description: AutoCAD Mechanical|Company: Autodesk, Inc."
 90
     1024
 91
        0
280
     0
281
     0
  0
CLASS
  1
ACMTAPERSTANDARDBSI
  2
AcmTaperStdBSI
  3
"Amdt_StdImp|Product Description: AutoCAD Mechanical|Company: Autodesk, Inc."
 90
     1024
 91
        0
280
     0
281
     0
  0
CLASS
  1
ACMANOOTATIONVIEWSTANDARDBSI
  2
AmdtAnViewStdBSI
  3
"Amdt_StdImp|Product Description: AutoCAD Mechanical|Company: Autodesk, Inc."
 90
     1024
 91
        0
280
     0
281
     0
  0
CLASS
  1
ACAMGHOLECHARTSTDBSI
  2
AcAmgHoleChartStdBSI
  3
AmgDim|Product Description: AutoCAD Mechanical|Company: Autodesk, Inc.
 90
     1024
 91
        0
280
     0
281
     0
  0
CLASS
  1
AMDTEDGESTANDARDJIS
  2
AmdtEdgeStdJIS
  3
"Amdt_StdImp|Product Description: AutoCAD Mechanical|Company: Autodesk, Inc."
 90
     1024
 91
        0
280
     0
281
     0
  0
CLASS
  1
ACDB_BLKREFOBJECTCONTEXTDATA_CLASS
  2
AcDbBlkRefObjectContextData
  3
ObjectDBX Classes
 90
     1153
 91
        0
280
     0
281
     0
  0
CLASS
  1
ACMSURFSYM
  2
AcmSurfaceTexture
  3
"AcmSymBB|Product Description: AutoCAD Mechanical|Company: Autodesk, Inc."
 90
     4095
 91
        0
280
     0
281
     1
  0
CLASS
  1
ACDBDIMENSIONRES
  2
AcDbDimensionRes
  3
AcmSymBB|Product Description: AutoCAD Mechanical|Company: Autodesk, Inc.
 90
     1024
 91
        0
280
     0
281
     0
  0
CLASS
  1
ACDBCIRCARCRES
  2
AcDbCircArcRes
  3
AcGrefServices
 90
     1024
 91
        0
280
     0
281
     0
  0
CLASS
  1
AMDTACMWBLOCKBOMENTITY
  2
AmdtAcmWblockBomEntity
  3
"AcmSymBB|Product Description: AutoCAD Mechanical|Company: Autodesk, Inc."
 90
     4095
 91
        0
280
     0
281
     1
  0
CLASS
  1
ACDBOPPOLYLINERES
  2
AcDbOpPolylineRes
  3
AcGrefServices
 90
     1024
 91
        0
280
     0
281
     0
  0
CLASS
  1
ACMPICKOBJ
  2
AcmPickEnt
  3
"AcmSymBB|Product Description: AutoCAD Mechanical|Company: Autodesk, Inc."
 90
     1024
 91
        0
280
     0
281
     1
  0
CLASS
  1
ACDBELLIPSERES
  2
AcDbEllipseRes
  3
AcGrefServices
 90
     1024
 91
        0
280
     0
281
     0
  0
CLASS
  1
ACMBALLOON
  2
AcmBalloon
  3
"AcmSymBB|Product Description: AutoCAD Mechanical|Company: Autodesk, Inc."
 90
     4095
 91
        0
280
     0
281
     1
  0
ENDSEC
  0
SECTION
  2
TABLES
  0
TABLE
  2
VPORT
  5
8
330
0
100
AcDbSymbolTable
 70
     1
  0
VPORT
  5
27A
330
8
100
AcDbSymbolTableRecord
100
AcDbViewportTableRecord
  2
*Active
 70
     0
 10
0.0
 20
0.0
 11
1.0
 21
1.0
 12
2417.947400292064
 22
1987.583324182256
 13
0.0
 23
0.0
 14
25.0
 24
25.0
 15
100.0
 25
100.0
 16
0.0
 26
0.0
 36
1.0
 17
0.0
 27
0.0
 37
0.0
 40
1376.640325160533
 41
1.571428571428571
 42
50.0
 43
0.0
 44
0.0
 50
0.0
 51
0.0
 71
    16
 72
 20000
 73
     1
 74
     3
 75
     0
 76
     0
 77
     0
 78
     0
281
     0
 65
     0
110
0.0
120
0.0
130
0.0
111
1.0
121
0.0
131
0.0
112
0.0
122
1.0
132
0.0
 79
     0
146
0.0
348
285
 60
     3
 61
     5
292
     1
282
     0
141
0.0
142
0.0
 63
   250
421
  3355443
  0
ENDTAB
  0
TABLE
  2
LTYPE
  5
5
330
0
100
AcDbSymbolTable
 70
    22
  0
LTYPE
  5
14
330
5
100
AcDbSymbolTableRecord
100
AcDbLinetypeTableRecord
  2
ByBlock
 70
     0
  3

 72
    65
 73
     0
 40
0.0
  0
LTYPE
  5
15
330
5
100
AcDbSymbolTableRecord
100
AcDbLinetypeTableRecord
  2
ByLayer
 70
     0
  3

 72
    65
 73
     0
 40
0.0
  0
LTYPE
  5
16
330
5
100
AcDbSymbolTableRecord
100
AcDbLinetypeTableRecord
  2
Continuous
 70
     0
  3
Solid line
 72
    65
 73
     0
 40
0.0
  0
LTYPE
  5
4D
330
5
100
AcDbSymbolTableRecord
100
AcDbLinetypeTableRecord
  2
AM_ISO02W050
 70
     0
  3
__ __ __ __ __ __ __ __ __ __ __ __ __ __ __
 72
    65
 73
     2
 40
7.5
 49
6.0
 74
     0
 49
-1.5
 74
     0
  0
LTYPE
  5
4E
330
5
100
AcDbSymbolTableRecord
100
AcDbLinetypeTableRecord
  2
AM_ISO08W050
 70
     0
  3
____ . ____ . ____ . ____ . ____ . ____ . ____
 72
    65
 73
     4
 40
18.0
 49
12.0
 74
     0
 49
-1.5
 74
     0
 49
3.0
 74
     0
 49
-1.5
 74
     0
  0
LTYPE
  5
4F
330
5
100
AcDbSymbolTableRecord
100
AcDbLinetypeTableRecord
  2
AM_ISO09W050
 70
     0
  3
_____ . . _____ . . _____ . . ____ .. ____
 72
    65
 73
     6
 40
22.5
 49
12.0
 74
     0
 49
-1.5
 74
     0
 49
3.0
 74
     0
 49
-1.5
 74
     0
 49
3.0
 74
     0
 49
-1.5
 74
     0
  0
LTYPE
  5
50
330
5
100
AcDbSymbolTableRecord
100
AcDbLinetypeTableRecord
  2
Amconstr
 70
     0
  3
_______________________
 72
    65
 73
     2
 40
9999.0
 49
9999.0
 74
     0
 49
0.0
 74
     0
  0
LTYPE
  5
51
330
5
100
AcDbSymbolTableRecord
100
AcDbLinetypeTableRecord
  2
AM_ISO08W050x2
 70
     0
  3
__ . __ . __ . __ . __ . __
 72
    65
 73
     4
 40
9.0
 49
6.0
 74
     0
 49
-0.75
 74
     0
 49
1.5
 74
     0
 49
-0.75
 74
     0
  0
LTYPE
  5
52
330
5
100
AcDbSymbolTableRecord
100
AcDbLinetypeTableRecord
  2
AM_ISO02W050x2
 70
     0
  3
 _ _ _ _ _ _ _ _ _ _ _ _
 72
    65
 73
     2
 40
3.75
 49
3.0
 74
     0
 49
-0.75
 74
     0
  0
LTYPE
  5
55
330
5
100
AcDbSymbolTableRecord
100
AcDbLinetypeTableRecord
  2
Amzigzag
 70
     0
  3
/\/-/\/-/\/-/\/-/\/-/\/
 72
    65
 73
     2
 40
11.0001
 49
0.0001
 74
     4
 75
   136
340
23D
 46
0.04
 50
0.0
 44
0.0
 45
0.0
 49
-11.0
 74
     0
  0
LTYPE
  5
65
330
5
100
AcDbSymbolTableRecord
100
AcDbLinetypeTableRecord
  2
CENTER
 70
     0
  3
__ . __
 72
    65
 73
     4
 40
7.0
 49
4.0
 74
     0
 49
-1.0
 74
     0
 49
1.0
 74
     0
 49
-1.0
 74
     0
  0
LTYPE
  5
E0
330
5
100
AcDbSymbolTableRecord
100
AcDbLinetypeTableRecord
  2
HIDDEN
 70
     0
  3
Hidden __ __ __ __ __ __ __ __ __ __ __ __ __ _
 72
    65
 73
     2
 40
9.524999999999996
 49
6.349999999999997
 74
     0
 49
-3.174999999999998
 74
     0
  0
LTYPE
  5
E1
330
5
100
AcDbSymbolTableRecord
100
AcDbLinetypeTableRecord
  2
PHANTOM2
 70
     0
  3
Phantom (.5x) ___ _ _ ___ _ _ ___ _ _ ___ _ _
 72
    65
 73
     6
 40
31.75
 49
15.875
 74
     0
 49
-3.174999999999998
 74
     0
 49
3.174999999999998
 74
     0
 49
-3.174999999999998
 74
     0
 49
3.174999999999998
 74
     0
 49
-3.174999999999998
 74
     0
  0
LTYPE
  5
5A2
330
5
100
AcDbSymbolTableRecord
100
AcDbLinetypeTableRecord
  2
ACJISWELD
 70
     0
  3
_ _ _ _ _
 72
    65
 73
     2
 40
2.0
 49
2.0
 74
     0
 49
-1.0
 74
     0
  0
LTYPE
  5
75E9
330
5
100
AcDbSymbolTableRecord
100
AcDbLinetypeTableRecord
  2
ACISOWELD
 70
     0
  3
_ _ _ _ _
 72
    65
 73
     2
 40
2.0
 49
2.0
 74
     0
 49
-1.0
 74
     0
  0
LTYPE
  5
75EA
330
5
100
AcDbSymbolTableRecord
100
AcDbLinetypeTableRecord
  2
ACISOTGB
 70
     0
  3
__ . . __ . .
 72
    65
 73
     6
 40
9.0
 49
4.0
 74
     0
 49
-1.0
 74
     0
 49
1.0
 74
     0
 49
-1.0
 74
     0
 49
1.0
 74
     0
 49
-1.0
 74
     0
  0
LTYPE
  5
75EB
330
5
100
AcDbSymbolTableRecord
100
AcDbLinetypeTableRecord
  2
ACISOTGL
 70
     0
  3
_ _ _ _ _
 72
    65
 73
     2
 40
3.0
 49
2.0
 74
     0
 49
-1.0
 74
     0
  0
ENDTAB
  0
TABLE
  2
LAYER
  5
2
102
{ACAD_XDICTIONARY
360
BF
102
}
330
0
100
AcDbSymbolTable
 70
    11
  0
LAYER
  5
10
102
{ACAD_XDICTIONARY
360
29F7
102
}
330
2
100
AcDbSymbolTableRecord
100
AcDbLayerTableRecord
  2
0
 70
     0
 62
     7
  6
Continuous
370
    -3
390
F
347
27E
  0
LAYER
  5
81
102
{ACAD_XDICTIONARY
360
29F9
102
}
330
2
100
AcDbSymbolTableRecord
100
AcDbLayerTableRecord
  2
AM_0 外形線1
 70
     0
 62
     7
  6
Continuous
370
    25
390
F
347
27E
  0
LAYER
  5
427
330
2
100
AcDbSymbolTableRecord
100
AcDbLayerTableRecord
  2
Defpoints
 70
     0
 62
     7
  6
Continuous
290
     0
370
    -3
390
F
347
27E
  0
LAYER
  5
3D5C
330
2
100
AcDbSymbolTableRecord
100
AcDbLayerTableRecord
  2
AM_5 寸法線
 70
     0
 62
     3
  6
Continuous
370
    13
390
F
347
27E
1001
AcAecLayerStandard
1000

1000

  0
LAYER
  5
3D5D
330
2
100
AcDbSymbolTableRecord
100
AcDbLayerTableRecord
  2
AM_4 細線
 70
     0
 62
     4
  6
Continuous
370
    13
390
F
347
27E
1001
AcAecLayerStandard
1000

1000

  0
LAYER
  5
3D5E
330
2
100
AcDbSymbolTableRecord
100
AcDbLayerTableRecord
  2
AM_7 中心線
 70
     0
 62
     1
  6
AM_ISO08W050
370
    13
390
F
347
27E
1001
AcAecLayerStandard
1000

1000

  0
LAYER
  5
3D5F
330
2
100
AcDbSymbolTableRecord
100
AcDbLayerTableRecord
  2
AM_3 隠れ線
 70
     0
 62
     8
  6
ACJISWELD
370
    13
390
F
347
27E
1001
AcAecLayerStandard
1000

1000

  0
LAYER
  5
3D62
330
2
100
AcDbSymbolTableRecord
100
AcDbLayerTableRecord
  2
AM_6 文字
 70
     0
 62
     2
  6
Continuous
370
    13
390
F
347
27E
1001
AcAecLayerStandard
1000

1000

  0
ENDTAB
  0
TABLE
  2
STYLE
  5
3
330
0
100
AcDbSymbolTable
 70
    10
  0
STYLE
  5
11
330
3
100
AcDbSymbolTableRecord
100
AcDbTextStyleTableRecord
  2
STANDARD
 70
     0
 40
0.0
 41
1.0
 50
0.0
 71
     0
 42
25.0
  3
ISOCP.SHX
  4
EXTFONT.SHX
  0
STYLE
  5
23D
330
3
100
AcDbSymbolTableRecord
100
AcDbTextStyleTableRecord
  2

 70
     1
 40
0.0
 41
1.0
 50
0.0
 71
     0
 42
2.5
  3
genltshp.shx
  4

  0
STYLE
  5
5D5
330
3
100
AcDbSymbolTableRecord
100
AcDbTextStyleTableRecord
  2
SEISA
 70
     0
 40
0.0
 41
0.9
 50
0.0
 71
     0
 42
25.0
  3
romans.shx
  4
extfont2.shx
  0
STYLE
  5
75D9
330
3
100
AcDbSymbolTableRecord
100
AcDbTextStyleTableRecord
  2
ACISOTS
 70
     0
 40
1.0
 41
1.0
 50
0.0
 71
     0
 42
25.0
  3
isocp.shx
  4
extfont.shx
  0
STYLE
  5
75E8
330
3
100
AcDbSymbolTableRecord
100
AcDbTextStyleTableRecord
  2
ACISOGDT
 70
     0
 40
0.0
 41
1.0
 50
0.0
 71
     0
 42
25.0
  3
amgdt.shx
  4

  0
ENDTAB
  0
TABLE
  2
VIEW
  5
6
330
0
100
AcDbSymbolTable
 70
     6
  0
VIEW
  5
91B
330
6
100
AcDbSymbolTableRecord
100
AcDbViewTableRecord
  2
AM_VIEW1
 70
     0
 40
1485.0
 10
1435.621923096604
 20
2227.500003693821
 41
2871.243842364532
 11
0.0
 21
0.0
 31
1.0
 12
0.0
 22
0.0
 32
0.0
 42
50.0
 43
0.0
 44
0.0
 50
0.0
 71
    16
281
     0
 72
     0
 73
     0
  0
VIEW
  5
91C
330
6
100
AcDbSymbolTableRecord
100
AcDbViewTableRecord
  2
AM_VIEW2
 70
     0
 40
1485.0
 10
2764.378080732073
 20
2227.500003693821
 41
2871.243842364532
 11
0.0
 21
0.0
 31
1.0
 12
0.0
 22
0.0
 32
0.0
 42
50.0
 43
0.0
 44
0.0
 50
0.0
 71
    16
281
     0
 72
     0
 73
     0
  0
VIEW
  5
91D
330
6
100
AcDbSymbolTableRecord
100
AcDbViewTableRecord
  2
AM_VIEW3
 70
     0
 40
1485.0
 10
1435.621923096604
 20
742.5000036938206
 41
2871.243842364532
 11
0.0
 21
0.0
 31
1.0
 12
0.0
 22
0.0
 32
0.0
 42
50.0
 43
0.0
 44
0.0
 50
0.0
 71
    16
281
     0
 72
     0
 73
     0
  0
VIEW
  5
91E
330
6
100
AcDbSymbolTableRecord
100
AcDbViewTableRecord
  2
AM_VIEW4
 70
     0
 40
1485.0
 10
2764.378080732073
 20
742.5000036938206
 41
2871.243842364532
 11
0.0
 21
0.0
 31
1.0
 12
0.0
 22
0.0
 32
0.0
 42
50.0
 43
0.0
 44
0.0
 50
0.0
 71
    16
281
     0
 72
     0
 73
     0
  0
VIEW
  5
91F
330
6
100
AcDbSymbolTableRecord
100
AcDbViewTableRecord
  2
AM_VIEW5
 70
     0
 40
1485.0
 10
2100.000001914338
 20
1485.000003693821
 41
2871.243842364532
 11
0.0
 21
0.0
 31
1.0
 12
0.0
 22
0.0
 32
0.0
 42
50.0
 43
0.0
 44
0.0
 50
0.0
 71
    16
281
     0
 72
     0
 73
     0
  0
VIEW
  5
920
330
6
100
AcDbSymbolTableRecord
100
AcDbViewTableRecord
  2
AM_VIEW6
 70
     0
 40
2969.9703
 10
2100.000001914338
 20
1485.00000369382
 41
5742.430259852215
 11
0.0
 21
0.0
 31
1.0
 12
0.0
 22
0.0
 32
0.0
 42
50.0
 43
0.0
 44
0.0
 50
0.0
 71
    16
281
     0
 72
     0
 73
     0
  0
ENDTAB
  0
TABLE
  2
UCS
  5
7
330
0
100
AcDbSymbolTable
 70
     0
  0
ENDTAB
  0
TABLE
  2
APPID
  5
9
330
0
100
AcDbSymbolTable
 70
   396
  0
APPID
  5
12
330
9
100
AcDbSymbolTableRecord
100
AcDbRegAppTableRecord
  2
ACAD
 70
     0
  0
APPID
  5
30
330
9
100
AcDbSymbolTableRecord
100
AcDbRegAppTableRecord
  2
MCAD_NO_VIS
 70
     0
  0
APPID
  5
31
330
9
100
AcDbSymbolTableRecord
100
AcDbRegAppTableRecord
  2
ACAD_TEMP_GRAPHIC
 70
     0
  0
APPID
  5
44
330
9
100
AcDbSymbolTableRecord
100
AcDbRegAppTableRecord
  2
ACATTRIBSERVICES
 70
     0
  0
APPID
  5
F6
330
9
100
AcDbSymbolTableRecord
100
AcDbRegAppTableRecord
  2
AD_DRAW
 70
     0
  0
APPID
  5
114
330
9
100
AcDbSymbolTableRecord
100
AcDbRegAppTableRecord
  2
DESIGNERASSEMBLIES
 70
     0
  0
APPID
  5
118
330
9
100
AcDbSymbolTableRecord
100
AcDbRegAppTableRecord
  2
ACADM_DIM_EDIT
 70
     0
  0
APPID
  5
119
330
9
100
AcDbSymbolTableRecord
100
AcDbRegAppTableRecord
  2
AMDT_DM_ADJ
 70
     0
  0
APPID
  5
1AF
330
9
100
AcDbSymbolTableRecord
100
AcDbRegAppTableRecord
  2
ACAD_DSTYLE_DIMARC_LENGTH_SYMBOL
 70
     0
  0
APPID
  5
1B0
330
9
100
AcDbSymbolTableRecord
100
AcDbRegAppTableRecord
  2
ACAD_DSTYLE_DIMJOGGED_JOGANGLE_SYMBOL
 70
     0
  0
APPID
  5
2D7
330
9
100
AcDbSymbolTableRecord
100
AcDbRegAppTableRecord
  2
ACAD_MLEADERVER
 70
     0
  0
APPID
  5
355
330
9
100
AcDbSymbolTableRecord
100
AcDbRegAppTableRecord
  2
AcadAnnoPO
 70
     0
  0
APPID
  5
428
330
9
100
AcDbSymbolTableRecord
100
AcDbRegAppTableRecord
  2
ACAD_DSTYLE_DIMTEXT_FILL
 70
     0
  0
APPID
  5
429
330
9
100
AcDbSymbolTableRecord
100
AcDbRegAppTableRecord
  2
GENIUS_GENSCREG_15
 70
     0
  0
APPID
  5
42A
330
9
100
AcDbSymbolTableRecord
100
AcDbRegAppTableRecord
  2
GENIUS_GENOBJ-N-SDF_13
 70
     0
  0
APPID
  5
42B
330
9
100
AcDbSymbolTableRecord
100
AcDbRegAppTableRecord
  2
GENIUS_GENODEF_13
 70
     0
  0
APPID
  5
42C
330
9
100
AcDbSymbolTableRecord
100
AcDbRegAppTableRecord
  2
ACAD_EXEMPT_FROM_CAD_STANDARDS
 70
     0
  0
APPID
  5
42D
330
9
100
AcDbSymbolTableRecord
100
AcDbRegAppTableRecord
  2
AcAecLayerStandard
 70
     0
  0
APPID
  5
42E
330
9
100
AcDbSymbolTableRecord
100
AcDbRegAppTableRecord
  2
GENIUS_GENOBJ-N-CEN_13
 70
     0
  0
APPID
  5
42F
330
9
100
AcDbSymbolTableRecord
100
AcDbRegAppTableRecord
  2
GENIUS_GENCEN_19
 70
     0
  0
APPID
  5
430
330
9
100
AcDbSymbolTableRecord
100
AcDbRegAppTableRecord
  2
ACAD_DSTYLE_DIMINSPECT
 70
     0
  0
APPID
  5
431
330
9
100
AcDbSymbolTableRecord
100
AcDbRegAppTableRecord
  2
GENIUS_AMGTXT_16
 70
     0
  0
APPID
  5
432
330
9
100
AcDbSymbolTableRecord
100
AcDbRegAppTableRecord
  2
GENIUS_GENFIL_13
 70
     0
  0
APPID
  5
433
330
9
100
AcDbSymbolTableRecord
100
AcDbRegAppTableRecord
  2
GENIUS_GENOLIS_13
 70
     0
  0
APPID
  5
434
330
9
100
AcDbSymbolTableRecord
100
AcDbRegAppTableRecord
  2
GENIUS_GENOBJ-N-CHA_13
 70
     0
  0
APPID
  5
435
330
9
100
AcDbSymbolTableRecord
100
AcDbRegAppTableRecord
  2
GENIUS_GENOENT_13
 70
     0
  0
APPID
  5
436
330
9
100
AcDbSymbolTableRecord
100
AcDbRegAppTableRecord
  2
GENIUS_GENOREF_13
 70
     0
  0
APPID
  5
437
330
9
100
AcDbSymbolTableRecord
100
AcDbRegAppTableRecord
  2
GENIUS_GENOBJ-N-FIL_13
 70
     0
  0
APPID
  5
438
330
9
100
AcDbSymbolTableRecord
100
AcDbRegAppTableRecord
  2
GEVID1208829536
 70
     0
  0
APPID
  5
439
330
9
100
AcDbSymbolTableRecord
100
AcDbRegAppTableRecord
  2
GEVDC
 70
     0
  0
APPID
  5
43A
330
9
100
AcDbSymbolTableRecord
100
AcDbRegAppTableRecord
  2
GEVRADREF
 70
     0
  0
APPID
  5
43B
330
9
100
AcDbSymbolTableRecord
100
AcDbRegAppTableRecord
  2
GENIUS_GENBH_13
 70
     0
  0
APPID
  5
43C
330
9
100
AcDbSymbolTableRecord
100
AcDbRegAppTableRecord
  2
GENIUS_GENOBJ-NBEHI-BHF_13
 70
     0
  0
APPID
  5
43D
330
9
100
AcDbSymbolTableRecord
100
AcDbRegAppTableRecord
  2
GENIUS_GENOBJ-NBEHI-BHB_13
 70
     0
  0
APPID
  5
43E
330
9
100
AcDbSymbolTableRecord
100
AcDbRegAppTableRecord
  2
GEVID1208829537
 70
     0
  0
APPID
  5
43F
330
9
100
AcDbSymbolTableRecord
100
AcDbRegAppTableRecord
  2
ACAD_DSTYLE_DIMJAG
 70
     0
  0
APPID
  5
440
330
9
100
AcDbSymbolTableRecord
100
AcDbRegAppTableRecord
  2
ACAD_DSTYLE_DIMTALN
 70
     0
  0
APPID
  5
441
330
9
100
AcDbSymbolTableRecord
100
AcDbRegAppTableRecord
  2
AMG_2DHIDE
 70
     0
  0
APPID
  5
442
330
9
100
AcDbSymbolTableRecord
100
AcDbRegAppTableRecord
  2
AMG_2DSTRUCT_BTR
 70
     0
  0
APPID
  5
443
330
9
100
AcDbSymbolTableRecord
100
AcDbRegAppTableRecord
  2
GEVID1208845772
 70
     0
  0
APPID
  5
444
330
9
100
AcDbSymbolTableRecord
100
AcDbRegAppTableRecord
  2
GEVID1208845773
 70
     0
  0
APPID
  5
445
330
9
100
AcDbSymbolTableRecord
100
AcDbRegAppTableRecord
  2
ACADM_2DVIEW_IGN_NOTIFY
 70
     0
  0
APPID
  5
446
330
9
100
AcDbSymbolTableRecord
100
AcDbRegAppTableRecord
  2
GEVID1208845774
 70
     0
  0
APPID
  5
447
330
9
100
AcDbSymbolTableRecord
100
AcDbRegAppTableRecord
  2
GEVID1208845775
 70
     0
  0
APPID
  5
448
330
9
100
AcDbSymbolTableRecord
100
AcDbRegAppTableRecord
  2
GEVID1208845776
 70
     0
  0
APPID
  5
449
330
9
100
AcDbSymbolTableRecord
100
AcDbRegAppTableRecord
  2
GEVID1208845777
 70
     0
  0
APPID
  5
44A
330
9
100
AcDbSymbolTableRecord
100
AcDbRegAppTableRecord
  2
GEVCON
 70
     0
  0
APPID
  5
44B
330
9
100
AcDbSymbolTableRecord
100
AcDbRegAppTableRecord
  2
GENIUS_GENOBJ-F-SCPASSM_13
 70
     0
  0
APPID
  5
44C
330
9
100
AcDbSymbolTableRecord
100
AcDbRegAppTableRecord
  2
GEVID1208845778
 70
     0
  0
APPID
  5
44D
330
9
100
AcDbSymbolTableRecord
100
AcDbRegAppTableRecord
  2
GEVID1208845779
 70
     0
  0
APPID
  5
44E
330
9
100
AcDbSymbolTableRecord
100
AcDbRegAppTableRecord
  2
GEVID1208845780
 70
     0
  0
APPID
  5
44F
330
9
100
AcDbSymbolTableRecord
100
AcDbRegAppTableRecord
  2
GEVID1208845781
 70
     0
  0
APPID
  5
450
330
9
100
AcDbSymbolTableRecord
100
AcDbRegAppTableRecord
  2
GEVID1208845782
 70
     0
  0
APPID
  5
451
330
9
100
AcDbSymbolTableRecord
100
AcDbRegAppTableRecord
  2
GEVID1208845783
 70
     0
  0
APPID
  5
452
330
9
100
AcDbSymbolTableRecord
100
AcDbRegAppTableRecord
  2
GEVID1208845784
 70
     0
  0
APPID
  5
453
330
9
100
AcDbSymbolTableRecord
100
AcDbRegAppTableRecord
  2
GEVID1208845785
 70
     0
  0
APPID
  5
454
330
9
100
AcDbSymbolTableRecord
100
AcDbRegAppTableRecord
  2
GEVID1208845787
 70
     0
  0
APPID
  5
455
330
9
100
AcDbSymbolTableRecord
100
AcDbRegAppTableRecord
  2
GEVID1208845788
 70
     0
  0
APPID
  5
456
330
9
100
AcDbSymbolTableRecord
100
AcDbRegAppTableRecord
  2
GEVID1208845789
 70
     0
  0
APPID
  5
457
330
9
100
AcDbSymbolTableRecord
100
AcDbRegAppTableRecord
  2
GEVID1208845790
 70
     0
  0
APPID
  5
458
330
9
100
AcDbSymbolTableRecord
100
AcDbRegAppTableRecord
  2
GEVID1208845791
 70
     0
  0
APPID
  5
459
330
9
100
AcDbSymbolTableRecord
100
AcDbRegAppTableRecord
  2
GEVID1208845792
 70
     0
  0
APPID
  5
45A
330
9
100
AcDbSymbolTableRecord
100
AcDbRegAppTableRecord
  2
GEVID1208845793
 70
     0
  0
APPID
  5
45B
330
9
100
AcDbSymbolTableRecord
100
AcDbRegAppTableRecord
  2
GEVID1208845794
 70
     0
  0
APPID
  5
45C
330
9
100
AcDbSymbolTableRecord
100
AcDbRegAppTableRecord
  2
GEVID1208845795
 70
     0
  0
APPID
  5
45D
330
9
100
AcDbSymbolTableRecord
100
AcDbRegAppTableRecord
  2
GEVID1208845796
 70
     0
  0
APPID
  5
45E
330
9
100
AcDbSymbolTableRecord
100
AcDbRegAppTableRecord
  2
GEVID1208845797
 70
     0
  0
APPID
  5
45F
330
9
100
AcDbSymbolTableRecord
100
AcDbRegAppTableRecord
  2
GEVID1208845798
 70
     0
  0
APPID
  5
460
330
9
100
AcDbSymbolTableRecord
100
AcDbRegAppTableRecord
  2
GEVID1208845799
 70
     0
  0
APPID
  5
461
330
9
100
AcDbSymbolTableRecord
100
AcDbRegAppTableRecord
  2
GEVID1208845800
 70
     0
  0
APPID
  5
462
330
9
100
AcDbSymbolTableRecord
100
AcDbRegAppTableRecord
  2
GEVID1208845801
 70
     0
  0
APPID
  5
463
330
9
100
AcDbSymbolTableRecord
100
AcDbRegAppTableRecord
  2
GEVID1208845802
 70
     0
  0
APPID
  5
464
330
9
100
AcDbSymbolTableRecord
100
AcDbRegAppTableRecord
  2
GENIUS_GENOBJ-N-DIM_13
 70
     0
  0
APPID
  5
465
330
9
100
AcDbSymbolTableRecord
100
AcDbRegAppTableRecord
  2
GENIUS_GENDIM_13
 70
     0
  0
APPID
  5
466
330
9
100
AcDbSymbolTableRecord
100
AcDbRegAppTableRecord
  2
GENIUS_GENDIMSH_14
 70
     0
  0
APPID
  5
467
330
9
100
AcDbSymbolTableRecord
100
AcDbRegAppTableRecord
  2
GEVID1208845803
 70
     0
  0
APPID
  5
468
330
9
100
AcDbSymbolTableRecord
100
AcDbRegAppTableRecord
  2
GEVID1208845804
 70
     0
  0
APPID
  5
469
330
9
100
AcDbSymbolTableRecord
100
AcDbRegAppTableRecord
  2
GEVID1208845805
 70
     0
  0
APPID
  5
46A
330
9
100
AcDbSymbolTableRecord
100
AcDbRegAppTableRecord
  2
GEVID1208845806
 70
     0
  0
APPID
  5
46B
330
9
100
AcDbSymbolTableRecord
100
AcDbRegAppTableRecord
  2
GEVID1208845807
 70
     0
  0
APPID
  5
46C
330
9
100
AcDbSymbolTableRecord
100
AcDbRegAppTableRecord
  2
GEVID1208845808
 70
     0
  0
APPID
  5
46D
330
9
100
AcDbSymbolTableRecord
100
AcDbRegAppTableRecord
  2
GEVID1208845809
 70
     0
  0
APPID
  5
46E
330
9
100
AcDbSymbolTableRecord
100
AcDbRegAppTableRecord
  2
GEVID1208845810
 70
     0
  0
APPID
  5
46F
330
9
100
AcDbSymbolTableRecord
100
AcDbRegAppTableRecord
  2
GEVID1208845811
 70
     0
  0
APPID
  5
470
330
9
100
AcDbSymbolTableRecord
100
AcDbRegAppTableRecord
  2
GEVID1208845813
 70
     0
  0
APPID
  5
471
330
9
100
AcDbSymbolTableRecord
100
AcDbRegAppTableRecord
  2
GEVID1208845814
 70
     0
  0
APPID
  5
472
330
9
100
AcDbSymbolTableRecord
100
AcDbRegAppTableRecord
  2
GEVID1208845815
 70
     0
  0
APPID
  5
473
330
9
100
AcDbSymbolTableRecord
100
AcDbRegAppTableRecord
  2
GEVID1208845816
 70
     0
  0
APPID
  5
474
330
9
100
AcDbSymbolTableRecord
100
AcDbRegAppTableRecord
  2
GEVID1208845817
 70
     0
  0
APPID
  5
475
330
9
100
AcDbSymbolTableRecord
100
AcDbRegAppTableRecord
  2
GEVID1208845818
 70
     0
  0
APPID
  5
476
330
9
100
AcDbSymbolTableRecord
100
AcDbRegAppTableRecord
  2
GEVID1208845819
 70
     0
  0
APPID
  5
477
330
9
100
AcDbSymbolTableRecord
100
AcDbRegAppTableRecord
  2
GEVID1208845820
 70
     0
  0
APPID
  5
478
330
9
100
AcDbSymbolTableRecord
100
AcDbRegAppTableRecord
  2
GENIUS_GENOBJ-F-SHCL_13
 70
     0
  0
APPID
  5
479
330
9
100
AcDbSymbolTableRecord
100
AcDbRegAppTableRecord
  2
GENIUS_GEFMSH_13
 70
     0
  0
APPID
  5
47A
330
9
100
AcDbSymbolTableRecord
100
AcDbRegAppTableRecord
  2
GENIUS_GENOBJ-F-SHCA_13
 70
     0
  0
APPID
  5
47B
330
9
100
AcDbSymbolTableRecord
100
AcDbRegAppTableRecord
  2
GENIUS_GEFSH_13
 70
     0
  0
APPID
  5
47C
330
9
100
AcDbSymbolTableRecord
100
AcDbRegAppTableRecord
  2
GENIUS_GEFSHP_13
 70
     0
  0
APPID
  5
47D
330
9
100
AcDbSymbolTableRecord
100
AcDbRegAppTableRecord
  2
GENIUS_GEFSHP0_13
 70
     0
  0
APPID
  5
47E
330
9
100
AcDbSymbolTableRecord
100
AcDbRegAppTableRecord
  2
GENIUS_GEFSH0_13
 70
     0
  0
APPID
  5
47F
330
9
100
AcDbSymbolTableRecord
100
AcDbRegAppTableRecord
  2
GENIUS_GEFSHP1_13
 70
     0
  0
APPID
  5
480
330
9
100
AcDbSymbolTableRecord
100
AcDbRegAppTableRecord
  2
GENIUS_GEFSH1_13
 70
     0
  0
APPID
  5
481
330
9
100
AcDbSymbolTableRecord
100
AcDbRegAppTableRecord
  2
GEVID1208866337
 70
     0
  0
APPID
  5
482
330
9
100
AcDbSymbolTableRecord
100
AcDbRegAppTableRecord
  2
GEVID1208866338
 70
     0
  0
APPID
  5
483
330
9
100
AcDbSymbolTableRecord
100
AcDbRegAppTableRecord
  2
GEVID1208866339
 70
     0
  0
APPID
  5
484
330
9
100
AcDbSymbolTableRecord
100
AcDbRegAppTableRecord
  2
GEVID1208866340
 70
     0
  0
APPID
  5
485
330
9
100
AcDbSymbolTableRecord
100
AcDbRegAppTableRecord
  2
GEVID1208866341
 70
     0
  0
APPID
  5
486
330
9
100
AcDbSymbolTableRecord
100
AcDbRegAppTableRecord
  2
ACAD_PSEXT
 70
     0
  0
APPID
  5
487
330
9
100
AcDbSymbolTableRecord
100
AcDbRegAppTableRecord
  2
GEVID1208866342
 70
     0
  0
APPID
  5
488
330
9
100
AcDbSymbolTableRecord
100
AcDbRegAppTableRecord
  2
GEVID1208913836
 70
     0
  0
APPID
  5
489
330
9
100
AcDbSymbolTableRecord
100
AcDbRegAppTableRecord
  2
GEVID1208913837
 70
     0
  0
APPID
  5
48A
330
9
100
AcDbSymbolTableRecord
100
AcDbRegAppTableRecord
  2
GEVID1208913838
 70
     0
  0
APPID
  5
48B
330
9
100
AcDbSymbolTableRecord
100
AcDbRegAppTableRecord
  2
GEVID1208913839
 70
     0
  0
APPID
  5
48C
330
9
100
AcDbSymbolTableRecord
100
AcDbRegAppTableRecord
  2
GENIUS_GENDTOL_13
 70
     0
  0
APPID
  5
48D
330
9
100
AcDbSymbolTableRecord
100
AcDbRegAppTableRecord
  2
GEVID1208928889
 70
     0
  0
APPID
  5
48E
330
9
100
AcDbSymbolTableRecord
100
AcDbRegAppTableRecord
  2
GEVID1208928890
 70
     0
  0
APPID
  5
48F
330
9
100
AcDbSymbolTableRecord
100
AcDbRegAppTableRecord
  2
GEVID1208928891
 70
     0
  0
APPID
  5
490
330
9
100
AcDbSymbolTableRecord
100
AcDbRegAppTableRecord
  2
GEVID1208928892
 70
     0
  0
APPID
  5
491
330
9
100
AcDbSymbolTableRecord
100
AcDbRegAppTableRecord
  2
GEVID1208933827
 70
     0
  0
APPID
  5
492
330
9
100
AcDbSymbolTableRecord
100
AcDbRegAppTableRecord
  2
GEVID1208933829
 70
     0
  0
APPID
  5
493
330
9
100
AcDbSymbolTableRecord
100
AcDbRegAppTableRecord
  2
GEVID1208933830
 70
     0
  0
APPID
  5
494
330
9
100
AcDbSymbolTableRecord
100
AcDbRegAppTableRecord
  2
GEVID1208933831
 70
     0
  0
APPID
  5
495
330
9
100
AcDbSymbolTableRecord
100
AcDbRegAppTableRecord
  2
GEVID1208933832
 70
     0
  0
APPID
  5
496
330
9
100
AcDbSymbolTableRecord
100
AcDbRegAppTableRecord
  2
GEVID1208933833
 70
     0
  0
APPID
  5
497
330
9
100
AcDbSymbolTableRecord
100
AcDbRegAppTableRecord
  2
GEVID1208933834
 70
     0
  0
APPID
  5
498
330
9
100
AcDbSymbolTableRecord
100
AcDbRegAppTableRecord
  2
GEVID1208933835
 70
     0
  0
APPID
  5
499
330
9
100
AcDbSymbolTableRecord
100
AcDbRegAppTableRecord
  2
GEVID1208933836
 70
     0
  0
APPID
  5
49A
330
9
100
AcDbSymbolTableRecord
100
AcDbRegAppTableRecord
  2
GEVID1208933837
 70
     0
  0
APPID
  5
49B
330
9
100
AcDbSymbolTableRecord
100
AcDbRegAppTableRecord
  2
GEVID1208933838
 70
     0
  0
APPID
  5
49C
330
9
100
AcDbSymbolTableRecord
100
AcDbRegAppTableRecord
  2
GEVID1208933840
 70
     0
  0
APPID
  5
49D
330
9
100
AcDbSymbolTableRecord
100
AcDbRegAppTableRecord
  2
GEVID1208933842
 70
     0
  0
APPID
  5
49E
330
9
100
AcDbSymbolTableRecord
100
AcDbRegAppTableRecord
  2
GEVID1208933843
 70
     0
  0
APPID
  5
49F
330
9
100
AcDbSymbolTableRecord
100
AcDbRegAppTableRecord
  2
GEVID1208933844
 70
     0
  0
APPID
  5
4A0
330
9
100
AcDbSymbolTableRecord
100
AcDbRegAppTableRecord
  2
GEVID1208933845
 70
     0
  0
APPID
  5
4A1
330
9
100
AcDbSymbolTableRecord
100
AcDbRegAppTableRecord
  2
GEVID1208933846
 70
     0
  0
APPID
  5
4A2
330
9
100
AcDbSymbolTableRecord
100
AcDbRegAppTableRecord
  2
GEVID1208933847
 70
     0
  0
APPID
  5
4A3
330
9
100
AcDbSymbolTableRecord
100
AcDbRegAppTableRecord
  2
GEVID1208933848
 70
     0
  0
APPID
  5
4A4
330
9
100
AcDbSymbolTableRecord
100
AcDbRegAppTableRecord
  2
GEVID1208933849
 70
     0
  0
APPID
  5
4A5
330
9
100
AcDbSymbolTableRecord
100
AcDbRegAppTableRecord
  2
GEVID1208933850
 70
     0
  0
APPID
  5
4A6
330
9
100
AcDbSymbolTableRecord
100
AcDbRegAppTableRecord
  2
GEVID1208933851
 70
     0
  0
APPID
  5
4A7
330
9
100
AcDbSymbolTableRecord
100
AcDbRegAppTableRecord
  2
GEVID1208933852
 70
     0
  0
APPID
  5
4A8
330
9
100
AcDbSymbolTableRecord
100
AcDbRegAppTableRecord
  2
GEVID1208933853
 70
     0
  0
APPID
  5
4A9
330
9
100
AcDbSymbolTableRecord
100
AcDbRegAppTableRecord
  2
GEVID1208933854
 70
     0
  0
APPID
  5
4AA
330
9
100
AcDbSymbolTableRecord
100
AcDbRegAppTableRecord
  2
GEVID1208933855
 70
     0
  0
APPID
  5
4AB
330
9
100
AcDbSymbolTableRecord
100
AcDbRegAppTableRecord
  2
GEVID1208933856
 70
     0
  0
APPID
  5
4AC
330
9
100
AcDbSymbolTableRecord
100
AcDbRegAppTableRecord
  2
GEVID1208933857
 70
     0
  0
APPID
  5
4AD
330
9
100
AcDbSymbolTableRecord
100
AcDbRegAppTableRecord
  2
GEVID1208933858
 70
     0
  0
APPID
  5
4AE
330
9
100
AcDbSymbolTableRecord
100
AcDbRegAppTableRecord
  2
GEVID1208933859
 70
     0
  0
APPID
  5
4AF
330
9
100
AcDbSymbolTableRecord
100
AcDbRegAppTableRecord
  2
GEVID1208933860
 70
     0
  0
APPID
  5
4B0
330
9
100
AcDbSymbolTableRecord
100
AcDbRegAppTableRecord
  2
GEVID1208933861
 70
     0
  0
APPID
  5
4B1
330
9
100
AcDbSymbolTableRecord
100
AcDbRegAppTableRecord
  2
GEVID1208933862
 70
     0
  0
APPID
  5
4B2
330
9
100
AcDbSymbolTableRecord
100
AcDbRegAppTableRecord
  2
GEVID1208933863
 70
     0
  0
APPID
  5
4B3
330
9
100
AcDbSymbolTableRecord
100
AcDbRegAppTableRecord
  2
GEVID1208933864
 70
     0
  0
APPID
  5
4B4
330
9
100
AcDbSymbolTableRecord
100
AcDbRegAppTableRecord
  2
GEVID1208933865
 70
     0
  0
APPID
  5
4B5
330
9
100
AcDbSymbolTableRecord
100
AcDbRegAppTableRecord
  2
GEVID1208933866
 70
     0
  0
APPID
  5
4B6
330
9
100
AcDbSymbolTableRecord
100
AcDbRegAppTableRecord
  2
GEVID1208933867
 70
     0
  0
APPID
  5
4B7
330
9
100
AcDbSymbolTableRecord
100
AcDbRegAppTableRecord
  2
GEVID1208933868
 70
     0
  0
APPID
  5
4B8
330
9
100
AcDbSymbolTableRecord
100
AcDbRegAppTableRecord
  2
GEVID1208933869
 70
     0
  0
APPID
  5
4B9
330
9
100
AcDbSymbolTableRecord
100
AcDbRegAppTableRecord
  2
GEVID1208933870
 70
     0
  0
APPID
  5
4BA
330
9
100
AcDbSymbolTableRecord
100
AcDbRegAppTableRecord
  2
GEVID1208933871
 70
     0
  0
APPID
  5
4BB
330
9
100
AcDbSymbolTableRecord
100
AcDbRegAppTableRecord
  2
GEVID1208933872
 70
     0
  0
APPID
  5
4BC
330
9
100
AcDbSymbolTableRecord
100
AcDbRegAppTableRecord
  2
GEVID1208933873
 70
     0
  0
APPID
  5
4BD
330
9
100
AcDbSymbolTableRecord
100
AcDbRegAppTableRecord
  2
GEVID1208933874
 70
     0
  0
APPID
  5
4BE
330
9
100
AcDbSymbolTableRecord
100
AcDbRegAppTableRecord
  2
GEVID1208933875
 70
     0
  0
APPID
  5
4BF
330
9
100
AcDbSymbolTableRecord
100
AcDbRegAppTableRecord
  2
GEVID1208933876
 70
     0
  0
APPID
  5
4C0
330
9
100
AcDbSymbolTableRecord
100
AcDbRegAppTableRecord
  2
ACAD_DSTYLE_DIMRADIAL_EXTENSION
 70
     0
  0
APPID
  5
4C1
330
9
100
AcDbSymbolTableRecord
100
AcDbRegAppTableRecord
  2
GEVID1208999100
 70
     0
  0
APPID
  5
4C2
330
9
100
AcDbSymbolTableRecord
100
AcDbRegAppTableRecord
  2
GEVID1208999101
 70
     0
  0
APPID
  5
4C3
330
9
100
AcDbSymbolTableRecord
100
AcDbRegAppTableRecord
  2
GEVID1208999102
 70
     0
  0
APPID
  5
4C4
330
9
100
AcDbSymbolTableRecord
100
AcDbRegAppTableRecord
  2
GEVID1208999103
 70
     0
  0
APPID
  5
4C5
330
9
100
AcDbSymbolTableRecord
100
AcDbRegAppTableRecord
  2
GEVID1208999105
 70
     0
  0
APPID
  5
4C6
330
9
100
AcDbSymbolTableRecord
100
AcDbRegAppTableRecord
  2
GEVID1208999106
 70
     0
  0
APPID
  5
4C7
330
9
100
AcDbSymbolTableRecord
100
AcDbRegAppTableRecord
  2
GEVID1208999108
 70
     0
  0
APPID
  5
4C8
330
9
100
AcDbSymbolTableRecord
100
AcDbRegAppTableRecord
  2
GEVID1208999109
 70
     0
  0
APPID
  5
4C9
330
9
100
AcDbSymbolTableRecord
100
AcDbRegAppTableRecord
  2
GEVID1208999110
 70
     0
  0
APPID
  5
4CA
330
9
100
AcDbSymbolTableRecord
100
AcDbRegAppTableRecord
  2
GEVID1208999111
 70
     0
  0
APPID
  5
4CB
330
9
100
AcDbSymbolTableRecord
100
AcDbRegAppTableRecord
  2
GEVID1208999112
 70
     0
  0
APPID
  5
4CC
330
9
100
AcDbSymbolTableRecord
100
AcDbRegAppTableRecord
  2
GEVID1208999113
 70
     0
  0
APPID
  5
4CD
330
9
100
AcDbSymbolTableRecord
100
AcDbRegAppTableRecord
  2
GEVID1208999114
 70
     0
  0
APPID
  5
4CE
330
9
100
AcDbSymbolTableRecord
100
AcDbRegAppTableRecord
  2
GEVID1210218799
 70
     0
  0
APPID
  5
4CF
330
9
100
AcDbSymbolTableRecord
100
AcDbRegAppTableRecord
  2
GEVID1210218800
 70
     0
  0
APPID
  5
4D0
330
9
100
AcDbSymbolTableRecord
100
AcDbRegAppTableRecord
  2
GENIUS_GEFWELD_13
 70
     0
  0
APPID
  5
4D1
330
9
100
AcDbSymbolTableRecord
100
AcDbRegAppTableRecord
  2
GENIUS_GENOBJ-F-WELS_13
 70
     0
  0
APPID
  5
4D2
330
9
100
AcDbSymbolTableRecord
100
AcDbRegAppTableRecord
  2
AcadAnnotative
 70
     0
  0
APPID
  5
4D3
330
9
100
AcDbSymbolTableRecord
100
AcDbRegAppTableRecord
  2
GEVID1210145339
 70
     0
  0
APPID
  5
4D4
330
9
100
AcDbSymbolTableRecord
100
AcDbRegAppTableRecord
  2
ACAD_DSTYLE_DIMBREAK
 70
     0
  0
APPID
  5
4D5
330
9
100
AcDbSymbolTableRecord
100
AcDbRegAppTableRecord
  2
GEVID1210145340
 70
     0
  0
APPID
  5
4D6
330
9
100
AcDbSymbolTableRecord
100
AcDbRegAppTableRecord
  2
GEVID1210145341
 70
     0
  0
APPID
  5
4D7
330
9
100
AcDbSymbolTableRecord
100
AcDbRegAppTableRecord
  2
GEVID1210145342
 70
     0
  0
APPID
  5
4D8
330
9
100
AcDbSymbolTableRecord
100
AcDbRegAppTableRecord
  2
GEVID1210145343
 70
     0
  0
APPID
  5
4D9
330
9
100
AcDbSymbolTableRecord
100
AcDbRegAppTableRecord
  2
GEVID1210145344
 70
     0
  0
APPID
  5
4DA
330
9
100
AcDbSymbolTableRecord
100
AcDbRegAppTableRecord
  2
GEVID1210145345
 70
     0
  0
APPID
  5
4DB
330
9
100
AcDbSymbolTableRecord
100
AcDbRegAppTableRecord
  2
GEVID1210152816
 70
     0
  0
APPID
  5
4DC
330
9
100
AcDbSymbolTableRecord
100
AcDbRegAppTableRecord
  2
GEVID1210153850
 70
     0
  0
APPID
  5
4DD
330
9
100
AcDbSymbolTableRecord
100
AcDbRegAppTableRecord
  2
GEVID1210153851
 70
     0
  0
APPID
  5
4DE
330
9
100
AcDbSymbolTableRecord
100
AcDbRegAppTableRecord
  2
GEVID1210153852
 70
     0
  0
APPID
  5
4DF
330
9
100
AcDbSymbolTableRecord
100
AcDbRegAppTableRecord
  2
GEVID1210549898
 70
     0
  0
APPID
  5
4E0
330
9
100
AcDbSymbolTableRecord
100
AcDbRegAppTableRecord
  2
GEVID1210549899
 70
     0
  0
APPID
  5
4E1
330
9
100
AcDbSymbolTableRecord
100
AcDbRegAppTableRecord
  2
GEVID1210549900
 70
     0
  0
APPID
  5
4E2
330
9
100
AcDbSymbolTableRecord
100
AcDbRegAppTableRecord
  2
GEVID1210549901
 70
     0
  0
APPID
  5
4E3
330
9
100
AcDbSymbolTableRecord
100
AcDbRegAppTableRecord
  2
GEVID1210549902
 70
     0
  0
APPID
  5
4E4
330
9
100
AcDbSymbolTableRecord
100
AcDbRegAppTableRecord
  2
GEVID1210549903
 70
     0
  0
APPID
  5
4E5
330
9
100
AcDbSymbolTableRecord
100
AcDbRegAppTableRecord
  2
GEVID1210549904
 70
     0
  0
APPID
  5
4E6
330
9
100
AcDbSymbolTableRecord
100
AcDbRegAppTableRecord
  2
GEVID1210549905
 70
     0
  0
APPID
  5
4E7
330
9
100
AcDbSymbolTableRecord
100
AcDbRegAppTableRecord
  2
GEVID1210549906
 70
     0
  0
APPID
  5
4E8
330
9
100
AcDbSymbolTableRecord
100
AcDbRegAppTableRecord
  2
GEVID1210549907
 70
     0
  0
APPID
  5
4E9
330
9
100
AcDbSymbolTableRecord
100
AcDbRegAppTableRecord
  2
GEVID1210549908
 70
     0
  0
APPID
  5
4EA
330
9
100
AcDbSymbolTableRecord
100
AcDbRegAppTableRecord
  2
GEVID1210549909
 70
     0
  0
APPID
  5
4EB
330
9
100
AcDbSymbolTableRecord
100
AcDbRegAppTableRecord
  2
GEVID1210549910
 70
     0
  0
APPID
  5
4EC
330
9
100
AcDbSymbolTableRecord
100
AcDbRegAppTableRecord
  2
GEVID1210549911
 70
     0
  0
APPID
  5
4ED
330
9
100
AcDbSymbolTableRecord
100
AcDbRegAppTableRecord
  2
GEVID1210549912
 70
     0
  0
APPID
  5
4EE
330
9
100
AcDbSymbolTableRecord
100
AcDbRegAppTableRecord
  2
GEVID1210549913
 70
     0
  0
APPID
  5
4EF
330
9
100
AcDbSymbolTableRecord
100
AcDbRegAppTableRecord
  2
GEVID1210549914
 70
     0
  0
APPID
  5
4F0
330
9
100
AcDbSymbolTableRecord
100
AcDbRegAppTableRecord
  2
GEVID1210549915
 70
     0
  0
APPID
  5
4F1
330
9
100
AcDbSymbolTableRecord
100
AcDbRegAppTableRecord
  2
GEVID1210549916
 70
     0
  0
APPID
  5
4F2
330
9
100
AcDbSymbolTableRecord
100
AcDbRegAppTableRecord
  2
GEVID1210549917
 70
     0
  0
APPID
  5
4F3
330
9
100
AcDbSymbolTableRecord
100
AcDbRegAppTableRecord
  2
GENIUS_GENOBJ-N-CRS_13
 70
     0
  0
APPID
  5
4F4
330
9
100
AcDbSymbolTableRecord
100
AcDbRegAppTableRecord
  2
GEVID1210549918
 70
     0
  0
APPID
  5
4F5
330
9
100
AcDbSymbolTableRecord
100
AcDbRegAppTableRecord
  2
GENIUS_GENOBJ-N-CRC_13
 70
     0
  0
APPID
  5
4F6
330
9
100
AcDbSymbolTableRecord
100
AcDbRegAppTableRecord
  2
GENIUS_GENCRC_14
 70
     0
  0
APPID
  5
4F7
330
9
100
AcDbSymbolTableRecord
100
AcDbRegAppTableRecord
  2
GEVID1210549919
 70
     0
  0
APPID
  5
4F8
330
9
100
AcDbSymbolTableRecord
100
AcDbRegAppTableRecord
  2
GEVID1210549921
 70
     0
  0
APPID
  5
4F9
330
9
100
AcDbSymbolTableRecord
100
AcDbRegAppTableRecord
  2
GEVID1210549922
 70
     0
  0
APPID
  5
4FA
330
9
100
AcDbSymbolTableRecord
100
AcDbRegAppTableRecord
  2
GEVID1210635173
 70
     0
  0
APPID
  5
4FB
330
9
100
AcDbSymbolTableRecord
100
AcDbRegAppTableRecord
  2
GEVID1210635174
 70
     0
  0
APPID
  5
4FC
330
9
100
AcDbSymbolTableRecord
100
AcDbRegAppTableRecord
  2
GEVID1210635175
 70
     0
  0
APPID
  5
4FD
330
9
100
AcDbSymbolTableRecord
100
AcDbRegAppTableRecord
  2
GEVID1210635176
 70
     0
  0
APPID
  5
4FE
330
9
100
AcDbSymbolTableRecord
100
AcDbRegAppTableRecord
  2
GEVID1210635177
 70
     0
  0
APPID
  5
4FF
330
9
100
AcDbSymbolTableRecord
100
AcDbRegAppTableRecord
  2
GEVID1210635178
 70
     0
  0
APPID
  5
500
330
9
100
AcDbSymbolTableRecord
100
AcDbRegAppTableRecord
  2
GENIUS_GENIUS_GENBHEDTMP_13
 70
     0
  0
APPID
  5
501
330
9
100
AcDbSymbolTableRecord
100
AcDbRegAppTableRecord
  2
GEVID1210635179
 70
     0
  0
APPID
  5
502
330
9
100
AcDbSymbolTableRecord
100
AcDbRegAppTableRecord
  2
GEVID1210635180
 70
     0
  0
APPID
  5
503
330
9
100
AcDbSymbolTableRecord
100
AcDbRegAppTableRecord
  2
GEVID1210635181
 70
     0
  0
APPID
  5
504
330
9
100
AcDbSymbolTableRecord
100
AcDbRegAppTableRecord
  2
GEVID1210635182
 70
     0
  0
APPID
  5
505
330
9
100
AcDbSymbolTableRecord
100
AcDbRegAppTableRecord
  2
GEVID1210635184
 70
     0
  0
APPID
  5
506
330
9
100
AcDbSymbolTableRecord
100
AcDbRegAppTableRecord
  2
GEVID1210635185
 70
     0
  0
APPID
  5
507
330
9
100
AcDbSymbolTableRecord
100
AcDbRegAppTableRecord
  2
GEVID1210635186
 70
     0
  0
APPID
  5
508
330
9
100
AcDbSymbolTableRecord
100
AcDbRegAppTableRecord
  2
GEVID1210635187
 70
     0
  0
APPID
  5
509
330
9
100
AcDbSymbolTableRecord
100
AcDbRegAppTableRecord
  2
GEVID1210635188
 70
     0
  0
APPID
  5
50A
330
9
100
AcDbSymbolTableRecord
100
AcDbRegAppTableRecord
  2
GEVID1210635189
 70
     0
  0
APPID
  5
50B
330
9
100
AcDbSymbolTableRecord
100
AcDbRegAppTableRecord
  2
GEVID1210635190
 70
     0
  0
APPID
  5
50C
330
9
100
AcDbSymbolTableRecord
100
AcDbRegAppTableRecord
  2
GENIUS_GENREC_14
 70
     0
  0
APPID
  5
50D
330
9
100
AcDbSymbolTableRecord
100
AcDbRegAppTableRecord
  2
GENIUS_GENOBJ-N-REC_13
 70
     0
  0
APPID
  5
50E
330
9
100
AcDbSymbolTableRecord
100
AcDbRegAppTableRecord
  2
GEVID1210676655
 70
     0
  0
APPID
  5
50F
330
9
100
AcDbSymbolTableRecord
100
AcDbRegAppTableRecord
  2
GEVID1210676656
 70
     0
  0
APPID
  5
510
330
9
100
AcDbSymbolTableRecord
100
AcDbRegAppTableRecord
  2
GEVID1210676657
 70
     0
  0
APPID
  5
511
330
9
100
AcDbSymbolTableRecord
100
AcDbRegAppTableRecord
  2
GEVID1210676659
 70
     0
  0
APPID
  5
512
330
9
100
AcDbSymbolTableRecord
100
AcDbRegAppTableRecord
  2
GEVID1210676660
 70
     0
  0
APPID
  5
513
330
9
100
AcDbSymbolTableRecord
100
AcDbRegAppTableRecord
  2
GEVID1210676661
 70
     0
  0
APPID
  5
514
330
9
100
AcDbSymbolTableRecord
100
AcDbRegAppTableRecord
  2
GEVID1210676662
 70
     0
  0
APPID
  5
515
330
9
100
AcDbSymbolTableRecord
100
AcDbRegAppTableRecord
  2
GEVID1210721646
 70
     0
  0
APPID
  5
516
330
9
100
AcDbSymbolTableRecord
100
AcDbRegAppTableRecord
  2
GEVID1210721647
 70
     0
  0
APPID
  5
517
330
9
100
AcDbSymbolTableRecord
100
AcDbRegAppTableRecord
  2
GEVID1210721648
 70
     0
  0
APPID
  5
518
330
9
100
AcDbSymbolTableRecord
100
AcDbRegAppTableRecord
  2
GEVID1210721649
 70
     0
  0
APPID
  5
519
330
9
100
AcDbSymbolTableRecord
100
AcDbRegAppTableRecord
  2
GEVID1210721650
 70
     0
  0
APPID
  5
51A
330
9
100
AcDbSymbolTableRecord
100
AcDbRegAppTableRecord
  2
GEVID1210721651
 70
     0
  0
APPID
  5
51B
330
9
100
AcDbSymbolTableRecord
100
AcDbRegAppTableRecord
  2
GEVID1210721652
 70
     0
  0
APPID
  5
51C
330
9
100
AcDbSymbolTableRecord
100
AcDbRegAppTableRecord
  2
GEVID1210721653
 70
     0
  0
APPID
  5
51D
330
9
100
AcDbSymbolTableRecord
100
AcDbRegAppTableRecord
  2
PE_URL
 70
     0
  0
APPID
  5
51E
330
9
100
AcDbSymbolTableRecord
100
AcDbRegAppTableRecord
  2
GEVID1210825555
 70
     0
  0
APPID
  5
51F
330
9
100
AcDbSymbolTableRecord
100
AcDbRegAppTableRecord
  2
GEVID1210825556
 70
     0
  0
APPID
  5
520
330
9
100
AcDbSymbolTableRecord
100
AcDbRegAppTableRecord
  2
GEVID1210825557
 70
     0
  0
APPID
  5
521
330
9
100
AcDbSymbolTableRecord
100
AcDbRegAppTableRecord
  2
GEVID1210825558
 70
     0
  0
APPID
  5
522
330
9
100
AcDbSymbolTableRecord
100
AcDbRegAppTableRecord
  2
GEVID1210825559
 70
     0
  0
APPID
  5
523
330
9
100
AcDbSymbolTableRecord
100
AcDbRegAppTableRecord
  2
GEVID1210825560
 70
     0
  0
APPID
  5
524
330
9
100
AcDbSymbolTableRecord
100
AcDbRegAppTableRecord
  2
GEVID1210825561
 70
     0
  0
APPID
  5
525
330
9
100
AcDbSymbolTableRecord
100
AcDbRegAppTableRecord
  2
GEVID1210825562
 70
     0
  0
APPID
  5
526
330
9
100
AcDbSymbolTableRecord
100
AcDbRegAppTableRecord
  2
GEVID1210825563
 70
     0
  0
APPID
  5
527
330
9
100
AcDbSymbolTableRecord
100
AcDbRegAppTableRecord
  2
GEVID1210825564
 70
     0
  0
APPID
  5
528
330
9
100
AcDbSymbolTableRecord
100
AcDbRegAppTableRecord
  2
GEVID1210825565
 70
     0
  0
APPID
  5
529
330
9
100
AcDbSymbolTableRecord
100
AcDbRegAppTableRecord
  2
GEVID1210825566
 70
     0
  0
APPID
  5
52A
330
9
100
AcDbSymbolTableRecord
100
AcDbRegAppTableRecord
  2
GEVID1210825567
 70
     0
  0
APPID
  5
52B
330
9
100
AcDbSymbolTableRecord
100
AcDbRegAppTableRecord
  2
GENIUS_GENOBJ-N-ZOO_13
 70
     0
  0
APPID
  5
52C
330
9
100
AcDbSymbolTableRecord
100
AcDbRegAppTableRecord
  2
GENIUS_GENZOO_17
 70
     0
  0
APPID
  5
52D
330
9
100
AcDbSymbolTableRecord
100
AcDbRegAppTableRecord
  2
ACADANNOTATIVEDECOMPOSITION
 70
     0
  0
APPID
  5
52E
330
9
100
AcDbSymbolTableRecord
100
AcDbRegAppTableRecord
  2
GENIUS_GENOBJ-N-HTC_13
 70
     0
  0
APPID
  5
52F
330
9
100
AcDbSymbolTableRecord
100
AcDbRegAppTableRecord
  2
GENIUS_GENHATCH_13
 70
     0
  0
APPID
  5
530
330
9
100
AcDbSymbolTableRecord
100
AcDbRegAppTableRecord
  2
GEVID1210896020
 70
     0
  0
APPID
  5
531
330
9
100
AcDbSymbolTableRecord
100
AcDbRegAppTableRecord
  2
GEVID1210896021
 70
     0
  0
APPID
  5
532
330
9
100
AcDbSymbolTableRecord
100
AcDbRegAppTableRecord
  2
GEVID1209083540
 70
     0
  0
APPID
  5
533
330
9
100
AcDbSymbolTableRecord
100
AcDbRegAppTableRecord
  2
GEVMK
 70
     0
  0
APPID
  5
534
330
9
100
AcDbSymbolTableRecord
100
AcDbRegAppTableRecord
  2
GEVID1209083542
 70
     0
  0
APPID
  5
535
330
9
100
AcDbSymbolTableRecord
100
AcDbRegAppTableRecord
  2
GEVID1209083543
 70
     0
  0
APPID
  5
536
330
9
100
AcDbSymbolTableRecord
100
AcDbRegAppTableRecord
  2
GEVID1209083544
 70
     0
  0
APPID
  5
537
330
9
100
AcDbSymbolTableRecord
100
AcDbRegAppTableRecord
  2
GEVID1209083545
 70
     0
  0
APPID
  5
538
330
9
100
AcDbSymbolTableRecord
100
AcDbRegAppTableRecord
  2
GEVID1209083546
 70
     0
  0
APPID
  5
539
330
9
100
AcDbSymbolTableRecord
100
AcDbRegAppTableRecord
  2
GEVID1209083547
 70
     0
  0
APPID
  5
53A
330
9
100
AcDbSymbolTableRecord
100
AcDbRegAppTableRecord
  2
GEVID1209083548
 70
     0
  0
APPID
  5
53B
330
9
100
AcDbSymbolTableRecord
100
AcDbRegAppTableRecord
  2
GEVID1209083549
 70
     0
  0
APPID
  5
53C
330
9
100
AcDbSymbolTableRecord
100
AcDbRegAppTableRecord
  2
GEVID1209083550
 70
     0
  0
APPID
  5
53D
330
9
100
AcDbSymbolTableRecord
100
AcDbRegAppTableRecord
  2
GEVID1209083551
 70
     0
  0
APPID
  5
53E
330
9
100
AcDbSymbolTableRecord
100
AcDbRegAppTableRecord
  2
GEVID1209083552
 70
     0
  0
APPID
  5
53F
330
9
100
AcDbSymbolTableRecord
100
AcDbRegAppTableRecord
  2
GEVID1209083553
 70
     0
  0
APPID
  5
540
330
9
100
AcDbSymbolTableRecord
100
AcDbRegAppTableRecord
  2
GEVID1210896022
 70
     0
  0
APPID
  5
541
330
9
100
AcDbSymbolTableRecord
100
AcDbRegAppTableRecord
  2
GEVID1211508364
 70
     0
  0
APPID
  5
542
330
9
100
AcDbSymbolTableRecord
100
AcDbRegAppTableRecord
  2
GEVID1211414908
 70
     0
  0
APPID
  5
543
330
9
100
AcDbSymbolTableRecord
100
AcDbRegAppTableRecord
  2
GEVID1211414909
 70
     0
  0
APPID
  5
544
330
9
100
AcDbSymbolTableRecord
100
AcDbRegAppTableRecord
  2
GEVID1211508359
 70
     0
  0
APPID
  5
545
330
9
100
AcDbSymbolTableRecord
100
AcDbRegAppTableRecord
  2
GEVID1211508360
 70
     0
  0
APPID
  5
546
330
9
100
AcDbSymbolTableRecord
100
AcDbRegAppTableRecord
  2
GEVID1211508361
 70
     0
  0
APPID
  5
547
330
9
100
AcDbSymbolTableRecord
100
AcDbRegAppTableRecord
  2
GEVID1211508362
 70
     0
  0
APPID
  5
548
330
9
100
AcDbSymbolTableRecord
100
AcDbRegAppTableRecord
  2
GEVID1211508363
 70
     0
  0
APPID
  5
549
330
9
100
AcDbSymbolTableRecord
100
AcDbRegAppTableRecord
  2
GEVID1211878469
 70
     0
  0
APPID
  5
54A
330
9
100
AcDbSymbolTableRecord
100
AcDbRegAppTableRecord
  2
GEVID1212642819
 70
     0
  0
APPID
  5
54B
330
9
100
AcDbSymbolTableRecord
100
AcDbRegAppTableRecord
  2
GEVID1212642820
 70
     0
  0
APPID
  5
54C
330
9
100
AcDbSymbolTableRecord
100
AcDbRegAppTableRecord
  2
GEVID1212642821
 70
     0
  0
APPID
  5
54D
330
9
100
AcDbSymbolTableRecord
100
AcDbRegAppTableRecord
  2
GEVID1212642822
 70
     0
  0
APPID
  5
54E
330
9
100
AcDbSymbolTableRecord
100
AcDbRegAppTableRecord
  2
GEVID1212642823
 70
     0
  0
APPID
  5
54F
330
9
100
AcDbSymbolTableRecord
100
AcDbRegAppTableRecord
  2
GEVID1212642825
 70
     0
  0
APPID
  5
550
330
9
100
AcDbSymbolTableRecord
100
AcDbRegAppTableRecord
  2
GEVID1212642826
 70
     0
  0
APPID
  5
551
330
9
100
AcDbSymbolTableRecord
100
AcDbRegAppTableRecord
  2
GEVID1212642827
 70
     0
  0
APPID
  5
552
330
9
100
AcDbSymbolTableRecord
100
AcDbRegAppTableRecord
  2
GEVID1212642828
 70
     0
  0
APPID
  5
553
330
9
100
AcDbSymbolTableRecord
100
AcDbRegAppTableRecord
  2
GEVID1212642831
 70
     0
  0
APPID
  5
554
330
9
100
AcDbSymbolTableRecord
100
AcDbRegAppTableRecord
  2
GEVID1212642834
 70
     0
  0
APPID
  5
555
330
9
100
AcDbSymbolTableRecord
100
AcDbRegAppTableRecord
  2
GEVID1212642835
 70
     0
  0
APPID
  5
556
330
9
100
AcDbSymbolTableRecord
100
AcDbRegAppTableRecord
  2
GEVID1212642836
 70
     0
  0
APPID
  5
557
330
9
100
AcDbSymbolTableRecord
100
AcDbRegAppTableRecord
  2
GEVID1212642837
 70
     0
  0
APPID
  5
558
330
9
100
AcDbSymbolTableRecord
100
AcDbRegAppTableRecord
  2
GEVID1212642839
 70
     0
  0
APPID
  5
559
330
9
100
AcDbSymbolTableRecord
100
AcDbRegAppTableRecord
  2
GEVID1212642840
 70
     0
  0
APPID
  5
55A
330
9
100
AcDbSymbolTableRecord
100
AcDbRegAppTableRecord
  2
GEVID1212642841
 70
     0
  0
APPID
  5
55B
330
9
100
AcDbSymbolTableRecord
100
AcDbRegAppTableRecord
  2
GEVID1212655312
 70
     0
  0
APPID
  5
55C
330
9
100
AcDbSymbolTableRecord
100
AcDbRegAppTableRecord
  2
GEVID1212655313
 70
     0
  0
APPID
  5
55D
330
9
100
AcDbSymbolTableRecord
100
AcDbRegAppTableRecord
  2
GEVID1212656533
 70
     0
  0
APPID
  5
55E
330
9
100
AcDbSymbolTableRecord
100
AcDbRegAppTableRecord
  2
GEVID1212656534
 70
     0
  0
APPID
  5
55F
330
9
100
AcDbSymbolTableRecord
100
AcDbRegAppTableRecord
  2
GEVID1212656535
 70
     0
  0
APPID
  5
560
330
9
100
AcDbSymbolTableRecord
100
AcDbRegAppTableRecord
  2
GEVID1212656536
 70
     0
  0
APPID
  5
561
330
9
100
AcDbSymbolTableRecord
100
AcDbRegAppTableRecord
  2
GEVID1212656538
 70
     0
  0
APPID
  5
562
330
9
100
AcDbSymbolTableRecord
100
AcDbRegAppTableRecord
  2
GEVID1212656541
 70
     0
  0
APPID
  5
563
330
9
100
AcDbSymbolTableRecord
100
AcDbRegAppTableRecord
  2
GEVID1212656543
 70
     0
  0
APPID
  5
564
330
9
100
AcDbSymbolTableRecord
100
AcDbRegAppTableRecord
  2
GENIUS_GENOBJ-F-PFASSM_13
 70
     0
  0
APPID
  5
565
330
9
100
AcDbSymbolTableRecord
100
AcDbRegAppTableRecord
  2
GEVID1212656544
 70
     0
  0
APPID
  5
566
330
9
100
AcDbSymbolTableRecord
100
AcDbRegAppTableRecord
  2
GEVID1212656545
 70
     0
  0
APPID
  5
567
330
9
100
AcDbSymbolTableRecord
100
AcDbRegAppTableRecord
  2
GEVID1212656546
 70
     0
  0
APPID
  5
568
330
9
100
AcDbSymbolTableRecord
100
AcDbRegAppTableRecord
  2
GEVID1212656547
 70
     0
  0
APPID
  5
569
330
9
100
AcDbSymbolTableRecord
100
AcDbRegAppTableRecord
  2
GEVID1212656548
 70
     0
  0
APPID
  5
56A
330
9
100
AcDbSymbolTableRecord
100
AcDbRegAppTableRecord
  2
GEVID1212656549
 70
     0
  0
APPID
  5
56B
330
9
100
AcDbSymbolTableRecord
100
AcDbRegAppTableRecord
  2
GEVID1212656550
 70
     0
  0
APPID
  5
56C
330
9
100
AcDbSymbolTableRecord
100
AcDbRegAppTableRecord
  2
GEVID1212656552
 70
     0
  0
APPID
  5
56D
330
9
100
AcDbSymbolTableRecord
100
AcDbRegAppTableRecord
  2
GEVID1212656553
 70
     0
  0
APPID
  5
56E
330
9
100
AcDbSymbolTableRecord
100
AcDbRegAppTableRecord
  2
GEVID1212656554
 70
     0
  0
APPID
  5
56F
330
9
100
AcDbSymbolTableRecord
100
AcDbRegAppTableRecord
  2
GEVID1212656555
 70
     0
  0
APPID
  5
570
330
9
100
AcDbSymbolTableRecord
100
AcDbRegAppTableRecord
  2
GEVID1212656556
 70
     0
  0
APPID
  5
571
330
9
100
AcDbSymbolTableRecord
100
AcDbRegAppTableRecord
  2
GEVID1212656557
 70
     0
  0
APPID
  5
572
330
9
100
AcDbSymbolTableRecord
100
AcDbRegAppTableRecord
  2
GEVID1212656559
 70
     0
  0
APPID
  5
573
330
9
100
AcDbSymbolTableRecord
100
AcDbRegAppTableRecord
  2
GEVID1212656560
 70
     0
  0
APPID
  5
574
330
9
100
AcDbSymbolTableRecord
100
AcDbRegAppTableRecord
  2
GEVID1212656561
 70
     0
  0
APPID
  5
575
330
9
100
AcDbSymbolTableRecord
100
AcDbRegAppTableRecord
  2
GEVID1212656562
 70
     0
  0
APPID
  5
576
330
9
100
AcDbSymbolTableRecord
100
AcDbRegAppTableRecord
  2
GEVID1212656563
 70
     0
  0
APPID
  5
577
330
9
100
AcDbSymbolTableRecord
100
AcDbRegAppTableRecord
  2
GEVID1212711781
 70
     0
  0
APPID
  5
578
330
9
100
AcDbSymbolTableRecord
100
AcDbRegAppTableRecord
  2
GEVID1212711782
 70
     0
  0
APPID
  5
579
330
9
100
AcDbSymbolTableRecord
100
AcDbRegAppTableRecord
  2
GEVID1212711783
 70
     0
  0
APPID
  5
57A
330
9
100
AcDbSymbolTableRecord
100
AcDbRegAppTableRecord
  2
GEVID1212711784
 70
     0
  0
APPID
  5
57B
330
9
100
AcDbSymbolTableRecord
100
AcDbRegAppTableRecord
  2
GEVID1212711788
 70
     0
  0
APPID
  5
57C
330
9
100
AcDbSymbolTableRecord
100
AcDbRegAppTableRecord
  2
GEVID1212711789
 70
     0
  0
APPID
  5
57D
330
9
100
AcDbSymbolTableRecord
100
AcDbRegAppTableRecord
  2
GEVID1212711790
 70
     0
  0
APPID
  5
57E
330
9
100
AcDbSymbolTableRecord
100
AcDbRegAppTableRecord
  2
GEVID1212711791
 70
     0
  0
APPID
  5
57F
330
9
100
AcDbSymbolTableRecord
100
AcDbRegAppTableRecord
  2
GEVID1212711792
 70
     0
  0
APPID
  5
580
330
9
100
AcDbSymbolTableRecord
100
AcDbRegAppTableRecord
  2
GEVID1212711793
 70
     0
  0
APPID
  5
581
330
9
100
AcDbSymbolTableRecord
100
AcDbRegAppTableRecord
  2
GEVID1212711794
 70
     0
  0
APPID
  5
582
330
9
100
AcDbSymbolTableRecord
100
AcDbRegAppTableRecord
  2
GEVID1212711795
 70
     0
  0
APPID
  5
583
330
9
100
AcDbSymbolTableRecord
100
AcDbRegAppTableRecord
  2
GEVID1212711797
 70
     0
  0
APPID
  5
584
330
9
100
AcDbSymbolTableRecord
100
AcDbRegAppTableRecord
  2
GEVID1212711798
 70
     0
  0
APPID
  5
585
330
9
100
AcDbSymbolTableRecord
100
AcDbRegAppTableRecord
  2
GEVID1212711799
 70
     0
  0
APPID
  5
586
330
9
100
AcDbSymbolTableRecord
100
AcDbRegAppTableRecord
  2
GEVID1212711800
 70
     0
  0
APPID
  5
587
330
9
100
AcDbSymbolTableRecord
100
AcDbRegAppTableRecord
  2
GEVID1212711801
 70
     0
  0
APPID
  5
588
330
9
100
AcDbSymbolTableRecord
100
AcDbRegAppTableRecord
  2
GEVID1212711802
 70
     0
  0
APPID
  5
589
330
9
100
AcDbSymbolTableRecord
100
AcDbRegAppTableRecord
  2
GEVID1212711803
 70
     0
  0
APPID
  5
58A
330
9
100
AcDbSymbolTableRecord
100
AcDbRegAppTableRecord
  2
GEVID1212711804
 70
     0
  0
APPID
  5
58B
330
9
100
AcDbSymbolTableRecord
100
AcDbRegAppTableRecord
  2
GEVID1212711805
 70
     0
  0
APPID
  5
58C
330
9
100
AcDbSymbolTableRecord
100
AcDbRegAppTableRecord
  2
GEVID1212711806
 70
     0
  0
APPID
  5
58D
330
9
100
AcDbSymbolTableRecord
100
AcDbRegAppTableRecord
  2
GEVID1212711807
 70
     0
  0
APPID
  5
58E
330
9
100
AcDbSymbolTableRecord
100
AcDbRegAppTableRecord
  2
GEVID1212711808
 70
     0
  0
APPID
  5
58F
330
9
100
AcDbSymbolTableRecord
100
AcDbRegAppTableRecord
  2
GEVID1212711809
 70
     0
  0
APPID
  5
590
330
9
100
AcDbSymbolTableRecord
100
AcDbRegAppTableRecord
  2
GEVID1212711810
 70
     0
  0
APPID
  5
591
330
9
100
AcDbSymbolTableRecord
100
AcDbRegAppTableRecord
  2
GEVID1212711811
 70
     0
  0
APPID
  5
90A
330
9
100
AcDbSymbolTableRecord
100
AcDbRegAppTableRecord
  2
GENIUS_GENTRA_14
 70
     0
  0
APPID
  5
919
330
9
100
AcDbSymbolTableRecord
100
AcDbRegAppTableRecord
  2
GENIUS_GENOBJ-N-TIT_13
 70
     0
  0
APPID
  5
91A
330
9
100
AcDbSymbolTableRecord
100
AcDbRegAppTableRecord
  2
GENIUS_GENTITLE_13
 70
     0
  0
APPID
  5
949
330
9
100
AcDbSymbolTableRecord
100
AcDbRegAppTableRecord
  2
GENIUS_GENBLLY_14
 70
     0
  0
APPID
  5
DDD
330
9
100
AcDbSymbolTableRecord
100
AcDbRegAppTableRecord
  2
GEVID1213165152
 70
     0
  0
APPID
  5
12F9
330
9
100
AcDbSymbolTableRecord
100
AcDbRegAppTableRecord
  2
AcDbDynamicBlockTrueName
 70
     0
  0
APPID
  5
12FA
330
9
100
AcDbSymbolTableRecord
100
AcDbRegAppTableRecord
  2
ACDBBLOCKREPETAG
 70
     0
  0
APPID
  5
1C15
330
9
100
AcDbSymbolTableRecord
100
AcDbRegAppTableRecord
  2
GEVID1214872427
 70
     0
  0
APPID
  5
1C2A
330
9
100
AcDbSymbolTableRecord
100
AcDbRegAppTableRecord
  2
GEVID1214872428
 70
     0
  0
APPID
  5
1C2F
330
9
100
AcDbSymbolTableRecord
100
AcDbRegAppTableRecord
  2
GEVID1214872429
 70
     0
  0
APPID
  5
1C33
330
9
100
AcDbSymbolTableRecord
100
AcDbRegAppTableRecord
  2
GEVID1214872430
 70
     0
  0
APPID
  5
1C3F
330
9
100
AcDbSymbolTableRecord
100
AcDbRegAppTableRecord
  2
GEVID1214872432
 70
     0
  0
APPID
  5
1C4E
330
9
100
AcDbSymbolTableRecord
100
AcDbRegAppTableRecord
  2
GEVID1214872433
 70
     0
  0
APPID
  5
20DC
330
9
100
AcDbSymbolTableRecord
100
AcDbRegAppTableRecord
  2
AcDbDynamicBlockGUID
 70
     0
  0
APPID
  5
20FD
330
9
100
AcDbSymbolTableRecord
100
AcDbRegAppTableRecord
  2
GENIUS_GENOBJ-N-REV_13
 70
     0
  0
APPID
  5
20FE
330
9
100
AcDbSymbolTableRecord
100
AcDbRegAppTableRecord
  2
GENIUS_GENOBJ-N-RSSYM_13
 70
     0
  0
APPID
  5
20FF
330
9
100
AcDbSymbolTableRecord
100
AcDbRegAppTableRecord
  2
GENIUS_GENSYMENT_13
 70
     0
  0
APPID
  5
2100
330
9
100
AcDbSymbolTableRecord
100
AcDbRegAppTableRecord
  2
GENIUS_GENSCSYM_13
 70
     0
  0
APPID
  5
5ABB
330
9
100
AcDbSymbolTableRecord
100
AcDbRegAppTableRecord
  2
GEVID1239931158
 70
     0
  0
APPID
  5
5ABF
330
9
100
AcDbSymbolTableRecord
100
AcDbRegAppTableRecord
  2
GEVID1239931159
 70
     0
  0
APPID
  5
5FB8
330
9
100
AcDbSymbolTableRecord
100
AcDbRegAppTableRecord
  2
GEVID1239931160
 70
     0
  0
APPID
  5
5FBC
330
9
100
AcDbSymbolTableRecord
100
AcDbRegAppTableRecord
  2
GEVID1239931161
 70
     0
  0
ENDTAB
  0
TABLE
  2
DIMSTYLE
  5
A
330
0
100
AcDbSymbolTable
 70
    29
100
AcDbDimStyleTable
 71
     1
340
5AB
  0
DIMSTYLE
105
5AB
330
A
100
AcDbSymbolTableRecord
100
AcDbDimStyleTableRecord
  2
SEISA
 70
     0
  4
"
 40
10.0
 41
2.5
 42
0.625
 43
10.0
 44
0.625
 47
0.1
 48
0.1
 73
     0
 74
     0
 77
     3
 78
     8
 79
     2
 90
     1
140
3.5
141
0.0
143
0.0393701
146
0.71
147
1.5
172
     1
176
     3
177
     3
178
     3
271
     2
272
     2
283
     0
286
     8
340
5D5
341
69
342
69
371
    -1
372
    -1
1001
ACAD_DSTYLE_DIMJAG
1070
   388
1040
1.5
1001
ACAD_DSTYLE_DIMTALN
1070
   392
1070
     1
  0
DIMSTYLE
105
5E9
102
{ACAD_REACTORS
330
5AFC
330
5B2E
330
5B46
330
5B62
330
5B90
330
5C48
330
5C60
330
5C78
330
5D10
330
5D2C
330
5D48
330
5DBC
330
7287
330
72B1
102
}
330
A
100
AcDbSymbolTableRecord
100
AcDbDimStyleTableRecord
  2
SEISA$0
 70
     0
  4
"
 40
10.0
 41
2.5
 42
0.625
 43
10.0
 44
0.625
 47
0.1
 48
0.1
 73
     0
 74
     0
 77
     3
 78
     8
 79
     2
 90
     1
140
3.5
141
0.0
143
0.0393701
146
0.71
147
1.5
172
     1
176
     3
177
     3
178
     3
271
     2
272
     2
283
     0
286
     8
340
5D5
341
69
342
69
371
    -1
372
    -1
  0
DIMSTYLE
105
75F4
330
A
100
AcDbSymbolTableRecord
100
AcDbDimStyleTableRecord
  2
AM_ISO
 70
     0
  4
"
 41
2.5
 42
1.0
 43
10.0
 44
1.0
 47
0.1
 48
0.1
 73
     0
 74
     0
 77
     1
 78
     8
 79
     2
 90
     1
140
3.5
141
0.0
143
0.0393701
146
0.71
147
1.5
172
     1
176
   256
177
   256
178
     2
271
     2
272
     3
274
     4
283
     0
284
     8
340
11
371
    -1
372
    -1
  0
DIMSTYLE
105
75F5
330
A
100
AcDbSymbolTableRecord
100
AcDbDimStyleTableRecord
  2
AM_ISO$3
 70
     0
  4
"
 41
2.5
 42
1.0
 43
10.0
 44
1.0
 47
0.1
 48
0.1
 73
     0
 77
     1
 78
     8
 79
     2
 90
     1
140
3.5
141
0.0
143
0.0393701
146
0.71
147
1.5
176
   256
177
   256
178
     2
271
     2
272
     3
274
     4
283
     0
284
     8
288
     1
289
     0
340
11
371
    -1
372
    -1
  0
DIMSTYLE
105
75F6
330
A
100
AcDbSymbolTableRecord
100
AcDbDimStyleTableRecord
  2
AM_ISO$4
 70
     0
  4
"
 41
2.5
 42
1.0
 43
10.0
 44
1.0
 47
0.1
 48
0.1
 73
     0
 77
     1
 78
     8
 79
     2
 90
     1
140
3.5
141
0.0
143
0.0393701
146
0.71
147
1.5
176
   256
177
   256
178
     2
271
     2
272
     3
274
     4
283
     0
284
     8
288
     1
289
     0
340
11
371
    -1
372
    -1
  0
DIMSTYLE
105
75F7
330
A
100
AcDbSymbolTableRecord
100
AcDbDimStyleTableRecord
  2
AM_ISO$6
 70
     0
  4
"
 41
2.5
 42
1.0
 43
10.0
 44
1.0
 47
0.1
 48
0.1
 73
     0
 74
     0
 78
     8
 79
     2
 90
     1
140
3.5
141
0.0
143
0.0393701
146
0.71
147
1.5
172
     1
176
   256
177
   256
178
     2
271
     2
272
     3
274
     4
283
     0
284
     8
340
11
371
    -1
372
    -1
  0
DIMSTYLE
105
75F8
330
A
100
AcDbSymbolTableRecord
100
AcDbDimStyleTableRecord
  2
AM_ISO$7
 70
     0
  4
"
 41
2.5
 42
1.0
 43
10.0
 44
1.0
 47
0.1
 48
0.1
 73
     0
 74
     0
 77
     1
 78
     8
 79
     2
 90
     1
140
5.0
141
0.0
143
0.0393701
146
0.71
147
1.5
172
     1
176
   256
177
   256
178
     2
271
     2
272
     3
274
     4
283
     0
284
     8
340
11
371
    -1
372
    -1
  0
DIMSTYLE
105
75F9
330
A
100
AcDbSymbolTableRecord
100
AcDbDimStyleTableRecord
  2
AM_ISO$SF
 70
     0
  4
"
 41
2.5
 42
1.0
 43
10.0
 44
1.0
 47
0.1
 48
0.1
 73
     0
 74
     0
 75
     1
 76
     1
 77
     1
 78
     8
 79
     2
 90
     1
140
3.5
141
0.0
143
0.0393701
146
0.71
147
1.5
172
     1
176
   256
177
   256
178
     2
271
     2
272
     3
274
     4
283
     0
284
     8
340
11
371
    -1
372
    -1
  0
DIMSTYLE
105
75FA
330
A
100
AcDbSymbolTableRecord
100
AcDbDimStyleTableRecord
  2
AM_ISO$SH
 70
     0
  4
"
 41
2.5
 42
1.0
 43
10.0
 44
1.0
 47
0.1
 48
0.1
 73
     0
 74
     0
 75
     1
 76
     1
 77
     1
 78
     8
 79
     2
 90
     1
140
3.5
141
0.0
143
0.0393701
144
2.0
146
0.71
147
1.5
172
     1
173
     1
176
   256
177
   256
178
     2
271
     2
272
     3
274
     4
283
     0
284
     8
340
11
343
74
371
    -1
372
    -1
  0
ENDTAB
  0
TABLE
  2
BLOCK_RECORD
  5
1
330
0
100
AcDbSymbolTable
 70
    45
  0
BLOCK_RECORD
  5
1F
102
{ACAD_XDICTIONARY
360
82
102
}
330
1
100
AcDbSymbolTableRecord
100
AcDbBlockTableRecord
  2
*Model_Space
340
22
 70
     0
280
     1
281
     0
  0
BLOCK_RECORD
  5
1B
330
1
100
AcDbSymbolTableRecord
100
AcDbBlockTableRecord
  2
*Paper_Space
340
1E
 70
     0
280
     1
281
     0
  0
BLOCK_RECORD
  5
23
330
1
100
AcDbSymbolTableRecord
100
AcDbBlockTableRecord
  2
*Paper_Space0
340
26
 70
     0
280
     1
281
     0
  0
BLOCK_RECORD
  5
69
330
1
100
AcDbSymbolTableRecord
100
AcDbBlockTableRecord
  2
_Open30
340
0
102
{BLKREFS
331
65CE
331
65CF
331
65D7
331
65D8
331
65E3
331
65E4
331
65EB
331
65EC
331
65F6
331
65F7
331
6611
331
6612
331
661A
331
661B
331
6623
331
6624
331
6666
331
6667
331
6BAD
331
6BCE
331
72AB
331
72AC
331
72CF
331
72D0
331
7496
331
7497
102
}
 70
     0
280
     1
281
     0
  0
BLOCK_RECORD
  5
74
330
1
100
AcDbSymbolTableRecord
100
AcDbBlockTableRecord
  2
GENAXEH
340
0
 70
     0
280
     1
281
     0
  0
BLOCK_RECORD
  5
4EE8
102
{ACAD_XDICTIONARY
360
4F16
102
}
330
1
100
AcDbSymbolTableRecord
100
AcDbBlockTableRecord
  2
ロッカクアナツキプラグA R3／4
340
0
310
2800000020000000200000000100080000000000000400000000000000000000000000000000000000000000000080000080000000808000800000008000800080800000C0C0C000C0DCC000F0CAA6000020400000206000002080000020A0000020C0000020E00000400000004020000040400000406000004080000040A0
310
000040C0000040E00000600000006020000060400000606000006080000060A0000060C0000060E00000800000008020000080400000806000008080000080A0000080C0000080E00000A0000000A0200000A0400000A0600000A0800000A0A00000A0C00000A0E00000C0000000C0200000C0400000C0600000C0800000C0
310
A00000C0C00000C0E00000E0000000E0200000E0400000E0600000E0800000E0A00000E0C00000E0E00040000000400020004000400040006000400080004000A0004000C0004000E00040200000402020004020400040206000402080004020A0004020C0004020E000404000004040200040404000404060004040800040
310
40A0004040C0004040E00040600000406020004060400040606000406080004060A0004060C0004060E00040800000408020004080400040806000408080004080A0004080C0004080E00040A0000040A0200040A0400040A0600040A0800040A0A00040A0C00040A0E00040C0000040C0200040C0400040C0600040C08000
310
40C0A00040C0C00040C0E00040E0000040E0200040E0400040E0600040E0800040E0A00040E0C00040E0E00080000000800020008000400080006000800080008000A0008000C0008000E00080200000802020008020400080206000802080008020A0008020C0008020E00080400000804020008040400080406000804080
310
008040A0008040C0008040E00080600000806020008060400080606000806080008060A0008060C0008060E00080800000808020008080400080806000808080008080A0008080C0008080E00080A0000080A0200080A0400080A0600080A0800080A0A00080A0C00080A0E00080C0000080C0200080C0400080C0600080C0
310
800080C0A00080C0C00080C0E00080E0000080E0200080E0400080E0600080E0800080E0A00080E0C00080E0E000C0000000C0002000C0004000C0006000C0008000C000A000C000C000C000E000C0200000C0202000C0204000C0206000C0208000C020A000C020C000C020E000C0400000C0402000C0404000C0406000C0
310
408000C040A000C040C000C040E000C0600000C0602000C0604000C0606000C0608000C060A000C060C000C060E000C0800000C0802000C0804000C0806000C0808000C080A000C080C000C080E000C0A00000C0A02000C0A04000C0A06000C0A08000C0A0A000C0A0C000C0A0E000C0C00000C0C02000C0C04000C0C06000
310
C0C08000C0C0A000F0FBFF00A4A0A000808080000000FF0000FF000000FFFF00FF000000FF00FF00FFFF0000FFFFFF00000000000000000000000000000000000000000000000000000000000000000000000000000000000000000000000000F9000000000000000000000000000000000000000000000000000000000000
310
00F900000000000000000000000000000000000000000000000000000000000000F900000000000000000000000000000000000000000000000000000000000000F900000000000000000000000000000000000000000000000000000000000000F90000000000000000000000000000000000000000000000000000000000
310
0000F900000000000000000000000000000000000000000000000000000000000000F900000000000000000000000000000000000000000000000000000000000000F900000000000000000000000000000000000000000000000000000000000000F900000000000000000000000000000000000000000000000000000000
310
000000F900000000000000000000000000000000000000000000FFFFFFFFFFFFFFFFFFFFFFFFFFFFFFFFFFFF000000000000000000000000FFFF000000000000000000F90000000000000000FFFF0000000000000000FFFFFFFFFFFFFFFFFFFFFFFFFFFFFFFFFFFFFFFFFFFFFFFFFFFF000000000000FFFE00000000000000
310
00000000F900000000000000000000FEFF000000000000FFFE0000000000000000000000F900000000000000000000FEFF000000000000FFFE0000000000000000000000F900000000000000000000FEFF000000000000FFFE0000000000000000000000F900000000000000000000FEFF000000000000FFFE000000000000
310
0000000000F900000000000000000000FEFF0000000000FF00FE0000000000000000000000F900000000000000000000FEFF0000000000FFFE000000000000000000000000F90000000000000000000000FEFF00000000FFFE000000000000000000000000F90000000000000000000000FEFF00000000FFFE000000000000
310
000000000000F90000000000000000000000FEFF00000000FFFE000000000000000000000000F90000000000000000000000FEFF00000000FFFE000000000000000000000000F90000000000000000000000FEFF00000000FFFEFFFFFFFFFFFFFFFFFFFFFFFFFFFFFFFFFFFFFFFFFFFFFFFFFEFF0000000000FF0000000000
310
00000000000000F90000000000000000000000FF00000000000000FF0000000000000000000000F900000000000000000000FF0000000000000000000000000000000000000000F900000000000000000000000000000000000000000000000000000000000000F90000000000000000000000000000000000000000000000
310
0000000000000000F90000000000000000000000000000000000000000000000000000000000000000000000000000000000000000000000
102
{BLKREFS
331
4FF9
102
}
 70
     4
280
     1
281
     0
  0
BLOCK_RECORD
  5
4FBB
102
{ACAD_XDICTIONARY
360
5085
102
}
330
1
100
AcDbSymbolTableRecord
100
AcDbBlockTableRecord
  2
ケースＡ CCMH900
340
0
310
2800000020000000200000000100080000000000000400000000000000000000000000000000000000000000000080000080000000808000800000008000800080800000C0C0C000C0DCC000F0CAA6000020400000206000002080000020A0000020C0000020E00000400000004020000040400000406000004080000040A0
310
000040C0000040E00000600000006020000060400000606000006080000060A0000060C0000060E00000800000008020000080400000806000008080000080A0000080C0000080E00000A0000000A0200000A0400000A0600000A0800000A0A00000A0C00000A0E00000C0000000C0200000C0400000C0600000C0800000C0
310
A00000C0C00000C0E00000E0000000E0200000E0400000E0600000E0800000E0A00000E0C00000E0E00040000000400020004000400040006000400080004000A0004000C0004000E00040200000402020004020400040206000402080004020A0004020C0004020E000404000004040200040404000404060004040800040
310
40A0004040C0004040E00040600000406020004060400040606000406080004060A0004060C0004060E00040800000408020004080400040806000408080004080A0004080C0004080E00040A0000040A0200040A0400040A0600040A0800040A0A00040A0C00040A0E00040C0000040C0200040C0400040C0600040C08000
310
40C0A00040C0C00040C0E00040E0000040E0200040E0400040E0600040E0800040E0A00040E0C00040E0E00080000000800020008000400080006000800080008000A0008000C0008000E00080200000802020008020400080206000802080008020A0008020C0008020E00080400000804020008040400080406000804080
310
008040A0008040C0008040E00080600000806020008060400080606000806080008060A0008060C0008060E00080800000808020008080400080806000808080008080A0008080C0008080E00080A0000080A0200080A0400080A0600080A0800080A0A00080A0C00080A0E00080C0000080C0200080C0400080C0600080C0
310
800080C0A00080C0C00080C0E00080E0000080E0200080E0400080E0600080E0800080E0A00080E0C00080E0E000C0000000C0002000C0004000C0006000C0008000C000A000C000C000C000E000C0200000C0202000C0204000C0206000C0208000C020A000C020C000C020E000C0400000C0402000C0404000C0406000C0
310
408000C040A000C040C000C040E000C0600000C0602000C0604000C0606000C0608000C060A000C060C000C060E000C0800000C0802000C0804000C0806000C0808000C080A000C080C000C080E000C0A00000C0A02000C0A04000C0A06000C0A08000C0A0A000C0A0C000C0A0E000C0C00000C0C02000C0C04000C0C06000
310
C0C08000C0C0A000F0FBFF00A4A0A000808080000000FF0000FF000000FFFF00FF000000FF00FF00FFFF0000FFFFFF000000000000000000000000000000000000000000000000000000000000000000000000000000000000000000FFFF000000000000000000000000000000000000000000000000000000000000FFFF00
310
0000000000000000000000000000000000000000000000000000000000FFFFFFFFFFFFFFFFFFFF00000000000000000000000000000000000000000000FFFF0000000000FF00FF00000000000000000000000000000000000000000000FFFF0000000000FF00FF00000000000000000000000000000000000000000000FFFF
310
0000000000FF00FF00000000000000000000000000000000000000000000FFFF0000000000FF00FF00000000000000000000000000000000000000000000FFFF0000000000FF00FF00000000000000000000000000000000000000000000FFFF0000000000FF00FF00000000000000000000000000000000000000000000FF
310
FF0000000000FF00FF00000000000000000000000000000000000000000000FFFF0000000000FF00FF00000000000000000000000000000000000000000000FFFF0000000000FF00FF00000000000000000000000000000000000000000000FFFF0000000000FF00FF00000000000000000000000000000000000000000000
310
FFFF0000000000FF00FF00000000000000000000000000000000000000000000FFFF0000000000FF00FF00000000000000000000000000000000000000000000FFFF0000000000FF00FF0000000000000000000000000000000000000000000000000000000000000000000000000000000000000000000000000000000000
310
00000000000000000000000000000000000000000000000000000000000000000000000000000000000000000000000000000000000000000000000000000000000000000000000000000000000000000000000000000000000000000000000000000000000000000000000000000000000000000000000000000000000000
310
00000000000000000000000000000000000000000000000000000000000000000000000000000000000000000000000000000000000000000000000000000000000000000000000000000000000000000000000000000000000000000000000000000000000000000000000000000000000000000000000000000000000000
310
00000000000000FFA4A4A4FF0000000000000000000000000000000000000000000000FFFFFFFFFFFFFFFFFFFF000000000000000000000000000000000000000000FFFFFFFFFFFFFFFFFFFFFFFF000000000000000000000000000000000000F9F9FFFFFFF900000000000000000000000000000000000000000000000000
310
00000000FFFF0000000000000000000000000000000000000000000000000000000000000000000000000000000000000000000000000000
102
{BLKREFS
331
4FFA
102
}
 70
     4
280
     1
281
     0
  0
BLOCK_RECORD
  5
50F6
102
{ACAD_XDICTIONARY
360
51AB
102
}
330
1
100
AcDbSymbolTableRecord
100
AcDbBlockTableRecord
  2
ケースＢ CCMH900
340
0
310
2800000020000000200000000100080000000000000400000000000000000000000000000000000000000000000080000080000000808000800000008000800080800000C0C0C000C0DCC000F0CAA6000020400000206000002080000020A0000020C0000020E00000400000004020000040400000406000004080000040A0
310
000040C0000040E00000600000006020000060400000606000006080000060A0000060C0000060E00000800000008020000080400000806000008080000080A0000080C0000080E00000A0000000A0200000A0400000A0600000A0800000A0A00000A0C00000A0E00000C0000000C0200000C0400000C0600000C0800000C0
310
A00000C0C00000C0E00000E0000000E0200000E0400000E0600000E0800000E0A00000E0C00000E0E00040000000400020004000400040006000400080004000A0004000C0004000E00040200000402020004020400040206000402080004020A0004020C0004020E000404000004040200040404000404060004040800040
310
40A0004040C0004040E00040600000406020004060400040606000406080004060A0004060C0004060E00040800000408020004080400040806000408080004080A0004080C0004080E00040A0000040A0200040A0400040A0600040A0800040A0A00040A0C00040A0E00040C0000040C0200040C0400040C0600040C08000
310
40C0A00040C0C00040C0E00040E0000040E0200040E0400040E0600040E0800040E0A00040E0C00040E0E00080000000800020008000400080006000800080008000A0008000C0008000E00080200000802020008020400080206000802080008020A0008020C0008020E00080400000804020008040400080406000804080
310
008040A0008040C0008040E00080600000806020008060400080606000806080008060A0008060C0008060E00080800000808020008080400080806000808080008080A0008080C0008080E00080A0000080A0200080A0400080A0600080A0800080A0A00080A0C00080A0E00080C0000080C0200080C0400080C0600080C0
310
800080C0A00080C0C00080C0E00080E0000080E0200080E0400080E0600080E0800080E0A00080E0C00080E0E000C0000000C0002000C0004000C0006000C0008000C000A000C000C000C000E000C0200000C0202000C0204000C0206000C0208000C020A000C020C000C020E000C0400000C0402000C0404000C0406000C0
310
408000C040A000C040C000C040E000C0600000C0602000C0604000C0606000C0608000C060A000C060C000C060E000C0800000C0802000C0804000C0806000C0808000C080A000C080C000C080E000C0A00000C0A02000C0A04000C0A06000C0A08000C0A0A000C0A0C000C0A0E000C0C00000C0C02000C0C04000C0C06000
310
C0C08000C0C0A000F0FBFF00A4A0A000808080000000FF0000FF000000FFFF00FF000000FF00FF00FFFF0000FFFFFF000000000000000000000000000000000000000000000000000000000000000000000000000000000000000000000000000000FFFF000000000000000000000000000000000000000000000000000000
310
000000F9F9F9F90000000000000000000000000000000000000000FFFFFFFFFFFFFFFFFF000000000000000000000000000000000000000000000000FFFF0000000000FF000000000000000000000000000000000000000000000000FFFF0000000000FF000000000000000000000000000000000000000000000000FFFF00
310
00000000FF000000000000000000000000000000000000000000000000FFFF0000000000FF000000000000000000000000000000000000000000000000FFFF0000000000FF000000000000000000000000000000000000000000000000FFFF0000000000FF000000000000000000000000000000000000000000000000FFFF
310
0000000000FF000000000000000000000000000000000000000000000000FFFF0000000000FF000000000000000000000000000000000000000000000000FFFF0000000000FF000000000000000000000000000000000000000000000000FFFF0000000000FF000000000000000000000000000000000000000000000000FF
310
FF0000000000FF000000000000000000000000000000000000000000000000FFFF0000000000FF000000000000000000000000000000000000000000000000FFFF0000000000FF0000000000000000000000000000000000000000000000000000000000000000000000000000000000000000000000000000000000000000
310
00000000000000000000000000000000000000000000000000000000000000000000000000000000000000000000000000000000000000000000000000000000000000000000000000000000000000000000000000000000000000000000000000000000000000000000000000000000000000000000000000000000000000
310
00000000000000000000000000000000000000000000000000000000000000000000000000000000000000000000000000000000000000000000000000000000000000000000000000000000000000000000000000000000000000000000000000000000000000000000000000000000000000000000000000000000000000
310
0000FFA4A4A4FFFF0000000000000000000000000000000000000000000000000000FFFFFFFFFFFFFFFFFF00000000000000000000000000000000000000000000FFFFFFFFFFFFFFFFFF00000000000000000000000000000000000000000000000000000000000000FF000000000000000000000000000000000000000000
310
00000000000000000000FFFF0000000000000000000000000000000000000000000000000000000000000000000000000000000000000000
102
{BLKREFS
331
512B
102
}
 70
     4
280
     1
281
     0
  0
BLOCK_RECORD
  5
529A
102
{ACAD_XDICTIONARY
360
52E8
102
}
330
1
100
AcDbSymbolTableRecord
100
AcDbBlockTableRecord
  2
ロッカクアナツキプラグＢ R3／4
340
0
102
{BLKREFS
331
512A
102
}
 70
     0
280
     1
281
     0
  0
BLOCK_RECORD
  5
535C
102
{ACAD_XDICTIONARY
360
53E4
102
}
330
1
100
AcDbSymbolTableRecord
100
AcDbBlockTableRecord
  2
センタＡ CCMH900
340
0
310
2800000020000000200000000100080000000000000400000000000000000000000000000000000000000000000080000080000000808000800000008000800080800000C0C0C000C0DCC000F0CAA6000020400000206000002080000020A0000020C0000020E00000400000004020000040400000406000004080000040A0
310
000040C0000040E00000600000006020000060400000606000006080000060A0000060C0000060E00000800000008020000080400000806000008080000080A0000080C0000080E00000A0000000A0200000A0400000A0600000A0800000A0A00000A0C00000A0E00000C0000000C0200000C0400000C0600000C0800000C0
310
A00000C0C00000C0E00000E0000000E0200000E0400000E0600000E0800000E0A00000E0C00000E0E00040000000400020004000400040006000400080004000A0004000C0004000E00040200000402020004020400040206000402080004020A0004020C0004020E000404000004040200040404000404060004040800040
310
40A0004040C0004040E00040600000406020004060400040606000406080004060A0004060C0004060E00040800000408020004080400040806000408080004080A0004080C0004080E00040A0000040A0200040A0400040A0600040A0800040A0A00040A0C00040A0E00040C0000040C0200040C0400040C0600040C08000
310
40C0A00040C0C00040C0E00040E0000040E0200040E0400040E0600040E0800040E0A00040E0C00040E0E00080000000800020008000400080006000800080008000A0008000C0008000E00080200000802020008020400080206000802080008020A0008020C0008020E00080400000804020008040400080406000804080
310
008040A0008040C0008040E00080600000806020008060400080606000806080008060A0008060C0008060E00080800000808020008080400080806000808080008080A0008080C0008080E00080A0000080A0200080A0400080A0600080A0800080A0A00080A0C00080A0E00080C0000080C0200080C0400080C0600080C0
310
800080C0A00080C0C00080C0E00080E0000080E0200080E0400080E0600080E0800080E0A00080E0C00080E0E000C0000000C0002000C0004000C0006000C0008000C000A000C000C000C000E000C0200000C0202000C0204000C0206000C0208000C020A000C020C000C020E000C0400000C0402000C0404000C0406000C0
310
408000C040A000C040C000C040E000C0600000C0602000C0604000C0606000C0608000C060A000C060C000C060E000C0800000C0802000C0804000C0806000C0808000C080A000C080C000C080E000C0A00000C0A02000C0A04000C0A06000C0A08000C0A0A000C0A0C000C0A0E000C0C00000C0C02000C0C04000C0C06000
310
C0C08000C0C0A000F0FBFF00A4A0A000808080000000FF0000FF000000FFFF00FF000000FF00FF00FFFF0000FFFFFF000000000000000000000000000000000000000000000000000000000000000000000000000000000000000000000000000000FFFFFFFFFFFFFF00000000000000000000000000000000000000000000
310
00000000FF0000000000FF00000000000000000000000000000000000000000000000000FF0000000000FF00000000000000000000000000000000000000000000000000FF0000000000FF00000000000000000000000000000000000000000000000000FF0000000000FF0000000000000000000000000000000000000000
310
0000000000FF0000000000FF00000000000000000000000000000000000000000000000000FF0000000000FF00000000000000000000000000000000000000000000000000FF0000000000FF00000000000000000000000000000000000000000000000000FF0000000000FF00000000000000000000000000000000000000
310
000000000000FF0000000000FF00000000000000000000000000000000000000000000000000FF0000000000FF00000000000000000000000000000000000000000000000000FF0000000000FF00000000000000000000000000000000000000000000000000FF0000000000FF000000000000000000000000000000000000
310
00000000000000FF0000000000FF000000000000000000000000A4A4A4A4A40000000000000000FF00A4A4A4FFA4000000000000000000000000A4A4A4A4000000000000000000000000A4A4FFA4000000000000000000000000FF0000000000000000000000000000000000FFFF000000000000000000000000FF00000000
310
00000000000000000000000000FFFF000000000000000000000000FF0000000000000000000000000000000000FFFF000000000000000000000000FF0000000000000000000000000000000000FFFF000000000000000000000000FF0000000000000000000000000000000000FFFF000000000000000000000000FF000000
310
0000000000000000000000000000FFFF000000000000000000000000FFFFFFFFFFFFFFFFFFFFFFFFFFFFFFFFFFFFFFFF000000000000000000000000FFFFFFFFFFFFFFFFFFFFFFFFFFFFFFFFFFFFFFFF000000000000000000000000FF000000000000000000000000000000000000FF000000000000000000000000FF0000
310
00000000000000000000000000000000FF000000000000000000000000FF000000000000000000000000000000000000FF000000000000000000000000FFFFFFFFFFFF00000000FFFFFFFFFFFFFFFFFFFF0000000000000000000000000000000000FFFFF9FFFFFF0000000000000000000000000000000000000000000000
310
0000000000F90000000000000000000000000000000000000000000000000000000000000000000000000000000000000000000000000000
102
{BLKREFS
331
538A
102
}
 70
     4
280
     1
281
     0
  0
BLOCK_RECORD
  5
543B
102
{ACAD_XDICTIONARY
360
5560
102
}
330
1
100
AcDbSymbolTableRecord
100
AcDbBlockTableRecord
  2
センタＢ CCMH900
340
0
310
2800000020000000200000000100080000000000000400000000000000000000000000000000000000000000000080000080000000808000800000008000800080800000C0C0C000C0DCC000F0CAA6000020400000206000002080000020A0000020C0000020E00000400000004020000040400000406000004080000040A0
310
000040C0000040E00000600000006020000060400000606000006080000060A0000060C0000060E00000800000008020000080400000806000008080000080A0000080C0000080E00000A0000000A0200000A0400000A0600000A0800000A0A00000A0C00000A0E00000C0000000C0200000C0400000C0600000C0800000C0
310
A00000C0C00000C0E00000E0000000E0200000E0400000E0600000E0800000E0A00000E0C00000E0E00040000000400020004000400040006000400080004000A0004000C0004000E00040200000402020004020400040206000402080004020A0004020C0004020E000404000004040200040404000404060004040800040
310
40A0004040C0004040E00040600000406020004060400040606000406080004060A0004060C0004060E00040800000408020004080400040806000408080004080A0004080C0004080E00040A0000040A0200040A0400040A0600040A0800040A0A00040A0C00040A0E00040C0000040C0200040C0400040C0600040C08000
310
40C0A00040C0C00040C0E00040E0000040E0200040E0400040E0600040E0800040E0A00040E0C00040E0E00080000000800020008000400080006000800080008000A0008000C0008000E00080200000802020008020400080206000802080008020A0008020C0008020E00080400000804020008040400080406000804080
310
008040A0008040C0008040E00080600000806020008060400080606000806080008060A0008060C0008060E00080800000808020008080400080806000808080008080A0008080C0008080E00080A0000080A0200080A0400080A0600080A0800080A0A00080A0C00080A0E00080C0000080C0200080C0400080C0600080C0
310
800080C0A00080C0C00080C0E00080E0000080E0200080E0400080E0600080E0800080E0A00080E0C00080E0E000C0000000C0002000C0004000C0006000C0008000C000A000C000C000C000E000C0200000C0202000C0204000C0206000C0208000C020A000C020C000C020E000C0400000C0402000C0404000C0406000C0
310
408000C040A000C040C000C040E000C0600000C0602000C0604000C0606000C0608000C060A000C060C000C060E000C0800000C0802000C0804000C0806000C0808000C080A000C080C000C080E000C0A00000C0A02000C0A04000C0A06000C0A08000C0A0A000C0A0C000C0A0E000C0C00000C0C02000C0C04000C0C06000
310
C0C08000C0C0A000F0FBFF00A4A0A000808080000000FF0000FF000000FFFF00FF000000FF00FF00FFFF0000FFFFFF00000000000000000000000000000000000000000000000000000000000000000000000000000000FFFFFFFFFFFFFF000000000000000000000000000000000000000000000000FF0000000000FF0000
310
0000000000000000000000000000000000000000000000FF0000000000FF00000000000000000000000000000000000000000000000000FF0000000000FF00000000000000000000000000000000000000000000000000FF0000000000FF00000000000000000000000000000000000000000000000000FF0000000000FF00
310
000000000000000000000000000000000000000000000000FF0000000000FF00000000000000000000000000000000000000000000000000FF0000000000FF00000000000000000000000000000000000000000000000000FF0000000000FF00000000000000000000000000000000000000000000000000FF0000000000FF
310
00000000000000000000000000000000000000000000000000FF0000000000FF00000000000000000000000000000000000000000000000000FF0000000000FF00000000000000000000000000000000000000000000000000FF0000000000FF00000000000000000000000000000000000000000000000000FF0000000000
310
FF00000000000000000000000000000000000000000000000000A4FFA4A4A400FF0000000000000000A4A4A4A4A4000000000000000000000000A4FFA4A4000000000000000000000000A4A4A4A4000000000000000000000000FFFF0000000000000000000000000000000000FF000000000000000000000000FFFF000000
310
0000000000000000000000000000FF000000000000000000000000FFFF0000000000000000000000000000000000FF000000000000000000000000FFFF0000000000000000000000000000000000FF000000000000000000000000FFFF0000000000000000000000000000000000FF000000000000000000000000FFFF0000
310
000000000000000000000000000000FF000000000000000000000000FFFFFFFFFFFFFFFFFFFFFFFFFFFFFFFFFFFFFFFF000000000000000000000000FFFFFFFFFFFFFFFFFFFFFFFFFFFFFFFFFFFFFFFF000000000000000000000000FF000000000000000000000000000000000000FF000000000000000000000000FF0000
310
00000000000000000000000000000000FF000000000000000000000000FF000000000000000000000000000000000000FF000000000000000000000000FFFFFFFFFFFFFFFFFFFF00000000FFFFFFFFFFFF000000000000000000000000000000000000000000FFFFFFF9FFFF00000000000000000000000000000000000000
310
00000000000000000000F9000000000000000000000000000000000000000000000000000000000000000000000000000000000000000000
102
{BLKREFS
331
5469
102
}
 70
     4
280
     1
281
     0
  0
BLOCK_RECORD
  5
565D
102
{ACAD_XDICTIONARY
360
56F9
102
}
330
1
100
AcDbSymbolTableRecord
100
AcDbBlockTableRecord
  2
リーマボルト CCMH900 M30
340
0
310
2800000020000000200000000100080000000000000400000000000000000000000000000000000000000000000080000080000000808000800000008000800080800000C0C0C000C0DCC000F0CAA6000020400000206000002080000020A0000020C0000020E00000400000004020000040400000406000004080000040A0
310
000040C0000040E00000600000006020000060400000606000006080000060A0000060C0000060E00000800000008020000080400000806000008080000080A0000080C0000080E00000A0000000A0200000A0400000A0600000A0800000A0A00000A0C00000A0E00000C0000000C0200000C0400000C0600000C0800000C0
310
A00000C0C00000C0E00000E0000000E0200000E0400000E0600000E0800000E0A00000E0C00000E0E00040000000400020004000400040006000400080004000A0004000C0004000E00040200000402020004020400040206000402080004020A0004020C0004020E000404000004040200040404000404060004040800040
310
40A0004040C0004040E00040600000406020004060400040606000406080004060A0004060C0004060E00040800000408020004080400040806000408080004080A0004080C0004080E00040A0000040A0200040A0400040A0600040A0800040A0A00040A0C00040A0E00040C0000040C0200040C0400040C0600040C08000
310
40C0A00040C0C00040C0E00040E0000040E0200040E0400040E0600040E0800040E0A00040E0C00040E0E00080000000800020008000400080006000800080008000A0008000C0008000E00080200000802020008020400080206000802080008020A0008020C0008020E00080400000804020008040400080406000804080
310
008040A0008040C0008040E00080600000806020008060400080606000806080008060A0008060C0008060E00080800000808020008080400080806000808080008080A0008080C0008080E00080A0000080A0200080A0400080A0600080A0800080A0A00080A0C00080A0E00080C0000080C0200080C0400080C0600080C0
310
800080C0A00080C0C00080C0E00080E0000080E0200080E0400080E0600080E0800080E0A00080E0C00080E0E000C0000000C0002000C0004000C0006000C0008000C000A000C000C000C000E000C0200000C0202000C0204000C0206000C0208000C020A000C020C000C020E000C0400000C0402000C0404000C0406000C0
310
408000C040A000C040C000C040E000C0600000C0602000C0604000C0606000C0608000C060A000C060C000C060E000C0800000C0802000C0804000C0806000C0808000C080A000C080C000C080E000C0A00000C0A02000C0A04000C0A06000C0A08000C0A0A000C0A0C000C0A0E000C0C00000C0C02000C0C04000C0C06000
310
C0C08000C0C0A000F0FBFF00A4A0A000808080000000FF0000FF000000FFFF00FF000000FF00FF00FFFF0000FFFFFF0000000000000000000000000000000000000000000000000000000000000000000000000000000000000000000000000000000000000000000000000000000000000000000000000000000000000000
310
00000000000000000000000000000000000000000000000000000000000000000000000000000000000000000000000000000000000000000000000000000000000000000000000000000000000000000000000000000000000000000000000000000000000000000000000000000000000000000000000000000000000000
310
00000000000000000000000000000000000000000000000000000000000000000000000000000000000000000000000000000000000000000000000000000000000000000000000000000000000000000000000000000000000000000000000000000000000000000000000000000000000000000000FFFFFFFFFFFFFF0000
310
00000000000000000000000000FFFFFFFF0000000000FFFF000000FF0000000000000000000000000000000000000000FFFF000000FFFFFF000000FF00FFFF00000000000000000000000000FFFF0000FFFF0000FFFFFFFFFFFFFFFF00FFFF00000000000000000000000000FFFFFFFFFFFF0000FFFFFFFF000000FF00FFFF
310
00000000000000000000000000FF000000FFFF0000FFFFFFFF000000FFFFFFFF00000000000000000000000000FF000000FFFF0000FFFFFFFF000000FFFFFFFF00000000000000000000000000FF000000FFFF0000FFFFFFFF000000FF00FFFF00000000000000000000000000FF000000FFFF0000FFFFFFFFFFFFFFFF00FF
310
FF00000000000000000000000000FFFFFFFFFFFF000000FFFFFF000000FF00FFFF00000000000000000000000000FFFF0000FFFF00000000FFFF000000FF0000000000000000000000000000000000000000FFFF0000000000FFFFFFFFFFFFFF000000000000000000000000000000FFFFFFFF000000000000000000000000
310
00000000000000000000000000000000000000000000000000000000000000000000000000000000000000000000000000000000000000000000000000000000000000000000000000000000000000000000000000000000000000000000000000000000000000000000000000000000000000000000000000000000000000
310
00000000000000000000000000000000000000000000000000000000000000000000000000000000000000000000000000000000000000000000000000000000000000000000000000000000000000000000000000000000000000000000000000000000000000000000000000000000000000000000000000000000000000
310
0000000000000000000000000000000000000000000000000000000000000000000000000000000000000000000000000000000000000000
102
{BLKREFS
331
568A
102
}
 70
     4
280
     1
281
     0
  0
BLOCK_RECORD
  5
57AC
102
{ACAD_XDICTIONARY
360
5847
102
}
330
1
100
AcDbSymbolTableRecord
100
AcDbBlockTableRecord
  2
ＧＣサイドカバ－A CCMH900
340
0
310
2800000020000000200000000100080000000000000400000000000000000000000000000000000000000000000080000080000000808000800000008000800080800000C0C0C000C0DCC000F0CAA6000020400000206000002080000020A0000020C0000020E00000400000004020000040400000406000004080000040A0
310
000040C0000040E00000600000006020000060400000606000006080000060A0000060C0000060E00000800000008020000080400000806000008080000080A0000080C0000080E00000A0000000A0200000A0400000A0600000A0800000A0A00000A0C00000A0E00000C0000000C0200000C0400000C0600000C0800000C0
310
A00000C0C00000C0E00000E0000000E0200000E0400000E0600000E0800000E0A00000E0C00000E0E00040000000400020004000400040006000400080004000A0004000C0004000E00040200000402020004020400040206000402080004020A0004020C0004020E000404000004040200040404000404060004040800040
310
40A0004040C0004040E00040600000406020004060400040606000406080004060A0004060C0004060E00040800000408020004080400040806000408080004080A0004080C0004080E00040A0000040A0200040A0400040A0600040A0800040A0A00040A0C00040A0E00040C0000040C0200040C0400040C0600040C08000
310
40C0A00040C0C00040C0E00040E0000040E0200040E0400040E0600040E0800040E0A00040E0C00040E0E00080000000800020008000400080006000800080008000A0008000C0008000E00080200000802020008020400080206000802080008020A0008020C0008020E00080400000804020008040400080406000804080
310
008040A0008040C0008040E00080600000806020008060400080606000806080008060A0008060C0008060E00080800000808020008080400080806000808080008080A0008080C0008080E00080A0000080A0200080A0400080A0600080A0800080A0A00080A0C00080A0E00080C0000080C0200080C0400080C0600080C0
310
800080C0A00080C0C00080C0E00080E0000080E0200080E0400080E0600080E0800080E0A00080E0C00080E0E000C0000000C0002000C0004000C0006000C0008000C000A000C000C000C000E000C0200000C0202000C0204000C0206000C0208000C020A000C020C000C020E000C0400000C0402000C0404000C0406000C0
310
408000C040A000C040C000C040E000C0600000C0602000C0604000C0606000C0608000C060A000C060C000C060E000C0800000C0802000C0804000C0806000C0808000C080A000C080C000C080E000C0A00000C0A02000C0A04000C0A06000C0A08000C0A0A000C0A0C000C0A0E000C0C00000C0C02000C0C04000C0C06000
310
C0C08000C0C0A000F0FBFF00A4A0A000808080000000FF0000FF000000FFFF00FF000000FF00FF00FFFF0000FFFFFF00000000000000000000000000000000000000000000000000000000000000000000000000000000000000000000000000FF0000000000000000000000000000000000000000000000000000000000F9
310
F9F9F9000000000000000000000000000000000000000000000000000000000000FF00000000000000000000000000000000000000000000000000000000000000FF00000000000000000000000000000000000000000000000000000000000000FF0000000000000000000000000000000000000000000000000000000000
310
0000FF00000000000000000000000000000000000000000000000000000000000000FF00000000000000000000000000000000000000000000000000000000000000FF00000000000000000000000000000000000000000000000000000000000000FF00000000000000000000000000000000000000000000000000000000
310
000000FF00000000000000000000000000000000000000000000000000000000000000FF00000000000000000000000000000000000000000000000000000000000000FF00000000000000000000000000000000000000000000000000000000000000FF000000000000000000000000000000000000000000000000000000
310
00000000FF00000000000000000000000000000000000000000000000000000000000000FF00000000000000000000000000000000000000000000000000000000000000FF00000000000000000000000000000000000000000000000000000000000000000000000000000000000000000000000000000000000000000000
310
00000000000000000000000000000000000000000000000000000000000000000000000000000000000000000000000000000000000000000000000000000000000000000000000000000000000000000000000000000000000000000000000000000000000000000000000000000000000000000000000000000000000000
310
00000000000000000000000000000000000000000000000000000000000000000000000000000000000000000000000000000000000000000000000000000000000000000000000000000000000000000000000000000000000000000000000000000000000000000000000000000000000000000000000000000000000000
310
0000000000000000000000000000000000000000000000000000000000000000000000000000FFFF000000000000000000000000000000000000000000000000000000000000FFFFFF00000000000000000000000000000000000000000000000000000000FFFFFFFF00000000000000000000000000000000000000000000
310
00000000000000FFFF0000000000000000000000000000000000000000000000000000000000000000000000000000000000000000000000
102
{BLKREFS
331
57DC
102
}
 70
     4
280
     1
281
     0
  0
BLOCK_RECORD
  5
58BC
102
{ACAD_XDICTIONARY
360
595A
102
}
330
1
100
AcDbSymbolTableRecord
100
AcDbBlockTableRecord
  2
ＧＣサイドカバ－Ｂ CCMH900
340
0
310
2800000020000000200000000100080000000000000400000000000000000000000000000000000000000000000080000080000000808000800000008000800080800000C0C0C000C0DCC000F0CAA6000020400000206000002080000020A0000020C0000020E00000400000004020000040400000406000004080000040A0
310
000040C0000040E00000600000006020000060400000606000006080000060A0000060C0000060E00000800000008020000080400000806000008080000080A0000080C0000080E00000A0000000A0200000A0400000A0600000A0800000A0A00000A0C00000A0E00000C0000000C0200000C0400000C0600000C0800000C0
310
A00000C0C00000C0E00000E0000000E0200000E0400000E0600000E0800000E0A00000E0C00000E0E00040000000400020004000400040006000400080004000A0004000C0004000E00040200000402020004020400040206000402080004020A0004020C0004020E000404000004040200040404000404060004040800040
310
40A0004040C0004040E00040600000406020004060400040606000406080004060A0004060C0004060E00040800000408020004080400040806000408080004080A0004080C0004080E00040A0000040A0200040A0400040A0600040A0800040A0A00040A0C00040A0E00040C0000040C0200040C0400040C0600040C08000
310
40C0A00040C0C00040C0E00040E0000040E0200040E0400040E0600040E0800040E0A00040E0C00040E0E00080000000800020008000400080006000800080008000A0008000C0008000E00080200000802020008020400080206000802080008020A0008020C0008020E00080400000804020008040400080406000804080
310
008040A0008040C0008040E00080600000806020008060400080606000806080008060A0008060C0008060E00080800000808020008080400080806000808080008080A0008080C0008080E00080A0000080A0200080A0400080A0600080A0800080A0A00080A0C00080A0E00080C0000080C0200080C0400080C0600080C0
310
800080C0A00080C0C00080C0E00080E0000080E0200080E0400080E0600080E0800080E0A00080E0C00080E0E000C0000000C0002000C0004000C0006000C0008000C000A000C000C000C000E000C0200000C0202000C0204000C0206000C0208000C020A000C020C000C020E000C0400000C0402000C0404000C0406000C0
310
408000C040A000C040C000C040E000C0600000C0602000C0604000C0606000C0608000C060A000C060C000C060E000C0800000C0802000C0804000C0806000C0808000C080A000C080C000C080E000C0A00000C0A02000C0A04000C0A06000C0A08000C0A0A000C0A0C000C0A0E000C0C00000C0C02000C0C04000C0C06000
310
C0C08000C0C0A000F0FBFF00A4A0A000808080000000FF0000FF000000FFFF00FF000000FF00FF00FFFF0000FFFFFF000000000000000000000000000000000000000000000000000000000000000000000000000000000000000000000000FFFF0000000000000000000000000000000000000000000000000000000000F9
310
F9F9F90000000000000000000000000000000000000000000000000000000000FF00000000000000000000000000000000000000000000000000000000000000FF00000000000000000000000000000000000000000000000000000000000000FF000000000000000000000000000000000000000000000000000000000000
310
00FF00000000000000000000000000000000000000000000000000000000000000FF00000000000000000000000000000000000000000000000000000000000000FF00000000000000000000000000000000000000000000000000000000000000FF0000000000000000000000000000000000000000000000000000000000
310
0000FF00000000000000000000000000000000000000000000000000000000000000FF00000000000000000000000000000000000000000000000000000000000000FF00000000000000000000000000000000000000000000000000000000000000FF00000000000000000000000000000000000000000000000000000000
310
000000FF00000000000000000000000000000000000000000000000000000000000000FF00000000000000000000000000000000000000000000000000000000000000FF0000000000000000000000000000000000000000000000000000000000000000000000000000000000000000000000000000000000000000000000
310
00000000000000000000000000000000000000000000000000000000000000000000000000000000000000000000000000000000000000000000000000000000000000000000000000000000000000000000000000000000000000000000000000000000000000000000000000000000000000000000000000000000000000
310
00000000000000000000000000000000000000000000000000000000000000000000000000000000000000000000000000000000000000000000000000000000000000000000000000000000000000000000000000000000000000000000000000000000000000000000000000000000000000000000000000000000000000
310
0000000000000000000000000000000000000000000000000000000000000000000000000000FFFF0000000000000000000000000000000000000000000000000000000000FFFFFF0000000000000000000000000000000000000000000000000000000000FFFFFFFF00000000000000000000000000000000000000000000
310
00000000000000FFFF0000000000000000000000000000000000000000000000000000000000000000000000000000000000000000000000
102
{BLKREFS
331
58ED
102
}
 70
     4
280
     1
281
     0
  0
BLOCK_RECORD
  5
5AFD
330
1
100
AcDbSymbolTableRecord
100
AcDbBlockTableRecord
  2
*D15
340
0
 70
     0
280
     1
281
     0
  0
BLOCK_RECORD
  5
5B2F
330
1
100
AcDbSymbolTableRecord
100
AcDbBlockTableRecord
  2
*D16
340
0
 70
     0
280
     1
281
     0
  0
BLOCK_RECORD
  5
5B47
330
1
100
AcDbSymbolTableRecord
100
AcDbBlockTableRecord
  2
*D17
340
0
 70
     0
280
     1
281
     0
  0
BLOCK_RECORD
  5
5B63
330
1
100
AcDbSymbolTableRecord
100
AcDbBlockTableRecord
  2
*D18
340
0
 70
     0
280
     1
281
     0
  0
BLOCK_RECORD
  5
5B91
330
1
100
AcDbSymbolTableRecord
100
AcDbBlockTableRecord
  2
*D19
340
0
 70
     0
280
     1
281
     0
  0
BLOCK_RECORD
  5
5C49
330
1
100
AcDbSymbolTableRecord
100
AcDbBlockTableRecord
  2
*D20
340
0
 70
     0
280
     1
281
     0
  0
BLOCK_RECORD
  5
5C61
330
1
100
AcDbSymbolTableRecord
100
AcDbBlockTableRecord
  2
*D21
340
0
 70
     0
280
     1
281
     0
  0
BLOCK_RECORD
  5
5C79
330
1
100
AcDbSymbolTableRecord
100
AcDbBlockTableRecord
  2
*D22
340
0
 70
     0
280
     1
281
     0
  0
BLOCK_RECORD
  5
5D11
330
1
100
AcDbSymbolTableRecord
100
AcDbBlockTableRecord
  2
*D23
340
0
 70
     0
280
     1
281
     0
  0
BLOCK_RECORD
  5
5D2D
330
1
100
AcDbSymbolTableRecord
100
AcDbBlockTableRecord
  2
*D24
340
0
 70
     0
280
     1
281
     0
  0
BLOCK_RECORD
  5
5D49
330
1
100
AcDbSymbolTableRecord
100
AcDbBlockTableRecord
  2
*D25
340
0
 70
     0
280
     1
281
     0
  0
BLOCK_RECORD
  5
5DBD
330
1
100
AcDbSymbolTableRecord
100
AcDbBlockTableRecord
  2
*D26
340
0
 70
     0
280
     1
281
     0
  0
BLOCK_RECORD
  5
6BA2
330
1
100
AcDbSymbolTableRecord
100
AcDbBlockTableRecord
  2
GENDOT
340
0
102
{BLKREFS
331
6BAC
331
6BCD
102
}
 70
     0
280
     1
281
     0
  0
BLOCK_RECORD
  5
7288
330
1
100
AcDbSymbolTableRecord
100
AcDbBlockTableRecord
  2
*D28
340
0
 70
     0
280
     1
281
     0
  0
BLOCK_RECORD
  5
72B2
330
1
100
AcDbSymbolTableRecord
100
AcDbBlockTableRecord
  2
*D29
340
0
 70
     0
280
     1
281
     0
  0
ENDTAB
  0
ENDSEC
  0
SECTION
  2
BLOCKS
  0
BLOCK
  5
20
330
1F
100
AcDbEntity
  8
0
100
AcDbBlockBegin
  2
*Model_Space
 70
     0
 10
0.0
 20
0.0
 30
0.0
  3
*Model_Space
  1

  0
ENDBLK
  5
21
330
1F
100
AcDbEntity
  8
0
100
AcDbBlockEnd
  0
BLOCK
  5
1C
330
1B
100
AcDbEntity
 67
     1
  8
0
100
AcDbBlockBegin
  2
*Paper_Space
 70
     0
 10
0.0
 20
0.0
 30
0.0
  3
*Paper_Space
  1

  0
ENDBLK
  5
1D
330
1B
100
AcDbEntity
 67
     1
  8
0
100
AcDbBlockEnd
  0
BLOCK
  5
24
330
23
100
AcDbEntity
 67
     1
  8
0
100
AcDbBlockBegin
  2
*Paper_Space0
 70
     0
 10
0.0
 20
0.0
 30
0.0
  3
*Paper_Space0
  1

  0
ENDBLK
  5
25
330
23
100
AcDbEntity
 67
     1
  8
0
100
AcDbBlockEnd
  0
BLOCK
  5
6D
330
69
100
AcDbEntity
  8
0
100
AcDbBlockBegin
  2
_Open30
 70
     0
 10
0.0
 20
0.0
 30
0.0
  3
_Open30
  1

  0
LINE
  5
6A
330
69
100
AcDbEntity
  8
0
  6
ByBlock
 62
     0
370
    -2
100
AcDbLine
 10
-1.0
 20
0.26794919
 30
0.0
 11
0.0
 21
0.0
 31
0.0
  0
LINE
  5
6B
330
69
100
AcDbEntity
  8
0
  6
ByBlock
 62
     0
370
    -2
100
AcDbLine
 10
0.0
 20
0.0
 30
0.0
 11
-1.0
 21
-0.26794919
 31
0.0
  0
LINE
  5
6C
330
69
100
AcDbEntity
  8
0
  6
ByBlock
 62
     0
370
    -2
100
AcDbLine
 10
0.0
 20
0.0
 30
0.0
 11
-1.0
 21
0.0
 31
0.0
  0
ENDBLK
  5
6E
330
69
100
AcDbEntity
  8
0
100
AcDbBlockEnd
  0
BLOCK
  5
76
330
74
100
AcDbEntity
  8
0
100
AcDbBlockBegin
  2
GENAXEH
 70
     0
 10
0.0
 20
0.0
 30
0.0
  3
GENAXEH
  1

  0
LINE
  5
75
330
74
100
AcDbEntity
  8
0
100
AcDbLine
 10
-1.0
 20
0.0
 30
0.0
 11
1.0
 21
0.0
 31
0.0
  0
ENDBLK
  5
77
330
74
100
AcDbEntity
  8
0
100
AcDbBlockEnd
  0
BLOCK
  5
4EE9
330
4EE8
100
AcDbEntity
  8
0
100
AcDbBlockBegin
  2
ロッカクアナツキプラグA R3／4
 70
     0
 10
0.0
 20
0.0
 30
0.0
  3
ロッカクアナツキプラグA R3／4
  1

  0
LINE
  5
4F18
330
4EE8
100
AcDbEntity
  8
AM_7 中心線
100
AcDbLine
 10
0.0
 20
2.297871999999641
 30
0.0
 11
0.0
 21
-26.2127660000001
 31
0.0
  0
LINE
  5
4F19
330
4EE8
100
AcDbEntity
  8
AM_0 外形線1
100
AcDbLine
 10
12.99246699999912
 20
-14.0
 30
0.0
 11
-12.99246700000094
 21
-14.0
 31
0.0
  0
LINE
  5
4F1A
330
4EE8
100
AcDbEntity
  8
AM_0 外形線1
100
AcDbLine
 10
-13.41151700000046
 20
-2.0
 30
0.0
 11
13.41151699999955
 21
-2.0
 31
0.0
  0
LINE
  5
4F1B
330
4EE8
100
AcDbEntity
  8
AM_0 外形線1
100
AcDbLine
 10
-7.796315000000504
 20
-17.0
 30
0.0
 11
7.796314999999592
 21
-17.0
 31
0.0
  0
LINE
  5
4F1C
330
4EE8
100
AcDbEntity
  8
AM_4 細線
100
AcDbLine
 10
-12.28872500000034
 20
-0.8772090000002208
 30
0.0
 11
-11.80655800000022
 21
-14.68468600000005
 31
0.0
  0
LINE
  5
4F1D
330
4EE8
100
AcDbEntity
  8
AM_0 外形線1
100
AcDbLine
 10
-12.99246700000094
 20
-14.0
 30
0.0
 11
-7.796315000000504
 21
-17.0
 31
0.0
  0
LINE
  5
4F1E
330
4EE8
100
AcDbEntity
  8
AM_0 外形線1
100
AcDbLine
 10
-13.41151700000046
 20
-2.0
 30
0.0
 11
-12.99246700000094
 21
-14.0
 31
0.0
  0
LINE
  5
4F1F
330
4EE8
100
AcDbEntity
  8
AM_0 外形線1
100
AcDbLine
 10
-11.41151700000046
 20
0.0
 30
0.0
 11
-13.41151700000046
 21
-2.0
 31
0.0
  0
LINE
  5
4F20
330
4EE8
100
AcDbEntity
  8
AM_4 細線
100
AcDbLine
 10
11.80655799999931
 20
-14.68468600000005
 30
0.0
 11
12.28872499999943
 21
-0.8772090000002208
 31
0.0
  0
LINE
  5
4F21
330
4EE8
100
AcDbEntity
  8
AM_0 外形線1
100
AcDbLine
 10
13.41151699999955
 20
-2.000001000000338
 30
0.0
 11
11.41151699999955
 21
0.0
 31
0.0
  0
LINE
  5
4F22
330
4EE8
100
AcDbEntity
  8
AM_0 外形線1
100
AcDbLine
 10
12.99246699999912
 20
-14.0
 30
0.0
 11
13.41151699999955
 21
-2.000001000000338
 31
0.0
  0
LINE
  5
4F23
330
4EE8
100
AcDbEntity
  8
AM_0 外形線1
100
AcDbLine
 10
7.796314999999592
 20
-17.0
 30
0.0
 11
12.99246699999912
 21
-14.0
 31
0.0
  0
LINE
  5
4F42
330
4EE8
100
AcDbEntity
  8
AM_0 外形線1
100
AcDbLine
 10
11.41151699999955
 20
0.0
 30
0.0
 11
-11.41151700000046
 21
0.0
 31
0.0
  0
ENDBLK
  5
4EEA
330
4EE8
100
AcDbEntity
  8
0
100
AcDbBlockEnd
  0
BLOCK
  5
4FBC
330
4FBB
100
AcDbEntity
  8
0
100
AcDbBlockBegin
  2
ケースＡ CCMH900
 70
     0
 10
0.0
 20
0.0
 30
0.0
  3
ケースＡ CCMH900
  1

  0
LINE
  5
4FBE
330
4FBB
100
AcDbEntity
  8
AM_0 外形線1
100
AcDbLine
 10
216.8302376103625
 20
-385.5
 30
0.0
 11
227.3302376103625
 21
-396.0
 31
0.0
  0
ARC
  5
4FBF
330
4FBB
100
AcDbEntity
  8
AM_0 外形線1
100
AcDbCircle
 10
46.33023761036247
 20
-393.5
 30
0.0
 40
8.0
100
AcDbArc
 50
90.0
 51
180.0
  0
LINE
  5
4FC0
330
4FBB
100
AcDbEntity
  8
AM_0 外形線1
100
AcDbLine
 10
227.3302376103625
 20
-396.0
 30
0.0
 11
227.3302376103625
 21
0.0
 31
0.0
  0
LINE
  5
4FC1
330
4FBB
100
AcDbEntity
  8
AM_0 外形線1
100
AcDbLine
 10
267.3302376103625
 20
-396.0
 30
0.0
 11
267.3302376103625
 21
0.0
 31
0.0
  0
LINE
  5
4FC2
330
4FBB
100
AcDbEntity
  8
AM_0 外形線1
100
AcDbLine
 10
0.3302376103624738
 20
0.0
 30
0.0
 11
0.3302376103624738
 21
-449.0
 31
0.0
  0
LINE
  5
4FC3
330
4FBB
100
AcDbEntity
  8
AM_0 外形線1
100
AcDbLine
 10
38.33023761036248
 20
-449.0
 30
0.0
 11
38.33023761036248
 21
0.0
 31
0.0
  0
LINE
  5
4FC4
330
4FBB
100
AcDbEntity
  8
AM_0 外形線1
100
AcDbLine
 10
1.330237610362472
 20
-450.0
 30
0.0
 11
37.33023761036248
 21
-450.0
 31
0.0
  0
LINE
  5
4FC5
330
4FBB
100
AcDbEntity
  8
AM_0 外形線1
100
AcDbLine
 10
0.3302376103624738
 20
-449.0
 30
0.0
 11
1.330237610362472
 21
-450.0
 31
0.0
  0
LINE
  5
4FC6
330
4FBB
100
AcDbEntity
  8
AM_0 外形線1
100
AcDbLine
 10
37.33023761036248
 20
-450.0
 30
0.0
 11
38.33023761036248
 21
-449.0
 31
0.0
  0
LINE
  5
4FC7
330
4FBB
100
AcDbEntity
  8
AM_0 外形線1
100
AcDbLine
 10
227.3302376103625
 20
-396.0
 30
0.0
 11
267.3302376103625
 21
-396.0
 31
0.0
  0
LINE
  5
4FC8
330
4FBB
100
AcDbEntity
  8
AM_0 外形線1
100
AcDbLine
 10
216.8302376103625
 20
-385.5
 30
0.0
 11
216.8302376103625
 21
0.0
 31
0.0
  0
LINE
  5
4FC9
330
4FBB
100
AcDbEntity
  8
AM_0 外形線1
100
AcDbLine
 10
46.33023761036247
 20
-385.5
 30
0.0
 11
216.8302376103625
 21
-385.5
 31
0.0
  0
LINE
  5
4FCA
330
4FBB
100
AcDbEntity
  8
AM_3 隠れ線
100
AcDbLine
 10
249.8302376103625
 20
345.5999999999999
 30
0.0
 11
126.8302376103624
 21
345.5999999999999
 31
0.0
  0
LINE
  5
4FCB
330
4FBB
100
AcDbEntity
  8
AM_7 中心線
100
AcDbLine
 10
114.3302376103624
 20
352.0
 30
0.0
 11
261.3302376103625
 21
352.0
 31
0.0
  0
LINE
  5
4FCC
330
4FBB
100
AcDbEntity
  8
AM_0 外形線1
100
AcDbLine
 10
216.8302376103625
 20
385.5
 30
0.0
 11
227.3302376103625
 21
396.0
 31
0.0
  0
LINE
  5
4FCD
330
4FBB
100
AcDbEntity
  8
AM_0 外形線1
100
AcDbLine
 10
116.3302376103624
 20
360.0
 30
0.0
 11
259.3302376103626
 21
360.0
 31
0.0
  0
LINE
  5
4FCE
330
4FBB
100
AcDbEntity
  8
AM_7 中心線
100
AcDbLine
 10
64.50222361036185
 20
421.0
 30
0.0
 11
-88.83111038963804
 21
421.0
 31
0.0
  0
LINE
  5
4FCF
330
4FBB
100
AcDbEntity
  8
AM_0 外形線1
100
AcDbLine
 10
115.8302376103625
 20
361.5
 30
0.0
 11
-8.669762389637526
 21
361.5
 31
0.0
  0
LINE
  5
4FD0
330
4FBB
100
AcDbEntity
  8
AM_0 外形線1
100
AcDbLine
 10
46.33023761036247
 20
385.5
 30
0.0
 11
216.8302376103625
 21
385.5
 31
0.0
  0
LINE
  5
4FD1
330
4FBB
100
AcDbEntity
  8
AM_0 外形線1
100
AcDbLine
 10
38.33023761036248
 20
393.5
 30
0.0
 11
38.33023761036248
 21
449.0
 31
0.0
  0
LINE
  5
4FD2
330
4FBB
100
AcDbEntity
  8
AM_0 外形線1
100
AcDbLine
 10
0.3302376103624738
 20
405.0
 30
0.0
 11
38.33023761036248
 21
405.0
 31
0.0
  0
LINE
  5
4FD3
330
4FBB
100
AcDbEntity
  8
AM_0 外形線1
100
AcDbLine
 10
55.33777061036153
 20
371.5
 30
0.0
 11
55.68697766918558
 21
361.5
 31
0.0
  0
LINE
  5
4FD4
330
4FBB
100
AcDbEntity
  8
AM_0 外形線1
100
AcDbLine
 10
56.52367961036225
 20
370.8153139999998
 30
0.0
 11
56.84897780707478
 21
361.5000000000005
 31
0.0
  0
LINE
  5
4FD5
330
4FBB
100
AcDbEntity
  8
AM_0 外形線1
100
AcDbLine
 10
-8.669762389637526
 20
361.5
 30
0.0
 11
-8.669762389637526
 21
378.0
 31
0.0
  0
LWPOLYLINE
  5
4FD6
330
4FBB
100
AcDbEntity
  8
AM_0 外形線1
100
AcDbPolyline
 90
       73
 70
     0
 43
0.0
 10
2.580237610362473
 20
380.0
 10
2.776337610361679
 20
380.0136989999996
 10
2.970945610361468
 20
380.0546920000002
 10
3.1625806103616
 20
380.1226670000001
 10
3.349782610361671
 20
380.2171059999996
 10
3.531128610361975
 20
380.3372909999998
 10
3.705237610362473
 20
380.4823080000002
 10
3.870784610362077
 20
380.6510519999997
 10
4.026509610361697
 20
380.8422399999998
 10
4.171227610361256
 20
381.0544149999996
 10
4.303837610361821
 20
381.2859640000001
 10
4.423329610361633
 20
381.535124
 10
4.528794610362183
 20
381.7999999999997
 10
4.619429610361748
 20
382.0785739999997
 10
4.694545610361728
 20
382.368727
 10
4.753570610361292
 20
382.6682510000002
 10
4.796054610361807
 20
382.974866
 10
4.821675610361578
 20
383.286239
 10
4.830237610362472
 20
383.5999999999998
 10
4.821675610361578
 20
383.9137599999999
 10
4.796054610361807
 20
384.2251329999998
 10
4.753570610361292
 20
384.5317479999998
 10
4.694545610361728
 20
384.8312719999999
 10
4.619429610361748
 20
385.1214249999999
 10
4.528794610362183
 20
385.4000000000001
 10
4.423329610361633
 20
385.6648749999998
 10
4.303837610361821
 20
385.9140350000001
 10
4.171227610361256
 20
386.1455839999999
 10
4.026509610361697
 20
386.357759
 10
3.870784610362077
 20
386.5489469999998
 10
3.705237610362473
 20
386.7176909999998
 10
3.531128610361975
 20
386.8627080000002
 10
3.349782610361671
 20
386.9828929999998
 10
3.1625806103616
 20
387.0773319999998
 10
2.970945610361468
 20
387.1453069999999
 10
2.776337610361679
 20
387.1862999999999
 10
2.580237610362473
 20
387.1999999999999
 10
2.38413661036202
 20
387.1862999999999
 10
2.189529610361659
 20
387.1453069999999
 10
1.997894610362436
 20
387.0773319999998
 10
1.810692610362366
 20
386.9828929999998
 10
1.629346610362063
 20
386.8627080000002
 10
1.455237610362473
 20
386.7176909999998
 10
1.289690610361958
 20
386.5489469999998
 10
1.133965610362337
 20
386.357759
 10
0.989247610361872
 20
386.1455839999999
 10
0.8566376103622133
 20
385.9140350000001
 10
0.7371456103614947
 20
385.6648749999998
 10
0.6316806103618548
 20
385.4000000000001
 10
0.5410446103619507
 20
385.1214249999999
 10
0.4659296103623092
 20
384.8312719999999
 10
0.4069046103618348
 20
384.5317479999998
 10
0.3644196103618924
 20
384.2251329999998
 10
0.3387996103615478
 20
383.9137599999999
 10
0.3302376103624738
 20
383.5999999999998
 10
0.3387996103615478
 20
383.286239
 10
0.3644196103618924
 20
382.974866
 10
0.4069046103618348
 20
382.6682510000002
 10
0.4659296103623092
 20
382.368727
 10
0.5410446103619507
 20
382.0785739999997
 10
0.6316806103618548
 20
381.7999999999997
 10
0.7371456103614947
 20
381.535124
 10
0.8566376103622133
 20
381.2859640000001
 10
0.989247610361872
 20
381.0544149999996
 10
1.133965610362337
 20
380.8422399999998
 10
1.289690610361958
 20
380.6510519999997
 10
1.455237610362473
 20
380.4823080000002
 10
1.629346610362063
 20
380.3372909999998
 10
1.810692610362366
 20
380.2171059999996
 10
1.997894610362436
 20
380.1226670000001
 10
2.189529610361659
 20
380.0546920000002
 10
2.38413661036202
 20
380.0136989999996
 10
2.580237610362473
 20
380.0
  0
LINE
  5
4FD7
330
4FBB
100
AcDbEntity
  8
AM_0 外形線1
100
AcDbLine
 10
0.3302376103624738
 20
387.1999999999999
 30
0.0
 11
0.3302376103624738
 21
405.0
 31
0.0
  0
LINE
  5
4FD8
330
4FBB
100
AcDbEntity
  8
AM_0 外形線1
100
AcDbLine
 10
4.330237610362472
 20
387.1999999999999
 30
0.0
 11
0.3302376103624738
 21
387.1999999999999
 31
0.0
  0
ARC
  5
4FD9
330
4FBB
100
AcDbEntity
  8
AM_0 外形線1
100
AcDbCircle
 10
4.330237610362472
 20
386.6999999999999
 30
0.0
 40
0.5
100
AcDbArc
 50
0.0
 51
90.0
  0
LINE
  5
4FDA
330
4FBB
100
AcDbEntity
  8
AM_0 外形線1
100
AcDbLine
 10
4.830237610362472
 20
380.5
 30
0.0
 11
4.830237610362472
 21
386.6999999999999
 31
0.0
  0
ARC
  5
4FDB
330
4FBB
100
AcDbEntity
  8
AM_0 外形線1
100
AcDbCircle
 10
4.330237610362472
 20
380.5
 30
0.0
 40
0.5
100
AcDbArc
 50
270.0
 51
0.0
  0
LINE
  5
4FDC
330
4FBB
100
AcDbEntity
  8
AM_0 外形線1
100
AcDbLine
 10
-6.669762389637526
 20
380.0
 30
0.0
 11
4.330237610362472
 21
380.0
 31
0.0
  0
LINE
  5
4FDD
330
4FBB
100
AcDbEntity
  8
AM_0 外形線1
100
AcDbLine
 10
-8.669762389637526
 20
378.0
 30
0.0
 11
-6.669762389637526
 21
380.0
 31
0.0
  0
LINE
  5
4FDE
330
4FBB
100
AcDbEntity
  8
AM_0 外形線1
100
AcDbLine
 10
54.91872061036199
 20
383.5
 30
0.0
 11
54.84887961036156
 21
385.5
 31
0.0
  0
LINE
  5
4FDF
330
4FBB
100
AcDbEntity
  8
AM_0 外形線1
100
AcDbLine
 10
56.04151261036212
 20
384.6227909999998
 30
0.0
 11
56.01087961036182
 21
385.5
 31
0.0
  0
ARC
  5
4FE0
330
4FBB
100
AcDbEntity
  8
AM_0 外形線1
100
AcDbCircle
 10
46.33023761036247
 20
393.5
 30
0.0
 40
8.0
100
AcDbArc
 50
180.0
 51
270.0
  0
LINE
  5
4FE1
330
4FBB
100
AcDbEntity
  8
AM_0 外形線1
100
AcDbLine
 10
38.33023761036248
 20
437.0
 30
0.0
 11
0.3302376103624738
 21
437.0000000000002
 31
0.0
  0
LINE
  5
4FE2
330
4FBB
100
AcDbEntity
  8
AM_0 外形線1
100
AcDbLine
 10
1.330237610362472
 20
450.0
 30
0.0
 11
37.33023761036248
 21
450.0
 31
0.0
  0
LINE
  5
4FE3
330
4FBB
100
AcDbEntity
  8
AM_0 外形線1
100
AcDbLine
 10
0.3302376103624738
 20
449.0
 30
0.0
 11
1.330237610362472
 21
450.0
 31
0.0
  0
LINE
  5
4FE4
330
4FBB
100
AcDbEntity
  8
AM_0 外形線1
100
AcDbLine
 10
0.3302376103624738
 20
437.0
 30
0.0
 11
0.3302376103624738
 21
449.0
 31
0.0
  0
LINE
  5
4FE5
330
4FBB
100
AcDbEntity
  8
AM_0 外形線1
100
AcDbLine
 10
37.33023761036248
 20
450.0
 30
0.0
 11
38.33023761036248
 21
449.0
 31
0.0
  0
LINE
  5
4FE6
330
4FBB
100
AcDbEntity
  8
AM_0 外形線1
100
AcDbLine
 10
81.3227046103616
 20
371.5
 30
0.0
 11
80.97349755153846
 21
361.5
 31
0.0
  0
LINE
  5
4FE7
330
4FBB
100
AcDbEntity
  8
AM_0 外形線1
100
AcDbLine
 10
80.1367956103618
 20
370.8153139999998
 30
0.0
 11
79.81149741365062
 21
361.5000000000005
 31
0.0
  0
LINE
  5
4FE8
330
4FBB
100
AcDbEntity
  8
AM_0 外形線1
100
AcDbLine
 10
126.8302376103624
 20
345.5999999999999
 30
0.0
 11
117.3302376103624
 21
345.5999999999999
 31
0.0
  0
ARC
  5
4FEA
330
4FBB
100
AcDbEntity
  8
AM_0 外形線1
100
AcDbCircle
 10
115.8302376103625
 20
361.0
 30
0.0
 40
0.5
100
AcDbArc
 50
0.0
 51
90.0
  0
LINE
  5
4FEB
330
4FBB
100
AcDbEntity
  8
AM_0 外形線1
100
AcDbLine
 10
116.3302376103624
 20
346.5999999999998
 30
0.0
 11
116.3302376103624
 21
361.0
 31
0.0
  0
LINE
  5
4FEC
330
4FBB
100
AcDbEntity
  8
AM_0 外形線1
100
AcDbLine
 10
117.3302376103624
 20
345.5999999999999
 30
0.0
 11
116.3302376103624
 21
346.5999999999998
 31
0.0
  0
LINE
  5
4FED
330
4FBB
100
AcDbEntity
  8
AM_0 外形線1
100
AcDbLine
 10
81.81159561036157
 20
385.5
 30
0.0
 11
81.74175461036201
 21
383.4999989999996
 31
0.0
  0
LINE
  5
4FEE
330
4FBB
100
AcDbEntity
  8
AM_0 外形線1
100
AcDbLine
 10
80.6189626103619
 20
384.6227909999998
 30
0.0
 11
80.64959561036131
 21
385.5
 31
0.0
  0
LINE
  5
4FF0
330
4FBB
100
AcDbEntity
  8
AM_0 外形線1
100
AcDbLine
 10
267.3302376103625
 20
361.5
 30
0.0
 11
259.8302376103625
 21
361.5
 31
0.0
  0
LINE
  5
4FF1
330
4FBB
100
AcDbEntity
  8
AM_0 外形線1
100
AcDbLine
 10
249.8302376103625
 20
345.5999999999999
 30
0.0
 11
258.3302376103625
 21
345.5999999999999
 31
0.0
  0
LINE
  5
4FF2
330
4FBB
100
AcDbEntity
  8
AM_0 外形線1
100
AcDbLine
 10
267.3302376103625
 20
371.0
 30
0.0
 11
267.3302376103625
 21
361.5
 31
0.0
  0
ARC
  5
4FF3
330
4FBB
100
AcDbEntity
  8
AM_0 外形線1
100
AcDbCircle
 10
259.8302376103625
 20
361.0
 30
0.0
 40
0.5
100
AcDbArc
 50
90.0
 51
111.4805560000299
  0
LINE
  5
4FF4
330
4FBB
100
AcDbEntity
  8
AM_0 外形線1
100
AcDbLine
 10
259.3302376103626
 20
346.5999999999998
 30
0.0
 11
258.3302376103625
 21
345.5999999999999
 31
0.0
  0
LINE
  5
4FF5
330
4FBB
100
AcDbEntity
  8
AM_0 外形線1
100
AcDbLine
 10
259.3302376103626
 20
361.0
 30
0.0
 11
259.3302376103626
 21
346.5999999999998
 31
0.0
  0
ARC
  5
4FF6
330
4FBB
100
AcDbEntity
  8
AM_0 外形線1
100
AcDbCircle
 10
259.8302376103625
 20
361.0
 30
0.0
 40
0.5
100
AcDbArc
 50
111.4805560000299
 51
180.0
  0
LINE
  5
4FF7
330
4FBB
100
AcDbEntity
  8
AM_0 外形線1
100
AcDbLine
 10
227.3302376103625
 20
396.0
 30
0.0
 11
267.3302376103625
 21
396.0
 31
0.0
  0
LINE
  5
4FF8
330
4FBB
100
AcDbEntity
  8
AM_0 外形線1
100
AcDbLine
 10
267.3302376103625
 20
396.0
 30
0.0
 11
267.3302376103625
 21
387.0
 31
0.0
  0
INSERT
  5
4FF9
330
4FBB
100
AcDbEntity
  8
AM_0 外形線1
100
AcDbBlockReference
  2
ロッカクアナツキプラグA R3／4
 10
68.33023761036248
 20
385.5
 30
0.0
  0
ENDBLK
  5
4FBD
330
4FBB
100
AcDbEntity
  8
0
100
AcDbBlockEnd
  0
BLOCK
  5
50F7
330
50F6
100
AcDbEntity
  8
0
100
AcDbBlockBegin
  2
ケースＢ CCMH900
 70
     0
 10
0.0
 20
0.0
 30
0.0
  3
ケースＢ CCMH900
  1

  0
LINE
  5
50F9
330
50F6
100
AcDbEntity
  8
AM_0 外形線1
100
AcDbLine
 10
-46.0
 20
-385.5
 30
0.0
 11
-216.5
 21
-385.5
 31
0.0
  0
LINE
  5
50FA
330
50F6
100
AcDbEntity
  8
AM_0 外形線1
100
AcDbLine
 10
-115.5
 20
361.5
 30
0.0
 11
-10.0
 21
361.5
 31
0.0
  0
LINE
  5
50FB
330
50F6
100
AcDbEntity
  8
AM_0 外形線1
100
AcDbLine
 10
-46.0
 20
385.5
 30
0.0
 11
-216.5
 21
385.5
 31
0.0
  0
LINE
  5
50FC
330
50F6
100
AcDbEntity
  8
AM_0 外形線1
100
AcDbLine
 10
-216.5
 20
-385.5
 30
0.0
 11
-227.0
 21
-396.0
 31
0.0
  0
LINE
  5
50FD
330
50F6
100
AcDbEntity
  8
AM_0 外形線1
100
AcDbLine
 10
-227.0
 20
-396.0
 30
0.0
 11
-227.0
 21
0.0
 31
0.0
  0
LINE
  5
50FE
330
50F6
100
AcDbEntity
  8
AM_0 外形線1
100
AcDbLine
 10
-267.0
 20
-396.0
 30
0.0
 11
-267.0
 21
0.0
 31
0.0
  0
LINE
  5
50FF
330
50F6
100
AcDbEntity
  8
AM_0 外形線1
100
AcDbLine
 10
-227.0
 20
-396.0
 30
0.0
 11
-266.9999999999998
 21
-396.0
 31
0.0
  0
LINE
  5
5100
330
50F6
100
AcDbEntity
  8
AM_0 外形線1
100
AcDbLine
 10
-216.5
 20
-385.5
 30
0.0
 11
-216.5
 21
0.0
 31
0.0
  0
LINE
  5
5101
330
50F6
100
AcDbEntity
  8
AM_0 外形線1
100
AcDbLine
 10
-267.0
 20
361.5
 30
0.0
 11
-259.5
 21
361.5
 31
0.0
  0
LINE
  5
5102
330
50F6
100
AcDbEntity
  8
AM_0 外形線1
100
AcDbLine
 10
-227.0
 20
396.0
 30
0.0
 11
-267.0000000000002
 21
396.0
 31
0.0
  0
LINE
  5
5104
330
50F6
100
AcDbEntity
  8
AM_0 外形線1
100
AcDbLine
 10
-267.0
 20
371.0
 30
0.0
 11
-267.0
 21
361.5
 31
0.0
  0
LINE
  5
5105
330
50F6
100
AcDbEntity
  8
AM_0 外形線1
100
AcDbLine
 10
-267.0
 20
396.0
 30
0.0
 11
-267.0
 21
387.0
 31
0.0
  0
LINE
  5
5106
330
50F6
100
AcDbEntity
  8
AM_3 隠れ線
100
AcDbLine
 10
-126.5
 20
345.5999999999999
 30
0.0
 11
-249.5
 21
345.5999999999999
 31
0.0
  0
LINE
  5
5107
330
50F6
100
AcDbEntity
  8
AM_7 中心線
100
AcDbLine
 10
-114.0
 20
352.0
 30
0.0
 11
-261.0
 21
352.0
 31
0.0
  0
LINE
  5
5108
330
50F6
100
AcDbEntity
  8
AM_0 外形線1
100
AcDbLine
 10
-116.0
 20
360.0
 30
0.0
 11
-259.0
 21
360.0
 31
0.0
  0
LINE
  5
5109
330
50F6
100
AcDbEntity
  8
AM_0 外形線1
100
AcDbLine
 10
-249.5
 20
345.5999999999999
 30
0.0
 11
-258.0
 21
345.5999999999999
 31
0.0
  0
LINE
  5
510A
330
50F6
100
AcDbEntity
  8
AM_0 外形線1
100
AcDbLine
 10
-259.0
 20
346.5999999999998
 30
0.0
 11
-258.0
 21
345.5999999999999
 31
0.0
  0
LINE
  5
510B
330
50F6
100
AcDbEntity
  8
AM_0 外形線1
100
AcDbLine
 10
-259.0
 20
361.0
 30
0.0
 11
-259.0
 21
346.5999999999998
 31
0.0
  0
ARC
  5
510C
330
50F6
100
AcDbEntity
  8
AM_0 外形線1
100
AcDbCircle
 10
-259.5
 20
361.0
 30
0.0
 40
0.5
100
AcDbArc
 50
0.0
 51
90.0
  0
LINE
  5
510D
330
50F6
100
AcDbEntity
  8
AM_0 外形線1
100
AcDbLine
 10
-216.5
 20
385.5
 30
0.0
 11
-227.0
 21
396.0
 31
0.0
  0
LINE
  5
510E
330
50F6
100
AcDbEntity
  8
AM_0 外形線1
100
AcDbLine
 10
-126.5
 20
345.5999999999999
 30
0.0
 11
-117.0
 21
345.5999999999999
 31
0.0
  0
ARC
  5
5110
330
50F6
100
AcDbEntity
  8
AM_0 外形線1
100
AcDbCircle
 10
-115.5
 20
361.0
 30
0.0
 40
0.5
100
AcDbArc
 50
90.0
 51
180.0
  0
LINE
  5
5111
330
50F6
100
AcDbEntity
  8
AM_0 外形線1
100
AcDbLine
 10
-116.0
 20
346.5999999999998
 30
0.0
 11
-116.0
 21
361.0
 31
0.0
  0
LINE
  5
5112
330
50F6
100
AcDbEntity
  8
AM_0 外形線1
100
AcDbLine
 10
-117.0
 20
345.5999999999999
 30
0.0
 11
-116.0
 21
346.5999999999998
 31
0.0
  0
ARC
  5
5113
330
50F6
100
AcDbEntity
  8
AM_0 外形線1
100
AcDbCircle
 10
-46.0
 20
-393.5
 30
0.0
 40
8.0
100
AcDbArc
 50
0.0
 51
90.0
  0
LINE
  5
5114
330
50F6
100
AcDbEntity
  8
AM_0 外形線1
100
AcDbLine
 10
-38.0
 20
-449.0
 30
0.0
 11
-38.0
 21
0.0
 31
0.0
  0
LINE
  5
5115
330
50F6
100
AcDbEntity
  8
AM_7 中心線
100
AcDbLine
 10
55.80319099999908
 20
-421.0
 30
0.0
 11
-55.68617000000084
 21
-421.0
 31
0.0
  0
LINE
  5
5116
330
50F6
100
AcDbEntity
  8
AM_0 外形線1
100
AcDbLine
 10
-1.0
 20
-450.0
 30
0.0
 11
-37.0
 21
-450.0
 31
0.0
  0
LINE
  5
5117
330
50F6
100
AcDbEntity
  8
AM_0 外形線1
100
AcDbLine
 10
-37.0
 20
-450.0
 30
0.0
 11
-38.0
 21
-449.0
 31
0.0
  0
LINE
  5
5118
330
50F6
100
AcDbEntity
  8
AM_0 外形線1
100
AcDbLine
 10
0.0
 20
-449.0
 30
0.0
 11
-1.0
 21
-450.0
 31
0.0
  0
LINE
  5
5119
330
50F6
100
AcDbEntity
  8
AM_0 外形線1
100
AcDbLine
 10
-38.0
 20
437.0
 30
0.0
 11
-38.0
 21
405.0
 31
0.0
  0
LINE
  5
511A
330
50F6
100
AcDbEntity
  8
AM_0 外形線1
100
AcDbLine
 10
-80.99246700000092
 20
371.5
 30
0.0
 11
-80.64325994117643
 21
361.5
 31
0.0
  0
LINE
  5
511B
330
50F6
100
AcDbEntity
  8
AM_0 外形線1
100
AcDbLine
 10
-55.00753300000089
 20
371.5
 30
0.0
 11
-55.35674005882402
 21
361.5
 31
0.0
  0
LINE
  5
511C
330
50F6
100
AcDbEntity
  8
AM_0 外形線1
100
AcDbLine
 10
-56.19344200000067
 20
370.8153139999998
 30
0.0
 11
-56.51874019671185
 21
361.5
 31
0.0
  0
LINE
  5
511D
330
50F6
100
AcDbEntity
  8
AM_0 外形線1
100
AcDbLine
 10
-79.80655800000022
 20
370.8153139999998
 30
0.0
 11
-79.48125980328814
 21
361.5
 31
0.0
  0
LINE
  5
511E
330
50F6
100
AcDbEntity
  8
AM_0 外形線1
100
AcDbLine
 10
-81.41151700000046
 20
383.5
 30
0.0
 11
-81.4813580000009
 21
385.5
 31
0.0
  0
LINE
  5
511F
330
50F6
100
AcDbEntity
  8
AM_0 外形線1
100
AcDbLine
 10
-80.28872500000034
 20
384.6227909999998
 30
0.0
 11
-80.31935800000066
 21
385.5
 31
0.0
  0
LINE
  5
5120
330
50F6
100
AcDbEntity
  8
AM_0 外形線1
100
AcDbLine
 10
-54.51864200000091
 20
385.5
 30
0.0
 11
-54.58848300000045
 21
383.4999989999996
 31
0.0
  0
LINE
  5
5121
330
50F6
100
AcDbEntity
  8
AM_0 外形線1
100
AcDbLine
 10
-55.71127500000057
 20
384.6227909999998
 30
0.0
 11
-55.68064200000117
 21
385.5
 31
0.0
  0
ARC
  5
5122
330
50F6
100
AcDbEntity
  8
AM_0 外形線1
100
AcDbCircle
 10
-46.0
 20
393.5
 30
0.0
 40
8.0
100
AcDbArc
 50
270.0
 51
0.0
  0
LINE
  5
5123
330
50F6
100
AcDbEntity
  8
AM_0 外形線1
100
AcDbLine
 10
-38.0
 20
405.0
 30
0.0
 11
-38.0
 21
393.5
 31
0.0
  0
LINE
  5
5124
330
50F6
100
AcDbEntity
  8
AM_0 外形線1
100
AcDbLine
 10
-10.0
 20
361.5
 30
0.0
 11
-10.0
 21
380.0
 31
0.0
  0
LINE
  5
5125
330
50F6
100
AcDbEntity
  8
AM_0 外形線1
100
AcDbLine
 10
-2.0
 20
380.0
 30
0.0
 11
0.0
 21
382.0
 31
0.0
  0
LINE
  5
5126
330
50F6
100
AcDbEntity
  8
AM_0 外形線1
100
AcDbLine
 10
-1.0
 20
450.0
 30
0.0
 11
-37.0
 21
450.0
 31
0.0
  0
LINE
  5
5127
330
50F6
100
AcDbEntity
  8
AM_0 外形線1
100
AcDbLine
 10
-38.0
 20
449.0
 30
0.0
 11
-38.0
 21
437.0
 31
0.0
  0
LINE
  5
5128
330
50F6
100
AcDbEntity
  8
AM_0 外形線1
100
AcDbLine
 10
-37.0
 20
450.0
 30
0.0
 11
-38.0
 21
449.0
 31
0.0
  0
LINE
  5
5129
330
50F6
100
AcDbEntity
  8
AM_0 外形線1
100
AcDbLine
 10
0.0
 20
449.0
 30
0.0
 11
-1.0
 21
450.0
 31
0.0
  0
INSERT
  5
512A
330
50F6
100
AcDbEntity
  8
AM_0 外形線1
100
AcDbBlockReference
  2
ロッカクアナツキプラグＢ R3／4
 10
-68.0
 20
385.5
 30
0.0
  0
LINE
  5
51A5
330
50F6
100
AcDbEntity
  8
AM_0 外形線1
100
AcDbLine
 10
0.0
 20
0.0
 30
0.0
 11
0.0
 21
-449.0
 31
0.0
  0
LINE
  5
51A6
330
50F6
100
AcDbEntity
  8
AM_0 外形線1
100
AcDbLine
 10
-2.0
 20
380.0
 30
0.0
 11
-10.0
 21
380.0
 31
0.0
  0
LINE
  5
51A7
330
50F6
100
AcDbEntity
  8
AM_0 外形線1
100
AcDbLine
 10
0.0
 20
382.0
 30
0.0
 11
0.0
 21
405.0
 31
0.0
  0
LINE
  5
51A8
330
50F6
100
AcDbEntity
  8
AM_0 外形線1
100
AcDbLine
 10
0.0
 20
405.0
 30
0.0
 11
-38.0
 21
405.0
 31
0.0
  0
LINE
  5
51A9
330
50F6
100
AcDbEntity
  8
AM_0 外形線1
100
AcDbLine
 10
0.0
 20
437.0
 30
0.0
 11
-38.0
 21
437.0
 31
0.0
  0
LINE
  5
51AA
330
50F6
100
AcDbEntity
  8
AM_0 外形線1
100
AcDbLine
 10
0.0
 20
449.0
 30
0.0
 11
0.0
 21
437.0000000000002
 31
0.0
  0
ENDBLK
  5
50F8
330
50F6
100
AcDbEntity
  8
0
100
AcDbBlockEnd
  0
BLOCK
  5
529B
330
529A
100
AcDbEntity
  8
0
100
AcDbBlockBegin
  2
ロッカクアナツキプラグＢ R3／4
 70
     0
 10
0.0
 20
0.0
 30
0.0
  3
ロッカクアナツキプラグＢ R3／4
  1

  0
LINE
  5
529D
330
529A
100
AcDbEntity
  8
AM_7 中心線
100
AcDbLine
 10
0.0
 20
2.297871999999641
 30
0.0
 11
0.0
 21
-26.2127660000001
 31
0.0
  0
LINE
  5
529E
330
529A
100
AcDbEntity
  8
AM_0 外形線1
100
AcDbLine
 10
12.99246699999912
 20
-14.0
 30
0.0
 11
-12.99246700000094
 21
-14.0
 31
0.0
  0
LINE
  5
529F
330
529A
100
AcDbEntity
  8
AM_0 外形線1
100
AcDbLine
 10
-13.41151700000046
 20
-2.0
 30
0.0
 11
13.41151699999955
 21
-2.0
 31
0.0
  0
LINE
  5
52A0
330
529A
100
AcDbEntity
  8
AM_0 外形線1
100
AcDbLine
 10
-7.796315000000504
 20
-17.0
 30
0.0
 11
7.796314999999592
 21
-17.0
 31
0.0
  0
LINE
  5
52A1
330
529A
100
AcDbEntity
  8
AM_4 細線
100
AcDbLine
 10
-12.28872500000034
 20
-0.8772090000002208
 30
0.0
 11
-11.80655800000022
 21
-14.68468600000005
 31
0.0
  0
LINE
  5
52A2
330
529A
100
AcDbEntity
  8
AM_0 外形線1
100
AcDbLine
 10
-12.99246700000094
 20
-14.0
 30
0.0
 11
-7.796315000000504
 21
-17.0
 31
0.0
  0
LINE
  5
52A3
330
529A
100
AcDbEntity
  8
AM_0 外形線1
100
AcDbLine
 10
-13.41151700000046
 20
-2.0
 30
0.0
 11
-12.99246700000094
 21
-14.0
 31
0.0
  0
LINE
  5
52A4
330
529A
100
AcDbEntity
  8
AM_0 外形線1
100
AcDbLine
 10
-11.41151700000046
 20
0.0
 30
0.0
 11
-13.41151700000046
 21
-2.0
 31
0.0
  0
LINE
  5
52A5
330
529A
100
AcDbEntity
  8
AM_4 細線
100
AcDbLine
 10
11.80655799999931
 20
-14.68468600000005
 30
0.0
 11
12.28872499999943
 21
-0.8772090000002208
 31
0.0
  0
LINE
  5
52A6
330
529A
100
AcDbEntity
  8
AM_0 外形線1
100
AcDbLine
 10
13.41151699999955
 20
-2.000001000000338
 30
0.0
 11
11.41151699999955
 21
0.0
 31
0.0
  0
LINE
  5
52A7
330
529A
100
AcDbEntity
  8
AM_0 外形線1
100
AcDbLine
 10
12.99246699999912
 20
-14.0
 30
0.0
 11
13.41151699999955
 21
-2.000001000000338
 31
0.0
  0
LINE
  5
52A8
330
529A
100
AcDbEntity
  8
AM_0 外形線1
100
AcDbLine
 10
7.796314999999592
 20
-17.0
 30
0.0
 11
12.99246699999912
 21
-14.0
 31
0.0
  0
LINE
  5
52A9
330
529A
100
AcDbEntity
  8
AM_0 外形線1
100
AcDbLine
 10
11.41151699999955
 20
0.0
 30
0.0
 11
-11.41151700000046
 21
0.0
 31
0.0
  0
ENDBLK
  5
529C
330
529A
100
AcDbEntity
  8
0
100
AcDbBlockEnd
  0
BLOCK
  5
535D
330
535C
100
AcDbEntity
  8
0
100
AcDbBlockBegin
  2
センタＡ CCMH900
 70
     0
 10
0.0
 20
0.0
 30
0.0
  3
センタＡ CCMH900
  1

  0
LINE
  5
5360
330
535C
100
AcDbEntity
  8
AM_0 外形線1
100
AcDbLine
 10
450.0
 20
-318.0
 30
0.0
 11
450.0
 21
318.0
 31
0.0
  0
LINE
  5
5361
330
535C
100
AcDbEntity
  8
AM_3 隠れ線
100
AcDbLine
 10
0.0
 20
15.0
 30
0.0
 11
54.0
 21
14.99999899999966
 31
0.0
  0
LINE
  5
5362
330
535C
100
AcDbEntity
  8
AM_3 隠れ線
100
AcDbLine
 10
0.0
 20
13.25
 30
0.0
 11
70.0
 21
13.25
 31
0.0
  0
LINE
  5
5363
330
535C
100
AcDbEntity
  8
AM_3 隠れ線
100
AcDbLine
 10
54.0
 20
14.99999899999966
 30
0.0
 11
55.01036299999942
 21
13.25
 31
0.0
  0
LINE
  5
5364
330
535C
100
AcDbEntity
  8
AM_3 隠れ線
100
AcDbLine
 10
54.0
 20
14.99999899999966
 30
0.0
 11
54.0
 21
0.0
 31
0.0
  0
LINE
  5
5365
330
535C
100
AcDbEntity
  8
AM_3 隠れ線
100
AcDbLine
 10
55.01036299999942
 20
13.25
 30
0.0
 11
55.01036299999942
 21
0.0
 31
0.0
  0
LINE
  5
5366
330
535C
100
AcDbEntity
  8
AM_3 隠れ線
100
AcDbLine
 10
77.64989099999912
 20
0.0
 30
0.0
 11
70.0
 21
13.24999899999966
 31
0.0
  0
LINE
  5
5367
330
535C
100
AcDbEntity
  8
AM_3 隠れ線
100
AcDbLine
 10
70.0
 20
13.25
 30
0.0
 11
70.0
 21
0.0
 31
0.0
  0
LINE
  5
5368
330
535C
100
AcDbEntity
  8
AM_0 外形線1
100
AcDbLine
 10
317.0
 20
-333.0
 30
0.0
 11
317.0
 21
0.0
 31
0.0
  0
LINE
  5
5369
330
535C
100
AcDbEntity
  8
AM_0 外形線1
100
AcDbLine
 10
311.0
 20
-335.0
 30
0.0
 11
311.0
 21
0.0
 31
0.0
  0
LINE
  5
536A
330
535C
100
AcDbEntity
  8
AM_0 外形線1
100
AcDbLine
 10
317.0
 20
-333.0
 30
0.0
 11
435.0
 21
-333.0
 31
0.0
  0
LINE
  5
536B
330
535C
100
AcDbEntity
  8
AM_0 外形線1
100
AcDbLine
 10
279.0
 20
-335.0
 30
0.0
 11
311.0
 21
-335.0
 31
0.0
  0
LINE
  5
536C
330
535C
100
AcDbEntity
  8
AM_0 外形線1
100
AcDbLine
 10
311.0
 20
-335.0
 30
0.0
 11
317.0
 21
-333.0
 31
0.0
  0
ARC
  5
536D
330
535C
100
AcDbEntity
  8
AM_0 外形線1
100
AcDbCircle
 10
435.0
 20
-318.0
 30
0.0
 40
15.0
100
AcDbArc
 50
270.0
 51
0.0
  0
LINE
  5
536E
330
535C
100
AcDbEntity
  8
AM_3 隠れ線
100
AcDbLine
 10
372.3501089999992
 20
0.0
 30
0.0
 11
380.0
 21
13.24999899999966
 31
0.0
  0
LINE
  5
536F
330
535C
100
AcDbEntity
  8
AM_3 隠れ線
100
AcDbLine
 10
450.0
 20
13.25
 30
0.0
 11
380.0
 21
13.25
 31
0.0
  0
LINE
  5
5370
330
535C
100
AcDbEntity
  8
AM_3 隠れ線
100
AcDbLine
 10
450.0
 20
15.0
 30
0.0
 11
396.0
 21
14.99999899999966
 31
0.0
  0
LINE
  5
5371
330
535C
100
AcDbEntity
  8
AM_3 隠れ線
100
AcDbLine
 10
380.0
 20
13.25
 30
0.0
 11
380.0
 21
0.0
 31
0.0
  0
LINE
  5
5372
330
535C
100
AcDbEntity
  8
AM_3 隠れ線
100
AcDbLine
 10
396.0
 20
14.99999899999966
 30
0.0
 11
394.9896370000006
 21
13.25
 31
0.0
  0
LINE
  5
5373
330
535C
100
AcDbEntity
  8
AM_3 隠れ線
100
AcDbLine
 10
394.9896370000006
 20
13.25
 30
0.0
 11
394.9896370000006
 21
0.0
 31
0.0
  0
LINE
  5
5374
330
535C
100
AcDbEntity
  8
AM_3 隠れ線
100
AcDbLine
 10
396.0
 20
14.99999899999966
 30
0.0
 11
396.0
 21
0.0
 31
0.0
  0
ARC
  5
5376
330
535C
100
AcDbEntity
  8
AM_0 外形線1
100
AcDbCircle
 10
172.0
 20
0.0
 30
0.0
 40
359.65
100
AcDbArc
 50
80.31570999999805
 51
99.68429000000192
  0
LINE
  5
5378
330
535C
100
AcDbEntity
  8
AM_0 外形線1
100
AcDbLine
 10
0.0
 20
333.0
 30
0.0
 11
0.0
 21
0.0
 31
0.0
  0
LINE
  5
5379
330
535C
100
AcDbEntity
  8
AM_0 外形線1
100
AcDbLine
 10
110.0
 20
335.0
 30
0.0
 11
2.0
 21
335.0
 31
0.0
  0
LINE
  5
537A
330
535C
100
AcDbEntity
  8
AM_0 外形線1
100
AcDbLine
 10
2.0
 20
335.0
 30
0.0
 11
0.0
 21
333.0
 31
0.0
  0
ARC
  5
537B
330
535C
100
AcDbEntity
  8
AM_0 外形線1
100
AcDbCircle
 10
110.0
 20
335.5
 30
0.0
 40
0.5
100
AcDbArc
 50
270.0
 51
0.0
  0
LINE
  5
537C
330
535C
100
AcDbEntity
  8
AM_0 外形線1
100
AcDbLine
 10
110.5
 20
353.3527509999998
 30
0.0
 11
110.5
 21
335.5
 31
0.0
  0
LINE
  5
537D
330
535C
100
AcDbEntity
  8
AM_0 外形線1
100
AcDbLine
 10
111.5
 20
354.5248539999998
 30
0.0
 11
110.5
 21
353.3527509999998
 31
0.0
  0
LINE
  5
537E
330
535C
100
AcDbEntity
  8
AM_7 中心線
100
AcDbLine
 10
172.0
 20
364.6500000000001
 30
0.0
 11
172.0
 21
339.0
 31
0.0
  0
LINE
  5
537F
330
535C
100
AcDbEntity
  8
AM_0 外形線1
100
AcDbLine
 10
435.0
 20
333.0
 30
0.0
 11
317.0
 21
333.0
 31
0.0
  0
LINE
  5
5380
330
535C
100
AcDbEntity
  8
AM_0 外形線1
100
AcDbLine
 10
311.0
 20
335.0
 30
0.0
 11
234.0
 21
335.0
 31
0.0
  0
LINE
  5
5381
330
535C
100
AcDbEntity
  8
AM_0 外形線1
100
AcDbLine
 10
233.5
 20
353.3527509999998
 30
0.0
 11
232.5
 21
354.5248539999998
 31
0.0
  0
LINE
  5
5382
330
535C
100
AcDbEntity
  8
AM_0 外形線1
100
AcDbLine
 10
233.5
 20
335.5
 30
0.0
 11
233.5
 21
353.3527509999998
 31
0.0
  0
ARC
  5
5383
330
535C
100
AcDbEntity
  8
AM_0 外形線1
100
AcDbCircle
 10
234.0
 20
335.5
 30
0.0
 40
0.5
100
AcDbArc
 50
180.0
 51
270.0
  0
LINE
  5
5384
330
535C
100
AcDbEntity
  8
AM_0 外形線1
100
AcDbLine
 10
317.0
 20
333.0
 30
0.0
 11
311.0
 21
335.0
 31
0.0
  0
ARC
  5
5385
330
535C
100
AcDbEntity
  8
AM_0 外形線1
100
AcDbCircle
 10
435.0
 20
318.0
 30
0.0
 40
15.0
100
AcDbArc
 50
0.0
 51
90.0
  0
LINE
  5
5388
330
535C
100
AcDbEntity
  8
AM_0 外形線1
100
AcDbLine
 10
0.0
 20
197.5
 30
0.0
 11
450.0
 21
197.5000000000004
 31
0.0
  0
ARC
  5
722F
330
535C
100
AcDbEntity
  8
AM_0 外形線1
100
AcDbCircle
 10
172.0
 20
0.0
 30
0.0
 40
344.0
100
AcDbArc
 50
79.70134784849036
 51
100.2986521515096
  0
ARC
  5
73FA
330
535C
100
AcDbEntity
  8
AM_7 中心線
100
AcDbCircle
 10
172.0
 20
0.0
 30
0.0
 40
352.0
100
AcDbArc
 50
78.9053277158755
 51
101.0313341891029
  0
ENDBLK
  5
535E
330
535C
100
AcDbEntity
  8
0
100
AcDbBlockEnd
  0
BLOCK
  5
543C
330
543B
100
AcDbEntity
  8
0
100
AcDbBlockBegin
  2
センタＢ CCMH900
 70
     0
 10
0.0
 20
0.0
 30
0.0
  3
センタＢ CCMH900
  1

  0
LINE
  5
543E
330
543B
100
AcDbEntity
  8
AM_0 外形線1
100
AcDbLine
 10
-110.0
 20
335.0
 30
0.0
 11
-2.0
 21
335.0
 31
0.0
  0
LINE
  5
543F
330
543B
100
AcDbEntity
  8
AM_0 外形線1
100
AcDbLine
 10
-450.0
 20
-318.0
 30
0.0
 11
-450.0
 21
318.0
 31
0.0
  0
LINE
  5
5440
330
543B
100
AcDbEntity
  8
AM_3 隠れ線
100
AcDbLine
 10
-450.0
 20
13.25
 30
0.0
 11
-380.0
 21
13.25
 31
0.0
  0
LINE
  5
5441
330
543B
100
AcDbEntity
  8
AM_3 隠れ線
100
AcDbLine
 10
-450.0
 20
15.0
 30
0.0
 11
-396.0
 21
14.99999899999966
 31
0.0
  0
LINE
  5
5442
330
543B
100
AcDbEntity
  8
AM_0 外形線1
100
AcDbLine
 10
-317.0
 20
-333.0
 30
0.0
 11
-435.0
 21
-333.0
 31
0.0
  0
ARC
  5
5443
330
543B
100
AcDbEntity
  8
AM_0 外形線1
100
AcDbCircle
 10
-435.0
 20
-318.0
 30
0.0
 40
15.0
100
AcDbArc
 50
180.0
 51
270.0
  0
LINE
  5
5444
330
543B
100
AcDbEntity
  8
AM_0 外形線1
100
AcDbLine
 10
-317.0
 20
-333.0
 30
0.0
 11
-317.0
 21
0.0
 31
0.0
  0
LINE
  5
5445
330
543B
100
AcDbEntity
  8
AM_0 外形線1
100
AcDbLine
 10
-311.0
 20
-335.0
 30
0.0
 11
-311.0
 21
0.0
 31
0.0
  0
LINE
  5
5446
330
543B
100
AcDbEntity
  8
AM_0 外形線1
100
AcDbLine
 10
-279.0
 20
-335.0
 30
0.0
 11
-311.0
 21
-335.0
 31
0.0
  0
LINE
  5
5447
330
543B
100
AcDbEntity
  8
AM_0 外形線1
100
AcDbLine
 10
-311.0
 20
-335.0
 30
0.0
 11
-317.0
 21
-333.0
 31
0.0
  0
LINE
  5
5448
330
543B
100
AcDbEntity
  8
AM_3 隠れ線
100
AcDbLine
 10
-372.3501090000008
 20
0.0
 30
0.0
 11
-380.0
 21
13.24999899999966
 31
0.0
  0
LINE
  5
5449
330
543B
100
AcDbEntity
  8
AM_3 隠れ線
100
AcDbLine
 10
-380.0
 20
13.25
 30
0.0
 11
-380.0
 21
0.0
 31
0.0
  0
LINE
  5
544A
330
543B
100
AcDbEntity
  8
AM_3 隠れ線
100
AcDbLine
 10
-396.0
 20
14.99999899999966
 30
0.0
 11
-394.9896370000006
 21
13.25
 31
0.0
  0
LINE
  5
544B
330
543B
100
AcDbEntity
  8
AM_3 隠れ線
100
AcDbLine
 10
-394.9896370000006
 20
13.25
 30
0.0
 11
-394.9896370000006
 21
0.0
 31
0.0
  0
LINE
  5
544C
330
543B
100
AcDbEntity
  8
AM_3 隠れ線
100
AcDbLine
 10
-396.0
 20
14.99999899999966
 30
0.0
 11
-396.0
 21
0.0
 31
0.0
  0
LINE
  5
544D
330
543B
100
AcDbEntity
  8
AM_0 外形線1
100
AcDbLine
 10
-435.0
 20
333.0
 30
0.0
 11
-317.0
 21
333.0
 31
0.0
  0
ARC
  5
544E
330
543B
100
AcDbEntity
  8
AM_0 外形線1
100
AcDbCircle
 10
-435.0
 20
318.0
 30
0.0
 40
15.0
100
AcDbArc
 50
90.0
 51
180.0
  0
LINE
  5
544F
330
543B
100
AcDbEntity
  8
AM_0 外形線1
100
AcDbLine
 10
-311.0
 20
335.0
 30
0.0
 11
-234.0
 21
335.0
 31
0.0
  0
LINE
  5
5450
330
543B
100
AcDbEntity
  8
AM_0 外形線1
100
AcDbLine
 10
-317.0
 20
333.0
 30
0.0
 11
-311.0
 21
335.0
 31
0.0
  0
ARC
  5
5453
330
543B
100
AcDbEntity
  8
AM_0 外形線1
100
AcDbCircle
 10
-172.0
 20
0.0
 30
0.0
 40
359.65
100
AcDbArc
 50
80.31570999999805
 51
99.68429000000192
  0
LINE
  5
5454
330
543B
100
AcDbEntity
  8
AM_0 外形線1
100
AcDbLine
 10
-233.5
 20
353.3527509999998
 30
0.0
 11
-232.5
 21
354.5248539999998
 31
0.0
  0
LINE
  5
5455
330
543B
100
AcDbEntity
  8
AM_0 外形線1
100
AcDbLine
 10
-233.5
 20
335.5
 30
0.0
 11
-233.5
 21
353.3527509999998
 31
0.0
  0
ARC
  5
5456
330
543B
100
AcDbEntity
  8
AM_0 外形線1
100
AcDbCircle
 10
-234.0
 20
335.5
 30
0.0
 40
0.5
100
AcDbArc
 50
270.0
 51
0.0
  0
LINE
  5
5457
330
543B
100
AcDbEntity
  8
AM_7 中心線
100
AcDbLine
 10
-172.0
 20
364.6500000000001
 30
0.0
 11
-172.0
 21
339.0
 31
0.0
  0
ARC
  5
5458
330
543B
100
AcDbEntity
  8
AM_0 外形線1
100
AcDbCircle
 10
-110.0
 20
335.5
 30
0.0
 40
0.5
100
AcDbArc
 50
180.0
 51
270.0
  0
LINE
  5
5459
330
543B
100
AcDbEntity
  8
AM_0 外形線1
100
AcDbLine
 10
-110.5
 20
353.3527509999998
 30
0.0
 11
-110.5
 21
335.5
 31
0.0
  0
LINE
  5
545A
330
543B
100
AcDbEntity
  8
AM_0 外形線1
100
AcDbLine
 10
-111.5
 20
354.5248539999998
 30
0.0
 11
-110.5
 21
353.3527509999998
 31
0.0
  0
LINE
  5
545B
330
543B
100
AcDbEntity
  8
AM_0 外形線1
100
AcDbLine
 10
0.0
 20
319.3551490760483
 30
0.0
 11
0.0
 21
0.0
 31
0.0
  0
LINE
  5
545C
330
543B
100
AcDbEntity
  8
AM_3 隠れ線
100
AcDbLine
 10
0.0
 20
15.0
 30
0.0
 11
-54.0
 21
14.99999899999966
 31
0.0
  0
LINE
  5
545D
330
543B
100
AcDbEntity
  8
AM_3 隠れ線
100
AcDbLine
 10
0.0
 20
13.25
 30
0.0
 11
-70.0
 21
13.25
 31
0.0
  0
LINE
  5
545E
330
543B
100
AcDbEntity
  8
AM_3 隠れ線
100
AcDbLine
 10
-54.0
 20
14.99999899999966
 30
0.0
 11
-55.01036300000032
 21
13.25
 31
0.0
  0
LINE
  5
545F
330
543B
100
AcDbEntity
  8
AM_3 隠れ線
100
AcDbLine
 10
-55.01036300000032
 20
13.25
 30
0.0
 11
-55.01036300000032
 21
0.0
 31
0.0
  0
LINE
  5
5460
330
543B
100
AcDbEntity
  8
AM_3 隠れ線
100
AcDbLine
 10
-54.0
 20
14.99999899999966
 30
0.0
 11
-54.0
 21
0.0
 31
0.0
  0
LINE
  5
5461
330
543B
100
AcDbEntity
  8
AM_3 隠れ線
100
AcDbLine
 10
-77.64989100000093
 20
0.0
 30
0.0
 11
-70.0
 21
13.24999899999966
 31
0.0
  0
LINE
  5
5462
330
543B
100
AcDbEntity
  8
AM_3 隠れ線
100
AcDbLine
 10
-70.0
 20
13.25
 30
0.0
 11
-70.0
 21
0.0
 31
0.0
  0
LINE
  5
5463
330
543B
100
AcDbEntity
  8
AM_0 外形線1
100
AcDbLine
 10
0.0
 20
333.0
 30
0.0
 11
0.0
 21
296.0
 31
0.0
  0
LINE
  5
5464
330
543B
100
AcDbEntity
  8
AM_0 外形線1
100
AcDbLine
 10
-2.0
 20
335.0
 30
0.0
 11
0.0
 21
333.0
 31
0.0
  0
LINE
  5
5465
330
543B
100
AcDbEntity
  8
AM_0 外形線1
100
AcDbLine
 10
-450.0000000000001
 20
197.4999999999995
 30
0.0
 11
0.0
 21
197.5
 31
0.0
  0
ARC
  5
7170
330
543B
100
AcDbEntity
  8
AM_7 中心線
100
AcDbCircle
 10
-172.0
 20
0.0
 30
0.0
 40
352.0
100
AcDbArc
 50
78.96866581090991
 51
101.0946722840939
  0
ARC
  5
7171
330
543B
100
AcDbEntity
  8
AM_0 外形線1
100
AcDbCircle
 10
-172.0
 20
0.0
 30
0.0
 40
344.0
100
AcDbArc
 50
79.70134784850317
 51
100.2986521514968
  0
ENDBLK
  5
543D
330
543B
100
AcDbEntity
  8
0
100
AcDbBlockEnd
  0
BLOCK
  5
565E
330
565D
100
AcDbEntity
  8
0
100
AcDbBlockBegin
  2
リーマボルト CCMH900 M30
 70
     0
 10
0.0
 20
0.0
 30
0.0
  3
リーマボルト CCMH900 M30
  1

  0
LINE
  5
5660
330
565D
100
AcDbEntity
  8
AM_0 外形線1
100
AcDbLine
 10
-2.0
 20
-16.0
 30
0.0
 11
-2.0
 21
16.0
 31
0.0
  0
LINE
  5
5661
330
565D
100
AcDbEntity
  8
AM_0 外形線1
100
AcDbLine
 10
-76.0
 20
4.99999899999966
 30
0.0
 11
-83.49999999999999
 21
-5.000001000000336
 31
0.0
  0
LINE
  5
5662
330
565D
100
AcDbEntity
  8
AM_0 外形線1
100
AcDbLine
 10
-83.49999999999999
 20
-2.5
 30
0.0
 11
-76.0
 21
8.0
 31
0.0
  0
LINE
  5
5663
330
565D
100
AcDbEntity
  8
AM_0 外形線1
100
AcDbLine
 10
-75.0
 20
14.84529899999961
 30
0.0
 11
-75.0
 21
-14.84529999999995
 31
0.0
  0
LINE
  5
5664
330
565D
100
AcDbEntity
  8
AM_0 外形線1
100
AcDbLine
 10
-115.0
 20
15.0
 30
0.0
 11
-115.0
 21
-15.0
 31
0.0
  0
LINE
  5
5665
330
565D
100
AcDbEntity
  8
AM_0 外形線1
100
AcDbLine
 10
-117.0
 20
13.0
 30
0.0
 11
-117.0
 21
-13.0
 31
0.0
  0
ARC
  5
5666
330
565D
100
AcDbEntity
  8
AM_0 外形線1
100
AcDbCircle
 10
-63.45854200000029
 20
0.0
 30
0.0
 40
44.041458
100
AcDbArc
 50
162.4515210000246
 51
197.5484789999754
  0
LINE
  5
5667
330
565D
100
AcDbEntity
  8
AM_0 外形線1
100
AcDbLine
 10
-83.49999999999999
 20
-26.55000000000018
 30
0.0
 11
-83.49999999999999
 21
26.54999999999973
 31
0.0
  0
LINE
  5
5668
330
565D
100
AcDbEntity
  8
AM_0 外形線1
100
AcDbLine
 10
-107.5
 20
23.0
 30
0.0
 11
-107.5
 21
-23.0
 31
0.0
  0
LINE
  5
5669
330
565D
100
AcDbEntity
  8
AM_0 外形線1
100
AcDbLine
 10
-73.0
 20
16.0
 30
0.0
 11
-73.0
 21
-16.0
 31
0.0
  0
ARC
  5
566A
330
565D
100
AcDbEntity
  8
AM_0 外形線1
100
AcDbCircle
 10
-25.0414580000006
 20
0.0
 30
0.0
 40
44.041458
100
AcDbArc
 50
342.4515210000245
 51
17.54847899997544
  0
LINE
  5
566B
330
565D
100
AcDbEntity
  8
AM_0 外形線1
100
AcDbLine
 10
19.0
 20
23.0
 30
0.0
 11
19.0
 21
-23.0
 31
0.0
  0
LINE
  5
566C
330
565D
100
AcDbEntity
  8
AM_0 外形線1
100
AcDbLine
 10
-83.49999999999999
 20
-13.27905700000019
 30
0.0
 11
-105.4504070000003
 21
-13.27905700000019
 31
0.0
  0
LINE
  5
566D
330
565D
100
AcDbEntity
  8
AM_0 外形線1
100
AcDbLine
 10
-105.4504070000003
 20
-26.55000000000018
 30
0.0
 11
-83.49999999999999
 21
-26.55000000000018
 31
0.0
  0
LINE
  5
566E
330
565D
100
AcDbEntity
  8
AM_4 細線
100
AcDbLine
 10
-107.5
 20
-14.0
 30
0.0
 11
-116.0
 21
-14.0
 31
0.0
  0
LINE
  5
566F
330
565D
100
AcDbEntity
  8
AM_0 外形線1
100
AcDbLine
 10
-115.0
 20
-15.0
 30
0.0
 11
-107.5
 21
-15.0
 31
0.0
  0
ARC
  5
5671
330
565D
100
AcDbEntity
  8
AM_0 外形線1
100
AcDbCircle
 10
-95.73417400000108
 20
-19.91452900000013
 30
0.0
 40
11.765826
100
AcDbArc
 50
145.6697989999698
 51
214.3302010000302
  0
LINE
  5
5672
330
565D
100
AcDbEntity
  8
AM_0 外形線1
100
AcDbLine
 10
-107.5
 20
-23.0
 30
0.0
 11
-105.4504070000003
 21
-26.55000000000018
 31
0.0
  0
LINE
  5
5673
330
565D
100
AcDbEntity
  8
AM_0 外形線1
100
AcDbLine
 10
-76.0
 20
-15.0
 30
0.0
 11
-74.73205100000086
 21
-15.0
 31
0.0
  0
LINE
  5
5674
330
565D
100
AcDbEntity
  8
AM_0 外形線1
100
AcDbLine
 10
-75.0
 20
-14.84529999999995
 30
0.0
 11
-73.0
 21
-16.0
 31
0.0
  0
LINE
  5
5675
330
565D
100
AcDbEntity
  8
AM_0 外形線1
100
AcDbLine
 10
-83.49999999999999
 20
-25.05000000000018
 30
0.0
 11
-76.0
 21
-25.05000000000018
 31
0.0
  0
ARC
  5
5676
330
565D
100
AcDbEntity
  8
AM_0 外形線1
100
AcDbCircle
 10
-1.0
 20
-16.0
 30
0.0
 40
1.0
100
AcDbArc
 50
0.0
 51
180.0
  0
ARC
  5
5677
330
565D
100
AcDbEntity
  8
AM_0 外形線1
100
AcDbCircle
 10
7.234173999999256
 20
-19.91452900000013
 30
0.0
 40
11.765826
100
AcDbArc
 50
325.6697989999698
 51
34.33020100003022
  0
LINE
  5
5678
330
565D
100
AcDbEntity
  8
AM_0 外形線1
100
AcDbLine
 10
0.0
 20
-13.27905700000019
 30
0.0
 11
16.95040599999902
 21
-13.27905700000019
 31
0.0
  0
LINE
  5
5679
330
565D
100
AcDbEntity
  8
AM_0 外形線1
100
AcDbLine
 10
16.95040599999902
 20
-26.55000000000018
 30
0.0
 11
0.0
 21
-26.55000000000018
 31
0.0
  0
LINE
  5
567A
330
565D
100
AcDbEntity
  8
AM_0 外形線1
100
AcDbLine
 10
19.0
 20
-23.0
 30
0.0
 11
16.95040599999902
 21
-26.55000000000018
 31
0.0
  0
LINE
  5
567B
330
565D
100
AcDbEntity
  8
AM_0 外形線1
100
AcDbLine
 10
-83.49999999999999
 20
13.27905599999985
 30
0.0
 11
-105.4504070000003
 21
13.27905599999985
 31
0.0
  0
LINE
  5
567C
330
565D
100
AcDbEntity
  8
AM_0 外形線1
100
AcDbLine
 10
-83.49999999999999
 20
26.54999999999973
 30
0.0
 11
-105.4504070000003
 21
26.54999999999973
 31
0.0
  0
LINE
  5
567D
330
565D
100
AcDbEntity
  8
AM_4 細線
100
AcDbLine
 10
-116.0
 20
14.0
 30
0.0
 11
-107.5
 21
14.0
 31
0.0
  0
LINE
  5
567F
330
565D
100
AcDbEntity
  8
AM_0 外形線1
100
AcDbLine
 10
-107.5
 20
15.0
 30
0.0
 11
-115.0
 21
15.0
 31
0.0
  0
ARC
  5
5680
330
565D
100
AcDbEntity
  8
AM_0 外形線1
100
AcDbCircle
 10
-95.73417400000108
 20
19.91452800000024
 30
0.0
 40
11.765826
100
AcDbArc
 50
145.6697989999698
 51
214.3302010000302
  0
LINE
  5
5681
330
565D
100
AcDbEntity
  8
AM_0 外形線1
100
AcDbLine
 10
-105.4504070000003
 20
26.54999999999973
 30
0.0
 11
-107.5
 21
23.0
 31
0.0
  0
LINE
  5
5682
330
565D
100
AcDbEntity
  8
AM_0 外形線1
100
AcDbLine
 10
-76.0
 20
15.0
 30
0.0
 11
-74.73205100000086
 21
15.0
 31
0.0
  0
LINE
  5
5683
330
565D
100
AcDbEntity
  8
AM_0 外形線1
100
AcDbLine
 10
-73.0
 20
16.0
 30
0.0
 11
-75.0
 21
14.84529899999961
 31
0.0
  0
LINE
  5
5684
330
565D
100
AcDbEntity
  8
AM_0 外形線1
100
AcDbLine
 10
-76.0
 20
25.04999999999973
 30
0.0
 11
-83.49999999999999
 21
25.04999999999973
 31
0.0
  0
ARC
  5
5685
330
565D
100
AcDbEntity
  8
AM_0 外形線1
100
AcDbCircle
 10
-1.0
 20
16.0
 30
0.0
 40
1.0
100
AcDbArc
 50
180.0
 51
0.0
  0
ARC
  5
5686
330
565D
100
AcDbEntity
  8
AM_0 外形線1
100
AcDbCircle
 10
7.234173999999256
 20
19.91452800000024
 30
0.0
 40
11.765826
100
AcDbArc
 50
325.6697989999698
 51
34.33020100003022
  0
LINE
  5
5687
330
565D
100
AcDbEntity
  8
AM_0 外形線1
100
AcDbLine
 10
0.0
 20
13.27905599999985
 30
0.0
 11
16.95040599999902
 21
13.27905599999985
 31
0.0
  0
LINE
  5
5688
330
565D
100
AcDbEntity
  8
AM_0 外形線1
100
AcDbLine
 10
16.95040599999902
 20
26.54999999999973
 30
0.0
 11
19.0
 21
23.0
 31
0.0
  0
LINE
  5
5689
330
565D
100
AcDbEntity
  8
AM_0 外形線1
100
AcDbLine
 10
0.0
 20
26.54999999999973
 30
0.0
 11
16.95040599999902
 21
26.54999999999973
 31
0.0
  0
LINE
  5
56F3
330
565D
100
AcDbEntity
  8
AM_0 外形線1
100
AcDbLine
 10
-117.0
 20
-13.0
 30
0.0
 11
-115.0
 21
-15.0
 31
0.0
1001
GENIUS_GENFIL_13
1070
     0
1040
2.0
1040
2.0
1040
20.0
1040
0.0
1002
{
1002
}
1001
GENIUS_GENODEF_13
1002
{
1000
HIER
1070
     0
1002
}
1002
{
1000
MANEDIT
1070
     0
1002
}
1002
{
1000
NOSEL
1070
     0
1002
}
1002
{
1000
BEHIND
1070
     0
1002
}
1002
{
1000
OTHER
1070
     0
1002
}
1002
{
1000
REACTOR
1002
}
1001
GENIUS_GENOBJ-N-CHA_13
1002
{
1000
OWNER
1000
GEN
1002
}
  0
LINE
  5
56F4
330
565D
100
AcDbEntity
  8
AM_0 外形線1
100
AcDbLine
 10
-117.0
 20
13.0
 30
0.0
 11
-115.0
 21
15.0
 31
0.0
1001
GENIUS_GENFIL_13
1070
     0
1040
2.0
1040
2.0
1040
20.0
1040
0.0
1002
{
1002
}
1001
GENIUS_GENOBJ-N-CHA_13
1002
{
1000
OWNER
1000
GEN
1002
}
1001
GENIUS_GENODEF_13
1002
{
1000
HIER
1070
     0
1002
}
1002
{
1000
MANEDIT
1070
     0
1002
}
1002
{
1000
NOSEL
1070
     0
1002
}
1002
{
1000
BEHIND
1070
     0
1002
}
1002
{
1000
OTHER
1070
     0
1002
}
1002
{
1000
REACTOR
1002
}
  0
LINE
  5
56F5
330
565D
100
AcDbEntity
  8
AM_0 外形線1
100
AcDbLine
 10
-76.0
 20
25.04999999999973
 30
0.0
 11
-76.0
 21
-25.05000000000018
 31
0.0
  0
LINE
  5
56F6
330
565D
100
AcDbEntity
  8
AM_0 外形線1
100
AcDbLine
 10
-73.0
 20
16.0
 30
0.0
 11
-2.0
 21
16.0
 31
0.0
  0
LINE
  5
56F7
330
565D
100
AcDbEntity
  8
AM_0 外形線1
100
AcDbLine
 10
-73.0
 20
-16.0
 30
0.0
 11
-2.0
 21
-16.0
 31
0.0
  0
LINE
  5
56F8
330
565D
100
AcDbEntity
  8
AM_0 外形線1
100
AcDbLine
 10
0.0
 20
26.54999999999973
 30
0.0
 11
0.0
 21
-26.55000000000018
 31
0.0
  0
ENDBLK
  5
565F
330
565D
100
AcDbEntity
  8
0
100
AcDbBlockEnd
  0
BLOCK
  5
57AD
330
57AC
100
AcDbEntity
  8
0
100
AcDbBlockBegin
  2
ＧＣサイドカバ－A CCMH900
 70
     0
 10
0.0
 20
0.0
 30
0.0
  3
ＧＣサイドカバ－A CCMH900
  1

  0
LINE
  5
57AF
330
57AC
100
AcDbEntity
  8
AM_0 外形線1
100
AcDbLine
 10
28.0
 20
-396.0
 30
0.0
 11
28.0
 21
0.0
 31
0.0
  0
LINE
  5
57B0
330
57AC
100
AcDbEntity
  8
AM_0 外形線1
100
AcDbLine
 10
0.0
 20
-395.9999999999998
 30
0.0
 11
28.0
 21
-396.0
 31
0.0
  0
LINE
  5
57B1
330
57AC
100
AcDbEntity
  8
AM_7 中心線
100
AcDbLine
 10
-37.29609900000105
 20
-379.0
 30
0.0
 11
48.23581599999942
 21
-379.0
 31
0.0
  0
LINE
  5
57B2
330
57AC
100
AcDbEntity
  8
AM_7 中心線
100
AcDbLine
 10
-37.29609900000105
 20
379.0
 30
0.0
 11
48.23581599999942
 21
379.0
 31
0.0
  0
ARC
  5
57B3
330
57AC
100
AcDbEntity
  8
AM_0 外形線1
100
AcDbCircle
 10
36.52753799999937
 20
368.6141010000002
 30
0.0
 40
5.472462999999997
100
AcDbArc
 50
320.7277500000099
 51
39.27224999999017
  0
ARC
  5
57B4
330
57AC
100
AcDbEntity
  8
AM_0 外形線1
100
AcDbCircle
 10
22.0
 20
379.0
 30
0.0
 40
20.0
100
AcDbArc
 50
339.7516619999837
 51
20.24833800001628
  0
ARC
  5
57B5
330
57AC
100
AcDbEntity
  8
AM_0 外形線1
100
AcDbCircle
 10
36.52753699999994
 20
389.385898
 30
0.0
 40
5.472462999999997
100
AcDbArc
 50
320.7277570000183
 51
39.27224299998168
  0
LINE
  5
57B6
330
57AC
100
AcDbEntity
  8
AM_0 外形線1
100
AcDbLine
 10
32.0
 20
393.0999999999999
 30
0.0
 11
32.0
 21
365.1500000000002
 31
0.0
  0
LINE
  5
57B7
330
57AC
100
AcDbEntity
  8
AM_0 外形線1
100
AcDbLine
 10
28.0
 20
396.0
 30
0.0
 11
28.0
 21
366.6500000000001
 31
0.0
  0
LWPOLYLINE
  5
57B8
330
57AC
100
AcDbEntity
  8
AM_0 外形線1
100
AcDbPolyline
 90
       73
 70
     0
 43
0.0
 10
21.0
 20
341.1500000000001
 10
20.96004399999947
 20
341.6860069999998
 10
20.84048099999927
 20
342.217936
 10
20.64222099999915
 20
342.7417369999998
 10
20.3667719999994
 20
343.2534230000001
 10
20.01623199999995
 20
343.7491019999998
 10
19.59326699999929
 20
344.2249999999999
 10
19.10109599999941
 20
344.6774949999999
 10
18.54346699999951
 20
345.1031429999999
 10
17.9246209999992
 20
345.4987059999999
 10
17.24926999999934
 20
345.8611729999998
 10
16.52255199999945
 20
346.1877850000001
 10
15.75
 20
346.476056
 10
14.93749199999911
 20
346.7237920000002
 10
14.09121099999902
 20
346.9291089999997
 10
13.21759999999995
 20
347.090443
 10
12.32330599999932
 20
347.2065670000002
 10
11.41513499999928
 20
347.2765970000001
 10
10.5
 20
347.2999999999997
 10
9.584864999999807
 20
347.2765970000001
 10
8.67669399999977
 20
347.2065670000002
 10
7.782399999999142
 20
347.090443
 10
6.908787999998819
 20
346.9291089999997
 10
6.06250799999907
 20
346.7237920000002
 10
5.25
 20
346.476056
 10
4.477446999999299
 20
346.1877850000001
 10
3.750729999999747
 20
345.8611729999998
 10
3.075378999999883
 20
345.4987059999999
 10
2.456532999999581
 20
345.1031429999999
 10
1.898902999999336
 20
344.6774949999999
 10
1.406732999999803
 20
344.2249999999999
 10
0.9837679999991452
 20
343.7491019999998
 10
0.6332269999993514
 20
343.2534230000001
 10
0.3577789999999368
 20
342.7417369999998
 10
0.1595179999994798
 20
342.217936
 10
0.03995599999962
 20
341.6860069999998
 10
0.0
 20
341.1500000000001
 10
0.03995599999962
 20
340.6139920000001
 10
0.1595179999994798
 20
340.0820629999998
 10
0.3577789999999368
 20
339.558262
 10
0.6332269999993514
 20
339.0465760000002
 10
0.9837679999991452
 20
338.5508969999996
 10
1.406732999999803
 20
338.0749999999998
 10
1.898902999999336
 20
337.622504
 10
2.456532999999581
 20
337.196856
 10
3.075378999999883
 20
336.801293
 10
3.750729999999747
 20
336.4388260000001
 10
4.477446999999299
 20
336.1122140000002
 10
5.25
 20
335.8239429999999
 10
6.06250799999907
 20
335.5762070000001
 10
6.908787999998819
 20
335.3708899999997
 10
7.782399999999142
 20
335.2095559999998
 10
8.67669399999977
 20
335.0934320000001
 10
9.584864999999807
 20
335.0234019999998
 10
10.5
 20
335.0
 10
11.41513499999928
 20
335.0234019999998
 10
12.32330599999932
 20
335.0934320000001
 10
13.21759999999995
 20
335.2095559999998
 10
14.09121099999902
 20
335.3708899999997
 10
14.93749199999911
 20
335.5762070000001
 10
15.75
 20
335.8239429999999
 10
16.52255199999945
 20
336.1122140000002
 10
17.24926999999934
 20
336.4388260000001
 10
17.9246209999992
 20
336.801293
 10
18.54346699999951
 20
337.196856
 10
19.10109599999941
 20
337.622504
 10
19.59326699999929
 20
338.0749999999998
 10
20.01623199999995
 20
338.5508969999996
 10
20.3667719999994
 20
339.0465760000002
 10
20.64222099999915
 20
339.558262
 10
20.84048099999927
 20
340.0820629999998
 10
20.96004399999947
 20
340.6139920000001
 10
21.0
 20
341.1500000000001
  0
LINE
  5
57B9
330
57AC
100
AcDbEntity
  8
AM_0 外形線1
100
AcDbLine
 10
0.0
 20
366.6500000000001
 30
0.0
 11
3.099999999999452
 21
366.6500000000001
 31
0.0
  0
LINE
  5
57BA
330
57AC
100
AcDbEntity
  8
AM_0 外形線1
100
AcDbLine
 10
21.0
 20
347.2999999999997
 30
0.0
 11
0.0
 21
347.2999999999997
 31
0.0
  0
LINE
  5
57BB
330
57AC
100
AcDbEntity
  8
AM_0 外形線1
100
AcDbLine
 10
-7.0
 20
337.5
 30
0.0
 11
-7.0
 21
361.5
 31
0.0
  0
LINE
  5
57BC
330
57AC
100
AcDbEntity
  8
AM_0 外形線1
100
AcDbLine
 10
0.0
 20
337.5
 30
0.0
 11
-7.0
 21
337.5
 31
0.0
  0
LINE
  5
57BD
330
57AC
100
AcDbEntity
  8
AM_0 外形線1
100
AcDbLine
 10
0.0
 20
347.2999999999997
 30
0.0
 11
0.0
 21
337.5
 31
0.0
  0
LINE
  5
57BE
330
57AC
100
AcDbEntity
  8
AM_0 外形線1
100
AcDbLine
 10
-7.0
 20
337.5
 30
0.0
 11
-7.0
 21
335.0
 31
0.0
  0
LINE
  5
57BF
330
57AC
100
AcDbEntity
  8
AM_0 外形線1
100
AcDbLine
 10
0.0
 20
337.5
 30
0.0
 11
0.0
 21
335.0
 31
0.0
  0
LINE
  5
57C0
330
57AC
100
AcDbEntity
  8
AM_0 外形線1
100
AcDbLine
 10
3.099999999999452
 20
366.6500000000001
 30
0.0
 11
3.099999999999452
 21
361.5
 31
0.0
  0
LINE
  5
57C1
330
57AC
100
AcDbEntity
  8
AM_0 外形線1
100
AcDbLine
 10
40.76402699999925
 20
365.1500000000002
 30
0.0
 11
32.0
 21
365.1500000000002
 31
0.0
  0
LINE
  5
57C2
330
57AC
100
AcDbEntity
  8
AM_0 外形線1
100
AcDbLine
 10
32.0
 20
364.9000000000001
 30
0.0
 11
28.0
 21
364.9000000000001
 31
0.0
  0
LINE
  5
57C3
330
57AC
100
AcDbEntity
  8
AM_0 外形線1
100
AcDbLine
 10
32.0
 20
365.1500000000002
 30
0.0
 11
32.0
 21
364.9000000000001
 31
0.0
  0
LINE
  5
57C4
330
57AC
100
AcDbEntity
  8
AM_0 外形線1
100
AcDbLine
 10
21.0
 20
337.5
 30
0.0
 11
21.0
 21
347.2999999999997
 31
0.0
  0
LINE
  5
57C5
330
57AC
100
AcDbEntity
  8
AM_0 外形線1
100
AcDbLine
 10
28.0
 20
337.5
 30
0.0
 11
21.0
 21
337.5
 31
0.0
  0
LINE
  5
57C6
330
57AC
100
AcDbEntity
  8
AM_0 外形線1
100
AcDbLine
 10
28.0
 20
366.6500000000001
 30
0.0
 11
28.0
 21
337.5
 31
0.0
  0
LINE
  5
57C7
330
57AC
100
AcDbEntity
  8
AM_0 外形線1
100
AcDbLine
 10
21.0
 20
337.5
 30
0.0
 11
21.0
 21
335.0
 31
0.0
  0
LINE
  5
57C8
330
57AC
100
AcDbEntity
  8
AM_0 外形線1
100
AcDbLine
 10
28.0
 20
337.5
 30
0.0
 11
28.0
 21
335.0
 31
0.0
  0
LINE
  5
57C9
330
57AC
100
AcDbEntity
  8
AM_0 外形線1
100
AcDbLine
 10
28.0
 20
372.0
 30
0.0
 11
-23.0
 21
372.0
 31
0.0
  0
LINE
  5
57CA
330
57AC
100
AcDbEntity
  8
AM_0 外形線1
100
AcDbLine
 10
28.0
 20
386.0
 30
0.0
 11
-23.0
 21
386.0
 31
0.0
  0
LINE
  5
57CB
330
57AC
100
AcDbEntity
  8
AM_4 細線
100
AcDbLine
 10
-23.0
 20
371.0
 30
0.0
 11
28.0
 21
371.0
 31
0.0
  0
LINE
  5
57CC
330
57AC
100
AcDbEntity
  8
AM_4 細線
100
AcDbLine
 10
28.0
 20
387.0
 30
0.0
 11
-23.0
 21
387.0
 31
0.0
  0
LINE
  5
57CD
330
57AC
100
AcDbEntity
  8
AM_0 外形線1
100
AcDbLine
 10
28.0
 20
388.0
 30
0.0
 11
0.0
 21
388.0
 31
0.0
  0
LINE
  5
57CE
330
57AC
100
AcDbEntity
  8
AM_0 外形線1
100
AcDbLine
 10
-30.0
 20
372.0
 30
0.0
 11
-23.0
 21
372.0
 31
0.0
  0
LINE
  5
57CF
330
57AC
100
AcDbEntity
  8
AM_0 外形線1
100
AcDbLine
 10
-34.04145200000039
 20
379.0
 30
0.0
 11
-30.0
 21
372.0
 31
0.0
  0
LINE
  5
57D0
330
57AC
100
AcDbEntity
  8
AM_0 外形線1
100
AcDbLine
 10
-30.0
 20
386.0
 30
0.0
 11
-34.04145200000039
 21
379.0
 31
0.0
  0
LINE
  5
57D1
330
57AC
100
AcDbEntity
  8
AM_0 外形線1
100
AcDbLine
 10
-23.0
 20
386.0
 30
0.0
 11
-30.0
 21
386.0
 31
0.0
  0
LINE
  5
57D2
330
57AC
100
AcDbEntity
  8
AM_0 外形線1
100
AcDbLine
 10
-30.0
 20
386.0
 30
0.0
 11
-30.0
 21
372.0
 31
0.0
  0
LINE
  5
57D3
330
57AC
100
AcDbEntity
  8
AM_0 外形線1
100
AcDbLine
 10
-23.0
 20
387.0
 30
0.0
 11
-23.0
 21
371.0
 31
0.0
  0
LINE
  5
57D4
330
57AC
100
AcDbEntity
  8
AM_0 外形線1
100
AcDbLine
 10
32.0
 20
380.0
 30
0.0
 11
28.0
 21
376.5
 31
0.0
  0
LINE
  5
57D5
330
57AC
100
AcDbEntity
  8
AM_0 外形線1
100
AcDbLine
 10
28.0
 20
378.0
 30
0.0
 11
32.0
 21
381.5
 31
0.0
  0
LINE
  5
57D6
330
57AC
100
AcDbEntity
  8
AM_0 外形線1
100
AcDbLine
 10
40.76402699999925
 20
385.9217960000001
 30
0.0
 11
32.0
 21
385.9217960000001
 31
0.0
  0
LINE
  5
57D7
330
57AC
100
AcDbEntity
  8
AM_0 外形線1
100
AcDbLine
 10
40.76402699999925
 20
372.078203
 30
0.0
 11
32.0
 21
372.078203
 31
0.0
  0
LINE
  5
57D8
330
57AC
100
AcDbEntity
  8
AM_0 外形線1
100
AcDbLine
 10
32.0
 20
392.8499999999999
 30
0.0
 11
40.76402699999925
 21
392.8499999999999
 31
0.0
  0
LINE
  5
57D9
330
57AC
100
AcDbEntity
  8
AM_0 外形線1
100
AcDbLine
 10
28.0
 20
393.0999999999999
 30
0.0
 11
32.0
 21
393.0999999999999
 31
0.0
  0
LINE
  5
57DA
330
57AC
100
AcDbEntity
  8
AM_0 外形線1
100
AcDbLine
 10
42.0
 20
389.385898
 30
0.0
 11
42.0
 21
368.6141010000002
 31
0.0
  0
LINE
  5
57DB
330
57AC
100
AcDbEntity
  8
AM_0 外形線1
100
AcDbLine
 10
0.0
 20
396.0
 30
0.0
 11
28.0
 21
395.9999999999995
 31
0.0
  0
LINE
  5
5842
330
57AC
100
AcDbEntity
  8
AM_0 外形線1
100
AcDbLine
 10
0.0
 20
-396.0
 30
0.0
 11
0.0
 21
0.0
 31
0.0
  0
LINE
  5
5843
330
57AC
100
AcDbEntity
  8
AM_0 外形線1
100
AcDbLine
 10
-7.0
 20
361.5
 30
0.0
 11
3.099999999999452
 21
361.5
 31
0.0
  0
LINE
  5
5844
330
57AC
100
AcDbEntity
  8
AM_0 外形線1
100
AcDbLine
 10
0.0
 20
366.6500000000001
 30
0.0
 11
0.0
 21
371.0
 31
0.0
  0
LINE
  5
5845
330
57AC
100
AcDbEntity
  8
AM_0 外形線1
100
AcDbLine
 10
0.0
 20
387.0
 30
0.0
 11
0.0
 21
396.0
 31
0.0
  0
ELLIPSE
  5
5846
330
57AC
100
AcDbEntity
  8
AM_0 外形線1
100
AcDbEllipse
 10
1.549999999999725
 20
364.0749999999999
 30
0.0
 11
0.0
 21
2.575000000000271
 31
0.0
210
0.0
220
0.0
230
1.0
 40
0.6019417475726458
 41
0.0
 42
6.283185307179584
  0
ENDBLK
  5
57AE
330
57AC
100
AcDbEntity
  8
0
100
AcDbBlockEnd
  0
BLOCK
  5
58BD
330
58BC
100
AcDbEntity
  8
0
100
AcDbBlockBegin
  2
ＧＣサイドカバ－Ｂ CCMH900
 70
     0
 10
0.0
 20
0.0
 30
0.0
  3
ＧＣサイドカバ－Ｂ CCMH900
  1

  0
LINE
  5
58BF
330
58BC
100
AcDbEntity
  8
AM_0 外形線1
100
AcDbLine
 10
-28.0
 20
-396.0
 30
0.0
 11
-28.0
 21
0.0
 31
0.0
  0
LINE
  5
58C0
330
58BC
100
AcDbEntity
  8
AM_7 中心線
100
AcDbLine
 10
37.29609899999923
 20
-379.0
 30
0.0
 11
-47.12588700000014
 21
-379.0
 31
0.0
  0
LINE
  5
58C1
330
58BC
100
AcDbEntity
  8
AM_0 外形線1
100
AcDbLine
 10
-28.0
 20
372.0
 30
0.0
 11
23.0
 21
372.0
 31
0.0
  0
LINE
  5
58C2
330
58BC
100
AcDbEntity
  8
AM_0 外形線1
100
AcDbLine
 10
-28.0
 20
386.0
 30
0.0
 11
23.0
 21
386.0
 31
0.0
  0
LINE
  5
58C3
330
58BC
100
AcDbEntity
  8
AM_7 中心線
100
AcDbLine
 10
37.29609899999923
 20
379.0
 30
0.0
 11
-47.12588700000014
 21
379.0
 31
0.0
  0
LINE
  5
58C4
330
58BC
100
AcDbEntity
  8
AM_4 細線
100
AcDbLine
 10
23.0
 20
371.0
 30
0.0
 11
-28.0
 21
371.0
 31
0.0
  0
LINE
  5
58C5
330
58BC
100
AcDbEntity
  8
AM_4 細線
100
AcDbLine
 10
-28.0
 20
387.0
 30
0.0
 11
23.0
 21
387.0
 31
0.0
  0
LINE
  5
58C6
330
58BC
100
AcDbEntity
  8
AM_0 外形線1
100
AcDbLine
 10
0.0
 20
337.5
 30
0.0
 11
7.0
 21
337.5
 31
0.0
  0
ARC
  5
58C7
330
58BC
100
AcDbEntity
  8
AM_0 外形線1
100
AcDbCircle
 10
-36.52753800000029
 20
368.6141010000002
 30
0.0
 40
5.472462999999997
100
AcDbArc
 50
140.7277500000015
 51
219.2722499999984
  0
LINE
  5
58C8
330
58BC
100
AcDbEntity
  8
AM_0 外形線1
100
AcDbLine
 10
-32.0
 20
393.0999999999999
 30
0.0
 11
-32.0
 21
365.1500000000002
 31
0.0
  0
LINE
  5
58C9
330
58BC
100
AcDbEntity
  8
AM_0 外形線1
100
AcDbLine
 10
-28.0
 20
337.5
 30
0.0
 11
-28.0
 21
396.0
 31
0.0
  0
LINE
  5
58CA
330
58BC
100
AcDbEntity
  8
AM_0 外形線1
100
AcDbLine
 10
-40.7640280000005
 20
365.1500000000002
 30
0.0
 11
-32.0
 21
365.1500000000002
 31
0.0
  0
LWPOLYLINE
  5
58CB
330
58BC
100
AcDbEntity
  8
AM_0 外形線1
100
AcDbPolyline
 90
       73
 70
     0
 43
0.0
 10
-21.0
 20
341.1500000000001
 10
-20.96004400000129
 20
340.6139920000001
 10
-20.84048200000052
 20
340.0820629999998
 10
-20.64222100000006
 20
339.558262
 10
-20.36677300000065
 20
339.0465760000002
 10
-20.01623199999995
 20
338.5508969999996
 10
-19.59326700000019
 20
338.0749999999998
 10
-19.10109700000066
 20
337.622504
 10
-18.54346700000133
 20
337.196856
 10
-17.92462100000011
 20
336.801293
 10
-17.24927000000025
 20
336.4388260000001
 10
-16.5225530000007
 20
336.1122140000002
 10
-15.75
 20
335.8239429999999
 10
-14.93749200000093
 20
335.5762070000001
 10
-14.09121200000118
 20
335.3708899999997
 10
-13.21759999999995
 20
335.2095559999998
 10
-12.32330600000023
 20
335.0934320000001
 10
-11.4151350000011
 20
335.0234019999998
 10
-10.5
 20
335.0
 10
-9.584865000000716
 20
335.0234019999998
 10
-8.676694000000678
 20
335.0934320000001
 10
-7.782400000000052
 20
335.2095559999998
 10
-6.908789000000977
 20
335.3708899999997
 10
-6.062508000000888
 20
335.5762070000001
 10
-5.25
 20
335.8239429999999
 10
-4.477448000000547
 20
336.1122140000002
 10
-3.750730000000658
 20
336.4388260000001
 10
-3.075378999999883
 20
336.801293
 10
-2.45653300000049
 20
337.196856
 10
-1.898904000000584
 20
337.622504
 10
-1.406733000000711
 20
338.0749999999998
 10
-0.9837680000000544
 20
338.5508969999996
 10
-0.6332280000005996
 20
339.0465760000002
 10
-0.3577789999999368
 20
339.558262
 10
-0.1595190000007278
 20
340.0820629999998
 10
-0.0399560000005295
 20
340.6139920000001
 10
0.0
 20
341.1500000000001
 10
-0.0399560000005295
 20
341.6860069999998
 10
-0.1595190000007278
 20
342.217936
 10
-0.3577789999999368
 20
342.7417369999998
 10
-0.6332280000005996
 20
343.2534230000001
 10
-0.9837680000000544
 20
343.7491019999998
 10
-1.406733000000711
 20
344.2249999999999
 10
-1.898904000000584
 20
344.6774949999999
 10
-2.45653300000049
 20
345.1031429999999
 10
-3.075378999999883
 20
345.4987059999999
 10
-3.750730000000658
 20
345.8611729999998
 10
-4.477448000000547
 20
346.1877850000001
 10
-5.25
 20
346.476056
 10
-6.062508000000888
 20
346.7237920000002
 10
-6.908789000000977
 20
346.9291089999997
 10
-7.782400000000052
 20
347.090443
 10
-8.676694000000678
 20
347.2065670000002
 10
-9.584865000000716
 20
347.2765970000001
 10
-10.5
 20
347.2999999999997
 10
-11.4151350000011
 20
347.2765970000001
 10
-12.32330600000023
 20
347.2065670000002
 10
-13.21759999999995
 20
347.090443
 10
-14.09121200000118
 20
346.9291089999997
 10
-14.93749200000093
 20
346.7237920000002
 10
-15.75
 20
346.476056
 10
-16.5225530000007
 20
346.1877850000001
 10
-17.24927000000025
 20
345.8611729999998
 10
-17.92462100000011
 20
345.4987059999999
 10
-18.54346700000133
 20
345.1031429999999
 10
-19.10109700000066
 20
344.6774949999999
 10
-19.59326700000019
 20
344.2249999999999
 10
-20.01623199999995
 20
343.7491019999998
 10
-20.36677300000065
 20
343.2534230000001
 10
-20.64222100000006
 20
342.7417369999998
 10
-20.84048200000052
 20
342.217936
 10
-20.96004400000129
 20
341.6860069999998
 10
-21.0
 20
341.1500000000001
  0
LINE
  5
58CC
330
58BC
100
AcDbEntity
  8
AM_0 外形線1
100
AcDbLine
 10
-3.100000000000362
 20
366.6500000000001
 30
0.0
 11
-3.100000000000362
 21
361.5
 31
0.0
  0
LINE
  5
58CD
330
58BC
100
AcDbEntity
  8
AM_0 外形線1
100
AcDbLine
 10
0.0
 20
366.6500000000001
 30
0.0
 11
-3.100000000000362
 21
366.6500000000001
 31
0.0
  0
LINE
  5
58CE
330
58BC
100
AcDbEntity
  8
AM_0 外形線1
100
AcDbLine
 10
-32.0
 20
364.9000000000001
 30
0.0
 11
-28.0
 21
364.9000000000001
 31
0.0
  0
LINE
  5
58CF
330
58BC
100
AcDbEntity
  8
AM_0 外形線1
100
AcDbLine
 10
-32.0
 20
365.1500000000002
 30
0.0
 11
-32.0
 21
364.9000000000001
 31
0.0
  0
LINE
  5
58D0
330
58BC
100
AcDbEntity
  8
AM_0 外形線1
100
AcDbLine
 10
0.0
 20
347.2999999999997
 30
0.0
 11
0.0
 21
337.5
 31
0.0
  0
LINE
  5
58D1
330
58BC
100
AcDbEntity
  8
AM_0 外形線1
100
AcDbLine
 10
-21.0
 20
347.2999999999997
 30
0.0
 11
0.0
 21
347.2999999999997
 31
0.0
  0
LINE
  5
58D2
330
58BC
100
AcDbEntity
  8
AM_0 外形線1
100
AcDbLine
 10
-21.0
 20
337.5
 30
0.0
 11
-21.0
 21
347.2999999999997
 31
0.0
  0
LINE
  5
58D3
330
58BC
100
AcDbEntity
  8
AM_0 外形線1
100
AcDbLine
 10
-28.0
 20
337.5
 30
0.0
 11
-21.0
 21
337.5
 31
0.0
  0
LINE
  5
58D4
330
58BC
100
AcDbEntity
  8
AM_0 外形線1
100
AcDbLine
 10
0.0
 20
337.5
 30
0.0
 11
0.0
 21
335.0
 31
0.0
  0
LINE
  5
58D5
330
58BC
100
AcDbEntity
  8
AM_0 外形線1
100
AcDbLine
 10
-21.0
 20
337.5
 30
0.0
 11
-21.0
 21
335.0
 31
0.0
  0
LINE
  5
58D6
330
58BC
100
AcDbEntity
  8
AM_0 外形線1
100
AcDbLine
 10
-28.0
 20
337.5
 30
0.0
 11
-28.0
 21
335.0
 31
0.0
  0
LINE
  5
58D7
330
58BC
100
AcDbEntity
  8
AM_0 外形線1
100
AcDbLine
 10
-40.7640280000005
 20
385.9217960000001
 30
0.0
 11
-32.0
 21
385.9217960000001
 31
0.0
  0
LINE
  5
58D8
330
58BC
100
AcDbEntity
  8
AM_0 外形線1
100
AcDbLine
 10
-40.7640280000005
 20
372.078203
 30
0.0
 11
-32.0
 21
372.078203
 31
0.0
  0
LINE
  5
58D9
330
58BC
100
AcDbEntity
  8
AM_0 外形線1
100
AcDbLine
 10
-32.0
 20
392.8499999999999
 30
0.0
 11
-40.7640280000005
 21
392.8499999999999
 31
0.0
  0
LINE
  5
58DA
330
58BC
100
AcDbEntity
  8
AM_0 外形線1
100
AcDbLine
 10
-42.0
 20
389.385898
 30
0.0
 11
-42.0
 21
368.6141010000002
 31
0.0
  0
ARC
  5
58DB
330
58BC
100
AcDbEntity
  8
AM_0 外形線1
100
AcDbCircle
 10
-22.0
 20
379.0
 30
0.0
 40
20.0
100
AcDbArc
 50
159.7516619999837
 51
200.2483380000164
  0
ARC
  5
58DC
330
58BC
100
AcDbEntity
  8
AM_0 外形線1
100
AcDbCircle
 10
-36.52753700000086
 20
389.385898
 30
0.0
 40
5.472462999999997
100
AcDbArc
 50
140.7277570000183
 51
219.2722429999817
  0
LINE
  5
58DD
330
58BC
100
AcDbEntity
  8
AM_0 外形線1
100
AcDbLine
 10
-28.0
 20
380.0
 30
0.0
 11
-32.0
 21
376.5
 31
0.0
  0
LINE
  5
58DE
330
58BC
100
AcDbEntity
  8
AM_0 外形線1
100
AcDbLine
 10
-32.0
 20
378.0
 30
0.0
 11
-28.0
 21
381.5
 31
0.0
  0
LINE
  5
58DF
330
58BC
100
AcDbEntity
  8
AM_0 外形線1
100
AcDbLine
 10
-28.0
 20
393.0999999999999
 30
0.0
 11
-32.0
 21
393.0999999999999
 31
0.0
  0
LINE
  5
58E0
330
58BC
100
AcDbEntity
  8
AM_0 外形線1
100
AcDbLine
 10
-28.0
 20
370.0
 30
0.0
 11
0.0
 21
370.0
 31
0.0
  0
LINE
  5
58E1
330
58BC
100
AcDbEntity
  8
AM_0 外形線1
100
AcDbLine
 10
-28.0
 20
388.0
 30
0.0
 11
0.0
 21
388.0
 31
0.0
  0
LINE
  5
58E2
330
58BC
100
AcDbEntity
  8
AM_0 外形線1
100
AcDbLine
 10
7.0
 20
361.5
 30
0.0
 11
7.0
 21
361.0
 31
0.0
  0
LINE
  5
58E3
330
58BC
100
AcDbEntity
  8
AM_0 外形線1
100
AcDbLine
 10
7.0
 20
337.5
 30
0.0
 11
7.0
 21
361.0
 31
0.0
  0
LINE
  5
58E4
330
58BC
100
AcDbEntity
  8
AM_0 外形線1
100
AcDbLine
 10
7.0
 20
337.5
 30
0.0
 11
7.0
 21
335.0
 31
0.0
  0
LINE
  5
58E5
330
58BC
100
AcDbEntity
  8
AM_0 外形線1
100
AcDbLine
 10
30.0
 20
372.0
 30
0.0
 11
23.0
 21
372.0
 31
0.0
  0
LINE
  5
58E6
330
58BC
100
AcDbEntity
  8
AM_0 外形線1
100
AcDbLine
 10
34.04145199999948
 20
379.0
 30
0.0
 11
30.0
 21
372.0
 31
0.0
  0
LINE
  5
58E7
330
58BC
100
AcDbEntity
  8
AM_0 外形線1
100
AcDbLine
 10
30.0
 20
386.0
 30
0.0
 11
34.04145199999948
 21
379.0
 31
0.0
  0
LINE
  5
58E8
330
58BC
100
AcDbEntity
  8
AM_0 外形線1
100
AcDbLine
 10
23.0
 20
386.0
 30
0.0
 11
30.0
 21
386.0
 31
0.0
  0
LINE
  5
58E9
330
58BC
100
AcDbEntity
  8
AM_0 外形線1
100
AcDbLine
 10
30.0
 20
386.0
 30
0.0
 11
30.0
 21
372.0
 31
0.0
  0
LINE
  5
58EA
330
58BC
100
AcDbEntity
  8
AM_0 外形線1
100
AcDbLine
 10
23.0
 20
387.0
 30
0.0
 11
23.0
 21
371.0
 31
0.0
  0
LINE
  5
58EB
330
58BC
100
AcDbEntity
  8
AM_0 外形線1
100
AcDbLine
 10
0.0
 20
-396.0
 30
0.0
 11
-28.0
 21
-396.0
 31
0.0
  0
LINE
  5
58EC
330
58BC
100
AcDbEntity
  8
AM_0 外形線1
100
AcDbLine
 10
0.0
 20
396.0
 30
0.0
 11
-28.0
 21
396.0
 31
0.0
  0
LINE
  5
5955
330
58BC
100
AcDbEntity
  8
AM_0 外形線1
100
AcDbLine
 10
0.0
 20
0.0
 30
0.0
 11
0.0000000000002274
 21
-396.0
 31
0.0
  0
LINE
  5
5956
330
58BC
100
AcDbEntity
  8
AM_0 外形線1
100
AcDbLine
 10
0.0
 20
387.0
 30
0.0
 11
-0.0000000000002274
 21
396.0
 31
0.0
  0
LINE
  5
5957
330
58BC
100
AcDbEntity
  8
AM_0 外形線1
100
AcDbLine
 10
0.0
 20
371.0
 30
0.0
 11
0.0
 21
366.6500000000001
 31
0.0
  0
LINE
  5
5958
330
58BC
100
AcDbEntity
  8
AM_0 外形線1
100
AcDbLine
 10
7.0
 20
361.5
 30
0.0
 11
-3.100000000000362
 21
361.5
 31
0.0
  0
ELLIPSE
  5
5959
330
58BC
100
AcDbEntity
  8
AM_0 外形線1
100
AcDbEllipse
 10
-1.550000000000181
 20
364.0749999999999
 30
0.0
 11
0.0
 21
2.575000000000271
 31
0.0
210
0.0
220
0.0
230
1.0
 40
0.6019417475728224
 41
0.0
 42
6.283185307179584
  0
ENDBLK
  5
58BE
330
58BC
100
AcDbEntity
  8
0
100
AcDbBlockEnd
  0
BLOCK
  5
5AFE
330
5AFD
100
AcDbEntity
  8
0
100
AcDbBlockBegin
  2
*D15
 70
     1
 10
0.0
 20
0.0
 30
0.0
  3
*D15
  1

  0
LINE
  5
65CB
330
5AFD
100
AcDbEntity
  8
AM_5 寸法線
 62
     3
100
AcDbLine
 10
1724.44278404728
 20
2465.871214801631
 30
0.0
 11
1385.44278404728
 21
2465.871214801631
 31
0.0
  0
LINE
  5
65CC
330
5AFD
100
AcDbEntity
  8
AM_5 寸法線
 62
     3
100
AcDbLine
 10
1724.44278404728
 20
1795.87121480163
 30
0.0
 11
1385.44278404728
 21
1795.87121480163
 31
0.0
  0
LINE
  5
65CD
330
5AFD
100
AcDbEntity
  8
AM_5 寸法線
 62
     3
100
AcDbLine
 10
1391.69278404728
 20
2440.87121480163
 30
0.0
 11
1391.69278404728
 21
1820.87121480163
 31
0.0
  0
INSERT
  5
65CE
330
5AFD
100
AcDbEntity
  8
AM_5 寸法線
 62
     3
100
AcDbBlockReference
  2
_Open30
 10
1391.69278404728
 20
2465.871214801631
 30
0.0
 41
25.0
 42
25.0
 43
25.0
 50
90.0
  0
INSERT
  5
65CF
330
5AFD
100
AcDbEntity
  8
AM_5 寸法線
 62
     3
100
AcDbBlockReference
  2
_Open30
 10
1391.69278404728
 20
1795.87121480163
 30
0.0
 41
25.0
 42
25.0
 43
25.0
 50
270.0
  0
MTEXT
  5
65D0
330
5AFD
100
AcDbEntity
  8
AM_5 寸法線
 62
     3
100
AcDbMText
 10
1359.192784047279
 20
2130.871214801631
 30
0.0
 40
35.0
 41
0.0
 46
0.0
 71
     5
 72
     1
  1
%%c670
  7
SEISA
 11
0.0000000000000001
 21
1.0
 31
0.0
 73
     1
 44
1.0
  0
POINT
  5
65D1
330
5AFD
100
AcDbEntity
  8
Defpoints
 62
     0
100
AcDbPoint
 10
1730.69278404728
 20
2465.871214801631
 30
0.0
  0
POINT
  5
65D2
330
5AFD
100
AcDbEntity
  8
Defpoints
 62
     0
100
AcDbPoint
 10
1730.69278404728
 20
1795.87121480163
 30
0.0
  0
POINT
  5
65D3
330
5AFD
100
AcDbEntity
  8
Defpoints
 62
     0
100
AcDbPoint
 10
1391.69278404728
 20
1795.87121480163
 30
0.0
  0
ENDBLK
  5
5AFF
330
5AFD
100
AcDbEntity
  8
0
100
AcDbBlockEnd
  0
BLOCK
  5
5B30
330
5B2F
100
AcDbEntity
  8
0
100
AcDbBlockBegin
  2
*D16
 70
     1
 10
0.0
 20
0.0
 30
0.0
  3
*D16
  1

  0
LINE
  5
65D4
330
5B2F
100
AcDbEntity
  8
AM_5 寸法線
 62
     3
100
AcDbLine
 10
2041.69278404728
 20
2137.12121480163
 30
0.0
 11
2041.69278404728
 21
2202.48088280163
 31
0.0
  0
LINE
  5
65D5
330
5B2F
100
AcDbEntity
  8
AM_5 寸法線
 62
     3
100
AcDbLine
 10
1591.69278404728
 20
2137.12121480163
 30
0.0
 11
1591.69278404728
 21
2202.48088280163
 31
0.0
  0
LINE
  5
65D6
330
5B2F
100
AcDbEntity
  8
AM_5 寸法線
 62
     3
100
AcDbLine
 10
2016.69278404728
 20
2196.23088280163
 30
0.0
 11
1616.69278404728
 21
2196.23088280163
 31
0.0
  0
INSERT
  5
65D7
330
5B2F
100
AcDbEntity
  8
AM_5 寸法線
 62
     3
100
AcDbBlockReference
  2
_Open30
 10
2041.69278404728
 20
2196.23088280163
 30
0.0
 41
25.0
 42
25.0
 43
25.0
  0
INSERT
  5
65D8
330
5B2F
100
AcDbEntity
  8
AM_5 寸法線
 62
     3
100
AcDbBlockReference
  2
_Open30
 10
1591.69278404728
 20
2196.23088280163
 30
0.0
 41
25.0
 42
25.0
 43
25.0
 50
180.0
  0
MTEXT
  5
65D9
330
5B2F
100
AcDbEntity
  8
AM_5 寸法線
 62
     3
100
AcDbMText
 10
1816.69278404728
 20
2228.73088280163
 30
0.0
 40
35.0
 41
0.0
 46
0.0
 71
     5
 72
     1
  1
450
  7
SEISA
 73
     1
 44
1.0
  0
POINT
  5
65DA
330
5B2F
100
AcDbEntity
  8
Defpoints
 62
     0
100
AcDbPoint
 10
2041.69278404728
 20
2130.87121480163
 30
0.0
  0
POINT
  5
65DB
330
5B2F
100
AcDbEntity
  8
Defpoints
 62
     0
100
AcDbPoint
 10
1591.69278404728
 20
2130.87121480163
 30
0.0
  0
POINT
  5
65DC
330
5B2F
100
AcDbEntity
  8
Defpoints
 62
     0
100
AcDbPoint
 10
1591.69278404728
 20
2196.23088280163
 30
0.0
  0
ENDBLK
  5
5B31
330
5B2F
100
AcDbEntity
  8
0
100
AcDbBlockEnd
  0
BLOCK
  5
5B48
330
5B47
100
AcDbEntity
  8
0
100
AcDbBlockBegin
  2
*D17
 70
     1
 10
0.0
 20
0.0
 30
0.0
  3
*D17
  1

  0
LINE
  5
65DD
330
5B47
100
AcDbEntity
  8
AM_5 寸法線
 62
     3
100
AcDbLine
 10
2041.69278404728
 20
2137.12121480163
 30
0.0
 11
2041.69278404728
 21
2202.48088280163
 31
0.0
  0
LINE
  5
65DE
330
5B47
100
AcDbEntity
  8
AM_5 寸法線
 62
     3
100
AcDbLine
 10
2073.69278404728
 20
2137.12121480163
 30
0.0
 11
2073.69278404728
 21
2202.48088280163
 31
0.0
  0
LINE
  5
65DF
330
5B47
100
AcDbEntity
  8
AM_5 寸法線
 62
     3
100
AcDbLine
 10
2016.69278404728
 20
2196.23088280163
 30
0.0
 11
1991.69278404728
 21
2196.23088280163
 31
0.0
  0
LINE
  5
65E0
330
5B47
100
AcDbEntity
  8
AM_5 寸法線
 62
     3
100
AcDbLine
 10
2098.69278404728
 20
2196.23088280163
 30
0.0
 11
2123.69278404728
 21
2196.23088280163
 31
0.0
  0
MTEXT
  5
65E1
330
5B47
100
AcDbEntity
  8
AM_5 寸法線
 62
     3
100
AcDbMText
 10
2126.155388791023
 20
2227.917679774191
 30
0.0
 40
35.0
 41
0.0
 46
0.0
 71
     5
 72
     1
  1
32
  7
SEISA
 73
     1
 44
1.0
  0
LINE
  5
65E2
330
5B47
100
AcDbEntity
  8
AM_5 寸法線
 62
     3
100
AcDbLine
 10
2041.69278404728
 20
2196.23088280163
 30
0.0
 11
2073.69278404728
 21
2196.23088280163
 31
0.0
  0
INSERT
  5
65E3
330
5B47
100
AcDbEntity
  8
AM_5 寸法線
 62
     3
100
AcDbBlockReference
  2
_Open30
 10
2041.69278404728
 20
2196.23088280163
 30
0.0
 41
25.0
 42
25.0
 43
25.0
  0
INSERT
  5
65E4
330
5B47
100
AcDbEntity
  8
AM_5 寸法線
 62
     3
100
AcDbBlockReference
  2
_Open30
 10
2073.69278404728
 20
2196.23088280163
 30
0.0
 41
25.0
 42
25.0
 43
25.0
 50
180.0
  0
POINT
  5
65E5
330
5B47
100
AcDbEntity
  8
Defpoints
 62
     0
100
AcDbPoint
 10
2041.69278404728
 20
2130.87121480163
 30
0.0
  0
POINT
  5
65E6
330
5B47
100
AcDbEntity
  8
Defpoints
 62
     0
100
AcDbPoint
 10
2073.69278404728
 20
2130.87121480163
 30
0.0
  0
POINT
  5
65E7
330
5B47
100
AcDbEntity
  8
Defpoints
 62
     0
100
AcDbPoint
 10
2073.69278404728
 20
2196.23088280163
 30
0.0
  0
ENDBLK
  5
5B49
330
5B47
100
AcDbEntity
  8
0
100
AcDbBlockEnd
  0
BLOCK
  5
5B64
330
5B63
100
AcDbEntity
  8
0
100
AcDbBlockBegin
  2
*D18
 70
     1
 10
0.0
 20
0.0
 30
0.0
  3
*D18
  1

  0
LINE
  5
65E8
330
5B63
100
AcDbEntity
  8
AM_5 寸法線
 62
     3
100
AcDbLine
 10
2073.69278404728
 20
2137.12121480163
 30
0.0
 11
2073.69278404728
 21
2202.48088280163
 31
0.0
  0
LINE
  5
65E9
330
5B63
100
AcDbEntity
  8
AM_5 寸法線
 62
     3
100
AcDbLine
 10
2523.69278404728
 20
2137.12121480163
 30
0.0
 11
2523.69278404728
 21
2202.48088280163
 31
0.0
  0
LINE
  5
65EA
330
5B63
100
AcDbEntity
  8
AM_5 寸法線
 62
     3
100
AcDbLine
 10
2098.69278404728
 20
2196.23088280163
 30
0.0
 11
2498.69278404728
 21
2196.23088280163
 31
0.0
  0
INSERT
  5
65EB
330
5B63
100
AcDbEntity
  8
AM_5 寸法線
 62
     3
100
AcDbBlockReference
  2
_Open30
 10
2073.69278404728
 20
2196.23088280163
 30
0.0
 41
25.0
 42
25.0
 43
25.0
 50
180.0
  0
INSERT
  5
65EC
330
5B63
100
AcDbEntity
  8
AM_5 寸法線
 62
     3
100
AcDbBlockReference
  2
_Open30
 10
2523.69278404728
 20
2196.23088280163
 30
0.0
 41
25.0
 42
25.0
 43
25.0
  0
MTEXT
  5
65ED
330
5B63
100
AcDbEntity
  8
AM_5 寸法線
 62
     3
100
AcDbMText
 10
2298.69278404728
 20
2228.73088280163
 30
0.0
 40
35.0
 41
0.0
 46
0.0
 71
     5
 72
     1
  1
450
  7
SEISA
 73
     1
 44
1.0
  0
POINT
  5
65EE
330
5B63
100
AcDbEntity
  8
Defpoints
 62
     0
100
AcDbPoint
 10
2073.69278404728
 20
2130.87121480163
 30
0.0
  0
POINT
  5
65EF
330
5B63
100
AcDbEntity
  8
Defpoints
 62
     0
100
AcDbPoint
 10
2523.69278404728
 20
2130.87121480163
 30
0.0
  0
POINT
  5
65F0
330
5B63
100
AcDbEntity
  8
Defpoints
 62
     0
100
AcDbPoint
 10
2523.69278404728
 20
2196.23088280163
 30
0.0
  0
ENDBLK
  5
5B65
330
5B63
100
AcDbEntity
  8
0
100
AcDbBlockEnd
  0
BLOCK
  5
5B92
330
5B91
100
AcDbEntity
  8
0
100
AcDbBlockBegin
  2
*D19
 70
     1
 10
0.0
 20
0.0
 30
0.0
  3
*D19
  1

  0
LINE
  5
65F1
330
5B91
100
AcDbEntity
  8
AM_5 寸法線
 62
     3
100
AcDbLine
 10
1797.69278404728
 20
2459.62121480163
 30
0.0
 11
1797.69278404728
 21
2379.598215994494
 31
0.0
  0
LINE
  5
65F2
330
5B91
100
AcDbEntity
  8
AM_5 寸法線
 62
     3
100
AcDbLine
 10
1808.19278404728
 20
2460.12121480163
 30
0.0
 11
1808.19278404728
 21
2379.598215994494
 31
0.0
  0
LINE
  5
65F3
330
5B91
100
AcDbEntity
  8
AM_5 寸法線
 62
     3
100
AcDbLine
 10
1833.19278404728
 20
2385.848215994494
 30
0.0
 11
1858.19278404728
 21
2385.848215994494
 31
0.0
  0
LINE
  5
65F4
330
5B91
100
AcDbEntity
  8
AM_5 寸法線
 62
     3
100
AcDbLine
 10
1772.69278404728
 20
2385.848215994494
 30
0.0
 11
1626.19278404728
 21
2385.848215994494
 31
0.0
  0
LINE
  5
65F5
330
5B91
100
AcDbEntity
  8
AM_5 寸法線
 62
     3
100
AcDbLine
 10
1808.19278404728
 20
2385.848215994494
 30
0.0
 11
1797.69278404728
 21
2385.848215994494
 31
0.0
  0
INSERT
  5
65F6
330
5B91
100
AcDbEntity
  8
AM_5 寸法線
 62
     3
100
AcDbBlockReference
  2
_Open30
 10
1808.19278404728
 20
2385.848215994494
 30
0.0
 41
25.0
 42
25.0
 43
25.0
 50
180.0
  0
INSERT
  5
65F7
330
5B91
100
AcDbEntity
  8
AM_5 寸法線
 62
     3
100
AcDbBlockReference
  2
_Open30
 10
1797.69278404728
 20
2385.848215994494
 30
0.0
 41
25.0
 42
25.0
 43
25.0
  0
MTEXT
  5
65F8
330
5B91
100
AcDbEntity
  8
AM_5 寸法線
 62
     3
100
AcDbMText
 10
1686.94278404728
 20
2418.348215994495
 30
0.0
 40
35.0
 41
0.0
 46
0.0
 71
     5
 72
     1
  1
10.5
  7
SEISA
 73
     1
 44
1.0
  0
POINT
  5
65F9
330
5B91
100
AcDbEntity
  8
Defpoints
 62
     0
100
AcDbPoint
 10
1797.69278404728
 20
2465.871214801631
 30
0.0
  0
POINT
  5
65FA
102
{ACAD_REACTORS
330
7295
102
}
330
5B91
100
AcDbEntity
  8
Defpoints
 62
     0
100
AcDbPoint
 10
1808.19278404728
 20
2466.37121480163
 30
0.0
  0
POINT
  5
65FB
330
5B91
100
AcDbEntity
  8
Defpoints
 62
     0
100
AcDbPoint
 10
1808.19278404728
 20
2385.848215994494
 30
0.0
  0
ENDBLK
  5
5B93
330
5B91
100
AcDbEntity
  8
0
100
AcDbBlockEnd
  0
BLOCK
  5
5C4A
330
5C49
100
AcDbEntity
  8
0
100
AcDbBlockBegin
  2
*D20
 70
     1
 10
0.0
 20
0.0
 30
0.0
  3
*D20
  1

  0
LINE
  5
660E
330
5C49
100
AcDbEntity
  8
AM_5 寸法線
 62
     3
100
AcDbLine
 10
2390.94278404728
 20
2465.871214801631
 30
0.0
 11
2729.94278404728
 21
2465.871214801631
 31
0.0
  0
LINE
  5
660F
330
5C49
100
AcDbEntity
  8
AM_5 寸法線
 62
     3
100
AcDbLine
 10
2390.94278404728
 20
1795.87121480163
 30
0.0
 11
2729.94278404728
 21
1795.87121480163
 31
0.0
  0
LINE
  5
6610
330
5C49
100
AcDbEntity
  8
AM_5 寸法線
 62
     3
100
AcDbLine
 10
2723.69278404728
 20
2440.87121480163
 30
0.0
 11
2723.69278404728
 21
1820.87121480163
 31
0.0
  0
INSERT
  5
6611
330
5C49
100
AcDbEntity
  8
AM_5 寸法線
 62
     3
100
AcDbBlockReference
  2
_Open30
 10
2723.69278404728
 20
2465.871214801631
 30
0.0
 41
25.0
 42
25.0
 43
25.0
 50
90.0
  0
INSERT
  5
6612
330
5C49
100
AcDbEntity
  8
AM_5 寸法線
 62
     3
100
AcDbBlockReference
  2
_Open30
 10
2723.69278404728
 20
1795.87121480163
 30
0.0
 41
25.0
 42
25.0
 43
25.0
 50
270.0
  0
MTEXT
  5
6613
330
5C49
100
AcDbEntity
  8
AM_5 寸法線
 62
     3
100
AcDbMText
 10
2691.19278404728
 20
2130.871214801631
 30
0.0
 40
35.0
 41
0.0
 46
0.0
 71
     5
 72
     1
  1
%%c670
  7
SEISA
 11
0.0000000000000001
 21
1.0
 31
0.0
 73
     1
 44
1.0
  0
POINT
  5
6614
330
5C49
100
AcDbEntity
  8
Defpoints
 62
     0
100
AcDbPoint
 10
2384.69278404728
 20
2465.871214801631
 30
0.0
  0
POINT
  5
6615
330
5C49
100
AcDbEntity
  8
Defpoints
 62
     0
100
AcDbPoint
 10
2384.69278404728
 20
1795.87121480163
 30
0.0
  0
POINT
  5
6616
330
5C49
100
AcDbEntity
  8
Defpoints
 62
     0
100
AcDbPoint
 10
2723.69278404728
 20
1795.87121480163
 30
0.0
  0
ENDBLK
  5
5C4B
330
5C49
100
AcDbEntity
  8
0
100
AcDbBlockEnd
  0
BLOCK
  5
5C62
330
5C61
100
AcDbEntity
  8
0
100
AcDbBlockBegin
  2
*D21
 70
     1
 10
0.0
 20
0.0
 30
0.0
  3
*D21
  1

  0
LINE
  5
6617
330
5C61
100
AcDbEntity
  8
AM_5 寸法線
 62
     3
100
AcDbLine
 10
2358.94278404728
 20
2526.87121480163
 30
0.0
 11
2809.94278404728
 21
2526.87121480163
 31
0.0
  0
LINE
  5
6618
330
5C61
100
AcDbEntity
  8
AM_5 寸法線
 62
     3
100
AcDbLine
 10
2358.942784047274
 20
1734.87121480163
 30
0.0
 11
2809.94278404728
 21
1734.87121480163
 31
0.0
  0
LINE
  5
6619
330
5C61
100
AcDbEntity
  8
AM_5 寸法線
 62
     3
100
AcDbLine
 10
2803.69278404728
 20
2501.87121480163
 30
0.0
 11
2803.69278404728
 21
1759.87121480163
 31
0.0
  0
INSERT
  5
661A
330
5C61
100
AcDbEntity
  8
AM_5 寸法線
 62
     3
100
AcDbBlockReference
  2
_Open30
 10
2803.69278404728
 20
2526.87121480163
 30
0.0
 41
25.0
 42
25.0
 43
25.0
 50
90.0
  0
INSERT
  5
661B
330
5C61
100
AcDbEntity
  8
AM_5 寸法線
 62
     3
100
AcDbBlockReference
  2
_Open30
 10
2803.69278404728
 20
1734.87121480163
 30
0.0
 41
25.0
 42
25.0
 43
25.0
 50
270.0
  0
MTEXT
  5
661C
330
5C61
100
AcDbEntity
  8
AM_5 寸法線
 62
     3
100
AcDbMText
 10
2771.19278404728
 20
2130.87121480163
 30
0.0
 40
35.0
 41
0.0
 46
0.0
 71
     5
 72
     1
  1
%%c792
  7
SEISA
 11
0.0000000000000001
 21
1.0
 31
0.0
 73
     1
 44
1.0
  0
POINT
  5
661D
330
5C61
100
AcDbEntity
  8
Defpoints
 62
     0
100
AcDbPoint
 10
2352.69278404728
 20
2526.87121480163
 30
0.0
  0
POINT
  5
661E
330
5C61
100
AcDbEntity
  8
Defpoints
 62
     0
100
AcDbPoint
 10
2352.692784047274
 20
1734.87121480163
 30
0.0
  0
POINT
  5
661F
330
5C61
100
AcDbEntity
  8
Defpoints
 62
     0
100
AcDbPoint
 10
2803.69278404728
 20
1734.87121480163
 30
0.0
  0
ENDBLK
  5
5C63
330
5C61
100
AcDbEntity
  8
0
100
AcDbBlockEnd
  0
BLOCK
  5
5C7A
330
5C79
100
AcDbEntity
  8
0
100
AcDbBlockBegin
  2
*D22
 70
     1
 10
0.0
 20
0.0
 30
0.0
  3
*D22
  1

  0
LINE
  5
6620
330
5C79
100
AcDbEntity
  8
AM_5 寸法線
 62
     3
100
AcDbLine
 10
2100.94278404728
 20
2580.87121480163
 30
0.0
 11
2889.94278404728
 21
2580.87121480163
 31
0.0
  0
LINE
  5
6621
330
5C79
100
AcDbEntity
  8
AM_5 寸法線
 62
     3
100
AcDbLine
 10
2100.94278404728
 20
1680.87121480163
 30
0.0
 11
2889.94278404728
 21
1680.87121480163
 31
0.0
  0
LINE
  5
6622
330
5C79
100
AcDbEntity
  8
AM_5 寸法線
 62
     3
100
AcDbLine
 10
2883.69278404728
 20
2555.87121480163
 30
0.0
 11
2883.69278404728
 21
1705.87121480163
 31
0.0
  0
INSERT
  5
6623
330
5C79
100
AcDbEntity
  8
AM_5 寸法線
 62
     3
100
AcDbBlockReference
  2
_Open30
 10
2883.69278404728
 20
2580.87121480163
 30
0.0
 41
25.0
 42
25.0
 43
25.0
 50
90.0
  0
INSERT
  5
6624
330
5C79
100
AcDbEntity
  8
AM_5 寸法線
 62
     3
100
AcDbBlockReference
  2
_Open30
 10
2883.69278404728
 20
1680.87121480163
 30
0.0
 41
25.0
 42
25.0
 43
25.0
 50
270.0
  0
MTEXT
  5
6625
330
5C79
100
AcDbEntity
  8
AM_5 寸法線
 62
     3
100
AcDbMText
 10
2851.192784047281
 20
2130.871214801631
 30
0.0
 40
35.0
 41
0.0
 46
0.0
 71
     5
 72
     1
  1
%%c900
  7
SEISA
 11
0.0000000000000001
 21
1.0
 31
0.0
 73
     1
 44
1.0
  0
POINT
  5
6626
330
5C79
100
AcDbEntity
  8
Defpoints
 62
     0
100
AcDbPoint
 10
2094.69278404728
 20
2580.87121480163
 30
0.0
  0
POINT
  5
6627
330
5C79
100
AcDbEntity
  8
Defpoints
 62
     0
100
AcDbPoint
 10
2094.69278404728
 20
1680.87121480163
 30
0.0
  0
POINT
  5
6628
330
5C79
100
AcDbEntity
  8
Defpoints
 62
     0
100
AcDbPoint
 10
2883.69278404728
 20
1680.87121480163
 30
0.0
  0
ENDBLK
  5
5C7B
330
5C79
100
AcDbEntity
  8
0
100
AcDbBlockEnd
  0
BLOCK
  5
5D12
330
5D11
100
AcDbEntity
  8
0
100
AcDbBlockBegin
  2
*D23
 70
     1
 10
0.0
 20
0.0
 30
0.0
  3
*D23
  1

  0
LINE
  5
6BA7
330
5D11
100
AcDbEntity
  8
AM_5 寸法線
 62
     3
100
AcDbLine
 10
2057.69278404728
 20
1675.62121480163
 30
0.0
 11
2057.69278404728
 21
1554.62121480163
 31
0.0
  0
LINE
  5
6BA8
330
5D11
100
AcDbEntity
  8
AM_5 寸法線
 62
     3
100
AcDbLine
 10
2019.69278404728
 20
1675.62121480163
 30
0.0
 11
2019.69278404728
 21
1554.62121480163
 31
0.0
  0
LINE
  5
6BA9
330
5D11
100
AcDbEntity
  8
AM_5 寸法線
 62
     3
100
AcDbLine
 10
2082.69278404728
 20
1560.87121480163
 30
0.0
 11
2107.69278404728
 21
1560.87121480163
 31
0.0
  0
LINE
  5
6BAA
330
5D11
100
AcDbEntity
  8
AM_5 寸法線
 62
     3
100
AcDbLine
 10
1994.69278404728
 20
1560.87121480163
 30
0.0
 11
1888.69278404728
 21
1560.87121480163
 31
0.0
  0
LINE
  5
6BAB
330
5D11
100
AcDbEntity
  8
AM_5 寸法線
 62
     3
100
AcDbLine
 10
2057.69278404728
 20
1560.87121480163
 30
0.0
 11
2019.69278404728
 21
1560.87121480163
 31
0.0
  0
INSERT
  5
6BAC
330
5D11
100
AcDbEntity
  8
AM_5 寸法線
 62
     3
100
AcDbBlockReference
  2
GENDOT
 10
2057.69278404728
 20
1560.87121480163
 30
0.0
 41
25.0
 42
25.0
 43
25.0
 50
180.0
  0
INSERT
  5
6BAD
330
5D11
100
AcDbEntity
  8
AM_5 寸法線
 62
     3
100
AcDbBlockReference
  2
_Open30
 10
2019.69278404728
 20
1560.87121480163
 30
0.0
 41
25.0
 42
25.0
 43
25.0
  0
MTEXT
  5
6BAE
330
5D11
100
AcDbEntity
  8
AM_5 寸法線
 62
     3
100
AcDbMText
 10
1929.19278404728
 20
1593.37121480163
 30
0.0
 40
35.0
 41
0.0
 46
0.0
 71
     5
 72
     1
  1
38
  7
SEISA
 73
     1
 44
1.0
  0
POINT
  5
6BAF
330
5D11
100
AcDbEntity
  8
Defpoints
 62
     0
100
AcDbPoint
 10
2057.69278404728
 20
1681.87121480163
 30
0.0
  0
POINT
  5
6BB0
330
5D11
100
AcDbEntity
  8
Defpoints
 62
     0
100
AcDbPoint
 10
2019.69278404728
 20
1681.87121480163
 30
0.0
  0
POINT
  5
6BB1
330
5D11
100
AcDbEntity
  8
Defpoints
 62
     0
100
AcDbPoint
 10
2019.69278404728
 20
1560.87121480163
 30
0.0
  0
ENDBLK
  5
5D13
330
5D11
100
AcDbEntity
  8
0
100
AcDbBlockEnd
  0
BLOCK
  5
5D2E
330
5D2D
100
AcDbEntity
  8
0
100
AcDbBlockBegin
  2
*D24
 70
     1
 10
0.0
 20
0.0
 30
0.0
  3
*D24
  1

  0
LINE
  5
6BC8
330
5D2D
100
AcDbEntity
  8
AM_5 寸法線
 62
     3
100
AcDbLine
 10
2057.69278404728
 20
1675.62121480163
 30
0.0
 11
2057.69278404728
 21
1554.62121480163
 31
0.0
  0
LINE
  5
6BC9
330
5D2D
100
AcDbEntity
  8
AM_5 寸法線
 62
     3
100
AcDbLine
 10
2095.69278404728
 20
1675.62121480163
 30
0.0
 11
2095.69278404728
 21
1554.62121480163
 31
0.0
  0
LINE
  5
6BCA
330
5D2D
100
AcDbEntity
  8
AM_5 寸法線
 62
     3
100
AcDbLine
 10
2032.69278404728
 20
1560.87121480163
 30
0.0
 11
2007.69278404728
 21
1560.87121480163
 31
0.0
  0
LINE
  5
6BCB
330
5D2D
100
AcDbEntity
  8
AM_5 寸法線
 62
     3
100
AcDbLine
 10
2120.69278404728
 20
1560.87121480163
 30
0.0
 11
2226.69278404728
 21
1560.87121480163
 31
0.0
  0
LINE
  5
6BCC
330
5D2D
100
AcDbEntity
  8
AM_5 寸法線
 62
     3
100
AcDbLine
 10
2057.69278404728
 20
1560.87121480163
 30
0.0
 11
2095.69278404728
 21
1560.87121480163
 31
0.0
  0
INSERT
  5
6BCD
330
5D2D
100
AcDbEntity
  8
AM_5 寸法線
 62
     3
100
AcDbBlockReference
  2
GENDOT
 10
2057.69278404728
 20
1560.87121480163
 30
0.0
 41
25.0
 42
25.0
 43
25.0
  0
INSERT
  5
6BCE
330
5D2D
100
AcDbEntity
  8
AM_5 寸法線
 62
     3
100
AcDbBlockReference
  2
_Open30
 10
2095.69278404728
 20
1560.87121480163
 30
0.0
 41
25.0
 42
25.0
 43
25.0
 50
180.0
  0
MTEXT
  5
6BCF
330
5D2D
100
AcDbEntity
  8
AM_5 寸法線
 62
     3
100
AcDbMText
 10
2186.19278404728
 20
1593.37121480163
 30
0.0
 40
35.0
 41
0.0
 46
0.0
 71
     5
 72
     1
  1
38
  7
SEISA
 73
     1
 44
1.0
  0
POINT
  5
6BD0
330
5D2D
100
AcDbEntity
  8
Defpoints
 62
     0
100
AcDbPoint
 10
2057.69278404728
 20
1681.87121480163
 30
0.0
  0
POINT
  5
6BD1
330
5D2D
100
AcDbEntity
  8
Defpoints
 62
     0
100
AcDbPoint
 10
2095.69278404728
 20
1681.87121480163
 30
0.0
  0
POINT
  5
6BD2
330
5D2D
100
AcDbEntity
  8
Defpoints
 62
     0
100
AcDbPoint
 10
2095.69278404728
 20
1560.87121480163
 30
0.0
  0
ENDBLK
  5
5D2F
330
5D2D
100
AcDbEntity
  8
0
100
AcDbBlockEnd
  0
BLOCK
  5
5D4A
330
5D49
100
AcDbEntity
  8
0
100
AcDbBlockBegin
  2
*D25
 70
     1
 10
0.0
 20
0.0
 30
0.0
  3
*D25
  1

  0
LINE
  5
7493
330
5D49
100
AcDbEntity
  8
AM_5 寸法線
 62
     3
100
AcDbLine
 10
2352.69278404728
 20
1728.62121480163
 30
0.0
 11
2352.69278404728
 21
1474.62121480163
 31
0.0
  0
LINE
  5
7494
330
5D49
100
AcDbEntity
  8
AM_5 寸法線
 62
     3
100
AcDbLine
 10
1762.69278404728
 20
1728.62121480163
 30
0.0
 11
1762.69278404728
 21
1474.62121480163
 31
0.0
  0
LINE
  5
7495
330
5D49
100
AcDbEntity
  8
AM_5 寸法線
 62
     3
100
AcDbLine
 10
2327.69278404728
 20
1480.87121480163
 30
0.0
 11
1787.69278404728
 21
1480.87121480163
 31
0.0
  0
INSERT
  5
7496
330
5D49
100
AcDbEntity
  8
AM_5 寸法線
 62
     3
100
AcDbBlockReference
  2
_Open30
 10
2352.69278404728
 20
1480.87121480163
 30
0.0
 41
25.0
 42
25.0
 43
25.0
  0
INSERT
  5
7497
330
5D49
100
AcDbEntity
  8
AM_5 寸法線
 62
     3
100
AcDbBlockReference
  2
_Open30
 10
1762.69278404728
 20
1480.87121480163
 30
0.0
 41
25.0
 42
25.0
 43
25.0
 50
180.0
  0
MTEXT
  5
7498
330
5D49
100
AcDbEntity
  8
AM_5 寸法線
 62
     3
100
AcDbMText
 10
2057.69278404728
 20
1513.37121480163
 30
0.0
 40
35.0
 41
0.0
 46
0.0
 71
     5
 72
     1
  1
590
  7
SEISA
 73
     1
 44
1.0
  0
POINT
  5
7499
330
5D49
100
AcDbEntity
  8
Defpoints
 62
     0
100
AcDbPoint
 10
2352.69278404728
 20
1734.87121480163
 30
0.0
  0
POINT
  5
749A
330
5D49
100
AcDbEntity
  8
Defpoints
 62
     0
100
AcDbPoint
 10
1762.69278404728
 20
1734.87121480163
 30
0.0
  0
POINT
  5
749B
330
5D49
100
AcDbEntity
  8
Defpoints
 62
     0
100
AcDbPoint
 10
1762.69278404728
 20
1480.87121480163
 30
0.0
  0
ENDBLK
  5
5D4B
330
5D49
100
AcDbEntity
  8
0
100
AcDbBlockEnd
  0
BLOCK
  5
5DBE
330
5DBD
100
AcDbEntity
  8
0
100
AcDbBlockBegin
  2
*D26
 70
     1
 10
0.0
 20
0.0
 30
0.0
  3
*D26
  1

  0
LINE
  5
6663
330
5DBD
100
AcDbEntity
  8
AM_5 寸法線
 62
     3
100
AcDbLine
 10
1591.69278404728
 20
1806.62121480163
 30
0.0
 11
1591.69278404728
 21
1394.62121480163
 31
0.0
  0
LINE
  5
6664
330
5DBD
100
AcDbEntity
  8
AM_5 寸法線
 62
     3
100
AcDbLine
 10
2523.69278404728
 20
1806.62121480163
 30
0.0
 11
2523.69278404728
 21
1394.62121480163
 31
0.0
  0
LINE
  5
6665
330
5DBD
100
AcDbEntity
  8
AM_5 寸法線
 62
     3
100
AcDbLine
 10
1616.69278404728
 20
1400.87121480163
 30
0.0
 11
2498.69278404728
 21
1400.87121480163
 31
0.0
  0
INSERT
  5
6666
330
5DBD
100
AcDbEntity
  8
AM_5 寸法線
 62
     3
100
AcDbBlockReference
  2
_Open30
 10
1591.69278404728
 20
1400.87121480163
 30
0.0
 41
25.0
 42
25.0
 43
25.0
 50
180.0
  0
INSERT
  5
6667
330
5DBD
100
AcDbEntity
  8
AM_5 寸法線
 62
     3
100
AcDbBlockReference
  2
_Open30
 10
2523.69278404728
 20
1400.87121480163
 30
0.0
 41
25.0
 42
25.0
 43
25.0
  0
MTEXT
  5
6668
330
5DBD
100
AcDbEntity
  8
AM_5 寸法線
 62
     3
100
AcDbMText
 10
2057.69278404728
 20
1433.37121480163
 30
0.0
 40
35.0
 41
0.0
 46
0.0
 71
     5
 72
     1
  1
932
  7
SEISA
 73
     1
 44
1.0
  0
POINT
  5
6669
330
5DBD
100
AcDbEntity
  8
Defpoints
 62
     0
100
AcDbPoint
 10
1591.69278404728
 20
1812.87121480163
 30
0.0
  0
POINT
  5
666A
330
5DBD
100
AcDbEntity
  8
Defpoints
 62
     0
100
AcDbPoint
 10
2523.69278404728
 20
1812.87121480163
 30
0.0
  0
POINT
  5
666B
330
5DBD
100
AcDbEntity
  8
Defpoints
 62
     0
100
AcDbPoint
 10
2523.69278404728
 20
1400.87121480163
 30
0.0
  0
ENDBLK
  5
5DBF
330
5DBD
100
AcDbEntity
  8
0
100
AcDbBlockEnd
  0
BLOCK
  5
6BA5
330
6BA2
100
AcDbEntity
  8
0
100
AcDbBlockBegin
  2
GENDOT
 70
     0
 10
0.0
 20
0.0
 30
0.0
  3
GENDOT
  1

  0
LINE
  5
6BA3
330
6BA2
100
AcDbEntity
  8
0
100
AcDbLine
 10
0.0
 20
0.0
 30
0.0
 11
-1.0
 21
0.0
 31
0.0
  0
LWPOLYLINE
  5
6BA4
330
6BA2
100
AcDbEntity
  8
0
100
AcDbPolyline
 90
        2
 70
     1
 43
0.25
 10
-0.125
 20
0.0
 42
1.0
 10
0.125
 20
0.0
 42
1.0
  0
ENDBLK
  5
6BA6
330
6BA2
100
AcDbEntity
  8
0
100
AcDbBlockEnd
  0
BLOCK
  5
7289
330
7288
100
AcDbEntity
  8
0
100
AcDbBlockBegin
  2
*D28
 70
     1
 10
0.0
 20
0.0
 30
0.0
  3
*D28
  1

  0
LINE
  5
72A8
330
7288
100
AcDbEntity
  8
AM_5 寸法線
 62
     3
100
AcDbLine
 10
1808.19278404728
 20
2460.12121480163
 30
0.0
 11
1808.19278404728
 21
2379.598215994497
 31
0.0
  0
LINE
  5
72A9
330
7288
100
AcDbEntity
  8
AM_5 寸法線
 62
     3
100
AcDbLine
 10
1931.192784047279
 20
2460.12121480163
 30
0.0
 11
1931.192784047279
 21
2379.598215994497
 31
0.0
  0
LINE
  5
72AA
330
7288
100
AcDbEntity
  8
AM_5 寸法線
 62
     3
100
AcDbLine
 10
1833.19278404728
 20
2385.848215994497
 30
0.0
 11
1906.19278404728
 21
2385.848215994497
 31
0.0
  0
INSERT
  5
72AB
330
7288
100
AcDbEntity
  8
AM_5 寸法線
 62
     3
100
AcDbBlockReference
  2
_Open30
 10
1808.19278404728
 20
2385.848215994497
 30
0.0
 41
25.0
 42
25.0
 43
25.0
 50
180.0
  0
INSERT
  5
72AC
330
7288
100
AcDbEntity
  8
AM_5 寸法線
 62
     3
100
AcDbBlockReference
  2
_Open30
 10
1931.192784047279
 20
2385.848215994497
 30
0.0
 41
25.0
 42
25.0
 43
25.0
  0
MTEXT
  5
72AD
330
7288
100
AcDbEntity
  8
AM_5 寸法線
 62
     3
100
AcDbMText
 10
1869.69278404728
 20
2418.348215994497
 30
0.0
 40
35.0
 41
0.0
 46
0.0
 71
     5
 72
     1
  1
123
  7
SEISA
 73
     1
 44
1.0
  0
POINT
  5
72AE
330
7288
100
AcDbEntity
  8
Defpoints
 62
     0
100
AcDbPoint
 10
1808.19278404728
 20
2466.37121480163
 30
0.0
  0
POINT
  5
72AF
330
7288
100
AcDbEntity
  8
Defpoints
 62
     0
100
AcDbPoint
 10
1931.192784047279
 20
2466.37121480163
 30
0.0
  0
POINT
  5
72B0
330
7288
100
AcDbEntity
  8
Defpoints
 62
     0
100
AcDbPoint
 10
1931.192784047279
 20
2385.848215994497
 30
0.0
  0
ENDBLK
  5
728A
330
7288
100
AcDbEntity
  8
0
100
AcDbBlockEnd
  0
BLOCK
  5
72B3
330
72B2
100
AcDbEntity
  8
0
100
AcDbBlockBegin
  2
*D29
 70
     1
 10
0.0
 20
0.0
 30
0.0
  3
*D29
  1

  0
LINE
  5
72CB
330
72B2
100
AcDbEntity
  8
AM_5 寸法線
 62
     3
100
AcDbLine
 10
1931.19278404728
 20
2460.12121480163
 30
0.0
 11
1931.19278404728
 21
2379.598215994496
 31
0.0
  0
LINE
  5
72CC
330
72B2
100
AcDbEntity
  8
AM_5 寸法線
 62
     3
100
AcDbLine
 10
2041.69278404728
 20
2457.62121480163
 30
0.0
 11
2041.69278404728
 21
2379.598215994496
 31
0.0
  0
LINE
  5
72CD
330
72B2
100
AcDbEntity
  8
AM_5 寸法線
 62
     3
100
AcDbLine
 10
1956.19278404728
 20
2385.848215994496
 30
0.0
 11
2016.69278404728
 21
2385.848215994496
 31
0.0
  0
LINE
  5
72CE
330
72B2
100
AcDbEntity
  8
AM_5 寸法線
 62
     3
100
AcDbLine
 10
2041.69278404728
 20
2385.848215994496
 30
0.0
 11
2218.19278404728
 21
2385.848215994496
 31
0.0
  0
INSERT
  5
72CF
330
72B2
100
AcDbEntity
  8
AM_5 寸法線
 62
     3
100
AcDbBlockReference
  2
_Open30
 10
1931.19278404728
 20
2385.848215994496
 30
0.0
 41
25.0
 42
25.0
 43
25.0
 50
180.0
  0
INSERT
  5
72D0
330
72B2
100
AcDbEntity
  8
AM_5 寸法線
 62
     3
100
AcDbBlockReference
  2
_Open30
 10
2041.69278404728
 20
2385.848215994496
 30
0.0
 41
25.0
 42
25.0
 43
25.0
  0
MTEXT
  5
72D1
330
72B2
100
AcDbEntity
  8
AM_5 寸法線
 62
     3
100
AcDbMText
 10
2142.44278404728
 20
2418.348215994496
 30
0.0
 40
35.0
 41
0.0
 46
0.0
 71
     5
 72
     1
  1
110.5
  7
SEISA
 73
     1
 44
1.0
  0
POINT
  5
72D2
330
72B2
100
AcDbEntity
  8
Defpoints
 62
     0
100
AcDbPoint
 10
1931.19278404728
 20
2466.37121480163
 30
0.0
  0
POINT
  5
72D3
330
72B2
100
AcDbEntity
  8
Defpoints
 62
     0
100
AcDbPoint
 10
2041.69278404728
 20
2463.87121480163
 30
0.0
  0
POINT
  5
72D4
330
72B2
100
AcDbEntity
  8
Defpoints
 62
     0
100
AcDbPoint
 10
2041.69278404728
 20
2385.848215994496
 30
0.0
  0
ENDBLK
  5
72B4
330
72B2
100
AcDbEntity
  8
0
100
AcDbBlockEnd
  0
ENDSEC
  0
SECTION
  2
ENTITIES
  0
LINE
  5
4685
330
1F
100
AcDbEntity
  8
AM_7 中心線
100
AcDbLine
 10
1561.068492529047
 20
2130.87121480163
 30
0.0
 11
2553.656600344788
 21
2130.87121480163
 31
0.0
  0
LINE
  5
4748
330
1F
100
AcDbEntity
  8
AM_0 外形線1
100
AcDbLine
 10
2073.69278404728
 20
2415.72121480163
 30
0.0
 11
2073.69278404728
 21
2130.87121480163
 31
0.0
  0
INSERT
  5
4FFA
102
{ACAD_REACTORS
330
5C8F
330
5D47
102
}
330
1F
100
AcDbEntity
  8
AM_0 外形線1
100
AcDbBlockReference
  2
ケースＡ CCMH900
 10
2057.362546436918
 20
2130.87121480163
 30
0.0
  0
INSERT
  5
512B
102
{ACAD_REACTORS
330
5D2B
330
5D47
102
}
330
1F
100
AcDbEntity
  8
AM_0 外形線1
100
AcDbBlockReference
  2
ケースＢ CCMH900
 10
2057.69278404728
 20
2130.87121480163
 30
0.0
  0
INSERT
  5
538A
102
{ACAD_REACTORS
330
5B61
330
5B79
330
5C5F
330
5DD3
102
}
330
1F
100
AcDbEntity
  8
AM_0 外形線1
100
AcDbBlockReference
  2
センタＡ CCMH900
 10
2073.69278404728
 20
2130.87121480163
 30
0.0
  0
INSERT
  5
5469
102
{ACAD_REACTORS
330
5B13
330
5B45
330
5B61
330
5BAB
330
5DD3
330
7295
330
72C0
102
}
330
1F
100
AcDbEntity
  8
AM_0 外形線1
100
AcDbBlockReference
  2
センタＢ CCMH900
 10
2041.69278404728
 20
2130.87121480163
 30
0.0
  0
INSERT
  5
568A
330
1F
100
AcDbEntity
  8
AM_0 外形線1
100
AcDbBlockReference
  2
リーマボルト CCMH900 M30
 10
2095.69278404728
 20
2551.87121480163
 30
0.0
  0
INSERT
  5
57DC
102
{ACAD_REACTORS
330
5C77
102
}
330
1F
100
AcDbEntity
  8
AM_0 外形線1
100
AcDbBlockReference
  2
ＧＣサイドカバ－A CCMH900
 10
2324.69278404728
 20
2130.87121480163
 30
0.0
  0
INSERT
  5
58ED
102
{ACAD_REACTORS
330
5BAB
330
5D5F
102
}
330
1F
100
AcDbEntity
  8
AM_0 外形線1
100
AcDbBlockReference
  2
ＧＣサイドカバ－Ｂ CCMH900
 10
1790.69278404728
 20
2130.87121480163
 30
0.0
  0
DIMENSION
  5
5AFC
102
{ACAD_XDICTIONARY
360
5B09
102
}
102
{ACAD_REACTORS
330
5B13
102
}
330
1F
100
AcDbEntity
  8
AM_5 寸法線
100
AcDbDimension
  2
*D15
 10
1391.69278404728
 20
1795.87121480163
 30
0.0
 11
1359.192784047279
 21
2130.871214801631
 31
0.0
 70
    32
  1
%%c<>
 71
     5
 42
670.0
 73
     0
 74
     0
 75
     0
  3
SEISA$0
100
AcDbAlignedDimension
 13
1730.69278404728
 23
2465.871214801631
 33
0.0
 14
1730.69278404728
 24
1795.87121480163
 34
0.0
 50
90.0
100
AcDbRotatedDimension
1001
ACAD_DSTYLE_DIMINSPECT
1070
   396
1000
100%
1070
   395
1000

1070
   394
1070
    33
1070
   393
1070
     0
  0
DIMENSION
  5
5B2E
102
{ACAD_XDICTIONARY
360
5B3B
102
}
102
{ACAD_REACTORS
330
5B45
102
}
330
1F
100
AcDbEntity
  8
AM_5 寸法線
100
AcDbDimension
  2
*D16
 10
1591.69278404728
 20
2196.23088280163
 30
0.0
 11
1816.69278404728
 21
2228.73088280163
 31
0.0
 70
    32
 71
     5
 42
450.0
 73
     0
 74
     0
 75
     0
  3
SEISA$0
100
AcDbAlignedDimension
 13
2041.69278404728
 23
2130.87121480163
 33
0.0
 14
1591.69278404728
 24
2130.87121480163
 34
0.0
100
AcDbRotatedDimension
  0
DIMENSION
  5
5B46
102
{ACAD_XDICTIONARY
360
5B55
102
}
102
{ACAD_REACTORS
330
5B61
102
}
330
1F
100
AcDbEntity
  8
AM_5 寸法線
100
AcDbDimension
  2
*D17
 10
2073.69278404728
 20
2196.23088280163
 30
0.0
 11
2126.155388791023
 21
2227.917679774191
 31
0.0
 70
   160
 71
     5
 42
32.0
 73
     0
 74
     0
 75
     0
  3
SEISA$0
100
AcDbAlignedDimension
 13
2041.69278404728
 23
2130.87121480163
 33
0.0
 14
2073.69278404728
 24
2130.87121480163
 34
0.0
100
AcDbRotatedDimension
1001
ACAD
1000
DSTYLE
1002
{
1070
   279
1070
     2
1002
}
  0
DIMENSION
  5
5B62
102
{ACAD_XDICTIONARY
360
5B6F
102
}
102
{ACAD_REACTORS
330
5B79
102
}
330
1F
100
AcDbEntity
  8
AM_5 寸法線
100
AcDbDimension
  2
*D18
 10
2523.69278404728
 20
2196.23088280163
 30
0.0
 11
2298.69278404728
 21
2228.73088280163
 31
0.0
 70
    32
 71
     5
 42
450.0
 73
     0
 74
     0
 75
     0
  3
SEISA$0
100
AcDbAlignedDimension
 13
2073.69278404728
 23
2130.87121480163
 33
0.0
 14
2523.69278404728
 24
2130.87121480163
 34
0.0
100
AcDbRotatedDimension
  0
DIMENSION
  5
5B90
102
{ACAD_XDICTIONARY
360
5B9F
102
}
102
{ACAD_REACTORS
330
5BAB
330
7295
102
}
330
1F
100
AcDbEntity
  8
AM_5 寸法線
100
AcDbDimension
  2
*D19
 10
1808.19278404728
 20
2385.848215994494
 30
0.0
 11
1686.94278404728
 21
2385.848215994494
 31
0.0
 70
   160
 71
     5
 42
10.5
 73
     0
 74
     0
 75
     0
  3
SEISA$0
100
AcDbAlignedDimension
 13
1797.69278404728
 23
2465.871214801631
 33
0.0
 14
1808.19278404728
 24
2466.37121480163
 34
0.0
100
AcDbRotatedDimension
  0
DIMENSION
  5
5C48
102
{ACAD_XDICTIONARY
360
5C55
102
}
102
{ACAD_REACTORS
330
5C5F
102
}
330
1F
100
AcDbEntity
  8
AM_5 寸法線
100
AcDbDimension
  2
*D20
 10
2723.69278404728
 20
1795.87121480163
 30
0.0
 11
2691.19278404728
 21
2130.871214801631
 31
0.0
 70
    32
  1
%%c<>
 71
     5
 42
670.0
 73
     0
 74
     0
 75
     0
  3
SEISA$0
100
AcDbAlignedDimension
 13
2384.69278404728
 23
2465.871214801631
 33
0.0
 14
2384.69278404728
 24
1795.87121480163
 34
0.0
 50
90.0
100
AcDbRotatedDimension
1001
ACAD_DSTYLE_DIMINSPECT
1070
   396
1000
100%
1070
   395
1000

1070
   394
1070
    33
1070
   393
1070
     0
1001
ACAD
1000
DSTYLE
1002
{
1070
   279
1070
     0
1002
}
  0
DIMENSION
  5
5C60
102
{ACAD_XDICTIONARY
360
5C6D
102
}
102
{ACAD_REACTORS
330
5C77
102
}
330
1F
100
AcDbEntity
  8
AM_5 寸法線
100
AcDbDimension
  2
*D21
 10
2803.69278404728
 20
1734.87121480163
 30
0.0
 11
2803.69278404728
 21
2130.87121480163
 31
0.0
 70
   160
  1
%%c<>
 71
     5
 42
791.9999999999996
 73
     0
 74
     0
 75
     0
  3
SEISA$0
100
AcDbAlignedDimension
 13
2352.69278404728
 23
2526.87121480163
 33
0.0
 14
2352.692784047274
 24
1734.87121480163
 34
0.0
 50
90.0
100
AcDbRotatedDimension
1001
ACAD_DSTYLE_DIMINSPECT
1070
   396
1000
100%
1070
   395
1000

1070
   394
1070
    33
1070
   393
1070
     0
1001
ACAD
1000
DSTYLE
1002
{
1070
   279
1070
     0
1002
}
  0
DIMENSION
  5
5C78
102
{ACAD_XDICTIONARY
360
5C85
102
}
102
{ACAD_REACTORS
330
5C8F
102
}
330
1F
100
AcDbEntity
  8
AM_5 寸法線
100
AcDbDimension
  2
*D22
 10
2883.69278404728
 20
1680.87121480163
 30
0.0
 11
2883.69278404728
 21
2130.871214801631
 31
0.0
 70
   160
  1
%%c<>
 71
     5
 42
900.0
 73
     0
 74
     0
 75
     0
  3
SEISA$0
100
AcDbAlignedDimension
 13
2094.69278404728
 23
2580.87121480163
 33
0.0
 14
2094.69278404728
 24
1680.87121480163
 34
0.0
 50
90.0
100
AcDbRotatedDimension
1001
ACAD_DSTYLE_DIMINSPECT
1070
   396
1000
100%
1070
   395
1000

1070
   394
1070
    33
1070
   393
1070
     0
1001
ACAD
1000
DSTYLE
1002
{
1070
   279
1070
     0
1002
}
  0
DIMENSION
  5
5D10
102
{ACAD_XDICTIONARY
360
5D1F
102
}
102
{ACAD_REACTORS
330
5D2B
102
}
330
1F
100
AcDbEntity
  8
AM_5 寸法線
100
AcDbDimension
  2
*D23
 10
2019.69278404728
 20
1560.87121480163
 30
0.0
 11
1929.19278404728
 21
1593.37121480163
 31
0.0
 70
    32
 71
     5
 42
38.0
 73
     0
 74
     0
 75
     0
  3
SEISA$0
100
AcDbAlignedDimension
 13
2057.69278404728
 23
1681.87121480163
 33
0.0
 14
2019.69278404728
 24
1681.87121480163
 34
0.0
100
AcDbRotatedDimension
1001
ACAD_DSTYLE_DIMINSPECT
1070
   396
1000
100%
1070
   395
1000

1070
   394
1070
    33
1070
   393
1070
     0
1001
ACAD
1000
DSTYLE
1002
{
1070
   173
1070
     1
1070
   342
1005
0
1070
   343
1005
6BA2
1070
   344
1005
69
1002
}
  0
DIMENSION
  5
5D2C
102
{ACAD_XDICTIONARY
360
5D3B
102
}
102
{ACAD_REACTORS
330
5D47
102
}
330
1F
100
AcDbEntity
  8
AM_5 寸法線
100
AcDbDimension
  2
*D24
 10
2095.69278404728
 20
1560.87121480163
 30
0.0
 11
2186.19278404728
 21
1560.87121480163
 31
0.0
 70
   160
 71
     5
 42
38.0
 73
     0
 74
     0
 75
     0
  3
SEISA$0
100
AcDbAlignedDimension
 13
2057.69278404728
 23
1681.87121480163
 33
0.0
 14
2095.69278404728
 24
1681.87121480163
 34
0.0
100
AcDbRotatedDimension
1001
ACAD_DSTYLE_DIMINSPECT
1070
   396
1000
100%
1070
   395
1000

1070
   394
1070
    33
1070
   393
1070
     0
1001
ACAD
1000
DSTYLE
1002
{
1070
   173
1070
     1
1070
   342
1005
0
1070
   343
1005
6BA2
1070
   344
1005
69
1002
}
  0
DIMENSION
  5
5D48
102
{ACAD_XDICTIONARY
360
5D55
102
}
102
{ACAD_REACTORS
330
5D5F
102
}
330
1F
100
AcDbEntity
  8
AM_5 寸法線
100
AcDbDimension
  2
*D25
 10
1762.69278404728
 20
1480.87121480163
 30
0.0
 11
2057.69278404728
 21
1513.37121480163
 31
0.0
 70
    32
 71
     5
 42
590.0
 73
     0
 74
     0
 75
     0
  3
SEISA$0
100
AcDbAlignedDimension
 13
2352.69278404728
 23
1734.87121480163
 33
0.0
 14
1762.69278404728
 24
1734.87121480163
 34
0.0
100
AcDbRotatedDimension
  0
DIMENSION
  5
5DBC
102
{ACAD_XDICTIONARY
360
5DC9
102
}
102
{ACAD_REACTORS
330
5DD3
102
}
330
1F
100
AcDbEntity
  8
AM_5 寸法線
100
AcDbDimension
  2
*D26
 10
2523.69278404728
 20
1400.87121480163
 30
0.0
 11
2057.69278404728
 21
1433.37121480163
 31
0.0
 70
    32
 71
     5
 42
932.0
 73
     0
 74
     0
 75
     0
  3
SEISA$0
100
AcDbAlignedDimension
 13
1591.69278404728
 23
1812.87121480163
 33
0.0
 14
2523.69278404728
 24
1812.87121480163
 34
0.0
100
AcDbRotatedDimension
  0
MTEXT
  5
7111
330
1F
100
AcDbEntity
  8
AM_6 文字
100
AcDbMText
 10
2583.344026466866
 20
1620.459017247179
 30
0.0
 40
35.0
 41
776.6206025530215
 46
125.8725467849321
 71
     1
 72
     5
  1
{\W0.6;TYPE:CCM900/CCMH900\PSHAFT DIA:MAX/MIN φ475/φ315}
  7
SEISA
 73
     1
 44
1.0
  0
DIMENSION
  5
7287
102
{ACAD_XDICTIONARY
360
7294
102
}
102
{ACAD_REACTORS
330
7295
102
}
330
1F
100
AcDbEntity
  8
AM_5 寸法線
100
AcDbDimension
  2
*D28
 10
1931.192784047279
 20
2385.848215994497
 30
0.0
 11
1869.69278404728
 21
2418.348215994497
 31
0.0
 70
    32
 71
     5
 42
122.9999999999997
 73
     0
 74
     0
 75
     0
  3
SEISA$0
100
AcDbAlignedDimension
 13
1808.19278404728
 23
2466.37121480163
 33
0.0
 14
1931.192784047279
 24
2466.37121480163
 34
0.0
 50
0.0000000000001132
100
AcDbRotatedDimension
1001
ACAD_DSTYLE_DIMINSPECT
1070
   396
1000
100%
1070
   395
1000

1070
   394
1070
    33
1070
   393
1070
     0
  0
DIMENSION
  5
72B1
102
{ACAD_XDICTIONARY
360
72BF
102
}
102
{ACAD_REACTORS
330
72C0
102
}
330
1F
100
AcDbEntity
  8
AM_5 寸法線
100
AcDbDimension
  2
*D29
 10
2041.69278404728
 20
2385.848215994496
 30
0.0
 11
2142.44278404728
 21
2418.348215994496
 31
0.0
 70
    32
 71
     5
 42
110.5
 73
     0
 74
     0
 75
     0
  3
SEISA$0
100
AcDbAlignedDimension
 13
1931.19278404728
 23
2466.37121480163
 33
0.0
 14
2041.69278404728
 24
2463.87121480163
 34
0.0
 50
0.0000000000001132
100
AcDbRotatedDimension
1001
ACAD_DSTYLE_DIMINSPECT
1070
   396
1000
100%
1070
   395
1000

1070
   394
1070
    33
1070
   393
1070
     0
  0
ENDSEC
  0
SECTION
  2
OBJECTS
  0
DICTIONARY
  5
C
330
0
100
AcDbDictionary
281
     1
  3
ACAD_COLOR
350
C5
  3
ACAD_GROUP
350
D
  3
ACAD_LAYOUT
350
1A
  3
ACAD_MATERIAL
350
C4
  3
ACAD_MLEADERSTYLE
350
2D5
  3
ACAD_MLINESTYLE
350
17
  3
ACAD_PLOTSETTINGS
350
19
  3
ACAD_PLOTSTYLENAME
350
E
  3
ACAD_SCALELIST
350
2B3
  3
ACAD_TABLESTYLE
350
121
  3
ACAD_VISUALSTYLE
350
27F
  3
ACDB_RECOMPOSE_DATA
350
2F7
  3
AcDbVariableDictionary
350
34
  3
AcmDictionary
350
49
  3
AMG
350
2B
  3
AMGSNAPSETTINGS
350
1DE
  0
DICTIONARY
  5
BF
330
2
100
AcDbDictionary
280
     1
281
     1
  3
ACAD_LAYERSTATES
360
3D63
  3
AMLAYER_GROUPCOLORS
360
C0
  0
DICTIONARY
  5
29F7
330
10
100
AcDbDictionary
280
     1
281
     1
  3
ADSK_XREC_LAYER_RECONCILED
360
29F8
  0
DICTIONARY
  5
29F9
330
81
100
AcDbDictionary
280
     1
281
     1
  3
ADSK_XREC_LAYER_RECONCILED
360
29FA
  0
DICTIONARY
  5
82
330
1F
100
AcDbDictionary
280
     1
281
     1
  3
ACAD_SORTENTS
360
A41
  0
DICTIONARY
  5
4F16
330
4EE8
100
AcDbDictionary
280
     1
281
     1
  3
ACAD_SORTENTS
360
530E
  0
DICTIONARY
  5
5085
330
4FBB
100
AcDbDictionary
280
     1
281
     1
  3
ACAD_SORTENTS
360
6888
  0
DICTIONARY
  5
51AB
330
50F6
100
AcDbDictionary
280
     1
281
     1
  3
ACAD_SORTENTS
360
6901
  0
DICTIONARY
  5
52E8
330
529A
100
AcDbDictionary
280
     1
281
     1
  3
ACAD_SORTENTS
360
52E9
  0
DICTIONARY
  5
53E4
330
535C
100
AcDbDictionary
280
     1
281
     1
  3
ACAD_SORTENTS
360
7421
  0
DICTIONARY
  5
5560
330
543B
100
AcDbDictionary
280
     1
281
     1
  3
ACAD_SORTENTS
360
73CE
  0
DICTIONARY
  5
56F9
330
565D
100
AcDbDictionary
280
     1
281
     1
  3
ACAD_SORTENTS
360
6B6F
  0
DICTIONARY
  5
5847
330
57AC
100
AcDbDictionary
280
     1
281
     1
  3
ACAD_SORTENTS
360
6A9D
  0
DICTIONARY
  5
595A
330
58BC
100
AcDbDictionary
280
     1
281
     1
  3
ACAD_SORTENTS
360
6B08
  0
DICTIONARY
  5
5B09
330
5AFC
100
AcDbDictionary
280
     1
281
     1
  3
ACAD_DIMASSOC
360
5B13
  0
DICTIONARY
  5
5B3B
330
5B2E
100
AcDbDictionary
280
     1
281
     1
  3
ACAD_DIMASSOC
360
5B45
  0
DICTIONARY
  5
5B55
330
5B46
100
AcDbDictionary
280
     1
281
     1
  3
ACAD_DIMASSOC
360
5B61
  0
DICTIONARY
  5
5B6F
330
5B62
100
AcDbDictionary
280
     1
281
     1
  3
ACAD_DIMASSOC
360
5B79
  0
DICTIONARY
  5
5B9F
330
5B90
100
AcDbDictionary
280
     1
281
     1
  3
ACAD_DIMASSOC
360
5BAB
  0
DICTIONARY
  5
5C55
330
5C48
100
AcDbDictionary
280
     1
281
     1
  3
ACAD_DIMASSOC
360
5C5F
  0
DICTIONARY
  5
5C6D
330
5C60
100
AcDbDictionary
280
     1
281
     1
  3
ACAD_DIMASSOC
360
5C77
  0
DICTIONARY
  5
5C85
330
5C78
100
AcDbDictionary
280
     1
281
     1
  3
ACAD_DIMASSOC
360
5C8F
  0
DICTIONARY
  5
5D1F
330
5D10
100
AcDbDictionary
280
     1
281
     1
  3
ACAD_DIMASSOC
360
5D2B
  0
DICTIONARY
  5
5D3B
330
5D2C
100
AcDbDictionary
280
     1
281
     1
  3
ACAD_DIMASSOC
360
5D47
  0
DICTIONARY
  5
5D55
330
5D48
100
AcDbDictionary
280
     1
281
     1
  3
ACAD_DIMASSOC
360
5D5F
  0
DICTIONARY
  5
5DC9
330
5DBC
100
AcDbDictionary
280
     1
281
     1
  3
ACAD_DIMASSOC
360
5DD3
  0
DICTIONARY
  5
7294
330
7287
100
AcDbDictionary
280
     1
281
     1
  3
ACAD_DIMASSOC
360
7295
  0
DICTIONARY
  5
72BF
330
72B1
100
AcDbDictionary
280
     1
281
     1
  3
ACAD_DIMASSOC
360
72C0
  0
DICTIONARY
  5
C5
102
{ACAD_REACTORS
330
C
102
}
330
C
100
AcDbDictionary
281
     1
  0
DICTIONARY
  5
D
102
{ACAD_REACTORS
330
C
102
}
330
C
100
AcDbDictionary
281
     1
  0
DICTIONARY
  5
1A
102
{ACAD_REACTORS
330
C
102
}
330
C
100
AcDbDictionary
281
     1
  3
Model
350
22
  3
レイアウト1
350
1E
  3
レイアウト2
350
26
  0
DICTIONARY
  5
C4
102
{ACAD_REACTORS
330
C
102
}
330
C
100
AcDbDictionary
281
     1
  3
ByBlock
350
27D
  3
ByLayer
350
27C
  3
Global
350
27E
  0
DICTIONARY
  5
2D5
102
{ACAD_REACTORS
330
C
102
}
330
C
100
AcDbDictionary
281
     1
  3
Standard
350
2D6
  0
DICTIONARY
  5
17
102
{ACAD_REACTORS
330
C
102
}
330
C
100
AcDbDictionary
281
     1
  3
Standard
350
18
  0
DICTIONARY
  5
19
102
{ACAD_REACTORS
330
C
102
}
330
C
100
AcDbDictionary
281
     1
  3
SEISA基本
350
1C7E
  0
ACDBDICTIONARYWDFLT
  5
E
102
{ACAD_REACTORS
330
C
102
}
330
C
100
AcDbDictionary
281
     1
  3
Normal
350
F
100
AcDbDictionaryWithDefault
340
F
  0
DICTIONARY
  5
2B3
102
{ACAD_REACTORS
330
C
102
}
330
C
100
AcDbDictionary
281
     1
  3
*A1
350
7105
  3
*A2
350
7106
  3
*A3
350
7107
  3
*A4
350
7108
  3
A0
350
2B4
  3
A1
350
2B5
  3
A2
350
2B6
  3
A3
350
2B7
  3
A4
350
2B8
  3
A5
350
2B9
  3
A6
350
2BA
  3
A7
350
2BB
  3
A8
350
2BC
  3
A9
350
2BD
  3
B0
350
2BE
  3
B1
350
2BF
  3
B2
350
2C0
  3
B3
350
2C1
  3
B4
350
2C2
  3
B5
350
2C3
  3
B6
350
2C4
  3
B7
350
2C5
  3
B8
350
2C6
  3
B9
350
2C7
  3
C0
350
2C8
  3
C1
350
2C9
  3
C2
350
2CA
  3
C3
350
2CB
  3
C4
350
2CC
  3
C5
350
2CD
  3
C6
350
2CE
  3
C7
350
2CF
  3
C8
350
2D0
  3
C9
350
2D1
  3
D0
350
2D2
  3
D1
350
2D3
  3
D2
350
2D4
  0
DICTIONARY
  5
121
102
{ACAD_REACTORS
330
C
102
}
330
C
100
AcDbDictionary
281
     1
  3
Standard
350
122
  0
DICTIONARY
  5
27F
102
{ACAD_REACTORS
330
C
102
}
330
C
100
AcDbDictionary
281
     1
  3
2dWireframe
350
285
  3
3D Hidden
350
287
  3
3dWireframe
350
286
  3
Basic
350
284
  3
Brighten
350
28B
  3
ColorChange
350
28F
  3
Conceptual
350
288
  3
Dim
350
28A
  3
Facepattern
350
28E
  3
Flat
350
280
  3
FlatWithEdges
350
281
  3
Gouraud
350
282
  3
GouraudWithEdges
350
283
  3
Linepattern
350
28D
  3
Realistic
350
289
  3
Thicken
350
28C
  0
XRECORD
  5
2F7
102
{ACAD_REACTORS
330
C
102
}
330
C
100
AcDbXrecord
280
     1
 90
        1
330
122
  0
DICTIONARY
  5
34
102
{ACAD_REACTORS
330
C
102
}
330
C
100
AcDbDictionary
281
     1
  3
CANNOSCALE
350
2FA
  3
CMLEADERSTYLE
350
2F8
  3
CTABLESTYLE
350
140
  3
DIMASSOC
350
AC
  3
INDEXCTL
350
35
  3
LAYEREVAL
350
51F1
  3
LAYERNOTIFY
350
51F2
  3
LIGHTINGUNITS
350
2FB
  3
MSLTSCALE
350
2F9
  0
DICTIONARY
  5
49
102
{ACAD_REACTORS
330
C
102
}
330
C
100
AcDbDictionary
281
     1
  3
AcmBOM
350
161B
  3
AcmStdDictionary
350
4A
  3
AMDTSECTSYM_ARROWCOLOR
350
12B
  0
DICTIONARY
  5
2B
102
{ACAD_REACTORS
330
C
102
}
330
C
100
AcDbDictionary
281
     1
  0
DICTIONARY
  5
1DE
102
{ACAD_REACTORS
330
C
102
}
330
C
100
AcDbDictionary
281
     1
  0
DICTIONARY
  5
3D63
102
{ACAD_REACTORS
330
BF
102
}
330
BF
100
AcDbDictionary
281
     1
  0
DICTIONARY
  5
C0
102
{ACAD_REACTORS
330
BF
102
}
330
BF
100
AcDbDictionary
280
     1
281
     1
  0
XRECORD
  5
29F8
102
{ACAD_REACTORS
330
29F7
102
}
330
29F7
100
AcDbXrecord
280
     1
290
     1
  0
XRECORD
  5
29FA
102
{ACAD_REACTORS
330
29F9
102
}
330
29F9
100
AcDbXrecord
280
     1
290
     1
  0
SORTENTSTABLE
  5
A41
102
{ACAD_REACTORS
330
82
102
}
330
82
100
AcDbSortentsTable
330
1F
331
58ED
  5
5A18
331
5D2C
  5
5DA4
331
5B2E
  5
5B90
331
5B46
  5
5BC2
331
568A
  5
5A08
331
5D10
  5
5D8C
331
5AFC
  5
5B46
331
538A
  5
5986
331
4FFA
  5
568A
331
5D48
  5
5DBC
331
4685
  5
4685
331
5B90
  5
5C45
331
512B
  5
57DC
331
5DBC
  5
5DD7
331
5C48
  5
5D60
331
4748
  5
4749
331
5C60
  5
5D78
331
5C78
  5
5D79
331
5B62
  5
5BEB
331
5469
  5
5988
331
57DC
  5
5A0A
  0
SORTENTSTABLE
  5
530E
102
{ACAD_REACTORS
330
4F16
102
}
330
4F16
100
AcDbSortentsTable
330
4EE8
  0
SORTENTSTABLE
  5
6888
102
{ACAD_REACTORS
330
5085
102
}
330
5085
100
AcDbSortentsTable
330
4FBB
  0
SORTENTSTABLE
  5
6901
102
{ACAD_REACTORS
330
51AB
102
}
330
51AB
100
AcDbSortentsTable
330
50F6
  0
SORTENTSTABLE
  5
52E9
102
{ACAD_REACTORS
330
52E8
102
}
330
52E8
100
AcDbSortentsTable
330
529A
  0
SORTENTSTABLE
  5
7421
102
{ACAD_REACTORS
330
53E4
102
}
330
53E4
100
AcDbSortentsTable
330
535C
331
537F
  5
5381
331
5361
  5
5363
331
5366
  5
5368
331
5388
  5
73FA
331
5382
  5
5384
331
536C
  5
536E
331
5371
  5
5373
331
5376
  5
5379
331
537B
  5
537D
331
5362
  5
5364
331
5367
  5
5369
331
5368
  5
536A
331
5383
  5
5385
331
536D
  5
536F
331
5372
  5
5374
331
73FA
  5
5360
331
537C
  5
537E
331
5363
  5
5365
331
5369
  5
536B
331
5384
  5
5388
331
536E
  5
5370
331
5373
  5
5376
331
5378
  5
537A
331
537D
  5
537F
331
5364
  5
5366
331
5380
  5
5382
331
536A
  5
536C
331
536F
  5
5371
331
5385
  5
722F
331
5374
  5
5378
331
722F
  5
5361
331
5379
  5
537B
331
5360
  5
5362
331
537E
  5
5380
331
5365
  5
5367
331
5381
  5
5383
331
536B
  5
536D
331
5370
  5
5372
331
537A
  5
537C
  0
SORTENTSTABLE
  5
73CE
102
{ACAD_REACTORS
330
5560
102
}
330
5560
100
AcDbSortentsTable
330
543B
331
7171
  5
543E
331
5455
  5
5457
331
5450
  5
5454
331
545F
  5
5461
331
5464
  5
7170
331
5446
  5
5448
331
5441
  5
5443
331
543F
  5
5441
331
545A
  5
545C
331
544B
  5
544D
331
544C
  5
544E
331
545B
  5
545D
331
5456
  5
5458
331
5442
  5
5444
331
5465
  5
7171
331
5447
  5
5449
331
5460
  5
5462
331
5448
  5
544A
331
5457
  5
5459
331
5461
  5
5463
331
5443
  5
5445
331
545C
  5
545E
331
544D
  5
544F
331
5453
  5
5455
331
544E
  5
5450
331
545D
  5
545F
331
5458
  5
545A
331
5449
  5
544B
331
5444
  5
5446
331
5462
  5
5464
331
7170
  5
543F
331
544A
  5
544C
331
543E
  5
5440
331
5459
  5
545B
331
5454
  5
5456
331
545E
  5
5460
331
544F
  5
5453
331
5463
  5
5465
331
5445
  5
5447
331
5440
  5
5442
  0
SORTENTSTABLE
  5
6B6F
102
{ACAD_REACTORS
330
56F9
102
}
330
56F9
100
AcDbSortentsTable
330
565D
331
5676
  5
5677
331
5687
  5
5689
331
567A
  5
567B
331
5673
  5
5674
331
5684
  5
5686
331
5681
  5
5683
331
56F3
  5
5671
331
5677
  5
5678
331
567B
  5
567C
331
5678
  5
5679
331
5688
  5
56F3
331
5674
  5
5675
331
5685
  5
5687
331
5682
  5
5684
331
5671
  5
5672
331
56F4
  5
5681
331
567F
  5
5680
331
567C
  5
567D
331
5686
  5
5688
331
5679
  5
567A
331
5675
  5
5676
331
5689
  5
56F4
331
5683
  5
5685
331
5672
  5
5673
331
5680
  5
5682
331
567D
  5
567F
  0
SORTENTSTABLE
  5
6A9D
102
{ACAD_REACTORS
330
5847
102
}
330
5847
100
AcDbSortentsTable
330
57AC
  0
SORTENTSTABLE
  5
6B08
102
{ACAD_REACTORS
330
595A
102
}
330
595A
100
AcDbSortentsTable
330
58BC
  0
DIMASSOC
  5
5B13
102
{ACAD_REACTORS
330
5B09
102
}
330
5B09
100
AcDbDimAssoc
330
5AFC
 90
        3
 70
     0
 71
     0
  1
AcDbOsnapPointRef
 72
    13
331
5469
331
544F
 73
     2
 91
        0
 40
0.0
 10
0.0
 20
0.0
 30
2.000000000000000E+50
 75
     0
  1
AcDbOsnapPointRef
 72
    13
331
5469
331
5445
 73
     2
 91
        0
 40
0.0
 10
0.0
 20
0.0
 30
2.000000000000000E+50
 75
     0
  0
DIMASSOC
  5
5B45
102
{ACAD_REACTORS
330
5B3B
102
}
330
5B3B
100
AcDbDimAssoc
330
5B2E
 90
        3
 70
     0
 71
     0
  1
AcDbOsnapPointRef
 72
     1
331
5469
331
545B
 73
     2
 91
        0
 40
1.0
 10
0.0
 20
0.0
 30
2.000000000000000E+50
 75
     0
  1
AcDbOsnapPointRef
 72
     2
331
5469
331
543F
 73
     2
 91
        0
 40
0.5
 10
0.0
 20
0.0
 30
0.0
 75
     0
  0
DIMASSOC
  5
5B61
102
{ACAD_REACTORS
330
5B55
102
}
330
5B55
100
AcDbDimAssoc
330
5B46
 90
        3
 70
     0
 71
     0
  1
AcDbOsnapPointRef
 72
     1
331
5469
331
545B
 73
     2
 91
        0
 40
1.0
 10
0.0
 20
0.0
 30
2.000000000000000E+50
 75
     0
  1
AcDbOsnapPointRef
 72
     1
331
538A
331
5378
 73
     2
 91
        0
 40
1.0
 10
0.0
 20
0.0
 30
2.000000000000000E+50
 75
     0
  0
DIMASSOC
  5
5B79
102
{ACAD_REACTORS
330
5B6F
102
}
330
5B6F
100
AcDbDimAssoc
330
5B62
 90
        3
 70
     0
 71
     0
  1
AcDbOsnapPointRef
 72
     1
331
538A
331
5378
 73
     2
 91
        0
 40
1.0
 10
0.0
 20
0.0
 30
2.000000000000000E+50
 75
     0
  1
AcDbOsnapPointRef
 72
     2
331
538A
331
5360
 73
     2
 91
        0
 40
0.5
 10
0.0
 20
0.0
 30
0.0
 75
     0
  0
DIMASSOC
  5
5BAB
102
{ACAD_REACTORS
330
5B9F
102
}
330
5B9F
100
AcDbDimAssoc
330
5B90
 90
        3
 70
     0
 71
     0
  1
AcDbOsnapPointRef
 72
     1
331
58ED
331
58E4
 73
     2
 91
        0
 40
1.0
 10
0.0
 20
0.0
 30
2.000000000000000E+50
 75
     0
  1
AcDbOsnapPointRef
 72
    13
331
5469
331
5455
 73
     2
 91
        0
 40
0.0
 10
0.0
 20
0.0
 30
2.000000000000000E+50
 75
     0
  0
DIMASSOC
  5
5C5F
102
{ACAD_REACTORS
330
5C55
102
}
330
5C55
100
AcDbDimAssoc
330
5C48
 90
        3
 70
     0
 71
     0
  1
AcDbOsnapPointRef
 72
    13
331
538A
331
5380
 73
     2
 91
        0
 40
0.0
 10
0.0
 20
0.0
 30
2.000000000000000E+50
 75
     0
  1
AcDbOsnapPointRef
 72
    13
331
538A
331
5369
 73
     2
 91
        0
 40
0.0
 10
0.0
 20
0.0
 30
2.000000000000000E+50
 75
     0
  0
DIMASSOC
  5
5C77
102
{ACAD_REACTORS
330
5C6D
102
}
330
5C6D
100
AcDbDimAssoc
330
5C60
 90
        3
 70
     0
 71
     0
  1
AcDbOsnapPointRef
 72
     1
331
57DC
331
57DB
 73
     2
 91
        0
 40
1.0
 10
0.0
 20
0.0
 30
2.000000000000000E+50
 75
     0
  1
AcDbOsnapPointRef
 72
     8
331
57DC
331
57B0
 73
     2
 91
        0
 40
0.9999999999997726
 10
0.0
 20
0.0
 30
0.0
 75
     1
  1
AcDbOsnapPointRef
 72
     1
331
57DC
331
57DB
 73
     2
 91
        0
 40
1.0
 10
0.0
 20
0.0
 30
2.000000000000000E+50
 75
     0
  0
DIMASSOC
  5
5C8F
102
{ACAD_REACTORS
330
5C85
102
}
330
5C85
100
AcDbDimAssoc
330
5C78
 90
        3
 70
     0
 71
     0
  1
AcDbOsnapPointRef
 72
     1
331
4FFA
331
4FE2
 73
     2
 91
        0
 40
1.0
 10
0.0
 20
0.0
 30
2.000000000000000E+50
 75
     0
  1
AcDbOsnapPointRef
 72
     1
331
4FFA
331
4FC4
 73
     2
 91
        0
 40
1.0
 10
0.0
 20
0.0
 30
2.000000000000000E+50
 75
     0
  0
DIMASSOC
  5
5D2B
102
{ACAD_REACTORS
330
5D1F
102
}
330
5D1F
100
AcDbDimAssoc
330
5D10
 90
        3
 70
     0
 71
     0
  1
AcDbOsnapPointRef
 72
    13
331
512B
331
5118
 73
     2
 91
        0
 40
0.0
 10
0.0
 20
0.0
 30
2.000000000000000E+50
 75
     0
  1
AcDbOsnapPointRef
 72
    13
331
512B
331
5114
 73
     2
 91
        0
 40
0.0
 10
0.0
 20
0.0
 30
2.000000000000000E+50
 75
     0
  0
DIMASSOC
  5
5D47
102
{ACAD_REACTORS
330
5D3B
102
}
330
5D3B
100
AcDbDimAssoc
330
5D2C
 90
        3
 70
     0
 71
     0
  1
AcDbOsnapPointRef
 72
    13
331
512B
331
5118
 73
     2
 91
        0
 40
0.0
 10
0.0
 20
0.0
 30
2.000000000000000E+50
 75
     0
  1
AcDbOsnapPointRef
 72
    13
331
4FFA
331
4FC3
 73
     2
 91
        0
 40
0.0
 10
0.0
 20
0.0
 30
2.000000000000000E+50
 75
     0
  0
DIMASSOC
  5
5D5F
102
{ACAD_REACTORS
330
5D55
102
}
330
5D55
100
AcDbDimAssoc
330
5D48
 90
        2
 70
     0
 71
     0
  1
AcDbOsnapPointRef
 72
    13
331
58ED
331
58BF
 73
     2
 91
        0
 40
0.0
 10
0.0
 20
0.0
 30
2.000000000000000E+50
 75
     0
  0
DIMASSOC
  5
5DD3
102
{ACAD_REACTORS
330
5DC9
102
}
330
5DC9
100
AcDbDimAssoc
330
5DBC
 90
        3
 70
     0
 71
     0
  1
AcDbOsnapPointRef
 72
    13
331
5469
331
543F
 73
     2
 91
        0
 40
0.0
 10
0.0
 20
0.0
 30
2.000000000000000E+50
 75
     0
  1
AcDbOsnapPointRef
 72
    13
331
538A
331
5360
 73
     2
 91
        0
 40
0.0
 10
0.0
 20
0.0
 30
2.000000000000000E+50
 75
     0
  0
DIMASSOC
  5
7295
102
{ACAD_REACTORS
330
7294
102
}
330
7294
100
AcDbDimAssoc
330
7287
 90
        3
 70
     0
 71
     0
  1
AcDbOsnapPointRef
 72
     4
331
5B90
331
65FA
 73
     0
 91
        0
 40
0.0
 10
0.0
 20
0.0
 30
0.0
 75
     0
  1
AcDbOsnapPointRef
 72
     8
331
5469
331
5459
 73
     0
 91
        0
 40
1.0
 10
0.0
 20
0.0
 30
0.0
 75
     1
  1
AcDbOsnapPointRef
 72
     4
331
5B90
331
65FA
 73
     0
 91
        0
 40
0.0
 10
0.0
 20
0.0
 30
0.0
 75
     0
  0
DIMASSOC
  5
72C0
102
{ACAD_REACTORS
330
72BF
102
}
330
72BF
100
AcDbDimAssoc
330
72B1
 90
        3
 70
     0
 71
     0
  1
AcDbOsnapPointRef
 72
    13
331
5469
331
5458
 73
     0
 91
        0
 40
0.0
 10
0.0
 20
0.0
 30
2.000000000000000E+50
 75
     0
  1
AcDbOsnapPointRef
 72
    13
331
5469
331
5463
 73
     0
 91
        0
 40
0.0
 10
0.0
 20
0.0
 30
2.000000000000000E+50
 75
     0
  0
LAYOUT
  5
22
102
{ACAD_REACTORS
330
1A
102
}
330
1A
100
AcDbPlotSettings
  1

  2
KONICA MINOLTA 501 PCL
  4
A4
  6

 40
5.027082920074462
 41
5.027085781097412
 42
5.027069091796875
 43
5.027069091796875
 44
209.9733276367186
 45
296.9259948730469
 46
1.984163298308543
 47
0.0
 48
0.0
 49
0.0
140
0.0
141
0.0
142
1.0
143
6.133422586001794
 70
 11956
 72
     1
 73
     1
 74
     1
  7
SEISA.ctb
 75
     0
147
0.1630411056760189
 76
     0
 77
     2
 78
   300
148
-1341.531385325286
149
-1394.136212183051
100
AcDbLayout
  1
Model
 70
     1
 71
     0
 10
0.0
 20
0.0
 11
12.0
 21
9.0
 12
0.0
 22
0.0
 32
0.0
 14
0.0
 24
0.0
 34
0.0
 15
0.0
 25
0.0
 35
0.0
146
0.0
 13
0.0
 23
0.0
 33
0.0
 16
1.0
 26
0.0
 36
0.0
 17
0.0
 27
1.0
 37
0.0
 76
     0
330
1F
331
27A
1001
ACAD_PSEXT
1000
KONICA MINOLTA 501 PCL
1000
KONICA MINOLTA 501/421/361PCL
1000
IP_192.168.20.231_(1)
1000

1070
     0
  0
LAYOUT
  5
1E
102
{ACAD_REACTORS
330
1A
102
}
330
1A
100
AcDbPlotSettings
  1

  2
none_device
  4
Letter_(8.50_x_11.00_Inches)
  6

 40
6.349999904632567
 41
6.349999904632567
 42
6.350006103515625
 43
6.350006103515625
 44
215.8999938964844
 45
279.3999938964844
 46
0.0
 47
0.0
 48
0.0
 49
0.0
140
0.0
141
0.0
142
1.0
143
1.0
 70
 15024
 72
     1
 73
     1
 74
     5
  7
SEISA.ctb
 75
    16
147
1.0
 76
     0
 77
     2
 78
   300
148
0.0
149
0.0
100
AcDbLayout
  1
レイアウト1
 70
     1
 71
     1
 10
0.0
 20
0.0
 11
420.0
 21
297.0
 12
0.0
 22
0.0
 32
0.0
 14
1.000000000000000E+20
 24
1.000000000000000E+20
 34
1.000000000000000E+20
 15
-1.000000000000000E+20
 25
-1.000000000000000E+20
 35
-1.000000000000000E+20
146
0.0
 13
0.0
 23
0.0
 33
0.0
 16
1.0
 26
0.0
 36
0.0
 17
0.0
 27
1.0
 37
0.0
 76
     0
330
1B
  0
LAYOUT
  5
26
102
{ACAD_REACTORS
330
1A
102
}
330
1A
100
AcDbPlotSettings
  1

  2
none_device
  4
Letter_(8.50_x_11.00_Inches)
  6

 40
6.349999904632567
 41
6.349999904632567
 42
6.350006103515625
 43
6.350006103515625
 44
215.8999938964844
 45
279.3999938964844
 46
0.0
 47
0.0
 48
0.0
 49
0.0
140
0.0
141
0.0
142
1.0
143
1.0
 70
 15024
 72
     1
 73
     1
 74
     5
  7
SEISA.ctb
 75
    16
147
1.0
 76
     0
 77
     2
 78
   300
148
0.0
149
0.0
100
AcDbLayout
  1
レイアウト2
 70
     1
 71
     2
 10
0.0
 20
0.0
 11
12.0
 21
9.0
 12
0.0
 22
0.0
 32
0.0
 14
0.0
 24
0.0
 34
0.0
 15
0.0
 25
0.0
 35
0.0
146
0.0
 13
0.0
 23
0.0
 33
0.0
 16
1.0
 26
0.0
 36
0.0
 17
0.0
 27
1.0
 37
0.0
 76
     0
330
23
  0
MATERIAL
  5
27D
102
{ACAD_REACTORS
330
C4
102
}
330
C4
100
AcDbMaterial
  1
ByBlock
 73
     1
 78
     1
172
     1
176
     1
270
     1
274
     1
 94
       63
  0
MATERIAL
  5
27C
102
{ACAD_REACTORS
330
C4
102
}
330
C4
100
AcDbMaterial
  1
ByLayer
 73
     1
 78
     1
172
     1
176
     1
270
     1
274
     1
 94
       63
  0
MATERIAL
  5
27E
102
{ACAD_REACTORS
330
C4
102
}
330
C4
100
AcDbMaterial
  1
Global
 73
     1
 78
     1
172
     1
176
     1
270
     1
274
     1
 94
       63
  0
MLEADERSTYLE
  5
2D6
102
{ACAD_REACTORS
330
2D5
102
}
330
2D5
100
AcDbMLeaderStyle
170
     2
171
     1
172
     0
 90
        2
 40
0.0
 41
0.0
173
     1
 91
-1056964608
340
14
 92
       -2
290
     1
 42
2.0
291
     1
 43
0.36
  3
Standard
 44
4.0
300

342
11
174
     1
178
     6
175
     1
176
     0
 93
-1056964608
 45
4.0
292
     0
297
     0
 46
4.0
 94
-1056964608
 47
1.0
 49
1.0
140
1.0
293
     1
141
0.0
294
     1
177
     0
142
1.0
295
     0
296
     0
143
0.125
1001
ACAD_MLEADERVER
1070
     2
  0
MLINESTYLE
  5
18
102
{ACAD_REACTORS
330
17
102
}
330
17
100
AcDbMlineStyle
  2
STANDARD
 70
     0
  3

 62
   256
 51
90.0
 52
90.0
 71
     2
 49
0.5
 62
   256
  6
BYLAYER
 49
-0.5
 62
   256
  6
BYLAYER
  0
PLOTSETTINGS
  5
1C7E
102
{ACAD_REACTORS
330
19
102
}
330
19
100
AcDbPlotSettings
  1
SEISA基本
  2
none_device
  4
Letter_(8.50_x_11.00_Inches)
  6

 40
6.349999904632567
 41
6.349999904632567
 42
6.350006103515625
 43
6.350006103515625
 44
215.8999938964844
 45
279.3999938964844
 46
7.302498226506357
 47
0.0
 48
0.0
 49
0.0
140
0.0
141
0.0
142
1.0
143
1.574803221122935
 70
 11956
 72
     1
 73
     1
 74
     2
  7
SEISA.ctb
 75
     0
147
0.6349999711627054
 76
     0
 77
     2
 78
   300
148
0.0
149
0.0
1001
ACAD_PSEXT
1000
なし
1000
なし
1000
適切ではありません
1000
新しいプロッタ環境設定名を選択しない限り、レイアウトは印刷されません。
1070
     0
  0
ACDBPLACEHOLDER
  5
F
102
{ACAD_REACTORS
330
E
102
}
330
E
  0
SCALE
  5
7105
102
{ACAD_REACTORS
330
2B3
102
}
330
2B3
100
AcDbScale
 70
     0
300
1:6
140
1.0
141
6.0
290
     0
  0
SCALE
  5
7106
102
{ACAD_REACTORS
330
2B3
102
}
330
2B3
100
AcDbScale
 70
     0
300
1:3
140
1.0
141
3.0
290
     0
  0
SCALE
  5
7107
102
{ACAD_REACTORS
330
2B3
102
}
330
2B3
100
AcDbScale
 70
     0
300
1:2.5
140
1.0
141
2.5
290
     0
  0
SCALE
  5
7108
102
{ACAD_REACTORS
330
2B3
102
}
330
2B3
100
AcDbScale
 70
     0
300
1:1.5
140
1.0
141
1.5
290
     0
  0
SCALE
  5
2B4
102
{ACAD_REACTORS
330
2B3
102
}
330
2B3
100
AcDbScale
 70
     0
300
1:1
140
1.0
141
1.0
290
     1
  0
SCALE
  5
2B5
102
{ACAD_REACTORS
330
2B3
102
}
330
2B3
100
AcDbScale
 70
     0
300
1:2
140
1.0
141
2.0
290
     0
  0
SCALE
  5
2B6
102
{ACAD_REACTORS
330
2B3
102
}
330
2B3
100
AcDbScale
 70
     0
300
1:4
140
1.0
141
4.0
290
     0
  0
SCALE
  5
2B7
102
{ACAD_REACTORS
330
2B3
102
}
330
2B3
100
AcDbScale
 70
     0
300
1:5
140
1.0
141
5.0
290
     0
  0
SCALE
  5
2B8
102
{ACAD_REACTORS
330
2B3
102
}
330
2B3
100
AcDbScale
 70
     0
300
1:8
140
1.0
141
8.0
290
     0
  0
SCALE
  5
2B9
102
{ACAD_REACTORS
330
2B3
102
}
330
2B3
100
AcDbScale
 70
     0
300
1:10
140
1.0
141
10.0
290
     0
  0
SCALE
  5
2BA
102
{ACAD_REACTORS
330
2B3
102
}
330
2B3
100
AcDbScale
 70
     0
300
1:16
140
1.0
141
16.0
290
     0
  0
SCALE
  5
2BB
102
{ACAD_REACTORS
330
2B3
102
}
330
2B3
100
AcDbScale
 70
     0
300
1:20
140
1.0
141
20.0
290
     0
  0
SCALE
  5
2BC
102
{ACAD_REACTORS
330
2B3
102
}
330
2B3
100
AcDbScale
 70
     0
300
1:30
140
1.0
141
30.0
290
     0
  0
SCALE
  5
2BD
102
{ACAD_REACTORS
330
2B3
102
}
330
2B3
100
AcDbScale
 70
     0
300
1:40
140
1.0
141
40.0
290
     0
  0
SCALE
  5
2BE
102
{ACAD_REACTORS
330
2B3
102
}
330
2B3
100
AcDbScale
 70
     0
300
1:50
140
1.0
141
50.0
290
     0
  0
SCALE
  5
2BF
102
{ACAD_REACTORS
330
2B3
102
}
330
2B3
100
AcDbScale
 70
     0
300
1:100
140
1.0
141
100.0
290
     0
  0
SCALE
  5
2C0
102
{ACAD_REACTORS
330
2B3
102
}
330
2B3
100
AcDbScale
 70
     0
300
2:1
140
2.0
141
1.0
290
     0
  0
SCALE
  5
2C1
102
{ACAD_REACTORS
330
2B3
102
}
330
2B3
100
AcDbScale
 70
     0
300
4:1
140
4.0
141
1.0
290
     0
  0
SCALE
  5
2C2
102
{ACAD_REACTORS
330
2B3
102
}
330
2B3
100
AcDbScale
 70
     0
300
8:1
140
8.0
141
1.0
290
     0
  0
SCALE
  5
2C3
102
{ACAD_REACTORS
330
2B3
102
}
330
2B3
100
AcDbScale
 70
     0
300
10:1
140
10.0
141
1.0
290
     0
  0
SCALE
  5
2C4
102
{ACAD_REACTORS
330
2B3
102
}
330
2B3
100
AcDbScale
 70
     0
300
100:1
140
100.0
141
1.0
290
     0
  0
SCALE
  5
2C5
102
{ACAD_REACTORS
330
2B3
102
}
330
2B3
100
AcDbScale
 70
     0
300
1/128" = 1'-0"
140
0.0078125
141
12.0
290
     0
  0
SCALE
  5
2C6
102
{ACAD_REACTORS
330
2B3
102
}
330
2B3
100
AcDbScale
 70
     0
300
1/64" = 1'-0"
140
0.015625
141
12.0
290
     0
  0
SCALE
  5
2C7
102
{ACAD_REACTORS
330
2B3
102
}
330
2B3
100
AcDbScale
 70
     0
300
1/32" = 1'-0"
140
0.03125
141
12.0
290
     0
  0
SCALE
  5
2C8
102
{ACAD_REACTORS
330
2B3
102
}
330
2B3
100
AcDbScale
 70
     0
300
1/16" = 1'-0"
140
0.0625
141
12.0
290
     0
  0
SCALE
  5
2C9
102
{ACAD_REACTORS
330
2B3
102
}
330
2B3
100
AcDbScale
 70
     0
300
3/32" = 1'-0"
140
0.09375
141
12.0
290
     0
  0
SCALE
  5
2CA
102
{ACAD_REACTORS
330
2B3
102
}
330
2B3
100
AcDbScale
 70
     0
300
1/8" = 1'-0"
140
0.125
141
12.0
290
     0
  0
SCALE
  5
2CB
102
{ACAD_REACTORS
330
2B3
102
}
330
2B3
100
AcDbScale
 70
     0
300
3/16" = 1'-0"
140
0.1875
141
12.0
290
     0
  0
SCALE
  5
2CC
102
{ACAD_REACTORS
330
2B3
102
}
330
2B3
100
AcDbScale
 70
     0
300
1/4" = 1'-0"
140
0.25
141
12.0
290
     0
  0
SCALE
  5
2CD
102
{ACAD_REACTORS
330
2B3
102
}
330
2B3
100
AcDbScale
 70
     0
300
3/8" = 1'-0"
140
0.375
141
12.0
290
     0
  0
SCALE
  5
2CE
102
{ACAD_REACTORS
330
2B3
102
}
330
2B3
100
AcDbScale
 70
     0
300
1/2" = 1'-0"
140
0.5
141
12.0
290
     0
  0
SCALE
  5
2CF
102
{ACAD_REACTORS
330
2B3
102
}
330
2B3
100
AcDbScale
 70
     0
300
3/4" = 1'-0"
140
0.75
141
12.0
290
     0
  0
SCALE
  5
2D0
102
{ACAD_REACTORS
330
2B3
102
}
330
2B3
100
AcDbScale
 70
     0
300
1" = 1'-0"
140
1.0
141
12.0
290
     0
  0
SCALE
  5
2D1
102
{ACAD_REACTORS
330
2B3
102
}
330
2B3
100
AcDbScale
 70
     0
300
1-1/2" = 1'-0"
140
1.5
141
12.0
290
     0
  0
SCALE
  5
2D2
102
{ACAD_REACTORS
330
2B3
102
}
330
2B3
100
AcDbScale
 70
     0
300
3" = 1'-0"
140
3.0
141
12.0
290
     0
  0
SCALE
  5
2D3
102
{ACAD_REACTORS
330
2B3
102
}
330
2B3
100
AcDbScale
 70
     0
300
6" = 1'-0"
140
6.0
141
12.0
290
     0
  0
SCALE
  5
2D4
102
{ACAD_REACTORS
330
2B3
102
}
330
2B3
100
AcDbScale
 70
     0
300
1'-0" = 1'-0"
140
12.0
141
12.0
290
     0
  0
TABLESTYLE
  5
122
102
{ACAD_XDICTIONARY
360
2F5
102
}
102
{ACAD_REACTORS
330
121
102
}
330
121
100
AcDbTableStyle
  3
Standard
 70
     0
 71
     0
 40
1.5
 41
1.5
280
     0
281
     0
  7
STANDARD
140
4.5
170
     2
 62
     0
 63
     7
283
     0
 90
      512
 91
        0
  1

274
    -2
284
     1
 64
     0
275
    -2
285
     1
 65
     0
276
    -2
286
     1
 66
     0
277
    -2
287
     1
 67
     0
278
    -2
288
     1
 68
     0
279
    -2
289
     1
 69
     0
  7
STANDARD
140
6.0
170
     5
 62
     0
 63
     7
283
     0
 90
      512
 91
        0
  1

274
    -2
284
     1
 64
     0
275
    -2
285
     1
 65
     0
276
    -2
286
     1
 66
     0
277
    -2
287
     1
 67
     0
278
    -2
288
     1
 68
     0
279
    -2
289
     1
 69
     0
  7
STANDARD
140
4.5
170
     5
 62
     0
 63
     7
283
     0
 90
      512
 91
        0
  1

274
    -2
284
     1
 64
     0
275
    -2
285
     1
 65
     0
276
    -2
286
     1
 66
     0
277
    -2
287
     1
 67
     0
278
    -2
288
     1
 68
     0
279
    -2
289
     1
 69
     0
  0
VISUALSTYLE
  5
285
102
{ACAD_REACTORS
330
27F
102
}
330
27F
100
AcDbVisualStyle
  2
2dWireframe
 70
     4
 71
     0
 72
     2
 73
     0
 90
        0
 40
-0.6
 41
-30.0
 62
     5
 63
     7
421
 16777215
 74
     1
 91
        4
 64
     7
 65
   257
 75
     1
175
     1
 42
1.0
 92
        0
 66
   257
 43
1.0
 76
     1
 77
     6
 78
     2
 67
     7
 79
     5
170
     0
171
     0
290
     0
174
     0
 93
        1
 44
0.0
173
     0
291
     0
 45
0.0
  0
VISUALSTYLE
  5
287
102
{ACAD_REACTORS
330
27F
102
}
330
27F
100
AcDbVisualStyle
  2
3D Hidden
 70
     6
 71
     1
 72
     2
 73
     2
 90
        0
 40
-0.6
 41
-30.0
 62
     5
 63
     7
421
 16777215
 74
     2
 91
        2
 64
     7
 65
   257
 75
     2
175
     1
 42
40.0
 92
        0
 66
   257
 43
1.0
 76
     1
 77
     6
 78
     2
 67
     7
 79
     3
170
     0
171
     0
290
     0
174
     0
 93
        1
 44
0.0
173
     0
291
     0
 45
0.0
  0
VISUALSTYLE
  5
286
102
{ACAD_REACTORS
330
27F
102
}
330
27F
100
AcDbVisualStyle
  2
3dWireframe
 70
     5
 71
     0
 72
     2
 73
     0
 90
        0
 40
-0.6
 41
-30.0
 62
     5
 63
     7
421
 16777215
 74
     1
 91
        4
 64
     7
 65
   257
 75
     1
175
     1
 42
1.0
 92
        0
 66
   257
 43
1.0
 76
     1
 77
     6
 78
     2
 67
     7
 79
     5
170
     0
171
     0
290
     0
174
     0
 93
        1
 44
0.0
173
     0
291
     0
 45
0.0
  0
VISUALSTYLE
  5
284
102
{ACAD_REACTORS
330
27F
102
}
330
27F
100
AcDbVisualStyle
  2
Basic
 70
     7
 71
     1
 72
     0
 73
     1
 90
        0
 40
-0.6
 41
-30.0
 62
     5
 63
     7
421
 16777215
 74
     0
 91
        4
 64
     7
 65
   257
 75
     1
175
     1
 42
1.0
 92
        8
 66
     7
 43
1.0
 76
     1
 77
     6
 78
     2
 67
     7
 79
     5
170
     0
171
     0
290
     0
174
     0
 93
        1
 44
0.0
173
     0
291
     1
 45
0.0
  0
VISUALSTYLE
  5
28B
102
{ACAD_REACTORS
330
27F
102
}
330
27F
100
AcDbVisualStyle
  2
Brighten
 70
    12
 71
     2
 72
     2
 73
     0
 90
        0
 40
-0.6
 41
-30.0
 62
     5
 63
     7
421
 16777215
 74
     1
 91
        4
 64
     7
 65
   257
 75
     1
175
     1
 42
1.0
 92
        8
 66
     7
 43
1.0
 76
     1
 77
     6
 78
     2
 67
     7
 79
     5
170
     0
171
     0
290
     0
174
     0
 93
        1
 44
50.0
173
     0
291
     1
 45
0.0
  0
VISUALSTYLE
  5
28F
102
{ACAD_REACTORS
330
27F
102
}
330
27F
100
AcDbVisualStyle
  2
ColorChange
 70
    16
 71
     2
 72
     2
 73
     3
 90
        0
 40
-0.6
 41
-30.0
 62
     5
 63
     8
421
  8421504
 74
     1
 91
        4
 64
     7
 65
   257
 75
     1
175
     1
 42
1.0
 92
        8
 66
     8
424
  8421504
 43
1.0
 76
     1
 77
     6
 78
     2
 67
     7
 79
     5
170
     0
171
     0
290
     0
174
     0
 93
        1
 44
0.0
173
     0
291
     1
 45
0.0
  0
VISUALSTYLE
  5
288
102
{ACAD_REACTORS
330
27F
102
}
330
27F
100
AcDbVisualStyle
  2
Conceptual
 70
     9
 71
     3
 72
     2
 73
     0
 90
        0
 40
-0.6
 41
-30.0
 62
     5
 63
     7
421
 16777215
 74
     2
 91
        2
 64
     7
 65
   257
 75
     1
175
     1
 42
40.0
 92
        8
 66
     7
 43
1.0
 76
     1
 77
     6
 78
     2
 67
     7
 79
     3
170
     0
171
     0
290
     0
174
     0
 93
        1
 44
0.0
173
     0
291
     0
 45
0.0
  0
VISUALSTYLE
  5
28A
102
{ACAD_REACTORS
330
27F
102
}
330
27F
100
AcDbVisualStyle
  2
Dim
 70
    11
 71
     2
 72
     2
 73
     0
 90
        0
 40
-0.6
 41
-30.0
 62
     5
 63
     7
421
 16777215
 74
     1
 91
        4
 64
     7
 65
   257
 75
     1
175
     1
 42
1.0
 92
        8
 66
     7
 43
1.0
 76
     1
 77
     6
 78
     2
 67
     7
 79
     5
170
     0
171
     0
290
     0
174
     0
 93
        1
 44
-50.0
173
     0
291
     1
 45
0.0
  0
VISUALSTYLE
  5
28E
102
{ACAD_REACTORS
330
27F
102
}
330
27F
100
AcDbVisualStyle
  2
Facepattern
 70
    15
 71
     2
 72
     2
 73
     0
 90
        0
 40
-0.6
 41
-30.0
 62
     5
 63
     7
421
 16777215
 74
     1
 91
        4
 64
     7
 65
   257
 75
     1
175
     1
 42
1.0
 92
        8
 66
     7
 43
1.0
 76
     1
 77
     6
 78
     2
 67
     7
 79
     5
170
     0
171
     0
290
     0
174
     0
 93
        1
 44
0.0
173
     0
291
     1
 45
0.0
  0
VISUALSTYLE
  5
280
102
{ACAD_REACTORS
330
27F
102
}
330
27F
100
AcDbVisualStyle
  2
Flat
 70
     0
 71
     2
 72
     1
 73
     1
 90
        2
 40
-0.6
 41
30.0
 62
     5
 63
     7
421
 16777215
 74
     0
 91
        4
 64
     7
 65
   257
 75
     1
175
     1
 42
1.0
 92
        8
 66
     7
 43
1.0
 76
     1
 77
     6
 78
     2
 67
     7
 79
     5
170
     0
171
     0
290
     0
174
     0
 93
       13
 44
0.0
173
     0
291
     1
 45
0.0
  0
VISUALSTYLE
  5
281
102
{ACAD_REACTORS
330
27F
102
}
330
27F
100
AcDbVisualStyle
  2
FlatWithEdges
 70
     1
 71
     2
 72
     1
 73
     1
 90
        2
 40
-0.6
 41
30.0
 62
     5
 63
     7
421
 16777215
 74
     1
 91
        4
 64
     7
 65
   257
 75
     1
175
     1
 42
1.0
 92
        0
 66
   257
 43
1.0
 76
     1
 77
     6
 78
     2
 67
     7
 79
     5
170
     0
171
     0
290
     0
174
     0
 93
       13
 44
0.0
173
     0
291
     1
 45
0.0
  0
VISUALSTYLE
  5
282
102
{ACAD_REACTORS
330
27F
102
}
330
27F
100
AcDbVisualStyle
  2
Gouraud
 70
     2
 71
     2
 72
     2
 73
     1
 90
        2
 40
-0.6
 41
30.0
 62
     5
 63
     7
421
 16777215
 74
     0
 91
        4
 64
     7
 65
   257
 75
     1
175
     1
 42
1.0
 92
        0
 66
     7
 43
1.0
 76
     1
 77
     6
 78
     2
 67
     7
 79
     5
170
     0
171
     0
290
     0
174
     0
 93
       13
 44
0.0
173
     0
291
     1
 45
0.0
  0
VISUALSTYLE
  5
283
102
{ACAD_REACTORS
330
27F
102
}
330
27F
100
AcDbVisualStyle
  2
GouraudWithEdges
 70
     3
 71
     2
 72
     2
 73
     1
 90
        2
 40
-0.6
 41
30.0
 62
     5
 63
     7
421
 16777215
 74
     1
 91
        4
 64
     7
 65
   257
 75
     1
175
     1
 42
1.0
 92
        0
 66
   257
 43
1.0
 76
     1
 77
     6
 78
     2
 67
     7
 79
     5
170
     0
171
     0
290
     0
174
     0
 93
       13
 44
0.0
173
     0
291
     1
 45
0.0
  0
VISUALSTYLE
  5
28D
102
{ACAD_REACTORS
330
27F
102
}
330
27F
100
AcDbVisualStyle
  2
Linepattern
 70
    14
 71
     2
 72
     2
 73
     0
 90
        0
 40
-0.6
 41
-30.0
 62
     5
 63
     7
421
 16777215
 74
     1
 91
        4
 64
     7
 65
   257
 75
     7
175
     7
 42
1.0
 92
        8
 66
     7
 43
1.0
 76
     1
 77
     6
 78
     2
 67
     7
 79
     5
170
     0
171
     0
290
     0
174
     0
 93
        1
 44
0.0
173
     0
291
     1
 45
0.0
  0
VISUALSTYLE
  5
289
102
{ACAD_REACTORS
330
27F
102
}
330
27F
100
AcDbVisualStyle
  2
Realistic
 70
     8
 71
     2
 72
     2
 73
     0
 90
        0
 40
-0.6
 41
-30.0
 62
     5
 63
     7
421
 16777215
 74
     1
 91
        0
 64
     7
 65
   257
 75
     1
175
     1
 42
1.0
 92
        8
 66
     8
424
  7895160
 43
1.0
 76
     1
 77
     6
 78
     2
 67
     7
 79
     5
170
     0
171
     0
290
     0
174
     0
 93
       13
 44
0.0
173
     0
291
     0
 45
0.0
  0
VISUALSTYLE
  5
28C
102
{ACAD_REACTORS
330
27F
102
}
330
27F
100
AcDbVisualStyle
  2
Thicken
 70
    13
 71
     2
 72
     2
 73
     0
 90
        0
 40
-0.6
 41
-30.0
 62
     5
 63
     7
421
 16777215
 74
     1
 91
        4
 64
     7
 65
   257
 75
     1
175
     1
 42
1.0
 92
       12
 66
     7
 43
1.0
 76
     1
 77
     6
 78
     2
 67
     7
 79
     5
170
     0
171
     0
290
     0
174
     0
 93
        1
 44
0.0
173
     0
291
     1
 45
0.0
  0
DICTIONARYVAR
  5
2FA
102
{ACAD_REACTORS
330
34
102
}
330
34
100
DictionaryVariables
280
     0
  1
1:10
  0
DICTIONARYVAR
  5
2F8
102
{ACAD_REACTORS
330
34
102
}
330
34
100
DictionaryVariables
280
     0
  1
STANDARD
  0
DICTIONARYVAR
  5
140
102
{ACAD_REACTORS
330
34
102
}
330
34
100
DictionaryVariables
280
     0
  1
STANDARD
  0
DICTIONARYVAR
  5
AC
102
{ACAD_REACTORS
330
34
102
}
330
34
100
DictionaryVariables
280
     0
  1
1
  0
DICTIONARYVAR
  5
35
102
{ACAD_REACTORS
330
34
102
}
330
34
100
DictionaryVariables
280
     0
  1
1
  0
DICTIONARYVAR
  5
51F1
102
{ACAD_REACTORS
330
34
102
}
330
34
100
DictionaryVariables
280
     0
  1
1
  0
DICTIONARYVAR
  5
51F2
102
{ACAD_REACTORS
330
34
102
}
330
34
100
DictionaryVariables
280
     0
  1
15
  0
DICTIONARYVAR
  5
2FB
102
{ACAD_REACTORS
330
34
102
}
330
34
100
DictionaryVariables
280
     0
  1
0
  0
DICTIONARYVAR
  5
2F9
102
{ACAD_REACTORS
330
34
102
}
330
34
100
DictionaryVariables
280
     0
  1
0
  0
DICTIONARY
  5
161B
102
{ACAD_REACTORS
330
49
102
}
330
49
100
AcDbDictionary
281
     1
  0
DICTIONARY
  5
4A
102
{ACAD_REACTORS
330
49
102
}
330
49
100
AcDbDictionary
281
     1
  0
XRECORD
  5
12B
102
{ACAD_REACTORS
330
49
102
}
330
49
100
AcDbXrecord
280
     1
 90
-1023410169
  0
DICTIONARY
  5
2F5
330
122
100
AcDbDictionary
280
     1
281
     1
  3
ACAD_ROUNDTRIP_2008_TABLESTYLE_CELLSTYLEMAP
360
767F
  0
CELLSTYLEMAP
  5
767F
102
{ACAD_REACTORS
330
2F5
102
}
330
2F5
100
AcDbCellStyleMap
 90
        3
300
CELLSTYLE
  1
TABLEFORMAT_BEGIN
 90
        5
170
     1
 91
        0
 92
    32768
 62
   257
 93
        1
300
CONTENTFORMAT
  1
CONTENTFORMAT_BEGIN
 90
        0
 91
        0
 92
      512
 93
        0
300

 40
0.0
140
1.0
 94
        5
 62
     0
340
11
144
6.0
309
CONTENTFORMAT_END
171
     1
301
MARGIN
  1
CELLMARGIN_BEGIN
 40
1.5
 40
1.5
 40
1.5
 40
1.5
 40
0.18
 40
0.18
309
CELLMARGIN_END
 94
        6
 95
        1
302
GRIDFORMAT
  1
GRIDFORMAT_BEGIN
 90
        0
 91
        1
 62
     0
 92
       -2
340
0
 93
        0
 40
0.045
309
GRIDFORMAT_END
 95
        2
302
GRIDFORMAT
  1
GRIDFORMAT_BEGIN
 90
        0
 91
        1
 62
     0
 92
       -2
340
0
 93
        0
 40
0.045
309
GRIDFORMAT_END
 95
        4
302
GRIDFORMAT
  1
GRIDFORMAT_BEGIN
 90
        0
 91
        1
 62
     0
 92
       -2
340
0
 93
        0
 40
0.045
309
GRIDFORMAT_END
 95
        8
302
GRIDFORMAT
  1
GRIDFORMAT_BEGIN
 90
        0
 91
        1
 62
     0
 92
       -2
340
0
 93
        0
 40
0.045
309
GRIDFORMAT_END
 95
       16
302
GRIDFORMAT
  1
GRIDFORMAT_BEGIN
 90
        0
 91
        1
 62
     0
 92
       -2
340
0
 93
        0
 40
0.045
309
GRIDFORMAT_END
 95
       32
302
GRIDFORMAT
  1
GRIDFORMAT_BEGIN
 90
        0
 91
        1
 62
     0
 92
       -2
340
0
 93
        0
 40
0.045
309
GRIDFORMAT_END
309
TABLEFORMAT_END
  1
CELLSTYLE_BEGIN
 90
        1
 91
        1
300
_TITLE
309
CELLSTYLE_END
300
CELLSTYLE
  1
TABLEFORMAT_BEGIN
 90
        5
170
     1
 91
        0
 92
        0
 62
   257
 93
        1
300
CONTENTFORMAT
  1
CONTENTFORMAT_BEGIN
 90
        0
 91
        0
 92
      512
 93
        0
300

 40
0.0
140
1.0
 94
        5
 62
     0
340
11
144
4.5
309
CONTENTFORMAT_END
171
     1
301
MARGIN
  1
CELLMARGIN_BEGIN
 40
1.5
 40
1.5
 40
1.5
 40
1.5
 40
0.18
 40
0.18
309
CELLMARGIN_END
 94
        6
 95
        1
302
GRIDFORMAT
  1
GRIDFORMAT_BEGIN
 90
        0
 91
        1
 62
     0
 92
       -2
340
0
 93
        0
 40
0.045
309
GRIDFORMAT_END
 95
        2
302
GRIDFORMAT
  1
GRIDFORMAT_BEGIN
 90
        0
 91
        1
 62
     0
 92
       -2
340
0
 93
        0
 40
0.045
309
GRIDFORMAT_END
 95
        4
302
GRIDFORMAT
  1
GRIDFORMAT_BEGIN
 90
        0
 91
        1
 62
     0
 92
       -2
340
0
 93
        0
 40
0.045
309
GRIDFORMAT_END
 95
        8
302
GRIDFORMAT
  1
GRIDFORMAT_BEGIN
 90
        0
 91
        1
 62
     0
 92
       -2
340
0
 93
        0
 40
0.045
309
GRIDFORMAT_END
 95
       16
302
GRIDFORMAT
  1
GRIDFORMAT_BEGIN
 90
        0
 91
        1
 62
     0
 92
       -2
340
0
 93
        0
 40
0.045
309
GRIDFORMAT_END
 95
       32
302
GRIDFORMAT
  1
GRIDFORMAT_BEGIN
 90
        0
 91
        1
 62
     0
 92
       -2
340
0
 93
        0
 40
0.045
309
GRIDFORMAT_END
309
TABLEFORMAT_END
  1
CELLSTYLE_BEGIN
 90
        2
 91
        1
300
_HEADER
309
CELLSTYLE_END
300
CELLSTYLE
  1
TABLEFORMAT_BEGIN
 90
        5
170
     1
 91
        0
 92
        0
 62
   257
 93
        1
300
CONTENTFORMAT
  1
CONTENTFORMAT_BEGIN
 90
        0
 91
        0
 92
      512
 93
        0
300

 40
0.0
140
1.0
 94
        2
 62
     0
340
11
144
4.5
309
CONTENTFORMAT_END
171
     1
301
MARGIN
  1
CELLMARGIN_BEGIN
 40
1.5
 40
1.5
 40
1.5
 40
1.5
 40
0.18
 40
0.18
309
CELLMARGIN_END
 94
        6
 95
        1
302
GRIDFORMAT
  1
GRIDFORMAT_BEGIN
 90
        0
 91
        1
 62
     0
 92
       -2
340
0
 93
        0
 40
0.045
309
GRIDFORMAT_END
 95
        2
302
GRIDFORMAT
  1
GRIDFORMAT_BEGIN
 90
        0
 91
        1
 62
     0
 92
       -2
340
0
 93
        0
 40
0.045
309
GRIDFORMAT_END
 95
        4
302
GRIDFORMAT
  1
GRIDFORMAT_BEGIN
 90
        0
 91
        1
 62
     0
 92
       -2
340
0
 93
        0
 40
0.045
309
GRIDFORMAT_END
 95
        8
302
GRIDFORMAT
  1
GRIDFORMAT_BEGIN
 90
        0
 91
        1
 62
     0
 92
       -2
340
0
 93
        0
 40
0.045
309
GRIDFORMAT_END
 95
       16
302
GRIDFORMAT
  1
GRIDFORMAT_BEGIN
 90
        0
 91
        1
 62
     0
 92
       -2
340
0
 93
        0
 40
0.045
309
GRIDFORMAT_END
 95
       32
302
GRIDFORMAT
  1
GRIDFORMAT_BEGIN
 90
        0
 91
        1
 62
     0
 92
       -2
340
0
 93
        0
 40
0.045
309
GRIDFORMAT_END
309
TABLEFORMAT_END
  1
CELLSTYLE_BEGIN
 90
        3
 91
        2
300
_DATA
309
CELLSTYLE_END
  0
ENDSEC
  0
EOF
