  0
SECTION
  2
HEADER
  9
$ACADVER
  1
AC1021
  9
$ACADMAINTVER
 70
    26
  9
$DWGCODEPAGE
  3
ANSI_932
  9
$LASTSAVEDBY
  1
Htm_Terada
  9
$CUSTOMPROPERTYTAG
  1
AmdtFileType
  9
$CUSTOMPROPERTY
  1
84
  9
$INSBASE
 10
0.0
 20
0.0
 30
0.0
  9
$EXTMIN
 10
1418.459186987507
 20
1449.077989696811
 30
0.0
  9
$EXTMAX
 10
3075.945867007394
 20
2535.776719446813
 30
0.0
  9
$LIMMIN
 10
0.0000019143385543
 20
0.0000036938206449
  9
$LIMMAX
 10
4200.000001914339
 20
2970.000003693821
  9
$ORTHOMODE
 70
     1
  9
$REGENMODE
 70
     1
  9
$FILLMODE
 70
     1
  9
$QTEXTMODE
 70
     0
  9
$MIRRTEXT
 70
     1
  9
$LTSCALE
 40
10.0
  9
$ATTMODE
 70
     1
  9
$TEXTSIZE
 40
25.0
  9
$TRACEWID
 40
1.0
  9
$TEXTSTYLE
  7
SEISA
  9
$CLAYER
  8
AM_0 外形線1
  9
$CELTYPE
  6
ByLayer
  9
$CECOLOR
 62
   256
  9
$CELTSCALE
 40
1.0
  9
$DISPSILH
 70
     0
  9
$DIMSCALE
 40
10.0
  9
$DIMASZ
 40
2.5
  9
$DIMEXO
 40
0.625
  9
$DIMDLI
 40
10.0
  9
$DIMRND
 40
0.0
  9
$DIMDLE
 40
0.0
  9
$DIMEXE
 40
0.625
  9
$DIMTP
 40
0.1
  9
$DIMTM
 40
0.1
  9
$DIMTXT
 40
3.5
  9
$DIMCEN
 40
0.0
  9
$DIMTSZ
 40
0.0
  9
$DIMTOL
 70
     0
  9
$DIMLIM
 70
     0
  9
$DIMTIH
 70
     0
  9
$DIMTOH
 70
     0
  9
$DIMSE1
 70
     0
  9
$DIMSE2
 70
     0
  9
$DIMTAD
 70
     3
  9
$DIMZIN
 70
     8
  9
$DIMBLK
  1
Open30
  9
$DIMASO
 70
     1
  9
$DIMSHO
 70
     1
  9
$DIMPOST
  1

  9
$DIMAPOST
  1
"
  9
$DIMALT
 70
     0
  9
$DIMALTD
 70
     2
  9
$DIMALTF
 40
0.0393701
  9
$DIMLFAC
 40
1.0
  9
$DIMTOFL
 70
     1
  9
$DIMTVP
 40
0.0
  9
$DIMTIX
 70
     0
  9
$DIMSOXD
 70
     0
  9
$DIMSAH
 70
     0
  9
$DIMBLK1
  1

  9
$DIMBLK2
  1

  9
$DIMSTYLE
  2
SEISA
  9
$DIMCLRD
 70
     3
  9
$DIMCLRE
 70
     3
  9
$DIMCLRT
 70
     3
  9
$DIMTFAC
 40
0.71
  9
$DIMGAP
 40
1.5
  9
$DIMJUST
 70
     0
  9
$DIMSD1
 70
     0
  9
$DIMSD2
 70
     0
  9
$DIMTOLJ
 70
     0
  9
$DIMTZIN
 70
     0
  9
$DIMALTZ
 70
     0
  9
$DIMALTTZ
 70
     8
  9
$DIMUPT
 70
     0
  9
$DIMDEC
 70
     2
  9
$DIMTDEC
 70
     2
  9
$DIMALTU
 70
     2
  9
$DIMALTTD
 70
     2
  9
$DIMTXSTY
  7
SEISA
  9
$DIMAUNIT
 70
     0
  9
$DIMADEC
 70
     0
  9
$DIMALTRND
 40
0.0
  9
$DIMAZIN
 70
     2
  9
$DIMDSEP
 70
    46
  9
$DIMATFIT
 70
     3
  9
$DIMFRAC
 70
     0
  9
$DIMLDRBLK
  1
Open30
  9
$DIMLUNIT
 70
     2
  9
$DIMLWD
 70
    -1
  9
$DIMLWE
 70
    -1
  9
$DIMTMOVE
 70
     0
  9
$DIMFXL
 40
1.0
  9
$DIMFXLON
 70
     0
  9
$DIMJOGANG
 40
0.7853981633974483
  9
$DIMTFILL
 70
     0
  9
$DIMTFILLCLR
 70
     0
  9
$DIMARCSYM
 70
     1
  9
$DIMLTYPE
  6

  9
$DIMLTEX1
  6

  9
$DIMLTEX2
  6

  9
$LUNITS
 70
     2
  9
$LUPREC
 70
     2
  9
$SKETCHINC
 40
1.0
  9
$FILLETRAD
 40
2.5
  9
$AUNITS
 70
     0
  9
$AUPREC
 70
     0
  9
$MENU
  1
.
  9
$ELEVATION
 40
0.0
  9
$PELEVATION
 40
0.0
  9
$THICKNESS
 40
0.0
  9
$LIMCHECK
 70
     0
  9
$CHAMFERA
 40
10.0
  9
$CHAMFERB
 40
9.999999999999543
  9
$CHAMFERC
 40
10.0
  9
$CHAMFERD
 40
0.78539816339738
  9
$SKPOLY
 70
     0
  9
$TDCREATE
 40
2454938.708276042
  9
$TDUCREATE
 40
2454938.333276042
  9
$TDUPDATE
 40
2456479.693982744
  9
$TDUUPDATE
 40
2456479.318982743
  9
$TDINDWG
 40
0.2310157523
  9
$TDUSRTIMER
 40
0.2310139468
  9
$USRTIMER
 70
     1
  9
$ANGBASE
 50
0.0
  9
$ANGDIR
 70
     0
  9
$PDMODE
 70
     0
  9
$PDSIZE
 40
0.0
  9
$PLINEWID
 40
0.0
  9
$SPLFRAME
 70
     0
  9
$SPLINETYPE
 70
     6
  9
$SPLINESEGS
 70
     8
  9
$HANDSEED
  5
7839
  9
$SURFTAB1
 70
     6
  9
$SURFTAB2
 70
     6
  9
$SURFTYPE
 70
     6
  9
$SURFU
 70
     6
  9
$SURFV
 70
     6
  9
$UCSBASE
  2

  9
$UCSNAME
  2

  9
$UCSORG
 10
0.0
 20
0.0
 30
0.0
  9
$UCSXDIR
 10
1.0
 20
0.0
 30
0.0
  9
$UCSYDIR
 10
0.0
 20
1.0
 30
0.0
  9
$UCSORTHOREF
  2

  9
$UCSORTHOVIEW
 70
     0
  9
$UCSORGTOP
 10
0.0
 20
0.0
 30
0.0
  9
$UCSORGBOTTOM
 10
0.0
 20
0.0
 30
0.0
  9
$UCSORGLEFT
 10
0.0
 20
0.0
 30
0.0
  9
$UCSORGRIGHT
 10
0.0
 20
0.0
 30
0.0
  9
$UCSORGFRONT
 10
0.0
 20
0.0
 30
0.0
  9
$UCSORGBACK
 10
0.0
 20
0.0
 30
0.0
  9
$PUCSBASE
  2

  9
$PUCSNAME
  2

  9
$PUCSORG
 10
0.0
 20
0.0
 30
0.0
  9
$PUCSXDIR
 10
1.0
 20
0.0
 30
0.0
  9
$PUCSYDIR
 10
0.0
 20
1.0
 30
0.0
  9
$PUCSORTHOREF
  2

  9
$PUCSORTHOVIEW
 70
     0
  9
$PUCSORGTOP
 10
0.0
 20
0.0
 30
0.0
  9
$PUCSORGBOTTOM
 10
0.0
 20
0.0
 30
0.0
  9
$PUCSORGLEFT
 10
0.0
 20
0.0
 30
0.0
  9
$PUCSORGRIGHT
 10
0.0
 20
0.0
 30
0.0
  9
$PUCSORGFRONT
 10
0.0
 20
0.0
 30
0.0
  9
$PUCSORGBACK
 10
0.0
 20
0.0
 30
0.0
  9
$USERI1
 70
     0
  9
$USERI2
 70
     0
  9
$USERI3
 70
     0
  9
$USERI4
 70
     0
  9
$USERI5
 70
     0
  9
$USERR1
 40
0.0
  9
$USERR2
 40
0.0
  9
$USERR3
 40
0.0
  9
$USERR4
 40
0.0
  9
$USERR5
 40
0.0
  9
$WORLDVIEW
 70
     1
  9
$SHADEDGE
 70
     3
  9
$SHADEDIF
 70
    70
  9
$TILEMODE
 70
     1
  9
$MAXACTVP
 70
    64
  9
$PINSBASE
 10
0.0
 20
0.0
 30
0.0
  9
$PLIMCHECK
 70
     0
  9
$PEXTMIN
 10
1.000000000000000E+20
 20
1.000000000000000E+20
 30
1.000000000000000E+20
  9
$PEXTMAX
 10
-1.000000000000000E+20
 20
-1.000000000000000E+20
 30
-1.000000000000000E+20
  9
$PLIMMIN
 10
0.0
 20
0.0
  9
$PLIMMAX
 10
420.0
 20
297.0
  9
$UNITMODE
 70
     0
  9
$VISRETAIN
 70
     1
  9
$PLINEGEN
 70
     0
  9
$PSLTSCALE
 70
     1
  9
$TREEDEPTH
 70
  3020
  9
$CMLSTYLE
  2
Standard
  9
$CMLJUST
 70
     0
  9
$CMLSCALE
 40
20.0
  9
$PROXYGRAPHICS
 70
     1
  9
$MEASUREMENT
 70
     1
  9
$CELWEIGHT
370
    -1
  9
$ENDCAPS
280
     0
  9
$JOINSTYLE
280
     0
  9
$LWDISPLAY
290
     0
  9
$INSUNITS
 70
     4
  9
$HYPERLINKBASE
  1

  9
$STYLESHEET
  1
SEISA.CTB
  9
$XEDIT
290
     1
  9
$CEPSNTYPE
380
     0
  9
$PSTYLEMODE
290
     1
  9
$FINGERPRINTGUID
  2
{50993364-B30A-44F4-9CB8-9103CA6AC458}
  9
$VERSIONGUID
  2
{F5205C34-AFC4-4800-A9C4-3D793BB31D7B}
  9
$EXTNAMES
290
     1
  9
$PSVPSCALE
 40
0.0
  9
$OLESTARTUP
290
     0
  9
$SORTENTS
280
   127
  9
$INDEXCTL
280
     0
  9
$HIDETEXT
280
     0
  9
$XCLIPFRAME
290
     0
  9
$HALOGAP
280
     0
  9
$OBSCOLOR
 70
   257
  9
$OBSLTYPE
280
     0
  9
$INTERSECTIONDISPLAY
280
     0
  9
$INTERSECTIONCOLOR
 70
   257
  9
$DIMASSOC
280
     2
  9
$PROJECTNAME
  1

  9
$CAMERADISPLAY
290
     0
  9
$LENSLENGTH
 40
50.0
  9
$CAMERAHEIGHT
 40
0.0
  9
$STEPSPERSEC
 40
2.0
  9
$STEPSIZE
 40
6.0
  9
$3DDWFPREC
 40
2.0
  9
$PSOLWIDTH
 40
0.25
  9
$PSOLHEIGHT
 40
4.0
  9
$LOFTANG1
 40
1.570796326794896
  9
$LOFTANG2
 40
1.570796326794896
  9
$LOFTMAG1
 40
0.0
  9
$LOFTMAG2
 40
0.0
  9
$LOFTPARAM
 70
     7
  9
$LOFTNORMALS
280
     1
  9
$LATITUDE
 40
37.795
  9
$LONGITUDE
 40
-122.394
  9
$NORTHDIRECTION
 40
0.0
  9
$TIMEZONE
 70
 -8000
  9
$LIGHTGLYPHDISPLAY
280
     1
  9
$TILEMODELIGHTSYNCH
280
     1
  9
$CMATERIAL
347
27C
  9
$SOLIDHIST
280
     1
  9
$SHOWHIST
280
     1
  9
$DWFFRAME
280
     2
  9
$DGNFRAME
280
     0
  9
$REALWORLDSCALE
290
     1
  9
$INTERFERECOLOR
 62
     1
  9
$INTERFEREOBJVS
345
289
  9
$INTERFEREVPVS
346
286
  9
$CSHADOW
280
     0
  9
$SHADOWPLANELOCATION
 40
0.0
  0
ENDSEC
  0
SECTION
  2
CLASSES
  0
CLASS
  1
ACDBDICTIONARYWDFLT
  2
AcDbDictionaryWithDefault
  3
ObjectDBX Classes
 90
        0
 91
        1
280
     0
281
     0
  0
CLASS
  1
AMGSETTINGSOBJ
  2
AmgSettingsObj
  3
"AcadM|Product Description: AutoCAD Mechanical|Company: Autodesk, Inc."
 90
     1024
 91
        2
280
     0
281
     0
  0
CLASS
  1
ACME_DOCUMENT
  2
AcMeDbDoc
  3
AcMeServices
 90
     1024
 91
        1
280
     0
281
     0
  0
CLASS
  1
ACMESCOPE
  2
AcMeScope
  3
AcMeServices
 90
     1024
 91
        1
280
     0
281
     0
  0
CLASS
  1
ACMECOMMANDHISTORY
  2
AcMeCommandHistory
  3
AcMeServices
 90
     1024
 91
        1
280
     0
281
     0
  0
CLASS
  1
DICTIONARYVAR
  2
AcDbDictionaryVar
  3
ObjectDBX Classes
 90
        0
 91
        9
280
     0
281
     0
  0
CLASS
  1
ACIMSYSVARMAN
  2
AcImSysVarManager
  3
AcMeServices
 90
     1024
 91
        5
280
     0
281
     0
  0
CLASS
  1
ACIMREALSYSVAR
  2
AcImRealSysVar
  3
AcMeServices
 90
     1024
 91
        1
280
     0
281
     0
  0
CLASS
  1
ACIMINTSYSVAR
  2
AcImIntSysVar
  3
AcMeServices
 90
     1024
 91
       27
280
     0
281
     0
  0
CLASS
  1
ACMEDRAWINGMAN
  2
AcMeDrawingMan
  3
AcMeServices
 90
     1024
 91
        1
280
     0
281
     0
  0
CLASS
  1
ACMEVIEW
  2
AcMeView
  3
AcMeServices
 90
     1024
 91
        1
280
     0
281
     0
  0
CLASS
  1
ACDBENTITYCACHE
  2
AcMeEntityCache
  3
AcMeServices
 90
     1024
 91
        1
280
     0
281
     0
  0
CLASS
  1
GSMANAGER
  2
AcMeGSManager
  3
AcMeServices
 90
     1024
 91
        1
280
     0
281
     0
  0
CLASS
  1
AMDTINTERNALREACTOR
  2
AmdtInternalReactor
  3
AcMeServices
 90
     1024
 91
        2
280
     0
281
     0
  0
CLASS
  1
ACMESTATEMGR
  2
AcMeStateMgr
  3
AcMeServices
 90
     1024
 91
        1
280
     0
281
     0
  0
CLASS
  1
ACGREFMASTER
  2
AcGrefMaster
  3
AcAttribServices
 90
     1024
 91
        1
280
     0
281
     0
  0
CLASS
  1
ACME_DATABASE
  2
AcMeDbDatabase
  3
AcMeServices
 90
     1024
 91
        1
280
     0
281
     0
  0
CLASS
  1
ACRFINSADJUSTERMGR
  2
AcRfInsAdjusterMgr
  3
AcMeServices
 90
     1024
 91
        1
280
     0
281
     0
  0
CLASS
  1
ACGREFACADMASTER
  2
AcGrefacadMaster
  3
AcGrefServices
 90
     1024
 91
        1
280
     0
281
     0
  0
CLASS
  1
AMIMASTER
  2
AmiMaster
  3
AmiServices
 90
     1024
 91
        1
280
     0
281
     0
  0
CLASS
  1
ACIMSTRSYSVAR
  2
AcImStrSysVar
  3
AcMeServices
 90
     1024
 91
        5
280
     0
281
     0
  0
CLASS
  1
ACMSTANDARDJIS
  2
AcmStandardJIS
  3
"Amdt_StdImp|Product Description: AutoCAD Mechanical|Company: Autodesk, Inc."
 90
     1024
 91
        0
280
     0
281
     0
  0
CLASS
  1
AMGOBJPROPCFG
  2
AmgObjPropCfg
  3
"AmgLay|Product Description: AutoCAD Mechanical|Company: Autodesk, Inc."
 90
     1025
 91
        1
280
     0
281
     0
  0
CLASS
  1
ACMSURFSTANDARDJIS
  2
AcmSurfTextStdJIS
  3
"Amdt_StdImp|Product Description: AutoCAD Mechanical|Company: Autodesk, Inc."
 90
     1024
 91
        0
280
     0
281
     0
  0
CLASS
  1
ACMFCFSTANDARDJIS
  2
AcmFCFStdJIS
  3
"Amdt_StdImp|Product Description: AutoCAD Mechanical|Company: Autodesk, Inc."
 90
     1024
 91
        0
280
     0
281
     0
  0
CLASS
  1
ACMWELDSTANDARDJIS
  2
AcmWeldingStdJIS
  3
"Amdt_StdImp|Product Description: AutoCAD Mechanical|Company: Autodesk, Inc."
 90
     1024
 91
        0
280
     0
281
     0
  0
CLASS
  1
ACMIDSTANDARDJIS
  2
AcmIdStdJIS
  3
"Amdt_StdImp|Product Description: AutoCAD Mechanical|Company: Autodesk, Inc."
 90
     1024
 91
        0
280
     0
281
     0
  0
CLASS
  1
ACMDATUMSTANDARDJIS
  2
AcmDatumStdJIS
  3
"Amdt_StdImp|Product Description: AutoCAD Mechanical|Company: Autodesk, Inc."
 90
     1024
 91
        0
280
     0
281
     0
  0
CLASS
  1
ACMBOMSTANDARDJIS
  2
AcmBOMStdJIS
  3
"Amdt_StdImp|Product Description: AutoCAD Mechanical|Company: Autodesk, Inc."
 90
     1024
 91
        0
280
     0
281
     0
  0
CLASS
  1
ACMDETAILSTANDARDJIS
  2
AmdtDetailSymStdJIS
  3
"Amdt_StdImp|Product Description: AutoCAD Mechanical|Company: Autodesk, Inc."
 90
     1024
 91
        0
280
     0
281
     0
  0
CLASS
  1
ACMSECTIONSTANDARDJIS
  2
AmdtSectionSymStdJIS
  3
"Amdt_StdImp|Product Description: AutoCAD Mechanical|Company: Autodesk, Inc."
 90
     1024
 91
        0
280
     0
281
     0
  0
CLASS
  1
ACMCENTERLINESTANDARDJIS
  2
AmdtCenterLineStdJIS
  3
"Amdt_StdImp|Product Description: AutoCAD Mechanical|Company: Autodesk, Inc."
 90
     1024
 91
        0
280
     0
281
     0
  0
CLASS
  1
ACMTHREADLINESTANDARDJIS
  2
AmdtThreadLineStdJIS
  3
"Amdt_StdImp|Product Description: AutoCAD Mechanical|Company: Autodesk, Inc."
 90
     1024
 91
        0
280
     0
281
     0
  0
CLASS
  1
ACAMGLAYSTD
  2
AcAmgLayStd
  3
"AmgLay|Product Description: AutoCAD Mechanical|Company: Autodesk, Inc."
 90
     1024
 91
        1
280
     0
281
     0
  0
CLASS
  1
ACAMGDIMSTD
  2
AcAmgDimStd
  3
"AmgDim|Product Description: AutoCAD Mechanical|Company: Autodesk, Inc."
 90
     1024
 91
        1
280
     0
281
     0
  0
CLASS
  1
ACAMGTITLESTD
  2
AcAmgTitleStd
  3
"AmgTitle|Product Description: AutoCAD Mechanical|Company: Autodesk, Inc."
 90
     4095
 91
        1
280
     0
281
     0
  0
CLASS
  1
ACMDATADICTIONARY
  2
AcmDataDictionary
  3
"AcmSymBB|Product Description: AutoCAD Mechanical|Company: Autodesk, Inc."
 90
     1024
 91
        1
280
     0
281
     0
  0
CLASS
  1
ACMDATAENTRYBLOCK
  2
AcmDataEntryBlock
  3
AcmSymBB|Product Description: AutoCAD Mechanical|Company: Autodesk, Inc.
 90
     1024
 91
        0
280
     0
281
     0
  0
CLASS
  1
LAYER_INDEX
  2
AcDbLayerIndex
  3
ObjectDBX Classes
 90
        0
 91
        0
280
     0
281
     0
  0
CLASS
  1
IDBUFFER
  2
AcDbIdBuffer
  3
ObjectDBX Classes
 90
        0
 91
        0
280
     0
281
     0
  0
CLASS
  1
ACMNOTESTANDARDJIS
  2
AmdtNoteStdJIS
  3
"Amdt_StdImp|Product Description: AutoCAD Mechanical|Company: Autodesk, Inc."
 90
     1024
 91
        0
280
     0
281
     0
  0
CLASS
  1
ACAMGHOLECHARTSTDJIS
  2
AcAmgHoleChartStdJIS
  3
AmgDim|Product Description: AutoCAD Mechanical|Company: Autodesk, Inc.
 90
     1024
 91
        0
280
     0
281
     0
  0
CLASS
  1
AM_DRAWING_MGR
  2
AcDmDwgMgr
  3
AcMechDwgViewMgmt
 90
     1024
 91
        1
280
     0
281
     0
  0
CLASS
  1
AM_DWG_DOCUMENT
  2
AcDmDwgDocument
  3
AcMechDwgViewMgmt
 90
     1024
 91
        1
280
     0
281
     0
  0
CLASS
  1
AM_DWG_SHEET
  2
AcDmSheet
  3
AcMechDwgViewMgmt
 90
     1024
 91
        2
280
     0
281
     0
  0
CLASS
  1
AM_VIEWDIMPARMAP
  2
AcDmViewDimParMap
  3
AcMechDwgViewMgmt
 90
     1024
 91
        2
280
     0
281
     0
  0
CLASS
  1
AM_DWGMGR_NAME
  2
AcDmDwgMgrName
  3
AcMechDwgViewMgmt
 90
     1024
 91
        1
280
     0
281
     0
  0
CLASS
  1
AMDTMENUSTATEMGR
  2
AmdtMenuStateMgr
  3
McadcomServices
 90
     1024
 91
        1
280
     0
281
     0
  0
CLASS
  1
AMDTMCOMMENUSTATE
  2
AmdtMcomMenuState
  3
McadcomServices
 90
     1024
 91
        1
280
     0
281
     0
  0
CLASS
  1
MAPIAMMOUDLE
  2
MApiAmModule
  3
MApiAmServices
 90
     1024
 91
        1
280
     0
281
     0
  0
CLASS
  1
AMDTADMENUSTATE
  2
AmdtAdMenuState
  3
DesignerServices
 90
     1024
 91
        1
280
     0
281
     0
  0
CLASS
  1
ADAPPL
  2
AcAdAppl
  3
DesignerServices
 90
     1024
 91
        1
280
     0
281
     0
  0
CLASS
  1
DEPMGR
  2
AcAdDepMgr
  3
DesignerServices
 90
     1024
 91
        1
280
     0
281
     0
  0
CLASS
  1
PARAMMGR
  2
AcAdParamMgr
  3
DesignerServices
 90
     1024
 91
        1
280
     0
281
     0
  0
CLASS
  1
PARAMSCOPE
  2
AcAdParamScope
  3
DesignerServices
 90
     1024
 91
        1
280
     0
281
     0
  0
CLASS
  1
NAMEDAPPL
  2
AcAdNamedAppl
  3
DesignerServices
 90
     1024
 91
        1
280
     0
281
     0
  0
CLASS
  1
AMDTDMMENUSTATE
  2
AmdtDmMenuState
  3
AcMechDwgViewMgmt
 90
     1024
 91
        1
280
     0
281
     0
  0
CLASS
  1
AMDTAMMENUSTATE
  2
AmdtAmMenuState
  3
DesignerAssemblies
 90
     1024
 91
        1
280
     0
281
     0
  0
CLASS
  1
ACAMPROJECT
  2
AcAmProject
  3
DesignerAssemblies
 90
     1024
 91
        1
280
     0
281
     0
  0
CLASS
  1
ACAMGRCOMPDEF
  2
AcAmGrCompDef
  3
DesignerAssemblies
 90
     1024
 91
        1
280
     0
281
     0
  0
CLASS
  1
ACCMCONTEXT
  2
AcCmContext
  3
DesignerAssemblies
 90
     1024
 91
        1
280
     0
281
     0
  0
CLASS
  1
ACAMCOMPDEF
  2
AcAmCompDef
  3
DesignerAssemblies
 90
     1024
 91
        1
280
     0
281
     0
  0
CLASS
  1
ACAMCOMPDEFMGR
  2
AcAmCompDefMgr
  3
DesignerAssemblies
 90
     1024
 91
        1
280
     0
281
     0
  0
CLASS
  1
AMCONTEXTMGR
  2
AcAmContextMgr
  3
DesignerAssemblies
 90
     1024
 91
        1
280
     0
281
     0
  0
CLASS
  1
ACAMCONTEXTMODELER
  2
AcAmContextModeler
  3
DesignerAssemblies
 90
     1024
 91
        1
280
     0
281
     0
  0
CLASS
  1
CATALOGSTATE
  2
AcAmCatalogState
  3
DesignerAssemblies
 90
     1024
 91
        1
280
     0
281
     0
  0
CLASS
  1
ACAMGRCOMPDEFSET
  2
AcAmGrCompDefSet
  3
DesignerAssemblies
 90
     1024
 91
        1
280
     0
281
     0
  0
CLASS
  1
AMDTBROWSERDBTAB
  2
AmdtBrowserDbTab
  3
McadcomServices
 90
     1024
 91
        1
280
     0
281
     0
  0
CLASS
  1
CBROWSERAPPOBJECT
  2
CBrowserAppObject
  3
McadcomServices
 90
     1024
 91
        3
280
     0
281
     0
  0
CLASS
  1
DM_PLACEHOLDER
  2
AcDmSelsetPlaceholder
  3
AcMechDwgViewMgmt
 90
     1024
 91
        1
280
     0
281
     0
  0
CLASS
  1
TABLESTYLE
  2
AcDbTableStyle
  3
ObjectDBX Classes
 90
     4095
 91
        1
280
     0
281
     0
  0
CLASS
  1
VAACXREFPANELOBJECT
  2
VaAcXREFPanelObject
  3
VAAC_ADDIN
 90
        0
 91
        0
280
     0
281
     0
  0
CLASS
  1
VAACIMAGEINVENTORY
  2
VaAcImageInventory
  3
VAAC_ADDIN
 90
        0
 91
        0
280
     0
281
     0
  0
CLASS
  1
AMDTNOTETEMPLATEDB
  2
AmdtNoteTemplateDB
  3
AcmSymBB|Product Description: AutoCAD Mechanical|Company: Autodesk, Inc.
 90
     1024
 91
        6
280
     0
281
     0
  0
CLASS
  1
ACAMGFILTERDAT
  2
AcAmgFilterDat
  3
"AcadM|Product Description: AutoCAD Mechanical|Company: Autodesk, Inc."
 90
     1024
 91
        0
280
     0
281
     0
  0
CLASS
  1
MATERIAL
  2
AcDbMaterial
  3
ObjectDBX Classes
 90
     1153
 91
        3
280
     0
281
     0
  0
CLASS
  1
VISUALSTYLE
  2
AcDbVisualStyle
  3
ObjectDBX Classes
 90
     4095
 91
       16
280
     0
281
     0
  0
CLASS
  1
ACRFATTGENMGR
  2
AcRfAttGeneralMgr
  3
AcAttribServices
 90
     1024
 91
        0
280
     0
281
     0
  0
CLASS
  1
ACRFOBJATTMGR
  2
AcRfObjAttGroupMgr
  3
AcAttribServices
 90
     1024
 91
        0
280
     0
281
     0
  0
CLASS
  1
ACRFMCADAPIATTHOLDER
  2
AcRfMCADAPIAttHolder
  3
AcAttribServices
 90
     1024
 91
        0
280
     0
281
     0
  0
CLASS
  1
AMDTSYSATTR
  2
AmdtSystemAttribute
  3
AcAttribServices
 90
     1024
 91
        0
280
     0
281
     0
  0
CLASS
  1
ACMTAPERSTANDARDJIS
  2
AcmTaperStdJIS
  3
"Amdt_StdImp|Product Description: AutoCAD Mechanical|Company: Autodesk, Inc."
 90
     1024
 91
        0
280
     0
281
     0
  0
CLASS
  1
CAMSSTRUCTBTNSTATE
  2
StructBtnState
  3
DesignerAssemblies
 90
     1024
 91
        0
280
     0
281
     0
  0
CLASS
  1
SCALE
  2
AcDbScale
  3
ObjectDBX Classes
 90
     1153
 91
       37
280
     0
281
     0
  0
CLASS
  1
MLEADERSTYLE
  2
AcDbMLeaderStyle
  3
ACDB_MLEADERSTYLE_CLASS
 90
     4095
 91
        1
280
     0
281
     0
  0
CLASS
  1
ACMANOOTATIONVIEWSTANDARDJIS
  2
AmdtAnViewStdJIS
  3
"Amdt_StdImp|Product Description: AutoCAD Mechanical|Company: Autodesk, Inc."
 90
     1024
 91
        0
280
     0
281
     0
  0
CLASS
  1
ACMSURFSTANDARDJIS2003
  2
AcmSurfTextStdJIS2003
  3
"Amdt_StdImp|Product Description: AutoCAD Mechanical|Company: Autodesk, Inc."
 90
     1024
 91
        0
280
     0
281
     0
  0
CLASS
  1
CELLSTYLEMAP
  2
AcDbCellStyleMap
  3
ObjectDBX Classes
 90
     1152
 91
        2
280
     0
281
     0
  0
CLASS
  1
ACMFCFSTANDARDJIS98
  2
AcmFCFStdJIS98
  3
"Amdt_StdImp|Product Description: AutoCAD Mechanical|Company: Autodesk, Inc."
 90
     1024
 91
        0
280
     0
281
     0
  0
CLASS
  1
SORTENTSTABLE
  2
AcDbSortentsTable
  3
ObjectDBX Classes
 90
        0
 91
       13
280
     0
281
     0
  0
CLASS
  1
DIMASSOC
  2
AcDbDimAssoc
  3
"AcDbDimAssoc|Product Desc:     AcDim ARX App For Dimension|Company:          Autodesk, Inc.|WEB Address:      www.autodesk.com"
 90
        0
 91
       10
280
     0
281
     0
  0
CLASS
  1
STDPART2D
  2
AmgStdPart
  3
AmgStdPart|Product Description: AutoCAD Mechanical|Company: Autodesk, Inc.
 90
     4095
 91
        0
280
     0
281
     1
  0
CLASS
  1
ACMDATAENTRYPART
  2
AcmDataEntryPart
  3
AcmSymBB|Product Description: AutoCAD Mechanical|Company: Autodesk, Inc.
 90
     1024
 91
        0
280
     0
281
     0
  0
CLASS
  1
ACMPARTREF
  2
AcmPartRef
  3
"AcmSymBB|Product Description: AutoCAD Mechanical|Company: Autodesk, Inc."
 90
     4095
 91
        0
280
     0
281
     1
  0
CLASS
  1
ACDBSTDPARTRES_LINE
  2
AcDbStdPartRes_Line
  3
AmgStdPart|Product Description: AutoCAD Mechanical|Company: Autodesk, Inc.
 90
     1024
 91
        0
280
     0
281
     0
  0
CLASS
  1
ACMBOM
  2
AcmBom
  3
"AcmSymBB|Product Description: AutoCAD Mechanical|Company: Autodesk, Inc."
 90
     1024
 91
        0
280
     0
281
     0
  0
CLASS
  1
AMDTFORMULAUPDATEDISPATCHER
  2
AmdtFormulaUpdateDispatcher
  3
AcMeServices
 90
     1024
 91
        0
280
     0
281
     0
  0
CLASS
  1
ACMBOMROW
  2
AcmBomRow
  3
"AcmSymBB|Product Description: AutoCAD Mechanical|Company: Autodesk, Inc."
 90
     1024
 91
        0
280
     0
281
     0
  0
CLASS
  1
ACMPARTLIST
  2
AcmPartList
  3
"AcmSymBB|Product Description: AutoCAD Mechanical|Company: Autodesk, Inc."
 90
     4095
 91
        0
280
     0
281
     1
  0
CLASS
  1
ACDBLINERES
  2
AcDbLineRes
  3
AcGrefServices
 90
     1024
 91
        0
280
     0
281
     0
  0
CLASS
  1
ACRFINSADJ
  2
AcRfInsAdjuster
  3
AcMeServices
 90
     1024
 91
        0
280
     0
281
     0
  0
CLASS
  1
ACMSTANDARDISO
  2
AcmStandardISO
  3
"Amdt_StdImp|Product Description: AutoCAD Mechanical|Company: Autodesk, Inc."
 90
     1024
 91
        1
280
     0
281
     0
  0
CLASS
  1
AMDTEDGESTANDARDISO13715
  2
AmdtEdgeStdISO13715
  3
"Amdt_StdImp|Product Description: AutoCAD Mechanical|Company: Autodesk, Inc."
 90
     1024
 91
        1
280
     0
281
     0
  0
CLASS
  1
ACMSURFSTANDARDISO2002
  2
AcmSurfTextStdISO2002
  3
"Amdt_StdImp|Product Description: AutoCAD Mechanical|Company: Autodesk, Inc."
 90
     1024
 91
        1
280
     0
281
     0
  0
CLASS
  1
ACMFCFSTANDARDISO
  2
AcmFCFStdISO
  3
"Amdt_StdImp|Product Description: AutoCAD Mechanical|Company: Autodesk, Inc."
 90
     1024
 91
        1
280
     0
281
     0
  0
CLASS
  1
ACMWELDSTANDARDISO
  2
AcmWeldingStdISO
  3
"Amdt_StdImp|Product Description: AutoCAD Mechanical|Company: Autodesk, Inc."
 90
     1024
 91
        1
280
     0
281
     0
  0
CLASS
  1
ACMIDSTANDARDISO
  2
AcmIdStdISO
  3
"Amdt_StdImp|Product Description: AutoCAD Mechanical|Company: Autodesk, Inc."
 90
     1024
 91
        1
280
     0
281
     0
  0
CLASS
  1
ACMDATUMSTANDARDISO
  2
AcmDatumStdISO
  3
"Amdt_StdImp|Product Description: AutoCAD Mechanical|Company: Autodesk, Inc."
 90
     1024
 91
        1
280
     0
281
     0
  0
CLASS
  1
ACMBOMSTANDARDISO
  2
AcmBOMStdISO
  3
"Amdt_StdImp|Product Description: AutoCAD Mechanical|Company: Autodesk, Inc."
 90
     1024
 91
        1
280
     0
281
     0
  0
CLASS
  1
ACMDETAILSTANDARDISO
  2
AmdtDetailSymStdISO
  3
"Amdt_StdImp|Product Description: AutoCAD Mechanical|Company: Autodesk, Inc."
 90
     1024
 91
        1
280
     0
281
     0
  0
CLASS
  1
ACMSECTIONSTANDARDISO2001
  2
AmdtSectionSymStdISO2001
  3
"Amdt_StdImp|Product Description: AutoCAD Mechanical|Company: Autodesk, Inc."
 90
     1024
 91
        1
280
     0
281
     0
  0
CLASS
  1
ACMCENTERLINESTANDARDISO
  2
AmdtCenterLineStdISO
  3
"Amdt_StdImp|Product Description: AutoCAD Mechanical|Company: Autodesk, Inc."
 90
     1024
 91
        1
280
     0
281
     0
  0
CLASS
  1
ACMTHREADLINESTANDARDISO
  2
AmdtThreadLineStdISO
  3
"Amdt_StdImp|Product Description: AutoCAD Mechanical|Company: Autodesk, Inc."
 90
     1024
 91
        1
280
     0
281
     0
  0
CLASS
  1
ACMNOTESTANDARDISO
  2
AmdtNoteStdISO
  3
"Amdt_StdImp|Product Description: AutoCAD Mechanical|Company: Autodesk, Inc."
 90
     1024
 91
        1
280
     0
281
     0
  0
CLASS
  1
ACMTAPERSTANDARDISO
  2
AcmTaperStdISO
  3
"Amdt_StdImp|Product Description: AutoCAD Mechanical|Company: Autodesk, Inc."
 90
     1024
 91
        1
280
     0
281
     0
  0
CLASS
  1
ACMANOOTATIONVIEWSTANDARDISO
  2
AmdtAnViewStdISO
  3
"Amdt_StdImp|Product Description: AutoCAD Mechanical|Company: Autodesk, Inc."
 90
     1024
 91
        1
280
     0
281
     0
  0
CLASS
  1
ACAMGHOLECHARTSTDISO
  2
AcAmgHoleChartStdISO
  3
AmgDim|Product Description: AutoCAD Mechanical|Company: Autodesk, Inc.
 90
     1024
 91
        1
280
     0
281
     0
  0
CLASS
  1
EXACXREFPANELOBJECT
  2
ExAcXREFPanelObject
  3
EXAC_ESW
 90
     1025
 91
        0
280
     0
281
     0
  0
CLASS
  1
NPOCOLLECTION
  2
AcDbImpNonPersistentObjectsCollection
  3
ObjectDBX Classes
 90
     1153
 91
        0
280
     0
281
     0
  0
CLASS
  1
ACDBSTDPARTRES_ARC
  2
AcDbStdPartRes_Arc
  3
AmgStdPart|Product Description: AutoCAD Mechanical|Company: Autodesk, Inc.
 90
     1024
 91
        0
280
     0
281
     0
  0
CLASS
  1
AMDTNOTE
  2
AmdtNote
  3
"AcmSymBB|Product Description: AutoCAD Mechanical|Company: Autodesk, Inc."
 90
     4095
 91
        0
280
     0
281
     1
  0
CLASS
  1
PLOTSETTINGS
  2
AcDbPlotSettings
  3
ObjectDBX Classes
 90
        0
 91
        1
280
     0
281
     0
  0
CLASS
  1
ACMSTANDARDANSI
  2
AcmStandardANSI
  3
"Amdt_StdImp|Product Description: AutoCAD Mechanical|Company: Autodesk, Inc."
 90
     1024
 91
        0
280
     0
281
     0
  0
CLASS
  1
ACMSURFSTANDARDANSI
  2
AcmSurfTextStdANSI
  3
"Amdt_StdImp|Product Description: AutoCAD Mechanical|Company: Autodesk, Inc."
 90
     1024
 91
        0
280
     0
281
     0
  0
CLASS
  1
ACMFCFSTANDARDANSI
  2
AcmFCFStdANSI
  3
"Amdt_StdImp|Product Description: AutoCAD Mechanical|Company: Autodesk, Inc."
 90
     1024
 91
        0
280
     0
281
     0
  0
CLASS
  1
ACMWELDSTANDARDANSI
  2
AcmWeldingStdANSI
  3
"Amdt_StdImp|Product Description: AutoCAD Mechanical|Company: Autodesk, Inc."
 90
     1024
 91
        0
280
     0
281
     0
  0
CLASS
  1
ACMIDSTANDARDANSI
  2
AcmIdStdANSI
  3
"Amdt_StdImp|Product Description: AutoCAD Mechanical|Company: Autodesk, Inc."
 90
     1024
 91
        0
280
     0
281
     0
  0
CLASS
  1
ACMDATUMSTANDARDANSI
  2
AcmDatumStdANSI
  3
"Amdt_StdImp|Product Description: AutoCAD Mechanical|Company: Autodesk, Inc."
 90
     1024
 91
        0
280
     0
281
     0
  0
CLASS
  1
ACMBOMSTANDARDANSI
  2
AcmBOMStdANSI
  3
"Amdt_StdImp|Product Description: AutoCAD Mechanical|Company: Autodesk, Inc."
 90
     1024
 91
        0
280
     0
281
     0
  0
CLASS
  1
ACMDETAILSTANDARDANSI
  2
AmdtDetailSymStdANSI
  3
"Amdt_StdImp|Product Description: AutoCAD Mechanical|Company: Autodesk, Inc."
 90
     1024
 91
        0
280
     0
281
     0
  0
CLASS
  1
ACMSECTIONSTANDARDANSI
  2
AmdtSectionSymStdANSI
  3
"Amdt_StdImp|Product Description: AutoCAD Mechanical|Company: Autodesk, Inc."
 90
     1024
 91
        0
280
     0
281
     0
  0
CLASS
  1
ACMCENTERLINESTANDARDANSI
  2
AmdtCenterLineStdANSI
  3
"Amdt_StdImp|Product Description: AutoCAD Mechanical|Company: Autodesk, Inc."
 90
     1024
 91
        0
280
     0
281
     0
  0
CLASS
  1
ACMTHREADLINESTANDARDANSI
  2
AmdtThreadLineStdANSI
  3
"Amdt_StdImp|Product Description: AutoCAD Mechanical|Company: Autodesk, Inc."
 90
     1024
 91
        0
280
     0
281
     0
  0
CLASS
  1
ACMNOTESTANDARDANSI
  2
AmdtNoteStdANSI
  3
"Amdt_StdImp|Product Description: AutoCAD Mechanical|Company: Autodesk, Inc."
 90
     1024
 91
        0
280
     0
281
     0
  0
CLASS
  1
ACMTAPERSTANDARDANSI
  2
AcmTaperStdANSI
  3
"Amdt_StdImp|Product Description: AutoCAD Mechanical|Company: Autodesk, Inc."
 90
     1024
 91
        0
280
     0
281
     0
  0
CLASS
  1
ACMANOOTATIONVIEWSTANDARDANSI
  2
AmdtAnViewStdANSI
  3
"Amdt_StdImp|Product Description: AutoCAD Mechanical|Company: Autodesk, Inc."
 90
     1024
 91
        0
280
     0
281
     0
  0
CLASS
  1
ACAMGHOLECHARTSTDANSI
  2
AcAmgHoleChartStdANSI
  3
AmgDim|Product Description: AutoCAD Mechanical|Company: Autodesk, Inc.
 90
     1024
 91
        0
280
     0
281
     0
  0
CLASS
  1
ACMSTANDARDBSI
  2
AcmStandardBSI
  3
"Amdt_StdImp|Product Description: AutoCAD Mechanical|Company: Autodesk, Inc."
 90
     1024
 91
        0
280
     0
281
     0
  0
CLASS
  1
ACMSURFSTANDARDBSI2002
  2
AcmSurfTextStdBSI2002
  3
"Amdt_StdImp|Product Description: AutoCAD Mechanical|Company: Autodesk, Inc."
 90
     1024
 91
        0
280
     0
281
     0
  0
CLASS
  1
ACMFCFSTANDARDBSI
  2
AcmFCFStdBSI
  3
"Amdt_StdImp|Product Description: AutoCAD Mechanical|Company: Autodesk, Inc."
 90
     1024
 91
        0
280
     0
281
     0
  0
CLASS
  1
ACMWELDSTANDARDBSI
  2
AcmWeldingStdBSI
  3
"Amdt_StdImp|Product Description: AutoCAD Mechanical|Company: Autodesk, Inc."
 90
     1024
 91
        0
280
     0
281
     0
  0
CLASS
  1
ACMIDSTANDARDBSI
  2
AcmIdStdBSI
  3
"Amdt_StdImp|Product Description: AutoCAD Mechanical|Company: Autodesk, Inc."
 90
     1024
 91
        0
280
     0
281
     0
  0
CLASS
  1
ACMDATUMSTANDARDBSI
  2
AcmDatumStdBSI
  3
"Amdt_StdImp|Product Description: AutoCAD Mechanical|Company: Autodesk, Inc."
 90
     1024
 91
        0
280
     0
281
     0
  0
CLASS
  1
ACMBOMSTANDARDBSI
  2
AcmBOMStdBSI
  3
"Amdt_StdImp|Product Description: AutoCAD Mechanical|Company: Autodesk, Inc."
 90
     1024
 91
        0
280
     0
281
     0
  0
CLASS
  1
ACMDETAILSTANDARDBSI
  2
AmdtDetailSymStdBSI
  3
"Amdt_StdImp|Product Description: AutoCAD Mechanical|Company: Autodesk, Inc."
 90
     1024
 91
        0
280
     0
281
     0
  0
CLASS
  1
ACMSECTIONSTANDARDBSI2001
  2
AmdtSectionSymStdBSI2001
  3
"Amdt_StdImp|Product Description: AutoCAD Mechanical|Company: Autodesk, Inc."
 90
     1024
 91
        0
280
     0
281
     0
  0
CLASS
  1
ACMCENTERLINESTANDARDBSI
  2
AmdtCenterLineStdBSI
  3
"Amdt_StdImp|Product Description: AutoCAD Mechanical|Company: Autodesk, Inc."
 90
     1024
 91
        0
280
     0
281
     0
  0
CLASS
  1
ACMTHREADLINESTANDARDBSI
  2
AmdtThreadLineStdBSI
  3
"Amdt_StdImp|Product Description: AutoCAD Mechanical|Company: Autodesk, Inc."
 90
     1024
 91
        0
280
     0
281
     0
  0
CLASS
  1
ACMNOTESTANDARDBSI
  2
AmdtNoteStdBSI
  3
"Amdt_StdImp|Product Description: AutoCAD Mechanical|Company: Autodesk, Inc."
 90
     1024
 91
        0
280
     0
281
     0
  0
CLASS
  1
ACMTAPERSTANDARDBSI
  2
AcmTaperStdBSI
  3
"Amdt_StdImp|Product Description: AutoCAD Mechanical|Company: Autodesk, Inc."
 90
     1024
 91
        0
280
     0
281
     0
  0
CLASS
  1
ACMANOOTATIONVIEWSTANDARDBSI
  2
AmdtAnViewStdBSI
  3
"Amdt_StdImp|Product Description: AutoCAD Mechanical|Company: Autodesk, Inc."
 90
     1024
 91
        0
280
     0
281
     0
  0
CLASS
  1
ACAMGHOLECHARTSTDBSI
  2
AcAmgHoleChartStdBSI
  3
AmgDim|Product Description: AutoCAD Mechanical|Company: Autodesk, Inc.
 90
     1024
 91
        0
280
     0
281
     0
  0
CLASS
  1
AMDTEDGESTANDARDJIS
  2
AmdtEdgeStdJIS
  3
"Amdt_StdImp|Product Description: AutoCAD Mechanical|Company: Autodesk, Inc."
 90
     1024
 91
        0
280
     0
281
     0
  0
CLASS
  1
ACDB_BLKREFOBJECTCONTEXTDATA_CLASS
  2
AcDbBlkRefObjectContextData
  3
ObjectDBX Classes
 90
     1153
 91
        0
280
     0
281
     0
  0
CLASS
  1
ACMSURFSYM
  2
AcmSurfaceTexture
  3
"AcmSymBB|Product Description: AutoCAD Mechanical|Company: Autodesk, Inc."
 90
     4095
 91
        0
280
     0
281
     1
  0
CLASS
  1
ACDBDIMENSIONRES
  2
AcDbDimensionRes
  3
AcmSymBB|Product Description: AutoCAD Mechanical|Company: Autodesk, Inc.
 90
     1024
 91
        0
280
     0
281
     0
  0
CLASS
  1
ACDBCIRCARCRES
  2
AcDbCircArcRes
  3
AcGrefServices
 90
     1024
 91
        0
280
     0
281
     0
  0
CLASS
  1
AMDTACMWBLOCKBOMENTITY
  2
AmdtAcmWblockBomEntity
  3
"AcmSymBB|Product Description: AutoCAD Mechanical|Company: Autodesk, Inc."
 90
     4095
 91
        0
280
     0
281
     1
  0
CLASS
  1
ACDBOPPOLYLINERES
  2
AcDbOpPolylineRes
  3
AcGrefServices
 90
     1024
 91
        0
280
     0
281
     0
  0
CLASS
  1
ACMPICKOBJ
  2
AcmPickEnt
  3
"AcmSymBB|Product Description: AutoCAD Mechanical|Company: Autodesk, Inc."
 90
     1024
 91
        0
280
     0
281
     1
  0
CLASS
  1
ACMBALLOON
  2
AcmBalloon
  3
"AcmSymBB|Product Description: AutoCAD Mechanical|Company: Autodesk, Inc."
 90
     4095
 91
        0
280
     0
281
     1
  0
ENDSEC
  0
SECTION
  2
TABLES
  0
TABLE
  2
VPORT
  5
8
330
0
100
AcDbSymbolTable
 70
     1
  0
VPORT
  5
27A
330
8
100
AcDbSymbolTableRecord
100
AcDbViewportTableRecord
  2
*Active
 70
     0
 10
0.0
 20
0.0
 11
1.0
 21
1.0
 12
2617.820238499397
 22
1992.455074065856
 13
0.0
 23
0.0
 14
25.0
 24
25.0
 15
100.0
 25
100.0
 16
0.0
 26
0.0
 36
1.0
 17
0.0
 27
0.0
 37
0.0
 40
1297.148766294697
 41
1.571428571428571
 42
50.0
 43
0.0
 44
0.0
 50
0.0
 51
0.0
 71
    16
 72
 20000
 73
     1
 74
     3
 75
     0
 76
     0
 77
     0
 78
     0
281
     0
 65
     0
110
0.0
120
0.0
130
0.0
111
1.0
121
0.0
131
0.0
112
0.0
122
1.0
132
0.0
 79
     0
146
0.0
348
285
 60
     3
 61
     5
292
     1
282
     0
141
0.0
142
0.0
 63
   250
421
  3355443
  0
ENDTAB
  0
TABLE
  2
LTYPE
  5
5
330
0
100
AcDbSymbolTable
 70
    22
  0
LTYPE
  5
14
330
5
100
AcDbSymbolTableRecord
100
AcDbLinetypeTableRecord
  2
ByBlock
 70
     0
  3

 72
    65
 73
     0
 40
0.0
  0
LTYPE
  5
15
330
5
100
AcDbSymbolTableRecord
100
AcDbLinetypeTableRecord
  2
ByLayer
 70
     0
  3

 72
    65
 73
     0
 40
0.0
  0
LTYPE
  5
16
330
5
100
AcDbSymbolTableRecord
100
AcDbLinetypeTableRecord
  2
Continuous
 70
     0
  3
Solid line
 72
    65
 73
     0
 40
0.0
  0
LTYPE
  5
4D
330
5
100
AcDbSymbolTableRecord
100
AcDbLinetypeTableRecord
  2
AM_ISO02W050
 70
     0
  3
__ __ __ __ __ __ __ __ __ __ __ __ __ __ __
 72
    65
 73
     2
 40
7.5
 49
6.0
 74
     0
 49
-1.5
 74
     0
  0
LTYPE
  5
4E
330
5
100
AcDbSymbolTableRecord
100
AcDbLinetypeTableRecord
  2
AM_ISO08W050
 70
     0
  3
____ . ____ . ____ . ____ . ____ . ____ . ____
 72
    65
 73
     4
 40
18.0
 49
12.0
 74
     0
 49
-1.5
 74
     0
 49
3.0
 74
     0
 49
-1.5
 74
     0
  0
LTYPE
  5
4F
330
5
100
AcDbSymbolTableRecord
100
AcDbLinetypeTableRecord
  2
AM_ISO09W050
 70
     0
  3
_____ . . _____ . . _____ . . ____ .. ____
 72
    65
 73
     6
 40
22.5
 49
12.0
 74
     0
 49
-1.5
 74
     0
 49
3.0
 74
     0
 49
-1.5
 74
     0
 49
3.0
 74
     0
 49
-1.5
 74
     0
  0
LTYPE
  5
50
330
5
100
AcDbSymbolTableRecord
100
AcDbLinetypeTableRecord
  2
Amconstr
 70
     0
  3
_______________________
 72
    65
 73
     2
 40
9999.0
 49
9999.0
 74
     0
 49
0.0
 74
     0
  0
LTYPE
  5
51
330
5
100
AcDbSymbolTableRecord
100
AcDbLinetypeTableRecord
  2
AM_ISO08W050x2
 70
     0
  3
__ . __ . __ . __ . __ . __
 72
    65
 73
     4
 40
9.0
 49
6.0
 74
     0
 49
-0.75
 74
     0
 49
1.5
 74
     0
 49
-0.75
 74
     0
  0
LTYPE
  5
52
330
5
100
AcDbSymbolTableRecord
100
AcDbLinetypeTableRecord
  2
AM_ISO02W050x2
 70
     0
  3
 _ _ _ _ _ _ _ _ _ _ _ _
 72
    65
 73
     2
 40
3.75
 49
3.0
 74
     0
 49
-0.75
 74
     0
  0
LTYPE
  5
55
330
5
100
AcDbSymbolTableRecord
100
AcDbLinetypeTableRecord
  2
Amzigzag
 70
     0
  3
/\/-/\/-/\/-/\/-/\/-/\/
 72
    65
 73
     2
 40
11.0001
 49
0.0001
 74
     4
 75
   136
340
23D
 46
0.04
 50
0.0
 44
0.0
 45
0.0
 49
-11.0
 74
     0
  0
LTYPE
  5
65
330
5
100
AcDbSymbolTableRecord
100
AcDbLinetypeTableRecord
  2
CENTER
 70
     0
  3
__ . __
 72
    65
 73
     4
 40
7.0
 49
4.0
 74
     0
 49
-1.0
 74
     0
 49
1.0
 74
     0
 49
-1.0
 74
     0
  0
LTYPE
  5
E0
330
5
100
AcDbSymbolTableRecord
100
AcDbLinetypeTableRecord
  2
HIDDEN
 70
     0
  3
Hidden __ __ __ __ __ __ __ __ __ __ __ __ __ _
 72
    65
 73
     2
 40
9.524999999999996
 49
6.349999999999998
 74
     0
 49
-3.174999999999998
 74
     0
  0
LTYPE
  5
E1
330
5
100
AcDbSymbolTableRecord
100
AcDbLinetypeTableRecord
  2
PHANTOM2
 70
     0
  3
Phantom (.5x) ___ _ _ ___ _ _ ___ _ _ ___ _ _
 72
    65
 73
     6
 40
31.75
 49
15.875
 74
     0
 49
-3.174999999999998
 74
     0
 49
3.174999999999998
 74
     0
 49
-3.174999999999998
 74
     0
 49
3.174999999999998
 74
     0
 49
-3.174999999999998
 74
     0
  0
LTYPE
  5
5A2
330
5
100
AcDbSymbolTableRecord
100
AcDbLinetypeTableRecord
  2
ACJISWELD
 70
     0
  3
_ _ _ _ _
 72
    65
 73
     2
 40
2.0
 49
2.0
 74
     0
 49
-1.0
 74
     0
  0
LTYPE
  5
7824
330
5
100
AcDbSymbolTableRecord
100
AcDbLinetypeTableRecord
  2
ACISOWELD
 70
     0
  3
_ _ _ _ _
 72
    65
 73
     2
 40
2.0
 49
2.0
 74
     0
 49
-1.0
 74
     0
  0
LTYPE
  5
7825
330
5
100
AcDbSymbolTableRecord
100
AcDbLinetypeTableRecord
  2
ACISOTGB
 70
     0
  3
__ . . __ . .
 72
    65
 73
     6
 40
9.0
 49
4.0
 74
     0
 49
-1.0
 74
     0
 49
1.0
 74
     0
 49
-1.0
 74
     0
 49
1.0
 74
     0
 49
-1.0
 74
     0
  0
LTYPE
  5
7826
330
5
100
AcDbSymbolTableRecord
100
AcDbLinetypeTableRecord
  2
ACISOTGL
 70
     0
  3
_ _ _ _ _
 72
    65
 73
     2
 40
3.0
 49
2.0
 74
     0
 49
-1.0
 74
     0
  0
ENDTAB
  0
TABLE
  2
LAYER
  5
2
102
{ACAD_XDICTIONARY
360
BF
102
}
330
0
100
AcDbSymbolTable
 70
     9
  0
LAYER
  5
10
102
{ACAD_XDICTIONARY
360
29F7
102
}
330
2
100
AcDbSymbolTableRecord
100
AcDbLayerTableRecord
  2
0
 70
     0
 62
     7
  6
Continuous
370
    -3
390
F
347
27E
  0
LAYER
  5
81
102
{ACAD_XDICTIONARY
360
29F9
102
}
330
2
100
AcDbSymbolTableRecord
100
AcDbLayerTableRecord
  2
AM_0 外形線1
 70
     0
 62
     7
  6
Continuous
370
    25
390
F
347
27E
  0
LAYER
  5
427
330
2
100
AcDbSymbolTableRecord
100
AcDbLayerTableRecord
  2
Defpoints
 70
     0
 62
     7
  6
Continuous
290
     0
370
    -3
390
F
347
27E
  0
LAYER
  5
3FF3
330
2
100
AcDbSymbolTableRecord
100
AcDbLayerTableRecord
  2
AM_5 寸法線
 70
     0
 62
     3
  6
Continuous
370
    13
390
F
347
27E
1001
AcAecLayerStandard
1000

1000

  0
LAYER
  5
3FF4
330
2
100
AcDbSymbolTableRecord
100
AcDbLayerTableRecord
  2
AM_4 細線
 70
     0
 62
     4
  6
Continuous
370
    13
390
F
347
27E
1001
AcAecLayerStandard
1000

1000

  0
LAYER
  5
3FF5
330
2
100
AcDbSymbolTableRecord
100
AcDbLayerTableRecord
  2
AM_7 中心線
 70
     0
 62
     1
  6
AM_ISO08W050
370
    13
390
F
347
27E
1001
AcAecLayerStandard
1000

1000

  0
LAYER
  5
3FF6
330
2
100
AcDbSymbolTableRecord
100
AcDbLayerTableRecord
  2
AM_3 隠れ線
 70
     0
 62
     8
  6
ACJISWELD
370
    13
390
F
347
27E
1001
AcAecLayerStandard
1000

1000

  0
LAYER
  5
3FF9
330
2
100
AcDbSymbolTableRecord
100
AcDbLayerTableRecord
  2
AM_6 文字
 70
     0
 62
     2
  6
Continuous
370
    13
390
F
347
27E
1001
AcAecLayerStandard
1000

1000

  0
ENDTAB
  0
TABLE
  2
STYLE
  5
3
330
0
100
AcDbSymbolTable
 70
    10
  0
STYLE
  5
11
330
3
100
AcDbSymbolTableRecord
100
AcDbTextStyleTableRecord
  2
STANDARD
 70
     0
 40
0.0
 41
1.0
 50
0.0
 71
     0
 42
25.0
  3
ISOCP.SHX
  4
EXTFONT.SHX
  0
STYLE
  5
23D
330
3
100
AcDbSymbolTableRecord
100
AcDbTextStyleTableRecord
  2

 70
     1
 40
0.0
 41
1.0
 50
0.0
 71
     0
 42
2.5
  3
genltshp.shx
  4

  0
STYLE
  5
5D5
330
3
100
AcDbSymbolTableRecord
100
AcDbTextStyleTableRecord
  2
SEISA
 70
     0
 40
0.0
 41
0.9
 50
0.0
 71
     0
 42
25.0
  3
romans.shx
  4
extfont2.shx
  0
STYLE
  5
7814
330
3
100
AcDbSymbolTableRecord
100
AcDbTextStyleTableRecord
  2
ACISOTS
 70
     0
 40
1.0
 41
1.0
 50
0.0
 71
     0
 42
25.0
  3
isocp.shx
  4
extfont.shx
  0
STYLE
  5
7823
330
3
100
AcDbSymbolTableRecord
100
AcDbTextStyleTableRecord
  2
ACISOGDT
 70
     0
 40
0.0
 41
1.0
 50
0.0
 71
     0
 42
25.0
  3
amgdt.shx
  4

  0
ENDTAB
  0
TABLE
  2
VIEW
  5
6
330
0
100
AcDbSymbolTable
 70
     6
  0
VIEW
  5
91B
330
6
100
AcDbSymbolTableRecord
100
AcDbViewTableRecord
  2
AM_VIEW1
 70
     0
 40
1485.0
 10
1435.621923096604
 20
2227.500003693821
 41
2871.243842364532
 11
0.0
 21
0.0
 31
1.0
 12
0.0
 22
0.0
 32
0.0
 42
50.0
 43
0.0
 44
0.0
 50
0.0
 71
    16
281
     0
 72
     0
 73
     0
  0
VIEW
  5
91C
330
6
100
AcDbSymbolTableRecord
100
AcDbViewTableRecord
  2
AM_VIEW2
 70
     0
 40
1485.0
 10
2764.378080732073
 20
2227.500003693821
 41
2871.243842364532
 11
0.0
 21
0.0
 31
1.0
 12
0.0
 22
0.0
 32
0.0
 42
50.0
 43
0.0
 44
0.0
 50
0.0
 71
    16
281
     0
 72
     0
 73
     0
  0
VIEW
  5
91D
330
6
100
AcDbSymbolTableRecord
100
AcDbViewTableRecord
  2
AM_VIEW3
 70
     0
 40
1485.0
 10
1435.621923096604
 20
742.5000036938206
 41
2871.243842364532
 11
0.0
 21
0.0
 31
1.0
 12
0.0
 22
0.0
 32
0.0
 42
50.0
 43
0.0
 44
0.0
 50
0.0
 71
    16
281
     0
 72
     0
 73
     0
  0
VIEW
  5
91E
330
6
100
AcDbSymbolTableRecord
100
AcDbViewTableRecord
  2
AM_VIEW4
 70
     0
 40
1485.0
 10
2764.378080732073
 20
742.5000036938206
 41
2871.243842364532
 11
0.0
 21
0.0
 31
1.0
 12
0.0
 22
0.0
 32
0.0
 42
50.0
 43
0.0
 44
0.0
 50
0.0
 71
    16
281
     0
 72
     0
 73
     0
  0
VIEW
  5
91F
330
6
100
AcDbSymbolTableRecord
100
AcDbViewTableRecord
  2
AM_VIEW5
 70
     0
 40
1485.0
 10
2100.000001914338
 20
1485.000003693821
 41
2871.243842364532
 11
0.0
 21
0.0
 31
1.0
 12
0.0
 22
0.0
 32
0.0
 42
50.0
 43
0.0
 44
0.0
 50
0.0
 71
    16
281
     0
 72
     0
 73
     0
  0
VIEW
  5
920
330
6
100
AcDbSymbolTableRecord
100
AcDbViewTableRecord
  2
AM_VIEW6
 70
     0
 40
2969.9703
 10
2100.000001914338
 20
1485.00000369382
 41
5742.430259852215
 11
0.0
 21
0.0
 31
1.0
 12
0.0
 22
0.0
 32
0.0
 42
50.0
 43
0.0
 44
0.0
 50
0.0
 71
    16
281
     0
 72
     0
 73
     0
  0
ENDTAB
  0
TABLE
  2
UCS
  5
7
330
0
100
AcDbSymbolTable
 70
     0
  0
ENDTAB
  0
TABLE
  2
APPID
  5
9
330
0
100
AcDbSymbolTable
 70
   397
  0
APPID
  5
12
330
9
100
AcDbSymbolTableRecord
100
AcDbRegAppTableRecord
  2
ACAD
 70
     0
  0
APPID
  5
30
330
9
100
AcDbSymbolTableRecord
100
AcDbRegAppTableRecord
  2
MCAD_NO_VIS
 70
     0
  0
APPID
  5
31
330
9
100
AcDbSymbolTableRecord
100
AcDbRegAppTableRecord
  2
ACAD_TEMP_GRAPHIC
 70
     0
  0
APPID
  5
44
330
9
100
AcDbSymbolTableRecord
100
AcDbRegAppTableRecord
  2
ACATTRIBSERVICES
 70
     0
  0
APPID
  5
F6
330
9
100
AcDbSymbolTableRecord
100
AcDbRegAppTableRecord
  2
AD_DRAW
 70
     0
  0
APPID
  5
114
330
9
100
AcDbSymbolTableRecord
100
AcDbRegAppTableRecord
  2
DESIGNERASSEMBLIES
 70
     0
  0
APPID
  5
118
330
9
100
AcDbSymbolTableRecord
100
AcDbRegAppTableRecord
  2
ACADM_DIM_EDIT
 70
     0
  0
APPID
  5
119
330
9
100
AcDbSymbolTableRecord
100
AcDbRegAppTableRecord
  2
AMDT_DM_ADJ
 70
     0
  0
APPID
  5
1AF
330
9
100
AcDbSymbolTableRecord
100
AcDbRegAppTableRecord
  2
ACAD_DSTYLE_DIMARC_LENGTH_SYMBOL
 70
     0
  0
APPID
  5
1B0
330
9
100
AcDbSymbolTableRecord
100
AcDbRegAppTableRecord
  2
ACAD_DSTYLE_DIMJOGGED_JOGANGLE_SYMBOL
 70
     0
  0
APPID
  5
2D7
330
9
100
AcDbSymbolTableRecord
100
AcDbRegAppTableRecord
  2
ACAD_MLEADERVER
 70
     0
  0
APPID
  5
355
330
9
100
AcDbSymbolTableRecord
100
AcDbRegAppTableRecord
  2
AcadAnnoPO
 70
     0
  0
APPID
  5
428
330
9
100
AcDbSymbolTableRecord
100
AcDbRegAppTableRecord
  2
ACAD_DSTYLE_DIMTEXT_FILL
 70
     0
  0
APPID
  5
429
330
9
100
AcDbSymbolTableRecord
100
AcDbRegAppTableRecord
  2
GENIUS_GENSCREG_15
 70
     0
  0
APPID
  5
42A
330
9
100
AcDbSymbolTableRecord
100
AcDbRegAppTableRecord
  2
GENIUS_GENOBJ-N-SDF_13
 70
     0
  0
APPID
  5
42B
330
9
100
AcDbSymbolTableRecord
100
AcDbRegAppTableRecord
  2
GENIUS_GENODEF_13
 70
     0
  0
APPID
  5
42C
330
9
100
AcDbSymbolTableRecord
100
AcDbRegAppTableRecord
  2
ACAD_EXEMPT_FROM_CAD_STANDARDS
 70
     0
  0
APPID
  5
42D
330
9
100
AcDbSymbolTableRecord
100
AcDbRegAppTableRecord
  2
AcAecLayerStandard
 70
     0
  0
APPID
  5
42E
330
9
100
AcDbSymbolTableRecord
100
AcDbRegAppTableRecord
  2
GENIUS_GENOBJ-N-CEN_13
 70
     0
  0
APPID
  5
42F
330
9
100
AcDbSymbolTableRecord
100
AcDbRegAppTableRecord
  2
GENIUS_GENCEN_19
 70
     0
  0
APPID
  5
430
330
9
100
AcDbSymbolTableRecord
100
AcDbRegAppTableRecord
  2
ACAD_DSTYLE_DIMINSPECT
 70
     0
  0
APPID
  5
431
330
9
100
AcDbSymbolTableRecord
100
AcDbRegAppTableRecord
  2
GENIUS_AMGTXT_16
 70
     0
  0
APPID
  5
432
330
9
100
AcDbSymbolTableRecord
100
AcDbRegAppTableRecord
  2
GENIUS_GENFIL_13
 70
     0
  0
APPID
  5
433
330
9
100
AcDbSymbolTableRecord
100
AcDbRegAppTableRecord
  2
GENIUS_GENOLIS_13
 70
     0
  0
APPID
  5
434
330
9
100
AcDbSymbolTableRecord
100
AcDbRegAppTableRecord
  2
GENIUS_GENOBJ-N-CHA_13
 70
     0
  0
APPID
  5
435
330
9
100
AcDbSymbolTableRecord
100
AcDbRegAppTableRecord
  2
GENIUS_GENOENT_13
 70
     0
  0
APPID
  5
436
330
9
100
AcDbSymbolTableRecord
100
AcDbRegAppTableRecord
  2
GENIUS_GENOREF_13
 70
     0
  0
APPID
  5
437
330
9
100
AcDbSymbolTableRecord
100
AcDbRegAppTableRecord
  2
GENIUS_GENOBJ-N-FIL_13
 70
     0
  0
APPID
  5
438
330
9
100
AcDbSymbolTableRecord
100
AcDbRegAppTableRecord
  2
GEVID1208829536
 70
     0
  0
APPID
  5
439
330
9
100
AcDbSymbolTableRecord
100
AcDbRegAppTableRecord
  2
GEVDC
 70
     0
  0
APPID
  5
43A
330
9
100
AcDbSymbolTableRecord
100
AcDbRegAppTableRecord
  2
GEVRADREF
 70
     0
  0
APPID
  5
43B
330
9
100
AcDbSymbolTableRecord
100
AcDbRegAppTableRecord
  2
GENIUS_GENBH_13
 70
     0
  0
APPID
  5
43C
330
9
100
AcDbSymbolTableRecord
100
AcDbRegAppTableRecord
  2
GENIUS_GENOBJ-NBEHI-BHF_13
 70
     0
  0
APPID
  5
43D
330
9
100
AcDbSymbolTableRecord
100
AcDbRegAppTableRecord
  2
GENIUS_GENOBJ-NBEHI-BHB_13
 70
     0
  0
APPID
  5
43E
330
9
100
AcDbSymbolTableRecord
100
AcDbRegAppTableRecord
  2
GEVID1208829537
 70
     0
  0
APPID
  5
43F
330
9
100
AcDbSymbolTableRecord
100
AcDbRegAppTableRecord
  2
ACAD_DSTYLE_DIMJAG
 70
     0
  0
APPID
  5
440
330
9
100
AcDbSymbolTableRecord
100
AcDbRegAppTableRecord
  2
ACAD_DSTYLE_DIMTALN
 70
     0
  0
APPID
  5
441
330
9
100
AcDbSymbolTableRecord
100
AcDbRegAppTableRecord
  2
AMG_2DHIDE
 70
     0
  0
APPID
  5
442
330
9
100
AcDbSymbolTableRecord
100
AcDbRegAppTableRecord
  2
AMG_2DSTRUCT_BTR
 70
     0
  0
APPID
  5
443
330
9
100
AcDbSymbolTableRecord
100
AcDbRegAppTableRecord
  2
GEVID1208845772
 70
     0
  0
APPID
  5
444
330
9
100
AcDbSymbolTableRecord
100
AcDbRegAppTableRecord
  2
GEVID1208845773
 70
     0
  0
APPID
  5
445
330
9
100
AcDbSymbolTableRecord
100
AcDbRegAppTableRecord
  2
ACADM_2DVIEW_IGN_NOTIFY
 70
     0
  0
APPID
  5
446
330
9
100
AcDbSymbolTableRecord
100
AcDbRegAppTableRecord
  2
GEVID1208845774
 70
     0
  0
APPID
  5
447
330
9
100
AcDbSymbolTableRecord
100
AcDbRegAppTableRecord
  2
GEVID1208845775
 70
     0
  0
APPID
  5
448
330
9
100
AcDbSymbolTableRecord
100
AcDbRegAppTableRecord
  2
GEVID1208845776
 70
     0
  0
APPID
  5
449
330
9
100
AcDbSymbolTableRecord
100
AcDbRegAppTableRecord
  2
GEVID1208845777
 70
     0
  0
APPID
  5
44A
330
9
100
AcDbSymbolTableRecord
100
AcDbRegAppTableRecord
  2
GEVCON
 70
     0
  0
APPID
  5
44B
330
9
100
AcDbSymbolTableRecord
100
AcDbRegAppTableRecord
  2
GENIUS_GENOBJ-F-SCPASSM_13
 70
     0
  0
APPID
  5
44C
330
9
100
AcDbSymbolTableRecord
100
AcDbRegAppTableRecord
  2
GEVID1208845778
 70
     0
  0
APPID
  5
44D
330
9
100
AcDbSymbolTableRecord
100
AcDbRegAppTableRecord
  2
GEVID1208845779
 70
     0
  0
APPID
  5
44E
330
9
100
AcDbSymbolTableRecord
100
AcDbRegAppTableRecord
  2
GEVID1208845780
 70
     0
  0
APPID
  5
44F
330
9
100
AcDbSymbolTableRecord
100
AcDbRegAppTableRecord
  2
GEVID1208845781
 70
     0
  0
APPID
  5
450
330
9
100
AcDbSymbolTableRecord
100
AcDbRegAppTableRecord
  2
GEVID1208845782
 70
     0
  0
APPID
  5
451
330
9
100
AcDbSymbolTableRecord
100
AcDbRegAppTableRecord
  2
GEVID1208845783
 70
     0
  0
APPID
  5
452
330
9
100
AcDbSymbolTableRecord
100
AcDbRegAppTableRecord
  2
GEVID1208845784
 70
     0
  0
APPID
  5
453
330
9
100
AcDbSymbolTableRecord
100
AcDbRegAppTableRecord
  2
GEVID1208845785
 70
     0
  0
APPID
  5
454
330
9
100
AcDbSymbolTableRecord
100
AcDbRegAppTableRecord
  2
GEVID1208845787
 70
     0
  0
APPID
  5
455
330
9
100
AcDbSymbolTableRecord
100
AcDbRegAppTableRecord
  2
GEVID1208845788
 70
     0
  0
APPID
  5
456
330
9
100
AcDbSymbolTableRecord
100
AcDbRegAppTableRecord
  2
GEVID1208845789
 70
     0
  0
APPID
  5
457
330
9
100
AcDbSymbolTableRecord
100
AcDbRegAppTableRecord
  2
GEVID1208845790
 70
     0
  0
APPID
  5
458
330
9
100
AcDbSymbolTableRecord
100
AcDbRegAppTableRecord
  2
GEVID1208845791
 70
     0
  0
APPID
  5
459
330
9
100
AcDbSymbolTableRecord
100
AcDbRegAppTableRecord
  2
GEVID1208845792
 70
     0
  0
APPID
  5
45A
330
9
100
AcDbSymbolTableRecord
100
AcDbRegAppTableRecord
  2
GEVID1208845793
 70
     0
  0
APPID
  5
45B
330
9
100
AcDbSymbolTableRecord
100
AcDbRegAppTableRecord
  2
GEVID1208845794
 70
     0
  0
APPID
  5
45C
330
9
100
AcDbSymbolTableRecord
100
AcDbRegAppTableRecord
  2
GEVID1208845795
 70
     0
  0
APPID
  5
45D
330
9
100
AcDbSymbolTableRecord
100
AcDbRegAppTableRecord
  2
GEVID1208845796
 70
     0
  0
APPID
  5
45E
330
9
100
AcDbSymbolTableRecord
100
AcDbRegAppTableRecord
  2
GEVID1208845797
 70
     0
  0
APPID
  5
45F
330
9
100
AcDbSymbolTableRecord
100
AcDbRegAppTableRecord
  2
GEVID1208845798
 70
     0
  0
APPID
  5
460
330
9
100
AcDbSymbolTableRecord
100
AcDbRegAppTableRecord
  2
GEVID1208845799
 70
     0
  0
APPID
  5
461
330
9
100
AcDbSymbolTableRecord
100
AcDbRegAppTableRecord
  2
GEVID1208845800
 70
     0
  0
APPID
  5
462
330
9
100
AcDbSymbolTableRecord
100
AcDbRegAppTableRecord
  2
GEVID1208845801
 70
     0
  0
APPID
  5
463
330
9
100
AcDbSymbolTableRecord
100
AcDbRegAppTableRecord
  2
GEVID1208845802
 70
     0
  0
APPID
  5
464
330
9
100
AcDbSymbolTableRecord
100
AcDbRegAppTableRecord
  2
GENIUS_GENOBJ-N-DIM_13
 70
     0
  0
APPID
  5
465
330
9
100
AcDbSymbolTableRecord
100
AcDbRegAppTableRecord
  2
GENIUS_GENDIM_13
 70
     0
  0
APPID
  5
466
330
9
100
AcDbSymbolTableRecord
100
AcDbRegAppTableRecord
  2
GENIUS_GENDIMSH_14
 70
     0
  0
APPID
  5
467
330
9
100
AcDbSymbolTableRecord
100
AcDbRegAppTableRecord
  2
GEVID1208845803
 70
     0
  0
APPID
  5
468
330
9
100
AcDbSymbolTableRecord
100
AcDbRegAppTableRecord
  2
GEVID1208845804
 70
     0
  0
APPID
  5
469
330
9
100
AcDbSymbolTableRecord
100
AcDbRegAppTableRecord
  2
GEVID1208845805
 70
     0
  0
APPID
  5
46A
330
9
100
AcDbSymbolTableRecord
100
AcDbRegAppTableRecord
  2
GEVID1208845806
 70
     0
  0
APPID
  5
46B
330
9
100
AcDbSymbolTableRecord
100
AcDbRegAppTableRecord
  2
GEVID1208845807
 70
     0
  0
APPID
  5
46C
330
9
100
AcDbSymbolTableRecord
100
AcDbRegAppTableRecord
  2
GEVID1208845808
 70
     0
  0
APPID
  5
46D
330
9
100
AcDbSymbolTableRecord
100
AcDbRegAppTableRecord
  2
GEVID1208845809
 70
     0
  0
APPID
  5
46E
330
9
100
AcDbSymbolTableRecord
100
AcDbRegAppTableRecord
  2
GEVID1208845810
 70
     0
  0
APPID
  5
46F
330
9
100
AcDbSymbolTableRecord
100
AcDbRegAppTableRecord
  2
GEVID1208845811
 70
     0
  0
APPID
  5
470
330
9
100
AcDbSymbolTableRecord
100
AcDbRegAppTableRecord
  2
GEVID1208845813
 70
     0
  0
APPID
  5
471
330
9
100
AcDbSymbolTableRecord
100
AcDbRegAppTableRecord
  2
GEVID1208845814
 70
     0
  0
APPID
  5
472
330
9
100
AcDbSymbolTableRecord
100
AcDbRegAppTableRecord
  2
GEVID1208845815
 70
     0
  0
APPID
  5
473
330
9
100
AcDbSymbolTableRecord
100
AcDbRegAppTableRecord
  2
GEVID1208845816
 70
     0
  0
APPID
  5
474
330
9
100
AcDbSymbolTableRecord
100
AcDbRegAppTableRecord
  2
GEVID1208845817
 70
     0
  0
APPID
  5
475
330
9
100
AcDbSymbolTableRecord
100
AcDbRegAppTableRecord
  2
GEVID1208845818
 70
     0
  0
APPID
  5
476
330
9
100
AcDbSymbolTableRecord
100
AcDbRegAppTableRecord
  2
GEVID1208845819
 70
     0
  0
APPID
  5
477
330
9
100
AcDbSymbolTableRecord
100
AcDbRegAppTableRecord
  2
GEVID1208845820
 70
     0
  0
APPID
  5
478
330
9
100
AcDbSymbolTableRecord
100
AcDbRegAppTableRecord
  2
GENIUS_GENOBJ-F-SHCL_13
 70
     0
  0
APPID
  5
479
330
9
100
AcDbSymbolTableRecord
100
AcDbRegAppTableRecord
  2
GENIUS_GEFMSH_13
 70
     0
  0
APPID
  5
47A
330
9
100
AcDbSymbolTableRecord
100
AcDbRegAppTableRecord
  2
GENIUS_GENOBJ-F-SHCA_13
 70
     0
  0
APPID
  5
47B
330
9
100
AcDbSymbolTableRecord
100
AcDbRegAppTableRecord
  2
GENIUS_GEFSH_13
 70
     0
  0
APPID
  5
47C
330
9
100
AcDbSymbolTableRecord
100
AcDbRegAppTableRecord
  2
GENIUS_GEFSHP_13
 70
     0
  0
APPID
  5
47D
330
9
100
AcDbSymbolTableRecord
100
AcDbRegAppTableRecord
  2
GENIUS_GEFSHP0_13
 70
     0
  0
APPID
  5
47E
330
9
100
AcDbSymbolTableRecord
100
AcDbRegAppTableRecord
  2
GENIUS_GEFSH0_13
 70
     0
  0
APPID
  5
47F
330
9
100
AcDbSymbolTableRecord
100
AcDbRegAppTableRecord
  2
GENIUS_GEFSHP1_13
 70
     0
  0
APPID
  5
480
330
9
100
AcDbSymbolTableRecord
100
AcDbRegAppTableRecord
  2
GENIUS_GEFSH1_13
 70
     0
  0
APPID
  5
481
330
9
100
AcDbSymbolTableRecord
100
AcDbRegAppTableRecord
  2
GEVID1208866337
 70
     0
  0
APPID
  5
482
330
9
100
AcDbSymbolTableRecord
100
AcDbRegAppTableRecord
  2
GEVID1208866338
 70
     0
  0
APPID
  5
483
330
9
100
AcDbSymbolTableRecord
100
AcDbRegAppTableRecord
  2
GEVID1208866339
 70
     0
  0
APPID
  5
484
330
9
100
AcDbSymbolTableRecord
100
AcDbRegAppTableRecord
  2
GEVID1208866340
 70
     0
  0
APPID
  5
485
330
9
100
AcDbSymbolTableRecord
100
AcDbRegAppTableRecord
  2
GEVID1208866341
 70
     0
  0
APPID
  5
486
330
9
100
AcDbSymbolTableRecord
100
AcDbRegAppTableRecord
  2
ACAD_PSEXT
 70
     0
  0
APPID
  5
487
330
9
100
AcDbSymbolTableRecord
100
AcDbRegAppTableRecord
  2
GEVID1208866342
 70
     0
  0
APPID
  5
488
330
9
100
AcDbSymbolTableRecord
100
AcDbRegAppTableRecord
  2
GEVID1208913836
 70
     0
  0
APPID
  5
489
330
9
100
AcDbSymbolTableRecord
100
AcDbRegAppTableRecord
  2
GEVID1208913837
 70
     0
  0
APPID
  5
48A
330
9
100
AcDbSymbolTableRecord
100
AcDbRegAppTableRecord
  2
GEVID1208913838
 70
     0
  0
APPID
  5
48B
330
9
100
AcDbSymbolTableRecord
100
AcDbRegAppTableRecord
  2
GEVID1208913839
 70
     0
  0
APPID
  5
48C
330
9
100
AcDbSymbolTableRecord
100
AcDbRegAppTableRecord
  2
GENIUS_GENDTOL_13
 70
     0
  0
APPID
  5
48D
330
9
100
AcDbSymbolTableRecord
100
AcDbRegAppTableRecord
  2
GEVID1208928889
 70
     0
  0
APPID
  5
48E
330
9
100
AcDbSymbolTableRecord
100
AcDbRegAppTableRecord
  2
GEVID1208928890
 70
     0
  0
APPID
  5
48F
330
9
100
AcDbSymbolTableRecord
100
AcDbRegAppTableRecord
  2
GEVID1208928891
 70
     0
  0
APPID
  5
490
330
9
100
AcDbSymbolTableRecord
100
AcDbRegAppTableRecord
  2
GEVID1208928892
 70
     0
  0
APPID
  5
491
330
9
100
AcDbSymbolTableRecord
100
AcDbRegAppTableRecord
  2
GEVID1208933827
 70
     0
  0
APPID
  5
492
330
9
100
AcDbSymbolTableRecord
100
AcDbRegAppTableRecord
  2
GEVID1208933829
 70
     0
  0
APPID
  5
493
330
9
100
AcDbSymbolTableRecord
100
AcDbRegAppTableRecord
  2
GEVID1208933830
 70
     0
  0
APPID
  5
494
330
9
100
AcDbSymbolTableRecord
100
AcDbRegAppTableRecord
  2
GEVID1208933831
 70
     0
  0
APPID
  5
495
330
9
100
AcDbSymbolTableRecord
100
AcDbRegAppTableRecord
  2
GEVID1208933832
 70
     0
  0
APPID
  5
496
330
9
100
AcDbSymbolTableRecord
100
AcDbRegAppTableRecord
  2
GEVID1208933833
 70
     0
  0
APPID
  5
497
330
9
100
AcDbSymbolTableRecord
100
AcDbRegAppTableRecord
  2
GEVID1208933834
 70
     0
  0
APPID
  5
498
330
9
100
AcDbSymbolTableRecord
100
AcDbRegAppTableRecord
  2
GEVID1208933835
 70
     0
  0
APPID
  5
499
330
9
100
AcDbSymbolTableRecord
100
AcDbRegAppTableRecord
  2
GEVID1208933836
 70
     0
  0
APPID
  5
49A
330
9
100
AcDbSymbolTableRecord
100
AcDbRegAppTableRecord
  2
GEVID1208933837
 70
     0
  0
APPID
  5
49B
330
9
100
AcDbSymbolTableRecord
100
AcDbRegAppTableRecord
  2
GEVID1208933838
 70
     0
  0
APPID
  5
49C
330
9
100
AcDbSymbolTableRecord
100
AcDbRegAppTableRecord
  2
GEVID1208933840
 70
     0
  0
APPID
  5
49D
330
9
100
AcDbSymbolTableRecord
100
AcDbRegAppTableRecord
  2
GEVID1208933842
 70
     0
  0
APPID
  5
49E
330
9
100
AcDbSymbolTableRecord
100
AcDbRegAppTableRecord
  2
GEVID1208933843
 70
     0
  0
APPID
  5
49F
330
9
100
AcDbSymbolTableRecord
100
AcDbRegAppTableRecord
  2
GEVID1208933844
 70
     0
  0
APPID
  5
4A0
330
9
100
AcDbSymbolTableRecord
100
AcDbRegAppTableRecord
  2
GEVID1208933845
 70
     0
  0
APPID
  5
4A1
330
9
100
AcDbSymbolTableRecord
100
AcDbRegAppTableRecord
  2
GEVID1208933846
 70
     0
  0
APPID
  5
4A2
330
9
100
AcDbSymbolTableRecord
100
AcDbRegAppTableRecord
  2
GEVID1208933847
 70
     0
  0
APPID
  5
4A3
330
9
100
AcDbSymbolTableRecord
100
AcDbRegAppTableRecord
  2
GEVID1208933848
 70
     0
  0
APPID
  5
4A4
330
9
100
AcDbSymbolTableRecord
100
AcDbRegAppTableRecord
  2
GEVID1208933849
 70
     0
  0
APPID
  5
4A5
330
9
100
AcDbSymbolTableRecord
100
AcDbRegAppTableRecord
  2
GEVID1208933850
 70
     0
  0
APPID
  5
4A6
330
9
100
AcDbSymbolTableRecord
100
AcDbRegAppTableRecord
  2
GEVID1208933851
 70
     0
  0
APPID
  5
4A7
330
9
100
AcDbSymbolTableRecord
100
AcDbRegAppTableRecord
  2
GEVID1208933852
 70
     0
  0
APPID
  5
4A8
330
9
100
AcDbSymbolTableRecord
100
AcDbRegAppTableRecord
  2
GEVID1208933853
 70
     0
  0
APPID
  5
4A9
330
9
100
AcDbSymbolTableRecord
100
AcDbRegAppTableRecord
  2
GEVID1208933854
 70
     0
  0
APPID
  5
4AA
330
9
100
AcDbSymbolTableRecord
100
AcDbRegAppTableRecord
  2
GEVID1208933855
 70
     0
  0
APPID
  5
4AB
330
9
100
AcDbSymbolTableRecord
100
AcDbRegAppTableRecord
  2
GEVID1208933856
 70
     0
  0
APPID
  5
4AC
330
9
100
AcDbSymbolTableRecord
100
AcDbRegAppTableRecord
  2
GEVID1208933857
 70
     0
  0
APPID
  5
4AD
330
9
100
AcDbSymbolTableRecord
100
AcDbRegAppTableRecord
  2
GEVID1208933858
 70
     0
  0
APPID
  5
4AE
330
9
100
AcDbSymbolTableRecord
100
AcDbRegAppTableRecord
  2
GEVID1208933859
 70
     0
  0
APPID
  5
4AF
330
9
100
AcDbSymbolTableRecord
100
AcDbRegAppTableRecord
  2
GEVID1208933860
 70
     0
  0
APPID
  5
4B0
330
9
100
AcDbSymbolTableRecord
100
AcDbRegAppTableRecord
  2
GEVID1208933861
 70
     0
  0
APPID
  5
4B1
330
9
100
AcDbSymbolTableRecord
100
AcDbRegAppTableRecord
  2
GEVID1208933862
 70
     0
  0
APPID
  5
4B2
330
9
100
AcDbSymbolTableRecord
100
AcDbRegAppTableRecord
  2
GEVID1208933863
 70
     0
  0
APPID
  5
4B3
330
9
100
AcDbSymbolTableRecord
100
AcDbRegAppTableRecord
  2
GEVID1208933864
 70
     0
  0
APPID
  5
4B4
330
9
100
AcDbSymbolTableRecord
100
AcDbRegAppTableRecord
  2
GEVID1208933865
 70
     0
  0
APPID
  5
4B5
330
9
100
AcDbSymbolTableRecord
100
AcDbRegAppTableRecord
  2
GEVID1208933866
 70
     0
  0
APPID
  5
4B6
330
9
100
AcDbSymbolTableRecord
100
AcDbRegAppTableRecord
  2
GEVID1208933867
 70
     0
  0
APPID
  5
4B7
330
9
100
AcDbSymbolTableRecord
100
AcDbRegAppTableRecord
  2
GEVID1208933868
 70
     0
  0
APPID
  5
4B8
330
9
100
AcDbSymbolTableRecord
100
AcDbRegAppTableRecord
  2
GEVID1208933869
 70
     0
  0
APPID
  5
4B9
330
9
100
AcDbSymbolTableRecord
100
AcDbRegAppTableRecord
  2
GEVID1208933870
 70
     0
  0
APPID
  5
4BA
330
9
100
AcDbSymbolTableRecord
100
AcDbRegAppTableRecord
  2
GEVID1208933871
 70
     0
  0
APPID
  5
4BB
330
9
100
AcDbSymbolTableRecord
100
AcDbRegAppTableRecord
  2
GEVID1208933872
 70
     0
  0
APPID
  5
4BC
330
9
100
AcDbSymbolTableRecord
100
AcDbRegAppTableRecord
  2
GEVID1208933873
 70
     0
  0
APPID
  5
4BD
330
9
100
AcDbSymbolTableRecord
100
AcDbRegAppTableRecord
  2
GEVID1208933874
 70
     0
  0
APPID
  5
4BE
330
9
100
AcDbSymbolTableRecord
100
AcDbRegAppTableRecord
  2
GEVID1208933875
 70
     0
  0
APPID
  5
4BF
330
9
100
AcDbSymbolTableRecord
100
AcDbRegAppTableRecord
  2
GEVID1208933876
 70
     0
  0
APPID
  5
4C0
330
9
100
AcDbSymbolTableRecord
100
AcDbRegAppTableRecord
  2
ACAD_DSTYLE_DIMRADIAL_EXTENSION
 70
     0
  0
APPID
  5
4C1
330
9
100
AcDbSymbolTableRecord
100
AcDbRegAppTableRecord
  2
GEVID1208999100
 70
     0
  0
APPID
  5
4C2
330
9
100
AcDbSymbolTableRecord
100
AcDbRegAppTableRecord
  2
GEVID1208999101
 70
     0
  0
APPID
  5
4C3
330
9
100
AcDbSymbolTableRecord
100
AcDbRegAppTableRecord
  2
GEVID1208999102
 70
     0
  0
APPID
  5
4C4
330
9
100
AcDbSymbolTableRecord
100
AcDbRegAppTableRecord
  2
GEVID1208999103
 70
     0
  0
APPID
  5
4C5
330
9
100
AcDbSymbolTableRecord
100
AcDbRegAppTableRecord
  2
GEVID1208999105
 70
     0
  0
APPID
  5
4C6
330
9
100
AcDbSymbolTableRecord
100
AcDbRegAppTableRecord
  2
GEVID1208999106
 70
     0
  0
APPID
  5
4C7
330
9
100
AcDbSymbolTableRecord
100
AcDbRegAppTableRecord
  2
GEVID1208999108
 70
     0
  0
APPID
  5
4C8
330
9
100
AcDbSymbolTableRecord
100
AcDbRegAppTableRecord
  2
GEVID1208999109
 70
     0
  0
APPID
  5
4C9
330
9
100
AcDbSymbolTableRecord
100
AcDbRegAppTableRecord
  2
GEVID1208999110
 70
     0
  0
APPID
  5
4CA
330
9
100
AcDbSymbolTableRecord
100
AcDbRegAppTableRecord
  2
GEVID1208999111
 70
     0
  0
APPID
  5
4CB
330
9
100
AcDbSymbolTableRecord
100
AcDbRegAppTableRecord
  2
GEVID1208999112
 70
     0
  0
APPID
  5
4CC
330
9
100
AcDbSymbolTableRecord
100
AcDbRegAppTableRecord
  2
GEVID1208999113
 70
     0
  0
APPID
  5
4CD
330
9
100
AcDbSymbolTableRecord
100
AcDbRegAppTableRecord
  2
GEVID1208999114
 70
     0
  0
APPID
  5
4CE
330
9
100
AcDbSymbolTableRecord
100
AcDbRegAppTableRecord
  2
GEVID1210218799
 70
     0
  0
APPID
  5
4CF
330
9
100
AcDbSymbolTableRecord
100
AcDbRegAppTableRecord
  2
GEVID1210218800
 70
     0
  0
APPID
  5
4D0
330
9
100
AcDbSymbolTableRecord
100
AcDbRegAppTableRecord
  2
GENIUS_GEFWELD_13
 70
     0
  0
APPID
  5
4D1
330
9
100
AcDbSymbolTableRecord
100
AcDbRegAppTableRecord
  2
GENIUS_GENOBJ-F-WELS_13
 70
     0
  0
APPID
  5
4D2
330
9
100
AcDbSymbolTableRecord
100
AcDbRegAppTableRecord
  2
AcadAnnotative
 70
     0
  0
APPID
  5
4D3
330
9
100
AcDbSymbolTableRecord
100
AcDbRegAppTableRecord
  2
GEVID1210145339
 70
     0
  0
APPID
  5
4D4
330
9
100
AcDbSymbolTableRecord
100
AcDbRegAppTableRecord
  2
ACAD_DSTYLE_DIMBREAK
 70
     0
  0
APPID
  5
4D5
330
9
100
AcDbSymbolTableRecord
100
AcDbRegAppTableRecord
  2
GEVID1210145340
 70
     0
  0
APPID
  5
4D6
330
9
100
AcDbSymbolTableRecord
100
AcDbRegAppTableRecord
  2
GEVID1210145341
 70
     0
  0
APPID
  5
4D7
330
9
100
AcDbSymbolTableRecord
100
AcDbRegAppTableRecord
  2
GEVID1210145342
 70
     0
  0
APPID
  5
4D8
330
9
100
AcDbSymbolTableRecord
100
AcDbRegAppTableRecord
  2
GEVID1210145343
 70
     0
  0
APPID
  5
4D9
330
9
100
AcDbSymbolTableRecord
100
AcDbRegAppTableRecord
  2
GEVID1210145344
 70
     0
  0
APPID
  5
4DA
330
9
100
AcDbSymbolTableRecord
100
AcDbRegAppTableRecord
  2
GEVID1210145345
 70
     0
  0
APPID
  5
4DB
330
9
100
AcDbSymbolTableRecord
100
AcDbRegAppTableRecord
  2
GEVID1210152816
 70
     0
  0
APPID
  5
4DC
330
9
100
AcDbSymbolTableRecord
100
AcDbRegAppTableRecord
  2
GEVID1210153850
 70
     0
  0
APPID
  5
4DD
330
9
100
AcDbSymbolTableRecord
100
AcDbRegAppTableRecord
  2
GEVID1210153851
 70
     0
  0
APPID
  5
4DE
330
9
100
AcDbSymbolTableRecord
100
AcDbRegAppTableRecord
  2
GEVID1210153852
 70
     0
  0
APPID
  5
4DF
330
9
100
AcDbSymbolTableRecord
100
AcDbRegAppTableRecord
  2
GEVID1210549898
 70
     0
  0
APPID
  5
4E0
330
9
100
AcDbSymbolTableRecord
100
AcDbRegAppTableRecord
  2
GEVID1210549899
 70
     0
  0
APPID
  5
4E1
330
9
100
AcDbSymbolTableRecord
100
AcDbRegAppTableRecord
  2
GEVID1210549900
 70
     0
  0
APPID
  5
4E2
330
9
100
AcDbSymbolTableRecord
100
AcDbRegAppTableRecord
  2
GEVID1210549901
 70
     0
  0
APPID
  5
4E3
330
9
100
AcDbSymbolTableRecord
100
AcDbRegAppTableRecord
  2
GEVID1210549902
 70
     0
  0
APPID
  5
4E4
330
9
100
AcDbSymbolTableRecord
100
AcDbRegAppTableRecord
  2
GEVID1210549903
 70
     0
  0
APPID
  5
4E5
330
9
100
AcDbSymbolTableRecord
100
AcDbRegAppTableRecord
  2
GEVID1210549904
 70
     0
  0
APPID
  5
4E6
330
9
100
AcDbSymbolTableRecord
100
AcDbRegAppTableRecord
  2
GEVID1210549905
 70
     0
  0
APPID
  5
4E7
330
9
100
AcDbSymbolTableRecord
100
AcDbRegAppTableRecord
  2
GEVID1210549906
 70
     0
  0
APPID
  5
4E8
330
9
100
AcDbSymbolTableRecord
100
AcDbRegAppTableRecord
  2
GEVID1210549907
 70
     0
  0
APPID
  5
4E9
330
9
100
AcDbSymbolTableRecord
100
AcDbRegAppTableRecord
  2
GEVID1210549908
 70
     0
  0
APPID
  5
4EA
330
9
100
AcDbSymbolTableRecord
100
AcDbRegAppTableRecord
  2
GEVID1210549909
 70
     0
  0
APPID
  5
4EB
330
9
100
AcDbSymbolTableRecord
100
AcDbRegAppTableRecord
  2
GEVID1210549910
 70
     0
  0
APPID
  5
4EC
330
9
100
AcDbSymbolTableRecord
100
AcDbRegAppTableRecord
  2
GEVID1210549911
 70
     0
  0
APPID
  5
4ED
330
9
100
AcDbSymbolTableRecord
100
AcDbRegAppTableRecord
  2
GEVID1210549912
 70
     0
  0
APPID
  5
4EE
330
9
100
AcDbSymbolTableRecord
100
AcDbRegAppTableRecord
  2
GEVID1210549913
 70
     0
  0
APPID
  5
4EF
330
9
100
AcDbSymbolTableRecord
100
AcDbRegAppTableRecord
  2
GEVID1210549914
 70
     0
  0
APPID
  5
4F0
330
9
100
AcDbSymbolTableRecord
100
AcDbRegAppTableRecord
  2
GEVID1210549915
 70
     0
  0
APPID
  5
4F1
330
9
100
AcDbSymbolTableRecord
100
AcDbRegAppTableRecord
  2
GEVID1210549916
 70
     0
  0
APPID
  5
4F2
330
9
100
AcDbSymbolTableRecord
100
AcDbRegAppTableRecord
  2
GEVID1210549917
 70
     0
  0
APPID
  5
4F3
330
9
100
AcDbSymbolTableRecord
100
AcDbRegAppTableRecord
  2
GENIUS_GENOBJ-N-CRS_13
 70
     0
  0
APPID
  5
4F4
330
9
100
AcDbSymbolTableRecord
100
AcDbRegAppTableRecord
  2
GEVID1210549918
 70
     0
  0
APPID
  5
4F5
330
9
100
AcDbSymbolTableRecord
100
AcDbRegAppTableRecord
  2
GENIUS_GENOBJ-N-CRC_13
 70
     0
  0
APPID
  5
4F6
330
9
100
AcDbSymbolTableRecord
100
AcDbRegAppTableRecord
  2
GENIUS_GENCRC_14
 70
     0
  0
APPID
  5
4F7
330
9
100
AcDbSymbolTableRecord
100
AcDbRegAppTableRecord
  2
GEVID1210549919
 70
     0
  0
APPID
  5
4F8
330
9
100
AcDbSymbolTableRecord
100
AcDbRegAppTableRecord
  2
GEVID1210549921
 70
     0
  0
APPID
  5
4F9
330
9
100
AcDbSymbolTableRecord
100
AcDbRegAppTableRecord
  2
GEVID1210549922
 70
     0
  0
APPID
  5
4FA
330
9
100
AcDbSymbolTableRecord
100
AcDbRegAppTableRecord
  2
GEVID1210635173
 70
     0
  0
APPID
  5
4FB
330
9
100
AcDbSymbolTableRecord
100
AcDbRegAppTableRecord
  2
GEVID1210635174
 70
     0
  0
APPID
  5
4FC
330
9
100
AcDbSymbolTableRecord
100
AcDbRegAppTableRecord
  2
GEVID1210635175
 70
     0
  0
APPID
  5
4FD
330
9
100
AcDbSymbolTableRecord
100
AcDbRegAppTableRecord
  2
GEVID1210635176
 70
     0
  0
APPID
  5
4FE
330
9
100
AcDbSymbolTableRecord
100
AcDbRegAppTableRecord
  2
GEVID1210635177
 70
     0
  0
APPID
  5
4FF
330
9
100
AcDbSymbolTableRecord
100
AcDbRegAppTableRecord
  2
GEVID1210635178
 70
     0
  0
APPID
  5
500
330
9
100
AcDbSymbolTableRecord
100
AcDbRegAppTableRecord
  2
GENIUS_GENIUS_GENBHEDTMP_13
 70
     0
  0
APPID
  5
501
330
9
100
AcDbSymbolTableRecord
100
AcDbRegAppTableRecord
  2
GEVID1210635179
 70
     0
  0
APPID
  5
502
330
9
100
AcDbSymbolTableRecord
100
AcDbRegAppTableRecord
  2
GEVID1210635180
 70
     0
  0
APPID
  5
503
330
9
100
AcDbSymbolTableRecord
100
AcDbRegAppTableRecord
  2
GEVID1210635181
 70
     0
  0
APPID
  5
504
330
9
100
AcDbSymbolTableRecord
100
AcDbRegAppTableRecord
  2
GEVID1210635182
 70
     0
  0
APPID
  5
505
330
9
100
AcDbSymbolTableRecord
100
AcDbRegAppTableRecord
  2
GEVID1210635184
 70
     0
  0
APPID
  5
506
330
9
100
AcDbSymbolTableRecord
100
AcDbRegAppTableRecord
  2
GEVID1210635185
 70
     0
  0
APPID
  5
507
330
9
100
AcDbSymbolTableRecord
100
AcDbRegAppTableRecord
  2
GEVID1210635186
 70
     0
  0
APPID
  5
508
330
9
100
AcDbSymbolTableRecord
100
AcDbRegAppTableRecord
  2
GEVID1210635187
 70
     0
  0
APPID
  5
509
330
9
100
AcDbSymbolTableRecord
100
AcDbRegAppTableRecord
  2
GEVID1210635188
 70
     0
  0
APPID
  5
50A
330
9
100
AcDbSymbolTableRecord
100
AcDbRegAppTableRecord
  2
GEVID1210635189
 70
     0
  0
APPID
  5
50B
330
9
100
AcDbSymbolTableRecord
100
AcDbRegAppTableRecord
  2
GEVID1210635190
 70
     0
  0
APPID
  5
50C
330
9
100
AcDbSymbolTableRecord
100
AcDbRegAppTableRecord
  2
GENIUS_GENREC_14
 70
     0
  0
APPID
  5
50D
330
9
100
AcDbSymbolTableRecord
100
AcDbRegAppTableRecord
  2
GENIUS_GENOBJ-N-REC_13
 70
     0
  0
APPID
  5
50E
330
9
100
AcDbSymbolTableRecord
100
AcDbRegAppTableRecord
  2
GEVID1210676655
 70
     0
  0
APPID
  5
50F
330
9
100
AcDbSymbolTableRecord
100
AcDbRegAppTableRecord
  2
GEVID1210676656
 70
     0
  0
APPID
  5
510
330
9
100
AcDbSymbolTableRecord
100
AcDbRegAppTableRecord
  2
GEVID1210676657
 70
     0
  0
APPID
  5
511
330
9
100
AcDbSymbolTableRecord
100
AcDbRegAppTableRecord
  2
GEVID1210676659
 70
     0
  0
APPID
  5
512
330
9
100
AcDbSymbolTableRecord
100
AcDbRegAppTableRecord
  2
GEVID1210676660
 70
     0
  0
APPID
  5
513
330
9
100
AcDbSymbolTableRecord
100
AcDbRegAppTableRecord
  2
GEVID1210676661
 70
     0
  0
APPID
  5
514
330
9
100
AcDbSymbolTableRecord
100
AcDbRegAppTableRecord
  2
GEVID1210676662
 70
     0
  0
APPID
  5
515
330
9
100
AcDbSymbolTableRecord
100
AcDbRegAppTableRecord
  2
GEVID1210721646
 70
     0
  0
APPID
  5
516
330
9
100
AcDbSymbolTableRecord
100
AcDbRegAppTableRecord
  2
GEVID1210721647
 70
     0
  0
APPID
  5
517
330
9
100
AcDbSymbolTableRecord
100
AcDbRegAppTableRecord
  2
GEVID1210721648
 70
     0
  0
APPID
  5
518
330
9
100
AcDbSymbolTableRecord
100
AcDbRegAppTableRecord
  2
GEVID1210721649
 70
     0
  0
APPID
  5
519
330
9
100
AcDbSymbolTableRecord
100
AcDbRegAppTableRecord
  2
GEVID1210721650
 70
     0
  0
APPID
  5
51A
330
9
100
AcDbSymbolTableRecord
100
AcDbRegAppTableRecord
  2
GEVID1210721651
 70
     0
  0
APPID
  5
51B
330
9
100
AcDbSymbolTableRecord
100
AcDbRegAppTableRecord
  2
GEVID1210721652
 70
     0
  0
APPID
  5
51C
330
9
100
AcDbSymbolTableRecord
100
AcDbRegAppTableRecord
  2
GEVID1210721653
 70
     0
  0
APPID
  5
51D
330
9
100
AcDbSymbolTableRecord
100
AcDbRegAppTableRecord
  2
PE_URL
 70
     0
  0
APPID
  5
51E
330
9
100
AcDbSymbolTableRecord
100
AcDbRegAppTableRecord
  2
GEVID1210825555
 70
     0
  0
APPID
  5
51F
330
9
100
AcDbSymbolTableRecord
100
AcDbRegAppTableRecord
  2
GEVID1210825556
 70
     0
  0
APPID
  5
520
330
9
100
AcDbSymbolTableRecord
100
AcDbRegAppTableRecord
  2
GEVID1210825557
 70
     0
  0
APPID
  5
521
330
9
100
AcDbSymbolTableRecord
100
AcDbRegAppTableRecord
  2
GEVID1210825558
 70
     0
  0
APPID
  5
522
330
9
100
AcDbSymbolTableRecord
100
AcDbRegAppTableRecord
  2
GEVID1210825559
 70
     0
  0
APPID
  5
523
330
9
100
AcDbSymbolTableRecord
100
AcDbRegAppTableRecord
  2
GEVID1210825560
 70
     0
  0
APPID
  5
524
330
9
100
AcDbSymbolTableRecord
100
AcDbRegAppTableRecord
  2
GEVID1210825561
 70
     0
  0
APPID
  5
525
330
9
100
AcDbSymbolTableRecord
100
AcDbRegAppTableRecord
  2
GEVID1210825562
 70
     0
  0
APPID
  5
526
330
9
100
AcDbSymbolTableRecord
100
AcDbRegAppTableRecord
  2
GEVID1210825563
 70
     0
  0
APPID
  5
527
330
9
100
AcDbSymbolTableRecord
100
AcDbRegAppTableRecord
  2
GEVID1210825564
 70
     0
  0
APPID
  5
528
330
9
100
AcDbSymbolTableRecord
100
AcDbRegAppTableRecord
  2
GEVID1210825565
 70
     0
  0
APPID
  5
529
330
9
100
AcDbSymbolTableRecord
100
AcDbRegAppTableRecord
  2
GEVID1210825566
 70
     0
  0
APPID
  5
52A
330
9
100
AcDbSymbolTableRecord
100
AcDbRegAppTableRecord
  2
GEVID1210825567
 70
     0
  0
APPID
  5
52B
330
9
100
AcDbSymbolTableRecord
100
AcDbRegAppTableRecord
  2
GENIUS_GENOBJ-N-ZOO_13
 70
     0
  0
APPID
  5
52C
330
9
100
AcDbSymbolTableRecord
100
AcDbRegAppTableRecord
  2
GENIUS_GENZOO_17
 70
     0
  0
APPID
  5
52D
330
9
100
AcDbSymbolTableRecord
100
AcDbRegAppTableRecord
  2
ACADANNOTATIVEDECOMPOSITION
 70
     0
  0
APPID
  5
52E
330
9
100
AcDbSymbolTableRecord
100
AcDbRegAppTableRecord
  2
GENIUS_GENOBJ-N-HTC_13
 70
     0
  0
APPID
  5
52F
330
9
100
AcDbSymbolTableRecord
100
AcDbRegAppTableRecord
  2
GENIUS_GENHATCH_13
 70
     0
  0
APPID
  5
530
330
9
100
AcDbSymbolTableRecord
100
AcDbRegAppTableRecord
  2
GEVID1210896020
 70
     0
  0
APPID
  5
531
330
9
100
AcDbSymbolTableRecord
100
AcDbRegAppTableRecord
  2
GEVID1210896021
 70
     0
  0
APPID
  5
532
330
9
100
AcDbSymbolTableRecord
100
AcDbRegAppTableRecord
  2
GEVID1209083540
 70
     0
  0
APPID
  5
533
330
9
100
AcDbSymbolTableRecord
100
AcDbRegAppTableRecord
  2
GEVMK
 70
     0
  0
APPID
  5
534
330
9
100
AcDbSymbolTableRecord
100
AcDbRegAppTableRecord
  2
GEVID1209083542
 70
     0
  0
APPID
  5
535
330
9
100
AcDbSymbolTableRecord
100
AcDbRegAppTableRecord
  2
GEVID1209083543
 70
     0
  0
APPID
  5
536
330
9
100
AcDbSymbolTableRecord
100
AcDbRegAppTableRecord
  2
GEVID1209083544
 70
     0
  0
APPID
  5
537
330
9
100
AcDbSymbolTableRecord
100
AcDbRegAppTableRecord
  2
GEVID1209083545
 70
     0
  0
APPID
  5
538
330
9
100
AcDbSymbolTableRecord
100
AcDbRegAppTableRecord
  2
GEVID1209083546
 70
     0
  0
APPID
  5
539
330
9
100
AcDbSymbolTableRecord
100
AcDbRegAppTableRecord
  2
GEVID1209083547
 70
     0
  0
APPID
  5
53A
330
9
100
AcDbSymbolTableRecord
100
AcDbRegAppTableRecord
  2
GEVID1209083548
 70
     0
  0
APPID
  5
53B
330
9
100
AcDbSymbolTableRecord
100
AcDbRegAppTableRecord
  2
GEVID1209083549
 70
     0
  0
APPID
  5
53C
330
9
100
AcDbSymbolTableRecord
100
AcDbRegAppTableRecord
  2
GEVID1209083550
 70
     0
  0
APPID
  5
53D
330
9
100
AcDbSymbolTableRecord
100
AcDbRegAppTableRecord
  2
GEVID1209083551
 70
     0
  0
APPID
  5
53E
330
9
100
AcDbSymbolTableRecord
100
AcDbRegAppTableRecord
  2
GEVID1209083552
 70
     0
  0
APPID
  5
53F
330
9
100
AcDbSymbolTableRecord
100
AcDbRegAppTableRecord
  2
GEVID1209083553
 70
     0
  0
APPID
  5
540
330
9
100
AcDbSymbolTableRecord
100
AcDbRegAppTableRecord
  2
GEVID1210896022
 70
     0
  0
APPID
  5
541
330
9
100
AcDbSymbolTableRecord
100
AcDbRegAppTableRecord
  2
GEVID1211508364
 70
     0
  0
APPID
  5
542
330
9
100
AcDbSymbolTableRecord
100
AcDbRegAppTableRecord
  2
GEVID1211414908
 70
     0
  0
APPID
  5
543
330
9
100
AcDbSymbolTableRecord
100
AcDbRegAppTableRecord
  2
GEVID1211414909
 70
     0
  0
APPID
  5
544
330
9
100
AcDbSymbolTableRecord
100
AcDbRegAppTableRecord
  2
GEVID1211508359
 70
     0
  0
APPID
  5
545
330
9
100
AcDbSymbolTableRecord
100
AcDbRegAppTableRecord
  2
GEVID1211508360
 70
     0
  0
APPID
  5
546
330
9
100
AcDbSymbolTableRecord
100
AcDbRegAppTableRecord
  2
GEVID1211508361
 70
     0
  0
APPID
  5
547
330
9
100
AcDbSymbolTableRecord
100
AcDbRegAppTableRecord
  2
GEVID1211508362
 70
     0
  0
APPID
  5
548
330
9
100
AcDbSymbolTableRecord
100
AcDbRegAppTableRecord
  2
GEVID1211508363
 70
     0
  0
APPID
  5
549
330
9
100
AcDbSymbolTableRecord
100
AcDbRegAppTableRecord
  2
GEVID1211878469
 70
     0
  0
APPID
  5
54A
330
9
100
AcDbSymbolTableRecord
100
AcDbRegAppTableRecord
  2
GEVID1212642819
 70
     0
  0
APPID
  5
54B
330
9
100
AcDbSymbolTableRecord
100
AcDbRegAppTableRecord
  2
GEVID1212642820
 70
     0
  0
APPID
  5
54C
330
9
100
AcDbSymbolTableRecord
100
AcDbRegAppTableRecord
  2
GEVID1212642821
 70
     0
  0
APPID
  5
54D
330
9
100
AcDbSymbolTableRecord
100
AcDbRegAppTableRecord
  2
GEVID1212642822
 70
     0
  0
APPID
  5
54E
330
9
100
AcDbSymbolTableRecord
100
AcDbRegAppTableRecord
  2
GEVID1212642823
 70
     0
  0
APPID
  5
54F
330
9
100
AcDbSymbolTableRecord
100
AcDbRegAppTableRecord
  2
GEVID1212642825
 70
     0
  0
APPID
  5
550
330
9
100
AcDbSymbolTableRecord
100
AcDbRegAppTableRecord
  2
GEVID1212642826
 70
     0
  0
APPID
  5
551
330
9
100
AcDbSymbolTableRecord
100
AcDbRegAppTableRecord
  2
GEVID1212642827
 70
     0
  0
APPID
  5
552
330
9
100
AcDbSymbolTableRecord
100
AcDbRegAppTableRecord
  2
GEVID1212642828
 70
     0
  0
APPID
  5
553
330
9
100
AcDbSymbolTableRecord
100
AcDbRegAppTableRecord
  2
GEVID1212642831
 70
     0
  0
APPID
  5
554
330
9
100
AcDbSymbolTableRecord
100
AcDbRegAppTableRecord
  2
GEVID1212642834
 70
     0
  0
APPID
  5
555
330
9
100
AcDbSymbolTableRecord
100
AcDbRegAppTableRecord
  2
GEVID1212642835
 70
     0
  0
APPID
  5
556
330
9
100
AcDbSymbolTableRecord
100
AcDbRegAppTableRecord
  2
GEVID1212642836
 70
     0
  0
APPID
  5
557
330
9
100
AcDbSymbolTableRecord
100
AcDbRegAppTableRecord
  2
GEVID1212642837
 70
     0
  0
APPID
  5
558
330
9
100
AcDbSymbolTableRecord
100
AcDbRegAppTableRecord
  2
GEVID1212642839
 70
     0
  0
APPID
  5
559
330
9
100
AcDbSymbolTableRecord
100
AcDbRegAppTableRecord
  2
GEVID1212642840
 70
     0
  0
APPID
  5
55A
330
9
100
AcDbSymbolTableRecord
100
AcDbRegAppTableRecord
  2
GEVID1212642841
 70
     0
  0
APPID
  5
55B
330
9
100
AcDbSymbolTableRecord
100
AcDbRegAppTableRecord
  2
GEVID1212655312
 70
     0
  0
APPID
  5
55C
330
9
100
AcDbSymbolTableRecord
100
AcDbRegAppTableRecord
  2
GEVID1212655313
 70
     0
  0
APPID
  5
55D
330
9
100
AcDbSymbolTableRecord
100
AcDbRegAppTableRecord
  2
GEVID1212656533
 70
     0
  0
APPID
  5
55E
330
9
100
AcDbSymbolTableRecord
100
AcDbRegAppTableRecord
  2
GEVID1212656534
 70
     0
  0
APPID
  5
55F
330
9
100
AcDbSymbolTableRecord
100
AcDbRegAppTableRecord
  2
GEVID1212656535
 70
     0
  0
APPID
  5
560
330
9
100
AcDbSymbolTableRecord
100
AcDbRegAppTableRecord
  2
GEVID1212656536
 70
     0
  0
APPID
  5
561
330
9
100
AcDbSymbolTableRecord
100
AcDbRegAppTableRecord
  2
GEVID1212656538
 70
     0
  0
APPID
  5
562
330
9
100
AcDbSymbolTableRecord
100
AcDbRegAppTableRecord
  2
GEVID1212656541
 70
     0
  0
APPID
  5
563
330
9
100
AcDbSymbolTableRecord
100
AcDbRegAppTableRecord
  2
GEVID1212656543
 70
     0
  0
APPID
  5
564
330
9
100
AcDbSymbolTableRecord
100
AcDbRegAppTableRecord
  2
GENIUS_GENOBJ-F-PFASSM_13
 70
     0
  0
APPID
  5
565
330
9
100
AcDbSymbolTableRecord
100
AcDbRegAppTableRecord
  2
GEVID1212656544
 70
     0
  0
APPID
  5
566
330
9
100
AcDbSymbolTableRecord
100
AcDbRegAppTableRecord
  2
GEVID1212656545
 70
     0
  0
APPID
  5
567
330
9
100
AcDbSymbolTableRecord
100
AcDbRegAppTableRecord
  2
GEVID1212656546
 70
     0
  0
APPID
  5
568
330
9
100
AcDbSymbolTableRecord
100
AcDbRegAppTableRecord
  2
GEVID1212656547
 70
     0
  0
APPID
  5
569
330
9
100
AcDbSymbolTableRecord
100
AcDbRegAppTableRecord
  2
GEVID1212656548
 70
     0
  0
APPID
  5
56A
330
9
100
AcDbSymbolTableRecord
100
AcDbRegAppTableRecord
  2
GEVID1212656549
 70
     0
  0
APPID
  5
56B
330
9
100
AcDbSymbolTableRecord
100
AcDbRegAppTableRecord
  2
GEVID1212656550
 70
     0
  0
APPID
  5
56C
330
9
100
AcDbSymbolTableRecord
100
AcDbRegAppTableRecord
  2
GEVID1212656552
 70
     0
  0
APPID
  5
56D
330
9
100
AcDbSymbolTableRecord
100
AcDbRegAppTableRecord
  2
GEVID1212656553
 70
     0
  0
APPID
  5
56E
330
9
100
AcDbSymbolTableRecord
100
AcDbRegAppTableRecord
  2
GEVID1212656554
 70
     0
  0
APPID
  5
56F
330
9
100
AcDbSymbolTableRecord
100
AcDbRegAppTableRecord
  2
GEVID1212656555
 70
     0
  0
APPID
  5
570
330
9
100
AcDbSymbolTableRecord
100
AcDbRegAppTableRecord
  2
GEVID1212656556
 70
     0
  0
APPID
  5
571
330
9
100
AcDbSymbolTableRecord
100
AcDbRegAppTableRecord
  2
GEVID1212656557
 70
     0
  0
APPID
  5
572
330
9
100
AcDbSymbolTableRecord
100
AcDbRegAppTableRecord
  2
GEVID1212656559
 70
     0
  0
APPID
  5
573
330
9
100
AcDbSymbolTableRecord
100
AcDbRegAppTableRecord
  2
GEVID1212656560
 70
     0
  0
APPID
  5
574
330
9
100
AcDbSymbolTableRecord
100
AcDbRegAppTableRecord
  2
GEVID1212656561
 70
     0
  0
APPID
  5
575
330
9
100
AcDbSymbolTableRecord
100
AcDbRegAppTableRecord
  2
GEVID1212656562
 70
     0
  0
APPID
  5
576
330
9
100
AcDbSymbolTableRecord
100
AcDbRegAppTableRecord
  2
GEVID1212656563
 70
     0
  0
APPID
  5
577
330
9
100
AcDbSymbolTableRecord
100
AcDbRegAppTableRecord
  2
GEVID1212711781
 70
     0
  0
APPID
  5
578
330
9
100
AcDbSymbolTableRecord
100
AcDbRegAppTableRecord
  2
GEVID1212711782
 70
     0
  0
APPID
  5
579
330
9
100
AcDbSymbolTableRecord
100
AcDbRegAppTableRecord
  2
GEVID1212711783
 70
     0
  0
APPID
  5
57A
330
9
100
AcDbSymbolTableRecord
100
AcDbRegAppTableRecord
  2
GEVID1212711784
 70
     0
  0
APPID
  5
57B
330
9
100
AcDbSymbolTableRecord
100
AcDbRegAppTableRecord
  2
GEVID1212711788
 70
     0
  0
APPID
  5
57C
330
9
100
AcDbSymbolTableRecord
100
AcDbRegAppTableRecord
  2
GEVID1212711789
 70
     0
  0
APPID
  5
57D
330
9
100
AcDbSymbolTableRecord
100
AcDbRegAppTableRecord
  2
GEVID1212711790
 70
     0
  0
APPID
  5
57E
330
9
100
AcDbSymbolTableRecord
100
AcDbRegAppTableRecord
  2
GEVID1212711791
 70
     0
  0
APPID
  5
57F
330
9
100
AcDbSymbolTableRecord
100
AcDbRegAppTableRecord
  2
GEVID1212711792
 70
     0
  0
APPID
  5
580
330
9
100
AcDbSymbolTableRecord
100
AcDbRegAppTableRecord
  2
GEVID1212711793
 70
     0
  0
APPID
  5
581
330
9
100
AcDbSymbolTableRecord
100
AcDbRegAppTableRecord
  2
GEVID1212711794
 70
     0
  0
APPID
  5
582
330
9
100
AcDbSymbolTableRecord
100
AcDbRegAppTableRecord
  2
GEVID1212711795
 70
     0
  0
APPID
  5
583
330
9
100
AcDbSymbolTableRecord
100
AcDbRegAppTableRecord
  2
GEVID1212711797
 70
     0
  0
APPID
  5
584
330
9
100
AcDbSymbolTableRecord
100
AcDbRegAppTableRecord
  2
GEVID1212711798
 70
     0
  0
APPID
  5
585
330
9
100
AcDbSymbolTableRecord
100
AcDbRegAppTableRecord
  2
GEVID1212711799
 70
     0
  0
APPID
  5
586
330
9
100
AcDbSymbolTableRecord
100
AcDbRegAppTableRecord
  2
GEVID1212711800
 70
     0
  0
APPID
  5
587
330
9
100
AcDbSymbolTableRecord
100
AcDbRegAppTableRecord
  2
GEVID1212711801
 70
     0
  0
APPID
  5
588
330
9
100
AcDbSymbolTableRecord
100
AcDbRegAppTableRecord
  2
GEVID1212711802
 70
     0
  0
APPID
  5
589
330
9
100
AcDbSymbolTableRecord
100
AcDbRegAppTableRecord
  2
GEVID1212711803
 70
     0
  0
APPID
  5
58A
330
9
100
AcDbSymbolTableRecord
100
AcDbRegAppTableRecord
  2
GEVID1212711804
 70
     0
  0
APPID
  5
58B
330
9
100
AcDbSymbolTableRecord
100
AcDbRegAppTableRecord
  2
GEVID1212711805
 70
     0
  0
APPID
  5
58C
330
9
100
AcDbSymbolTableRecord
100
AcDbRegAppTableRecord
  2
GEVID1212711806
 70
     0
  0
APPID
  5
58D
330
9
100
AcDbSymbolTableRecord
100
AcDbRegAppTableRecord
  2
GEVID1212711807
 70
     0
  0
APPID
  5
58E
330
9
100
AcDbSymbolTableRecord
100
AcDbRegAppTableRecord
  2
GEVID1212711808
 70
     0
  0
APPID
  5
58F
330
9
100
AcDbSymbolTableRecord
100
AcDbRegAppTableRecord
  2
GEVID1212711809
 70
     0
  0
APPID
  5
590
330
9
100
AcDbSymbolTableRecord
100
AcDbRegAppTableRecord
  2
GEVID1212711810
 70
     0
  0
APPID
  5
591
330
9
100
AcDbSymbolTableRecord
100
AcDbRegAppTableRecord
  2
GEVID1212711811
 70
     0
  0
APPID
  5
90A
330
9
100
AcDbSymbolTableRecord
100
AcDbRegAppTableRecord
  2
GENIUS_GENTRA_14
 70
     0
  0
APPID
  5
919
330
9
100
AcDbSymbolTableRecord
100
AcDbRegAppTableRecord
  2
GENIUS_GENOBJ-N-TIT_13
 70
     0
  0
APPID
  5
91A
330
9
100
AcDbSymbolTableRecord
100
AcDbRegAppTableRecord
  2
GENIUS_GENTITLE_13
 70
     0
  0
APPID
  5
949
330
9
100
AcDbSymbolTableRecord
100
AcDbRegAppTableRecord
  2
GENIUS_GENBLLY_14
 70
     0
  0
APPID
  5
DDD
330
9
100
AcDbSymbolTableRecord
100
AcDbRegAppTableRecord
  2
GEVID1213165152
 70
     0
  0
APPID
  5
12F9
330
9
100
AcDbSymbolTableRecord
100
AcDbRegAppTableRecord
  2
AcDbDynamicBlockTrueName
 70
     0
  0
APPID
  5
12FA
330
9
100
AcDbSymbolTableRecord
100
AcDbRegAppTableRecord
  2
ACDBBLOCKREPETAG
 70
     0
  0
APPID
  5
1C15
330
9
100
AcDbSymbolTableRecord
100
AcDbRegAppTableRecord
  2
GEVID1214872427
 70
     0
  0
APPID
  5
1C2A
330
9
100
AcDbSymbolTableRecord
100
AcDbRegAppTableRecord
  2
GEVID1214872428
 70
     0
  0
APPID
  5
1C2F
330
9
100
AcDbSymbolTableRecord
100
AcDbRegAppTableRecord
  2
GEVID1214872429
 70
     0
  0
APPID
  5
1C33
330
9
100
AcDbSymbolTableRecord
100
AcDbRegAppTableRecord
  2
GEVID1214872430
 70
     0
  0
APPID
  5
1C3F
330
9
100
AcDbSymbolTableRecord
100
AcDbRegAppTableRecord
  2
GEVID1214872432
 70
     0
  0
APPID
  5
1C4E
330
9
100
AcDbSymbolTableRecord
100
AcDbRegAppTableRecord
  2
GEVID1214872433
 70
     0
  0
APPID
  5
20DC
330
9
100
AcDbSymbolTableRecord
100
AcDbRegAppTableRecord
  2
AcDbDynamicBlockGUID
 70
     0
  0
APPID
  5
20FD
330
9
100
AcDbSymbolTableRecord
100
AcDbRegAppTableRecord
  2
GENIUS_GENOBJ-N-REV_13
 70
     0
  0
APPID
  5
20FE
330
9
100
AcDbSymbolTableRecord
100
AcDbRegAppTableRecord
  2
GENIUS_GENOBJ-N-RSSYM_13
 70
     0
  0
APPID
  5
20FF
330
9
100
AcDbSymbolTableRecord
100
AcDbRegAppTableRecord
  2
GENIUS_GENSYMENT_13
 70
     0
  0
APPID
  5
2100
330
9
100
AcDbSymbolTableRecord
100
AcDbRegAppTableRecord
  2
GENIUS_GENSCSYM_13
 70
     0
  0
APPID
  5
5B03
330
9
100
AcDbSymbolTableRecord
100
AcDbRegAppTableRecord
  2
GEVID1239848176
 70
     0
  0
APPID
  5
5B07
330
9
100
AcDbSymbolTableRecord
100
AcDbRegAppTableRecord
  2
GEVID1239848177
 70
     0
  0
APPID
  5
60BB
330
9
100
AcDbSymbolTableRecord
100
AcDbRegAppTableRecord
  2
GEVID1239848178
 70
     0
  0
APPID
  5
60BF
330
9
100
AcDbSymbolTableRecord
100
AcDbRegAppTableRecord
  2
GEVID1239848179
 70
     0
  0
APPID
  5
63D3
330
9
100
AcDbSymbolTableRecord
100
AcDbRegAppTableRecord
  2
GEVID1239848180
 70
     0
  0
ENDTAB
  0
TABLE
  2
DIMSTYLE
  5
A
330
0
100
AcDbSymbolTable
 70
    29
100
AcDbDimStyleTable
 71
     1
340
5AB
  0
DIMSTYLE
105
5AB
330
A
100
AcDbSymbolTableRecord
100
AcDbDimStyleTableRecord
  2
SEISA
 70
     0
  4
"
 40
10.0
 41
2.5
 42
0.625
 43
10.0
 44
0.625
 47
0.1
 48
0.1
 73
     0
 74
     0
 77
     3
 78
     8
 79
     2
 90
     1
140
3.5
141
0.0
143
0.0393701
146
0.71
147
1.5
172
     1
176
     3
177
     3
178
     3
271
     2
272
     2
283
     0
286
     8
340
5D5
341
69
342
69
371
    -1
372
    -1
1001
ACAD_DSTYLE_DIMJAG
1070
   388
1040
1.5
1001
ACAD_DSTYLE_DIMTALN
1070
   392
1070
     1
  0
DIMSTYLE
105
5E9
102
{ACAD_REACTORS
330
5B5E
330
5B99
330
5BE3
330
5BFB
330
5C17
330
5CD4
330
5CF5
330
5D0D
330
5DA5
330
5DC1
330
5DFE
330
5E8C
330
74AB
330
74D5
102
}
330
A
100
AcDbSymbolTableRecord
100
AcDbDimStyleTableRecord
  2
SEISA$0
 70
     0
  4
"
 40
10.0
 41
2.5
 42
0.625
 43
10.0
 44
0.625
 47
0.1
 48
0.1
 73
     0
 74
     0
 77
     3
 78
     8
 79
     2
 90
     1
140
3.5
141
0.0
143
0.0393701
146
0.71
147
1.5
172
     1
176
     3
177
     3
178
     3
271
     2
272
     2
283
     0
286
     8
340
5D5
341
69
342
69
371
    -1
372
    -1
  0
DIMSTYLE
105
782F
330
A
100
AcDbSymbolTableRecord
100
AcDbDimStyleTableRecord
  2
AM_ISO
 70
     0
  4
"
 41
2.5
 42
1.0
 43
10.0
 44
1.0
 47
0.1
 48
0.1
 73
     0
 74
     0
 77
     1
 78
     8
 79
     2
 90
     1
140
3.5
141
0.0
143
0.0393701
146
0.71
147
1.5
172
     1
176
   256
177
   256
178
     2
271
     2
272
     3
274
     4
283
     0
284
     8
340
11
371
    -1
372
    -1
  0
DIMSTYLE
105
7830
330
A
100
AcDbSymbolTableRecord
100
AcDbDimStyleTableRecord
  2
AM_ISO$3
 70
     0
  4
"
 41
2.5
 42
1.0
 43
10.0
 44
1.0
 47
0.1
 48
0.1
 73
     0
 77
     1
 78
     8
 79
     2
 90
     1
140
3.5
141
0.0
143
0.0393701
146
0.71
147
1.5
176
   256
177
   256
178
     2
271
     2
272
     3
274
     4
283
     0
284
     8
288
     1
289
     0
340
11
371
    -1
372
    -1
  0
DIMSTYLE
105
7831
330
A
100
AcDbSymbolTableRecord
100
AcDbDimStyleTableRecord
  2
AM_ISO$4
 70
     0
  4
"
 41
2.5
 42
1.0
 43
10.0
 44
1.0
 47
0.1
 48
0.1
 73
     0
 77
     1
 78
     8
 79
     2
 90
     1
140
3.5
141
0.0
143
0.0393701
146
0.71
147
1.5
176
   256
177
   256
178
     2
271
     2
272
     3
274
     4
283
     0
284
     8
288
     1
289
     0
340
11
371
    -1
372
    -1
  0
DIMSTYLE
105
7832
330
A
100
AcDbSymbolTableRecord
100
AcDbDimStyleTableRecord
  2
AM_ISO$6
 70
     0
  4
"
 41
2.5
 42
1.0
 43
10.0
 44
1.0
 47
0.1
 48
0.1
 73
     0
 74
     0
 78
     8
 79
     2
 90
     1
140
3.5
141
0.0
143
0.0393701
146
0.71
147
1.5
172
     1
176
   256
177
   256
178
     2
271
     2
272
     3
274
     4
283
     0
284
     8
340
11
371
    -1
372
    -1
  0
DIMSTYLE
105
7833
330
A
100
AcDbSymbolTableRecord
100
AcDbDimStyleTableRecord
  2
AM_ISO$7
 70
     0
  4
"
 41
2.5
 42
1.0
 43
10.0
 44
1.0
 47
0.1
 48
0.1
 73
     0
 74
     0
 77
     1
 78
     8
 79
     2
 90
     1
140
5.0
141
0.0
143
0.0393701
146
0.71
147
1.5
172
     1
176
   256
177
   256
178
     2
271
     2
272
     3
274
     4
283
     0
284
     8
340
11
371
    -1
372
    -1
  0
DIMSTYLE
105
7834
330
A
100
AcDbSymbolTableRecord
100
AcDbDimStyleTableRecord
  2
AM_ISO$SF
 70
     0
  4
"
 41
2.5
 42
1.0
 43
10.0
 44
1.0
 47
0.1
 48
0.1
 73
     0
 74
     0
 75
     1
 76
     1
 77
     1
 78
     8
 79
     2
 90
     1
140
3.5
141
0.0
143
0.0393701
146
0.71
147
1.5
172
     1
176
   256
177
   256
178
     2
271
     2
272
     3
274
     4
283
     0
284
     8
340
11
371
    -1
372
    -1
  0
DIMSTYLE
105
7835
330
A
100
AcDbSymbolTableRecord
100
AcDbDimStyleTableRecord
  2
AM_ISO$SH
 70
     0
  4
"
 41
2.5
 42
1.0
 43
10.0
 44
1.0
 47
0.1
 48
0.1
 73
     0
 74
     0
 75
     1
 76
     1
 77
     1
 78
     8
 79
     2
 90
     1
140
3.5
141
0.0
143
0.0393701
144
2.0
146
0.71
147
1.5
172
     1
173
     1
176
   256
177
   256
178
     2
271
     2
272
     3
274
     4
283
     0
284
     8
340
11
343
74
371
    -1
372
    -1
  0
ENDTAB
  0
TABLE
  2
BLOCK_RECORD
  5
1
330
0
100
AcDbSymbolTable
 70
    32
  0
BLOCK_RECORD
  5
1F
102
{ACAD_XDICTIONARY
360
82
102
}
330
1
100
AcDbSymbolTableRecord
100
AcDbBlockTableRecord
  2
*Model_Space
340
22
 70
     0
280
     1
281
     0
  0
BLOCK_RECORD
  5
1B
330
1
100
AcDbSymbolTableRecord
100
AcDbBlockTableRecord
  2
*Paper_Space
340
1E
 70
     0
280
     1
281
     0
  0
BLOCK_RECORD
  5
23
330
1
100
AcDbSymbolTableRecord
100
AcDbBlockTableRecord
  2
*Paper_Space0
340
26
 70
     0
280
     1
281
     0
  0
BLOCK_RECORD
  5
69
330
1
100
AcDbSymbolTableRecord
100
AcDbBlockTableRecord
  2
_Open30
340
0
102
{BLKREFS
331
6782
331
6783
331
67A2
331
67A3
331
67AA
331
67AB
331
67BA
331
67BB
331
67C3
331
67C4
331
67CC
331
67CD
331
67D7
331
67E2
331
680E
331
680F
331
71CD
331
71CE
331
71D6
331
71D7
331
7653
331
7654
331
7724
331
7725
331
772E
331
772F
102
}
 70
     0
280
     1
281
     0
  0
BLOCK_RECORD
  5
74
330
1
100
AcDbSymbolTableRecord
100
AcDbBlockTableRecord
  2
GENAXEH
340
0
 70
     0
280
     1
281
     0
  0
BLOCK_RECORD
  5
3F27
330
1
100
AcDbSymbolTableRecord
100
AcDbBlockTableRecord
  2
GENDOT
340
0
102
{BLKREFS
331
67E1
102
}
 70
     0
280
     1
281
     0
  0
BLOCK_RECORD
  5
510C
102
{ACAD_XDICTIONARY
360
5137
102
}
330
1
100
AcDbSymbolTableRecord
100
AcDbBlockTableRecord
  2
ロッカクアナツキプラグA R3／4
340
0
310
2800000020000000200000000100080000000000000400000000000000000000000000000000000000000000000080000080000000808000800000008000800080800000C0C0C000C0DCC000F0CAA6000020400000206000002080000020A0000020C0000020E00000400000004020000040400000406000004080000040A0
310
000040C0000040E00000600000006020000060400000606000006080000060A0000060C0000060E00000800000008020000080400000806000008080000080A0000080C0000080E00000A0000000A0200000A0400000A0600000A0800000A0A00000A0C00000A0E00000C0000000C0200000C0400000C0600000C0800000C0
310
A00000C0C00000C0E00000E0000000E0200000E0400000E0600000E0800000E0A00000E0C00000E0E00040000000400020004000400040006000400080004000A0004000C0004000E00040200000402020004020400040206000402080004020A0004020C0004020E000404000004040200040404000404060004040800040
310
40A0004040C0004040E00040600000406020004060400040606000406080004060A0004060C0004060E00040800000408020004080400040806000408080004080A0004080C0004080E00040A0000040A0200040A0400040A0600040A0800040A0A00040A0C00040A0E00040C0000040C0200040C0400040C0600040C08000
310
40C0A00040C0C00040C0E00040E0000040E0200040E0400040E0600040E0800040E0A00040E0C00040E0E00080000000800020008000400080006000800080008000A0008000C0008000E00080200000802020008020400080206000802080008020A0008020C0008020E00080400000804020008040400080406000804080
310
008040A0008040C0008040E00080600000806020008060400080606000806080008060A0008060C0008060E00080800000808020008080400080806000808080008080A0008080C0008080E00080A0000080A0200080A0400080A0600080A0800080A0A00080A0C00080A0E00080C0000080C0200080C0400080C0600080C0
310
800080C0A00080C0C00080C0E00080E0000080E0200080E0400080E0600080E0800080E0A00080E0C00080E0E000C0000000C0002000C0004000C0006000C0008000C000A000C000C000C000E000C0200000C0202000C0204000C0206000C0208000C020A000C020C000C020E000C0400000C0402000C0404000C0406000C0
310
408000C040A000C040C000C040E000C0600000C0602000C0604000C0606000C0608000C060A000C060C000C060E000C0800000C0802000C0804000C0806000C0808000C080A000C080C000C080E000C0A00000C0A02000C0A04000C0A06000C0A08000C0A0A000C0A0C000C0A0E000C0C00000C0C02000C0C04000C0C06000
310
C0C08000C0C0A000F0FBFF00A4A0A000808080000000FF0000FF000000FFFF00FF000000FF00FF00FFFF0000FFFFFF00000000000000000000000000000000000000000000000000000000000000000000000000000000000000000000000000F9000000000000000000000000000000000000000000000000000000000000
310
00F900000000000000000000000000000000000000000000000000000000000000F900000000000000000000000000000000000000000000000000000000000000F900000000000000000000000000000000000000000000000000000000000000F90000000000000000000000000000000000000000000000000000000000
310
0000F900000000000000000000000000000000000000000000000000000000000000F900000000000000000000000000000000000000000000000000000000000000F900000000000000000000000000000000000000000000000000000000000000F900000000000000000000000000000000000000000000000000000000
310
000000F900000000000000000000000000000000000000000000FFFFFFFFFFFFFFFFFFFFFFFFFFFFFFFFFFFF000000000000000000000000FFFF000000000000000000F90000000000000000FFFF0000000000000000FFFFFFFFFFFFFFFFFFFFFFFFFFFFFFFFFFFFFFFFFFFFFFFFFFFF000000000000FFFE00000000000000
310
00000000F900000000000000000000FE00000000000000FFFE0000000000000000000000F900000000000000000000FE00000000000000FFFE0000000000000000000000F900000000000000000000FE00000000000000FFFE0000000000000000000000F900000000000000000000FE00000000000000FFFE000000000000
310
0000000000F900000000000000000000FE000000000000FF00FE0000000000000000000000F900000000000000000000FE000000000000FFFE000000000000000000000000F90000000000000000000000FE0000000000FFFE000000000000000000000000F90000000000000000000000FE0000000000FFFE000000000000
310
000000000000F90000000000000000000000FE0000000000FFFE000000000000000000000000F90000000000000000000000FE0000000000FFFE000000000000000000000000F90000000000000000000000FE0000000000FFFEFFFFFFFFFFFFFFFFFFFFFFFFFFFFFFFFFFFFFFFFFFFFFFFFFEFF0000000000FF0000000000
310
00000000000000F90000000000000000000000FF00000000000000FF0000000000000000000000F900000000000000000000FF0000000000000000000000000000000000000000F900000000000000000000000000000000000000000000000000000000000000F90000000000000000000000000000000000000000000000
310
0000000000000000F90000000000000000000000000000000000000000000000000000000000000000000000000000000000000000000000
102
{BLKREFS
331
5220
102
}
 70
     4
280
     1
281
     0
  0
BLOCK_RECORD
  5
51E9
102
{ACAD_XDICTIONARY
360
529F
102
}
330
1
100
AcDbSymbolTableRecord
100
AcDbBlockTableRecord
  2
ケースＡ CCMH800
340
0
310
2800000020000000200000000100080000000000000400000000000000000000000000000000000000000000000080000080000000808000800000008000800080800000C0C0C000C0DCC000F0CAA6000020400000206000002080000020A0000020C0000020E00000400000004020000040400000406000004080000040A0
310
000040C0000040E00000600000006020000060400000606000006080000060A0000060C0000060E00000800000008020000080400000806000008080000080A0000080C0000080E00000A0000000A0200000A0400000A0600000A0800000A0A00000A0C00000A0E00000C0000000C0200000C0400000C0600000C0800000C0
310
A00000C0C00000C0E00000E0000000E0200000E0400000E0600000E0800000E0A00000E0C00000E0E00040000000400020004000400040006000400080004000A0004000C0004000E00040200000402020004020400040206000402080004020A0004020C0004020E000404000004040200040404000404060004040800040
310
40A0004040C0004040E00040600000406020004060400040606000406080004060A0004060C0004060E00040800000408020004080400040806000408080004080A0004080C0004080E00040A0000040A0200040A0400040A0600040A0800040A0A00040A0C00040A0E00040C0000040C0200040C0400040C0600040C08000
310
40C0A00040C0C00040C0E00040E0000040E0200040E0400040E0600040E0800040E0A00040E0C00040E0E00080000000800020008000400080006000800080008000A0008000C0008000E00080200000802020008020400080206000802080008020A0008020C0008020E00080400000804020008040400080406000804080
310
008040A0008040C0008040E00080600000806020008060400080606000806080008060A0008060C0008060E00080800000808020008080400080806000808080008080A0008080C0008080E00080A0000080A0200080A0400080A0600080A0800080A0A00080A0C00080A0E00080C0000080C0200080C0400080C0600080C0
310
800080C0A00080C0C00080C0E00080E0000080E0200080E0400080E0600080E0800080E0A00080E0C00080E0E000C0000000C0002000C0004000C0006000C0008000C000A000C000C000C000E000C0200000C0202000C0204000C0206000C0208000C020A000C020C000C020E000C0400000C0402000C0404000C0406000C0
310
408000C040A000C040C000C040E000C0600000C0602000C0604000C0606000C0608000C060A000C060C000C060E000C0800000C0802000C0804000C0806000C0808000C080A000C080C000C080E000C0A00000C0A02000C0A04000C0A06000C0A08000C0A0A000C0A0C000C0A0E000C0C00000C0C02000C0C04000C0C06000
310
C0C08000C0C0A000F0FBFF00A4A0A000808080000000FF0000FF000000FFFF00FF000000FF00FF00FFFF0000FFFFFF000000000000000000000000000000000000000000000000000000000000000000000000000000000000000000FFFFFF0000000000000000000000000000000000000000000000000000000000FF00FF
310
0000000000000000000000000000000000000000000000000000000000FF00FF0000000000FFFF00000000000000000000000000000000000000000000FF00FFFFFFFFFFFFFFFF00000000000000000000000000000000000000000000FF00FF0000000000FFFF00000000000000000000000000000000000000000000FF00
310
FF0000000000FFFF00000000000000000000000000000000000000000000FF00FF0000000000FFFF00000000000000000000000000000000000000000000FF00FF0000000000FFFF00000000000000000000000000000000000000000000FF00FF0000000000FFFF00000000000000000000000000000000000000000000FF
310
00FF0000000000FFFF00000000000000000000000000000000000000000000FF00FF0000000000FFFF00000000000000000000000000000000000000000000FF00FF0000000000FFFF00000000000000000000000000000000000000000000FF00FF0000000000FFFF00000000000000000000000000000000000000000000
310
FF00FF0000000000FFFF00000000000000000000000000000000000000000000FF00FF0000000000FFFF00000000000000000000000000000000000000000000FF00FF0000000000FFFF0000000000000000000000000000000000000000000000000000000000000000000000000000000000000000000000000000000000
310
00000000000000000000000000000000000000000000000000000000000000000000000000000000000000000000000000000000000000000000000000000000000000000000000000000000000000000000000000000000000000000000000000000000000000000000000000000000000000000000000000000000000000
310
00000000000000000000000000000000000000000000000000000000000000000000000000000000000000000000000000000000000000000000000000000000000000000000000000000000000000000000000000000000000000000000000000000000000000000000000000000000000000000000000000000000000000
310
000000000000F9FFFFFFFFFFFF00000000000000000000000000000000000000000000FFFFFFFFFFFFFFFFFFFF000000000000000000000000000000000000000000FFFFFFFF0000000000FFFFFF000000000000000000000000000000000000F9F9FFFFFFFFF9000000000000000000000000000000000000000000000000
310
00000000FFFFFF00000000000000000000000000000000000000000000000000000000000000000000000000000000000000000000000000
102
{BLKREFS
331
5221
102
}
 70
     4
280
     1
281
     0
  0
BLOCK_RECORD
  5
5368
102
{ACAD_XDICTIONARY
360
5412
102
}
330
1
100
AcDbSymbolTableRecord
100
AcDbBlockTableRecord
  2
ケースＢ CCMH800
340
0
310
2800000020000000200000000100080000000000000400000000000000000000000000000000000000000000000080000080000000808000800000008000800080800000C0C0C000C0DCC000F0CAA6000020400000206000002080000020A0000020C0000020E00000400000004020000040400000406000004080000040A0
310
000040C0000040E00000600000006020000060400000606000006080000060A0000060C0000060E00000800000008020000080400000806000008080000080A0000080C0000080E00000A0000000A0200000A0400000A0600000A0800000A0A00000A0C00000A0E00000C0000000C0200000C0400000C0600000C0800000C0
310
A00000C0C00000C0E00000E0000000E0200000E0400000E0600000E0800000E0A00000E0C00000E0E00040000000400020004000400040006000400080004000A0004000C0004000E00040200000402020004020400040206000402080004020A0004020C0004020E000404000004040200040404000404060004040800040
310
40A0004040C0004040E00040600000406020004060400040606000406080004060A0004060C0004060E00040800000408020004080400040806000408080004080A0004080C0004080E00040A0000040A0200040A0400040A0600040A0800040A0A00040A0C00040A0E00040C0000040C0200040C0400040C0600040C08000
310
40C0A00040C0C00040C0E00040E0000040E0200040E0400040E0600040E0800040E0A00040E0C00040E0E00080000000800020008000400080006000800080008000A0008000C0008000E00080200000802020008020400080206000802080008020A0008020C0008020E00080400000804020008040400080406000804080
310
008040A0008040C0008040E00080600000806020008060400080606000806080008060A0008060C0008060E00080800000808020008080400080806000808080008080A0008080C0008080E00080A0000080A0200080A0400080A0600080A0800080A0A00080A0C00080A0E00080C0000080C0200080C0400080C0600080C0
310
800080C0A00080C0C00080C0E00080E0000080E0200080E0400080E0600080E0800080E0A00080E0C00080E0E000C0000000C0002000C0004000C0006000C0008000C000A000C000C000C000E000C0200000C0202000C0204000C0206000C0208000C020A000C020C000C020E000C0400000C0402000C0404000C0406000C0
310
408000C040A000C040C000C040E000C0600000C0602000C0604000C0606000C0608000C060A000C060C000C060E000C0800000C0802000C0804000C0806000C0808000C080A000C080C000C080E000C0A00000C0A02000C0A04000C0A06000C0A08000C0A0A000C0A0C000C0A0E000C0C00000C0C02000C0C04000C0C06000
310
C0C08000C0C0A000F0FBFF00A4A0A000808080000000FF0000FF000000FFFF00FF000000FF00FF00FFFF0000FFFFFF000000000000000000000000000000000000000000000000000000000000000000000000000000000000000000000000000000FFFF000000000000000000000000000000000000000000000000000000
310
0000F9F9F9F9F90000000000000000000000000000000000000000FFFFFF0000000000FF00000000000000000000000000000000000000000000000000FFFFFFFFFFFFFF00000000000000000000000000000000000000000000000000FF0000000000FF00000000000000000000000000000000000000000000000000FF00
310
00000000FF00000000000000000000000000000000000000000000000000FF0000000000FF00000000000000000000000000000000000000000000000000FF0000000000FF00000000000000000000000000000000000000000000000000FF0000000000FF00000000000000000000000000000000000000000000000000FF
310
0000000000FF00000000000000000000000000000000000000000000000000FF0000000000FF00000000000000000000000000000000000000000000000000FF0000000000FF00000000000000000000000000000000000000000000000000FF0000000000FF00000000000000000000000000000000000000000000000000
310
FF0000000000FF00000000000000000000000000000000000000000000000000FF0000000000FF00000000000000000000000000000000000000000000000000FF0000000000FF0000000000000000000000000000000000000000000000000000000000000000000000000000000000000000000000000000000000000000
310
00000000000000000000000000000000000000000000000000000000000000000000000000000000000000000000000000000000000000000000000000000000000000000000000000000000000000000000000000000000000000000000000000000000000000000000000000000000000000000000000000000000000000
310
00000000000000000000000000000000000000000000000000000000000000000000000000000000000000000000000000000000000000000000000000000000000000000000000000000000000000000000000000000000000000000000000000000000000000000000000000000000000000000000000000000000000000
310
0000FFFFFFFFFFF9F9000000000000000000000000000000000000000000000000FFFFFFFFFFFFFFFFFFFF00000000000000000000000000000000000000000000FFFFFF0000000000FF00000000000000000000000000000000000000000000000000000000000000FF000000000000000000000000000000000000000000
310
00000000000000000000FFFF0000000000000000000000000000000000000000000000000000000000000000000000000000000000000000
102
{BLKREFS
331
539C
102
}
 70
     4
280
     1
281
     0
  0
BLOCK_RECORD
  5
5471
102
{ACAD_XDICTIONARY
360
54FA
102
}
330
1
100
AcDbSymbolTableRecord
100
AcDbBlockTableRecord
  2
センタＡ CCMH800
340
0
310
2800000020000000200000000100080000000000000400000000000000000000000000000000000000000000000080000080000000808000800000008000800080800000C0C0C000C0DCC000F0CAA6000020400000206000002080000020A0000020C0000020E00000400000004020000040400000406000004080000040A0
310
000040C0000040E00000600000006020000060400000606000006080000060A0000060C0000060E00000800000008020000080400000806000008080000080A0000080C0000080E00000A0000000A0200000A0400000A0600000A0800000A0A00000A0C00000A0E00000C0000000C0200000C0400000C0600000C0800000C0
310
A00000C0C00000C0E00000E0000000E0200000E0400000E0600000E0800000E0A00000E0C00000E0E00040000000400020004000400040006000400080004000A0004000C0004000E00040200000402020004020400040206000402080004020A0004020C0004020E000404000004040200040404000404060004040800040
310
40A0004040C0004040E00040600000406020004060400040606000406080004060A0004060C0004060E00040800000408020004080400040806000408080004080A0004080C0004080E00040A0000040A0200040A0400040A0600040A0800040A0A00040A0C00040A0E00040C0000040C0200040C0400040C0600040C08000
310
40C0A00040C0C00040C0E00040E0000040E0200040E0400040E0600040E0800040E0A00040E0C00040E0E00080000000800020008000400080006000800080008000A0008000C0008000E00080200000802020008020400080206000802080008020A0008020C0008020E00080400000804020008040400080406000804080
310
008040A0008040C0008040E00080600000806020008060400080606000806080008060A0008060C0008060E00080800000808020008080400080806000808080008080A0008080C0008080E00080A0000080A0200080A0400080A0600080A0800080A0A00080A0C00080A0E00080C0000080C0200080C0400080C0600080C0
310
800080C0A00080C0C00080C0E00080E0000080E0200080E0400080E0600080E0800080E0A00080E0C00080E0E000C0000000C0002000C0004000C0006000C0008000C000A000C000C000C000E000C0200000C0202000C0204000C0206000C0208000C020A000C020C000C020E000C0400000C0402000C0404000C0406000C0
310
408000C040A000C040C000C040E000C0600000C0602000C0604000C0606000C0608000C060A000C060C000C060E000C0800000C0802000C0804000C0806000C0808000C080A000C080C000C080E000C0A00000C0A02000C0A04000C0A06000C0A08000C0A0A000C0A0C000C0A0E000C0C00000C0C02000C0C04000C0C06000
310
C0C08000C0C0A000F0FBFF00A4A0A000808080000000FF0000FF000000FFFF00FF000000FF00FF00FFFF0000FFFFFF000000000000000000000000000000000000000000000000000000000000000000000000000000000000000000000000000000FFFFFFFFFFFFFF00000000000000000000000000000000000000000000
310
00000000FFFF00000000FF00000000000000000000000000000000000000000000000000FFFF00000000FF00000000000000000000000000000000000000000000000000FFFF00000000FF00000000000000000000000000000000000000000000000000FFFF00000000FF0000000000000000000000000000000000000000
310
0000000000FFFF00000000FF00000000000000000000000000000000000000000000000000FFFF00000000FF00000000000000000000000000000000000000000000000000FFFF00000000FF00000000000000000000000000000000000000000000000000FFFF00000000FF00000000000000000000000000000000000000
310
000000000000FFFF00000000FF00000000000000000000000000000000000000000000000000FFFF00000000FF00000000000000000000000000000000000000000000000000FFFF00000000FF00000000000000000000000000000000000000000000000000FFFF00000000FF000000000000000000000000000000000000
310
00000000000000FFFF00000000FF000000000000000000000000A4A4A4A4A40000000000000000FFFFA4A4A4FFA4000000000000000000000000FF0000000000000000000000000000000000FFFF000000000000000000000000FF0000000000000000000000000000000000FFFF000000000000000000000000FF00000000
310
00000000000000000000000000FFFF000000000000000000000000FF0000000000000000000000000000000000FFFF000000000000000000000000FF0000000000000000000000000000000000FFFF000000000000000000000000FF0000000000000000000000000000000000FFFF000000000000000000000000FF000000
310
0000000000000000000000000000FFFF000000000000000000000000FFFFFFFFFFFFFFFFFFFFFFFFFFFFFFFFFFFFFFFF000000000000000000000000FFFFFFFFFFFFFFFFFFFFFFFFFFFFFFFFFFFFFFFF000000000000000000000000FF000000000000000000000000000000000000FF000000000000000000000000FF0000
310
00000000000000000000000000000000FF000000000000000000000000FF000000000000000000000000000000000000FF000000000000000000000000FFFFFFFFFFFF0000F900FFFFFFFFFFFFFFFFFF000000000000000000000000000000000000FFFFFFF9FFFF0000000000000000000000000000000000000000000000
310
000000000000F900000000000000000000000000000000000000000000000000000000000000000000000000000000000000000000000000
102
{BLKREFS
331
594A
102
}
 70
     4
280
     1
281
     0
  0
BLOCK_RECORD
  5
55F9
102
{ACAD_XDICTIONARY
360
5689
102
}
330
1
100
AcDbSymbolTableRecord
100
AcDbBlockTableRecord
  2
リーマボルト CCMH800 M30
340
0
310
2800000020000000200000000100080000000000000400000000000000000000000000000000000000000000000080000080000000808000800000008000800080800000C0C0C000C0DCC000F0CAA6000020400000206000002080000020A0000020C0000020E00000400000004020000040400000406000004080000040A0
310
000040C0000040E00000600000006020000060400000606000006080000060A0000060C0000060E00000800000008020000080400000806000008080000080A0000080C0000080E00000A0000000A0200000A0400000A0600000A0800000A0A00000A0C00000A0E00000C0000000C0200000C0400000C0600000C0800000C0
310
A00000C0C00000C0E00000E0000000E0200000E0400000E0600000E0800000E0A00000E0C00000E0E00040000000400020004000400040006000400080004000A0004000C0004000E00040200000402020004020400040206000402080004020A0004020C0004020E000404000004040200040404000404060004040800040
310
40A0004040C0004040E00040600000406020004060400040606000406080004060A0004060C0004060E00040800000408020004080400040806000408080004080A0004080C0004080E00040A0000040A0200040A0400040A0600040A0800040A0A00040A0C00040A0E00040C0000040C0200040C0400040C0600040C08000
310
40C0A00040C0C00040C0E00040E0000040E0200040E0400040E0600040E0800040E0A00040E0C00040E0E00080000000800020008000400080006000800080008000A0008000C0008000E00080200000802020008020400080206000802080008020A0008020C0008020E00080400000804020008040400080406000804080
310
008040A0008040C0008040E00080600000806020008060400080606000806080008060A0008060C0008060E00080800000808020008080400080806000808080008080A0008080C0008080E00080A0000080A0200080A0400080A0600080A0800080A0A00080A0C00080A0E00080C0000080C0200080C0400080C0600080C0
310
800080C0A00080C0C00080C0E00080E0000080E0200080E0400080E0600080E0800080E0A00080E0C00080E0E000C0000000C0002000C0004000C0006000C0008000C000A000C000C000C000E000C0200000C0202000C0204000C0206000C0208000C020A000C020C000C020E000C0400000C0402000C0404000C0406000C0
310
408000C040A000C040C000C040E000C0600000C0602000C0604000C0606000C0608000C060A000C060C000C060E000C0800000C0802000C0804000C0806000C0808000C080A000C080C000C080E000C0A00000C0A02000C0A04000C0A06000C0A08000C0A0A000C0A0C000C0A0E000C0C00000C0C02000C0C04000C0C06000
310
C0C08000C0C0A000F0FBFF00A4A0A000808080000000FF0000FF000000FFFF00FF000000FF00FF00FFFF0000FFFFFF0000000000000000000000000000000000000000000000000000000000000000000000000000000000000000000000000000000000000000000000000000000000000000000000000000000000000000
310
00000000000000000000000000000000000000000000000000000000000000000000000000000000000000000000000000000000000000000000000000000000000000000000000000000000000000000000000000000000000000000000000000000000000000000000000000000000000000000000000000000000000000
310
00000000000000000000000000000000000000000000000000000000000000000000000000000000000000000000000000000000000000000000000000000000000000000000000000000000000000000000000000000000000000000000000000000000000000000000000000000000000000000000FFFFFFFFFFFFFF0000
310
00000000000000000000000000FFFFFFFF0000000000FFFF000000FF0000000000000000000000000000000000000000FFFF000000FFFFFF000000FF00FFFF00000000000000000000000000FF000000FFFF0000FFFFFFFFFFFFFFFF00FFFF00000000000000000000000000FFFFFFFFFFFF0000FFFFFFFF000000FF00FFFF
310
00000000000000000000000000FF000000FFFF0000FFFFFFFF000000FFFFFFFF00000000000000000000000000FF000000FFFF0000FFFFFFFF000000FFFFFFFF00000000000000000000000000FF000000FFFF0000FFFFFFFF000000FF00FFFF00000000000000000000000000FF000000FFFF0000FFFFFFFFFFFFFFFF00FF
310
FF00000000000000000000000000FFFFFFFFFFFF000000FFFFFF000000FF00FFFF00000000000000000000000000FF000000FFFF00000000FFFF000000FF0000000000000000000000000000000000000000FFFF0000000000FFFFFFFFFFFFFF000000000000000000000000000000FFFFFFFF000000000000000000000000
310
00000000000000000000000000000000000000000000000000000000000000000000000000000000000000000000000000000000000000000000000000000000000000000000000000000000000000000000000000000000000000000000000000000000000000000000000000000000000000000000000000000000000000
310
00000000000000000000000000000000000000000000000000000000000000000000000000000000000000000000000000000000000000000000000000000000000000000000000000000000000000000000000000000000000000000000000000000000000000000000000000000000000000000000000000000000000000
310
0000000000000000000000000000000000000000000000000000000000000000000000000000000000000000000000000000000000000000
102
{BLKREFS
331
5624
102
}
 70
     4
280
     1
281
     0
  0
BLOCK_RECORD
  5
5752
102
{ACAD_XDICTIONARY
360
57FE
102
}
330
1
100
AcDbSymbolTableRecord
100
AcDbBlockTableRecord
  2
ＧＣサイドカバ－A CCMH800
340
0
310
2800000020000000200000000100080000000000000400000000000000000000000000000000000000000000000080000080000000808000800000008000800080800000C0C0C000C0DCC000F0CAA6000020400000206000002080000020A0000020C0000020E00000400000004020000040400000406000004080000040A0
310
000040C0000040E00000600000006020000060400000606000006080000060A0000060C0000060E00000800000008020000080400000806000008080000080A0000080C0000080E00000A0000000A0200000A0400000A0600000A0800000A0A00000A0C00000A0E00000C0000000C0200000C0400000C0600000C0800000C0
310
A00000C0C00000C0E00000E0000000E0200000E0400000E0600000E0800000E0A00000E0C00000E0E00040000000400020004000400040006000400080004000A0004000C0004000E00040200000402020004020400040206000402080004020A0004020C0004020E000404000004040200040404000404060004040800040
310
40A0004040C0004040E00040600000406020004060400040606000406080004060A0004060C0004060E00040800000408020004080400040806000408080004080A0004080C0004080E00040A0000040A0200040A0400040A0600040A0800040A0A00040A0C00040A0E00040C0000040C0200040C0400040C0600040C08000
310
40C0A00040C0C00040C0E00040E0000040E0200040E0400040E0600040E0800040E0A00040E0C00040E0E00080000000800020008000400080006000800080008000A0008000C0008000E00080200000802020008020400080206000802080008020A0008020C0008020E00080400000804020008040400080406000804080
310
008040A0008040C0008040E00080600000806020008060400080606000806080008060A0008060C0008060E00080800000808020008080400080806000808080008080A0008080C0008080E00080A0000080A0200080A0400080A0600080A0800080A0A00080A0C00080A0E00080C0000080C0200080C0400080C0600080C0
310
800080C0A00080C0C00080C0E00080E0000080E0200080E0400080E0600080E0800080E0A00080E0C00080E0E000C0000000C0002000C0004000C0006000C0008000C000A000C000C000C000E000C0200000C0202000C0204000C0206000C0208000C020A000C020C000C020E000C0400000C0402000C0404000C0406000C0
310
408000C040A000C040C000C040E000C0600000C0602000C0604000C0606000C0608000C060A000C060C000C060E000C0800000C0802000C0804000C0806000C0808000C080A000C080C000C080E000C0A00000C0A02000C0A04000C0A06000C0A08000C0A0A000C0A0C000C0A0E000C0C00000C0C02000C0C04000C0C06000
310
C0C08000C0C0A000F0FBFF00A4A0A000808080000000FF0000FF000000FFFF00FF000000FF00FF00FFFF0000FFFFFF00000000000000000000000000000000000000000000000000000000000000000000000000000000000000000000000000FF0000000000000000000000000000000000000000000000000000000000F9
310
F9FFF9000000000000000000000000000000000000000000000000000000000000FF00000000000000000000000000000000000000000000000000000000000000FF00000000000000000000000000000000000000000000000000000000000000FF0000000000000000000000000000000000000000000000000000000000
310
0000FF00000000000000000000000000000000000000000000000000000000000000FF00000000000000000000000000000000000000000000000000000000000000FF00000000000000000000000000000000000000000000000000000000000000FF00000000000000000000000000000000000000000000000000000000
310
000000FF00000000000000000000000000000000000000000000000000000000000000FF00000000000000000000000000000000000000000000000000000000000000FF00000000000000000000000000000000000000000000000000000000000000FF000000000000000000000000000000000000000000000000000000
310
00000000FF00000000000000000000000000000000000000000000000000000000000000FF00000000000000000000000000000000000000000000000000000000000000FF00000000000000000000000000000000000000000000000000000000000000000000000000000000000000000000000000000000000000000000
310
00000000000000000000000000000000000000000000000000000000000000000000000000000000000000000000000000000000000000000000000000000000000000000000000000000000000000000000000000000000000000000000000000000000000000000000000000000000000000000000000000000000000000
310
00000000000000000000000000000000000000000000000000000000000000000000000000000000000000000000000000000000000000000000000000000000000000000000000000000000000000000000000000000000000000000000000000000000000000000000000000000000000000000000000000000000000000
310
0000000000000000000000000000000000000000000000000000000000000000000000000000FFFF000000000000000000000000000000000000000000000000000000000000FFFF0000000000000000000000000000000000000000000000000000000000FFFFFFFF00000000000000000000000000000000000000000000
310
00000000000000FFFF0000000000000000000000000000000000000000000000000000000000000000000000000000000000000000000000
102
{BLKREFS
331
5787
102
}
 70
     4
280
     1
281
     0
  0
BLOCK_RECORD
  5
5875
102
{ACAD_XDICTIONARY
360
5917
102
}
330
1
100
AcDbSymbolTableRecord
100
AcDbBlockTableRecord
  2
ＧＣサイドカバ－Ｂ CCMH800
340
0
310
2800000020000000200000000100080000000000000400000000000000000000000000000000000000000000000080000080000000808000800000008000800080800000C0C0C000C0DCC000F0CAA6000020400000206000002080000020A0000020C0000020E00000400000004020000040400000406000004080000040A0
310
000040C0000040E00000600000006020000060400000606000006080000060A0000060C0000060E00000800000008020000080400000806000008080000080A0000080C0000080E00000A0000000A0200000A0400000A0600000A0800000A0A00000A0C00000A0E00000C0000000C0200000C0400000C0600000C0800000C0
310
A00000C0C00000C0E00000E0000000E0200000E0400000E0600000E0800000E0A00000E0C00000E0E00040000000400020004000400040006000400080004000A0004000C0004000E00040200000402020004020400040206000402080004020A0004020C0004020E000404000004040200040404000404060004040800040
310
40A0004040C0004040E00040600000406020004060400040606000406080004060A0004060C0004060E00040800000408020004080400040806000408080004080A0004080C0004080E00040A0000040A0200040A0400040A0600040A0800040A0A00040A0C00040A0E00040C0000040C0200040C0400040C0600040C08000
310
40C0A00040C0C00040C0E00040E0000040E0200040E0400040E0600040E0800040E0A00040E0C00040E0E00080000000800020008000400080006000800080008000A0008000C0008000E00080200000802020008020400080206000802080008020A0008020C0008020E00080400000804020008040400080406000804080
310
008040A0008040C0008040E00080600000806020008060400080606000806080008060A0008060C0008060E00080800000808020008080400080806000808080008080A0008080C0008080E00080A0000080A0200080A0400080A0600080A0800080A0A00080A0C00080A0E00080C0000080C0200080C0400080C0600080C0
310
800080C0A00080C0C00080C0E00080E0000080E0200080E0400080E0600080E0800080E0A00080E0C00080E0E000C0000000C0002000C0004000C0006000C0008000C000A000C000C000C000E000C0200000C0202000C0204000C0206000C0208000C020A000C020C000C020E000C0400000C0402000C0404000C0406000C0
310
408000C040A000C040C000C040E000C0600000C0602000C0604000C0606000C0608000C060A000C060C000C060E000C0800000C0802000C0804000C0806000C0808000C080A000C080C000C080E000C0A00000C0A02000C0A04000C0A06000C0A08000C0A0A000C0A0C000C0A0E000C0C00000C0C02000C0C04000C0C06000
310
C0C08000C0C0A000F0FBFF00A4A0A000808080000000FF0000FF000000FFFF00FF000000FF00FF00FFFF0000FFFFFF000000000000000000000000000000000000000000000000000000000000000000000000000000000000000000000000FFFF0000000000000000000000000000000000000000000000000000000000F9
310
FFF9F90000000000000000000000000000000000000000000000000000000000FF00000000000000000000000000000000000000000000000000000000000000FF00000000000000000000000000000000000000000000000000000000000000FF000000000000000000000000000000000000000000000000000000000000
310
00FF00000000000000000000000000000000000000000000000000000000000000FF00000000000000000000000000000000000000000000000000000000000000FF00000000000000000000000000000000000000000000000000000000000000FF0000000000000000000000000000000000000000000000000000000000
310
0000FF00000000000000000000000000000000000000000000000000000000000000FF00000000000000000000000000000000000000000000000000000000000000FF00000000000000000000000000000000000000000000000000000000000000FF00000000000000000000000000000000000000000000000000000000
310
000000FF00000000000000000000000000000000000000000000000000000000000000FF00000000000000000000000000000000000000000000000000000000000000FF0000000000000000000000000000000000000000000000000000000000000000000000000000000000000000000000000000000000000000000000
310
00000000000000000000000000000000000000000000000000000000000000000000000000000000000000000000000000000000000000000000000000000000000000000000000000000000000000000000000000000000000000000000000000000000000000000000000000000000000000000000000000000000000000
310
00000000000000000000000000000000000000000000000000000000000000000000000000000000000000000000000000000000000000000000000000000000000000000000000000000000000000000000000000000000000000000000000000000000000000000000000000000000000000000000000000000000000000
310
0000000000000000000000000000000000000000000000000000000000000000000000000000FFFF000000000000000000000000000000000000000000000000000000000000FFFF0000000000000000000000000000000000000000000000000000000000FFFFFFFF00000000000000000000000000000000000000000000
310
00000000000000FFFF0000000000000000000000000000000000000000000000000000000000000000000000000000000000000000000000
102
{BLKREFS
331
58A9
102
}
 70
     4
280
     1
281
     0
  0
BLOCK_RECORD
  5
5B5F
330
1
100
AcDbSymbolTableRecord
100
AcDbBlockTableRecord
  2
*D14
340
0
 70
     0
280
     1
281
     0
  0
BLOCK_RECORD
  5
5B9A
330
1
100
AcDbSymbolTableRecord
100
AcDbBlockTableRecord
  2
*D15
340
0
 70
     0
280
     1
281
     0
  0
BLOCK_RECORD
  5
5BE4
330
1
100
AcDbSymbolTableRecord
100
AcDbBlockTableRecord
  2
*D16
340
0
 70
     0
280
     1
281
     0
  0
BLOCK_RECORD
  5
5BFC
330
1
100
AcDbSymbolTableRecord
100
AcDbBlockTableRecord
  2
*D17
340
0
 70
     0
280
     1
281
     0
  0
BLOCK_RECORD
  5
5C18
330
1
100
AcDbSymbolTableRecord
100
AcDbBlockTableRecord
  2
*D18
340
0
 70
     0
280
     1
281
     0
  0
BLOCK_RECORD
  5
5C97
330
1
100
AcDbSymbolTableRecord
100
AcDbBlockTableRecord
  2
_None
340
0
 70
     0
280
     1
281
     0
  0
BLOCK_RECORD
  5
5CD5
330
1
100
AcDbSymbolTableRecord
100
AcDbBlockTableRecord
  2
*D20
340
0
 70
     0
280
     1
281
     0
  0
BLOCK_RECORD
  5
5CF6
330
1
100
AcDbSymbolTableRecord
100
AcDbBlockTableRecord
  2
*D21
340
0
 70
     0
280
     1
281
     0
  0
BLOCK_RECORD
  5
5D0E
330
1
100
AcDbSymbolTableRecord
100
AcDbBlockTableRecord
  2
*D22
340
0
 70
     0
280
     1
281
     0
  0
BLOCK_RECORD
  5
5DA6
330
1
100
AcDbSymbolTableRecord
100
AcDbBlockTableRecord
  2
*D23
340
0
 70
     0
280
     1
281
     0
  0
BLOCK_RECORD
  5
5DC2
330
1
100
AcDbSymbolTableRecord
100
AcDbBlockTableRecord
  2
*D24
340
0
 70
     0
280
     1
281
     0
  0
BLOCK_RECORD
  5
5DFF
330
1
100
AcDbSymbolTableRecord
100
AcDbBlockTableRecord
  2
*D25
340
0
 70
     0
280
     1
281
     0
  0
BLOCK_RECORD
  5
5E8D
330
1
100
AcDbSymbolTableRecord
100
AcDbBlockTableRecord
  2
*D26
340
0
 70
     0
280
     1
281
     0
  0
BLOCK_RECORD
  5
6E0A
102
{ACAD_XDICTIONARY
360
6E51
102
}
330
1
100
AcDbSymbolTableRecord
100
AcDbBlockTableRecord
  2
ロッカクアナツキプラグB R3／4
340
0
102
{BLKREFS
331
539B
102
}
 70
     0
280
     1
281
     0
  0
BLOCK_RECORD
  5
74AC
330
1
100
AcDbSymbolTableRecord
100
AcDbBlockTableRecord
  2
*D28
340
0
 70
     0
280
     1
281
     0
  0
BLOCK_RECORD
  5
74D6
330
1
100
AcDbSymbolTableRecord
100
AcDbBlockTableRecord
  2
*D29
340
0
 70
     0
280
     1
281
     0
  0
BLOCK_RECORD
  5
76F6
102
{ACAD_XDICTIONARY
360
7789
102
}
330
1
100
AcDbSymbolTableRecord
100
AcDbBlockTableRecord
  2
センタB CCMH800
340
0
310
2800000020000000200000000100080000000000000400000000000000000000000000000000000000000000000080000080000000808000800000008000800080800000C0C0C000C0DCC000F0CAA6000020400000206000002080000020A0000020C0000020E00000400000004020000040400000406000004080000040A0
310
000040C0000040E00000600000006020000060400000606000006080000060A0000060C0000060E00000800000008020000080400000806000008080000080A0000080C0000080E00000A0000000A0200000A0400000A0600000A0800000A0A00000A0C00000A0E00000C0000000C0200000C0400000C0600000C0800000C0
310
A00000C0C00000C0E00000E0000000E0200000E0400000E0600000E0800000E0A00000E0C00000E0E00040000000400020004000400040006000400080004000A0004000C0004000E00040200000402020004020400040206000402080004020A0004020C0004020E000404000004040200040404000404060004040800040
310
40A0004040C0004040E00040600000406020004060400040606000406080004060A0004060C0004060E00040800000408020004080400040806000408080004080A0004080C0004080E00040A0000040A0200040A0400040A0600040A0800040A0A00040A0C00040A0E00040C0000040C0200040C0400040C0600040C08000
310
40C0A00040C0C00040C0E00040E0000040E0200040E0400040E0600040E0800040E0A00040E0C00040E0E00080000000800020008000400080006000800080008000A0008000C0008000E00080200000802020008020400080206000802080008020A0008020C0008020E00080400000804020008040400080406000804080
310
008040A0008040C0008040E00080600000806020008060400080606000806080008060A0008060C0008060E00080800000808020008080400080806000808080008080A0008080C0008080E00080A0000080A0200080A0400080A0600080A0800080A0A00080A0C00080A0E00080C0000080C0200080C0400080C0600080C0
310
800080C0A00080C0C00080C0E00080E0000080E0200080E0400080E0600080E0800080E0A00080E0C00080E0E000C0000000C0002000C0004000C0006000C0008000C000A000C000C000C000E000C0200000C0202000C0204000C0206000C0208000C020A000C020C000C020E000C0400000C0402000C0404000C0406000C0
310
408000C040A000C040C000C040E000C0600000C0602000C0604000C0606000C0608000C060A000C060C000C060E000C0800000C0802000C0804000C0806000C0808000C080A000C080C000C080E000C0A00000C0A02000C0A04000C0A06000C0A08000C0A0A000C0A0C000C0A0E000C0C00000C0C02000C0C04000C0C06000
310
C0C08000C0C0A000F0FBFF00A4A0A000808080000000FF0000FF000000FFFF00FF000000FF00FF00FFFF0000FFFFFF00000000000000000000000000000000000000000000000000000000000000000000000000000000FFFFFFFFFFFFFF000000000000000000000000000000000000000000000000FF00000000FFFF0000
310
0000000000000000000000000000000000000000000000FF00000000FFFF00000000000000000000000000000000000000000000000000FF00000000FFFF00000000000000000000000000000000000000000000000000FF00000000FFFF00000000000000000000000000000000000000000000000000FF00000000FFFF00
310
000000000000000000000000000000000000000000000000FF00000000FFFF00000000000000000000000000000000000000000000000000FF00000000FFFF00000000000000000000000000000000000000000000000000FF00000000FFFF00000000000000000000000000000000000000000000000000FF00000000FFFF
310
00000000000000000000000000000000000000000000000000FF00000000FFFF00000000000000000000000000000000000000000000000000FF00000000FFFF00000000000000000000000000000000000000000000000000FF00000000FFFF00000000000000000000000000000000000000000000000000FF00000000FF
310
FF00000000000000000000000000000000000000000000000000A4A4A4A4A4FFFF0000000000000000A4A4A4A4A4000000000000000000000000FF000000000000000000000000000000000000FF000000000000000000000000FF000000000000000000000000000000000000FF000000000000000000000000FF00000000
310
0000000000000000000000000000FF000000000000000000000000FF000000000000000000000000000000000000FF000000000000000000000000FF000000000000000000000000000000000000FF000000000000000000000000FF000000000000000000000000000000000000FF000000000000000000000000FF000000
310
000000000000000000000000000000FF000000000000000000000000FFFFFFFFFFFFFFFFFFFFFFFFFFFFFFFFFFFFFFFF000000000000000000000000FF000000000000000000000000000000000000FF000000000000000000000000FF000000000000000000000000000000000000FF000000000000000000000000FF0000
310
00000000000000000000000000000000FF000000000000000000000000FF000000000000000000000000000000000000FF00000000000000000000000000FFFFFFFFFFFFFFFFFFFFFFFFFFFFFFFFFFFFFF0000000000000000000000000000000000000000F9F9F9F9F9F9F900000000000000000000000000000000000000
310
000000000000000000F900000000000000000000000000000000000000000000000000000000000000000000000000000000000000000000
102
{BLKREFS
331
7734
102
}
 70
     4
280
     1
281
     1
  0
ENDTAB
  0
ENDSEC
  0
SECTION
  2
BLOCKS
  0
BLOCK
  5
20
330
1F
100
AcDbEntity
  8
0
100
AcDbBlockBegin
  2
*Model_Space
 70
     0
 10
0.0
 20
0.0
 30
0.0
  3
*Model_Space
  1

  0
ENDBLK
  5
21
330
1F
100
AcDbEntity
  8
0
100
AcDbBlockEnd
  0
BLOCK
  5
1C
330
1B
100
AcDbEntity
 67
     1
  8
0
100
AcDbBlockBegin
  2
*Paper_Space
 70
     0
 10
0.0
 20
0.0
 30
0.0
  3
*Paper_Space
  1

  0
ENDBLK
  5
1D
330
1B
100
AcDbEntity
 67
     1
  8
0
100
AcDbBlockEnd
  0
BLOCK
  5
24
330
23
100
AcDbEntity
 67
     1
  8
0
100
AcDbBlockBegin
  2
*Paper_Space0
 70
     0
 10
0.0
 20
0.0
 30
0.0
  3
*Paper_Space0
  1

  0
ENDBLK
  5
25
330
23
100
AcDbEntity
 67
     1
  8
0
100
AcDbBlockEnd
  0
BLOCK
  5
6D
330
69
100
AcDbEntity
  8
0
100
AcDbBlockBegin
  2
_Open30
 70
     0
 10
0.0
 20
0.0
 30
0.0
  3
_Open30
  1

  0
LINE
  5
6A
330
69
100
AcDbEntity
  8
0
  6
ByBlock
 62
     0
370
    -2
100
AcDbLine
 10
-1.0
 20
0.26794919
 30
0.0
 11
0.0
 21
0.0
 31
0.0
  0
LINE
  5
6B
330
69
100
AcDbEntity
  8
0
  6
ByBlock
 62
     0
370
    -2
100
AcDbLine
 10
0.0
 20
0.0
 30
0.0
 11
-1.0
 21
-0.26794919
 31
0.0
  0
LINE
  5
6C
330
69
100
AcDbEntity
  8
0
  6
ByBlock
 62
     0
370
    -2
100
AcDbLine
 10
0.0
 20
0.0
 30
0.0
 11
-1.0
 21
0.0
 31
0.0
  0
ENDBLK
  5
6E
330
69
100
AcDbEntity
  8
0
100
AcDbBlockEnd
  0
BLOCK
  5
76
330
74
100
AcDbEntity
  8
0
100
AcDbBlockBegin
  2
GENAXEH
 70
     0
 10
0.0
 20
0.0
 30
0.0
  3
GENAXEH
  1

  0
LINE
  5
75
330
74
100
AcDbEntity
  8
0
100
AcDbLine
 10
-1.0
 20
0.0
 30
0.0
 11
1.0
 21
0.0
 31
0.0
  0
ENDBLK
  5
77
330
74
100
AcDbEntity
  8
0
100
AcDbBlockEnd
  0
BLOCK
  5
3F28
330
3F27
100
AcDbEntity
  8
0
100
AcDbBlockBegin
  2
GENDOT
 70
     0
 10
0.0
 20
0.0
 30
0.0
  3
GENDOT
  1

  0
LINE
  5
3F29
330
3F27
100
AcDbEntity
  8
0
100
AcDbLine
 10
0.0
 20
0.0
 30
0.0
 11
-1.0
 21
0.0
 31
0.0
  0
LWPOLYLINE
  5
3F2A
330
3F27
100
AcDbEntity
  8
0
100
AcDbPolyline
 90
        2
 70
     1
 43
0.25
 10
-0.125
 20
0.0
 42
1.0
 10
0.125
 20
0.0
 42
1.0
  0
ENDBLK
  5
3F2B
330
3F27
100
AcDbEntity
  8
0
100
AcDbBlockEnd
  0
BLOCK
  5
510D
330
510C
100
AcDbEntity
  8
0
100
AcDbBlockBegin
  2
ロッカクアナツキプラグA R3／4
 70
     0
 10
0.0
 20
0.0
 30
0.0
  3
ロッカクアナツキプラグA R3／4
  1

  0
LINE
  5
5139
330
510C
100
AcDbEntity
  8
AM_7 中心線
100
AcDbLine
 10
0.0
 20
2.297871999999187
 30
0.0
 11
0.0
 21
-26.21276600000056
 31
0.0
  0
LINE
  5
513A
330
510C
100
AcDbEntity
  8
AM_0 外形線1
100
AcDbLine
 10
12.99246700000003
 20
-14.0
 30
0.0
 11
-12.99246700000003
 21
-14.0
 31
0.0
  0
LINE
  5
513B
330
510C
100
AcDbEntity
  8
AM_0 外形線1
100
AcDbLine
 10
-13.41151700000046
 20
-2.0
 30
0.0
 11
13.41151699999955
 21
-2.0
 31
0.0
  0
LINE
  5
513C
330
510C
100
AcDbEntity
  8
AM_0 外形線1
100
AcDbLine
 10
-7.796314999999593
 20
-17.0
 30
0.0
 11
7.796314999999593
 21
-17.0
 31
0.0
  0
LINE
  5
513D
330
510C
100
AcDbEntity
  8
AM_4 細線
100
AcDbLine
 10
-12.28872500000034
 20
-0.8772090000002208
 30
0.0
 11
-11.80655800000022
 21
-14.68468600000051
 31
0.0
  0
LINE
  5
513E
330
510C
100
AcDbEntity
  8
AM_0 外形線1
100
AcDbLine
 10
-13.41151700000046
 20
-2.0
 30
0.0
 11
-12.99246700000003
 21
-14.0
 31
0.0
  0
LINE
  5
513F
330
510C
100
AcDbEntity
  8
AM_0 外形線1
100
AcDbLine
 10
-11.41151700000046
 20
0.0
 30
0.0
 11
-13.41151700000046
 21
-2.0
 31
0.0
  0
LINE
  5
5140
330
510C
100
AcDbEntity
  8
AM_0 外形線1
100
AcDbLine
 10
-12.99246700000003
 20
-14.0
 30
0.0
 11
-7.796314999999593
 21
-17.0
 31
0.0
  0
LINE
  5
5141
330
510C
100
AcDbEntity
  8
AM_4 細線
100
AcDbLine
 10
11.80655800000022
 20
-14.68468600000051
 30
0.0
 11
12.28872500000034
 21
-0.8772090000002208
 31
0.0
  0
LINE
  5
5142
330
510C
100
AcDbEntity
  8
AM_0 外形線1
100
AcDbLine
 10
13.41151699999955
 20
-2.0
 30
0.0
 11
11.41151699999955
 21
0.0
 31
0.0
  0
LINE
  5
5143
330
510C
100
AcDbEntity
  8
AM_0 外形線1
100
AcDbLine
 10
7.796314999999593
 20
-17.0
 30
0.0
 11
12.99246700000003
 21
-14.0
 31
0.0
  0
LINE
  5
5168
330
510C
100
AcDbEntity
  8
AM_0 外形線1
100
AcDbLine
 10
-11.41151700000046
 20
0.0
 30
0.0
 11
11.41151699999955
 21
0.0
 31
0.0
  0
ENDBLK
  5
510E
330
510C
100
AcDbEntity
  8
0
100
AcDbBlockEnd
  0
BLOCK
  5
51EA
330
51E9
100
AcDbEntity
  8
0
100
AcDbBlockBegin
  2
ケースＡ CCMH800
 70
     0
 10
0.0
 20
0.0
 30
0.0
  3
ケースＡ CCMH800
  1

  0
LINE
  5
51EC
330
51E9
100
AcDbEntity
  8
AM_0 外形線1
100
AcDbLine
 10
0.0
 20
0.0
 30
0.0
 11
0.0
 21
-398.0
 31
0.0
  0
LINE
  5
51ED
330
51E9
100
AcDbEntity
  8
AM_0 外形線1
100
AcDbLine
 10
38.0
 20
-398.0
 30
0.0
 11
38.0
 21
0.0
 31
0.0
  0
LINE
  5
51EE
330
51E9
100
AcDbEntity
  8
AM_0 外形線1
100
AcDbLine
 10
2.0
 20
-400.0
 30
0.0
 11
36.0
 21
-400.0
 31
0.0
  0
LINE
  5
51EF
330
51E9
100
AcDbEntity
  8
AM_0 外形線1
100
AcDbLine
 10
0.0
 20
-398.0
 30
0.0
 11
2.0
 21
-400.0
 31
0.0
  0
LINE
  5
51F0
330
51E9
100
AcDbEntity
  8
AM_0 外形線1
100
AcDbLine
 10
36.0
 20
-400.0
 30
0.0
 11
38.0
 21
-398.0
 31
0.0
  0
LINE
  5
51F1
330
51E9
100
AcDbEntity
  8
AM_0 外形線1
100
AcDbLine
 10
219.0
 20
-345.0
 30
0.0
 11
249.0
 21
-345.0
 31
0.0
  0
LINE
  5
51F2
330
51E9
100
AcDbEntity
  8
AM_0 外形線1
100
AcDbLine
 10
219.0
 20
-345.0
 30
0.0
 11
219.0
 21
0.0
 31
0.0
  0
LINE
  5
51F3
330
51E9
100
AcDbEntity
  8
AM_0 外形線1
100
AcDbLine
 10
210.0
 20
-336.0
 30
0.0
 11
210.0
 21
0.0
 31
0.0
  0
LINE
  5
51F4
330
51E9
100
AcDbEntity
  8
AM_0 外形線1
100
AcDbLine
 10
46.0
 20
-336.0
 30
0.0
 11
210.0
 21
-336.0
 31
0.0
  0
ARC
  5
51F5
330
51E9
100
AcDbEntity
  8
AM_0 外形線1
100
AcDbCircle
 10
46.0
 20
-344.0
 30
0.0
 40
8.0
100
AcDbArc
 50
90.0
 51
180.0
  0
LINE
  5
51F6
330
51E9
100
AcDbEntity
  8
AM_0 外形線1
100
AcDbLine
 10
210.0
 20
-336.0
 30
0.0
 11
219.0
 21
-345.0
 31
0.0
  0
LINE
  5
51F7
330
51E9
100
AcDbEntity
  8
AM_0 外形線1
100
AcDbLine
 10
249.0
 20
-318.8000000000002
 30
0.0
 11
249.0
 21
0.0
 31
0.0
  0
LINE
  5
51F8
330
51E9
100
AcDbEntity
  8
AM_0 外形線1
100
AcDbLine
 10
249.0
 20
-345.0
 30
0.0
 11
249.0
 21
-318.8000000000002
 31
0.0
  0
LINE
  5
51F9
330
51E9
100
AcDbEntity
  8
AM_3 隠れ線
100
AcDbLine
 10
233.5
 20
297.5999999999999
 30
0.0
 11
117.5
 21
297.5999999999999
 31
0.0
  0
LINE
  5
51FA
330
51E9
100
AcDbEntity
  8
AM_7 中心線
100
AcDbLine
 10
106.0
 20
304.0000000000004
 30
0.0
 11
244.0
 21
304.0000000000004
 31
0.0
  0
LINE
  5
51FB
330
51E9
100
AcDbEntity
  8
AM_0 外形線1
100
AcDbLine
 10
219.0
 20
345.0000000000005
 30
0.0
 11
249.0
 21
345.0000000000005
 31
0.0
  0
LINE
  5
51FC
330
51E9
100
AcDbEntity
  8
AM_0 外形線1
100
AcDbLine
 10
108.0
 20
312.0000000000004
 30
0.0
 11
242.0
 21
312.0000000000004
 31
0.0
  0
LINE
  5
51FD
330
51E9
100
AcDbEntity
  8
AM_0 外形線1
100
AcDbLine
 10
0.0
 20
337.2000000000003
 30
0.0
 11
0.0
 21
355.0000000000005
 31
0.0
  0
LINE
  5
51FE
330
51E9
100
AcDbEntity
  8
AM_0 外形線1
100
AcDbLine
 10
210.0
 20
336.0000000000005
 30
0.0
 11
219.0
 21
345.0000000000005
 31
0.0
  0
ARC
  5
51FF
330
51E9
100
AcDbEntity
  8
AM_0 外形線1
100
AcDbCircle
 10
46.0
 20
344.0000000000005
 30
0.0
 40
8.0
100
AcDbArc
 50
180.0
 51
270.0
  0
LINE
  5
5200
330
51E9
100
AcDbEntity
  8
AM_0 外形線1
100
AcDbLine
 10
107.0
 20
313.5000000000005
 30
0.0
 11
-9.0
 21
313.5000000000005
 31
0.0
  0
LINE
  5
5201
330
51E9
100
AcDbEntity
  8
AM_0 外形線1
100
AcDbLine
 10
46.0
 20
336.0000000000005
 30
0.0
 11
210.0
 21
336.0000000000005
 31
0.0
  0
LWPOLYLINE
  5
5202
330
51E9
100
AcDbEntity
  8
AM_0 外形線1
100
AcDbPolyline
 90
       73
 70
     0
 43
0.0
 10
2.25
 20
330.0000000000005
 10
2.446100000000114
 20
330.0136989999996
 10
2.640707999999904
 20
330.0546920000002
 10
2.832343000000037
 20
330.1226670000001
 10
3.019545000000106
 20
330.2171060000005
 10
3.20089100000041
 20
330.3372919999997
 10
3.375
 20
330.4823080000001
 10
3.540546999999604
 20
330.6510519999997
 10
3.696272000000134
 20
330.8422400000004
 10
3.840989999999692
 20
331.0544150000001
 10
3.97360000000026
 20
331.2859640000001
 10
4.093092000000068
 20
331.5351240000004
 10
4.198556999999708
 20
331.8000000000006
 10
4.289193000000523
 20
332.0785739999997
 10
4.364308000000163
 20
332.3687270000005
 10
4.423332999999728
 20
332.6682509999996
 10
4.465817000000241
 20
332.974866
 10
4.491438000000016
 20
333.2862389999996
 10
4.5
 20
333.5999999999999
 10
4.491438000000016
 20
333.9137599999999
 10
4.465817000000241
 20
334.2251330000004
 10
4.423332999999728
 20
334.5317479999999
 10
4.364308000000163
 20
334.8312719999999
 10
4.289193000000523
 20
335.1214249999998
 10
4.198556999999708
 20
335.4000000000001
 10
4.093092000000068
 20
335.6648749999999
 10
3.97360000000026
 20
335.9140350000002
 10
3.840989999999692
 20
336.1455840000003
 10
3.696272000000134
 20
336.3577600000003
 10
3.540546999999604
 20
336.5489469999998
 10
3.375
 20
336.7176910000003
 10
3.20089100000041
 20
336.8627080000001
 10
3.019545000000106
 20
336.9828929999999
 10
2.832343000000037
 20
337.0773329999997
 10
2.640707999999904
 20
337.1453079999997
 10
2.446100000000114
 20
337.1863010000002
 10
2.25
 20
337.2000000000003
 10
2.053899999999885
 20
337.1863010000002
 10
1.859292000000094
 20
337.1453079999997
 10
1.667656999999961
 20
337.0773329999997
 10
1.480454999999891
 20
336.9828929999999
 10
1.299108999999589
 20
336.8627080000001
 10
1.125
 20
336.7176910000003
 10
0.9594530000003942
 20
336.5489469999998
 10
0.8037279999998645
 20
336.3577600000003
 10
0.6590099999993983
 20
336.1455840000003
 10
0.5263999999997396
 20
335.9140350000002
 10
0.4069079999999305
 20
335.6648749999999
 10
0.3014430000002903
 20
335.4000000000001
 10
0.2108070000003863
 20
335.1214249999998
 10
0.1356919999998354
 20
334.8312719999999
 10
0.076666999999361
 20
334.5317479999999
 10
0.0341829999997572
 20
334.2251330000004
 10
0.0085619999999835
 20
333.9137599999999
 10
0.0
 20
333.5999999999999
 10
0.0085619999999835
 20
333.2862389999996
 10
0.0341829999997572
 20
332.974866
 10
0.076666999999361
 20
332.6682509999996
 10
0.1356919999998354
 20
332.3687270000005
 10
0.2108070000003863
 20
332.0785739999997
 10
0.3014430000002903
 20
331.8000000000006
 10
0.4069079999999305
 20
331.5351240000004
 10
0.5263999999997396
 20
331.2859640000001
 10
0.6590099999993983
 20
331.0544150000001
 10
0.8037279999998645
 20
330.8422400000004
 10
0.9594530000003942
 20
330.6510519999997
 10
1.125
 20
330.4823080000001
 10
1.299108999999589
 20
330.3372919999997
 10
1.480454999999891
 20
330.2171060000005
 10
1.667656999999961
 20
330.1226670000001
 10
1.859292000000094
 20
330.0546920000002
 10
2.053899999999885
 20
330.0136989999996
 10
2.25
 20
330.0000000000005
  0
LINE
  5
5203
330
51E9
100
AcDbEntity
  8
AM_0 外形線1
100
AcDbLine
 10
4.0
 20
337.2000000000003
 30
0.0
 11
0.0
 21
337.2000000000003
 31
0.0
  0
ARC
  5
5204
330
51E9
100
AcDbEntity
  8
AM_0 外形線1
100
AcDbCircle
 10
4.0
 20
336.7000000000003
 30
0.0
 40
0.5
100
AcDbArc
 50
0.0
 51
90.0
  0
LINE
  5
5205
330
51E9
100
AcDbEntity
  8
AM_0 外形線1
100
AcDbLine
 10
4.5
 20
330.5000000000005
 30
0.0
 11
4.5
 21
336.7000000000003
 31
0.0
  0
ARC
  5
5206
330
51E9
100
AcDbEntity
  8
AM_0 外形線1
100
AcDbCircle
 10
4.0
 20
330.5000000000005
 30
0.0
 40
0.5
100
AcDbArc
 50
270.0
 51
0.0
  0
LINE
  5
5207
330
51E9
100
AcDbEntity
  8
AM_0 外形線1
100
AcDbLine
 10
-7.0
 20
330.0000000000005
 30
0.0
 11
4.0
 21
330.0000000000005
 31
0.0
  0
LINE
  5
5208
330
51E9
100
AcDbEntity
  8
AM_0 外形線1
100
AcDbLine
 10
-9.0
 20
328.0000000000005
 30
0.0
 11
-7.0
 21
330.0000000000005
 31
0.0
  0
LINE
  5
5209
330
51E9
100
AcDbEntity
  8
AM_0 外形線1
100
AcDbLine
 10
-9.0
 20
313.5000000000005
 30
0.0
 11
-9.0
 21
328.0000000000005
 31
0.0
  0
LINE
  5
520A
330
51E9
100
AcDbEntity
  8
AM_0 外形線1
100
AcDbLine
 10
80.99246700000003
 20
322.0000000000005
 30
0.0
 11
80.69564100000025
 21
313.5000000000005
 31
0.0
  0
LINE
  5
520B
330
51E9
100
AcDbEntity
  8
AM_0 外形線1
100
AcDbLine
 10
79.80655800000022
 20
321.3153139999999
 30
0.0
 11
79.53364099999998
 21
313.5000000000005
 31
0.0
  0
LINE
  5
520C
330
51E9
100
AcDbEntity
  8
AM_0 外形線1
100
AcDbLine
 10
80.99246700000003
 20
322.0000000000005
 30
0.0
 11
81.41151699999955
 21
334.0000000000005
 31
0.0
  0
LINE
  5
520D
330
51E9
100
AcDbEntity
  8
AM_0 外形線1
100
AcDbLine
 10
117.5
 20
297.5999999999999
 30
0.0
 11
109.0
 21
297.5999999999999
 31
0.0
  0
ARC
  5
520E
330
51E9
100
AcDbEntity
  8
AM_0 外形線1
100
AcDbCircle
 10
107.0
 20
312.5000000000004
 30
0.0
 40
1.0
100
AcDbArc
 50
0.0
 51
90.0
  0
LINE
  5
520F
330
51E9
100
AcDbEntity
  8
AM_0 外形線1
100
AcDbLine
 10
108.0
 20
298.5999999999999
 30
0.0
 11
108.0
 21
312.5000000000004
 31
0.0
  0
LINE
  5
5210
330
51E9
100
AcDbEntity
  8
AM_0 外形線1
100
AcDbLine
 10
109.0
 20
297.5999999999999
 30
0.0
 11
108.0
 21
298.5999999999999
 31
0.0
  0
LINE
  5
5211
330
51E9
100
AcDbEntity
  8
AM_7 中心線
100
AcDbLine
 10
68.71985800000039
 20
371.0000000000004
 30
0.0
 11
-89.29432600000017
 21
371.0000000000004
 31
0.0
  0
LINE
  5
5212
330
51E9
100
AcDbEntity
  8
AM_0 外形線1
100
AcDbLine
 10
0.0
 20
355.0000000000009
 30
0.0
 11
38.0
 21
355.0000000000005
 31
0.0
  0
LINE
  5
5213
330
51E9
100
AcDbEntity
  8
AM_0 外形線1
100
AcDbLine
 10
0.0
 20
387.0000000000004
 30
0.0
 11
38.0
 21
387.0000000000004
 31
0.0
  0
LINE
  5
5214
330
51E9
100
AcDbEntity
  8
AM_0 外形線1
100
AcDbLine
 10
38.0
 20
344.0000000000005
 30
0.0
 11
38.0
 21
398.0000000000004
 31
0.0
  0
LINE
  5
5215
330
51E9
100
AcDbEntity
  8
AM_0 外形線1
100
AcDbLine
 10
0.0
 20
387.0000000000004
 30
0.0
 11
0.0
 21
398.0000000000004
 31
0.0
  0
LINE
  5
5216
330
51E9
100
AcDbEntity
  8
AM_0 外形線1
100
AcDbLine
 10
2.0
 20
400.0000000000004
 30
0.0
 11
36.0
 21
400.0000000000004
 31
0.0
  0
LINE
  5
5217
330
51E9
100
AcDbEntity
  8
AM_0 外形線1
100
AcDbLine
 10
0.0
 20
398.0000000000004
 30
0.0
 11
2.0
 21
400.0000000000004
 31
0.0
  0
LINE
  5
5218
330
51E9
100
AcDbEntity
  8
AM_0 外形線1
100
AcDbLine
 10
36.0
 20
400.0000000000004
 30
0.0
 11
38.0
 21
398.0000000000004
 31
0.0
  0
LINE
  5
5219
330
51E9
100
AcDbEntity
  8
AM_0 外形線1
100
AcDbLine
 10
249.0
 20
345.0000000000005
 30
0.0
 11
249.0
 21
336.0000000000005
 31
0.0
  0
LINE
  5
521A
330
51E9
100
AcDbEntity
  8
AM_0 外形線1
100
AcDbLine
 10
233.5
 20
297.5999999999999
 30
0.0
 11
241.0
 21
297.5999999999999
 31
0.0
  0
LINE
  5
521B
330
51E9
100
AcDbEntity
  8
AM_0 外形線1
100
AcDbLine
 10
249.0
 20
324.0000000000005
 30
0.0
 11
249.0
 21
318.8000000000006
 31
0.0
  0
LINE
  5
521C
330
51E9
100
AcDbEntity
  8
AM_0 外形線1
100
AcDbLine
 10
249.0
 20
318.8000000000006
 30
0.0
 11
249.0
 21
313.5000000000005
 31
0.0
  0
LINE
  5
521D
330
51E9
100
AcDbEntity
  8
AM_0 外形線1
100
AcDbLine
 10
242.0
 20
298.5999999999999
 30
0.0
 11
241.0
 21
297.5999999999999
 31
0.0
  0
LINE
  5
521E
330
51E9
100
AcDbEntity
  8
AM_0 外形線1
100
AcDbLine
 10
242.0
 20
312.5000000000004
 30
0.0
 11
242.0
 21
298.5999999999999
 31
0.0
  0
ARC
  5
521F
330
51E9
100
AcDbEntity
  8
AM_0 外形線1
100
AcDbCircle
 10
243.0
 20
312.5000000000004
 30
0.0
 40
1.0
100
AcDbArc
 50
90.0
 51
180.0
  0
INSERT
  5
5220
330
51E9
100
AcDbEntity
  8
AM_0 外形線1
100
AcDbBlockReference
  2
ロッカクアナツキプラグA R3／4
 10
68.0
 20
336.0000000000005
 30
0.0
  0
LINE
  5
5298
330
51E9
100
AcDbEntity
  8
AM_0 外形線1
100
AcDbLine
 10
249.0
 20
313.5000000000005
 30
0.0
 11
243.0
 21
313.5000000000005
 31
0.0
  0
LINE
  5
5299
330
51E9
100
AcDbEntity
  8
AM_0 外形線1
100
AcDbLine
 10
54.58848299999954
 20
334.0000000000005
 30
0.0
 11
54.51864200000001
 21
336.0000000000005
 31
0.0
  0
LINE
  5
529A
330
51E9
100
AcDbEntity
  8
AM_0 外形線1
100
AcDbLine
 10
55.00753299999995
 20
322.0000000000005
 30
0.0
 11
55.30435899999975
 21
313.5000000000005
 31
0.0
  0
LINE
  5
529B
330
51E9
100
AcDbEntity
  8
AM_0 外形線1
100
AcDbLine
 10
55.71127499999966
 20
335.1227910000002
 30
0.0
 11
55.68064199999935
 21
336.0000000000005
 31
0.0
  0
LINE
  5
529C
330
51E9
100
AcDbEntity
  8
AM_0 外形線1
100
AcDbLine
 10
56.19344199999978
 20
321.3153139999999
 30
0.0
 11
56.46635900000001
 21
313.5000000000005
 31
0.0
  0
LINE
  5
529D
330
51E9
100
AcDbEntity
  8
AM_0 外形線1
100
AcDbLine
 10
81.481358
 20
336.0000000000005
 30
0.0
 11
81.41151699999955
 21
334.0000000000005
 31
0.0
  0
LINE
  5
529E
330
51E9
100
AcDbEntity
  8
AM_0 外形線1
100
AcDbLine
 10
80.28872500000034
 20
335.1227910000002
 30
0.0
 11
80.31935799999974
 21
336.0000000000005
 31
0.0
  0
ENDBLK
  5
51EB
330
51E9
100
AcDbEntity
  8
0
100
AcDbBlockEnd
  0
BLOCK
  5
5369
330
5368
100
AcDbEntity
  8
0
100
AcDbBlockBegin
  2
ケースＢ CCMH800
 70
     0
 10
0.0
 20
0.0
 30
0.0
  3
ケースＢ CCMH800
  1

  0
LINE
  5
536B
330
5368
100
AcDbEntity
  8
AM_0 外形線1
100
AcDbLine
 10
-46.0
 20
336.0000000000005
 30
0.0
 11
-210.0
 21
336.0000000000005
 31
0.0
  0
LINE
  5
536C
330
5368
100
AcDbEntity
  8
AM_0 外形線1
100
AcDbLine
 10
-46.0
 20
-336.0
 30
0.0
 11
-210.0
 21
-336.0
 31
0.0
  0
LINE
  5
536D
330
5368
100
AcDbEntity
  8
AM_0 外形線1
100
AcDbLine
 10
-107.0
 20
313.5000000000005
 30
0.0
 11
-10.0
 21
313.5000000000005
 31
0.0
  0
LINE
  5
536E
330
5368
100
AcDbEntity
  8
AM_0 外形線1
100
AcDbLine
 10
-219.0
 20
-345.0
 30
0.0
 11
-219.0
 21
0.0
 31
0.0
  0
LINE
  5
536F
330
5368
100
AcDbEntity
  8
AM_0 外形線1
100
AcDbLine
 10
-210.0
 20
-336.0
 30
0.0
 11
-210.0
 21
0.0
 31
0.0
  0
LINE
  5
5370
330
5368
100
AcDbEntity
  8
AM_0 外形線1
100
AcDbLine
 10
-219.0
 20
-345.0
 30
0.0
 11
-249.0
 21
-344.9999999999998
 31
0.0
  0
LINE
  5
5371
330
5368
100
AcDbEntity
  8
AM_0 外形線1
100
AcDbLine
 10
-210.0
 20
-336.0
 30
0.0
 11
-219.0
 21
-345.0
 31
0.0
  0
LINE
  5
5372
330
5368
100
AcDbEntity
  8
AM_0 外形線1
100
AcDbLine
 10
-249.0
 20
345.0000000000005
 30
0.0
 11
-249.0
 21
336.0000000000005
 31
0.0
  0
LINE
  5
5373
330
5368
100
AcDbEntity
  8
AM_0 外形線1
100
AcDbLine
 10
-210.0
 20
336.0000000000005
 30
0.0
 11
-219.0
 21
345.0000000000005
 31
0.0
  0
LINE
  5
5374
330
5368
100
AcDbEntity
  8
AM_3 隠れ線
100
AcDbLine
 10
-233.5
 20
297.5999999999999
 30
0.0
 11
-117.5
 21
297.5999999999999
 31
0.0
  0
LINE
  5
5375
330
5368
100
AcDbEntity
  8
AM_7 中心線
100
AcDbLine
 10
-106.0
 20
304.0000000000004
 30
0.0
 11
-244.0
 21
304.0000000000004
 31
0.0
  0
LINE
  5
5376
330
5368
100
AcDbEntity
  8
AM_0 外形線1
100
AcDbLine
 10
-108.0
 20
312.0000000000004
 30
0.0
 11
-242.0
 21
312.0000000000004
 31
0.0
  0
LINE
  5
5377
330
5368
100
AcDbEntity
  8
AM_0 外形線1
100
AcDbLine
 10
-233.5
 20
297.5999999999999
 30
0.0
 11
-241.0
 21
297.5999999999999
 31
0.0
  0
LINE
  5
5378
330
5368
100
AcDbEntity
  8
AM_0 外形線1
100
AcDbLine
 10
-249.0
 20
313.5000000000005
 30
0.0
 11
-243.0
 21
313.5000000000005
 31
0.0
  0
LINE
  5
537A
330
5368
100
AcDbEntity
  8
AM_0 外形線1
100
AcDbLine
 10
-249.0
 20
324.0000000000005
 30
0.0
 11
-249.0
 21
313.5000000000005
 31
0.0
  0
LINE
  5
537B
330
5368
100
AcDbEntity
  8
AM_0 外形線1
100
AcDbLine
 10
-242.0
 20
298.5999999999999
 30
0.0
 11
-241.0
 21
297.5999999999999
 31
0.0
  0
LINE
  5
537C
330
5368
100
AcDbEntity
  8
AM_0 外形線1
100
AcDbLine
 10
-242.0
 20
312.5000000000004
 30
0.0
 11
-242.0
 21
298.5999999999999
 31
0.0
  0
ARC
  5
537D
330
5368
100
AcDbEntity
  8
AM_0 外形線1
100
AcDbCircle
 10
-243.0
 20
312.5000000000004
 30
0.0
 40
1.0
100
AcDbArc
 50
0.0
 51
67.49999999998468
  0
LINE
  5
537E
330
5368
100
AcDbEntity
  8
AM_0 外形線1
100
AcDbLine
 10
-117.5
 20
297.5999999999999
 30
0.0
 11
-109.0
 21
297.5999999999999
 31
0.0
  0
ARC
  5
537F
330
5368
100
AcDbEntity
  8
AM_0 外形線1
100
AcDbCircle
 10
-107.0
 20
312.5000000000004
 30
0.0
 40
1.0
100
AcDbArc
 50
90.0
 51
180.0
  0
LINE
  5
5380
330
5368
100
AcDbEntity
  8
AM_0 外形線1
100
AcDbLine
 10
-108.0
 20
298.5999999999999
 30
0.0
 11
-108.0
 21
312.5000000000004
 31
0.0
  0
LINE
  5
5381
330
5368
100
AcDbEntity
  8
AM_0 外形線1
100
AcDbLine
 10
-109.0
 20
297.5999999999999
 30
0.0
 11
-108.0
 21
298.5999999999999
 31
0.0
  0
LINE
  5
5382
330
5368
100
AcDbEntity
  8
AM_0 外形線1
100
AcDbLine
 10
-219.0
 20
345.0000000000005
 30
0.0
 11
-249.0
 21
345.0000000000005
 31
0.0
  0
LINE
  5
5383
330
5368
100
AcDbEntity
  8
AM_0 外形線1
100
AcDbLine
 10
-38.0
 20
-398.0
 30
0.0
 11
-38.0
 21
0.0
 31
0.0
  0
LINE
  5
5384
330
5368
100
AcDbEntity
  8
AM_7 中心線
100
AcDbLine
 10
54.93264826273479
 20
-371.0
 30
0.0
 11
-54.93264826273479
 21
-371.0
 31
0.0
  0
LINE
  5
5385
330
5368
100
AcDbEntity
  8
AM_0 外形線1
100
AcDbLine
 10
-2.0
 20
-400.0
 30
0.0
 11
-36.0
 21
-400.0
 31
0.0
  0
LINE
  5
5386
330
5368
100
AcDbEntity
  8
AM_0 外形線1
100
AcDbLine
 10
-36.0
 20
-400.0
 30
0.0
 11
-38.0
 21
-398.0
 31
0.0
  0
LINE
  5
5387
330
5368
100
AcDbEntity
  8
AM_0 外形線1
100
AcDbLine
 10
0.0
 20
-398.0
 30
0.0
 11
-2.0
 21
-400.0
 31
0.0
  0
ARC
  5
5388
330
5368
100
AcDbEntity
  8
AM_0 外形線1
100
AcDbCircle
 10
-46.0
 20
-344.0
 30
0.0
 40
8.0
100
AcDbArc
 50
0.0
 51
90.0
  0
ARC
  5
5389
330
5368
100
AcDbEntity
  8
AM_0 外形線1
100
AcDbCircle
 10
-46.0
 20
344.0000000000005
 30
0.0
 40
8.0
100
AcDbArc
 50
270.0
 51
0.0
  0
LINE
  5
538A
330
5368
100
AcDbEntity
  8
AM_0 外形線1
100
AcDbLine
 10
-80.99246700000003
 20
322.0000000000005
 30
0.0
 11
-80.69564100000025
 21
313.5000000000005
 31
0.0
  0
LINE
  5
538B
330
5368
100
AcDbEntity
  8
AM_0 外形線1
100
AcDbLine
 10
-81.481358
 20
336.0000000000005
 30
0.0
 11
-81.41151700000046
 21
334.0000000000005
 31
0.0
  0
LINE
  5
538C
330
5368
100
AcDbEntity
  8
AM_0 外形線1
100
AcDbLine
 10
-80.28872500000034
 20
335.1227910000002
 30
0.0
 11
-80.31935800000066
 21
336.0000000000005
 31
0.0
  0
LINE
  5
538D
330
5368
100
AcDbEntity
  8
AM_0 外形線1
100
AcDbLine
 10
-79.80655800000022
 20
321.3153139999999
 30
0.0
 11
-79.53364099999998
 21
313.5000000000005
 31
0.0
  0
LINE
  5
538E
330
5368
100
AcDbEntity
  8
AM_0 外形線1
100
AcDbLine
 10
-54.58848300000045
 20
334.0000000000005
 30
0.0
 11
-54.51864200000001
 21
336.0000000000005
 31
0.0
  0
LINE
  5
538F
330
5368
100
AcDbEntity
  8
AM_0 外形線1
100
AcDbLine
 10
-55.00753299999995
 20
322.0000000000005
 30
0.0
 11
-55.30435899999975
 21
313.5000000000005
 31
0.0
  0
LINE
  5
5390
330
5368
100
AcDbEntity
  8
AM_0 外形線1
100
AcDbLine
 10
-55.71127499999966
 20
335.1227910000002
 30
0.0
 11
-55.68064200000025
 21
336.0000000000005
 31
0.0
  0
LINE
  5
5391
330
5368
100
AcDbEntity
  8
AM_0 外形線1
100
AcDbLine
 10
-56.19344199999978
 20
321.3153139999999
 30
0.0
 11
-56.46635900000001
 21
313.5000000000005
 31
0.0
  0
LINE
  5
5392
330
5368
100
AcDbEntity
  8
AM_0 外形線1
100
AcDbLine
 10
-54.58848300000045
 20
334.0000000000005
 30
0.0
 11
-55.00753299999995
 21
322.0000000000005
 31
0.0
  0
LINE
  5
5393
330
5368
100
AcDbEntity
  8
AM_0 外形線1
100
AcDbLine
 10
-2.0
 20
330.0000000000005
 30
0.0
 11
0.0
 21
332.0000000000005
 31
0.0
  0
LINE
  5
5394
330
5368
100
AcDbEntity
  8
AM_0 外形線1
100
AcDbLine
 10
-10.0
 20
313.5000000000005
 30
0.0
 11
-10.0
 21
330.0000000000005
 31
0.0
  0
LINE
  5
5395
330
5368
100
AcDbEntity
  8
AM_0 外形線1
100
AcDbLine
 10
-2.0
 20
400.0000000000004
 30
0.0
 11
-36.0
 21
400.0000000000004
 31
0.0
  0
LINE
  5
5396
330
5368
100
AcDbEntity
  8
AM_0 外形線1
100
AcDbLine
 10
-38.0
 20
398.0000000000004
 30
0.0
 11
-38.0
 21
387.0000000000004
 31
0.0
  0
LINE
  5
5397
330
5368
100
AcDbEntity
  8
AM_0 外形線1
100
AcDbLine
 10
-38.0
 20
387.0000000000004
 30
0.0
 11
-38.0
 21
355.0000000000005
 31
0.0
  0
LINE
  5
5398
330
5368
100
AcDbEntity
  8
AM_0 外形線1
100
AcDbLine
 10
-38.0
 20
355.0000000000005
 30
0.0
 11
-38.0
 21
344.0000000000005
 31
0.0
  0
LINE
  5
5399
330
5368
100
AcDbEntity
  8
AM_0 外形線1
100
AcDbLine
 10
-36.0
 20
400.0000000000004
 30
0.0
 11
-38.0
 21
398.0000000000004
 31
0.0
  0
LINE
  5
539A
330
5368
100
AcDbEntity
  8
AM_0 外形線1
100
AcDbLine
 10
0.0
 20
398.0000000000004
 30
0.0
 11
-2.0
 21
400.0000000000004
 31
0.0
  0
INSERT
  5
539B
330
5368
100
AcDbEntity
  8
AM_0 外形線1
100
AcDbBlockReference
  2
ロッカクアナツキプラグB R3／4
 10
-68.0
 20
336.0000000000005
 30
0.0
  0
LINE
  5
53DB
330
5368
100
AcDbEntity
  8
AM_0 外形線1
100
AcDbLine
 10
0.0
 20
0.0
 30
0.0
 11
0.0
 21
-398.0
 31
0.0
  0
LINE
  5
540C
330
5368
100
AcDbEntity
  8
AM_0 外形線1
100
AcDbLine
 10
-249.0
 20
-345.0
 30
0.0
 11
-249.0
 21
0.0
 31
0.0
  0
LINE
  5
540D
330
5368
100
AcDbEntity
  8
AM_0 外形線1
100
AcDbLine
 10
0.0
 20
398.0000000000004
 30
0.0
 11
0.0
 21
387.0000000000004
 31
0.0
  0
LINE
  5
540E
330
5368
100
AcDbEntity
  8
AM_0 外形線1
100
AcDbLine
 10
0.0
 20
387.0000000000004
 30
0.0
 11
-38.0
 21
387.0000000000004
 31
0.0
  0
LINE
  5
540F
330
5368
100
AcDbEntity
  8
AM_0 外形線1
100
AcDbLine
 10
-2.0
 20
330.0000000000005
 30
0.0
 11
-10.0
 21
330.0000000000005
 31
0.0
  0
LINE
  5
5410
330
5368
100
AcDbEntity
  8
AM_0 外形線1
100
AcDbLine
 10
0.0
 20
332.0000000000005
 30
0.0
 11
0.0
 21
355.0000000000009
 31
0.0
  0
LINE
  5
5411
330
5368
100
AcDbEntity
  8
AM_0 外形線1
100
AcDbLine
 10
0.0
 20
355.0000000000009
 30
0.0
 11
-38.0
 21
355.0000000000009
 31
0.0
  0
ARC
  5
6A64
330
5368
100
AcDbEntity
  8
AM_0 外形線1
100
AcDbCircle
 10
-243.0
 20
312.5000000000004
 30
0.0
 40
1.0
100
AcDbArc
 50
67.49999999998468
 51
90.0
  0
ENDBLK
  5
536A
330
5368
100
AcDbEntity
  8
0
100
AcDbBlockEnd
  0
BLOCK
  5
5472
330
5471
100
AcDbEntity
  8
0
100
AcDbBlockBegin
  2
センタＡ CCMH800
 70
     0
 10
0.0
 20
0.0
 30
0.0
  3
センタＡ CCMH800
  1

  0
LINE
  5
5474
330
5471
100
AcDbEntity
  8
AM_0 外形線1
100
AcDbLine
 10
400.0
 20
-268.5
 30
0.0
 11
400.0
 21
268.5000000000004
 31
0.0
  0
LINE
  5
5475
330
5471
100
AcDbEntity
  8
AM_0 外形線1
100
AcDbLine
 10
0.0
 20
244.8499999999999
 30
0.0
 11
0.0
 21
0.0
 31
0.0
  0
LINE
  5
5476
330
5471
100
AcDbEntity
  8
AM_3 隠れ線
100
AcDbLine
 10
0.0
 20
15.0
 30
0.0
 11
54.0
 21
15.0
 31
0.0
  0
LINE
  5
5477
330
5471
100
AcDbEntity
  8
AM_3 隠れ線
100
AcDbLine
 10
0.0
 20
13.25
 30
0.0
 11
70.0
 21
13.25
 31
0.0
  0
LINE
  5
5478
330
5471
100
AcDbEntity
  8
AM_0 外形線1
100
AcDbLine
 10
54.0
 20
15.0
 30
0.0
 11
55.01036299999942
 21
13.25
 31
0.0
  0
LINE
  5
5479
330
5471
100
AcDbEntity
  8
AM_3 隠れ線
100
AcDbLine
 10
55.01036299999942
 20
13.25
 30
0.0
 11
55.01036299999942
 21
0.0
 31
0.0
  0
LINE
  5
547A
330
5471
100
AcDbEntity
  8
AM_3 隠れ線
100
AcDbLine
 10
54.0
 20
15.0
 30
0.0
 11
54.0
 21
0.0
 31
0.0
  0
LINE
  5
547B
330
5471
100
AcDbEntity
  8
AM_3 隠れ線
100
AcDbLine
 10
77.64989100000002
 20
0.0
 30
0.0
 11
70.0
 21
13.25
 31
0.0
  0
LINE
  5
547C
330
5471
100
AcDbEntity
  8
AM_3 隠れ線
100
AcDbLine
 10
70.0
 20
13.25
 30
0.0
 11
70.0
 21
0.0
 31
0.0
  0
LINE
  5
547D
330
5471
100
AcDbEntity
  8
AM_0 外形線1
100
AcDbLine
 10
288.0
 20
-283.5
 30
0.0
 11
288.0
 21
0.0
 31
0.0
  0
LINE
  5
547E
330
5471
100
AcDbEntity
  8
AM_0 外形線1
100
AcDbLine
 10
283.0
 20
-285.0
 30
0.0
 11
283.0
 21
0.0
 31
0.0
  0
LINE
  5
547F
330
5471
100
AcDbEntity
  8
AM_0 外形線1
100
AcDbLine
 10
288.0
 20
-283.5
 30
0.0
 11
385.0
 21
-283.5
 31
0.0
  0
LINE
  5
5480
330
5471
100
AcDbEntity
  8
AM_0 外形線1
100
AcDbLine
 10
283.0
 20
-285.0
 30
0.0
 11
288.0
 21
-283.5
 31
0.0
  0
LINE
  5
5481
330
5471
100
AcDbEntity
  8
AM_0 外形線1
100
AcDbLine
 10
251.0
 20
-285.0
 30
0.0
 11
283.0
 21
-285.0
 31
0.0
  0
ARC
  5
5482
330
5471
100
AcDbEntity
  8
AM_0 外形線1
100
AcDbCircle
 10
385.0
 20
-268.5
 30
0.0
 40
15.0
100
AcDbArc
 50
270.0
 51
0.0
  0
LINE
  5
5483
330
5471
100
AcDbEntity
  8
AM_3 隠れ線
100
AcDbLine
 10
400.0
 20
13.25
 30
0.0
 11
330.0
 21
13.25
 31
0.0
  0
LINE
  5
5484
330
5471
100
AcDbEntity
  8
AM_3 隠れ線
100
AcDbLine
 10
400.0
 20
15.0
 30
0.0
 11
346.0
 21
15.0
 31
0.0
  0
LINE
  5
5485
330
5471
100
AcDbEntity
  8
AM_3 隠れ線
100
AcDbLine
 10
322.350109
 20
0.0
 30
0.0
 11
330.0
 21
13.25
 31
0.0
  0
LINE
  5
5486
330
5471
100
AcDbEntity
  8
AM_3 隠れ線
100
AcDbLine
 10
330.0
 20
13.25
 30
0.0
 11
330.0
 21
0.0
 31
0.0
  0
LINE
  5
5487
330
5471
100
AcDbEntity
  8
AM_3 隠れ線
100
AcDbLine
 10
346.0
 20
15.0
 30
0.0
 11
344.9896369999997
 21
13.25
 31
0.0
  0
LINE
  5
5488
330
5471
100
AcDbEntity
  8
AM_3 隠れ線
100
AcDbLine
 10
346.0
 20
15.0
 30
0.0
 11
346.0
 21
0.0
 31
0.0
  0
LINE
  5
5489
330
5471
100
AcDbEntity
  8
AM_3 隠れ線
100
AcDbLine
 10
344.9896369999997
 20
13.25
 30
0.0
 11
344.9896369999997
 21
0.0
 31
0.0
  0
ARC
  5
548B
330
5471
100
AcDbEntity
  8
AM_0 外形線1
100
AcDbCircle
 10
159.5
 20
0.0
 30
0.0
 40
311.65
100
AcDbArc
 50
79.46142399999081
 51
100.5385760000092
  0
LINE
  5
548D
330
5471
100
AcDbEntity
  8
AM_0 外形線1
100
AcDbLine
 10
101.0
 20
285.0000000000004
 30
0.0
 11
2.0
 21
285.0000000000004
 31
0.0
  0
LINE
  5
548E
330
5471
100
AcDbEntity
  8
AM_0 外形線1
100
AcDbLine
 10
0.0
 20
283.0000000000005
 30
0.0
 11
0.0
 21
244.8499999999999
 31
0.0
  0
LINE
  5
548F
330
5471
100
AcDbEntity
  8
AM_0 外形線1
100
AcDbLine
 10
2.0
 20
285.0000000000004
 30
0.0
 11
0.0
 21
283.0000000000005
 31
0.0
  0
ARC
  5
5490
330
5471
100
AcDbEntity
  8
AM_0 外形線1
100
AcDbCircle
 10
101.0
 20
285.5000000000004
 30
0.0
 40
0.5
100
AcDbArc
 50
270.0
 51
0.0
  0
LINE
  5
5491
330
5471
100
AcDbEntity
  8
AM_0 外形線1
100
AcDbLine
 10
101.5
 20
305.2053600000004
 30
0.0
 11
101.5
 21
285.5000000000004
 31
0.0
  0
LINE
  5
5492
330
5471
100
AcDbEntity
  8
AM_0 外形線1
100
AcDbLine
 10
102.5
 20
306.3930850000001
 30
0.0
 11
101.5
 21
305.2053600000004
 31
0.0
  0
LINE
  5
5493
330
5471
100
AcDbEntity
  8
AM_7 中心線
100
AcDbLine
 10
159.5
 20
316.6500000000001
 30
0.0
 11
159.5
 21
291.0000000000005
 31
0.0
  0
LINE
  5
5494
330
5471
100
AcDbEntity
  8
AM_0 外形線1
100
AcDbLine
 10
385.0
 20
283.5000000000004
 30
0.0
 11
288.0
 21
283.5000000000004
 31
0.0
  0
LINE
  5
5495
330
5471
100
AcDbEntity
  8
AM_0 外形線1
100
AcDbLine
 10
283.0
 20
285.0000000000004
 30
0.0
 11
218.0
 21
285.0000000000004
 31
0.0
  0
LINE
  5
5496
330
5471
100
AcDbEntity
  8
AM_0 外形線1
100
AcDbLine
 10
217.5
 20
305.2053600000004
 30
0.0
 11
216.5
 21
306.3930850000001
 31
0.0
  0
LINE
  5
5497
330
5471
100
AcDbEntity
  8
AM_0 外形線1
100
AcDbLine
 10
217.5
 20
285.5000000000004
 30
0.0
 11
217.5
 21
305.2053600000004
 31
0.0
  0
ARC
  5
5498
330
5471
100
AcDbEntity
  8
AM_0 外形線1
100
AcDbCircle
 10
218.0
 20
285.5000000000004
 30
0.0
 40
0.5
100
AcDbArc
 50
180.0
 51
270.0
  0
LINE
  5
5499
330
5471
100
AcDbEntity
  8
AM_0 外形線1
100
AcDbLine
 10
288.0
 20
283.5000000000004
 30
0.0
 11
283.0
 21
285.0000000000004
 31
0.0
  0
ARC
  5
549A
330
5471
100
AcDbEntity
  8
AM_0 外形線1
100
AcDbCircle
 10
385.0
 20
268.5000000000004
 30
0.0
 40
15.0
100
AcDbArc
 50
0.0
 51
90.0
  0
LINE
  5
549C
330
5471
100
AcDbEntity
  8
AM_0 外形線1
100
AcDbLine
 10
0.0
 20
182.4999999999995
 30
0.0
 11
400.0
 21
182.4999999999995
 31
0.0
  0
ARC
  5
7432
330
5471
100
AcDbEntity
  8
AM_0 外形線1
100
AcDbCircle
 10
159.5
 20
0.0000000000004547
 30
0.0
 40
296.0
100
AcDbArc
 50
78.70001158616353
 51
101.2999884138364
  0
ARC
  5
75C5
330
5471
100
AcDbEntity
  8
AM_7 中心線
100
AcDbCircle
 10
159.5
 20
0.0
 30
0.0
 40
304.0000000000004
100
AcDbArc
 50
77.86943426786095
 51
102.3312650624329
  0
ENDBLK
  5
5473
330
5471
100
AcDbEntity
  8
0
100
AcDbBlockEnd
  0
BLOCK
  5
55FA
330
55F9
100
AcDbEntity
  8
0
100
AcDbBlockBegin
  2
リーマボルト CCMH800 M30
 70
     0
 10
0.0
 20
0.0
 30
0.0
  3
リーマボルト CCMH800 M30
  1

  0
ARC
  5
55FC
330
55F9
100
AcDbEntity
  8
AM_0 外形線1
100
AcDbCircle
 10
-95.73417400000016
 20
19.91452799999933
 30
0.0
 40
11.765826
100
AcDbArc
 50
145.6697989999698
 51
214.3302010000302
  0
LINE
  5
55FD
330
55F9
100
AcDbEntity
  8
AM_0 外形線1
100
AcDbLine
 10
-83.49999999999999
 20
-26.55000000000018
 30
0.0
 11
-83.49999999999999
 21
26.54999999999927
 31
0.0
  0
LINE
  5
55FE
330
55F9
100
AcDbEntity
  8
AM_0 外形線1
100
AcDbLine
 10
-105.4504070000003
 20
26.54999999999927
 30
0.0
 11
-107.5
 21
23.0
 31
0.0
  0
LINE
  5
55FF
330
55F9
100
AcDbEntity
  8
AM_0 外形線1
100
AcDbLine
 10
-83.49999999999999
 20
-13.27905700000065
 30
0.0
 11
-105.4504070000003
 21
-13.27905700000065
 31
0.0
  0
LINE
  5
5600
330
55F9
100
AcDbEntity
  8
AM_0 外形線1
100
AcDbLine
 10
-83.49999999999999
 20
13.2790559999994
 30
0.0
 11
-105.4504070000003
 21
13.2790559999994
 31
0.0
  0
LINE
  5
5601
330
55F9
100
AcDbEntity
  8
AM_0 外形線1
100
AcDbLine
 10
-105.4504070000003
 20
-26.55000000000018
 30
0.0
 11
-83.49999999999999
 21
-26.55000000000018
 31
0.0
  0
LINE
  5
5602
330
55F9
100
AcDbEntity
  8
AM_4 細線
100
AcDbLine
 10
-116.0
 20
15.0
 30
0.0
 11
-107.5
 21
15.0
 31
0.0
  0
LINE
  5
5603
330
55F9
100
AcDbEntity
  8
AM_4 細線
100
AcDbLine
 10
-107.5
 20
-15.0
 30
0.0
 11
-116.0
 21
-15.0
 31
0.0
  0
LINE
  5
5604
330
55F9
100
AcDbEntity
  8
AM_0 外形線1
100
AcDbLine
 10
-115.0
 20
16.0
 30
0.0
 11
-115.0
 21
-16.0
 31
0.0
  0
LINE
  5
5605
330
55F9
100
AcDbEntity
  8
AM_0 外形線1
100
AcDbLine
 10
-115.0
 20
-16.0
 30
0.0
 11
-107.5
 21
-16.0
 31
0.0
  0
LINE
  5
5606
330
55F9
100
AcDbEntity
  8
AM_0 外形線1
100
AcDbLine
 10
-117.0
 20
-14.0
 30
0.0
 11
-115.0
 21
-16.0
 31
0.0
  0
LINE
  5
5607
330
55F9
100
AcDbEntity
  8
AM_0 外形線1
100
AcDbLine
 10
-117.0
 20
14.0
 30
0.0
 11
-117.0
 21
-14.0
 31
0.0
  0
LINE
  5
5608
330
55F9
100
AcDbEntity
  8
AM_0 外形線1
100
AcDbLine
 10
-115.0
 20
16.0
 30
0.0
 11
-117.0
 21
14.0
 31
0.0
  0
LINE
  5
5609
330
55F9
100
AcDbEntity
  8
AM_0 外形線1
100
AcDbLine
 10
-107.5
 20
16.0
 30
0.0
 11
-115.0
 21
16.0
 31
0.0
  0
ARC
  5
560A
330
55F9
100
AcDbEntity
  8
AM_0 外形線1
100
AcDbCircle
 10
-95.73417400000016
 20
-19.91452800000024
 30
0.0
 40
11.765826
100
AcDbArc
 50
145.6697989999698
 51
214.3302010000302
  0
ARC
  5
560B
330
55F9
100
AcDbEntity
  8
AM_0 外形線1
100
AcDbCircle
 10
-63.45854200000029
 20
0.0
 30
0.0
 40
44.041458
100
AcDbArc
 50
162.4515210000246
 51
197.5484789999754
  0
LINE
  5
560C
330
55F9
100
AcDbEntity
  8
AM_0 外形線1
100
AcDbLine
 10
-107.5
 20
-23.0
 30
0.0
 11
-105.4504070000003
 21
-26.55000000000018
 31
0.0
  0
LINE
  5
560D
330
55F9
100
AcDbEntity
  8
AM_0 外形線1
100
AcDbLine
 10
-107.5
 20
23.0
 30
0.0
 11
-107.5
 21
-23.0
 31
0.0
  0
LINE
  5
560E
330
55F9
100
AcDbEntity
  8
AM_0 外形線1
100
AcDbLine
 10
-76.0
 20
5.0
 30
0.0
 11
-83.49999999999999
 21
-5.0
 31
0.0
  0
LINE
  5
560F
330
55F9
100
AcDbEntity
  8
AM_0 外形線1
100
AcDbLine
 10
-83.49999999999999
 20
-2.5
 30
0.0
 11
-76.0
 21
8.0
 31
0.0
  0
LINE
  5
5610
330
55F9
100
AcDbEntity
  8
AM_0 外形線1
100
AcDbLine
 10
-76.0
 20
-15.0
 30
0.0
 11
-74.73205099999995
 21
-15.0
 31
0.0
  0
LINE
  5
5611
330
55F9
100
AcDbEntity
  8
AM_0 外形線1
100
AcDbLine
 10
-76.0
 20
15.0
 30
0.0
 11
-74.73205099999995
 21
15.0
 31
0.0
  0
LINE
  5
5612
330
55F9
100
AcDbEntity
  8
AM_0 外形線1
100
AcDbLine
 10
-75.0
 20
-14.84529999999995
 30
0.0
 11
-73.0
 21
-16.0
 31
0.0
  0
LINE
  5
5613
330
55F9
100
AcDbEntity
  8
AM_0 外形線1
100
AcDbLine
 10
-75.0
 20
14.84529899999961
 30
0.0
 11
-75.0
 21
-14.84529999999995
 31
0.0
  0
LINE
  5
5614
330
55F9
100
AcDbEntity
  8
AM_0 外形線1
100
AcDbLine
 10
-73.0
 20
16.0
 30
0.0
 11
-75.0
 21
14.84529899999961
 31
0.0
  0
LINE
  5
5615
330
55F9
100
AcDbEntity
  8
AM_0 外形線1
100
AcDbLine
 10
-83.49999999999999
 20
-25.05000000000018
 30
0.0
 11
-76.0
 21
-25.05000000000018
 31
0.0
  0
LINE
  5
5616
330
55F9
100
AcDbEntity
  8
AM_0 外形線1
100
AcDbLine
 10
-76.0
 20
25.04999999999927
 30
0.0
 11
-83.49999999999999
 21
25.04999999999927
 31
0.0
  0
LINE
  5
5617
330
55F9
100
AcDbEntity
  8
AM_0 外形線1
100
AcDbLine
 10
-73.0
 20
16.0
 30
0.0
 11
-73.0
 21
-16.0
 31
0.0
  0
LINE
  5
5618
330
55F9
100
AcDbEntity
  8
AM_0 外形線1
100
AcDbLine
 10
-83.49999999999999
 20
26.54999999999927
 30
0.0
 11
-105.4504070000003
 21
26.54999999999927
 31
0.0
  0
ARC
  5
5619
330
55F9
100
AcDbEntity
  8
AM_0 外形線1
100
AcDbCircle
 10
7.234174000000165
 20
19.91452799999933
 30
0.0
 40
11.765826
100
AcDbArc
 50
325.6697989999698
 51
34.33020100003022
  0
LINE
  5
561A
330
55F9
100
AcDbEntity
  8
AM_0 外形線1
100
AcDbLine
 10
16.95040700000027
 20
26.54999999999927
 30
0.0
 11
19.0
 21
23.0
 31
0.0
  0
LINE
  5
561B
330
55F9
100
AcDbEntity
  8
AM_0 外形線1
100
AcDbLine
 10
-2.5
 20
-16.0
 30
0.0
 11
-2.5
 21
16.0
 31
0.0
  0
ARC
  5
561C
330
55F9
100
AcDbEntity
  8
AM_0 外形線1
100
AcDbCircle
 10
7.234174000000165
 20
-19.91452800000024
 30
0.0
 40
11.765826
100
AcDbArc
 50
325.6697989999698
 51
34.33020100003022
  0
ARC
  5
561D
330
55F9
100
AcDbEntity
  8
AM_0 外形線1
100
AcDbCircle
 10
-25.0414579999997
 20
0.0
 30
0.0
 40
44.041458
100
AcDbArc
 50
342.4515210000245
 51
17.54847899997544
  0
LINE
  5
561E
330
55F9
100
AcDbEntity
  8
AM_0 外形線1
100
AcDbLine
 10
0.0
 20
-13.27905700000065
 30
0.0
 11
16.95040700000027
 21
-13.27905700000065
 31
0.0
  0
LINE
  5
561F
330
55F9
100
AcDbEntity
  8
AM_0 外形線1
100
AcDbLine
 10
0.0
 20
13.2790559999994
 30
0.0
 11
16.95040700000027
 21
13.2790559999994
 31
0.0
  0
LINE
  5
5620
330
55F9
100
AcDbEntity
  8
AM_0 外形線1
100
AcDbLine
 10
16.95040700000027
 20
-26.55000000000018
 30
0.0
 11
0.0
 21
-26.55000000000018
 31
0.0
  0
LINE
  5
5621
330
55F9
100
AcDbEntity
  8
AM_0 外形線1
100
AcDbLine
 10
19.0
 20
-23.0
 30
0.0
 11
16.95040700000027
 21
-26.55000000000018
 31
0.0
  0
LINE
  5
5622
330
55F9
100
AcDbEntity
  8
AM_0 外形線1
100
AcDbLine
 10
19.0
 20
23.0
 30
0.0
 11
19.0
 21
-23.0
 31
0.0
  0
LINE
  5
5623
330
55F9
100
AcDbEntity
  8
AM_0 外形線1
100
AcDbLine
 10
0.0
 20
26.54999999999927
 30
0.0
 11
16.95040700000027
 21
26.54999999999927
 31
0.0
  0
LINE
  5
5685
330
55F9
100
AcDbEntity
  8
AM_0 外形線1
100
AcDbLine
 10
-76.0
 20
25.04999999999927
 30
0.0
 11
-76.0
 21
-25.05000000000064
 31
0.0
  0
LINE
  5
5686
330
55F9
100
AcDbEntity
  8
AM_0 外形線1
100
AcDbLine
 10
-73.0
 20
16.0
 30
0.0
 11
0.0
 21
16.0
 31
0.0
  0
LINE
  5
5687
330
55F9
100
AcDbEntity
  8
AM_0 外形線1
100
AcDbLine
 10
-72.99999999999862
 20
-16.00000000000318
 30
0.0
 11
0.0000000000013642
 21
-15.99999999999772
 31
0.0
  0
LINE
  5
5688
330
55F9
100
AcDbEntity
  8
AM_0 外形線1
100
AcDbLine
 10
0.0
 20
26.54999999999927
 30
0.0
 11
0.0
 21
-26.55000000000018
 31
0.0
  0
ENDBLK
  5
55FB
330
55F9
100
AcDbEntity
  8
0
100
AcDbBlockEnd
  0
BLOCK
  5
5753
330
5752
100
AcDbEntity
  8
0
100
AcDbBlockBegin
  2
ＧＣサイドカバ－A CCMH800
 70
     0
 10
0.0
 20
0.0
 30
0.0
  3
ＧＣサイドカバ－A CCMH800
  1

  0
LINE
  5
5755
330
5752
100
AcDbEntity
  8
AM_7 中心線
100
AcDbLine
 10
-29.64184399999977
 20
-330.0
 30
0.0
 11
35.60638300000028
 21
-330.0
 31
0.0
  0
LINE
  5
5756
330
5752
100
AcDbEntity
  8
AM_0 外形線1
100
AcDbLine
 10
18.0
 20
-345.0
 30
0.0
 11
18.0
 21
0.0
 31
0.0
  0
LINE
  5
5757
330
5752
100
AcDbEntity
  8
AM_0 外形線1
100
AcDbLine
 10
0.0
 20
-344.9999999999998
 30
0.0
 11
18.0
 21
-345.0
 31
0.0
  0
LINE
  5
5758
330
5752
100
AcDbEntity
  8
AM_7 中心線
100
AcDbLine
 10
-29.64184399999977
 20
330.0000000000005
 30
0.0
 11
35.60638300000028
 21
330.0000000000005
 31
0.0
  0
LINE
  5
5759
330
5752
100
AcDbEntity
  8
AM_0 外形線1
100
AcDbLine
 10
-26.97335399999975
 20
330.0000000000005
 30
0.0
 11
-24.0
 21
324.8499999999999
 31
0.0
  0
LINE
  5
575A
330
5752
100
AcDbEntity
  8
AM_0 外形線1
100
AcDbLine
 10
-24.0
 20
335.1500000000001
 30
0.0
 11
-26.97335399999975
 21
330.0000000000005
 31
0.0
  0
LINE
  5
575B
330
5752
100
AcDbEntity
  8
AM_0 外形線1
100
AcDbLine
 10
29.0
 20
338.2125000000001
 30
0.0
 11
29.0
 21
321.7874999999999
 31
0.0
  0
ARC
  5
575C
330
5752
100
AcDbEntity
  8
AM_0 外形線1
100
AcDbCircle
 10
24.61118700000043
 20
338.207586
 30
0.0
 40
4.388816
100
AcDbArc
 50
321.3277799999667
 51
38.67222000003333
  0
LINE
  5
575D
330
5752
100
AcDbEntity
  8
AM_0 外形線1
100
AcDbLine
 10
21.0
 20
340.8000000000007
 30
0.0
 11
21.0
 21
319.2000000000003
 31
0.0
  0
LINE
  5
575E
330
5752
100
AcDbEntity
  8
AM_0 外形線1
100
AcDbLine
 10
18.0
 20
345.0000000000005
 30
0.0
 11
18.0
 21
318.8000000000006
 31
0.0
  0
LINE
  5
575F
330
5752
100
AcDbEntity
  8
AM_0 外形線1
100
AcDbLine
 10
18.0
 20
335.1500000000001
 30
0.0
 11
-19.0
 21
335.1500000000001
 31
0.0
  0
LINE
  5
5760
330
5752
100
AcDbEntity
  8
AM_0 外形線1
100
AcDbLine
 10
-19.0
 20
324.8499999999999
 30
0.0
 11
18.0
 21
324.8499999999999
 31
0.0
  0
LINE
  5
5761
330
5752
100
AcDbEntity
  8
AM_4 細線
100
AcDbLine
 10
-19.0
 20
336.0000000000005
 30
0.0
 11
18.0
 21
336.0000000000005
 31
0.0
  0
LINE
  5
5762
330
5752
100
AcDbEntity
  8
AM_4 細線
100
AcDbLine
 10
18.0
 20
324.0000000000005
 30
0.0
 11
-19.0
 21
324.0000000000005
 31
0.0
  0
LINE
  5
5763
330
5752
100
AcDbEntity
  8
AM_0 外形線1
100
AcDbLine
 10
18.0
 20
323.0000000000004
 30
0.0
 11
0.0
 21
323.0000000000004
 31
0.0
  0
LINE
  5
5764
330
5752
100
AcDbEntity
  8
AM_0 外形線1
100
AcDbLine
 10
18.0
 20
337.0000000000004
 30
0.0
 11
0.0
 21
337.0000000000004
 31
0.0
  0
LINE
  5
5765
330
5752
100
AcDbEntity
  8
AM_0 外形線1
100
AcDbLine
 10
18.0
 20
287.0000000000004
 30
0.0
 11
13.0
 21
287.0000000000004
 31
0.0
  0
LWPOLYLINE
  5
5766
330
5752
100
AcDbEntity
  8
AM_0 外形線1
100
AcDbPolyline
 90
       73
 70
     0
 43
0.0
 10
1.550000000000181
 20
313.5000000000005
 10
1.685091000000284
 20
313.510084
 10
1.819155000000137
 20
313.5402589999999
 10
1.951170000000274
 20
313.5902959999999
 10
2.08013099999971
 20
313.6598140000001
 10
2.205057999999553
 20
313.7482839999998
 10
2.324999999999818
 20
313.8550319999999
 10
2.439043000000309
 20
313.9792469999997
 10
2.546320999999806
 20
314.1199819999997
 10
2.64601500000026
 20
314.2761670000004
 10
2.737369000000398
 20
314.4466120000002
 10
2.819685999999818
 20
314.6300219999998
 10
2.892338999999991
 20
314.8250000000003
 10
2.954776999999921
 20
315.0300609999999
 10
3.006524000000353
 20
315.2436460000004
 10
3.047185000000353
 20
315.4641290000004
 10
3.076452000000243
 20
315.6898319999996
 10
3.09410200000002
 20
315.9190370000001
 10
3.100000000000362
 20
316.1500000000001
 10
3.09410200000002
 20
316.3809619999997
 10
3.076452000000243
 20
316.6101670000003
 10
3.047185000000353
 20
316.8358700000003
 10
3.006524000000353
 20
317.0563529999995
 10
2.954776999999921
 20
317.2699379999999
 10
2.892338999999991
 20
317.4749999999999
 10
2.819685999999818
 20
317.669977
 10
2.737369000000398
 20
317.8533869999997
 10
2.64601500000026
 20
318.0238329999998
 10
2.546320999999806
 20
318.1800170000002
 10
2.439043000000309
 20
318.3207529999995
 10
2.324999999999818
 20
318.4449669999999
 10
2.205057999999553
 20
318.5517150000001
 10
2.08013099999971
 20
318.6401849999997
 10
1.951170000000274
 20
318.709703
 10
1.819155000000137
 20
318.75974
 10
1.685091000000284
 20
318.7899160000002
 10
1.550000000000181
 20
318.8000000000006
 10
1.414909000000078
 20
318.7899160000002
 10
1.280845000000225
 20
318.75974
 10
1.148830000000089
 20
318.709703
 10
1.019868999999743
 20
318.6401849999997
 10
0.8949419999999006
 20
318.5517150000001
 10
0.7749999999996362
 20
318.4449669999999
 10
0.6609570000000531
 20
318.3207529999995
 10
0.5536789999996472
 20
318.1800170000002
 10
0.4539839999997639
 20
318.0238329999998
 10
0.3626309999999648
 20
317.8533869999997
 10
0.2803139999996347
 20
317.669977
 10
0.2076610000003711
 20
317.4749999999999
 10
0.1452229999995325
 20
317.2699379999999
 10
0.0934760000000097
 20
317.0563529999995
 10
0.0528150000000096
 20
316.8358700000003
 10
0.0235480000001189
 20
316.6101670000003
 10
0.0058979999994335
 20
316.3809619999997
 10
0.0
 20
316.1500000000001
 10
0.0058979999994335
 20
315.9190370000001
 10
0.0235480000001189
 20
315.6898319999996
 10
0.0528150000000096
 20
315.4641290000004
 10
0.0934760000000097
 20
315.2436460000004
 10
0.1452229999995325
 20
315.0300609999999
 10
0.2076610000003711
 20
314.8250000000003
 10
0.2803139999996347
 20
314.6300219999998
 10
0.3626309999999648
 20
314.4466120000002
 10
0.4539839999997639
 20
314.2761670000004
 10
0.5536789999996472
 20
314.1199819999997
 10
0.6609570000000531
 20
313.9792469999997
 10
0.7749999999996362
 20
313.8550319999999
 10
0.8949419999999006
 20
313.7482839999998
 10
1.019868999999743
 20
313.6598140000001
 10
1.148830000000089
 20
313.5902959999999
 10
1.280845000000225
 20
313.5402589999999
 10
1.414909000000078
 20
313.510084
 10
1.550000000000181
 20
313.5000000000005
  0
LWPOLYLINE
  5
5767
330
5752
100
AcDbEntity
  8
AM_0 外形線1
100
AcDbPolyline
 90
       73
 70
     0
 43
0.0
 10
-1.0
 20
289.0999999999999
 10
-0.973363000000063
 20
288.7426609999998
 10
-0.8936539999995146
 20
288.388042
 10
-0.7614809999995487
 20
288.0388420000004
 10
-0.5778479999999036
 20
287.6977169999996
 10
-0.3441549999997733
 20
287.3672650000003
 10
-0.0621780000001309
 20
287.0500000000006
 10
0.2659359999997832
 20
286.7483360000001
 10
0.6376890000001369
 20
286.4645700000005
 10
1.050253000000338
 20
286.2008620000001
 10
1.500487000000247
 20
285.9592170000001
 10
1.984964999999646
 20
285.7414759999997
 10
2.5
 20
285.5492950000003
 10
3.04167199999938
 20
285.3841379999999
 10
3.605859000000235
 20
285.2472599999996
 10
4.188266999999541
 20
285.1397039999997
 10
4.784462999999958
 20
285.0622880000005
 10
5.389909999999872
 20
285.0156009999996
 10
6.0
 20
285.0000000000004
 10
6.610090000000127
 20
285.0156009999996
 10
7.21553700000004
 20
285.0622880000005
 10
7.811733000000456
 20
285.1397039999997
 10
8.394140999999763
 20
285.2472599999996
 10
8.958327999999712
 20
285.3841379999999
 10
9.5
 20
285.5492950000003
 10
10.01503500000035
 20
285.7414759999997
 10
10.49951299999975
 20
285.9592170000001
 10
10.94974699999966
 20
286.2008620000001
 10
11.36231099999986
 20
286.4645700000005
 10
11.73406400000021
 20
286.7483360000001
 10
12.06217800000013
 20
287.0500000000006
 10
12.34415400000034
 20
287.3672650000003
 10
12.5778479999999
 20
287.6977169999996
 10
12.76148099999955
 20
288.0388420000004
 10
12.89365399999951
 20
288.388042
 10
12.97336300000006
 20
288.7426609999998
 10
13.0
 20
289.0999999999999
 10
12.97336300000006
 20
289.4573379999997
 10
12.89365399999951
 20
289.8119569999995
 10
12.76148099999955
 20
290.1611580000004
 10
12.5778479999999
 20
290.5022819999999
 10
12.34415400000034
 20
290.8327350000003
 10
12.06217800000013
 20
291.1500000000001
 10
11.73406400000021
 20
291.4516630000003
 10
11.36231099999986
 20
291.7354289999998
 10
10.94974699999966
 20
291.9991370000003
 10
10.49951299999975
 20
292.2407819999994
 10
10.01503500000035
 20
292.4585229999998
 10
9.5
 20
292.6507040000002
 10
8.958327999999712
 20
292.8158619999999
 10
8.394140999999763
 20
292.9527389999998
 10
7.811733000000456
 20
293.0602960000001
 10
7.21553700000004
 20
293.1377109999999
 10
6.610090000000127
 20
293.1843979999999
 10
6.0
 20
293.2000000000003
 10
5.389909999999872
 20
293.1843979999999
 10
4.784462999999958
 20
293.1377109999999
 10
4.188266999999541
 20
293.0602960000001
 10
3.605859000000235
 20
292.9527389999998
 10
3.04167199999938
 20
292.8158619999999
 10
2.5
 20
292.6507040000002
 10
1.984964999999646
 20
292.4585229999998
 10
1.500487000000247
 20
292.2407819999994
 10
1.050253000000338
 20
291.9991370000003
 10
0.6376890000001369
 20
291.7354289999998
 10
0.2659359999997832
 20
291.4516630000003
 10
-0.0621780000001309
 20
291.1500000000001
 10
-0.3441549999997733
 20
290.8327350000003
 10
-0.5778479999999036
 20
290.5022819999999
 10
-0.7614809999995487
 20
290.1611580000004
 10
-0.8936539999995146
 20
289.8119569999995
 10
-0.973363000000063
 20
289.4573379999997
 10
-1.0
 20
289.0999999999999
  0
LINE
  5
5769
330
5752
100
AcDbEntity
  8
AM_0 外形線1
100
AcDbLine
 10
3.100000000000362
 20
313.5000000000005
 30
0.0
 11
-6.0
 21
313.5000000000005
 31
0.0
  0
LINE
  5
576A
330
5752
100
AcDbEntity
  8
AM_0 外形線1
100
AcDbLine
 10
3.100000000000362
 20
318.8000000000006
 30
0.0
 11
3.100000000000362
 21
313.5000000000005
 31
0.0
  0
LINE
  5
576B
330
5752
100
AcDbEntity
  8
AM_0 外形線1
100
AcDbLine
 10
0.0
 20
318.8000000000006
 30
0.0
 11
3.100000000000362
 21
318.8000000000006
 31
0.0
  0
LINE
  5
576C
330
5752
100
AcDbEntity
  8
AM_0 外形線1
100
AcDbLine
 10
-24.0
 20
335.1500000000001
 30
0.0
 11
-24.0
 21
324.8499999999999
 31
0.0
  0
LINE
  5
576D
330
5752
100
AcDbEntity
  8
AM_0 外形線1
100
AcDbLine
 10
-24.0
 20
324.8499999999999
 30
0.0
 11
-19.0
 21
324.8499999999999
 31
0.0
  0
LINE
  5
576E
330
5752
100
AcDbEntity
  8
AM_0 外形線1
100
AcDbLine
 10
-19.0
 20
335.1500000000001
 30
0.0
 11
-24.0
 21
335.1500000000001
 31
0.0
  0
LINE
  5
576F
330
5752
100
AcDbEntity
  8
AM_0 外形線1
100
AcDbLine
 10
-19.0
 20
324.0000000000005
 30
0.0
 11
-19.0
 21
336.0000000000005
 31
0.0
  0
LINE
  5
5770
330
5752
100
AcDbEntity
  8
AM_0 外形線1
100
AcDbLine
 10
-6.0
 20
287.0000000000004
 30
0.0
 11
-6.0
 21
313.5000000000005
 31
0.0
  0
LINE
  5
5771
330
5752
100
AcDbEntity
  8
AM_0 外形線1
100
AcDbLine
 10
-1.0
 20
287.0000000000004
 30
0.0
 11
-6.0
 21
287.0000000000004
 31
0.0
  0
LINE
  5
5772
330
5752
100
AcDbEntity
  8
AM_0 外形線1
100
AcDbLine
 10
-1.0
 20
293.2000000000003
 30
0.0
 11
-1.0
 21
287.0000000000004
 31
0.0
  0
LINE
  5
5773
330
5752
100
AcDbEntity
  8
AM_0 外形線1
100
AcDbLine
 10
13.0
 20
293.2000000000003
 30
0.0
 11
-1.0
 21
293.2000000000003
 31
0.0
  0
LINE
  5
5774
330
5752
100
AcDbEntity
  8
AM_0 外形線1
100
AcDbLine
 10
13.0
 20
287.0000000000004
 30
0.0
 11
13.0
 21
293.2000000000003
 31
0.0
  0
LINE
  5
5775
330
5752
100
AcDbEntity
  8
AM_0 外形線1
100
AcDbLine
 10
-6.0
 20
287.0000000000004
 30
0.0
 11
-6.0
 21
285.0000000000004
 31
0.0
  0
LINE
  5
5776
330
5752
100
AcDbEntity
  8
AM_0 外形線1
100
AcDbLine
 10
-1.0
 20
287.0000000000004
 30
0.0
 11
-1.0
 21
285.0000000000004
 31
0.0
  0
LINE
  5
5777
330
5752
100
AcDbEntity
  8
AM_0 外形線1
100
AcDbLine
 10
13.0
 20
287.0000000000004
 30
0.0
 11
13.0
 21
285.0000000000004
 31
0.0
  0
LINE
  5
5778
330
5752
100
AcDbEntity
  8
AM_0 外形線1
100
AcDbLine
 10
21.0
 20
331.0000000000004
 30
0.0
 11
18.0
 21
327.5000000000005
 31
0.0
  0
LINE
  5
5779
330
5752
100
AcDbEntity
  8
AM_0 外形線1
100
AcDbLine
 10
18.0
 20
329.0000000000004
 30
0.0
 11
21.0
 21
332.5000000000005
 31
0.0
  0
LINE
  5
577A
330
5752
100
AcDbEntity
  8
AM_0 外形線1
100
AcDbLine
 10
28.03768200000013
 20
335.4651719999997
 30
0.0
 11
21.0
 21
335.4651719999997
 31
0.0
  0
LINE
  5
577B
330
5752
100
AcDbEntity
  8
AM_0 外形線1
100
AcDbLine
 10
28.03768200000013
 20
324.534827
 30
0.0
 11
21.0
 21
324.534827
 31
0.0
  0
LINE
  5
577C
330
5752
100
AcDbEntity
  8
AM_0 外形線1
100
AcDbLine
 10
21.0
 20
319.0500000000006
 30
0.0
 11
21.0
 21
319.2000000000003
 31
0.0
  0
LINE
  5
577D
330
5752
100
AcDbEntity
  8
AM_0 外形線1
100
AcDbLine
 10
28.03768200000013
 20
319.0500000000006
 30
0.0
 11
21.0
 21
319.0500000000006
 31
0.0
  0
ARC
  5
577E
330
5752
100
AcDbEntity
  8
AM_0 外形線1
100
AcDbCircle
 10
24.61118700000043
 20
321.7924129999996
 30
0.0
 40
4.388816
100
AcDbArc
 50
321.3277799999667
 51
38.67222000003333
  0
ARC
  5
577F
330
5752
100
AcDbEntity
  8
AM_0 外形線1
100
AcDbCircle
 10
13.0
 20
330.0000000000005
 30
0.0
 40
16.0
100
AcDbArc
 50
340.027244000012
 51
19.97275599998791
  0
LINE
  5
5780
330
5752
100
AcDbEntity
  8
AM_0 外形線1
100
AcDbLine
 10
21.0
 20
319.2000000000003
 30
0.0
 11
18.0
 21
319.2000000000003
 31
0.0
  0
LINE
  5
5781
330
5752
100
AcDbEntity
  8
AM_0 外形線1
100
AcDbLine
 10
18.0
 20
318.8000000000006
 30
0.0
 11
18.0
 21
287.0000000000004
 31
0.0
  0
LINE
  5
5782
330
5752
100
AcDbEntity
  8
AM_0 外形線1
100
AcDbLine
 10
18.0
 20
287.0000000000004
 30
0.0
 11
18.0
 21
285.0000000000004
 31
0.0
  0
LINE
  5
5783
330
5752
100
AcDbEntity
  8
AM_0 外形線1
100
AcDbLine
 10
21.0
 20
340.9500000000003
 30
0.0
 11
28.03768200000013
 21
340.9500000000003
 31
0.0
  0
LINE
  5
5784
330
5752
100
AcDbEntity
  8
AM_0 外形線1
100
AcDbLine
 10
21.0
 20
340.8000000000007
 30
0.0
 11
21.0
 21
340.9500000000003
 31
0.0
  0
LINE
  5
5785
330
5752
100
AcDbEntity
  8
AM_0 外形線1
100
AcDbLine
 10
18.0
 20
340.8000000000007
 30
0.0
 11
21.0
 21
340.8000000000007
 31
0.0
  0
LINE
  5
5786
330
5752
100
AcDbEntity
  8
AM_0 外形線1
100
AcDbLine
 10
0.0
 20
345.0000000000005
 30
0.0
 11
18.0
 21
345.0000000000005
 31
0.0
  0
LINE
  5
57FB
330
5752
100
AcDbEntity
  8
AM_0 外形線1
100
AcDbLine
 10
0.0
 20
-344.9999999999998
 30
0.0
 11
0.0
 21
0.0
 31
0.0
  0
LINE
  5
57FC
330
5752
100
AcDbEntity
  8
AM_0 外形線1
100
AcDbLine
 10
0.0
 20
345.0000000000005
 30
0.0
 11
0.0
 21
336.0000000000005
 31
0.0
  0
LINE
  5
57FD
330
5752
100
AcDbEntity
  8
AM_0 外形線1
100
AcDbLine
 10
0.0
 20
324.0000000000005
 30
0.0
 11
0.0
 21
318.8000000000006
 31
0.0
  0
ENDBLK
  5
5754
330
5752
100
AcDbEntity
  8
0
100
AcDbBlockEnd
  0
BLOCK
  5
5876
330
5875
100
AcDbEntity
  8
0
100
AcDbBlockBegin
  2
ＧＣサイドカバ－Ｂ CCMH800
 70
     0
 10
0.0
 20
0.0
 30
0.0
  3
ＧＣサイドカバ－Ｂ CCMH800
  1

  0
LINE
  5
5879
330
5875
100
AcDbEntity
  8
AM_7 中心線
100
AcDbLine
 10
29.64184399999977
 20
-330.0
 30
0.0
 11
-35.18794299999991
 21
-330.0
 31
0.0
  0
LINE
  5
587A
330
5875
100
AcDbEntity
  8
AM_0 外形線1
100
AcDbLine
 10
-18.0
 20
-345.0
 30
0.0
 11
-18.0
 21
0.0
 31
0.0
  0
LINE
  5
587B
330
5875
100
AcDbEntity
  8
AM_0 外形線1
100
AcDbLine
 10
-29.0
 20
338.2125000000001
 30
0.0
 11
-29.0
 21
321.7874999999999
 31
0.0
  0
ARC
  5
587C
330
5875
100
AcDbEntity
  8
AM_0 外形線1
100
AcDbCircle
 10
-24.61118700000043
 20
338.207586
 30
0.0
 40
4.388816
100
AcDbArc
 50
141.3277799999748
 51
218.6722200000251
  0
LINE
  5
587D
330
5875
100
AcDbEntity
  8
AM_0 外形線1
100
AcDbLine
 10
-21.0
 20
340.8000000000007
 30
0.0
 11
-21.0
 21
319.2000000000003
 31
0.0
  0
LINE
  5
587E
330
5875
100
AcDbEntity
  8
AM_0 外形線1
100
AcDbLine
 10
-18.0
 20
287.0000000000004
 30
0.0
 11
-18.0
 21
345.0000000000005
 31
0.0
  0
LINE
  5
587F
330
5875
100
AcDbEntity
  8
AM_7 中心線
100
AcDbLine
 10
29.64184399999977
 20
330.0000000000005
 30
0.0
 11
-35.18794299999991
 21
330.0000000000005
 31
0.0
  0
LINE
  5
5880
330
5875
100
AcDbEntity
  8
AM_0 外形線1
100
AcDbLine
 10
-18.0
 20
331.0000000000004
 30
0.0
 11
-21.0
 21
327.5000000000005
 31
0.0
  0
LINE
  5
5881
330
5875
100
AcDbEntity
  8
AM_0 外形線1
100
AcDbLine
 10
-21.0
 20
329.0000000000004
 30
0.0
 11
-18.0
 21
332.5000000000005
 31
0.0
  0
LINE
  5
5882
330
5875
100
AcDbEntity
  8
AM_0 外形線1
100
AcDbLine
 10
-21.0
 20
319.2000000000003
 30
0.0
 11
-18.0
 21
319.2000000000003
 31
0.0
  0
LINE
  5
5883
330
5875
100
AcDbEntity
  8
AM_0 外形線1
100
AcDbLine
 10
-28.03768200000013
 20
335.4651719999997
 30
0.0
 11
-21.0
 21
335.4651719999997
 31
0.0
  0
LINE
  5
5884
330
5875
100
AcDbEntity
  8
AM_0 外形線1
100
AcDbLine
 10
-28.03768200000013
 20
324.534827
 30
0.0
 11
-21.0
 21
324.534827
 31
0.0
  0
LINE
  5
5885
330
5875
100
AcDbEntity
  8
AM_0 外形線1
100
AcDbLine
 10
-21.0
 20
319.0500000000006
 30
0.0
 11
-21.0
 21
319.2000000000003
 31
0.0
  0
LINE
  5
5886
330
5875
100
AcDbEntity
  8
AM_0 外形線1
100
AcDbLine
 10
-28.03768200000013
 20
319.0500000000006
 30
0.0
 11
-21.0
 21
319.0500000000006
 31
0.0
  0
ARC
  5
5887
330
5875
100
AcDbEntity
  8
AM_0 外形線1
100
AcDbCircle
 10
-24.61118700000043
 20
321.7924129999996
 30
0.0
 40
4.388816
100
AcDbArc
 50
141.3277799999748
 51
218.6722200000251
  0
ARC
  5
5888
330
5875
100
AcDbEntity
  8
AM_0 外形線1
100
AcDbCircle
 10
-13.0
 20
330.0000000000005
 30
0.0
 40
16.0
100
AcDbArc
 50
160.0272440000076
 51
199.9727559999923
  0
LINE
  5
5889
330
5875
100
AcDbEntity
  8
AM_0 外形線1
100
AcDbLine
 10
24.0
 20
324.8499999999999
 30
0.0
 11
19.0
 21
324.8499999999999
 31
0.0
  0
LINE
  5
588A
330
5875
100
AcDbEntity
  8
AM_0 外形線1
100
AcDbLine
 10
19.0
 20
335.1500000000001
 30
0.0
 11
24.0
 21
335.1500000000001
 31
0.0
  0
LWPOLYLINE
  5
588B
330
5875
100
AcDbEntity
  8
AM_0 外形線1
100
AcDbPolyline
 90
       73
 70
     0
 43
0.0
 10
-1.550000000000181
 20
313.5000000000005
 10
-1.414909000000078
 20
313.510084
 10
-1.280844999999317
 20
313.5402589999999
 10
-1.148830000000089
 20
313.5902959999999
 10
-1.019868999999743
 20
313.6598140000001
 10
-0.8949419999999006
 20
313.7482839999998
 10
-0.7749999999996362
 20
313.8550319999999
 10
-0.6609570000000531
 20
313.9792469999997
 10
-0.5536789999996472
 20
314.1199819999997
 10
-0.4539850000001026
 20
314.2761670000004
 10
-0.3626309999999648
 20
314.4466120000002
 10
-0.2803139999996347
 20
314.6300219999998
 10
-0.2076610000003711
 20
314.8250000000003
 10
-0.1452229999995325
 20
315.0300609999999
 10
-0.0934760000000097
 20
315.2436460000004
 10
-0.0528150000000096
 20
315.4641290000004
 10
-0.0235480000001189
 20
315.6898319999996
 10
-0.0058979999994335
 20
315.9190370000001
 10
0.0
 20
316.1500000000001
 10
-0.0058979999994335
 20
316.3809619999997
 10
-0.0235480000001189
 20
316.6101670000003
 10
-0.0528150000000096
 20
316.8358700000003
 10
-0.0934760000000097
 20
317.0563529999995
 10
-0.1452229999995325
 20
317.2699379999999
 10
-0.2076610000003711
 20
317.4749999999999
 10
-0.2803139999996347
 20
317.669977
 10
-0.3626309999999648
 20
317.8533869999997
 10
-0.4539850000001026
 20
318.0238329999998
 10
-0.5536789999996472
 20
318.1800170000002
 10
-0.6609570000000531
 20
318.3207529999995
 10
-0.7749999999996362
 20
318.4449669999999
 10
-0.8949419999999006
 20
318.5517150000001
 10
-1.019868999999743
 20
318.6401849999997
 10
-1.148830000000089
 20
318.709703
 10
-1.280844999999317
 20
318.75974
 10
-1.414909000000078
 20
318.7899160000002
 10
-1.550000000000181
 20
318.8000000000006
 10
-1.685091000000284
 20
318.7899160000002
 10
-1.819155000000137
 20
318.75974
 10
-1.951170000000274
 20
318.709703
 10
-2.080131000000618
 20
318.6401849999997
 10
-2.205058000000462
 20
318.5517150000001
 10
-2.324999999999818
 20
318.4449669999999
 10
-2.439043000000309
 20
318.3207529999995
 10
-2.546320999999806
 20
318.1800170000002
 10
-2.646015999999689
 20
318.0238329999998
 10
-2.737369000000398
 20
317.8533869999997
 10
-2.819685999999818
 20
317.669977
 10
-2.892338999999991
 20
317.4749999999999
 10
-2.954776999999921
 20
317.2699379999999
 10
-3.006524000000353
 20
317.0563529999995
 10
-3.047184999999443
 20
316.8358700000003
 10
-3.076451999999334
 20
316.6101670000003
 10
-3.09410200000002
 20
316.3809619999997
 10
-3.100000000000362
 20
316.1500000000001
 10
-3.09410200000002
 20
315.9190370000001
 10
-3.076451999999334
 20
315.6898319999996
 10
-3.047184999999443
 20
315.4641290000004
 10
-3.006524000000353
 20
315.2436460000004
 10
-2.954776999999921
 20
315.0300609999999
 10
-2.892338999999991
 20
314.8250000000003
 10
-2.819685999999818
 20
314.6300219999998
 10
-2.737369000000398
 20
314.4466120000002
 10
-2.646015999999689
 20
314.2761670000004
 10
-2.546320999999806
 20
314.1199819999997
 10
-2.439043000000309
 20
313.9792469999997
 10
-2.324999999999818
 20
313.8550319999999
 10
-2.205058000000462
 20
313.7482839999998
 10
-2.080131000000618
 20
313.6598140000001
 10
-1.951170000000274
 20
313.5902959999999
 10
-1.819155000000137
 20
313.5402589999999
 10
-1.685091000000284
 20
313.510084
 10
-1.550000000000181
 20
313.5000000000005
  0
LWPOLYLINE
  5
588C
330
5875
100
AcDbEntity
  8
AM_0 外形線1
100
AcDbPolyline
 90
       73
 70
     0
 43
0.0
 10
1.0
 20
289.0999999999999
 10
0.973363000000063
 20
289.4573379999997
 10
0.8936539999995146
 20
289.8119569999995
 10
0.7614809999995487
 20
290.1611580000004
 10
0.5778479999999036
 20
290.5022819999999
 10
0.3441540000003442
 20
290.8327350000003
 10
0.0621780000001309
 20
291.1500000000001
 10
-0.2659359999997832
 20
291.4516630000003
 10
-0.6376890000001369
 20
291.7354289999998
 10
-1.050253000000338
 20
291.9991370000003
 10
-1.500487000000247
 20
292.2407819999994
 10
-1.984964999999646
 20
292.4585229999998
 10
-2.5
 20
292.6507040000002
 10
-3.04167199999938
 20
292.8158619999999
 10
-3.605858999999326
 20
292.9527389999998
 10
-4.188266999999541
 20
293.0602960000001
 10
-4.784462999999958
 20
293.1377109999999
 10
-5.389909999999872
 20
293.1843979999999
 10
-6.0
 20
293.2000000000003
 10
-6.610090000000127
 20
293.1843979999999
 10
-7.21553700000004
 20
293.1377109999999
 10
-7.811733000000456
 20
293.0602960000001
 10
-8.394140999999763
 20
292.9527389999998
 10
-8.958328000000618
 20
292.8158619999999
 10
-9.5
 20
292.6507040000002
 10
-10.01503500000035
 20
292.4585229999998
 10
-10.49951299999975
 20
292.2407819999994
 10
-10.94974699999966
 20
291.9991370000003
 10
-11.36231099999986
 20
291.7354289999998
 10
-11.73406400000021
 20
291.4516630000003
 10
-12.06217800000013
 20
291.1500000000001
 10
-12.34415500000068
 20
290.8327350000003
 10
-12.5778479999999
 20
290.5022819999999
 10
-12.76148099999955
 20
290.1611580000004
 10
-12.89365399999951
 20
289.8119569999995
 10
-12.97336299999915
 20
289.4573379999997
 10
-13.0
 20
289.0999999999999
 10
-12.97336299999915
 20
288.7426609999998
 10
-12.89365399999951
 20
288.388042
 10
-12.76148099999955
 20
288.0388420000004
 10
-12.5778479999999
 20
287.6977169999996
 10
-12.34415500000068
 20
287.3672650000003
 10
-12.06217800000013
 20
287.0500000000006
 10
-11.73406400000021
 20
286.7483360000001
 10
-11.36231099999986
 20
286.4645700000005
 10
-10.94974699999966
 20
286.2008620000001
 10
-10.49951299999975
 20
285.9592170000001
 10
-10.01503500000035
 20
285.7414759999997
 10
-9.5
 20
285.5492950000003
 10
-8.958328000000618
 20
285.3841379999999
 10
-8.394140999999763
 20
285.2472599999996
 10
-7.811733000000456
 20
285.1397039999997
 10
-7.21553700000004
 20
285.0622880000005
 10
-6.610090000000127
 20
285.0156009999996
 10
-6.0
 20
285.0000000000004
 10
-5.389909999999872
 20
285.0156009999996
 10
-4.784462999999958
 20
285.0622880000005
 10
-4.188266999999541
 20
285.1397039999997
 10
-3.605858999999326
 20
285.2472599999996
 10
-3.04167199999938
 20
285.3841379999999
 10
-2.5
 20
285.5492950000003
 10
-1.984964999999646
 20
285.7414759999997
 10
-1.500487000000247
 20
285.9592170000001
 10
-1.050253000000338
 20
286.2008620000001
 10
-0.6376890000001369
 20
286.4645700000005
 10
-0.2659359999997832
 20
286.7483360000001
 10
0.0621780000001309
 20
287.0500000000006
 10
0.3441540000003442
 20
287.3672650000003
 10
0.5778479999999036
 20
287.6977169999996
 10
0.7614809999995487
 20
288.0388420000004
 10
0.8936539999995146
 20
288.388042
 10
0.973363000000063
 20
288.7426609999998
 10
1.0
 20
289.0999999999999
  0
LINE
  5
588D
330
5875
100
AcDbEntity
  8
AM_0 外形線1
100
AcDbLine
 10
19.0
 20
324.8499999999999
 30
0.0
 11
-18.0
 21
324.8499999999999
 31
0.0
  0
LINE
  5
588E
330
5875
100
AcDbEntity
  8
AM_0 外形線1
100
AcDbLine
 10
-18.0
 20
335.1500000000001
 30
0.0
 11
19.0
 21
335.1500000000001
 31
0.0
  0
LINE
  5
5890
330
5875
100
AcDbEntity
  8
AM_0 外形線1
100
AcDbLine
 10
-3.100000000000362
 20
318.8000000000006
 30
0.0
 11
-3.100000000000362
 21
313.5000000000005
 31
0.0
  0
LINE
  5
5891
330
5875
100
AcDbEntity
  8
AM_0 外形線1
100
AcDbLine
 10
0.0
 20
318.8000000000006
 30
0.0
 11
-3.100000000000362
 21
318.8000000000006
 31
0.0
  0
LINE
  5
5892
330
5875
100
AcDbEntity
  8
AM_4 細線
100
AcDbLine
 10
19.0
 20
336.0000000000005
 30
0.0
 11
-18.0
 21
336.0000000000005
 31
0.0
  0
LINE
  5
5893
330
5875
100
AcDbEntity
  8
AM_0 外形線1
100
AcDbLine
 10
19.0
 20
324.0000000000005
 30
0.0
 11
19.0
 21
336.0000000000005
 31
0.0
  0
LINE
  5
5894
330
5875
100
AcDbEntity
  8
AM_4 細線
100
AcDbLine
 10
-18.0
 20
324.0000000000005
 30
0.0
 11
19.0
 21
324.0000000000005
 31
0.0
  0
LINE
  5
5895
330
5875
100
AcDbEntity
  8
AM_0 外形線1
100
AcDbLine
 10
-18.0
 20
323.0000000000004
 30
0.0
 11
0.0
 21
323.0000000000004
 31
0.0
  0
LINE
  5
5896
330
5875
100
AcDbEntity
  8
AM_0 外形線1
100
AcDbLine
 10
-18.0
 20
337.0000000000004
 30
0.0
 11
0.0
 21
337.0000000000004
 31
0.0
  0
LINE
  5
5897
330
5875
100
AcDbEntity
  8
AM_0 外形線1
100
AcDbLine
 10
6.0
 20
287.0000000000004
 30
0.0
 11
6.0
 21
313.5000000000005
 31
0.0
  0
LINE
  5
5898
330
5875
100
AcDbEntity
  8
AM_0 外形線1
100
AcDbLine
 10
1.0
 20
287.0000000000004
 30
0.0
 11
6.0
 21
287.0000000000004
 31
0.0
  0
LINE
  5
5899
330
5875
100
AcDbEntity
  8
AM_0 外形線1
100
AcDbLine
 10
1.0
 20
293.2000000000003
 30
0.0
 11
1.0
 21
287.0000000000004
 31
0.0
  0
LINE
  5
589A
330
5875
100
AcDbEntity
  8
AM_0 外形線1
100
AcDbLine
 10
-13.0
 20
293.2000000000003
 30
0.0
 11
1.0
 21
293.2000000000003
 31
0.0
  0
LINE
  5
589B
330
5875
100
AcDbEntity
  8
AM_0 外形線1
100
AcDbLine
 10
-13.0
 20
287.0000000000004
 30
0.0
 11
-13.0
 21
293.2000000000003
 31
0.0
  0
LINE
  5
589C
330
5875
100
AcDbEntity
  8
AM_0 外形線1
100
AcDbLine
 10
-18.0
 20
287.0000000000004
 30
0.0
 11
-13.0
 21
287.0000000000004
 31
0.0
  0
LINE
  5
589D
330
5875
100
AcDbEntity
  8
AM_0 外形線1
100
AcDbLine
 10
6.0
 20
287.0000000000004
 30
0.0
 11
6.0
 21
285.0000000000004
 31
0.0
  0
LINE
  5
589E
330
5875
100
AcDbEntity
  8
AM_0 外形線1
100
AcDbLine
 10
1.0
 20
287.0000000000004
 30
0.0
 11
1.0
 21
285.0000000000004
 31
0.0
  0
LINE
  5
589F
330
5875
100
AcDbEntity
  8
AM_0 外形線1
100
AcDbLine
 10
-13.0
 20
287.0000000000004
 30
0.0
 11
-13.0
 21
285.0000000000004
 31
0.0
  0
LINE
  5
58A0
330
5875
100
AcDbEntity
  8
AM_0 外形線1
100
AcDbLine
 10
-18.0
 20
287.0000000000004
 30
0.0
 11
-18.0
 21
285.0000000000004
 31
0.0
  0
LINE
  5
58A1
330
5875
100
AcDbEntity
  8
AM_0 外形線1
100
AcDbLine
 10
24.0
 20
335.1500000000001
 30
0.0
 11
24.0
 21
324.8499999999999
 31
0.0
  0
LINE
  5
58A2
330
5875
100
AcDbEntity
  8
AM_0 外形線1
100
AcDbLine
 10
26.97335399999975
 20
330.0000000000005
 30
0.0
 11
24.0
 21
324.8499999999999
 31
0.0
  0
LINE
  5
58A3
330
5875
100
AcDbEntity
  8
AM_0 外形線1
100
AcDbLine
 10
24.0
 20
335.1500000000001
 30
0.0
 11
26.97335399999975
 21
330.0000000000005
 31
0.0
  0
LINE
  5
58A4
330
5875
100
AcDbEntity
  8
AM_0 外形線1
100
AcDbLine
 10
-18.0
 20
340.8000000000007
 30
0.0
 11
-21.0
 21
340.8000000000007
 31
0.0
  0
LINE
  5
58A5
330
5875
100
AcDbEntity
  8
AM_0 外形線1
100
AcDbLine
 10
-21.0
 20
340.9500000000003
 30
0.0
 11
-28.03768200000013
 21
340.9500000000003
 31
0.0
  0
LINE
  5
58A6
330
5875
100
AcDbEntity
  8
AM_0 外形線1
100
AcDbLine
 10
-21.0
 20
340.8000000000007
 30
0.0
 11
-21.0
 21
340.9500000000003
 31
0.0
  0
LINE
  5
58A7
330
5875
100
AcDbEntity
  8
AM_0 外形線1
100
AcDbLine
 10
0.0
 20
-344.9999999999998
 30
0.0
 11
-18.0
 21
-345.0
 31
0.0
  0
LINE
  5
58A8
330
5875
100
AcDbEntity
  8
AM_0 外形線1
100
AcDbLine
 10
0.0
 20
345.0000000000005
 30
0.0
 11
-18.0
 21
345.0000000000005
 31
0.0
  0
LINE
  5
5913
330
5875
100
AcDbEntity
  8
AM_0 外形線1
100
AcDbLine
 10
0.0
 20
345.0000000000005
 30
0.0
 11
0.0
 21
336.0000000000005
 31
0.0
  0
LINE
  5
5914
330
5875
100
AcDbEntity
  8
AM_0 外形線1
100
AcDbLine
 10
0.0
 20
324.0000000000005
 30
0.0
 11
0.0
 21
318.8000000000006
 31
0.0
  0
LINE
  5
5915
330
5875
100
AcDbEntity
  8
AM_0 外形線1
100
AcDbLine
 10
6.0
 20
313.5000000000005
 30
0.0
 11
-3.100000000000362
 21
313.5000000000005
 31
0.0
  0
LINE
  5
5916
330
5875
100
AcDbEntity
  8
AM_0 外形線1
100
AcDbLine
 10
0.0
 20
-344.9999999999998
 30
0.0
 11
0.0
 21
0.0
 31
0.0
  0
ENDBLK
  5
5877
330
5875
100
AcDbEntity
  8
0
100
AcDbBlockEnd
  0
BLOCK
  5
5B60
330
5B5F
100
AcDbEntity
  8
0
100
AcDbBlockBegin
  2
*D14
 70
     1
 10
0.0
 20
0.0
 30
0.0
  3
*D14
  1

  0
LINE
  5
71CA
330
5B5F
100
AcDbEntity
  8
AM_5 寸法線
 62
     3
100
AcDbLine
 10
1779.209186987507
 20
2420.776719446812
 30
0.0
 11
1462.209186987507
 21
2420.776719446812
 31
0.0
  0
LINE
  5
71CB
330
5B5F
100
AcDbEntity
  8
AM_5 寸法線
 62
     3
100
AcDbLine
 10
1779.209186987507
 20
1850.776719446811
 30
0.0
 11
1462.209186987507
 21
1850.776719446812
 31
0.0
  0
LINE
  5
71CC
330
5B5F
100
AcDbEntity
  8
AM_5 寸法線
 62
     3
100
AcDbLine
 10
1468.459186987507
 20
2395.776719446812
 30
0.0
 11
1468.459186987507
 21
1875.776719446812
 31
0.0
  0
INSERT
  5
71CD
330
5B5F
100
AcDbEntity
  8
AM_5 寸法線
 62
     3
100
AcDbBlockReference
  2
_Open30
 10
1468.459186987507
 20
2420.776719446812
 30
0.0
 41
25.0
 42
25.0
 43
25.0
 50
90.0
  0
INSERT
  5
71CE
330
5B5F
100
AcDbEntity
  8
AM_5 寸法線
 62
     3
100
AcDbBlockReference
  2
_Open30
 10
1468.459186987507
 20
1850.776719446812
 30
0.0
 41
25.0
 42
25.0
 43
25.0
 50
270.0
  0
MTEXT
  5
71CF
330
5B5F
100
AcDbEntity
  8
AM_5 寸法線
 62
     3
100
AcDbMText
 10
1435.959186987507
 20
2135.776719446813
 30
0.0
 40
35.0
 41
0.0
 46
0.0
 71
     5
 72
     1
  1
%%c570
  7
SEISA
 11
0.0000000000000001
 21
1.0
 31
0.0
 73
     1
 44
1.0
  0
POINT
  5
71D0
330
5B5F
100
AcDbEntity
  8
Defpoints
 62
     0
100
AcDbPoint
 10
1785.459186987507
 20
2420.776719446812
 30
0.0
  0
POINT
  5
71D1
330
5B5F
100
AcDbEntity
  8
Defpoints
 62
     0
100
AcDbPoint
 10
1785.459186987507
 20
1850.776719446811
 30
0.0
  0
POINT
  5
71D2
330
5B5F
100
AcDbEntity
  8
Defpoints
 62
     0
100
AcDbPoint
 10
1468.459186987507
 20
1850.776719446812
 30
0.0
  0
ENDBLK
  5
5B61
330
5B5F
100
AcDbEntity
  8
0
100
AcDbBlockEnd
  0
BLOCK
  5
5B9B
330
5B9A
100
AcDbEntity
  8
0
100
AcDbBlockBegin
  2
*D15
 70
     1
 10
0.0
 20
0.0
 30
0.0
  3
*D15
  1

  0
LINE
  5
677D
330
5B9A
100
AcDbEntity
  8
AM_5 寸法線
 62
     3
100
AcDbLine
 10
1850.959186987507
 20
2415.026719446812
 30
0.0
 11
1850.959186987507
 21
2347.83384816402
 31
0.0
  0
LINE
  5
677E
330
5B9A
100
AcDbEntity
  8
AM_5 寸法線
 62
     3
100
AcDbLine
 10
1841.459186987507
 20
2414.526719446812
 30
0.0
 11
1841.459186987507
 21
2347.83384816402
 31
0.0
  0
LINE
  5
677F
330
5B9A
100
AcDbEntity
  8
AM_5 寸法線
 62
     3
100
AcDbLine
 10
1875.959186987508
 20
2354.08384816402
 30
0.0
 11
1900.959186987508
 21
2354.08384816402
 31
0.0
  0
LINE
  5
6780
330
5B9A
100
AcDbEntity
  8
AM_5 寸法線
 62
     3
100
AcDbLine
 10
1816.459186987507
 20
2354.08384816402
 30
0.0
 11
1695.459186987507
 21
2354.08384816402
 31
0.0
  0
LINE
  5
6781
330
5B9A
100
AcDbEntity
  8
AM_5 寸法線
 62
     3
100
AcDbLine
 10
1850.959186987507
 20
2354.08384816402
 30
0.0
 11
1841.459186987507
 21
2354.08384816402
 31
0.0
  0
INSERT
  5
6782
330
5B9A
100
AcDbEntity
  8
AM_5 寸法線
 62
     3
100
AcDbBlockReference
  2
_Open30
 10
1850.959186987507
 20
2354.08384816402
 30
0.0
 41
25.0
 42
25.0
 43
25.0
 50
180.0
  0
INSERT
  5
6783
330
5B9A
100
AcDbEntity
  8
AM_5 寸法線
 62
     3
100
AcDbBlockReference
  2
_Open30
 10
1841.459186987507
 20
2354.08384816402
 30
0.0
 41
25.0
 42
25.0
 43
25.0
  0
MTEXT
  5
6784
330
5B9A
100
AcDbEntity
  8
AM_5 寸法線
 62
     3
100
AcDbMText
 10
1743.459186987507
 20
2386.58384816402
 30
0.0
 40
35.0
 41
0.0
 46
0.0
 71
     5
 72
     1
  1
9.5
  7
SEISA
 73
     1
 44
1.0
  0
POINT
  5
6785
330
5B9A
100
AcDbEntity
  8
Defpoints
 62
     0
100
AcDbPoint
 10
1850.959186987507
 20
2421.276719446812
 30
0.0
  0
POINT
  5
6786
330
5B9A
100
AcDbEntity
  8
Defpoints
 62
     0
100
AcDbPoint
 10
1841.459186987507
 20
2420.776719446812
 30
0.0
  0
POINT
  5
6787
330
5B9A
100
AcDbEntity
  8
Defpoints
 62
     0
100
AcDbPoint
 10
1841.459186987507
 20
2354.08384816402
 30
0.0
  0
ENDBLK
  5
5B9C
330
5B9A
100
AcDbEntity
  8
0
100
AcDbBlockEnd
  0
BLOCK
  5
5BE5
330
5BE4
100
AcDbEntity
  8
0
100
AcDbBlockBegin
  2
*D16
 70
     1
 10
0.0
 20
0.0
 30
0.0
  3
*D16
  1

  0
LINE
  5
71D3
330
5BE4
100
AcDbEntity
  8
AM_5 寸法線
 62
     3
100
AcDbLine
 10
2068.459186987507
 20
2142.026719446812
 30
0.0
 11
2068.459186987507
 21
2218.033811446812
 31
0.0
  0
LINE
  5
71D4
330
5BE4
100
AcDbEntity
  8
AM_5 寸法線
 62
     3
100
AcDbLine
 10
1668.459186987507
 20
2142.026719446812
 30
0.0
 11
1668.459186987507
 21
2218.033811446812
 31
0.0
  0
LINE
  5
71D5
330
5BE4
100
AcDbEntity
  8
AM_5 寸法線
 62
     3
100
AcDbLine
 10
2043.459186987508
 20
2211.783811446812
 30
0.0
 11
1693.459186987507
 21
2211.783811446812
 31
0.0
  0
INSERT
  5
71D6
330
5BE4
100
AcDbEntity
  8
AM_5 寸法線
 62
     3
100
AcDbBlockReference
  2
_Open30
 10
2068.459186987507
 20
2211.783811446812
 30
0.0
 41
25.0
 42
25.0
 43
25.0
  0
INSERT
  5
71D7
330
5BE4
100
AcDbEntity
  8
AM_5 寸法線
 62
     3
100
AcDbBlockReference
  2
_Open30
 10
1668.459186987507
 20
2211.783811446812
 30
0.0
 41
25.0
 42
25.0
 43
25.0
 50
180.0
  0
MTEXT
  5
71D8
330
5BE4
100
AcDbEntity
  8
AM_5 寸法線
 62
     3
100
AcDbMText
 10
1868.459186987507
 20
2244.283811446811
 30
0.0
 40
35.0
 41
0.0
 46
0.0
 71
     5
 72
     1
  1
400
  7
SEISA
 73
     1
 44
1.0
  0
POINT
  5
71D9
330
5BE4
100
AcDbEntity
  8
Defpoints
 62
     0
100
AcDbPoint
 10
2068.459186987507
 20
2135.776719446812
 30
0.0
  0
POINT
  5
71DA
330
5BE4
100
AcDbEntity
  8
Defpoints
 62
     0
100
AcDbPoint
 10
1668.459186987507
 20
2135.776719446812
 30
0.0
  0
POINT
  5
71DB
330
5BE4
100
AcDbEntity
  8
Defpoints
 62
     0
100
AcDbPoint
 10
1668.459186987507
 20
2211.783811446812
 30
0.0
  0
ENDBLK
  5
5BE6
330
5BE4
100
AcDbEntity
  8
0
100
AcDbBlockEnd
  0
BLOCK
  5
5BFD
330
5BFC
100
AcDbEntity
  8
0
100
AcDbBlockBegin
  2
*D17
 70
     1
 10
0.0
 20
0.0
 30
0.0
  3
*D17
  1

  0
LINE
  5
679C
330
5BFC
100
AcDbEntity
  8
AM_5 寸法線
 62
     3
100
AcDbLine
 10
2100.459186987507
 20
2142.026719446812
 30
0.0
 11
2100.459186987507
 21
2218.033811446812
 31
0.0
  0
LINE
  5
679D
330
5BFC
100
AcDbEntity
  8
AM_5 寸法線
 62
     3
100
AcDbLine
 10
2068.459186987507
 20
2142.026719446812
 30
0.0
 11
2068.459186987507
 21
2218.033811446812
 31
0.0
  0
LINE
  5
679E
330
5BFC
100
AcDbEntity
  8
AM_5 寸法線
 62
     3
100
AcDbLine
 10
2125.459186987507
 20
2211.783811446812
 30
0.0
 11
2150.459186987507
 21
2211.783811446812
 31
0.0
  0
LINE
  5
679F
330
5BFC
100
AcDbEntity
  8
AM_5 寸法線
 62
     3
100
AcDbLine
 10
2043.459186987508
 20
2211.783811446812
 30
0.0
 11
2018.459186987508
 21
2211.783811446812
 31
0.0
  0
MTEXT
  5
67A0
330
5BFC
100
AcDbEntity
  8
AM_5 寸法線
 62
     3
100
AcDbMText
 10
2154.332798869069
 20
2243.595812879425
 30
0.0
 40
35.0
 41
0.0
 46
0.0
 71
     5
 72
     1
  1
32
  7
SEISA
 73
     1
 44
1.0
  0
LINE
  5
67A1
330
5BFC
100
AcDbEntity
  8
AM_5 寸法線
 62
     3
100
AcDbLine
 10
2100.459186987507
 20
2211.783811446812
 30
0.0
 11
2068.459186987507
 21
2211.783811446812
 31
0.0
  0
INSERT
  5
67A2
330
5BFC
100
AcDbEntity
  8
AM_5 寸法線
 62
     3
100
AcDbBlockReference
  2
_Open30
 10
2100.459186987507
 20
2211.783811446812
 30
0.0
 41
25.0
 42
25.0
 43
25.0
 50
180.0
  0
INSERT
  5
67A3
330
5BFC
100
AcDbEntity
  8
AM_5 寸法線
 62
     3
100
AcDbBlockReference
  2
_Open30
 10
2068.459186987507
 20
2211.783811446812
 30
0.0
 41
25.0
 42
25.0
 43
25.0
  0
POINT
  5
67A4
330
5BFC
100
AcDbEntity
  8
Defpoints
 62
     0
100
AcDbPoint
 10
2100.459186987507
 20
2135.776719446812
 30
0.0
  0
POINT
  5
67A5
330
5BFC
100
AcDbEntity
  8
Defpoints
 62
     0
100
AcDbPoint
 10
2068.459186987507
 20
2135.776719446812
 30
0.0
  0
POINT
  5
67A6
330
5BFC
100
AcDbEntity
  8
Defpoints
 62
     0
100
AcDbPoint
 10
2068.459186987507
 20
2211.783811446812
 30
0.0
  0
ENDBLK
  5
5BFE
330
5BFC
100
AcDbEntity
  8
0
100
AcDbBlockEnd
  0
BLOCK
  5
5C19
330
5C18
100
AcDbEntity
  8
0
100
AcDbBlockBegin
  2
*D18
 70
     1
 10
0.0
 20
0.0
 30
0.0
  3
*D18
  1

  0
LINE
  5
67A7
330
5C18
100
AcDbEntity
  8
AM_5 寸法線
 62
     3
100
AcDbLine
 10
2100.459186987507
 20
2142.026719446812
 30
0.0
 11
2100.459186987507
 21
2218.033811446812
 31
0.0
  0
LINE
  5
67A8
330
5C18
100
AcDbEntity
  8
AM_5 寸法線
 62
     3
100
AcDbLine
 10
2500.459186987507
 20
2142.026719446812
 30
0.0
 11
2500.459186987507
 21
2218.033811446812
 31
0.0
  0
LINE
  5
67A9
330
5C18
100
AcDbEntity
  8
AM_5 寸法線
 62
     3
100
AcDbLine
 10
2125.459186987507
 20
2211.783811446812
 30
0.0
 11
2475.459186987507
 21
2211.783811446812
 31
0.0
  0
INSERT
  5
67AA
330
5C18
100
AcDbEntity
  8
AM_5 寸法線
 62
     3
100
AcDbBlockReference
  2
_Open30
 10
2100.459186987507
 20
2211.783811446812
 30
0.0
 41
25.0
 42
25.0
 43
25.0
 50
180.0
  0
INSERT
  5
67AB
330
5C18
100
AcDbEntity
  8
AM_5 寸法線
 62
     3
100
AcDbBlockReference
  2
_Open30
 10
2500.459186987507
 20
2211.783811446812
 30
0.0
 41
25.0
 42
25.0
 43
25.0
  0
MTEXT
  5
67AC
330
5C18
100
AcDbEntity
  8
AM_5 寸法線
 62
     3
100
AcDbMText
 10
2300.459186987508
 20
2244.283811446811
 30
0.0
 40
35.0
 41
0.0
 46
0.0
 71
     5
 72
     1
  1
400
  7
SEISA
 73
     1
 44
1.0
  0
POINT
  5
67AD
330
5C18
100
AcDbEntity
  8
Defpoints
 62
     0
100
AcDbPoint
 10
2100.459186987507
 20
2135.776719446812
 30
0.0
  0
POINT
  5
67AE
330
5C18
100
AcDbEntity
  8
Defpoints
 62
     0
100
AcDbPoint
 10
2500.459186987507
 20
2135.776719446812
 30
0.0
  0
POINT
  5
67AF
330
5C18
100
AcDbEntity
  8
Defpoints
 62
     0
100
AcDbPoint
 10
2500.459186987507
 20
2211.783811446812
 30
0.0
  0
ENDBLK
  5
5C1A
330
5C18
100
AcDbEntity
  8
0
100
AcDbBlockEnd
  0
BLOCK
  5
5C98
330
5C97
100
AcDbEntity
  8
0
100
AcDbBlockBegin
  2
_None
 70
     0
 10
0.0
 20
0.0
 30
0.0
  3
_None
  1

  0
ENDBLK
  5
5C99
330
5C97
100
AcDbEntity
  8
0
100
AcDbBlockEnd
  0
BLOCK
  5
5CD6
330
5CD5
100
AcDbEntity
  8
0
100
AcDbBlockBegin
  2
*D20
 70
     1
 10
0.0
 20
0.0
 30
0.0
  3
*D20
  1

  0
LINE
  5
67B7
330
5CD5
100
AcDbEntity
  8
AM_5 寸法線
 62
     3
100
AcDbLine
 10
2389.709186987508
 20
2420.776719446812
 30
0.0
 11
2706.709186987508
 21
2420.776719446812
 31
0.0
  0
LINE
  5
67B8
330
5CD5
100
AcDbEntity
  8
AM_5 寸法線
 62
     3
100
AcDbLine
 10
2389.709186987508
 20
1850.776719446811
 30
0.0
 11
2706.709186987508
 21
1850.776719446811
 31
0.0
  0
LINE
  5
67B9
330
5CD5
100
AcDbEntity
  8
AM_5 寸法線
 62
     3
100
AcDbLine
 10
2700.459186987508
 20
2395.776719446812
 30
0.0
 11
2700.459186987508
 21
1875.776719446811
 31
0.0
  0
INSERT
  5
67BA
330
5CD5
100
AcDbEntity
  8
AM_5 寸法線
 62
     3
100
AcDbBlockReference
  2
_Open30
 10
2700.459186987508
 20
2420.776719446812
 30
0.0
 41
25.0
 42
25.0
 43
25.0
 50
90.0
  0
INSERT
  5
67BB
330
5CD5
100
AcDbEntity
  8
AM_5 寸法線
 62
     3
100
AcDbBlockReference
  2
_Open30
 10
2700.459186987508
 20
1850.776719446811
 30
0.0
 41
25.0
 42
25.0
 43
25.0
 50
270.0
  0
MTEXT
  5
67BC
330
5CD5
100
AcDbEntity
  8
AM_5 寸法線
 62
     3
100
AcDbMText
 10
2667.959186987507
 20
2135.776719446813
 30
0.0
 40
35.0
 41
0.0
 46
0.0
 71
     5
 72
     1
  1
%%c570
  7
SEISA
 11
0.0000000000000001
 21
1.0
 31
0.0
 73
     1
 44
1.0
  0
POINT
  5
67BD
330
5CD5
100
AcDbEntity
  8
Defpoints
 62
     0
100
AcDbPoint
 10
2383.459186987508
 20
2420.776719446812
 30
0.0
  0
POINT
  5
67BE
330
5CD5
100
AcDbEntity
  8
Defpoints
 62
     0
100
AcDbPoint
 10
2383.459186987508
 20
1850.776719446811
 30
0.0
  0
POINT
  5
67BF
330
5CD5
100
AcDbEntity
  8
Defpoints
 62
     0
100
AcDbPoint
 10
2700.459186987508
 20
1850.776719446811
 30
0.0
  0
ENDBLK
  5
5CD7
330
5CD5
100
AcDbEntity
  8
0
100
AcDbBlockEnd
  0
BLOCK
  5
5CF7
330
5CF6
100
AcDbEntity
  8
0
100
AcDbBlockBegin
  2
*D21
 70
     1
 10
0.0
 20
0.0
 30
0.0
  3
*D21
  1

  0
LINE
  5
67C0
330
5CF6
100
AcDbEntity
  8
AM_5 寸法線
 62
     3
100
AcDbLine
 10
2357.709186987507
 20
2480.776719446812
 30
0.0
 11
2786.709186987508
 21
2480.776719446812
 31
0.0
  0
LINE
  5
67C1
330
5CF6
100
AcDbEntity
  8
AM_5 寸法線
 62
     3
100
AcDbLine
 10
2357.709186987507
 20
1790.77671944681
 30
0.0
 11
2786.709186987508
 21
1790.77671944681
 31
0.0
  0
LINE
  5
67C2
330
5CF6
100
AcDbEntity
  8
AM_5 寸法線
 62
     3
100
AcDbLine
 10
2780.459186987509
 20
2455.776719446812
 30
0.0
 11
2780.459186987509
 21
1815.776719446811
 31
0.0
  0
INSERT
  5
67C3
330
5CF6
100
AcDbEntity
  8
AM_5 寸法線
 62
     3
100
AcDbBlockReference
  2
_Open30
 10
2780.459186987509
 20
2480.776719446812
 30
0.0
 41
25.0
 42
25.0
 43
25.0
 50
90.0
  0
INSERT
  5
67C4
330
5CF6
100
AcDbEntity
  8
AM_5 寸法線
 62
     3
100
AcDbBlockReference
  2
_Open30
 10
2780.459186987509
 20
1790.77671944681
 30
0.0
 41
25.0
 42
25.0
 43
25.0
 50
270.0
  0
MTEXT
  5
67C5
330
5CF6
100
AcDbEntity
  8
AM_5 寸法線
 62
     3
100
AcDbMText
 10
2747.959186987507
 20
2135.776719446813
 30
0.0
 40
35.0
 41
0.0
 46
0.0
 71
     5
 72
     1
  1
%%c690
  7
SEISA
 11
0.0000000000000001
 21
1.0
 31
0.0
 73
     1
 44
1.0
  0
POINT
  5
67C6
330
5CF6
100
AcDbEntity
  8
Defpoints
 62
     0
100
AcDbPoint
 10
2351.459186987508
 20
2480.776719446812
 30
0.0
  0
POINT
  5
67C7
330
5CF6
100
AcDbEntity
  8
Defpoints
 62
     0
100
AcDbPoint
 10
2351.459186987508
 20
1790.77671944681
 30
0.0
  0
POINT
  5
67C8
330
5CF6
100
AcDbEntity
  8
Defpoints
 62
     0
100
AcDbPoint
 10
2780.459186987509
 20
1790.77671944681
 30
0.0
  0
ENDBLK
  5
5CF8
330
5CF6
100
AcDbEntity
  8
0
100
AcDbBlockEnd
  0
BLOCK
  5
5D0F
330
5D0E
100
AcDbEntity
  8
0
100
AcDbBlockBegin
  2
*D22
 70
     1
 10
0.0
 20
0.0
 30
0.0
  3
*D22
  1

  0
LINE
  5
67C9
330
5D0E
100
AcDbEntity
  8
AM_5 寸法線
 62
     3
100
AcDbLine
 10
2126.709186987508
 20
2535.776719446812
 30
0.0
 11
2866.709186987508
 21
2535.776719446812
 31
0.0
  0
LINE
  5
67CA
330
5D0E
100
AcDbEntity
  8
AM_5 寸法線
 62
     3
100
AcDbLine
 10
2126.709186987508
 20
1735.776719446812
 30
0.0
 11
2866.709186987508
 21
1735.776719446811
 31
0.0
  0
LINE
  5
67CB
330
5D0E
100
AcDbEntity
  8
AM_5 寸法線
 62
     3
100
AcDbLine
 10
2860.459186987508
 20
2510.776719446812
 30
0.0
 11
2860.459186987508
 21
1760.776719446811
 31
0.0
  0
INSERT
  5
67CC
330
5D0E
100
AcDbEntity
  8
AM_5 寸法線
 62
     3
100
AcDbBlockReference
  2
_Open30
 10
2860.459186987508
 20
2535.776719446812
 30
0.0
 41
25.0
 42
25.0
 43
25.0
 50
90.0
  0
INSERT
  5
67CD
330
5D0E
100
AcDbEntity
  8
AM_5 寸法線
 62
     3
100
AcDbBlockReference
  2
_Open30
 10
2860.459186987508
 20
1735.776719446811
 30
0.0
 41
25.0
 42
25.0
 43
25.0
 50
270.0
  0
MTEXT
  5
67CE
330
5D0E
100
AcDbEntity
  8
AM_5 寸法線
 62
     3
100
AcDbMText
 10
2827.959186987508
 20
2135.776719446813
 30
0.0
 40
35.0
 41
0.0
 46
0.0
 71
     5
 72
     1
  1
%%c800
  7
SEISA
 11
0.0000000000000001
 21
1.0
 31
0.0
 73
     1
 44
1.0
  0
POINT
  5
67CF
330
5D0E
100
AcDbEntity
  8
Defpoints
 62
     0
100
AcDbPoint
 10
2120.459186987508
 20
2535.776719446812
 30
0.0
  0
POINT
  5
67D0
330
5D0E
100
AcDbEntity
  8
Defpoints
 62
     0
100
AcDbPoint
 10
2120.459186987508
 20
1735.776719446812
 30
0.0
  0
POINT
  5
67D1
330
5D0E
100
AcDbEntity
  8
Defpoints
 62
     0
100
AcDbPoint
 10
2860.459186987508
 20
1735.776719446811
 30
0.0
  0
ENDBLK
  5
5D10
330
5D0E
100
AcDbEntity
  8
0
100
AcDbBlockEnd
  0
BLOCK
  5
5DA7
330
5DA6
100
AcDbEntity
  8
0
100
AcDbBlockBegin
  2
*D23
 70
     1
 10
0.0
 20
0.0
 30
0.0
  3
*D23
  1

  0
LINE
  5
67D2
330
5DA6
100
AcDbEntity
  8
AM_5 寸法線
 62
     3
100
AcDbLine
 10
2084.459186987507
 20
1731.526719446812
 30
0.0
 11
2084.459186987507
 21
1609.526719446811
 31
0.0
  0
LINE
  5
67D3
330
5DA6
100
AcDbEntity
  8
AM_5 寸法線
 62
     3
100
AcDbLine
 10
2122.459186987508
 20
1731.526719446812
 30
0.0
 11
2122.459186987508
 21
1609.526719446811
 31
0.0
  0
LINE
  5
67D4
330
5DA6
100
AcDbEntity
  8
AM_5 寸法線
 62
     3
100
AcDbLine
 10
2084.459186987507
 20
1615.776719446811
 30
0.0
 11
2059.459186987508
 21
1615.776719446811
 31
0.0
  0
LINE
  5
67D5
330
5DA6
100
AcDbEntity
  8
AM_5 寸法線
 62
     3
100
AcDbLine
 10
2147.459186987508
 20
1615.776719446811
 30
0.0
 11
2253.459186987508
 21
1615.776719446811
 31
0.0
  0
LINE
  5
67D6
330
5DA6
100
AcDbEntity
  8
AM_5 寸法線
 62
     3
100
AcDbLine
 10
2084.459186987507
 20
1615.776719446811
 30
0.0
 11
2122.459186987508
 21
1615.776719446811
 31
0.0
  0
INSERT
  5
67D7
330
5DA6
100
AcDbEntity
  8
AM_5 寸法線
 62
     3
100
AcDbBlockReference
  2
_Open30
 10
2122.459186987508
 20
1615.776719446811
 30
0.0
 41
25.0
 42
25.0
 43
25.0
 50
180.0
  0
MTEXT
  5
67D8
330
5DA6
100
AcDbEntity
  8
AM_5 寸法線
 62
     3
100
AcDbMText
 10
2212.959186987507
 20
1648.276719446811
 30
0.0
 40
35.0
 41
0.0
 46
0.0
 71
     5
 72
     1
  1
38
  7
SEISA
 73
     1
 44
1.0
  0
POINT
  5
67D9
330
5DA6
100
AcDbEntity
  8
Defpoints
 62
     0
100
AcDbPoint
 10
2084.459186987507
 20
1737.776719446811
 30
0.0
  0
POINT
  5
67DA
330
5DA6
100
AcDbEntity
  8
Defpoints
 62
     0
100
AcDbPoint
 10
2122.459186987508
 20
1737.776719446811
 30
0.0
  0
POINT
  5
67DB
330
5DA6
100
AcDbEntity
  8
Defpoints
 62
     0
100
AcDbPoint
 10
2122.459186987508
 20
1615.776719446811
 30
0.0
  0
ENDBLK
  5
5DA8
330
5DA6
100
AcDbEntity
  8
0
100
AcDbBlockEnd
  0
BLOCK
  5
5DC3
330
5DC2
100
AcDbEntity
  8
0
100
AcDbBlockBegin
  2
*D24
 70
     1
 10
0.0
 20
0.0
 30
0.0
  3
*D24
  1

  0
LINE
  5
67DC
330
5DC2
100
AcDbEntity
  8
AM_5 寸法線
 62
     3
100
AcDbLine
 10
2084.459186987507
 20
1731.526719446812
 30
0.0
 11
2084.459186987507
 21
1609.526719446811
 31
0.0
  0
LINE
  5
67DD
330
5DC2
100
AcDbEntity
  8
AM_5 寸法線
 62
     3
100
AcDbLine
 10
2046.459186987508
 20
1731.526719446812
 30
0.0
 11
2046.459186987508
 21
1609.526719446811
 31
0.0
  0
LINE
  5
67DE
330
5DC2
100
AcDbEntity
  8
AM_5 寸法線
 62
     3
100
AcDbLine
 10
2109.459186987507
 20
1615.776719446811
 30
0.0
 11
2134.459186987507
 21
1615.776719446811
 31
0.0
  0
LINE
  5
67DF
330
5DC2
100
AcDbEntity
  8
AM_5 寸法線
 62
     3
100
AcDbLine
 10
2021.459186987508
 20
1615.776719446811
 30
0.0
 11
1915.459186987508
 21
1615.776719446811
 31
0.0
  0
LINE
  5
67E0
330
5DC2
100
AcDbEntity
  8
AM_5 寸法線
 62
     3
100
AcDbLine
 10
2084.459186987507
 20
1615.776719446811
 30
0.0
 11
2046.459186987508
 21
1615.776719446811
 31
0.0
  0
INSERT
  5
67E1
330
5DC2
100
AcDbEntity
  8
AM_5 寸法線
 62
     3
100
AcDbBlockReference
  2
GENDOT
 10
2084.459186987507
 20
1615.776719446811
 30
0.0
 41
25.0
 42
25.0
 43
25.0
 50
180.0
  0
INSERT
  5
67E2
330
5DC2
100
AcDbEntity
  8
AM_5 寸法線
 62
     3
100
AcDbBlockReference
  2
_Open30
 10
2046.459186987508
 20
1615.776719446811
 30
0.0
 41
25.0
 42
25.0
 43
25.0
  0
MTEXT
  5
67E3
330
5DC2
100
AcDbEntity
  8
AM_5 寸法線
 62
     3
100
AcDbMText
 10
1955.959186987508
 20
1648.276719446811
 30
0.0
 40
35.0
 41
0.0
 46
0.0
 71
     5
 72
     1
  1
38
  7
SEISA
 73
     1
 44
1.0
  0
POINT
  5
67E4
330
5DC2
100
AcDbEntity
  8
Defpoints
 62
     0
100
AcDbPoint
 10
2084.459186987507
 20
1737.776719446811
 30
0.0
  0
POINT
  5
67E5
330
5DC2
100
AcDbEntity
  8
Defpoints
 62
     0
100
AcDbPoint
 10
2046.459186987508
 20
1737.776719446811
 30
0.0
  0
POINT
  5
67E6
330
5DC2
100
AcDbEntity
  8
Defpoints
 62
     0
100
AcDbPoint
 10
2046.459186987508
 20
1615.776719446811
 30
0.0
  0
ENDBLK
  5
5DC4
330
5DC2
100
AcDbEntity
  8
0
100
AcDbBlockEnd
  0
BLOCK
  5
5E00
330
5DFF
100
AcDbEntity
  8
0
100
AcDbBlockBegin
  2
*D25
 70
     1
 10
0.0
 20
0.0
 30
0.0
  3
*D25
  1

  0
LINE
  5
7650
330
5DFF
100
AcDbEntity
  8
AM_5 寸法線
 62
     3
100
AcDbLine
 10
2351.459186987508
 20
1784.526719446811
 30
0.0
 11
2351.459186987508
 21
1529.526719446811
 31
0.0
  0
LINE
  5
7651
330
5DFF
100
AcDbEntity
  8
AM_5 寸法線
 62
     3
100
AcDbLine
 10
1817.459186987507
 20
1784.526719446811
 30
0.0
 11
1817.459186987507
 21
1529.526719446811
 31
0.0
  0
LINE
  5
7652
330
5DFF
100
AcDbEntity
  8
AM_5 寸法線
 62
     3
100
AcDbLine
 10
2326.459186987507
 20
1535.776719446811
 30
0.0
 11
1842.459186987507
 21
1535.776719446811
 31
0.0
  0
INSERT
  5
7653
330
5DFF
100
AcDbEntity
  8
AM_5 寸法線
 62
     3
100
AcDbBlockReference
  2
_Open30
 10
2351.459186987508
 20
1535.776719446811
 30
0.0
 41
25.0
 42
25.0
 43
25.0
  0
INSERT
  5
7654
330
5DFF
100
AcDbEntity
  8
AM_5 寸法線
 62
     3
100
AcDbBlockReference
  2
_Open30
 10
1817.459186987507
 20
1535.776719446811
 30
0.0
 41
25.0
 42
25.0
 43
25.0
 50
180.0
  0
MTEXT
  5
7655
330
5DFF
100
AcDbEntity
  8
AM_5 寸法線
 62
     3
100
AcDbMText
 10
2084.459186987507
 20
1568.276719446811
 30
0.0
 40
35.0
 41
0.0
 46
0.0
 71
     5
 72
     1
  1
534
  7
SEISA
 73
     1
 44
1.0
  0
POINT
  5
7656
330
5DFF
100
AcDbEntity
  8
Defpoints
 62
     0
100
AcDbPoint
 10
2351.459186987508
 20
1790.77671944681
 30
0.0
  0
POINT
  5
7657
330
5DFF
100
AcDbEntity
  8
Defpoints
 62
     0
100
AcDbPoint
 10
1817.459186987507
 20
1790.77671944681
 30
0.0
  0
POINT
  5
7658
330
5DFF
100
AcDbEntity
  8
Defpoints
 62
     0
100
AcDbPoint
 10
1817.459186987507
 20
1535.776719446811
 30
0.0
  0
ENDBLK
  5
5E01
330
5DFF
100
AcDbEntity
  8
0
100
AcDbBlockEnd
  0
BLOCK
  5
5E8E
330
5E8D
100
AcDbEntity
  8
0
100
AcDbBlockBegin
  2
*D26
 70
     1
 10
0.0
 20
0.0
 30
0.0
  3
*D26
  1

  0
LINE
  5
680B
330
5E8D
100
AcDbEntity
  8
AM_5 寸法線
 62
     3
100
AcDbLine
 10
2500.459186987507
 20
1861.026719446811
 30
0.0
 11
2500.459186987507
 21
1449.526719446811
 31
0.0
  0
LINE
  5
680C
330
5E8D
100
AcDbEntity
  8
AM_5 寸法線
 62
     3
100
AcDbLine
 10
1668.459186987507
 20
1861.026719446811
 30
0.0
 11
1668.459186987507
 21
1449.526719446811
 31
0.0
  0
LINE
  5
680D
330
5E8D
100
AcDbEntity
  8
AM_5 寸法線
 62
     3
100
AcDbLine
 10
2475.459186987507
 20
1455.776719446811
 30
0.0
 11
1693.459186987507
 21
1455.776719446811
 31
0.0
  0
INSERT
  5
680E
330
5E8D
100
AcDbEntity
  8
AM_5 寸法線
 62
     3
100
AcDbBlockReference
  2
_Open30
 10
2500.459186987507
 20
1455.776719446811
 30
0.0
 41
25.0
 42
25.0
 43
25.0
  0
INSERT
  5
680F
330
5E8D
100
AcDbEntity
  8
AM_5 寸法線
 62
     3
100
AcDbBlockReference
  2
_Open30
 10
1668.459186987507
 20
1455.776719446811
 30
0.0
 41
25.0
 42
25.0
 43
25.0
 50
180.0
  0
MTEXT
  5
6810
330
5E8D
100
AcDbEntity
  8
AM_5 寸法線
 62
     3
100
AcDbMText
 10
2084.459186987507
 20
1488.276719446811
 30
0.0
 40
35.0
 41
0.0
 46
0.0
 71
     5
 72
     1
  1
832
  7
SEISA
 73
     1
 44
1.0
  0
POINT
  5
6811
330
5E8D
100
AcDbEntity
  8
Defpoints
 62
     0
100
AcDbPoint
 10
2500.459186987507
 20
1867.276719446811
 30
0.0
  0
POINT
  5
6812
330
5E8D
100
AcDbEntity
  8
Defpoints
 62
     0
100
AcDbPoint
 10
1668.459186987507
 20
1867.276719446811
 30
0.0
  0
POINT
  5
6813
330
5E8D
100
AcDbEntity
  8
Defpoints
 62
     0
100
AcDbPoint
 10
1668.459186987507
 20
1455.776719446811
 30
0.0
  0
ENDBLK
  5
5E8F
330
5E8D
100
AcDbEntity
  8
0
100
AcDbBlockEnd
  0
BLOCK
  5
6E0B
330
6E0A
100
AcDbEntity
  8
0
100
AcDbBlockBegin
  2
ロッカクアナツキプラグB R3／4
 70
     0
 10
0.0
 20
0.0
 30
0.0
  3
ロッカクアナツキプラグB R3／4
  1

  0
LINE
  5
6E0D
330
6E0A
100
AcDbEntity
  8
AM_7 中心線
100
AcDbLine
 10
0.0
 20
2.297871999999187
 30
0.0
 11
0.0
 21
-26.21276600000056
 31
0.0
  0
LINE
  5
6E0E
330
6E0A
100
AcDbEntity
  8
AM_0 外形線1
100
AcDbLine
 10
12.99246700000003
 20
-14.0
 30
0.0
 11
-12.99246700000003
 21
-14.0
 31
0.0
  0
LINE
  5
6E0F
330
6E0A
100
AcDbEntity
  8
AM_0 外形線1
100
AcDbLine
 10
-13.41151700000046
 20
-2.0
 30
0.0
 11
13.41151699999955
 21
-2.0
 31
0.0
  0
LINE
  5
6E10
330
6E0A
100
AcDbEntity
  8
AM_0 外形線1
100
AcDbLine
 10
-7.796314999999593
 20
-17.0
 30
0.0
 11
7.796314999999593
 21
-17.0
 31
0.0
  0
LINE
  5
6E11
330
6E0A
100
AcDbEntity
  8
AM_4 細線
100
AcDbLine
 10
-12.28872500000034
 20
-0.8772090000002208
 30
0.0
 11
-11.80655800000022
 21
-14.68468600000051
 31
0.0
  0
LINE
  5
6E12
330
6E0A
100
AcDbEntity
  8
AM_0 外形線1
100
AcDbLine
 10
-13.41151700000046
 20
-2.0
 30
0.0
 11
-12.99246700000003
 21
-14.0
 31
0.0
  0
LINE
  5
6E13
330
6E0A
100
AcDbEntity
  8
AM_0 外形線1
100
AcDbLine
 10
-11.41151700000046
 20
0.0
 30
0.0
 11
-13.41151700000046
 21
-2.0
 31
0.0
  0
LINE
  5
6E14
330
6E0A
100
AcDbEntity
  8
AM_0 外形線1
100
AcDbLine
 10
-12.99246700000003
 20
-14.0
 30
0.0
 11
-7.796314999999593
 21
-17.0
 31
0.0
  0
LINE
  5
6E15
330
6E0A
100
AcDbEntity
  8
AM_4 細線
100
AcDbLine
 10
11.80655800000022
 20
-14.68468600000051
 30
0.0
 11
12.28872500000034
 21
-0.8772090000002208
 31
0.0
  0
LINE
  5
6E16
330
6E0A
100
AcDbEntity
  8
AM_0 外形線1
100
AcDbLine
 10
13.41151699999955
 20
-2.0
 30
0.0
 11
11.41151699999955
 21
0.0
 31
0.0
  0
LINE
  5
6E17
330
6E0A
100
AcDbEntity
  8
AM_0 外形線1
100
AcDbLine
 10
7.796314999999593
 20
-17.0
 30
0.0
 11
12.99246700000003
 21
-14.0
 31
0.0
  0
LINE
  5
6E18
330
6E0A
100
AcDbEntity
  8
AM_0 外形線1
100
AcDbLine
 10
-11.41151700000046
 20
0.0
 30
0.0
 11
11.41151699999955
 21
0.0
 31
0.0
  0
ENDBLK
  5
6E0C
330
6E0A
100
AcDbEntity
  8
0
100
AcDbBlockEnd
  0
BLOCK
  5
74AD
330
74AC
100
AcDbEntity
  8
0
100
AcDbBlockBegin
  2
*D28
 70
     1
 10
0.0
 20
0.0
 30
0.0
  3
*D28
  1

  0
LINE
  5
7721
330
74AC
100
AcDbEntity
  8
AM_5 寸法線
 62
     3
100
AcDbLine
 10
1850.959186987507
 20
2415.026719446812
 30
0.0
 11
1850.959186987507
 21
2347.833848164023
 31
0.0
  0
LINE
  5
7722
330
74AC
100
AcDbEntity
  8
AM_5 寸法線
 62
     3
100
AcDbLine
 10
1966.959186987507
 20
2415.026719446812
 30
0.0
 11
1966.959186987507
 21
2347.833848164023
 31
0.0
  0
LINE
  5
7723
330
74AC
100
AcDbEntity
  8
AM_5 寸法線
 62
     3
100
AcDbLine
 10
1875.959186987508
 20
2354.083848164023
 30
0.0
 11
1941.959186987507
 21
2354.083848164023
 31
0.0
  0
INSERT
  5
7724
330
74AC
100
AcDbEntity
  8
AM_5 寸法線
 62
     3
100
AcDbBlockReference
  2
_Open30
 10
1850.959186987507
 20
2354.083848164023
 30
0.0
 41
25.0
 42
25.0
 43
25.0
 50
180.0
  0
INSERT
  5
7725
330
74AC
100
AcDbEntity
  8
AM_5 寸法線
 62
     3
100
AcDbBlockReference
  2
_Open30
 10
1966.959186987507
 20
2354.083848164023
 30
0.0
 41
25.0
 42
25.0
 43
25.0
  0
MTEXT
  5
7726
330
74AC
100
AcDbEntity
  8
AM_5 寸法線
 62
     3
100
AcDbMText
 10
1908.959186987507
 20
2386.583848164022
 30
0.0
 40
35.0
 41
0.0
 46
0.0
 71
     5
 72
     1
  1
116
  7
SEISA
 73
     1
 44
1.0
  0
POINT
  5
7727
330
74AC
100
AcDbEntity
  8
Defpoints
 62
     0
100
AcDbPoint
 10
1850.959186987507
 20
2421.276719446812
 30
0.0
  0
POINT
  5
7728
330
74AC
100
AcDbEntity
  8
Defpoints
 62
     0
100
AcDbPoint
 10
1966.959186987507
 20
2421.276719446812
 30
0.0
  0
POINT
  5
7729
330
74AC
100
AcDbEntity
  8
Defpoints
 62
     0
100
AcDbPoint
 10
1966.959186987507
 20
2354.083848164023
 30
0.0
  0
ENDBLK
  5
74AE
330
74AC
100
AcDbEntity
  8
0
100
AcDbBlockEnd
  0
BLOCK
  5
74D7
330
74D6
100
AcDbEntity
  8
0
100
AcDbBlockBegin
  2
*D29
 70
     1
 10
0.0
 20
0.0
 30
0.0
  3
*D29
  1

  0
LINE
  5
772A
330
74D6
100
AcDbEntity
  8
AM_5 寸法線
 62
     3
100
AcDbLine
 10
1966.959186987508
 20
2415.026719446812
 30
0.0
 11
1966.959186987508
 21
2347.917185252338
 31
0.0
  0
LINE
  5
772B
330
74D6
100
AcDbEntity
  8
AM_5 寸法線
 62
     3
100
AcDbLine
 10
2068.459186987507
 20
2412.526719446812
 30
0.0
 11
2068.459186987507
 21
2347.917185252338
 31
0.0
  0
LINE
  5
772C
330
74D6
100
AcDbEntity
  8
AM_5 寸法線
 62
     3
100
AcDbLine
 10
1991.959186987507
 20
2354.167185252338
 30
0.0
 11
2043.459186987508
 21
2354.167185252338
 31
0.0
  0
LINE
  5
772D
330
74D6
100
AcDbEntity
  8
AM_5 寸法線
 62
     3
100
AcDbLine
 10
2068.459186987507
 20
2354.167185252338
 30
0.0
 11
2244.959186987507
 21
2354.167185252338
 31
0.0
  0
INSERT
  5
772E
330
74D6
100
AcDbEntity
  8
AM_5 寸法線
 62
     3
100
AcDbBlockReference
  2
_Open30
 10
1966.959186987508
 20
2354.167185252338
 30
0.0
 41
25.0
 42
25.0
 43
25.0
 50
180.0
  0
INSERT
  5
772F
330
74D6
100
AcDbEntity
  8
AM_5 寸法線
 62
     3
100
AcDbBlockReference
  2
_Open30
 10
2068.459186987507
 20
2354.167185252338
 30
0.0
 41
25.0
 42
25.0
 43
25.0
  0
MTEXT
  5
7730
330
74D6
100
AcDbEntity
  8
AM_5 寸法線
 62
     3
100
AcDbMText
 10
2169.209186987508
 20
2386.667185252338
 30
0.0
 40
35.0
 41
0.0
 46
0.0
 71
     5
 72
     1
  1
101.5
  7
SEISA
 73
     1
 44
1.0
  0
POINT
  5
7731
330
74D6
100
AcDbEntity
  8
Defpoints
 62
     0
100
AcDbPoint
 10
1966.959186987508
 20
2421.276719446812
 30
0.0
  0
POINT
  5
7732
330
74D6
100
AcDbEntity
  8
Defpoints
 62
     0
100
AcDbPoint
 10
2068.459186987507
 20
2418.776719446812
 30
0.0
  0
POINT
  5
7733
330
74D6
100
AcDbEntity
  8
Defpoints
 62
     0
100
AcDbPoint
 10
2068.459186987507
 20
2354.167185252338
 30
0.0
  0
ENDBLK
  5
74D8
330
74D6
100
AcDbEntity
  8
0
100
AcDbBlockEnd
  0
BLOCK
  5
76F7
330
76F6
100
AcDbEntity
  8
0
100
AcDbBlockBegin
  2
センタB CCMH800
 70
     0
 10
0.0
 20
0.0
 30
0.0
  3
センタB CCMH800
  1

  0
LINE
  5
76F9
330
76F6
100
AcDbEntity
  8
AM_0 外形線1
100
AcDbLine
 10
0.0
 20
100.5000000000013
 30
0.0
 11
0.0
 21
-182.4999999999995
 31
0.0
  0
LINE
  5
76FA
330
76F6
100
AcDbEntity
  8
AM_0 外形線1
100
AcDbLine
 10
-101.0
 20
102.5000000000009
 30
0.0
 11
-2.0
 21
102.5000000000009
 31
0.0
  0
LINE
  5
76FB
330
76F6
100
AcDbEntity
  8
AM_0 外形線1
100
AcDbLine
 10
-400.0
 20
-450.9999999999995
 30
0.0
 11
-400.0
 21
86.00000000000092
 31
0.0
  0
LINE
  5
76FC
330
76F6
100
AcDbEntity
  8
AM_0 外形線1
100
AcDbLine
 10
-288.0
 20
-465.9999999999994
 30
0.0
 11
-288.0
 21
-182.4999999999995
 31
0.0
  0
LINE
  5
76FD
330
76F6
100
AcDbEntity
  8
AM_0 外形線1
100
AcDbLine
 10
-283.0
 20
-467.4999999999995
 30
0.0
 11
-283.0
 21
-182.4999999999995
 31
0.0
  0
LINE
  5
76FE
330
76F6
100
AcDbEntity
  8
AM_0 外形線1
100
AcDbLine
 10
-251.0
 20
-467.4999999999995
 30
0.0
 11
-283.0
 21
-467.4999999999995
 31
0.0
  0
LINE
  5
76FF
330
76F6
100
AcDbEntity
  8
AM_0 外形線1
100
AcDbLine
 10
-288.0
 20
-465.9999999999994
 30
0.0
 11
-385.0
 21
-465.9999999999994
 31
0.0
  0
ARC
  5
7700
330
76F6
100
AcDbEntity
  8
AM_0 外形線1
100
AcDbCircle
 10
-385.0
 20
-450.9999999999995
 30
0.0
 40
15.0
100
AcDbArc
 50
180.0
 51
270.0
  0
LINE
  5
7701
330
76F6
100
AcDbEntity
  8
AM_0 外形線1
100
AcDbLine
 10
-283.0
 20
-467.4999999999995
 30
0.0
 11
-288.0
 21
-465.9999999999994
 31
0.0
  0
LINE
  5
7702
330
76F6
100
AcDbEntity
  8
AM_3 隠れ線
100
AcDbLine
 10
-400.0
 20
-169.2499999999995
 30
0.0
 11
-330.0
 21
-169.2499999999995
 31
0.0
  0
LINE
  5
7703
330
76F6
100
AcDbEntity
  8
AM_3 隠れ線
100
AcDbLine
 10
-400.0
 20
-167.4999999999995
 30
0.0
 11
-346.0
 21
-167.4999999999995
 31
0.0
  0
LINE
  5
7704
330
76F6
100
AcDbEntity
  8
AM_3 隠れ線
100
AcDbLine
 10
-346.0
 20
-167.4999999999995
 30
0.0
 11
-344.9896370000006
 21
-169.2499999999995
 31
0.0
  0
LINE
  5
7705
330
76F6
100
AcDbEntity
  8
AM_3 隠れ線
100
AcDbLine
 10
-344.9896370000006
 20
-169.2499999999995
 30
0.0
 11
-344.9896370000006
 21
-182.4999999999995
 31
0.0
  0
LINE
  5
7706
330
76F6
100
AcDbEntity
  8
AM_3 隠れ線
100
AcDbLine
 10
-346.0
 20
-167.4999999999995
 30
0.0
 11
-346.0
 21
-182.4999999999995
 31
0.0
  0
LINE
  5
7707
330
76F6
100
AcDbEntity
  8
AM_3 隠れ線
100
AcDbLine
 10
-330.0
 20
-169.2499999999995
 30
0.0
 11
-330.0
 21
-182.4999999999995
 31
0.0
  0
LINE
  5
7708
330
76F6
100
AcDbEntity
  8
AM_3 隠れ線
100
AcDbLine
 10
-322.350109
 20
-182.4999999999995
 30
0.0
 11
-330.0
 21
-169.2499999999995
 31
0.0
  0
LINE
  5
7709
330
76F6
100
AcDbEntity
  8
AM_0 外形線1
100
AcDbLine
 10
-283.0
 20
102.5000000000009
 30
0.0
 11
-218.0
 21
102.5000000000009
 31
0.0
  0
LINE
  5
770A
330
76F6
100
AcDbEntity
  8
AM_0 外形線1
100
AcDbLine
 10
-385.0
 20
101.0000000000009
 30
0.0
 11
-288.0
 21
101.0000000000009
 31
0.0
  0
ARC
  5
770B
330
76F6
100
AcDbEntity
  8
AM_0 外形線1
100
AcDbCircle
 10
-385.0
 20
86.00000000000092
 30
0.0
 40
15.0
100
AcDbArc
 50
90.0
 51
180.0
  0
LINE
  5
770C
330
76F6
100
AcDbEntity
  8
AM_0 外形線1
100
AcDbLine
 10
-288.0
 20
101.0000000000009
 30
0.0
 11
-283.0
 21
102.5000000000009
 31
0.0
  0
ARC
  5
770D
330
76F6
100
AcDbEntity
  8
AM_0 外形線1
100
AcDbCircle
 10
-159.5
 20
-182.4999999999995
 30
0.0
 40
311.65
100
AcDbArc
 50
79.46142399999081
 51
100.5385760000092
  0
LINE
  5
770E
330
76F6
100
AcDbEntity
  8
AM_0 外形線1
100
AcDbLine
 10
-217.5
 20
122.7053600000008
 30
0.0
 11
-216.5
 21
123.8930850000006
 31
0.0
  0
LINE
  5
770F
330
76F6
100
AcDbEntity
  8
AM_0 外形線1
100
AcDbLine
 10
-217.5
 20
103.0000000000009
 30
0.0
 11
-217.5
 21
122.7053600000008
 31
0.0
  0
ARC
  5
7710
330
76F6
100
AcDbEntity
  8
AM_0 外形線1
100
AcDbCircle
 10
-218.0
 20
103.0000000000009
 30
0.0
 40
0.5
100
AcDbArc
 50
270.0
 51
0.0
  0
LINE
  5
7711
330
76F6
100
AcDbEntity
  8
AM_7 中心線
100
AcDbLine
 10
-159.5
 20
134.1500000000005
 30
0.0
 11
-159.5
 21
108.5000000000009
 31
0.0
  0
ARC
  5
7712
330
76F6
100
AcDbEntity
  8
AM_0 外形線1
100
AcDbCircle
 10
-101.0
 20
103.0000000000009
 30
0.0
 40
0.5
100
AcDbArc
 50
180.0
 51
270.0
  0
LINE
  5
7713
330
76F6
100
AcDbEntity
  8
AM_0 外形線1
100
AcDbLine
 10
-101.5
 20
122.7053600000008
 30
0.0
 11
-101.5
 21
103.0000000000009
 31
0.0
  0
LINE
  5
7714
330
76F6
100
AcDbEntity
  8
AM_0 外形線1
100
AcDbLine
 10
-102.5
 20
123.8930850000006
 30
0.0
 11
-101.5
 21
122.7053600000008
 31
0.0
  0
LINE
  5
7715
330
76F6
100
AcDbEntity
  8
AM_0 外形線1
100
AcDbLine
 10
0.0
 20
100.5000000000009
 30
0.0
 11
0.0
 21
-182.4999999999995
 31
0.0
  0
LINE
  5
7716
330
76F6
100
AcDbEntity
  8
AM_3 隠れ線
100
AcDbLine
 10
0.0
 20
-167.4999999999995
 30
0.0
 11
-54.0
 21
-167.4999999999995
 31
0.0
  0
LINE
  5
7717
330
76F6
100
AcDbEntity
  8
AM_3 隠れ線
100
AcDbLine
 10
0.0
 20
-169.2499999999995
 30
0.0
 11
-70.0
 21
-169.2499999999995
 31
0.0
  0
LINE
  5
7718
330
76F6
100
AcDbEntity
  8
AM_3 隠れ線
100
AcDbLine
 10
-54.0
 20
-167.4999999999995
 30
0.0
 11
-55.01036299999942
 21
-169.2499999999995
 31
0.0
  0
LINE
  5
7719
330
76F6
100
AcDbEntity
  8
AM_3 隠れ線
100
AcDbLine
 10
-54.0
 20
-167.4999999999995
 30
0.0
 11
-54.0
 21
-182.4999999999995
 31
0.0
  0
LINE
  5
771A
330
76F6
100
AcDbEntity
  8
AM_3 隠れ線
100
AcDbLine
 10
-55.01036299999942
 20
-169.2499999999995
 30
0.0
 11
-55.01036299999942
 21
-182.4999999999995
 31
0.0
  0
LINE
  5
771B
330
76F6
100
AcDbEntity
  8
AM_3 隠れ線
100
AcDbLine
 10
-77.64989100000002
 20
-182.4999999999995
 30
0.0
 11
-70.0
 21
-169.2499999999995
 31
0.0
  0
LINE
  5
771C
330
76F6
100
AcDbEntity
  8
AM_3 隠れ線
100
AcDbLine
 10
-70.0
 20
-169.2499999999995
 30
0.0
 11
-70.0
 21
-182.4999999999995
 31
0.0
  0
LINE
  5
771D
330
76F6
100
AcDbEntity
  8
AM_0 外形線1
100
AcDbLine
 10
-2.0
 20
102.5000000000009
 30
0.0
 11
0.0
 21
100.5000000000009
 31
0.0
  0
LINE
  5
771E
330
76F6
100
AcDbEntity
  8
AM_0 外形線1
100
AcDbLine
 10
-400.0
 20
0.0
 30
0.0
 11
0.0
 21
0.0
 31
0.0
  0
ARC
  5
771F
330
76F6
100
AcDbEntity
  8
AM_0 外形線1
100
AcDbCircle
 10
-159.5
 20
-182.4999999999995
 30
0.0
 40
296.0
100
AcDbArc
 50
78.70001158616353
 51
101.2999884138364
  0
ARC
  5
7720
330
76F6
100
AcDbEntity
  8
AM_7 中心線
100
AcDbCircle
 10
-159.5
 20
-182.4999999999995
 30
0.0
 40
304.0000000000004
100
AcDbArc
 50
77.66873493754156
 51
102.130565732139
  0
ENDBLK
  5
76F8
330
76F6
100
AcDbEntity
  8
0
100
AcDbBlockEnd
  0
ENDSEC
  0
SECTION
  2
ENTITIES
  0
LINE
  5
4924
330
1F
100
AcDbEntity
  8
AM_0 外形線1
100
AcDbLine
 10
2084.459186987507
 20
2135.776719446812
 30
0.0
 11
2084.459186987507
 21
1903.276719446811
 31
0.0
  0
LINE
  5
4927
330
1F
100
AcDbEntity
  8
AM_7 中心線
100
AcDbLine
 10
1587.834895469274
 20
2135.776719446812
 30
0.0
 11
2580.423003285016
 21
2135.776719446812
 31
0.0
  0
LINE
  5
4935
330
1F
100
AcDbEntity
  8
AM_0 外形線1
100
AcDbLine
 10
2084.459186987507
 20
2135.776719446812
 30
0.0
 11
2084.459186987507
 21
1914.526719446811
 31
0.0
  0
LINE
  5
4948
330
1F
100
AcDbEntity
  8
AM_0 外形線1
100
AcDbLine
 10
1835.459186987507
 20
1816.976719446811
 30
0.0
 11
1835.459186987507
 21
2135.776719446812
 31
0.0
  0
LINE
  5
4952
330
1F
100
AcDbEntity
  8
AM_0 外形線1
100
AcDbLine
 10
1835.459186987507
 20
1790.77671944681
 30
0.0
 11
1835.459186987507
 21
1816.976719446811
 31
0.0
  0
LINE
  5
49CE
330
1F
100
AcDbEntity
  8
AM_0 外形線1
100
AcDbLine
 10
2100.459186987507
 20
2379.776719446812
 30
0.0
 11
2100.459186987507
 21
2135.776719446812
 31
0.0
  0
INSERT
  5
5221
102
{ACAD_REACTORS
330
5D24
330
5DC0
102
}
330
1F
100
AcDbEntity
  8
AM_0 外形線1
100
AcDbBlockReference
  2
ケースＡ CCMH800
 10
2084.459186987507
 20
2135.776719446812
 30
0.0
  0
INSERT
  5
539C
102
{ACAD_REACTORS
330
5DC0
330
5DDC
102
}
330
1F
100
AcDbEntity
  8
AM_0 外形線1
100
AcDbBlockReference
  2
ケースＢ CCMH800
 10
2084.459186987507
 20
2135.776719446812
 30
0.0
  0
INSERT
  5
5624
330
1F
100
AcDbEntity
  8
AM_0 外形線1
100
AcDbBlockReference
  2
リーマボルト CCMH800 M30
 10
2122.459186987508
 20
2506.776719446812
 30
0.0
  0
INSERT
  5
5787
102
{ACAD_REACTORS
330
5D0C
102
}
330
1F
100
AcDbEntity
  8
AM_0 外形線1
100
AcDbBlockReference
  2
ＧＣサイドカバ－A CCMH800
 10
2333.459186987508
 20
2135.776719446812
 30
0.0
  0
INSERT
  5
58A9
102
{ACAD_REACTORS
330
5BB4
330
5E15
102
}
330
1F
100
AcDbEntity
  8
AM_0 外形線1
100
AcDbBlockReference
  2
ＧＣサイドカバ－Ｂ CCMH800
 10
1835.459186987507
 20
2135.776719446812
 30
0.0
  0
INSERT
  5
594A
102
{ACAD_REACTORS
330
5C16
330
5C2E
330
5CEB
330
5EA3
102
}
330
1F
100
AcDbEntity
  8
AM_0 外形線1
100
AcDbBlockReference
  2
センタＡ CCMH800
 10
2100.459186987507
 20
2135.776719446812
 30
0.0
  0
DIMENSION
  5
5B5E
330
1F
100
AcDbEntity
  8
AM_5 寸法線
100
AcDbDimension
  2
*D14
 10
1468.459186987507
 20
1850.776719446812
 30
0.0
 11
1435.959186987507
 21
2135.776719446813
 31
0.0
 70
    32
  1
%%c<>
 71
     5
 42
570.0000000000003
 73
     0
 74
     0
 75
     0
  3
SEISA$0
100
AcDbAlignedDimension
 13
1785.459186987507
 23
2420.776719446812
 33
0.0
 14
1785.459186987507
 24
1850.776719446811
 34
0.0
 50
90.0
100
AcDbRotatedDimension
1001
ACAD_DSTYLE_DIMINSPECT
1070
   396
1000
100%
1070
   395
1000

1070
   394
1070
    33
1070
   393
1070
     0
  0
DIMENSION
  5
5B99
102
{ACAD_XDICTIONARY
360
5BA8
102
}
102
{ACAD_REACTORS
330
5BB4
102
}
330
1F
100
AcDbEntity
  8
AM_5 寸法線
100
AcDbDimension
  2
*D15
 10
1841.459186987507
 20
2354.08384816402
 30
0.0
 11
1743.459186987507
 21
2386.58384816402
 31
0.0
 70
    32
 71
     5
 42
9.5
 73
     0
 74
     0
 75
     0
  3
SEISA$0
100
AcDbAlignedDimension
 13
1850.959186987507
 23
2421.276719446812
 33
0.0
 14
1841.459186987507
 24
2420.776719446812
 34
0.0
100
AcDbRotatedDimension
  0
DIMENSION
  5
5BE3
330
1F
100
AcDbEntity
  8
AM_5 寸法線
100
AcDbDimension
  2
*D16
 10
1668.459186987507
 20
2211.783811446812
 30
0.0
 11
1868.459186987507
 21
2244.283811446811
 31
0.0
 70
    32
 71
     5
 42
400.0
 73
     0
 74
     0
 75
     0
  3
SEISA$0
100
AcDbAlignedDimension
 13
2068.459186987507
 23
2135.776719446812
 33
0.0
 14
1668.459186987507
 24
2135.776719446812
 34
0.0
100
AcDbRotatedDimension
  0
DIMENSION
  5
5BFB
102
{ACAD_XDICTIONARY
360
5C0A
102
}
102
{ACAD_REACTORS
330
5C16
102
}
330
1F
100
AcDbEntity
  8
AM_5 寸法線
100
AcDbDimension
  2
*D17
 10
2068.459186987507
 20
2211.783811446812
 30
0.0
 11
2154.332798869069
 21
2243.595812879425
 31
0.0
 70
   160
 71
     5
 42
32.0
 73
     0
 74
     0
 75
     0
  3
SEISA$0
100
AcDbAlignedDimension
 13
2100.459186987507
 23
2135.776719446812
 33
0.0
 14
2068.459186987507
 24
2135.776719446812
 34
0.0
100
AcDbRotatedDimension
1001
ACAD
1000
DSTYLE
1002
{
1070
   279
1070
     2
1002
}
  0
DIMENSION
  5
5C17
102
{ACAD_XDICTIONARY
360
5C24
102
}
102
{ACAD_REACTORS
330
5C2E
102
}
330
1F
100
AcDbEntity
  8
AM_5 寸法線
100
AcDbDimension
  2
*D18
 10
2500.459186987507
 20
2211.783811446812
 30
0.0
 11
2300.459186987508
 21
2244.283811446811
 31
0.0
 70
    32
 71
     5
 42
400.0
 73
     0
 74
     0
 75
     0
  3
SEISA$0
100
AcDbAlignedDimension
 13
2100.459186987507
 23
2135.776719446812
 33
0.0
 14
2500.459186987507
 24
2135.776719446812
 34
0.0
100
AcDbRotatedDimension
  0
DIMENSION
  5
5CD4
102
{ACAD_XDICTIONARY
360
5CE1
102
}
102
{ACAD_REACTORS
330
5CEB
102
}
330
1F
100
AcDbEntity
  8
AM_5 寸法線
100
AcDbDimension
  2
*D20
 10
2700.459186987508
 20
1850.776719446811
 30
0.0
 11
2667.959186987507
 21
2135.776719446813
 31
0.0
 70
    32
  1
%%c<>
 71
     5
 42
570.0000000000003
 73
     0
 74
     0
 75
     0
  3
SEISA$0
100
AcDbAlignedDimension
 13
2383.459186987508
 23
2420.776719446812
 33
0.0
 14
2383.459186987508
 24
1850.776719446811
 34
0.0
 50
90.0
100
AcDbRotatedDimension
1001
ACAD_DSTYLE_DIMINSPECT
1070
   396
1000
100%
1070
   395
1000

1070
   394
1070
    33
1070
   393
1070
     0
  0
DIMENSION
  5
5CF5
102
{ACAD_XDICTIONARY
360
5D02
102
}
102
{ACAD_REACTORS
330
5D0C
102
}
330
1F
100
AcDbEntity
  8
AM_5 寸法線
100
AcDbDimension
  2
*D21
 10
2780.459186987509
 20
1790.77671944681
 30
0.0
 11
2747.959186987507
 21
2135.776719446813
 31
0.0
 70
    32
  1
%%c<>
 71
     5
 42
690.0000000000003
 73
     0
 74
     0
 75
     0
  3
SEISA$0
100
AcDbAlignedDimension
 13
2351.459186987508
 23
2480.776719446812
 33
0.0
 14
2351.459186987508
 24
1790.77671944681
 34
0.0
 50
90.0
100
AcDbRotatedDimension
1001
ACAD_DSTYLE_DIMINSPECT
1070
   396
1000
100%
1070
   395
1000

1070
   394
1070
    33
1070
   393
1070
     0
  0
DIMENSION
  5
5D0D
102
{ACAD_XDICTIONARY
360
5D1A
102
}
102
{ACAD_REACTORS
330
5D24
102
}
330
1F
100
AcDbEntity
  8
AM_5 寸法線
100
AcDbDimension
  2
*D22
 10
2860.459186987508
 20
1735.776719446811
 30
0.0
 11
2827.959186987508
 21
2135.776719446813
 31
0.0
 70
    32
  1
%%c<>
 71
     5
 42
800.0000000000005
 73
     0
 74
     0
 75
     0
  3
SEISA$0
100
AcDbAlignedDimension
 13
2120.459186987508
 23
2535.776719446812
 33
0.0
 14
2120.459186987508
 24
1735.776719446812
 34
0.0
 50
90.0
100
AcDbRotatedDimension
1001
ACAD_DSTYLE_DIMINSPECT
1070
   396
1000
100%
1070
   395
1000

1070
   394
1070
    33
1070
   393
1070
     0
  0
DIMENSION
  5
5DA5
102
{ACAD_XDICTIONARY
360
5DB4
102
}
102
{ACAD_REACTORS
330
5DC0
102
}
330
1F
100
AcDbEntity
  8
AM_5 寸法線
100
AcDbDimension
  2
*D23
 10
2122.459186987508
 20
1615.776719446811
 30
0.0
 11
2212.959186987507
 21
1648.276719446811
 31
0.0
 70
    32
 71
     5
 42
38.0
 73
     0
 74
     0
 75
     0
  3
SEISA$0
100
AcDbAlignedDimension
 13
2084.459186987507
 23
1737.776719446811
 33
0.0
 14
2122.459186987508
 24
1737.776719446811
 34
0.0
100
AcDbRotatedDimension
1001
ACAD_DSTYLE_DIMINSPECT
1070
   396
1000
100%
1070
   395
1000

1070
   394
1070
    33
1070
   393
1070
     0
1001
ACAD
1000
DSTYLE
1002
{
1070
   173
1070
     1
1070
   342
1005
0
1070
   343
1005
5C97
1070
   344
1005
69
1002
}
  0
DIMENSION
  5
5DC1
102
{ACAD_XDICTIONARY
360
5DD0
102
}
102
{ACAD_REACTORS
330
5DDC
102
}
330
1F
100
AcDbEntity
  8
AM_5 寸法線
100
AcDbDimension
  2
*D24
 10
2046.459186987508
 20
1615.776719446811
 30
0.0
 11
1955.959186987508
 21
1648.276719446811
 31
0.0
 70
    32
 71
     5
 42
37.99999999999978
 73
     0
 74
     0
 75
     0
  3
SEISA$0
100
AcDbAlignedDimension
 13
2084.459186987507
 23
1737.776719446811
 33
0.0
 14
2046.459186987508
 24
1737.776719446811
 34
0.0
100
AcDbRotatedDimension
1001
ACAD_DSTYLE_DIMINSPECT
1070
   396
1000
100%
1070
   395
1000

1070
   394
1070
    33
1070
   393
1070
     0
1001
ACAD
1000
DSTYLE
1002
{
1070
   173
1070
     1
1070
   342
1005
0
1070
   343
1005
3F27
1070
   344
1005
69
1002
}
  0
DIMENSION
  5
5DFE
102
{ACAD_XDICTIONARY
360
5E0B
102
}
102
{ACAD_REACTORS
330
5E15
102
}
330
1F
100
AcDbEntity
  8
AM_5 寸法線
100
AcDbDimension
  2
*D25
 10
1817.459186987507
 20
1535.776719446811
 30
0.0
 11
2084.459186987507
 21
1568.276719446811
 31
0.0
 70
    32
 71
     5
 42
534.0
 73
     0
 74
     0
 75
     0
  3
SEISA$0
100
AcDbAlignedDimension
 13
2351.459186987508
 23
1790.77671944681
 33
0.0
 14
1817.459186987507
 24
1790.77671944681
 34
0.0
100
AcDbRotatedDimension
1001
ACAD
1000
DSTYLE
1002
{
1070
   279
1070
     0
1002
}
  0
DIMENSION
  5
5E8C
102
{ACAD_XDICTIONARY
360
5E99
102
}
102
{ACAD_REACTORS
330
5EA3
102
}
330
1F
100
AcDbEntity
  8
AM_5 寸法線
100
AcDbDimension
  2
*D26
 10
1668.459186987507
 20
1455.776719446811
 30
0.0
 11
2084.459186987507
 21
1455.776719446811
 31
0.0
 70
   160
 71
     5
 42
832.0
 73
     0
 74
     0
 75
     0
  3
SEISA$0
100
AcDbAlignedDimension
 13
2500.459186987507
 23
1867.276719446811
 33
0.0
 14
1668.459186987507
 24
1867.276719446811
 34
0.0
100
AcDbRotatedDimension
1001
ACAD
1000
DSTYLE
1002
{
1070
   279
1070
     0
1002
}
  0
TEXT
  5
71E7
330
1F
100
AcDbEntity
  8
AM_6 文字
100
AcDbText
 10
2693.491607329844
 20
1338.956094161217
 30
0.0
 40
18.59359999999998
  1
　
 41
0.9
  7
SEISA
100
AcDbText
  0
TEXT
  5
71E8
330
1F
100
AcDbEntity
  8
AM_6 文字
100
AcDbText
 10
2711.500837044129
 20
1322.054821654551
 30
0.0
 40
40.00041168
  1
 
 41
0.1
  7
SEISA
100
AcDbText
  0
TEXT
  5
71EA
330
1F
100
AcDbEntity
  8
AM_6 文字
100
AcDbText
 10
2758.700878212129
 20
1322.055027494551
 30
0.0
 40
40.0
  1
 
 41
0.1
  7
SEISA
100
AcDbText
  0
TEXT
  5
71ED
330
1F
100
AcDbEntity
  8
AM_6 文字
100
AcDbText
 10
3117.558021069271
 20
1338.968094161217
 30
0.0
 40
18.5216
  1
 
 41
0.9
  7
SEISA
100
AcDbText
  0
TEXT
  5
71F0
330
1F
100
AcDbEntity
  8
AM_6 文字
100
AcDbText
 10
2707.891607329845
 20
1255.388017761218
 30
0.0
 40
40.0
  1
 
 41
0.2
  7
SEISA
100
AcDbText
  0
TEXT
  5
71F2
330
1F
100
AcDbEntity
  8
AM_6 文字
100
AcDbText
 10
2759.091607329844
 20
1255.388017761218
 30
0.0
 40
40.0
  1
 
 41
0.1
  7
SEISA
100
AcDbText
  0
TEXT
  5
71F4
330
1F
100
AcDbEntity
  8
AM_6 文字
100
AcDbText
 10
2986.634464472701
 20
1255.388017761218
 30
0.0
 40
40.0
  1
　
 41
0.7
  7
SEISA
100
AcDbText
  0
TEXT
  5
71F5
330
1F
100
AcDbEntity
  8
AM_6 文字
100
AcDbText
 10
3020.234464472701
 20
1255.388017761218
 30
0.0
 40
40.0
  1
　　
 41
0.9
  7
SEISA
100
AcDbText
  0
TEXT
  5
71F6
330
1F
100
AcDbEntity
  8
AM_6 文字
100
AcDbText
 10
3106.634464472701
 20
1255.388017761218
 30
0.0
 40
40.0
  1
 
 41
0.6
  7
SEISA
100
AcDbText
  0
MTEXT
  5
73C5
330
1F
100
AcDbEntity
  8
AM_6 文字
100
AcDbMText
 10
2558.545867007394
 20
1681.5831148909
 30
0.0
 40
35.0
 41
726.8226118445237
 46
89.67706210324509
 71
     1
 72
     5
  1
{\W0.6;TYPE:CCM800/CCMH800\PSHAFT DIA:MAX/MIN φ405/φ280}
  7
SEISA
 73
     1
 44
1.0
  0
DIMENSION
  5
74AB
330
1F
100
AcDbEntity
  8
AM_5 寸法線
100
AcDbDimension
  2
*D28
 10
1966.959186987507
 20
2354.083848164023
 30
0.0
 11
1908.959186987507
 21
2386.583848164022
 31
0.0
 70
    32
 71
     5
 42
115.9999999999997
 73
     0
 74
     0
 75
     0
  3
SEISA$0
100
AcDbAlignedDimension
 13
1850.959186987507
 23
2421.276719446812
 33
0.0
 14
1966.959186987507
 24
2421.276719446812
 34
0.0
 50
0.0000000000001132
100
AcDbRotatedDimension
1001
ACAD_DSTYLE_DIMINSPECT
1070
   396
1000
100%
1070
   395
1000

1070
   394
1070
    33
1070
   393
1070
     0
  0
DIMENSION
  5
74D5
330
1F
100
AcDbEntity
  8
AM_5 寸法線
100
AcDbDimension
  2
*D29
 10
2068.459186987507
 20
2354.167185252338
 30
0.0
 11
2169.209186987508
 21
2386.667185252338
 31
0.0
 70
    32
 71
     5
 42
101.5
 73
     0
 74
     0
 75
     0
  3
SEISA$0
100
AcDbAlignedDimension
 13
1966.959186987508
 23
2421.276719446812
 33
0.0
 14
2068.459186987507
 24
2418.776719446812
 34
0.0
 50
0.0000000000001132
100
AcDbRotatedDimension
1001
ACAD_DSTYLE_DIMINSPECT
1070
   396
1000
100%
1070
   395
1000

1070
   394
1070
    33
1070
   393
1070
     0
  0
INSERT
  5
7734
330
1F
100
AcDbEntity
  8
AM_0 外形線1
100
AcDbBlockReference
  2
センタB CCMH800
 10
2068.459186987507
 20
2318.276719446811
 30
0.0
  0
ENDSEC
  0
SECTION
  2
OBJECTS
  0
DICTIONARY
  5
C
330
0
100
AcDbDictionary
281
     1
  3
ACAD_COLOR
350
C5
  3
ACAD_GROUP
350
D
  3
ACAD_LAYOUT
350
1A
  3
ACAD_MATERIAL
350
C4
  3
ACAD_MLEADERSTYLE
350
2D5
  3
ACAD_MLINESTYLE
350
17
  3
ACAD_PLOTSETTINGS
350
19
  3
ACAD_PLOTSTYLENAME
350
E
  3
ACAD_SCALELIST
350
2B3
  3
ACAD_TABLESTYLE
350
121
  3
ACAD_VISUALSTYLE
350
27F
  3
ACDB_RECOMPOSE_DATA
350
2F7
  3
AcDbVariableDictionary
350
34
  3
AcmDictionary
350
49
  3
AMG
350
2B
  3
AMGSNAPSETTINGS
350
1DE
  0
DICTIONARY
  5
BF
330
2
100
AcDbDictionary
280
     1
281
     1
  3
ACAD_LAYERSTATES
360
3FFA
  3
AMLAYER_GROUPCOLORS
360
C0
  0
DICTIONARY
  5
29F7
330
10
100
AcDbDictionary
280
     1
281
     1
  3
ADSK_XREC_LAYER_RECONCILED
360
29F8
  0
DICTIONARY
  5
29F9
330
81
100
AcDbDictionary
280
     1
281
     1
  3
ADSK_XREC_LAYER_RECONCILED
360
29FA
  0
DICTIONARY
  5
82
330
1F
100
AcDbDictionary
280
     1
281
     1
  3
ACAD_SORTENTS
360
A41
  0
DICTIONARY
  5
5137
330
510C
100
AcDbDictionary
280
     1
281
     1
  3
ACAD_SORTENTS
360
6E25
  0
DICTIONARY
  5
529F
330
51E9
100
AcDbDictionary
280
     1
281
     1
  3
ACAD_SORTENTS
360
69E9
  0
DICTIONARY
  5
5412
330
5368
100
AcDbDictionary
280
     1
281
     1
  3
ACAD_SORTENTS
360
6A65
  0
DICTIONARY
  5
54FA
330
5471
100
AcDbDictionary
280
     1
281
     1
  3
ACAD_SORTENTS
360
76F5
  0
DICTIONARY
  5
5689
330
55F9
100
AcDbDictionary
280
     1
281
     1
  3
ACAD_SORTENTS
360
6D2B
  0
DICTIONARY
  5
57FE
330
5752
100
AcDbDictionary
280
     1
281
     1
  3
ACAD_SORTENTS
360
6BFC
  0
DICTIONARY
  5
5917
330
5875
100
AcDbDictionary
280
     1
281
     1
  3
ACAD_SORTENTS
360
6C68
  0
DICTIONARY
  5
6E51
330
6E0A
100
AcDbDictionary
280
     1
281
     1
  3
ACAD_SORTENTS
360
6E52
  0
DICTIONARY
  5
7789
330
76F6
100
AcDbDictionary
280
     1
281
     1
  3
ACAD_SORTENTS
360
778A
  0
DICTIONARY
  5
5BA8
330
5B99
100
AcDbDictionary
280
     1
281
     1
  3
ACAD_DIMASSOC
360
5BB4
  0
DICTIONARY
  5
5C0A
330
5BFB
100
AcDbDictionary
280
     1
281
     1
  3
ACAD_DIMASSOC
360
5C16
  0
DICTIONARY
  5
5C24
330
5C17
100
AcDbDictionary
280
     1
281
     1
  3
ACAD_DIMASSOC
360
5C2E
  0
DICTIONARY
  5
5CE1
330
5CD4
100
AcDbDictionary
280
     1
281
     1
  3
ACAD_DIMASSOC
360
5CEB
  0
DICTIONARY
  5
5D02
330
5CF5
100
AcDbDictionary
280
     1
281
     1
  3
ACAD_DIMASSOC
360
5D0C
  0
DICTIONARY
  5
5D1A
330
5D0D
100
AcDbDictionary
280
     1
281
     1
  3
ACAD_DIMASSOC
360
5D24
  0
DICTIONARY
  5
5DB4
330
5DA5
100
AcDbDictionary
280
     1
281
     1
  3
ACAD_DIMASSOC
360
5DC0
  0
DICTIONARY
  5
5DD0
330
5DC1
100
AcDbDictionary
280
     1
281
     1
  3
ACAD_DIMASSOC
360
5DDC
  0
DICTIONARY
  5
5E0B
330
5DFE
100
AcDbDictionary
280
     1
281
     1
  3
ACAD_DIMASSOC
360
5E15
  0
DICTIONARY
  5
5E99
330
5E8C
100
AcDbDictionary
280
     1
281
     1
  3
ACAD_DIMASSOC
360
5EA3
  0
DICTIONARY
  5
C5
102
{ACAD_REACTORS
330
C
102
}
330
C
100
AcDbDictionary
281
     1
  0
DICTIONARY
  5
D
102
{ACAD_REACTORS
330
C
102
}
330
C
100
AcDbDictionary
281
     1
  0
DICTIONARY
  5
1A
102
{ACAD_REACTORS
330
C
102
}
330
C
100
AcDbDictionary
281
     1
  3
Model
350
22
  3
レイアウト1
350
1E
  3
レイアウト2
350
26
  0
DICTIONARY
  5
C4
102
{ACAD_REACTORS
330
C
102
}
330
C
100
AcDbDictionary
281
     1
  3
ByBlock
350
27D
  3
ByLayer
350
27C
  3
Global
350
27E
  0
DICTIONARY
  5
2D5
102
{ACAD_REACTORS
330
C
102
}
330
C
100
AcDbDictionary
281
     1
  3
Standard
350
2D6
  0
DICTIONARY
  5
17
102
{ACAD_REACTORS
330
C
102
}
330
C
100
AcDbDictionary
281
     1
  3
Standard
350
18
  0
DICTIONARY
  5
19
102
{ACAD_REACTORS
330
C
102
}
330
C
100
AcDbDictionary
281
     1
  3
SEISA基本
350
1C7E
  0
ACDBDICTIONARYWDFLT
  5
E
102
{ACAD_REACTORS
330
C
102
}
330
C
100
AcDbDictionary
281
     1
  3
Normal
350
F
100
AcDbDictionaryWithDefault
340
F
  0
DICTIONARY
  5
2B3
102
{ACAD_REACTORS
330
C
102
}
330
C
100
AcDbDictionary
281
     1
  3
*A1
350
73B9
  3
*A2
350
73BA
  3
*A3
350
73BB
  3
*A4
350
73BC
  3
A0
350
2B4
  3
A1
350
2B5
  3
A2
350
2B6
  3
A3
350
2B7
  3
A4
350
2B8
  3
A5
350
2B9
  3
A6
350
2BA
  3
A7
350
2BB
  3
A8
350
2BC
  3
A9
350
2BD
  3
B0
350
2BE
  3
B1
350
2BF
  3
B2
350
2C0
  3
B3
350
2C1
  3
B4
350
2C2
  3
B5
350
2C3
  3
B6
350
2C4
  3
B7
350
2C5
  3
B8
350
2C6
  3
B9
350
2C7
  3
C0
350
2C8
  3
C1
350
2C9
  3
C2
350
2CA
  3
C3
350
2CB
  3
C4
350
2CC
  3
C5
350
2CD
  3
C6
350
2CE
  3
C7
350
2CF
  3
C8
350
2D0
  3
C9
350
2D1
  3
D0
350
2D2
  3
D1
350
2D3
  3
D2
350
2D4
  0
DICTIONARY
  5
121
102
{ACAD_REACTORS
330
C
102
}
330
C
100
AcDbDictionary
281
     1
  3
Standard
350
122
  0
DICTIONARY
  5
27F
102
{ACAD_REACTORS
330
C
102
}
330
C
100
AcDbDictionary
281
     1
  3
2dWireframe
350
285
  3
3D Hidden
350
287
  3
3dWireframe
350
286
  3
Basic
350
284
  3
Brighten
350
28B
  3
ColorChange
350
28F
  3
Conceptual
350
288
  3
Dim
350
28A
  3
Facepattern
350
28E
  3
Flat
350
280
  3
FlatWithEdges
350
281
  3
Gouraud
350
282
  3
GouraudWithEdges
350
283
  3
Linepattern
350
28D
  3
Realistic
350
289
  3
Thicken
350
28C
  0
XRECORD
  5
2F7
102
{ACAD_REACTORS
330
C
102
}
330
C
100
AcDbXrecord
280
     1
 90
        1
330
122
  0
DICTIONARY
  5
34
102
{ACAD_REACTORS
330
C
102
}
330
C
100
AcDbDictionary
281
     1
  3
CANNOSCALE
350
2FA
  3
CMLEADERSTYLE
350
2F8
  3
CTABLESTYLE
350
140
  3
DIMASSOC
350
AC
  3
INDEXCTL
350
35
  3
LAYEREVAL
350
6DA7
  3
LAYERNOTIFY
350
6DA8
  3
LIGHTINGUNITS
350
2FB
  3
MSLTSCALE
350
2F9
  0
DICTIONARY
  5
49
102
{ACAD_REACTORS
330
C
102
}
330
C
100
AcDbDictionary
281
     1
  3
AcmBOM
350
161B
  3
AcmStdDictionary
350
4A
  3
AMDTSECTSYM_ARROWCOLOR
350
12B
  0
DICTIONARY
  5
2B
102
{ACAD_REACTORS
330
C
102
}
330
C
100
AcDbDictionary
281
     1
  0
DICTIONARY
  5
1DE
102
{ACAD_REACTORS
330
C
102
}
330
C
100
AcDbDictionary
281
     1
  0
DICTIONARY
  5
3FFA
102
{ACAD_REACTORS
330
BF
102
}
330
BF
100
AcDbDictionary
281
     1
  0
DICTIONARY
  5
C0
102
{ACAD_REACTORS
330
BF
102
}
330
BF
100
AcDbDictionary
280
     1
281
     1
  0
XRECORD
  5
29F8
102
{ACAD_REACTORS
330
29F7
102
}
330
29F7
100
AcDbXrecord
280
     1
290
     1
  0
XRECORD
  5
29FA
102
{ACAD_REACTORS
330
29F9
102
}
330
29F9
100
AcDbXrecord
280
     1
290
     1
  0
SORTENTSTABLE
  5
A41
102
{ACAD_REACTORS
330
82
102
}
330
82
100
AcDbSortentsTable
330
1F
331
5221
  5
59C1
331
4952
  5
4952
331
5B99
  5
654E
331
539C
  5
59C2
331
5C17
  5
655F
331
594A
  5
60EF
331
71E7
  5
71C5
331
5DC1
  5
65C9
331
5DA5
  5
65C8
331
5E8C
  5
65F8
331
5DFE
  5
65CC
331
71F4
  5
71ED
331
71F0
  5
71E9
331
5624
  5
60BC
331
73C5
  5
73C5
331
5BFB
  5
655C
331
5D0D
  5
65C5
331
5CD4
  5
6595
331
71E8
  5
71C6
331
5B5E
  5
6540
331
71F5
  5
71EE
331
5CF5
  5
65B7
331
5BE3
  5
6559
331
4927
  5
4927
331
71ED
  5
71E6
331
58A9
  5
60C5
331
5787
  5
60C0
331
4948
  5
4948
331
71F6
  5
71EF
331
71F2
  5
71EB
331
49CE
  5
49F9
331
4924
  5
4924
331
71EA
  5
71C8
331
4935
  5
4935
  0
SORTENTSTABLE
  5
6E25
102
{ACAD_REACTORS
330
5137
102
}
330
5137
100
AcDbSortentsTable
330
510C
  0
SORTENTSTABLE
  5
69E9
102
{ACAD_REACTORS
330
529F
102
}
330
529F
100
AcDbSortentsTable
330
51E9
331
529D
  5
51F0
331
5214
  5
521A
331
51FE
  5
5204
331
51F7
  5
51FD
331
5206
  5
520C
331
51ED
  5
51F3
331
521C
  5
5299
331
520D
  5
5213
331
529E
  5
51F1
331
5215
  5
521B
331
51FF
  5
5205
331
51F0
  5
51F6
331
520E
  5
5214
331
51EE
  5
51F4
331
521D
  5
529A
331
5220
  5
529D
331
5207
  5
520D
331
51F8
  5
51FE
331
5216
  5
521C
331
5200
  5
5206
331
51F1
  5
51F7
331
520F
  5
5215
331
51F9
  5
51FF
331
5298
  5
529E
331
51EF
  5
51F5
331
521E
  5
529B
331
5208
  5
520E
331
5217
  5
521D
331
5201
  5
5207
331
51F2
  5
51F8
331
5299
  5
51EC
331
5210
  5
5216
331
521F
  5
529C
331
51FA
  5
5200
331
5209
  5
520F
331
5218
  5
521E
331
5202
  5
5208
331
51F3
  5
51F9
331
5211
  5
5217
331
51FB
  5
5201
331
529A
  5
51ED
331
520A
  5
5210
331
5219
  5
521F
331
5203
  5
5209
331
51F4
  5
51FA
331
529B
  5
51EE
331
5212
  5
5218
331
51FC
  5
5202
331
51F5
  5
51FB
331
521A
  5
5220
331
520B
  5
5211
331
5204
  5
520A
331
529C
  5
51EF
331
5213
  5
5219
331
51FD
  5
5203
331
520C
  5
5212
331
51EC
  5
51F2
331
521B
  5
5298
331
5205
  5
520B
331
51F6
  5
51FC
  0
SORTENTSTABLE
  5
6A65
102
{ACAD_REACTORS
330
5412
102
}
330
5412
100
AcDbSortentsTable
330
5368
331
536E
  5
5370
331
5383
  5
5385
331
537C
  5
537E
331
5398
  5
539A
331
5391
  5
5393
331
5373
  5
5375
331
538A
  5
538C
331
5399
  5
539B
331
53DB
  5
536C
331
538B
  5
538D
331
5392
  5
5394
331
5374
  5
5376
331
5410
  5
5411
331
536F
  5
5371
331
5384
  5
5386
331
537D
  5
537F
331
5385
  5
5387
331
537E
  5
5380
331
539A
  5
53DB
331
538C
  5
538E
331
5393
  5
5395
331
5375
  5
5377
331
5411
  5
6A64
331
539B
  5
540C
331
5378
  5
537B
331
540C
  5
540D
331
5394
  5
5396
331
5376
  5
5378
331
538D
  5
538F
331
5386
  5
5388
331
537F
  5
5381
331
540D
  5
540E
331
5387
  5
5389
331
536B
  5
536D
331
5380
  5
5382
331
6A64
  5
536B
331
5370
  5
5372
331
5395
  5
5397
331
5377
  5
537A
331
538E
  5
5390
331
5381
  5
5383
331
537A
  5
537C
331
540E
  5
540F
331
538F
  5
5391
331
5396
  5
5398
331
5371
  5
5373
331
5388
  5
538A
331
536C
  5
536E
331
540F
  5
5410
331
5389
  5
538B
331
536D
  5
536F
331
5382
  5
5384
331
537B
  5
537D
331
5372
  5
5374
331
5397
  5
5399
331
5390
  5
5392
  0
SORTENTSTABLE
  5
76F5
102
{ACAD_REACTORS
330
54FA
102
}
330
54FA
100
AcDbSortentsTable
330
5471
331
549A
  5
7432
331
5484
  5
5486
331
5477
  5
5479
331
5493
  5
5495
331
548E
  5
5490
331
5489
  5
548D
331
547F
  5
5481
331
547A
  5
547C
331
5480
  5
5482
331
548F
  5
5491
331
547B
  5
547D
331
5494
  5
5496
331
5485
  5
5487
331
5481
  5
5483
331
549C
  5
75C5
331
5486
  5
5488
331
5474
  5
5476
331
547C
  5
547E
331
5495
  5
5497
331
5490
  5
5492
331
548B
  5
548E
331
5498
  5
549A
331
5482
  5
5484
331
5475
  5
5477
331
5491
  5
5493
331
7432
  5
5475
331
5496
  5
5498
331
5487
  5
5489
331
547D
  5
547F
331
5478
  5
547A
331
5499
  5
549C
331
5483
  5
5485
331
548D
  5
548F
331
5488
  5
548B
331
75C5
  5
5474
331
5497
  5
5499
331
547E
  5
5480
331
5479
  5
547B
331
5492
  5
5494
331
5476
  5
5478
  0
SORTENTSTABLE
  5
6D2B
102
{ACAD_REACTORS
330
5689
102
}
330
5689
100
AcDbSortentsTable
330
55F9
  0
SORTENTSTABLE
  5
6BFC
102
{ACAD_REACTORS
330
57FE
102
}
330
57FE
100
AcDbSortentsTable
330
5752
  0
SORTENTSTABLE
  5
6C68
102
{ACAD_REACTORS
330
5917
102
}
330
5917
100
AcDbSortentsTable
330
5875
  0
SORTENTSTABLE
  5
6E52
102
{ACAD_REACTORS
330
6E51
102
}
330
6E51
100
AcDbSortentsTable
330
6E0A
  0
SORTENTSTABLE
  5
778A
102
{ACAD_REACTORS
330
7789
102
}
330
7789
100
AcDbSortentsTable
330
76F6
  0
DIMASSOC
  5
5BB4
102
{ACAD_REACTORS
330
5BA8
102
}
330
5BA8
100
AcDbDimAssoc
330
5B99
 90
        2
 70
     0
 71
     0
  1
AcDbOsnapPointRef
 72
     1
331
58A9
331
589D
 73
     2
 91
        0
 40
1.0
 10
0.0
 20
0.0
 30
2.000000000000000E+50
 75
     0
  0
DIMASSOC
  5
5C16
102
{ACAD_REACTORS
330
5C0A
102
}
330
5C0A
100
AcDbDimAssoc
330
5BFB
 90
        1
 70
     0
 71
     0
  1
AcDbOsnapPointRef
 72
     1
331
594A
331
5475
 73
     2
 91
        0
 40
1.0
 10
0.0
 20
0.0
 30
2.000000000000000E+50
 75
     0
  0
DIMASSOC
  5
5C2E
102
{ACAD_REACTORS
330
5C24
102
}
330
5C24
100
AcDbDimAssoc
330
5C17
 90
        3
 70
     0
 71
     0
  1
AcDbOsnapPointRef
 72
     1
331
594A
331
5475
 73
     2
 91
        0
 40
1.0
 10
0.0
 20
0.0
 30
2.000000000000000E+50
 75
     0
  1
AcDbOsnapPointRef
 72
     2
331
594A
331
5474
 73
     2
 91
        0
 40
0.4999999999999997
 10
0.0
 20
0.0
 30
0.0
 75
     0
  0
DIMASSOC
  5
5CEB
102
{ACAD_REACTORS
330
5CE1
102
}
330
5CE1
100
AcDbDimAssoc
330
5CD4
 90
        3
 70
     0
 71
     0
  1
AcDbOsnapPointRef
 72
    13
331
594A
331
5495
 73
     2
 91
        0
 40
0.0
 10
0.0
 20
0.0
 30
2.000000000000000E+50
 75
     0
  1
AcDbOsnapPointRef
 72
    13
331
594A
331
547E
 73
     2
 91
        0
 40
0.0
 10
0.0
 20
0.0
 30
2.000000000000000E+50
 75
     0
  0
DIMASSOC
  5
5D0C
102
{ACAD_REACTORS
330
5D02
102
}
330
5D02
100
AcDbDimAssoc
330
5CF5
 90
        3
 70
     0
 71
     0
  1
AcDbOsnapPointRef
 72
    13
331
5787
331
575E
 73
     2
 91
        0
 40
0.0
 10
0.0
 20
0.0
 30
2.000000000000000E+50
 75
     0
  1
AcDbOsnapPointRef
 72
    13
331
5787
331
5756
 73
     2
 91
        0
 40
0.0
 10
0.0
 20
0.0
 30
2.000000000000000E+50
 75
     0
  0
DIMASSOC
  5
5D24
102
{ACAD_REACTORS
330
5D1A
102
}
330
5D1A
100
AcDbDimAssoc
330
5D0D
 90
        3
 70
     0
 71
     0
  1
AcDbOsnapPointRef
 72
     1
331
5221
331
5216
 73
     2
 91
        0
 40
1.0
 10
0.0
 20
0.0
 30
2.000000000000000E+50
 75
     0
  1
AcDbOsnapPointRef
 72
     1
331
5221
331
51EE
 73
     2
 91
        0
 40
1.0
 10
0.0
 20
0.0
 30
2.000000000000000E+50
 75
     0
  0
DIMASSOC
  5
5DC0
102
{ACAD_REACTORS
330
5DB4
102
}
330
5DB4
100
AcDbDimAssoc
330
5DA5
 90
        3
 70
     0
 71
     0
  1
AcDbOsnapPointRef
 72
     1
331
539C
331
53DB
 73
     2
 91
        0
 40
1.0
 10
0.0
 20
0.0
 30
2.000000000000000E+50
 75
     0
  1
AcDbOsnapPointRef
 72
    13
331
5221
331
51ED
 73
     2
 91
        0
 40
0.0
 10
0.0
 20
0.0
 30
2.000000000000000E+50
 75
     0
  0
DIMASSOC
  5
5DDC
102
{ACAD_REACTORS
330
5DD0
102
}
330
5DD0
100
AcDbDimAssoc
330
5DC1
 90
        3
 70
     0
 71
     0
  1
AcDbOsnapPointRef
 72
     1
331
539C
331
53DB
 73
     2
 91
        0
 40
1.0
 10
0.0
 20
0.0
 30
2.000000000000000E+50
 75
     0
  1
AcDbOsnapPointRef
 72
     8
331
539C
331
5383
 73
     2
 91
        0
 40
0.0
 10
0.0
 20
0.0
 30
0.0
 75
     1
  1
AcDbOsnapPointRef
 72
     1
331
539C
331
53DB
 73
     2
 91
        0
 40
1.0
 10
0.0
 20
0.0
 30
2.000000000000000E+50
 75
     0
  0
DIMASSOC
  5
5E15
102
{ACAD_REACTORS
330
5E0B
102
}
330
5E0B
100
AcDbDimAssoc
330
5DFE
 90
        2
 70
     0
 71
     0
  1
AcDbOsnapPointRef
 72
    13
331
58A9
331
587A
 73
     2
 91
        0
 40
0.0
 10
0.0
 20
0.0
 30
2.000000000000000E+50
 75
     0
  0
DIMASSOC
  5
5EA3
102
{ACAD_REACTORS
330
5E99
102
}
330
5E99
100
AcDbDimAssoc
330
5E8C
 90
        1
 70
     0
 71
     0
  1
AcDbOsnapPointRef
 72
    13
331
594A
331
5474
 73
     2
 91
        0
 40
0.0
 10
0.0
 20
0.0
 30
2.000000000000000E+50
 75
     0
  0
LAYOUT
  5
22
102
{ACAD_REACTORS
330
1A
102
}
330
1A
100
AcDbPlotSettings
  1

  2
KONICA MINOLTA 501 PCL
  4
A4
  6

 40
5.027082920074462
 41
5.027085781097412
 42
5.027069091796875
 43
5.027069091796875
 44
209.9733276367186
 45
296.9259948730469
 46
5.902328001803978
 47
0.0
 48
0.0
 49
0.0
140
0.0
141
0.0
142
1.0
143
5.778217998901343
 70
 11956
 72
     1
 73
     1
 74
     1
  7
SEISA.ctb
 75
     0
147
0.1730637369843328
 76
     0
 77
     2
 78
   300
148
-1418.435682289815
149
-1448.971722500793
100
AcDbLayout
  1
Model
 70
     1
 71
     0
 10
0.0
 20
0.0
 11
12.0
 21
9.0
 12
0.0
 22
0.0
 32
0.0
 14
0.0
 24
0.0
 34
0.0
 15
0.0
 25
0.0
 35
0.0
146
0.0
 13
0.0
 23
0.0
 33
0.0
 16
1.0
 26
0.0
 36
0.0
 17
0.0
 27
1.0
 37
0.0
 76
     0
330
1F
331
27A
1001
ACAD_PSEXT
1000
KONICA MINOLTA 501 PCL
1000
KONICA MINOLTA 501/421/361PCL
1000
IP_192.168.20.231_(1)
1000

1070
     0
  0
LAYOUT
  5
1E
102
{ACAD_REACTORS
330
1A
102
}
330
1A
100
AcDbPlotSettings
  1

  2
none_device
  4
Letter_(8.50_x_11.00_Inches)
  6

 40
6.349999904632567
 41
6.349999904632567
 42
6.350006103515625
 43
6.350006103515625
 44
215.8999938964844
 45
279.3999938964844
 46
0.0
 47
0.0
 48
0.0
 49
0.0
140
0.0
141
0.0
142
1.0
143
1.0
 70
 15024
 72
     1
 73
     1
 74
     5
  7
SEISA.ctb
 75
    16
147
1.0
 76
     0
 77
     2
 78
   300
148
0.0
149
0.0
100
AcDbLayout
  1
レイアウト1
 70
     1
 71
     1
 10
0.0
 20
0.0
 11
420.0
 21
297.0
 12
0.0
 22
0.0
 32
0.0
 14
1.000000000000000E+20
 24
1.000000000000000E+20
 34
1.000000000000000E+20
 15
-1.000000000000000E+20
 25
-1.000000000000000E+20
 35
-1.000000000000000E+20
146
0.0
 13
0.0
 23
0.0
 33
0.0
 16
1.0
 26
0.0
 36
0.0
 17
0.0
 27
1.0
 37
0.0
 76
     0
330
1B
  0
LAYOUT
  5
26
102
{ACAD_REACTORS
330
1A
102
}
330
1A
100
AcDbPlotSettings
  1

  2
none_device
  4
Letter_(8.50_x_11.00_Inches)
  6

 40
6.349999904632567
 41
6.349999904632567
 42
6.350006103515625
 43
6.350006103515625
 44
215.8999938964844
 45
279.3999938964844
 46
0.0
 47
0.0
 48
0.0
 49
0.0
140
0.0
141
0.0
142
1.0
143
1.0
 70
 15024
 72
     1
 73
     1
 74
     5
  7
SEISA.ctb
 75
    16
147
1.0
 76
     0
 77
     2
 78
   300
148
0.0
149
0.0
100
AcDbLayout
  1
レイアウト2
 70
     1
 71
     2
 10
0.0
 20
0.0
 11
12.0
 21
9.0
 12
0.0
 22
0.0
 32
0.0
 14
0.0
 24
0.0
 34
0.0
 15
0.0
 25
0.0
 35
0.0
146
0.0
 13
0.0
 23
0.0
 33
0.0
 16
1.0
 26
0.0
 36
0.0
 17
0.0
 27
1.0
 37
0.0
 76
     0
330
23
  0
MATERIAL
  5
27D
102
{ACAD_REACTORS
330
C4
102
}
330
C4
100
AcDbMaterial
  1
ByBlock
 73
     1
 78
     1
172
     1
176
     1
270
     1
274
     1
 94
       63
  0
MATERIAL
  5
27C
102
{ACAD_REACTORS
330
C4
102
}
330
C4
100
AcDbMaterial
  1
ByLayer
 73
     1
 78
     1
172
     1
176
     1
270
     1
274
     1
 94
       63
  0
MATERIAL
  5
27E
102
{ACAD_REACTORS
330
C4
102
}
330
C4
100
AcDbMaterial
  1
Global
 73
     1
 78
     1
172
     1
176
     1
270
     1
274
     1
 94
       63
  0
MLEADERSTYLE
  5
2D6
102
{ACAD_REACTORS
330
2D5
102
}
330
2D5
100
AcDbMLeaderStyle
170
     2
171
     1
172
     0
 90
        2
 40
0.0
 41
0.0
173
     1
 91
-1056964608
340
14
 92
       -2
290
     1
 42
2.0
291
     1
 43
0.36
  3
Standard
 44
4.0
300

342
11
174
     1
178
     6
175
     1
176
     0
 93
-1056964608
 45
4.0
292
     0
297
     0
 46
4.0
 94
-1056964608
 47
1.0
 49
1.0
140
1.0
293
     1
141
0.0
294
     1
177
     0
142
1.0
295
     0
296
     0
143
0.125
1001
ACAD_MLEADERVER
1070
     2
  0
MLINESTYLE
  5
18
102
{ACAD_REACTORS
330
17
102
}
330
17
100
AcDbMlineStyle
  2
STANDARD
 70
     0
  3

 62
   256
 51
90.0
 52
90.0
 71
     2
 49
0.5
 62
   256
  6
BYLAYER
 49
-0.5
 62
   256
  6
BYLAYER
  0
PLOTSETTINGS
  5
1C7E
102
{ACAD_REACTORS
330
19
102
}
330
19
100
AcDbPlotSettings
  1
SEISA基本
  2
none_device
  4
Letter_(8.50_x_11.00_Inches)
  6

 40
6.349999904632567
 41
6.349999904632567
 42
6.350006103515625
 43
6.350006103515625
 44
215.8999938964844
 45
279.3999938964844
 46
7.302498226506357
 47
0.0
 48
0.0
 49
0.0
140
0.0
141
0.0
142
1.0
143
1.574803221122935
 70
 11956
 72
     1
 73
     1
 74
     2
  7
SEISA.ctb
 75
     0
147
0.6349999711627054
 76
     0
 77
     2
 78
   300
148
0.0
149
0.0
1001
ACAD_PSEXT
1000
なし
1000
なし
1000
適切ではありません
1000
新しいプロッタ環境設定名を選択しない限り、レイアウトは印刷されません。
1070
     0
  0
ACDBPLACEHOLDER
  5
F
102
{ACAD_REACTORS
330
E
102
}
330
E
  0
SCALE
  5
73B9
102
{ACAD_REACTORS
330
2B3
102
}
330
2B3
100
AcDbScale
 70
     0
300
1:6
140
1.0
141
6.0
290
     0
  0
SCALE
  5
73BA
102
{ACAD_REACTORS
330
2B3
102
}
330
2B3
100
AcDbScale
 70
     0
300
1:3
140
1.0
141
3.0
290
     0
  0
SCALE
  5
73BB
102
{ACAD_REACTORS
330
2B3
102
}
330
2B3
100
AcDbScale
 70
     0
300
1:2.5
140
1.0
141
2.5
290
     0
  0
SCALE
  5
73BC
102
{ACAD_REACTORS
330
2B3
102
}
330
2B3
100
AcDbScale
 70
     0
300
1:1.5
140
1.0
141
1.5
290
     0
  0
SCALE
  5
2B4
102
{ACAD_REACTORS
330
2B3
102
}
330
2B3
100
AcDbScale
 70
     0
300
1:1
140
1.0
141
1.0
290
     1
  0
SCALE
  5
2B5
102
{ACAD_REACTORS
330
2B3
102
}
330
2B3
100
AcDbScale
 70
     0
300
1:2
140
1.0
141
2.0
290
     0
  0
SCALE
  5
2B6
102
{ACAD_REACTORS
330
2B3
102
}
330
2B3
100
AcDbScale
 70
     0
300
1:4
140
1.0
141
4.0
290
     0
  0
SCALE
  5
2B7
102
{ACAD_REACTORS
330
2B3
102
}
330
2B3
100
AcDbScale
 70
     0
300
1:5
140
1.0
141
5.0
290
     0
  0
SCALE
  5
2B8
102
{ACAD_REACTORS
330
2B3
102
}
330
2B3
100
AcDbScale
 70
     0
300
1:8
140
1.0
141
8.0
290
     0
  0
SCALE
  5
2B9
102
{ACAD_REACTORS
330
2B3
102
}
330
2B3
100
AcDbScale
 70
     0
300
1:10
140
1.0
141
10.0
290
     0
  0
SCALE
  5
2BA
102
{ACAD_REACTORS
330
2B3
102
}
330
2B3
100
AcDbScale
 70
     0
300
1:16
140
1.0
141
16.0
290
     0
  0
SCALE
  5
2BB
102
{ACAD_REACTORS
330
2B3
102
}
330
2B3
100
AcDbScale
 70
     0
300
1:20
140
1.0
141
20.0
290
     0
  0
SCALE
  5
2BC
102
{ACAD_REACTORS
330
2B3
102
}
330
2B3
100
AcDbScale
 70
     0
300
1:30
140
1.0
141
30.0
290
     0
  0
SCALE
  5
2BD
102
{ACAD_REACTORS
330
2B3
102
}
330
2B3
100
AcDbScale
 70
     0
300
1:40
140
1.0
141
40.0
290
     0
  0
SCALE
  5
2BE
102
{ACAD_REACTORS
330
2B3
102
}
330
2B3
100
AcDbScale
 70
     0
300
1:50
140
1.0
141
50.0
290
     0
  0
SCALE
  5
2BF
102
{ACAD_REACTORS
330
2B3
102
}
330
2B3
100
AcDbScale
 70
     0
300
1:100
140
1.0
141
100.0
290
     0
  0
SCALE
  5
2C0
102
{ACAD_REACTORS
330
2B3
102
}
330
2B3
100
AcDbScale
 70
     0
300
2:1
140
2.0
141
1.0
290
     0
  0
SCALE
  5
2C1
102
{ACAD_REACTORS
330
2B3
102
}
330
2B3
100
AcDbScale
 70
     0
300
4:1
140
4.0
141
1.0
290
     0
  0
SCALE
  5
2C2
102
{ACAD_REACTORS
330
2B3
102
}
330
2B3
100
AcDbScale
 70
     0
300
8:1
140
8.0
141
1.0
290
     0
  0
SCALE
  5
2C3
102
{ACAD_REACTORS
330
2B3
102
}
330
2B3
100
AcDbScale
 70
     0
300
10:1
140
10.0
141
1.0
290
     0
  0
SCALE
  5
2C4
102
{ACAD_REACTORS
330
2B3
102
}
330
2B3
100
AcDbScale
 70
     0
300
100:1
140
100.0
141
1.0
290
     0
  0
SCALE
  5
2C5
102
{ACAD_REACTORS
330
2B3
102
}
330
2B3
100
AcDbScale
 70
     0
300
1/128" = 1'-0"
140
0.0078125
141
12.0
290
     0
  0
SCALE
  5
2C6
102
{ACAD_REACTORS
330
2B3
102
}
330
2B3
100
AcDbScale
 70
     0
300
1/64" = 1'-0"
140
0.015625
141
12.0
290
     0
  0
SCALE
  5
2C7
102
{ACAD_REACTORS
330
2B3
102
}
330
2B3
100
AcDbScale
 70
     0
300
1/32" = 1'-0"
140
0.03125
141
12.0
290
     0
  0
SCALE
  5
2C8
102
{ACAD_REACTORS
330
2B3
102
}
330
2B3
100
AcDbScale
 70
     0
300
1/16" = 1'-0"
140
0.0625
141
12.0
290
     0
  0
SCALE
  5
2C9
102
{ACAD_REACTORS
330
2B3
102
}
330
2B3
100
AcDbScale
 70
     0
300
3/32" = 1'-0"
140
0.09375
141
12.0
290
     0
  0
SCALE
  5
2CA
102
{ACAD_REACTORS
330
2B3
102
}
330
2B3
100
AcDbScale
 70
     0
300
1/8" = 1'-0"
140
0.125
141
12.0
290
     0
  0
SCALE
  5
2CB
102
{ACAD_REACTORS
330
2B3
102
}
330
2B3
100
AcDbScale
 70
     0
300
3/16" = 1'-0"
140
0.1875
141
12.0
290
     0
  0
SCALE
  5
2CC
102
{ACAD_REACTORS
330
2B3
102
}
330
2B3
100
AcDbScale
 70
     0
300
1/4" = 1'-0"
140
0.25
141
12.0
290
     0
  0
SCALE
  5
2CD
102
{ACAD_REACTORS
330
2B3
102
}
330
2B3
100
AcDbScale
 70
     0
300
3/8" = 1'-0"
140
0.375
141
12.0
290
     0
  0
SCALE
  5
2CE
102
{ACAD_REACTORS
330
2B3
102
}
330
2B3
100
AcDbScale
 70
     0
300
1/2" = 1'-0"
140
0.5
141
12.0
290
     0
  0
SCALE
  5
2CF
102
{ACAD_REACTORS
330
2B3
102
}
330
2B3
100
AcDbScale
 70
     0
300
3/4" = 1'-0"
140
0.75
141
12.0
290
     0
  0
SCALE
  5
2D0
102
{ACAD_REACTORS
330
2B3
102
}
330
2B3
100
AcDbScale
 70
     0
300
1" = 1'-0"
140
1.0
141
12.0
290
     0
  0
SCALE
  5
2D1
102
{ACAD_REACTORS
330
2B3
102
}
330
2B3
100
AcDbScale
 70
     0
300
1-1/2" = 1'-0"
140
1.5
141
12.0
290
     0
  0
SCALE
  5
2D2
102
{ACAD_REACTORS
330
2B3
102
}
330
2B3
100
AcDbScale
 70
     0
300
3" = 1'-0"
140
3.0
141
12.0
290
     0
  0
SCALE
  5
2D3
102
{ACAD_REACTORS
330
2B3
102
}
330
2B3
100
AcDbScale
 70
     0
300
6" = 1'-0"
140
6.0
141
12.0
290
     0
  0
SCALE
  5
2D4
102
{ACAD_REACTORS
330
2B3
102
}
330
2B3
100
AcDbScale
 70
     0
300
1'-0" = 1'-0"
140
12.0
141
12.0
290
     0
  0
TABLESTYLE
  5
122
102
{ACAD_XDICTIONARY
360
2F5
102
}
102
{ACAD_REACTORS
330
121
102
}
330
121
100
AcDbTableStyle
  3
Standard
 70
     0
 71
     0
 40
1.5
 41
1.5
280
     0
281
     0
  7
STANDARD
140
4.5
170
     2
 62
     0
 63
     7
283
     0
 90
      512
 91
        0
  1

274
    -2
284
     1
 64
     0
275
    -2
285
     1
 65
     0
276
    -2
286
     1
 66
     0
277
    -2
287
     1
 67
     0
278
    -2
288
     1
 68
     0
279
    -2
289
     1
 69
     0
  7
STANDARD
140
6.0
170
     5
 62
     0
 63
     7
283
     0
 90
      512
 91
        0
  1

274
    -2
284
     1
 64
     0
275
    -2
285
     1
 65
     0
276
    -2
286
     1
 66
     0
277
    -2
287
     1
 67
     0
278
    -2
288
     1
 68
     0
279
    -2
289
     1
 69
     0
  7
STANDARD
140
4.5
170
     5
 62
     0
 63
     7
283
     0
 90
      512
 91
        0
  1

274
    -2
284
     1
 64
     0
275
    -2
285
     1
 65
     0
276
    -2
286
     1
 66
     0
277
    -2
287
     1
 67
     0
278
    -2
288
     1
 68
     0
279
    -2
289
     1
 69
     0
  0
VISUALSTYLE
  5
285
102
{ACAD_REACTORS
330
27F
102
}
330
27F
100
AcDbVisualStyle
  2
2dWireframe
 70
     4
 71
     0
 72
     2
 73
     0
 90
        0
 40
-0.6
 41
-30.0
 62
     5
 63
     7
421
 16777215
 74
     1
 91
        4
 64
     7
 65
   257
 75
     1
175
     1
 42
1.0
 92
        0
 66
   257
 43
1.0
 76
     1
 77
     6
 78
     2
 67
     7
 79
     5
170
     0
171
     0
290
     0
174
     0
 93
        1
 44
0.0
173
     0
291
     0
 45
0.0
  0
VISUALSTYLE
  5
287
102
{ACAD_REACTORS
330
27F
102
}
330
27F
100
AcDbVisualStyle
  2
3D Hidden
 70
     6
 71
     1
 72
     2
 73
     2
 90
        0
 40
-0.6
 41
-30.0
 62
     5
 63
     7
421
 16777215
 74
     2
 91
        2
 64
     7
 65
   257
 75
     2
175
     1
 42
40.0
 92
        0
 66
   257
 43
1.0
 76
     1
 77
     6
 78
     2
 67
     7
 79
     3
170
     0
171
     0
290
     0
174
     0
 93
        1
 44
0.0
173
     0
291
     0
 45
0.0
  0
VISUALSTYLE
  5
286
102
{ACAD_REACTORS
330
27F
102
}
330
27F
100
AcDbVisualStyle
  2
3dWireframe
 70
     5
 71
     0
 72
     2
 73
     0
 90
        0
 40
-0.6
 41
-30.0
 62
     5
 63
     7
421
 16777215
 74
     1
 91
        4
 64
     7
 65
   257
 75
     1
175
     1
 42
1.0
 92
        0
 66
   257
 43
1.0
 76
     1
 77
     6
 78
     2
 67
     7
 79
     5
170
     0
171
     0
290
     0
174
     0
 93
        1
 44
0.0
173
     0
291
     0
 45
0.0
  0
VISUALSTYLE
  5
284
102
{ACAD_REACTORS
330
27F
102
}
330
27F
100
AcDbVisualStyle
  2
Basic
 70
     7
 71
     1
 72
     0
 73
     1
 90
        0
 40
-0.6
 41
-30.0
 62
     5
 63
     7
421
 16777215
 74
     0
 91
        4
 64
     7
 65
   257
 75
     1
175
     1
 42
1.0
 92
        8
 66
     7
 43
1.0
 76
     1
 77
     6
 78
     2
 67
     7
 79
     5
170
     0
171
     0
290
     0
174
     0
 93
        1
 44
0.0
173
     0
291
     1
 45
0.0
  0
VISUALSTYLE
  5
28B
102
{ACAD_REACTORS
330
27F
102
}
330
27F
100
AcDbVisualStyle
  2
Brighten
 70
    12
 71
     2
 72
     2
 73
     0
 90
        0
 40
-0.6
 41
-30.0
 62
     5
 63
     7
421
 16777215
 74
     1
 91
        4
 64
     7
 65
   257
 75
     1
175
     1
 42
1.0
 92
        8
 66
     7
 43
1.0
 76
     1
 77
     6
 78
     2
 67
     7
 79
     5
170
     0
171
     0
290
     0
174
     0
 93
        1
 44
50.0
173
     0
291
     1
 45
0.0
  0
VISUALSTYLE
  5
28F
102
{ACAD_REACTORS
330
27F
102
}
330
27F
100
AcDbVisualStyle
  2
ColorChange
 70
    16
 71
     2
 72
     2
 73
     3
 90
        0
 40
-0.6
 41
-30.0
 62
     5
 63
     8
421
  8421504
 74
     1
 91
        4
 64
     7
 65
   257
 75
     1
175
     1
 42
1.0
 92
        8
 66
     8
424
  8421504
 43
1.0
 76
     1
 77
     6
 78
     2
 67
     7
 79
     5
170
     0
171
     0
290
     0
174
     0
 93
        1
 44
0.0
173
     0
291
     1
 45
0.0
  0
VISUALSTYLE
  5
288
102
{ACAD_REACTORS
330
27F
102
}
330
27F
100
AcDbVisualStyle
  2
Conceptual
 70
     9
 71
     3
 72
     2
 73
     0
 90
        0
 40
-0.6
 41
-30.0
 62
     5
 63
     7
421
 16777215
 74
     2
 91
        2
 64
     7
 65
   257
 75
     1
175
     1
 42
40.0
 92
        8
 66
     7
 43
1.0
 76
     1
 77
     6
 78
     2
 67
     7
 79
     3
170
     0
171
     0
290
     0
174
     0
 93
        1
 44
0.0
173
     0
291
     0
 45
0.0
  0
VISUALSTYLE
  5
28A
102
{ACAD_REACTORS
330
27F
102
}
330
27F
100
AcDbVisualStyle
  2
Dim
 70
    11
 71
     2
 72
     2
 73
     0
 90
        0
 40
-0.6
 41
-30.0
 62
     5
 63
     7
421
 16777215
 74
     1
 91
        4
 64
     7
 65
   257
 75
     1
175
     1
 42
1.0
 92
        8
 66
     7
 43
1.0
 76
     1
 77
     6
 78
     2
 67
     7
 79
     5
170
     0
171
     0
290
     0
174
     0
 93
        1
 44
-50.0
173
     0
291
     1
 45
0.0
  0
VISUALSTYLE
  5
28E
102
{ACAD_REACTORS
330
27F
102
}
330
27F
100
AcDbVisualStyle
  2
Facepattern
 70
    15
 71
     2
 72
     2
 73
     0
 90
        0
 40
-0.6
 41
-30.0
 62
     5
 63
     7
421
 16777215
 74
     1
 91
        4
 64
     7
 65
   257
 75
     1
175
     1
 42
1.0
 92
        8
 66
     7
 43
1.0
 76
     1
 77
     6
 78
     2
 67
     7
 79
     5
170
     0
171
     0
290
     0
174
     0
 93
        1
 44
0.0
173
     0
291
     1
 45
0.0
  0
VISUALSTYLE
  5
280
102
{ACAD_REACTORS
330
27F
102
}
330
27F
100
AcDbVisualStyle
  2
Flat
 70
     0
 71
     2
 72
     1
 73
     1
 90
        2
 40
-0.6
 41
30.0
 62
     5
 63
     7
421
 16777215
 74
     0
 91
        4
 64
     7
 65
   257
 75
     1
175
     1
 42
1.0
 92
        8
 66
     7
 43
1.0
 76
     1
 77
     6
 78
     2
 67
     7
 79
     5
170
     0
171
     0
290
     0
174
     0
 93
       13
 44
0.0
173
     0
291
     1
 45
0.0
  0
VISUALSTYLE
  5
281
102
{ACAD_REACTORS
330
27F
102
}
330
27F
100
AcDbVisualStyle
  2
FlatWithEdges
 70
     1
 71
     2
 72
     1
 73
     1
 90
        2
 40
-0.6
 41
30.0
 62
     5
 63
     7
421
 16777215
 74
     1
 91
        4
 64
     7
 65
   257
 75
     1
175
     1
 42
1.0
 92
        0
 66
   257
 43
1.0
 76
     1
 77
     6
 78
     2
 67
     7
 79
     5
170
     0
171
     0
290
     0
174
     0
 93
       13
 44
0.0
173
     0
291
     1
 45
0.0
  0
VISUALSTYLE
  5
282
102
{ACAD_REACTORS
330
27F
102
}
330
27F
100
AcDbVisualStyle
  2
Gouraud
 70
     2
 71
     2
 72
     2
 73
     1
 90
        2
 40
-0.6
 41
30.0
 62
     5
 63
     7
421
 16777215
 74
     0
 91
        4
 64
     7
 65
   257
 75
     1
175
     1
 42
1.0
 92
        0
 66
     7
 43
1.0
 76
     1
 77
     6
 78
     2
 67
     7
 79
     5
170
     0
171
     0
290
     0
174
     0
 93
       13
 44
0.0
173
     0
291
     1
 45
0.0
  0
VISUALSTYLE
  5
283
102
{ACAD_REACTORS
330
27F
102
}
330
27F
100
AcDbVisualStyle
  2
GouraudWithEdges
 70
     3
 71
     2
 72
     2
 73
     1
 90
        2
 40
-0.6
 41
30.0
 62
     5
 63
     7
421
 16777215
 74
     1
 91
        4
 64
     7
 65
   257
 75
     1
175
     1
 42
1.0
 92
        0
 66
   257
 43
1.0
 76
     1
 77
     6
 78
     2
 67
     7
 79
     5
170
     0
171
     0
290
     0
174
     0
 93
       13
 44
0.0
173
     0
291
     1
 45
0.0
  0
VISUALSTYLE
  5
28D
102
{ACAD_REACTORS
330
27F
102
}
330
27F
100
AcDbVisualStyle
  2
Linepattern
 70
    14
 71
     2
 72
     2
 73
     0
 90
        0
 40
-0.6
 41
-30.0
 62
     5
 63
     7
421
 16777215
 74
     1
 91
        4
 64
     7
 65
   257
 75
     7
175
     7
 42
1.0
 92
        8
 66
     7
 43
1.0
 76
     1
 77
     6
 78
     2
 67
     7
 79
     5
170
     0
171
     0
290
     0
174
     0
 93
        1
 44
0.0
173
     0
291
     1
 45
0.0
  0
VISUALSTYLE
  5
289
102
{ACAD_REACTORS
330
27F
102
}
330
27F
100
AcDbVisualStyle
  2
Realistic
 70
     8
 71
     2
 72
     2
 73
     0
 90
        0
 40
-0.6
 41
-30.0
 62
     5
 63
     7
421
 16777215
 74
     1
 91
        0
 64
     7
 65
   257
 75
     1
175
     1
 42
1.0
 92
        8
 66
     8
424
  7895160
 43
1.0
 76
     1
 77
     6
 78
     2
 67
     7
 79
     5
170
     0
171
     0
290
     0
174
     0
 93
       13
 44
0.0
173
     0
291
     0
 45
0.0
  0
VISUALSTYLE
  5
28C
102
{ACAD_REACTORS
330
27F
102
}
330
27F
100
AcDbVisualStyle
  2
Thicken
 70
    13
 71
     2
 72
     2
 73
     0
 90
        0
 40
-0.6
 41
-30.0
 62
     5
 63
     7
421
 16777215
 74
     1
 91
        4
 64
     7
 65
   257
 75
     1
175
     1
 42
1.0
 92
       12
 66
     7
 43
1.0
 76
     1
 77
     6
 78
     2
 67
     7
 79
     5
170
     0
171
     0
290
     0
174
     0
 93
        1
 44
0.0
173
     0
291
     1
 45
0.0
  0
DICTIONARYVAR
  5
2FA
102
{ACAD_REACTORS
330
34
102
}
330
34
100
DictionaryVariables
280
     0
  1
1:10
  0
DICTIONARYVAR
  5
2F8
102
{ACAD_REACTORS
330
34
102
}
330
34
100
DictionaryVariables
280
     0
  1
STANDARD
  0
DICTIONARYVAR
  5
140
102
{ACAD_REACTORS
330
34
102
}
330
34
100
DictionaryVariables
280
     0
  1
STANDARD
  0
DICTIONARYVAR
  5
AC
102
{ACAD_REACTORS
330
34
102
}
330
34
100
DictionaryVariables
280
     0
  1
1
  0
DICTIONARYVAR
  5
35
102
{ACAD_REACTORS
330
34
102
}
330
34
100
DictionaryVariables
280
     0
  1
1
  0
DICTIONARYVAR
  5
6DA7
102
{ACAD_REACTORS
330
34
102
}
330
34
100
DictionaryVariables
280
     0
  1
1
  0
DICTIONARYVAR
  5
6DA8
102
{ACAD_REACTORS
330
34
102
}
330
34
100
DictionaryVariables
280
     0
  1
15
  0
DICTIONARYVAR
  5
2FB
102
{ACAD_REACTORS
330
34
102
}
330
34
100
DictionaryVariables
280
     0
  1
0
  0
DICTIONARYVAR
  5
2F9
102
{ACAD_REACTORS
330
34
102
}
330
34
100
DictionaryVariables
280
     0
  1
0
  0
DICTIONARY
  5
161B
102
{ACAD_REACTORS
330
49
102
}
330
49
100
AcDbDictionary
281
     1
  0
DICTIONARY
  5
4A
102
{ACAD_REACTORS
330
49
102
}
330
49
100
AcDbDictionary
281
     1
  0
XRECORD
  5
12B
102
{ACAD_REACTORS
330
49
102
}
330
49
100
AcDbXrecord
280
     1
 90
-1023410169
  0
DICTIONARY
  5
2F5
330
122
100
AcDbDictionary
280
     1
281
     1
  3
ACAD_ROUNDTRIP_2008_TABLESTYLE_CELLSTYLEMAP
360
7838
  0
CELLSTYLEMAP
  5
7838
102
{ACAD_REACTORS
330
2F5
102
}
330
2F5
100
AcDbCellStyleMap
 90
        3
300
CELLSTYLE
  1
TABLEFORMAT_BEGIN
 90
        5
170
     1
 91
        0
 92
    32768
 62
   257
 93
        1
300
CONTENTFORMAT
  1
CONTENTFORMAT_BEGIN
 90
        0
 91
        0
 92
      512
 93
        0
300

 40
0.0
140
1.0
 94
        5
 62
     0
340
11
144
6.0
309
CONTENTFORMAT_END
171
     1
301
MARGIN
  1
CELLMARGIN_BEGIN
 40
1.5
 40
1.5
 40
1.5
 40
1.5
 40
0.18
 40
0.18
309
CELLMARGIN_END
 94
        6
 95
        1
302
GRIDFORMAT
  1
GRIDFORMAT_BEGIN
 90
        0
 91
        1
 62
     0
 92
       -2
340
0
 93
        0
 40
0.045
309
GRIDFORMAT_END
 95
        2
302
GRIDFORMAT
  1
GRIDFORMAT_BEGIN
 90
        0
 91
        1
 62
     0
 92
       -2
340
0
 93
        0
 40
0.045
309
GRIDFORMAT_END
 95
        4
302
GRIDFORMAT
  1
GRIDFORMAT_BEGIN
 90
        0
 91
        1
 62
     0
 92
       -2
340
0
 93
        0
 40
0.045
309
GRIDFORMAT_END
 95
        8
302
GRIDFORMAT
  1
GRIDFORMAT_BEGIN
 90
        0
 91
        1
 62
     0
 92
       -2
340
0
 93
        0
 40
0.045
309
GRIDFORMAT_END
 95
       16
302
GRIDFORMAT
  1
GRIDFORMAT_BEGIN
 90
        0
 91
        1
 62
     0
 92
       -2
340
0
 93
        0
 40
0.045
309
GRIDFORMAT_END
 95
       32
302
GRIDFORMAT
  1
GRIDFORMAT_BEGIN
 90
        0
 91
        1
 62
     0
 92
       -2
340
0
 93
        0
 40
0.045
309
GRIDFORMAT_END
309
TABLEFORMAT_END
  1
CELLSTYLE_BEGIN
 90
        1
 91
        1
300
_TITLE
309
CELLSTYLE_END
300
CELLSTYLE
  1
TABLEFORMAT_BEGIN
 90
        5
170
     1
 91
        0
 92
        0
 62
   257
 93
        1
300
CONTENTFORMAT
  1
CONTENTFORMAT_BEGIN
 90
        0
 91
        0
 92
      512
 93
        0
300

 40
0.0
140
1.0
 94
        5
 62
     0
340
11
144
4.5
309
CONTENTFORMAT_END
171
     1
301
MARGIN
  1
CELLMARGIN_BEGIN
 40
1.5
 40
1.5
 40
1.5
 40
1.5
 40
0.18
 40
0.18
309
CELLMARGIN_END
 94
        6
 95
        1
302
GRIDFORMAT
  1
GRIDFORMAT_BEGIN
 90
        0
 91
        1
 62
     0
 92
       -2
340
0
 93
        0
 40
0.045
309
GRIDFORMAT_END
 95
        2
302
GRIDFORMAT
  1
GRIDFORMAT_BEGIN
 90
        0
 91
        1
 62
     0
 92
       -2
340
0
 93
        0
 40
0.045
309
GRIDFORMAT_END
 95
        4
302
GRIDFORMAT
  1
GRIDFORMAT_BEGIN
 90
        0
 91
        1
 62
     0
 92
       -2
340
0
 93
        0
 40
0.045
309
GRIDFORMAT_END
 95
        8
302
GRIDFORMAT
  1
GRIDFORMAT_BEGIN
 90
        0
 91
        1
 62
     0
 92
       -2
340
0
 93
        0
 40
0.045
309
GRIDFORMAT_END
 95
       16
302
GRIDFORMAT
  1
GRIDFORMAT_BEGIN
 90
        0
 91
        1
 62
     0
 92
       -2
340
0
 93
        0
 40
0.045
309
GRIDFORMAT_END
 95
       32
302
GRIDFORMAT
  1
GRIDFORMAT_BEGIN
 90
        0
 91
        1
 62
     0
 92
       -2
340
0
 93
        0
 40
0.045
309
GRIDFORMAT_END
309
TABLEFORMAT_END
  1
CELLSTYLE_BEGIN
 90
        2
 91
        1
300
_HEADER
309
CELLSTYLE_END
300
CELLSTYLE
  1
TABLEFORMAT_BEGIN
 90
        5
170
     1
 91
        0
 92
        0
 62
   257
 93
        1
300
CONTENTFORMAT
  1
CONTENTFORMAT_BEGIN
 90
        0
 91
        0
 92
      512
 93
        0
300

 40
0.0
140
1.0
 94
        2
 62
     0
340
11
144
4.5
309
CONTENTFORMAT_END
171
     1
301
MARGIN
  1
CELLMARGIN_BEGIN
 40
1.5
 40
1.5
 40
1.5
 40
1.5
 40
0.18
 40
0.18
309
CELLMARGIN_END
 94
        6
 95
        1
302
GRIDFORMAT
  1
GRIDFORMAT_BEGIN
 90
        0
 91
        1
 62
     0
 92
       -2
340
0
 93
        0
 40
0.045
309
GRIDFORMAT_END
 95
        2
302
GRIDFORMAT
  1
GRIDFORMAT_BEGIN
 90
        0
 91
        1
 62
     0
 92
       -2
340
0
 93
        0
 40
0.045
309
GRIDFORMAT_END
 95
        4
302
GRIDFORMAT
  1
GRIDFORMAT_BEGIN
 90
        0
 91
        1
 62
     0
 92
       -2
340
0
 93
        0
 40
0.045
309
GRIDFORMAT_END
 95
        8
302
GRIDFORMAT
  1
GRIDFORMAT_BEGIN
 90
        0
 91
        1
 62
     0
 92
       -2
340
0
 93
        0
 40
0.045
309
GRIDFORMAT_END
 95
       16
302
GRIDFORMAT
  1
GRIDFORMAT_BEGIN
 90
        0
 91
        1
 62
     0
 92
       -2
340
0
 93
        0
 40
0.045
309
GRIDFORMAT_END
 95
       32
302
GRIDFORMAT
  1
GRIDFORMAT_BEGIN
 90
        0
 91
        1
 62
     0
 92
       -2
340
0
 93
        0
 40
0.045
309
GRIDFORMAT_END
309
TABLEFORMAT_END
  1
CELLSTYLE_BEGIN
 90
        3
 91
        2
300
_DATA
309
CELLSTYLE_END
  0
ENDSEC
  0
EOF
