  0
SECTION
  2
HEADER
  9
$ACADVER
  1
AC1021
  9
$ACADMAINTVER
 70
    26
  9
$DWGCODEPAGE
  3
ANSI_932
  9
$LASTSAVEDBY
  1
Htm_Terada
  9
$CUSTOMPROPERTYTAG
  1
AmdtFileType
  9
$CUSTOMPROPERTY
  1
84
  9
$INSBASE
 10
0.0
 20
0.0
 30
0.0
  9
$EXTMIN
 10
1056.049815271484
 20
1104.795053718576
 30
-0.0015258207003583
  9
$EXTMAX
 10
2461.860359871509
 20
2068.268562816367
 30
0.0000000349246037
  9
$LIMMIN
 10
0.0000015314708435
 20
0.0000029550565159
  9
$LIMMAX
 10
3360.000001531471
 20
2376.000002955057
  9
$ORTHOMODE
 70
     1
  9
$REGENMODE
 70
     1
  9
$FILLMODE
 70
     1
  9
$QTEXTMODE
 70
     0
  9
$MIRRTEXT
 70
     1
  9
$LTSCALE
 40
8.0
  9
$ATTMODE
 70
     1
  9
$TEXTSIZE
 40
25.0
  9
$TRACEWID
 40
1.0
  9
$TEXTSTYLE
  7
SEISA
  9
$CLAYER
  8
AM_5 寸法線
  9
$CELTYPE
  6
ByLayer
  9
$CECOLOR
 62
   256
  9
$CELTSCALE
 40
1.0
  9
$DISPSILH
 70
     0
  9
$DIMSCALE
 40
8.0
  9
$DIMASZ
 40
2.5
  9
$DIMEXO
 40
0.625
  9
$DIMDLI
 40
10.0
  9
$DIMRND
 40
0.0
  9
$DIMDLE
 40
0.0
  9
$DIMEXE
 40
0.625
  9
$DIMTP
 40
0.1
  9
$DIMTM
 40
0.1
  9
$DIMTXT
 40
3.5
  9
$DIMCEN
 40
0.0
  9
$DIMTSZ
 40
0.0
  9
$DIMTOL
 70
     0
  9
$DIMLIM
 70
     0
  9
$DIMTIH
 70
     0
  9
$DIMTOH
 70
     0
  9
$DIMSE1
 70
     0
  9
$DIMSE2
 70
     0
  9
$DIMTAD
 70
     3
  9
$DIMZIN
 70
     8
  9
$DIMBLK
  1
Open30
  9
$DIMASO
 70
     1
  9
$DIMSHO
 70
     1
  9
$DIMPOST
  1

  9
$DIMAPOST
  1
"
  9
$DIMALT
 70
     0
  9
$DIMALTD
 70
     2
  9
$DIMALTF
 40
0.0393701
  9
$DIMLFAC
 40
1.0
  9
$DIMTOFL
 70
     1
  9
$DIMTVP
 40
0.0
  9
$DIMTIX
 70
     0
  9
$DIMSOXD
 70
     0
  9
$DIMSAH
 70
     0
  9
$DIMBLK1
  1

  9
$DIMBLK2
  1

  9
$DIMSTYLE
  2
SEISA
  9
$DIMCLRD
 70
     3
  9
$DIMCLRE
 70
     3
  9
$DIMCLRT
 70
     3
  9
$DIMTFAC
 40
0.71
  9
$DIMGAP
 40
1.5
  9
$DIMJUST
 70
     0
  9
$DIMSD1
 70
     0
  9
$DIMSD2
 70
     0
  9
$DIMTOLJ
 70
     0
  9
$DIMTZIN
 70
     0
  9
$DIMALTZ
 70
     0
  9
$DIMALTTZ
 70
     8
  9
$DIMUPT
 70
     0
  9
$DIMDEC
 70
     2
  9
$DIMTDEC
 70
     2
  9
$DIMALTU
 70
     2
  9
$DIMALTTD
 70
     2
  9
$DIMTXSTY
  7
SEISA
  9
$DIMAUNIT
 70
     0
  9
$DIMADEC
 70
     0
  9
$DIMALTRND
 40
0.0
  9
$DIMAZIN
 70
     2
  9
$DIMDSEP
 70
    46
  9
$DIMATFIT
 70
     3
  9
$DIMFRAC
 70
     0
  9
$DIMLDRBLK
  1
Open30
  9
$DIMLUNIT
 70
     2
  9
$DIMLWD
 70
    -1
  9
$DIMLWE
 70
    -1
  9
$DIMTMOVE
 70
     0
  9
$DIMFXL
 40
1.0
  9
$DIMFXLON
 70
     0
  9
$DIMJOGANG
 40
0.7853981633974483
  9
$DIMTFILL
 70
     0
  9
$DIMTFILLCLR
 70
     0
  9
$DIMARCSYM
 70
     1
  9
$DIMLTYPE
  6

  9
$DIMLTEX1
  6

  9
$DIMLTEX2
  6

  9
$LUNITS
 70
     2
  9
$LUPREC
 70
     2
  9
$SKETCHINC
 40
1.0
  9
$FILLETRAD
 40
1.6
  9
$AUNITS
 70
     0
  9
$AUPREC
 70
     0
  9
$MENU
  1
.
  9
$ELEVATION
 40
0.0
  9
$PELEVATION
 40
0.0
  9
$THICKNESS
 40
0.0
  9
$LIMCHECK
 70
     0
  9
$CHAMFERA
 40
8.000000000000454
  9
$CHAMFERB
 40
8.0
  9
$CHAMFERC
 40
8.000000000000454
  9
$CHAMFERD
 40
0.7853981633974625
  9
$SKPOLY
 70
     0
  9
$TDCREATE
 40
2454938.426651736
  9
$TDUCREATE
 40
2454938.051651736
  9
$TDUPDATE
 40
2456479.693653785
  9
$TDUUPDATE
 40
2456479.318653784
  9
$TDINDWG
 40
0.3586446181
  9
$TDUSRTIMER
 40
0.3586428125
  9
$USRTIMER
 70
     1
  9
$ANGBASE
 50
0.0
  9
$ANGDIR
 70
     0
  9
$PDMODE
 70
     0
  9
$PDSIZE
 40
0.0
  9
$PLINEWID
 40
0.0
  9
$SPLFRAME
 70
     0
  9
$SPLINETYPE
 70
     6
  9
$SPLINESEGS
 70
     8
  9
$HANDSEED
  5
76DD
  9
$SURFTAB1
 70
     6
  9
$SURFTAB2
 70
     6
  9
$SURFTYPE
 70
     6
  9
$SURFU
 70
     6
  9
$SURFV
 70
     6
  9
$UCSBASE
  2

  9
$UCSNAME
  2

  9
$UCSORG
 10
0.0
 20
0.0
 30
0.0
  9
$UCSXDIR
 10
1.0
 20
0.0
 30
0.0
  9
$UCSYDIR
 10
0.0
 20
1.0
 30
0.0
  9
$UCSORTHOREF
  2

  9
$UCSORTHOVIEW
 70
     0
  9
$UCSORGTOP
 10
0.0
 20
0.0
 30
0.0
  9
$UCSORGBOTTOM
 10
0.0
 20
0.0
 30
0.0
  9
$UCSORGLEFT
 10
0.0
 20
0.0
 30
0.0
  9
$UCSORGRIGHT
 10
0.0
 20
0.0
 30
0.0
  9
$UCSORGFRONT
 10
0.0
 20
0.0
 30
0.0
  9
$UCSORGBACK
 10
0.0
 20
0.0
 30
0.0
  9
$PUCSBASE
  2

  9
$PUCSNAME
  2

  9
$PUCSORG
 10
0.0
 20
0.0
 30
0.0
  9
$PUCSXDIR
 10
1.0
 20
0.0
 30
0.0
  9
$PUCSYDIR
 10
0.0
 20
1.0
 30
0.0
  9
$PUCSORTHOREF
  2

  9
$PUCSORTHOVIEW
 70
     0
  9
$PUCSORGTOP
 10
0.0
 20
0.0
 30
0.0
  9
$PUCSORGBOTTOM
 10
0.0
 20
0.0
 30
0.0
  9
$PUCSORGLEFT
 10
0.0
 20
0.0
 30
0.0
  9
$PUCSORGRIGHT
 10
0.0
 20
0.0
 30
0.0
  9
$PUCSORGFRONT
 10
0.0
 20
0.0
 30
0.0
  9
$PUCSORGBACK
 10
0.0
 20
0.0
 30
0.0
  9
$USERI1
 70
     0
  9
$USERI2
 70
     0
  9
$USERI3
 70
     0
  9
$USERI4
 70
     0
  9
$USERI5
 70
     0
  9
$USERR1
 40
0.0
  9
$USERR2
 40
0.0
  9
$USERR3
 40
0.0
  9
$USERR4
 40
0.0
  9
$USERR5
 40
0.0
  9
$WORLDVIEW
 70
     1
  9
$SHADEDGE
 70
     3
  9
$SHADEDIF
 70
    70
  9
$TILEMODE
 70
     1
  9
$MAXACTVP
 70
    64
  9
$PINSBASE
 10
0.0
 20
0.0
 30
0.0
  9
$PLIMCHECK
 70
     0
  9
$PEXTMIN
 10
1.000000000000000E+20
 20
1.000000000000000E+20
 30
1.000000000000000E+20
  9
$PEXTMAX
 10
-1.000000000000000E+20
 20
-1.000000000000000E+20
 30
-1.000000000000000E+20
  9
$PLIMMIN
 10
0.0
 20
0.0
  9
$PLIMMAX
 10
420.0
 20
297.0
  9
$UNITMODE
 70
     0
  9
$VISRETAIN
 70
     1
  9
$PLINEGEN
 70
     0
  9
$PSLTSCALE
 70
     1
  9
$TREEDEPTH
 70
  3020
  9
$CMLSTYLE
  2
Standard
  9
$CMLJUST
 70
     0
  9
$CMLSCALE
 40
20.0
  9
$PROXYGRAPHICS
 70
     1
  9
$MEASUREMENT
 70
     1
  9
$CELWEIGHT
370
    -1
  9
$ENDCAPS
280
     0
  9
$JOINSTYLE
280
     0
  9
$LWDISPLAY
290
     0
  9
$INSUNITS
 70
     4
  9
$HYPERLINKBASE
  1

  9
$STYLESHEET
  1
SEISA.CTB
  9
$XEDIT
290
     1
  9
$CEPSNTYPE
380
     0
  9
$PSTYLEMODE
290
     1
  9
$FINGERPRINTGUID
  2
{ED6A3938-9AC6-4DB6-BE52-86E89B303C16}
  9
$VERSIONGUID
  2
{FAAEB602-6EEA-49E4-BB87-FA2DF96408EA}
  9
$EXTNAMES
290
     1
  9
$PSVPSCALE
 40
0.0
  9
$OLESTARTUP
290
     0
  9
$SORTENTS
280
   127
  9
$INDEXCTL
280
     0
  9
$HIDETEXT
280
     0
  9
$XCLIPFRAME
290
     0
  9
$HALOGAP
280
     0
  9
$OBSCOLOR
 70
   257
  9
$OBSLTYPE
280
     0
  9
$INTERSECTIONDISPLAY
280
     0
  9
$INTERSECTIONCOLOR
 70
   257
  9
$DIMASSOC
280
     2
  9
$PROJECTNAME
  1

  9
$CAMERADISPLAY
290
     0
  9
$LENSLENGTH
 40
50.0
  9
$CAMERAHEIGHT
 40
0.0
  9
$STEPSPERSEC
 40
2.0
  9
$STEPSIZE
 40
6.0
  9
$3DDWFPREC
 40
2.0
  9
$PSOLWIDTH
 40
0.25
  9
$PSOLHEIGHT
 40
4.0
  9
$LOFTANG1
 40
1.570796326794896
  9
$LOFTANG2
 40
1.570796326794896
  9
$LOFTMAG1
 40
0.0
  9
$LOFTMAG2
 40
0.0
  9
$LOFTPARAM
 70
     7
  9
$LOFTNORMALS
280
     1
  9
$LATITUDE
 40
37.795
  9
$LONGITUDE
 40
-122.394
  9
$NORTHDIRECTION
 40
0.0
  9
$TIMEZONE
 70
 -8000
  9
$LIGHTGLYPHDISPLAY
280
     1
  9
$TILEMODELIGHTSYNCH
280
     1
  9
$CMATERIAL
347
27C
  9
$SOLIDHIST
280
     1
  9
$SHOWHIST
280
     1
  9
$DWFFRAME
280
     2
  9
$DGNFRAME
280
     0
  9
$REALWORLDSCALE
290
     1
  9
$INTERFERECOLOR
 62
     1
  9
$INTERFEREOBJVS
345
289
  9
$INTERFEREVPVS
346
286
  9
$CSHADOW
280
     0
  9
$SHADOWPLANELOCATION
 40
0.0
  0
ENDSEC
  0
SECTION
  2
CLASSES
  0
CLASS
  1
ACDBDICTIONARYWDFLT
  2
AcDbDictionaryWithDefault
  3
ObjectDBX Classes
 90
        0
 91
        1
280
     0
281
     0
  0
CLASS
  1
AMGSETTINGSOBJ
  2
AmgSettingsObj
  3
"AcadM|Product Description: AutoCAD Mechanical|Company: Autodesk, Inc."
 90
     1024
 91
        2
280
     0
281
     0
  0
CLASS
  1
ACME_DOCUMENT
  2
AcMeDbDoc
  3
AcMeServices
 90
     1024
 91
        1
280
     0
281
     0
  0
CLASS
  1
ACMESCOPE
  2
AcMeScope
  3
AcMeServices
 90
     1024
 91
        1
280
     0
281
     0
  0
CLASS
  1
ACMECOMMANDHISTORY
  2
AcMeCommandHistory
  3
AcMeServices
 90
     1024
 91
        1
280
     0
281
     0
  0
CLASS
  1
DICTIONARYVAR
  2
AcDbDictionaryVar
  3
ObjectDBX Classes
 90
        0
 91
       10
280
     0
281
     0
  0
CLASS
  1
ACIMSYSVARMAN
  2
AcImSysVarManager
  3
AcMeServices
 90
     1024
 91
        5
280
     0
281
     0
  0
CLASS
  1
ACIMREALSYSVAR
  2
AcImRealSysVar
  3
AcMeServices
 90
     1024
 91
        1
280
     0
281
     0
  0
CLASS
  1
ACIMINTSYSVAR
  2
AcImIntSysVar
  3
AcMeServices
 90
     1024
 91
       27
280
     0
281
     0
  0
CLASS
  1
ACMEDRAWINGMAN
  2
AcMeDrawingMan
  3
AcMeServices
 90
     1024
 91
        1
280
     0
281
     0
  0
CLASS
  1
ACMEVIEW
  2
AcMeView
  3
AcMeServices
 90
     1024
 91
        1
280
     0
281
     0
  0
CLASS
  1
ACDBENTITYCACHE
  2
AcMeEntityCache
  3
AcMeServices
 90
     1024
 91
        1
280
     0
281
     0
  0
CLASS
  1
GSMANAGER
  2
AcMeGSManager
  3
AcMeServices
 90
     1024
 91
        1
280
     0
281
     0
  0
CLASS
  1
AMDTINTERNALREACTOR
  2
AmdtInternalReactor
  3
AcMeServices
 90
     1024
 91
        2
280
     0
281
     0
  0
CLASS
  1
ACMESTATEMGR
  2
AcMeStateMgr
  3
AcMeServices
 90
     1024
 91
        1
280
     0
281
     0
  0
CLASS
  1
ACGREFMASTER
  2
AcGrefMaster
  3
AcAttribServices
 90
     1024
 91
        1
280
     0
281
     0
  0
CLASS
  1
ACME_DATABASE
  2
AcMeDbDatabase
  3
AcMeServices
 90
     1024
 91
        1
280
     0
281
     0
  0
CLASS
  1
ACRFINSADJUSTERMGR
  2
AcRfInsAdjusterMgr
  3
AcMeServices
 90
     1024
 91
        1
280
     0
281
     0
  0
CLASS
  1
ACGREFACADMASTER
  2
AcGrefacadMaster
  3
AcGrefServices
 90
     1024
 91
        1
280
     0
281
     0
  0
CLASS
  1
AMIMASTER
  2
AmiMaster
  3
AmiServices
 90
     1024
 91
        1
280
     0
281
     0
  0
CLASS
  1
ACIMSTRSYSVAR
  2
AcImStrSysVar
  3
AcMeServices
 90
     1024
 91
        5
280
     0
281
     0
  0
CLASS
  1
ACMSTANDARDJIS
  2
AcmStandardJIS
  3
"Amdt_StdImp|Product Description: AutoCAD Mechanical|Company: Autodesk, Inc."
 90
     1024
 91
        0
280
     0
281
     0
  0
CLASS
  1
AMGOBJPROPCFG
  2
AmgObjPropCfg
  3
"AmgLay|Product Description: AutoCAD Mechanical|Company: Autodesk, Inc."
 90
     1025
 91
        1
280
     0
281
     0
  0
CLASS
  1
ACMSURFSTANDARDJIS
  2
AcmSurfTextStdJIS
  3
"Amdt_StdImp|Product Description: AutoCAD Mechanical|Company: Autodesk, Inc."
 90
     1024
 91
        0
280
     0
281
     0
  0
CLASS
  1
ACMFCFSTANDARDJIS
  2
AcmFCFStdJIS
  3
"Amdt_StdImp|Product Description: AutoCAD Mechanical|Company: Autodesk, Inc."
 90
     1024
 91
        0
280
     0
281
     0
  0
CLASS
  1
ACMWELDSTANDARDJIS
  2
AcmWeldingStdJIS
  3
"Amdt_StdImp|Product Description: AutoCAD Mechanical|Company: Autodesk, Inc."
 90
     1024
 91
        0
280
     0
281
     0
  0
CLASS
  1
ACMIDSTANDARDJIS
  2
AcmIdStdJIS
  3
"Amdt_StdImp|Product Description: AutoCAD Mechanical|Company: Autodesk, Inc."
 90
     1024
 91
        0
280
     0
281
     0
  0
CLASS
  1
ACMDATUMSTANDARDJIS
  2
AcmDatumStdJIS
  3
"Amdt_StdImp|Product Description: AutoCAD Mechanical|Company: Autodesk, Inc."
 90
     1024
 91
        0
280
     0
281
     0
  0
CLASS
  1
ACMBOMSTANDARDJIS
  2
AcmBOMStdJIS
  3
"Amdt_StdImp|Product Description: AutoCAD Mechanical|Company: Autodesk, Inc."
 90
     1024
 91
        0
280
     0
281
     0
  0
CLASS
  1
ACMDETAILSTANDARDJIS
  2
AmdtDetailSymStdJIS
  3
"Amdt_StdImp|Product Description: AutoCAD Mechanical|Company: Autodesk, Inc."
 90
     1024
 91
        0
280
     0
281
     0
  0
CLASS
  1
ACMSECTIONSTANDARDJIS
  2
AmdtSectionSymStdJIS
  3
"Amdt_StdImp|Product Description: AutoCAD Mechanical|Company: Autodesk, Inc."
 90
     1024
 91
        0
280
     0
281
     0
  0
CLASS
  1
ACMCENTERLINESTANDARDJIS
  2
AmdtCenterLineStdJIS
  3
"Amdt_StdImp|Product Description: AutoCAD Mechanical|Company: Autodesk, Inc."
 90
     1024
 91
        0
280
     0
281
     0
  0
CLASS
  1
ACMTHREADLINESTANDARDJIS
  2
AmdtThreadLineStdJIS
  3
"Amdt_StdImp|Product Description: AutoCAD Mechanical|Company: Autodesk, Inc."
 90
     1024
 91
        0
280
     0
281
     0
  0
CLASS
  1
ACAMGLAYSTD
  2
AcAmgLayStd
  3
"AmgLay|Product Description: AutoCAD Mechanical|Company: Autodesk, Inc."
 90
     1024
 91
        1
280
     0
281
     0
  0
CLASS
  1
ACAMGDIMSTD
  2
AcAmgDimStd
  3
"AmgDim|Product Description: AutoCAD Mechanical|Company: Autodesk, Inc."
 90
     1024
 91
        1
280
     0
281
     0
  0
CLASS
  1
ACAMGTITLESTD
  2
AcAmgTitleStd
  3
"AmgTitle|Product Description: AutoCAD Mechanical|Company: Autodesk, Inc."
 90
     4095
 91
        1
280
     0
281
     0
  0
CLASS
  1
ACMDATADICTIONARY
  2
AcmDataDictionary
  3
"AcmSymBB|Product Description: AutoCAD Mechanical|Company: Autodesk, Inc."
 90
     1024
 91
        1
280
     0
281
     0
  0
CLASS
  1
ACMDATAENTRYBLOCK
  2
AcmDataEntryBlock
  3
AcmSymBB|Product Description: AutoCAD Mechanical|Company: Autodesk, Inc.
 90
     1024
 91
        0
280
     0
281
     0
  0
CLASS
  1
LAYER_INDEX
  2
AcDbLayerIndex
  3
ObjectDBX Classes
 90
        0
 91
        0
280
     0
281
     0
  0
CLASS
  1
IDBUFFER
  2
AcDbIdBuffer
  3
ObjectDBX Classes
 90
        0
 91
        0
280
     0
281
     0
  0
CLASS
  1
ACMNOTESTANDARDJIS
  2
AmdtNoteStdJIS
  3
"Amdt_StdImp|Product Description: AutoCAD Mechanical|Company: Autodesk, Inc."
 90
     1024
 91
        0
280
     0
281
     0
  0
CLASS
  1
ACAMGHOLECHARTSTDJIS
  2
AcAmgHoleChartStdJIS
  3
AmgDim|Product Description: AutoCAD Mechanical|Company: Autodesk, Inc.
 90
     1024
 91
        0
280
     0
281
     0
  0
CLASS
  1
AM_DRAWING_MGR
  2
AcDmDwgMgr
  3
AcMechDwgViewMgmt
 90
     1024
 91
        1
280
     0
281
     0
  0
CLASS
  1
AM_DWG_DOCUMENT
  2
AcDmDwgDocument
  3
AcMechDwgViewMgmt
 90
     1024
 91
        1
280
     0
281
     0
  0
CLASS
  1
AM_DWG_SHEET
  2
AcDmSheet
  3
AcMechDwgViewMgmt
 90
     1024
 91
        2
280
     0
281
     0
  0
CLASS
  1
AM_VIEWDIMPARMAP
  2
AcDmViewDimParMap
  3
AcMechDwgViewMgmt
 90
     1024
 91
        2
280
     0
281
     0
  0
CLASS
  1
AM_DWGMGR_NAME
  2
AcDmDwgMgrName
  3
AcMechDwgViewMgmt
 90
     1024
 91
        1
280
     0
281
     0
  0
CLASS
  1
AMDTMENUSTATEMGR
  2
AmdtMenuStateMgr
  3
McadcomServices
 90
     1024
 91
        1
280
     0
281
     0
  0
CLASS
  1
AMDTMCOMMENUSTATE
  2
AmdtMcomMenuState
  3
McadcomServices
 90
     1024
 91
        1
280
     0
281
     0
  0
CLASS
  1
MAPIAMMOUDLE
  2
MApiAmModule
  3
MApiAmServices
 90
     1024
 91
        1
280
     0
281
     0
  0
CLASS
  1
AMDTADMENUSTATE
  2
AmdtAdMenuState
  3
DesignerServices
 90
     1024
 91
        1
280
     0
281
     0
  0
CLASS
  1
ADAPPL
  2
AcAdAppl
  3
DesignerServices
 90
     1024
 91
        1
280
     0
281
     0
  0
CLASS
  1
DEPMGR
  2
AcAdDepMgr
  3
DesignerServices
 90
     1024
 91
        1
280
     0
281
     0
  0
CLASS
  1
PARAMMGR
  2
AcAdParamMgr
  3
DesignerServices
 90
     1024
 91
        1
280
     0
281
     0
  0
CLASS
  1
PARAMSCOPE
  2
AcAdParamScope
  3
DesignerServices
 90
     1024
 91
        1
280
     0
281
     0
  0
CLASS
  1
NAMEDAPPL
  2
AcAdNamedAppl
  3
DesignerServices
 90
     1024
 91
        1
280
     0
281
     0
  0
CLASS
  1
AMDTDMMENUSTATE
  2
AmdtDmMenuState
  3
AcMechDwgViewMgmt
 90
     1024
 91
        1
280
     0
281
     0
  0
CLASS
  1
AMDTAMMENUSTATE
  2
AmdtAmMenuState
  3
DesignerAssemblies
 90
     1024
 91
        1
280
     0
281
     0
  0
CLASS
  1
ACAMPROJECT
  2
AcAmProject
  3
DesignerAssemblies
 90
     1024
 91
        1
280
     0
281
     0
  0
CLASS
  1
ACAMGRCOMPDEF
  2
AcAmGrCompDef
  3
DesignerAssemblies
 90
     1024
 91
        1
280
     0
281
     0
  0
CLASS
  1
ACCMCONTEXT
  2
AcCmContext
  3
DesignerAssemblies
 90
     1024
 91
        1
280
     0
281
     0
  0
CLASS
  1
ACAMCOMPDEF
  2
AcAmCompDef
  3
DesignerAssemblies
 90
     1024
 91
        1
280
     0
281
     0
  0
CLASS
  1
ACAMCOMPDEFMGR
  2
AcAmCompDefMgr
  3
DesignerAssemblies
 90
     1024
 91
        1
280
     0
281
     0
  0
CLASS
  1
AMCONTEXTMGR
  2
AcAmContextMgr
  3
DesignerAssemblies
 90
     1024
 91
        1
280
     0
281
     0
  0
CLASS
  1
ACAMCONTEXTMODELER
  2
AcAmContextModeler
  3
DesignerAssemblies
 90
     1024
 91
        1
280
     0
281
     0
  0
CLASS
  1
CATALOGSTATE
  2
AcAmCatalogState
  3
DesignerAssemblies
 90
     1024
 91
        1
280
     0
281
     0
  0
CLASS
  1
ACAMGRCOMPDEFSET
  2
AcAmGrCompDefSet
  3
DesignerAssemblies
 90
     1024
 91
        1
280
     0
281
     0
  0
CLASS
  1
AMDTBROWSERDBTAB
  2
AmdtBrowserDbTab
  3
McadcomServices
 90
     1024
 91
        1
280
     0
281
     0
  0
CLASS
  1
CBROWSERAPPOBJECT
  2
CBrowserAppObject
  3
McadcomServices
 90
     1024
 91
        3
280
     0
281
     0
  0
CLASS
  1
DM_PLACEHOLDER
  2
AcDmSelsetPlaceholder
  3
AcMechDwgViewMgmt
 90
     1024
 91
        1
280
     0
281
     0
  0
CLASS
  1
TABLESTYLE
  2
AcDbTableStyle
  3
ObjectDBX Classes
 90
     4095
 91
        1
280
     0
281
     0
  0
CLASS
  1
VAACXREFPANELOBJECT
  2
VaAcXREFPanelObject
  3
VAAC_ADDIN
 90
        0
 91
        0
280
     0
281
     0
  0
CLASS
  1
VAACIMAGEINVENTORY
  2
VaAcImageInventory
  3
VAAC_ADDIN
 90
        0
 91
        0
280
     0
281
     0
  0
CLASS
  1
AMDTNOTETEMPLATEDB
  2
AmdtNoteTemplateDB
  3
AcmSymBB|Product Description: AutoCAD Mechanical|Company: Autodesk, Inc.
 90
     1024
 91
        6
280
     0
281
     0
  0
CLASS
  1
ACAMGFILTERDAT
  2
AcAmgFilterDat
  3
"AcadM|Product Description: AutoCAD Mechanical|Company: Autodesk, Inc."
 90
     1024
 91
        0
280
     0
281
     0
  0
CLASS
  1
MATERIAL
  2
AcDbMaterial
  3
ObjectDBX Classes
 90
     1153
 91
        3
280
     0
281
     0
  0
CLASS
  1
VISUALSTYLE
  2
AcDbVisualStyle
  3
ObjectDBX Classes
 90
     4095
 91
       16
280
     0
281
     0
  0
CLASS
  1
ACRFATTGENMGR
  2
AcRfAttGeneralMgr
  3
AcAttribServices
 90
     1024
 91
        0
280
     0
281
     0
  0
CLASS
  1
ACRFOBJATTMGR
  2
AcRfObjAttGroupMgr
  3
AcAttribServices
 90
     1024
 91
        0
280
     0
281
     0
  0
CLASS
  1
ACRFMCADAPIATTHOLDER
  2
AcRfMCADAPIAttHolder
  3
AcAttribServices
 90
     1024
 91
        0
280
     0
281
     0
  0
CLASS
  1
AMDTSYSATTR
  2
AmdtSystemAttribute
  3
AcAttribServices
 90
     1024
 91
        0
280
     0
281
     0
  0
CLASS
  1
ACMTAPERSTANDARDJIS
  2
AcmTaperStdJIS
  3
"Amdt_StdImp|Product Description: AutoCAD Mechanical|Company: Autodesk, Inc."
 90
     1024
 91
        0
280
     0
281
     0
  0
CLASS
  1
CAMSSTRUCTBTNSTATE
  2
StructBtnState
  3
DesignerAssemblies
 90
     1024
 91
        0
280
     0
281
     0
  0
CLASS
  1
SCALE
  2
AcDbScale
  3
ObjectDBX Classes
 90
     1153
 91
       37
280
     0
281
     0
  0
CLASS
  1
MLEADERSTYLE
  2
AcDbMLeaderStyle
  3
ACDB_MLEADERSTYLE_CLASS
 90
     4095
 91
        1
280
     0
281
     0
  0
CLASS
  1
ACMANOOTATIONVIEWSTANDARDJIS
  2
AmdtAnViewStdJIS
  3
"Amdt_StdImp|Product Description: AutoCAD Mechanical|Company: Autodesk, Inc."
 90
     1024
 91
        0
280
     0
281
     0
  0
CLASS
  1
ACMSURFSTANDARDJIS2003
  2
AcmSurfTextStdJIS2003
  3
"Amdt_StdImp|Product Description: AutoCAD Mechanical|Company: Autodesk, Inc."
 90
     1024
 91
        0
280
     0
281
     0
  0
CLASS
  1
CELLSTYLEMAP
  2
AcDbCellStyleMap
  3
ObjectDBX Classes
 90
     1152
 91
        2
280
     0
281
     0
  0
CLASS
  1
ACMFCFSTANDARDJIS98
  2
AcmFCFStdJIS98
  3
"Amdt_StdImp|Product Description: AutoCAD Mechanical|Company: Autodesk, Inc."
 90
     1024
 91
        0
280
     0
281
     0
  0
CLASS
  1
SORTENTSTABLE
  2
AcDbSortentsTable
  3
ObjectDBX Classes
 90
        0
 91
       13
280
     0
281
     0
  0
CLASS
  1
DIMASSOC
  2
AcDbDimAssoc
  3
"AcDbDimAssoc|Product Desc:     AcDim ARX App For Dimension|Company:          Autodesk, Inc.|WEB Address:      www.autodesk.com"
 90
        0
 91
       14
280
     0
281
     0
  0
CLASS
  1
STDPART2D
  2
AmgStdPart
  3
AmgStdPart|Product Description: AutoCAD Mechanical|Company: Autodesk, Inc.
 90
     4095
 91
        0
280
     0
281
     1
  0
CLASS
  1
ACMDATAENTRYPART
  2
AcmDataEntryPart
  3
AcmSymBB|Product Description: AutoCAD Mechanical|Company: Autodesk, Inc.
 90
     1024
 91
        0
280
     0
281
     0
  0
CLASS
  1
ACMPARTREF
  2
AcmPartRef
  3
"AcmSymBB|Product Description: AutoCAD Mechanical|Company: Autodesk, Inc."
 90
     4095
 91
        0
280
     0
281
     1
  0
CLASS
  1
ACDBSTDPARTRES_LINE
  2
AcDbStdPartRes_Line
  3
AmgStdPart|Product Description: AutoCAD Mechanical|Company: Autodesk, Inc.
 90
     1024
 91
        0
280
     0
281
     0
  0
CLASS
  1
ACMBOM
  2
AcmBom
  3
"AcmSymBB|Product Description: AutoCAD Mechanical|Company: Autodesk, Inc."
 90
     1024
 91
        0
280
     0
281
     0
  0
CLASS
  1
AMDTFORMULAUPDATEDISPATCHER
  2
AmdtFormulaUpdateDispatcher
  3
AcMeServices
 90
     1024
 91
        0
280
     0
281
     0
  0
CLASS
  1
ACMBOMROW
  2
AcmBomRow
  3
"AcmSymBB|Product Description: AutoCAD Mechanical|Company: Autodesk, Inc."
 90
     1024
 91
        0
280
     0
281
     0
  0
CLASS
  1
ACMPARTLIST
  2
AcmPartList
  3
"AcmSymBB|Product Description: AutoCAD Mechanical|Company: Autodesk, Inc."
 90
     4095
 91
        0
280
     0
281
     1
  0
CLASS
  1
ACDBLINERES
  2
AcDbLineRes
  3
AcGrefServices
 90
     1024
 91
        0
280
     0
281
     0
  0
CLASS
  1
ACRFINSADJ
  2
AcRfInsAdjuster
  3
AcMeServices
 90
     1024
 91
        0
280
     0
281
     0
  0
CLASS
  1
ACMSTANDARDISO
  2
AcmStandardISO
  3
"Amdt_StdImp|Product Description: AutoCAD Mechanical|Company: Autodesk, Inc."
 90
     1024
 91
        1
280
     0
281
     0
  0
CLASS
  1
AMDTEDGESTANDARDISO13715
  2
AmdtEdgeStdISO13715
  3
"Amdt_StdImp|Product Description: AutoCAD Mechanical|Company: Autodesk, Inc."
 90
     1024
 91
        1
280
     0
281
     0
  0
CLASS
  1
ACMSURFSTANDARDISO2002
  2
AcmSurfTextStdISO2002
  3
"Amdt_StdImp|Product Description: AutoCAD Mechanical|Company: Autodesk, Inc."
 90
     1024
 91
        1
280
     0
281
     0
  0
CLASS
  1
ACMFCFSTANDARDISO
  2
AcmFCFStdISO
  3
"Amdt_StdImp|Product Description: AutoCAD Mechanical|Company: Autodesk, Inc."
 90
     1024
 91
        1
280
     0
281
     0
  0
CLASS
  1
ACMWELDSTANDARDISO
  2
AcmWeldingStdISO
  3
"Amdt_StdImp|Product Description: AutoCAD Mechanical|Company: Autodesk, Inc."
 90
     1024
 91
        1
280
     0
281
     0
  0
CLASS
  1
ACMIDSTANDARDISO
  2
AcmIdStdISO
  3
"Amdt_StdImp|Product Description: AutoCAD Mechanical|Company: Autodesk, Inc."
 90
     1024
 91
        1
280
     0
281
     0
  0
CLASS
  1
ACMDATUMSTANDARDISO
  2
AcmDatumStdISO
  3
"Amdt_StdImp|Product Description: AutoCAD Mechanical|Company: Autodesk, Inc."
 90
     1024
 91
        1
280
     0
281
     0
  0
CLASS
  1
ACMBOMSTANDARDISO
  2
AcmBOMStdISO
  3
"Amdt_StdImp|Product Description: AutoCAD Mechanical|Company: Autodesk, Inc."
 90
     1024
 91
        1
280
     0
281
     0
  0
CLASS
  1
ACMDETAILSTANDARDISO
  2
AmdtDetailSymStdISO
  3
"Amdt_StdImp|Product Description: AutoCAD Mechanical|Company: Autodesk, Inc."
 90
     1024
 91
        1
280
     0
281
     0
  0
CLASS
  1
ACMSECTIONSTANDARDISO2001
  2
AmdtSectionSymStdISO2001
  3
"Amdt_StdImp|Product Description: AutoCAD Mechanical|Company: Autodesk, Inc."
 90
     1024
 91
        1
280
     0
281
     0
  0
CLASS
  1
ACMCENTERLINESTANDARDISO
  2
AmdtCenterLineStdISO
  3
"Amdt_StdImp|Product Description: AutoCAD Mechanical|Company: Autodesk, Inc."
 90
     1024
 91
        1
280
     0
281
     0
  0
CLASS
  1
ACMTHREADLINESTANDARDISO
  2
AmdtThreadLineStdISO
  3
"Amdt_StdImp|Product Description: AutoCAD Mechanical|Company: Autodesk, Inc."
 90
     1024
 91
        1
280
     0
281
     0
  0
CLASS
  1
ACMNOTESTANDARDISO
  2
AmdtNoteStdISO
  3
"Amdt_StdImp|Product Description: AutoCAD Mechanical|Company: Autodesk, Inc."
 90
     1024
 91
        1
280
     0
281
     0
  0
CLASS
  1
ACMTAPERSTANDARDISO
  2
AcmTaperStdISO
  3
"Amdt_StdImp|Product Description: AutoCAD Mechanical|Company: Autodesk, Inc."
 90
     1024
 91
        1
280
     0
281
     0
  0
CLASS
  1
ACMANOOTATIONVIEWSTANDARDISO
  2
AmdtAnViewStdISO
  3
"Amdt_StdImp|Product Description: AutoCAD Mechanical|Company: Autodesk, Inc."
 90
     1024
 91
        1
280
     0
281
     0
  0
CLASS
  1
ACAMGHOLECHARTSTDISO
  2
AcAmgHoleChartStdISO
  3
AmgDim|Product Description: AutoCAD Mechanical|Company: Autodesk, Inc.
 90
     1024
 91
        1
280
     0
281
     0
  0
CLASS
  1
EXACXREFPANELOBJECT
  2
ExAcXREFPanelObject
  3
EXAC_ESW
 90
     1025
 91
        0
280
     0
281
     0
  0
CLASS
  1
NPOCOLLECTION
  2
AcDbImpNonPersistentObjectsCollection
  3
ObjectDBX Classes
 90
     1153
 91
        0
280
     0
281
     0
  0
CLASS
  1
ACDBSTDPARTRES_ARC
  2
AcDbStdPartRes_Arc
  3
AmgStdPart|Product Description: AutoCAD Mechanical|Company: Autodesk, Inc.
 90
     1024
 91
        0
280
     0
281
     0
  0
CLASS
  1
AMDTNOTE
  2
AmdtNote
  3
"AcmSymBB|Product Description: AutoCAD Mechanical|Company: Autodesk, Inc."
 90
     4095
 91
        0
280
     0
281
     1
  0
CLASS
  1
PLOTSETTINGS
  2
AcDbPlotSettings
  3
ObjectDBX Classes
 90
        0
 91
        1
280
     0
281
     0
  0
CLASS
  1
ACMSTANDARDANSI
  2
AcmStandardANSI
  3
"Amdt_StdImp|Product Description: AutoCAD Mechanical|Company: Autodesk, Inc."
 90
     1024
 91
        0
280
     0
281
     0
  0
CLASS
  1
ACMSURFSTANDARDANSI
  2
AcmSurfTextStdANSI
  3
"Amdt_StdImp|Product Description: AutoCAD Mechanical|Company: Autodesk, Inc."
 90
     1024
 91
        0
280
     0
281
     0
  0
CLASS
  1
ACMFCFSTANDARDANSI
  2
AcmFCFStdANSI
  3
"Amdt_StdImp|Product Description: AutoCAD Mechanical|Company: Autodesk, Inc."
 90
     1024
 91
        0
280
     0
281
     0
  0
CLASS
  1
ACMWELDSTANDARDANSI
  2
AcmWeldingStdANSI
  3
"Amdt_StdImp|Product Description: AutoCAD Mechanical|Company: Autodesk, Inc."
 90
     1024
 91
        0
280
     0
281
     0
  0
CLASS
  1
ACMIDSTANDARDANSI
  2
AcmIdStdANSI
  3
"Amdt_StdImp|Product Description: AutoCAD Mechanical|Company: Autodesk, Inc."
 90
     1024
 91
        0
280
     0
281
     0
  0
CLASS
  1
ACMDATUMSTANDARDANSI
  2
AcmDatumStdANSI
  3
"Amdt_StdImp|Product Description: AutoCAD Mechanical|Company: Autodesk, Inc."
 90
     1024
 91
        0
280
     0
281
     0
  0
CLASS
  1
ACMBOMSTANDARDANSI
  2
AcmBOMStdANSI
  3
"Amdt_StdImp|Product Description: AutoCAD Mechanical|Company: Autodesk, Inc."
 90
     1024
 91
        0
280
     0
281
     0
  0
CLASS
  1
ACMDETAILSTANDARDANSI
  2
AmdtDetailSymStdANSI
  3
"Amdt_StdImp|Product Description: AutoCAD Mechanical|Company: Autodesk, Inc."
 90
     1024
 91
        0
280
     0
281
     0
  0
CLASS
  1
ACMSECTIONSTANDARDANSI
  2
AmdtSectionSymStdANSI
  3
"Amdt_StdImp|Product Description: AutoCAD Mechanical|Company: Autodesk, Inc."
 90
     1024
 91
        0
280
     0
281
     0
  0
CLASS
  1
ACMCENTERLINESTANDARDANSI
  2
AmdtCenterLineStdANSI
  3
"Amdt_StdImp|Product Description: AutoCAD Mechanical|Company: Autodesk, Inc."
 90
     1024
 91
        0
280
     0
281
     0
  0
CLASS
  1
ACMTHREADLINESTANDARDANSI
  2
AmdtThreadLineStdANSI
  3
"Amdt_StdImp|Product Description: AutoCAD Mechanical|Company: Autodesk, Inc."
 90
     1024
 91
        0
280
     0
281
     0
  0
CLASS
  1
ACMNOTESTANDARDANSI
  2
AmdtNoteStdANSI
  3
"Amdt_StdImp|Product Description: AutoCAD Mechanical|Company: Autodesk, Inc."
 90
     1024
 91
        0
280
     0
281
     0
  0
CLASS
  1
ACMTAPERSTANDARDANSI
  2
AcmTaperStdANSI
  3
"Amdt_StdImp|Product Description: AutoCAD Mechanical|Company: Autodesk, Inc."
 90
     1024
 91
        0
280
     0
281
     0
  0
CLASS
  1
ACMANOOTATIONVIEWSTANDARDANSI
  2
AmdtAnViewStdANSI
  3
"Amdt_StdImp|Product Description: AutoCAD Mechanical|Company: Autodesk, Inc."
 90
     1024
 91
        0
280
     0
281
     0
  0
CLASS
  1
ACAMGHOLECHARTSTDANSI
  2
AcAmgHoleChartStdANSI
  3
AmgDim|Product Description: AutoCAD Mechanical|Company: Autodesk, Inc.
 90
     1024
 91
        0
280
     0
281
     0
  0
CLASS
  1
ACMSTANDARDBSI
  2
AcmStandardBSI
  3
"Amdt_StdImp|Product Description: AutoCAD Mechanical|Company: Autodesk, Inc."
 90
     1024
 91
        0
280
     0
281
     0
  0
CLASS
  1
ACMSURFSTANDARDBSI2002
  2
AcmSurfTextStdBSI2002
  3
"Amdt_StdImp|Product Description: AutoCAD Mechanical|Company: Autodesk, Inc."
 90
     1024
 91
        0
280
     0
281
     0
  0
CLASS
  1
ACMFCFSTANDARDBSI
  2
AcmFCFStdBSI
  3
"Amdt_StdImp|Product Description: AutoCAD Mechanical|Company: Autodesk, Inc."
 90
     1024
 91
        0
280
     0
281
     0
  0
CLASS
  1
ACMWELDSTANDARDBSI
  2
AcmWeldingStdBSI
  3
"Amdt_StdImp|Product Description: AutoCAD Mechanical|Company: Autodesk, Inc."
 90
     1024
 91
        0
280
     0
281
     0
  0
CLASS
  1
ACMIDSTANDARDBSI
  2
AcmIdStdBSI
  3
"Amdt_StdImp|Product Description: AutoCAD Mechanical|Company: Autodesk, Inc."
 90
     1024
 91
        0
280
     0
281
     0
  0
CLASS
  1
ACMDATUMSTANDARDBSI
  2
AcmDatumStdBSI
  3
"Amdt_StdImp|Product Description: AutoCAD Mechanical|Company: Autodesk, Inc."
 90
     1024
 91
        0
280
     0
281
     0
  0
CLASS
  1
ACMBOMSTANDARDBSI
  2
AcmBOMStdBSI
  3
"Amdt_StdImp|Product Description: AutoCAD Mechanical|Company: Autodesk, Inc."
 90
     1024
 91
        0
280
     0
281
     0
  0
CLASS
  1
ACMDETAILSTANDARDBSI
  2
AmdtDetailSymStdBSI
  3
"Amdt_StdImp|Product Description: AutoCAD Mechanical|Company: Autodesk, Inc."
 90
     1024
 91
        0
280
     0
281
     0
  0
CLASS
  1
ACMSECTIONSTANDARDBSI2001
  2
AmdtSectionSymStdBSI2001
  3
"Amdt_StdImp|Product Description: AutoCAD Mechanical|Company: Autodesk, Inc."
 90
     1024
 91
        0
280
     0
281
     0
  0
CLASS
  1
ACMCENTERLINESTANDARDBSI
  2
AmdtCenterLineStdBSI
  3
"Amdt_StdImp|Product Description: AutoCAD Mechanical|Company: Autodesk, Inc."
 90
     1024
 91
        0
280
     0
281
     0
  0
CLASS
  1
ACMTHREADLINESTANDARDBSI
  2
AmdtThreadLineStdBSI
  3
"Amdt_StdImp|Product Description: AutoCAD Mechanical|Company: Autodesk, Inc."
 90
     1024
 91
        0
280
     0
281
     0
  0
CLASS
  1
ACMNOTESTANDARDBSI
  2
AmdtNoteStdBSI
  3
"Amdt_StdImp|Product Description: AutoCAD Mechanical|Company: Autodesk, Inc."
 90
     1024
 91
        0
280
     0
281
     0
  0
CLASS
  1
ACMTAPERSTANDARDBSI
  2
AcmTaperStdBSI
  3
"Amdt_StdImp|Product Description: AutoCAD Mechanical|Company: Autodesk, Inc."
 90
     1024
 91
        0
280
     0
281
     0
  0
CLASS
  1
ACMANOOTATIONVIEWSTANDARDBSI
  2
AmdtAnViewStdBSI
  3
"Amdt_StdImp|Product Description: AutoCAD Mechanical|Company: Autodesk, Inc."
 90
     1024
 91
        0
280
     0
281
     0
  0
CLASS
  1
ACAMGHOLECHARTSTDBSI
  2
AcAmgHoleChartStdBSI
  3
AmgDim|Product Description: AutoCAD Mechanical|Company: Autodesk, Inc.
 90
     1024
 91
        0
280
     0
281
     0
  0
CLASS
  1
AMDTEDGESTANDARDJIS
  2
AmdtEdgeStdJIS
  3
"Amdt_StdImp|Product Description: AutoCAD Mechanical|Company: Autodesk, Inc."
 90
     1024
 91
        0
280
     0
281
     0
  0
CLASS
  1
ACDB_BLKREFOBJECTCONTEXTDATA_CLASS
  2
AcDbBlkRefObjectContextData
  3
ObjectDBX Classes
 90
     1153
 91
        0
280
     0
281
     0
  0
CLASS
  1
ACMSURFSYM
  2
AcmSurfaceTexture
  3
"AcmSymBB|Product Description: AutoCAD Mechanical|Company: Autodesk, Inc."
 90
     4095
 91
        0
280
     0
281
     1
  0
CLASS
  1
ACDBDIMENSIONRES
  2
AcDbDimensionRes
  3
AcmSymBB|Product Description: AutoCAD Mechanical|Company: Autodesk, Inc.
 90
     1024
 91
        0
280
     0
281
     0
  0
CLASS
  1
ACDBCIRCARCRES
  2
AcDbCircArcRes
  3
AcGrefServices
 90
     1024
 91
        0
280
     0
281
     0
  0
CLASS
  1
AMDTACMWBLOCKBOMENTITY
  2
AmdtAcmWblockBomEntity
  3
"AcmSymBB|Product Description: AutoCAD Mechanical|Company: Autodesk, Inc."
 90
     4095
 91
        0
280
     0
281
     1
  0
CLASS
  1
ACDBOPPOLYLINERES
  2
AcDbOpPolylineRes
  3
AcGrefServices
 90
     1024
 91
        0
280
     0
281
     0
  0
CLASS
  1
ACMPICKOBJ
  2
AcmPickEnt
  3
"AcmSymBB|Product Description: AutoCAD Mechanical|Company: Autodesk, Inc."
 90
     1024
 91
        0
280
     0
281
     1
  0
CLASS
  1
ACDBELLIPSERES
  2
AcDbEllipseRes
  3
AcGrefServices
 90
     1024
 91
        0
280
     0
281
     0
  0
CLASS
  1
ACMBALLOON
  2
AcmBalloon
  3
"AcmSymBB|Product Description: AutoCAD Mechanical|Company: Autodesk, Inc."
 90
     4095
 91
        0
280
     0
281
     1
  0
ENDSEC
  0
SECTION
  2
TABLES
  0
TABLE
  2
VPORT
  5
8
330
0
100
AcDbSymbolTable
 70
     1
  0
VPORT
  5
27A
330
8
100
AcDbSymbolTableRecord
100
AcDbViewportTableRecord
  2
*Active
 70
     0
 10
0.0
 20
0.0
 11
1.0
 21
1.0
 12
1758.955087571497
 22
1586.531808267471
 13
0.0
 23
0.0
 14
20.0
 24
20.0
 15
80.0
 25
80.0
 16
0.0
 26
0.0
 36
1.0
 17
0.0
 27
0.0
 37
0.0
 40
970.8376378297478
 41
1.571428571428571
 42
50.0
 43
0.0
 44
0.0
 50
0.0
 51
0.0
 71
    16
 72
 20000
 73
     1
 74
     3
 75
     0
 76
     0
 77
     0
 78
     0
281
     0
 65
     0
110
0.0
120
0.0
130
0.0
111
1.0
121
0.0
131
0.0
112
0.0
122
1.0
132
0.0
 79
     0
146
0.0
348
285
 60
     3
 61
     5
292
     1
282
     0
141
0.0
142
0.0
 63
   250
421
  3355443
  0
ENDTAB
  0
TABLE
  2
LTYPE
  5
5
330
0
100
AcDbSymbolTable
 70
    22
  0
LTYPE
  5
14
330
5
100
AcDbSymbolTableRecord
100
AcDbLinetypeTableRecord
  2
ByBlock
 70
     0
  3

 72
    65
 73
     0
 40
0.0
  0
LTYPE
  5
15
330
5
100
AcDbSymbolTableRecord
100
AcDbLinetypeTableRecord
  2
ByLayer
 70
     0
  3

 72
    65
 73
     0
 40
0.0
  0
LTYPE
  5
16
330
5
100
AcDbSymbolTableRecord
100
AcDbLinetypeTableRecord
  2
Continuous
 70
     0
  3
Solid line
 72
    65
 73
     0
 40
0.0
  0
LTYPE
  5
4D
330
5
100
AcDbSymbolTableRecord
100
AcDbLinetypeTableRecord
  2
AM_ISO02W050
 70
     0
  3
__ __ __ __ __ __ __ __ __ __ __ __ __ __ __
 72
    65
 73
     2
 40
7.5
 49
6.0
 74
     0
 49
-1.5
 74
     0
  0
LTYPE
  5
4E
330
5
100
AcDbSymbolTableRecord
100
AcDbLinetypeTableRecord
  2
AM_ISO08W050
 70
     0
  3
____ . ____ . ____ . ____ . ____ . ____ . ____
 72
    65
 73
     4
 40
18.0
 49
12.0
 74
     0
 49
-1.5
 74
     0
 49
3.0
 74
     0
 49
-1.5
 74
     0
  0
LTYPE
  5
4F
330
5
100
AcDbSymbolTableRecord
100
AcDbLinetypeTableRecord
  2
AM_ISO09W050
 70
     0
  3
_____ . . _____ . . _____ . . ____ .. ____
 72
    65
 73
     6
 40
22.5
 49
12.0
 74
     0
 49
-1.5
 74
     0
 49
3.0
 74
     0
 49
-1.5
 74
     0
 49
3.0
 74
     0
 49
-1.5
 74
     0
  0
LTYPE
  5
50
330
5
100
AcDbSymbolTableRecord
100
AcDbLinetypeTableRecord
  2
Amconstr
 70
     0
  3
_______________________
 72
    65
 73
     2
 40
9999.0
 49
9999.0
 74
     0
 49
0.0
 74
     0
  0
LTYPE
  5
51
330
5
100
AcDbSymbolTableRecord
100
AcDbLinetypeTableRecord
  2
AM_ISO08W050x2
 70
     0
  3
__ . __ . __ . __ . __ . __
 72
    65
 73
     4
 40
9.0
 49
6.0
 74
     0
 49
-0.75
 74
     0
 49
1.5
 74
     0
 49
-0.75
 74
     0
  0
LTYPE
  5
52
330
5
100
AcDbSymbolTableRecord
100
AcDbLinetypeTableRecord
  2
AM_ISO02W050x2
 70
     0
  3
 _ _ _ _ _ _ _ _ _ _ _ _
 72
    65
 73
     2
 40
3.75
 49
3.0
 74
     0
 49
-0.75
 74
     0
  0
LTYPE
  5
55
330
5
100
AcDbSymbolTableRecord
100
AcDbLinetypeTableRecord
  2
Amzigzag
 70
     0
  3
/\/-/\/-/\/-/\/-/\/-/\/
 72
    65
 73
     2
 40
11.0001
 49
0.0001
 74
     4
 75
   136
340
23D
 46
0.04
 50
0.0
 44
0.0
 45
0.0
 49
-11.0
 74
     0
  0
LTYPE
  5
65
330
5
100
AcDbSymbolTableRecord
100
AcDbLinetypeTableRecord
  2
CENTER
 70
     0
  3
__ . __
 72
    65
 73
     4
 40
7.0
 49
4.0
 74
     0
 49
-1.0
 74
     0
 49
1.0
 74
     0
 49
-1.0
 74
     0
  0
LTYPE
  5
E0
330
5
100
AcDbSymbolTableRecord
100
AcDbLinetypeTableRecord
  2
HIDDEN
 70
     0
  3
Hidden __ __ __ __ __ __ __ __ __ __ __ __ __ _
 72
    65
 73
     2
 40
9.524999999999996
 49
6.349999999999998
 74
     0
 49
-3.174999999999998
 74
     0
  0
LTYPE
  5
E1
330
5
100
AcDbSymbolTableRecord
100
AcDbLinetypeTableRecord
  2
PHANTOM2
 70
     0
  3
Phantom (.5x) ___ _ _ ___ _ _ ___ _ _ ___ _ _
 72
    65
 73
     6
 40
31.75
 49
15.875
 74
     0
 49
-3.174999999999998
 74
     0
 49
3.174999999999998
 74
     0
 49
-3.174999999999998
 74
     0
 49
3.174999999999998
 74
     0
 49
-3.174999999999998
 74
     0
  0
LTYPE
  5
5A2
330
5
100
AcDbSymbolTableRecord
100
AcDbLinetypeTableRecord
  2
ACJISWELD
 70
     0
  3
_ _ _ _ _
 72
    65
 73
     2
 40
2.0
 49
2.0
 74
     0
 49
-1.0
 74
     0
  0
LTYPE
  5
76C8
330
5
100
AcDbSymbolTableRecord
100
AcDbLinetypeTableRecord
  2
ACISOWELD
 70
     0
  3
_ _ _ _ _
 72
    65
 73
     2
 40
2.0
 49
2.0
 74
     0
 49
-1.0
 74
     0
  0
LTYPE
  5
76C9
330
5
100
AcDbSymbolTableRecord
100
AcDbLinetypeTableRecord
  2
ACISOTGB
 70
     0
  3
__ . . __ . .
 72
    65
 73
     6
 40
9.0
 49
4.0
 74
     0
 49
-1.0
 74
     0
 49
1.0
 74
     0
 49
-1.0
 74
     0
 49
1.0
 74
     0
 49
-1.0
 74
     0
  0
LTYPE
  5
76CA
330
5
100
AcDbSymbolTableRecord
100
AcDbLinetypeTableRecord
  2
ACISOTGL
 70
     0
  3
_ _ _ _ _
 72
    65
 73
     2
 40
3.0
 49
2.0
 74
     0
 49
-1.0
 74
     0
  0
ENDTAB
  0
TABLE
  2
LAYER
  5
2
102
{ACAD_XDICTIONARY
360
BF
102
}
330
0
100
AcDbSymbolTable
 70
     9
  0
LAYER
  5
10
102
{ACAD_XDICTIONARY
360
2A6F
102
}
330
2
100
AcDbSymbolTableRecord
100
AcDbLayerTableRecord
  2
0
 70
     0
 62
     7
  6
Continuous
370
    -3
390
F
347
27E
  0
LAYER
  5
81
102
{ACAD_XDICTIONARY
360
2A71
102
}
330
2
100
AcDbSymbolTableRecord
100
AcDbLayerTableRecord
  2
AM_0 外形線1
 70
     0
 62
     7
  6
Continuous
370
    25
390
F
347
27E
  0
LAYER
  5
427
330
2
100
AcDbSymbolTableRecord
100
AcDbLayerTableRecord
  2
Defpoints
 70
     0
 62
     7
  6
Continuous
290
     0
370
    -3
390
F
347
27E
  0
LAYER
  5
4225
330
2
100
AcDbSymbolTableRecord
100
AcDbLayerTableRecord
  2
AM_5 寸法線
 70
     0
 62
     3
  6
Continuous
370
    13
390
F
347
27E
1001
AcAecLayerStandard
1000

1000

  0
LAYER
  5
4226
330
2
100
AcDbSymbolTableRecord
100
AcDbLayerTableRecord
  2
AM_4 細線
 70
     0
 62
     4
  6
Continuous
370
    13
390
F
347
27E
1001
AcAecLayerStandard
1000

1000

  0
LAYER
  5
4227
330
2
100
AcDbSymbolTableRecord
100
AcDbLayerTableRecord
  2
AM_7 中心線
 70
     0
 62
     1
  6
AM_ISO08W050
370
    13
390
F
347
27E
1001
AcAecLayerStandard
1000

1000

  0
LAYER
  5
4228
330
2
100
AcDbSymbolTableRecord
100
AcDbLayerTableRecord
  2
AM_3 隠れ線
 70
     0
 62
     8
  6
ACJISWELD
370
    13
390
F
347
27E
1001
AcAecLayerStandard
1000

1000

  0
LAYER
  5
422B
330
2
100
AcDbSymbolTableRecord
100
AcDbLayerTableRecord
  2
AM_6 文字
 70
     0
 62
     2
  6
Continuous
370
    13
390
F
347
27E
1001
AcAecLayerStandard
1000

1000

  0
ENDTAB
  0
TABLE
  2
STYLE
  5
3
330
0
100
AcDbSymbolTable
 70
    10
  0
STYLE
  5
11
330
3
100
AcDbSymbolTableRecord
100
AcDbTextStyleTableRecord
  2
STANDARD
 70
     0
 40
0.0
 41
1.0
 50
0.0
 71
     0
 42
25.0
  3
ISOCP.SHX
  4
EXTFONT.SHX
  0
STYLE
  5
23D
330
3
100
AcDbSymbolTableRecord
100
AcDbTextStyleTableRecord
  2

 70
     1
 40
0.0
 41
1.0
 50
0.0
 71
     0
 42
2.5
  3
genltshp.shx
  4

  0
STYLE
  5
5D5
330
3
100
AcDbSymbolTableRecord
100
AcDbTextStyleTableRecord
  2
SEISA
 70
     0
 40
0.0
 41
0.9
 50
0.0
 71
     0
 42
25.0
  3
romans.shx
  4
extfont2.shx
  0
STYLE
  5
76B8
330
3
100
AcDbSymbolTableRecord
100
AcDbTextStyleTableRecord
  2
ACISOTS
 70
     0
 40
1.0
 41
1.0
 50
0.0
 71
     0
 42
25.0
  3
isocp.shx
  4
extfont.shx
  0
STYLE
  5
76C7
330
3
100
AcDbSymbolTableRecord
100
AcDbTextStyleTableRecord
  2
ACISOGDT
 70
     0
 40
0.0
 41
1.0
 50
0.0
 71
     0
 42
25.0
  3
amgdt.shx
  4

  0
ENDTAB
  0
TABLE
  2
VIEW
  5
6
330
0
100
AcDbSymbolTable
 70
     6
  0
VIEW
  5
91B
330
6
100
AcDbSymbolTableRecord
100
AcDbViewTableRecord
  2
AM_VIEW1
 70
     0
 40
1188.0
 10
1148.497538477283
 20
1782.000002955057
 41
2296.995073891626
 11
0.0
 21
0.0
 31
1.0
 12
0.0
 22
0.0
 32
0.0
 42
50.0
 43
0.0
 44
0.0
 50
0.0
 71
    16
281
     0
 72
     0
 73
     0
  0
VIEW
  5
91C
330
6
100
AcDbSymbolTableRecord
100
AcDbViewTableRecord
  2
AM_VIEW2
 70
     0
 40
1188.0
 10
2211.502464585658
 20
1782.000002955057
 41
2296.995073891626
 11
0.0
 21
0.0
 31
1.0
 12
0.0
 22
0.0
 32
0.0
 42
50.0
 43
0.0
 44
0.0
 50
0.0
 71
    16
281
     0
 72
     0
 73
     0
  0
VIEW
  5
91D
330
6
100
AcDbSymbolTableRecord
100
AcDbViewTableRecord
  2
AM_VIEW3
 70
     0
 40
1188.0
 10
1148.497538477283
 20
594.0000029550566
 41
2296.995073891626
 11
0.0
 21
0.0
 31
1.0
 12
0.0
 22
0.0
 32
0.0
 42
50.0
 43
0.0
 44
0.0
 50
0.0
 71
    16
281
     0
 72
     0
 73
     0
  0
VIEW
  5
91E
330
6
100
AcDbSymbolTableRecord
100
AcDbViewTableRecord
  2
AM_VIEW4
 70
     0
 40
1188.0
 10
2211.502464585658
 20
594.0000029550566
 41
2296.995073891626
 11
0.0
 21
0.0
 31
1.0
 12
0.0
 22
0.0
 32
0.0
 42
50.0
 43
0.0
 44
0.0
 50
0.0
 71
    16
281
     0
 72
     0
 73
     0
  0
VIEW
  5
91F
330
6
100
AcDbSymbolTableRecord
100
AcDbViewTableRecord
  2
AM_VIEW5
 70
     0
 40
1188.0
 10
1680.000001531471
 20
1188.000002955057
 41
2296.995073891626
 11
0.0
 21
0.0
 31
1.0
 12
0.0
 22
0.0
 32
0.0
 42
50.0
 43
0.0
 44
0.0
 50
0.0
 71
    16
281
     0
 72
     0
 73
     0
  0
VIEW
  5
920
330
6
100
AcDbSymbolTableRecord
100
AcDbViewTableRecord
  2
AM_VIEW6
 70
     0
 40
2375.97624
 10
1680.000001531471
 20
1188.000002955057
 41
4593.944207881775
 11
0.0
 21
0.0
 31
1.0
 12
0.0
 22
0.0
 32
0.0
 42
50.0
 43
0.0
 44
0.0
 50
0.0
 71
    16
281
     0
 72
     0
 73
     0
  0
ENDTAB
  0
TABLE
  2
UCS
  5
7
330
0
100
AcDbSymbolTable
 70
     0
  0
ENDTAB
  0
TABLE
  2
APPID
  5
9
330
0
100
AcDbSymbolTable
 70
   397
  0
APPID
  5
12
330
9
100
AcDbSymbolTableRecord
100
AcDbRegAppTableRecord
  2
ACAD
 70
     0
  0
APPID
  5
30
330
9
100
AcDbSymbolTableRecord
100
AcDbRegAppTableRecord
  2
MCAD_NO_VIS
 70
     0
  0
APPID
  5
31
330
9
100
AcDbSymbolTableRecord
100
AcDbRegAppTableRecord
  2
ACAD_TEMP_GRAPHIC
 70
     0
  0
APPID
  5
44
330
9
100
AcDbSymbolTableRecord
100
AcDbRegAppTableRecord
  2
ACATTRIBSERVICES
 70
     0
  0
APPID
  5
F6
330
9
100
AcDbSymbolTableRecord
100
AcDbRegAppTableRecord
  2
AD_DRAW
 70
     0
  0
APPID
  5
114
330
9
100
AcDbSymbolTableRecord
100
AcDbRegAppTableRecord
  2
DESIGNERASSEMBLIES
 70
     0
  0
APPID
  5
118
330
9
100
AcDbSymbolTableRecord
100
AcDbRegAppTableRecord
  2
ACADM_DIM_EDIT
 70
     0
  0
APPID
  5
119
330
9
100
AcDbSymbolTableRecord
100
AcDbRegAppTableRecord
  2
AMDT_DM_ADJ
 70
     0
  0
APPID
  5
1AF
330
9
100
AcDbSymbolTableRecord
100
AcDbRegAppTableRecord
  2
ACAD_DSTYLE_DIMARC_LENGTH_SYMBOL
 70
     0
  0
APPID
  5
1B0
330
9
100
AcDbSymbolTableRecord
100
AcDbRegAppTableRecord
  2
ACAD_DSTYLE_DIMJOGGED_JOGANGLE_SYMBOL
 70
     0
  0
APPID
  5
2D7
330
9
100
AcDbSymbolTableRecord
100
AcDbRegAppTableRecord
  2
ACAD_MLEADERVER
 70
     0
  0
APPID
  5
355
330
9
100
AcDbSymbolTableRecord
100
AcDbRegAppTableRecord
  2
AcadAnnoPO
 70
     0
  0
APPID
  5
428
330
9
100
AcDbSymbolTableRecord
100
AcDbRegAppTableRecord
  2
ACAD_DSTYLE_DIMTEXT_FILL
 70
     0
  0
APPID
  5
429
330
9
100
AcDbSymbolTableRecord
100
AcDbRegAppTableRecord
  2
GENIUS_GENSCREG_15
 70
     0
  0
APPID
  5
42A
330
9
100
AcDbSymbolTableRecord
100
AcDbRegAppTableRecord
  2
GENIUS_GENOBJ-N-SDF_13
 70
     0
  0
APPID
  5
42B
330
9
100
AcDbSymbolTableRecord
100
AcDbRegAppTableRecord
  2
GENIUS_GENODEF_13
 70
     0
  0
APPID
  5
42C
330
9
100
AcDbSymbolTableRecord
100
AcDbRegAppTableRecord
  2
ACAD_EXEMPT_FROM_CAD_STANDARDS
 70
     0
  0
APPID
  5
42D
330
9
100
AcDbSymbolTableRecord
100
AcDbRegAppTableRecord
  2
AcAecLayerStandard
 70
     0
  0
APPID
  5
42E
330
9
100
AcDbSymbolTableRecord
100
AcDbRegAppTableRecord
  2
GENIUS_GENOBJ-N-CEN_13
 70
     0
  0
APPID
  5
42F
330
9
100
AcDbSymbolTableRecord
100
AcDbRegAppTableRecord
  2
GENIUS_GENCEN_19
 70
     0
  0
APPID
  5
430
330
9
100
AcDbSymbolTableRecord
100
AcDbRegAppTableRecord
  2
ACAD_DSTYLE_DIMINSPECT
 70
     0
  0
APPID
  5
431
330
9
100
AcDbSymbolTableRecord
100
AcDbRegAppTableRecord
  2
GENIUS_AMGTXT_16
 70
     0
  0
APPID
  5
432
330
9
100
AcDbSymbolTableRecord
100
AcDbRegAppTableRecord
  2
GENIUS_GENFIL_13
 70
     0
  0
APPID
  5
433
330
9
100
AcDbSymbolTableRecord
100
AcDbRegAppTableRecord
  2
GENIUS_GENOLIS_13
 70
     0
  0
APPID
  5
434
330
9
100
AcDbSymbolTableRecord
100
AcDbRegAppTableRecord
  2
GENIUS_GENOBJ-N-CHA_13
 70
     0
  0
APPID
  5
435
330
9
100
AcDbSymbolTableRecord
100
AcDbRegAppTableRecord
  2
GENIUS_GENOENT_13
 70
     0
  0
APPID
  5
436
330
9
100
AcDbSymbolTableRecord
100
AcDbRegAppTableRecord
  2
GENIUS_GENOREF_13
 70
     0
  0
APPID
  5
437
330
9
100
AcDbSymbolTableRecord
100
AcDbRegAppTableRecord
  2
GENIUS_GENOBJ-N-FIL_13
 70
     0
  0
APPID
  5
438
330
9
100
AcDbSymbolTableRecord
100
AcDbRegAppTableRecord
  2
GEVID1208829536
 70
     0
  0
APPID
  5
439
330
9
100
AcDbSymbolTableRecord
100
AcDbRegAppTableRecord
  2
GEVDC
 70
     0
  0
APPID
  5
43A
330
9
100
AcDbSymbolTableRecord
100
AcDbRegAppTableRecord
  2
GEVRADREF
 70
     0
  0
APPID
  5
43B
330
9
100
AcDbSymbolTableRecord
100
AcDbRegAppTableRecord
  2
GENIUS_GENBH_13
 70
     0
  0
APPID
  5
43C
330
9
100
AcDbSymbolTableRecord
100
AcDbRegAppTableRecord
  2
GENIUS_GENOBJ-NBEHI-BHF_13
 70
     0
  0
APPID
  5
43D
330
9
100
AcDbSymbolTableRecord
100
AcDbRegAppTableRecord
  2
GENIUS_GENOBJ-NBEHI-BHB_13
 70
     0
  0
APPID
  5
43E
330
9
100
AcDbSymbolTableRecord
100
AcDbRegAppTableRecord
  2
GEVID1208829537
 70
     0
  0
APPID
  5
43F
330
9
100
AcDbSymbolTableRecord
100
AcDbRegAppTableRecord
  2
ACAD_DSTYLE_DIMJAG
 70
     0
  0
APPID
  5
440
330
9
100
AcDbSymbolTableRecord
100
AcDbRegAppTableRecord
  2
ACAD_DSTYLE_DIMTALN
 70
     0
  0
APPID
  5
441
330
9
100
AcDbSymbolTableRecord
100
AcDbRegAppTableRecord
  2
AMG_2DHIDE
 70
     0
  0
APPID
  5
442
330
9
100
AcDbSymbolTableRecord
100
AcDbRegAppTableRecord
  2
AMG_2DSTRUCT_BTR
 70
     0
  0
APPID
  5
443
330
9
100
AcDbSymbolTableRecord
100
AcDbRegAppTableRecord
  2
GEVID1208845772
 70
     0
  0
APPID
  5
444
330
9
100
AcDbSymbolTableRecord
100
AcDbRegAppTableRecord
  2
GEVID1208845773
 70
     0
  0
APPID
  5
445
330
9
100
AcDbSymbolTableRecord
100
AcDbRegAppTableRecord
  2
ACADM_2DVIEW_IGN_NOTIFY
 70
     0
  0
APPID
  5
446
330
9
100
AcDbSymbolTableRecord
100
AcDbRegAppTableRecord
  2
GEVID1208845774
 70
     0
  0
APPID
  5
447
330
9
100
AcDbSymbolTableRecord
100
AcDbRegAppTableRecord
  2
GEVID1208845775
 70
     0
  0
APPID
  5
448
330
9
100
AcDbSymbolTableRecord
100
AcDbRegAppTableRecord
  2
GEVID1208845776
 70
     0
  0
APPID
  5
449
330
9
100
AcDbSymbolTableRecord
100
AcDbRegAppTableRecord
  2
GEVID1208845777
 70
     0
  0
APPID
  5
44A
330
9
100
AcDbSymbolTableRecord
100
AcDbRegAppTableRecord
  2
GEVCON
 70
     0
  0
APPID
  5
44B
330
9
100
AcDbSymbolTableRecord
100
AcDbRegAppTableRecord
  2
GENIUS_GENOBJ-F-SCPASSM_13
 70
     0
  0
APPID
  5
44C
330
9
100
AcDbSymbolTableRecord
100
AcDbRegAppTableRecord
  2
GEVID1208845778
 70
     0
  0
APPID
  5
44D
330
9
100
AcDbSymbolTableRecord
100
AcDbRegAppTableRecord
  2
GEVID1208845779
 70
     0
  0
APPID
  5
44E
330
9
100
AcDbSymbolTableRecord
100
AcDbRegAppTableRecord
  2
GEVID1208845780
 70
     0
  0
APPID
  5
44F
330
9
100
AcDbSymbolTableRecord
100
AcDbRegAppTableRecord
  2
GEVID1208845781
 70
     0
  0
APPID
  5
450
330
9
100
AcDbSymbolTableRecord
100
AcDbRegAppTableRecord
  2
GEVID1208845782
 70
     0
  0
APPID
  5
451
330
9
100
AcDbSymbolTableRecord
100
AcDbRegAppTableRecord
  2
GEVID1208845783
 70
     0
  0
APPID
  5
452
330
9
100
AcDbSymbolTableRecord
100
AcDbRegAppTableRecord
  2
GEVID1208845784
 70
     0
  0
APPID
  5
453
330
9
100
AcDbSymbolTableRecord
100
AcDbRegAppTableRecord
  2
GEVID1208845785
 70
     0
  0
APPID
  5
454
330
9
100
AcDbSymbolTableRecord
100
AcDbRegAppTableRecord
  2
GEVID1208845787
 70
     0
  0
APPID
  5
455
330
9
100
AcDbSymbolTableRecord
100
AcDbRegAppTableRecord
  2
GEVID1208845788
 70
     0
  0
APPID
  5
456
330
9
100
AcDbSymbolTableRecord
100
AcDbRegAppTableRecord
  2
GEVID1208845789
 70
     0
  0
APPID
  5
457
330
9
100
AcDbSymbolTableRecord
100
AcDbRegAppTableRecord
  2
GEVID1208845790
 70
     0
  0
APPID
  5
458
330
9
100
AcDbSymbolTableRecord
100
AcDbRegAppTableRecord
  2
GEVID1208845791
 70
     0
  0
APPID
  5
459
330
9
100
AcDbSymbolTableRecord
100
AcDbRegAppTableRecord
  2
GEVID1208845792
 70
     0
  0
APPID
  5
45A
330
9
100
AcDbSymbolTableRecord
100
AcDbRegAppTableRecord
  2
GEVID1208845793
 70
     0
  0
APPID
  5
45B
330
9
100
AcDbSymbolTableRecord
100
AcDbRegAppTableRecord
  2
GEVID1208845794
 70
     0
  0
APPID
  5
45C
330
9
100
AcDbSymbolTableRecord
100
AcDbRegAppTableRecord
  2
GEVID1208845795
 70
     0
  0
APPID
  5
45D
330
9
100
AcDbSymbolTableRecord
100
AcDbRegAppTableRecord
  2
GEVID1208845796
 70
     0
  0
APPID
  5
45E
330
9
100
AcDbSymbolTableRecord
100
AcDbRegAppTableRecord
  2
GEVID1208845797
 70
     0
  0
APPID
  5
45F
330
9
100
AcDbSymbolTableRecord
100
AcDbRegAppTableRecord
  2
GEVID1208845798
 70
     0
  0
APPID
  5
460
330
9
100
AcDbSymbolTableRecord
100
AcDbRegAppTableRecord
  2
GEVID1208845799
 70
     0
  0
APPID
  5
461
330
9
100
AcDbSymbolTableRecord
100
AcDbRegAppTableRecord
  2
GEVID1208845800
 70
     0
  0
APPID
  5
462
330
9
100
AcDbSymbolTableRecord
100
AcDbRegAppTableRecord
  2
GEVID1208845801
 70
     0
  0
APPID
  5
463
330
9
100
AcDbSymbolTableRecord
100
AcDbRegAppTableRecord
  2
GEVID1208845802
 70
     0
  0
APPID
  5
464
330
9
100
AcDbSymbolTableRecord
100
AcDbRegAppTableRecord
  2
GENIUS_GENOBJ-N-DIM_13
 70
     0
  0
APPID
  5
465
330
9
100
AcDbSymbolTableRecord
100
AcDbRegAppTableRecord
  2
GENIUS_GENDIM_13
 70
     0
  0
APPID
  5
466
330
9
100
AcDbSymbolTableRecord
100
AcDbRegAppTableRecord
  2
GENIUS_GENDIMSH_14
 70
     0
  0
APPID
  5
467
330
9
100
AcDbSymbolTableRecord
100
AcDbRegAppTableRecord
  2
GEVID1208845803
 70
     0
  0
APPID
  5
468
330
9
100
AcDbSymbolTableRecord
100
AcDbRegAppTableRecord
  2
GEVID1208845804
 70
     0
  0
APPID
  5
469
330
9
100
AcDbSymbolTableRecord
100
AcDbRegAppTableRecord
  2
GEVID1208845805
 70
     0
  0
APPID
  5
46A
330
9
100
AcDbSymbolTableRecord
100
AcDbRegAppTableRecord
  2
GEVID1208845806
 70
     0
  0
APPID
  5
46B
330
9
100
AcDbSymbolTableRecord
100
AcDbRegAppTableRecord
  2
GEVID1208845807
 70
     0
  0
APPID
  5
46C
330
9
100
AcDbSymbolTableRecord
100
AcDbRegAppTableRecord
  2
GEVID1208845808
 70
     0
  0
APPID
  5
46D
330
9
100
AcDbSymbolTableRecord
100
AcDbRegAppTableRecord
  2
GEVID1208845809
 70
     0
  0
APPID
  5
46E
330
9
100
AcDbSymbolTableRecord
100
AcDbRegAppTableRecord
  2
GEVID1208845810
 70
     0
  0
APPID
  5
46F
330
9
100
AcDbSymbolTableRecord
100
AcDbRegAppTableRecord
  2
GEVID1208845811
 70
     0
  0
APPID
  5
470
330
9
100
AcDbSymbolTableRecord
100
AcDbRegAppTableRecord
  2
GEVID1208845813
 70
     0
  0
APPID
  5
471
330
9
100
AcDbSymbolTableRecord
100
AcDbRegAppTableRecord
  2
GEVID1208845814
 70
     0
  0
APPID
  5
472
330
9
100
AcDbSymbolTableRecord
100
AcDbRegAppTableRecord
  2
GEVID1208845815
 70
     0
  0
APPID
  5
473
330
9
100
AcDbSymbolTableRecord
100
AcDbRegAppTableRecord
  2
GEVID1208845816
 70
     0
  0
APPID
  5
474
330
9
100
AcDbSymbolTableRecord
100
AcDbRegAppTableRecord
  2
GEVID1208845817
 70
     0
  0
APPID
  5
475
330
9
100
AcDbSymbolTableRecord
100
AcDbRegAppTableRecord
  2
GEVID1208845818
 70
     0
  0
APPID
  5
476
330
9
100
AcDbSymbolTableRecord
100
AcDbRegAppTableRecord
  2
GEVID1208845819
 70
     0
  0
APPID
  5
477
330
9
100
AcDbSymbolTableRecord
100
AcDbRegAppTableRecord
  2
GEVID1208845820
 70
     0
  0
APPID
  5
478
330
9
100
AcDbSymbolTableRecord
100
AcDbRegAppTableRecord
  2
GENIUS_GENOBJ-F-SHCL_13
 70
     0
  0
APPID
  5
479
330
9
100
AcDbSymbolTableRecord
100
AcDbRegAppTableRecord
  2
GENIUS_GEFMSH_13
 70
     0
  0
APPID
  5
47A
330
9
100
AcDbSymbolTableRecord
100
AcDbRegAppTableRecord
  2
GENIUS_GENOBJ-F-SHCA_13
 70
     0
  0
APPID
  5
47B
330
9
100
AcDbSymbolTableRecord
100
AcDbRegAppTableRecord
  2
GENIUS_GEFSH_13
 70
     0
  0
APPID
  5
47C
330
9
100
AcDbSymbolTableRecord
100
AcDbRegAppTableRecord
  2
GENIUS_GEFSHP_13
 70
     0
  0
APPID
  5
47D
330
9
100
AcDbSymbolTableRecord
100
AcDbRegAppTableRecord
  2
GENIUS_GEFSHP0_13
 70
     0
  0
APPID
  5
47E
330
9
100
AcDbSymbolTableRecord
100
AcDbRegAppTableRecord
  2
GENIUS_GEFSH0_13
 70
     0
  0
APPID
  5
47F
330
9
100
AcDbSymbolTableRecord
100
AcDbRegAppTableRecord
  2
GENIUS_GEFSHP1_13
 70
     0
  0
APPID
  5
480
330
9
100
AcDbSymbolTableRecord
100
AcDbRegAppTableRecord
  2
GENIUS_GEFSH1_13
 70
     0
  0
APPID
  5
481
330
9
100
AcDbSymbolTableRecord
100
AcDbRegAppTableRecord
  2
GEVID1208866337
 70
     0
  0
APPID
  5
482
330
9
100
AcDbSymbolTableRecord
100
AcDbRegAppTableRecord
  2
GEVID1208866338
 70
     0
  0
APPID
  5
483
330
9
100
AcDbSymbolTableRecord
100
AcDbRegAppTableRecord
  2
GEVID1208866339
 70
     0
  0
APPID
  5
484
330
9
100
AcDbSymbolTableRecord
100
AcDbRegAppTableRecord
  2
GEVID1208866340
 70
     0
  0
APPID
  5
485
330
9
100
AcDbSymbolTableRecord
100
AcDbRegAppTableRecord
  2
GEVID1208866341
 70
     0
  0
APPID
  5
486
330
9
100
AcDbSymbolTableRecord
100
AcDbRegAppTableRecord
  2
ACAD_PSEXT
 70
     0
  0
APPID
  5
487
330
9
100
AcDbSymbolTableRecord
100
AcDbRegAppTableRecord
  2
GEVID1208866342
 70
     0
  0
APPID
  5
488
330
9
100
AcDbSymbolTableRecord
100
AcDbRegAppTableRecord
  2
GEVID1208913836
 70
     0
  0
APPID
  5
489
330
9
100
AcDbSymbolTableRecord
100
AcDbRegAppTableRecord
  2
GEVID1208913837
 70
     0
  0
APPID
  5
48A
330
9
100
AcDbSymbolTableRecord
100
AcDbRegAppTableRecord
  2
GEVID1208913838
 70
     0
  0
APPID
  5
48B
330
9
100
AcDbSymbolTableRecord
100
AcDbRegAppTableRecord
  2
GEVID1208913839
 70
     0
  0
APPID
  5
48C
330
9
100
AcDbSymbolTableRecord
100
AcDbRegAppTableRecord
  2
GENIUS_GENDTOL_13
 70
     0
  0
APPID
  5
48D
330
9
100
AcDbSymbolTableRecord
100
AcDbRegAppTableRecord
  2
GEVID1208928889
 70
     0
  0
APPID
  5
48E
330
9
100
AcDbSymbolTableRecord
100
AcDbRegAppTableRecord
  2
GEVID1208928890
 70
     0
  0
APPID
  5
48F
330
9
100
AcDbSymbolTableRecord
100
AcDbRegAppTableRecord
  2
GEVID1208928891
 70
     0
  0
APPID
  5
490
330
9
100
AcDbSymbolTableRecord
100
AcDbRegAppTableRecord
  2
GEVID1208928892
 70
     0
  0
APPID
  5
491
330
9
100
AcDbSymbolTableRecord
100
AcDbRegAppTableRecord
  2
GEVID1208933827
 70
     0
  0
APPID
  5
492
330
9
100
AcDbSymbolTableRecord
100
AcDbRegAppTableRecord
  2
GEVID1208933829
 70
     0
  0
APPID
  5
493
330
9
100
AcDbSymbolTableRecord
100
AcDbRegAppTableRecord
  2
GEVID1208933830
 70
     0
  0
APPID
  5
494
330
9
100
AcDbSymbolTableRecord
100
AcDbRegAppTableRecord
  2
GEVID1208933831
 70
     0
  0
APPID
  5
495
330
9
100
AcDbSymbolTableRecord
100
AcDbRegAppTableRecord
  2
GEVID1208933832
 70
     0
  0
APPID
  5
496
330
9
100
AcDbSymbolTableRecord
100
AcDbRegAppTableRecord
  2
GEVID1208933833
 70
     0
  0
APPID
  5
497
330
9
100
AcDbSymbolTableRecord
100
AcDbRegAppTableRecord
  2
GEVID1208933834
 70
     0
  0
APPID
  5
498
330
9
100
AcDbSymbolTableRecord
100
AcDbRegAppTableRecord
  2
GEVID1208933835
 70
     0
  0
APPID
  5
499
330
9
100
AcDbSymbolTableRecord
100
AcDbRegAppTableRecord
  2
GEVID1208933836
 70
     0
  0
APPID
  5
49A
330
9
100
AcDbSymbolTableRecord
100
AcDbRegAppTableRecord
  2
GEVID1208933837
 70
     0
  0
APPID
  5
49B
330
9
100
AcDbSymbolTableRecord
100
AcDbRegAppTableRecord
  2
GEVID1208933838
 70
     0
  0
APPID
  5
49C
330
9
100
AcDbSymbolTableRecord
100
AcDbRegAppTableRecord
  2
GEVID1208933840
 70
     0
  0
APPID
  5
49D
330
9
100
AcDbSymbolTableRecord
100
AcDbRegAppTableRecord
  2
GEVID1208933842
 70
     0
  0
APPID
  5
49E
330
9
100
AcDbSymbolTableRecord
100
AcDbRegAppTableRecord
  2
GEVID1208933843
 70
     0
  0
APPID
  5
49F
330
9
100
AcDbSymbolTableRecord
100
AcDbRegAppTableRecord
  2
GEVID1208933844
 70
     0
  0
APPID
  5
4A0
330
9
100
AcDbSymbolTableRecord
100
AcDbRegAppTableRecord
  2
GEVID1208933845
 70
     0
  0
APPID
  5
4A1
330
9
100
AcDbSymbolTableRecord
100
AcDbRegAppTableRecord
  2
GEVID1208933846
 70
     0
  0
APPID
  5
4A2
330
9
100
AcDbSymbolTableRecord
100
AcDbRegAppTableRecord
  2
GEVID1208933847
 70
     0
  0
APPID
  5
4A3
330
9
100
AcDbSymbolTableRecord
100
AcDbRegAppTableRecord
  2
GEVID1208933848
 70
     0
  0
APPID
  5
4A4
330
9
100
AcDbSymbolTableRecord
100
AcDbRegAppTableRecord
  2
GEVID1208933849
 70
     0
  0
APPID
  5
4A5
330
9
100
AcDbSymbolTableRecord
100
AcDbRegAppTableRecord
  2
GEVID1208933850
 70
     0
  0
APPID
  5
4A6
330
9
100
AcDbSymbolTableRecord
100
AcDbRegAppTableRecord
  2
GEVID1208933851
 70
     0
  0
APPID
  5
4A7
330
9
100
AcDbSymbolTableRecord
100
AcDbRegAppTableRecord
  2
GEVID1208933852
 70
     0
  0
APPID
  5
4A8
330
9
100
AcDbSymbolTableRecord
100
AcDbRegAppTableRecord
  2
GEVID1208933853
 70
     0
  0
APPID
  5
4A9
330
9
100
AcDbSymbolTableRecord
100
AcDbRegAppTableRecord
  2
GEVID1208933854
 70
     0
  0
APPID
  5
4AA
330
9
100
AcDbSymbolTableRecord
100
AcDbRegAppTableRecord
  2
GEVID1208933855
 70
     0
  0
APPID
  5
4AB
330
9
100
AcDbSymbolTableRecord
100
AcDbRegAppTableRecord
  2
GEVID1208933856
 70
     0
  0
APPID
  5
4AC
330
9
100
AcDbSymbolTableRecord
100
AcDbRegAppTableRecord
  2
GEVID1208933857
 70
     0
  0
APPID
  5
4AD
330
9
100
AcDbSymbolTableRecord
100
AcDbRegAppTableRecord
  2
GEVID1208933858
 70
     0
  0
APPID
  5
4AE
330
9
100
AcDbSymbolTableRecord
100
AcDbRegAppTableRecord
  2
GEVID1208933859
 70
     0
  0
APPID
  5
4AF
330
9
100
AcDbSymbolTableRecord
100
AcDbRegAppTableRecord
  2
GEVID1208933860
 70
     0
  0
APPID
  5
4B0
330
9
100
AcDbSymbolTableRecord
100
AcDbRegAppTableRecord
  2
GEVID1208933861
 70
     0
  0
APPID
  5
4B1
330
9
100
AcDbSymbolTableRecord
100
AcDbRegAppTableRecord
  2
GEVID1208933862
 70
     0
  0
APPID
  5
4B2
330
9
100
AcDbSymbolTableRecord
100
AcDbRegAppTableRecord
  2
GEVID1208933863
 70
     0
  0
APPID
  5
4B3
330
9
100
AcDbSymbolTableRecord
100
AcDbRegAppTableRecord
  2
GEVID1208933864
 70
     0
  0
APPID
  5
4B4
330
9
100
AcDbSymbolTableRecord
100
AcDbRegAppTableRecord
  2
GEVID1208933865
 70
     0
  0
APPID
  5
4B5
330
9
100
AcDbSymbolTableRecord
100
AcDbRegAppTableRecord
  2
GEVID1208933866
 70
     0
  0
APPID
  5
4B6
330
9
100
AcDbSymbolTableRecord
100
AcDbRegAppTableRecord
  2
GEVID1208933867
 70
     0
  0
APPID
  5
4B7
330
9
100
AcDbSymbolTableRecord
100
AcDbRegAppTableRecord
  2
GEVID1208933868
 70
     0
  0
APPID
  5
4B8
330
9
100
AcDbSymbolTableRecord
100
AcDbRegAppTableRecord
  2
GEVID1208933869
 70
     0
  0
APPID
  5
4B9
330
9
100
AcDbSymbolTableRecord
100
AcDbRegAppTableRecord
  2
GEVID1208933870
 70
     0
  0
APPID
  5
4BA
330
9
100
AcDbSymbolTableRecord
100
AcDbRegAppTableRecord
  2
GEVID1208933871
 70
     0
  0
APPID
  5
4BB
330
9
100
AcDbSymbolTableRecord
100
AcDbRegAppTableRecord
  2
GEVID1208933872
 70
     0
  0
APPID
  5
4BC
330
9
100
AcDbSymbolTableRecord
100
AcDbRegAppTableRecord
  2
GEVID1208933873
 70
     0
  0
APPID
  5
4BD
330
9
100
AcDbSymbolTableRecord
100
AcDbRegAppTableRecord
  2
GEVID1208933874
 70
     0
  0
APPID
  5
4BE
330
9
100
AcDbSymbolTableRecord
100
AcDbRegAppTableRecord
  2
GEVID1208933875
 70
     0
  0
APPID
  5
4BF
330
9
100
AcDbSymbolTableRecord
100
AcDbRegAppTableRecord
  2
GEVID1208933876
 70
     0
  0
APPID
  5
4C0
330
9
100
AcDbSymbolTableRecord
100
AcDbRegAppTableRecord
  2
ACAD_DSTYLE_DIMRADIAL_EXTENSION
 70
     0
  0
APPID
  5
4C1
330
9
100
AcDbSymbolTableRecord
100
AcDbRegAppTableRecord
  2
GEVID1208999100
 70
     0
  0
APPID
  5
4C2
330
9
100
AcDbSymbolTableRecord
100
AcDbRegAppTableRecord
  2
GEVID1208999101
 70
     0
  0
APPID
  5
4C3
330
9
100
AcDbSymbolTableRecord
100
AcDbRegAppTableRecord
  2
GEVID1208999102
 70
     0
  0
APPID
  5
4C4
330
9
100
AcDbSymbolTableRecord
100
AcDbRegAppTableRecord
  2
GEVID1208999103
 70
     0
  0
APPID
  5
4C5
330
9
100
AcDbSymbolTableRecord
100
AcDbRegAppTableRecord
  2
GEVID1208999105
 70
     0
  0
APPID
  5
4C6
330
9
100
AcDbSymbolTableRecord
100
AcDbRegAppTableRecord
  2
GEVID1208999106
 70
     0
  0
APPID
  5
4C7
330
9
100
AcDbSymbolTableRecord
100
AcDbRegAppTableRecord
  2
GEVID1208999108
 70
     0
  0
APPID
  5
4C8
330
9
100
AcDbSymbolTableRecord
100
AcDbRegAppTableRecord
  2
GEVID1208999109
 70
     0
  0
APPID
  5
4C9
330
9
100
AcDbSymbolTableRecord
100
AcDbRegAppTableRecord
  2
GEVID1208999110
 70
     0
  0
APPID
  5
4CA
330
9
100
AcDbSymbolTableRecord
100
AcDbRegAppTableRecord
  2
GEVID1208999111
 70
     0
  0
APPID
  5
4CB
330
9
100
AcDbSymbolTableRecord
100
AcDbRegAppTableRecord
  2
GEVID1208999112
 70
     0
  0
APPID
  5
4CC
330
9
100
AcDbSymbolTableRecord
100
AcDbRegAppTableRecord
  2
GEVID1208999113
 70
     0
  0
APPID
  5
4CD
330
9
100
AcDbSymbolTableRecord
100
AcDbRegAppTableRecord
  2
GEVID1208999114
 70
     0
  0
APPID
  5
4CE
330
9
100
AcDbSymbolTableRecord
100
AcDbRegAppTableRecord
  2
GEVID1210218799
 70
     0
  0
APPID
  5
4CF
330
9
100
AcDbSymbolTableRecord
100
AcDbRegAppTableRecord
  2
GEVID1210218800
 70
     0
  0
APPID
  5
4D0
330
9
100
AcDbSymbolTableRecord
100
AcDbRegAppTableRecord
  2
GENIUS_GEFWELD_13
 70
     0
  0
APPID
  5
4D1
330
9
100
AcDbSymbolTableRecord
100
AcDbRegAppTableRecord
  2
GENIUS_GENOBJ-F-WELS_13
 70
     0
  0
APPID
  5
4D2
330
9
100
AcDbSymbolTableRecord
100
AcDbRegAppTableRecord
  2
AcadAnnotative
 70
     0
  0
APPID
  5
4D3
330
9
100
AcDbSymbolTableRecord
100
AcDbRegAppTableRecord
  2
GEVID1210145339
 70
     0
  0
APPID
  5
4D4
330
9
100
AcDbSymbolTableRecord
100
AcDbRegAppTableRecord
  2
ACAD_DSTYLE_DIMBREAK
 70
     0
  0
APPID
  5
4D5
330
9
100
AcDbSymbolTableRecord
100
AcDbRegAppTableRecord
  2
GEVID1210145340
 70
     0
  0
APPID
  5
4D6
330
9
100
AcDbSymbolTableRecord
100
AcDbRegAppTableRecord
  2
GEVID1210145341
 70
     0
  0
APPID
  5
4D7
330
9
100
AcDbSymbolTableRecord
100
AcDbRegAppTableRecord
  2
GEVID1210145342
 70
     0
  0
APPID
  5
4D8
330
9
100
AcDbSymbolTableRecord
100
AcDbRegAppTableRecord
  2
GEVID1210145343
 70
     0
  0
APPID
  5
4D9
330
9
100
AcDbSymbolTableRecord
100
AcDbRegAppTableRecord
  2
GEVID1210145344
 70
     0
  0
APPID
  5
4DA
330
9
100
AcDbSymbolTableRecord
100
AcDbRegAppTableRecord
  2
GEVID1210145345
 70
     0
  0
APPID
  5
4DB
330
9
100
AcDbSymbolTableRecord
100
AcDbRegAppTableRecord
  2
GEVID1210152816
 70
     0
  0
APPID
  5
4DC
330
9
100
AcDbSymbolTableRecord
100
AcDbRegAppTableRecord
  2
GEVID1210153850
 70
     0
  0
APPID
  5
4DD
330
9
100
AcDbSymbolTableRecord
100
AcDbRegAppTableRecord
  2
GEVID1210153851
 70
     0
  0
APPID
  5
4DE
330
9
100
AcDbSymbolTableRecord
100
AcDbRegAppTableRecord
  2
GEVID1210153852
 70
     0
  0
APPID
  5
4DF
330
9
100
AcDbSymbolTableRecord
100
AcDbRegAppTableRecord
  2
GEVID1210549898
 70
     0
  0
APPID
  5
4E0
330
9
100
AcDbSymbolTableRecord
100
AcDbRegAppTableRecord
  2
GEVID1210549899
 70
     0
  0
APPID
  5
4E1
330
9
100
AcDbSymbolTableRecord
100
AcDbRegAppTableRecord
  2
GEVID1210549900
 70
     0
  0
APPID
  5
4E2
330
9
100
AcDbSymbolTableRecord
100
AcDbRegAppTableRecord
  2
GEVID1210549901
 70
     0
  0
APPID
  5
4E3
330
9
100
AcDbSymbolTableRecord
100
AcDbRegAppTableRecord
  2
GEVID1210549902
 70
     0
  0
APPID
  5
4E4
330
9
100
AcDbSymbolTableRecord
100
AcDbRegAppTableRecord
  2
GEVID1210549903
 70
     0
  0
APPID
  5
4E5
330
9
100
AcDbSymbolTableRecord
100
AcDbRegAppTableRecord
  2
GEVID1210549904
 70
     0
  0
APPID
  5
4E6
330
9
100
AcDbSymbolTableRecord
100
AcDbRegAppTableRecord
  2
GEVID1210549905
 70
     0
  0
APPID
  5
4E7
330
9
100
AcDbSymbolTableRecord
100
AcDbRegAppTableRecord
  2
GEVID1210549906
 70
     0
  0
APPID
  5
4E8
330
9
100
AcDbSymbolTableRecord
100
AcDbRegAppTableRecord
  2
GEVID1210549907
 70
     0
  0
APPID
  5
4E9
330
9
100
AcDbSymbolTableRecord
100
AcDbRegAppTableRecord
  2
GEVID1210549908
 70
     0
  0
APPID
  5
4EA
330
9
100
AcDbSymbolTableRecord
100
AcDbRegAppTableRecord
  2
GEVID1210549909
 70
     0
  0
APPID
  5
4EB
330
9
100
AcDbSymbolTableRecord
100
AcDbRegAppTableRecord
  2
GEVID1210549910
 70
     0
  0
APPID
  5
4EC
330
9
100
AcDbSymbolTableRecord
100
AcDbRegAppTableRecord
  2
GEVID1210549911
 70
     0
  0
APPID
  5
4ED
330
9
100
AcDbSymbolTableRecord
100
AcDbRegAppTableRecord
  2
GEVID1210549912
 70
     0
  0
APPID
  5
4EE
330
9
100
AcDbSymbolTableRecord
100
AcDbRegAppTableRecord
  2
GEVID1210549913
 70
     0
  0
APPID
  5
4EF
330
9
100
AcDbSymbolTableRecord
100
AcDbRegAppTableRecord
  2
GEVID1210549914
 70
     0
  0
APPID
  5
4F0
330
9
100
AcDbSymbolTableRecord
100
AcDbRegAppTableRecord
  2
GEVID1210549915
 70
     0
  0
APPID
  5
4F1
330
9
100
AcDbSymbolTableRecord
100
AcDbRegAppTableRecord
  2
GEVID1210549916
 70
     0
  0
APPID
  5
4F2
330
9
100
AcDbSymbolTableRecord
100
AcDbRegAppTableRecord
  2
GEVID1210549917
 70
     0
  0
APPID
  5
4F3
330
9
100
AcDbSymbolTableRecord
100
AcDbRegAppTableRecord
  2
GENIUS_GENOBJ-N-CRS_13
 70
     0
  0
APPID
  5
4F4
330
9
100
AcDbSymbolTableRecord
100
AcDbRegAppTableRecord
  2
GEVID1210549918
 70
     0
  0
APPID
  5
4F5
330
9
100
AcDbSymbolTableRecord
100
AcDbRegAppTableRecord
  2
GENIUS_GENOBJ-N-CRC_13
 70
     0
  0
APPID
  5
4F6
330
9
100
AcDbSymbolTableRecord
100
AcDbRegAppTableRecord
  2
GENIUS_GENCRC_14
 70
     0
  0
APPID
  5
4F7
330
9
100
AcDbSymbolTableRecord
100
AcDbRegAppTableRecord
  2
GEVID1210549919
 70
     0
  0
APPID
  5
4F8
330
9
100
AcDbSymbolTableRecord
100
AcDbRegAppTableRecord
  2
GEVID1210549921
 70
     0
  0
APPID
  5
4F9
330
9
100
AcDbSymbolTableRecord
100
AcDbRegAppTableRecord
  2
GEVID1210549922
 70
     0
  0
APPID
  5
4FA
330
9
100
AcDbSymbolTableRecord
100
AcDbRegAppTableRecord
  2
GEVID1210635173
 70
     0
  0
APPID
  5
4FB
330
9
100
AcDbSymbolTableRecord
100
AcDbRegAppTableRecord
  2
GEVID1210635174
 70
     0
  0
APPID
  5
4FC
330
9
100
AcDbSymbolTableRecord
100
AcDbRegAppTableRecord
  2
GEVID1210635175
 70
     0
  0
APPID
  5
4FD
330
9
100
AcDbSymbolTableRecord
100
AcDbRegAppTableRecord
  2
GEVID1210635176
 70
     0
  0
APPID
  5
4FE
330
9
100
AcDbSymbolTableRecord
100
AcDbRegAppTableRecord
  2
GEVID1210635177
 70
     0
  0
APPID
  5
4FF
330
9
100
AcDbSymbolTableRecord
100
AcDbRegAppTableRecord
  2
GEVID1210635178
 70
     0
  0
APPID
  5
500
330
9
100
AcDbSymbolTableRecord
100
AcDbRegAppTableRecord
  2
GENIUS_GENIUS_GENBHEDTMP_13
 70
     0
  0
APPID
  5
501
330
9
100
AcDbSymbolTableRecord
100
AcDbRegAppTableRecord
  2
GEVID1210635179
 70
     0
  0
APPID
  5
502
330
9
100
AcDbSymbolTableRecord
100
AcDbRegAppTableRecord
  2
GEVID1210635180
 70
     0
  0
APPID
  5
503
330
9
100
AcDbSymbolTableRecord
100
AcDbRegAppTableRecord
  2
GEVID1210635181
 70
     0
  0
APPID
  5
504
330
9
100
AcDbSymbolTableRecord
100
AcDbRegAppTableRecord
  2
GEVID1210635182
 70
     0
  0
APPID
  5
505
330
9
100
AcDbSymbolTableRecord
100
AcDbRegAppTableRecord
  2
GEVID1210635184
 70
     0
  0
APPID
  5
506
330
9
100
AcDbSymbolTableRecord
100
AcDbRegAppTableRecord
  2
GEVID1210635185
 70
     0
  0
APPID
  5
507
330
9
100
AcDbSymbolTableRecord
100
AcDbRegAppTableRecord
  2
GEVID1210635186
 70
     0
  0
APPID
  5
508
330
9
100
AcDbSymbolTableRecord
100
AcDbRegAppTableRecord
  2
GEVID1210635187
 70
     0
  0
APPID
  5
509
330
9
100
AcDbSymbolTableRecord
100
AcDbRegAppTableRecord
  2
GEVID1210635188
 70
     0
  0
APPID
  5
50A
330
9
100
AcDbSymbolTableRecord
100
AcDbRegAppTableRecord
  2
GEVID1210635189
 70
     0
  0
APPID
  5
50B
330
9
100
AcDbSymbolTableRecord
100
AcDbRegAppTableRecord
  2
GEVID1210635190
 70
     0
  0
APPID
  5
50C
330
9
100
AcDbSymbolTableRecord
100
AcDbRegAppTableRecord
  2
GENIUS_GENREC_14
 70
     0
  0
APPID
  5
50D
330
9
100
AcDbSymbolTableRecord
100
AcDbRegAppTableRecord
  2
GENIUS_GENOBJ-N-REC_13
 70
     0
  0
APPID
  5
50E
330
9
100
AcDbSymbolTableRecord
100
AcDbRegAppTableRecord
  2
GEVID1210676655
 70
     0
  0
APPID
  5
50F
330
9
100
AcDbSymbolTableRecord
100
AcDbRegAppTableRecord
  2
GEVID1210676656
 70
     0
  0
APPID
  5
510
330
9
100
AcDbSymbolTableRecord
100
AcDbRegAppTableRecord
  2
GEVID1210676657
 70
     0
  0
APPID
  5
511
330
9
100
AcDbSymbolTableRecord
100
AcDbRegAppTableRecord
  2
GEVID1210676659
 70
     0
  0
APPID
  5
512
330
9
100
AcDbSymbolTableRecord
100
AcDbRegAppTableRecord
  2
GEVID1210676660
 70
     0
  0
APPID
  5
513
330
9
100
AcDbSymbolTableRecord
100
AcDbRegAppTableRecord
  2
GEVID1210676661
 70
     0
  0
APPID
  5
514
330
9
100
AcDbSymbolTableRecord
100
AcDbRegAppTableRecord
  2
GEVID1210676662
 70
     0
  0
APPID
  5
515
330
9
100
AcDbSymbolTableRecord
100
AcDbRegAppTableRecord
  2
GEVID1210721646
 70
     0
  0
APPID
  5
516
330
9
100
AcDbSymbolTableRecord
100
AcDbRegAppTableRecord
  2
GEVID1210721647
 70
     0
  0
APPID
  5
517
330
9
100
AcDbSymbolTableRecord
100
AcDbRegAppTableRecord
  2
GEVID1210721648
 70
     0
  0
APPID
  5
518
330
9
100
AcDbSymbolTableRecord
100
AcDbRegAppTableRecord
  2
GEVID1210721649
 70
     0
  0
APPID
  5
519
330
9
100
AcDbSymbolTableRecord
100
AcDbRegAppTableRecord
  2
GEVID1210721650
 70
     0
  0
APPID
  5
51A
330
9
100
AcDbSymbolTableRecord
100
AcDbRegAppTableRecord
  2
GEVID1210721651
 70
     0
  0
APPID
  5
51B
330
9
100
AcDbSymbolTableRecord
100
AcDbRegAppTableRecord
  2
GEVID1210721652
 70
     0
  0
APPID
  5
51C
330
9
100
AcDbSymbolTableRecord
100
AcDbRegAppTableRecord
  2
GEVID1210721653
 70
     0
  0
APPID
  5
51D
330
9
100
AcDbSymbolTableRecord
100
AcDbRegAppTableRecord
  2
PE_URL
 70
     0
  0
APPID
  5
51E
330
9
100
AcDbSymbolTableRecord
100
AcDbRegAppTableRecord
  2
GEVID1210825555
 70
     0
  0
APPID
  5
51F
330
9
100
AcDbSymbolTableRecord
100
AcDbRegAppTableRecord
  2
GEVID1210825556
 70
     0
  0
APPID
  5
520
330
9
100
AcDbSymbolTableRecord
100
AcDbRegAppTableRecord
  2
GEVID1210825557
 70
     0
  0
APPID
  5
521
330
9
100
AcDbSymbolTableRecord
100
AcDbRegAppTableRecord
  2
GEVID1210825558
 70
     0
  0
APPID
  5
522
330
9
100
AcDbSymbolTableRecord
100
AcDbRegAppTableRecord
  2
GEVID1210825559
 70
     0
  0
APPID
  5
523
330
9
100
AcDbSymbolTableRecord
100
AcDbRegAppTableRecord
  2
GEVID1210825560
 70
     0
  0
APPID
  5
524
330
9
100
AcDbSymbolTableRecord
100
AcDbRegAppTableRecord
  2
GEVID1210825561
 70
     0
  0
APPID
  5
525
330
9
100
AcDbSymbolTableRecord
100
AcDbRegAppTableRecord
  2
GEVID1210825562
 70
     0
  0
APPID
  5
526
330
9
100
AcDbSymbolTableRecord
100
AcDbRegAppTableRecord
  2
GEVID1210825563
 70
     0
  0
APPID
  5
527
330
9
100
AcDbSymbolTableRecord
100
AcDbRegAppTableRecord
  2
GEVID1210825564
 70
     0
  0
APPID
  5
528
330
9
100
AcDbSymbolTableRecord
100
AcDbRegAppTableRecord
  2
GEVID1210825565
 70
     0
  0
APPID
  5
529
330
9
100
AcDbSymbolTableRecord
100
AcDbRegAppTableRecord
  2
GEVID1210825566
 70
     0
  0
APPID
  5
52A
330
9
100
AcDbSymbolTableRecord
100
AcDbRegAppTableRecord
  2
GEVID1210825567
 70
     0
  0
APPID
  5
52B
330
9
100
AcDbSymbolTableRecord
100
AcDbRegAppTableRecord
  2
GENIUS_GENOBJ-N-ZOO_13
 70
     0
  0
APPID
  5
52C
330
9
100
AcDbSymbolTableRecord
100
AcDbRegAppTableRecord
  2
GENIUS_GENZOO_17
 70
     0
  0
APPID
  5
52D
330
9
100
AcDbSymbolTableRecord
100
AcDbRegAppTableRecord
  2
ACADANNOTATIVEDECOMPOSITION
 70
     0
  0
APPID
  5
52E
330
9
100
AcDbSymbolTableRecord
100
AcDbRegAppTableRecord
  2
GENIUS_GENOBJ-N-HTC_13
 70
     0
  0
APPID
  5
52F
330
9
100
AcDbSymbolTableRecord
100
AcDbRegAppTableRecord
  2
GENIUS_GENHATCH_13
 70
     0
  0
APPID
  5
530
330
9
100
AcDbSymbolTableRecord
100
AcDbRegAppTableRecord
  2
GEVID1210896020
 70
     0
  0
APPID
  5
531
330
9
100
AcDbSymbolTableRecord
100
AcDbRegAppTableRecord
  2
GEVID1210896021
 70
     0
  0
APPID
  5
532
330
9
100
AcDbSymbolTableRecord
100
AcDbRegAppTableRecord
  2
GEVID1209083540
 70
     0
  0
APPID
  5
533
330
9
100
AcDbSymbolTableRecord
100
AcDbRegAppTableRecord
  2
GEVMK
 70
     0
  0
APPID
  5
534
330
9
100
AcDbSymbolTableRecord
100
AcDbRegAppTableRecord
  2
GEVID1209083542
 70
     0
  0
APPID
  5
535
330
9
100
AcDbSymbolTableRecord
100
AcDbRegAppTableRecord
  2
GEVID1209083543
 70
     0
  0
APPID
  5
536
330
9
100
AcDbSymbolTableRecord
100
AcDbRegAppTableRecord
  2
GEVID1209083544
 70
     0
  0
APPID
  5
537
330
9
100
AcDbSymbolTableRecord
100
AcDbRegAppTableRecord
  2
GEVID1209083545
 70
     0
  0
APPID
  5
538
330
9
100
AcDbSymbolTableRecord
100
AcDbRegAppTableRecord
  2
GEVID1209083546
 70
     0
  0
APPID
  5
539
330
9
100
AcDbSymbolTableRecord
100
AcDbRegAppTableRecord
  2
GEVID1209083547
 70
     0
  0
APPID
  5
53A
330
9
100
AcDbSymbolTableRecord
100
AcDbRegAppTableRecord
  2
GEVID1209083548
 70
     0
  0
APPID
  5
53B
330
9
100
AcDbSymbolTableRecord
100
AcDbRegAppTableRecord
  2
GEVID1209083549
 70
     0
  0
APPID
  5
53C
330
9
100
AcDbSymbolTableRecord
100
AcDbRegAppTableRecord
  2
GEVID1209083550
 70
     0
  0
APPID
  5
53D
330
9
100
AcDbSymbolTableRecord
100
AcDbRegAppTableRecord
  2
GEVID1209083551
 70
     0
  0
APPID
  5
53E
330
9
100
AcDbSymbolTableRecord
100
AcDbRegAppTableRecord
  2
GEVID1209083552
 70
     0
  0
APPID
  5
53F
330
9
100
AcDbSymbolTableRecord
100
AcDbRegAppTableRecord
  2
GEVID1209083553
 70
     0
  0
APPID
  5
540
330
9
100
AcDbSymbolTableRecord
100
AcDbRegAppTableRecord
  2
GEVID1210896022
 70
     0
  0
APPID
  5
541
330
9
100
AcDbSymbolTableRecord
100
AcDbRegAppTableRecord
  2
GEVID1211508364
 70
     0
  0
APPID
  5
542
330
9
100
AcDbSymbolTableRecord
100
AcDbRegAppTableRecord
  2
GEVID1211414908
 70
     0
  0
APPID
  5
543
330
9
100
AcDbSymbolTableRecord
100
AcDbRegAppTableRecord
  2
GEVID1211414909
 70
     0
  0
APPID
  5
544
330
9
100
AcDbSymbolTableRecord
100
AcDbRegAppTableRecord
  2
GEVID1211508359
 70
     0
  0
APPID
  5
545
330
9
100
AcDbSymbolTableRecord
100
AcDbRegAppTableRecord
  2
GEVID1211508360
 70
     0
  0
APPID
  5
546
330
9
100
AcDbSymbolTableRecord
100
AcDbRegAppTableRecord
  2
GEVID1211508361
 70
     0
  0
APPID
  5
547
330
9
100
AcDbSymbolTableRecord
100
AcDbRegAppTableRecord
  2
GEVID1211508362
 70
     0
  0
APPID
  5
548
330
9
100
AcDbSymbolTableRecord
100
AcDbRegAppTableRecord
  2
GEVID1211508363
 70
     0
  0
APPID
  5
549
330
9
100
AcDbSymbolTableRecord
100
AcDbRegAppTableRecord
  2
GEVID1211878469
 70
     0
  0
APPID
  5
54A
330
9
100
AcDbSymbolTableRecord
100
AcDbRegAppTableRecord
  2
GEVID1212642819
 70
     0
  0
APPID
  5
54B
330
9
100
AcDbSymbolTableRecord
100
AcDbRegAppTableRecord
  2
GEVID1212642820
 70
     0
  0
APPID
  5
54C
330
9
100
AcDbSymbolTableRecord
100
AcDbRegAppTableRecord
  2
GEVID1212642821
 70
     0
  0
APPID
  5
54D
330
9
100
AcDbSymbolTableRecord
100
AcDbRegAppTableRecord
  2
GEVID1212642822
 70
     0
  0
APPID
  5
54E
330
9
100
AcDbSymbolTableRecord
100
AcDbRegAppTableRecord
  2
GEVID1212642823
 70
     0
  0
APPID
  5
54F
330
9
100
AcDbSymbolTableRecord
100
AcDbRegAppTableRecord
  2
GEVID1212642825
 70
     0
  0
APPID
  5
550
330
9
100
AcDbSymbolTableRecord
100
AcDbRegAppTableRecord
  2
GEVID1212642826
 70
     0
  0
APPID
  5
551
330
9
100
AcDbSymbolTableRecord
100
AcDbRegAppTableRecord
  2
GEVID1212642827
 70
     0
  0
APPID
  5
552
330
9
100
AcDbSymbolTableRecord
100
AcDbRegAppTableRecord
  2
GEVID1212642828
 70
     0
  0
APPID
  5
553
330
9
100
AcDbSymbolTableRecord
100
AcDbRegAppTableRecord
  2
GEVID1212642831
 70
     0
  0
APPID
  5
554
330
9
100
AcDbSymbolTableRecord
100
AcDbRegAppTableRecord
  2
GEVID1212642834
 70
     0
  0
APPID
  5
555
330
9
100
AcDbSymbolTableRecord
100
AcDbRegAppTableRecord
  2
GEVID1212642835
 70
     0
  0
APPID
  5
556
330
9
100
AcDbSymbolTableRecord
100
AcDbRegAppTableRecord
  2
GEVID1212642836
 70
     0
  0
APPID
  5
557
330
9
100
AcDbSymbolTableRecord
100
AcDbRegAppTableRecord
  2
GEVID1212642837
 70
     0
  0
APPID
  5
558
330
9
100
AcDbSymbolTableRecord
100
AcDbRegAppTableRecord
  2
GEVID1212642839
 70
     0
  0
APPID
  5
559
330
9
100
AcDbSymbolTableRecord
100
AcDbRegAppTableRecord
  2
GEVID1212642840
 70
     0
  0
APPID
  5
55A
330
9
100
AcDbSymbolTableRecord
100
AcDbRegAppTableRecord
  2
GEVID1212642841
 70
     0
  0
APPID
  5
55B
330
9
100
AcDbSymbolTableRecord
100
AcDbRegAppTableRecord
  2
GEVID1212655312
 70
     0
  0
APPID
  5
55C
330
9
100
AcDbSymbolTableRecord
100
AcDbRegAppTableRecord
  2
GEVID1212655313
 70
     0
  0
APPID
  5
55D
330
9
100
AcDbSymbolTableRecord
100
AcDbRegAppTableRecord
  2
GEVID1212656533
 70
     0
  0
APPID
  5
55E
330
9
100
AcDbSymbolTableRecord
100
AcDbRegAppTableRecord
  2
GEVID1212656534
 70
     0
  0
APPID
  5
55F
330
9
100
AcDbSymbolTableRecord
100
AcDbRegAppTableRecord
  2
GEVID1212656535
 70
     0
  0
APPID
  5
560
330
9
100
AcDbSymbolTableRecord
100
AcDbRegAppTableRecord
  2
GEVID1212656536
 70
     0
  0
APPID
  5
561
330
9
100
AcDbSymbolTableRecord
100
AcDbRegAppTableRecord
  2
GEVID1212656538
 70
     0
  0
APPID
  5
562
330
9
100
AcDbSymbolTableRecord
100
AcDbRegAppTableRecord
  2
GEVID1212656541
 70
     0
  0
APPID
  5
563
330
9
100
AcDbSymbolTableRecord
100
AcDbRegAppTableRecord
  2
GEVID1212656543
 70
     0
  0
APPID
  5
564
330
9
100
AcDbSymbolTableRecord
100
AcDbRegAppTableRecord
  2
GENIUS_GENOBJ-F-PFASSM_13
 70
     0
  0
APPID
  5
565
330
9
100
AcDbSymbolTableRecord
100
AcDbRegAppTableRecord
  2
GEVID1212656544
 70
     0
  0
APPID
  5
566
330
9
100
AcDbSymbolTableRecord
100
AcDbRegAppTableRecord
  2
GEVID1212656545
 70
     0
  0
APPID
  5
567
330
9
100
AcDbSymbolTableRecord
100
AcDbRegAppTableRecord
  2
GEVID1212656546
 70
     0
  0
APPID
  5
568
330
9
100
AcDbSymbolTableRecord
100
AcDbRegAppTableRecord
  2
GEVID1212656547
 70
     0
  0
APPID
  5
569
330
9
100
AcDbSymbolTableRecord
100
AcDbRegAppTableRecord
  2
GEVID1212656548
 70
     0
  0
APPID
  5
56A
330
9
100
AcDbSymbolTableRecord
100
AcDbRegAppTableRecord
  2
GEVID1212656549
 70
     0
  0
APPID
  5
56B
330
9
100
AcDbSymbolTableRecord
100
AcDbRegAppTableRecord
  2
GEVID1212656550
 70
     0
  0
APPID
  5
56C
330
9
100
AcDbSymbolTableRecord
100
AcDbRegAppTableRecord
  2
GEVID1212656552
 70
     0
  0
APPID
  5
56D
330
9
100
AcDbSymbolTableRecord
100
AcDbRegAppTableRecord
  2
GEVID1212656553
 70
     0
  0
APPID
  5
56E
330
9
100
AcDbSymbolTableRecord
100
AcDbRegAppTableRecord
  2
GEVID1212656554
 70
     0
  0
APPID
  5
56F
330
9
100
AcDbSymbolTableRecord
100
AcDbRegAppTableRecord
  2
GEVID1212656555
 70
     0
  0
APPID
  5
570
330
9
100
AcDbSymbolTableRecord
100
AcDbRegAppTableRecord
  2
GEVID1212656556
 70
     0
  0
APPID
  5
571
330
9
100
AcDbSymbolTableRecord
100
AcDbRegAppTableRecord
  2
GEVID1212656557
 70
     0
  0
APPID
  5
572
330
9
100
AcDbSymbolTableRecord
100
AcDbRegAppTableRecord
  2
GEVID1212656559
 70
     0
  0
APPID
  5
573
330
9
100
AcDbSymbolTableRecord
100
AcDbRegAppTableRecord
  2
GEVID1212656560
 70
     0
  0
APPID
  5
574
330
9
100
AcDbSymbolTableRecord
100
AcDbRegAppTableRecord
  2
GEVID1212656561
 70
     0
  0
APPID
  5
575
330
9
100
AcDbSymbolTableRecord
100
AcDbRegAppTableRecord
  2
GEVID1212656562
 70
     0
  0
APPID
  5
576
330
9
100
AcDbSymbolTableRecord
100
AcDbRegAppTableRecord
  2
GEVID1212656563
 70
     0
  0
APPID
  5
577
330
9
100
AcDbSymbolTableRecord
100
AcDbRegAppTableRecord
  2
GEVID1212711781
 70
     0
  0
APPID
  5
578
330
9
100
AcDbSymbolTableRecord
100
AcDbRegAppTableRecord
  2
GEVID1212711782
 70
     0
  0
APPID
  5
579
330
9
100
AcDbSymbolTableRecord
100
AcDbRegAppTableRecord
  2
GEVID1212711783
 70
     0
  0
APPID
  5
57A
330
9
100
AcDbSymbolTableRecord
100
AcDbRegAppTableRecord
  2
GEVID1212711784
 70
     0
  0
APPID
  5
57B
330
9
100
AcDbSymbolTableRecord
100
AcDbRegAppTableRecord
  2
GEVID1212711788
 70
     0
  0
APPID
  5
57C
330
9
100
AcDbSymbolTableRecord
100
AcDbRegAppTableRecord
  2
GEVID1212711789
 70
     0
  0
APPID
  5
57D
330
9
100
AcDbSymbolTableRecord
100
AcDbRegAppTableRecord
  2
GEVID1212711790
 70
     0
  0
APPID
  5
57E
330
9
100
AcDbSymbolTableRecord
100
AcDbRegAppTableRecord
  2
GEVID1212711791
 70
     0
  0
APPID
  5
57F
330
9
100
AcDbSymbolTableRecord
100
AcDbRegAppTableRecord
  2
GEVID1212711792
 70
     0
  0
APPID
  5
580
330
9
100
AcDbSymbolTableRecord
100
AcDbRegAppTableRecord
  2
GEVID1212711793
 70
     0
  0
APPID
  5
581
330
9
100
AcDbSymbolTableRecord
100
AcDbRegAppTableRecord
  2
GEVID1212711794
 70
     0
  0
APPID
  5
582
330
9
100
AcDbSymbolTableRecord
100
AcDbRegAppTableRecord
  2
GEVID1212711795
 70
     0
  0
APPID
  5
583
330
9
100
AcDbSymbolTableRecord
100
AcDbRegAppTableRecord
  2
GEVID1212711797
 70
     0
  0
APPID
  5
584
330
9
100
AcDbSymbolTableRecord
100
AcDbRegAppTableRecord
  2
GEVID1212711798
 70
     0
  0
APPID
  5
585
330
9
100
AcDbSymbolTableRecord
100
AcDbRegAppTableRecord
  2
GEVID1212711799
 70
     0
  0
APPID
  5
586
330
9
100
AcDbSymbolTableRecord
100
AcDbRegAppTableRecord
  2
GEVID1212711800
 70
     0
  0
APPID
  5
587
330
9
100
AcDbSymbolTableRecord
100
AcDbRegAppTableRecord
  2
GEVID1212711801
 70
     0
  0
APPID
  5
588
330
9
100
AcDbSymbolTableRecord
100
AcDbRegAppTableRecord
  2
GEVID1212711802
 70
     0
  0
APPID
  5
589
330
9
100
AcDbSymbolTableRecord
100
AcDbRegAppTableRecord
  2
GEVID1212711803
 70
     0
  0
APPID
  5
58A
330
9
100
AcDbSymbolTableRecord
100
AcDbRegAppTableRecord
  2
GEVID1212711804
 70
     0
  0
APPID
  5
58B
330
9
100
AcDbSymbolTableRecord
100
AcDbRegAppTableRecord
  2
GEVID1212711805
 70
     0
  0
APPID
  5
58C
330
9
100
AcDbSymbolTableRecord
100
AcDbRegAppTableRecord
  2
GEVID1212711806
 70
     0
  0
APPID
  5
58D
330
9
100
AcDbSymbolTableRecord
100
AcDbRegAppTableRecord
  2
GEVID1212711807
 70
     0
  0
APPID
  5
58E
330
9
100
AcDbSymbolTableRecord
100
AcDbRegAppTableRecord
  2
GEVID1212711808
 70
     0
  0
APPID
  5
58F
330
9
100
AcDbSymbolTableRecord
100
AcDbRegAppTableRecord
  2
GEVID1212711809
 70
     0
  0
APPID
  5
590
330
9
100
AcDbSymbolTableRecord
100
AcDbRegAppTableRecord
  2
GEVID1212711810
 70
     0
  0
APPID
  5
591
330
9
100
AcDbSymbolTableRecord
100
AcDbRegAppTableRecord
  2
GEVID1212711811
 70
     0
  0
APPID
  5
90A
330
9
100
AcDbSymbolTableRecord
100
AcDbRegAppTableRecord
  2
GENIUS_GENTRA_14
 70
     0
  0
APPID
  5
919
330
9
100
AcDbSymbolTableRecord
100
AcDbRegAppTableRecord
  2
GENIUS_GENOBJ-N-TIT_13
 70
     0
  0
APPID
  5
91A
330
9
100
AcDbSymbolTableRecord
100
AcDbRegAppTableRecord
  2
GENIUS_GENTITLE_13
 70
     0
  0
APPID
  5
949
330
9
100
AcDbSymbolTableRecord
100
AcDbRegAppTableRecord
  2
GENIUS_GENBLLY_14
 70
     0
  0
APPID
  5
DDD
330
9
100
AcDbSymbolTableRecord
100
AcDbRegAppTableRecord
  2
GEVID1213165152
 70
     0
  0
APPID
  5
12F9
330
9
100
AcDbSymbolTableRecord
100
AcDbRegAppTableRecord
  2
AcDbDynamicBlockTrueName
 70
     0
  0
APPID
  5
12FA
330
9
100
AcDbSymbolTableRecord
100
AcDbRegAppTableRecord
  2
ACDBBLOCKREPETAG
 70
     0
  0
APPID
  5
1C15
330
9
100
AcDbSymbolTableRecord
100
AcDbRegAppTableRecord
  2
GEVID1214872427
 70
     0
  0
APPID
  5
1C2A
330
9
100
AcDbSymbolTableRecord
100
AcDbRegAppTableRecord
  2
GEVID1214872428
 70
     0
  0
APPID
  5
1C2F
330
9
100
AcDbSymbolTableRecord
100
AcDbRegAppTableRecord
  2
GEVID1214872429
 70
     0
  0
APPID
  5
1C33
330
9
100
AcDbSymbolTableRecord
100
AcDbRegAppTableRecord
  2
GEVID1214872430
 70
     0
  0
APPID
  5
1C3F
330
9
100
AcDbSymbolTableRecord
100
AcDbRegAppTableRecord
  2
GEVID1214872432
 70
     0
  0
APPID
  5
1C4E
330
9
100
AcDbSymbolTableRecord
100
AcDbRegAppTableRecord
  2
GEVID1214872433
 70
     0
  0
APPID
  5
20DC
330
9
100
AcDbSymbolTableRecord
100
AcDbRegAppTableRecord
  2
AcDbDynamicBlockGUID
 70
     0
  0
APPID
  5
20FD
330
9
100
AcDbSymbolTableRecord
100
AcDbRegAppTableRecord
  2
GENIUS_GENOBJ-N-REV_13
 70
     0
  0
APPID
  5
20FE
330
9
100
AcDbSymbolTableRecord
100
AcDbRegAppTableRecord
  2
GENIUS_GENOBJ-N-RSSYM_13
 70
     0
  0
APPID
  5
20FF
330
9
100
AcDbSymbolTableRecord
100
AcDbRegAppTableRecord
  2
GENIUS_GENSYMENT_13
 70
     0
  0
APPID
  5
2100
330
9
100
AcDbSymbolTableRecord
100
AcDbRegAppTableRecord
  2
GENIUS_GENSCSYM_13
 70
     0
  0
APPID
  5
5881
330
9
100
AcDbSymbolTableRecord
100
AcDbRegAppTableRecord
  2
GEVID1239848171
 70
     0
  0
APPID
  5
588E
330
9
100
AcDbSymbolTableRecord
100
AcDbRegAppTableRecord
  2
GEVID1239848172
 70
     0
  0
APPID
  5
5912
330
9
100
AcDbSymbolTableRecord
100
AcDbRegAppTableRecord
  2
GEVID1239848173
 70
     0
  0
APPID
  5
5FDA
330
9
100
AcDbSymbolTableRecord
100
AcDbRegAppTableRecord
  2
GEVID1239848174
 70
     0
  0
APPID
  5
5FDE
330
9
100
AcDbSymbolTableRecord
100
AcDbRegAppTableRecord
  2
GEVID1239848175
 70
     0
  0
ENDTAB
  0
TABLE
  2
DIMSTYLE
  5
A
330
0
100
AcDbSymbolTable
 70
    29
100
AcDbDimStyleTable
 71
     1
340
5AB
  0
DIMSTYLE
105
5AB
330
A
100
AcDbSymbolTableRecord
100
AcDbDimStyleTableRecord
  2
SEISA
 70
     0
  4
"
 40
8.0
 41
2.5
 42
0.625
 43
10.0
 44
0.625
 47
0.1
 48
0.1
 73
     0
 74
     0
 77
     3
 78
     8
 79
     2
 90
     1
140
3.5
141
0.0
143
0.0393701
146
0.71
147
1.5
172
     1
176
     3
177
     3
178
     3
271
     2
272
     2
283
     0
286
     8
340
5D5
341
69
342
69
371
    -1
372
    -1
1001
ACAD_DSTYLE_DIMJAG
1070
   388
1040
1.5
1001
ACAD_DSTYLE_DIMTALN
1070
   392
1070
     1
  0
DIMSTYLE
105
5E9
102
{ACAD_REACTORS
330
59A5
330
59BD
330
59D9
330
5AC9
330
5AE1
330
5AF9
330
5BA1
330
5BBD
330
5BD9
330
5C39
330
5E07
330
7253
330
7274
330
72A4
102
}
330
A
100
AcDbSymbolTableRecord
100
AcDbDimStyleTableRecord
  2
SEISA$0
 70
     0
  4
"
 40
8.0
 41
2.5
 42
0.625
 43
10.0
 44
0.625
 47
0.1
 48
0.1
 73
     0
 74
     0
 77
     3
 78
     8
 79
     2
 90
     1
140
3.5
141
0.0
143
0.0393701
146
0.71
147
1.5
172
     1
176
     3
177
     3
178
     3
271
     2
272
     2
283
     0
286
     8
340
5D5
341
69
342
69
371
    -1
372
    -1
  0
DIMSTYLE
105
76D3
330
A
100
AcDbSymbolTableRecord
100
AcDbDimStyleTableRecord
  2
AM_ISO
 70
     0
  4
"
 41
2.5
 42
1.0
 43
10.0
 44
1.0
 47
0.1
 48
0.1
 73
     0
 74
     0
 77
     1
 78
     8
 79
     2
 90
     1
140
3.5
141
0.0
143
0.0393701
146
0.71
147
1.5
172
     1
176
   256
177
   256
178
     2
271
     2
272
     3
274
     4
283
     0
284
     8
340
11
371
    -1
372
    -1
  0
DIMSTYLE
105
76D4
330
A
100
AcDbSymbolTableRecord
100
AcDbDimStyleTableRecord
  2
AM_ISO$3
 70
     0
  4
"
 41
2.5
 42
1.0
 43
10.0
 44
1.0
 47
0.1
 48
0.1
 73
     0
 77
     1
 78
     8
 79
     2
 90
     1
140
3.5
141
0.0
143
0.0393701
146
0.71
147
1.5
176
   256
177
   256
178
     2
271
     2
272
     3
274
     4
283
     0
284
     8
288
     1
289
     0
340
11
371
    -1
372
    -1
  0
DIMSTYLE
105
76D5
330
A
100
AcDbSymbolTableRecord
100
AcDbDimStyleTableRecord
  2
AM_ISO$4
 70
     0
  4
"
 41
2.5
 42
1.0
 43
10.0
 44
1.0
 47
0.1
 48
0.1
 73
     0
 77
     1
 78
     8
 79
     2
 90
     1
140
3.5
141
0.0
143
0.0393701
146
0.71
147
1.5
176
   256
177
   256
178
     2
271
     2
272
     3
274
     4
283
     0
284
     8
288
     1
289
     0
340
11
371
    -1
372
    -1
  0
DIMSTYLE
105
76D6
330
A
100
AcDbSymbolTableRecord
100
AcDbDimStyleTableRecord
  2
AM_ISO$6
 70
     0
  4
"
 41
2.5
 42
1.0
 43
10.0
 44
1.0
 47
0.1
 48
0.1
 73
     0
 74
     0
 78
     8
 79
     2
 90
     1
140
3.5
141
0.0
143
0.0393701
146
0.71
147
1.5
172
     1
176
   256
177
   256
178
     2
271
     2
272
     3
274
     4
283
     0
284
     8
340
11
371
    -1
372
    -1
  0
DIMSTYLE
105
76D7
330
A
100
AcDbSymbolTableRecord
100
AcDbDimStyleTableRecord
  2
AM_ISO$7
 70
     0
  4
"
 41
2.5
 42
1.0
 43
10.0
 44
1.0
 47
0.1
 48
0.1
 73
     0
 74
     0
 77
     1
 78
     8
 79
     2
 90
     1
140
5.0
141
0.0
143
0.0393701
146
0.71
147
1.5
172
     1
176
   256
177
   256
178
     2
271
     2
272
     3
274
     4
283
     0
284
     8
340
11
371
    -1
372
    -1
  0
DIMSTYLE
105
76D8
330
A
100
AcDbSymbolTableRecord
100
AcDbDimStyleTableRecord
  2
AM_ISO$SF
 70
     0
  4
"
 41
2.5
 42
1.0
 43
10.0
 44
1.0
 47
0.1
 48
0.1
 73
     0
 74
     0
 75
     1
 76
     1
 77
     1
 78
     8
 79
     2
 90
     1
140
3.5
141
0.0
143
0.0393701
146
0.71
147
1.5
172
     1
176
   256
177
   256
178
     2
271
     2
272
     3
274
     4
283
     0
284
     8
340
11
371
    -1
372
    -1
  0
DIMSTYLE
105
76D9
330
A
100
AcDbSymbolTableRecord
100
AcDbDimStyleTableRecord
  2
AM_ISO$SH
 70
     0
  4
"
 41
2.5
 42
1.0
 43
10.0
 44
1.0
 47
0.1
 48
0.1
 73
     0
 74
     0
 75
     1
 76
     1
 77
     1
 78
     8
 79
     2
 90
     1
140
3.5
141
0.0
143
0.0393701
144
2.0
146
0.71
147
1.5
172
     1
173
     1
176
   256
177
   256
178
     2
271
     2
272
     3
274
     4
283
     0
284
     8
340
11
343
74
371
    -1
372
    -1
  0
ENDTAB
  0
TABLE
  2
BLOCK_RECORD
  5
1
330
0
100
AcDbSymbolTable
 70
    31
  0
BLOCK_RECORD
  5
1F
102
{ACAD_XDICTIONARY
360
82
102
}
330
1
100
AcDbSymbolTableRecord
100
AcDbBlockTableRecord
  2
*Model_Space
340
22
 70
     0
280
     1
281
     0
  0
BLOCK_RECORD
  5
1B
330
1
100
AcDbSymbolTableRecord
100
AcDbBlockTableRecord
  2
*Paper_Space
340
1E
 70
     0
280
     1
281
     0
  0
BLOCK_RECORD
  5
23
330
1
100
AcDbSymbolTableRecord
100
AcDbBlockTableRecord
  2
*Paper_Space0
340
26
 70
     0
280
     1
281
     0
  0
BLOCK_RECORD
  5
69
330
1
100
AcDbSymbolTableRecord
100
AcDbBlockTableRecord
  2
_Open30
340
0
102
{BLKREFS
331
62E5
331
62E6
331
62F1
331
62F2
331
62F9
331
62FA
331
6309
331
630A
331
6312
331
6313
331
631B
331
631C
331
6327
331
6332
331
635E
331
635F
331
6393
331
6394
331
729E
331
729F
331
72F6
331
72F7
331
730E
331
730F
331
7510
331
7511
102
}
 70
     0
280
     1
281
     0
  0
BLOCK_RECORD
  5
74
330
1
100
AcDbSymbolTableRecord
100
AcDbBlockTableRecord
  2
GENAXEH
340
0
 70
     0
280
     1
281
     0
  0
BLOCK_RECORD
  5
4159
330
1
100
AcDbSymbolTableRecord
100
AcDbBlockTableRecord
  2
GENDOT
340
0
102
{BLKREFS
331
6326
331
6331
102
}
 70
     0
280
     1
281
     0
  0
BLOCK_RECORD
  5
4DA3
102
{ACAD_XDICTIONARY
360
4DD1
102
}
330
1
100
AcDbSymbolTableRecord
100
AcDbBlockTableRecord
  2
ロッカクアナツキプラグA R3／4
340
0
310
2800000020000000200000000100080000000000000400000000000000000000000000000000000000000000000080000080000000808000800000008000800080800000C0C0C000C0DCC000F0CAA6000020400000206000002080000020A0000020C0000020E00000400000004020000040400000406000004080000040A0
310
000040C0000040E00000600000006020000060400000606000006080000060A0000060C0000060E00000800000008020000080400000806000008080000080A0000080C0000080E00000A0000000A0200000A0400000A0600000A0800000A0A00000A0C00000A0E00000C0000000C0200000C0400000C0600000C0800000C0
310
A00000C0C00000C0E00000E0000000E0200000E0400000E0600000E0800000E0A00000E0C00000E0E00040000000400020004000400040006000400080004000A0004000C0004000E00040200000402020004020400040206000402080004020A0004020C0004020E000404000004040200040404000404060004040800040
310
40A0004040C0004040E00040600000406020004060400040606000406080004060A0004060C0004060E00040800000408020004080400040806000408080004080A0004080C0004080E00040A0000040A0200040A0400040A0600040A0800040A0A00040A0C00040A0E00040C0000040C0200040C0400040C0600040C08000
310
40C0A00040C0C00040C0E00040E0000040E0200040E0400040E0600040E0800040E0A00040E0C00040E0E00080000000800020008000400080006000800080008000A0008000C0008000E00080200000802020008020400080206000802080008020A0008020C0008020E00080400000804020008040400080406000804080
310
008040A0008040C0008040E00080600000806020008060400080606000806080008060A0008060C0008060E00080800000808020008080400080806000808080008080A0008080C0008080E00080A0000080A0200080A0400080A0600080A0800080A0A00080A0C00080A0E00080C0000080C0200080C0400080C0600080C0
310
800080C0A00080C0C00080C0E00080E0000080E0200080E0400080E0600080E0800080E0A00080E0C00080E0E000C0000000C0002000C0004000C0006000C0008000C000A000C000C000C000E000C0200000C0202000C0204000C0206000C0208000C020A000C020C000C020E000C0400000C0402000C0404000C0406000C0
310
408000C040A000C040C000C040E000C0600000C0602000C0604000C0606000C0608000C060A000C060C000C060E000C0800000C0802000C0804000C0806000C0808000C080A000C080C000C080E000C0A00000C0A02000C0A04000C0A06000C0A08000C0A0A000C0A0C000C0A0E000C0C00000C0C02000C0C04000C0C06000
310
C0C08000C0C0A000F0FBFF00A4A0A000808080000000FF0000FF000000FFFF00FF000000FF00FF00FFFF0000FFFFFF00000000000000000000000000000000000000000000000000000000000000000000000000000000000000000000000000F9000000000000000000000000000000000000000000000000000000000000
310
00F900000000000000000000000000000000000000000000000000000000000000F900000000000000000000000000000000000000000000000000000000000000F900000000000000000000000000000000000000000000000000000000000000F90000000000000000000000000000000000000000000000000000000000
310
0000F900000000000000000000000000000000000000000000000000000000000000F900000000000000000000000000000000000000000000000000000000000000F90000000000000000000000000000000000000000000000FFFFFFFFFFFFFFFFFFFFFFFFFFFFFFFF0000000000000000000000000000FFFF0000000000
310
000000F900000000000000FFFF00000000000000000000FFFF00000000000000000000F9000000000000000000FFFF00000000000000FFFFFFFFFFFFFFFFFFFFFFFFFFFFFFFFFFFFFFFFFFFFFFFFFFFF000000000000FFFE0000000000000000000000F900000000000000000000FEFF000000000000FFFE00000000000000
310
00000000F900000000000000000000FEFF000000000000FFFE0000000000000000000000F900000000000000000000FEFF000000000000FFFE0000000000000000000000F900000000000000000000FEFF000000000000FFFE0000000000000000000000F900000000000000000000FEFF0000000000FF00FE000000000000
310
0000000000F900000000000000000000FEFF0000000000FFFE000000000000000000000000F90000000000000000000000FEFF00000000FFFE000000000000000000000000F90000000000000000000000FEFF00000000FFFE000000000000000000000000F90000000000000000000000FEFF00000000FFFE000000000000
310
000000000000F90000000000000000000000FEFF00000000FFFE000000000000000000000000F90000000000000000000000FEFF00000000FFFFFFFFFFFFFFFFFFFFFFFFFFFFFFFFFFFFFFFFFFFFFFFFFFFFFFFF0000000000FF000000000000000000000000F90000000000000000000000FF00000000000000FF00000000
310
00000000000000F900000000000000000000FF0000000000000000000000000000000000000000F900000000000000000000000000000000000000000000000000000000000000F900000000000000000000000000000000000000000000000000000000000000F90000000000000000000000000000000000000000000000
310
0000000000000000F90000000000000000000000000000000000000000000000000000000000000000000000000000000000000000000000
102
{BLKREFS
331
4ED0
102
}
 70
     4
280
     1
281
     0
  0
BLOCK_RECORD
  5
4E96
102
{ACAD_XDICTIONARY
360
4F46
102
}
330
1
100
AcDbSymbolTableRecord
100
AcDbBlockTableRecord
  2
ケースＡ CCMH710
340
0
310
2800000020000000200000000100080000000000000400000000000000000000000000000000000000000000000080000080000000808000800000008000800080800000C0C0C000C0DCC000F0CAA6000020400000206000002080000020A0000020C0000020E00000400000004020000040400000406000004080000040A0
310
000040C0000040E00000600000006020000060400000606000006080000060A0000060C0000060E00000800000008020000080400000806000008080000080A0000080C0000080E00000A0000000A0200000A0400000A0600000A0800000A0A00000A0C00000A0E00000C0000000C0200000C0400000C0600000C0800000C0
310
A00000C0C00000C0E00000E0000000E0200000E0400000E0600000E0800000E0A00000E0C00000E0E00040000000400020004000400040006000400080004000A0004000C0004000E00040200000402020004020400040206000402080004020A0004020C0004020E000404000004040200040404000404060004040800040
310
40A0004040C0004040E00040600000406020004060400040606000406080004060A0004060C0004060E00040800000408020004080400040806000408080004080A0004080C0004080E00040A0000040A0200040A0400040A0600040A0800040A0A00040A0C00040A0E00040C0000040C0200040C0400040C0600040C08000
310
40C0A00040C0C00040C0E00040E0000040E0200040E0400040E0600040E0800040E0A00040E0C00040E0E00080000000800020008000400080006000800080008000A0008000C0008000E00080200000802020008020400080206000802080008020A0008020C0008020E00080400000804020008040400080406000804080
310
008040A0008040C0008040E00080600000806020008060400080606000806080008060A0008060C0008060E00080800000808020008080400080806000808080008080A0008080C0008080E00080A0000080A0200080A0400080A0600080A0800080A0A00080A0C00080A0E00080C0000080C0200080C0400080C0600080C0
310
800080C0A00080C0C00080C0E00080E0000080E0200080E0400080E0600080E0800080E0A00080E0C00080E0E000C0000000C0002000C0004000C0006000C0008000C000A000C000C000C000E000C0200000C0202000C0204000C0206000C0208000C020A000C020C000C020E000C0400000C0402000C0404000C0406000C0
310
408000C040A000C040C000C040E000C0600000C0602000C0604000C0606000C0608000C060A000C060C000C060E000C0800000C0802000C0804000C0806000C0808000C080A000C080C000C080E000C0A00000C0A02000C0A04000C0A06000C0A08000C0A0A000C0A0C000C0A0E000C0C00000C0C02000C0C04000C0C06000
310
C0C08000C0C0A000F0FBFF00A4A0A000808080000000FF0000FF000000FFFF00FF000000FF00FF00FFFF0000FFFFFF000000000000000000000000000000000000000000000000000000000000000000000000000000000000000000FFFFFF0000000000000000000000000000000000000000000000000000000000FF00FF
310
0000000000000000000000000000000000000000000000000000000000FF00FF0000000000FFFF00000000000000000000000000000000000000000000FF00FFFFFFFFFFFFFFFF00000000000000000000000000000000000000000000FF00FF0000000000FFFF00000000000000000000000000000000000000000000FF00
310
FF0000000000FFFF00000000000000000000000000000000000000000000FF00FF0000000000FFFF00000000000000000000000000000000000000000000FF00FF0000000000FFFF00000000000000000000000000000000000000000000FF00FF0000000000FFFF00000000000000000000000000000000000000000000FF
310
00FF0000000000FFFF00000000000000000000000000000000000000000000FF00FF0000000000FFFF00000000000000000000000000000000000000000000FF00FF0000000000FFFF00000000000000000000000000000000000000000000FF00FF0000000000FFFF00000000000000000000000000000000000000000000
310
FF00FF0000000000FFFF00000000000000000000000000000000000000000000FF00FF0000000000FFFF00000000000000000000000000000000000000000000FF00FF0000000000FFFF0000000000000000000000000000000000000000000000000000000000000000000000000000000000000000000000000000000000
310
00000000000000000000000000000000000000000000000000000000000000000000000000000000000000000000000000000000000000000000000000000000000000000000000000000000000000000000000000000000000000000000000000000000000000000000000000000000000000000000000000000000000000
310
00000000000000000000000000000000000000000000000000000000000000000000000000000000000000000000000000000000000000000000000000000000000000000000000000000000000000000000000000000000000000000000000000000000000000000000000000000000000000000000000000000000000000
310
00000000000000FFFFF9F9F9FF00000000000000000000000000000000000000000000FFFFFFFFFFFFFFFFFFFF000000000000000000000000000000000000000000FFFFFFFFF900000000FFFF0000000000000000000000000000000000000000F9F9FFF9F9F9000000000000000000000000000000000000000000000000
310
00000000FFFFFF00000000000000000000000000000000000000000000000000000000000000000000000000000000000000000000000000
102
{BLKREFS
331
4ED1
102
}
 70
     4
280
     1
281
     0
  0
BLOCK_RECORD
  5
4FDF
102
{ACAD_XDICTIONARY
360
5086
102
}
330
1
100
AcDbSymbolTableRecord
100
AcDbBlockTableRecord
  2
ケースＢ CCMH710
340
0
310
2800000020000000200000000100080000000000000400000000000000000000000000000000000000000000000080000080000000808000800000008000800080800000C0C0C000C0DCC000F0CAA6000020400000206000002080000020A0000020C0000020E00000400000004020000040400000406000004080000040A0
310
000040C0000040E00000600000006020000060400000606000006080000060A0000060C0000060E00000800000008020000080400000806000008080000080A0000080C0000080E00000A0000000A0200000A0400000A0600000A0800000A0A00000A0C00000A0E00000C0000000C0200000C0400000C0600000C0800000C0
310
A00000C0C00000C0E00000E0000000E0200000E0400000E0600000E0800000E0A00000E0C00000E0E00040000000400020004000400040006000400080004000A0004000C0004000E00040200000402020004020400040206000402080004020A0004020C0004020E000404000004040200040404000404060004040800040
310
40A0004040C0004040E00040600000406020004060400040606000406080004060A0004060C0004060E00040800000408020004080400040806000408080004080A0004080C0004080E00040A0000040A0200040A0400040A0600040A0800040A0A00040A0C00040A0E00040C0000040C0200040C0400040C0600040C08000
310
40C0A00040C0C00040C0E00040E0000040E0200040E0400040E0600040E0800040E0A00040E0C00040E0E00080000000800020008000400080006000800080008000A0008000C0008000E00080200000802020008020400080206000802080008020A0008020C0008020E00080400000804020008040400080406000804080
310
008040A0008040C0008040E00080600000806020008060400080606000806080008060A0008060C0008060E00080800000808020008080400080806000808080008080A0008080C0008080E00080A0000080A0200080A0400080A0600080A0800080A0A00080A0C00080A0E00080C0000080C0200080C0400080C0600080C0
310
800080C0A00080C0C00080C0E00080E0000080E0200080E0400080E0600080E0800080E0A00080E0C00080E0E000C0000000C0002000C0004000C0006000C0008000C000A000C000C000C000E000C0200000C0202000C0204000C0206000C0208000C020A000C020C000C020E000C0400000C0402000C0404000C0406000C0
310
408000C040A000C040C000C040E000C0600000C0602000C0604000C0606000C0608000C060A000C060C000C060E000C0800000C0802000C0804000C0806000C0808000C080A000C080C000C080E000C0A00000C0A02000C0A04000C0A06000C0A08000C0A0A000C0A0C000C0A0E000C0C00000C0C02000C0C04000C0C06000
310
C0C08000C0C0A000F0FBFF00A4A0A000808080000000FF0000FF000000FFFF00FF000000FF00FF00FFFF0000FFFFFF000000000000000000000000000000000000000000000000000000000000000000000000000000000000000000000000000000FFFF000000000000000000000000000000000000000000000000000000
310
0000F9F9F9F9F90000000000000000000000000000000000000000FFFF000000000000FF0000000000000000000000000000000000000000000000FFFFFFFFFFFFFFFFFF0000000000000000000000000000000000000000000000FFFFFF0000000000FF0000000000000000000000000000000000000000000000FFFFFF00
310
00000000FF0000000000000000000000000000000000000000000000FFFFFF0000000000FF0000000000000000000000000000000000000000000000FFFFFF0000000000FF0000000000000000000000000000000000000000000000FFFFFF0000000000FF0000000000000000000000000000000000000000000000FFFFFF
310
0000000000FF0000000000000000000000000000000000000000000000FFFFFF0000000000FF0000000000000000000000000000000000000000000000FFFFFF0000000000FF0000000000000000000000000000000000000000000000FFFFFF0000000000FF0000000000000000000000000000000000000000000000FFFF
310
FF0000000000FF0000000000000000000000000000000000000000000000FFFFFF0000000000FF0000000000000000000000000000000000000000000000FFFFFF0000000000FF0000000000000000000000000000000000000000000000000000000000000000000000000000000000000000000000000000000000000000
310
00000000000000000000000000000000000000000000000000000000000000000000000000000000000000000000000000000000000000000000000000000000000000000000000000000000000000000000000000000000000000000000000000000000000000000000000000000000000000000000000000000000000000
310
00000000000000000000000000000000000000000000000000000000000000000000000000000000000000000000000000000000000000000000000000000000000000000000000000000000000000000000000000000000000000000000000000000000000000000000000000000000000000000000000000000000000000
310
00FFFFF9F9F9FF0000000000000000000000000000000000000000000000000000FFFFFFFFFFFFFFFFFFFF00000000000000000000000000000000000000000000FFFF0000000000F9FF00000000000000000000000000000000000000000000000000000000000000FF000000000000000000000000000000000000000000
310
00000000000000000000FFFF0000000000000000000000000000000000000000000000000000000000000000000000000000000000000000
102
{BLKREFS
331
5010
102
}
 70
     4
280
     1
281
     0
  0
BLOCK_RECORD
  5
51AE
102
{ACAD_XDICTIONARY
360
523D
102
}
330
1
100
AcDbSymbolTableRecord
100
AcDbBlockTableRecord
  2
センタＡ CCMH710
340
0
310
2800000020000000200000000100080000000000000400000000000000000000000000000000000000000000000080000080000000808000800000008000800080800000C0C0C000C0DCC000F0CAA6000020400000206000002080000020A0000020C0000020E00000400000004020000040400000406000004080000040A0
310
000040C0000040E00000600000006020000060400000606000006080000060A0000060C0000060E00000800000008020000080400000806000008080000080A0000080C0000080E00000A0000000A0200000A0400000A0600000A0800000A0A00000A0C00000A0E00000C0000000C0200000C0400000C0600000C0800000C0
310
A00000C0C00000C0E00000E0000000E0200000E0400000E0600000E0800000E0A00000E0C00000E0E00040000000400020004000400040006000400080004000A0004000C0004000E00040200000402020004020400040206000402080004020A0004020C0004020E000404000004040200040404000404060004040800040
310
40A0004040C0004040E00040600000406020004060400040606000406080004060A0004060C0004060E00040800000408020004080400040806000408080004080A0004080C0004080E00040A0000040A0200040A0400040A0600040A0800040A0A00040A0C00040A0E00040C0000040C0200040C0400040C0600040C08000
310
40C0A00040C0C00040C0E00040E0000040E0200040E0400040E0600040E0800040E0A00040E0C00040E0E00080000000800020008000400080006000800080008000A0008000C0008000E00080200000802020008020400080206000802080008020A0008020C0008020E00080400000804020008040400080406000804080
310
008040A0008040C0008040E00080600000806020008060400080606000806080008060A0008060C0008060E00080800000808020008080400080806000808080008080A0008080C0008080E00080A0000080A0200080A0400080A0600080A0800080A0A00080A0C00080A0E00080C0000080C0200080C0400080C0600080C0
310
800080C0A00080C0C00080C0E00080E0000080E0200080E0400080E0600080E0800080E0A00080E0C00080E0E000C0000000C0002000C0004000C0006000C0008000C000A000C000C000C000E000C0200000C0202000C0204000C0206000C0208000C020A000C020C000C020E000C0400000C0402000C0404000C0406000C0
310
408000C040A000C040C000C040E000C0600000C0602000C0604000C0606000C0608000C060A000C060C000C060E000C0800000C0802000C0804000C0806000C0808000C080A000C080C000C080E000C0A00000C0A02000C0A04000C0A06000C0A08000C0A0A000C0A0C000C0A0E000C0C00000C0C02000C0C04000C0C06000
310
C0C08000C0C0A000F0FBFF00A4A0A000808080000000FF0000FF000000FFFF00FF000000FF00FF00FFFF0000FFFFFF000000000000000000000000000000000000000000000000000000000000000000000000000000000000000000000000000000FFFFFFFFFFFFFF00000000000000000000000000000000000000000000
310
0000000000FF00000000FF0000000000000000000000000000000000000000000000000000FF00000000FF0000000000000000000000000000000000000000000000000000FF00000000FF0000000000000000000000000000000000000000000000000000FF00000000FF0000000000000000000000000000000000000000
310
000000000000FF00000000FF0000000000000000000000000000000000000000000000000000FF00000000FF0000000000000000000000000000000000000000000000000000FF00000000FF0000000000000000000000000000000000000000000000000000FF00000000FF00000000000000000000000000000000000000
310
00000000000000FF00000000FF0000000000000000000000000000000000000000000000000000FF00000000FF0000000000000000000000000000000000000000000000000000FF00000000FF0000000000000000000000000000000000000000000000000000FF00000000FF000000000000000000000000000000000000
310
0000000000000000FF00000000FF000000000000000000000000A4A4A4A4A4000000000000000000FFA4A4A4FFA4000000000000000000000000FF0000000000000000000000000000000000FFFF000000000000000000000000FF0000000000000000000000000000000000FFFF000000000000000000000000FF00000000
310
00000000000000000000000000FFFF000000000000000000000000FF0000000000000000000000000000000000FFFF000000000000000000000000FF0000000000000000000000000000000000FFFF000000000000000000000000FF0000000000000000000000000000000000FFFF000000000000000000000000FF000000
310
0000000000000000000000000000FFFF000000000000000000000000FFFFFFFFFFFFFFFFFFFFFFFFFFFFFFFFFFFFFFFF000000000000000000000000FFFFFFFFFFFFFFFFFFFFFFFFFFFFFFFFFFFFFFFF000000000000000000000000FF000000000000000000000000000000000000FF000000000000000000000000FF0000
310
00000000000000000000000000000000FF000000000000000000000000FF000000000000000000000000000000000000FF000000000000000000000000FFFFFFFFFFFF00000000FFFFFFFFFFFFFFFFFF000000000000000000000000000000000000FFF9F9F9F9FFF900000000000000000000000000000000000000000000
310
0000000000000000000000000000000000000000000000000000000000000000000000000000000000000000000000000000000000000000
102
{BLKREFS
331
51DB
102
}
 70
     4
280
     1
281
     0
  0
BLOCK_RECORD
  5
528E
102
{ACAD_XDICTIONARY
360
531F
102
}
330
1
100
AcDbSymbolTableRecord
100
AcDbBlockTableRecord
  2
センタＢ CCMH710
340
0
310
2800000020000000200000000100080000000000000400000000000000000000000000000000000000000000000080000080000000808000800000008000800080800000C0C0C000C0DCC000F0CAA6000020400000206000002080000020A0000020C0000020E00000400000004020000040400000406000004080000040A0
310
000040C0000040E00000600000006020000060400000606000006080000060A0000060C0000060E00000800000008020000080400000806000008080000080A0000080C0000080E00000A0000000A0200000A0400000A0600000A0800000A0A00000A0C00000A0E00000C0000000C0200000C0400000C0600000C0800000C0
310
A00000C0C00000C0E00000E0000000E0200000E0400000E0600000E0800000E0A00000E0C00000E0E00040000000400020004000400040006000400080004000A0004000C0004000E00040200000402020004020400040206000402080004020A0004020C0004020E000404000004040200040404000404060004040800040
310
40A0004040C0004040E00040600000406020004060400040606000406080004060A0004060C0004060E00040800000408020004080400040806000408080004080A0004080C0004080E00040A0000040A0200040A0400040A0600040A0800040A0A00040A0C00040A0E00040C0000040C0200040C0400040C0600040C08000
310
40C0A00040C0C00040C0E00040E0000040E0200040E0400040E0600040E0800040E0A00040E0C00040E0E00080000000800020008000400080006000800080008000A0008000C0008000E00080200000802020008020400080206000802080008020A0008020C0008020E00080400000804020008040400080406000804080
310
008040A0008040C0008040E00080600000806020008060400080606000806080008060A0008060C0008060E00080800000808020008080400080806000808080008080A0008080C0008080E00080A0000080A0200080A0400080A0600080A0800080A0A00080A0C00080A0E00080C0000080C0200080C0400080C0600080C0
310
800080C0A00080C0C00080C0E00080E0000080E0200080E0400080E0600080E0800080E0A00080E0C00080E0E000C0000000C0002000C0004000C0006000C0008000C000A000C000C000C000E000C0200000C0202000C0204000C0206000C0208000C020A000C020C000C020E000C0400000C0402000C0404000C0406000C0
310
408000C040A000C040C000C040E000C0600000C0602000C0604000C0606000C0608000C060A000C060C000C060E000C0800000C0802000C0804000C0806000C0808000C080A000C080C000C080E000C0A00000C0A02000C0A04000C0A06000C0A08000C0A0A000C0A0C000C0A0E000C0C00000C0C02000C0C04000C0C06000
310
C0C08000C0C0A000F0FBFF00A4A0A000808080000000FF0000FF000000FFFF00FF000000FF00FF00FFFF0000FFFFFF00000000000000000000000000000000000000000000000000000000000000000000000000000000FFFFFFFFFFFFFF000000000000000000000000000000000000000000000000FF00000000FF000000
310
0000000000000000000000000000000000000000000000FF00000000FF0000000000000000000000000000000000000000000000000000FF00000000FF0000000000000000000000000000000000000000000000000000FF00000000FF0000000000000000000000000000000000000000000000000000FF00000000FF0000
310
000000000000000000000000000000000000000000000000FF00000000FF0000000000000000000000000000000000000000000000000000FF00000000FF0000000000000000000000000000000000000000000000000000FF00000000FF0000000000000000000000000000000000000000000000000000FF00000000FF00
310
00000000000000000000000000000000000000000000000000FF00000000FF0000000000000000000000000000000000000000000000000000FF00000000FF0000000000000000000000000000000000000000000000000000FF00000000FF0000000000000000000000000000000000000000000000000000FF00000000FF
310
0000000000000000000000000000000000000000000000000000A4FFA4A4A4FF000000000000000000A4A4A4A4A4000000000000000000000000FFFF0000000000000000000000000000000000FF000000000000000000000000FFFF0000000000000000000000000000000000FF000000000000000000000000FFFF000000
310
0000000000000000000000000000FF000000000000000000000000FFFF0000000000000000000000000000000000FF000000000000000000000000FFFF0000000000000000000000000000000000FF000000000000000000000000FFFF0000000000000000000000000000000000FF000000000000000000000000FFFF0000
310
000000000000000000000000000000FF000000000000000000000000FFFFFFFFFFFFFFFFFFFFFFFFFFFFFFFFFFFFFFFF000000000000000000000000FF000000000000000000000000000000000000FF000000000000000000000000FF000000000000000000000000000000000000FF000000000000000000000000FF0000
310
00000000000000000000000000000000FF000000000000000000000000FF000000000000000000000000000000000000FF00000000000000000000000000FFFFFFFFFFFFFFFFFFFFF9FFFFFFFFFFFFFFFF0000000000000000000000000000000000000000F9FFF9F9F9F9FF00000000000000000000000000000000000000
310
000000000000000000F900000000000000000000000000000000000000000000000000000000000000000000000000000000000000000000
102
{BLKREFS
331
52BC
102
}
 70
     4
280
     1
281
     0
  0
BLOCK_RECORD
  5
53E3
102
{ACAD_XDICTIONARY
360
547D
102
}
330
1
100
AcDbSymbolTableRecord
100
AcDbBlockTableRecord
  2
リーマボルト CCMH710 M24
340
0
310
2800000020000000200000000100080000000000000400000000000000000000000000000000000000000000000080000080000000808000800000008000800080800000C0C0C000C0DCC000F0CAA6000020400000206000002080000020A0000020C0000020E00000400000004020000040400000406000004080000040A0
310
000040C0000040E00000600000006020000060400000606000006080000060A0000060C0000060E00000800000008020000080400000806000008080000080A0000080C0000080E00000A0000000A0200000A0400000A0600000A0800000A0A00000A0C00000A0E00000C0000000C0200000C0400000C0600000C0800000C0
310
A00000C0C00000C0E00000E0000000E0200000E0400000E0600000E0800000E0A00000E0C00000E0E00040000000400020004000400040006000400080004000A0004000C0004000E00040200000402020004020400040206000402080004020A0004020C0004020E000404000004040200040404000404060004040800040
310
40A0004040C0004040E00040600000406020004060400040606000406080004060A0004060C0004060E00040800000408020004080400040806000408080004080A0004080C0004080E00040A0000040A0200040A0400040A0600040A0800040A0A00040A0C00040A0E00040C0000040C0200040C0400040C0600040C08000
310
40C0A00040C0C00040C0E00040E0000040E0200040E0400040E0600040E0800040E0A00040E0C00040E0E00080000000800020008000400080006000800080008000A0008000C0008000E00080200000802020008020400080206000802080008020A0008020C0008020E00080400000804020008040400080406000804080
310
008040A0008040C0008040E00080600000806020008060400080606000806080008060A0008060C0008060E00080800000808020008080400080806000808080008080A0008080C0008080E00080A0000080A0200080A0400080A0600080A0800080A0A00080A0C00080A0E00080C0000080C0200080C0400080C0600080C0
310
800080C0A00080C0C00080C0E00080E0000080E0200080E0400080E0600080E0800080E0A00080E0C00080E0E000C0000000C0002000C0004000C0006000C0008000C000A000C000C000C000E000C0200000C0202000C0204000C0206000C0208000C020A000C020C000C020E000C0400000C0402000C0404000C0406000C0
310
408000C040A000C040C000C040E000C0600000C0602000C0604000C0606000C0608000C060A000C060C000C060E000C0800000C0802000C0804000C0806000C0808000C080A000C080C000C080E000C0A00000C0A02000C0A04000C0A06000C0A08000C0A0A000C0A0C000C0A0E000C0C00000C0C02000C0C04000C0C06000
310
C0C08000C0C0A000F0FBFF00A4A0A000808080000000FF0000FF000000FFFF00FF000000FF00FF00FFFF0000FFFFFF0000000000000000000000000000000000000000000000000000000000000000000000000000000000000000000000000000000000000000000000000000000000000000000000000000000000000000
310
00000000000000000000000000000000000000000000000000000000000000000000000000000000000000000000000000000000000000000000000000000000000000000000000000000000000000000000000000000000000000000000000000000000000000000000000000000000000000000000000000000000000000
310
00000000000000000000000000000000000000000000000000000000000000000000000000000000000000000000000000000000000000000000000000000000000000000000000000000000000000000000000000000000000000000000000000000000000000000000000000000000000000000000FFFFFFFFFF00000000
310
00000000000000000000000000FFFFFFFF000000000000FF000000FFFFFF000000000000000000000000000000000000FFFF000000FFFFFF000000FF00FFFF00000000000000000000000000FFFF0000FFFF0000FFFEFEFEFFFFFFFF00FFFF00000000000000000000000000FFFFFFFFFFFF0000FFFF00FF000000FF00FFFF
310
00000000000000000000000000FF000000FFFF0000FFFF00FF000000FFFFFFFF00000000000000000000000000FF000000FFFF0000FFFF00FF000000FFFFFFFF00000000000000000000000000FF000000FFFF0000FFFF00FF000000FF00FFFF00000000000000000000000000FF000000FFFF0000FFFEFEFEFFFFFFFF00FF
310
FF00000000000000000000000000FFFFFFFFFFFF000000FFFFFF000000FF00FFFF00000000000000000000000000FFFF0000FFFF0000000000FF000000FFFFFF000000000000000000000000000000000000FFFF0000000000FFFFFFFFFF0000000000000000000000000000000000FFFFFFFF000000000000000000000000
310
00000000000000000000000000000000000000000000000000000000000000000000000000000000000000000000000000000000000000000000000000000000000000000000000000000000000000000000000000000000000000000000000000000000000000000000000000000000000000000000000000000000000000
310
00000000000000000000000000000000000000000000000000000000000000000000000000000000000000000000000000000000000000000000000000000000000000000000000000000000000000000000000000000000000000000000000000000000000000000000000000000000000000000000000000000000000000
310
0000000000000000000000000000000000000000000000000000000000000000000000000000000000000000000000000000000000000000
102
{BLKREFS
331
5414
102
}
 70
     4
280
     1
281
     0
  0
BLOCK_RECORD
  5
559E
102
{ACAD_XDICTIONARY
360
55F8
102
}
330
1
100
AcDbSymbolTableRecord
100
AcDbBlockTableRecord
  2
ＧＣサイドカバ－A CCMH710
340
0
310
2800000020000000200000000100080000000000000400000000000000000000000000000000000000000000000080000080000000808000800000008000800080800000C0C0C000C0DCC000F0CAA6000020400000206000002080000020A0000020C0000020E00000400000004020000040400000406000004080000040A0
310
000040C0000040E00000600000006020000060400000606000006080000060A0000060C0000060E00000800000008020000080400000806000008080000080A0000080C0000080E00000A0000000A0200000A0400000A0600000A0800000A0A00000A0C00000A0E00000C0000000C0200000C0400000C0600000C0800000C0
310
A00000C0C00000C0E00000E0000000E0200000E0400000E0600000E0800000E0A00000E0C00000E0E00040000000400020004000400040006000400080004000A0004000C0004000E00040200000402020004020400040206000402080004020A0004020C0004020E000404000004040200040404000404060004040800040
310
40A0004040C0004040E00040600000406020004060400040606000406080004060A0004060C0004060E00040800000408020004080400040806000408080004080A0004080C0004080E00040A0000040A0200040A0400040A0600040A0800040A0A00040A0C00040A0E00040C0000040C0200040C0400040C0600040C08000
310
40C0A00040C0C00040C0E00040E0000040E0200040E0400040E0600040E0800040E0A00040E0C00040E0E00080000000800020008000400080006000800080008000A0008000C0008000E00080200000802020008020400080206000802080008020A0008020C0008020E00080400000804020008040400080406000804080
310
008040A0008040C0008040E00080600000806020008060400080606000806080008060A0008060C0008060E00080800000808020008080400080806000808080008080A0008080C0008080E00080A0000080A0200080A0400080A0600080A0800080A0A00080A0C00080A0E00080C0000080C0200080C0400080C0600080C0
310
800080C0A00080C0C00080C0E00080E0000080E0200080E0400080E0600080E0800080E0A00080E0C00080E0E000C0000000C0002000C0004000C0006000C0008000C000A000C000C000C000E000C0200000C0202000C0204000C0206000C0208000C020A000C020C000C020E000C0400000C0402000C0404000C0406000C0
310
408000C040A000C040C000C040E000C0600000C0602000C0604000C0606000C0608000C060A000C060C000C060E000C0800000C0802000C0804000C0806000C0808000C080A000C080C000C080E000C0A00000C0A02000C0A04000C0A06000C0A08000C0A0A000C0A0C000C0A0E000C0C00000C0C02000C0C04000C0C06000
310
C0C08000C0C0A000F0FBFF00A4A0A000808080000000FF0000FF000000FFFF00FF000000FF00FF00FFFF0000FFFFFF00000000000000000000000000000000000000000000000000000000000000000000000000000000000000000000000000FF0000000000000000000000000000000000000000000000000000000000F9
310
F9FFF9000000000000000000000000000000000000000000000000000000000000FF00000000000000000000000000000000000000000000000000000000000000FF00000000000000000000000000000000000000000000000000000000000000FF0000000000000000000000000000000000000000000000000000000000
310
0000FF00000000000000000000000000000000000000000000000000000000000000FF00000000000000000000000000000000000000000000000000000000000000FF00000000000000000000000000000000000000000000000000000000000000FF00000000000000000000000000000000000000000000000000000000
310
000000FF00000000000000000000000000000000000000000000000000000000000000FF00000000000000000000000000000000000000000000000000000000000000FF00000000000000000000000000000000000000000000000000000000000000FF000000000000000000000000000000000000000000000000000000
310
00000000FF00000000000000000000000000000000000000000000000000000000000000FF000000000000000000000000000000000000000000000000000000000000000000000000000000000000000000000000000000000000000000000000000000000000000000000000000000000000000000000000000000000000
310
00000000000000000000000000000000000000000000000000000000000000000000000000000000000000000000000000000000000000000000000000000000000000000000000000000000000000000000000000000000000000000000000000000000000000000000000000000000000000000000000000000000000000
310
00000000000000000000000000000000000000000000000000000000000000000000000000000000000000000000000000000000000000000000000000000000000000000000000000000000000000000000000000000000000000000000000000000000000000000000000000000000000000000000000000000000000000
310
0000000000000000000000000000000000000000000000000000000000000000000000000000FFFF000000000000000000000000000000000000000000000000000000000000FFFF00000000000000000000000000000000000000000000000000000000000000FF0000000000000000000000000000000000000000000000
310
0000000000000000FF0000000000000000000000000000000000000000000000000000000000000000000000000000000000000000000000
102
{BLKREFS
331
55BA
102
}
 70
     4
280
     1
281
     0
  0
BLOCK_RECORD
  5
566F
102
{ACAD_XDICTIONARY
360
570A
102
}
330
1
100
AcDbSymbolTableRecord
100
AcDbBlockTableRecord
  2
ＧＣサイドカバ－Ｂ CCMH710
340
0
310
2800000020000000200000000100080000000000000400000000000000000000000000000000000000000000000080000080000000808000800000008000800080800000C0C0C000C0DCC000F0CAA6000020400000206000002080000020A0000020C0000020E00000400000004020000040400000406000004080000040A0
310
000040C0000040E00000600000006020000060400000606000006080000060A0000060C0000060E00000800000008020000080400000806000008080000080A0000080C0000080E00000A0000000A0200000A0400000A0600000A0800000A0A00000A0C00000A0E00000C0000000C0200000C0400000C0600000C0800000C0
310
A00000C0C00000C0E00000E0000000E0200000E0400000E0600000E0800000E0A00000E0C00000E0E00040000000400020004000400040006000400080004000A0004000C0004000E00040200000402020004020400040206000402080004020A0004020C0004020E000404000004040200040404000404060004040800040
310
40A0004040C0004040E00040600000406020004060400040606000406080004060A0004060C0004060E00040800000408020004080400040806000408080004080A0004080C0004080E00040A0000040A0200040A0400040A0600040A0800040A0A00040A0C00040A0E00040C0000040C0200040C0400040C0600040C08000
310
40C0A00040C0C00040C0E00040E0000040E0200040E0400040E0600040E0800040E0A00040E0C00040E0E00080000000800020008000400080006000800080008000A0008000C0008000E00080200000802020008020400080206000802080008020A0008020C0008020E00080400000804020008040400080406000804080
310
008040A0008040C0008040E00080600000806020008060400080606000806080008060A0008060C0008060E00080800000808020008080400080806000808080008080A0008080C0008080E00080A0000080A0200080A0400080A0600080A0800080A0A00080A0C00080A0E00080C0000080C0200080C0400080C0600080C0
310
800080C0A00080C0C00080C0E00080E0000080E0200080E0400080E0600080E0800080E0A00080E0C00080E0E000C0000000C0002000C0004000C0006000C0008000C000A000C000C000C000E000C0200000C0202000C0204000C0206000C0208000C020A000C020C000C020E000C0400000C0402000C0404000C0406000C0
310
408000C040A000C040C000C040E000C0600000C0602000C0604000C0606000C0608000C060A000C060C000C060E000C0800000C0802000C0804000C0806000C0808000C080A000C080C000C080E000C0A00000C0A02000C0A04000C0A06000C0A08000C0A0A000C0A0C000C0A0E000C0C00000C0C02000C0C04000C0C06000
310
C0C08000C0C0A000F0FBFF00A4A0A000808080000000FF0000FF000000FFFF00FF000000FF00FF00FFFF0000FFFFFF000000000000000000000000000000000000000000000000000000000000000000000000000000000000000000000000FF000000000000000000000000000000000000000000000000000000000000F9
310
FFF9F90000000000000000000000000000000000000000000000000000000000FF00000000000000000000000000000000000000000000000000000000000000FF00000000000000000000000000000000000000000000000000000000000000FF000000000000000000000000000000000000000000000000000000000000
310
00FF00000000000000000000000000000000000000000000000000000000000000FF00000000000000000000000000000000000000000000000000000000000000FF00000000000000000000000000000000000000000000000000000000000000FF0000000000000000000000000000000000000000000000000000000000
310
0000FF00000000000000000000000000000000000000000000000000000000000000FF00000000000000000000000000000000000000000000000000000000000000FF00000000000000000000000000000000000000000000000000000000000000FF00000000000000000000000000000000000000000000000000000000
310
000000FF00000000000000000000000000000000000000000000000000000000000000FF00000000000000000000000000000000000000000000000000000000000000000000000000000000000000000000000000000000000000000000000000000000000000000000000000000000000000000000000000000000000000
310
00000000000000000000000000000000000000000000000000000000000000000000000000000000000000000000000000000000000000000000000000000000000000000000000000000000000000000000000000000000000000000000000000000000000000000000000000000000000000000000000000000000000000
310
00000000000000000000000000000000000000000000000000000000000000000000000000000000000000000000000000000000000000000000000000000000000000000000000000000000000000000000000000000000000000000000000000000000000000000000000000000000000000000000000000000000000000
310
0000000000000000000000000000000000000000000000000000000000000000000000000000FFFF0000000000000000000000000000000000000000000000000000000000FFFFFF0000000000000000000000000000000000000000000000000000000000FFFFF9F900000000000000000000000000000000000000000000
310
00000000000000FF000000000000000000000000000000000000000000000000000000000000000000000000000000000000000000000000
102
{BLKREFS
331
569C
102
}
 70
     4
280
     1
281
     0
  0
BLOCK_RECORD
  5
59A6
330
1
100
AcDbSymbolTableRecord
100
AcDbBlockTableRecord
  2
*D15
340
0
 70
     0
280
     1
281
     0
  0
BLOCK_RECORD
  5
59BE
330
1
100
AcDbSymbolTableRecord
100
AcDbBlockTableRecord
  2
*D16
340
0
 70
     0
280
     1
281
     0
  0
BLOCK_RECORD
  5
59DA
330
1
100
AcDbSymbolTableRecord
100
AcDbBlockTableRecord
  2
*D17
340
0
 70
     0
280
     1
281
     0
  0
BLOCK_RECORD
  5
5ACA
330
1
100
AcDbSymbolTableRecord
100
AcDbBlockTableRecord
  2
*D18
340
0
 70
     0
280
     1
281
     0
  0
BLOCK_RECORD
  5
5AE2
330
1
100
AcDbSymbolTableRecord
100
AcDbBlockTableRecord
  2
*D19
340
0
 70
     0
280
     1
281
     0
  0
BLOCK_RECORD
  5
5AFA
330
1
100
AcDbSymbolTableRecord
100
AcDbBlockTableRecord
  2
*D20
340
0
 70
     0
280
     1
281
     0
  0
BLOCK_RECORD
  5
5BA2
330
1
100
AcDbSymbolTableRecord
100
AcDbBlockTableRecord
  2
*D21
340
0
 70
     0
280
     1
281
     0
  0
BLOCK_RECORD
  5
5BBE
330
1
100
AcDbSymbolTableRecord
100
AcDbBlockTableRecord
  2
*D22
340
0
 70
     0
280
     1
281
     0
  0
BLOCK_RECORD
  5
5BDA
330
1
100
AcDbSymbolTableRecord
100
AcDbBlockTableRecord
  2
*D23
340
0
 70
     0
280
     1
281
     0
  0
BLOCK_RECORD
  5
5C3A
330
1
100
AcDbSymbolTableRecord
100
AcDbBlockTableRecord
  2
*D24
340
0
 70
     0
280
     1
281
     0
  0
BLOCK_RECORD
  5
5E08
330
1
100
AcDbSymbolTableRecord
100
AcDbBlockTableRecord
  2
*D25
340
0
 70
     0
280
     1
281
     0
  0
BLOCK_RECORD
  5
6AAF
102
{ACAD_XDICTIONARY
360
6AFB
102
}
330
1
100
AcDbSymbolTableRecord
100
AcDbBlockTableRecord
  2
ロッカクアナツキプラグB R3／4
340
0
102
{BLKREFS
331
500F
102
}
 70
     0
280
     1
281
     0
  0
BLOCK_RECORD
  5
7254
330
1
100
AcDbSymbolTableRecord
100
AcDbBlockTableRecord
  2
*D27
340
0
 70
     0
280
     1
281
     0
  0
BLOCK_RECORD
  5
7275
330
1
100
AcDbSymbolTableRecord
100
AcDbBlockTableRecord
  2
*D28
340
0
 70
     0
280
     1
281
     0
  0
BLOCK_RECORD
  5
72A5
330
1
100
AcDbSymbolTableRecord
100
AcDbBlockTableRecord
  2
*D29
340
0
 70
     0
280
     1
281
     0
  0
ENDTAB
  0
ENDSEC
  0
SECTION
  2
BLOCKS
  0
BLOCK
  5
20
330
1F
100
AcDbEntity
  8
0
100
AcDbBlockBegin
  2
*Model_Space
 70
     0
 10
0.0
 20
0.0
 30
0.0
  3
*Model_Space
  1

  0
ENDBLK
  5
21
330
1F
100
AcDbEntity
  8
0
100
AcDbBlockEnd
  0
BLOCK
  5
1C
330
1B
100
AcDbEntity
 67
     1
  8
0
100
AcDbBlockBegin
  2
*Paper_Space
 70
     0
 10
0.0
 20
0.0
 30
0.0
  3
*Paper_Space
  1

  0
ENDBLK
  5
1D
330
1B
100
AcDbEntity
 67
     1
  8
0
100
AcDbBlockEnd
  0
BLOCK
  5
24
330
23
100
AcDbEntity
 67
     1
  8
0
100
AcDbBlockBegin
  2
*Paper_Space0
 70
     0
 10
0.0
 20
0.0
 30
0.0
  3
*Paper_Space0
  1

  0
ENDBLK
  5
25
330
23
100
AcDbEntity
 67
     1
  8
0
100
AcDbBlockEnd
  0
BLOCK
  5
6D
330
69
100
AcDbEntity
  8
0
100
AcDbBlockBegin
  2
_Open30
 70
     0
 10
0.0
 20
0.0
 30
0.0
  3
_Open30
  1

  0
LINE
  5
6A
330
69
100
AcDbEntity
  8
0
  6
ByBlock
 62
     0
370
    -2
100
AcDbLine
 10
-1.0
 20
0.26794919
 30
0.0
 11
0.0
 21
0.0
 31
0.0
  0
LINE
  5
6B
330
69
100
AcDbEntity
  8
0
  6
ByBlock
 62
     0
370
    -2
100
AcDbLine
 10
0.0
 20
0.0
 30
0.0
 11
-1.0
 21
-0.26794919
 31
0.0
  0
LINE
  5
6C
330
69
100
AcDbEntity
  8
0
  6
ByBlock
 62
     0
370
    -2
100
AcDbLine
 10
0.0
 20
0.0
 30
0.0
 11
-1.0
 21
0.0
 31
0.0
  0
ENDBLK
  5
6E
330
69
100
AcDbEntity
  8
0
100
AcDbBlockEnd
  0
BLOCK
  5
76
330
74
100
AcDbEntity
  8
0
100
AcDbBlockBegin
  2
GENAXEH
 70
     0
 10
0.0
 20
0.0
 30
0.0
  3
GENAXEH
  1

  0
LINE
  5
75
330
74
100
AcDbEntity
  8
0
100
AcDbLine
 10
-1.0
 20
0.0
 30
0.0
 11
1.0
 21
0.0
 31
0.0
  0
ENDBLK
  5
77
330
74
100
AcDbEntity
  8
0
100
AcDbBlockEnd
  0
BLOCK
  5
415A
330
4159
100
AcDbEntity
  8
0
100
AcDbBlockBegin
  2
GENDOT
 70
     0
 10
0.0
 20
0.0
 30
0.0
  3
GENDOT
  1

  0
LINE
  5
415B
330
4159
100
AcDbEntity
  8
0
100
AcDbLine
 10
0.0
 20
0.0
 30
0.0
 11
-1.0
 21
0.0
 31
0.0
  0
LWPOLYLINE
  5
415C
330
4159
100
AcDbEntity
  8
0
100
AcDbPolyline
 90
        2
 70
     1
 43
0.25
 10
-0.125
 20
0.0
 42
1.0
 10
0.125
 20
0.0
 42
1.0
  0
ENDBLK
  5
415D
330
4159
100
AcDbEntity
  8
0
100
AcDbBlockEnd
  0
BLOCK
  5
4DA4
330
4DA3
100
AcDbEntity
  8
0
100
AcDbBlockBegin
  2
ロッカクアナツキプラグA R3／4
 70
     0
 10
0.0
 20
0.0
 30
0.0
  3
ロッカクアナツキプラグA R3／4
  1

  0
LINE
  5
4DE5
330
4DA3
100
AcDbEntity
  8
AM_7 中心線
100
AcDbLine
 10
0.0
 20
4.014184000000341
 30
0.0
 11
0.0
 21
-24.46808499999998
 31
0.0
  0
LINE
  5
4DE6
330
4DA3
100
AcDbEntity
  8
AM_4 細線
100
AcDbLine
 10
12.28872500000034
 20
-0.8772089999999932
 30
0.0
 11
11.80655800000022
 21
-14.68468499999994
 31
0.0
  0
LINE
  5
4DE7
330
4DA3
100
AcDbEntity
  8
AM_0 外形線1
100
AcDbLine
 10
13.41151700000046
 20
-2.0
 30
0.0
 11
11.41151700000046
 21
0.0
 31
0.0
  0
LINE
  5
4DE8
330
4DA3
100
AcDbEntity
  8
AM_0 外形線1
100
AcDbLine
 10
12.99246700000003
 20
-14.0
 30
0.0
 11
13.41151700000046
 21
-2.0
 31
0.0
  0
LINE
  5
4DE9
330
4DA3
100
AcDbEntity
  8
AM_4 細線
100
AcDbLine
 10
-11.80655800000022
 20
-14.68468499999994
 30
0.0
 11
-12.28872500000034
 21
-0.8772089999999932
 31
0.0
  0
LINE
  5
4DEA
330
4DA3
100
AcDbEntity
  8
AM_0 外形線1
100
AcDbLine
 10
-13.41151700000046
 20
-2.0
 30
0.0
 11
-12.99246700000003
 21
-14.0
 31
0.0
  0
LINE
  5
4DEB
330
4DA3
100
AcDbEntity
  8
AM_0 外形線1
100
AcDbLine
 10
-11.41151700000046
 20
0.0
 30
0.0
 11
-13.41151700000046
 21
-2.0
 31
0.0
  0
LINE
  5
4DEC
330
4DA3
100
AcDbEntity
  8
AM_0 外形線1
100
AcDbLine
 10
12.99246700000003
 20
-14.0
 30
0.0
 11
-12.99246700000003
 21
-14.0
 31
0.0
  0
LINE
  5
4DED
330
4DA3
100
AcDbEntity
  8
AM_0 外形線1
100
AcDbLine
 10
13.41151700000046
 20
-2.0
 30
0.0
 11
-13.41151700000046
 21
-2.0
 31
0.0
  0
LINE
  5
4DEE
330
4DA3
100
AcDbEntity
  8
AM_0 外形線1
100
AcDbLine
 10
7.796314999999593
 20
-17.0
 30
0.0
 11
12.99246700000003
 21
-14.0
 31
0.0
  0
LINE
  5
4DEF
330
4DA3
100
AcDbEntity
  8
AM_0 外形線1
100
AcDbLine
 10
-7.796314999999593
 20
-17.0
 30
0.0
 11
7.796314999999593
 21
-17.0
 31
0.0
  0
LINE
  5
4DF0
330
4DA3
100
AcDbEntity
  8
AM_0 外形線1
100
AcDbLine
 10
-12.99246700000003
 20
-14.0
 30
0.0
 11
-7.796314999999593
 21
-17.0
 31
0.0
  0
LINE
  5
4E0F
330
4DA3
100
AcDbEntity
  8
AM_0 外形線1
100
AcDbLine
 10
-11.41151700000046
 20
0.0
 30
0.0
 11
11.41151700000046
 21
0.0
 31
0.0
  0
ENDBLK
  5
4DA5
330
4DA3
100
AcDbEntity
  8
0
100
AcDbBlockEnd
  0
BLOCK
  5
4E97
330
4E96
100
AcDbEntity
  8
0
100
AcDbBlockBegin
  2
ケースＡ CCMH710
 70
     0
 10
0.0
 20
0.0
 30
0.0
  3
ケースＡ CCMH710
  1

  0
LINE
  5
4E99
330
4E96
100
AcDbEntity
  8
AM_0 外形線1
100
AcDbLine
 10
0.0
 20
0.0
 30
0.0
 11
0.0
 21
-354.0
 31
0.0
  0
LINE
  5
4E9A
330
4E96
100
AcDbEntity
  8
AM_0 外形線1
100
AcDbLine
 10
30.0
 20
-354.0
 30
0.0
 11
30.0
 21
0.0
 31
0.0
  0
LINE
  5
4E9B
330
4E96
100
AcDbEntity
  8
AM_0 外形線1
100
AcDbLine
 10
1.0
 20
-355.0
 30
0.0
 11
29.0
 21
-355.0
 31
0.0
  0
LINE
  5
4E9C
330
4E96
100
AcDbEntity
  8
AM_0 外形線1
100
AcDbLine
 10
0.0
 20
-354.0
 30
0.0
 11
1.0
 21
-355.0
 31
0.0
  0
LINE
  5
4E9D
330
4E96
100
AcDbEntity
  8
AM_0 外形線1
100
AcDbLine
 10
29.0
 20
-355.0
 30
0.0
 11
30.0
 21
-354.0
 31
0.0
  0
LINE
  5
4E9E
330
4E96
100
AcDbEntity
  8
AM_0 外形線1
100
AcDbLine
 10
194.0
 20
-311.0
 30
0.0
 11
185.0
 21
-302.0
 31
0.0
  0
LINE
  5
4E9F
330
4E96
100
AcDbEntity
  8
AM_0 外形線1
100
AcDbLine
 10
185.0
 20
-302.0
 30
0.0
 11
185.0
 21
0.0
 31
0.0
  0
LINE
  5
4EA0
330
4E96
100
AcDbEntity
  8
AM_0 外形線1
100
AcDbLine
 10
38.0
 20
-302.0
 30
0.0
 11
185.0
 21
-302.0
 31
0.0
  0
ARC
  5
4EA1
330
4E96
100
AcDbEntity
  8
AM_0 外形線1
100
AcDbCircle
 10
38.0
 20
-310.0
 30
0.0
 40
8.0
100
AcDbArc
 50
90.0
 51
180.0
  0
LINE
  5
4EA2
330
4E96
100
AcDbEntity
  8
AM_0 外形線1
100
AcDbLine
 10
220.8999999999996
 20
-311.0
 30
0.0
 11
220.8999999999996
 21
0.0
 31
0.0
  0
LINE
  5
4EA3
330
4E96
100
AcDbEntity
  8
AM_0 外形線1
100
AcDbLine
 10
194.0
 20
-311.0
 30
0.0
 11
194.0
 21
0.0
 31
0.0
  0
LINE
  5
4EA4
330
4E96
100
AcDbEntity
  8
AM_0 外形線1
100
AcDbLine
 10
220.8999999999996
 20
-311.0
 30
0.0
 11
194.0
 21
-311.0
 31
0.0
  0
LINE
  5
4EA5
330
4E96
100
AcDbEntity
  8
AM_3 隠れ線
100
AcDbLine
 10
108.5
 20
265.6000000000001
 30
0.0
 11
209.5
 21
265.6000000000001
 31
0.0
  0
LINE
  5
4EA6
330
4E96
100
AcDbEntity
  8
AM_0 外形線1
100
AcDbLine
 10
194.0
 20
311.0
 30
0.0
 11
185.0
 21
302.0
 31
0.0
  0
LINE
  5
4EA7
330
4E96
100
AcDbEntity
  8
AM_0 外形線1
100
AcDbLine
 10
100.0
 20
280.0
 30
0.0
 11
217.0
 21
280.0
 31
0.0
  0
LINE
  5
4EA8
330
4E96
100
AcDbEntity
  8
AM_7 中心線
100
AcDbLine
 10
98.0
 20
272.0
 30
0.0
 11
219.0
 21
272.0
 31
0.0
  0
LINE
  5
4EA9
330
4E96
100
AcDbEntity
  8
AM_0 外形線1
100
AcDbLine
 10
99.50000000000001
 20
281.5
 30
0.0
 11
-7.0
 21
281.5
 31
0.0
  0
LINE
  5
4EAA
330
4E96
100
AcDbEntity
  8
AM_0 外形線1
100
AcDbLine
 10
38.0
 20
302.0
 30
0.0
 11
185.0
 21
302.0
 31
0.0
  0
LINE
  5
4EAB
330
4E96
100
AcDbEntity
  8
AM_0 外形線1
100
AcDbLine
 10
30.0
 20
310.0
 30
0.0
 11
30.0
 21
354.0
 31
0.0
  0
LINE
  5
4EAC
330
4E96
100
AcDbEntity
  8
AM_0 外形線1
100
AcDbLine
 10
0.0
 20
319.4999999999998
 30
0.0
 11
30.0
 21
319.5
 31
0.0
  0
LINE
  5
4EAD
330
4E96
100
AcDbEntity
  8
AM_0 外形線1
100
AcDbLine
 10
0.0
 20
302.1999999999998
 30
0.0
 11
0.0
 21
319.5
 31
0.0
  0
LINE
  5
4EAF
330
4E96
100
AcDbEntity
  8
AM_0 外形線1
100
AcDbLine
 10
-6.0
 20
295.0
 30
0.0
 11
4.5
 21
295.0
 31
0.0
  0
LINE
  5
4EB0
330
4E96
100
AcDbEntity
  8
AM_0 外形線1
100
AcDbLine
 10
-7.0
 20
294.0
 30
0.0
 11
-6.0
 21
295.0
 31
0.0
  0
LINE
  5
4EB1
330
4E96
100
AcDbEntity
  8
AM_0 外形線1
100
AcDbLine
 10
-7.0
 20
294.0
 30
0.0
 11
-7.0
 21
281.5
 31
0.0
  0
LINE
  5
4EB2
330
4E96
100
AcDbEntity
  8
AM_0 外形線1
100
AcDbLine
 10
4.5
 20
302.1999999999998
 30
0.0
 11
4.5
 21
295.0
 31
0.0
  0
LINE
  5
4EB3
330
4E96
100
AcDbEntity
  8
AM_0 外形線1
100
AcDbLine
 10
0.0
 20
302.1999999999998
 30
0.0
 11
4.5
 21
302.1999999999998
 31
0.0
  0
LINE
  5
4EB4
330
4E96
100
AcDbEntity
  8
AM_0 外形線1
100
AcDbLine
 10
46.58848299999954
 20
300.0
 30
0.0
 11
46.518642
 21
302.0
 31
0.0
  0
LINE
  5
4EB5
330
4E96
100
AcDbEntity
  8
AM_0 外形線1
100
AcDbLine
 10
47.00753299999997
 20
288.0
 30
0.0
 11
47.23451800000019
 21
281.5
 31
0.0
  0
LINE
  5
4EB6
330
4E96
100
AcDbEntity
  8
AM_0 外形線1
100
AcDbLine
 10
48.19344199999978
 20
287.3153150000001
 30
0.0
 11
48.39510200000042
 21
281.540528
 31
0.0
  0
LINE
  5
4EB7
330
4E96
100
AcDbEntity
  8
AM_0 外形線1
100
AcDbLine
 10
47.71127499999964
 20
301.122791
 30
0.0
 11
47.68064200000025
 21
302.0
 31
0.0
  0
ARC
  5
4EB8
330
4E96
100
AcDbEntity
  8
AM_0 外形線1
100
AcDbCircle
 10
38.0
 20
310.0
 30
0.0
 40
8.0
100
AcDbArc
 50
180.0
 51
270.0
  0
LINE
  5
4EB9
330
4E96
100
AcDbEntity
  8
AM_0 外形線1
100
AcDbLine
 10
0.0
 20
345.5
 30
0.0
 11
30.0
 21
345.5
 31
0.0
  0
LINE
  5
4EBA
330
4E96
100
AcDbEntity
  8
AM_7 中心線
100
AcDbLine
 10
-70.35461000000032
 20
332.5
 30
0.0
 11
54.80851100000018
 21
332.5
 31
0.0
  0
LINE
  5
4EBB
330
4E96
100
AcDbEntity
  8
AM_0 外形線1
100
AcDbLine
 10
1.0
 20
355.0
 30
0.0
 11
29.0
 21
355.0
 31
0.0
  0
LINE
  5
4EBC
330
4E96
100
AcDbEntity
  8
AM_0 外形線1
100
AcDbLine
 10
0.0
 20
345.5
 30
0.0
 11
0.0
 21
354.0
 31
0.0
  0
LINE
  5
4EBD
330
4E96
100
AcDbEntity
  8
AM_0 外形線1
100
AcDbLine
 10
0.0
 20
354.0
 30
0.0
 11
1.0
 21
355.0
 31
0.0
  0
LINE
  5
4EBE
330
4E96
100
AcDbEntity
  8
AM_0 外形線1
100
AcDbLine
 10
29.0
 20
355.0
 30
0.0
 11
30.0
 21
354.0
 31
0.0
  0
LINE
  5
4EBF
330
4E96
100
AcDbEntity
  8
AM_0 外形線1
100
AcDbLine
 10
100.0
 20
266.6000000000001
 30
0.0
 11
100.0
 21
281.0
 31
0.0
  0
LINE
  5
4EC0
330
4E96
100
AcDbEntity
  8
AM_0 外形線1
100
AcDbLine
 10
108.5
 20
265.6000000000001
 30
0.0
 11
101.0
 21
265.6000000000001
 31
0.0
  0
LINE
  5
4EC1
330
4E96
100
AcDbEntity
  8
AM_0 外形線1
100
AcDbLine
 10
101.0
 20
265.6000000000001
 30
0.0
 11
100.0
 21
266.6000000000001
 31
0.0
  0
LINE
  5
4EC2
330
4E96
100
AcDbEntity
  8
AM_0 外形線1
100
AcDbLine
 10
72.99246700000003
 20
288.0
 30
0.0
 11
72.76548199999981
 21
281.5
 31
0.0
  0
LINE
  5
4EC3
330
4E96
100
AcDbEntity
  8
AM_0 外形線1
100
AcDbLine
 10
73.481358
 20
302.0
 30
0.0
 11
73.41151700000046
 21
300.0
 31
0.0
  0
LINE
  5
4EC4
330
4E96
100
AcDbEntity
  8
AM_0 外形線1
100
AcDbLine
 10
71.80655800000022
 20
287.3153150000001
 30
0.0
 11
71.60348200000044
 21
281.5
 31
0.0
  0
LINE
  5
4EC5
330
4E96
100
AcDbEntity
  8
AM_0 外形線1
100
AcDbLine
 10
72.28872500000034
 20
301.122791
 30
0.0
 11
72.31935799999973
 21
302.0
 31
0.0
  0
ARC
  5
4EC6
330
4E96
100
AcDbEntity
  8
AM_0 外形線1
100
AcDbCircle
 10
99.50000000000001
 20
281.0
 30
0.0
 40
0.5
100
AcDbArc
 50
0.0
 51
90.0
  0
LINE
  5
4EC7
330
4E96
100
AcDbEntity
  8
AM_0 外形線1
100
AcDbLine
 10
217.0
 20
281.0
 30
0.0
 11
217.0
 21
266.6000000000001
 31
0.0
  0
LINE
  5
4EC8
330
4E96
100
AcDbEntity
  8
AM_0 外形線1
100
AcDbLine
 10
209.5
 20
265.6000000000001
 30
0.0
 11
216.0
 21
265.6000000000001
 31
0.0
  0
LINE
  5
4EC9
330
4E96
100
AcDbEntity
  8
AM_0 外形線1
100
AcDbLine
 10
217.0
 20
266.6000000000001
 30
0.0
 11
216.0
 21
265.6000000000001
 31
0.0
  0
LINE
  5
4ECA
330
4E96
100
AcDbEntity
  8
AM_0 外形線1
100
AcDbLine
 10
220.8999999999996
 20
281.5
 30
0.0
 11
217.5
 21
281.5
 31
0.0
  0
LINE
  5
4ECB
330
4E96
100
AcDbEntity
  8
AM_0 外形線1
100
AcDbLine
 10
220.8999999999996
 20
311.0
 30
0.0
 11
194.0
 21
311.0
 31
0.0
  0
ARC
  5
4ECC
330
4E96
100
AcDbEntity
  8
AM_0 外形線1
100
AcDbCircle
 10
217.5
 20
281.0
 30
0.0
 40
0.5
100
AcDbArc
 50
90.0
 51
180.0
  0
LINE
  5
4ECD
330
4E96
100
AcDbEntity
  8
AM_0 外形線1
100
AcDbLine
 10
220.8999999999996
 20
291.5
 30
0.0
 11
220.8999999999996
 21
286.8000000000002
 31
0.0
  0
LINE
  5
4ECE
330
4E96
100
AcDbEntity
  8
AM_0 外形線1
100
AcDbLine
 10
220.8999999999996
 20
311.0
 30
0.0
 11
220.8999999999999
 21
303.5
 31
0.0
  0
LINE
  5
4ECF
330
4E96
100
AcDbEntity
  8
AM_0 外形線1
100
AcDbLine
 10
220.8999999999996
 20
286.8000000000002
 30
0.0
 11
220.8999999999996
 21
281.5
 31
0.0
  0
INSERT
  5
4ED0
330
4E96
100
AcDbEntity
  8
AM_0 外形線1
100
AcDbBlockReference
  2
ロッカクアナツキプラグA R3／4
 10
60.0
 20
302.0
 30
0.0
  0
ELLIPSE
  5
54FD
330
4E96
100
AcDbEntity
  8
AM_0 外形線1
100
AcDbEllipse
 10
2.25
 20
298.5999999999999
 30
0.0
 11
0.0
 21
3.599999999999908
 31
0.0
210
0.0
220
0.0
230
1.0
 40
0.6250000000000158
 41
0.0
 42
6.283185307179585
  0
ENDBLK
  5
4E98
330
4E96
100
AcDbEntity
  8
0
100
AcDbBlockEnd
  0
BLOCK
  5
4FE0
330
4FDF
100
AcDbEntity
  8
0
100
AcDbBlockBegin
  2
ケースＢ CCMH710
 70
     0
 10
0.0
 20
0.0
 30
0.0
  3
ケースＢ CCMH710
  1

  0
LINE
  5
4FE2
330
4FDF
100
AcDbEntity
  8
AM_0 外形線1
100
AcDbLine
 10
-38.0
 20
302.0
 30
0.0
 11
-185.0
 21
302.0
 31
0.0
  0
LINE
  5
4FE3
330
4FDF
100
AcDbEntity
  8
AM_0 外形線1
100
AcDbLine
 10
-99.50000000000001
 20
281.5
 30
0.0
 11
-10.08865200000036
 21
281.5
 31
0.0
  0
LINE
  5
4FE4
330
4FDF
100
AcDbEntity
  8
AM_0 外形線1
100
AcDbLine
 10
-38.0
 20
-302.0
 30
0.0
 11
-179.0531909999999
 21
-302.0
 31
0.0
  0
LINE
  5
4FE5
330
4FDF
100
AcDbEntity
  8
AM_0 外形線1
100
AcDbLine
 10
-194.0
 20
-311.0
 30
0.0
 11
-194.0
 21
0.0
 31
0.0
  0
LINE
  5
4FE6
330
4FDF
100
AcDbEntity
  8
AM_0 外形線1
100
AcDbLine
 10
-185.0
 20
-302.0
 30
0.0
 11
-185.0
 21
0.0
 31
0.0
  0
LINE
  5
4FE7
330
4FDF
100
AcDbEntity
  8
AM_0 外形線1
100
AcDbLine
 10
-220.8999999999996
 20
-311.0
 30
0.0
 11
-220.8999999999996
 21
0.0
 31
0.0
  0
LINE
  5
4FE8
330
4FDF
100
AcDbEntity
  8
AM_0 外形線1
100
AcDbLine
 10
-220.8999999999996
 20
-311.0
 30
0.0
 11
-194.0
 21
-311.0
 31
0.0
  0
LINE
  5
4FE9
330
4FDF
100
AcDbEntity
  8
AM_0 外形線1
100
AcDbLine
 10
-179.0531909999999
 20
-302.0
 30
0.0
 11
-185.0
 21
-302.0
 31
0.0
  0
LINE
  5
4FEA
330
4FDF
100
AcDbEntity
  8
AM_0 外形線1
100
AcDbLine
 10
-194.0
 20
-311.0
 30
0.0
 11
-185.0
 21
-302.0
 31
0.0
  0
LINE
  5
4FEB
330
4FDF
100
AcDbEntity
  8
AM_3 隠れ線
100
AcDbLine
 10
-209.5
 20
265.6000000000001
 30
0.0
 11
-108.5
 21
265.6000000000001
 31
0.0
  0
LINE
  5
4FEC
330
4FDF
100
AcDbEntity
  8
AM_0 外形線1
100
AcDbLine
 10
-220.8999999999996
 20
311.0
 30
0.0
 11
-194.0
 21
311.0
 31
0.0
  0
LINE
  5
4FED
330
4FDF
100
AcDbEntity
  8
AM_0 外形線1
100
AcDbLine
 10
-100.0
 20
280.0
 30
0.0
 11
-217.0
 21
280.0
 31
0.0
  0
LINE
  5
4FEE
330
4FDF
100
AcDbEntity
  8
AM_7 中心線
100
AcDbLine
 10
-98.0
 20
272.0
 30
0.0
 11
-219.0
 21
272.0
 31
0.0
  0
LINE
  5
4FEF
330
4FDF
100
AcDbEntity
  8
AM_0 外形線1
100
AcDbLine
 10
-217.0
 20
281.0
 30
0.0
 11
-217.0
 21
266.6000000000001
 31
0.0
  0
LINE
  5
4FF0
330
4FDF
100
AcDbEntity
  8
AM_0 外形線1
100
AcDbLine
 10
-209.5
 20
265.6000000000001
 30
0.0
 11
-216.0
 21
265.6000000000001
 31
0.0
  0
LINE
  5
4FF1
330
4FDF
100
AcDbEntity
  8
AM_0 外形線1
100
AcDbLine
 10
-217.0
 20
266.6000000000001
 30
0.0
 11
-216.0
 21
265.6000000000001
 31
0.0
  0
LINE
  5
4FF2
330
4FDF
100
AcDbEntity
  8
AM_0 外形線1
100
AcDbLine
 10
-220.8999999999996
 20
281.5000000000002
 30
0.0
 11
-217.5
 21
281.5
 31
0.0
  0
LINE
  5
4FF3
330
4FDF
100
AcDbEntity
  8
AM_0 外形線1
100
AcDbLine
 10
-220.8999999999996
 20
291.5
 30
0.0
 11
-220.8999999999996
 21
286.8000000000002
 31
0.0
  0
LINE
  5
4FF4
330
4FDF
100
AcDbEntity
  8
AM_0 外形線1
100
AcDbLine
 10
-220.8999999999996
 20
311.0
 30
0.0
 11
-220.8999999999996
 21
303.5
 31
0.0
  0
ARC
  5
4FF5
330
4FDF
100
AcDbEntity
  8
AM_0 外形線1
100
AcDbCircle
 10
-217.5
 20
281.0
 30
0.0
 40
0.5
100
AcDbArc
 50
0.0
 51
90.0
  0
LINE
  5
4FF6
330
4FDF
100
AcDbEntity
  8
AM_0 外形線1
100
AcDbLine
 10
-220.8999999999996
 20
286.8000000000002
 30
0.0
 11
-220.8999999999996
 21
281.5
 31
0.0
  0
LINE
  5
4FF7
330
4FDF
100
AcDbEntity
  8
AM_0 外形線1
100
AcDbLine
 10
-194.0
 20
311.0
 30
0.0
 11
-185.0
 21
302.0
 31
0.0
  0
LINE
  5
4FF8
330
4FDF
100
AcDbEntity
  8
AM_0 外形線1
100
AcDbLine
 10
-100.0
 20
266.6000000000001
 30
0.0
 11
-100.0
 21
281.0
 31
0.0
  0
LINE
  5
4FF9
330
4FDF
100
AcDbEntity
  8
AM_0 外形線1
100
AcDbLine
 10
-108.5
 20
265.6000000000001
 30
0.0
 11
-101.0
 21
265.6000000000001
 31
0.0
  0
LINE
  5
4FFA
330
4FDF
100
AcDbEntity
  8
AM_0 外形線1
100
AcDbLine
 10
-101.0
 20
265.6000000000001
 30
0.0
 11
-100.0
 21
266.6000000000001
 31
0.0
  0
ARC
  5
4FFB
330
4FDF
100
AcDbEntity
  8
AM_0 外形線1
100
AcDbCircle
 10
-99.50000000000001
 20
281.0
 30
0.0
 40
0.5
100
AcDbArc
 50
90.0
 51
180.0
  0
LINE
  5
4FFC
330
4FDF
100
AcDbEntity
  8
AM_0 外形線1
100
AcDbLine
 10
-30.0
 20
-354.0
 30
0.0
 11
-30.0
 21
0.0
 31
0.0
  0
LINE
  5
4FFD
330
4FDF
100
AcDbEntity
  8
AM_0 外形線1
100
AcDbLine
 10
-1.0
 20
-355.0
 30
0.0
 11
-29.0
 21
-355.0
 31
0.0
  0
LINE
  5
4FFE
330
4FDF
100
AcDbEntity
  8
AM_7 中心線
100
AcDbLine
 10
53.4239198515579
 20
-332.5
 30
0.0
 11
-53.4239198515579
 21
-332.5
 31
0.0
  0
LINE
  5
4FFF
330
4FDF
100
AcDbEntity
  8
AM_0 外形線1
100
AcDbLine
 10
-29.0
 20
-355.0
 30
0.0
 11
-30.0
 21
-354.0
 31
0.0
  0
LINE
  5
5000
330
4FDF
100
AcDbEntity
  8
AM_0 外形線1
100
AcDbLine
 10
0.0
 20
-354.0
 30
0.0
 11
-1.0
 21
-355.0
 31
0.0
  0
ARC
  5
5001
330
4FDF
100
AcDbEntity
  8
AM_0 外形線1
100
AcDbCircle
 10
-38.0
 20
-310.0
 30
0.0
 40
8.0
100
AcDbArc
 50
0.0
 51
90.0
  0
LINE
  5
5002
330
4FDF
100
AcDbEntity
  8
AM_0 外形線1
100
AcDbLine
 10
-30.0
 20
310.0
 30
0.0
 11
-30.0
 21
354.0
 31
0.0
  0
LINE
  5
5003
330
4FDF
100
AcDbEntity
  8
AM_0 外形線1
100
AcDbLine
 10
-10.08865200000036
 20
281.5
 30
0.0
 11
-8.0
 21
281.5
 31
0.0
  0
LINE
  5
5004
330
4FDF
100
AcDbEntity
  8
AM_0 外形線1
100
AcDbLine
 10
-46.58848299999954
 20
300.0
 30
0.0
 11
-46.518642
 21
302.0
 31
0.0
  0
LINE
  5
5005
330
4FDF
100
AcDbEntity
  8
AM_0 外形線1
100
AcDbLine
 10
-47.00753299999997
 20
288.0
 30
0.0
 11
-47.23451800000019
 21
281.5
 31
0.0
  0
LINE
  5
5006
330
4FDF
100
AcDbEntity
  8
AM_0 外形線1
100
AcDbLine
 10
-48.19344199999978
 20
287.3153150000001
 30
0.0
 11
-48.39510200000042
 21
281.540528
 31
0.0
  0
LINE
  5
5007
330
4FDF
100
AcDbEntity
  8
AM_0 外形線1
100
AcDbLine
 10
-72.99246700000003
 20
288.0
 30
0.0
 11
-72.76548199999981
 21
281.5
 31
0.0
  0
LINE
  5
5008
330
4FDF
100
AcDbEntity
  8
AM_0 外形線1
100
AcDbLine
 10
-71.80655800000022
 20
287.3153150000001
 30
0.0
 11
-71.60348200000044
 21
281.5
 31
0.0
  0
ARC
  5
5009
330
4FDF
100
AcDbEntity
  8
AM_0 外形線1
100
AcDbCircle
 10
-38.0
 20
310.0
 30
0.0
 40
8.0
100
AcDbArc
 50
270.0
 51
0.0
  0
LINE
  5
500A
330
4FDF
100
AcDbEntity
  8
AM_0 外形線1
100
AcDbLine
 10
0.0
 20
295.0
 30
0.0
 11
0.0
 21
319.4999999999998
 31
0.0
  0
LINE
  5
500B
330
4FDF
100
AcDbEntity
  8
AM_0 外形線1
100
AcDbLine
 10
-8.0
 20
281.5
 30
0.0
 11
-8.0
 21
295.0
 31
0.0
  0
LINE
  5
500C
330
4FDF
100
AcDbEntity
  8
AM_0 外形線1
100
AcDbLine
 10
-1.0
 20
355.0
 30
0.0
 11
-29.0
 21
355.0
 31
0.0
  0
LINE
  5
500D
330
4FDF
100
AcDbEntity
  8
AM_0 外形線1
100
AcDbLine
 10
-29.0
 20
355.0
 30
0.0
 11
-30.0
 21
354.0
 31
0.0
  0
LINE
  5
500E
330
4FDF
100
AcDbEntity
  8
AM_0 外形線1
100
AcDbLine
 10
0.0
 20
354.0
 30
0.0
 11
-1.0
 21
355.0
 31
0.0
  0
INSERT
  5
500F
330
4FDF
100
AcDbEntity
  8
AM_0 外形線1
100
AcDbBlockReference
  2
ロッカクアナツキプラグB R3／4
 10
-60.0
 20
302.0
 30
0.0
  0
LINE
  5
507E
330
4FDF
100
AcDbEntity
  8
AM_0 外形線1
100
AcDbLine
 10
0.0
 20
354.0
 30
0.0
 11
0.0
 21
345.5
 31
0.0
  0
LINE
  5
507F
330
4FDF
100
AcDbEntity
  8
AM_0 外形線1
100
AcDbLine
 10
0.0
 20
345.5
 30
0.0
 11
-30.0
 21
345.5
 31
0.0
  0
LINE
  5
5080
330
4FDF
100
AcDbEntity
  8
AM_0 外形線1
100
AcDbLine
 10
0.0
 20
319.4999999999998
 30
0.0
 11
-30.0
 21
319.4999999999998
 31
0.0
  0
LINE
  5
5081
330
4FDF
100
AcDbEntity
  8
AM_0 外形線1
100
AcDbLine
 10
0.0
 20
295.0
 30
0.0
 11
-8.0
 21
295.0
 31
0.0
  0
LINE
  5
5082
330
4FDF
100
AcDbEntity
  8
AM_0 外形線1
100
AcDbLine
 10
0.0
 20
-354.0
 30
0.0
 11
0.0
 21
0.0
 31
0.0
  0
LINE
  5
5083
330
4FDF
100
AcDbEntity
  8
AM_0 外形線1
100
AcDbLine
 10
-47.71127499999964
 20
301.122791
 30
0.0
 11
-47.68064200000025
 21
302.0
 31
0.0
  0
LINE
  5
5084
330
4FDF
100
AcDbEntity
  8
AM_0 外形線1
100
AcDbLine
 10
-73.481358
 20
302.0
 30
0.0
 11
-73.41151700000046
 21
300.0
 31
0.0
  0
LINE
  5
5085
330
4FDF
100
AcDbEntity
  8
AM_0 外形線1
100
AcDbLine
 10
-72.28872500000034
 20
301.122791
 30
0.0
 11
-72.31935799999973
 21
302.0
 31
0.0
  0
ENDBLK
  5
4FE1
330
4FDF
100
AcDbEntity
  8
0
100
AcDbBlockEnd
  0
BLOCK
  5
51AF
330
51AE
100
AcDbEntity
  8
0
100
AcDbBlockBegin
  2
センタＡ CCMH710
 70
     0
 10
0.0
 20
0.0
 30
0.0
  3
センタＡ CCMH710
  1

  0
LINE
  5
51B1
330
51AE
100
AcDbEntity
  8
AM_0 外形線1
100
AcDbLine
 10
0.0
 20
218.25
 30
0.0
 11
0.0
 21
0.0
 31
0.0
  0
LINE
  5
51B2
330
51AE
100
AcDbEntity
  8
AM_0 外形線1
100
AcDbLine
 10
355.0
 20
-238.5
 30
0.0
 11
355.0
 21
238.5
 31
0.0
  0
LINE
  5
51B3
330
51AE
100
AcDbEntity
  8
AM_3 隠れ線
100
AcDbLine
 10
0.0
 20
10.5
 30
0.0
 11
62.0
 21
10.5
 31
0.0
  0
LINE
  5
51B4
330
51AE
100
AcDbEntity
  8
AM_3 隠れ線
100
AcDbLine
 10
42.0
 20
12.0
 30
0.0
 11
42.86602500000025
 21
10.5
 31
0.0
  0
LINE
  5
51B5
330
51AE
100
AcDbEntity
  8
AM_3 隠れ線
100
AcDbLine
 10
42.0
 20
12.0
 30
0.0
 11
42.0
 21
0.0
 31
0.0
  0
LINE
  5
51B6
330
51AE
100
AcDbEntity
  8
AM_3 隠れ線
100
AcDbLine
 10
0.0
 20
12.0
 30
0.0
 11
42.0
 21
12.0
 31
0.0
  0
LINE
  5
51B7
330
51AE
100
AcDbEntity
  8
AM_3 隠れ線
100
AcDbLine
 10
62.0
 20
10.5
 30
0.0
 11
68.06217800000013
 21
0.0
 31
0.0
  0
LINE
  5
51B8
330
51AE
100
AcDbEntity
  8
AM_3 隠れ線
100
AcDbLine
 10
62.0
 20
0.0
 30
0.0
 11
62.0
 21
10.5
 31
0.0
  0
LINE
  5
51B9
330
51AE
100
AcDbEntity
  8
AM_3 隠れ線
100
AcDbLine
 10
42.86602500000025
 20
10.5
 30
0.0
 11
42.86602500000025
 21
0.0
 31
0.0
  0
LINE
  5
51BA
330
51AE
100
AcDbEntity
  8
AM_0 外形線1
100
AcDbLine
 10
256.0
 20
-255.0
 30
0.0
 11
256.0
 21
0.0
 31
0.0
  0
LINE
  5
51BB
330
51AE
100
AcDbEntity
  8
AM_0 外形線1
100
AcDbLine
 10
261.0
 20
-253.5
 30
0.0
 11
261.0
 21
0.0
 31
0.0
  0
LINE
  5
51BC
330
51AE
100
AcDbEntity
  8
AM_0 外形線1
100
AcDbLine
 10
261.0
 20
-253.5
 30
0.0
 11
340.0
 21
-253.5
 31
0.0
  0
LINE
  5
51BD
330
51AE
100
AcDbEntity
  8
AM_0 外形線1
100
AcDbLine
 10
228.0
 20
-255.0
 30
0.0
 11
256.0
 21
-255.0
 31
0.0
  0
LINE
  5
51BE
330
51AE
100
AcDbEntity
  8
AM_0 外形線1
100
AcDbLine
 10
256.0
 20
-255.0
 30
0.0
 11
261.0
 21
-253.5
 31
0.0
  0
ARC
  5
51BF
330
51AE
100
AcDbEntity
  8
AM_0 外形線1
100
AcDbCircle
 10
340.0
 20
-238.5
 30
0.0
 40
15.0
100
AcDbArc
 50
270.0
 51
0.0
  0
LINE
  5
51C0
330
51AE
100
AcDbEntity
  8
AM_3 隠れ線
100
AcDbLine
 10
355.0
 20
10.5
 30
0.0
 11
293.0
 21
10.5
 31
0.0
  0
LINE
  5
51C1
330
51AE
100
AcDbEntity
  8
AM_3 隠れ線
100
AcDbLine
 10
293.0
 20
10.5
 30
0.0
 11
286.9378219999999
 21
0.0
 31
0.0
  0
LINE
  5
51C2
330
51AE
100
AcDbEntity
  8
AM_3 隠れ線
100
AcDbLine
 10
293.0
 20
0.0
 30
0.0
 11
293.0
 21
10.5
 31
0.0
  0
LINE
  5
51C3
330
51AE
100
AcDbEntity
  8
AM_3 隠れ線
100
AcDbLine
 10
312.1339749999997
 20
10.5
 30
0.0
 11
312.1339749999997
 21
0.0
 31
0.0
  0
LINE
  5
51C4
330
51AE
100
AcDbEntity
  8
AM_3 隠れ線
100
AcDbLine
 10
313.0
 20
12.0
 30
0.0
 11
313.0
 21
0.0
 31
0.0
  0
LINE
  5
51C5
330
51AE
100
AcDbEntity
  8
AM_3 隠れ線
100
AcDbLine
 10
355.0
 20
12.0
 30
0.0
 11
313.0
 21
12.0
 31
0.0
  0
LINE
  5
51C6
330
51AE
100
AcDbEntity
  8
AM_3 隠れ線
100
AcDbLine
 10
313.0
 20
12.0
 30
0.0
 11
312.1339749999997
 21
10.5
 31
0.0
  0
ARC
  5
51C7
330
51AE
100
AcDbEntity
  8
AM_0 外形線1
100
AcDbCircle
 10
145.0
 20
0.0
 30
0.0
 40
279.65
100
AcDbArc
 50
79.8045269999985
 51
100.1954730000015
  0
LINE
  5
51CA
330
51AE
100
AcDbEntity
  8
AM_0 外形線1
100
AcDbLine
 10
0.0
 20
253.0
 30
0.0
 11
0.0
 21
218.25
 31
0.0
  0
LINE
  5
51CB
330
51AE
100
AcDbEntity
  8
AM_0 外形線1
100
AcDbLine
 10
94.0
 20
255.0
 30
0.0
 11
2.0
 21
255.0
 31
0.0
  0
LINE
  5
51CC
330
51AE
100
AcDbEntity
  8
AM_0 外形線1
100
AcDbLine
 10
2.0
 20
255.0
 30
0.0
 11
0.0
 21
253.0
 31
0.0
  0
LINE
  5
51CD
330
51AE
100
AcDbEntity
  8
AM_0 外形線1
100
AcDbLine
 10
94.50000000000001
 20
274.05249
 30
0.0
 11
94.50000000000001
 21
255.5
 31
0.0
  0
LINE
  5
51CE
330
51AE
100
AcDbEntity
  8
AM_0 外形線1
100
AcDbLine
 10
95.5
 20
275.234214
 30
0.0
 11
94.50000000000001
 21
274.05249
 31
0.0
  0
ARC
  5
51CF
330
51AE
100
AcDbEntity
  8
AM_0 外形線1
100
AcDbCircle
 10
94.0
 20
255.5
 30
0.0
 40
0.5
100
AcDbArc
 50
270.0
 51
0.0
  0
LINE
  5
51D0
330
51AE
100
AcDbEntity
  8
AM_0 外形線1
100
AcDbLine
 10
340.0
 20
253.5
 30
0.0
 11
261.0
 21
253.5
 31
0.0
  0
LINE
  5
51D1
330
51AE
100
AcDbEntity
  8
AM_0 外形線1
100
AcDbLine
 10
256.0
 20
255.0
 30
0.0
 11
196.0
 21
255.0
 31
0.0
  0
LINE
  5
51D2
330
51AE
100
AcDbEntity
  8
AM_0 外形線1
100
AcDbLine
 10
195.5
 20
274.05249
 30
0.0
 11
194.5
 21
275.234214
 31
0.0
  0
LINE
  5
51D3
330
51AE
100
AcDbEntity
  8
AM_0 外形線1
100
AcDbLine
 10
195.5
 20
255.5
 30
0.0
 11
195.5
 21
274.05249
 31
0.0
  0
ARC
  5
51D4
330
51AE
100
AcDbEntity
  8
AM_0 外形線1
100
AcDbCircle
 10
196.0
 20
255.5
 30
0.0
 40
0.5
100
AcDbArc
 50
180.0
 51
270.0
  0
LINE
  5
51D5
330
51AE
100
AcDbEntity
  8
AM_0 外形線1
100
AcDbLine
 10
261.0
 20
253.5
 30
0.0
 11
256.0
 21
255.0
 31
0.0
  0
ARC
  5
51D6
330
51AE
100
AcDbEntity
  8
AM_0 外形線1
100
AcDbCircle
 10
340.0
 20
238.5
 30
0.0
 40
15.0
100
AcDbArc
 50
0.0
 51
90.0
  0
LINE
  5
51D8
330
51AE
100
AcDbEntity
  8
AM_0 外形線1
100
AcDbLine
 10
0.0
 20
152.5
 30
0.0
 11
355.0
 21
152.5
 31
0.0
  0
LINE
  5
523C
330
51AE
100
AcDbEntity
  8
AM_7 中心線
100
AcDbLine
 10
145.0
 20
284.6500000000001
 30
0.0
 11
145.0
 21
259.0
 31
0.0
  0
ARC
  5
7495
330
51AE
100
AcDbEntity
  8
AM_7 中心線
100
AcDbCircle
 10
145.0
 20
0.0
 30
0.0
 40
272.0
100
AcDbArc
 50
78.64878568139872
 51
101.5875333403335
  0
ARC
  5
75BF
330
51AE
100
AcDbEntity
  8
AM_0 外形線1
100
AcDbCircle
 10
145.0
 20
0.0
 30
0.0
 40
264.0
100
AcDbArc
 50
78.96742660708678
 51
101.0279528735258
  0
ENDBLK
  5
51B0
330
51AE
100
AcDbEntity
  8
0
100
AcDbBlockEnd
  0
BLOCK
  5
528F
330
528E
100
AcDbEntity
  8
0
100
AcDbBlockBegin
  2
センタＢ CCMH710
 70
     0
 10
0.0
 20
0.0
 30
0.0
  3
センタＢ CCMH710
  1

  0
LINE
  5
5291
330
528E
100
AcDbEntity
  8
AM_3 隠れ線
100
AcDbLine
 10
0.0
 20
10.5
 30
0.0
 11
-62.0
 21
10.5
 31
0.0
  0
LINE
  5
5292
330
528E
100
AcDbEntity
  8
AM_0 外形線1
100
AcDbLine
 10
-94.0
 20
255.0
 30
0.0
 11
-2.0
 21
255.0
 31
0.0
  0
LINE
  5
5293
330
528E
100
AcDbEntity
  8
AM_0 外形線1
100
AcDbLine
 10
-355.0
 20
-238.5
 30
0.0
 11
-355.0
 21
238.5
 31
0.0
  0
LINE
  5
5294
330
528E
100
AcDbEntity
  8
AM_3 隠れ線
100
AcDbLine
 10
-355.0
 20
10.5
 30
0.0
 11
-293.0
 21
10.5
 31
0.0
  0
LINE
  5
5295
330
528E
100
AcDbEntity
  8
AM_3 隠れ線
100
AcDbLine
 10
-355.0
 20
12.0
 30
0.0
 11
-313.0
 21
12.0
 31
0.0
  0
LINE
  5
5296
330
528E
100
AcDbEntity
  8
AM_0 外形線1
100
AcDbLine
 10
-261.0
 20
-253.5
 30
0.0
 11
-340.0
 21
-253.5
 31
0.0
  0
ARC
  5
5297
330
528E
100
AcDbEntity
  8
AM_0 外形線1
100
AcDbCircle
 10
-340.0
 20
-238.5
 30
0.0
 40
15.0
100
AcDbArc
 50
180.0
 51
270.0
  0
LINE
  5
5298
330
528E
100
AcDbEntity
  8
AM_0 外形線1
100
AcDbLine
 10
-261.0
 20
-253.5
 30
0.0
 11
-261.0
 21
0.0
 31
0.0
  0
LINE
  5
5299
330
528E
100
AcDbEntity
  8
AM_0 外形線1
100
AcDbLine
 10
-256.0
 20
-255.0
 30
0.0
 11
-256.0
 21
0.0
 31
0.0
  0
LINE
  5
529A
330
528E
100
AcDbEntity
  8
AM_0 外形線1
100
AcDbLine
 10
-256.0
 20
-255.0
 30
0.0
 11
-261.0
 21
-253.5
 31
0.0
  0
LINE
  5
529B
330
528E
100
AcDbEntity
  8
AM_0 外形線1
100
AcDbLine
 10
-228.0
 20
-255.0
 30
0.0
 11
-256.0
 21
-255.0
 31
0.0
  0
LINE
  5
529C
330
528E
100
AcDbEntity
  8
AM_3 隠れ線
100
AcDbLine
 10
-293.0
 20
10.5
 30
0.0
 11
-286.9378219999999
 21
0.0
 31
0.0
  0
LINE
  5
529D
330
528E
100
AcDbEntity
  8
AM_3 隠れ線
100
AcDbLine
 10
-293.0
 20
0.0
 30
0.0
 11
-293.0
 21
10.5
 31
0.0
  0
LINE
  5
529E
330
528E
100
AcDbEntity
  8
AM_3 隠れ線
100
AcDbLine
 10
-312.1339749999997
 20
10.5
 30
0.0
 11
-312.1339749999997
 21
0.0
 31
0.0
  0
LINE
  5
529F
330
528E
100
AcDbEntity
  8
AM_3 隠れ線
100
AcDbLine
 10
-313.0
 20
12.0
 30
0.0
 11
-313.0
 21
0.0
 31
0.0
  0
LINE
  5
52A0
330
528E
100
AcDbEntity
  8
AM_3 隠れ線
100
AcDbLine
 10
-313.0
 20
12.0
 30
0.0
 11
-312.1339749999997
 21
10.5
 31
0.0
  0
LINE
  5
52A1
330
528E
100
AcDbEntity
  8
AM_3 隠れ線
100
AcDbLine
 10
-62.0
 20
10.5
 30
0.0
 11
-68.06217800000013
 21
0.0
 31
0.0
  0
LINE
  5
52A2
330
528E
100
AcDbEntity
  8
AM_3 隠れ線
100
AcDbLine
 10
-62.0
 20
0.0
 30
0.0
 11
-62.0
 21
10.5
 31
0.0
  0
LINE
  5
52A3
330
528E
100
AcDbEntity
  8
AM_0 外形線1
100
AcDbLine
 10
-340.0
 20
253.5
 30
0.0
 11
-261.0
 21
253.5
 31
0.0
  0
ARC
  5
52A4
330
528E
100
AcDbEntity
  8
AM_0 外形線1
100
AcDbCircle
 10
-340.0
 20
238.5
 30
0.0
 40
15.0
100
AcDbArc
 50
90.0
 51
180.0
  0
ARC
  5
52A6
330
528E
100
AcDbEntity
  8
AM_0 外形線1
100
AcDbCircle
 10
-145.0
 20
0.0
 30
0.0
 40
279.65
100
AcDbArc
 50
79.8045269999985
 51
100.1954730000015
  0
LINE
  5
52A8
330
528E
100
AcDbEntity
  8
AM_0 外形線1
100
AcDbLine
 10
-261.0
 20
253.5
 30
0.0
 11
-256.0
 21
255.0
 31
0.0
  0
LINE
  5
52A9
330
528E
100
AcDbEntity
  8
AM_0 外形線1
100
AcDbLine
 10
-256.0
 20
255.0
 30
0.0
 11
-196.0
 21
255.0
 31
0.0
  0
LINE
  5
52AA
330
528E
100
AcDbEntity
  8
AM_0 外形線1
100
AcDbLine
 10
-195.5
 20
274.05249
 30
0.0
 11
-194.5
 21
275.234214
 31
0.0
  0
LINE
  5
52AB
330
528E
100
AcDbEntity
  8
AM_0 外形線1
100
AcDbLine
 10
-195.5
 20
255.5
 30
0.0
 11
-195.5
 21
274.05249
 31
0.0
  0
ARC
  5
52AC
330
528E
100
AcDbEntity
  8
AM_0 外形線1
100
AcDbCircle
 10
-196.0
 20
255.5
 30
0.0
 40
0.5
100
AcDbArc
 50
270.0
 51
0.0
  0
LINE
  5
52AD
330
528E
100
AcDbEntity
  8
AM_7 中心線
100
AcDbLine
 10
-145.0
 20
284.6500000000001
 30
0.0
 11
-145.0
 21
259.0
 31
0.0
  0
ARC
  5
52AE
330
528E
100
AcDbEntity
  8
AM_0 外形線1
100
AcDbCircle
 10
-94.0
 20
255.5
 30
0.0
 40
0.5
100
AcDbArc
 50
180.0
 51
270.0
  0
LINE
  5
52AF
330
528E
100
AcDbEntity
  8
AM_0 外形線1
100
AcDbLine
 10
-94.50000000000001
 20
274.05249
 30
0.0
 11
-94.50000000000001
 21
255.5
 31
0.0
  0
LINE
  5
52B0
330
528E
100
AcDbEntity
  8
AM_0 外形線1
100
AcDbLine
 10
-95.5
 20
275.234214
 30
0.0
 11
-94.50000000000001
 21
274.05249
 31
0.0
  0
LINE
  5
52B1
330
528E
100
AcDbEntity
  8
AM_0 外形線1
100
AcDbLine
 10
0.0
 20
217.5
 30
0.0
 11
0.0
 21
0.0
 31
0.0
  0
LINE
  5
52B2
330
528E
100
AcDbEntity
  8
AM_3 隠れ線
100
AcDbLine
 10
-42.0
 20
12.0
 30
0.0
 11
-42.0
 21
0.0
 31
0.0
  0
LINE
  5
52B3
330
528E
100
AcDbEntity
  8
AM_3 隠れ線
100
AcDbLine
 10
-42.86602500000025
 20
10.5
 30
0.0
 11
-42.86602500000025
 21
0.0
 31
0.0
  0
LINE
  5
52B4
330
528E
100
AcDbEntity
  8
AM_3 隠れ線
100
AcDbLine
 10
0.0
 20
12.0
 30
0.0
 11
-42.0
 21
12.0
 31
0.0
  0
LINE
  5
52B5
330
528E
100
AcDbEntity
  8
AM_3 隠れ線
100
AcDbLine
 10
-42.0
 20
12.0
 30
0.0
 11
-42.86602500000025
 21
10.5
 31
0.0
  0
LINE
  5
52B6
330
528E
100
AcDbEntity
  8
AM_0 外形線1
100
AcDbLine
 10
0.0
 20
253.0
 30
0.0
 11
0.0
 21
227.5
 31
0.0
  0
LINE
  5
52B7
330
528E
100
AcDbEntity
  8
AM_0 外形線1
100
AcDbLine
 10
-2.0
 20
255.0
 30
0.0
 11
0.0
 21
253.0
 31
0.0
  0
LINE
  5
52B8
330
528E
100
AcDbEntity
  8
AM_0 外形線1
100
AcDbLine
 10
0.0
 20
152.5
 30
0.0
 11
-355.0
 21
152.5
 31
0.0
  0
ARC
  5
71F3
330
528E
100
AcDbEntity
  8
AM_7 中心線
100
AcDbCircle
 10
-145.0
 20
0.0
 30
0.0
 40
272.0
100
AcDbArc
 50
78.41246665966645
 51
101.3512143186013
  0
ARC
  5
758E
330
528E
100
AcDbEntity
  8
AM_0 外形線1
100
AcDbCircle
 10
-145.0
 20
0.0
 30
0.0
 40
264.0
100
AcDbArc
 50
78.97204712647419
 51
101.0325733929132
  0
ENDBLK
  5
5290
330
528E
100
AcDbEntity
  8
0
100
AcDbBlockEnd
  0
BLOCK
  5
53E4
330
53E3
100
AcDbEntity
  8
0
100
AcDbBlockBegin
  2
リーマボルト CCMH710 M24
 70
     0
 10
0.0
 20
0.0
 30
0.0
  3
リーマボルト CCMH710 M24
  1

  0
LINE
  5
53E6
330
53E3
100
AcDbEntity
  8
AM_0 外形線1
100
AcDbLine
 10
-91.0
 20
12.0
 30
0.0
 11
-91.0
 21
-12.0
 31
0.0
  0
LINE
  5
53E7
330
53E3
100
AcDbEntity
  8
AM_0 外形線1
100
AcDbLine
 10
-93.0
 20
10.0
 30
0.0
 11
-93.0
 21
-10.0
 31
0.0
  0
ARC
  5
53E8
330
53E3
100
AcDbEntity
  8
AM_0 外形線1
100
AcDbCircle
 10
-50.68787299999986
 20
0.0
 30
0.0
 40
34.212127
100
AcDbArc
 50
162.3163709999824
 51
197.6836290000175
  0
LINE
  5
53E9
330
53E3
100
AcDbEntity
  8
AM_0 外形線1
100
AcDbLine
 10
-65.89999999999964
 20
-20.80000000000018
 30
0.0
 11
-65.89999999999964
 21
20.79999999999973
 31
0.0
  0
LINE
  5
53EA
330
53E3
100
AcDbEntity
  8
AM_0 外形線1
100
AcDbLine
 10
-84.89999999999964
 20
18.0
 30
0.0
 11
-84.89999999999964
 21
-18.0
 31
0.0
  0
LINE
  5
53EB
330
53E3
100
AcDbEntity
  8
AM_0 外形線1
100
AcDbLine
 10
-57.0
 20
13.0
 30
0.0
 11
-57.0
 21
-13.0
 31
0.0
  0
LINE
  5
53EC
330
53E3
100
AcDbEntity
  8
AM_0 外形線1
100
AcDbLine
 10
-2.5
 20
-13.0
 30
0.0
 11
-2.5
 21
13.0
 31
0.0
  0
LINE
  5
53ED
330
53E3
100
AcDbEntity
  8
AM_0 外形線1
100
AcDbLine
 10
-59.0
 20
11.84529900000007
 30
0.0
 11
-59.0
 21
-11.84530000000018
 31
0.0
  0
ARC
  5
53EE
330
53E3
100
AcDbEntity
  8
AM_0 外形線1
100
AcDbCircle
 10
-19.21212699999978
 20
0.0
 30
0.0
 40
34.212127
100
AcDbArc
 50
342.3163709999824
 51
17.68362900001755
  0
LINE
  5
53EF
330
53E3
100
AcDbEntity
  8
AM_0 外形線1
100
AcDbLine
 10
15.0
 20
18.0
 30
0.0
 11
15.0
 21
-18.0
 31
0.0
  0
LINE
  5
53F0
330
53E3
100
AcDbEntity
  8
AM_0 外形線1
100
AcDbLine
 10
-65.89999999999964
 20
-10.39230499999985
 30
0.0
 11
-83.28341899999941
 21
-10.39230499999985
 31
0.0
  0
LINE
  5
53F1
330
53E3
100
AcDbEntity
  8
AM_0 外形線1
100
AcDbLine
 10
-83.28341899999941
 20
-20.80000000000018
 30
0.0
 11
-65.89999999999964
 21
-20.80000000000018
 31
0.0
  0
LINE
  5
53F2
330
53E3
100
AcDbEntity
  8
AM_0 外形線1
100
AcDbLine
 10
-91.0
 20
-12.0
 30
0.0
 11
-84.89999999999964
 21
-12.0
 31
0.0
  0
LINE
  5
53F3
330
53E3
100
AcDbEntity
  8
AM_0 外形線1
100
AcDbLine
 10
-93.0
 20
-10.0
 30
0.0
 11
-91.0
 21
-12.0
 31
0.0
  0
ARC
  5
53F4
330
53E3
100
AcDbEntity
  8
AM_0 外形線1
100
AcDbCircle
 10
-75.71599799999967
 20
-15.59615299999996
 30
0.0
 40
9.184001999999999
100
AcDbArc
 50
145.4850750000159
 51
214.5149249999841
  0
LINE
  5
53F5
330
53E3
100
AcDbEntity
  8
AM_0 外形線1
100
AcDbLine
 10
-84.89999999999964
 20
-18.0
 30
0.0
 11
-83.28341899999941
 21
-20.80000000000018
 31
0.0
  0
LINE
  5
53F6
330
53E3
100
AcDbEntity
  8
AM_4 細線
100
AcDbLine
 10
-92.0
 20
-11.0
 30
0.0
 11
-84.89999999999964
 21
-11.0
 31
0.0
  0
LINE
  5
53F7
330
53E3
100
AcDbEntity
  8
AM_0 外形線1
100
AcDbLine
 10
-59.0
 20
-11.84530000000018
 30
0.0
 11
-60.0
 21
-11.84530000000018
 31
0.0
  0
LINE
  5
53F8
330
53E3
100
AcDbEntity
  8
AM_0 外形線1
100
AcDbLine
 10
-60.0
 20
-17.0
 30
0.0
 11
-65.89999999999964
 21
-17.0
 31
0.0
  0
LINE
  5
53F9
330
53E3
100
AcDbEntity
  8
AM_0 外形線1
100
AcDbLine
 10
-59.0
 20
-11.84530000000018
 30
0.0
 11
-57.0
 21
-13.0
 31
0.0
  0
ARC
  5
53FA
330
53E3
100
AcDbEntity
  8
AM_0 外形線1
100
AcDbCircle
 10
-1.5
 20
-13.0
 30
0.0
 40
1.0
100
AcDbArc
 50
90.0
 51
180.0
  0
LINE
  5
53FB
330
53E3
100
AcDbEntity
  8
AM_0 外形線1
100
AcDbLine
 10
-1.0
 20
-12.0
 30
0.0
 11
-1.5
 21
-12.0
 31
0.0
  0
ARC
  5
53FC
330
53E3
100
AcDbEntity
  8
AM_0 外形線1
100
AcDbCircle
 10
-1.0
 20
-13.0
 30
0.0
 40
1.0
100
AcDbArc
 50
0.0
 51
90.0
  0
ARC
  5
53FD
330
53E3
100
AcDbEntity
  8
AM_0 外形線1
100
AcDbCircle
 10
5.815998000000034
 20
-15.59615299999996
 30
0.0
 40
9.184001999999999
100
AcDbArc
 50
325.4850750000159
 51
34.51492499998407
  0
LINE
  5
53FE
330
53E3
100
AcDbEntity
  8
AM_0 外形線1
100
AcDbLine
 10
0.0
 20
-10.39230499999985
 30
0.0
 11
13.38341899999977
 21
-10.39230499999985
 31
0.0
  0
LINE
  5
53FF
330
53E3
100
AcDbEntity
  8
AM_0 外形線1
100
AcDbLine
 10
13.38341899999977
 20
-20.80000000000018
 30
0.0
 11
0.0
 21
-20.80000000000018
 31
0.0
  0
LINE
  5
5400
330
53E3
100
AcDbEntity
  8
AM_0 外形線1
100
AcDbLine
 10
15.0
 20
-18.0
 30
0.0
 11
13.38341899999977
 21
-20.80000000000018
 31
0.0
  0
LINE
  5
5401
330
53E3
100
AcDbEntity
  8
AM_0 外形線1
100
AcDbLine
 10
-65.89999999999964
 20
10.39230499999985
 30
0.0
 11
-83.28341899999941
 21
10.39230499999985
 31
0.0
  0
LINE
  5
5402
330
53E3
100
AcDbEntity
  8
AM_0 外形線1
100
AcDbLine
 10
-65.89999999999964
 20
20.79999999999973
 30
0.0
 11
-83.28341899999941
 21
20.79999999999973
 31
0.0
  0
LINE
  5
5403
330
53E3
100
AcDbEntity
  8
AM_0 外形線1
100
AcDbLine
 10
-91.0
 20
12.0
 30
0.0
 11
-93.0
 21
10.0
 31
0.0
  0
LINE
  5
5404
330
53E3
100
AcDbEntity
  8
AM_0 外形線1
100
AcDbLine
 10
-84.89999999999964
 20
12.0
 30
0.0
 11
-91.0
 21
12.0
 31
0.0
  0
ARC
  5
5405
330
53E3
100
AcDbEntity
  8
AM_0 外形線1
100
AcDbCircle
 10
-75.71599799999967
 20
15.59615200000053
 30
0.0
 40
9.184001999999999
100
AcDbArc
 50
145.4850750000159
 51
214.5149249999841
  0
LINE
  5
5406
330
53E3
100
AcDbEntity
  8
AM_0 外形線1
100
AcDbLine
 10
-83.28341899999941
 20
20.79999999999973
 30
0.0
 11
-84.89999999999964
 21
18.0
 31
0.0
  0
LINE
  5
5407
330
53E3
100
AcDbEntity
  8
AM_4 細線
100
AcDbLine
 10
-92.0
 20
11.0
 30
0.0
 11
-84.89999999999964
 21
11.0
 31
0.0
  0
LINE
  5
5408
330
53E3
100
AcDbEntity
  8
AM_0 外形線1
100
AcDbLine
 10
-59.0
 20
11.84529900000007
 30
0.0
 11
-60.0
 21
11.84529900000007
 31
0.0
  0
LINE
  5
5409
330
53E3
100
AcDbEntity
  8
AM_0 外形線1
100
AcDbLine
 10
-65.89999999999964
 20
17.0
 30
0.0
 11
-60.0
 21
17.0
 31
0.0
  0
LINE
  5
540A
330
53E3
100
AcDbEntity
  8
AM_0 外形線1
100
AcDbLine
 10
-57.0
 20
13.0
 30
0.0
 11
-59.0
 21
11.84529900000007
 31
0.0
  0
LINE
  5
540B
330
53E3
100
AcDbEntity
  8
AM_0 外形線1
100
AcDbLine
 10
-65.89999999999964
 20
-3.933332999999946
 30
0.0
 11
-60.0
 21
1.966667000000143
 31
0.0
  0
LINE
  5
540C
330
53E3
100
AcDbEntity
  8
AM_0 外形線1
100
AcDbLine
 10
-60.0
 20
3.933333000000401
 30
0.0
 11
-65.89999999999964
 21
-1.966666999999915
 31
0.0
  0
ARC
  5
540D
330
53E3
100
AcDbEntity
  8
AM_0 外形線1
100
AcDbCircle
 10
-1.5
 20
13.0
 30
0.0
 40
1.0
100
AcDbArc
 50
180.0
 51
270.0
  0
LINE
  5
540E
330
53E3
100
AcDbEntity
  8
AM_0 外形線1
100
AcDbLine
 10
-1.0
 20
12.0
 30
0.0
 11
-1.5
 21
12.0
 31
0.0
  0
ARC
  5
540F
330
53E3
100
AcDbEntity
  8
AM_0 外形線1
100
AcDbCircle
 10
-1.0
 20
13.0
 30
0.0
 40
1.0
100
AcDbArc
 50
270.0
 51
0.0
  0
ARC
  5
5410
330
53E3
100
AcDbEntity
  8
AM_0 外形線1
100
AcDbCircle
 10
5.815998000000034
 20
15.59615200000053
 30
0.0
 40
9.184001999999999
100
AcDbArc
 50
325.4850750000159
 51
34.51492499998407
  0
LINE
  5
5411
330
53E3
100
AcDbEntity
  8
AM_0 外形線1
100
AcDbLine
 10
0.0
 20
10.39230499999985
 30
0.0
 11
13.38341899999977
 21
10.39230499999985
 31
0.0
  0
LINE
  5
5412
330
53E3
100
AcDbEntity
  8
AM_0 外形線1
100
AcDbLine
 10
13.38341899999977
 20
20.79999999999973
 30
0.0
 11
15.0
 21
18.0
 31
0.0
  0
LINE
  5
5413
330
53E3
100
AcDbEntity
  8
AM_0 外形線1
100
AcDbLine
 10
0.0
 20
20.79999999999973
 30
0.0
 11
13.38341899999977
 21
20.79999999999973
 31
0.0
  0
LINE
  5
544B
330
53E3
100
AcDbEntity
  8
AM_0 外形線1
100
AcDbLine
 10
0.0
 20
20.79999999999973
 30
0.0
 11
0.0
 21
-20.80000000000018
 31
0.0
  0
LINE
  5
544C
330
53E3
100
AcDbEntity
  8
AM_0 外形線1
100
AcDbLine
 10
-57.0
 20
13.0
 30
0.0
 11
-2.499999999999772
 21
12.99999999999954
 31
0.0
  0
LINE
  5
544D
330
53E3
100
AcDbEntity
  8
AM_0 外形線1
100
AcDbLine
 10
-57.0
 20
-13.0
 30
0.0
 11
-2.499999999999772
 21
-12.99999999999977
 31
0.0
  0
LINE
  5
547C
330
53E3
100
AcDbEntity
  8
AM_0 外形線1
100
AcDbLine
 10
-60.0
 20
17.0
 30
0.0
 11
-60.0
 21
-17.0
 31
0.0
  0
ENDBLK
  5
53E5
330
53E3
100
AcDbEntity
  8
0
100
AcDbBlockEnd
  0
BLOCK
  5
559F
330
559E
100
AcDbEntity
  8
0
100
AcDbBlockBegin
  2
ＧＣサイドカバ－A CCMH710
 70
     0
 10
0.0
 20
0.0
 30
0.0
  3
ＧＣサイドカバ－A CCMH710
  1

  0
LINE
  5
55A1
330
559E
100
AcDbEntity
  8
AM_7 中心線
100
AcDbLine
 10
34.42978700000003
 20
-297.5
 30
0.0
 11
-36.2652479999997
 21
-297.5
 31
0.0
  0
LINE
  5
55A4
330
559E
100
AcDbEntity
  8
AM_0 外形線1
100
AcDbLine
 10
21.10000000000036
 20
-311.0
 30
0.0
 11
0.0
 21
-311.0
 31
0.0
  0
LINE
  5
55A5
330
559E
100
AcDbEntity
  8
AM_0 外形線1
100
AcDbLine
 10
21.10000000000036
 20
0.0
 30
0.0
 11
21.10000000000036
 21
-311.0
 31
0.0
  0
LINE
  5
55A6
330
559E
100
AcDbEntity
  8
AM_0 外形線1
100
AcDbLine
 10
-2.899999999999636
 20
257.0
 30
0.0
 11
-2.899999999999636
 21
281.0
 31
0.0
  0
LINE
  5
55A7
330
559E
100
AcDbEntity
  8
AM_0 外形線1
100
AcDbLine
 10
21.10000000000036
 20
302.0
 30
0.0
 11
21.10000000000036
 21
257.0
 31
0.0
  0
LINE
  5
55A8
330
559E
100
AcDbEntity
  8
AM_0 外形線1
100
AcDbLine
 10
2.100000000000362
 20
257.0
 30
0.0
 11
-2.899999999999636
 21
257.0
 31
0.0
  0
LINE
  5
55A9
330
559E
100
AcDbEntity
  8
AM_0 外形線1
100
AcDbLine
 10
-2.899999999999636
 20
257.0
 30
0.0
 11
-2.899999999999636
 21
255.0
 31
0.0
  0
LWPOLYLINE
  5
55AA
330
559E
100
AcDbEntity
  8
AM_0 外形線1
100
AcDbPolyline
 90
       73
 70
     0
 43
0.0
 10
2.117377000000486
 20
259.0403130000002
 10
2.14573300000029
 20
258.6808250000002
 10
2.226940000000466
 20
258.324342
 10
2.360382000000754
 20
257.9735760000001
 10
2.545043000000076
 20
257.631198
 10
2.779518000000279
 20
257.299812
 10
3.06202100000064
 20
256.981941
 10
3.390403999999761
 20
256.6800050000002
 10
3.762166000000433
 20
256.396301
 10
4.174479000000245
 20
256.1329880000001
 10
4.624203999999735
 20
255.8920700000001
 10
5.107919000000038
 20
255.6753810000003
 10
5.621942000000672
 20
255.4845700000001
 10
6.16236200000003
 20
255.321089
 10
6.725065000000539
 20
255.1861820000001
 10
7.305769000000508
 20
255.080876
 10
7.900055000000065
 20
255.005973
 10
8.50340000000051
 20
254.9620420000001
 10
9.111211000000366
 20
254.9494180000002
 10
9.718863000000057
 20
254.9681970000001
 10
10.321731
 20
255.0182360000001
 10
10.91522799999984
 20
255.099154
 10
11.49483599999985
 20
255.210335
 10
12.05614400000013
 20
255.3509340000001
 10
12.59488100000089
 20
255.5198800000001
 10
13.10694500000045
 20
255.7158870000001
 10
13.58844099999987
 20
255.9374640000001
 10
14.03570300000047
 20
256.1829240000002
 10
14.44532799999979
 20
256.4503990000001
 10
14.81419800000003
 20
256.7378530000001
 10
15.13950600000043
 20
257.0431000000001
 10
15.41877500000009
 20
257.3638150000002
 10
15.64988200000061
 20
257.6975589999999
 10
15.83106600000064
 20
258.0417900000002
 10
15.96094900000025
 20
258.3938890000002
 10
16.03854200000023
 20
258.751176
 10
16.06325500000093
 20
259.1109330000001
 10
16.03490000000056
 20
259.470421
 10
15.95369200000004
 20
259.8269050000001
 10
15.82025000000067
 20
260.1776709999999
 10
15.63558900000044
 20
260.5200490000002
 10
15.40111500000057
 20
260.851435
 10
15.11861099999987
 20
261.1693050000001
 10
14.79022900000018
 20
261.4712420000001
 10
14.41846700000042
 20
261.754946
 10
14.0061540000006
 20
262.0182590000002
 10
13.5564290000002
 20
262.2591770000001
 10
13.0727139999999
 20
262.475866
 10
12.55869100000018
 20
262.6666769999999
 10
12.01827100000082
 20
262.830158
 10
11.45556700000088
 20
262.9650650000001
 10
10.87486300000091
 20
263.0703699999999
 10
10.28057700000045
 20
263.1452740000002
 10
9.677233000000342
 20
263.1892050000001
 10
9.069422000000486
 20
263.2018290000001
 10
8.461769999999887
 20
263.1830500000001
 10
7.858901000000513
 20
263.1330110000001
 10
7.265403999999763
 20
263.052093
 10
6.685796000000664
 20
262.9409109999999
 10
6.124488000000382
 20
262.8003130000002
 10
5.585752000000866
 20
262.6313670000002
 10
5.073687000000063
 20
262.43536
 10
4.592191000000639
 20
262.2137830000002
 10
4.144929000000047
 20
261.9683230000001
 10
3.735303999999814
 20
261.7008480000002
 10
3.366434999999909
 20
261.413393
 10
3.041127000000414
 20
261.1081470000002
 10
2.761857000000417
 20
260.7874310000002
 10
2.530751000000235
 20
260.4536880000001
 10
2.349567000000206
 20
260.109457
 10
2.219684000000596
 20
259.7573580000001
 10
2.14209000000028
 20
259.4000699999999
 10
2.117377000000486
 20
259.0403130000002
  0
LINE
  5
55AB
330
559E
100
AcDbEntity
  8
AM_0 外形線1
100
AcDbLine
 10
2.100000000000362
 20
263.2000000000001
 30
0.0
 11
2.100000000000362
 21
257.0
 31
0.0
  0
LINE
  5
55AC
330
559E
100
AcDbEntity
  8
AM_0 外形線1
100
AcDbLine
 10
16.10000000000036
 20
263.2000000000001
 30
0.0
 11
2.100000000000362
 21
263.2000000000001
 31
0.0
  0
LINE
  5
55AD
330
559E
100
AcDbEntity
  8
AM_0 外形線1
100
AcDbLine
 10
16.10000000000036
 20
257.0
 30
0.0
 11
16.10000000000036
 21
263.2000000000001
 31
0.0
  0
LINE
  5
55AE
330
559E
100
AcDbEntity
  8
AM_0 外形線1
100
AcDbLine
 10
21.10000000000036
 20
257.0
 30
0.0
 11
16.10000000000036
 21
257.0
 31
0.0
  0
LINE
  5
55AF
330
559E
100
AcDbEntity
  8
AM_0 外形線1
100
AcDbLine
 10
2.100000000000362
 20
257.0
 30
0.0
 11
2.100000000000362
 21
255.0
 31
0.0
  0
LINE
  5
55B0
330
559E
100
AcDbEntity
  8
AM_0 外形線1
100
AcDbLine
 10
16.10000000000036
 20
257.0
 30
0.0
 11
16.10000000000036
 21
255.0
 31
0.0
  0
LINE
  5
55B1
330
559E
100
AcDbEntity
  8
AM_0 外形線1
100
AcDbLine
 10
21.10000000000036
 20
257.0
 30
0.0
 11
21.10000000000036
 21
255.0
 31
0.0
  0
LWPOLYLINE
  5
55B3
330
559E
100
AcDbEntity
  8
AM_0 外形線1
100
AcDbPolyline
 90
       73
 70
     0
 43
0.0
 10
1.550000000000181
 20
281.5
 10
1.685091000000284
 20
281.510084
 10
1.819155000000137
 20
281.5402590000001
 10
1.951170000000274
 20
281.5902960000002
 10
2.080131000000618
 20
281.6598140000001
 10
2.205058000000462
 20
281.748284
 10
2.325000000000727
 20
281.855033
 10
2.439043000000309
 20
281.9792470000002
 10
2.546321000000715
 20
282.1199820000002
 10
2.646016000000598
 20
282.276167
 10
2.737369000000398
 20
282.4466130000001
 10
2.819686000000728
 20
282.6300220000001
 10
2.892338999999991
 20
282.825
 10
2.95477700000083
 20
283.0300609999999
 10
3.006524000000353
 20
283.2436459999999
 10
3.047185000000353
 20
283.464129
 10
3.076452000000243
 20
283.6898319999999
 10
3.09410200000002
 20
283.9190369999999
 10
3.100000000000362
 20
284.1500000000001
 10
3.09410200000002
 20
284.3809630000001
 10
3.076452000000243
 20
284.6101680000002
 10
3.047185000000353
 20
284.8358700000001
 10
3.006524000000353
 20
285.056353
 10
2.95477700000083
 20
285.2699380000002
 10
2.892338999999991
 20
285.4750000000001
 10
2.819686000000728
 20
285.669977
 10
2.737369000000398
 20
285.8533869999999
 10
2.646016000000598
 20
286.0238330000002
 10
2.546321000000715
 20
286.180018
 10
2.439043000000309
 20
286.320753
 10
2.325000000000727
 20
286.4449670000001
 10
2.205058000000462
 20
286.5517160000002
 10
2.080131000000618
 20
286.640185
 10
1.951170000000274
 20
286.709703
 10
1.819155000000137
 20
286.7597400000002
 10
1.685091000000284
 20
286.7899160000002
 10
1.550000000000181
 20
286.8000000000002
 10
1.414909000000078
 20
286.7899160000002
 10
1.280845000000225
 20
286.7597400000002
 10
1.148830000000089
 20
286.709703
 10
1.019868999999743
 20
286.640185
 10
0.8949420000008101
 20
286.5517160000002
 10
0.7750000000005457
 20
286.4449670000001
 10
0.6609570000000531
 20
286.320753
 10
0.5536790000005567
 20
286.180018
 10
0.4539840000006734
 20
286.0238330000002
 10
0.3626309999999648
 20
285.8533869999999
 10
0.2803140000005442
 20
285.669977
 10
0.2076610000003711
 20
285.4750000000001
 10
0.145223000000442
 20
285.2699380000002
 10
0.0934760000000097
 20
285.056353
 10
0.0528150000009191
 20
284.8358700000001
 10
0.0235480000001189
 20
284.6101680000002
 10
0.005898000000343
 20
284.3809630000001
 10
0.0
 20
284.1500000000001
 10
0.005898000000343
 20
283.9190369999999
 10
0.0235480000001189
 20
283.6898319999999
 10
0.0528150000009191
 20
283.464129
 10
0.0934760000000097
 20
283.2436459999999
 10
0.145223000000442
 20
283.0300609999999
 10
0.2076610000003711
 20
282.825
 10
0.2803140000005442
 20
282.6300220000001
 10
0.3626309999999648
 20
282.4466130000001
 10
0.4539840000006734
 20
282.276167
 10
0.5536790000005567
 20
282.1199820000002
 10
0.6609570000000531
 20
281.9792470000002
 10
0.7750000000005457
 20
281.855033
 10
0.8949420000008101
 20
281.748284
 10
1.019868999999743
 20
281.6598140000001
 10
1.148830000000089
 20
281.5902960000002
 10
1.280845000000225
 20
281.5402590000001
 10
1.414909000000078
 20
281.510084
 10
1.550000000000181
 20
281.5
  0
LINE
  5
55B4
330
559E
100
AcDbEntity
  8
AM_0 外形線1
100
AcDbLine
 10
3.100000000000362
 20
286.8000000000002
 30
0.0
 11
3.100000000000362
 21
281.5
 31
0.0
  0
LINE
  5
55B5
330
559E
100
AcDbEntity
  8
AM_0 外形線1
100
AcDbLine
 10
0.0
 20
286.8000000000002
 30
0.0
 11
3.100000000000362
 21
286.8000000000002
 31
0.0
  0
LINE
  5
55B6
330
559E
100
AcDbEntity
  8
AM_0 外形線1
100
AcDbLine
 10
21.10000000000036
 20
311.0
 30
0.0
 11
0.0
 21
311.0
 31
0.0
  0
LINE
  5
55B7
330
559E
100
AcDbEntity
  8
AM_0 外形線1
100
AcDbLine
 10
21.10000000000036
 20
302.0
 30
0.0
 11
21.10000000000036
 21
311.0
 31
0.0
  0
LINE
  5
55B8
330
559E
100
AcDbEntity
  8
AM_0 外形線1
100
AcDbLine
 10
0.0
 20
290.5
 30
0.0
 11
21.10000000000036
 21
290.5
 31
0.0
  0
LINE
  5
55B9
330
559E
100
AcDbEntity
  8
AM_0 外形線1
100
AcDbLine
 10
21.10000000000036
 20
304.5
 30
0.0
 11
0.0
 21
304.5
 31
0.0
  0
LINE
  5
55F3
330
559E
100
AcDbEntity
  8
AM_0 外形線1
100
AcDbLine
 10
0.0
 20
0.0
 30
0.0
 11
0.0000000000002274
 21
-311.0
 31
0.0
  0
LINE
  5
55F4
330
559E
100
AcDbEntity
  8
AM_0 外形線1
100
AcDbLine
 10
3.100000000000362
 20
281.5
 30
0.0
 11
-2.399999999999635
 21
281.5
 31
0.0
  0
LINE
  5
55F5
330
559E
100
AcDbEntity
  8
AM_0 外形線1
100
AcDbLine
 10
-2.899999999999636
 20
281.0
 30
0.0
 11
-2.399999999999635
 21
281.5
 31
0.0
1001
GENIUS_GENFIL_13
1070
     0
1040
0.5
1040
0.5
1040
20.0
1040
0.0
1002
{
1002
}
1001
GENIUS_GENODEF_13
1002
{
1000
HIER
1070
     0
1002
}
1002
{
1000
MANEDIT
1070
     0
1002
}
1002
{
1000
NOSEL
1070
     0
1002
}
1002
{
1000
BEHIND
1070
     0
1002
}
1002
{
1000
OTHER
1070
     0
1002
}
1002
{
1000
REACTOR
1002
}
1001
GENIUS_GENOBJ-N-CHA_13
1002
{
1000
OWNER
1000
GEN
1002
}
  0
LINE
  5
55F6
330
559E
100
AcDbEntity
  8
AM_0 外形線1
100
AcDbLine
 10
0.0
 20
286.8000000000002
 30
0.0
 11
0.0
 21
291.5
 31
0.0
  0
LINE
  5
55F7
330
559E
100
AcDbEntity
  8
AM_0 外形線1
100
AcDbLine
 10
0.0000000000002274
 20
303.5
 30
0.0
 11
0.0000000000002274
 21
311.0
 31
0.0
  0
LINE
  5
574E
330
559E
100
AcDbEntity
  8
AM_7 中心線
100
AcDbLine
 10
34.42978700000003
 20
297.5
 30
0.0
 11
-36.2652479999997
 21
297.5
 31
0.0
  0
LINE
  5
574F
330
559E
100
AcDbEntity
  8
AM_4 細線
100
AcDbLine
 10
-19.0
 20
303.5
 30
0.0
 11
21.10000000000036
 21
303.5
 31
0.0
  0
LINE
  5
5750
330
559E
100
AcDbEntity
  8
AM_4 細線
100
AcDbLine
 10
21.10000000000036
 20
291.5
 30
0.0
 11
-19.0
 21
291.5
 31
0.0
  0
LINE
  5
5751
330
559E
100
AcDbEntity
  8
AM_0 外形線1
100
AcDbLine
 10
21.10000000000036
 20
292.3499999999999
 30
0.0
 11
-19.0
 21
292.3499999999999
 31
0.0
  0
LINE
  5
5752
330
559E
100
AcDbEntity
  8
AM_0 外形線1
100
AcDbLine
 10
21.10000000000036
 20
302.6499999999999
 30
0.0
 11
-19.0
 21
302.6499999999999
 31
0.0
  0
LINE
  5
5753
330
559E
100
AcDbEntity
  8
AM_0 外形線1
100
AcDbLine
 10
-30.0
 20
302.6499999999999
 30
0.0
 11
-30.0
 21
292.3499999999999
 31
0.0
  0
LINE
  5
5754
330
559E
100
AcDbEntity
  8
AM_0 外形線1
100
AcDbLine
 10
-30.0
 20
292.3499999999999
 30
0.0
 11
-19.0
 21
292.3499999999999
 31
0.0
  0
LINE
  5
5755
330
559E
100
AcDbEntity
  8
AM_0 外形線1
100
AcDbLine
 10
-32.97335399999975
 20
297.5
 30
0.0
 11
-30.0
 21
292.3499999999999
 31
0.0
  0
LINE
  5
5756
330
559E
100
AcDbEntity
  8
AM_0 外形線1
100
AcDbLine
 10
-30.0
 20
302.6499999999999
 30
0.0
 11
-32.97335399999975
 21
297.5
 31
0.0
  0
LINE
  5
5757
330
559E
100
AcDbEntity
  8
AM_0 外形線1
100
AcDbLine
 10
-19.0
 20
302.6499999999999
 30
0.0
 11
-30.0
 21
302.6499999999999
 31
0.0
  0
LINE
  5
5758
330
559E
100
AcDbEntity
  8
AM_0 外形線1
100
AcDbLine
 10
-24.0
 20
303.5
 30
0.0
 11
-24.0
 21
291.5
 31
0.0
  0
LINE
  5
5759
330
559E
100
AcDbEntity
  8
AM_0 外形線1
100
AcDbLine
 10
-19.0
 20
291.5
 30
0.0
 11
-19.0
 21
303.5
 31
0.0
  0
LINE
  5
575A
330
559E
100
AcDbEntity
  8
AM_0 外形線1
100
AcDbLine
 10
-24.0
 20
291.5
 30
0.0
 11
-19.0
 21
291.5
 31
0.0
  0
LINE
  5
575B
330
559E
100
AcDbEntity
  8
AM_0 外形線1
100
AcDbLine
 10
-19.0
 20
303.5
 30
0.0
 11
-24.0
 21
303.5
 31
0.0
  0
LINE
  5
575C
330
559E
100
AcDbEntity
  8
AM_0 外形線1
100
AcDbLine
 10
24.10000000000037
 20
298.5
 30
0.0
 11
21.10000000000036
 21
295.5
 31
0.0
  0
LINE
  5
575D
330
559E
100
AcDbEntity
  8
AM_0 外形線1
100
AcDbLine
 10
21.10000000000036
 20
296.5
 30
0.0
 11
24.10000000000037
 21
299.5
 31
0.0
  0
LINE
  5
575E
330
559E
100
AcDbEntity
  8
AM_0 外形線1
100
AcDbLine
 10
31.1376820000005
 20
292.0348270000001
 30
0.0
 11
24.10000000000037
 21
292.0348270000001
 31
0.0
  0
LINE
  5
575F
330
559E
100
AcDbEntity
  8
AM_0 外形線1
100
AcDbLine
 10
31.1376820000005
 20
302.9651720000002
 30
0.0
 11
24.10000000000037
 21
302.9651720000002
 31
0.0
  0
LINE
  5
5760
330
559E
100
AcDbEntity
  8
AM_0 外形線1
100
AcDbLine
 10
32.10000000000036
 20
305.9967200000001
 30
0.0
 11
32.10000000000036
 21
289.0032790000002
 31
0.0
  0
LINE
  5
5761
330
559E
100
AcDbEntity
  8
AM_0 外形線1
100
AcDbLine
 10
24.10000000000037
 20
286.5500000000002
 30
0.0
 11
24.10000000000037
 21
286.7
 31
0.0
  0
LINE
  5
5762
330
559E
100
AcDbEntity
  8
AM_0 外形線1
100
AcDbLine
 10
31.1376820000005
 20
286.5500000000002
 30
0.0
 11
24.10000000000037
 21
286.5500000000002
 31
0.0
  0
ARC
  5
5763
330
559E
100
AcDbEntity
  8
AM_0 外形線1
100
AcDbCircle
 10
27.75461100000029
 20
289.292414
 30
0.0
 40
4.354998
100
AcDbArc
 50
320.9707969999917
 51
39.02920300000833
  0
ARC
  5
5764
330
559E
100
AcDbEntity
  8
AM_0 外形線1
100
AcDbCircle
 10
16.10000000000036
 20
297.5
 30
0.0
 40
16.0
100
AcDbArc
 50
340.0272440000077
 51
19.97275599999236
  0
ARC
  5
5765
330
559E
100
AcDbEntity
  8
AM_0 外形線1
100
AcDbCircle
 10
27.75461100000029
 20
305.7075860000002
 30
0.0
 40
4.354998
100
AcDbArc
 50
320.9707969999917
 51
39.02920300000833
  0
LINE
  5
5766
330
559E
100
AcDbEntity
  8
AM_0 外形線1
100
AcDbLine
 10
27.76608300000044
 20
308.4499999999998
 30
0.0
 11
31.1376820000005
 21
308.4499999999998
 31
0.0
  0
LINE
  5
5767
330
559E
100
AcDbEntity
  8
AM_0 外形線1
100
AcDbLine
 10
24.10000000000037
 20
308.4499999999998
 30
0.0
 11
27.76608300000044
 21
308.4499999999998
 31
0.0
  0
LINE
  5
5768
330
559E
100
AcDbEntity
  8
AM_0 外形線1
100
AcDbLine
 10
24.10000000000037
 20
308.3
 30
0.0
 11
24.10000000000037
 21
308.4499999999998
 31
0.0
  0
LINE
  5
5769
330
559E
100
AcDbEntity
  8
AM_0 外形線1
100
AcDbLine
 10
24.10000000000037
 20
286.7
 30
0.0
 11
21.10000000000036
 21
286.7
 31
0.0
  0
LINE
  5
576A
330
559E
100
AcDbEntity
  8
AM_0 外形線1
100
AcDbLine
 10
24.10000000000037
 20
308.3
 30
0.0
 11
24.10000000000037
 21
286.7
 31
0.0
  0
LINE
  5
576B
330
559E
100
AcDbEntity
  8
AM_0 外形線1
100
AcDbLine
 10
21.10000000000036
 20
308.3
 30
0.0
 11
24.10000000000037
 21
308.3
 31
0.0
  0
ENDBLK
  5
55A0
330
559E
100
AcDbEntity
  8
0
100
AcDbBlockEnd
  0
BLOCK
  5
5670
330
566F
100
AcDbEntity
  8
0
100
AcDbBlockBegin
  2
ＧＣサイドカバ－Ｂ CCMH710
 70
     0
 10
0.0
 20
0.0
 30
0.0
  3
ＧＣサイドカバ－Ｂ CCMH710
  1

  0
LINE
  5
5673
330
566F
100
AcDbEntity
  8
AM_7 中心線
100
AcDbLine
 10
-34.42978700000094
 20
-297.5
 30
0.0
 11
36.2652479999997
 21
-297.5
 31
0.0
  0
LINE
  5
5675
330
566F
100
AcDbEntity
  8
AM_0 外形線1
100
AcDbLine
 10
-21.10000000000036
 20
-311.0
 30
0.0
 11
0.0
 21
-311.0
 31
0.0
  0
LINE
  5
5676
330
566F
100
AcDbEntity
  8
AM_0 外形線1
100
AcDbLine
 10
-21.10000000000036
 20
0.0
 30
0.0
 11
-21.10000000000036
 21
-311.0
 31
0.0
  0
LINE
  5
5677
330
566F
100
AcDbEntity
  8
AM_7 中心線
100
AcDbLine
 10
-34.42978700000094
 20
297.5
 30
0.0
 11
36.2652479999997
 21
297.5
 31
0.0
  0
LINE
  5
5678
330
566F
100
AcDbEntity
  8
AM_0 外形線1
100
AcDbLine
 10
2.899999999999636
 20
257.0
 30
0.0
 11
2.899999999999636
 21
281.0
 31
0.0
  0
LINE
  5
5679
330
566F
100
AcDbEntity
  8
AM_0 外形線1
100
AcDbLine
 10
-21.10000000000036
 20
302.0
 30
0.0
 11
-21.10000000000036
 21
257.0
 31
0.0
  0
LINE
  5
567A
330
566F
100
AcDbEntity
  8
AM_0 外形線1
100
AcDbLine
 10
-21.10000000000036
 20
257.0
 30
0.0
 11
-16.10000000000036
 21
257.0
 31
0.0
  0
LINE
  5
567B
330
566F
100
AcDbEntity
  8
AM_0 外形線1
100
AcDbLine
 10
-21.10000000000036
 20
257.0
 30
0.0
 11
-21.10000000000036
 21
255.0
 31
0.0
  0
LWPOLYLINE
  5
567C
330
566F
100
AcDbEntity
  8
AM_0 外形線1
100
AcDbPolyline
 90
       73
 70
     0
 43
0.0
 10
-2.117377000000486
 20
259.0403130000002
 10
-2.14209000000028
 20
259.4000699999999
 10
-2.219684000000596
 20
259.7573580000001
 10
-2.349567000000206
 20
260.109457
 10
-2.530751000000235
 20
260.4536880000001
 10
-2.761857000000417
 20
260.7874310000002
 10
-3.041127000000414
 20
261.1081470000002
 10
-3.366434999999909
 20
261.413393
 10
-3.735303999999814
 20
261.7008480000002
 10
-4.144929000000047
 20
261.9683230000001
 10
-4.592191000000639
 20
262.2137830000002
 10
-5.073687000000063
 20
262.43536
 10
-5.585752000000866
 20
262.6313670000002
 10
-6.124488000000382
 20
262.8003130000002
 10
-6.685796000000664
 20
262.9409109999999
 10
-7.265403999999763
 20
263.052093
 10
-7.858901000000513
 20
263.1330110000001
 10
-8.461769999999887
 20
263.1830500000001
 10
-9.069422000000486
 20
263.2018290000001
 10
-9.677233000000342
 20
263.1892050000001
 10
-10.28057700000045
 20
263.1452740000002
 10
-10.87486300000091
 20
263.0703699999999
 10
-11.45556700000088
 20
262.9650650000001
 10
-12.01827100000082
 20
262.830158
 10
-12.55869100000018
 20
262.6666769999999
 10
-13.0727139999999
 20
262.475866
 10
-13.5564290000002
 20
262.2591770000001
 10
-14.0061540000006
 20
262.0182590000002
 10
-14.41846700000042
 20
261.754946
 10
-14.79022900000018
 20
261.4712420000001
 10
-15.11861099999987
 20
261.1693050000001
 10
-15.40111500000057
 20
260.851435
 10
-15.63558900000044
 20
260.5200490000002
 10
-15.82025000000067
 20
260.1776709999999
 10
-15.95369200000095
 20
259.8269050000001
 10
-16.03490000000056
 20
259.470421
 10
-16.06325500000093
 20
259.1109330000001
 10
-16.03854200000023
 20
258.751176
 10
-15.96094900000025
 20
258.3938890000002
 10
-15.83106600000064
 20
258.0417900000002
 10
-15.64988200000061
 20
257.6975589999999
 10
-15.41877500000009
 20
257.3638150000002
 10
-15.13950600000043
 20
257.0431000000001
 10
-14.81419800000003
 20
256.7378530000001
 10
-14.4453280000007
 20
256.4503990000001
 10
-14.03570300000047
 20
256.1829240000002
 10
-13.58844099999987
 20
255.9374640000001
 10
-13.10694500000045
 20
255.7158870000001
 10
-12.59488099999998
 20
255.5198800000001
 10
-12.05614400000013
 20
255.3509340000001
 10
-11.49483599999985
 20
255.210335
 10
-10.91522799999984
 20
255.099154
 10
-10.321731
 20
255.0182360000001
 10
-9.718863000000057
 20
254.9681970000001
 10
-9.111211000000366
 20
254.9494180000002
 10
-8.50340000000051
 20
254.9620420000001
 10
-7.900055000000065
 20
255.005973
 10
-7.305769000000508
 20
255.080876
 10
-6.725065000000539
 20
255.1861820000001
 10
-6.16236200000003
 20
255.321089
 10
-5.621942000000672
 20
255.4845700000001
 10
-5.107919000000038
 20
255.6753810000003
 10
-4.624203999999735
 20
255.8920700000001
 10
-4.174479000000245
 20
256.1329880000001
 10
-3.762166000000433
 20
256.396301
 10
-3.390403999999761
 20
256.6800050000002
 10
-3.06202100000064
 20
256.981941
 10
-2.779518000000279
 20
257.299812
 10
-2.545043000000076
 20
257.631198
 10
-2.360382000000754
 20
257.9735760000001
 10
-2.226940000000466
 20
258.324342
 10
-2.14573300000029
 20
258.6808250000002
 10
-2.117377000000486
 20
259.0403130000002
  0
LINE
  5
567D
330
566F
100
AcDbEntity
  8
AM_0 外形線1
100
AcDbLine
 10
-2.100000000000362
 20
257.0
 30
0.0
 11
2.899999999999636
 21
257.0
 31
0.0
  0
LINE
  5
567E
330
566F
100
AcDbEntity
  8
AM_0 外形線1
100
AcDbLine
 10
-2.100000000000362
 20
263.2000000000001
 30
0.0
 11
-2.100000000000362
 21
257.0
 31
0.0
  0
LINE
  5
567F
330
566F
100
AcDbEntity
  8
AM_0 外形線1
100
AcDbLine
 10
-16.10000000000036
 20
263.2000000000001
 30
0.0
 11
-2.100000000000362
 21
263.2000000000001
 31
0.0
  0
LINE
  5
5680
330
566F
100
AcDbEntity
  8
AM_0 外形線1
100
AcDbLine
 10
-16.10000000000036
 20
257.0
 30
0.0
 11
-16.10000000000036
 21
263.2000000000001
 31
0.0
  0
LINE
  5
5681
330
566F
100
AcDbEntity
  8
AM_0 外形線1
100
AcDbLine
 10
2.899999999999636
 20
257.0
 30
0.0
 11
2.899999999999636
 21
255.0
 31
0.0
  0
LINE
  5
5682
330
566F
100
AcDbEntity
  8
AM_0 外形線1
100
AcDbLine
 10
-2.100000000000362
 20
257.0
 30
0.0
 11
-2.100000000000362
 21
255.0
 31
0.0
  0
LINE
  5
5683
330
566F
100
AcDbEntity
  8
AM_0 外形線1
100
AcDbLine
 10
-16.10000000000036
 20
257.0
 30
0.0
 11
-16.10000000000036
 21
255.0
 31
0.0
  0
LINE
  5
5684
330
566F
100
AcDbEntity
  8
AM_0 外形線1
100
AcDbLine
 10
-21.10000000000036
 20
311.0
 30
0.0
 11
0.0
 21
311.0
 31
0.0
  0
LINE
  5
5685
330
566F
100
AcDbEntity
  8
AM_0 外形線1
100
AcDbLine
 10
0.0
 20
290.5
 30
0.0
 11
-21.10000000000036
 21
290.5
 31
0.0
  0
LINE
  5
5686
330
566F
100
AcDbEntity
  8
AM_0 外形線1
100
AcDbLine
 10
-21.10000000000036
 20
304.5
 30
0.0
 11
0.0
 21
304.5
 31
0.0
  0
LINE
  5
5687
330
566F
100
AcDbEntity
  8
AM_0 外形線1
100
AcDbLine
 10
-21.10000000000036
 20
298.5
 30
0.0
 11
-24.10000000000037
 21
295.5
 31
0.0
  0
LINE
  5
5688
330
566F
100
AcDbEntity
  8
AM_0 外形線1
100
AcDbLine
 10
-24.10000000000037
 20
296.5
 30
0.0
 11
-21.10000000000036
 21
299.5
 31
0.0
  0
LINE
  5
5689
330
566F
100
AcDbEntity
  8
AM_0 外形線1
100
AcDbLine
 10
-21.10000000000036
 20
302.0
 30
0.0
 11
-21.10000000000036
 21
311.0
 31
0.0
  0
LINE
  5
568A
330
566F
100
AcDbEntity
  8
AM_0 外形線1
100
AcDbLine
 10
-31.1376820000005
 20
292.0348270000001
 30
0.0
 11
-24.10000000000037
 21
292.0348270000001
 31
0.0
  0
LINE
  5
568B
330
566F
100
AcDbEntity
  8
AM_0 外形線1
100
AcDbLine
 10
-31.1376820000005
 20
302.9651720000002
 30
0.0
 11
-24.10000000000037
 21
302.9651720000002
 31
0.0
  0
LINE
  5
568C
330
566F
100
AcDbEntity
  8
AM_0 外形線1
100
AcDbLine
 10
-32.10000000000036
 20
305.9967200000001
 30
0.0
 11
-32.10000000000036
 21
289.0032790000002
 31
0.0
  0
LINE
  5
568D
330
566F
100
AcDbEntity
  8
AM_0 外形線1
100
AcDbLine
 10
-24.10000000000037
 20
286.5500000000002
 30
0.0
 11
-24.10000000000037
 21
286.7
 31
0.0
  0
LINE
  5
568E
330
566F
100
AcDbEntity
  8
AM_0 外形線1
100
AcDbLine
 10
-31.1376820000005
 20
286.5500000000002
 30
0.0
 11
-24.10000000000037
 21
286.5500000000002
 31
0.0
  0
ARC
  5
568F
330
566F
100
AcDbEntity
  8
AM_0 外形線1
100
AcDbCircle
 10
-27.75461100000029
 20
289.292414
 30
0.0
 40
4.354998
100
AcDbArc
 50
140.9707969999916
 51
219.0292030000084
  0
ARC
  5
5690
330
566F
100
AcDbEntity
  8
AM_0 外形線1
100
AcDbCircle
 10
-16.10000000000036
 20
297.5
 30
0.0
 40
16.0
100
AcDbArc
 50
160.0272440000076
 51
199.9727559999923
  0
ARC
  5
5691
330
566F
100
AcDbEntity
  8
AM_0 外形線1
100
AcDbCircle
 10
-27.75461100000029
 20
305.7075860000002
 30
0.0
 40
4.354998
100
AcDbArc
 50
140.9707969999916
 51
219.0292030000084
  0
LINE
  5
5692
330
566F
100
AcDbEntity
  8
AM_0 外形線1
100
AcDbLine
 10
-27.76608300000044
 20
308.4499999999998
 30
0.0
 11
-31.1376820000005
 21
308.4499999999998
 31
0.0
  0
LINE
  5
5693
330
566F
100
AcDbEntity
  8
AM_0 外形線1
100
AcDbLine
 10
-24.10000000000037
 20
308.4499999999998
 30
0.0
 11
-27.76608300000044
 21
308.4499999999998
 31
0.0
  0
LINE
  5
5694
330
566F
100
AcDbEntity
  8
AM_0 外形線1
100
AcDbLine
 10
-24.10000000000037
 20
308.3
 30
0.0
 11
-24.10000000000037
 21
308.4499999999998
 31
0.0
  0
LINE
  5
5695
330
566F
100
AcDbEntity
  8
AM_0 外形線1
100
AcDbLine
 10
-24.10000000000037
 20
286.7
 30
0.0
 11
-21.10000000000036
 21
286.7
 31
0.0
  0
LINE
  5
5696
330
566F
100
AcDbEntity
  8
AM_0 外形線1
100
AcDbLine
 10
-24.10000000000037
 20
308.3
 30
0.0
 11
-24.10000000000037
 21
286.7
 31
0.0
  0
LINE
  5
5697
330
566F
100
AcDbEntity
  8
AM_0 外形線1
100
AcDbLine
 10
-21.10000000000036
 20
308.3
 30
0.0
 11
-24.10000000000037
 21
308.3
 31
0.0
  0
LWPOLYLINE
  5
5698
330
566F
100
AcDbEntity
  8
AM_0 外形線1
100
AcDbPolyline
 90
       73
 70
     0
 43
0.0
 10
-1.550000000000181
 20
286.8000000000002
 10
-1.685091000000284
 20
286.7899160000002
 10
-1.819155000000137
 20
286.7597400000002
 10
-1.951170000000274
 20
286.709703
 10
-2.080131000000618
 20
286.640185
 10
-2.205058000000462
 20
286.5517160000002
 10
-2.325000000000727
 20
286.4449670000001
 10
-2.439043000000309
 20
286.320753
 10
-2.546321000000715
 20
286.180018
 10
-2.646016000000598
 20
286.0238330000002
 10
-2.737369000000398
 20
285.8533869999999
 10
-2.819686000000728
 20
285.669977
 10
-2.892338999999991
 20
285.4750000000001
 10
-2.95477700000083
 20
285.2699380000002
 10
-3.006524000000353
 20
285.056353
 10
-3.047185000000353
 20
284.8358700000001
 10
-3.076452000000243
 20
284.6101680000002
 10
-3.09410200000002
 20
284.3809630000001
 10
-3.100000000000362
 20
284.1500000000001
 10
-3.09410200000002
 20
283.9190369999999
 10
-3.076452000000243
 20
283.6898319999999
 10
-3.047185000000353
 20
283.464129
 10
-3.006524000000353
 20
283.2436459999999
 10
-2.95477700000083
 20
283.0300609999999
 10
-2.892338999999991
 20
282.825
 10
-2.819686000000728
 20
282.6300220000001
 10
-2.737369000000398
 20
282.4466130000001
 10
-2.646016000000598
 20
282.276167
 10
-2.546321000000715
 20
282.1199820000002
 10
-2.439043000000309
 20
281.9792470000002
 10
-2.325000000000727
 20
281.855033
 10
-2.205058000000462
 20
281.748284
 10
-2.080131000000618
 20
281.6598140000001
 10
-1.951170000000274
 20
281.5902960000002
 10
-1.819155000000137
 20
281.5402590000001
 10
-1.685091000000284
 20
281.510084
 10
-1.550000000000181
 20
281.5
 10
-1.414909000000078
 20
281.510084
 10
-1.280845000000225
 20
281.5402590000001
 10
-1.148830000000089
 20
281.5902960000002
 10
-1.019868999999743
 20
281.6598140000001
 10
-0.8949420000008101
 20
281.748284
 10
-0.7750000000005457
 20
281.855033
 10
-0.6609570000000531
 20
281.9792470000002
 10
-0.5536790000005567
 20
282.1199820000002
 10
-0.4539840000006734
 20
282.276167
 10
-0.3626309999999648
 20
282.4466130000001
 10
-0.2803140000005442
 20
282.6300220000001
 10
-0.2076610000003711
 20
282.825
 10
-0.145223000000442
 20
283.0300609999999
 10
-0.0934760000000097
 20
283.2436459999999
 10
-0.0528150000009191
 20
283.464129
 10
-0.0235480000001189
 20
283.6898319999999
 10
-0.005898000000343
 20
283.9190369999999
 10
0.0
 20
284.1500000000001
 10
-0.005898000000343
 20
284.3809630000001
 10
-0.0235480000001189
 20
284.6101680000002
 10
-0.0528150000009191
 20
284.8358700000001
 10
-0.0934760000000097
 20
285.056353
 10
-0.145223000000442
 20
285.2699380000002
 10
-0.2076610000003711
 20
285.4750000000001
 10
-0.2803140000005442
 20
285.669977
 10
-0.3626309999999648
 20
285.8533869999999
 10
-0.4539840000006734
 20
286.0238330000002
 10
-0.5536790000005567
 20
286.180018
 10
-0.6609570000000531
 20
286.320753
 10
-0.7750000000005457
 20
286.4449670000001
 10
-0.8949420000008101
 20
286.5517160000002
 10
-1.019868999999743
 20
286.640185
 10
-1.148830000000089
 20
286.709703
 10
-1.280845000000225
 20
286.7597400000002
 10
-1.414909000000078
 20
286.7899160000002
 10
-1.550000000000181
 20
286.8000000000002
  0
LINE
  5
5699
330
566F
100
AcDbEntity
  8
AM_0 外形線1
100
AcDbLine
 10
-3.100000000000362
 20
286.8000000000002
 30
0.0
 11
-3.100000000000362
 21
281.5
 31
0.0
  0
LINE
  5
569A
330
566F
100
AcDbEntity
  8
AM_0 外形線1
100
AcDbLine
 10
0.0
 20
286.8000000000002
 30
0.0
 11
-3.100000000000362
 21
286.8000000000002
 31
0.0
  0
LINE
  5
56F8
330
566F
100
AcDbEntity
  8
AM_0 外形線1
100
AcDbLine
 10
0.0
 20
-311.0
 30
0.0
 11
0.0
 21
0.0
 31
0.0
  0
LINE
  5
56F9
330
566F
100
AcDbEntity
  8
AM_0 外形線1
100
AcDbLine
 10
-3.100000000000362
 20
281.5
 30
0.0
 11
2.399999999999635
 21
281.5
 31
0.0
  0
LINE
  5
56FA
330
566F
100
AcDbEntity
  8
AM_0 外形線1
100
AcDbLine
 10
2.399999999999635
 20
281.5
 30
0.0
 11
2.899999999999636
 21
281.0
 31
0.0
1001
GENIUS_GENFIL_13
1070
     0
1040
0.5
1040
0.5
1040
20.0
1040
0.0
1002
{
1002
}
1001
GENIUS_GENODEF_13
1002
{
1000
HIER
1070
     0
1002
}
1002
{
1000
MANEDIT
1070
     0
1002
}
1002
{
1000
NOSEL
1070
     0
1002
}
1002
{
1000
BEHIND
1070
     0
1002
}
1002
{
1000
OTHER
1070
     0
1002
}
1002
{
1000
REACTOR
1002
}
1001
GENIUS_GENOBJ-N-CHA_13
1002
{
1000
OWNER
1000
GEN
1002
}
  0
LINE
  5
56FB
330
566F
100
AcDbEntity
  8
AM_0 外形線1
100
AcDbLine
 10
0.0
 20
311.0
 30
0.0
 11
0.0
 21
303.5
 31
0.0
  0
LINE
  5
56FC
330
566F
100
AcDbEntity
  8
AM_0 外形線1
100
AcDbLine
 10
0.0
 20
286.8000000000002
 30
0.0
 11
0.0
 21
291.5
 31
0.0
  0
LINE
  5
56FD
330
566F
100
AcDbEntity
  8
AM_0 外形線1
100
AcDbLine
 10
-21.10000000000036
 20
302.6499999999999
 30
0.0
 11
19.0
 21
302.6499999999999
 31
0.0
  0
LINE
  5
56FE
330
566F
100
AcDbEntity
  8
AM_0 外形線1
100
AcDbLine
 10
-21.10000000000036
 20
292.3499999999999
 30
0.0
 11
19.0
 21
292.3499999999999
 31
0.0
  0
LINE
  5
56FF
330
566F
100
AcDbEntity
  8
AM_4 細線
100
AcDbLine
 10
19.0
 20
303.5
 30
0.0
 11
-21.10000000000036
 21
303.5
 31
0.0
  0
LINE
  5
5700
330
566F
100
AcDbEntity
  8
AM_4 細線
100
AcDbLine
 10
-21.10000000000036
 20
291.5
 30
0.0
 11
19.0
 21
291.5
 31
0.0
  0
LINE
  5
5701
330
566F
100
AcDbEntity
  8
AM_0 外形線1
100
AcDbLine
 10
24.0
 20
291.5
 30
0.0
 11
19.0
 21
291.5
 31
0.0
  0
LINE
  5
5702
330
566F
100
AcDbEntity
  8
AM_0 外形線1
100
AcDbLine
 10
19.0
 20
303.5
 30
0.0
 11
24.0
 21
303.5
 31
0.0
  0
LINE
  5
5703
330
566F
100
AcDbEntity
  8
AM_0 外形線1
100
AcDbLine
 10
30.0
 20
302.6499999999999
 30
0.0
 11
30.0
 21
292.3499999999999
 31
0.0
  0
LINE
  5
5704
330
566F
100
AcDbEntity
  8
AM_0 外形線1
100
AcDbLine
 10
30.0
 20
292.3499999999999
 30
0.0
 11
19.0
 21
292.3499999999999
 31
0.0
  0
LINE
  5
5705
330
566F
100
AcDbEntity
  8
AM_0 外形線1
100
AcDbLine
 10
32.97335399999975
 20
297.5
 30
0.0
 11
30.0
 21
292.3499999999999
 31
0.0
  0
LINE
  5
5706
330
566F
100
AcDbEntity
  8
AM_0 外形線1
100
AcDbLine
 10
30.0
 20
302.6499999999999
 30
0.0
 11
32.97335399999975
 21
297.5
 31
0.0
  0
LINE
  5
5707
330
566F
100
AcDbEntity
  8
AM_0 外形線1
100
AcDbLine
 10
19.0
 20
302.6499999999999
 30
0.0
 11
30.0
 21
302.6499999999999
 31
0.0
  0
LINE
  5
5708
330
566F
100
AcDbEntity
  8
AM_0 外形線1
100
AcDbLine
 10
24.0
 20
303.5
 30
0.0
 11
24.0
 21
291.5
 31
0.0
  0
LINE
  5
5709
330
566F
100
AcDbEntity
  8
AM_0 外形線1
100
AcDbLine
 10
19.0
 20
291.5
 30
0.0
 11
19.0
 21
303.5
 31
0.0
  0
ENDBLK
  5
5671
330
566F
100
AcDbEntity
  8
0
100
AcDbBlockEnd
  0
BLOCK
  5
59A7
330
59A6
100
AcDbEntity
  8
0
100
AcDbBlockBegin
  2
*D15
 70
     1
 10
0.0
 20
0.0
 30
0.0
  3
*D15
  1

  0
LINE
  5
62E2
330
59A6
100
AcDbEntity
  8
AM_5 寸法線
 62
     3
100
AcDbLine
 10
1611.287075027708
 20
1718.169066597746
 30
0.0
 11
1611.287075027708
 21
1769.361757597746
 31
0.0
  0
LINE
  5
62E3
330
59A6
100
AcDbEntity
  8
AM_5 寸法線
 62
     3
100
AcDbLine
 10
1256.287075027708
 20
1718.169066597746
 30
0.0
 11
1256.287075027708
 21
1769.361757597746
 31
0.0
  0
LINE
  5
62E4
330
59A6
100
AcDbEntity
  8
AM_5 寸法線
 62
     3
100
AcDbLine
 10
1591.287075027708
 20
1764.361757597746
 30
0.0
 11
1276.287075027708
 21
1764.361757597746
 31
0.0
  0
INSERT
  5
62E5
330
59A6
100
AcDbEntity
  8
AM_5 寸法線
 62
     3
100
AcDbBlockReference
  2
_Open30
 10
1611.287075027708
 20
1764.361757597746
 30
0.0
 41
20.0
 42
20.0
 43
20.0
  0
INSERT
  5
62E6
330
59A6
100
AcDbEntity
  8
AM_5 寸法線
 62
     3
100
AcDbBlockReference
  2
_Open30
 10
1256.287075027708
 20
1764.361757597746
 30
0.0
 41
20.0
 42
20.0
 43
20.0
 50
180.0
  0
MTEXT
  5
62E7
330
59A6
100
AcDbEntity
  8
AM_5 寸法線
 62
     3
100
AcDbMText
 10
1433.787075027708
 20
1790.361757597746
 30
0.0
 40
28.0
 41
0.0
 46
0.0
 71
     5
 72
     1
  1
355
  7
SEISA
 73
     1
 44
1.0
  0
POINT
  5
62E8
330
59A6
100
AcDbEntity
  8
Defpoints
 62
     0
100
AcDbPoint
 10
1611.287075027708
 20
1713.169066597746
 30
0.0
  0
POINT
  5
62E9
330
59A6
100
AcDbEntity
  8
Defpoints
 62
     0
100
AcDbPoint
 10
1256.287075027708
 20
1713.169066597746
 30
0.0
  0
POINT
  5
62EA
330
59A6
100
AcDbEntity
  8
Defpoints
 62
     0
100
AcDbPoint
 10
1256.287075027708
 20
1764.361757597746
 30
0.0
  0
ENDBLK
  5
59A8
330
59A6
100
AcDbEntity
  8
0
100
AcDbBlockEnd
  0
BLOCK
  5
59BF
330
59BE
100
AcDbEntity
  8
0
100
AcDbBlockBegin
  2
*D16
 70
     1
 10
0.0
 20
0.0
 30
0.0
  3
*D16
  1

  0
LINE
  5
62EB
330
59BE
100
AcDbEntity
  8
AM_5 寸法線
 62
     3
100
AcDbLine
 10
1639.287075027708
 20
1718.169066597746
 30
0.0
 11
1639.287075027708
 21
1769.361757597746
 31
0.0
  0
LINE
  5
62EC
330
59BE
100
AcDbEntity
  8
AM_5 寸法線
 62
     3
100
AcDbLine
 10
1611.287075027708
 20
1718.169066597746
 30
0.0
 11
1611.287075027708
 21
1769.361757597746
 31
0.0
  0
LINE
  5
62ED
330
59BE
100
AcDbEntity
  8
AM_5 寸法線
 62
     3
100
AcDbLine
 10
1659.287075027708
 20
1764.361757597746
 30
0.0
 11
1679.287075027708
 21
1764.361757597746
 31
0.0
  0
LINE
  5
62EE
330
59BE
100
AcDbEntity
  8
AM_5 寸法線
 62
     3
100
AcDbLine
 10
1591.287075027708
 20
1764.361757597746
 30
0.0
 11
1571.287075027708
 21
1764.361757597746
 31
0.0
  0
MTEXT
  5
62EF
330
59BE
100
AcDbEntity
  8
AM_5 寸法線
 62
     3
100
AcDbMText
 10
1686.284576510072
 20
1790.836285656831
 30
0.0
 40
28.0
 41
0.0
 46
0.0
 71
     5
 72
     1
  1
28
  7
SEISA
 73
     1
 44
1.0
  0
LINE
  5
62F0
330
59BE
100
AcDbEntity
  8
AM_5 寸法線
 62
     3
100
AcDbLine
 10
1639.287075027708
 20
1764.361757597746
 30
0.0
 11
1611.287075027708
 21
1764.361757597746
 31
0.0
  0
INSERT
  5
62F1
330
59BE
100
AcDbEntity
  8
AM_5 寸法線
 62
     3
100
AcDbBlockReference
  2
_Open30
 10
1639.287075027708
 20
1764.361757597746
 30
0.0
 41
20.0
 42
20.0
 43
20.0
 50
180.0
  0
INSERT
  5
62F2
330
59BE
100
AcDbEntity
  8
AM_5 寸法線
 62
     3
100
AcDbBlockReference
  2
_Open30
 10
1611.287075027708
 20
1764.361757597746
 30
0.0
 41
20.0
 42
20.0
 43
20.0
  0
POINT
  5
62F3
330
59BE
100
AcDbEntity
  8
Defpoints
 62
     0
100
AcDbPoint
 10
1639.287075027708
 20
1713.169066597746
 30
0.0
  0
POINT
  5
62F4
330
59BE
100
AcDbEntity
  8
Defpoints
 62
     0
100
AcDbPoint
 10
1611.287075027708
 20
1713.169066597746
 30
0.0
  0
POINT
  5
62F5
330
59BE
100
AcDbEntity
  8
Defpoints
 62
     0
100
AcDbPoint
 10
1611.287075027708
 20
1764.361757597746
 30
0.0
  0
ENDBLK
  5
59C0
330
59BE
100
AcDbEntity
  8
0
100
AcDbBlockEnd
  0
BLOCK
  5
59DB
330
59DA
100
AcDbEntity
  8
0
100
AcDbBlockBegin
  2
*D17
 70
     1
 10
0.0
 20
0.0
 30
0.0
  3
*D17
  1

  0
LINE
  5
62F6
330
59DA
100
AcDbEntity
  8
AM_5 寸法線
 62
     3
100
AcDbLine
 10
1639.287075027708
 20
1718.169066597746
 30
0.0
 11
1639.287075027708
 21
1769.361757597746
 31
0.0
  0
LINE
  5
62F7
330
59DA
100
AcDbEntity
  8
AM_5 寸法線
 62
     3
100
AcDbLine
 10
1994.287075027708
 20
1718.169066597746
 30
0.0
 11
1994.287075027708
 21
1769.361757597746
 31
0.0
  0
LINE
  5
62F8
330
59DA
100
AcDbEntity
  8
AM_5 寸法線
 62
     3
100
AcDbLine
 10
1659.287075027708
 20
1764.361757597746
 30
0.0
 11
1974.287075027708
 21
1764.361757597746
 31
0.0
  0
INSERT
  5
62F9
330
59DA
100
AcDbEntity
  8
AM_5 寸法線
 62
     3
100
AcDbBlockReference
  2
_Open30
 10
1639.287075027708
 20
1764.361757597746
 30
0.0
 41
20.0
 42
20.0
 43
20.0
 50
180.0
  0
INSERT
  5
62FA
330
59DA
100
AcDbEntity
  8
AM_5 寸法線
 62
     3
100
AcDbBlockReference
  2
_Open30
 10
1994.287075027708
 20
1764.361757597746
 30
0.0
 41
20.0
 42
20.0
 43
20.0
  0
MTEXT
  5
62FB
330
59DA
100
AcDbEntity
  8
AM_5 寸法線
 62
     3
100
AcDbMText
 10
1816.787075027708
 20
1790.361757597746
 30
0.0
 40
28.0
 41
0.0
 46
0.0
 71
     5
 72
     1
  1
355
  7
SEISA
 73
     1
 44
1.0
  0
POINT
  5
62FC
330
59DA
100
AcDbEntity
  8
Defpoints
 62
     0
100
AcDbPoint
 10
1639.287075027708
 20
1713.169066597746
 30
0.0
  0
POINT
  5
62FD
330
59DA
100
AcDbEntity
  8
Defpoints
 62
     0
100
AcDbPoint
 10
1994.287075027708
 20
1713.169066597746
 30
0.0
  0
POINT
  5
62FE
330
59DA
100
AcDbEntity
  8
Defpoints
 62
     0
100
AcDbPoint
 10
1994.287075027708
 20
1764.361757597746
 30
0.0
  0
ENDBLK
  5
59DC
330
59DA
100
AcDbEntity
  8
0
100
AcDbBlockEnd
  0
BLOCK
  5
5ACB
330
5ACA
100
AcDbEntity
  8
0
100
AcDbBlockBegin
  2
*D18
 70
     1
 10
0.0
 20
0.0
 30
0.0
  3
*D18
  1

  0
LINE
  5
6306
330
5ACA
100
AcDbEntity
  8
AM_5 寸法線
 62
     3
100
AcDbLine
 10
1900.287075027708
 20
1968.169066597746
 30
0.0
 11
2159.287075027708
 21
1968.169066597746
 31
0.0
  0
LINE
  5
6307
330
5ACA
100
AcDbEntity
  8
AM_5 寸法線
 62
     3
100
AcDbLine
 10
1900.287075027708
 20
1458.169066597746
 30
0.0
 11
2159.287075027708
 21
1458.169066597746
 31
0.0
  0
LINE
  5
6308
330
5ACA
100
AcDbEntity
  8
AM_5 寸法線
 62
     3
100
AcDbLine
 10
2154.287075027708
 20
1948.169066597746
 30
0.0
 11
2154.287075027708
 21
1478.169066597746
 31
0.0
  0
INSERT
  5
6309
330
5ACA
100
AcDbEntity
  8
AM_5 寸法線
 62
     3
100
AcDbBlockReference
  2
_Open30
 10
2154.287075027708
 20
1968.169066597746
 30
0.0
 41
20.0
 42
20.0
 43
20.0
 50
90.0
  0
INSERT
  5
630A
330
5ACA
100
AcDbEntity
  8
AM_5 寸法線
 62
     3
100
AcDbBlockReference
  2
_Open30
 10
2154.287075027708
 20
1458.169066597746
 30
0.0
 41
20.0
 42
20.0
 43
20.0
 50
270.0
  0
MTEXT
  5
630B
330
5ACA
100
AcDbEntity
  8
AM_5 寸法線
 62
     3
100
AcDbMText
 10
2128.287075027708
 20
1713.169066597746
 30
0.0
 40
28.0
 41
0.0
 46
0.0
 71
     5
 72
     1
  1
%%c510
  7
SEISA
 11
0.0000000000000001
 21
1.0
 31
0.0
 73
     1
 44
1.0
  0
POINT
  5
630C
330
5ACA
100
AcDbEntity
  8
Defpoints
 62
     0
100
AcDbPoint
 10
1895.287075027708
 20
1968.169066597746
 30
0.0
  0
POINT
  5
630D
330
5ACA
100
AcDbEntity
  8
Defpoints
 62
     0
100
AcDbPoint
 10
1895.287075027708
 20
1458.169066597746
 30
0.0
  0
POINT
  5
630E
330
5ACA
100
AcDbEntity
  8
Defpoints
 62
     0
100
AcDbPoint
 10
2154.287075027708
 20
1458.169066597746
 30
0.0
  0
ENDBLK
  5
5ACC
330
5ACA
100
AcDbEntity
  8
0
100
AcDbBlockEnd
  0
BLOCK
  5
5AE3
330
5AE2
100
AcDbEntity
  8
0
100
AcDbBlockBegin
  2
*D19
 70
     1
 10
0.0
 20
0.0
 30
0.0
  3
*D19
  1

  0
LINE
  5
630F
330
5AE2
100
AcDbEntity
  8
AM_5 寸法線
 62
     3
100
AcDbLine
 10
1872.287075027708
 20
2024.169066597746
 30
0.0
 11
2223.287075027708
 21
2024.169066597746
 31
0.0
  0
LINE
  5
6310
330
5AE2
100
AcDbEntity
  8
AM_5 寸法線
 62
     3
100
AcDbLine
 10
1872.287075027708
 20
1402.169066597746
 30
0.0
 11
2223.287075027708
 21
1402.169066597746
 31
0.0
  0
LINE
  5
6311
330
5AE2
100
AcDbEntity
  8
AM_5 寸法線
 62
     3
100
AcDbLine
 10
2218.287075027709
 20
2004.169066597746
 30
0.0
 11
2218.287075027709
 21
1422.169066597746
 31
0.0
  0
INSERT
  5
6312
330
5AE2
100
AcDbEntity
  8
AM_5 寸法線
 62
     3
100
AcDbBlockReference
  2
_Open30
 10
2218.287075027709
 20
2024.169066597746
 30
0.0
 41
20.0
 42
20.0
 43
20.0
 50
90.0
  0
INSERT
  5
6313
330
5AE2
100
AcDbEntity
  8
AM_5 寸法線
 62
     3
100
AcDbBlockReference
  2
_Open30
 10
2218.287075027709
 20
1402.169066597746
 30
0.0
 41
20.0
 42
20.0
 43
20.0
 50
270.0
  0
MTEXT
  5
6314
330
5AE2
100
AcDbEntity
  8
AM_5 寸法線
 62
     3
100
AcDbMText
 10
2192.287075027708
 20
1713.169066597746
 30
0.0
 40
28.0
 41
0.0
 46
0.0
 71
     5
 72
     1
  1
%%c622
  7
SEISA
 11
0.0000000000000001
 21
1.0
 31
0.0
 73
     1
 44
1.0
  0
POINT
  5
6315
330
5AE2
100
AcDbEntity
  8
Defpoints
 62
     0
100
AcDbPoint
 10
1867.287075027708
 20
2024.169066597746
 30
0.0
  0
POINT
  5
6316
330
5AE2
100
AcDbEntity
  8
Defpoints
 62
     0
100
AcDbPoint
 10
1867.287075027708
 20
1402.169066597746
 30
0.0
  0
POINT
  5
6317
330
5AE2
100
AcDbEntity
  8
Defpoints
 62
     0
100
AcDbPoint
 10
2218.287075027709
 20
1402.169066597746
 30
0.0
  0
ENDBLK
  5
5AE4
330
5AE2
100
AcDbEntity
  8
0
100
AcDbBlockEnd
  0
BLOCK
  5
5AFB
330
5AFA
100
AcDbEntity
  8
0
100
AcDbBlockBegin
  2
*D20
 70
     1
 10
0.0
 20
0.0
 30
0.0
  3
*D20
  1

  0
LINE
  5
6318
330
5AFA
100
AcDbEntity
  8
AM_5 寸法線
 62
     3
100
AcDbLine
 10
1659.287075027708
 20
2068.169066597747
 30
0.0
 11
2287.287075027709
 21
2068.169066597747
 31
0.0
  0
LINE
  5
6319
330
5AFA
100
AcDbEntity
  8
AM_5 寸法線
 62
     3
100
AcDbLine
 10
1659.287075027708
 20
1358.169066597746
 30
0.0
 11
2287.287075027709
 21
1358.169066597746
 31
0.0
  0
LINE
  5
631A
330
5AFA
100
AcDbEntity
  8
AM_5 寸法線
 62
     3
100
AcDbLine
 10
2282.287075027708
 20
2048.169066597747
 30
0.0
 11
2282.287075027708
 21
1378.169066597746
 31
0.0
  0
INSERT
  5
631B
330
5AFA
100
AcDbEntity
  8
AM_5 寸法線
 62
     3
100
AcDbBlockReference
  2
_Open30
 10
2282.287075027708
 20
2068.169066597747
 30
0.0
 41
20.0
 42
20.0
 43
20.0
 50
90.0
  0
INSERT
  5
631C
330
5AFA
100
AcDbEntity
  8
AM_5 寸法線
 62
     3
100
AcDbBlockReference
  2
_Open30
 10
2282.287075027708
 20
1358.169066597746
 30
0.0
 41
20.0
 42
20.0
 43
20.0
 50
270.0
  0
MTEXT
  5
631D
330
5AFA
100
AcDbEntity
  8
AM_5 寸法線
 62
     3
100
AcDbMText
 10
2256.287075027708
 20
1713.169066597746
 30
0.0
 40
28.0
 41
0.0
 46
0.0
 71
     5
 72
     1
  1
%%c710
  7
SEISA
 11
0.0000000000000001
 21
1.0
 31
0.0
 73
     1
 44
1.0
  0
POINT
  5
631E
330
5AFA
100
AcDbEntity
  8
Defpoints
 62
     0
100
AcDbPoint
 10
1654.287075027708
 20
2068.169066597747
 30
0.0
  0
POINT
  5
631F
330
5AFA
100
AcDbEntity
  8
Defpoints
 62
     0
100
AcDbPoint
 10
1654.287075027708
 20
1358.169066597746
 30
0.0
  0
POINT
  5
6320
330
5AFA
100
AcDbEntity
  8
Defpoints
 62
     0
100
AcDbPoint
 10
2282.287075027708
 20
1358.169066597746
 30
0.0
  0
ENDBLK
  5
5AFC
330
5AFA
100
AcDbEntity
  8
0
100
AcDbBlockEnd
  0
BLOCK
  5
5BA3
330
5BA2
100
AcDbEntity
  8
0
100
AcDbBlockBegin
  2
*D21
 70
     1
 10
0.0
 20
0.0
 30
0.0
  3
*D21
  1

  0
LINE
  5
6321
330
5BA2
100
AcDbEntity
  8
AM_5 寸法線
 62
     3
100
AcDbLine
 10
1625.287075027708
 20
1354.169066597746
 30
0.0
 11
1625.287075027708
 21
1233.169066597746
 31
0.0
  0
LINE
  5
6322
330
5BA2
100
AcDbEntity
  8
AM_5 寸法線
 62
     3
100
AcDbLine
 10
1595.287075027708
 20
1354.169066597746
 30
0.0
 11
1595.287075027708
 21
1233.169066597746
 31
0.0
  0
LINE
  5
6323
330
5BA2
100
AcDbEntity
  8
AM_5 寸法線
 62
     3
100
AcDbLine
 10
1645.287075027708
 20
1238.169066597746
 30
0.0
 11
1665.287075027708
 21
1238.169066597746
 31
0.0
  0
LINE
  5
6324
330
5BA2
100
AcDbEntity
  8
AM_5 寸法線
 62
     3
100
AcDbLine
 10
1575.287075027708
 20
1238.169066597746
 30
0.0
 11
1490.487075027708
 21
1238.169066597746
 31
0.0
  0
LINE
  5
6325
330
5BA2
100
AcDbEntity
  8
AM_5 寸法線
 62
     3
100
AcDbLine
 10
1625.287075027708
 20
1238.169066597746
 30
0.0
 11
1595.287075027708
 21
1238.169066597746
 31
0.0
  0
INSERT
  5
6326
330
5BA2
100
AcDbEntity
  8
AM_5 寸法線
 62
     3
100
AcDbBlockReference
  2
GENDOT
 10
1625.287075027708
 20
1238.169066597746
 30
0.0
 41
20.0
 42
20.0
 43
20.0
 50
180.0
  0
INSERT
  5
6327
330
5BA2
100
AcDbEntity
  8
AM_5 寸法線
 62
     3
100
AcDbBlockReference
  2
_Open30
 10
1595.287075027708
 20
1238.169066597746
 30
0.0
 41
20.0
 42
20.0
 43
20.0
  0
MTEXT
  5
6328
330
5BA2
100
AcDbEntity
  8
AM_5 寸法線
 62
     3
100
AcDbMText
 10
1522.887075027708
 20
1264.169066597746
 30
0.0
 40
28.0
 41
0.0
 46
0.0
 71
     5
 72
     1
  1
30
  7
SEISA
 73
     1
 44
1.0
  0
POINT
  5
6329
330
5BA2
100
AcDbEntity
  8
Defpoints
 62
     0
100
AcDbPoint
 10
1625.287075027708
 20
1359.169066597746
 30
0.0
  0
POINT
  5
632A
330
5BA2
100
AcDbEntity
  8
Defpoints
 62
     0
100
AcDbPoint
 10
1595.287075027708
 20
1359.169066597746
 30
0.0
  0
POINT
  5
632B
330
5BA2
100
AcDbEntity
  8
Defpoints
 62
     0
100
AcDbPoint
 10
1595.287075027708
 20
1238.169066597746
 30
0.0
  0
ENDBLK
  5
5BA4
330
5BA2
100
AcDbEntity
  8
0
100
AcDbBlockEnd
  0
BLOCK
  5
5BBF
330
5BBE
100
AcDbEntity
  8
0
100
AcDbBlockBegin
  2
*D22
 70
     1
 10
0.0
 20
0.0
 30
0.0
  3
*D22
  1

  0
LINE
  5
632C
330
5BBE
100
AcDbEntity
  8
AM_5 寸法線
 62
     3
100
AcDbLine
 10
1625.287075027708
 20
1354.169066597746
 30
0.0
 11
1625.287075027708
 21
1233.169066597746
 31
0.0
  0
LINE
  5
632D
330
5BBE
100
AcDbEntity
  8
AM_5 寸法線
 62
     3
100
AcDbLine
 10
1655.287075027708
 20
1354.169066597746
 30
0.0
 11
1655.287075027708
 21
1233.169066597746
 31
0.0
  0
LINE
  5
632E
330
5BBE
100
AcDbEntity
  8
AM_5 寸法線
 62
     3
100
AcDbLine
 10
1605.287075027708
 20
1238.169066597746
 30
0.0
 11
1585.287075027708
 21
1238.169066597746
 31
0.0
  0
LINE
  5
632F
330
5BBE
100
AcDbEntity
  8
AM_5 寸法線
 62
     3
100
AcDbLine
 10
1675.287075027708
 20
1238.169066597746
 30
0.0
 11
1760.087075027708
 21
1238.169066597746
 31
0.0
  0
LINE
  5
6330
330
5BBE
100
AcDbEntity
  8
AM_5 寸法線
 62
     3
100
AcDbLine
 10
1625.287075027708
 20
1238.169066597746
 30
0.0
 11
1655.287075027708
 21
1238.169066597746
 31
0.0
  0
INSERT
  5
6331
330
5BBE
100
AcDbEntity
  8
AM_5 寸法線
 62
     3
100
AcDbBlockReference
  2
GENDOT
 10
1625.287075027708
 20
1238.169066597746
 30
0.0
 41
20.0
 42
20.0
 43
20.0
  0
INSERT
  5
6332
330
5BBE
100
AcDbEntity
  8
AM_5 寸法線
 62
     3
100
AcDbBlockReference
  2
_Open30
 10
1655.287075027708
 20
1238.169066597746
 30
0.0
 41
20.0
 42
20.0
 43
20.0
 50
180.0
  0
MTEXT
  5
6333
330
5BBE
100
AcDbEntity
  8
AM_5 寸法線
 62
     3
100
AcDbMText
 10
1727.687075027708
 20
1264.169066597746
 30
0.0
 40
28.0
 41
0.0
 46
0.0
 71
     5
 72
     1
  1
30
  7
SEISA
 73
     1
 44
1.0
  0
POINT
  5
6334
330
5BBE
100
AcDbEntity
  8
Defpoints
 62
     0
100
AcDbPoint
 10
1625.287075027708
 20
1359.169066597746
 30
0.0
  0
POINT
  5
6335
330
5BBE
100
AcDbEntity
  8
Defpoints
 62
     0
100
AcDbPoint
 10
1655.287075027708
 20
1359.169066597746
 30
0.0
  0
POINT
  5
6336
330
5BBE
100
AcDbEntity
  8
Defpoints
 62
     0
100
AcDbPoint
 10
1655.287075027708
 20
1238.169066597746
 30
0.0
  0
ENDBLK
  5
5BC0
330
5BBE
100
AcDbEntity
  8
0
100
AcDbBlockEnd
  0
BLOCK
  5
5BDB
330
5BDA
100
AcDbEntity
  8
0
100
AcDbBlockBegin
  2
*D23
 70
     1
 10
0.0
 20
0.0
 30
0.0
  3
*D23
  1

  0
LINE
  5
750D
330
5BDA
100
AcDbEntity
  8
AM_5 寸法線
 62
     3
100
AcDbLine
 10
1383.287075027708
 20
1397.169066597746
 30
0.0
 11
1383.287075027708
 21
1169.169066597746
 31
0.0
  0
LINE
  5
750E
330
5BDA
100
AcDbEntity
  8
AM_5 寸法線
 62
     3
100
AcDbLine
 10
1867.287075027708
 20
1397.169066597746
 30
0.0
 11
1867.287075027708
 21
1169.169066597746
 31
0.0
  0
LINE
  5
750F
330
5BDA
100
AcDbEntity
  8
AM_5 寸法線
 62
     3
100
AcDbLine
 10
1403.287075027708
 20
1174.169066597746
 30
0.0
 11
1847.287075027708
 21
1174.169066597746
 31
0.0
  0
INSERT
  5
7510
330
5BDA
100
AcDbEntity
  8
AM_5 寸法線
 62
     3
100
AcDbBlockReference
  2
_Open30
 10
1383.287075027708
 20
1174.169066597746
 30
0.0
 41
20.0
 42
20.0
 43
20.0
 50
180.0
  0
INSERT
  5
7511
330
5BDA
100
AcDbEntity
  8
AM_5 寸法線
 62
     3
100
AcDbBlockReference
  2
_Open30
 10
1867.287075027708
 20
1174.169066597746
 30
0.0
 41
20.0
 42
20.0
 43
20.0
  0
MTEXT
  5
7512
330
5BDA
100
AcDbEntity
  8
AM_5 寸法線
 62
     3
100
AcDbMText
 10
1625.287075027708
 20
1200.169066597746
 30
0.0
 40
28.0
 41
0.0
 46
0.0
 71
     5
 72
     1
  1
484
  7
SEISA
 73
     1
 44
1.0
  0
POINT
  5
7513
330
5BDA
100
AcDbEntity
  8
Defpoints
 62
     0
100
AcDbPoint
 10
1383.287075027708
 20
1402.169066597746
 30
0.0
  0
POINT
  5
7514
330
5BDA
100
AcDbEntity
  8
Defpoints
 62
     0
100
AcDbPoint
 10
1867.287075027708
 20
1402.169066597746
 30
0.0
  0
POINT
  5
7515
330
5BDA
100
AcDbEntity
  8
Defpoints
 62
     0
100
AcDbPoint
 10
1867.287075027708
 20
1174.169066597746
 30
0.0
  0
ENDBLK
  5
5BDC
330
5BDA
100
AcDbEntity
  8
0
100
AcDbBlockEnd
  0
BLOCK
  5
5C3B
330
5C3A
100
AcDbEntity
  8
0
100
AcDbBlockBegin
  2
*D24
 70
     1
 10
0.0
 20
0.0
 30
0.0
  3
*D24
  1

  0
LINE
  5
635B
330
5C3A
100
AcDbEntity
  8
AM_5 寸法線
 62
     3
100
AcDbLine
 10
1256.287075027708
 20
1469.669066597746
 30
0.0
 11
1256.287075027708
 21
1105.169066597746
 31
0.0
  0
LINE
  5
635C
330
5C3A
100
AcDbEntity
  8
AM_5 寸法線
 62
     3
100
AcDbLine
 10
1994.287075027708
 20
1469.669066597746
 30
0.0
 11
1994.287075027708
 21
1105.169066597746
 31
0.0
  0
LINE
  5
635D
330
5C3A
100
AcDbEntity
  8
AM_5 寸法線
 62
     3
100
AcDbLine
 10
1276.287075027708
 20
1110.169066597746
 30
0.0
 11
1974.287075027708
 21
1110.169066597746
 31
0.0
  0
INSERT
  5
635E
330
5C3A
100
AcDbEntity
  8
AM_5 寸法線
 62
     3
100
AcDbBlockReference
  2
_Open30
 10
1256.287075027708
 20
1110.169066597746
 30
0.0
 41
20.0
 42
20.0
 43
20.0
 50
180.0
  0
INSERT
  5
635F
330
5C3A
100
AcDbEntity
  8
AM_5 寸法線
 62
     3
100
AcDbBlockReference
  2
_Open30
 10
1994.287075027708
 20
1110.169066597746
 30
0.0
 41
20.0
 42
20.0
 43
20.0
  0
MTEXT
  5
6360
330
5C3A
100
AcDbEntity
  8
AM_5 寸法線
 62
     3
100
AcDbMText
 10
1625.287075027708
 20
1136.169066597746
 30
0.0
 40
28.0
 41
0.0
 46
0.0
 71
     5
 72
     1
  1
738
  7
SEISA
 73
     1
 44
1.0
  0
POINT
  5
6361
330
5C3A
100
AcDbEntity
  8
Defpoints
 62
     0
100
AcDbPoint
 10
1256.287075027708
 20
1474.669066597746
 30
0.0
  0
POINT
  5
6362
330
5C3A
100
AcDbEntity
  8
Defpoints
 62
     0
100
AcDbPoint
 10
1994.287075027708
 20
1474.669066597746
 30
0.0
  0
POINT
  5
6363
330
5C3A
100
AcDbEntity
  8
Defpoints
 62
     0
100
AcDbPoint
 10
1994.287075027708
 20
1110.169066597746
 30
0.0
  0
ENDBLK
  5
5C3C
330
5C3A
100
AcDbEntity
  8
0
100
AcDbBlockEnd
  0
BLOCK
  5
5E09
330
5E08
100
AcDbEntity
  8
0
100
AcDbBlockBegin
  2
*D25
 70
     1
 10
0.0
 20
0.0
 30
0.0
  3
*D25
  1

  0
LINE
  5
6390
330
5E08
100
AcDbEntity
  8
AM_5 寸法線
 62
     3
100
AcDbLine
 10
1350.287075027708
 20
1968.169066597746
 30
0.0
 11
1091.287075027708
 21
1968.169066597746
 31
0.0
  0
LINE
  5
6391
330
5E08
100
AcDbEntity
  8
AM_5 寸法線
 62
     3
100
AcDbLine
 10
1350.287075027708
 20
1458.169066597746
 30
0.0
 11
1091.287075027707
 21
1458.169066597746
 31
0.0
  0
LINE
  5
6392
330
5E08
100
AcDbEntity
  8
AM_5 寸法線
 62
     3
100
AcDbLine
 10
1096.287075027708
 20
1948.169066597746
 30
0.0
 11
1096.287075027707
 21
1478.169066597746
 31
0.0
  0
INSERT
  5
6393
330
5E08
100
AcDbEntity
  8
AM_5 寸法線
 62
     3
100
AcDbBlockReference
  2
_Open30
 10
1096.287075027708
 20
1968.169066597746
 30
0.0
 41
20.0
 42
20.0
 43
20.0
 50
90.0
  0
INSERT
  5
6394
330
5E08
100
AcDbEntity
  8
AM_5 寸法線
 62
     3
100
AcDbBlockReference
  2
_Open30
 10
1096.287075027707
 20
1458.169066597746
 30
0.0
 41
20.0
 42
20.0
 43
20.0
 50
270.0
  0
MTEXT
  5
6395
330
5E08
100
AcDbEntity
  8
AM_5 寸法線
 62
     3
100
AcDbMText
 10
1070.287075027707
 20
1713.169066597746
 30
0.0
 40
28.0
 41
0.0
 46
0.0
 71
     5
 72
     1
  1
%%c510
  7
SEISA
 11
0.0000000000000001
 21
1.0
 31
0.0
 73
     1
 44
1.0
  0
POINT
  5
6396
330
5E08
100
AcDbEntity
  8
Defpoints
 62
     0
100
AcDbPoint
 10
1355.287075027708
 20
1968.169066597746
 30
0.0
  0
POINT
  5
6397
330
5E08
100
AcDbEntity
  8
Defpoints
 62
     0
100
AcDbPoint
 10
1355.287075027708
 20
1458.169066597746
 30
0.0
  0
POINT
  5
6398
330
5E08
100
AcDbEntity
  8
Defpoints
 62
     0
100
AcDbPoint
 10
1096.287075027707
 20
1458.169066597746
 30
0.0
  0
ENDBLK
  5
5E0A
330
5E08
100
AcDbEntity
  8
0
100
AcDbBlockEnd
  0
BLOCK
  5
6AB0
330
6AAF
100
AcDbEntity
  8
0
100
AcDbBlockBegin
  2
ロッカクアナツキプラグB R3／4
 70
     0
 10
0.0
 20
0.0
 30
0.0
  3
ロッカクアナツキプラグB R3／4
  1

  0
LINE
  5
6AB2
330
6AAF
100
AcDbEntity
  8
AM_7 中心線
100
AcDbLine
 10
0.0
 20
4.014184000000341
 30
0.0
 11
0.0
 21
-24.46808499999998
 31
0.0
  0
LINE
  5
6AB3
330
6AAF
100
AcDbEntity
  8
AM_4 細線
100
AcDbLine
 10
12.28872500000034
 20
-0.8772089999999932
 30
0.0
 11
11.80655800000022
 21
-14.68468499999994
 31
0.0
  0
LINE
  5
6AB4
330
6AAF
100
AcDbEntity
  8
AM_0 外形線1
100
AcDbLine
 10
13.41151700000046
 20
-2.0
 30
0.0
 11
11.41151700000046
 21
0.0
 31
0.0
  0
LINE
  5
6AB5
330
6AAF
100
AcDbEntity
  8
AM_0 外形線1
100
AcDbLine
 10
12.99246700000003
 20
-14.0
 30
0.0
 11
13.41151700000046
 21
-2.0
 31
0.0
  0
LINE
  5
6AB6
330
6AAF
100
AcDbEntity
  8
AM_4 細線
100
AcDbLine
 10
-11.80655800000022
 20
-14.68468499999994
 30
0.0
 11
-12.28872500000034
 21
-0.8772089999999932
 31
0.0
  0
LINE
  5
6AB7
330
6AAF
100
AcDbEntity
  8
AM_0 外形線1
100
AcDbLine
 10
-13.41151700000046
 20
-2.0
 30
0.0
 11
-12.99246700000003
 21
-14.0
 31
0.0
  0
LINE
  5
6AB8
330
6AAF
100
AcDbEntity
  8
AM_0 外形線1
100
AcDbLine
 10
-11.41151700000046
 20
0.0
 30
0.0
 11
-13.41151700000046
 21
-2.0
 31
0.0
  0
LINE
  5
6AB9
330
6AAF
100
AcDbEntity
  8
AM_0 外形線1
100
AcDbLine
 10
12.99246700000003
 20
-14.0
 30
0.0
 11
-12.99246700000003
 21
-14.0
 31
0.0
  0
LINE
  5
6ABA
330
6AAF
100
AcDbEntity
  8
AM_0 外形線1
100
AcDbLine
 10
13.41151700000046
 20
-2.0
 30
0.0
 11
-13.41151700000046
 21
-2.0
 31
0.0
  0
LINE
  5
6ABB
330
6AAF
100
AcDbEntity
  8
AM_0 外形線1
100
AcDbLine
 10
7.796314999999593
 20
-17.0
 30
0.0
 11
12.99246700000003
 21
-14.0
 31
0.0
  0
LINE
  5
6ABC
330
6AAF
100
AcDbEntity
  8
AM_0 外形線1
100
AcDbLine
 10
-7.796314999999593
 20
-17.0
 30
0.0
 11
7.796314999999593
 21
-17.0
 31
0.0
  0
LINE
  5
6ABD
330
6AAF
100
AcDbEntity
  8
AM_0 外形線1
100
AcDbLine
 10
-12.99246700000003
 20
-14.0
 30
0.0
 11
-7.796314999999593
 21
-17.0
 31
0.0
  0
LINE
  5
6ABE
330
6AAF
100
AcDbEntity
  8
AM_0 外形線1
100
AcDbLine
 10
-11.41151700000046
 20
0.0
 30
0.0
 11
11.41151700000046
 21
0.0
 31
0.0
  0
ENDBLK
  5
6AB1
330
6AAF
100
AcDbEntity
  8
0
100
AcDbBlockEnd
  0
BLOCK
  5
7255
330
7254
100
AcDbEntity
  8
0
100
AcDbBlockBegin
  2
*D27
 70
     1
 10
0.0
 20
0.0
 30
0.0
  3
*D27
  1

  0
LINE
  5
729B
330
7254
100
AcDbEntity
  8
AM_5 寸法線
 62
     3
100
AcDbLine
 10
1415.787075027708
 20
1963.669066597746
 30
0.0
 11
1415.787075027708
 21
1902.868200023586
 31
0.0
  0
LINE
  5
729C
330
7254
100
AcDbEntity
  8
AM_5 寸法線
 62
     3
100
AcDbLine
 10
1516.787075027708
 20
1963.669066597746
 30
0.0
 11
1516.787075027708
 21
1902.868200023586
 31
0.0
  0
LINE
  5
729D
330
7254
100
AcDbEntity
  8
AM_5 寸法線
 62
     3
100
AcDbLine
 10
1435.787075027708
 20
1907.868200023585
 30
0.0
 11
1496.787075027708
 21
1907.868200023585
 31
0.0
  0
INSERT
  5
729E
330
7254
100
AcDbEntity
  8
AM_5 寸法線
 62
     3
100
AcDbBlockReference
  2
_Open30
 10
1415.787075027708
 20
1907.868200023585
 30
0.0
 41
20.0
 42
20.0
 43
20.0
 50
180.0
  0
INSERT
  5
729F
330
7254
100
AcDbEntity
  8
AM_5 寸法線
 62
     3
100
AcDbBlockReference
  2
_Open30
 10
1516.787075027708
 20
1907.868200023585
 30
0.0
 41
20.0
 42
20.0
 43
20.0
  0
MTEXT
  5
72A0
330
7254
100
AcDbEntity
  8
AM_5 寸法線
 62
     3
100
AcDbMText
 10
1466.287075027708
 20
1933.868200023586
 30
0.0
 40
28.0
 41
0.0
 46
0.0
 71
     5
 72
     1
  1
101
  7
SEISA
 73
     1
 44
1.0
  0
POINT
  5
72A1
330
7254
100
AcDbEntity
  8
Defpoints
 62
     0
100
AcDbPoint
 10
1415.787075027708
 20
1968.669066597746
 30
0.0
  0
POINT
  5
72A2
330
7254
100
AcDbEntity
  8
Defpoints
 62
     0
100
AcDbPoint
 10
1516.787075027708
 20
1968.669066597746
 30
0.0
  0
POINT
  5
72A3
330
7254
100
AcDbEntity
  8
Defpoints
 62
     0
100
AcDbPoint
 10
1516.787075027708
 20
1907.868200023585
 30
0.0
  0
ENDBLK
  5
7256
330
7254
100
AcDbEntity
  8
0
100
AcDbBlockEnd
  0
BLOCK
  5
7276
330
7275
100
AcDbEntity
  8
0
100
AcDbBlockBegin
  2
*D28
 70
     1
 10
0.0
 20
0.0
 30
0.0
  3
*D28
  1

  0
LINE
  5
7306
330
7275
100
AcDbEntity
  8
AM_5 寸法線
 62
     3
100
AcDbLine
 10
1407.287075027708
 20
1963.169066597746
 30
0.0
 11
1407.287075027708
 21
1902.868200023586
 31
0.0
  0
LINE
  5
7307
330
7275
100
AcDbEntity
  8
AM_5 寸法線
 62
     3
100
AcDbLine
 10
1415.787075027708
 20
1963.669066597746
 30
0.0
 11
1415.787075027708
 21
1902.868200023586
 31
0.0
  0
LINE
  5
7308
330
7275
100
AcDbEntity
  8
AM_5 寸法線
 62
     3
100
AcDbLine
 10
1387.287075027708
 20
1907.868200023585
 30
0.0
 11
1367.287075027708
 21
1907.868200023585
 31
0.0
  0
LINE
  5
7309
330
7275
100
AcDbEntity
  8
AM_5 寸法線
 62
     3
100
AcDbLine
 10
1435.787075027708
 20
1907.868200023585
 30
0.0
 11
1455.787075027708
 21
1907.868200023585
 31
0.0
  0
LINE
  5
730A
330
7275
100
AcDbEntity
  8
AM_5 寸法線
 62
     3
100
AcDbLine
 10
1287.476124210166
 20
1907.868200023585
 30
0.0
 11
1407.287075027708
 21
1907.868200023585
 31
0.0
  0
MTEXT
  5
730B
330
7275
100
AcDbEntity
  8
AM_5 寸法線
 62
     3
100
AcDbMText
 10
1325.876124210166
 20
1933.868200023585
 30
0.0
 40
28.0
 41
0.0
 46
0.0
 71
     5
 72
     1
  1
8.5
  7
SEISA
 73
     1
 44
1.0
  0
LINE
  5
730C
330
7275
100
AcDbEntity
  8
AM_5 寸法線
 62
     3
100
AcDbLine
 10
1407.287075027708
 20
1907.868200023585
 30
0.0
 11
1415.787075027708
 21
1907.868200023585
 31
0.0
  0
LINE
  5
730D
330
7275
100
AcDbEntity
  8
AM_5 寸法線
 62
     3
100
AcDbLine
 10
1407.287075027708
 20
1907.868200023585
 30
0.0
 11
1415.787075027708
 21
1907.868200023585
 31
0.0
  0
INSERT
  5
730E
330
7275
100
AcDbEntity
  8
AM_5 寸法線
 62
     3
100
AcDbBlockReference
  2
_Open30
 10
1407.287075027708
 20
1907.868200023585
 30
0.0
 41
20.0
 42
20.0
 43
20.0
  0
INSERT
  5
730F
330
7275
100
AcDbEntity
  8
AM_5 寸法線
 62
     3
100
AcDbBlockReference
  2
_Open30
 10
1415.787075027708
 20
1907.868200023585
 30
0.0
 41
20.0
 42
20.0
 43
20.0
 50
180.0
  0
POINT
  5
7310
330
7275
100
AcDbEntity
  8
Defpoints
 62
     0
100
AcDbPoint
 10
1407.287075027708
 20
1968.169066597746
 30
0.0
  0
POINT
  5
7311
330
7275
100
AcDbEntity
  8
Defpoints
 62
     0
100
AcDbPoint
 10
1415.787075027708
 20
1968.669066597746
 30
0.0
  0
POINT
  5
7312
330
7275
100
AcDbEntity
  8
Defpoints
 62
     0
100
AcDbPoint
 10
1415.787075027708
 20
1907.868200023585
 30
0.0
  0
ENDBLK
  5
7277
330
7275
100
AcDbEntity
  8
0
100
AcDbBlockEnd
  0
BLOCK
  5
72A6
330
72A5
100
AcDbEntity
  8
0
100
AcDbBlockBegin
  2
*D29
 70
     1
 10
0.0
 20
0.0
 30
0.0
  3
*D29
  1

  0
LINE
  5
72F2
330
72A5
100
AcDbEntity
  8
AM_5 寸法線
 62
     3
100
AcDbLine
 10
1516.787075027708
 20
1963.669066597746
 30
0.0
 11
1516.787075027708
 21
1902.868200023586
 31
0.0
  0
LINE
  5
72F3
330
72A5
100
AcDbEntity
  8
AM_5 寸法線
 62
     3
100
AcDbLine
 10
1611.287075027708
 20
1961.169066597746
 30
0.0
 11
1611.287075027708
 21
1902.868200023586
 31
0.0
  0
LINE
  5
72F4
330
72A5
100
AcDbEntity
  8
AM_5 寸法線
 62
     3
100
AcDbLine
 10
1536.787075027708
 20
1907.868200023586
 30
0.0
 11
1591.287075027708
 21
1907.868200023586
 31
0.0
  0
MTEXT
  5
72F5
330
72A5
100
AcDbEntity
  8
AM_5 寸法線
 62
     3
100
AcDbMText
 10
1566.664468794542
 20
1935.647449021334
 30
0.0
 40
28.0
 41
0.0
 46
0.0
 71
     5
 72
     1
  1
94.5
  7
SEISA
 73
     1
 44
1.0
  0
INSERT
  5
72F6
330
72A5
100
AcDbEntity
  8
AM_5 寸法線
 62
     3
100
AcDbBlockReference
  2
_Open30
 10
1516.787075027708
 20
1907.868200023586
 30
0.0
 41
20.0
 42
20.0
 43
20.0
 50
180.0
  0
INSERT
  5
72F7
330
72A5
100
AcDbEntity
  8
AM_5 寸法線
 62
     3
100
AcDbBlockReference
  2
_Open30
 10
1611.287075027708
 20
1907.868200023586
 30
0.0
 41
20.0
 42
20.0
 43
20.0
  0
POINT
  5
72F8
330
72A5
100
AcDbEntity
  8
Defpoints
 62
     0
100
AcDbPoint
 10
1516.787075027708
 20
1968.669066597746
 30
0.0
  0
POINT
  5
72F9
330
72A5
100
AcDbEntity
  8
Defpoints
 62
     0
100
AcDbPoint
 10
1611.287075027708
 20
1966.169066597746
 30
0.0
  0
POINT
  5
72FA
330
72A5
100
AcDbEntity
  8
Defpoints
 62
     0
100
AcDbPoint
 10
1611.287075027708
 20
1907.868200023586
 30
0.0
  0
ENDBLK
  5
72A7
330
72A5
100
AcDbEntity
  8
0
100
AcDbBlockEnd
  0
ENDSEC
  0
SECTION
  2
ENTITIES
  0
LINE
  5
39DC
330
1F
100
AcDbEntity
  8
AM_0 外形線1
100
AcDbLine
 10
1625.287075027708
 20
1713.169066597746
 30
0.0
 11
1625.287075027708
 21
1359.169066597746
 31
0.0
  0
LINE
  5
39DE
330
1F
100
AcDbEntity
  8
AM_7 中心線
100
AcDbLine
 10
1227.987641813121
 20
1713.169066597746
 30
0.0
 11
2022.058128065715
 21
1713.169066597746
 31
0.0
  0
LINE
  5
3A8B
330
1F
100
AcDbEntity
  8
AM_0 外形線1
100
AcDbLine
 10
1639.287075027708
 20
1931.419066597746
 30
0.0
 11
1639.287075027708
 21
1713.169066597746
 31
0.0
  0
LINE
  5
3A8F
330
1F
100
AcDbEntity
  8
AM_0 外形線1
100
AcDbLine
 10
1611.287075027708
 20
1930.669066597746
 30
0.0
 11
1611.287075027708
 21
1713.169066597746
 31
0.0
  0
LINE
  5
3AD8
330
1F
100
AcDbEntity
  8
AM_0 外形線1
100
AcDbLine
 10
1611.287075027708
 20
1930.669066597746
 30
0.0
 11
1611.287075027708
 21
1940.669066597746
 31
0.0
  0
INSERT
  5
4ED1
102
{ACAD_REACTORS
330
5B10
330
5BD8
102
}
330
1F
100
AcDbEntity
  8
AM_0 外形線1
100
AcDbBlockReference
  2
ケースＡ CCMH710
 10
1625.287075027708
 20
1713.169066597746
 30
0.0
  0
INSERT
  5
5010
102
{ACAD_REACTORS
330
5BBC
330
5BD8
102
}
330
1F
100
AcDbEntity
  8
AM_0 外形線1
100
AcDbBlockReference
  2
ケースＢ CCMH710
 10
1625.287075027708
 20
1713.169066597746
 30
0.0
  0
INSERT
  5
51DB
102
{ACAD_REACTORS
330
59D8
330
59F0
330
5AE0
102
}
330
1F
100
AcDbEntity
  8
AM_0 外形線1
100
AcDbBlockReference
  2
センタＡ CCMH710
 10
1639.287075027708
 20
1713.169066597746
 30
0.0
  0
INSERT
  5
52BC
102
{ACAD_REACTORS
330
59BC
330
59D8
330
5C50
330
5E1E
330
7261
330
72B3
102
}
330
1F
100
AcDbEntity
  8
AM_0 外形線1
100
AcDbBlockReference
  2
センタＢ CCMH710
 10
1611.287075027708
 20
1713.169066597746
 30
0.0
  0
INSERT
  5
5414
330
1F
100
AcDbEntity
  8
AM_0 外形線1
100
AcDbBlockReference
  2
リーマボルト CCMH710 M24
 10
1655.287075027708
 20
2045.669066597746
 30
0.0
  0
INSERT
  5
55BA
102
{ACAD_REACTORS
330
5AF8
102
}
330
1F
100
AcDbEntity
  8
AM_0 外形線1
100
AcDbBlockReference
  2
ＧＣサイドカバ－A CCMH710
 10
1846.187075027707
 20
1713.169066597746
 30
0.0
  0
INSERT
  5
569C
102
{ACAD_REACTORS
330
5BF0
330
7284
102
}
330
1F
100
AcDbEntity
  8
AM_0 外形線1
100
AcDbBlockReference
  2
ＧＣサイドカバ－Ｂ CCMH710
 10
1404.387075027708
 20
1713.169066597746
 30
0.0
  0
DIMENSION
  5
59A5
102
{ACAD_XDICTIONARY
360
59B2
102
}
102
{ACAD_REACTORS
330
59BC
102
}
330
1F
100
AcDbEntity
  8
AM_5 寸法線
100
AcDbDimension
  2
*D15
 10
1256.287075027708
 20
1764.361757597746
 30
0.0
 11
1433.787075027708
 21
1790.361757597746
 31
0.0
 70
    32
 71
     5
 42
355.0
 73
     0
 74
     0
 75
     0
  3
SEISA$0
100
AcDbAlignedDimension
 13
1611.287075027708
 23
1713.169066597746
 33
0.0
 14
1256.287075027708
 24
1713.169066597746
 34
0.0
100
AcDbRotatedDimension
  0
DIMENSION
  5
59BD
102
{ACAD_XDICTIONARY
360
59CC
102
}
102
{ACAD_REACTORS
330
59D8
102
}
330
1F
100
AcDbEntity
  8
AM_5 寸法線
100
AcDbDimension
  2
*D16
 10
1611.287075027708
 20
1764.361757597746
 30
0.0
 11
1686.284576510072
 21
1790.836285656831
 31
0.0
 70
   160
 71
     5
 42
28.0
 73
     0
 74
     0
 75
     0
  3
SEISA$0
100
AcDbAlignedDimension
 13
1639.287075027708
 23
1713.169066597746
 33
0.0
 14
1611.287075027708
 24
1713.169066597746
 34
0.0
100
AcDbRotatedDimension
1001
ACAD
1000
DSTYLE
1002
{
1070
   279
1070
     2
1002
}
  0
DIMENSION
  5
59D9
102
{ACAD_XDICTIONARY
360
59E6
102
}
102
{ACAD_REACTORS
330
59F0
102
}
330
1F
100
AcDbEntity
  8
AM_5 寸法線
100
AcDbDimension
  2
*D17
 10
1994.287075027708
 20
1764.361757597746
 30
0.0
 11
1816.787075027708
 21
1790.361757597746
 31
0.0
 70
    32
 71
     5
 42
355.0
 73
     0
 74
     0
 75
     0
  3
SEISA$0
100
AcDbAlignedDimension
 13
1639.287075027708
 23
1713.169066597746
 33
0.0
 14
1994.287075027708
 24
1713.169066597746
 34
0.0
100
AcDbRotatedDimension
  0
DIMENSION
  5
5AC9
102
{ACAD_XDICTIONARY
360
5AD6
102
}
102
{ACAD_REACTORS
330
5AE0
102
}
330
1F
100
AcDbEntity
  8
AM_5 寸法線
100
AcDbDimension
  2
*D18
 10
2154.287075027708
 20
1458.169066597746
 30
0.0
 11
2128.287075027708
 21
1713.169066597746
 31
0.0
 70
    32
  1
%%c<>
 71
     5
 42
510.0
 73
     0
 74
     0
 75
     0
  3
SEISA$0
100
AcDbAlignedDimension
 13
1895.287075027708
 23
1968.169066597746
 33
0.0
 14
1895.287075027708
 24
1458.169066597746
 34
0.0
 50
90.0
100
AcDbRotatedDimension
1001
ACAD_DSTYLE_DIMINSPECT
1070
   396
1000
100%
1070
   395
1000

1070
   394
1070
    33
1070
   393
1070
     0
1001
ACAD
1000
DSTYLE
1002
{
1070
   279
1070
     0
1002
}
  0
DIMENSION
  5
5AE1
102
{ACAD_XDICTIONARY
360
5AEE
102
}
102
{ACAD_REACTORS
330
5AF8
102
}
330
1F
100
AcDbEntity
  8
AM_5 寸法線
100
AcDbDimension
  2
*D19
 10
2218.287075027709
 20
1402.169066597746
 30
0.0
 11
2218.287075027708
 21
1713.169066597746
 31
0.0
 70
   160
  1
%%c<>
 71
     5
 42
622.0
 73
     0
 74
     0
 75
     0
  3
SEISA$0
100
AcDbAlignedDimension
 13
1867.287075027708
 23
2024.169066597746
 33
0.0
 14
1867.287075027708
 24
1402.169066597746
 34
0.0
 50
90.0
100
AcDbRotatedDimension
1001
ACAD_DSTYLE_DIMINSPECT
1070
   396
1000
100%
1070
   395
1000

1070
   394
1070
    33
1070
   393
1070
     0
1001
ACAD
1000
DSTYLE
1002
{
1070
   279
1070
     0
1002
}
  0
DIMENSION
  5
5AF9
102
{ACAD_XDICTIONARY
360
5B06
102
}
102
{ACAD_REACTORS
330
5B10
102
}
330
1F
100
AcDbEntity
  8
AM_5 寸法線
100
AcDbDimension
  2
*D20
 10
2282.287075027708
 20
1358.169066597746
 30
0.0
 11
2282.287075027708
 21
1713.169066597746
 31
0.0
 70
   160
  1
%%c<>
 71
     5
 42
710.0
 73
     0
 74
     0
 75
     0
  3
SEISA$0
100
AcDbAlignedDimension
 13
1654.287075027708
 23
2068.169066597747
 33
0.0
 14
1654.287075027708
 24
1358.169066597746
 34
0.0
 50
90.0
100
AcDbRotatedDimension
1001
ACAD_DSTYLE_DIMINSPECT
1070
   396
1000
100%
1070
   395
1000

1070
   394
1070
    33
1070
   393
1070
     0
1001
ACAD
1000
DSTYLE
1002
{
1070
   279
1070
     0
1002
}
  0
DIMENSION
  5
5BA1
102
{ACAD_XDICTIONARY
360
5BB0
102
}
102
{ACAD_REACTORS
330
5BBC
102
}
330
1F
100
AcDbEntity
  8
AM_5 寸法線
100
AcDbDimension
  2
*D21
 10
1595.287075027708
 20
1238.169066597746
 30
0.0
 11
1522.887075027708
 21
1264.169066597746
 31
0.0
 70
    32
 71
     5
 42
30.0
 73
     0
 74
     0
 75
     0
  3
SEISA$0
100
AcDbAlignedDimension
 13
1625.287075027708
 23
1359.169066597746
 33
0.0
 14
1595.287075027708
 24
1359.169066597746
 34
0.0
100
AcDbRotatedDimension
1001
ACAD_DSTYLE_DIMINSPECT
1070
   396
1000
100%
1070
   395
1000

1070
   394
1070
    33
1070
   393
1070
     0
1001
ACAD
1000
DSTYLE
1002
{
1070
   173
1070
     1
1070
   342
1005
0
1070
   343
1005
4159
1070
   344
1005
69
1002
}
  0
DIMENSION
  5
5BBD
102
{ACAD_XDICTIONARY
360
5BCC
102
}
102
{ACAD_REACTORS
330
5BD8
102
}
330
1F
100
AcDbEntity
  8
AM_5 寸法線
100
AcDbDimension
  2
*D22
 10
1655.287075027708
 20
1238.169066597746
 30
0.0
 11
1727.687075027708
 21
1264.169066597746
 31
0.0
 70
    32
 71
     5
 42
30.0
 73
     0
 74
     0
 75
     0
  3
SEISA$0
100
AcDbAlignedDimension
 13
1625.287075027708
 23
1359.169066597746
 33
0.0
 14
1655.287075027708
 24
1359.169066597746
 34
0.0
100
AcDbRotatedDimension
1001
ACAD_DSTYLE_DIMINSPECT
1070
   396
1000
100%
1070
   395
1000

1070
   394
1070
    33
1070
   393
1070
     0
1001
ACAD
1000
DSTYLE
1002
{
1070
   173
1070
     1
1070
   342
1005
0
1070
   343
1005
4159
1070
   344
1005
69
1002
}
  0
DIMENSION
  5
5BD9
102
{ACAD_XDICTIONARY
360
5BE6
102
}
102
{ACAD_REACTORS
330
5BF0
102
}
330
1F
100
AcDbEntity
  8
AM_5 寸法線
100
AcDbDimension
  2
*D23
 10
1867.287075027708
 20
1174.169066597746
 30
0.0
 11
1625.287075027708
 21
1200.169066597746
 31
0.0
 70
    32
 71
     5
 42
484.0
 73
     0
 74
     0
 75
     0
  3
SEISA$0
100
AcDbAlignedDimension
 13
1383.287075027708
 23
1402.169066597746
 33
0.0
 14
1867.287075027708
 24
1402.169066597746
 34
0.0
100
AcDbRotatedDimension
  0
DIMENSION
  5
5C39
102
{ACAD_XDICTIONARY
360
5C46
102
}
102
{ACAD_REACTORS
330
5C50
102
}
330
1F
100
AcDbEntity
  8
AM_5 寸法線
100
AcDbDimension
  2
*D24
 10
1994.287075027708
 20
1110.169066597746
 30
0.0
 11
1625.287075027708
 21
1136.169066597746
 31
0.0
 70
    32
 71
     5
 42
738.0
 73
     0
 74
     0
 75
     0
  3
SEISA$0
100
AcDbAlignedDimension
 13
1256.287075027708
 23
1474.669066597746
 33
0.0
 14
1994.287075027708
 24
1474.669066597746
 34
0.0
100
AcDbRotatedDimension
  0
DIMENSION
  5
5E07
102
{ACAD_XDICTIONARY
360
5E14
102
}
102
{ACAD_REACTORS
330
5E1E
102
}
330
1F
100
AcDbEntity
  8
AM_5 寸法線
100
AcDbDimension
  2
*D25
 10
1096.287075027707
 20
1458.169066597746
 30
0.0
 11
1070.287075027707
 21
1713.169066597746
 31
0.0
 70
    32
  1
%%c<>
 71
     5
 42
510.0
 73
     0
 74
     0
 75
     0
  3
SEISA$0
100
AcDbAlignedDimension
 13
1355.287075027708
 23
1968.169066597746
 33
0.0
 14
1355.287075027708
 24
1458.169066597746
 34
0.0
 50
90.0
100
AcDbRotatedDimension
1001
ACAD_DSTYLE_DIMINSPECT
1070
   396
1000
100%
1070
   395
1000

1070
   394
1070
    33
1070
   393
1070
     0
  0
MTEXT
  5
7138
330
1F
100
AcDbEntity
  8
AM_6 文字
100
AcDbMText
 10
2047.699000515127
 20
1299.218791632221
 30
0.0
 40
28.0
 41
434.3255077419994
 46
101.2276339294421
 71
     1
 72
     5
  1
{\W0.6;TYPE:CCM710/CCMH710\PSHAFT DIA:MAX/MIN φ360/φ250}
  7
SEISA
 73
     1
 44
1.0
  0
DIMENSION
  5
7253
102
{ACAD_XDICTIONARY
360
7260
102
}
102
{ACAD_REACTORS
330
7261
102
}
330
1F
100
AcDbEntity
  8
AM_5 寸法線
100
AcDbDimension
  2
*D27
 10
1516.787075027708
 20
1907.868200023585
 30
0.0
 11
1466.287075027708
 21
1933.868200023586
 31
0.0
 70
    32
 71
     5
 42
101.0
 73
     0
 74
     0
 75
     0
  3
SEISA$0
100
AcDbAlignedDimension
 13
1415.787075027708
 23
1968.669066597746
 33
0.0
 14
1516.787075027708
 24
1968.669066597746
 34
0.0
 50
0.0000000000001132
100
AcDbRotatedDimension
1001
ACAD_DSTYLE_DIMINSPECT
1070
   396
1000
100%
1070
   395
1000

1070
   394
1070
    33
1070
   393
1070
     0
  0
DIMENSION
  5
7274
102
{ACAD_XDICTIONARY
360
7283
102
}
102
{ACAD_REACTORS
330
7284
102
}
330
1F
100
AcDbEntity
  8
AM_5 寸法線
100
AcDbDimension
  2
*D28
 10
1415.787075027708
 20
1907.868200023585
 30
0.0
 11
1325.876124210166
 21
1905.133623853746
 31
0.0
 70
   160
 71
     5
 42
8.5
 73
     0
 74
     0
 75
     0
  3
SEISA$0
100
AcDbAlignedDimension
 13
1407.287075027708
 23
1968.169066597746
 33
0.0
 14
1415.787075027708
 24
1968.669066597746
 34
0.0
100
AcDbRotatedDimension
1001
ACAD
1000
DSTYLE
1002
{
1070
   279
1070
     1
1002
}
  0
DIMENSION
  5
72A4
102
{ACAD_XDICTIONARY
360
72B2
102
}
102
{ACAD_REACTORS
330
72B3
102
}
330
1F
100
AcDbEntity
  8
AM_5 寸法線
100
AcDbDimension
  2
*D29
 10
1611.287075027708
 20
1907.868200023586
 30
0.0
 11
1566.664468794542
 21
1935.647449021334
 31
0.0
 70
   160
 71
     5
 42
94.50000000000001
 73
     0
 74
     0
 75
     0
  3
SEISA$0
100
AcDbAlignedDimension
 13
1516.787075027708
 23
1968.669066597746
 33
0.0
 14
1611.287075027708
 24
1966.169066597746
 34
0.0
 50
0.0000000000001132
100
AcDbRotatedDimension
1001
ACAD_DSTYLE_DIMINSPECT
1070
   396
1000
100%
1070
   395
1000

1070
   394
1070
    33
1070
   393
1070
     0
1001
ACAD
1000
DSTYLE
1002
{
1070
   279
1070
     2
1002
}
  0
ENDSEC
  0
SECTION
  2
OBJECTS
  0
DICTIONARY
  5
C
330
0
100
AcDbDictionary
281
     1
  3
ACAD_BGPLOT_KEY
350
6E63
  3
ACAD_COLOR
350
C5
  3
ACAD_GROUP
350
D
  3
ACAD_LAYOUT
350
1A
  3
ACAD_MATERIAL
350
C4
  3
ACAD_MLEADERSTYLE
350
2D5
  3
ACAD_MLINESTYLE
350
17
  3
ACAD_PLOTSETTINGS
350
19
  3
ACAD_PLOTSTYLENAME
350
E
  3
ACAD_SCALELIST
350
2B3
  3
ACAD_TABLESTYLE
350
121
  3
ACAD_VISUALSTYLE
350
27F
  3
ACDB_RECOMPOSE_DATA
350
2F7
  3
AcDbVariableDictionary
350
34
  3
AcmDictionary
350
49
  3
AMG
350
2B
  3
AMGSNAPSETTINGS
350
1DE
  0
DICTIONARY
  5
BF
330
2
100
AcDbDictionary
280
     1
281
     1
  3
ACAD_LAYERSTATES
360
422C
  3
AMLAYER_GROUPCOLORS
360
C0
  0
DICTIONARY
  5
2A6F
330
10
100
AcDbDictionary
280
     1
281
     1
  3
ADSK_XREC_LAYER_RECONCILED
360
2A70
  0
DICTIONARY
  5
2A71
330
81
100
AcDbDictionary
280
     1
281
     1
  3
ADSK_XREC_LAYER_RECONCILED
360
2A72
  0
DICTIONARY
  5
82
330
1F
100
AcDbDictionary
280
     1
281
     1
  3
ACAD_SORTENTS
360
A41
  0
DICTIONARY
  5
4DD1
330
4DA3
100
AcDbDictionary
280
     1
281
     1
  3
ACAD_SORTENTS
360
6ACC
  0
DICTIONARY
  5
4F46
330
4E96
100
AcDbDictionary
280
     1
281
     1
  3
ACAD_SORTENTS
360
661F
  0
DICTIONARY
  5
5086
330
4FDF
100
AcDbDictionary
280
     1
281
     1
  3
ACAD_SORTENTS
360
6698
  0
DICTIONARY
  5
523D
330
51AE
100
AcDbDictionary
280
     1
281
     1
  3
ACAD_SORTENTS
360
75E7
  0
DICTIONARY
  5
531F
330
528E
100
AcDbDictionary
280
     1
281
     1
  3
ACAD_SORTENTS
360
758F
  0
DICTIONARY
  5
547D
330
53E3
100
AcDbDictionary
280
     1
281
     1
  3
ACAD_SORTENTS
360
688C
  0
DICTIONARY
  5
55F8
330
559E
100
AcDbDictionary
280
     1
281
     1
  3
ACAD_SORTENTS
360
6903
  0
DICTIONARY
  5
570A
330
566F
100
AcDbDictionary
280
     1
281
     1
  3
ACAD_SORTENTS
360
697A
  0
DICTIONARY
  5
6AFB
330
6AAF
100
AcDbDictionary
280
     1
281
     1
  3
ACAD_SORTENTS
360
6AFC
  0
DICTIONARY
  5
59B2
330
59A5
100
AcDbDictionary
280
     1
281
     1
  3
ACAD_DIMASSOC
360
59BC
  0
DICTIONARY
  5
59CC
330
59BD
100
AcDbDictionary
280
     1
281
     1
  3
ACAD_DIMASSOC
360
59D8
  0
DICTIONARY
  5
59E6
330
59D9
100
AcDbDictionary
280
     1
281
     1
  3
ACAD_DIMASSOC
360
59F0
  0
DICTIONARY
  5
5AD6
330
5AC9
100
AcDbDictionary
280
     1
281
     1
  3
ACAD_DIMASSOC
360
5AE0
  0
DICTIONARY
  5
5AEE
330
5AE1
100
AcDbDictionary
280
     1
281
     1
  3
ACAD_DIMASSOC
360
5AF8
  0
DICTIONARY
  5
5B06
330
5AF9
100
AcDbDictionary
280
     1
281
     1
  3
ACAD_DIMASSOC
360
5B10
  0
DICTIONARY
  5
5BB0
330
5BA1
100
AcDbDictionary
280
     1
281
     1
  3
ACAD_DIMASSOC
360
5BBC
  0
DICTIONARY
  5
5BCC
330
5BBD
100
AcDbDictionary
280
     1
281
     1
  3
ACAD_DIMASSOC
360
5BD8
  0
DICTIONARY
  5
5BE6
330
5BD9
100
AcDbDictionary
280
     1
281
     1
  3
ACAD_DIMASSOC
360
5BF0
  0
DICTIONARY
  5
5C46
330
5C39
100
AcDbDictionary
280
     1
281
     1
  3
ACAD_DIMASSOC
360
5C50
  0
DICTIONARY
  5
5E14
330
5E07
100
AcDbDictionary
280
     1
281
     1
  3
ACAD_DIMASSOC
360
5E1E
  0
DICTIONARY
  5
7260
330
7253
100
AcDbDictionary
280
     1
281
     1
  3
ACAD_DIMASSOC
360
7261
  0
DICTIONARY
  5
7283
330
7274
100
AcDbDictionary
280
     1
281
     1
  3
ACAD_DIMASSOC
360
7284
  0
DICTIONARY
  5
72B2
330
72A4
100
AcDbDictionary
280
     1
281
     1
  3
ACAD_DIMASSOC
360
72B3
  0
DICTIONARY
  5
6E63
102
{ACAD_REACTORS
330
C
102
}
330
C
100
AcDbDictionary
280
     1
281
     1
  0
DICTIONARY
  5
C5
102
{ACAD_REACTORS
330
C
102
}
330
C
100
AcDbDictionary
281
     1
  0
DICTIONARY
  5
D
102
{ACAD_REACTORS
330
C
102
}
330
C
100
AcDbDictionary
281
     1
  0
DICTIONARY
  5
1A
102
{ACAD_REACTORS
330
C
102
}
330
C
100
AcDbDictionary
281
     1
  3
Model
350
22
  3
レイアウト1
350
1E
  3
レイアウト2
350
26
  0
DICTIONARY
  5
C4
102
{ACAD_REACTORS
330
C
102
}
330
C
100
AcDbDictionary
281
     1
  3
ByBlock
350
27D
  3
ByLayer
350
27C
  3
Global
350
27E
  0
DICTIONARY
  5
2D5
102
{ACAD_REACTORS
330
C
102
}
330
C
100
AcDbDictionary
281
     1
  3
Standard
350
2D6
  0
DICTIONARY
  5
17
102
{ACAD_REACTORS
330
C
102
}
330
C
100
AcDbDictionary
281
     1
  3
Standard
350
18
  0
DICTIONARY
  5
19
102
{ACAD_REACTORS
330
C
102
}
330
C
100
AcDbDictionary
281
     1
  3
SEISA基本
350
1C7E
  0
ACDBDICTIONARYWDFLT
  5
E
102
{ACAD_REACTORS
330
C
102
}
330
C
100
AcDbDictionary
281
     1
  3
Normal
350
F
100
AcDbDictionaryWithDefault
340
F
  0
DICTIONARY
  5
2B3
102
{ACAD_REACTORS
330
C
102
}
330
C
100
AcDbDictionary
281
     1
  3
*A1
350
712C
  3
*A2
350
712D
  3
*A3
350
712E
  3
*A4
350
712F
  3
A0
350
2B4
  3
A1
350
2B5
  3
A2
350
2B6
  3
A3
350
2B7
  3
A4
350
2B8
  3
A5
350
2B9
  3
A6
350
2BA
  3
A7
350
2BB
  3
A8
350
2BC
  3
A9
350
2BD
  3
B0
350
2BE
  3
B1
350
2BF
  3
B2
350
2C0
  3
B3
350
2C1
  3
B4
350
2C2
  3
B5
350
2C3
  3
B6
350
2C4
  3
B7
350
2C5
  3
B8
350
2C6
  3
B9
350
2C7
  3
C0
350
2C8
  3
C1
350
2C9
  3
C2
350
2CA
  3
C3
350
2CB
  3
C4
350
2CC
  3
C5
350
2CD
  3
C6
350
2CE
  3
C7
350
2CF
  3
C8
350
2D0
  3
C9
350
2D1
  3
D0
350
2D2
  3
D1
350
2D3
  3
D2
350
2D4
  0
DICTIONARY
  5
121
102
{ACAD_REACTORS
330
C
102
}
330
C
100
AcDbDictionary
281
     1
  3
Standard
350
122
  0
DICTIONARY
  5
27F
102
{ACAD_REACTORS
330
C
102
}
330
C
100
AcDbDictionary
281
     1
  3
2dWireframe
350
285
  3
3D Hidden
350
287
  3
3dWireframe
350
286
  3
Basic
350
284
  3
Brighten
350
28B
  3
ColorChange
350
28F
  3
Conceptual
350
288
  3
Dim
350
28A
  3
Facepattern
350
28E
  3
Flat
350
280
  3
FlatWithEdges
350
281
  3
Gouraud
350
282
  3
GouraudWithEdges
350
283
  3
Linepattern
350
28D
  3
Realistic
350
289
  3
Thicken
350
28C
  0
XRECORD
  5
2F7
102
{ACAD_REACTORS
330
C
102
}
330
C
100
AcDbXrecord
280
     1
 90
        1
330
122
  0
DICTIONARY
  5
34
102
{ACAD_REACTORS
330
C
102
}
330
C
100
AcDbDictionary
281
     1
  3
CANNOSCALE
350
2FA
  3
CMLEADERSTYLE
350
2F8
  3
CTABLESTYLE
350
140
  3
DIMASSOC
350
AC
  3
FIELDEVAL
350
6E7E
  3
INDEXCTL
350
35
  3
LAYEREVAL
350
6A01
  3
LAYERNOTIFY
350
6A02
  3
LIGHTINGUNITS
350
2FB
  3
MSLTSCALE
350
2F9
  0
DICTIONARY
  5
49
102
{ACAD_REACTORS
330
C
102
}
330
C
100
AcDbDictionary
281
     1
  3
AcmBOM
350
161B
  3
AcmStdDictionary
350
4A
  3
AMDTSECTSYM_ARROWCOLOR
350
12B
  0
DICTIONARY
  5
2B
102
{ACAD_REACTORS
330
C
102
}
330
C
100
AcDbDictionary
281
     1
  0
DICTIONARY
  5
1DE
102
{ACAD_REACTORS
330
C
102
}
330
C
100
AcDbDictionary
281
     1
  0
DICTIONARY
  5
422C
102
{ACAD_REACTORS
330
BF
102
}
330
BF
100
AcDbDictionary
281
     1
  0
DICTIONARY
  5
C0
102
{ACAD_REACTORS
330
BF
102
}
330
BF
100
AcDbDictionary
280
     1
281
     1
  0
XRECORD
  5
2A70
102
{ACAD_REACTORS
330
2A6F
102
}
330
2A6F
100
AcDbXrecord
280
     1
290
     1
  0
XRECORD
  5
2A72
102
{ACAD_REACTORS
330
2A71
102
}
330
2A71
100
AcDbXrecord
280
     1
290
     1
  0
SORTENTSTABLE
  5
A41
102
{ACAD_REACTORS
330
82
102
}
330
82
100
AcDbSortentsTable
330
1F
331
59BD
  5
5AE1
331
5010
  5
536C
331
5BA1
  5
5C39
331
52BC
  5
577D
331
39DE
  5
39DE
331
5E07
  5
5EE3
331
39DC
  5
39DC
331
7274
  5
7274
331
59A5
  5
5AC9
331
5AF9
  5
5C21
331
55BA
  5
582F
331
72A4
  5
72A4
331
5AC9
  5
5BF1
331
51DB
  5
569C
331
4ED1
  5
536B
331
7253
  5
7253
331
5C39
  5
5DCE
331
5414
  5
5807
331
5BBD
  5
5CC1
331
5AE1
  5
5C09
331
7138
  5
7138
331
3AD8
  5
3BB2
331
3A8F
  5
3AB1
331
59D9
  5
5AF9
331
569C
  5
586E
331
3A8B
  5
3AB0
331
5BD9
  5
5CC2
  0
SORTENTSTABLE
  5
6ACC
102
{ACAD_REACTORS
330
4DD1
102
}
330
4DD1
100
AcDbSortentsTable
330
4DA3
  0
SORTENTSTABLE
  5
661F
102
{ACAD_REACTORS
330
4F46
102
}
330
4F46
100
AcDbSortentsTable
330
4E96
  0
SORTENTSTABLE
  5
6698
102
{ACAD_REACTORS
330
5086
102
}
330
5086
100
AcDbSortentsTable
330
4FDF
331
4FE7
  5
4FEA
331
507E
  5
5081
331
4FE5
  5
4FE8
331
4FFE
  5
5001
331
4FE3
  5
4FE6
331
4FFC
  5
4FFF
331
4FFA
  5
4FFD
331
5006
  5
5009
331
4FF8
  5
4FFB
331
5004
  5
5007
331
5002
  5
5005
331
4FF6
  5
4FF9
331
5000
  5
5003
331
4FF4
  5
4FF7
331
4FF2
  5
4FF5
331
500F
  5
5080
331
4FF0
  5
4FF3
331
500D
  5
507E
331
5084
  5
4FE3
331
4FEE
  5
4FF1
331
500B
  5
500E
331
5082
  5
5085
331
4FEC
  5
4FEF
331
5009
  5
500C
331
4FEA
  5
4FED
331
5080
  5
5083
331
507F
  5
5082
331
4FE8
  5
4FEB
331
4FE6
  5
4FE9
331
4FE4
  5
4FE7
331
4FFF
  5
5002
331
4FE2
  5
4FE5
331
4FFD
  5
5000
331
4FFB
  5
4FFE
331
5007
  5
500A
331
4FF9
  5
4FFC
331
5005
  5
5008
331
4FF7
  5
4FFA
331
5003
  5
5006
331
4FF5
  5
4FF8
331
5001
  5
5004
331
4FF3
  5
4FF6
331
4FF1
  5
4FF4
331
500E
  5
507F
331
4FEF
  5
4FF2
331
5085
  5
4FE4
331
4FED
  5
4FF0
331
5083
  5
4FE2
331
500C
  5
500F
331
4FEB
  5
4FEE
331
5081
  5
5084
331
500A
  5
500D
331
4FE9
  5
4FEC
331
5008
  5
500B
  0
SORTENTSTABLE
  5
75E7
102
{ACAD_REACTORS
330
523D
102
}
330
523D
100
AcDbSortentsTable
330
51AE
331
51CB
  5
51CE
331
51C6
  5
51CB
331
51D0
  5
51D3
331
51C1
  5
51C4
331
51D5
  5
523C
331
51BC
  5
51BF
331
51B7
  5
51BA
331
51B2
  5
51B5
331
51C2
  5
51C5
331
51D1
  5
51D4
331
51B3
  5
51B6
331
51CC
  5
51CF
331
51D6
  5
7495
331
51C7
  5
51CC
331
51BD
  5
51C0
331
51D8
  5
75BF
331
51B8
  5
51BB
331
51CD
  5
51D0
331
51D2
  5
51D5
331
51C3
  5
51C6
331
51BE
  5
51C1
331
51B9
  5
51BC
331
51B4
  5
51B7
331
51C4
  5
51C7
331
51D3
  5
51D6
331
51CE
  5
51D1
331
523C
  5
51B3
331
51BA
  5
51BD
331
75BF
  5
51B1
331
51B5
  5
51B8
331
51BF
  5
51C2
331
7495
  5
51B2
331
51C0
  5
51C3
331
51CF
  5
51D2
331
51B1
  5
51B4
331
51CA
  5
51CD
331
51D4
  5
51D8
331
51C5
  5
51CA
331
51BB
  5
51BE
331
51B6
  5
51B9
  0
SORTENTSTABLE
  5
758F
102
{ACAD_REACTORS
330
531F
102
}
330
531F
100
AcDbSortentsTable
330
528E
331
5291
  5
5293
331
52B4
  5
52B6
331
52A0
  5
52A2
331
52AF
  5
52B1
331
52AA
  5
52AC
331
52B8
  5
758E
331
529B
  5
529D
331
5296
  5
5298
331
52B0
  5
52B2
331
52B5
  5
52B7
331
529C
  5
529E
331
5297
  5
5299
331
52AB
  5
52AD
331
52A6
  5
52A9
331
52A1
  5
52A3
331
5292
  5
5294
331
52B1
  5
52B3
331
5293
  5
5295
331
5298
  5
529A
331
71F3
  5
5292
331
52A2
  5
52A4
331
52AC
  5
52AE
331
529D
  5
529F
331
52B6
  5
52B8
331
52B2
  5
52B4
331
52B7
  5
71F3
331
529E
  5
52A0
331
5299
  5
529B
331
758E
  5
5291
331
52AD
  5
52AF
331
52A8
  5
52AA
331
52A3
  5
52A6
331
5294
  5
5296
331
52B3
  5
52B5
331
529A
  5
529C
331
5295
  5
5297
331
52A9
  5
52AB
331
52A4
  5
52A8
331
52AE
  5
52B0
331
529F
  5
52A1
  0
SORTENTSTABLE
  5
688C
102
{ACAD_REACTORS
330
547D
102
}
330
547D
100
AcDbSortentsTable
330
53E3
331
544B
  5
544C
331
544C
  5
544D
331
547C
  5
544B
331
544D
  5
547C
  0
SORTENTSTABLE
  5
6903
102
{ACAD_REACTORS
330
55F8
102
}
330
55F8
100
AcDbSortentsTable
330
559E
331
5755
  5
55AA
331
5767
  5
55F6
331
5766
  5
55F5
331
5754
  5
55A9
331
5753
  5
55A8
331
5765
  5
55F4
331
5764
  5
55F3
331
5752
  5
55A7
331
5751
  5
55A6
331
5763
  5
55B9
331
5762
  5
55B8
331
5750
  5
55A5
331
574F
  5
55A4
331
5761
  5
55B7
331
5760
  5
55B6
331
574E
  5
55A1
331
575F
  5
55B5
331
575E
  5
55B4
331
575D
  5
55B3
331
575C
  5
55B1
331
55B9
  5
5766
331
55AF
  5
575D
331
575B
  5
55B0
331
575A
  5
55AF
331
55AE
  5
575C
331
55B8
  5
5765
331
55F7
  5
576B
331
55AD
  5
575B
331
5759
  5
55AE
331
5758
  5
55AD
331
55F6
  5
576A
331
55AC
  5
575A
331
55AB
  5
5759
331
55F5
  5
5769
331
55F4
  5
5768
331
55AA
  5
5758
331
55A9
  5
5757
331
55F3
  5
5767
331
55A8
  5
5756
331
55A7
  5
5755
331
55A6
  5
5754
331
55A5
  5
5753
331
55B7
  5
5764
331
55B6
  5
5763
331
55A4
  5
5752
331
55B5
  5
5762
331
55B4
  5
5761
331
55A1
  5
5751
331
55B3
  5
5760
331
55B1
  5
575F
331
55B0
  5
575E
331
576B
  5
5750
331
576A
  5
574F
331
5769
  5
574E
331
5757
  5
55AC
331
5768
  5
55F7
331
5756
  5
55AB
  0
SORTENTSTABLE
  5
697A
102
{ACAD_REACTORS
330
570A
102
}
330
570A
100
AcDbSortentsTable
330
566F
331
5679
  5
5687
331
5678
  5
5685
331
569A
  5
5705
331
5699
  5
5704
331
5698
  5
5703
331
5707
  5
567E
331
5706
  5
567D
331
5705
  5
567C
331
5704
  5
567B
331
5703
  5
567A
331
5702
  5
5679
331
5701
  5
5678
331
5700
  5
5677
331
56FF
  5
5676
331
56FE
  5
5675
331
568F
  5
56FA
331
56FD
  5
5673
331
568E
  5
56F9
331
56FC
  5
5709
331
568D
  5
56F8
331
56FB
  5
5708
331
568C
  5
569A
331
56FA
  5
5686
331
568B
  5
5699
331
56F9
  5
5707
331
568A
  5
5698
331
56F8
  5
5706
331
5697
  5
5702
331
5677
  5
5684
331
5689
  5
5697
331
5688
  5
5696
331
5696
  5
5701
331
5676
  5
5683
331
5695
  5
5700
331
5675
  5
5682
331
5687
  5
5695
331
5686
  5
5694
331
5694
  5
56FF
331
5693
  5
56FE
331
5673
  5
5681
331
5685
  5
5693
331
5684
  5
5692
331
5692
  5
56FD
331
5691
  5
56FC
331
5683
  5
5691
331
5682
  5
5690
331
5690
  5
56FB
331
5681
  5
568F
331
5680
  5
568E
331
567F
  5
568D
331
567E
  5
568C
331
567D
  5
568B
331
5709
  5
5680
331
567C
  5
568A
331
5708
  5
567F
331
567B
  5
5689
331
567A
  5
5688
  0
SORTENTSTABLE
  5
6AFC
102
{ACAD_REACTORS
330
6AFB
102
}
330
6AFB
100
AcDbSortentsTable
330
6AAF
  0
DIMASSOC
  5
59BC
102
{ACAD_REACTORS
330
59B2
102
}
330
59B2
100
AcDbDimAssoc
330
59A5
 90
        3
 70
     0
 71
     0
  1
AcDbOsnapPointRef
 72
     1
331
52BC
331
52B1
 73
     2
 91
        0
 40
1.0
 10
0.0
 20
0.0
 30
2.000000000000000E+50
 75
     0
  1
AcDbOsnapPointRef
 72
     2
331
52BC
331
5293
 73
     2
 91
        0
 40
0.5
 10
0.0
 20
0.0
 30
0.0
 75
     0
  0
DIMASSOC
  5
59D8
102
{ACAD_REACTORS
330
59CC
102
}
330
59CC
100
AcDbDimAssoc
330
59BD
 90
        3
 70
     0
 71
     0
  1
AcDbOsnapPointRef
 72
     1
331
51DB
331
51B1
 73
     2
 91
        0
 40
1.0
 10
0.0
 20
0.0
 30
2.000000000000000E+50
 75
     0
  1
AcDbOsnapPointRef
 72
     1
331
52BC
331
52B1
 73
     2
 91
        0
 40
1.0
 10
0.0
 20
0.0
 30
2.000000000000000E+50
 75
     0
  0
DIMASSOC
  5
59F0
102
{ACAD_REACTORS
330
59E6
102
}
330
59E6
100
AcDbDimAssoc
330
59D9
 90
        3
 70
     0
 71
     0
  1
AcDbOsnapPointRef
 72
     1
331
51DB
331
51B1
 73
     2
 91
        0
 40
1.0
 10
0.0
 20
0.0
 30
2.000000000000000E+50
 75
     0
  1
AcDbOsnapPointRef
 72
     2
331
51DB
331
51B2
 73
     2
 91
        0
 40
0.5
 10
0.0
 20
0.0
 30
0.0
 75
     0
  0
DIMASSOC
  5
5AE0
102
{ACAD_REACTORS
330
5AD6
102
}
330
5AD6
100
AcDbDimAssoc
330
5AC9
 90
        3
 70
     0
 71
     0
  1
AcDbOsnapPointRef
 72
    13
331
51DB
331
51D1
 73
     2
 91
        0
 40
0.0
 10
0.0
 20
0.0
 30
2.000000000000000E+50
 75
     0
  1
AcDbOsnapPointRef
 72
    13
331
51DB
331
51BA
 73
     2
 91
        0
 40
0.0
 10
0.0
 20
0.0
 30
2.000000000000000E+50
 75
     0
  0
DIMASSOC
  5
5AF8
102
{ACAD_REACTORS
330
5AEE
102
}
330
5AEE
100
AcDbDimAssoc
330
5AE1
 90
        3
 70
     0
 71
     0
  1
AcDbOsnapPointRef
 72
    13
331
55BA
331
55B6
 73
     2
 91
        0
 40
0.0
 10
0.0
 20
0.0
 30
2.000000000000000E+50
 75
     0
  1
AcDbOsnapPointRef
 72
    13
331
55BA
331
55A4
 73
     2
 91
        0
 40
0.0
 10
0.0
 20
0.0
 30
2.000000000000000E+50
 75
     0
  0
DIMASSOC
  5
5B10
102
{ACAD_REACTORS
330
5B06
102
}
330
5B06
100
AcDbDimAssoc
330
5AF9
 90
        3
 70
     0
 71
     0
  1
AcDbOsnapPointRef
 72
     1
331
4ED1
331
4EBB
 73
     2
 91
        0
 40
1.0
 10
0.0
 20
0.0
 30
2.000000000000000E+50
 75
     0
  1
AcDbOsnapPointRef
 72
     1
331
4ED1
331
4E9B
 73
     2
 91
        0
 40
1.0
 10
0.0
 20
0.0
 30
2.000000000000000E+50
 75
     0
  0
DIMASSOC
  5
5BBC
102
{ACAD_REACTORS
330
5BB0
102
}
330
5BB0
100
AcDbDimAssoc
330
5BA1
 90
        3
 70
     0
 71
     0
  1
AcDbOsnapPointRef
 72
    13
331
5010
331
5000
 73
     2
 91
        0
 40
0.0
 10
0.0
 20
0.0
 30
2.000000000000000E+50
 75
     0
  1
AcDbOsnapPointRef
 72
    13
331
5010
331
4FFC
 73
     2
 91
        0
 40
0.0
 10
0.0
 20
0.0
 30
2.000000000000000E+50
 75
     0
  0
DIMASSOC
  5
5BD8
102
{ACAD_REACTORS
330
5BCC
102
}
330
5BCC
100
AcDbDimAssoc
330
5BBD
 90
        3
 70
     0
 71
     0
  1
AcDbOsnapPointRef
 72
    13
331
5010
331
5000
 73
     2
 91
        0
 40
0.0
 10
0.0
 20
0.0
 30
2.000000000000000E+50
 75
     0
  1
AcDbOsnapPointRef
 72
    13
331
4ED1
331
4E9A
 73
     2
 91
        0
 40
0.0
 10
0.0
 20
0.0
 30
2.000000000000000E+50
 75
     0
  0
DIMASSOC
  5
5BF0
102
{ACAD_REACTORS
330
5BE6
102
}
330
5BE6
100
AcDbDimAssoc
330
5BD9
 90
        1
 70
     0
 71
     0
  1
AcDbOsnapPointRef
 72
    13
331
569C
331
5675
 73
     2
 91
        0
 40
0.0
 10
0.0
 20
0.0
 30
2.000000000000000E+50
 75
     0
  0
DIMASSOC
  5
5C50
102
{ACAD_REACTORS
330
5C46
102
}
330
5C46
100
AcDbDimAssoc
330
5C39
 90
        1
 70
     0
 71
     0
  1
AcDbOsnapPointRef
 72
    13
331
52BC
331
5293
 73
     2
 91
        0
 40
0.0
 10
0.0
 20
0.0
 30
2.000000000000000E+50
 75
     0
  0
DIMASSOC
  5
5E1E
102
{ACAD_REACTORS
330
5E14
102
}
330
5E14
100
AcDbDimAssoc
330
5E07
 90
        3
 70
     0
 71
     0
  1
AcDbOsnapPointRef
 72
     1
331
52BC
331
52A8
 73
     2
 91
        0
 40
0.9999999999999998
 10
0.0
 20
0.0
 30
2.000000000000000E+50
 75
     0
  1
AcDbOsnapPointRef
 72
    13
331
52BC
331
5299
 73
     2
 91
        0
 40
0.0
 10
0.0
 20
0.0
 30
2.000000000000000E+50
 75
     0
  0
DIMASSOC
  5
7261
102
{ACAD_REACTORS
330
7260
102
}
330
7260
100
AcDbDimAssoc
330
7253
 90
        2
 70
     0
 71
     0
  1
AcDbOsnapPointRef
 72
    13
331
52BC
331
52AE
 73
     0
 91
        0
 40
0.0
 10
0.0
 20
0.0
 30
2.000000000000000E+50
 75
     0
  0
DIMASSOC
  5
7284
102
{ACAD_REACTORS
330
7283
102
}
330
7283
100
AcDbDimAssoc
330
7274
 90
        3
 70
     0
 71
     0
  1
AcDbOsnapPointRef
 72
     1
331
569C
331
5681
 73
     2
 91
        0
 40
1.0
 10
0.0
 20
0.0
 30
2.000000000000000E+50
 75
     0
  1
AcDbOsnapPointRef
 72
     4
 40
0.0
 10
0.0
 20
0.0
 30
0.0
 75
     0
  0
DIMASSOC
  5
72B3
102
{ACAD_REACTORS
330
72B2
102
}
330
72B2
100
AcDbDimAssoc
330
72A4
 90
        3
 70
     0
 71
     0
  1
AcDbOsnapPointRef
 72
     1
331
52BC
331
52AF
 73
     0
 91
        0
 40
0.0
 10
0.0
 20
0.0
 30
2.000000000000000E+50
 75
     0
  1
AcDbOsnapPointRef
 72
    13
331
52BC
331
52B6
 73
     0
 91
        0
 40
0.0
 10
0.0
 20
0.0
 30
2.000000000000000E+50
 75
     0
  0
LAYOUT
  5
22
102
{ACAD_REACTORS
330
1A
102
}
330
1A
100
AcDbPlotSettings
  1

  2
KONICA MINOLTA 501 PCL
  4
A4
  6

 40
5.027082920074462
 41
5.027085781097412
 42
5.027069091796875
 43
5.027069091796875
 44
209.9733276367186
 45
296.9259948730469
 46
1.655652261518738
 47
0.0
 48
0.0
 49
0.0
140
0.0
141
0.0
142
1.0
143
4.900482893682686
 70
 11956
 72
     1
 73
     1
 74
     1
  7
SEISA.ctb
 75
     0
147
0.2040615224448841
 76
     0
 77
     2
 78
   300
148
-1056.049815271484
149
-1104.795053718576
100
AcDbLayout
  1
Model
 70
     1
 71
     0
 10
0.0
 20
0.0
 11
12.0
 21
9.0
 12
0.0
 22
0.0
 32
0.0
 14
0.0
 24
0.0
 34
0.0
 15
0.0
 25
0.0
 35
0.0
146
0.0
 13
0.0
 23
0.0
 33
0.0
 16
1.0
 26
0.0
 36
0.0
 17
0.0
 27
1.0
 37
0.0
 76
     0
330
1F
331
27A
1001
ACAD_PSEXT
1000
KONICA MINOLTA 501 PCL
1000
KONICA MINOLTA 501/421/361PCL
1000
IP_192.168.20.231_(1)
1000

1070
     0
  0
LAYOUT
  5
1E
102
{ACAD_REACTORS
330
1A
102
}
330
1A
100
AcDbPlotSettings
  1

  2
none_device
  4
Letter_(8.50_x_11.00_Inches)
  6

 40
6.349999904632567
 41
6.349999904632567
 42
6.350006103515625
 43
6.350006103515625
 44
215.8999938964844
 45
279.3999938964844
 46
0.0
 47
0.0
 48
0.0
 49
0.0
140
0.0
141
0.0
142
1.0
143
1.0
 70
 15024
 72
     1
 73
     1
 74
     5
  7
SEISA.ctb
 75
    16
147
1.0
 76
     0
 77
     2
 78
   300
148
0.0
149
0.0
100
AcDbLayout
  1
レイアウト1
 70
     1
 71
     1
 10
0.0
 20
0.0
 11
420.0
 21
297.0
 12
0.0
 22
0.0
 32
0.0
 14
1.000000000000000E+20
 24
1.000000000000000E+20
 34
1.000000000000000E+20
 15
-1.000000000000000E+20
 25
-1.000000000000000E+20
 35
-1.000000000000000E+20
146
0.0
 13
0.0
 23
0.0
 33
0.0
 16
1.0
 26
0.0
 36
0.0
 17
0.0
 27
1.0
 37
0.0
 76
     0
330
1B
  0
LAYOUT
  5
26
102
{ACAD_REACTORS
330
1A
102
}
330
1A
100
AcDbPlotSettings
  1

  2
none_device
  4
Letter_(8.50_x_11.00_Inches)
  6

 40
6.349999904632567
 41
6.349999904632567
 42
6.350006103515625
 43
6.350006103515625
 44
215.8999938964844
 45
279.3999938964844
 46
0.0
 47
0.0
 48
0.0
 49
0.0
140
0.0
141
0.0
142
1.0
143
1.0
 70
 15024
 72
     1
 73
     1
 74
     5
  7
SEISA.ctb
 75
    16
147
1.0
 76
     0
 77
     2
 78
   300
148
0.0
149
0.0
100
AcDbLayout
  1
レイアウト2
 70
     1
 71
     2
 10
0.0
 20
0.0
 11
12.0
 21
9.0
 12
0.0
 22
0.0
 32
0.0
 14
0.0
 24
0.0
 34
0.0
 15
0.0
 25
0.0
 35
0.0
146
0.0
 13
0.0
 23
0.0
 33
0.0
 16
1.0
 26
0.0
 36
0.0
 17
0.0
 27
1.0
 37
0.0
 76
     0
330
23
  0
MATERIAL
  5
27D
102
{ACAD_REACTORS
330
C4
102
}
330
C4
100
AcDbMaterial
  1
ByBlock
 73
     1
 78
     1
172
     1
176
     1
270
     1
274
     1
 94
       63
  0
MATERIAL
  5
27C
102
{ACAD_REACTORS
330
C4
102
}
330
C4
100
AcDbMaterial
  1
ByLayer
 73
     1
 78
     1
172
     1
176
     1
270
     1
274
     1
 94
       63
  0
MATERIAL
  5
27E
102
{ACAD_REACTORS
330
C4
102
}
330
C4
100
AcDbMaterial
  1
Global
 73
     1
 78
     1
172
     1
176
     1
270
     1
274
     1
 94
       63
  0
MLEADERSTYLE
  5
2D6
102
{ACAD_REACTORS
330
2D5
102
}
330
2D5
100
AcDbMLeaderStyle
170
     2
171
     1
172
     0
 90
        2
 40
0.0
 41
0.0
173
     1
 91
-1056964608
340
14
 92
       -2
290
     1
 42
2.0
291
     1
 43
0.36
  3
Standard
 44
4.0
300

342
11
174
     1
178
     6
175
     1
176
     0
 93
-1056964608
 45
4.0
292
     0
297
     0
 46
4.0
 94
-1056964608
 47
1.0
 49
1.0
140
1.0
293
     1
141
0.0
294
     1
177
     0
142
1.0
295
     0
296
     0
143
0.125
1001
ACAD_MLEADERVER
1070
     2
  0
MLINESTYLE
  5
18
102
{ACAD_REACTORS
330
17
102
}
330
17
100
AcDbMlineStyle
  2
STANDARD
 70
     0
  3

 62
   256
 51
90.0
 52
90.0
 71
     2
 49
0.5
 62
   256
  6
BYLAYER
 49
-0.5
 62
   256
  6
BYLAYER
  0
PLOTSETTINGS
  5
1C7E
102
{ACAD_REACTORS
330
19
102
}
330
19
100
AcDbPlotSettings
  1
SEISA基本
  2
none_device
  4
Letter_(8.50_x_11.00_Inches)
  6

 40
6.349999904632567
 41
6.349999904632567
 42
6.350006103515625
 43
6.350006103515625
 44
215.8999938964844
 45
279.3999938964844
 46
7.302498226506357
 47
0.0
 48
0.0
 49
0.0
140
0.0
141
0.0
142
1.0
143
1.574803221122935
 70
 11956
 72
     1
 73
     1
 74
     2
  7
SEISA.ctb
 75
     0
147
0.6349999711627054
 76
     0
 77
     2
 78
   300
148
0.0
149
0.0
1001
ACAD_PSEXT
1000
なし
1000
なし
1000
適切ではありません
1000
新しいプロッタ環境設定名を選択しない限り、レイアウトは印刷されません。
1070
     0
  0
ACDBPLACEHOLDER
  5
F
102
{ACAD_REACTORS
330
E
102
}
330
E
  0
SCALE
  5
712C
102
{ACAD_REACTORS
330
2B3
102
}
330
2B3
100
AcDbScale
 70
     0
300
1:6
140
1.0
141
6.0
290
     0
  0
SCALE
  5
712D
102
{ACAD_REACTORS
330
2B3
102
}
330
2B3
100
AcDbScale
 70
     0
300
1:3
140
1.0
141
3.0
290
     0
  0
SCALE
  5
712E
102
{ACAD_REACTORS
330
2B3
102
}
330
2B3
100
AcDbScale
 70
     0
300
1:2.5
140
1.0
141
2.5
290
     0
  0
SCALE
  5
712F
102
{ACAD_REACTORS
330
2B3
102
}
330
2B3
100
AcDbScale
 70
     0
300
1:1.5
140
1.0
141
1.5
290
     0
  0
SCALE
  5
2B4
102
{ACAD_REACTORS
330
2B3
102
}
330
2B3
100
AcDbScale
 70
     0
300
1:1
140
1.0
141
1.0
290
     1
  0
SCALE
  5
2B5
102
{ACAD_REACTORS
330
2B3
102
}
330
2B3
100
AcDbScale
 70
     0
300
1:2
140
1.0
141
2.0
290
     0
  0
SCALE
  5
2B6
102
{ACAD_REACTORS
330
2B3
102
}
330
2B3
100
AcDbScale
 70
     0
300
1:4
140
1.0
141
4.0
290
     0
  0
SCALE
  5
2B7
102
{ACAD_REACTORS
330
2B3
102
}
330
2B3
100
AcDbScale
 70
     0
300
1:5
140
1.0
141
5.0
290
     0
  0
SCALE
  5
2B8
102
{ACAD_REACTORS
330
2B3
102
}
330
2B3
100
AcDbScale
 70
     0
300
1:8
140
1.0
141
8.0
290
     0
  0
SCALE
  5
2B9
102
{ACAD_REACTORS
330
2B3
102
}
330
2B3
100
AcDbScale
 70
     0
300
1:10
140
1.0
141
10.0
290
     0
  0
SCALE
  5
2BA
102
{ACAD_REACTORS
330
2B3
102
}
330
2B3
100
AcDbScale
 70
     0
300
1:16
140
1.0
141
16.0
290
     0
  0
SCALE
  5
2BB
102
{ACAD_REACTORS
330
2B3
102
}
330
2B3
100
AcDbScale
 70
     0
300
1:20
140
1.0
141
20.0
290
     0
  0
SCALE
  5
2BC
102
{ACAD_REACTORS
330
2B3
102
}
330
2B3
100
AcDbScale
 70
     0
300
1:30
140
1.0
141
30.0
290
     0
  0
SCALE
  5
2BD
102
{ACAD_REACTORS
330
2B3
102
}
330
2B3
100
AcDbScale
 70
     0
300
1:40
140
1.0
141
40.0
290
     0
  0
SCALE
  5
2BE
102
{ACAD_REACTORS
330
2B3
102
}
330
2B3
100
AcDbScale
 70
     0
300
1:50
140
1.0
141
50.0
290
     0
  0
SCALE
  5
2BF
102
{ACAD_REACTORS
330
2B3
102
}
330
2B3
100
AcDbScale
 70
     0
300
1:100
140
1.0
141
100.0
290
     0
  0
SCALE
  5
2C0
102
{ACAD_REACTORS
330
2B3
102
}
330
2B3
100
AcDbScale
 70
     0
300
2:1
140
2.0
141
1.0
290
     0
  0
SCALE
  5
2C1
102
{ACAD_REACTORS
330
2B3
102
}
330
2B3
100
AcDbScale
 70
     0
300
4:1
140
4.0
141
1.0
290
     0
  0
SCALE
  5
2C2
102
{ACAD_REACTORS
330
2B3
102
}
330
2B3
100
AcDbScale
 70
     0
300
8:1
140
8.0
141
1.0
290
     0
  0
SCALE
  5
2C3
102
{ACAD_REACTORS
330
2B3
102
}
330
2B3
100
AcDbScale
 70
     0
300
10:1
140
10.0
141
1.0
290
     0
  0
SCALE
  5
2C4
102
{ACAD_REACTORS
330
2B3
102
}
330
2B3
100
AcDbScale
 70
     0
300
100:1
140
100.0
141
1.0
290
     0
  0
SCALE
  5
2C5
102
{ACAD_REACTORS
330
2B3
102
}
330
2B3
100
AcDbScale
 70
     0
300
1/128" = 1'-0"
140
0.0078125
141
12.0
290
     0
  0
SCALE
  5
2C6
102
{ACAD_REACTORS
330
2B3
102
}
330
2B3
100
AcDbScale
 70
     0
300
1/64" = 1'-0"
140
0.015625
141
12.0
290
     0
  0
SCALE
  5
2C7
102
{ACAD_REACTORS
330
2B3
102
}
330
2B3
100
AcDbScale
 70
     0
300
1/32" = 1'-0"
140
0.03125
141
12.0
290
     0
  0
SCALE
  5
2C8
102
{ACAD_REACTORS
330
2B3
102
}
330
2B3
100
AcDbScale
 70
     0
300
1/16" = 1'-0"
140
0.0625
141
12.0
290
     0
  0
SCALE
  5
2C9
102
{ACAD_REACTORS
330
2B3
102
}
330
2B3
100
AcDbScale
 70
     0
300
3/32" = 1'-0"
140
0.09375
141
12.0
290
     0
  0
SCALE
  5
2CA
102
{ACAD_REACTORS
330
2B3
102
}
330
2B3
100
AcDbScale
 70
     0
300
1/8" = 1'-0"
140
0.125
141
12.0
290
     0
  0
SCALE
  5
2CB
102
{ACAD_REACTORS
330
2B3
102
}
330
2B3
100
AcDbScale
 70
     0
300
3/16" = 1'-0"
140
0.1875
141
12.0
290
     0
  0
SCALE
  5
2CC
102
{ACAD_REACTORS
330
2B3
102
}
330
2B3
100
AcDbScale
 70
     0
300
1/4" = 1'-0"
140
0.25
141
12.0
290
     0
  0
SCALE
  5
2CD
102
{ACAD_REACTORS
330
2B3
102
}
330
2B3
100
AcDbScale
 70
     0
300
3/8" = 1'-0"
140
0.375
141
12.0
290
     0
  0
SCALE
  5
2CE
102
{ACAD_REACTORS
330
2B3
102
}
330
2B3
100
AcDbScale
 70
     0
300
1/2" = 1'-0"
140
0.5
141
12.0
290
     0
  0
SCALE
  5
2CF
102
{ACAD_REACTORS
330
2B3
102
}
330
2B3
100
AcDbScale
 70
     0
300
3/4" = 1'-0"
140
0.75
141
12.0
290
     0
  0
SCALE
  5
2D0
102
{ACAD_REACTORS
330
2B3
102
}
330
2B3
100
AcDbScale
 70
     0
300
1" = 1'-0"
140
1.0
141
12.0
290
     0
  0
SCALE
  5
2D1
102
{ACAD_REACTORS
330
2B3
102
}
330
2B3
100
AcDbScale
 70
     0
300
1-1/2" = 1'-0"
140
1.5
141
12.0
290
     0
  0
SCALE
  5
2D2
102
{ACAD_REACTORS
330
2B3
102
}
330
2B3
100
AcDbScale
 70
     0
300
3" = 1'-0"
140
3.0
141
12.0
290
     0
  0
SCALE
  5
2D3
102
{ACAD_REACTORS
330
2B3
102
}
330
2B3
100
AcDbScale
 70
     0
300
6" = 1'-0"
140
6.0
141
12.0
290
     0
  0
SCALE
  5
2D4
102
{ACAD_REACTORS
330
2B3
102
}
330
2B3
100
AcDbScale
 70
     0
300
1'-0" = 1'-0"
140
12.0
141
12.0
290
     0
  0
TABLESTYLE
  5
122
102
{ACAD_XDICTIONARY
360
2F5
102
}
102
{ACAD_REACTORS
330
121
102
}
330
121
100
AcDbTableStyle
  3
Standard
 70
     0
 71
     0
 40
1.5
 41
1.5
280
     0
281
     0
  7
STANDARD
140
4.5
170
     2
 62
     0
 63
     7
283
     0
 90
      512
 91
        0
  1

274
    -2
284
     1
 64
     0
275
    -2
285
     1
 65
     0
276
    -2
286
     1
 66
     0
277
    -2
287
     1
 67
     0
278
    -2
288
     1
 68
     0
279
    -2
289
     1
 69
     0
  7
STANDARD
140
6.0
170
     5
 62
     0
 63
     7
283
     0
 90
      512
 91
        0
  1

274
    -2
284
     1
 64
     0
275
    -2
285
     1
 65
     0
276
    -2
286
     1
 66
     0
277
    -2
287
     1
 67
     0
278
    -2
288
     1
 68
     0
279
    -2
289
     1
 69
     0
  7
STANDARD
140
4.5
170
     5
 62
     0
 63
     7
283
     0
 90
      512
 91
        0
  1

274
    -2
284
     1
 64
     0
275
    -2
285
     1
 65
     0
276
    -2
286
     1
 66
     0
277
    -2
287
     1
 67
     0
278
    -2
288
     1
 68
     0
279
    -2
289
     1
 69
     0
  0
VISUALSTYLE
  5
285
102
{ACAD_REACTORS
330
27F
102
}
330
27F
100
AcDbVisualStyle
  2
2dWireframe
 70
     4
 71
     0
 72
     2
 73
     0
 90
        0
 40
-0.6
 41
-30.0
 62
     5
 63
     7
421
 16777215
 74
     1
 91
        4
 64
     7
 65
   257
 75
     1
175
     1
 42
1.0
 92
        0
 66
   257
 43
1.0
 76
     1
 77
     6
 78
     2
 67
     7
 79
     5
170
     0
171
     0
290
     0
174
     0
 93
        1
 44
0.0
173
     0
291
     0
 45
0.0
  0
VISUALSTYLE
  5
287
102
{ACAD_REACTORS
330
27F
102
}
330
27F
100
AcDbVisualStyle
  2
3D Hidden
 70
     6
 71
     1
 72
     2
 73
     2
 90
        0
 40
-0.6
 41
-30.0
 62
     5
 63
     7
421
 16777215
 74
     2
 91
        2
 64
     7
 65
   257
 75
     2
175
     1
 42
40.0
 92
        0
 66
   257
 43
1.0
 76
     1
 77
     6
 78
     2
 67
     7
 79
     3
170
     0
171
     0
290
     0
174
     0
 93
        1
 44
0.0
173
     0
291
     0
 45
0.0
  0
VISUALSTYLE
  5
286
102
{ACAD_REACTORS
330
27F
102
}
330
27F
100
AcDbVisualStyle
  2
3dWireframe
 70
     5
 71
     0
 72
     2
 73
     0
 90
        0
 40
-0.6
 41
-30.0
 62
     5
 63
     7
421
 16777215
 74
     1
 91
        4
 64
     7
 65
   257
 75
     1
175
     1
 42
1.0
 92
        0
 66
   257
 43
1.0
 76
     1
 77
     6
 78
     2
 67
     7
 79
     5
170
     0
171
     0
290
     0
174
     0
 93
        1
 44
0.0
173
     0
291
     0
 45
0.0
  0
VISUALSTYLE
  5
284
102
{ACAD_REACTORS
330
27F
102
}
330
27F
100
AcDbVisualStyle
  2
Basic
 70
     7
 71
     1
 72
     0
 73
     1
 90
        0
 40
-0.6
 41
-30.0
 62
     5
 63
     7
421
 16777215
 74
     0
 91
        4
 64
     7
 65
   257
 75
     1
175
     1
 42
1.0
 92
        8
 66
     7
 43
1.0
 76
     1
 77
     6
 78
     2
 67
     7
 79
     5
170
     0
171
     0
290
     0
174
     0
 93
        1
 44
0.0
173
     0
291
     1
 45
0.0
  0
VISUALSTYLE
  5
28B
102
{ACAD_REACTORS
330
27F
102
}
330
27F
100
AcDbVisualStyle
  2
Brighten
 70
    12
 71
     2
 72
     2
 73
     0
 90
        0
 40
-0.6
 41
-30.0
 62
     5
 63
     7
421
 16777215
 74
     1
 91
        4
 64
     7
 65
   257
 75
     1
175
     1
 42
1.0
 92
        8
 66
     7
 43
1.0
 76
     1
 77
     6
 78
     2
 67
     7
 79
     5
170
     0
171
     0
290
     0
174
     0
 93
        1
 44
50.0
173
     0
291
     1
 45
0.0
  0
VISUALSTYLE
  5
28F
102
{ACAD_REACTORS
330
27F
102
}
330
27F
100
AcDbVisualStyle
  2
ColorChange
 70
    16
 71
     2
 72
     2
 73
     3
 90
        0
 40
-0.6
 41
-30.0
 62
     5
 63
     8
421
  8421504
 74
     1
 91
        4
 64
     7
 65
   257
 75
     1
175
     1
 42
1.0
 92
        8
 66
     8
424
  8421504
 43
1.0
 76
     1
 77
     6
 78
     2
 67
     7
 79
     5
170
     0
171
     0
290
     0
174
     0
 93
        1
 44
0.0
173
     0
291
     1
 45
0.0
  0
VISUALSTYLE
  5
288
102
{ACAD_REACTORS
330
27F
102
}
330
27F
100
AcDbVisualStyle
  2
Conceptual
 70
     9
 71
     3
 72
     2
 73
     0
 90
        0
 40
-0.6
 41
-30.0
 62
     5
 63
     7
421
 16777215
 74
     2
 91
        2
 64
     7
 65
   257
 75
     1
175
     1
 42
40.0
 92
        8
 66
     7
 43
1.0
 76
     1
 77
     6
 78
     2
 67
     7
 79
     3
170
     0
171
     0
290
     0
174
     0
 93
        1
 44
0.0
173
     0
291
     0
 45
0.0
  0
VISUALSTYLE
  5
28A
102
{ACAD_REACTORS
330
27F
102
}
330
27F
100
AcDbVisualStyle
  2
Dim
 70
    11
 71
     2
 72
     2
 73
     0
 90
        0
 40
-0.6
 41
-30.0
 62
     5
 63
     7
421
 16777215
 74
     1
 91
        4
 64
     7
 65
   257
 75
     1
175
     1
 42
1.0
 92
        8
 66
     7
 43
1.0
 76
     1
 77
     6
 78
     2
 67
     7
 79
     5
170
     0
171
     0
290
     0
174
     0
 93
        1
 44
-50.0
173
     0
291
     1
 45
0.0
  0
VISUALSTYLE
  5
28E
102
{ACAD_REACTORS
330
27F
102
}
330
27F
100
AcDbVisualStyle
  2
Facepattern
 70
    15
 71
     2
 72
     2
 73
     0
 90
        0
 40
-0.6
 41
-30.0
 62
     5
 63
     7
421
 16777215
 74
     1
 91
        4
 64
     7
 65
   257
 75
     1
175
     1
 42
1.0
 92
        8
 66
     7
 43
1.0
 76
     1
 77
     6
 78
     2
 67
     7
 79
     5
170
     0
171
     0
290
     0
174
     0
 93
        1
 44
0.0
173
     0
291
     1
 45
0.0
  0
VISUALSTYLE
  5
280
102
{ACAD_REACTORS
330
27F
102
}
330
27F
100
AcDbVisualStyle
  2
Flat
 70
     0
 71
     2
 72
     1
 73
     1
 90
        2
 40
-0.6
 41
30.0
 62
     5
 63
     7
421
 16777215
 74
     0
 91
        4
 64
     7
 65
   257
 75
     1
175
     1
 42
1.0
 92
        8
 66
     7
 43
1.0
 76
     1
 77
     6
 78
     2
 67
     7
 79
     5
170
     0
171
     0
290
     0
174
     0
 93
       13
 44
0.0
173
     0
291
     1
 45
0.0
  0
VISUALSTYLE
  5
281
102
{ACAD_REACTORS
330
27F
102
}
330
27F
100
AcDbVisualStyle
  2
FlatWithEdges
 70
     1
 71
     2
 72
     1
 73
     1
 90
        2
 40
-0.6
 41
30.0
 62
     5
 63
     7
421
 16777215
 74
     1
 91
        4
 64
     7
 65
   257
 75
     1
175
     1
 42
1.0
 92
        0
 66
   257
 43
1.0
 76
     1
 77
     6
 78
     2
 67
     7
 79
     5
170
     0
171
     0
290
     0
174
     0
 93
       13
 44
0.0
173
     0
291
     1
 45
0.0
  0
VISUALSTYLE
  5
282
102
{ACAD_REACTORS
330
27F
102
}
330
27F
100
AcDbVisualStyle
  2
Gouraud
 70
     2
 71
     2
 72
     2
 73
     1
 90
        2
 40
-0.6
 41
30.0
 62
     5
 63
     7
421
 16777215
 74
     0
 91
        4
 64
     7
 65
   257
 75
     1
175
     1
 42
1.0
 92
        0
 66
     7
 43
1.0
 76
     1
 77
     6
 78
     2
 67
     7
 79
     5
170
     0
171
     0
290
     0
174
     0
 93
       13
 44
0.0
173
     0
291
     1
 45
0.0
  0
VISUALSTYLE
  5
283
102
{ACAD_REACTORS
330
27F
102
}
330
27F
100
AcDbVisualStyle
  2
GouraudWithEdges
 70
     3
 71
     2
 72
     2
 73
     1
 90
        2
 40
-0.6
 41
30.0
 62
     5
 63
     7
421
 16777215
 74
     1
 91
        4
 64
     7
 65
   257
 75
     1
175
     1
 42
1.0
 92
        0
 66
   257
 43
1.0
 76
     1
 77
     6
 78
     2
 67
     7
 79
     5
170
     0
171
     0
290
     0
174
     0
 93
       13
 44
0.0
173
     0
291
     1
 45
0.0
  0
VISUALSTYLE
  5
28D
102
{ACAD_REACTORS
330
27F
102
}
330
27F
100
AcDbVisualStyle
  2
Linepattern
 70
    14
 71
     2
 72
     2
 73
     0
 90
        0
 40
-0.6
 41
-30.0
 62
     5
 63
     7
421
 16777215
 74
     1
 91
        4
 64
     7
 65
   257
 75
     7
175
     7
 42
1.0
 92
        8
 66
     7
 43
1.0
 76
     1
 77
     6
 78
     2
 67
     7
 79
     5
170
     0
171
     0
290
     0
174
     0
 93
        1
 44
0.0
173
     0
291
     1
 45
0.0
  0
VISUALSTYLE
  5
289
102
{ACAD_REACTORS
330
27F
102
}
330
27F
100
AcDbVisualStyle
  2
Realistic
 70
     8
 71
     2
 72
     2
 73
     0
 90
        0
 40
-0.6
 41
-30.0
 62
     5
 63
     7
421
 16777215
 74
     1
 91
        0
 64
     7
 65
   257
 75
     1
175
     1
 42
1.0
 92
        8
 66
     8
424
  7895160
 43
1.0
 76
     1
 77
     6
 78
     2
 67
     7
 79
     5
170
     0
171
     0
290
     0
174
     0
 93
       13
 44
0.0
173
     0
291
     0
 45
0.0
  0
VISUALSTYLE
  5
28C
102
{ACAD_REACTORS
330
27F
102
}
330
27F
100
AcDbVisualStyle
  2
Thicken
 70
    13
 71
     2
 72
     2
 73
     0
 90
        0
 40
-0.6
 41
-30.0
 62
     5
 63
     7
421
 16777215
 74
     1
 91
        4
 64
     7
 65
   257
 75
     1
175
     1
 42
1.0
 92
       12
 66
     7
 43
1.0
 76
     1
 77
     6
 78
     2
 67
     7
 79
     5
170
     0
171
     0
290
     0
174
     0
 93
        1
 44
0.0
173
     0
291
     1
 45
0.0
  0
DICTIONARYVAR
  5
2FA
102
{ACAD_REACTORS
330
34
102
}
330
34
100
DictionaryVariables
280
     0
  1
1:8
  0
DICTIONARYVAR
  5
2F8
102
{ACAD_REACTORS
330
34
102
}
330
34
100
DictionaryVariables
280
     0
  1
STANDARD
  0
DICTIONARYVAR
  5
140
102
{ACAD_REACTORS
330
34
102
}
330
34
100
DictionaryVariables
280
     0
  1
STANDARD
  0
DICTIONARYVAR
  5
AC
102
{ACAD_REACTORS
330
34
102
}
330
34
100
DictionaryVariables
280
     0
  1
1
  0
DICTIONARYVAR
  5
6E7E
102
{ACAD_REACTORS
330
34
102
}
330
34
100
DictionaryVariables
280
     0
  1
4
  0
DICTIONARYVAR
  5
35
102
{ACAD_REACTORS
330
34
102
}
330
34
100
DictionaryVariables
280
     0
  1
1
  0
DICTIONARYVAR
  5
6A01
102
{ACAD_REACTORS
330
34
102
}
330
34
100
DictionaryVariables
280
     0
  1
1
  0
DICTIONARYVAR
  5
6A02
102
{ACAD_REACTORS
330
34
102
}
330
34
100
DictionaryVariables
280
     0
  1
15
  0
DICTIONARYVAR
  5
2FB
102
{ACAD_REACTORS
330
34
102
}
330
34
100
DictionaryVariables
280
     0
  1
0
  0
DICTIONARYVAR
  5
2F9
102
{ACAD_REACTORS
330
34
102
}
330
34
100
DictionaryVariables
280
     0
  1
0
  0
DICTIONARY
  5
161B
102
{ACAD_REACTORS
330
49
102
}
330
49
100
AcDbDictionary
281
     1
  0
DICTIONARY
  5
4A
102
{ACAD_REACTORS
330
49
102
}
330
49
100
AcDbDictionary
281
     1
  0
XRECORD
  5
12B
102
{ACAD_REACTORS
330
49
102
}
330
49
100
AcDbXrecord
280
     1
 90
-1023410169
  0
DICTIONARY
  5
2F5
330
122
100
AcDbDictionary
280
     1
281
     1
  3
ACAD_ROUNDTRIP_2008_TABLESTYLE_CELLSTYLEMAP
360
76DC
  0
CELLSTYLEMAP
  5
76DC
102
{ACAD_REACTORS
330
2F5
102
}
330
2F5
100
AcDbCellStyleMap
 90
        3
300
CELLSTYLE
  1
TABLEFORMAT_BEGIN
 90
        5
170
     1
 91
        0
 92
    32768
 62
   257
 93
        1
300
CONTENTFORMAT
  1
CONTENTFORMAT_BEGIN
 90
        0
 91
        0
 92
      512
 93
        0
300

 40
0.0
140
1.0
 94
        5
 62
     0
340
11
144
6.0
309
CONTENTFORMAT_END
171
     1
301
MARGIN
  1
CELLMARGIN_BEGIN
 40
1.5
 40
1.5
 40
1.5
 40
1.5
 40
0.18
 40
0.18
309
CELLMARGIN_END
 94
        6
 95
        1
302
GRIDFORMAT
  1
GRIDFORMAT_BEGIN
 90
        0
 91
        1
 62
     0
 92
       -2
340
0
 93
        0
 40
0.045
309
GRIDFORMAT_END
 95
        2
302
GRIDFORMAT
  1
GRIDFORMAT_BEGIN
 90
        0
 91
        1
 62
     0
 92
       -2
340
0
 93
        0
 40
0.045
309
GRIDFORMAT_END
 95
        4
302
GRIDFORMAT
  1
GRIDFORMAT_BEGIN
 90
        0
 91
        1
 62
     0
 92
       -2
340
0
 93
        0
 40
0.045
309
GRIDFORMAT_END
 95
        8
302
GRIDFORMAT
  1
GRIDFORMAT_BEGIN
 90
        0
 91
        1
 62
     0
 92
       -2
340
0
 93
        0
 40
0.045
309
GRIDFORMAT_END
 95
       16
302
GRIDFORMAT
  1
GRIDFORMAT_BEGIN
 90
        0
 91
        1
 62
     0
 92
       -2
340
0
 93
        0
 40
0.045
309
GRIDFORMAT_END
 95
       32
302
GRIDFORMAT
  1
GRIDFORMAT_BEGIN
 90
        0
 91
        1
 62
     0
 92
       -2
340
0
 93
        0
 40
0.045
309
GRIDFORMAT_END
309
TABLEFORMAT_END
  1
CELLSTYLE_BEGIN
 90
        1
 91
        1
300
_TITLE
309
CELLSTYLE_END
300
CELLSTYLE
  1
TABLEFORMAT_BEGIN
 90
        5
170
     1
 91
        0
 92
        0
 62
   257
 93
        1
300
CONTENTFORMAT
  1
CONTENTFORMAT_BEGIN
 90
        0
 91
        0
 92
      512
 93
        0
300

 40
0.0
140
1.0
 94
        5
 62
     0
340
11
144
4.5
309
CONTENTFORMAT_END
171
     1
301
MARGIN
  1
CELLMARGIN_BEGIN
 40
1.5
 40
1.5
 40
1.5
 40
1.5
 40
0.18
 40
0.18
309
CELLMARGIN_END
 94
        6
 95
        1
302
GRIDFORMAT
  1
GRIDFORMAT_BEGIN
 90
        0
 91
        1
 62
     0
 92
       -2
340
0
 93
        0
 40
0.045
309
GRIDFORMAT_END
 95
        2
302
GRIDFORMAT
  1
GRIDFORMAT_BEGIN
 90
        0
 91
        1
 62
     0
 92
       -2
340
0
 93
        0
 40
0.045
309
GRIDFORMAT_END
 95
        4
302
GRIDFORMAT
  1
GRIDFORMAT_BEGIN
 90
        0
 91
        1
 62
     0
 92
       -2
340
0
 93
        0
 40
0.045
309
GRIDFORMAT_END
 95
        8
302
GRIDFORMAT
  1
GRIDFORMAT_BEGIN
 90
        0
 91
        1
 62
     0
 92
       -2
340
0
 93
        0
 40
0.045
309
GRIDFORMAT_END
 95
       16
302
GRIDFORMAT
  1
GRIDFORMAT_BEGIN
 90
        0
 91
        1
 62
     0
 92
       -2
340
0
 93
        0
 40
0.045
309
GRIDFORMAT_END
 95
       32
302
GRIDFORMAT
  1
GRIDFORMAT_BEGIN
 90
        0
 91
        1
 62
     0
 92
       -2
340
0
 93
        0
 40
0.045
309
GRIDFORMAT_END
309
TABLEFORMAT_END
  1
CELLSTYLE_BEGIN
 90
        2
 91
        1
300
_HEADER
309
CELLSTYLE_END
300
CELLSTYLE
  1
TABLEFORMAT_BEGIN
 90
        5
170
     1
 91
        0
 92
        0
 62
   257
 93
        1
300
CONTENTFORMAT
  1
CONTENTFORMAT_BEGIN
 90
        0
 91
        0
 92
      512
 93
        0
300

 40
0.0
140
1.0
 94
        2
 62
     0
340
11
144
4.5
309
CONTENTFORMAT_END
171
     1
301
MARGIN
  1
CELLMARGIN_BEGIN
 40
1.5
 40
1.5
 40
1.5
 40
1.5
 40
0.18
 40
0.18
309
CELLMARGIN_END
 94
        6
 95
        1
302
GRIDFORMAT
  1
GRIDFORMAT_BEGIN
 90
        0
 91
        1
 62
     0
 92
       -2
340
0
 93
        0
 40
0.045
309
GRIDFORMAT_END
 95
        2
302
GRIDFORMAT
  1
GRIDFORMAT_BEGIN
 90
        0
 91
        1
 62
     0
 92
       -2
340
0
 93
        0
 40
0.045
309
GRIDFORMAT_END
 95
        4
302
GRIDFORMAT
  1
GRIDFORMAT_BEGIN
 90
        0
 91
        1
 62
     0
 92
       -2
340
0
 93
        0
 40
0.045
309
GRIDFORMAT_END
 95
        8
302
GRIDFORMAT
  1
GRIDFORMAT_BEGIN
 90
        0
 91
        1
 62
     0
 92
       -2
340
0
 93
        0
 40
0.045
309
GRIDFORMAT_END
 95
       16
302
GRIDFORMAT
  1
GRIDFORMAT_BEGIN
 90
        0
 91
        1
 62
     0
 92
       -2
340
0
 93
        0
 40
0.045
309
GRIDFORMAT_END
 95
       32
302
GRIDFORMAT
  1
GRIDFORMAT_BEGIN
 90
        0
 91
        1
 62
     0
 92
       -2
340
0
 93
        0
 40
0.045
309
GRIDFORMAT_END
309
TABLEFORMAT_END
  1
CELLSTYLE_BEGIN
 90
        3
 91
        2
300
_DATA
309
CELLSTYLE_END
  0
ENDSEC
  0
EOF
