  0
SECTION
  2
HEADER
  9
$ACADVER
  1
AC1021
  9
$ACADMAINTVER
 70
    26
  9
$DWGCODEPAGE
  3
ANSI_932
  9
$LASTSAVEDBY
  1
Htm_Terada
  9
$CUSTOMPROPERTYTAG
  1
AmdtFileType
  9
$CUSTOMPROPERTY
  1
84
  9
$INSBASE
 10
0.0
 20
0.0
 30
0.0
  9
$EXTMIN
 10
1086.269401647961
 20
1118.630178650685
 30
0.0
  9
$EXTMAX
 10
2420.460866148977
 20
2001.989162450685
 30
0.0
  9
$LIMMIN
 10
0.0000015314708435
 20
0.0000029550565159
  9
$LIMMAX
 10
3360.000001531471
 20
2376.000002955057
  9
$ORTHOMODE
 70
     1
  9
$REGENMODE
 70
     1
  9
$FILLMODE
 70
     1
  9
$QTEXTMODE
 70
     0
  9
$MIRRTEXT
 70
     1
  9
$LTSCALE
 40
8.0
  9
$ATTMODE
 70
     1
  9
$TEXTSIZE
 40
25.0
  9
$TRACEWID
 40
1.0
  9
$TEXTSTYLE
  7
SEISA
  9
$CLAYER
  8
AM_0 外形線1
  9
$CELTYPE
  6
ByLayer
  9
$CECOLOR
 62
   256
  9
$CELTSCALE
 40
1.0
  9
$DISPSILH
 70
     0
  9
$DIMSCALE
 40
8.0
  9
$DIMASZ
 40
2.5
  9
$DIMEXO
 40
0.625
  9
$DIMDLI
 40
10.0
  9
$DIMRND
 40
0.0
  9
$DIMDLE
 40
0.0
  9
$DIMEXE
 40
0.625
  9
$DIMTP
 40
0.1
  9
$DIMTM
 40
0.1
  9
$DIMTXT
 40
3.5
  9
$DIMCEN
 40
0.0
  9
$DIMTSZ
 40
0.0
  9
$DIMTOL
 70
     0
  9
$DIMLIM
 70
     0
  9
$DIMTIH
 70
     0
  9
$DIMTOH
 70
     0
  9
$DIMSE1
 70
     0
  9
$DIMSE2
 70
     0
  9
$DIMTAD
 70
     3
  9
$DIMZIN
 70
     8
  9
$DIMBLK
  1
Open30
  9
$DIMASO
 70
     1
  9
$DIMSHO
 70
     1
  9
$DIMPOST
  1

  9
$DIMAPOST
  1
"
  9
$DIMALT
 70
     0
  9
$DIMALTD
 70
     2
  9
$DIMALTF
 40
0.0393701
  9
$DIMLFAC
 40
1.0
  9
$DIMTOFL
 70
     1
  9
$DIMTVP
 40
0.0
  9
$DIMTIX
 70
     0
  9
$DIMSOXD
 70
     0
  9
$DIMSAH
 70
     0
  9
$DIMBLK1
  1

  9
$DIMBLK2
  1

  9
$DIMSTYLE
  2
SEISA
  9
$DIMCLRD
 70
     3
  9
$DIMCLRE
 70
     3
  9
$DIMCLRT
 70
     3
  9
$DIMTFAC
 40
0.71
  9
$DIMGAP
 40
1.5
  9
$DIMJUST
 70
     0
  9
$DIMSD1
 70
     0
  9
$DIMSD2
 70
     0
  9
$DIMTOLJ
 70
     0
  9
$DIMTZIN
 70
     0
  9
$DIMALTZ
 70
     0
  9
$DIMALTTZ
 70
     8
  9
$DIMUPT
 70
     0
  9
$DIMDEC
 70
     2
  9
$DIMTDEC
 70
     2
  9
$DIMALTU
 70
     2
  9
$DIMALTTD
 70
     2
  9
$DIMTXSTY
  7
SEISA
  9
$DIMAUNIT
 70
     0
  9
$DIMADEC
 70
     0
  9
$DIMALTRND
 40
0.0
  9
$DIMAZIN
 70
     2
  9
$DIMDSEP
 70
    46
  9
$DIMATFIT
 70
     3
  9
$DIMFRAC
 70
     0
  9
$DIMLDRBLK
  1
Open30
  9
$DIMLUNIT
 70
     2
  9
$DIMLWD
 70
    -1
  9
$DIMLWE
 70
    -1
  9
$DIMTMOVE
 70
     0
  9
$DIMFXL
 40
1.0
  9
$DIMFXLON
 70
     0
  9
$DIMJOGANG
 40
0.7853981633974483
  9
$DIMTFILL
 70
     0
  9
$DIMTFILLCLR
 70
     0
  9
$DIMARCSYM
 70
     1
  9
$DIMLTYPE
  6

  9
$DIMLTEX1
  6

  9
$DIMLTEX2
  6

  9
$LUNITS
 70
     2
  9
$LUPREC
 70
     2
  9
$SKETCHINC
 40
1.0
  9
$FILLETRAD
 40
1.6
  9
$AUNITS
 70
     0
  9
$AUPREC
 70
     0
  9
$MENU
  1
.
  9
$ELEVATION
 40
0.0
  9
$PELEVATION
 40
0.0
  9
$THICKNESS
 40
0.0
  9
$LIMCHECK
 70
     0
  9
$CHAMFERA
 40
10.00000000000045
  9
$CHAMFERB
 40
10.00000000000045
  9
$CHAMFERC
 40
10.00000000000045
  9
$CHAMFERD
 40
0.7853981633974714
  9
$SKPOLY
 70
     0
  9
$TDCREATE
 40
2454937.763776563
  9
$TDUCREATE
 40
2454937.388776563
  9
$TDUPDATE
 40
2456479.693231516
  9
$TDUUPDATE
 40
2456479.318231516
  9
$TDINDWG
 40
0.2262700000
  9
$TDUSRTIMER
 40
0.2262694560
  9
$USRTIMER
 70
     1
  9
$ANGBASE
 50
0.0
  9
$ANGDIR
 70
     0
  9
$PDMODE
 70
     0
  9
$PDSIZE
 40
0.0
  9
$PLINEWID
 40
0.0
  9
$SPLFRAME
 70
     0
  9
$SPLINETYPE
 70
     6
  9
$SPLINESEGS
 70
     8
  9
$HANDSEED
  5
78C2
  9
$SURFTAB1
 70
     6
  9
$SURFTAB2
 70
     6
  9
$SURFTYPE
 70
     6
  9
$SURFU
 70
     6
  9
$SURFV
 70
     6
  9
$UCSBASE
  2

  9
$UCSNAME
  2

  9
$UCSORG
 10
0.0
 20
0.0
 30
0.0
  9
$UCSXDIR
 10
1.0
 20
0.0
 30
0.0
  9
$UCSYDIR
 10
0.0
 20
1.0
 30
0.0
  9
$UCSORTHOREF
  2

  9
$UCSORTHOVIEW
 70
     0
  9
$UCSORGTOP
 10
0.0
 20
0.0
 30
0.0
  9
$UCSORGBOTTOM
 10
0.0
 20
0.0
 30
0.0
  9
$UCSORGLEFT
 10
0.0
 20
0.0
 30
0.0
  9
$UCSORGRIGHT
 10
0.0
 20
0.0
 30
0.0
  9
$UCSORGFRONT
 10
0.0
 20
0.0
 30
0.0
  9
$UCSORGBACK
 10
0.0
 20
0.0
 30
0.0
  9
$PUCSBASE
  2

  9
$PUCSNAME
  2

  9
$PUCSORG
 10
0.0
 20
0.0
 30
0.0
  9
$PUCSXDIR
 10
1.0
 20
0.0
 30
0.0
  9
$PUCSYDIR
 10
0.0
 20
1.0
 30
0.0
  9
$PUCSORTHOREF
  2

  9
$PUCSORTHOVIEW
 70
     0
  9
$PUCSORGTOP
 10
0.0
 20
0.0
 30
0.0
  9
$PUCSORGBOTTOM
 10
0.0
 20
0.0
 30
0.0
  9
$PUCSORGLEFT
 10
0.0
 20
0.0
 30
0.0
  9
$PUCSORGRIGHT
 10
0.0
 20
0.0
 30
0.0
  9
$PUCSORGFRONT
 10
0.0
 20
0.0
 30
0.0
  9
$PUCSORGBACK
 10
0.0
 20
0.0
 30
0.0
  9
$USERI1
 70
     0
  9
$USERI2
 70
     0
  9
$USERI3
 70
     0
  9
$USERI4
 70
     0
  9
$USERI5
 70
     0
  9
$USERR1
 40
0.0
  9
$USERR2
 40
0.0
  9
$USERR3
 40
0.0
  9
$USERR4
 40
0.0
  9
$USERR5
 40
0.0
  9
$WORLDVIEW
 70
     1
  9
$SHADEDGE
 70
     3
  9
$SHADEDIF
 70
    70
  9
$TILEMODE
 70
     1
  9
$MAXACTVP
 70
    64
  9
$PINSBASE
 10
0.0
 20
0.0
 30
0.0
  9
$PLIMCHECK
 70
     0
  9
$PEXTMIN
 10
1.000000000000000E+20
 20
1.000000000000000E+20
 30
1.000000000000000E+20
  9
$PEXTMAX
 10
-1.000000000000000E+20
 20
-1.000000000000000E+20
 30
-1.000000000000000E+20
  9
$PLIMMIN
 10
0.0
 20
0.0
  9
$PLIMMAX
 10
420.0
 20
297.0
  9
$UNITMODE
 70
     0
  9
$VISRETAIN
 70
     1
  9
$PLINEGEN
 70
     0
  9
$PSLTSCALE
 70
     1
  9
$TREEDEPTH
 70
  3020
  9
$CMLSTYLE
  2
Standard
  9
$CMLJUST
 70
     0
  9
$CMLSCALE
 40
20.0
  9
$PROXYGRAPHICS
 70
     1
  9
$MEASUREMENT
 70
     1
  9
$CELWEIGHT
370
    -1
  9
$ENDCAPS
280
     0
  9
$JOINSTYLE
280
     0
  9
$LWDISPLAY
290
     0
  9
$INSUNITS
 70
     4
  9
$HYPERLINKBASE
  1

  9
$STYLESHEET
  1
SEISA.CTB
  9
$XEDIT
290
     1
  9
$CEPSNTYPE
380
     0
  9
$PSTYLEMODE
290
     1
  9
$FINGERPRINTGUID
  2
{CB42EFB9-5E3F-4F4C-BDA5-B754270C285B}
  9
$VERSIONGUID
  2
{5AAF76BA-61A9-4D4D-B2C9-BCC3BA4C8C8A}
  9
$EXTNAMES
290
     1
  9
$PSVPSCALE
 40
0.0
  9
$OLESTARTUP
290
     0
  9
$SORTENTS
280
   127
  9
$INDEXCTL
280
     0
  9
$HIDETEXT
280
     0
  9
$XCLIPFRAME
290
     0
  9
$HALOGAP
280
     0
  9
$OBSCOLOR
 70
   257
  9
$OBSLTYPE
280
     0
  9
$INTERSECTIONDISPLAY
280
     0
  9
$INTERSECTIONCOLOR
 70
   257
  9
$DIMASSOC
280
     2
  9
$PROJECTNAME
  1

  9
$CAMERADISPLAY
290
     0
  9
$LENSLENGTH
 40
50.0
  9
$CAMERAHEIGHT
 40
0.0
  9
$STEPSPERSEC
 40
2.0
  9
$STEPSIZE
 40
6.0
  9
$3DDWFPREC
 40
2.0
  9
$PSOLWIDTH
 40
0.25
  9
$PSOLHEIGHT
 40
4.0
  9
$LOFTANG1
 40
1.570796326794896
  9
$LOFTANG2
 40
1.570796326794896
  9
$LOFTMAG1
 40
0.0
  9
$LOFTMAG2
 40
0.0
  9
$LOFTPARAM
 70
     7
  9
$LOFTNORMALS
280
     1
  9
$LATITUDE
 40
37.795
  9
$LONGITUDE
 40
-122.394
  9
$NORTHDIRECTION
 40
0.0
  9
$TIMEZONE
 70
 -8000
  9
$LIGHTGLYPHDISPLAY
280
     1
  9
$TILEMODELIGHTSYNCH
280
     1
  9
$CMATERIAL
347
27C
  9
$SOLIDHIST
280
     1
  9
$SHOWHIST
280
     1
  9
$DWFFRAME
280
     2
  9
$DGNFRAME
280
     0
  9
$REALWORLDSCALE
290
     1
  9
$INTERFERECOLOR
 62
     1
  9
$INTERFEREOBJVS
345
289
  9
$INTERFEREVPVS
346
286
  9
$CSHADOW
280
     0
  9
$SHADOWPLANELOCATION
 40
0.0
  0
ENDSEC
  0
SECTION
  2
CLASSES
  0
CLASS
  1
ACDBDICTIONARYWDFLT
  2
AcDbDictionaryWithDefault
  3
ObjectDBX Classes
 90
        0
 91
        1
280
     0
281
     0
  0
CLASS
  1
AMGSETTINGSOBJ
  2
AmgSettingsObj
  3
"AcadM|Product Description: AutoCAD Mechanical|Company: Autodesk, Inc."
 90
     1024
 91
        2
280
     0
281
     0
  0
CLASS
  1
ACME_DOCUMENT
  2
AcMeDbDoc
  3
AcMeServices
 90
     1024
 91
        1
280
     0
281
     0
  0
CLASS
  1
ACMESCOPE
  2
AcMeScope
  3
AcMeServices
 90
     1024
 91
        1
280
     0
281
     0
  0
CLASS
  1
ACMECOMMANDHISTORY
  2
AcMeCommandHistory
  3
AcMeServices
 90
     1024
 91
        1
280
     0
281
     0
  0
CLASS
  1
DICTIONARYVAR
  2
AcDbDictionaryVar
  3
ObjectDBX Classes
 90
        0
 91
        9
280
     0
281
     0
  0
CLASS
  1
ACIMSYSVARMAN
  2
AcImSysVarManager
  3
AcMeServices
 90
     1024
 91
        5
280
     0
281
     0
  0
CLASS
  1
ACIMREALSYSVAR
  2
AcImRealSysVar
  3
AcMeServices
 90
     1024
 91
        1
280
     0
281
     0
  0
CLASS
  1
ACIMINTSYSVAR
  2
AcImIntSysVar
  3
AcMeServices
 90
     1024
 91
       27
280
     0
281
     0
  0
CLASS
  1
ACMEDRAWINGMAN
  2
AcMeDrawingMan
  3
AcMeServices
 90
     1024
 91
        1
280
     0
281
     0
  0
CLASS
  1
ACMEVIEW
  2
AcMeView
  3
AcMeServices
 90
     1024
 91
        1
280
     0
281
     0
  0
CLASS
  1
ACDBENTITYCACHE
  2
AcMeEntityCache
  3
AcMeServices
 90
     1024
 91
        1
280
     0
281
     0
  0
CLASS
  1
GSMANAGER
  2
AcMeGSManager
  3
AcMeServices
 90
     1024
 91
        1
280
     0
281
     0
  0
CLASS
  1
AMDTINTERNALREACTOR
  2
AmdtInternalReactor
  3
AcMeServices
 90
     1024
 91
        2
280
     0
281
     0
  0
CLASS
  1
ACMESTATEMGR
  2
AcMeStateMgr
  3
AcMeServices
 90
     1024
 91
        1
280
     0
281
     0
  0
CLASS
  1
ACGREFMASTER
  2
AcGrefMaster
  3
AcAttribServices
 90
     1024
 91
        1
280
     0
281
     0
  0
CLASS
  1
ACME_DATABASE
  2
AcMeDbDatabase
  3
AcMeServices
 90
     1024
 91
        1
280
     0
281
     0
  0
CLASS
  1
ACRFINSADJUSTERMGR
  2
AcRfInsAdjusterMgr
  3
AcMeServices
 90
     1024
 91
        1
280
     0
281
     0
  0
CLASS
  1
ACGREFACADMASTER
  2
AcGrefacadMaster
  3
AcGrefServices
 90
     1024
 91
        1
280
     0
281
     0
  0
CLASS
  1
AMIMASTER
  2
AmiMaster
  3
AmiServices
 90
     1024
 91
        1
280
     0
281
     0
  0
CLASS
  1
ACIMSTRSYSVAR
  2
AcImStrSysVar
  3
AcMeServices
 90
     1024
 91
        5
280
     0
281
     0
  0
CLASS
  1
ACMSTANDARDJIS
  2
AcmStandardJIS
  3
"Amdt_StdImp|Product Description: AutoCAD Mechanical|Company: Autodesk, Inc."
 90
     1024
 91
        0
280
     0
281
     0
  0
CLASS
  1
AMGOBJPROPCFG
  2
AmgObjPropCfg
  3
"AmgLay|Product Description: AutoCAD Mechanical|Company: Autodesk, Inc."
 90
     1025
 91
        1
280
     0
281
     0
  0
CLASS
  1
ACMSURFSTANDARDJIS
  2
AcmSurfTextStdJIS
  3
"Amdt_StdImp|Product Description: AutoCAD Mechanical|Company: Autodesk, Inc."
 90
     1024
 91
        0
280
     0
281
     0
  0
CLASS
  1
ACMFCFSTANDARDJIS
  2
AcmFCFStdJIS
  3
"Amdt_StdImp|Product Description: AutoCAD Mechanical|Company: Autodesk, Inc."
 90
     1024
 91
        0
280
     0
281
     0
  0
CLASS
  1
ACMWELDSTANDARDJIS
  2
AcmWeldingStdJIS
  3
"Amdt_StdImp|Product Description: AutoCAD Mechanical|Company: Autodesk, Inc."
 90
     1024
 91
        0
280
     0
281
     0
  0
CLASS
  1
ACMIDSTANDARDJIS
  2
AcmIdStdJIS
  3
"Amdt_StdImp|Product Description: AutoCAD Mechanical|Company: Autodesk, Inc."
 90
     1024
 91
        0
280
     0
281
     0
  0
CLASS
  1
ACMDATUMSTANDARDJIS
  2
AcmDatumStdJIS
  3
"Amdt_StdImp|Product Description: AutoCAD Mechanical|Company: Autodesk, Inc."
 90
     1024
 91
        0
280
     0
281
     0
  0
CLASS
  1
ACMBOMSTANDARDJIS
  2
AcmBOMStdJIS
  3
"Amdt_StdImp|Product Description: AutoCAD Mechanical|Company: Autodesk, Inc."
 90
     1024
 91
        0
280
     0
281
     0
  0
CLASS
  1
ACMDETAILSTANDARDJIS
  2
AmdtDetailSymStdJIS
  3
"Amdt_StdImp|Product Description: AutoCAD Mechanical|Company: Autodesk, Inc."
 90
     1024
 91
        0
280
     0
281
     0
  0
CLASS
  1
ACMSECTIONSTANDARDJIS
  2
AmdtSectionSymStdJIS
  3
"Amdt_StdImp|Product Description: AutoCAD Mechanical|Company: Autodesk, Inc."
 90
     1024
 91
        0
280
     0
281
     0
  0
CLASS
  1
ACMCENTERLINESTANDARDJIS
  2
AmdtCenterLineStdJIS
  3
"Amdt_StdImp|Product Description: AutoCAD Mechanical|Company: Autodesk, Inc."
 90
     1024
 91
        0
280
     0
281
     0
  0
CLASS
  1
ACMTHREADLINESTANDARDJIS
  2
AmdtThreadLineStdJIS
  3
"Amdt_StdImp|Product Description: AutoCAD Mechanical|Company: Autodesk, Inc."
 90
     1024
 91
        0
280
     0
281
     0
  0
CLASS
  1
ACAMGLAYSTD
  2
AcAmgLayStd
  3
"AmgLay|Product Description: AutoCAD Mechanical|Company: Autodesk, Inc."
 90
     1024
 91
        1
280
     0
281
     0
  0
CLASS
  1
ACAMGDIMSTD
  2
AcAmgDimStd
  3
"AmgDim|Product Description: AutoCAD Mechanical|Company: Autodesk, Inc."
 90
     1024
 91
        1
280
     0
281
     0
  0
CLASS
  1
ACAMGTITLESTD
  2
AcAmgTitleStd
  3
"AmgTitle|Product Description: AutoCAD Mechanical|Company: Autodesk, Inc."
 90
     4095
 91
        1
280
     0
281
     0
  0
CLASS
  1
ACMDATADICTIONARY
  2
AcmDataDictionary
  3
"AcmSymBB|Product Description: AutoCAD Mechanical|Company: Autodesk, Inc."
 90
     1024
 91
        1
280
     0
281
     0
  0
CLASS
  1
ACMDATAENTRYBLOCK
  2
AcmDataEntryBlock
  3
AcmSymBB|Product Description: AutoCAD Mechanical|Company: Autodesk, Inc.
 90
     1024
 91
        0
280
     0
281
     0
  0
CLASS
  1
LAYER_INDEX
  2
AcDbLayerIndex
  3
ObjectDBX Classes
 90
        0
 91
        0
280
     0
281
     0
  0
CLASS
  1
IDBUFFER
  2
AcDbIdBuffer
  3
ObjectDBX Classes
 90
        0
 91
        0
280
     0
281
     0
  0
CLASS
  1
ACMNOTESTANDARDJIS
  2
AmdtNoteStdJIS
  3
"Amdt_StdImp|Product Description: AutoCAD Mechanical|Company: Autodesk, Inc."
 90
     1024
 91
        0
280
     0
281
     0
  0
CLASS
  1
ACAMGHOLECHARTSTDJIS
  2
AcAmgHoleChartStdJIS
  3
AmgDim|Product Description: AutoCAD Mechanical|Company: Autodesk, Inc.
 90
     1024
 91
        0
280
     0
281
     0
  0
CLASS
  1
AM_DRAWING_MGR
  2
AcDmDwgMgr
  3
AcMechDwgViewMgmt
 90
     1024
 91
        1
280
     0
281
     0
  0
CLASS
  1
AM_DWG_DOCUMENT
  2
AcDmDwgDocument
  3
AcMechDwgViewMgmt
 90
     1024
 91
        1
280
     0
281
     0
  0
CLASS
  1
AM_DWG_SHEET
  2
AcDmSheet
  3
AcMechDwgViewMgmt
 90
     1024
 91
        2
280
     0
281
     0
  0
CLASS
  1
AM_VIEWDIMPARMAP
  2
AcDmViewDimParMap
  3
AcMechDwgViewMgmt
 90
     1024
 91
        2
280
     0
281
     0
  0
CLASS
  1
AM_DWGMGR_NAME
  2
AcDmDwgMgrName
  3
AcMechDwgViewMgmt
 90
     1024
 91
        1
280
     0
281
     0
  0
CLASS
  1
AMDTMENUSTATEMGR
  2
AmdtMenuStateMgr
  3
McadcomServices
 90
     1024
 91
        1
280
     0
281
     0
  0
CLASS
  1
AMDTMCOMMENUSTATE
  2
AmdtMcomMenuState
  3
McadcomServices
 90
     1024
 91
        1
280
     0
281
     0
  0
CLASS
  1
MAPIAMMOUDLE
  2
MApiAmModule
  3
MApiAmServices
 90
     1024
 91
        1
280
     0
281
     0
  0
CLASS
  1
AMDTADMENUSTATE
  2
AmdtAdMenuState
  3
DesignerServices
 90
     1024
 91
        1
280
     0
281
     0
  0
CLASS
  1
ADAPPL
  2
AcAdAppl
  3
DesignerServices
 90
     1024
 91
        1
280
     0
281
     0
  0
CLASS
  1
DEPMGR
  2
AcAdDepMgr
  3
DesignerServices
 90
     1024
 91
        1
280
     0
281
     0
  0
CLASS
  1
PARAMMGR
  2
AcAdParamMgr
  3
DesignerServices
 90
     1024
 91
        1
280
     0
281
     0
  0
CLASS
  1
PARAMSCOPE
  2
AcAdParamScope
  3
DesignerServices
 90
     1024
 91
        1
280
     0
281
     0
  0
CLASS
  1
NAMEDAPPL
  2
AcAdNamedAppl
  3
DesignerServices
 90
     1024
 91
        1
280
     0
281
     0
  0
CLASS
  1
AMDTDMMENUSTATE
  2
AmdtDmMenuState
  3
AcMechDwgViewMgmt
 90
     1024
 91
        1
280
     0
281
     0
  0
CLASS
  1
AMDTAMMENUSTATE
  2
AmdtAmMenuState
  3
DesignerAssemblies
 90
     1024
 91
        1
280
     0
281
     0
  0
CLASS
  1
ACAMPROJECT
  2
AcAmProject
  3
DesignerAssemblies
 90
     1024
 91
        1
280
     0
281
     0
  0
CLASS
  1
ACAMGRCOMPDEF
  2
AcAmGrCompDef
  3
DesignerAssemblies
 90
     1024
 91
        1
280
     0
281
     0
  0
CLASS
  1
ACCMCONTEXT
  2
AcCmContext
  3
DesignerAssemblies
 90
     1024
 91
        1
280
     0
281
     0
  0
CLASS
  1
ACAMCOMPDEF
  2
AcAmCompDef
  3
DesignerAssemblies
 90
     1024
 91
        1
280
     0
281
     0
  0
CLASS
  1
ACAMCOMPDEFMGR
  2
AcAmCompDefMgr
  3
DesignerAssemblies
 90
     1024
 91
        1
280
     0
281
     0
  0
CLASS
  1
AMCONTEXTMGR
  2
AcAmContextMgr
  3
DesignerAssemblies
 90
     1024
 91
        1
280
     0
281
     0
  0
CLASS
  1
ACAMCONTEXTMODELER
  2
AcAmContextModeler
  3
DesignerAssemblies
 90
     1024
 91
        1
280
     0
281
     0
  0
CLASS
  1
CATALOGSTATE
  2
AcAmCatalogState
  3
DesignerAssemblies
 90
     1024
 91
        1
280
     0
281
     0
  0
CLASS
  1
ACAMGRCOMPDEFSET
  2
AcAmGrCompDefSet
  3
DesignerAssemblies
 90
     1024
 91
        1
280
     0
281
     0
  0
CLASS
  1
AMDTBROWSERDBTAB
  2
AmdtBrowserDbTab
  3
McadcomServices
 90
     1024
 91
        1
280
     0
281
     0
  0
CLASS
  1
CBROWSERAPPOBJECT
  2
CBrowserAppObject
  3
McadcomServices
 90
     1024
 91
        3
280
     0
281
     0
  0
CLASS
  1
DM_PLACEHOLDER
  2
AcDmSelsetPlaceholder
  3
AcMechDwgViewMgmt
 90
     1024
 91
        1
280
     0
281
     0
  0
CLASS
  1
TABLESTYLE
  2
AcDbTableStyle
  3
ObjectDBX Classes
 90
     4095
 91
        1
280
     0
281
     0
  0
CLASS
  1
VAACXREFPANELOBJECT
  2
VaAcXREFPanelObject
  3
VAAC_ADDIN
 90
        0
 91
        0
280
     0
281
     0
  0
CLASS
  1
VAACIMAGEINVENTORY
  2
VaAcImageInventory
  3
VAAC_ADDIN
 90
        0
 91
        0
280
     0
281
     0
  0
CLASS
  1
AMDTNOTETEMPLATEDB
  2
AmdtNoteTemplateDB
  3
AcmSymBB|Product Description: AutoCAD Mechanical|Company: Autodesk, Inc.
 90
     1024
 91
        6
280
     0
281
     0
  0
CLASS
  1
ACAMGFILTERDAT
  2
AcAmgFilterDat
  3
"AcadM|Product Description: AutoCAD Mechanical|Company: Autodesk, Inc."
 90
     1024
 91
        0
280
     0
281
     0
  0
CLASS
  1
MATERIAL
  2
AcDbMaterial
  3
ObjectDBX Classes
 90
     1153
 91
        3
280
     0
281
     0
  0
CLASS
  1
VISUALSTYLE
  2
AcDbVisualStyle
  3
ObjectDBX Classes
 90
     4095
 91
       16
280
     0
281
     0
  0
CLASS
  1
ACRFATTGENMGR
  2
AcRfAttGeneralMgr
  3
AcAttribServices
 90
     1024
 91
        0
280
     0
281
     0
  0
CLASS
  1
ACRFOBJATTMGR
  2
AcRfObjAttGroupMgr
  3
AcAttribServices
 90
     1024
 91
        0
280
     0
281
     0
  0
CLASS
  1
ACRFMCADAPIATTHOLDER
  2
AcRfMCADAPIAttHolder
  3
AcAttribServices
 90
     1024
 91
        0
280
     0
281
     0
  0
CLASS
  1
AMDTSYSATTR
  2
AmdtSystemAttribute
  3
AcAttribServices
 90
     1024
 91
        0
280
     0
281
     0
  0
CLASS
  1
ACMTAPERSTANDARDJIS
  2
AcmTaperStdJIS
  3
"Amdt_StdImp|Product Description: AutoCAD Mechanical|Company: Autodesk, Inc."
 90
     1024
 91
        0
280
     0
281
     0
  0
CLASS
  1
CAMSSTRUCTBTNSTATE
  2
StructBtnState
  3
DesignerAssemblies
 90
     1024
 91
        0
280
     0
281
     0
  0
CLASS
  1
SCALE
  2
AcDbScale
  3
ObjectDBX Classes
 90
     1153
 91
       37
280
     0
281
     0
  0
CLASS
  1
MLEADERSTYLE
  2
AcDbMLeaderStyle
  3
ACDB_MLEADERSTYLE_CLASS
 90
     4095
 91
        1
280
     0
281
     0
  0
CLASS
  1
ACMANOOTATIONVIEWSTANDARDJIS
  2
AmdtAnViewStdJIS
  3
"Amdt_StdImp|Product Description: AutoCAD Mechanical|Company: Autodesk, Inc."
 90
     1024
 91
        0
280
     0
281
     0
  0
CLASS
  1
ACMSURFSTANDARDJIS2003
  2
AcmSurfTextStdJIS2003
  3
"Amdt_StdImp|Product Description: AutoCAD Mechanical|Company: Autodesk, Inc."
 90
     1024
 91
        0
280
     0
281
     0
  0
CLASS
  1
CELLSTYLEMAP
  2
AcDbCellStyleMap
  3
ObjectDBX Classes
 90
     1152
 91
        2
280
     0
281
     0
  0
CLASS
  1
ACMFCFSTANDARDJIS98
  2
AcmFCFStdJIS98
  3
"Amdt_StdImp|Product Description: AutoCAD Mechanical|Company: Autodesk, Inc."
 90
     1024
 91
        0
280
     0
281
     0
  0
CLASS
  1
SORTENTSTABLE
  2
AcDbSortentsTable
  3
ObjectDBX Classes
 90
        0
 91
       12
280
     0
281
     0
  0
CLASS
  1
DIMASSOC
  2
AcDbDimAssoc
  3
"AcDbDimAssoc|Product Desc:     AcDim ARX App For Dimension|Company:          Autodesk, Inc.|WEB Address:      www.autodesk.com"
 90
        0
 91
       10
280
     0
281
     0
  0
CLASS
  1
STDPART2D
  2
AmgStdPart
  3
AmgStdPart|Product Description: AutoCAD Mechanical|Company: Autodesk, Inc.
 90
     4095
 91
        0
280
     0
281
     1
  0
CLASS
  1
ACMDATAENTRYPART
  2
AcmDataEntryPart
  3
AcmSymBB|Product Description: AutoCAD Mechanical|Company: Autodesk, Inc.
 90
     1024
 91
        0
280
     0
281
     0
  0
CLASS
  1
ACMPARTREF
  2
AcmPartRef
  3
"AcmSymBB|Product Description: AutoCAD Mechanical|Company: Autodesk, Inc."
 90
     4095
 91
        0
280
     0
281
     1
  0
CLASS
  1
ACDBSTDPARTRES_LINE
  2
AcDbStdPartRes_Line
  3
AmgStdPart|Product Description: AutoCAD Mechanical|Company: Autodesk, Inc.
 90
     1024
 91
        0
280
     0
281
     0
  0
CLASS
  1
ACMBOM
  2
AcmBom
  3
"AcmSymBB|Product Description: AutoCAD Mechanical|Company: Autodesk, Inc."
 90
     1024
 91
        0
280
     0
281
     0
  0
CLASS
  1
AMDTFORMULAUPDATEDISPATCHER
  2
AmdtFormulaUpdateDispatcher
  3
AcMeServices
 90
     1024
 91
        0
280
     0
281
     0
  0
CLASS
  1
ACMBOMROW
  2
AcmBomRow
  3
"AcmSymBB|Product Description: AutoCAD Mechanical|Company: Autodesk, Inc."
 90
     1024
 91
        0
280
     0
281
     0
  0
CLASS
  1
ACMPARTLIST
  2
AcmPartList
  3
"AcmSymBB|Product Description: AutoCAD Mechanical|Company: Autodesk, Inc."
 90
     4095
 91
        0
280
     0
281
     1
  0
CLASS
  1
ACDBLINERES
  2
AcDbLineRes
  3
AcGrefServices
 90
     1024
 91
        0
280
     0
281
     0
  0
CLASS
  1
ACRFINSADJ
  2
AcRfInsAdjuster
  3
AcMeServices
 90
     1024
 91
        0
280
     0
281
     0
  0
CLASS
  1
ACMSTANDARDISO
  2
AcmStandardISO
  3
"Amdt_StdImp|Product Description: AutoCAD Mechanical|Company: Autodesk, Inc."
 90
     1024
 91
        1
280
     0
281
     0
  0
CLASS
  1
AMDTEDGESTANDARDISO13715
  2
AmdtEdgeStdISO13715
  3
"Amdt_StdImp|Product Description: AutoCAD Mechanical|Company: Autodesk, Inc."
 90
     1024
 91
        1
280
     0
281
     0
  0
CLASS
  1
ACMSURFSTANDARDISO2002
  2
AcmSurfTextStdISO2002
  3
"Amdt_StdImp|Product Description: AutoCAD Mechanical|Company: Autodesk, Inc."
 90
     1024
 91
        1
280
     0
281
     0
  0
CLASS
  1
ACMFCFSTANDARDISO
  2
AcmFCFStdISO
  3
"Amdt_StdImp|Product Description: AutoCAD Mechanical|Company: Autodesk, Inc."
 90
     1024
 91
        1
280
     0
281
     0
  0
CLASS
  1
ACMWELDSTANDARDISO
  2
AcmWeldingStdISO
  3
"Amdt_StdImp|Product Description: AutoCAD Mechanical|Company: Autodesk, Inc."
 90
     1024
 91
        1
280
     0
281
     0
  0
CLASS
  1
ACMIDSTANDARDISO
  2
AcmIdStdISO
  3
"Amdt_StdImp|Product Description: AutoCAD Mechanical|Company: Autodesk, Inc."
 90
     1024
 91
        1
280
     0
281
     0
  0
CLASS
  1
ACMDATUMSTANDARDISO
  2
AcmDatumStdISO
  3
"Amdt_StdImp|Product Description: AutoCAD Mechanical|Company: Autodesk, Inc."
 90
     1024
 91
        1
280
     0
281
     0
  0
CLASS
  1
ACMBOMSTANDARDISO
  2
AcmBOMStdISO
  3
"Amdt_StdImp|Product Description: AutoCAD Mechanical|Company: Autodesk, Inc."
 90
     1024
 91
        1
280
     0
281
     0
  0
CLASS
  1
ACMDETAILSTANDARDISO
  2
AmdtDetailSymStdISO
  3
"Amdt_StdImp|Product Description: AutoCAD Mechanical|Company: Autodesk, Inc."
 90
     1024
 91
        1
280
     0
281
     0
  0
CLASS
  1
ACMSECTIONSTANDARDISO2001
  2
AmdtSectionSymStdISO2001
  3
"Amdt_StdImp|Product Description: AutoCAD Mechanical|Company: Autodesk, Inc."
 90
     1024
 91
        1
280
     0
281
     0
  0
CLASS
  1
ACMCENTERLINESTANDARDISO
  2
AmdtCenterLineStdISO
  3
"Amdt_StdImp|Product Description: AutoCAD Mechanical|Company: Autodesk, Inc."
 90
     1024
 91
        1
280
     0
281
     0
  0
CLASS
  1
ACMTHREADLINESTANDARDISO
  2
AmdtThreadLineStdISO
  3
"Amdt_StdImp|Product Description: AutoCAD Mechanical|Company: Autodesk, Inc."
 90
     1024
 91
        1
280
     0
281
     0
  0
CLASS
  1
ACMNOTESTANDARDISO
  2
AmdtNoteStdISO
  3
"Amdt_StdImp|Product Description: AutoCAD Mechanical|Company: Autodesk, Inc."
 90
     1024
 91
        1
280
     0
281
     0
  0
CLASS
  1
ACMTAPERSTANDARDISO
  2
AcmTaperStdISO
  3
"Amdt_StdImp|Product Description: AutoCAD Mechanical|Company: Autodesk, Inc."
 90
     1024
 91
        1
280
     0
281
     0
  0
CLASS
  1
ACMANOOTATIONVIEWSTANDARDISO
  2
AmdtAnViewStdISO
  3
"Amdt_StdImp|Product Description: AutoCAD Mechanical|Company: Autodesk, Inc."
 90
     1024
 91
        1
280
     0
281
     0
  0
CLASS
  1
ACAMGHOLECHARTSTDISO
  2
AcAmgHoleChartStdISO
  3
AmgDim|Product Description: AutoCAD Mechanical|Company: Autodesk, Inc.
 90
     1024
 91
        1
280
     0
281
     0
  0
CLASS
  1
EXACXREFPANELOBJECT
  2
ExAcXREFPanelObject
  3
EXAC_ESW
 90
     1025
 91
        0
280
     0
281
     0
  0
CLASS
  1
NPOCOLLECTION
  2
AcDbImpNonPersistentObjectsCollection
  3
ObjectDBX Classes
 90
     1153
 91
        0
280
     0
281
     0
  0
CLASS
  1
ACDBSTDPARTRES_ARC
  2
AcDbStdPartRes_Arc
  3
AmgStdPart|Product Description: AutoCAD Mechanical|Company: Autodesk, Inc.
 90
     1024
 91
        0
280
     0
281
     0
  0
CLASS
  1
AMDTNOTE
  2
AmdtNote
  3
"AcmSymBB|Product Description: AutoCAD Mechanical|Company: Autodesk, Inc."
 90
     4095
 91
        0
280
     0
281
     1
  0
CLASS
  1
PLOTSETTINGS
  2
AcDbPlotSettings
  3
ObjectDBX Classes
 90
        0
 91
        1
280
     0
281
     0
  0
CLASS
  1
ACMSTANDARDANSI
  2
AcmStandardANSI
  3
"Amdt_StdImp|Product Description: AutoCAD Mechanical|Company: Autodesk, Inc."
 90
     1024
 91
        0
280
     0
281
     0
  0
CLASS
  1
ACMSURFSTANDARDANSI
  2
AcmSurfTextStdANSI
  3
"Amdt_StdImp|Product Description: AutoCAD Mechanical|Company: Autodesk, Inc."
 90
     1024
 91
        0
280
     0
281
     0
  0
CLASS
  1
ACMFCFSTANDARDANSI
  2
AcmFCFStdANSI
  3
"Amdt_StdImp|Product Description: AutoCAD Mechanical|Company: Autodesk, Inc."
 90
     1024
 91
        0
280
     0
281
     0
  0
CLASS
  1
ACMWELDSTANDARDANSI
  2
AcmWeldingStdANSI
  3
"Amdt_StdImp|Product Description: AutoCAD Mechanical|Company: Autodesk, Inc."
 90
     1024
 91
        0
280
     0
281
     0
  0
CLASS
  1
ACMIDSTANDARDANSI
  2
AcmIdStdANSI
  3
"Amdt_StdImp|Product Description: AutoCAD Mechanical|Company: Autodesk, Inc."
 90
     1024
 91
        0
280
     0
281
     0
  0
CLASS
  1
ACMDATUMSTANDARDANSI
  2
AcmDatumStdANSI
  3
"Amdt_StdImp|Product Description: AutoCAD Mechanical|Company: Autodesk, Inc."
 90
     1024
 91
        0
280
     0
281
     0
  0
CLASS
  1
ACMBOMSTANDARDANSI
  2
AcmBOMStdANSI
  3
"Amdt_StdImp|Product Description: AutoCAD Mechanical|Company: Autodesk, Inc."
 90
     1024
 91
        0
280
     0
281
     0
  0
CLASS
  1
ACMDETAILSTANDARDANSI
  2
AmdtDetailSymStdANSI
  3
"Amdt_StdImp|Product Description: AutoCAD Mechanical|Company: Autodesk, Inc."
 90
     1024
 91
        0
280
     0
281
     0
  0
CLASS
  1
ACMSECTIONSTANDARDANSI
  2
AmdtSectionSymStdANSI
  3
"Amdt_StdImp|Product Description: AutoCAD Mechanical|Company: Autodesk, Inc."
 90
     1024
 91
        0
280
     0
281
     0
  0
CLASS
  1
ACMCENTERLINESTANDARDANSI
  2
AmdtCenterLineStdANSI
  3
"Amdt_StdImp|Product Description: AutoCAD Mechanical|Company: Autodesk, Inc."
 90
     1024
 91
        0
280
     0
281
     0
  0
CLASS
  1
ACMTHREADLINESTANDARDANSI
  2
AmdtThreadLineStdANSI
  3
"Amdt_StdImp|Product Description: AutoCAD Mechanical|Company: Autodesk, Inc."
 90
     1024
 91
        0
280
     0
281
     0
  0
CLASS
  1
ACMNOTESTANDARDANSI
  2
AmdtNoteStdANSI
  3
"Amdt_StdImp|Product Description: AutoCAD Mechanical|Company: Autodesk, Inc."
 90
     1024
 91
        0
280
     0
281
     0
  0
CLASS
  1
ACMTAPERSTANDARDANSI
  2
AcmTaperStdANSI
  3
"Amdt_StdImp|Product Description: AutoCAD Mechanical|Company: Autodesk, Inc."
 90
     1024
 91
        0
280
     0
281
     0
  0
CLASS
  1
ACMANOOTATIONVIEWSTANDARDANSI
  2
AmdtAnViewStdANSI
  3
"Amdt_StdImp|Product Description: AutoCAD Mechanical|Company: Autodesk, Inc."
 90
     1024
 91
        0
280
     0
281
     0
  0
CLASS
  1
ACAMGHOLECHARTSTDANSI
  2
AcAmgHoleChartStdANSI
  3
AmgDim|Product Description: AutoCAD Mechanical|Company: Autodesk, Inc.
 90
     1024
 91
        0
280
     0
281
     0
  0
CLASS
  1
ACMSTANDARDBSI
  2
AcmStandardBSI
  3
"Amdt_StdImp|Product Description: AutoCAD Mechanical|Company: Autodesk, Inc."
 90
     1024
 91
        0
280
     0
281
     0
  0
CLASS
  1
ACMSURFSTANDARDBSI2002
  2
AcmSurfTextStdBSI2002
  3
"Amdt_StdImp|Product Description: AutoCAD Mechanical|Company: Autodesk, Inc."
 90
     1024
 91
        0
280
     0
281
     0
  0
CLASS
  1
ACMFCFSTANDARDBSI
  2
AcmFCFStdBSI
  3
"Amdt_StdImp|Product Description: AutoCAD Mechanical|Company: Autodesk, Inc."
 90
     1024
 91
        0
280
     0
281
     0
  0
CLASS
  1
ACMWELDSTANDARDBSI
  2
AcmWeldingStdBSI
  3
"Amdt_StdImp|Product Description: AutoCAD Mechanical|Company: Autodesk, Inc."
 90
     1024
 91
        0
280
     0
281
     0
  0
CLASS
  1
ACMIDSTANDARDBSI
  2
AcmIdStdBSI
  3
"Amdt_StdImp|Product Description: AutoCAD Mechanical|Company: Autodesk, Inc."
 90
     1024
 91
        0
280
     0
281
     0
  0
CLASS
  1
ACMDATUMSTANDARDBSI
  2
AcmDatumStdBSI
  3
"Amdt_StdImp|Product Description: AutoCAD Mechanical|Company: Autodesk, Inc."
 90
     1024
 91
        0
280
     0
281
     0
  0
CLASS
  1
ACMBOMSTANDARDBSI
  2
AcmBOMStdBSI
  3
"Amdt_StdImp|Product Description: AutoCAD Mechanical|Company: Autodesk, Inc."
 90
     1024
 91
        0
280
     0
281
     0
  0
CLASS
  1
ACMDETAILSTANDARDBSI
  2
AmdtDetailSymStdBSI
  3
"Amdt_StdImp|Product Description: AutoCAD Mechanical|Company: Autodesk, Inc."
 90
     1024
 91
        0
280
     0
281
     0
  0
CLASS
  1
ACMSECTIONSTANDARDBSI2001
  2
AmdtSectionSymStdBSI2001
  3
"Amdt_StdImp|Product Description: AutoCAD Mechanical|Company: Autodesk, Inc."
 90
     1024
 91
        0
280
     0
281
     0
  0
CLASS
  1
ACMCENTERLINESTANDARDBSI
  2
AmdtCenterLineStdBSI
  3
"Amdt_StdImp|Product Description: AutoCAD Mechanical|Company: Autodesk, Inc."
 90
     1024
 91
        0
280
     0
281
     0
  0
CLASS
  1
ACMTHREADLINESTANDARDBSI
  2
AmdtThreadLineStdBSI
  3
"Amdt_StdImp|Product Description: AutoCAD Mechanical|Company: Autodesk, Inc."
 90
     1024
 91
        0
280
     0
281
     0
  0
CLASS
  1
ACMNOTESTANDARDBSI
  2
AmdtNoteStdBSI
  3
"Amdt_StdImp|Product Description: AutoCAD Mechanical|Company: Autodesk, Inc."
 90
     1024
 91
        0
280
     0
281
     0
  0
CLASS
  1
ACMTAPERSTANDARDBSI
  2
AcmTaperStdBSI
  3
"Amdt_StdImp|Product Description: AutoCAD Mechanical|Company: Autodesk, Inc."
 90
     1024
 91
        0
280
     0
281
     0
  0
CLASS
  1
ACMANOOTATIONVIEWSTANDARDBSI
  2
AmdtAnViewStdBSI
  3
"Amdt_StdImp|Product Description: AutoCAD Mechanical|Company: Autodesk, Inc."
 90
     1024
 91
        0
280
     0
281
     0
  0
CLASS
  1
ACAMGHOLECHARTSTDBSI
  2
AcAmgHoleChartStdBSI
  3
AmgDim|Product Description: AutoCAD Mechanical|Company: Autodesk, Inc.
 90
     1024
 91
        0
280
     0
281
     0
  0
CLASS
  1
AMDTEDGESTANDARDJIS
  2
AmdtEdgeStdJIS
  3
"Amdt_StdImp|Product Description: AutoCAD Mechanical|Company: Autodesk, Inc."
 90
     1024
 91
        0
280
     0
281
     0
  0
CLASS
  1
ACDB_BLKREFOBJECTCONTEXTDATA_CLASS
  2
AcDbBlkRefObjectContextData
  3
ObjectDBX Classes
 90
     1153
 91
        0
280
     0
281
     0
  0
CLASS
  1
ACMSURFSYM
  2
AcmSurfaceTexture
  3
"AcmSymBB|Product Description: AutoCAD Mechanical|Company: Autodesk, Inc."
 90
     4095
 91
        0
280
     0
281
     1
  0
CLASS
  1
ACDBDIMENSIONRES
  2
AcDbDimensionRes
  3
AcmSymBB|Product Description: AutoCAD Mechanical|Company: Autodesk, Inc.
 90
     1024
 91
        0
280
     0
281
     0
  0
CLASS
  1
ACDBCIRCARCRES
  2
AcDbCircArcRes
  3
AcGrefServices
 90
     1024
 91
        0
280
     0
281
     0
  0
CLASS
  1
AMDTACMWBLOCKBOMENTITY
  2
AmdtAcmWblockBomEntity
  3
"AcmSymBB|Product Description: AutoCAD Mechanical|Company: Autodesk, Inc."
 90
     4095
 91
        0
280
     0
281
     1
  0
CLASS
  1
ACDBOPPOLYLINERES
  2
AcDbOpPolylineRes
  3
AcGrefServices
 90
     1024
 91
        0
280
     0
281
     0
  0
CLASS
  1
ACMPICKOBJ
  2
AcmPickEnt
  3
"AcmSymBB|Product Description: AutoCAD Mechanical|Company: Autodesk, Inc."
 90
     1024
 91
        0
280
     0
281
     1
  0
CLASS
  1
ACMBALLOON
  2
AcmBalloon
  3
"AcmSymBB|Product Description: AutoCAD Mechanical|Company: Autodesk, Inc."
 90
     4095
 91
        0
280
     0
281
     1
  0
ENDSEC
  0
SECTION
  2
TABLES
  0
TABLE
  2
VPORT
  5
8
330
0
100
AcDbSymbolTable
 70
     1
  0
VPORT
  5
27A
330
8
100
AcDbSymbolTableRecord
100
AcDbViewportTableRecord
  2
*Active
 70
     0
 10
0.0
 20
0.0
 11
1.0
 21
1.0
 12
2051.67110113889
 22
1560.337655404946
 13
0.0
 23
0.0
 14
20.0
 24
20.0
 15
80.0
 25
80.0
 16
0.0
 26
0.0
 36
1.0
 17
0.0
 27
0.0
 37
0.0
 40
1044.338910103453
 41
1.571428571428571
 42
50.0
 43
0.0
 44
0.0
 50
0.0
 51
0.0
 71
    16
 72
 20000
 73
     1
 74
     3
 75
     0
 76
     0
 77
     0
 78
     0
281
     0
 65
     0
110
0.0
120
0.0
130
0.0
111
1.0
121
0.0
131
0.0
112
0.0
122
1.0
132
0.0
 79
     0
146
0.0
348
285
 60
     3
 61
     5
292
     1
282
     0
141
0.0
142
0.0
 63
   250
421
  3355443
  0
ENDTAB
  0
TABLE
  2
LTYPE
  5
5
330
0
100
AcDbSymbolTable
 70
    22
  0
LTYPE
  5
14
330
5
100
AcDbSymbolTableRecord
100
AcDbLinetypeTableRecord
  2
ByBlock
 70
     0
  3

 72
    65
 73
     0
 40
0.0
  0
LTYPE
  5
15
330
5
100
AcDbSymbolTableRecord
100
AcDbLinetypeTableRecord
  2
ByLayer
 70
     0
  3

 72
    65
 73
     0
 40
0.0
  0
LTYPE
  5
16
330
5
100
AcDbSymbolTableRecord
100
AcDbLinetypeTableRecord
  2
Continuous
 70
     0
  3
Solid line
 72
    65
 73
     0
 40
0.0
  0
LTYPE
  5
4D
330
5
100
AcDbSymbolTableRecord
100
AcDbLinetypeTableRecord
  2
AM_ISO02W050
 70
     0
  3
__ __ __ __ __ __ __ __ __ __ __ __ __ __ __
 72
    65
 73
     2
 40
7.5
 49
6.0
 74
     0
 49
-1.5
 74
     0
  0
LTYPE
  5
4E
330
5
100
AcDbSymbolTableRecord
100
AcDbLinetypeTableRecord
  2
AM_ISO08W050
 70
     0
  3
____ . ____ . ____ . ____ . ____ . ____ . ____
 72
    65
 73
     4
 40
18.0
 49
12.0
 74
     0
 49
-1.5
 74
     0
 49
3.0
 74
     0
 49
-1.5
 74
     0
  0
LTYPE
  5
4F
330
5
100
AcDbSymbolTableRecord
100
AcDbLinetypeTableRecord
  2
AM_ISO09W050
 70
     0
  3
_____ . . _____ . . _____ . . ____ .. ____
 72
    65
 73
     6
 40
22.5
 49
12.0
 74
     0
 49
-1.5
 74
     0
 49
3.0
 74
     0
 49
-1.5
 74
     0
 49
3.0
 74
     0
 49
-1.5
 74
     0
  0
LTYPE
  5
50
330
5
100
AcDbSymbolTableRecord
100
AcDbLinetypeTableRecord
  2
Amconstr
 70
     0
  3
_______________________
 72
    65
 73
     2
 40
9999.0
 49
9999.0
 74
     0
 49
0.0
 74
     0
  0
LTYPE
  5
51
330
5
100
AcDbSymbolTableRecord
100
AcDbLinetypeTableRecord
  2
AM_ISO08W050x2
 70
     0
  3
__ . __ . __ . __ . __ . __
 72
    65
 73
     4
 40
9.0
 49
6.0
 74
     0
 49
-0.75
 74
     0
 49
1.5
 74
     0
 49
-0.75
 74
     0
  0
LTYPE
  5
52
330
5
100
AcDbSymbolTableRecord
100
AcDbLinetypeTableRecord
  2
AM_ISO02W050x2
 70
     0
  3
 _ _ _ _ _ _ _ _ _ _ _ _
 72
    65
 73
     2
 40
3.75
 49
3.0
 74
     0
 49
-0.75
 74
     0
  0
LTYPE
  5
55
330
5
100
AcDbSymbolTableRecord
100
AcDbLinetypeTableRecord
  2
Amzigzag
 70
     0
  3
/\/-/\/-/\/-/\/-/\/-/\/
 72
    65
 73
     2
 40
11.0001
 49
0.0001
 74
     4
 75
   136
340
23D
 46
0.04
 50
0.0
 44
0.0
 45
0.0
 49
-11.0
 74
     0
  0
LTYPE
  5
65
330
5
100
AcDbSymbolTableRecord
100
AcDbLinetypeTableRecord
  2
CENTER
 70
     0
  3
__ . __
 72
    65
 73
     4
 40
7.0
 49
4.0
 74
     0
 49
-1.0
 74
     0
 49
1.0
 74
     0
 49
-1.0
 74
     0
  0
LTYPE
  5
E0
330
5
100
AcDbSymbolTableRecord
100
AcDbLinetypeTableRecord
  2
HIDDEN
 70
     0
  3
Hidden __ __ __ __ __ __ __ __ __ __ __ __ __ _
 72
    65
 73
     2
 40
9.524999999999996
 49
6.349999999999998
 74
     0
 49
-3.174999999999998
 74
     0
  0
LTYPE
  5
E1
330
5
100
AcDbSymbolTableRecord
100
AcDbLinetypeTableRecord
  2
PHANTOM2
 70
     0
  3
Phantom (.5x) ___ _ _ ___ _ _ ___ _ _ ___ _ _
 72
    65
 73
     6
 40
31.75
 49
15.875
 74
     0
 49
-3.174999999999998
 74
     0
 49
3.174999999999998
 74
     0
 49
-3.174999999999998
 74
     0
 49
3.174999999999998
 74
     0
 49
-3.174999999999998
 74
     0
  0
LTYPE
  5
5A2
330
5
100
AcDbSymbolTableRecord
100
AcDbLinetypeTableRecord
  2
ACJISWELD
 70
     0
  3
_ _ _ _ _
 72
    65
 73
     2
 40
2.0
 49
2.0
 74
     0
 49
-1.0
 74
     0
  0
LTYPE
  5
78AD
330
5
100
AcDbSymbolTableRecord
100
AcDbLinetypeTableRecord
  2
ACISOWELD
 70
     0
  3
_ _ _ _ _
 72
    65
 73
     2
 40
2.0
 49
2.0
 74
     0
 49
-1.0
 74
     0
  0
LTYPE
  5
78AE
330
5
100
AcDbSymbolTableRecord
100
AcDbLinetypeTableRecord
  2
ACISOTGB
 70
     0
  3
__ . . __ . .
 72
    65
 73
     6
 40
9.0
 49
4.0
 74
     0
 49
-1.0
 74
     0
 49
1.0
 74
     0
 49
-1.0
 74
     0
 49
1.0
 74
     0
 49
-1.0
 74
     0
  0
LTYPE
  5
78AF
330
5
100
AcDbSymbolTableRecord
100
AcDbLinetypeTableRecord
  2
ACISOTGL
 70
     0
  3
_ _ _ _ _
 72
    65
 73
     2
 40
3.0
 49
2.0
 74
     0
 49
-1.0
 74
     0
  0
ENDTAB
  0
TABLE
  2
LAYER
  5
2
102
{ACAD_XDICTIONARY
360
BF
102
}
330
0
100
AcDbSymbolTable
 70
     9
  0
LAYER
  5
10
102
{ACAD_XDICTIONARY
360
2AB7
102
}
330
2
100
AcDbSymbolTableRecord
100
AcDbLayerTableRecord
  2
0
 70
     0
 62
     7
  6
Continuous
370
    -3
390
F
347
27E
  0
LAYER
  5
81
102
{ACAD_XDICTIONARY
360
2AB9
102
}
330
2
100
AcDbSymbolTableRecord
100
AcDbLayerTableRecord
  2
AM_0 外形線1
 70
     0
 62
     7
  6
Continuous
370
    25
390
F
347
27E
  0
LAYER
  5
427
330
2
100
AcDbSymbolTableRecord
100
AcDbLayerTableRecord
  2
Defpoints
 70
     0
 62
     7
  6
Continuous
290
     0
370
    -3
390
F
347
27E
  0
LAYER
  5
3C78
330
2
100
AcDbSymbolTableRecord
100
AcDbLayerTableRecord
  2
AM_5 寸法線
 70
     0
 62
     3
  6
Continuous
370
    13
390
F
347
27E
1001
AcAecLayerStandard
1000

1000

  0
LAYER
  5
3C79
330
2
100
AcDbSymbolTableRecord
100
AcDbLayerTableRecord
  2
AM_4 細線
 70
     0
 62
     4
  6
Continuous
370
    13
390
F
347
27E
1001
AcAecLayerStandard
1000

1000

  0
LAYER
  5
3C7A
330
2
100
AcDbSymbolTableRecord
100
AcDbLayerTableRecord
  2
AM_7 中心線
 70
     0
 62
     1
  6
AM_ISO08W050
370
    13
390
F
347
27E
1001
AcAecLayerStandard
1000

1000

  0
LAYER
  5
3C7B
330
2
100
AcDbSymbolTableRecord
100
AcDbLayerTableRecord
  2
AM_3 隠れ線
 70
     0
 62
     8
  6
ACJISWELD
370
    13
390
F
347
27E
1001
AcAecLayerStandard
1000

1000

  0
LAYER
  5
3C7E
330
2
100
AcDbSymbolTableRecord
100
AcDbLayerTableRecord
  2
AM_6 文字
 70
     0
 62
     2
  6
Continuous
370
    13
390
F
347
27E
1001
AcAecLayerStandard
1000

1000

  0
ENDTAB
  0
TABLE
  2
STYLE
  5
3
330
0
100
AcDbSymbolTable
 70
    10
  0
STYLE
  5
11
330
3
100
AcDbSymbolTableRecord
100
AcDbTextStyleTableRecord
  2
STANDARD
 70
     0
 40
0.0
 41
1.0
 50
0.0
 71
     0
 42
25.0
  3
ISOCP.SHX
  4
EXTFONT.SHX
  0
STYLE
  5
23D
330
3
100
AcDbSymbolTableRecord
100
AcDbTextStyleTableRecord
  2

 70
     1
 40
0.0
 41
1.0
 50
0.0
 71
     0
 42
2.5
  3
genltshp.shx
  4

  0
STYLE
  5
5D5
330
3
100
AcDbSymbolTableRecord
100
AcDbTextStyleTableRecord
  2
SEISA
 70
     0
 40
0.0
 41
0.9
 50
0.0
 71
     0
 42
25.0
  3
romans.shx
  4
extfont2.shx
  0
STYLE
  5
789D
330
3
100
AcDbSymbolTableRecord
100
AcDbTextStyleTableRecord
  2
ACISOTS
 70
     0
 40
1.0
 41
1.0
 50
0.0
 71
     0
 42
25.0
  3
isocp.shx
  4
extfont.shx
  0
STYLE
  5
78AC
330
3
100
AcDbSymbolTableRecord
100
AcDbTextStyleTableRecord
  2
ACISOGDT
 70
     0
 40
0.0
 41
1.0
 50
0.0
 71
     0
 42
25.0
  3
amgdt.shx
  4

  0
ENDTAB
  0
TABLE
  2
VIEW
  5
6
330
0
100
AcDbSymbolTable
 70
     6
  0
VIEW
  5
91B
330
6
100
AcDbSymbolTableRecord
100
AcDbViewTableRecord
  2
AM_VIEW1
 70
     0
 40
1188.0
 10
1148.497538477283
 20
1782.000002955057
 41
2296.995073891626
 11
0.0
 21
0.0
 31
1.0
 12
0.0
 22
0.0
 32
0.0
 42
50.0
 43
0.0
 44
0.0
 50
0.0
 71
    16
281
     0
 72
     0
 73
     0
  0
VIEW
  5
91C
330
6
100
AcDbSymbolTableRecord
100
AcDbViewTableRecord
  2
AM_VIEW2
 70
     0
 40
1188.0
 10
2211.502464585658
 20
1782.000002955057
 41
2296.995073891626
 11
0.0
 21
0.0
 31
1.0
 12
0.0
 22
0.0
 32
0.0
 42
50.0
 43
0.0
 44
0.0
 50
0.0
 71
    16
281
     0
 72
     0
 73
     0
  0
VIEW
  5
91D
330
6
100
AcDbSymbolTableRecord
100
AcDbViewTableRecord
  2
AM_VIEW3
 70
     0
 40
1188.0
 10
1148.497538477283
 20
594.0000029550566
 41
2296.995073891626
 11
0.0
 21
0.0
 31
1.0
 12
0.0
 22
0.0
 32
0.0
 42
50.0
 43
0.0
 44
0.0
 50
0.0
 71
    16
281
     0
 72
     0
 73
     0
  0
VIEW
  5
91E
330
6
100
AcDbSymbolTableRecord
100
AcDbViewTableRecord
  2
AM_VIEW4
 70
     0
 40
1188.0
 10
2211.502464585658
 20
594.0000029550566
 41
2296.995073891626
 11
0.0
 21
0.0
 31
1.0
 12
0.0
 22
0.0
 32
0.0
 42
50.0
 43
0.0
 44
0.0
 50
0.0
 71
    16
281
     0
 72
     0
 73
     0
  0
VIEW
  5
91F
330
6
100
AcDbSymbolTableRecord
100
AcDbViewTableRecord
  2
AM_VIEW5
 70
     0
 40
1188.0
 10
1680.000001531471
 20
1188.000002955057
 41
2296.995073891626
 11
0.0
 21
0.0
 31
1.0
 12
0.0
 22
0.0
 32
0.0
 42
50.0
 43
0.0
 44
0.0
 50
0.0
 71
    16
281
     0
 72
     0
 73
     0
  0
VIEW
  5
920
330
6
100
AcDbSymbolTableRecord
100
AcDbViewTableRecord
  2
AM_VIEW6
 70
     0
 40
2375.97624
 10
1680.000001531471
 20
1188.000002955057
 41
4593.944207881775
 11
0.0
 21
0.0
 31
1.0
 12
0.0
 22
0.0
 32
0.0
 42
50.0
 43
0.0
 44
0.0
 50
0.0
 71
    16
281
     0
 72
     0
 73
     0
  0
ENDTAB
  0
TABLE
  2
UCS
  5
7
330
0
100
AcDbSymbolTable
 70
     0
  0
ENDTAB
  0
TABLE
  2
APPID
  5
9
330
0
100
AcDbSymbolTable
 70
   396
  0
APPID
  5
12
330
9
100
AcDbSymbolTableRecord
100
AcDbRegAppTableRecord
  2
ACAD
 70
     0
  0
APPID
  5
30
330
9
100
AcDbSymbolTableRecord
100
AcDbRegAppTableRecord
  2
MCAD_NO_VIS
 70
     0
  0
APPID
  5
31
330
9
100
AcDbSymbolTableRecord
100
AcDbRegAppTableRecord
  2
ACAD_TEMP_GRAPHIC
 70
     0
  0
APPID
  5
44
330
9
100
AcDbSymbolTableRecord
100
AcDbRegAppTableRecord
  2
ACATTRIBSERVICES
 70
     0
  0
APPID
  5
F6
330
9
100
AcDbSymbolTableRecord
100
AcDbRegAppTableRecord
  2
AD_DRAW
 70
     0
  0
APPID
  5
114
330
9
100
AcDbSymbolTableRecord
100
AcDbRegAppTableRecord
  2
DESIGNERASSEMBLIES
 70
     0
  0
APPID
  5
118
330
9
100
AcDbSymbolTableRecord
100
AcDbRegAppTableRecord
  2
ACADM_DIM_EDIT
 70
     0
  0
APPID
  5
119
330
9
100
AcDbSymbolTableRecord
100
AcDbRegAppTableRecord
  2
AMDT_DM_ADJ
 70
     0
  0
APPID
  5
1AF
330
9
100
AcDbSymbolTableRecord
100
AcDbRegAppTableRecord
  2
ACAD_DSTYLE_DIMARC_LENGTH_SYMBOL
 70
     0
  0
APPID
  5
1B0
330
9
100
AcDbSymbolTableRecord
100
AcDbRegAppTableRecord
  2
ACAD_DSTYLE_DIMJOGGED_JOGANGLE_SYMBOL
 70
     0
  0
APPID
  5
2D7
330
9
100
AcDbSymbolTableRecord
100
AcDbRegAppTableRecord
  2
ACAD_MLEADERVER
 70
     0
  0
APPID
  5
355
330
9
100
AcDbSymbolTableRecord
100
AcDbRegAppTableRecord
  2
AcadAnnoPO
 70
     0
  0
APPID
  5
428
330
9
100
AcDbSymbolTableRecord
100
AcDbRegAppTableRecord
  2
ACAD_DSTYLE_DIMTEXT_FILL
 70
     0
  0
APPID
  5
429
330
9
100
AcDbSymbolTableRecord
100
AcDbRegAppTableRecord
  2
GENIUS_GENSCREG_15
 70
     0
  0
APPID
  5
42A
330
9
100
AcDbSymbolTableRecord
100
AcDbRegAppTableRecord
  2
GENIUS_GENOBJ-N-SDF_13
 70
     0
  0
APPID
  5
42B
330
9
100
AcDbSymbolTableRecord
100
AcDbRegAppTableRecord
  2
GENIUS_GENODEF_13
 70
     0
  0
APPID
  5
42C
330
9
100
AcDbSymbolTableRecord
100
AcDbRegAppTableRecord
  2
ACAD_EXEMPT_FROM_CAD_STANDARDS
 70
     0
  0
APPID
  5
42D
330
9
100
AcDbSymbolTableRecord
100
AcDbRegAppTableRecord
  2
AcAecLayerStandard
 70
     0
  0
APPID
  5
42E
330
9
100
AcDbSymbolTableRecord
100
AcDbRegAppTableRecord
  2
GENIUS_GENOBJ-N-CEN_13
 70
     0
  0
APPID
  5
42F
330
9
100
AcDbSymbolTableRecord
100
AcDbRegAppTableRecord
  2
GENIUS_GENCEN_19
 70
     0
  0
APPID
  5
430
330
9
100
AcDbSymbolTableRecord
100
AcDbRegAppTableRecord
  2
ACAD_DSTYLE_DIMINSPECT
 70
     0
  0
APPID
  5
431
330
9
100
AcDbSymbolTableRecord
100
AcDbRegAppTableRecord
  2
GENIUS_AMGTXT_16
 70
     0
  0
APPID
  5
432
330
9
100
AcDbSymbolTableRecord
100
AcDbRegAppTableRecord
  2
GENIUS_GENFIL_13
 70
     0
  0
APPID
  5
433
330
9
100
AcDbSymbolTableRecord
100
AcDbRegAppTableRecord
  2
GENIUS_GENOLIS_13
 70
     0
  0
APPID
  5
434
330
9
100
AcDbSymbolTableRecord
100
AcDbRegAppTableRecord
  2
GENIUS_GENOBJ-N-CHA_13
 70
     0
  0
APPID
  5
435
330
9
100
AcDbSymbolTableRecord
100
AcDbRegAppTableRecord
  2
GENIUS_GENOENT_13
 70
     0
  0
APPID
  5
436
330
9
100
AcDbSymbolTableRecord
100
AcDbRegAppTableRecord
  2
GENIUS_GENOREF_13
 70
     0
  0
APPID
  5
437
330
9
100
AcDbSymbolTableRecord
100
AcDbRegAppTableRecord
  2
GENIUS_GENOBJ-N-FIL_13
 70
     0
  0
APPID
  5
438
330
9
100
AcDbSymbolTableRecord
100
AcDbRegAppTableRecord
  2
GEVID1208829536
 70
     0
  0
APPID
  5
439
330
9
100
AcDbSymbolTableRecord
100
AcDbRegAppTableRecord
  2
GEVDC
 70
     0
  0
APPID
  5
43A
330
9
100
AcDbSymbolTableRecord
100
AcDbRegAppTableRecord
  2
GEVRADREF
 70
     0
  0
APPID
  5
43B
330
9
100
AcDbSymbolTableRecord
100
AcDbRegAppTableRecord
  2
GENIUS_GENBH_13
 70
     0
  0
APPID
  5
43C
330
9
100
AcDbSymbolTableRecord
100
AcDbRegAppTableRecord
  2
GENIUS_GENOBJ-NBEHI-BHF_13
 70
     0
  0
APPID
  5
43D
330
9
100
AcDbSymbolTableRecord
100
AcDbRegAppTableRecord
  2
GENIUS_GENOBJ-NBEHI-BHB_13
 70
     0
  0
APPID
  5
43E
330
9
100
AcDbSymbolTableRecord
100
AcDbRegAppTableRecord
  2
GEVID1208829537
 70
     0
  0
APPID
  5
43F
330
9
100
AcDbSymbolTableRecord
100
AcDbRegAppTableRecord
  2
ACAD_DSTYLE_DIMJAG
 70
     0
  0
APPID
  5
440
330
9
100
AcDbSymbolTableRecord
100
AcDbRegAppTableRecord
  2
ACAD_DSTYLE_DIMTALN
 70
     0
  0
APPID
  5
441
330
9
100
AcDbSymbolTableRecord
100
AcDbRegAppTableRecord
  2
AMG_2DHIDE
 70
     0
  0
APPID
  5
442
330
9
100
AcDbSymbolTableRecord
100
AcDbRegAppTableRecord
  2
AMG_2DSTRUCT_BTR
 70
     0
  0
APPID
  5
443
330
9
100
AcDbSymbolTableRecord
100
AcDbRegAppTableRecord
  2
GEVID1208845772
 70
     0
  0
APPID
  5
444
330
9
100
AcDbSymbolTableRecord
100
AcDbRegAppTableRecord
  2
GEVID1208845773
 70
     0
  0
APPID
  5
445
330
9
100
AcDbSymbolTableRecord
100
AcDbRegAppTableRecord
  2
ACADM_2DVIEW_IGN_NOTIFY
 70
     0
  0
APPID
  5
446
330
9
100
AcDbSymbolTableRecord
100
AcDbRegAppTableRecord
  2
GEVID1208845774
 70
     0
  0
APPID
  5
447
330
9
100
AcDbSymbolTableRecord
100
AcDbRegAppTableRecord
  2
GEVID1208845775
 70
     0
  0
APPID
  5
448
330
9
100
AcDbSymbolTableRecord
100
AcDbRegAppTableRecord
  2
GEVID1208845776
 70
     0
  0
APPID
  5
449
330
9
100
AcDbSymbolTableRecord
100
AcDbRegAppTableRecord
  2
GEVID1208845777
 70
     0
  0
APPID
  5
44A
330
9
100
AcDbSymbolTableRecord
100
AcDbRegAppTableRecord
  2
GEVCON
 70
     0
  0
APPID
  5
44B
330
9
100
AcDbSymbolTableRecord
100
AcDbRegAppTableRecord
  2
GENIUS_GENOBJ-F-SCPASSM_13
 70
     0
  0
APPID
  5
44C
330
9
100
AcDbSymbolTableRecord
100
AcDbRegAppTableRecord
  2
GEVID1208845778
 70
     0
  0
APPID
  5
44D
330
9
100
AcDbSymbolTableRecord
100
AcDbRegAppTableRecord
  2
GEVID1208845779
 70
     0
  0
APPID
  5
44E
330
9
100
AcDbSymbolTableRecord
100
AcDbRegAppTableRecord
  2
GEVID1208845780
 70
     0
  0
APPID
  5
44F
330
9
100
AcDbSymbolTableRecord
100
AcDbRegAppTableRecord
  2
GEVID1208845781
 70
     0
  0
APPID
  5
450
330
9
100
AcDbSymbolTableRecord
100
AcDbRegAppTableRecord
  2
GEVID1208845782
 70
     0
  0
APPID
  5
451
330
9
100
AcDbSymbolTableRecord
100
AcDbRegAppTableRecord
  2
GEVID1208845783
 70
     0
  0
APPID
  5
452
330
9
100
AcDbSymbolTableRecord
100
AcDbRegAppTableRecord
  2
GEVID1208845784
 70
     0
  0
APPID
  5
453
330
9
100
AcDbSymbolTableRecord
100
AcDbRegAppTableRecord
  2
GEVID1208845785
 70
     0
  0
APPID
  5
454
330
9
100
AcDbSymbolTableRecord
100
AcDbRegAppTableRecord
  2
GEVID1208845787
 70
     0
  0
APPID
  5
455
330
9
100
AcDbSymbolTableRecord
100
AcDbRegAppTableRecord
  2
GEVID1208845788
 70
     0
  0
APPID
  5
456
330
9
100
AcDbSymbolTableRecord
100
AcDbRegAppTableRecord
  2
GEVID1208845789
 70
     0
  0
APPID
  5
457
330
9
100
AcDbSymbolTableRecord
100
AcDbRegAppTableRecord
  2
GEVID1208845790
 70
     0
  0
APPID
  5
458
330
9
100
AcDbSymbolTableRecord
100
AcDbRegAppTableRecord
  2
GEVID1208845791
 70
     0
  0
APPID
  5
459
330
9
100
AcDbSymbolTableRecord
100
AcDbRegAppTableRecord
  2
GEVID1208845792
 70
     0
  0
APPID
  5
45A
330
9
100
AcDbSymbolTableRecord
100
AcDbRegAppTableRecord
  2
GEVID1208845793
 70
     0
  0
APPID
  5
45B
330
9
100
AcDbSymbolTableRecord
100
AcDbRegAppTableRecord
  2
GEVID1208845794
 70
     0
  0
APPID
  5
45C
330
9
100
AcDbSymbolTableRecord
100
AcDbRegAppTableRecord
  2
GEVID1208845795
 70
     0
  0
APPID
  5
45D
330
9
100
AcDbSymbolTableRecord
100
AcDbRegAppTableRecord
  2
GEVID1208845796
 70
     0
  0
APPID
  5
45E
330
9
100
AcDbSymbolTableRecord
100
AcDbRegAppTableRecord
  2
GEVID1208845797
 70
     0
  0
APPID
  5
45F
330
9
100
AcDbSymbolTableRecord
100
AcDbRegAppTableRecord
  2
GEVID1208845798
 70
     0
  0
APPID
  5
460
330
9
100
AcDbSymbolTableRecord
100
AcDbRegAppTableRecord
  2
GEVID1208845799
 70
     0
  0
APPID
  5
461
330
9
100
AcDbSymbolTableRecord
100
AcDbRegAppTableRecord
  2
GEVID1208845800
 70
     0
  0
APPID
  5
462
330
9
100
AcDbSymbolTableRecord
100
AcDbRegAppTableRecord
  2
GEVID1208845801
 70
     0
  0
APPID
  5
463
330
9
100
AcDbSymbolTableRecord
100
AcDbRegAppTableRecord
  2
GEVID1208845802
 70
     0
  0
APPID
  5
464
330
9
100
AcDbSymbolTableRecord
100
AcDbRegAppTableRecord
  2
GENIUS_GENOBJ-N-DIM_13
 70
     0
  0
APPID
  5
465
330
9
100
AcDbSymbolTableRecord
100
AcDbRegAppTableRecord
  2
GENIUS_GENDIM_13
 70
     0
  0
APPID
  5
466
330
9
100
AcDbSymbolTableRecord
100
AcDbRegAppTableRecord
  2
GENIUS_GENDIMSH_14
 70
     0
  0
APPID
  5
467
330
9
100
AcDbSymbolTableRecord
100
AcDbRegAppTableRecord
  2
GEVID1208845803
 70
     0
  0
APPID
  5
468
330
9
100
AcDbSymbolTableRecord
100
AcDbRegAppTableRecord
  2
GEVID1208845804
 70
     0
  0
APPID
  5
469
330
9
100
AcDbSymbolTableRecord
100
AcDbRegAppTableRecord
  2
GEVID1208845805
 70
     0
  0
APPID
  5
46A
330
9
100
AcDbSymbolTableRecord
100
AcDbRegAppTableRecord
  2
GEVID1208845806
 70
     0
  0
APPID
  5
46B
330
9
100
AcDbSymbolTableRecord
100
AcDbRegAppTableRecord
  2
GEVID1208845807
 70
     0
  0
APPID
  5
46C
330
9
100
AcDbSymbolTableRecord
100
AcDbRegAppTableRecord
  2
GEVID1208845808
 70
     0
  0
APPID
  5
46D
330
9
100
AcDbSymbolTableRecord
100
AcDbRegAppTableRecord
  2
GEVID1208845809
 70
     0
  0
APPID
  5
46E
330
9
100
AcDbSymbolTableRecord
100
AcDbRegAppTableRecord
  2
GEVID1208845810
 70
     0
  0
APPID
  5
46F
330
9
100
AcDbSymbolTableRecord
100
AcDbRegAppTableRecord
  2
GEVID1208845811
 70
     0
  0
APPID
  5
470
330
9
100
AcDbSymbolTableRecord
100
AcDbRegAppTableRecord
  2
GEVID1208845813
 70
     0
  0
APPID
  5
471
330
9
100
AcDbSymbolTableRecord
100
AcDbRegAppTableRecord
  2
GEVID1208845814
 70
     0
  0
APPID
  5
472
330
9
100
AcDbSymbolTableRecord
100
AcDbRegAppTableRecord
  2
GEVID1208845815
 70
     0
  0
APPID
  5
473
330
9
100
AcDbSymbolTableRecord
100
AcDbRegAppTableRecord
  2
GEVID1208845816
 70
     0
  0
APPID
  5
474
330
9
100
AcDbSymbolTableRecord
100
AcDbRegAppTableRecord
  2
GEVID1208845817
 70
     0
  0
APPID
  5
475
330
9
100
AcDbSymbolTableRecord
100
AcDbRegAppTableRecord
  2
GEVID1208845818
 70
     0
  0
APPID
  5
476
330
9
100
AcDbSymbolTableRecord
100
AcDbRegAppTableRecord
  2
GEVID1208845819
 70
     0
  0
APPID
  5
477
330
9
100
AcDbSymbolTableRecord
100
AcDbRegAppTableRecord
  2
GEVID1208845820
 70
     0
  0
APPID
  5
478
330
9
100
AcDbSymbolTableRecord
100
AcDbRegAppTableRecord
  2
GENIUS_GENOBJ-F-SHCL_13
 70
     0
  0
APPID
  5
479
330
9
100
AcDbSymbolTableRecord
100
AcDbRegAppTableRecord
  2
GENIUS_GEFMSH_13
 70
     0
  0
APPID
  5
47A
330
9
100
AcDbSymbolTableRecord
100
AcDbRegAppTableRecord
  2
GENIUS_GENOBJ-F-SHCA_13
 70
     0
  0
APPID
  5
47B
330
9
100
AcDbSymbolTableRecord
100
AcDbRegAppTableRecord
  2
GENIUS_GEFSH_13
 70
     0
  0
APPID
  5
47C
330
9
100
AcDbSymbolTableRecord
100
AcDbRegAppTableRecord
  2
GENIUS_GEFSHP_13
 70
     0
  0
APPID
  5
47D
330
9
100
AcDbSymbolTableRecord
100
AcDbRegAppTableRecord
  2
GENIUS_GEFSHP0_13
 70
     0
  0
APPID
  5
47E
330
9
100
AcDbSymbolTableRecord
100
AcDbRegAppTableRecord
  2
GENIUS_GEFSH0_13
 70
     0
  0
APPID
  5
47F
330
9
100
AcDbSymbolTableRecord
100
AcDbRegAppTableRecord
  2
GENIUS_GEFSHP1_13
 70
     0
  0
APPID
  5
480
330
9
100
AcDbSymbolTableRecord
100
AcDbRegAppTableRecord
  2
GENIUS_GEFSH1_13
 70
     0
  0
APPID
  5
481
330
9
100
AcDbSymbolTableRecord
100
AcDbRegAppTableRecord
  2
GEVID1208866337
 70
     0
  0
APPID
  5
482
330
9
100
AcDbSymbolTableRecord
100
AcDbRegAppTableRecord
  2
GEVID1208866338
 70
     0
  0
APPID
  5
483
330
9
100
AcDbSymbolTableRecord
100
AcDbRegAppTableRecord
  2
GEVID1208866339
 70
     0
  0
APPID
  5
484
330
9
100
AcDbSymbolTableRecord
100
AcDbRegAppTableRecord
  2
GEVID1208866340
 70
     0
  0
APPID
  5
485
330
9
100
AcDbSymbolTableRecord
100
AcDbRegAppTableRecord
  2
GEVID1208866341
 70
     0
  0
APPID
  5
486
330
9
100
AcDbSymbolTableRecord
100
AcDbRegAppTableRecord
  2
ACAD_PSEXT
 70
     0
  0
APPID
  5
487
330
9
100
AcDbSymbolTableRecord
100
AcDbRegAppTableRecord
  2
GEVID1208866342
 70
     0
  0
APPID
  5
488
330
9
100
AcDbSymbolTableRecord
100
AcDbRegAppTableRecord
  2
GEVID1208913836
 70
     0
  0
APPID
  5
489
330
9
100
AcDbSymbolTableRecord
100
AcDbRegAppTableRecord
  2
GEVID1208913837
 70
     0
  0
APPID
  5
48A
330
9
100
AcDbSymbolTableRecord
100
AcDbRegAppTableRecord
  2
GEVID1208913838
 70
     0
  0
APPID
  5
48B
330
9
100
AcDbSymbolTableRecord
100
AcDbRegAppTableRecord
  2
GEVID1208913839
 70
     0
  0
APPID
  5
48C
330
9
100
AcDbSymbolTableRecord
100
AcDbRegAppTableRecord
  2
GENIUS_GENDTOL_13
 70
     0
  0
APPID
  5
48D
330
9
100
AcDbSymbolTableRecord
100
AcDbRegAppTableRecord
  2
GEVID1208928889
 70
     0
  0
APPID
  5
48E
330
9
100
AcDbSymbolTableRecord
100
AcDbRegAppTableRecord
  2
GEVID1208928890
 70
     0
  0
APPID
  5
48F
330
9
100
AcDbSymbolTableRecord
100
AcDbRegAppTableRecord
  2
GEVID1208928891
 70
     0
  0
APPID
  5
490
330
9
100
AcDbSymbolTableRecord
100
AcDbRegAppTableRecord
  2
GEVID1208928892
 70
     0
  0
APPID
  5
491
330
9
100
AcDbSymbolTableRecord
100
AcDbRegAppTableRecord
  2
GEVID1208933827
 70
     0
  0
APPID
  5
492
330
9
100
AcDbSymbolTableRecord
100
AcDbRegAppTableRecord
  2
GEVID1208933829
 70
     0
  0
APPID
  5
493
330
9
100
AcDbSymbolTableRecord
100
AcDbRegAppTableRecord
  2
GEVID1208933830
 70
     0
  0
APPID
  5
494
330
9
100
AcDbSymbolTableRecord
100
AcDbRegAppTableRecord
  2
GEVID1208933831
 70
     0
  0
APPID
  5
495
330
9
100
AcDbSymbolTableRecord
100
AcDbRegAppTableRecord
  2
GEVID1208933832
 70
     0
  0
APPID
  5
496
330
9
100
AcDbSymbolTableRecord
100
AcDbRegAppTableRecord
  2
GEVID1208933833
 70
     0
  0
APPID
  5
497
330
9
100
AcDbSymbolTableRecord
100
AcDbRegAppTableRecord
  2
GEVID1208933834
 70
     0
  0
APPID
  5
498
330
9
100
AcDbSymbolTableRecord
100
AcDbRegAppTableRecord
  2
GEVID1208933835
 70
     0
  0
APPID
  5
499
330
9
100
AcDbSymbolTableRecord
100
AcDbRegAppTableRecord
  2
GEVID1208933836
 70
     0
  0
APPID
  5
49A
330
9
100
AcDbSymbolTableRecord
100
AcDbRegAppTableRecord
  2
GEVID1208933837
 70
     0
  0
APPID
  5
49B
330
9
100
AcDbSymbolTableRecord
100
AcDbRegAppTableRecord
  2
GEVID1208933838
 70
     0
  0
APPID
  5
49C
330
9
100
AcDbSymbolTableRecord
100
AcDbRegAppTableRecord
  2
GEVID1208933840
 70
     0
  0
APPID
  5
49D
330
9
100
AcDbSymbolTableRecord
100
AcDbRegAppTableRecord
  2
GEVID1208933842
 70
     0
  0
APPID
  5
49E
330
9
100
AcDbSymbolTableRecord
100
AcDbRegAppTableRecord
  2
GEVID1208933843
 70
     0
  0
APPID
  5
49F
330
9
100
AcDbSymbolTableRecord
100
AcDbRegAppTableRecord
  2
GEVID1208933844
 70
     0
  0
APPID
  5
4A0
330
9
100
AcDbSymbolTableRecord
100
AcDbRegAppTableRecord
  2
GEVID1208933845
 70
     0
  0
APPID
  5
4A1
330
9
100
AcDbSymbolTableRecord
100
AcDbRegAppTableRecord
  2
GEVID1208933846
 70
     0
  0
APPID
  5
4A2
330
9
100
AcDbSymbolTableRecord
100
AcDbRegAppTableRecord
  2
GEVID1208933847
 70
     0
  0
APPID
  5
4A3
330
9
100
AcDbSymbolTableRecord
100
AcDbRegAppTableRecord
  2
GEVID1208933848
 70
     0
  0
APPID
  5
4A4
330
9
100
AcDbSymbolTableRecord
100
AcDbRegAppTableRecord
  2
GEVID1208933849
 70
     0
  0
APPID
  5
4A5
330
9
100
AcDbSymbolTableRecord
100
AcDbRegAppTableRecord
  2
GEVID1208933850
 70
     0
  0
APPID
  5
4A6
330
9
100
AcDbSymbolTableRecord
100
AcDbRegAppTableRecord
  2
GEVID1208933851
 70
     0
  0
APPID
  5
4A7
330
9
100
AcDbSymbolTableRecord
100
AcDbRegAppTableRecord
  2
GEVID1208933852
 70
     0
  0
APPID
  5
4A8
330
9
100
AcDbSymbolTableRecord
100
AcDbRegAppTableRecord
  2
GEVID1208933853
 70
     0
  0
APPID
  5
4A9
330
9
100
AcDbSymbolTableRecord
100
AcDbRegAppTableRecord
  2
GEVID1208933854
 70
     0
  0
APPID
  5
4AA
330
9
100
AcDbSymbolTableRecord
100
AcDbRegAppTableRecord
  2
GEVID1208933855
 70
     0
  0
APPID
  5
4AB
330
9
100
AcDbSymbolTableRecord
100
AcDbRegAppTableRecord
  2
GEVID1208933856
 70
     0
  0
APPID
  5
4AC
330
9
100
AcDbSymbolTableRecord
100
AcDbRegAppTableRecord
  2
GEVID1208933857
 70
     0
  0
APPID
  5
4AD
330
9
100
AcDbSymbolTableRecord
100
AcDbRegAppTableRecord
  2
GEVID1208933858
 70
     0
  0
APPID
  5
4AE
330
9
100
AcDbSymbolTableRecord
100
AcDbRegAppTableRecord
  2
GEVID1208933859
 70
     0
  0
APPID
  5
4AF
330
9
100
AcDbSymbolTableRecord
100
AcDbRegAppTableRecord
  2
GEVID1208933860
 70
     0
  0
APPID
  5
4B0
330
9
100
AcDbSymbolTableRecord
100
AcDbRegAppTableRecord
  2
GEVID1208933861
 70
     0
  0
APPID
  5
4B1
330
9
100
AcDbSymbolTableRecord
100
AcDbRegAppTableRecord
  2
GEVID1208933862
 70
     0
  0
APPID
  5
4B2
330
9
100
AcDbSymbolTableRecord
100
AcDbRegAppTableRecord
  2
GEVID1208933863
 70
     0
  0
APPID
  5
4B3
330
9
100
AcDbSymbolTableRecord
100
AcDbRegAppTableRecord
  2
GEVID1208933864
 70
     0
  0
APPID
  5
4B4
330
9
100
AcDbSymbolTableRecord
100
AcDbRegAppTableRecord
  2
GEVID1208933865
 70
     0
  0
APPID
  5
4B5
330
9
100
AcDbSymbolTableRecord
100
AcDbRegAppTableRecord
  2
GEVID1208933866
 70
     0
  0
APPID
  5
4B6
330
9
100
AcDbSymbolTableRecord
100
AcDbRegAppTableRecord
  2
GEVID1208933867
 70
     0
  0
APPID
  5
4B7
330
9
100
AcDbSymbolTableRecord
100
AcDbRegAppTableRecord
  2
GEVID1208933868
 70
     0
  0
APPID
  5
4B8
330
9
100
AcDbSymbolTableRecord
100
AcDbRegAppTableRecord
  2
GEVID1208933869
 70
     0
  0
APPID
  5
4B9
330
9
100
AcDbSymbolTableRecord
100
AcDbRegAppTableRecord
  2
GEVID1208933870
 70
     0
  0
APPID
  5
4BA
330
9
100
AcDbSymbolTableRecord
100
AcDbRegAppTableRecord
  2
GEVID1208933871
 70
     0
  0
APPID
  5
4BB
330
9
100
AcDbSymbolTableRecord
100
AcDbRegAppTableRecord
  2
GEVID1208933872
 70
     0
  0
APPID
  5
4BC
330
9
100
AcDbSymbolTableRecord
100
AcDbRegAppTableRecord
  2
GEVID1208933873
 70
     0
  0
APPID
  5
4BD
330
9
100
AcDbSymbolTableRecord
100
AcDbRegAppTableRecord
  2
GEVID1208933874
 70
     0
  0
APPID
  5
4BE
330
9
100
AcDbSymbolTableRecord
100
AcDbRegAppTableRecord
  2
GEVID1208933875
 70
     0
  0
APPID
  5
4BF
330
9
100
AcDbSymbolTableRecord
100
AcDbRegAppTableRecord
  2
GEVID1208933876
 70
     0
  0
APPID
  5
4C0
330
9
100
AcDbSymbolTableRecord
100
AcDbRegAppTableRecord
  2
ACAD_DSTYLE_DIMRADIAL_EXTENSION
 70
     0
  0
APPID
  5
4C1
330
9
100
AcDbSymbolTableRecord
100
AcDbRegAppTableRecord
  2
GEVID1208999100
 70
     0
  0
APPID
  5
4C2
330
9
100
AcDbSymbolTableRecord
100
AcDbRegAppTableRecord
  2
GEVID1208999101
 70
     0
  0
APPID
  5
4C3
330
9
100
AcDbSymbolTableRecord
100
AcDbRegAppTableRecord
  2
GEVID1208999102
 70
     0
  0
APPID
  5
4C4
330
9
100
AcDbSymbolTableRecord
100
AcDbRegAppTableRecord
  2
GEVID1208999103
 70
     0
  0
APPID
  5
4C5
330
9
100
AcDbSymbolTableRecord
100
AcDbRegAppTableRecord
  2
GEVID1208999105
 70
     0
  0
APPID
  5
4C6
330
9
100
AcDbSymbolTableRecord
100
AcDbRegAppTableRecord
  2
GEVID1208999106
 70
     0
  0
APPID
  5
4C7
330
9
100
AcDbSymbolTableRecord
100
AcDbRegAppTableRecord
  2
GEVID1208999108
 70
     0
  0
APPID
  5
4C8
330
9
100
AcDbSymbolTableRecord
100
AcDbRegAppTableRecord
  2
GEVID1208999109
 70
     0
  0
APPID
  5
4C9
330
9
100
AcDbSymbolTableRecord
100
AcDbRegAppTableRecord
  2
GEVID1208999110
 70
     0
  0
APPID
  5
4CA
330
9
100
AcDbSymbolTableRecord
100
AcDbRegAppTableRecord
  2
GEVID1208999111
 70
     0
  0
APPID
  5
4CB
330
9
100
AcDbSymbolTableRecord
100
AcDbRegAppTableRecord
  2
GEVID1208999112
 70
     0
  0
APPID
  5
4CC
330
9
100
AcDbSymbolTableRecord
100
AcDbRegAppTableRecord
  2
GEVID1208999113
 70
     0
  0
APPID
  5
4CD
330
9
100
AcDbSymbolTableRecord
100
AcDbRegAppTableRecord
  2
GEVID1208999114
 70
     0
  0
APPID
  5
4CE
330
9
100
AcDbSymbolTableRecord
100
AcDbRegAppTableRecord
  2
GEVID1210218799
 70
     0
  0
APPID
  5
4CF
330
9
100
AcDbSymbolTableRecord
100
AcDbRegAppTableRecord
  2
GEVID1210218800
 70
     0
  0
APPID
  5
4D0
330
9
100
AcDbSymbolTableRecord
100
AcDbRegAppTableRecord
  2
GENIUS_GEFWELD_13
 70
     0
  0
APPID
  5
4D1
330
9
100
AcDbSymbolTableRecord
100
AcDbRegAppTableRecord
  2
GENIUS_GENOBJ-F-WELS_13
 70
     0
  0
APPID
  5
4D2
330
9
100
AcDbSymbolTableRecord
100
AcDbRegAppTableRecord
  2
AcadAnnotative
 70
     0
  0
APPID
  5
4D3
330
9
100
AcDbSymbolTableRecord
100
AcDbRegAppTableRecord
  2
GEVID1210145339
 70
     0
  0
APPID
  5
4D4
330
9
100
AcDbSymbolTableRecord
100
AcDbRegAppTableRecord
  2
ACAD_DSTYLE_DIMBREAK
 70
     0
  0
APPID
  5
4D5
330
9
100
AcDbSymbolTableRecord
100
AcDbRegAppTableRecord
  2
GEVID1210145340
 70
     0
  0
APPID
  5
4D6
330
9
100
AcDbSymbolTableRecord
100
AcDbRegAppTableRecord
  2
GEVID1210145341
 70
     0
  0
APPID
  5
4D7
330
9
100
AcDbSymbolTableRecord
100
AcDbRegAppTableRecord
  2
GEVID1210145342
 70
     0
  0
APPID
  5
4D8
330
9
100
AcDbSymbolTableRecord
100
AcDbRegAppTableRecord
  2
GEVID1210145343
 70
     0
  0
APPID
  5
4D9
330
9
100
AcDbSymbolTableRecord
100
AcDbRegAppTableRecord
  2
GEVID1210145344
 70
     0
  0
APPID
  5
4DA
330
9
100
AcDbSymbolTableRecord
100
AcDbRegAppTableRecord
  2
GEVID1210145345
 70
     0
  0
APPID
  5
4DB
330
9
100
AcDbSymbolTableRecord
100
AcDbRegAppTableRecord
  2
GEVID1210152816
 70
     0
  0
APPID
  5
4DC
330
9
100
AcDbSymbolTableRecord
100
AcDbRegAppTableRecord
  2
GEVID1210153850
 70
     0
  0
APPID
  5
4DD
330
9
100
AcDbSymbolTableRecord
100
AcDbRegAppTableRecord
  2
GEVID1210153851
 70
     0
  0
APPID
  5
4DE
330
9
100
AcDbSymbolTableRecord
100
AcDbRegAppTableRecord
  2
GEVID1210153852
 70
     0
  0
APPID
  5
4DF
330
9
100
AcDbSymbolTableRecord
100
AcDbRegAppTableRecord
  2
GEVID1210549898
 70
     0
  0
APPID
  5
4E0
330
9
100
AcDbSymbolTableRecord
100
AcDbRegAppTableRecord
  2
GEVID1210549899
 70
     0
  0
APPID
  5
4E1
330
9
100
AcDbSymbolTableRecord
100
AcDbRegAppTableRecord
  2
GEVID1210549900
 70
     0
  0
APPID
  5
4E2
330
9
100
AcDbSymbolTableRecord
100
AcDbRegAppTableRecord
  2
GEVID1210549901
 70
     0
  0
APPID
  5
4E3
330
9
100
AcDbSymbolTableRecord
100
AcDbRegAppTableRecord
  2
GEVID1210549902
 70
     0
  0
APPID
  5
4E4
330
9
100
AcDbSymbolTableRecord
100
AcDbRegAppTableRecord
  2
GEVID1210549903
 70
     0
  0
APPID
  5
4E5
330
9
100
AcDbSymbolTableRecord
100
AcDbRegAppTableRecord
  2
GEVID1210549904
 70
     0
  0
APPID
  5
4E6
330
9
100
AcDbSymbolTableRecord
100
AcDbRegAppTableRecord
  2
GEVID1210549905
 70
     0
  0
APPID
  5
4E7
330
9
100
AcDbSymbolTableRecord
100
AcDbRegAppTableRecord
  2
GEVID1210549906
 70
     0
  0
APPID
  5
4E8
330
9
100
AcDbSymbolTableRecord
100
AcDbRegAppTableRecord
  2
GEVID1210549907
 70
     0
  0
APPID
  5
4E9
330
9
100
AcDbSymbolTableRecord
100
AcDbRegAppTableRecord
  2
GEVID1210549908
 70
     0
  0
APPID
  5
4EA
330
9
100
AcDbSymbolTableRecord
100
AcDbRegAppTableRecord
  2
GEVID1210549909
 70
     0
  0
APPID
  5
4EB
330
9
100
AcDbSymbolTableRecord
100
AcDbRegAppTableRecord
  2
GEVID1210549910
 70
     0
  0
APPID
  5
4EC
330
9
100
AcDbSymbolTableRecord
100
AcDbRegAppTableRecord
  2
GEVID1210549911
 70
     0
  0
APPID
  5
4ED
330
9
100
AcDbSymbolTableRecord
100
AcDbRegAppTableRecord
  2
GEVID1210549912
 70
     0
  0
APPID
  5
4EE
330
9
100
AcDbSymbolTableRecord
100
AcDbRegAppTableRecord
  2
GEVID1210549913
 70
     0
  0
APPID
  5
4EF
330
9
100
AcDbSymbolTableRecord
100
AcDbRegAppTableRecord
  2
GEVID1210549914
 70
     0
  0
APPID
  5
4F0
330
9
100
AcDbSymbolTableRecord
100
AcDbRegAppTableRecord
  2
GEVID1210549915
 70
     0
  0
APPID
  5
4F1
330
9
100
AcDbSymbolTableRecord
100
AcDbRegAppTableRecord
  2
GEVID1210549916
 70
     0
  0
APPID
  5
4F2
330
9
100
AcDbSymbolTableRecord
100
AcDbRegAppTableRecord
  2
GEVID1210549917
 70
     0
  0
APPID
  5
4F3
330
9
100
AcDbSymbolTableRecord
100
AcDbRegAppTableRecord
  2
GENIUS_GENOBJ-N-CRS_13
 70
     0
  0
APPID
  5
4F4
330
9
100
AcDbSymbolTableRecord
100
AcDbRegAppTableRecord
  2
GEVID1210549918
 70
     0
  0
APPID
  5
4F5
330
9
100
AcDbSymbolTableRecord
100
AcDbRegAppTableRecord
  2
GENIUS_GENOBJ-N-CRC_13
 70
     0
  0
APPID
  5
4F6
330
9
100
AcDbSymbolTableRecord
100
AcDbRegAppTableRecord
  2
GENIUS_GENCRC_14
 70
     0
  0
APPID
  5
4F7
330
9
100
AcDbSymbolTableRecord
100
AcDbRegAppTableRecord
  2
GEVID1210549919
 70
     0
  0
APPID
  5
4F8
330
9
100
AcDbSymbolTableRecord
100
AcDbRegAppTableRecord
  2
GEVID1210549921
 70
     0
  0
APPID
  5
4F9
330
9
100
AcDbSymbolTableRecord
100
AcDbRegAppTableRecord
  2
GEVID1210549922
 70
     0
  0
APPID
  5
4FA
330
9
100
AcDbSymbolTableRecord
100
AcDbRegAppTableRecord
  2
GEVID1210635173
 70
     0
  0
APPID
  5
4FB
330
9
100
AcDbSymbolTableRecord
100
AcDbRegAppTableRecord
  2
GEVID1210635174
 70
     0
  0
APPID
  5
4FC
330
9
100
AcDbSymbolTableRecord
100
AcDbRegAppTableRecord
  2
GEVID1210635175
 70
     0
  0
APPID
  5
4FD
330
9
100
AcDbSymbolTableRecord
100
AcDbRegAppTableRecord
  2
GEVID1210635176
 70
     0
  0
APPID
  5
4FE
330
9
100
AcDbSymbolTableRecord
100
AcDbRegAppTableRecord
  2
GEVID1210635177
 70
     0
  0
APPID
  5
4FF
330
9
100
AcDbSymbolTableRecord
100
AcDbRegAppTableRecord
  2
GEVID1210635178
 70
     0
  0
APPID
  5
500
330
9
100
AcDbSymbolTableRecord
100
AcDbRegAppTableRecord
  2
GENIUS_GENIUS_GENBHEDTMP_13
 70
     0
  0
APPID
  5
501
330
9
100
AcDbSymbolTableRecord
100
AcDbRegAppTableRecord
  2
GEVID1210635179
 70
     0
  0
APPID
  5
502
330
9
100
AcDbSymbolTableRecord
100
AcDbRegAppTableRecord
  2
GEVID1210635180
 70
     0
  0
APPID
  5
503
330
9
100
AcDbSymbolTableRecord
100
AcDbRegAppTableRecord
  2
GEVID1210635181
 70
     0
  0
APPID
  5
504
330
9
100
AcDbSymbolTableRecord
100
AcDbRegAppTableRecord
  2
GEVID1210635182
 70
     0
  0
APPID
  5
505
330
9
100
AcDbSymbolTableRecord
100
AcDbRegAppTableRecord
  2
GEVID1210635184
 70
     0
  0
APPID
  5
506
330
9
100
AcDbSymbolTableRecord
100
AcDbRegAppTableRecord
  2
GEVID1210635185
 70
     0
  0
APPID
  5
507
330
9
100
AcDbSymbolTableRecord
100
AcDbRegAppTableRecord
  2
GEVID1210635186
 70
     0
  0
APPID
  5
508
330
9
100
AcDbSymbolTableRecord
100
AcDbRegAppTableRecord
  2
GEVID1210635187
 70
     0
  0
APPID
  5
509
330
9
100
AcDbSymbolTableRecord
100
AcDbRegAppTableRecord
  2
GEVID1210635188
 70
     0
  0
APPID
  5
50A
330
9
100
AcDbSymbolTableRecord
100
AcDbRegAppTableRecord
  2
GEVID1210635189
 70
     0
  0
APPID
  5
50B
330
9
100
AcDbSymbolTableRecord
100
AcDbRegAppTableRecord
  2
GEVID1210635190
 70
     0
  0
APPID
  5
50C
330
9
100
AcDbSymbolTableRecord
100
AcDbRegAppTableRecord
  2
GENIUS_GENREC_14
 70
     0
  0
APPID
  5
50D
330
9
100
AcDbSymbolTableRecord
100
AcDbRegAppTableRecord
  2
GENIUS_GENOBJ-N-REC_13
 70
     0
  0
APPID
  5
50E
330
9
100
AcDbSymbolTableRecord
100
AcDbRegAppTableRecord
  2
GEVID1210676655
 70
     0
  0
APPID
  5
50F
330
9
100
AcDbSymbolTableRecord
100
AcDbRegAppTableRecord
  2
GEVID1210676656
 70
     0
  0
APPID
  5
510
330
9
100
AcDbSymbolTableRecord
100
AcDbRegAppTableRecord
  2
GEVID1210676657
 70
     0
  0
APPID
  5
511
330
9
100
AcDbSymbolTableRecord
100
AcDbRegAppTableRecord
  2
GEVID1210676659
 70
     0
  0
APPID
  5
512
330
9
100
AcDbSymbolTableRecord
100
AcDbRegAppTableRecord
  2
GEVID1210676660
 70
     0
  0
APPID
  5
513
330
9
100
AcDbSymbolTableRecord
100
AcDbRegAppTableRecord
  2
GEVID1210676661
 70
     0
  0
APPID
  5
514
330
9
100
AcDbSymbolTableRecord
100
AcDbRegAppTableRecord
  2
GEVID1210676662
 70
     0
  0
APPID
  5
515
330
9
100
AcDbSymbolTableRecord
100
AcDbRegAppTableRecord
  2
GEVID1210721646
 70
     0
  0
APPID
  5
516
330
9
100
AcDbSymbolTableRecord
100
AcDbRegAppTableRecord
  2
GEVID1210721647
 70
     0
  0
APPID
  5
517
330
9
100
AcDbSymbolTableRecord
100
AcDbRegAppTableRecord
  2
GEVID1210721648
 70
     0
  0
APPID
  5
518
330
9
100
AcDbSymbolTableRecord
100
AcDbRegAppTableRecord
  2
GEVID1210721649
 70
     0
  0
APPID
  5
519
330
9
100
AcDbSymbolTableRecord
100
AcDbRegAppTableRecord
  2
GEVID1210721650
 70
     0
  0
APPID
  5
51A
330
9
100
AcDbSymbolTableRecord
100
AcDbRegAppTableRecord
  2
GEVID1210721651
 70
     0
  0
APPID
  5
51B
330
9
100
AcDbSymbolTableRecord
100
AcDbRegAppTableRecord
  2
GEVID1210721652
 70
     0
  0
APPID
  5
51C
330
9
100
AcDbSymbolTableRecord
100
AcDbRegAppTableRecord
  2
GEVID1210721653
 70
     0
  0
APPID
  5
51D
330
9
100
AcDbSymbolTableRecord
100
AcDbRegAppTableRecord
  2
PE_URL
 70
     0
  0
APPID
  5
51E
330
9
100
AcDbSymbolTableRecord
100
AcDbRegAppTableRecord
  2
GEVID1210825555
 70
     0
  0
APPID
  5
51F
330
9
100
AcDbSymbolTableRecord
100
AcDbRegAppTableRecord
  2
GEVID1210825556
 70
     0
  0
APPID
  5
520
330
9
100
AcDbSymbolTableRecord
100
AcDbRegAppTableRecord
  2
GEVID1210825557
 70
     0
  0
APPID
  5
521
330
9
100
AcDbSymbolTableRecord
100
AcDbRegAppTableRecord
  2
GEVID1210825558
 70
     0
  0
APPID
  5
522
330
9
100
AcDbSymbolTableRecord
100
AcDbRegAppTableRecord
  2
GEVID1210825559
 70
     0
  0
APPID
  5
523
330
9
100
AcDbSymbolTableRecord
100
AcDbRegAppTableRecord
  2
GEVID1210825560
 70
     0
  0
APPID
  5
524
330
9
100
AcDbSymbolTableRecord
100
AcDbRegAppTableRecord
  2
GEVID1210825561
 70
     0
  0
APPID
  5
525
330
9
100
AcDbSymbolTableRecord
100
AcDbRegAppTableRecord
  2
GEVID1210825562
 70
     0
  0
APPID
  5
526
330
9
100
AcDbSymbolTableRecord
100
AcDbRegAppTableRecord
  2
GEVID1210825563
 70
     0
  0
APPID
  5
527
330
9
100
AcDbSymbolTableRecord
100
AcDbRegAppTableRecord
  2
GEVID1210825564
 70
     0
  0
APPID
  5
528
330
9
100
AcDbSymbolTableRecord
100
AcDbRegAppTableRecord
  2
GEVID1210825565
 70
     0
  0
APPID
  5
529
330
9
100
AcDbSymbolTableRecord
100
AcDbRegAppTableRecord
  2
GEVID1210825566
 70
     0
  0
APPID
  5
52A
330
9
100
AcDbSymbolTableRecord
100
AcDbRegAppTableRecord
  2
GEVID1210825567
 70
     0
  0
APPID
  5
52B
330
9
100
AcDbSymbolTableRecord
100
AcDbRegAppTableRecord
  2
GENIUS_GENOBJ-N-ZOO_13
 70
     0
  0
APPID
  5
52C
330
9
100
AcDbSymbolTableRecord
100
AcDbRegAppTableRecord
  2
GENIUS_GENZOO_17
 70
     0
  0
APPID
  5
52D
330
9
100
AcDbSymbolTableRecord
100
AcDbRegAppTableRecord
  2
ACADANNOTATIVEDECOMPOSITION
 70
     0
  0
APPID
  5
52E
330
9
100
AcDbSymbolTableRecord
100
AcDbRegAppTableRecord
  2
GENIUS_GENOBJ-N-HTC_13
 70
     0
  0
APPID
  5
52F
330
9
100
AcDbSymbolTableRecord
100
AcDbRegAppTableRecord
  2
GENIUS_GENHATCH_13
 70
     0
  0
APPID
  5
530
330
9
100
AcDbSymbolTableRecord
100
AcDbRegAppTableRecord
  2
GEVID1210896020
 70
     0
  0
APPID
  5
531
330
9
100
AcDbSymbolTableRecord
100
AcDbRegAppTableRecord
  2
GEVID1210896021
 70
     0
  0
APPID
  5
532
330
9
100
AcDbSymbolTableRecord
100
AcDbRegAppTableRecord
  2
GEVID1209083540
 70
     0
  0
APPID
  5
533
330
9
100
AcDbSymbolTableRecord
100
AcDbRegAppTableRecord
  2
GEVMK
 70
     0
  0
APPID
  5
534
330
9
100
AcDbSymbolTableRecord
100
AcDbRegAppTableRecord
  2
GEVID1209083542
 70
     0
  0
APPID
  5
535
330
9
100
AcDbSymbolTableRecord
100
AcDbRegAppTableRecord
  2
GEVID1209083543
 70
     0
  0
APPID
  5
536
330
9
100
AcDbSymbolTableRecord
100
AcDbRegAppTableRecord
  2
GEVID1209083544
 70
     0
  0
APPID
  5
537
330
9
100
AcDbSymbolTableRecord
100
AcDbRegAppTableRecord
  2
GEVID1209083545
 70
     0
  0
APPID
  5
538
330
9
100
AcDbSymbolTableRecord
100
AcDbRegAppTableRecord
  2
GEVID1209083546
 70
     0
  0
APPID
  5
539
330
9
100
AcDbSymbolTableRecord
100
AcDbRegAppTableRecord
  2
GEVID1209083547
 70
     0
  0
APPID
  5
53A
330
9
100
AcDbSymbolTableRecord
100
AcDbRegAppTableRecord
  2
GEVID1209083548
 70
     0
  0
APPID
  5
53B
330
9
100
AcDbSymbolTableRecord
100
AcDbRegAppTableRecord
  2
GEVID1209083549
 70
     0
  0
APPID
  5
53C
330
9
100
AcDbSymbolTableRecord
100
AcDbRegAppTableRecord
  2
GEVID1209083550
 70
     0
  0
APPID
  5
53D
330
9
100
AcDbSymbolTableRecord
100
AcDbRegAppTableRecord
  2
GEVID1209083551
 70
     0
  0
APPID
  5
53E
330
9
100
AcDbSymbolTableRecord
100
AcDbRegAppTableRecord
  2
GEVID1209083552
 70
     0
  0
APPID
  5
53F
330
9
100
AcDbSymbolTableRecord
100
AcDbRegAppTableRecord
  2
GEVID1209083553
 70
     0
  0
APPID
  5
540
330
9
100
AcDbSymbolTableRecord
100
AcDbRegAppTableRecord
  2
GEVID1210896022
 70
     0
  0
APPID
  5
541
330
9
100
AcDbSymbolTableRecord
100
AcDbRegAppTableRecord
  2
GEVID1211508364
 70
     0
  0
APPID
  5
542
330
9
100
AcDbSymbolTableRecord
100
AcDbRegAppTableRecord
  2
GEVID1211414908
 70
     0
  0
APPID
  5
543
330
9
100
AcDbSymbolTableRecord
100
AcDbRegAppTableRecord
  2
GEVID1211414909
 70
     0
  0
APPID
  5
544
330
9
100
AcDbSymbolTableRecord
100
AcDbRegAppTableRecord
  2
GEVID1211508359
 70
     0
  0
APPID
  5
545
330
9
100
AcDbSymbolTableRecord
100
AcDbRegAppTableRecord
  2
GEVID1211508360
 70
     0
  0
APPID
  5
546
330
9
100
AcDbSymbolTableRecord
100
AcDbRegAppTableRecord
  2
GEVID1211508361
 70
     0
  0
APPID
  5
547
330
9
100
AcDbSymbolTableRecord
100
AcDbRegAppTableRecord
  2
GEVID1211508362
 70
     0
  0
APPID
  5
548
330
9
100
AcDbSymbolTableRecord
100
AcDbRegAppTableRecord
  2
GEVID1211508363
 70
     0
  0
APPID
  5
549
330
9
100
AcDbSymbolTableRecord
100
AcDbRegAppTableRecord
  2
GEVID1211878469
 70
     0
  0
APPID
  5
54A
330
9
100
AcDbSymbolTableRecord
100
AcDbRegAppTableRecord
  2
GEVID1212642819
 70
     0
  0
APPID
  5
54B
330
9
100
AcDbSymbolTableRecord
100
AcDbRegAppTableRecord
  2
GEVID1212642820
 70
     0
  0
APPID
  5
54C
330
9
100
AcDbSymbolTableRecord
100
AcDbRegAppTableRecord
  2
GEVID1212642821
 70
     0
  0
APPID
  5
54D
330
9
100
AcDbSymbolTableRecord
100
AcDbRegAppTableRecord
  2
GEVID1212642822
 70
     0
  0
APPID
  5
54E
330
9
100
AcDbSymbolTableRecord
100
AcDbRegAppTableRecord
  2
GEVID1212642823
 70
     0
  0
APPID
  5
54F
330
9
100
AcDbSymbolTableRecord
100
AcDbRegAppTableRecord
  2
GEVID1212642825
 70
     0
  0
APPID
  5
550
330
9
100
AcDbSymbolTableRecord
100
AcDbRegAppTableRecord
  2
GEVID1212642826
 70
     0
  0
APPID
  5
551
330
9
100
AcDbSymbolTableRecord
100
AcDbRegAppTableRecord
  2
GEVID1212642827
 70
     0
  0
APPID
  5
552
330
9
100
AcDbSymbolTableRecord
100
AcDbRegAppTableRecord
  2
GEVID1212642828
 70
     0
  0
APPID
  5
553
330
9
100
AcDbSymbolTableRecord
100
AcDbRegAppTableRecord
  2
GEVID1212642831
 70
     0
  0
APPID
  5
554
330
9
100
AcDbSymbolTableRecord
100
AcDbRegAppTableRecord
  2
GEVID1212642834
 70
     0
  0
APPID
  5
555
330
9
100
AcDbSymbolTableRecord
100
AcDbRegAppTableRecord
  2
GEVID1212642835
 70
     0
  0
APPID
  5
556
330
9
100
AcDbSymbolTableRecord
100
AcDbRegAppTableRecord
  2
GEVID1212642836
 70
     0
  0
APPID
  5
557
330
9
100
AcDbSymbolTableRecord
100
AcDbRegAppTableRecord
  2
GEVID1212642837
 70
     0
  0
APPID
  5
558
330
9
100
AcDbSymbolTableRecord
100
AcDbRegAppTableRecord
  2
GEVID1212642839
 70
     0
  0
APPID
  5
559
330
9
100
AcDbSymbolTableRecord
100
AcDbRegAppTableRecord
  2
GEVID1212642840
 70
     0
  0
APPID
  5
55A
330
9
100
AcDbSymbolTableRecord
100
AcDbRegAppTableRecord
  2
GEVID1212642841
 70
     0
  0
APPID
  5
55B
330
9
100
AcDbSymbolTableRecord
100
AcDbRegAppTableRecord
  2
GEVID1212655312
 70
     0
  0
APPID
  5
55C
330
9
100
AcDbSymbolTableRecord
100
AcDbRegAppTableRecord
  2
GEVID1212655313
 70
     0
  0
APPID
  5
55D
330
9
100
AcDbSymbolTableRecord
100
AcDbRegAppTableRecord
  2
GEVID1212656533
 70
     0
  0
APPID
  5
55E
330
9
100
AcDbSymbolTableRecord
100
AcDbRegAppTableRecord
  2
GEVID1212656534
 70
     0
  0
APPID
  5
55F
330
9
100
AcDbSymbolTableRecord
100
AcDbRegAppTableRecord
  2
GEVID1212656535
 70
     0
  0
APPID
  5
560
330
9
100
AcDbSymbolTableRecord
100
AcDbRegAppTableRecord
  2
GEVID1212656536
 70
     0
  0
APPID
  5
561
330
9
100
AcDbSymbolTableRecord
100
AcDbRegAppTableRecord
  2
GEVID1212656538
 70
     0
  0
APPID
  5
562
330
9
100
AcDbSymbolTableRecord
100
AcDbRegAppTableRecord
  2
GEVID1212656541
 70
     0
  0
APPID
  5
563
330
9
100
AcDbSymbolTableRecord
100
AcDbRegAppTableRecord
  2
GEVID1212656543
 70
     0
  0
APPID
  5
564
330
9
100
AcDbSymbolTableRecord
100
AcDbRegAppTableRecord
  2
GENIUS_GENOBJ-F-PFASSM_13
 70
     0
  0
APPID
  5
565
330
9
100
AcDbSymbolTableRecord
100
AcDbRegAppTableRecord
  2
GEVID1212656544
 70
     0
  0
APPID
  5
566
330
9
100
AcDbSymbolTableRecord
100
AcDbRegAppTableRecord
  2
GEVID1212656545
 70
     0
  0
APPID
  5
567
330
9
100
AcDbSymbolTableRecord
100
AcDbRegAppTableRecord
  2
GEVID1212656546
 70
     0
  0
APPID
  5
568
330
9
100
AcDbSymbolTableRecord
100
AcDbRegAppTableRecord
  2
GEVID1212656547
 70
     0
  0
APPID
  5
569
330
9
100
AcDbSymbolTableRecord
100
AcDbRegAppTableRecord
  2
GEVID1212656548
 70
     0
  0
APPID
  5
56A
330
9
100
AcDbSymbolTableRecord
100
AcDbRegAppTableRecord
  2
GEVID1212656549
 70
     0
  0
APPID
  5
56B
330
9
100
AcDbSymbolTableRecord
100
AcDbRegAppTableRecord
  2
GEVID1212656550
 70
     0
  0
APPID
  5
56C
330
9
100
AcDbSymbolTableRecord
100
AcDbRegAppTableRecord
  2
GEVID1212656552
 70
     0
  0
APPID
  5
56D
330
9
100
AcDbSymbolTableRecord
100
AcDbRegAppTableRecord
  2
GEVID1212656553
 70
     0
  0
APPID
  5
56E
330
9
100
AcDbSymbolTableRecord
100
AcDbRegAppTableRecord
  2
GEVID1212656554
 70
     0
  0
APPID
  5
56F
330
9
100
AcDbSymbolTableRecord
100
AcDbRegAppTableRecord
  2
GEVID1212656555
 70
     0
  0
APPID
  5
570
330
9
100
AcDbSymbolTableRecord
100
AcDbRegAppTableRecord
  2
GEVID1212656556
 70
     0
  0
APPID
  5
571
330
9
100
AcDbSymbolTableRecord
100
AcDbRegAppTableRecord
  2
GEVID1212656557
 70
     0
  0
APPID
  5
572
330
9
100
AcDbSymbolTableRecord
100
AcDbRegAppTableRecord
  2
GEVID1212656559
 70
     0
  0
APPID
  5
573
330
9
100
AcDbSymbolTableRecord
100
AcDbRegAppTableRecord
  2
GEVID1212656560
 70
     0
  0
APPID
  5
574
330
9
100
AcDbSymbolTableRecord
100
AcDbRegAppTableRecord
  2
GEVID1212656561
 70
     0
  0
APPID
  5
575
330
9
100
AcDbSymbolTableRecord
100
AcDbRegAppTableRecord
  2
GEVID1212656562
 70
     0
  0
APPID
  5
576
330
9
100
AcDbSymbolTableRecord
100
AcDbRegAppTableRecord
  2
GEVID1212656563
 70
     0
  0
APPID
  5
577
330
9
100
AcDbSymbolTableRecord
100
AcDbRegAppTableRecord
  2
GEVID1212711781
 70
     0
  0
APPID
  5
578
330
9
100
AcDbSymbolTableRecord
100
AcDbRegAppTableRecord
  2
GEVID1212711782
 70
     0
  0
APPID
  5
579
330
9
100
AcDbSymbolTableRecord
100
AcDbRegAppTableRecord
  2
GEVID1212711783
 70
     0
  0
APPID
  5
57A
330
9
100
AcDbSymbolTableRecord
100
AcDbRegAppTableRecord
  2
GEVID1212711784
 70
     0
  0
APPID
  5
57B
330
9
100
AcDbSymbolTableRecord
100
AcDbRegAppTableRecord
  2
GEVID1212711788
 70
     0
  0
APPID
  5
57C
330
9
100
AcDbSymbolTableRecord
100
AcDbRegAppTableRecord
  2
GEVID1212711789
 70
     0
  0
APPID
  5
57D
330
9
100
AcDbSymbolTableRecord
100
AcDbRegAppTableRecord
  2
GEVID1212711790
 70
     0
  0
APPID
  5
57E
330
9
100
AcDbSymbolTableRecord
100
AcDbRegAppTableRecord
  2
GEVID1212711791
 70
     0
  0
APPID
  5
57F
330
9
100
AcDbSymbolTableRecord
100
AcDbRegAppTableRecord
  2
GEVID1212711792
 70
     0
  0
APPID
  5
580
330
9
100
AcDbSymbolTableRecord
100
AcDbRegAppTableRecord
  2
GEVID1212711793
 70
     0
  0
APPID
  5
581
330
9
100
AcDbSymbolTableRecord
100
AcDbRegAppTableRecord
  2
GEVID1212711794
 70
     0
  0
APPID
  5
582
330
9
100
AcDbSymbolTableRecord
100
AcDbRegAppTableRecord
  2
GEVID1212711795
 70
     0
  0
APPID
  5
583
330
9
100
AcDbSymbolTableRecord
100
AcDbRegAppTableRecord
  2
GEVID1212711797
 70
     0
  0
APPID
  5
584
330
9
100
AcDbSymbolTableRecord
100
AcDbRegAppTableRecord
  2
GEVID1212711798
 70
     0
  0
APPID
  5
585
330
9
100
AcDbSymbolTableRecord
100
AcDbRegAppTableRecord
  2
GEVID1212711799
 70
     0
  0
APPID
  5
586
330
9
100
AcDbSymbolTableRecord
100
AcDbRegAppTableRecord
  2
GEVID1212711800
 70
     0
  0
APPID
  5
587
330
9
100
AcDbSymbolTableRecord
100
AcDbRegAppTableRecord
  2
GEVID1212711801
 70
     0
  0
APPID
  5
588
330
9
100
AcDbSymbolTableRecord
100
AcDbRegAppTableRecord
  2
GEVID1212711802
 70
     0
  0
APPID
  5
589
330
9
100
AcDbSymbolTableRecord
100
AcDbRegAppTableRecord
  2
GEVID1212711803
 70
     0
  0
APPID
  5
58A
330
9
100
AcDbSymbolTableRecord
100
AcDbRegAppTableRecord
  2
GEVID1212711804
 70
     0
  0
APPID
  5
58B
330
9
100
AcDbSymbolTableRecord
100
AcDbRegAppTableRecord
  2
GEVID1212711805
 70
     0
  0
APPID
  5
58C
330
9
100
AcDbSymbolTableRecord
100
AcDbRegAppTableRecord
  2
GEVID1212711806
 70
     0
  0
APPID
  5
58D
330
9
100
AcDbSymbolTableRecord
100
AcDbRegAppTableRecord
  2
GEVID1212711807
 70
     0
  0
APPID
  5
58E
330
9
100
AcDbSymbolTableRecord
100
AcDbRegAppTableRecord
  2
GEVID1212711808
 70
     0
  0
APPID
  5
58F
330
9
100
AcDbSymbolTableRecord
100
AcDbRegAppTableRecord
  2
GEVID1212711809
 70
     0
  0
APPID
  5
590
330
9
100
AcDbSymbolTableRecord
100
AcDbRegAppTableRecord
  2
GEVID1212711810
 70
     0
  0
APPID
  5
591
330
9
100
AcDbSymbolTableRecord
100
AcDbRegAppTableRecord
  2
GEVID1212711811
 70
     0
  0
APPID
  5
90A
330
9
100
AcDbSymbolTableRecord
100
AcDbRegAppTableRecord
  2
GENIUS_GENTRA_14
 70
     0
  0
APPID
  5
919
330
9
100
AcDbSymbolTableRecord
100
AcDbRegAppTableRecord
  2
GENIUS_GENOBJ-N-TIT_13
 70
     0
  0
APPID
  5
91A
330
9
100
AcDbSymbolTableRecord
100
AcDbRegAppTableRecord
  2
GENIUS_GENTITLE_13
 70
     0
  0
APPID
  5
949
330
9
100
AcDbSymbolTableRecord
100
AcDbRegAppTableRecord
  2
GENIUS_GENBLLY_14
 70
     0
  0
APPID
  5
DDD
330
9
100
AcDbSymbolTableRecord
100
AcDbRegAppTableRecord
  2
GEVID1213165152
 70
     0
  0
APPID
  5
12F9
330
9
100
AcDbSymbolTableRecord
100
AcDbRegAppTableRecord
  2
AcDbDynamicBlockTrueName
 70
     0
  0
APPID
  5
12FA
330
9
100
AcDbSymbolTableRecord
100
AcDbRegAppTableRecord
  2
ACDBBLOCKREPETAG
 70
     0
  0
APPID
  5
1C15
330
9
100
AcDbSymbolTableRecord
100
AcDbRegAppTableRecord
  2
GEVID1214872427
 70
     0
  0
APPID
  5
1C2A
330
9
100
AcDbSymbolTableRecord
100
AcDbRegAppTableRecord
  2
GEVID1214872428
 70
     0
  0
APPID
  5
1C2F
330
9
100
AcDbSymbolTableRecord
100
AcDbRegAppTableRecord
  2
GEVID1214872429
 70
     0
  0
APPID
  5
1C33
330
9
100
AcDbSymbolTableRecord
100
AcDbRegAppTableRecord
  2
GEVID1214872430
 70
     0
  0
APPID
  5
1C3F
330
9
100
AcDbSymbolTableRecord
100
AcDbRegAppTableRecord
  2
GEVID1214872432
 70
     0
  0
APPID
  5
1C4E
330
9
100
AcDbSymbolTableRecord
100
AcDbRegAppTableRecord
  2
GEVID1214872433
 70
     0
  0
APPID
  5
20DC
330
9
100
AcDbSymbolTableRecord
100
AcDbRegAppTableRecord
  2
AcDbDynamicBlockGUID
 70
     0
  0
APPID
  5
20FD
330
9
100
AcDbSymbolTableRecord
100
AcDbRegAppTableRecord
  2
GENIUS_GENOBJ-N-REV_13
 70
     0
  0
APPID
  5
20FE
330
9
100
AcDbSymbolTableRecord
100
AcDbRegAppTableRecord
  2
GENIUS_GENOBJ-N-RSSYM_13
 70
     0
  0
APPID
  5
20FF
330
9
100
AcDbSymbolTableRecord
100
AcDbRegAppTableRecord
  2
GENIUS_GENSYMENT_13
 70
     0
  0
APPID
  5
2100
330
9
100
AcDbSymbolTableRecord
100
AcDbRegAppTableRecord
  2
GENIUS_GENSCSYM_13
 70
     0
  0
APPID
  5
583D
330
9
100
AcDbSymbolTableRecord
100
AcDbRegAppTableRecord
  2
GEVID1239790370
 70
     0
  0
APPID
  5
584A
330
9
100
AcDbSymbolTableRecord
100
AcDbRegAppTableRecord
  2
GEVID1239790371
 70
     0
  0
APPID
  5
6075
330
9
100
AcDbSymbolTableRecord
100
AcDbRegAppTableRecord
  2
GEVID1239790372
 70
     0
  0
APPID
  5
6079
330
9
100
AcDbSymbolTableRecord
100
AcDbRegAppTableRecord
  2
GEVID1239790373
 70
     0
  0
ENDTAB
  0
TABLE
  2
DIMSTYLE
  5
A
330
0
100
AcDbSymbolTable
 70
    29
100
AcDbDimStyleTable
 71
     1
340
5AB
  0
DIMSTYLE
105
5AB
330
A
100
AcDbSymbolTableRecord
100
AcDbDimStyleTableRecord
  2
SEISA
 70
     0
  4
"
 40
8.0
 41
2.5
 42
0.625
 43
10.0
 44
0.625
 47
0.1
 48
0.1
 73
     0
 74
     0
 77
     3
 78
     8
 79
     2
 90
     1
140
3.5
141
0.0
143
0.0393701
146
0.71
147
1.5
172
     1
176
     3
177
     3
178
     3
271
     2
272
     2
283
     0
286
     8
340
5D5
341
69
342
69
371
    -1
372
    -1
1001
ACAD_DSTYLE_DIMJAG
1070
   388
1040
1.5
1001
ACAD_DSTYLE_DIMTALN
1070
   392
1070
     1
  0
DIMSTYLE
105
5E9
102
{ACAD_REACTORS
330
589C
330
58F9
330
5944
330
595C
330
5974
330
5AD3
330
5AFD
330
5B15
330
5BC0
330
5BDC
330
5BF8
330
5C7E
330
73EB
330
7415
102
}
330
A
100
AcDbSymbolTableRecord
100
AcDbDimStyleTableRecord
  2
SEISA$0
 70
     0
  4
"
 40
8.0
 41
2.5
 42
0.625
 43
10.0
 44
0.625
 47
0.1
 48
0.1
 73
     0
 74
     0
 77
     3
 78
     8
 79
     2
 90
     1
140
3.5
141
0.0
143
0.0393701
146
0.71
147
1.5
172
     1
176
     3
177
     3
178
     3
271
     2
272
     2
283
     0
286
     8
340
5D5
341
69
342
69
371
    -1
372
    -1
  0
DIMSTYLE
105
78B8
330
A
100
AcDbSymbolTableRecord
100
AcDbDimStyleTableRecord
  2
AM_ISO
 70
     0
  4
"
 41
2.5
 42
1.0
 43
10.0
 44
1.0
 47
0.1
 48
0.1
 73
     0
 74
     0
 77
     1
 78
     8
 79
     2
 90
     1
140
3.5
141
0.0
143
0.0393701
146
0.71
147
1.5
172
     1
176
   256
177
   256
178
     2
271
     2
272
     3
274
     4
283
     0
284
     8
340
11
371
    -1
372
    -1
  0
DIMSTYLE
105
78B9
330
A
100
AcDbSymbolTableRecord
100
AcDbDimStyleTableRecord
  2
AM_ISO$3
 70
     0
  4
"
 41
2.5
 42
1.0
 43
10.0
 44
1.0
 47
0.1
 48
0.1
 73
     0
 77
     1
 78
     8
 79
     2
 90
     1
140
3.5
141
0.0
143
0.0393701
146
0.71
147
1.5
176
   256
177
   256
178
     2
271
     2
272
     3
274
     4
283
     0
284
     8
288
     1
289
     0
340
11
371
    -1
372
    -1
  0
DIMSTYLE
105
78BA
330
A
100
AcDbSymbolTableRecord
100
AcDbDimStyleTableRecord
  2
AM_ISO$4
 70
     0
  4
"
 41
2.5
 42
1.0
 43
10.0
 44
1.0
 47
0.1
 48
0.1
 73
     0
 77
     1
 78
     8
 79
     2
 90
     1
140
3.5
141
0.0
143
0.0393701
146
0.71
147
1.5
176
   256
177
   256
178
     2
271
     2
272
     3
274
     4
283
     0
284
     8
288
     1
289
     0
340
11
371
    -1
372
    -1
  0
DIMSTYLE
105
78BB
330
A
100
AcDbSymbolTableRecord
100
AcDbDimStyleTableRecord
  2
AM_ISO$6
 70
     0
  4
"
 41
2.5
 42
1.0
 43
10.0
 44
1.0
 47
0.1
 48
0.1
 73
     0
 74
     0
 78
     8
 79
     2
 90
     1
140
3.5
141
0.0
143
0.0393701
146
0.71
147
1.5
172
     1
176
   256
177
   256
178
     2
271
     2
272
     3
274
     4
283
     0
284
     8
340
11
371
    -1
372
    -1
  0
DIMSTYLE
105
78BC
330
A
100
AcDbSymbolTableRecord
100
AcDbDimStyleTableRecord
  2
AM_ISO$7
 70
     0
  4
"
 41
2.5
 42
1.0
 43
10.0
 44
1.0
 47
0.1
 48
0.1
 73
     0
 74
     0
 77
     1
 78
     8
 79
     2
 90
     1
140
5.0
141
0.0
143
0.0393701
146
0.71
147
1.5
172
     1
176
   256
177
   256
178
     2
271
     2
272
     3
274
     4
283
     0
284
     8
340
11
371
    -1
372
    -1
  0
DIMSTYLE
105
78BD
330
A
100
AcDbSymbolTableRecord
100
AcDbDimStyleTableRecord
  2
AM_ISO$SF
 70
     0
  4
"
 41
2.5
 42
1.0
 43
10.0
 44
1.0
 47
0.1
 48
0.1
 73
     0
 74
     0
 75
     1
 76
     1
 77
     1
 78
     8
 79
     2
 90
     1
140
3.5
141
0.0
143
0.0393701
146
0.71
147
1.5
172
     1
176
   256
177
   256
178
     2
271
     2
272
     3
274
     4
283
     0
284
     8
340
11
371
    -1
372
    -1
  0
DIMSTYLE
105
78BE
330
A
100
AcDbSymbolTableRecord
100
AcDbDimStyleTableRecord
  2
AM_ISO$SH
 70
     0
  4
"
 41
2.5
 42
1.0
 43
10.0
 44
1.0
 47
0.1
 48
0.1
 73
     0
 74
     0
 75
     1
 76
     1
 77
     1
 78
     8
 79
     2
 90
     1
140
3.5
141
0.0
143
0.0393701
144
2.0
146
0.71
147
1.5
172
     1
173
     1
176
   256
177
   256
178
     2
271
     2
272
     3
274
     4
283
     0
284
     8
340
11
343
74
371
    -1
372
    -1
  0
ENDTAB
  0
TABLE
  2
BLOCK_RECORD
  5
1
330
0
100
AcDbSymbolTable
 70
    31
  0
BLOCK_RECORD
  5
1F
102
{ACAD_XDICTIONARY
360
82
102
}
330
1
100
AcDbSymbolTableRecord
100
AcDbBlockTableRecord
  2
*Model_Space
340
22
 70
     0
280
     1
281
     0
  0
BLOCK_RECORD
  5
1B
330
1
100
AcDbSymbolTableRecord
100
AcDbBlockTableRecord
  2
*Paper_Space
340
1E
 70
     0
280
     1
281
     0
  0
BLOCK_RECORD
  5
23
330
1
100
AcDbSymbolTableRecord
100
AcDbBlockTableRecord
  2
*Paper_Space0
340
26
 70
     0
280
     1
281
     0
  0
BLOCK_RECORD
  5
69
330
1
100
AcDbSymbolTableRecord
100
AcDbBlockTableRecord
  2
_Open30
340
0
102
{BLKREFS
331
65CF
331
65D0
331
65EC
331
65ED
331
65F8
331
65F9
331
6607
331
6608
331
6610
331
6611
331
6619
331
661A
331
6625
331
6630
331
665C
331
665D
331
72D4
331
72D5
331
72DD
331
72DE
331
75CA
331
75CB
331
7802
331
7803
331
780B
331
780C
102
}
 70
     0
280
     1
281
     0
  0
BLOCK_RECORD
  5
74
330
1
100
AcDbSymbolTableRecord
100
AcDbBlockTableRecord
  2
GENAXEH
340
0
 70
     0
280
     1
281
     0
  0
BLOCK_RECORD
  5
3BAC
330
1
100
AcDbSymbolTableRecord
100
AcDbBlockTableRecord
  2
GENDOT
340
0
102
{BLKREFS
331
6624
331
662F
102
}
 70
     0
280
     1
281
     0
  0
BLOCK_RECORD
  5
4D09
102
{ACAD_XDICTIONARY
360
4D34
102
}
330
1
100
AcDbSymbolTableRecord
100
AcDbBlockTableRecord
  2
ロッカクアナツキプラグA R3／4
340
0
310
2800000020000000200000000100080000000000000400000000000000000000000000000000000000000000000080000080000000808000800000008000800080800000C0C0C000C0DCC000F0CAA6000020400000206000002080000020A0000020C0000020E00000400000004020000040400000406000004080000040A0
310
000040C0000040E00000600000006020000060400000606000006080000060A0000060C0000060E00000800000008020000080400000806000008080000080A0000080C0000080E00000A0000000A0200000A0400000A0600000A0800000A0A00000A0C00000A0E00000C0000000C0200000C0400000C0600000C0800000C0
310
A00000C0C00000C0E00000E0000000E0200000E0400000E0600000E0800000E0A00000E0C00000E0E00040000000400020004000400040006000400080004000A0004000C0004000E00040200000402020004020400040206000402080004020A0004020C0004020E000404000004040200040404000404060004040800040
310
40A0004040C0004040E00040600000406020004060400040606000406080004060A0004060C0004060E00040800000408020004080400040806000408080004080A0004080C0004080E00040A0000040A0200040A0400040A0600040A0800040A0A00040A0C00040A0E00040C0000040C0200040C0400040C0600040C08000
310
40C0A00040C0C00040C0E00040E0000040E0200040E0400040E0600040E0800040E0A00040E0C00040E0E00080000000800020008000400080006000800080008000A0008000C0008000E00080200000802020008020400080206000802080008020A0008020C0008020E00080400000804020008040400080406000804080
310
008040A0008040C0008040E00080600000806020008060400080606000806080008060A0008060C0008060E00080800000808020008080400080806000808080008080A0008080C0008080E00080A0000080A0200080A0400080A0600080A0800080A0A00080A0C00080A0E00080C0000080C0200080C0400080C0600080C0
310
800080C0A00080C0C00080C0E00080E0000080E0200080E0400080E0600080E0800080E0A00080E0C00080E0E000C0000000C0002000C0004000C0006000C0008000C000A000C000C000C000E000C0200000C0202000C0204000C0206000C0208000C020A000C020C000C020E000C0400000C0402000C0404000C0406000C0
310
408000C040A000C040C000C040E000C0600000C0602000C0604000C0606000C0608000C060A000C060C000C060E000C0800000C0802000C0804000C0806000C0808000C080A000C080C000C080E000C0A00000C0A02000C0A04000C0A06000C0A08000C0A0A000C0A0C000C0A0E000C0C00000C0C02000C0C04000C0C06000
310
C0C08000C0C0A000F0FBFF00A4A0A000808080000000FF0000FF000000FFFF00FF000000FF00FF00FFFF0000FFFFFF0000000000000000000000000000000000000000000000000000000000000000000000000000000000000000000000000000000000000000000000000000000000000000000000000000000000000000
310
00F900000000000000000000000000000000000000000000000000000000000000F900000000000000000000000000000000000000000000000000000000000000F900000000000000000000000000000000000000000000000000000000000000F90000000000000000000000000000000000000000000000000000000000
310
0000F900000000000000000000000000000000000000000000000000000000000000F900000000000000000000000000000000000000000000FFFFFFFFFFFFFFFFFFFFFFFFFFFFFFFFFFFF000000000000000000000000FFFF000000000000000000F90000000000000000FFFF0000000000000000FEFF0000000000000000
310
000000F900000000000000000000FFFE0000000000FFFEFFFFFFFFFFFFFFFFFFFFFFFFF9FFFFFFFFFFFFFFFFFFFFFFFEFF00000000FFFE000000000000000000000000F90000000000000000000000FEFF00000000FFFE000000000000000000000000F90000000000000000000000FEFF00000000FFFE0000000000000000
310
00000000F90000000000000000000000FEFF00000000FFFE000000000000000000000000F90000000000000000000000FEFF00000000FFFE000000000000000000000000F90000000000000000000000FEFF00000000FFFE000000000000000000000000F90000000000000000000000FEFF000000FF00FE00000000000000
310
0000000000F90000000000000000000000FE00FF0000FF00FE000000000000000000000000F90000000000000000000000FE00FF0000FF00FE000000000000000000000000F90000000000000000000000FE00FF0000FF00FE000000000000000000000000F90000000000000000000000FE00FF0000FF00FE000000000000
310
000000000000F90000000000000000000000FE00FF0000FF00FE000000000000000000000000F90000000000000000000000FE00FF0000FFFFFEFFFFFFFFFFFFFFFFFFFFFFFFF9FFFFFFFFFFFFFFFFFFFFFFFEFFFF000000FFFF000000000000000000000000F90000000000000000000000FEFF000000000000FF00000000
310
00000000000000F900000000000000000000FF0000000000000000000000000000000000000000F900000000000000000000000000000000000000000000000000000000000000F900000000000000000000000000000000000000000000000000000000000000F90000000000000000000000000000000000000000000000
310
0000000000000000000000000000000000000000000000000000000000000000000000000000000000000000000000000000000000000000
102
{BLKREFS
331
4DF1
102
}
 70
     4
280
     1
281
     0
  0
BLOCK_RECORD
  5
4DB5
102
{ACAD_XDICTIONARY
360
4E70
102
}
330
1
100
AcDbSymbolTableRecord
100
AcDbBlockTableRecord
  2
ケースＡ CCMH630
340
0
310
2800000020000000200000000100080000000000000400000000000000000000000000000000000000000000000080000080000000808000800000008000800080800000C0C0C000C0DCC000F0CAA6000020400000206000002080000020A0000020C0000020E00000400000004020000040400000406000004080000040A0
310
000040C0000040E00000600000006020000060400000606000006080000060A0000060C0000060E00000800000008020000080400000806000008080000080A0000080C0000080E00000A0000000A0200000A0400000A0600000A0800000A0A00000A0C00000A0E00000C0000000C0200000C0400000C0600000C0800000C0
310
A00000C0C00000C0E00000E0000000E0200000E0400000E0600000E0800000E0A00000E0C00000E0E00040000000400020004000400040006000400080004000A0004000C0004000E00040200000402020004020400040206000402080004020A0004020C0004020E000404000004040200040404000404060004040800040
310
40A0004040C0004040E00040600000406020004060400040606000406080004060A0004060C0004060E00040800000408020004080400040806000408080004080A0004080C0004080E00040A0000040A0200040A0400040A0600040A0800040A0A00040A0C00040A0E00040C0000040C0200040C0400040C0600040C08000
310
40C0A00040C0C00040C0E00040E0000040E0200040E0400040E0600040E0800040E0A00040E0C00040E0E00080000000800020008000400080006000800080008000A0008000C0008000E00080200000802020008020400080206000802080008020A0008020C0008020E00080400000804020008040400080406000804080
310
008040A0008040C0008040E00080600000806020008060400080606000806080008060A0008060C0008060E00080800000808020008080400080806000808080008080A0008080C0008080E00080A0000080A0200080A0400080A0600080A0800080A0A00080A0C00080A0E00080C0000080C0200080C0400080C0600080C0
310
800080C0A00080C0C00080C0E00080E0000080E0200080E0400080E0600080E0800080E0A00080E0C00080E0E000C0000000C0002000C0004000C0006000C0008000C000A000C000C000C000E000C0200000C0202000C0204000C0206000C0208000C020A000C020C000C020E000C0400000C0402000C0404000C0406000C0
310
408000C040A000C040C000C040E000C0600000C0602000C0604000C0606000C0608000C060A000C060C000C060E000C0800000C0802000C0804000C0806000C0808000C080A000C080C000C080E000C0A00000C0A02000C0A04000C0A06000C0A08000C0A0A000C0A0C000C0A0E000C0C00000C0C02000C0C04000C0C06000
310
C0C08000C0C0A000F0FBFF00A4A0A000808080000000FF0000FF000000FFFF00FF000000FF00FF00FFFF0000FFFFFF000000000000000000000000000000000000000000000000000000000000000000000000000000000000000000FFFFFF0000000000000000000000000000000000000000000000000000000000FF00FF
310
0000000000000000000000000000000000000000000000000000000000FF00FF0000000000FFFF00000000000000000000000000000000000000000000FF00FFFFFFFFFFFFFFFF00000000000000000000000000000000000000000000FF00FF0000000000FFFF00000000000000000000000000000000000000000000FF00
310
FF0000000000FFFF00000000000000000000000000000000000000000000FF00FF0000000000FFFF00000000000000000000000000000000000000000000FF00FF0000000000FFFF00000000000000000000000000000000000000000000FF00FF0000000000FFFF00000000000000000000000000000000000000000000FF
310
00FF0000000000FFFF00000000000000000000000000000000000000000000FF00FF0000000000FFFF00000000000000000000000000000000000000000000FF00FF0000000000FFFF00000000000000000000000000000000000000000000FF00FF0000000000FFFF00000000000000000000000000000000000000000000
310
FF00FF0000000000FFFF00000000000000000000000000000000000000000000FF00FF0000000000FFFF00000000000000000000000000000000000000000000FF00FF0000000000FFFF0000000000000000000000000000000000000000000000000000000000000000000000000000000000000000000000000000000000
310
00000000000000000000000000000000000000000000000000000000000000000000000000000000000000000000000000000000000000000000000000000000000000000000000000000000000000000000000000000000000000000000000000000000000000000000000000000000000000000000000000000000000000
310
00000000000000000000000000000000000000000000000000000000000000000000000000000000000000000000000000000000000000000000000000000000000000000000000000000000000000000000000000000000000000000000000000000000000000000000000000000000000000000000000000000000000000
310
000000000000F9FFA4A4A4FFFF00000000000000000000000000000000000000000000FFFFFFFFFFFFFFFFFFFF000000000000000000000000000000000000000000FFFFFFFF0000000000FFFFFF000000000000000000000000000000000000F9F9FFFFFFFF00000000000000000000000000000000000000000000000000
310
00000000FFFFFF00000000000000000000000000000000000000000000000000000000000000000000000000000000000000000000000000
102
{BLKREFS
331
53EE
102
}
 70
     4
280
     1
281
     0
  0
BLOCK_RECORD
  5
4FAE
102
{ACAD_XDICTIONARY
360
5056
102
}
330
1
100
AcDbSymbolTableRecord
100
AcDbBlockTableRecord
  2
ケースＢ CCMH630
340
0
310
2800000020000000200000000100080000000000000400000000000000000000000000000000000000000000000080000080000000808000800000008000800080800000C0C0C000C0DCC000F0CAA6000020400000206000002080000020A0000020C0000020E00000400000004020000040400000406000004080000040A0
310
000040C0000040E00000600000006020000060400000606000006080000060A0000060C0000060E00000800000008020000080400000806000008080000080A0000080C0000080E00000A0000000A0200000A0400000A0600000A0800000A0A00000A0C00000A0E00000C0000000C0200000C0400000C0600000C0800000C0
310
A00000C0C00000C0E00000E0000000E0200000E0400000E0600000E0800000E0A00000E0C00000E0E00040000000400020004000400040006000400080004000A0004000C0004000E00040200000402020004020400040206000402080004020A0004020C0004020E000404000004040200040404000404060004040800040
310
40A0004040C0004040E00040600000406020004060400040606000406080004060A0004060C0004060E00040800000408020004080400040806000408080004080A0004080C0004080E00040A0000040A0200040A0400040A0600040A0800040A0A00040A0C00040A0E00040C0000040C0200040C0400040C0600040C08000
310
40C0A00040C0C00040C0E00040E0000040E0200040E0400040E0600040E0800040E0A00040E0C00040E0E00080000000800020008000400080006000800080008000A0008000C0008000E00080200000802020008020400080206000802080008020A0008020C0008020E00080400000804020008040400080406000804080
310
008040A0008040C0008040E00080600000806020008060400080606000806080008060A0008060C0008060E00080800000808020008080400080806000808080008080A0008080C0008080E00080A0000080A0200080A0400080A0600080A0800080A0A00080A0C00080A0E00080C0000080C0200080C0400080C0600080C0
310
800080C0A00080C0C00080C0E00080E0000080E0200080E0400080E0600080E0800080E0A00080E0C00080E0E000C0000000C0002000C0004000C0006000C0008000C000A000C000C000C000E000C0200000C0202000C0204000C0206000C0208000C020A000C020C000C020E000C0400000C0402000C0404000C0406000C0
310
408000C040A000C040C000C040E000C0600000C0602000C0604000C0606000C0608000C060A000C060C000C060E000C0800000C0802000C0804000C0806000C0808000C080A000C080C000C080E000C0A00000C0A02000C0A04000C0A06000C0A08000C0A0A000C0A0C000C0A0E000C0C00000C0C02000C0C04000C0C06000
310
C0C08000C0C0A000F0FBFF00A4A0A000808080000000FF0000FF000000FFFF00FF000000FF00FF00FFFF0000FFFFFF000000000000000000000000000000000000000000000000000000000000000000000000000000000000000000000000000000FFFF000000000000000000000000000000000000000000000000000000
310
000000F9F9F9F90000000000000000000000000000000000000000FFFFFF0000000000FF00000000000000000000000000000000000000000000000000FFFFFFFFFFFFFF00000000000000000000000000000000000000000000000000FF0000000000FF00000000000000000000000000000000000000000000000000FF00
310
00000000FF00000000000000000000000000000000000000000000000000FF0000000000FF00000000000000000000000000000000000000000000000000FF0000000000FF00000000000000000000000000000000000000000000000000FF0000000000FF00000000000000000000000000000000000000000000000000FF
310
0000000000FF00000000000000000000000000000000000000000000000000FF0000000000FF00000000000000000000000000000000000000000000000000FF0000000000FF00000000000000000000000000000000000000000000000000FF0000000000FF00000000000000000000000000000000000000000000000000
310
FF0000000000FF00000000000000000000000000000000000000000000000000FF0000000000FF00000000000000000000000000000000000000000000000000FF0000000000FF0000000000000000000000000000000000000000000000000000000000000000000000000000000000000000000000000000000000000000
310
00000000000000000000000000000000000000000000000000000000000000000000000000000000000000000000000000000000000000000000000000000000000000000000000000000000000000000000000000000000000000000000000000000000000000000000000000000000000000000000000000000000000000
310
00000000000000000000000000000000000000000000000000000000000000000000000000000000000000000000000000000000000000000000000000000000000000000000000000000000000000000000000000000000000000000000000000000000000000000000000000000000000000000000000000000000000000
310
0000FFA4A4A4FFFFF900000000000000000000000000000000000000000000000000FFFFFFFFFFFFFFFFFF00000000000000000000000000000000000000000000FFFFFF0000000000FF00000000000000000000000000000000000000000000000000000000000000FF000000000000000000000000000000000000000000
310
00000000000000000000FFFF0000000000000000000000000000000000000000000000000000000000000000000000000000000000000000
102
{BLKREFS
331
4FDF
102
}
 70
     4
280
     1
281
     0
  0
BLOCK_RECORD
  5
50BD
102
{ACAD_XDICTIONARY
360
5150
102
}
330
1
100
AcDbSymbolTableRecord
100
AcDbBlockTableRecord
  2
センタＡ CCMH630
340
0
310
2800000020000000200000000100080000000000000400000000000000000000000000000000000000000000000080000080000000808000800000008000800080800000C0C0C000C0DCC000F0CAA6000020400000206000002080000020A0000020C0000020E00000400000004020000040400000406000004080000040A0
310
000040C0000040E00000600000006020000060400000606000006080000060A0000060C0000060E00000800000008020000080400000806000008080000080A0000080C0000080E00000A0000000A0200000A0400000A0600000A0800000A0A00000A0C00000A0E00000C0000000C0200000C0400000C0600000C0800000C0
310
A00000C0C00000C0E00000E0000000E0200000E0400000E0600000E0800000E0A00000E0C00000E0E00040000000400020004000400040006000400080004000A0004000C0004000E00040200000402020004020400040206000402080004020A0004020C0004020E000404000004040200040404000404060004040800040
310
40A0004040C0004040E00040600000406020004060400040606000406080004060A0004060C0004060E00040800000408020004080400040806000408080004080A0004080C0004080E00040A0000040A0200040A0400040A0600040A0800040A0A00040A0C00040A0E00040C0000040C0200040C0400040C0600040C08000
310
40C0A00040C0C00040C0E00040E0000040E0200040E0400040E0600040E0800040E0A00040E0C00040E0E00080000000800020008000400080006000800080008000A0008000C0008000E00080200000802020008020400080206000802080008020A0008020C0008020E00080400000804020008040400080406000804080
310
008040A0008040C0008040E00080600000806020008060400080606000806080008060A0008060C0008060E00080800000808020008080400080806000808080008080A0008080C0008080E00080A0000080A0200080A0400080A0600080A0800080A0A00080A0C00080A0E00080C0000080C0200080C0400080C0600080C0
310
800080C0A00080C0C00080C0E00080E0000080E0200080E0400080E0600080E0800080E0A00080E0C00080E0E000C0000000C0002000C0004000C0006000C0008000C000A000C000C000C000E000C0200000C0202000C0204000C0206000C0208000C020A000C020C000C020E000C0400000C0402000C0404000C0406000C0
310
408000C040A000C040C000C040E000C0600000C0602000C0604000C0606000C0608000C060A000C060C000C060E000C0800000C0802000C0804000C0806000C0808000C080A000C080C000C080E000C0A00000C0A02000C0A04000C0A06000C0A08000C0A0A000C0A0C000C0A0E000C0C00000C0C02000C0C04000C0C06000
310
C0C08000C0C0A000F0FBFF00A4A0A000808080000000FF0000FF000000FFFF00FF000000FF00FF00FFFF0000FFFFFF000000000000000000000000000000000000000000000000000000000000000000000000000000000000000000000000000000000000000000000000000000000000000000000000000000000000FFFF
310
FFFFFFFFFFFFFAFAFAFAFAFAFAFAFAFA00000000000000000000000000000000FF00000000FF0000000000000000FA0000000000000000000000000000000000FF00000000FF0000000000000000FA0000000000000000000000000000000000FF00000000FF0000000000000000FA00000000000000000000000000000000
310
00FF00000000FF0000000000000000FA0000000000000000000000000000000000FF00000000FF0000000000000000FA0000000000000000000000000000000000FF00000000FF0000000000000000FA0000000000000000000000000000000000FF00000000FF0000000000000000FA000000000000000000000000000000
310
0000FF00000000FF0000000000000000FA0000000000000000000000000000000000FF00000000FF0000000000000000FA0000000000000000000000000000000000FF00000000FF000000000000FAFAFA0000000000000000000000000000000000FF00000000FF000000000000FAFAFA0000000000000000000000000000
310
000000FF00000000FF000000000000FAFAFA000000A4A4A4A4A4000000000000000000FF000000FFFF000000000000FAFAFA000000A4A4A4A40000000000000000000000000000FFFF000000000000FAFAFA000000FF0000000000000000000000000000000000FFFF000000000000FAFAFA000000FF000000000000000000
310
0000000000000000FFFF0000000000000000FA000000FF0000000000000000000000000000000000FFFF0000000000000000FA000000FF0000000000000000000000000000000000FFFF0000000000000000FA000000FF0000000000000000000000000000000000FFFF0000000000000000FA000000FF0000000000000000
310
000000000000000000FFFF0000000000000000FA000000FFFFFFFFFFFFFFFFFFFFFFFFFFFFFFFFFFFFFFFF0000000000000000FA000000FFFFFFFFFFFFFFFFFFFFFFFFFFFFFFFFFFFFFFFF0000000000000000FA000000FF000000000000000000000000000000000000FF0000000000000000FA000000FF00000000000000
310
0000000000000000000000FF0000000000000000FA000000FF000000000000000000000000000000000000FF0000000000000000FA000000FFFFFFFFFFFFFFF9FFFFFFFFFFFFFFFFFFFFFFFFFAFAFAFAFAFAFAFAFAFA00000000000000FFF9F9F9F9FF00FF0000000000000000000000000000000000000000000000000000
310
0000000000000000000000000000000000000000000000000000000000000000000000000000000000000000000000000000000000000000
102
{BLKREFS
331
50E9
102
}
 70
     4
280
     1
281
     0
  0
BLOCK_RECORD
  5
538F
102
{ACAD_XDICTIONARY
360
5429
102
}
330
1
100
AcDbSymbolTableRecord
100
AcDbBlockTableRecord
  2
リーマボルト CCMH630 M24
340
0
310
2800000020000000200000000100080000000000000400000000000000000000000000000000000000000000000080000080000000808000800000008000800080800000C0C0C000C0DCC000F0CAA6000020400000206000002080000020A0000020C0000020E00000400000004020000040400000406000004080000040A0
310
000040C0000040E00000600000006020000060400000606000006080000060A0000060C0000060E00000800000008020000080400000806000008080000080A0000080C0000080E00000A0000000A0200000A0400000A0600000A0800000A0A00000A0C00000A0E00000C0000000C0200000C0400000C0600000C0800000C0
310
A00000C0C00000C0E00000E0000000E0200000E0400000E0600000E0800000E0A00000E0C00000E0E00040000000400020004000400040006000400080004000A0004000C0004000E00040200000402020004020400040206000402080004020A0004020C0004020E000404000004040200040404000404060004040800040
310
40A0004040C0004040E00040600000406020004060400040606000406080004060A0004060C0004060E00040800000408020004080400040806000408080004080A0004080C0004080E00040A0000040A0200040A0400040A0600040A0800040A0A00040A0C00040A0E00040C0000040C0200040C0400040C0600040C08000
310
40C0A00040C0C00040C0E00040E0000040E0200040E0400040E0600040E0800040E0A00040E0C00040E0E00080000000800020008000400080006000800080008000A0008000C0008000E00080200000802020008020400080206000802080008020A0008020C0008020E00080400000804020008040400080406000804080
310
008040A0008040C0008040E00080600000806020008060400080606000806080008060A0008060C0008060E00080800000808020008080400080806000808080008080A0008080C0008080E00080A0000080A0200080A0400080A0600080A0800080A0A00080A0C00080A0E00080C0000080C0200080C0400080C0600080C0
310
800080C0A00080C0C00080C0E00080E0000080E0200080E0400080E0600080E0800080E0A00080E0C00080E0E000C0000000C0002000C0004000C0006000C0008000C000A000C000C000C000E000C0200000C0202000C0204000C0206000C0208000C020A000C020C000C020E000C0400000C0402000C0404000C0406000C0
310
408000C040A000C040C000C040E000C0600000C0602000C0604000C0606000C0608000C060A000C060C000C060E000C0800000C0802000C0804000C0806000C0808000C080A000C080C000C080E000C0A00000C0A02000C0A04000C0A06000C0A08000C0A0A000C0A0C000C0A0E000C0C00000C0C02000C0C04000C0C06000
310
C0C08000C0C0A000F0FBFF00A4A0A000808080000000FF0000FF000000FFFF00FF000000FF00FF00FFFF0000FFFFFF00000000000000000000000000000000000000000000000000000000000000000000000000000000000000000000FFFF000000000000000000000000000000000000000000000000000000000000FFFF
310
000000000000000000000000000000000000000000000000000000000000FFFF0000000000FFFF0000000000000000000000000000000000000000000000FFFFFFFFFFFFFFFFFF0000000000000000000000000000000000000000000000FFFF0000000000FFFF0000000000000000000000000000000000000000000000FF
310
FF0000000000FFFF0000000000000000000000000000000000000000000000FFFF0000000000FFFF0000000000000000000000000000000000000000000000FFFF0000000000FFFF0000000000000000000000000000000000000000000000FFFF0000000000FFFF0000000000000000000000000000000000000000000000
310
FFFF0000000000FFFF0000000000000000000000000000000000000000000000FFFF0000000000FFFF0000000000000000000000000000000000000000000000FFFF0000000000FFFF0000000000000000000000000000000000000000000000FFFF0000000000FFFF00000000000000000000000000000000000000000000
310
00FFFF0000000000FFFF0000000000000000000000000000000000000000000000FFFF0000000000FFFF0000000000000000000000000000000000000000000000FFFF0000000000FFFF0000000000000000000000000000000000000000000000000000000000000000000000000000000000000000000000000000000000
310
00000000000000000000000000000000000000000000000000000000000000000000000000000000000000000000000000000000000000000000000000000000000000000000000000000000000000000000000000000000000000000000000000000000000000000000000000000000000000000000000000000000000000
310
00000000000000000000000000000000000000000000000000000000000000000000000000000000000000000000000000000000000000000000000000000000000000000000000000000000000000000000000000000000000000000000000000000000000000000000000000000000000000000000000000000000000000
310
000000000000F9FFFFA4A4A4FF00000000000000000000000000000000000000000000FFFFFFFFFFFFFFFFFFFF0000000000000000000000000000000000000000FEFF00FFFFFF00000000FFFF0000000000000000000000000000000000000000F9F9F9FFFFF9000000000000000000000000000000000000000000000000
310
0000FFFF00FFFFFF000000000000000000000000000000000000000000000000000000000000000000000000000000000000000000000000
102
{BLKREFS
331
53C0
102
}
 70
     4
280
     1
281
     0
  0
BLOCK_RECORD
  5
54AA
102
{ACAD_XDICTIONARY
360
557C
102
}
330
1
100
AcDbSymbolTableRecord
100
AcDbBlockTableRecord
  2
ＧＣサイドカバ－A CCMH630
340
0
310
2800000020000000200000000100080000000000000400000000000000000000000000000000000000000000000080000080000000808000800000008000800080800000C0C0C000C0DCC000F0CAA6000020400000206000002080000020A0000020C0000020E00000400000004020000040400000406000004080000040A0
310
000040C0000040E00000600000006020000060400000606000006080000060A0000060C0000060E00000800000008020000080400000806000008080000080A0000080C0000080E00000A0000000A0200000A0400000A0600000A0800000A0A00000A0C00000A0E00000C0000000C0200000C0400000C0600000C0800000C0
310
A00000C0C00000C0E00000E0000000E0200000E0400000E0600000E0800000E0A00000E0C00000E0E00040000000400020004000400040006000400080004000A0004000C0004000E00040200000402020004020400040206000402080004020A0004020C0004020E000404000004040200040404000404060004040800040
310
40A0004040C0004040E00040600000406020004060400040606000406080004060A0004060C0004060E00040800000408020004080400040806000408080004080A0004080C0004080E00040A0000040A0200040A0400040A0600040A0800040A0A00040A0C00040A0E00040C0000040C0200040C0400040C0600040C08000
310
40C0A00040C0C00040C0E00040E0000040E0200040E0400040E0600040E0800040E0A00040E0C00040E0E00080000000800020008000400080006000800080008000A0008000C0008000E00080200000802020008020400080206000802080008020A0008020C0008020E00080400000804020008040400080406000804080
310
008040A0008040C0008040E00080600000806020008060400080606000806080008060A0008060C0008060E00080800000808020008080400080806000808080008080A0008080C0008080E00080A0000080A0200080A0400080A0600080A0800080A0A00080A0C00080A0E00080C0000080C0200080C0400080C0600080C0
310
800080C0A00080C0C00080C0E00080E0000080E0200080E0400080E0600080E0800080E0A00080E0C00080E0E000C0000000C0002000C0004000C0006000C0008000C000A000C000C000C000E000C0200000C0202000C0204000C0206000C0208000C020A000C020C000C020E000C0400000C0402000C0404000C0406000C0
310
408000C040A000C040C000C040E000C0600000C0602000C0604000C0606000C0608000C060A000C060C000C060E000C0800000C0802000C0804000C0806000C0808000C080A000C080C000C080E000C0A00000C0A02000C0A04000C0A06000C0A08000C0A0A000C0A0C000C0A0E000C0C00000C0C02000C0C04000C0C06000
310
C0C08000C0C0A000F0FBFF00A4A0A000808080000000FF0000FF000000FFFF00FF000000FF00FF00FFFF0000FFFFFF00000000000000000000000000000000000000000000000000000000000000000000000000000000FFFAFAFAFAFAFAFAFAFAFAFAFAFAFAFAFAFAFAFA00000000000000000000F9F9FFF9000000000000
310
00000000000000000000FAFA000000000000000000000000FF0000000000000000000000000000000000FA00000000000000000000000000FF0000000000000000000000000000000000FA00000000000000000000000000FF0000000000000000000000000000000000FA00000000000000000000000000FF000000000000
310
0000000000000000000000FA00000000000000000000000000FF0000000000000000000000000000000000FA00000000000000000000000000FF0000000000000000000000000000000000FA00000000000000000000000000FF0000000000000000000000000000000000FA00000000000000000000000000FF0000000000
310
000000000000000000000000FA00000000000000000000000000FF0000000000000000000000000000000000FA00000000000000000000000000FF0000000000000000000000000000000000FA00000000000000000000000000FF00000000000000000000000000000000FAFA00000000000000000000000000FF00000000
310
000000000000000000000000FAFA00000000000000000000000000FF000000000000000000000000000000FAFAFA00000000000000000000000000FF000000000000000000000000000000FAFAFA0000000000000000000000000000000000000000000000000000000000FAFAFA0000000000000000000000000000000000
310
00000000000000000000000000FAFA00000000000000000000000000000000000000000000000000000000000000FA00000000000000000000000000000000000000000000000000000000000000FA00000000000000000000000000000000000000000000000000000000000000FA00000000000000000000000000000000
310
000000000000000000000000000000FA00000000000000000000000000000000000000000000000000000000000000FA00000000000000000000000000000000000000000000000000000000000000FA00000000000000000000000000000000000000000000000000000000000000FA000000000000000000000000000000
310
00000000000000000000000000000000FA000000000000000000000000FFFF0000000000000000000000000000000000FA000000000000000000000000FFFF0000000000000000000000000000000000FA0000000000000000000000FFFFFFFF00000000000000000000000000000000FAFA000000000000000000000000FF
310
FFFAFAFAFAFAFAFAFAFAFAFAFAFAFAFAFAFAFA00000000000000000000000000000000000000000000000000000000000000000000000000
102
{BLKREFS
331
54E0
102
}
 70
     4
280
     1
281
     0
  0
BLOCK_RECORD
  5
561B
102
{ACAD_XDICTIONARY
360
56C4
102
}
330
1
100
AcDbSymbolTableRecord
100
AcDbBlockTableRecord
  2
ＧＣサイドカバ－Ｂ CCMH630
340
0
310
2800000020000000200000000100080000000000000400000000000000000000000000000000000000000000000080000080000000808000800000008000800080800000C0C0C000C0DCC000F0CAA6000020400000206000002080000020A0000020C0000020E00000400000004020000040400000406000004080000040A0
310
000040C0000040E00000600000006020000060400000606000006080000060A0000060C0000060E00000800000008020000080400000806000008080000080A0000080C0000080E00000A0000000A0200000A0400000A0600000A0800000A0A00000A0C00000A0E00000C0000000C0200000C0400000C0600000C0800000C0
310
A00000C0C00000C0E00000E0000000E0200000E0400000E0600000E0800000E0A00000E0C00000E0E00040000000400020004000400040006000400080004000A0004000C0004000E00040200000402020004020400040206000402080004020A0004020C0004020E000404000004040200040404000404060004040800040
310
40A0004040C0004040E00040600000406020004060400040606000406080004060A0004060C0004060E00040800000408020004080400040806000408080004080A0004080C0004080E00040A0000040A0200040A0400040A0600040A0800040A0A00040A0C00040A0E00040C0000040C0200040C0400040C0600040C08000
310
40C0A00040C0C00040C0E00040E0000040E0200040E0400040E0600040E0800040E0A00040E0C00040E0E00080000000800020008000400080006000800080008000A0008000C0008000E00080200000802020008020400080206000802080008020A0008020C0008020E00080400000804020008040400080406000804080
310
008040A0008040C0008040E00080600000806020008060400080606000806080008060A0008060C0008060E00080800000808020008080400080806000808080008080A0008080C0008080E00080A0000080A0200080A0400080A0600080A0800080A0A00080A0C00080A0E00080C0000080C0200080C0400080C0600080C0
310
800080C0A00080C0C00080C0E00080E0000080E0200080E0400080E0600080E0800080E0A00080E0C00080E0E000C0000000C0002000C0004000C0006000C0008000C000A000C000C000C000E000C0200000C0202000C0204000C0206000C0208000C020A000C020C000C020E000C0400000C0402000C0404000C0406000C0
310
408000C040A000C040C000C040E000C0600000C0602000C0604000C0606000C0608000C060A000C060C000C060E000C0800000C0802000C0804000C0806000C0808000C080A000C080C000C080E000C0A00000C0A02000C0A04000C0A06000C0A08000C0A0A000C0A0C000C0A0E000C0C00000C0C02000C0C04000C0C06000
310
C0C08000C0C0A000F0FBFF00A4A0A000808080000000FF0000FF000000FFFF00FF000000FF00FF00FFFF0000FFFFFF000000000000000000000000000000000000000000000000000000000000000000000000000000000000000000000000FF000000000000000000000000000000000000000000000000000000000000F9
310
FFF9F90000000000000000000000000000000000000000000000000000000000FF00000000000000000000000000000000000000000000000000000000000000FF00000000000000000000000000000000000000000000000000000000000000FF000000000000000000000000000000000000000000000000000000000000
310
00FF00000000000000000000000000000000000000000000000000000000000000FF00000000000000000000000000000000000000000000000000000000000000FF00000000000000000000000000000000000000000000000000000000000000FF0000000000000000000000000000000000000000000000000000000000
310
0000FF00000000000000000000000000000000000000000000000000000000000000FF00000000000000000000000000000000000000000000000000000000000000FF00000000000000000000000000000000000000000000000000000000000000FF00000000000000000000000000000000000000000000000000000000
310
000000FF00000000000000000000000000000000000000000000000000000000000000FF00000000000000000000000000000000000000000000000000000000000000FF0000000000000000000000000000000000000000000000000000000000000000000000000000000000000000000000000000000000000000000000
310
00000000000000000000000000000000000000000000000000000000000000000000000000000000000000000000000000000000000000000000000000000000000000000000000000000000000000000000000000000000000000000000000000000000000000000000000000000000000000000000000000000000000000
310
00000000000000000000000000000000000000000000000000000000000000000000000000000000000000000000000000000000000000000000000000000000000000000000000000000000000000000000000000000000000000000000000000000000000000000000000000000000000000000000000000000000000000
310
0000000000000000000000000000000000000000000000000000000000000000000000000000FFFF000000000000000000000000000000000000000000000000000000000000FFFF0000000000000000000000000000000000000000000000000000000000FFFFFFFF00000000000000000000000000000000000000000000
310
000000000000FFFF000000000000000000000000000000000000000000000000000000000000000000000000000000000000000000000000
102
{BLKREFS
331
5650
102
}
 70
     4
280
     1
281
     0
  0
BLOCK_RECORD
  5
589D
330
1
100
AcDbSymbolTableRecord
100
AcDbBlockTableRecord
  2
*D14
340
0
 70
     0
280
     1
281
     0
  0
BLOCK_RECORD
  5
58FA
330
1
100
AcDbSymbolTableRecord
100
AcDbBlockTableRecord
  2
*D15
340
0
 70
     0
280
     1
281
     0
  0
BLOCK_RECORD
  5
5945
330
1
100
AcDbSymbolTableRecord
100
AcDbBlockTableRecord
  2
*D16
340
0
 70
     0
280
     1
281
     0
  0
BLOCK_RECORD
  5
595D
330
1
100
AcDbSymbolTableRecord
100
AcDbBlockTableRecord
  2
*D17
340
0
 70
     0
280
     1
281
     0
  0
BLOCK_RECORD
  5
5975
330
1
100
AcDbSymbolTableRecord
100
AcDbBlockTableRecord
  2
*D18
340
0
 70
     0
280
     1
281
     0
  0
BLOCK_RECORD
  5
5AD4
330
1
100
AcDbSymbolTableRecord
100
AcDbBlockTableRecord
  2
*D19
340
0
 70
     0
280
     1
281
     0
  0
BLOCK_RECORD
  5
5AFE
330
1
100
AcDbSymbolTableRecord
100
AcDbBlockTableRecord
  2
*D20
340
0
 70
     0
280
     1
281
     0
  0
BLOCK_RECORD
  5
5B16
330
1
100
AcDbSymbolTableRecord
100
AcDbBlockTableRecord
  2
*D21
340
0
 70
     0
280
     1
281
     0
  0
BLOCK_RECORD
  5
5BC1
330
1
100
AcDbSymbolTableRecord
100
AcDbBlockTableRecord
  2
*D22
340
0
 70
     0
280
     1
281
     0
  0
BLOCK_RECORD
  5
5BDD
330
1
100
AcDbSymbolTableRecord
100
AcDbBlockTableRecord
  2
*D23
340
0
 70
     0
280
     1
281
     0
  0
BLOCK_RECORD
  5
5BF9
330
1
100
AcDbSymbolTableRecord
100
AcDbBlockTableRecord
  2
*D24
340
0
 70
     0
280
     1
281
     0
  0
BLOCK_RECORD
  5
5C7F
330
1
100
AcDbSymbolTableRecord
100
AcDbBlockTableRecord
  2
*D25
340
0
 70
     0
280
     1
281
     0
  0
BLOCK_RECORD
  5
6E06
102
{ACAD_XDICTIONARY
360
6E52
102
}
330
1
100
AcDbSymbolTableRecord
100
AcDbBlockTableRecord
  2
ロッカクアナツキプラグB R3／4
340
0
102
{BLKREFS
331
4FDE
102
}
 70
     0
280
     1
281
     0
  0
BLOCK_RECORD
  5
73EC
330
1
100
AcDbSymbolTableRecord
100
AcDbBlockTableRecord
  2
*D27
340
0
 70
     0
280
     1
281
     0
  0
BLOCK_RECORD
  5
7416
330
1
100
AcDbSymbolTableRecord
100
AcDbBlockTableRecord
  2
*D28
340
0
 70
     0
280
     1
281
     0
  0
BLOCK_RECORD
  5
77DB
330
1
100
AcDbSymbolTableRecord
100
AcDbBlockTableRecord
  2
センタB CCMH630
340
0
310
2800000020000000200000000100080000000000000400000000000000000000000000000000000000000000000080000080000000808000800000008000800080800000C0C0C000C0DCC000F0CAA6000020400000206000002080000020A0000020C0000020E00000400000004020000040400000406000004080000040A0
310
000040C0000040E00000600000006020000060400000606000006080000060A0000060C0000060E00000800000008020000080400000806000008080000080A0000080C0000080E00000A0000000A0200000A0400000A0600000A0800000A0A00000A0C00000A0E00000C0000000C0200000C0400000C0600000C0800000C0
310
A00000C0C00000C0E00000E0000000E0200000E0400000E0600000E0800000E0A00000E0C00000E0E00040000000400020004000400040006000400080004000A0004000C0004000E00040200000402020004020400040206000402080004020A0004020C0004020E000404000004040200040404000404060004040800040
310
40A0004040C0004040E00040600000406020004060400040606000406080004060A0004060C0004060E00040800000408020004080400040806000408080004080A0004080C0004080E00040A0000040A0200040A0400040A0600040A0800040A0A00040A0C00040A0E00040C0000040C0200040C0400040C0600040C08000
310
40C0A00040C0C00040C0E00040E0000040E0200040E0400040E0600040E0800040E0A00040E0C00040E0E00080000000800020008000400080006000800080008000A0008000C0008000E00080200000802020008020400080206000802080008020A0008020C0008020E00080400000804020008040400080406000804080
310
008040A0008040C0008040E00080600000806020008060400080606000806080008060A0008060C0008060E00080800000808020008080400080806000808080008080A0008080C0008080E00080A0000080A0200080A0400080A0600080A0800080A0A00080A0C00080A0E00080C0000080C0200080C0400080C0600080C0
310
800080C0A00080C0C00080C0E00080E0000080E0200080E0400080E0600080E0800080E0A00080E0C00080E0E000C0000000C0002000C0004000C0006000C0008000C000A000C000C000C000E000C0200000C0202000C0204000C0206000C0208000C020A000C020C000C020E000C0400000C0402000C0404000C0406000C0
310
408000C040A000C040C000C040E000C0600000C0602000C0604000C0606000C0608000C060A000C060C000C060E000C0800000C0802000C0804000C0806000C0808000C080A000C080C000C080E000C0A00000C0A02000C0A04000C0A06000C0A08000C0A0A000C0A0C000C0A0E000C0C00000C0C02000C0C04000C0C06000
310
C0C08000C0C0A000F0FBFF00A4A0A000808080000000FF0000FF000000FFFF00FF000000FF00FF00FFFF0000FFFFFF00000000000000000000000000000000000000000000000000000000000000000000000000000000FFFFFFFFFFFFFF000000000000000000000000000000000000000000000000FF00000000FF000000
310
0000000000000000000000000000000000000000000000FF00000000FF0000000000000000000000000000000000000000000000000000FF00000000FF0000000000000000000000000000000000000000000000000000FF00000000FF0000000000000000000000000000000000000000000000000000FF00000000FF0000
310
000000000000000000000000000000000000000000000000FF00000000FF0000000000000000000000000000000000000000000000000000FF00000000FF0000000000000000000000000000000000000000000000000000FF00000000FF0000000000000000000000000000000000000000000000000000FF00000000FF00
310
00000000000000000000000000000000000000000000000000FF00000000FF0000000000000000000000000000000000000000000000000000FF00000000FF0000000000000000000000000000000000000000000000000000FF00000000FF0000000000000000000000000000000000000000000000000000FF00000000FF
310
0000000000000000000000000000000000000000000000000000FF00000000FF000000000000000000A4A4A4A4A4000000000000000000000000FF000000000000000000000000000000A4A4A4A4000000000000000000000000FF000000000000000000000000000000000000FF000000000000000000000000FF00000000
310
0000000000000000000000000000FF000000000000000000000000FF000000000000000000000000000000000000FF000000000000000000000000FF000000000000000000000000000000000000FF000000000000000000000000FF000000000000000000000000000000000000FF000000000000000000000000FF000000
310
000000000000000000000000000000FF000000000000000000000000FFFFFFFFFFFFFFFFFFFFFFFFFFFFFFFFFFFFFFFF000000000000000000000000FF000000000000000000000000000000000000FF000000000000000000000000FF000000000000000000000000000000000000FF000000000000000000000000FF0000
310
00000000000000000000000000000000FF000000000000000000000000FF000000000000000000000000000000000000FF000000000000000000000000FFFFFFFFFFFFFFFFFFFFFFFFFFFFFFFFFFFFFFFF000000000000000000000000000000000000000000F9F9F9F9F9F9F9000000000000000000000000000000000000
310
00000000000000000000F9000000000000000000000000000000000000000000000000000000000000000000000000000000000000000000
102
{BLKREFS
331
7811
102
}
 70
     4
280
     1
281
     1
  0
ENDTAB
  0
ENDSEC
  0
SECTION
  2
BLOCKS
  0
BLOCK
  5
20
330
1F
100
AcDbEntity
  8
0
100
AcDbBlockBegin
  2
*Model_Space
 70
     0
 10
0.0
 20
0.0
 30
0.0
  3
*Model_Space
  1

  0
ENDBLK
  5
21
330
1F
100
AcDbEntity
  8
0
100
AcDbBlockEnd
  0
BLOCK
  5
1C
330
1B
100
AcDbEntity
 67
     1
  8
0
100
AcDbBlockBegin
  2
*Paper_Space
 70
     0
 10
0.0
 20
0.0
 30
0.0
  3
*Paper_Space
  1

  0
ENDBLK
  5
1D
330
1B
100
AcDbEntity
 67
     1
  8
0
100
AcDbBlockEnd
  0
BLOCK
  5
24
330
23
100
AcDbEntity
 67
     1
  8
0
100
AcDbBlockBegin
  2
*Paper_Space0
 70
     0
 10
0.0
 20
0.0
 30
0.0
  3
*Paper_Space0
  1

  0
ENDBLK
  5
25
330
23
100
AcDbEntity
 67
     1
  8
0
100
AcDbBlockEnd
  0
BLOCK
  5
6D
330
69
100
AcDbEntity
  8
0
100
AcDbBlockBegin
  2
_Open30
 70
     0
 10
0.0
 20
0.0
 30
0.0
  3
_Open30
  1

  0
LINE
  5
6A
330
69
100
AcDbEntity
  8
0
  6
ByBlock
 62
     0
370
    -2
100
AcDbLine
 10
-1.0
 20
0.26794919
 30
0.0
 11
0.0
 21
0.0
 31
0.0
  0
LINE
  5
6B
330
69
100
AcDbEntity
  8
0
  6
ByBlock
 62
     0
370
    -2
100
AcDbLine
 10
0.0
 20
0.0
 30
0.0
 11
-1.0
 21
-0.26794919
 31
0.0
  0
LINE
  5
6C
330
69
100
AcDbEntity
  8
0
  6
ByBlock
 62
     0
370
    -2
100
AcDbLine
 10
0.0
 20
0.0
 30
0.0
 11
-1.0
 21
0.0
 31
0.0
  0
ENDBLK
  5
6E
330
69
100
AcDbEntity
  8
0
100
AcDbBlockEnd
  0
BLOCK
  5
76
330
74
100
AcDbEntity
  8
0
100
AcDbBlockBegin
  2
GENAXEH
 70
     0
 10
0.0
 20
0.0
 30
0.0
  3
GENAXEH
  1

  0
LINE
  5
75
330
74
100
AcDbEntity
  8
0
100
AcDbLine
 10
-1.0
 20
0.0
 30
0.0
 11
1.0
 21
0.0
 31
0.0
  0
ENDBLK
  5
77
330
74
100
AcDbEntity
  8
0
100
AcDbBlockEnd
  0
BLOCK
  5
3BAD
330
3BAC
100
AcDbEntity
  8
0
100
AcDbBlockBegin
  2
GENDOT
 70
     0
 10
0.0
 20
0.0
 30
0.0
  3
GENDOT
  1

  0
LINE
  5
3BAE
330
3BAC
100
AcDbEntity
  8
0
100
AcDbLine
 10
0.0
 20
0.0
 30
0.0
 11
-1.0
 21
0.0
 31
0.0
  0
LWPOLYLINE
  5
3BAF
330
3BAC
100
AcDbEntity
  8
0
100
AcDbPolyline
 90
        2
 70
     1
 43
0.25
 10
-0.125
 20
0.0
 42
1.0
 10
0.125
 20
0.0
 42
1.0
  0
ENDBLK
  5
3BB0
330
3BAC
100
AcDbEntity
  8
0
100
AcDbBlockEnd
  0
BLOCK
  5
4D0A
330
4D09
100
AcDbEntity
  8
0
100
AcDbBlockBegin
  2
ロッカクアナツキプラグA R3／4
 70
     0
 10
0.0
 20
0.0
 30
0.0
  3
ロッカクアナツキプラグA R3／4
  1

  0
LINE
  5
4F13
330
4D09
100
AcDbEntity
  8
AM_0 外形線1
100
AcDbLine
 10
-13.41151700000046
 20
-2.0
 30
0.0
 11
13.41151699999955
 21
-2.0
 31
0.0
  0
LINE
  5
4F14
330
4D09
100
AcDbEntity
  8
AM_0 外形線1
100
AcDbLine
 10
-12.99246700000003
 20
-14.0
 30
0.0
 11
12.99246700000003
 21
-14.0
 31
0.0
  0
LINE
  5
4F15
330
4D09
100
AcDbEntity
  8
AM_0 外形線1
100
AcDbLine
 10
-7.796315000000504
 20
-17.0
 30
0.0
 11
-12.99246700000003
 21
-14.0
 31
0.0
  0
LINE
  5
4F16
330
4D09
100
AcDbEntity
  8
AM_0 外形線1
100
AcDbLine
 10
-12.99246700000003
 20
-14.0
 30
0.0
 11
-13.41151700000046
 21
-2.0
 31
0.0
  0
LINE
  5
4F17
330
4D09
100
AcDbEntity
  8
AM_4 細線
100
AcDbLine
 10
-12.28872500000034
 20
-0.8772079999998823
 30
0.0
 11
-11.80655800000022
 21
-14.68468499999971
 31
0.0
  0
LINE
  5
4F18
330
4D09
100
AcDbEntity
  8
AM_0 外形線1
100
AcDbLine
 10
-13.41151700000046
 20
-2.0
 30
0.0
 11
-11.41151700000046
 21
0.0
 31
0.0
  0
LINE
  5
4F19
330
4D09
100
AcDbEntity
  8
AM_7 中心線
100
AcDbLine
 10
0.0
 20
2.687944000000243
 30
0.0
 11
0.0
 21
-22.39007099999981
 31
0.0
  0
LINE
  5
4F1A
330
4D09
100
AcDbEntity
  8
AM_0 外形線1
100
AcDbLine
 10
12.99246700000003
 20
-14.0
 30
0.0
 11
7.796314999999593
 21
-17.0
 31
0.0
  0
LINE
  5
4F1B
330
4D09
100
AcDbEntity
  8
AM_0 外形線1
100
AcDbLine
 10
7.796314999999593
 20
-17.0
 30
0.0
 11
-7.796315000000504
 21
-17.0
 31
0.0
  0
LINE
  5
4F1C
330
4D09
100
AcDbEntity
  8
AM_0 外形線1
100
AcDbLine
 10
11.41151699999955
 20
0.0
 30
0.0
 11
13.41151699999955
 21
-2.0
 31
0.0
  0
LINE
  5
4F1D
330
4D09
100
AcDbEntity
  8
AM_0 外形線1
100
AcDbLine
 10
13.41151699999955
 20
-2.0
 30
0.0
 11
12.99246700000003
 21
-14.0
 31
0.0
  0
LINE
  5
4F1E
330
4D09
100
AcDbEntity
  8
AM_4 細線
100
AcDbLine
 10
11.80655800000022
 20
-14.68468499999971
 30
0.0
 11
12.28872499999943
 21
-0.8772079999998823
 31
0.0
  0
LINE
  5
4F3D
330
4D09
100
AcDbEntity
  8
AM_0 外形線1
100
AcDbLine
 10
-11.41151700000046
 20
0.0
 30
0.0
 11
11.41151699999955
 21
0.0
 31
0.0
  0
ENDBLK
  5
4D0B
330
4D09
100
AcDbEntity
  8
0
100
AcDbBlockEnd
  0
BLOCK
  5
4DB6
330
4DB5
100
AcDbEntity
  8
0
100
AcDbBlockBegin
  2
ケースＡ CCMH630
 70
     0
 10
0.0
 20
0.0
 30
0.0
  3
ケースＡ CCMH630
  1

  0
LINE
  5
4DB8
330
4DB5
100
AcDbEntity
  8
AM_0 外形線1
100
AcDbLine
 10
30.0
 20
-314.0000000000002
 30
0.0
 11
30.0
 21
-0.0000000000002274
 31
0.0
  0
LINE
  5
4DB9
330
4DB5
100
AcDbEntity
  8
AM_0 外形線1
100
AcDbLine
 10
0.0
 20
-0.0000000000002274
 30
0.0
 11
0.0
 21
-314.0000000000002
 31
0.0
  0
LINE
  5
4DBA
330
4DB5
100
AcDbEntity
  8
AM_0 外形線1
100
AcDbLine
 10
195.0
 20
-0.0000000000002274
 30
0.0
 11
195.0
 21
-272.0000000000002
 31
0.0
  0
LINE
  5
4DBB
330
4DB5
100
AcDbEntity
  8
AM_0 外形線1
100
AcDbLine
 10
163.0
 20
-265.0000000000002
 30
0.0
 11
163.0
 21
-0.0000000000002274
 31
0.0
  0
LINE
  5
4DBC
330
4DB5
100
AcDbEntity
  8
AM_0 外形線1
100
AcDbLine
 10
170.0
 20
-272.0000000000002
 30
0.0
 11
170.0
 21
-0.0000000000002274
 31
0.0
  0
LINE
  5
4DBD
330
4DB5
100
AcDbEntity
  8
AM_0 外形線1
100
AcDbLine
 10
36.0
 20
-265.0000000000002
 30
0.0
 11
163.0
 21
-265.0000000000002
 31
0.0
  0
LINE
  5
4DBE
330
4DB5
100
AcDbEntity
  8
AM_0 外形線1
100
AcDbLine
 10
1.0
 20
-315.0000000000002
 30
0.0
 11
29.0
 21
-315.0000000000002
 31
0.0
  0
ARC
  5
4DBF
330
4DB5
100
AcDbEntity
  8
AM_0 外形線1
100
AcDbCircle
 10
36.0
 20
-271.0000000000002
 30
0.0
 40
6.0
100
AcDbArc
 50
90.0
 51
180.0
  0
LINE
  5
4DC0
330
4DB5
100
AcDbEntity
  8
AM_0 外形線1
100
AcDbLine
 10
0.0
 20
-314.0000000000002
 30
0.0
 11
1.0
 21
-315.0000000000002
 31
0.0
  0
LINE
  5
4DC1
330
4DB5
100
AcDbEntity
  8
AM_0 外形線1
100
AcDbLine
 10
29.0
 20
-315.0000000000002
 30
0.0
 11
30.0
 21
-314.0000000000002
 31
0.0
  0
LINE
  5
4DC2
330
4DB5
100
AcDbEntity
  8
AM_0 外形線1
100
AcDbLine
 10
170.0
 20
-272.0000000000002
 30
0.0
 11
195.0000000000002
 21
-272.0000000000002
 31
0.0
  0
LINE
  5
4DC3
330
4DB5
100
AcDbEntity
  8
AM_0 外形線1
100
AcDbLine
 10
163.0
 20
-265.0000000000002
 30
0.0
 11
170.0
 21
-272.0000000000002
 31
0.0
  0
LINE
  5
4DC4
330
4DB5
100
AcDbEntity
  8
AM_0 外形線1
100
AcDbLine
 10
83.0
 20
245.9999999999998
 30
0.0
 11
188.0
 21
245.9999999999998
 31
0.0
  0
LINE
  5
4DC5
330
4DB5
100
AcDbEntity
  8
AM_0 外形線1
100
AcDbLine
 10
36.0
 20
264.9999999999995
 30
0.0
 11
163.0
 21
264.9999999999995
 31
0.0
  0
LINE
  5
4DC6
330
4DB5
100
AcDbEntity
  8
AM_7 中心線
 48
0.5
100
AcDbLine
 10
81.0
 20
239.9999999999998
 30
0.0
 11
190.0
 21
239.9999999999998
 31
0.0
  0
LINE
  5
4DC7
330
4DB5
100
AcDbEntity
  8
AM_3 隠れ線
100
AcDbLine
 10
91.0
 20
235.1999999999998
 30
0.0
 11
181.0
 21
235.1999999999998
 31
0.0
  0
LINE
  5
4DC8
330
4DB5
100
AcDbEntity
  8
AM_7 中心線
100
AcDbLine
 10
50.0
 20
293.4999999999996
 30
0.0
 11
-68.0
 21
293.4999999999996
 31
0.0
  0
LINE
  5
4DC9
330
4DB5
100
AcDbEntity
  8
AM_0 外形線1
100
AcDbLine
 10
1.0
 20
314.9999999999995
 30
0.0
 11
29.0
 21
314.9999999999995
 31
0.0
  0
LINE
  5
4DCA
330
4DB5
100
AcDbEntity
  8
AM_0 外形線1
100
AcDbLine
 10
0.0
 20
306.4999999999995
 30
0.0
 11
30.0
 21
306.4999999999995
 31
0.0
  0
ARC
  5
4DCB
330
4DB5
100
AcDbEntity
  8
AM_0 外形線1
100
AcDbCircle
 10
36.0
 20
270.9999999999995
 30
0.0
 40
6.0
100
AcDbArc
 50
180.0
 51
270.0
  0
LINE
  5
4DCC
330
4DB5
100
AcDbEntity
  8
AM_0 外形線1
100
AcDbLine
 10
0.0
 20
280.4999999999996
 30
0.0
 11
30.0
 21
280.4999999999996
 31
0.0
  0
LINE
  5
4DCD
330
4DB5
100
AcDbEntity
  8
AM_0 外形線1
100
AcDbLine
 10
82.5
 20
247.4999999999998
 30
0.0
 11
-7.0
 21
247.4999999999998
 31
0.0
  0
LINE
  5
4DCE
330
4DB5
100
AcDbEntity
  8
AM_0 外形線1
100
AcDbLine
 10
0.0
 20
267.1999999999996
 30
0.0
 11
0.0
 21
280.4999999999996
 31
0.0
  0
ARC
  5
4DCF
330
4DB5
100
AcDbEntity
  8
AM_0 外形線1
100
AcDbCircle
 10
4.0
 20
260.4999999999995
 30
0.0
 40
0.5
100
AcDbArc
 50
270.0
 51
0.0
  0
ARC
  5
4DD0
330
4DB5
100
AcDbEntity
  8
AM_0 外形線1
100
AcDbCircle
 10
4.0
 20
266.6999999999996
 30
0.0
 40
0.5
100
AcDbArc
 50
0.0
 51
90.0
  0
LWPOLYLINE
  5
4DD1
330
4DB5
100
AcDbEntity
  8
AM_0 外形線1
100
AcDbPolyline
 90
       73
 70
     0
 43
0.0
 10
2.25
 20
259.9999999999996
 10
2.446099999999205
 20
260.0136989999999
 10
2.640707999999904
 20
260.0546919999997
 10
2.832343000000037
 20
260.1226669999999
 10
3.019545000000106
 20
260.2171069999997
 10
3.200890999999501
 20
260.3372919999997
 10
3.375
 20
260.4823089999996
 10
3.540546999999604
 20
260.6510529999998
 10
3.696271999999225
 20
260.8422399999997
 10
3.840989999999692
 20
261.0544159999997
 10
3.97359999999935
 20
261.2859649999998
 10
4.09309199999916
 20
261.5351249999997
 10
4.198556999999708
 20
261.7999999999995
 10
4.289192000000183
 20
262.0785749999996
 10
4.364308000000163
 20
262.3687279999997
 10
4.423332999999728
 20
262.6682519999995
 10
4.465817000000241
 20
262.9748669999997
 10
4.491438000000016
 20
263.2862399999999
 10
4.5
 20
263.5999999999997
 10
4.491438000000016
 20
263.9137609999996
 10
4.465817000000241
 20
264.2251339999996
 10
4.423332999999728
 20
264.5317489999998
 10
4.364308000000163
 20
264.8312729999996
 10
4.289192000000183
 20
265.1214259999997
 10
4.198556999999708
 20
265.3999999999996
 10
4.09309199999916
 20
265.6648749999995
 10
3.97359999999935
 20
265.9140359999994
 10
3.840989999999692
 20
266.1455849999998
 10
3.696271999999225
 20
266.3577599999996
 10
3.540546999999604
 20
266.5489479999997
 10
3.375
 20
266.7176919999997
 10
3.200890999999501
 20
266.8627079999999
 10
3.019545000000106
 20
266.9828939999998
 10
2.832343000000037
 20
267.0773329999997
 10
2.640707999999904
 20
267.145308
 10
2.446099999999205
 20
267.1863009999997
 10
2.25
 20
267.1999999999996
 10
2.053899999999885
 20
267.1863009999997
 10
1.859291999999186
 20
267.145308
 10
1.667656999999961
 20
267.0773329999997
 10
1.480454999999891
 20
266.9828939999998
 10
1.299108999999589
 20
266.8627079999999
 10
1.125
 20
266.7176919999997
 10
0.9594529999994847
 20
266.5489479999997
 10
0.8037279999998645
 20
266.3577599999996
 10
0.6590099999993983
 20
266.1455849999998
 10
0.5263999999997396
 20
265.9140359999994
 10
0.4069079999999305
 20
265.6648749999995
 10
0.3014429999993808
 20
265.3999999999996
 10
0.2108069999994768
 20
265.1214259999997
 10
0.1356919999998354
 20
264.8312729999996
 10
0.076666999999361
 20
264.5317489999998
 10
0.0341829999997572
 20
264.2251339999996
 10
0.0085619999999835
 20
263.9137609999996
 10
0.0
 20
263.5999999999997
 10
0.0085619999999835
 20
263.2862399999999
 10
0.0341829999997572
 20
262.9748669999997
 10
0.076666999999361
 20
262.6682519999995
 10
0.1356919999998354
 20
262.3687279999997
 10
0.2108069999994768
 20
262.0785749999996
 10
0.3014429999993808
 20
261.7999999999995
 10
0.4069079999999305
 20
261.5351249999997
 10
0.5263999999997396
 20
261.2859649999998
 10
0.6590099999993983
 20
261.0544159999997
 10
0.8037279999998645
 20
260.8422399999997
 10
0.9594529999994847
 20
260.6510529999998
 10
1.125
 20
260.4823089999996
 10
1.299108999999589
 20
260.3372919999997
 10
1.480454999999891
 20
260.2171069999997
 10
1.667656999999961
 20
260.1226669999999
 10
1.859291999999186
 20
260.0546919999997
 10
2.053899999999885
 20
260.0136989999999
 10
2.25
 20
259.9999999999996
  0
LINE
  5
4DD2
330
4DB5
100
AcDbEntity
  8
AM_0 外形線1
100
AcDbLine
 10
4.0
 20
267.1999999999996
 30
0.0
 11
0.0
 21
267.1999999999996
 31
0.0
  0
LINE
  5
4DD3
330
4DB5
100
AcDbEntity
  8
AM_0 外形線1
100
AcDbLine
 10
-7.0
 20
247.4999999999998
 30
0.0
 11
-7.0
 21
258.9999999999995
 31
0.0
  0
LINE
  5
4DD4
330
4DB5
100
AcDbEntity
  8
AM_0 外形線1
100
AcDbLine
 10
-7.0
 20
258.9999999999995
 30
0.0
 11
-6.0
 21
259.9999999999996
 31
0.0
  0
LINE
  5
4DD5
330
4DB5
100
AcDbEntity
  8
AM_0 外形線1
100
AcDbLine
 10
-6.0
 20
259.9999999999996
 30
0.0
 11
4.0
 21
259.9999999999996
 31
0.0
  0
LINE
  5
4DD6
330
4DB5
100
AcDbEntity
  8
AM_0 外形線1
100
AcDbLine
 10
4.5
 20
260.4999999999995
 30
0.0
 11
4.5
 21
266.6999999999996
 31
0.0
  0
LINE
  5
4DD7
330
4DB5
100
AcDbEntity
  8
AM_0 外形線1
100
AcDbLine
 10
0.0
 20
306.4999999999995
 30
0.0
 11
0.0
 21
313.9999999999996
 31
0.0
  0
LINE
  5
4DD8
330
4DB5
100
AcDbEntity
  8
AM_0 外形線1
100
AcDbLine
 10
0.0
 20
313.9999999999996
 30
0.0
 11
1.0
 21
314.9999999999995
 31
0.0
  0
LINE
  5
4DD9
330
4DB5
100
AcDbEntity
  8
AM_0 外形線1
100
AcDbLine
 10
30.0
 20
270.9999999999995
 30
0.0
 11
30.0
 21
313.9999999999996
 31
0.0
  0
LINE
  5
4DDA
330
4DB5
100
AcDbEntity
  8
AM_0 外形線1
100
AcDbLine
 10
47.71127499999964
 20
264.1227919999997
 30
0.0
 11
47.68064199999935
 21
264.9999999999995
 31
0.0
  0
LINE
  5
4DDB
330
4DB5
100
AcDbEntity
  8
AM_0 外形線1
100
AcDbLine
 10
48.19344199999978
 20
250.3153149999998
 30
0.0
 11
48.29175500000019
 21
247.4999999999998
 31
0.0
  0
LINE
  5
4DDC
330
4DB5
100
AcDbEntity
  8
AM_0 外形線1
100
AcDbLine
 10
46.518642
 20
264.9999999999995
 30
0.0
 11
46.58848299999954
 21
262.9999999999995
 31
0.0
  0
LINE
  5
4DDD
330
4DB5
100
AcDbEntity
  8
AM_0 外形線1
100
AcDbLine
 10
47.00753299999997
 20
250.9999999999995
 30
0.0
 11
47.12975499999993
 21
247.4999999999998
 31
0.0
  0
LINE
  5
4DDE
330
4DB5
100
AcDbEntity
  8
AM_0 外形線1
100
AcDbLine
 10
72.99246700000003
 20
250.9999999999995
 30
0.0
 11
73.41151699999954
 21
262.9999999999995
 31
0.0
  0
LINE
  5
4DDF
330
4DB5
100
AcDbEntity
  8
AM_0 外形線1
100
AcDbLine
 10
71.80655800000022
 20
250.3153149999998
 30
0.0
 11
71.7082449999998
 21
247.4999999999998
 31
0.0
  0
LINE
  5
4DE0
330
4DB5
100
AcDbEntity
  8
AM_0 外形線1
100
AcDbLine
 10
72.99246700000003
 20
250.9999999999995
 30
0.0
 11
72.87024500000007
 21
247.4999999999998
 31
0.0
  0
ARC
  5
4DE2
330
4DB5
100
AcDbEntity
  8
AM_0 外形線1
100
AcDbCircle
 10
82.5
 20
246.9999999999998
 30
0.0
 40
0.5
100
AcDbArc
 50
0.0
 51
90.0
  0
LINE
  5
4DE3
330
4DB5
100
AcDbEntity
  8
AM_0 外形線1
100
AcDbLine
 10
83.49999999999999
 20
235.1999999999998
 30
0.0
 11
83.0
 21
235.6999999999998
 31
0.0
  0
LINE
  5
4DE4
330
4DB5
100
AcDbEntity
  8
AM_0 外形線1
100
AcDbLine
 10
91.0
 20
235.1999999999998
 30
0.0
 11
83.49999999999999
 21
235.1999999999998
 31
0.0
  0
LINE
  5
4DE5
330
4DB5
100
AcDbEntity
  8
AM_0 外形線1
100
AcDbLine
 10
83.0
 20
235.6999999999998
 30
0.0
 11
83.0
 21
246.9999999999998
 31
0.0
  0
LINE
  5
4DE6
330
4DB5
100
AcDbEntity
  8
AM_0 外形線1
100
AcDbLine
 10
29.0
 20
314.9999999999995
 30
0.0
 11
30.0
 21
313.9999999999996
 31
0.0
  0
LINE
  5
4DE7
330
4DB5
100
AcDbEntity
  8
AM_0 外形線1
100
AcDbLine
 10
170.0
 20
271.9999999999995
 30
0.0
 11
194.9999999999997
 21
271.9999999999995
 31
0.0
  0
LINE
  5
4DE8
330
4DB5
100
AcDbEntity
  8
AM_0 外形線1
100
AcDbLine
 10
163.0
 20
264.9999999999995
 30
0.0
 11
170.0
 21
271.9999999999995
 31
0.0
  0
LINE
  5
4DE9
330
4DB5
100
AcDbEntity
  8
AM_0 外形線1
100
AcDbLine
 10
195.0
 20
265.9999999999996
 30
0.0
 11
195.0
 21
271.9999999999995
 31
0.0
  0
LINE
  5
4DEA
330
4DB5
100
AcDbEntity
  8
AM_0 外形線1
100
AcDbLine
 10
195.0
 20
252.7999999999995
 30
0.0
 11
195.0
 21
247.4999999999998
 31
0.0
  0
LINE
  5
4DEB
330
4DB5
100
AcDbEntity
  8
AM_0 外形線1
100
AcDbLine
 10
195.0
 20
252.7999999999995
 30
0.0
 11
195.0
 21
255.9999999999996
 31
0.0
  0
ARC
  5
4DEC
330
4DB5
100
AcDbEntity
  8
AM_0 外形線1
100
AcDbCircle
 10
188.5
 20
246.9999999999998
 30
0.0
 40
0.5
100
AcDbArc
 50
90.0
 51
180.0
  0
LINE
  5
4DED
330
4DB5
100
AcDbEntity
  8
AM_0 外形線1
100
AcDbLine
 10
188.5
 20
247.4999999999998
 30
0.0
 11
195.0
 21
247.4999999999998
 31
0.0
  0
LINE
  5
4DEE
330
4DB5
100
AcDbEntity
  8
AM_0 外形線1
100
AcDbLine
 10
188.0
 20
235.6999999999998
 30
0.0
 11
187.5
 21
235.1999999999998
 31
0.0
  0
LINE
  5
4DEF
330
4DB5
100
AcDbEntity
  8
AM_0 外形線1
100
AcDbLine
 10
181.0
 20
235.1999999999998
 30
0.0
 11
187.5
 21
235.1999999999998
 31
0.0
  0
LINE
  5
4DF0
330
4DB5
100
AcDbEntity
  8
AM_0 外形線1
100
AcDbLine
 10
188.0
 20
246.9999999999998
 30
0.0
 11
188.0
 21
235.6999999999998
 31
0.0
  0
INSERT
  5
4DF1
330
4DB5
100
AcDbEntity
  8
AM_0 外形線1
100
AcDbBlockReference
  2
ロッカクアナツキプラグA R3／4
 10
60.0
 20
264.9999999999995
 30
0.0
  0
ENDBLK
  5
4DB7
330
4DB5
100
AcDbEntity
  8
0
100
AcDbBlockEnd
  0
BLOCK
  5
4FAF
330
4FAE
100
AcDbEntity
  8
0
100
AcDbBlockBegin
  2
ケースＢ CCMH630
 70
     0
 10
0.0
 20
0.0
 30
0.0
  3
ケースＢ CCMH630
  1

  0
LINE
  5
4FB1
330
4FAE
100
AcDbEntity
  8
AM_0 外形線1
100
AcDbLine
 10
-30.0
 20
-314.0
 30
0.0
 11
-30.0
 21
0.0
 31
0.0
  0
LINE
  5
4FB2
330
4FAE
100
AcDbEntity
  8
AM_0 外形線1
100
AcDbLine
 10
-163.0
 20
-265.0
 30
0.0
 11
-163.0
 21
0.0
 31
0.0
  0
LINE
  5
4FB3
330
4FAE
100
AcDbEntity
  8
AM_0 外形線1
100
AcDbLine
 10
-170.0
 20
-272.0
 30
0.0
 11
-170.0
 21
0.0
 31
0.0
  0
LINE
  5
4FB4
330
4FAE
100
AcDbEntity
  8
AM_0 外形線1
100
AcDbLine
 10
-36.0
 20
-265.0
 30
0.0
 11
-163.0
 21
-265.0
 31
0.0
  0
LINE
  5
4FB5
330
4FAE
100
AcDbEntity
  8
AM_0 外形線1
100
AcDbLine
 10
-163.0
 20
-265.0
 30
0.0
 11
-170.0
 21
-272.0
 31
0.0
  0
LINE
  5
4FB6
330
4FAE
100
AcDbEntity
  8
AM_0 外形線1
100
AcDbLine
 10
-170.0
 20
-272.0
 30
0.0
 11
-195.0
 21
-272.0
 31
0.0
  0
LINE
  5
4FB7
330
4FAE
100
AcDbEntity
  8
AM_7 中心線
 48
0.5
100
AcDbLine
 10
39.57819216680309
 20
-293.5
 30
0.0
 11
-39.57819216680309
 21
-293.5
 31
0.0
  0
LINE
  5
4FB8
330
4FAE
100
AcDbEntity
  8
AM_0 外形線1
100
AcDbLine
 10
-1.0
 20
-315.0
 30
0.0
 11
-29.0
 21
-315.0
 31
0.0
  0
LINE
  5
4FB9
330
4FAE
100
AcDbEntity
  8
AM_0 外形線1
100
AcDbLine
 10
-29.0
 20
-315.0
 30
0.0
 11
-30.0
 21
-314.0
 31
0.0
  0
ARC
  5
4FBA
330
4FAE
100
AcDbEntity
  8
AM_0 外形線1
100
AcDbCircle
 10
-36.0
 20
-271.0
 30
0.0
 40
6.0
100
AcDbArc
 50
0.0
 51
90.0
  0
LINE
  5
4FBB
330
4FAE
100
AcDbEntity
  8
AM_0 外形線1
100
AcDbLine
 10
0.0
 20
-314.0
 30
0.0
 11
-1.0
 21
-315.0
 31
0.0
  0
LINE
  5
4FBC
330
4FAE
100
AcDbEntity
  8
AM_0 外形線1
100
AcDbLine
 10
-82.5
 20
247.5
 30
0.0
 11
-8.0
 21
247.5
 31
0.0
  0
LINE
  5
4FBD
330
4FAE
100
AcDbEntity
  8
AM_0 外形線1
100
AcDbLine
 10
-36.0
 20
264.9999999999998
 30
0.0
 11
-163.0
 21
264.9999999999998
 31
0.0
  0
LINE
  5
4FBE
330
4FAE
100
AcDbEntity
  8
AM_0 外形線1
100
AcDbLine
 10
-163.0
 20
264.9999999999998
 30
0.0
 11
-170.0
 21
271.9999999999998
 31
0.0
  0
LINE
  5
4FBF
330
4FAE
100
AcDbEntity
  8
AM_0 外形線1
100
AcDbLine
 10
-83.0
 20
246.0
 30
0.0
 11
-188.0
 21
246.0
 31
0.0
  0
LINE
  5
4FC0
330
4FAE
100
AcDbEntity
  8
AM_7 中心線
 48
0.5
100
AcDbLine
 10
-81.0
 20
240.0
 30
0.0
 11
-190.0
 21
240.0
 31
0.0
  0
LINE
  5
4FC1
330
4FAE
100
AcDbEntity
  8
AM_3 隠れ線
100
AcDbLine
 10
-91.0
 20
235.2
 30
0.0
 11
-181.0
 21
235.2
 31
0.0
  0
LINE
  5
4FC2
330
4FAE
100
AcDbEntity
  8
AM_0 外形線1
100
AcDbLine
 10
-195.0
 20
265.9999999999998
 30
0.0
 11
-195.0
 21
271.9999999999998
 31
0.0
  0
LINE
  5
4FC3
330
4FAE
100
AcDbEntity
  8
AM_0 外形線1
100
AcDbLine
 10
-188.5
 20
247.5
 30
0.0
 11
-195.0
 21
247.5
 31
0.0
  0
LINE
  5
4FC4
330
4FAE
100
AcDbEntity
  8
AM_0 外形線1
100
AcDbLine
 10
-195.0
 20
252.7999999999997
 30
0.0
 11
-195.0
 21
247.5
 31
0.0
  0
LINE
  5
4FC5
330
4FAE
100
AcDbEntity
  8
AM_0 外形線1
100
AcDbLine
 10
-195.0
 20
252.7999999999997
 30
0.0
 11
-195.0000000000002
 21
255.9999999999998
 31
0.0
  0
ARC
  5
4FC6
330
4FAE
100
AcDbEntity
  8
AM_0 外形線1
100
AcDbCircle
 10
-188.5
 20
247.0
 30
0.0
 40
0.5
100
AcDbArc
 50
0.0
 51
90.0
  0
LINE
  5
4FC7
330
4FAE
100
AcDbEntity
  8
AM_0 外形線1
100
AcDbLine
 10
-188.0
 20
235.7000000000001
 30
0.0
 11
-187.5
 21
235.2
 31
0.0
  0
LINE
  5
4FC8
330
4FAE
100
AcDbEntity
  8
AM_0 外形線1
100
AcDbLine
 10
-181.0
 20
235.2
 30
0.0
 11
-187.5
 21
235.2
 31
0.0
  0
LINE
  5
4FC9
330
4FAE
100
AcDbEntity
  8
AM_0 外形線1
100
AcDbLine
 10
-188.0
 20
247.0
 30
0.0
 11
-188.0
 21
235.7000000000001
 31
0.0
  0
LINE
  5
4FCA
330
4FAE
100
AcDbEntity
  8
AM_0 外形線1
100
AcDbLine
 10
-170.0
 20
271.9999999999998
 30
0.0
 11
-195.0
 21
271.9999999999998
 31
0.0
  0
ARC
  5
4FCB
330
4FAE
100
AcDbEntity
  8
AM_0 外形線1
100
AcDbCircle
 10
-82.5
 20
247.0
 30
0.0
 40
0.5
100
AcDbArc
 50
90.0
 51
180.0
  0
LINE
  5
4FCC
330
4FAE
100
AcDbEntity
  8
AM_0 外形線1
100
AcDbLine
 10
-72.28872500000034
 20
264.1227919999999
 30
0.0
 11
-72.31935800000066
 21
264.9999999999998
 31
0.0
  0
LINE
  5
4FCD
330
4FAE
100
AcDbEntity
  8
AM_0 外形線1
100
AcDbLine
 10
-72.99246700000003
 20
250.9999999999998
 30
0.0
 11
-72.87024500000007
 21
247.5
 31
0.0
  0
LINE
  5
4FCE
330
4FAE
100
AcDbEntity
  8
AM_0 外形線1
100
AcDbLine
 10
-73.41151700000046
 20
262.9999999999999
 30
0.0
 11
-73.481358
 21
264.9999999999998
 31
0.0
  0
LINE
  5
4FCF
330
4FAE
100
AcDbEntity
  8
AM_0 外形線1
100
AcDbLine
 10
-71.80655800000022
 20
250.3153150000001
 30
0.0
 11
-71.7082449999998
 21
247.5
 31
0.0
  0
LINE
  5
4FD0
330
4FAE
100
AcDbEntity
  8
AM_0 外形線1
100
AcDbLine
 10
-83.49999999999999
 20
235.2
 30
0.0
 11
-83.0
 21
235.7000000000001
 31
0.0
  0
LINE
  5
4FD1
330
4FAE
100
AcDbEntity
  8
AM_0 外形線1
100
AcDbLine
 10
-91.0
 20
235.2
 30
0.0
 11
-83.49999999999999
 21
235.2
 31
0.0
  0
LINE
  5
4FD2
330
4FAE
100
AcDbEntity
  8
AM_0 外形線1
100
AcDbLine
 10
-83.0
 20
235.7000000000001
 30
0.0
 11
-83.0
 21
247.0
 31
0.0
  0
LINE
  5
4FD3
330
4FAE
100
AcDbEntity
  8
AM_0 外形線1
100
AcDbLine
 10
-30.0
 20
270.9999999999998
 30
0.0
 11
-30.0
 21
313.9999999999998
 31
0.0
  0
ARC
  5
4FD4
330
4FAE
100
AcDbEntity
  8
AM_0 外形線1
100
AcDbCircle
 10
-36.0
 20
270.9999999999998
 30
0.0
 40
6.0
100
AcDbArc
 50
270.0
 51
0.0
  0
LINE
  5
4FD5
330
4FAE
100
AcDbEntity
  8
AM_0 外形線1
100
AcDbLine
 10
-47.71127500000057
 20
264.1227919999999
 30
0.0
 11
-47.68064200000025
 21
264.9999999999998
 31
0.0
  0
LINE
  5
4FD6
330
4FAE
100
AcDbEntity
  8
AM_0 外形線1
100
AcDbLine
 10
-48.19344199999978
 20
250.3153150000001
 30
0.0
 11
-48.29175500000019
 21
247.5
 31
0.0
  0
LINE
  5
4FD7
330
4FAE
100
AcDbEntity
  8
AM_0 外形線1
100
AcDbLine
 10
-46.518642
 20
264.9999999999998
 30
0.0
 11
-46.58848300000046
 21
262.9999999999999
 31
0.0
  0
LINE
  5
4FD8
330
4FAE
100
AcDbEntity
  8
AM_0 外形線1
100
AcDbLine
 10
-47.00753299999997
 20
250.9999999999998
 30
0.0
 11
-47.12975499999993
 21
247.5
 31
0.0
  0
LINE
  5
4FD9
330
4FAE
100
AcDbEntity
  8
AM_0 外形線1
100
AcDbLine
 10
-1.0
 20
259.9999999999998
 30
0.0
 11
0.0
 21
260.9999999999998
 31
0.0
  0
LINE
  5
4FDA
330
4FAE
100
AcDbEntity
  8
AM_0 外形線1
100
AcDbLine
 10
-8.0
 20
247.5
 30
0.0
 11
-8.0
 21
259.9999999999998
 31
0.0
  0
LINE
  5
4FDB
330
4FAE
100
AcDbEntity
  8
AM_0 外形線1
100
AcDbLine
 10
-1.0
 20
314.9999999999999
 30
0.0
 11
-29.0
 21
314.9999999999999
 31
0.0
  0
LINE
  5
4FDC
330
4FAE
100
AcDbEntity
  8
AM_0 外形線1
100
AcDbLine
 10
-29.0
 20
314.9999999999999
 30
0.0
 11
-30.0
 21
313.9999999999998
 31
0.0
  0
LINE
  5
4FDD
330
4FAE
100
AcDbEntity
  8
AM_0 外形線1
100
AcDbLine
 10
0.0
 20
313.9999999999998
 30
0.0
 11
-1.0
 21
314.9999999999999
 31
0.0
  0
INSERT
  5
4FDE
330
4FAE
100
AcDbEntity
  8
AM_0 外形線1
100
AcDbBlockReference
  2
ロッカクアナツキプラグB R3／4
 10
-60.0
 20
264.9999999999998
 30
0.0
  0
LINE
  5
504F
330
4FAE
100
AcDbEntity
  8
AM_0 外形線1
100
AcDbLine
 10
0.0
 20
-314.0
 30
0.0
 11
0.0
 21
0.0000000000004547
 31
0.0
  0
LINE
  5
5050
330
4FAE
100
AcDbEntity
  8
AM_0 外形線1
100
AcDbLine
 10
-195.0
 20
-272.0
 30
0.0
 11
-195.0
 21
0.0000000000002274
 31
0.0
  0
LINE
  5
5051
330
4FAE
100
AcDbEntity
  8
AM_0 外形線1
100
AcDbLine
 10
-1.0
 20
259.9999999999998
 30
0.0
 11
-8.0
 21
259.9999999999998
 31
0.0
  0
LINE
  5
5052
330
4FAE
100
AcDbEntity
  8
AM_0 外形線1
100
AcDbLine
 10
0.0
 20
260.9999999999998
 30
0.0
 11
0.0
 21
280.4999999999998
 31
0.0
  0
LINE
  5
5053
330
4FAE
100
AcDbEntity
  8
AM_0 外形線1
100
AcDbLine
 10
0.0
 20
280.4999999999998
 30
0.0
 11
-30.0
 21
280.4999999999998
 31
0.0
  0
LINE
  5
5054
330
4FAE
100
AcDbEntity
  8
AM_0 外形線1
100
AcDbLine
 10
0.0
 20
306.4999999999998
 30
0.0
 11
-30.0
 21
306.4999999999998
 31
0.0
  0
LINE
  5
5055
330
4FAE
100
AcDbEntity
  8
AM_0 外形線1
100
AcDbLine
 10
0.0
 20
313.9999999999998
 30
0.0
 11
0.0
 21
306.4999999999998
 31
0.0
  0
ENDBLK
  5
4FB0
330
4FAE
100
AcDbEntity
  8
0
100
AcDbBlockEnd
  0
BLOCK
  5
50BE
330
50BD
100
AcDbEntity
  8
0
100
AcDbBlockBegin
  2
センタＡ CCMH630
 70
     0
 10
0.0
 20
0.0
 30
0.0
  3
センタＡ CCMH630
  1

  0
LINE
  5
50C0
330
50BD
100
AcDbEntity
  8
AM_0 外形線1
100
AcDbLine
 10
227.0
 20
-227.5000000000005
 30
0.0
 11
227.0
 21
-0.0000000000004547
 31
0.0
  0
LINE
  5
50C1
330
50BD
100
AcDbEntity
  8
AM_0 外形線1
100
AcDbLine
 10
232.0
 20
-226.0000000000005
 30
0.0
 11
232.0
 21
-0.0000000000004547
 31
0.0
  0
LINE
  5
50C2
330
50BD
100
AcDbEntity
  8
AM_0 外形線1
100
AcDbLine
 10
315.0
 20
-220.0000000000005
 30
0.0
 11
315.0
 21
219.9999999999995
 31
0.0
  0
ARC
  5
50C4
330
50BD
100
AcDbEntity
  8
AM_0 外形線1
100
AcDbCircle
 10
309.0
 20
-220.0000000000005
 30
0.0
 40
6.0
100
AcDbArc
 50
270.0
 51
0.0
  0
LINE
  5
50C5
330
50BD
100
AcDbEntity
  8
AM_0 外形線1
100
AcDbLine
 10
199.0
 20
-227.5000000000005
 30
0.0
 11
227.0
 21
-227.5000000000005
 31
0.0
  0
LINE
  5
50C6
330
50BD
100
AcDbEntity
  8
AM_0 外形線1
100
AcDbLine
 10
232.0
 20
-226.0000000000005
 30
0.0
 11
309.0
 21
-226.0000000000005
 31
0.0
  0
LINE
  5
50C7
330
50BD
100
AcDbEntity
  8
AM_0 外形線1
100
AcDbLine
 10
227.0
 20
-227.5000000000005
 30
0.0
 11
232.0
 21
-226.0000000000005
 31
0.0
  0
ARC
  5
50C9
330
50BD
100
AcDbEntity
  8
AM_0 外形線1
100
AcDbCircle
 10
122.0
 20
-0.0000000000004547
 30
0.0
 40
245.75
100
AcDbArc
 50
79.56742399997922
 51
100.4325760000208
  0
LINE
  5
50CB
330
50BD
100
AcDbEntity
  8
AM_0 外形線1
100
AcDbLine
 10
0.0
 20
193.2499999999995
 30
0.0
 11
0.0
 21
-0.0000000000004547
 31
0.0
  0
LINE
  5
50CC
330
50BD
100
AcDbEntity
  8
AM_3 隠れ線
100
AcDbLine
 10
0.0
 20
11.99999999999954
 30
0.0
 11
46.0
 21
11.99999999999954
 31
0.0
  0
LINE
  5
50CD
330
50BD
100
AcDbEntity
  8
AM_3 隠れ線
100
AcDbLine
 10
0.0
 20
10.49999999999954
 30
0.0
 11
62.0
 21
10.49999999999954
 31
0.0
  0
LINE
  5
50CE
330
50BD
100
AcDbEntity
  8
AM_3 隠れ線
100
AcDbLine
 10
62.0
 20
10.49999999999954
 30
0.0
 11
68.06217800000013
 21
-0.0000000000004547
 31
0.0
  0
LINE
  5
50CF
330
50BD
100
AcDbEntity
  8
AM_3 隠れ線
100
AcDbLine
 10
46.0
 20
11.99999999999954
 30
0.0
 11
46.86602499999935
 21
10.49999999999954
 31
0.0
  0
LINE
  5
50D0
330
50BD
100
AcDbEntity
  8
AM_3 隠れ線
100
AcDbLine
 10
46.0
 20
11.99999999999954
 30
0.0
 11
46.0
 21
-0.0000000000004547
 31
0.0
  0
LINE
  5
50D1
330
50BD
100
AcDbEntity
  8
AM_3 隠れ線
100
AcDbLine
 10
46.86602499999935
 20
10.49999999999954
 30
0.0
 11
46.86602499999935
 21
-0.0000000000004547
 31
0.0
  0
LINE
  5
50D2
330
50BD
100
AcDbEntity
  8
AM_3 隠れ線
100
AcDbLine
 10
62.0
 20
10.49999999999954
 30
0.0
 11
62.0
 21
-0.0000000000004547
 31
0.0
  0
LINE
  5
50D3
330
50BD
100
AcDbEntity
  8
AM_0 外形線1
100
AcDbLine
 10
77.0
 20
241.0948319999993
 30
0.0
 11
77.0
 21
226.9999999999996
 31
0.0
  0
LINE
  5
50D4
330
50BD
100
AcDbEntity
  8
AM_0 外形線1
100
AcDbLine
 10
76.5
 20
226.4999999999996
 30
0.0
 11
1.0
 21
226.4999999999996
 31
0.0
  0
LINE
  5
50D5
330
50BD
100
AcDbEntity
  8
AM_0 外形線1
100
AcDbLine
 10
0.0
 20
225.4999999999995
 30
0.0
 11
0.0
 21
193.2499999999995
 31
0.0
  0
LINE
  5
50D6
330
50BD
100
AcDbEntity
  8
AM_0 外形線1
100
AcDbLine
 10
1.0
 20
226.4999999999996
 30
0.0
 11
0.0
 21
225.4999999999995
 31
0.0
  0
ARC
  5
50D7
330
50BD
100
AcDbEntity
  8
AM_0 外形線1
100
AcDbCircle
 10
76.5
 20
226.9999999999996
 30
0.0
 40
0.5
100
AcDbArc
 50
270.0
 51
0.0
  0
LINE
  5
50D8
330
50BD
100
AcDbEntity
  8
AM_0 外形線1
100
AcDbLine
 10
77.5
 20
241.6874279999995
 30
0.0
 11
77.0
 21
241.0948319999993
 31
0.0
  0
ARC
  5
50D9
330
50BD
100
AcDbEntity
  8
AM_0 外形線1
100
AcDbCircle
 10
309.0
 20
219.9999999999995
 30
0.0
 40
6.0
100
AcDbArc
 50
0.0
 51
90.0
  0
LINE
  5
50DB
330
50BD
100
AcDbEntity
  8
AM_0 外形線1
100
AcDbLine
 10
167.0
 20
227.9999999999995
 30
0.0
 11
167.0
 21
241.0948319999993
 31
0.0
  0
LINE
  5
50DC
330
50BD
100
AcDbEntity
  8
AM_7 中心線
 48
0.5
100
AcDbLine
 10
122.0
 20
250.7499999999993
 30
0.0
 11
122.0
 21
228.9999999999996
 31
0.0
  0
LINE
  5
50DD
330
50BD
100
AcDbEntity
  8
AM_0 外形線1
100
AcDbLine
 10
227.0
 20
227.4999999999995
 30
0.0
 11
167.5
 21
227.4999999999995
 31
0.0
  0
ARC
  5
50DE
330
50BD
100
AcDbEntity
  8
AM_0 外形線1
100
AcDbCircle
 10
167.5
 20
227.9999999999995
 30
0.0
 40
0.5
100
AcDbArc
 50
180.0
 51
270.0
  0
LINE
  5
50E2
330
50BD
100
AcDbEntity
  8
AM_0 外形線1
100
AcDbLine
 10
309.0
 20
225.9999999999995
 30
0.0
 11
232.0
 21
225.9999999999995
 31
0.0
  0
LINE
  5
50E3
330
50BD
100
AcDbEntity
  8
AM_0 外形線1
100
AcDbLine
 10
232.0
 20
225.9999999999995
 30
0.0
 11
227.0
 21
227.4999999999995
 31
0.0
  0
LINE
  5
50E4
330
50BD
100
AcDbEntity
  8
AM_0 外形線1
100
AcDbLine
 10
167.0
 20
241.0948319999993
 30
0.0
 11
166.5
 21
241.6874279999995
 31
0.0
  0
LINE
  5
50E5
330
50BD
100
AcDbEntity
  8
AM_0 外形線1
100
AcDbLine
 10
315.0
 20
137.4999999999993
 30
0.0
 11
0.0
 21
137.5
 31
0.0
  0
ARC
  5
748D
330
50BD
100
AcDbEntity
  8
AM_0 外形線1
100
AcDbCircle
 10
122.0
 20
-0.0000000000002274
 30
0.0
 40
233.9999999999998
100
AcDbArc
 50
78.91251078903254
 51
101.0874892109674
  0
ARC
  5
754A
330
50BD
100
AcDbEntity
  8
AM_7 中心線
 48
0.5
100
AcDbCircle
 10
122.0
 20
-0.0000000000002274
 30
0.0
 40
239.8749999999998
100
AcDbArc
 50
78.27938422681248
 51
102.0623417947872
  0
ENDBLK
  5
50BF
330
50BD
100
AcDbEntity
  8
0
100
AcDbBlockEnd
  0
BLOCK
  5
5390
330
538F
100
AcDbEntity
  8
0
100
AcDbBlockBegin
  2
リーマボルト CCMH630 M24
 70
     0
 10
0.0
 20
0.0
 30
0.0
  3
リーマボルト CCMH630 M24
  1

  0
LINE
  5
5392
330
538F
100
AcDbEntity
  8
AM_0 外形線1
100
AcDbLine
 10
-1.0
 20
12.0
 30
0.0
 11
-1.5
 21
12.0
 31
0.0
  0
LINE
  5
5393
330
538F
100
AcDbEntity
  8
AM_0 外形線1
100
AcDbLine
 10
-1.0
 20
-12.0
 30
0.0
 11
-1.5
 21
-12.0
 31
0.0
  0
LINE
  5
5394
330
538F
100
AcDbEntity
  8
AM_0 外形線1
100
AcDbLine
 10
-59.0
 20
11.84529999999995
 30
0.0
 11
-59.0
 21
-11.84529899999984
 31
0.0
  0
LINE
  5
5395
330
538F
100
AcDbEntity
  8
AM_0 外形線1
100
AcDbLine
 10
-2.5
 20
-13.0
 30
0.0
 11
-2.5
 21
13.0
 31
0.0
  0
LINE
  5
5396
330
538F
100
AcDbEntity
  8
AM_0 外形線1
100
AcDbLine
 10
-57.0
 20
13.0
 30
0.0
 11
-57.0
 21
-13.0
 31
0.0
  0
LINE
  5
5397
330
538F
100
AcDbEntity
  8
AM_0 外形線1
100
AcDbLine
 10
-65.90000000000054
 20
-20.79999999999996
 30
0.0
 11
-65.90000000000054
 21
20.79999999999996
 31
0.0
  0
LINE
  5
5398
330
538F
100
AcDbEntity
  8
AM_0 外形線1
100
AcDbLine
 10
-84.90000000000055
 20
18.0
 30
0.0
 11
-84.90000000000055
 21
-18.0
 31
0.0
  0
ARC
  5
5399
330
538F
100
AcDbEntity
  8
AM_0 外形線1
100
AcDbCircle
 10
-50.68787299999986
 20
0.0
 30
0.0
 40
34.212127
100
AcDbArc
 50
162.3163709999824
 51
197.6836290000175
  0
LINE
  5
539A
330
538F
100
AcDbEntity
  8
AM_0 外形線1
100
AcDbLine
 10
-93.0
 20
10.0
 30
0.0
 11
-93.0
 21
-10.0
 31
0.0
  0
LINE
  5
539B
330
538F
100
AcDbEntity
  8
AM_0 外形線1
100
AcDbLine
 10
-91.0
 20
12.0
 30
0.0
 11
-91.0
 21
-12.0
 31
0.0
  0
LINE
  5
539C
330
538F
100
AcDbEntity
  8
AM_0 外形線1
100
AcDbLine
 10
-83.28341900000031
 20
-20.79999999999996
 30
0.0
 11
-65.90000000000054
 21
-20.79999999999996
 31
0.0
  0
LINE
  5
539D
330
538F
100
AcDbEntity
  8
AM_0 外形線1
100
AcDbLine
 10
-65.90000000000054
 20
-10.39230500000008
 30
0.0
 11
-83.28341900000031
 21
-10.39230500000008
 31
0.0
  0
LINE
  5
539E
330
538F
100
AcDbEntity
  8
AM_0 外形線1
100
AcDbLine
 10
-84.90000000000055
 20
-18.0
 30
0.0
 11
-83.28341900000031
 21
-20.79999999999996
 31
0.0
  0
ARC
  5
539F
330
538F
100
AcDbEntity
  8
AM_0 外形線1
100
AcDbCircle
 10
-75.71599799999967
 20
-15.59615199999984
 30
0.0
 40
9.184001999999999
100
AcDbArc
 50
145.4850749999796
 51
214.5149250000203
  0
LINE
  5
53A0
330
538F
100
AcDbEntity
  8
AM_0 外形線1
100
AcDbLine
 10
-93.0
 20
-10.0
 30
0.0
 11
-91.0
 21
-12.0
 31
0.0
  0
LINE
  5
53A1
330
538F
100
AcDbEntity
  8
AM_0 外形線1
100
AcDbLine
 10
-91.0
 20
-12.0
 30
0.0
 11
-84.90000000000055
 21
-12.0
 31
0.0
  0
LINE
  5
53A2
330
538F
100
AcDbEntity
  8
AM_4 細線
100
AcDbLine
 10
-92.0
 20
-11.0
 30
0.0
 11
-84.90000000000055
 21
-11.0
 31
0.0
  0
LINE
  5
53A3
330
538F
100
AcDbEntity
  8
AM_0 外形線1
100
AcDbLine
 10
-60.0
 20
3.933334000000057
 30
0.0
 11
-65.90000000000054
 21
-1.96666600000003
 31
0.0
  0
LINE
  5
53A4
330
538F
100
AcDbEntity
  8
AM_0 外形線1
100
AcDbLine
 10
-60.0
 20
1.966667000000143
 30
0.0
 11
-65.90000000000054
 21
-3.93333299999972
 31
0.0
  0
LINE
  5
53A5
330
538F
100
AcDbEntity
  8
AM_0 外形線1
100
AcDbLine
 10
-59.0
 20
-11.84529899999984
 30
0.0
 11
-57.0
 21
-13.0
 31
0.0
  0
LINE
  5
53A6
330
538F
100
AcDbEntity
  8
AM_0 外形線1
100
AcDbLine
 10
-60.0
 20
-17.0
 30
0.0
 11
-65.90000000000054
 21
-17.0
 31
0.0
  0
LINE
  5
53A7
330
538F
100
AcDbEntity
  8
AM_0 外形線1
100
AcDbLine
 10
-59.0
 20
-11.84529899999984
 30
0.0
 11
-60.0
 21
-11.84529899999984
 31
0.0
  0
ARC
  5
53A8
330
538F
100
AcDbEntity
  8
AM_0 外形線1
100
AcDbCircle
 10
-1.5
 20
-13.0
 30
0.0
 40
1.0
100
AcDbArc
 50
90.0
 51
180.0
  0
LINE
  5
53A9
330
538F
100
AcDbEntity
  8
AM_0 外形線1
100
AcDbLine
 10
-65.90000000000054
 20
20.79999999999996
 30
0.0
 11
-83.28341900000031
 21
20.79999999999996
 31
0.0
  0
LINE
  5
53AA
330
538F
100
AcDbEntity
  8
AM_0 外形線1
100
AcDbLine
 10
-65.90000000000054
 20
10.39230500000008
 30
0.0
 11
-83.28341900000031
 21
10.39230500000008
 31
0.0
  0
LINE
  5
53AB
330
538F
100
AcDbEntity
  8
AM_0 外形線1
100
AcDbLine
 10
-83.28341900000031
 20
20.79999999999996
 30
0.0
 11
-84.90000000000055
 21
18.0
 31
0.0
  0
ARC
  5
53AC
330
538F
100
AcDbEntity
  8
AM_0 外形線1
100
AcDbCircle
 10
-75.71599799999967
 20
15.59615300000018
 30
0.0
 40
9.184001999999999
100
AcDbArc
 50
145.4850749999796
 51
214.5149250000203
  0
LINE
  5
53AD
330
538F
100
AcDbEntity
  8
AM_0 外形線1
100
AcDbLine
 10
-84.90000000000055
 20
12.0
 30
0.0
 11
-91.0
 21
12.0
 31
0.0
  0
LINE
  5
53AE
330
538F
100
AcDbEntity
  8
AM_0 外形線1
100
AcDbLine
 10
-91.0
 20
12.0
 30
0.0
 11
-93.0
 21
10.0
 31
0.0
  0
LINE
  5
53AF
330
538F
100
AcDbEntity
  8
AM_4 細線
100
AcDbLine
 10
-92.0
 20
11.0
 30
0.0
 11
-84.90000000000055
 21
11.0
 31
0.0
  0
LINE
  5
53B0
330
538F
100
AcDbEntity
  8
AM_0 外形線1
100
AcDbLine
 10
-57.0
 20
13.0
 30
0.0
 11
-59.0
 21
11.84529999999995
 31
0.0
  0
LINE
  5
53B1
330
538F
100
AcDbEntity
  8
AM_0 外形線1
100
AcDbLine
 10
-65.90000000000054
 20
17.0
 30
0.0
 11
-60.0
 21
17.0
 31
0.0
  0
LINE
  5
53B2
330
538F
100
AcDbEntity
  8
AM_0 外形線1
100
AcDbLine
 10
-59.0
 20
11.84529999999995
 30
0.0
 11
-60.0
 21
11.84529999999995
 31
0.0
  0
ARC
  5
53B3
330
538F
100
AcDbEntity
  8
AM_0 外形線1
100
AcDbCircle
 10
-1.5
 20
13.0
 30
0.0
 40
1.0
100
AcDbArc
 50
180.0
 51
270.0
  0
LINE
  5
53B4
330
538F
100
AcDbEntity
  8
AM_0 外形線1
100
AcDbLine
 10
15.0
 20
18.0
 30
0.0
 11
15.0
 21
-18.0
 31
0.0
  0
ARC
  5
53B5
330
538F
100
AcDbEntity
  8
AM_0 外形線1
100
AcDbCircle
 10
-19.21212700000069
 20
0.0
 30
0.0
 40
34.212127
100
AcDbArc
 50
342.3163709999824
 51
17.68362900001755
  0
LINE
  5
53B6
330
538F
100
AcDbEntity
  8
AM_0 外形線1
100
AcDbLine
 10
15.0
 20
-18.0
 30
0.0
 11
13.38341899999977
 21
-20.79999999999996
 31
0.0
  0
LINE
  5
53B7
330
538F
100
AcDbEntity
  8
AM_0 外形線1
100
AcDbLine
 10
13.38341899999977
 20
-20.79999999999996
 30
0.0
 11
0.0
 21
-20.79999999999996
 31
0.0
  0
LINE
  5
53B8
330
538F
100
AcDbEntity
  8
AM_0 外形線1
100
AcDbLine
 10
0.0
 20
-10.39230500000008
 30
0.0
 11
13.38341899999977
 21
-10.39230500000008
 31
0.0
  0
ARC
  5
53B9
330
538F
100
AcDbEntity
  8
AM_0 外形線1
100
AcDbCircle
 10
-1.0
 20
-13.0
 30
0.0
 40
1.0
100
AcDbArc
 50
0.0
 51
90.0
  0
LINE
  5
53BA
330
538F
100
AcDbEntity
  8
AM_0 外形線1
100
AcDbLine
 10
0.0
 20
20.79999999999996
 30
0.0
 11
13.38341899999977
 21
20.79999999999996
 31
0.0
  0
LINE
  5
53BB
330
538F
100
AcDbEntity
  8
AM_0 外形線1
100
AcDbLine
 10
13.38341899999977
 20
20.79999999999996
 30
0.0
 11
15.0
 21
18.0
 31
0.0
  0
LINE
  5
53BC
330
538F
100
AcDbEntity
  8
AM_0 外形線1
100
AcDbLine
 10
0.0
 20
10.39230500000008
 30
0.0
 11
13.38341899999977
 21
10.39230500000008
 31
0.0
  0
ARC
  5
53BD
330
538F
100
AcDbEntity
  8
AM_0 外形線1
100
AcDbCircle
 10
5.815998000000034
 20
15.59615300000018
 30
0.0
 40
9.184001999999999
100
AcDbArc
 50
325.4850749999797
 51
34.51492500002031
  0
ARC
  5
53BF
330
538F
100
AcDbEntity
  8
AM_0 外形線1
100
AcDbCircle
 10
5.815998000000034
 20
-15.59615199999984
 30
0.0
 40
9.184001999999999
100
AcDbArc
 50
325.4850749999797
 51
34.51492500002031
  0
LINE
  5
5424
330
538F
100
AcDbEntity
  8
AM_0 外形線1
100
AcDbLine
 10
-60.0
 20
17.0
 30
0.0
 11
-60.0
 21
-17.0
 31
0.0
  0
LINE
  5
5425
330
538F
100
AcDbEntity
  8
AM_0 外形線1
100
AcDbLine
 10
-57.0
 20
13.00000000000023
 30
0.0
 11
-2.5
 21
13.00000000000023
 31
0.0
  0
LINE
  5
5426
330
538F
100
AcDbEntity
  8
AM_0 外形線1
100
AcDbLine
 10
-57.0
 20
-13.00000000000023
 30
0.0
 11
-2.5
 21
-13.00000000000023
 31
0.0
  0
LINE
  5
5427
330
538F
100
AcDbEntity
  8
AM_0 外形線1
100
AcDbLine
 10
0.0
 20
-20.79999999999996
 30
0.0
 11
0.0
 21
20.80000000000018
 31
0.0
  0
ARC
  5
5428
330
538F
100
AcDbEntity
  8
AM_0 外形線1
100
AcDbCircle
 10
-1.0
 20
13.0
 30
0.0
 40
1.0
100
AcDbArc
 50
270.0
 51
0.0
  0
ENDBLK
  5
5391
330
538F
100
AcDbEntity
  8
0
100
AcDbBlockEnd
  0
BLOCK
  5
54AB
330
54AA
100
AcDbEntity
  8
0
100
AcDbBlockBegin
  2
ＧＣサイドカバ－A CCMH630
 70
     0
 10
0.0
 20
0.0
 30
0.0
  3
ＧＣサイドカバ－A CCMH630
  1

  0
LINE
  5
54AD
330
54AA
100
AcDbEntity
  8
AM_0 外形線1
100
AcDbLine
 10
18.0
 20
-261.0
 30
0.0
 11
18.0
 21
0.0
 31
0.0
  0
LINE
  5
54AF
330
54AA
100
AcDbEntity
  8
AM_7 中心線
 48
0.5
100
AcDbLine
 10
36.00886499999979
 20
-261.0
 30
0.0
 11
-24.4734040000003
 21
-261.0
 31
0.0
  0
LINE
  5
54B0
330
54AA
100
AcDbEntity
  8
AM_0 外形線1
100
AcDbLine
 10
0.0
 20
-272.0
 30
0.0
 11
18.0
 21
-272.0
 31
0.0
  0
LINE
  5
54B1
330
54AA
100
AcDbEntity
  8
AM_0 外形線1
100
AcDbLine
 10
18.0
 20
-272.0
 30
0.0
 11
18.0
 21
-261.0
 31
0.0
  0
LINE
  5
54B2
330
54AA
100
AcDbEntity
  8
AM_0 外形線1
100
AcDbLine
 10
-1.0
 20
235.7000000000001
 30
0.0
 11
-1.0
 21
229.5
 31
0.0
  0
LWPOLYLINE
  5
54B3
330
54AA
100
AcDbEntity
  8
AM_0 外形線1
100
AcDbPolyline
 90
       73
 70
     0
 43
0.0
 10
-1.0
 20
231.5999999999999
 10
-0.973363000000063
 20
231.2426619999999
 10
-0.893654000000424
 20
230.8880429999999
 10
-0.7614810000004582
 20
230.5388419999999
 10
-0.5778479999999036
 20
230.1977179999999
 10
-0.3441550000006828
 20
229.8672649999998
 10
-0.0621780000001309
 20
229.55
 10
0.2659359999997832
 20
229.248337
 10
0.6376889999992274
 20
228.964571
 10
1.050251999999999
 20
228.7008619999999
 10
1.500486999999337
 20
228.459218
 10
1.984964999999646
 20
228.241477
 10
2.5
 20
228.0492959999999
 10
3.04167199999938
 20
227.8841379999999
 10
3.605858999999326
 20
227.747261
 10
4.188266999999541
 20
227.6397039999999
 10
4.784462999999958
 20
227.5622879999998
 10
5.389909999999872
 20
227.5156019999999
 10
6.0
 20
227.5
 10
6.610090000000127
 20
227.5156019999999
 10
7.21553700000004
 20
227.5622879999998
 10
7.811732999999549
 20
227.6397039999999
 10
8.394140999999763
 20
227.747261
 10
8.958327999999712
 20
227.8841379999999
 10
9.5
 20
228.0492959999999
 10
10.01503499999944
 20
228.241477
 10
10.49951299999975
 20
228.459218
 10
10.94974699999966
 20
228.7008619999999
 10
11.36231099999986
 20
228.964571
 10
11.73406400000021
 20
229.248337
 10
12.06217800000013
 20
229.55
 10
12.34415400000034
 20
229.8672649999998
 10
12.5778479999999
 20
230.1977179999999
 10
12.76148099999955
 20
230.5388419999999
 10
12.89365399999951
 20
230.8880429999999
 10
12.97336300000006
 20
231.2426619999999
 10
13.0
 20
231.5999999999999
 10
12.97336300000006
 20
231.9573389999998
 10
12.89365399999951
 20
232.311958
 10
12.76148099999955
 20
232.6611580000001
 10
12.5778479999999
 20
233.002283
 10
12.34415400000034
 20
233.332735
 10
12.06217800000013
 20
233.65
 10
11.73406400000021
 20
233.9516639999999
 10
11.36231099999986
 20
234.2354289999998
 10
10.94974699999966
 20
234.4991379999999
 10
10.49951299999975
 20
234.7407819999999
 10
10.01503499999944
 20
234.9585239999999
 10
9.5
 20
235.1507039999999
 10
8.958327999999712
 20
235.3158619999999
 10
8.394140999999763
 20
235.4527399999999
 10
7.811732999999549
 20
235.5602959999999
 10
7.21553700000004
 20
235.637712
 10
6.610090000000127
 20
235.6843989999998
 10
6.0
 20
235.7000000000001
 10
5.389909999999872
 20
235.6843989999998
 10
4.784462999999958
 20
235.637712
 10
4.188266999999541
 20
235.5602959999999
 10
3.605858999999326
 20
235.4527399999999
 10
3.04167199999938
 20
235.3158619999999
 10
2.5
 20
235.1507039999999
 10
1.984964999999646
 20
234.9585239999999
 10
1.500486999999337
 20
234.7407819999999
 10
1.050251999999999
 20
234.4991379999999
 10
0.6376889999992274
 20
234.2354289999998
 10
0.2659359999997832
 20
233.9516639999999
 10
-0.0621780000001309
 20
233.65
 10
-0.3441550000006828
 20
233.332735
 10
-0.5778479999999036
 20
233.002283
 10
-0.7614810000004582
 20
232.6611580000001
 10
-0.893654000000424
 20
232.311958
 10
-0.973363000000063
 20
231.9573389999998
 10
-1.0
 20
231.5999999999999
  0
LINE
  5
54B4
330
54AA
100
AcDbEntity
  8
AM_0 外形線1
100
AcDbLine
 10
18.0
 20
260.9999999999998
 30
0.0
 11
18.0
 21
229.5
 31
0.0
  0
LINE
  5
54B5
330
54AA
100
AcDbEntity
  8
AM_0 外形線1
100
AcDbLine
 10
-6.0
 20
229.5
 30
0.0
 11
-6.0
 21
247.0000000000002
 31
0.0
  0
LINE
  5
54B6
330
54AA
100
AcDbEntity
  8
AM_0 外形線1
100
AcDbLine
 10
-1.0
 20
229.5
 30
0.0
 11
-1.0
 21
227.5
 31
0.0
  0
LINE
  5
54B7
330
54AA
100
AcDbEntity
  8
AM_0 外形線1
100
AcDbLine
 10
-6.0
 20
229.5
 30
0.0
 11
-6.0
 21
227.5
 31
0.0
  0
LINE
  5
54B8
330
54AA
100
AcDbEntity
  8
AM_0 外形線1
100
AcDbLine
 10
-1.0
 20
229.5
 30
0.0
 11
-6.0
 21
229.5
 31
0.0
  0
LINE
  5
54B9
330
54AA
100
AcDbEntity
  8
AM_7 中心線
 48
0.5
100
AcDbLine
 10
36.00886499999979
 20
260.9999999999998
 30
0.0
 11
-24.4734040000003
 21
260.9999999999998
 31
0.0
  0
LINE
  5
54BA
330
54AA
100
AcDbEntity
  8
AM_0 外形線1
100
AcDbLine
 10
-14.5
 20
265.2499999999998
 30
0.0
 11
-20.0
 21
265.2499999999998
 31
0.0
  0
LINE
  5
54BB
330
54AA
100
AcDbEntity
  8
AM_0 外形線1
100
AcDbLine
 10
-20.0
 20
256.7499999999999
 30
0.0
 11
-14.5
 21
256.7499999999999
 31
0.0
  0
LINE
  5
54BC
330
54AA
100
AcDbEntity
  8
AM_0 外形線1
100
AcDbLine
 10
-20.0
 20
265.2499999999998
 30
0.0
 11
-22.4537390000005
 21
260.9999999999998
 31
0.0
  0
LINE
  5
54BD
330
54AA
100
AcDbEntity
  8
AM_0 外形線1
100
AcDbLine
 10
-22.4537390000005
 20
260.9999999999998
 30
0.0
 11
-20.0
 21
256.7499999999999
 31
0.0
  0
LINE
  5
54BE
330
54AA
100
AcDbEntity
  8
AM_0 外形線1
100
AcDbLine
 10
-20.0
 20
265.2499999999998
 30
0.0
 11
-20.0
 21
256.7499999999999
 31
0.0
  0
LINE
  5
54BF
330
54AA
100
AcDbEntity
  8
AM_0 外形線1
100
AcDbLine
 10
18.0
 20
271.9999999999998
 30
0.0
 11
18.0
 21
260.9999999999998
 31
0.0
  0
LINE
  5
54C0
330
54AA
100
AcDbEntity
  8
AM_0 外形線1
100
AcDbLine
 10
20.5
 20
270.2499999999998
 30
0.0
 11
20.5
 21
251.7499999999998
 31
0.0
  0
ARC
  5
54C1
330
54AA
100
AcDbEntity
  8
AM_0 外形線1
100
AcDbCircle
 10
23.68038399999932
 20
268.346262
 30
0.0
 40
3.827039
100
AcDbArc
 50
320.121744999991
 51
39.87825500000901
  0
LINE
  5
54C2
330
54AA
100
AcDbEntity
  8
AM_0 外形線1
100
AcDbLine
 10
27.5
 20
268.584521
 30
0.0
 11
27.5
 21
253.415479
 31
0.0
  0
LINE
  5
54C3
330
54AA
100
AcDbEntity
  8
AM_0 外形線1
100
AcDbLine
 10
18.0
 20
266.4999999999998
 30
0.0
 11
0.0
 21
266.4999999999998
 31
0.0
  0
LINE
  5
54C4
330
54AA
100
AcDbEntity
  8
AM_0 外形線1
100
AcDbLine
 10
18.0
 20
255.4999999999998
 30
0.0
 11
0.0
 21
255.4999999999998
 31
0.0
  0
LINE
  5
54C5
330
54AA
100
AcDbEntity
  8
AM_4 細線
100
AcDbLine
 10
18.0
 20
265.9999999999998
 30
0.0
 11
-14.5
 21
265.9999999999998
 31
0.0
  0
LINE
  5
54C6
330
54AA
100
AcDbEntity
  8
AM_4 細線
100
AcDbLine
 10
-14.5
 20
255.9999999999998
 30
0.0
 11
18.0
 21
255.9999999999998
 31
0.0
  0
LINE
  5
54C7
330
54AA
100
AcDbEntity
  8
AM_0 外形線1
100
AcDbLine
 10
18.0
 20
265.2499999999998
 30
0.0
 11
-14.5
 21
265.2499999999998
 31
0.0
  0
LINE
  5
54C8
330
54AA
100
AcDbEntity
  8
AM_0 外形線1
100
AcDbLine
 10
-14.5
 20
256.7499999999999
 30
0.0
 11
18.0
 21
256.7499999999999
 31
0.0
  0
LINE
  5
54C9
330
54AA
100
AcDbEntity
  8
AM_0 外形線1
100
AcDbLine
 10
13.0
 20
235.7000000000001
 30
0.0
 11
-1.0
 21
235.7000000000001
 31
0.0
  0
LINE
  5
54CA
330
54AA
100
AcDbEntity
  8
AM_0 外形線1
100
AcDbLine
 10
-5.5
 20
247.5000000000002
 30
0.0
 11
3.099999999999453
 21
247.5
 31
0.0
  0
LINE
  5
54CB
330
54AA
100
AcDbEntity
  8
AM_0 外形線1
100
AcDbLine
 10
3.099999999999453
 20
247.5
 30
0.0
 11
3.099999999999453
 21
252.7999999999997
 31
0.0
  0
LINE
  5
54CC
330
54AA
100
AcDbEntity
  8
AM_0 外形線1
100
AcDbLine
 10
3.099999999999453
 20
252.7999999999997
 30
0.0
 11
0.0
 21
252.7999999999997
 31
0.0
  0
LWPOLYLINE
  5
54CD
330
54AA
100
AcDbEntity
  8
AM_0 外形線1
100
AcDbPolyline
 90
       73
 70
     0
 43
0.0
 10
1.549999999999271
 20
247.5
 10
1.685090999999374
 20
247.510084
 10
1.819154999999226
 20
247.54026
 10
1.951168999999936
 20
247.5902969999999
 10
2.08013099999971
 20
247.659815
 10
2.205057999999553
 20
247.7482849999999
 10
2.324999999999818
 20
247.855033
 10
2.4390429999994
 20
247.979247
 10
2.546320999999806
 20
248.119982
 10
2.64601500000026
 20
248.276167
 10
2.737369000000398
 20
248.4466130000001
 10
2.819685999999818
 20
248.6300229999999
 10
2.892338999999991
 20
248.8249999999998
 10
2.954776999999921
 20
249.0300619999998
 10
3.006523999999443
 20
249.243647
 10
3.047184999999443
 20
249.4641299999998
 10
3.076451999999334
 20
249.689833
 10
3.09410200000002
 20
249.919038
 10
3.099999999999453
 20
250.1499999999999
 10
3.09410200000002
 20
250.3809630000001
 10
3.076451999999334
 20
250.6101679999997
 10
3.047184999999443
 20
250.835871
 10
3.006523999999443
 20
251.0563540000001
 10
2.954776999999921
 20
251.2699389999998
 10
2.892338999999991
 20
251.4749999999999
 10
2.819685999999818
 20
251.6699779999999
 10
2.737369000000398
 20
251.8533869999999
 10
2.64601500000026
 20
252.023833
 10
2.546320999999806
 20
252.1800179999998
 10
2.4390429999994
 20
252.320753
 10
2.324999999999818
 20
252.4449679999998
 10
2.205057999999553
 20
252.5517159999999
 10
2.08013099999971
 20
252.6401859999999
 10
1.951168999999936
 20
252.7097040000001
 10
1.819154999999226
 20
252.7597409999998
 10
1.685090999999374
 20
252.789916
 10
1.549999999999271
 20
252.7999999999997
 10
1.41490899999917
 20
252.789916
 10
1.280844999999317
 20
252.7597409999998
 10
1.148830000000089
 20
252.7097040000001
 10
1.019868999999743
 20
252.6401859999999
 10
0.8949419999999006
 20
252.5517159999999
 10
0.7749999999996362
 20
252.4449679999998
 10
0.6609559999997146
 20
252.320753
 10
0.5536789999996472
 20
252.1800179999998
 10
0.4539839999997639
 20
252.023833
 10
0.3626309999999648
 20
251.8533869999999
 10
0.2803139999996347
 20
251.6699779999999
 10
0.2076610000003711
 20
251.4749999999999
 10
0.1452229999995325
 20
251.2699389999998
 10
0.0934760000000097
 20
251.0563540000001
 10
0.0528150000000096
 20
250.835871
 10
0.0235479999992094
 20
250.6101679999997
 10
0.0058979999994335
 20
250.3809630000001
 10
0.0
 20
250.1499999999999
 10
0.0058979999994335
 20
249.919038
 10
0.0235479999992094
 20
249.689833
 10
0.0528150000000096
 20
249.4641299999998
 10
0.0934760000000097
 20
249.243647
 10
0.1452229999995325
 20
249.0300619999998
 10
0.2076610000003711
 20
248.8249999999998
 10
0.2803139999996347
 20
248.6300229999999
 10
0.3626309999999648
 20
248.4466130000001
 10
0.4539839999997639
 20
248.276167
 10
0.5536789999996472
 20
248.119982
 10
0.6609559999997146
 20
247.979247
 10
0.7749999999996362
 20
247.855033
 10
0.8949419999999006
 20
247.7482849999999
 10
1.019868999999743
 20
247.659815
 10
1.148830000000089
 20
247.5902969999999
 10
1.280844999999317
 20
247.54026
 10
1.41490899999917
 20
247.510084
 10
1.549999999999271
 20
247.5
  0
LINE
  5
54CE
330
54AA
100
AcDbEntity
  8
AM_0 外形線1
100
AcDbLine
 10
-14.5
 20
265.9999999999998
 30
0.0
 11
-14.5
 21
255.9999999999998
 31
0.0
  0
LINE
  5
54CF
330
54AA
100
AcDbEntity
  8
AM_0 外形線1
100
AcDbLine
 10
20.5
 20
251.7499999999998
 30
0.0
 11
18.0
 21
251.7499999999998
 31
0.0
  0
ARC
  5
54D0
330
54AA
100
AcDbEntity
  8
AM_0 外形線1
100
AcDbCircle
 10
13.5
 20
260.9999999999998
 30
0.0
 40
14.0
100
AcDbArc
 50
339.5453489999912
 51
20.4546510000088
  0
ARC
  5
54D1
330
54AA
100
AcDbEntity
  8
AM_0 外形線1
100
AcDbCircle
 10
23.68038399999932
 20
253.6537389999999
 30
0.0
 40
3.827039
100
AcDbArc
 50
320.121744999991
 51
39.87825500000901
  0
LINE
  5
54D2
330
54AA
100
AcDbEntity
  8
AM_0 外形線1
100
AcDbLine
 10
26.61728700000003
 20
251.1999999999998
 30
0.0
 11
20.74348199999986
 21
251.1999999999998
 31
0.0
  0
LINE
  5
54D3
330
54AA
100
AcDbEntity
  8
AM_0 外形線1
100
AcDbLine
 10
20.74348199999986
 20
251.1999999999998
 30
0.0
 11
20.5
 21
251.1999999999998
 31
0.0
  0
LINE
  5
54D4
330
54AA
100
AcDbEntity
  8
AM_0 外形線1
100
AcDbLine
 10
20.5
 20
251.1999999999998
 30
0.0
 11
20.5
 21
251.7499999999998
 31
0.0
  0
LINE
  5
54D5
330
54AA
100
AcDbEntity
  8
AM_0 外形線1
100
AcDbLine
 10
20.5
 20
265.8925229999998
 30
0.0
 11
26.61728700000003
 21
265.8925229999998
 31
0.0
  0
LINE
  5
54D6
330
54AA
100
AcDbEntity
  8
AM_0 外形線1
100
AcDbLine
 10
20.5
 20
256.1074779999999
 30
0.0
 11
26.61728700000003
 21
256.1074779999999
 31
0.0
  0
LINE
  5
54D7
330
54AA
100
AcDbEntity
  8
AM_0 外形線1
100
AcDbLine
 10
18.0
 20
260.4999999999998
 30
0.0
 11
20.5
 21
262.9999999999999
 31
0.0
  0
LINE
  5
54D8
330
54AA
100
AcDbEntity
  8
AM_0 外形線1
100
AcDbLine
 10
20.5
 20
261.4999999999998
 30
0.0
 11
18.0
 21
258.9999999999998
 31
0.0
  0
LINE
  5
54D9
330
54AA
100
AcDbEntity
  8
AM_0 外形線1
100
AcDbLine
 10
18.0
 20
270.2499999999998
 30
0.0
 11
20.5
 21
270.2499999999998
 31
0.0
  0
LINE
  5
54DA
330
54AA
100
AcDbEntity
  8
AM_0 外形線1
100
AcDbLine
 10
20.5
 20
270.2499999999998
 30
0.0
 11
20.5
 21
270.7999999999997
 31
0.0
  0
LINE
  5
54DB
330
54AA
100
AcDbEntity
  8
AM_0 外形線1
100
AcDbLine
 10
20.5
 20
270.7999999999997
 30
0.0
 11
26.61728700000003
 21
270.7999999999997
 31
0.0
  0
LINE
  5
54DC
330
54AA
100
AcDbEntity
  8
AM_0 外形線1
100
AcDbLine
 10
13.0
 20
229.5
 30
0.0
 11
13.0
 21
235.7000000000001
 31
0.0
  0
LINE
  5
54DD
330
54AA
100
AcDbEntity
  8
AM_0 外形線1
100
AcDbLine
 10
18.0
 20
229.5
 30
0.0
 11
18.0
 21
227.5
 31
0.0
  0
LINE
  5
54DE
330
54AA
100
AcDbEntity
  8
AM_0 外形線1
100
AcDbLine
 10
13.0
 20
229.5
 30
0.0
 11
13.0
 21
227.5
 31
0.0
  0
LINE
  5
54DF
330
54AA
100
AcDbEntity
  8
AM_0 外形線1
100
AcDbLine
 10
18.0
 20
229.5
 30
0.0
 11
13.0
 21
229.5
 31
0.0
  0
LINE
  5
5577
330
54AA
100
AcDbEntity
  8
AM_0 外形線1
100
AcDbLine
 10
0.0
 20
0.0
 30
0.0
 11
0.0000000000002274
 21
-272.0
 31
0.0
  0
LINE
  5
5578
330
54AA
100
AcDbEntity
  8
AM_0 外形線1
100
AcDbLine
 10
0.0
 20
271.9999999999998
 30
0.0
 11
18.0
 21
271.9999999999998
 31
0.0
  0
LINE
  5
5579
330
54AA
100
AcDbEntity
  8
AM_0 外形線1
100
AcDbLine
 10
0.0
 20
265.9999999999998
 30
0.0
 11
-0.0000000000002274
 21
271.9999999999998
 31
0.0
  0
LINE
  5
557A
330
54AA
100
AcDbEntity
  8
AM_0 外形線1
100
AcDbLine
 10
0.0
 20
255.9999999999998
 30
0.0
 11
-0.0000000000002274
 21
252.7999999999997
 31
0.0
  0
LINE
  5
557B
330
54AA
100
AcDbEntity
  8
AM_0 外形線1
100
AcDbLine
 10
-6.0
 20
247.0000000000002
 30
0.0
 11
-5.5
 21
247.5000000000002
 31
0.0
1001
GENIUS_GENFIL_13
1070
     0
1040
0.5
1040
0.5
1040
20.0
1040
0.0
1002
{
1002
}
1001
GENIUS_GENODEF_13
1002
{
1000
HIER
1070
     0
1002
}
1002
{
1000
MANEDIT
1070
     0
1002
}
1002
{
1000
NOSEL
1070
     0
1002
}
1002
{
1000
BEHIND
1070
     0
1002
}
1002
{
1000
OTHER
1070
     0
1002
}
1002
{
1000
REACTOR
1002
}
1001
GENIUS_GENOBJ-N-CHA_13
1002
{
1000
OWNER
1000
GEN
1002
}
  0
ENDBLK
  5
54AC
330
54AA
100
AcDbEntity
  8
0
100
AcDbBlockEnd
  0
BLOCK
  5
561C
330
561B
100
AcDbEntity
  8
0
100
AcDbBlockBegin
  2
ＧＣサイドカバ－Ｂ CCMH630
 70
     0
 10
0.0
 20
0.0
 30
0.0
  3
ＧＣサイドカバ－Ｂ CCMH630
  1

  0
LINE
  5
561E
330
561B
100
AcDbEntity
  8
AM_0 外形線1
100
AcDbLine
 10
-18.0
 20
-261.0
 30
0.0
 11
-18.0
 21
0.0
 31
0.0
  0
LINE
  5
561F
330
561B
100
AcDbEntity
  8
AM_7 中心線
 48
0.5
100
AcDbLine
 10
-36.00886499999979
 20
-261.0
 30
0.0
 11
25.89538999999968
 21
-261.0
 31
0.0
  0
LINE
  5
5620
330
561B
100
AcDbEntity
  8
AM_0 外形線1
100
AcDbLine
 10
-18.0
 20
-272.0
 30
0.0
 11
-18.0
 21
-261.0
 31
0.0
  0
LINE
  5
5621
330
561B
100
AcDbEntity
  8
AM_0 外形線1
100
AcDbLine
 10
1.0
 20
235.7000000000001
 30
0.0
 11
1.0
 21
229.5
 31
0.0
  0
LINE
  5
5622
330
561B
100
AcDbEntity
  8
AM_0 外形線1
100
AcDbLine
 10
-13.0
 20
229.5
 30
0.0
 11
-13.0
 21
235.7000000000001
 31
0.0
  0
LWPOLYLINE
  5
5623
330
561B
100
AcDbEntity
  8
AM_0 外形線1
100
AcDbPolyline
 90
       73
 70
     0
 43
0.0
 10
1.0
 20
231.5999999999999
 10
0.973363000000063
 20
231.9573389999998
 10
0.8936539999995146
 20
232.311958
 10
0.7614809999995487
 20
232.6611580000001
 10
0.5778479999999036
 20
233.002283
 10
0.3441540000003442
 20
233.332735
 10
0.0621780000001309
 20
233.65
 10
-0.2659359999997832
 20
233.9516639999999
 10
-0.6376890000001369
 20
234.2354289999998
 10
-1.050253000000338
 20
234.4991379999999
 10
-1.500487000000247
 20
234.7407819999999
 10
-1.984965000000555
 20
234.9585239999999
 10
-2.5
 20
235.1507039999999
 10
-3.041672000000288
 20
235.3158619999999
 10
-3.605859000000235
 20
235.4527399999999
 10
-4.18826700000045
 20
235.5602959999999
 10
-4.784462999999958
 20
235.637712
 10
-5.389909999999872
 20
235.6843989999998
 10
-6.0
 20
235.7000000000001
 10
-6.610090000000127
 20
235.6843989999998
 10
-7.21553700000004
 20
235.637712
 10
-7.811733000000456
 20
235.5602959999999
 10
-8.394141000000672
 20
235.4527399999999
 10
-8.958328000000618
 20
235.3158619999999
 10
-9.5
 20
235.1507039999999
 10
-10.01503500000035
 20
234.9585239999999
 10
-10.49951300000066
 20
234.7407819999999
 10
-10.949748
 20
234.4991379999999
 10
-11.36231100000077
 20
234.2354289999998
 10
-11.73406400000021
 20
233.9516639999999
 10
-12.06217800000013
 20
233.65
 10
-12.34415500000068
 20
233.332735
 10
-12.5778479999999
 20
233.002283
 10
-12.76148100000046
 20
232.6611580000001
 10
-12.89365400000042
 20
232.311958
 10
-12.97336300000006
 20
231.9573389999998
 10
-13.0
 20
231.5999999999999
 10
-12.97336300000006
 20
231.2426619999999
 10
-12.89365400000042
 20
230.8880429999999
 10
-12.76148100000046
 20
230.5388419999999
 10
-12.5778479999999
 20
230.1977179999999
 10
-12.34415500000068
 20
229.8672649999998
 10
-12.06217800000013
 20
229.55
 10
-11.73406400000021
 20
229.248337
 10
-11.36231100000077
 20
228.964571
 10
-10.949748
 20
228.7008619999999
 10
-10.49951300000066
 20
228.459218
 10
-10.01503500000035
 20
228.241477
 10
-9.5
 20
228.0492959999999
 10
-8.958328000000618
 20
227.8841379999999
 10
-8.394141000000672
 20
227.747261
 10
-7.811733000000456
 20
227.6397039999999
 10
-7.21553700000004
 20
227.5622879999998
 10
-6.610090000000127
 20
227.5156019999999
 10
-6.0
 20
227.5
 10
-5.389909999999872
 20
227.5156019999999
 10
-4.784462999999958
 20
227.5622879999998
 10
-4.18826700000045
 20
227.6397039999999
 10
-3.605859000000235
 20
227.747261
 10
-3.041672000000288
 20
227.8841379999999
 10
-2.5
 20
228.0492959999999
 10
-1.984965000000555
 20
228.241477
 10
-1.500487000000247
 20
228.459218
 10
-1.050253000000338
 20
228.7008619999999
 10
-0.6376890000001369
 20
228.964571
 10
-0.2659359999997832
 20
229.248337
 10
0.0621780000001309
 20
229.55
 10
0.3441540000003442
 20
229.8672649999998
 10
0.5778479999999036
 20
230.1977179999999
 10
0.7614809999995487
 20
230.5388419999999
 10
0.8936539999995146
 20
230.8880429999999
 10
0.973363000000063
 20
231.2426619999999
 10
1.0
 20
231.5999999999999
  0
LINE
  5
5624
330
561B
100
AcDbEntity
  8
AM_0 外形線1
100
AcDbLine
 10
-18.0
 20
260.9999999999998
 30
0.0
 11
-18.0
 21
229.5
 31
0.0
  0
LINE
  5
5625
330
561B
100
AcDbEntity
  8
AM_0 外形線1
100
AcDbLine
 10
6.0
 20
229.5
 30
0.0
 11
6.0
 21
247.0
 31
0.0
  0
LINE
  5
5626
330
561B
100
AcDbEntity
  8
AM_0 外形線1
100
AcDbLine
 10
1.0
 20
229.5
 30
0.0
 11
6.0
 21
229.5
 31
0.0
  0
LINE
  5
5627
330
561B
100
AcDbEntity
  8
AM_0 外形線1
100
AcDbLine
 10
1.0
 20
229.5
 30
0.0
 11
1.0
 21
227.5
 31
0.0
  0
LINE
  5
5628
330
561B
100
AcDbEntity
  8
AM_0 外形線1
100
AcDbLine
 10
-18.0
 20
229.5
 30
0.0
 11
-18.0
 21
227.5
 31
0.0
  0
LINE
  5
5629
330
561B
100
AcDbEntity
  8
AM_0 外形線1
100
AcDbLine
 10
-13.0
 20
229.5
 30
0.0
 11
-13.0
 21
227.5
 31
0.0
  0
LINE
  5
562A
330
561B
100
AcDbEntity
  8
AM_0 外形線1
100
AcDbLine
 10
-18.0
 20
229.5
 30
0.0
 11
-13.0
 21
229.5
 31
0.0
  0
LINE
  5
562B
330
561B
100
AcDbEntity
  8
AM_0 外形線1
100
AcDbLine
 10
6.0
 20
229.5
 30
0.0
 11
6.0
 21
227.5
 31
0.0
  0
LINE
  5
562C
330
561B
100
AcDbEntity
  8
AM_0 外形線1
100
AcDbLine
 10
-20.5
 20
270.7999999999997
 30
0.0
 11
-26.61728700000003
 21
270.7999999999997
 31
0.0
  0
LINE
  5
562D
330
561B
100
AcDbEntity
  8
AM_0 外形線1
100
AcDbLine
 10
-26.61728700000003
 20
251.1999999999998
 30
0.0
 11
-20.74348199999986
 21
251.1999999999998
 31
0.0
  0
LINE
  5
562E
330
561B
100
AcDbEntity
  8
AM_0 外形線1
100
AcDbLine
 10
-20.5
 20
265.8925229999998
 30
0.0
 11
-26.61728700000003
 21
265.8925229999998
 31
0.0
  0
LINE
  5
562F
330
561B
100
AcDbEntity
  8
AM_0 外形線1
100
AcDbLine
 10
-20.5
 20
256.1074779999999
 30
0.0
 11
-26.61728700000003
 21
256.1074779999999
 31
0.0
  0
LINE
  5
5630
330
561B
100
AcDbEntity
  8
AM_7 中心線
100
AcDbLine
 10
-36.00886499999979
 20
260.9999999999998
 30
0.0
 11
25.89538999999968
 21
260.9999999999998
 31
0.0
  0
ARC
  5
5631
330
561B
100
AcDbEntity
  8
AM_0 外形線1
100
AcDbCircle
 10
-23.68038400000023
 20
268.346262
 30
0.0
 40
3.827039
100
AcDbArc
 50
140.121744999991
 51
219.878255000009
  0
LINE
  5
5632
330
561B
100
AcDbEntity
  8
AM_0 外形線1
100
AcDbLine
 10
-27.5
 20
268.584521
 30
0.0
 11
-27.5
 21
253.415479
 31
0.0
  0
ARC
  5
5633
330
561B
100
AcDbEntity
  8
AM_0 外形線1
100
AcDbCircle
 10
-13.5
 20
260.9999999999998
 30
0.0
 40
14.0
100
AcDbArc
 50
159.5453489999911
 51
200.4546510000088
  0
ARC
  5
5634
330
561B
100
AcDbEntity
  8
AM_0 外形線1
100
AcDbCircle
 10
-23.68038400000023
 20
253.6537389999999
 30
0.0
 40
3.827039
100
AcDbArc
 50
140.121744999991
 51
219.878255000009
  0
LINE
  5
5635
330
561B
100
AcDbEntity
  8
AM_0 外形線1
100
AcDbLine
 10
-18.0
 20
271.9999999999998
 30
0.0
 11
-18.0
 21
260.9999999999998
 31
0.0
  0
LINE
  5
5636
330
561B
100
AcDbEntity
  8
AM_0 外形線1
100
AcDbLine
 10
-20.5
 20
270.2499999999998
 30
0.0
 11
-20.5
 21
251.7499999999998
 31
0.0
  0
LINE
  5
5637
330
561B
100
AcDbEntity
  8
AM_4 細線
100
AcDbLine
 10
-18.0
 20
265.9999999999998
 30
0.0
 11
14.5
 21
265.9999999999998
 31
0.0
  0
LINE
  5
5638
330
561B
100
AcDbEntity
  8
AM_4 細線
100
AcDbLine
 10
14.5
 20
255.9999999999998
 30
0.0
 11
-18.0
 21
255.9999999999998
 31
0.0
  0
LINE
  5
5639
330
561B
100
AcDbEntity
  8
AM_0 外形線1
100
AcDbLine
 10
-18.0
 20
265.2499999999998
 30
0.0
 11
14.5
 21
265.2499999999998
 31
0.0
  0
LINE
  5
563A
330
561B
100
AcDbEntity
  8
AM_0 外形線1
100
AcDbLine
 10
14.5
 20
256.7499999999999
 30
0.0
 11
-18.0
 21
256.7499999999999
 31
0.0
  0
LINE
  5
563B
330
561B
100
AcDbEntity
  8
AM_0 外形線1
100
AcDbLine
 10
5.5
 20
247.5
 30
0.0
 11
-3.100000000000362
 21
247.5
 31
0.0
  0
LINE
  5
563C
330
561B
100
AcDbEntity
  8
AM_0 外形線1
100
AcDbLine
 10
-3.100000000000362
 20
247.5
 30
0.0
 11
-3.100000000000362
 21
252.7999999999997
 31
0.0
  0
LINE
  5
563D
330
561B
100
AcDbEntity
  8
AM_0 外形線1
100
AcDbLine
 10
-3.100000000000362
 20
252.7999999999997
 30
0.0
 11
0.0
 21
252.7999999999997
 31
0.0
  0
LWPOLYLINE
  5
563E
330
561B
100
AcDbEntity
  8
AM_0 外形線1
100
AcDbPolyline
 90
       73
 70
     0
 43
0.0
 10
-1.550000000000181
 20
247.5
 10
-1.414909000000078
 20
247.510084
 10
-1.280845000000225
 20
247.54026
 10
-1.148831000000427
 20
247.5902969999999
 10
-1.019868999999743
 20
247.659815
 10
-0.8949420000008101
 20
247.7482849999999
 10
-0.7750000000005457
 20
247.855033
 10
-0.6609570000000531
 20
247.979247
 10
-0.5536790000005567
 20
248.119982
 10
-0.4539850000001026
 20
248.276167
 10
-0.3626309999999648
 20
248.4466130000001
 10
-0.2803139999996347
 20
248.6300229999999
 10
-0.2076610000003711
 20
248.8249999999998
 10
-0.145223000000442
 20
249.0300619999998
 10
-0.0934760000000097
 20
249.243647
 10
-0.0528150000000096
 20
249.4641299999998
 10
-0.0235480000001189
 20
249.689833
 10
-0.005898000000343
 20
249.919038
 10
0.0
 20
250.1499999999999
 10
-0.005898000000343
 20
250.3809630000001
 10
-0.0235480000001189
 20
250.6101679999997
 10
-0.0528150000000096
 20
250.835871
 10
-0.0934760000000097
 20
251.0563540000001
 10
-0.145223000000442
 20
251.2699389999998
 10
-0.2076610000003711
 20
251.4749999999999
 10
-0.2803139999996347
 20
251.6699779999999
 10
-0.3626309999999648
 20
251.8533869999999
 10
-0.4539850000001026
 20
252.023833
 10
-0.5536790000005567
 20
252.1800179999998
 10
-0.6609570000000531
 20
252.320753
 10
-0.7750000000005457
 20
252.4449679999998
 10
-0.8949420000008101
 20
252.5517159999999
 10
-1.019868999999743
 20
252.6401859999999
 10
-1.148831000000427
 20
252.7097040000001
 10
-1.280845000000225
 20
252.7597409999998
 10
-1.414909000000078
 20
252.789916
 10
-1.550000000000181
 20
252.7999999999997
 10
-1.685091000000284
 20
252.789916
 10
-1.819155000000137
 20
252.7597409999998
 10
-1.951170000000274
 20
252.7097040000001
 10
-2.080131000000618
 20
252.6401859999999
 10
-2.205058000000462
 20
252.5517159999999
 10
-2.324999999999818
 20
252.4449679999998
 10
-2.439044000000648
 20
252.320753
 10
-2.546320999999806
 20
252.1800179999998
 10
-2.646016000000598
 20
252.023833
 10
-2.737369000000398
 20
251.8533869999999
 10
-2.819686000000728
 20
251.6699779999999
 10
-2.892338999999991
 20
251.4749999999999
 10
-2.954776999999921
 20
251.2699389999998
 10
-3.006524000000353
 20
251.0563540000001
 10
-3.047185000000353
 20
250.835871
 10
-3.076452000000243
 20
250.6101679999997
 10
-3.09410200000002
 20
250.3809630000001
 10
-3.100000000000362
 20
250.1499999999999
 10
-3.09410200000002
 20
249.919038
 10
-3.076452000000243
 20
249.689833
 10
-3.047185000000353
 20
249.4641299999998
 10
-3.006524000000353
 20
249.243647
 10
-2.954776999999921
 20
249.0300619999998
 10
-2.892338999999991
 20
248.8249999999998
 10
-2.819686000000728
 20
248.6300229999999
 10
-2.737369000000398
 20
248.4466130000001
 10
-2.646016000000598
 20
248.276167
 10
-2.546320999999806
 20
248.119982
 10
-2.439044000000648
 20
247.979247
 10
-2.324999999999818
 20
247.855033
 10
-2.205058000000462
 20
247.7482849999999
 10
-2.080131000000618
 20
247.659815
 10
-1.951170000000274
 20
247.5902969999999
 10
-1.819155000000137
 20
247.54026
 10
-1.685091000000284
 20
247.510084
 10
-1.550000000000181
 20
247.5
  0
LINE
  5
563F
330
561B
100
AcDbEntity
  8
AM_0 外形線1
100
AcDbLine
 10
-20.5
 20
251.7499999999998
 30
0.0
 11
-18.0
 21
251.7499999999998
 31
0.0
  0
LINE
  5
5640
330
561B
100
AcDbEntity
  8
AM_0 外形線1
100
AcDbLine
 10
-20.74348199999986
 20
251.1999999999998
 30
0.0
 11
-20.5
 21
251.1999999999998
 31
0.0
  0
LINE
  5
5641
330
561B
100
AcDbEntity
  8
AM_0 外形線1
100
AcDbLine
 10
-20.5
 20
251.1999999999998
 30
0.0
 11
-20.5
 21
251.7499999999998
 31
0.0
  0
LINE
  5
5644
330
561B
100
AcDbEntity
  8
AM_0 外形線1
100
AcDbLine
 10
-18.0
 20
266.4999999999998
 30
0.0
 11
0.0
 21
266.4999999999998
 31
0.0
  0
LINE
  5
5645
330
561B
100
AcDbEntity
  8
AM_0 外形線1
100
AcDbLine
 10
-18.0
 20
255.4999999999998
 30
0.0
 11
0.0
 21
255.4999999999998
 31
0.0
  0
LINE
  5
5646
330
561B
100
AcDbEntity
  8
AM_0 外形線1
100
AcDbLine
 10
-13.0
 20
235.7000000000001
 30
0.0
 11
1.0
 21
235.7000000000001
 31
0.0
  0
LINE
  5
5647
330
561B
100
AcDbEntity
  8
AM_0 外形線1
100
AcDbLine
 10
14.5
 20
265.9999999999998
 30
0.0
 11
14.5
 21
255.9999999999998
 31
0.0
  0
LINE
  5
5649
330
561B
100
AcDbEntity
  8
AM_0 外形線1
100
AcDbLine
 10
20.0
 20
265.2499999999998
 30
0.0
 11
20.0
 21
256.7499999999999
 31
0.0
  0
LINE
  5
564A
330
561B
100
AcDbEntity
  8
AM_0 外形線1
100
AcDbLine
 10
14.5
 20
265.2499999999998
 30
0.0
 11
20.0
 21
265.2499999999998
 31
0.0
  0
LINE
  5
564B
330
561B
100
AcDbEntity
  8
AM_0 外形線1
100
AcDbLine
 10
20.0
 20
265.2499999999998
 30
0.0
 11
22.45373899999959
 21
260.9999999999998
 31
0.0
  0
LINE
  5
564C
330
561B
100
AcDbEntity
  8
AM_0 外形線1
100
AcDbLine
 10
22.45373899999959
 20
260.9999999999998
 30
0.0
 11
20.0
 21
256.7499999999999
 31
0.0
  0
LINE
  5
564D
330
561B
100
AcDbEntity
  8
AM_0 外形線1
100
AcDbLine
 10
20.0
 20
256.7499999999999
 30
0.0
 11
14.5
 21
256.7499999999999
 31
0.0
  0
LINE
  5
564E
330
561B
100
AcDbEntity
  8
AM_0 外形線1
100
AcDbLine
 10
-18.0
 20
270.2499999999998
 30
0.0
 11
-20.5
 21
270.2499999999998
 31
0.0
  0
LINE
  5
564F
330
561B
100
AcDbEntity
  8
AM_0 外形線1
100
AcDbLine
 10
-20.5
 20
270.2499999999998
 30
0.0
 11
-20.5
 21
270.7999999999997
 31
0.0
  0
LINE
  5
56BE
330
561B
100
AcDbEntity
  8
AM_0 外形線1
100
AcDbLine
 10
-18.0
 20
-272.0
 30
0.0
 11
0.0
 21
-272.0
 31
0.0
  0
LINE
  5
56BF
330
561B
100
AcDbEntity
  8
AM_0 外形線1
100
AcDbLine
 10
0.0
 20
-272.0
 30
0.0
 11
0.0
 21
0.0000000000002274
 31
0.0
  0
LINE
  5
56C0
330
561B
100
AcDbEntity
  8
AM_0 外形線1
100
AcDbLine
 10
0.0
 20
271.9999999999998
 30
0.0
 11
-18.0
 21
271.9999999999998
 31
0.0
  0
LINE
  5
56C1
330
561B
100
AcDbEntity
  8
AM_0 外形線1
100
AcDbLine
 10
0.0
 20
271.9999999999998
 30
0.0
 11
0.0
 21
265.9999999999998
 31
0.0
  0
LINE
  5
56C2
330
561B
100
AcDbEntity
  8
AM_0 外形線1
100
AcDbLine
 10
-0.0000000000002274
 20
255.9999999999998
 30
0.0
 11
0.0
 21
252.7999999999997
 31
0.0
  0
LINE
  5
56C3
330
561B
100
AcDbEntity
  8
AM_0 外形線1
100
AcDbLine
 10
5.5
 20
247.5
 30
0.0
 11
6.0
 21
247.0
 31
0.0
1001
GENIUS_GENFIL_13
1070
     0
1040
0.5
1040
0.5
1040
20.0
1040
0.0
1002
{
1002
}
1001
GENIUS_GENODEF_13
1002
{
1000
HIER
1070
     0
1002
}
1002
{
1000
MANEDIT
1070
     0
1002
}
1002
{
1000
NOSEL
1070
     0
1002
}
1002
{
1000
BEHIND
1070
     0
1002
}
1002
{
1000
OTHER
1070
     0
1002
}
1002
{
1000
REACTOR
1002
}
1001
GENIUS_GENOBJ-N-CHA_13
1002
{
1000
OWNER
1000
GEN
1002
}
  0
LINE
  5
76F4
330
561B
100
AcDbEntity
  8
AM_0 外形線1
100
AcDbLine
 10
-20.5
 20
260.4999999999998
 30
0.0
 11
-18.0
 21
262.9999999999999
 31
0.0
  0
LINE
  5
76F5
330
561B
100
AcDbEntity
  8
AM_0 外形線1
100
AcDbLine
 10
-18.0
 20
261.4999999999998
 30
0.0
 11
-20.5
 21
258.9999999999998
 31
0.0
  0
ENDBLK
  5
561D
330
561B
100
AcDbEntity
  8
0
100
AcDbBlockEnd
  0
BLOCK
  5
589E
330
589D
100
AcDbEntity
  8
0
100
AcDbBlockBegin
  2
*D14
 70
     1
 10
0.0
 20
0.0
 30
0.0
  3
*D14
  1

  0
LINE
  5
72D1
330
589D
100
AcDbEntity
  8
AM_5 寸法線
 62
     3
100
AcDbLine
 10
1369.269401647961
 20
1914.489162450685
 30
0.0
 11
1121.269401647961
 21
1914.489162450685
 31
0.0
  0
LINE
  5
72D2
330
589D
100
AcDbEntity
  8
AM_5 寸法線
 62
     3
100
AcDbLine
 10
1369.269401647961
 20
1459.489162450685
 30
0.0
 11
1121.269401647961
 21
1459.489162450685
 31
0.0
  0
LINE
  5
72D3
330
589D
100
AcDbEntity
  8
AM_5 寸法線
 62
     3
100
AcDbLine
 10
1126.269401647961
 20
1894.489162450685
 30
0.0
 11
1126.269401647961
 21
1479.489162450685
 31
0.0
  0
INSERT
  5
72D4
330
589D
100
AcDbEntity
  8
AM_5 寸法線
 62
     3
100
AcDbBlockReference
  2
_Open30
 10
1126.269401647961
 20
1914.489162450685
 30
0.0
 41
20.0
 42
20.0
 43
20.0
 50
90.0
  0
INSERT
  5
72D5
330
589D
100
AcDbEntity
  8
AM_5 寸法線
 62
     3
100
AcDbBlockReference
  2
_Open30
 10
1126.269401647961
 20
1459.489162450685
 30
0.0
 41
20.0
 42
20.0
 43
20.0
 50
270.0
  0
MTEXT
  5
72D6
330
589D
100
AcDbEntity
  8
AM_5 寸法線
 62
     3
100
AcDbMText
 10
1100.269401647961
 20
1714.131433533246
 30
0.0
 40
28.0
 41
0.0
 46
0.0
 71
     5
 72
     1
  1
%%c455
  7
SEISA
 11
0.0000000000000001
 21
1.0
 31
0.0
 73
     1
 44
1.0
  0
POINT
  5
72D7
330
589D
100
AcDbEntity
  8
Defpoints
 62
     0
100
AcDbPoint
 10
1374.269401647961
 20
1914.489162450685
 30
0.0
  0
POINT
  5
72D8
330
589D
100
AcDbEntity
  8
Defpoints
 62
     0
100
AcDbPoint
 10
1374.269401647961
 20
1459.489162450685
 30
0.0
  0
POINT
  5
72D9
330
589D
100
AcDbEntity
  8
Defpoints
 62
     0
100
AcDbPoint
 10
1126.269401647961
 20
1459.489162450685
 30
0.0
  0
ENDBLK
  5
589F
330
589D
100
AcDbEntity
  8
0
100
AcDbBlockEnd
  0
BLOCK
  5
58FB
330
58FA
100
AcDbEntity
  8
0
100
AcDbBlockBegin
  2
*D15
 70
     1
 10
0.0
 20
0.0
 30
0.0
  3
*D15
  1

  0
LINE
  5
65CA
330
58FA
100
AcDbEntity
  8
AM_5 寸法線
 62
     3
100
AcDbLine
 10
1426.269401647961
 20
1909.489162450685
 30
0.0
 11
1426.269401647961
 21
1852.071315130966
 31
0.0
  0
LINE
  5
65CB
330
58FA
100
AcDbEntity
  8
AM_5 寸法線
 62
     3
100
AcDbLine
 10
1434.26940164796
 20
1909.989162450685
 30
0.0
 11
1434.26940164796
 21
1852.071315130966
 31
0.0
  0
LINE
  5
65CC
330
58FA
100
AcDbEntity
  8
AM_5 寸法線
 62
     3
100
AcDbLine
 10
1454.26940164796
 20
1857.071315130966
 30
0.0
 11
1474.26940164796
 21
1857.071315130966
 31
0.0
  0
LINE
  5
65CD
330
58FA
100
AcDbEntity
  8
AM_5 寸法線
 62
     3
100
AcDbLine
 10
1406.269401647961
 20
1857.071315130966
 30
0.0
 11
1345.469401647961
 21
1857.071315130966
 31
0.0
  0
LINE
  5
65CE
330
58FA
100
AcDbEntity
  8
AM_5 寸法線
 62
     3
100
AcDbLine
 10
1434.26940164796
 20
1857.071315130966
 30
0.0
 11
1426.269401647961
 21
1857.071315130966
 31
0.0
  0
INSERT
  5
65CF
330
58FA
100
AcDbEntity
  8
AM_5 寸法線
 62
     3
100
AcDbBlockReference
  2
_Open30
 10
1434.26940164796
 20
1857.071315130966
 30
0.0
 41
20.0
 42
20.0
 43
20.0
 50
180.0
  0
INSERT
  5
65D0
330
58FA
100
AcDbEntity
  8
AM_5 寸法線
 62
     3
100
AcDbBlockReference
  2
_Open30
 10
1426.269401647961
 20
1857.071315130966
 30
0.0
 41
20.0
 42
20.0
 43
20.0
  0
MTEXT
  5
65D1
330
58FA
100
AcDbEntity
  8
AM_5 寸法線
 62
     3
100
AcDbMText
 10
1365.869401647961
 20
1883.071315130966
 30
0.0
 40
28.0
 41
0.0
 46
0.0
 71
     5
 72
     1
  1
8
  7
SEISA
 73
     1
 44
1.0
  0
POINT
  5
65D2
330
58FA
100
AcDbEntity
  8
Defpoints
 62
     0
100
AcDbPoint
 10
1426.269401647961
 20
1914.489162450685
 30
0.0
  0
POINT
  5
65D3
330
58FA
100
AcDbEntity
  8
Defpoints
 62
     0
100
AcDbPoint
 10
1434.26940164796
 20
1914.989162450685
 30
0.0
  0
POINT
  5
65D4
330
58FA
100
AcDbEntity
  8
Defpoints
 62
     0
100
AcDbPoint
 10
1434.26940164796
 20
1857.071315130966
 30
0.0
  0
ENDBLK
  5
58FC
330
58FA
100
AcDbEntity
  8
0
100
AcDbBlockEnd
  0
BLOCK
  5
5946
330
5945
100
AcDbEntity
  8
0
100
AcDbBlockBegin
  2
*D16
 70
     1
 10
0.0
 20
0.0
 30
0.0
  3
*D16
  1

  0
LINE
  5
72DA
330
5945
100
AcDbEntity
  8
AM_5 寸法線
 62
     3
100
AcDbLine
 10
1601.269401647961
 20
1691.989162450685
 30
0.0
 11
1601.269401647961
 21
1735.383403450684
 31
0.0
  0
LINE
  5
72DB
330
5945
100
AcDbEntity
  8
AM_5 寸法線
 62
     3
100
AcDbLine
 10
1286.269401647961
 20
1691.989162450685
 30
0.0
 11
1286.269401647961
 21
1735.383403450684
 31
0.0
  0
LINE
  5
72DC
330
5945
100
AcDbEntity
  8
AM_5 寸法線
 62
     3
100
AcDbLine
 10
1581.269401647961
 20
1730.383403450684
 30
0.0
 11
1306.269401647961
 21
1730.383403450684
 31
0.0
  0
INSERT
  5
72DD
330
5945
100
AcDbEntity
  8
AM_5 寸法線
 62
     3
100
AcDbBlockReference
  2
_Open30
 10
1601.269401647961
 20
1730.383403450684
 30
0.0
 41
20.0
 42
20.0
 43
20.0
  0
INSERT
  5
72DE
330
5945
100
AcDbEntity
  8
AM_5 寸法線
 62
     3
100
AcDbBlockReference
  2
_Open30
 10
1286.269401647961
 20
1730.383403450684
 30
0.0
 41
20.0
 42
20.0
 43
20.0
 50
180.0
  0
MTEXT
  5
72DF
330
5945
100
AcDbEntity
  8
AM_5 寸法線
 62
     3
100
AcDbMText
 10
1443.769401647961
 20
1756.383403450685
 30
0.0
 40
28.0
 41
0.0
 46
0.0
 71
     5
 72
     1
  1
315
  7
SEISA
 73
     1
 44
1.0
  0
POINT
  5
72E0
330
5945
100
AcDbEntity
  8
Defpoints
 62
     0
100
AcDbPoint
 10
1601.269401647961
 20
1686.989162450685
 30
0.0
  0
POINT
  5
72E1
330
5945
100
AcDbEntity
  8
Defpoints
 62
     0
100
AcDbPoint
 10
1286.269401647961
 20
1686.989162450685
 30
0.0
  0
POINT
  5
72E2
330
5945
100
AcDbEntity
  8
Defpoints
 62
     0
100
AcDbPoint
 10
1286.269401647961
 20
1730.383403450684
 30
0.0
  0
ENDBLK
  5
5947
330
5945
100
AcDbEntity
  8
0
100
AcDbBlockEnd
  0
BLOCK
  5
595E
330
595D
100
AcDbEntity
  8
0
100
AcDbBlockBegin
  2
*D17
 70
     1
 10
0.0
 20
0.0
 30
0.0
  3
*D17
  1

  0
LINE
  5
65E9
330
595D
100
AcDbEntity
  8
AM_5 寸法線
 62
     3
100
AcDbLine
 10
1944.269401647961
 20
1691.989162450685
 30
0.0
 11
1944.269401647961
 21
1735.383403450684
 31
0.0
  0
LINE
  5
65EA
330
595D
100
AcDbEntity
  8
AM_5 寸法線
 62
     3
100
AcDbLine
 10
1629.269401647961
 20
1691.989162450685
 30
0.0
 11
1629.269401647961
 21
1735.383403450684
 31
0.0
  0
LINE
  5
65EB
330
595D
100
AcDbEntity
  8
AM_5 寸法線
 62
     3
100
AcDbLine
 10
1924.269401647961
 20
1730.383403450684
 30
0.0
 11
1649.269401647961
 21
1730.383403450684
 31
0.0
  0
INSERT
  5
65EC
330
595D
100
AcDbEntity
  8
AM_5 寸法線
 62
     3
100
AcDbBlockReference
  2
_Open30
 10
1944.269401647961
 20
1730.383403450684
 30
0.0
 41
20.0
 42
20.0
 43
20.0
  0
INSERT
  5
65ED
330
595D
100
AcDbEntity
  8
AM_5 寸法線
 62
     3
100
AcDbBlockReference
  2
_Open30
 10
1629.269401647961
 20
1730.383403450684
 30
0.0
 41
20.0
 42
20.0
 43
20.0
 50
180.0
  0
MTEXT
  5
65EE
330
595D
100
AcDbEntity
  8
AM_5 寸法線
 62
     3
100
AcDbMText
 10
1786.769401647961
 20
1756.383403450685
 30
0.0
 40
28.0
 41
0.0
 46
0.0
 71
     5
 72
     1
  1
315
  7
SEISA
 73
     1
 44
1.0
  0
POINT
  5
65EF
330
595D
100
AcDbEntity
  8
Defpoints
 62
     0
100
AcDbPoint
 10
1944.269401647961
 20
1686.989162450685
 30
0.0
  0
POINT
  5
65F0
330
595D
100
AcDbEntity
  8
Defpoints
 62
     0
100
AcDbPoint
 10
1629.269401647961
 20
1686.989162450685
 30
0.0
  0
POINT
  5
65F1
330
595D
100
AcDbEntity
  8
Defpoints
 62
     0
100
AcDbPoint
 10
1629.269401647961
 20
1730.383403450684
 30
0.0
  0
ENDBLK
  5
595F
330
595D
100
AcDbEntity
  8
0
100
AcDbBlockEnd
  0
BLOCK
  5
5976
330
5975
100
AcDbEntity
  8
0
100
AcDbBlockBegin
  2
*D18
 70
     1
 10
0.0
 20
0.0
 30
0.0
  3
*D18
  1

  0
LINE
  5
65F2
330
5975
100
AcDbEntity
  8
AM_5 寸法線
 62
     3
100
AcDbLine
 10
1629.269401647961
 20
1691.989162450685
 30
0.0
 11
1629.269401647961
 21
1735.383403450684
 31
0.0
  0
LINE
  5
65F3
330
5975
100
AcDbEntity
  8
AM_5 寸法線
 62
     3
100
AcDbLine
 10
1601.269401647961
 20
1691.989162450685
 30
0.0
 11
1601.269401647961
 21
1735.383403450684
 31
0.0
  0
LINE
  5
65F4
330
5975
100
AcDbEntity
  8
AM_5 寸法線
 62
     3
100
AcDbLine
 10
1649.269401647961
 20
1730.383403450684
 30
0.0
 11
1669.269401647961
 21
1730.383403450684
 31
0.0
  0
LINE
  5
65F5
330
5975
100
AcDbEntity
  8
AM_5 寸法線
 62
     3
100
AcDbLine
 10
1581.269401647961
 20
1730.383403450684
 30
0.0
 11
1561.269401647961
 21
1730.383403450684
 31
0.0
  0
MTEXT
  5
65F6
330
5975
100
AcDbEntity
  8
AM_5 寸法線
 62
     3
100
AcDbMText
 10
1674.534401540884
 20
1755.465699170622
 30
0.0
 40
28.0
 41
0.0
 46
0.0
 71
     5
 72
     1
  1
28
  7
SEISA
 73
     1
 44
1.0
  0
LINE
  5
65F7
330
5975
100
AcDbEntity
  8
AM_5 寸法線
 62
     3
100
AcDbLine
 10
1629.269401647961
 20
1730.383403450684
 30
0.0
 11
1601.269401647961
 21
1730.383403450684
 31
0.0
  0
INSERT
  5
65F8
330
5975
100
AcDbEntity
  8
AM_5 寸法線
 62
     3
100
AcDbBlockReference
  2
_Open30
 10
1629.269401647961
 20
1730.383403450684
 30
0.0
 41
20.0
 42
20.0
 43
20.0
 50
180.0
  0
INSERT
  5
65F9
330
5975
100
AcDbEntity
  8
AM_5 寸法線
 62
     3
100
AcDbBlockReference
  2
_Open30
 10
1601.269401647961
 20
1730.383403450684
 30
0.0
 41
20.0
 42
20.0
 43
20.0
  0
POINT
  5
65FA
330
5975
100
AcDbEntity
  8
Defpoints
 62
     0
100
AcDbPoint
 10
1629.269401647961
 20
1686.989162450685
 30
0.0
  0
POINT
  5
65FB
330
5975
100
AcDbEntity
  8
Defpoints
 62
     0
100
AcDbPoint
 10
1601.269401647961
 20
1686.989162450685
 30
0.0
  0
POINT
  5
65FC
330
5975
100
AcDbEntity
  8
Defpoints
 62
     0
100
AcDbPoint
 10
1601.269401647961
 20
1730.383403450684
 30
0.0
  0
ENDBLK
  5
5977
330
5975
100
AcDbEntity
  8
0
100
AcDbBlockEnd
  0
BLOCK
  5
5AD5
330
5AD4
100
AcDbEntity
  8
0
100
AcDbBlockBegin
  2
*D19
 70
     1
 10
0.0
 20
0.0
 30
0.0
  3
*D19
  1

  0
LINE
  5
6604
330
5AD4
100
AcDbEntity
  8
AM_5 寸法線
 62
     3
100
AcDbLine
 10
1861.269401647961
 20
1914.489162450685
 30
0.0
 11
2109.269401647961
 21
1914.489162450685
 31
0.0
  0
LINE
  5
6605
330
5AD4
100
AcDbEntity
  8
AM_5 寸法線
 62
     3
100
AcDbLine
 10
1861.269401647961
 20
1459.489162450685
 30
0.0
 11
2109.269401647961
 21
1459.489162450685
 31
0.0
  0
LINE
  5
6606
330
5AD4
100
AcDbEntity
  8
AM_5 寸法線
 62
     3
100
AcDbLine
 10
2104.269401647961
 20
1894.489162450685
 30
0.0
 11
2104.269401647961
 21
1479.489162450685
 31
0.0
  0
INSERT
  5
6607
330
5AD4
100
AcDbEntity
  8
AM_5 寸法線
 62
     3
100
AcDbBlockReference
  2
_Open30
 10
2104.269401647961
 20
1914.489162450685
 30
0.0
 41
20.0
 42
20.0
 43
20.0
 50
90.0
  0
INSERT
  5
6608
330
5AD4
100
AcDbEntity
  8
AM_5 寸法線
 62
     3
100
AcDbBlockReference
  2
_Open30
 10
2104.269401647961
 20
1459.489162450685
 30
0.0
 41
20.0
 42
20.0
 43
20.0
 50
270.0
  0
MTEXT
  5
6609
330
5AD4
100
AcDbEntity
  8
AM_5 寸法線
 62
     3
100
AcDbMText
 10
2078.269401647961
 20
1686.989162450685
 30
0.0
 40
28.0
 41
0.0
 46
0.0
 71
     5
 72
     1
  1
%%c455
  7
SEISA
 11
0.0000000000000001
 21
1.0
 31
0.0
 73
     1
 44
1.0
  0
POINT
  5
660A
330
5AD4
100
AcDbEntity
  8
Defpoints
 62
     0
100
AcDbPoint
 10
1856.269401647961
 20
1914.489162450685
 30
0.0
  0
POINT
  5
660B
330
5AD4
100
AcDbEntity
  8
Defpoints
 62
     0
100
AcDbPoint
 10
1856.269401647961
 20
1459.489162450685
 30
0.0
  0
POINT
  5
660C
330
5AD4
100
AcDbEntity
  8
Defpoints
 62
     0
100
AcDbPoint
 10
2104.269401647961
 20
1459.489162450685
 30
0.0
  0
ENDBLK
  5
5AD6
330
5AD4
100
AcDbEntity
  8
0
100
AcDbBlockEnd
  0
BLOCK
  5
5AFF
330
5AFE
100
AcDbEntity
  8
0
100
AcDbBlockBegin
  2
*D20
 70
     1
 10
0.0
 20
0.0
 30
0.0
  3
*D20
  1

  0
LINE
  5
660D
330
5AFE
100
AcDbEntity
  8
AM_5 寸法線
 62
     3
100
AcDbLine
 10
1833.269401647961
 20
1958.989162450684
 30
0.0
 11
2173.269401647961
 21
1958.989162450684
 31
0.0
  0
LINE
  5
660E
330
5AFE
100
AcDbEntity
  8
AM_5 寸法線
 62
     3
100
AcDbLine
 10
1833.26940164796
 20
1414.989162450685
 30
0.0
 11
2173.269401647961
 21
1414.989162450685
 31
0.0
  0
LINE
  5
660F
330
5AFE
100
AcDbEntity
  8
AM_5 寸法線
 62
     3
100
AcDbLine
 10
2168.269401647961
 20
1938.989162450685
 30
0.0
 11
2168.269401647961
 21
1434.989162450685
 31
0.0
  0
INSERT
  5
6610
330
5AFE
100
AcDbEntity
  8
AM_5 寸法線
 62
     3
100
AcDbBlockReference
  2
_Open30
 10
2168.269401647961
 20
1958.989162450684
 30
0.0
 41
20.0
 42
20.0
 43
20.0
 50
90.0
  0
INSERT
  5
6611
330
5AFE
100
AcDbEntity
  8
AM_5 寸法線
 62
     3
100
AcDbBlockReference
  2
_Open30
 10
2168.269401647961
 20
1414.989162450685
 30
0.0
 41
20.0
 42
20.0
 43
20.0
 50
270.0
  0
MTEXT
  5
6612
330
5AFE
100
AcDbEntity
  8
AM_5 寸法線
 62
     3
100
AcDbMText
 10
2142.269401647961
 20
1686.989162450685
 30
0.0
 40
28.0
 41
0.0
 46
0.0
 71
     5
 72
     1
  1
%%c544
  7
SEISA
 11
0.0000000000000001
 21
1.0
 31
0.0
 73
     1
 44
1.0
  0
POINT
  5
6613
330
5AFE
100
AcDbEntity
  8
Defpoints
 62
     0
100
AcDbPoint
 10
1828.269401647961
 20
1958.989162450684
 30
0.0
  0
POINT
  5
6614
330
5AFE
100
AcDbEntity
  8
Defpoints
 62
     0
100
AcDbPoint
 10
1828.26940164796
 20
1414.989162450685
 30
0.0
  0
POINT
  5
6615
330
5AFE
100
AcDbEntity
  8
Defpoints
 62
     0
100
AcDbPoint
 10
2168.269401647961
 20
1414.989162450685
 30
0.0
  0
ENDBLK
  5
5B00
330
5AFE
100
AcDbEntity
  8
0
100
AcDbBlockEnd
  0
BLOCK
  5
5B17
330
5B16
100
AcDbEntity
  8
0
100
AcDbBlockBegin
  2
*D21
 70
     1
 10
0.0
 20
0.0
 30
0.0
  3
*D21
  1

  0
LINE
  5
6616
330
5B16
100
AcDbEntity
  8
AM_5 寸法線
 62
     3
100
AcDbLine
 10
1649.269401647961
 20
2001.989162450685
 30
0.0
 11
2237.269401647961
 21
2001.989162450685
 31
0.0
  0
LINE
  5
6617
330
5B16
100
AcDbEntity
  8
AM_5 寸法線
 62
     3
100
AcDbLine
 10
1649.269401647961
 20
1371.989162450685
 30
0.0
 11
2237.269401647961
 21
1371.989162450685
 31
0.0
  0
LINE
  5
6618
330
5B16
100
AcDbEntity
  8
AM_5 寸法線
 62
     3
100
AcDbLine
 10
2232.269401647961
 20
1981.989162450685
 30
0.0
 11
2232.269401647961
 21
1391.989162450685
 31
0.0
  0
INSERT
  5
6619
330
5B16
100
AcDbEntity
  8
AM_5 寸法線
 62
     3
100
AcDbBlockReference
  2
_Open30
 10
2232.269401647961
 20
2001.989162450685
 30
0.0
 41
20.0
 42
20.0
 43
20.0
 50
90.0
  0
INSERT
  5
661A
330
5B16
100
AcDbEntity
  8
AM_5 寸法線
 62
     3
100
AcDbBlockReference
  2
_Open30
 10
2232.269401647961
 20
1371.989162450685
 30
0.0
 41
20.0
 42
20.0
 43
20.0
 50
270.0
  0
MTEXT
  5
661B
330
5B16
100
AcDbEntity
  8
AM_5 寸法線
 62
     3
100
AcDbMText
 10
2206.269401647961
 20
1686.989162450685
 30
0.0
 40
28.0
 41
0.0
 46
0.0
 71
     5
 72
     1
  1
%%c630
  7
SEISA
 11
0.0000000000000001
 21
1.0
 31
0.0
 73
     1
 44
1.0
  0
POINT
  5
661C
330
5B16
100
AcDbEntity
  8
Defpoints
 62
     0
100
AcDbPoint
 10
1644.269401647961
 20
2001.989162450685
 30
0.0
  0
POINT
  5
661D
330
5B16
100
AcDbEntity
  8
Defpoints
 62
     0
100
AcDbPoint
 10
1644.269401647961
 20
1371.989162450685
 30
0.0
  0
POINT
  5
661E
330
5B16
100
AcDbEntity
  8
Defpoints
 62
     0
100
AcDbPoint
 10
2232.269401647961
 20
1371.989162450685
 30
0.0
  0
ENDBLK
  5
5B18
330
5B16
100
AcDbEntity
  8
0
100
AcDbBlockEnd
  0
BLOCK
  5
5BC2
330
5BC1
100
AcDbEntity
  8
0
100
AcDbBlockBegin
  2
*D22
 70
     1
 10
0.0
 20
0.0
 30
0.0
  3
*D22
  1

  0
LINE
  5
661F
330
5BC1
100
AcDbEntity
  8
AM_5 寸法線
 62
     3
100
AcDbLine
 10
1615.26940164796
 20
1367.989162450685
 30
0.0
 11
1615.26940164796
 21
1246.989162450685
 31
0.0
  0
LINE
  5
6620
330
5BC1
100
AcDbEntity
  8
AM_5 寸法線
 62
     3
100
AcDbLine
 10
1585.269401647961
 20
1367.989162450685
 30
0.0
 11
1585.269401647961
 21
1246.989162450685
 31
0.0
  0
LINE
  5
6621
330
5BC1
100
AcDbEntity
  8
AM_5 寸法線
 62
     3
100
AcDbLine
 10
1635.269401647961
 20
1251.989162450685
 30
0.0
 11
1655.269401647961
 21
1251.989162450685
 31
0.0
  0
LINE
  5
6622
330
5BC1
100
AcDbEntity
  8
AM_5 寸法線
 62
     3
100
AcDbLine
 10
1565.269401647961
 20
1251.989162450685
 30
0.0
 11
1480.469401647961
 21
1251.989162450685
 31
0.0
  0
LINE
  5
6623
330
5BC1
100
AcDbEntity
  8
AM_5 寸法線
 62
     3
100
AcDbLine
 10
1615.26940164796
 20
1251.989162450685
 30
0.0
 11
1585.269401647961
 21
1251.989162450685
 31
0.0
  0
INSERT
  5
6624
330
5BC1
100
AcDbEntity
  8
AM_5 寸法線
 62
     3
100
AcDbBlockReference
  2
GENDOT
 10
1615.26940164796
 20
1251.989162450685
 30
0.0
 41
20.0
 42
20.0
 43
20.0
 50
180.0
  0
INSERT
  5
6625
330
5BC1
100
AcDbEntity
  8
AM_5 寸法線
 62
     3
100
AcDbBlockReference
  2
_Open30
 10
1585.269401647961
 20
1251.989162450685
 30
0.0
 41
20.0
 42
20.0
 43
20.0
  0
MTEXT
  5
6626
330
5BC1
100
AcDbEntity
  8
AM_5 寸法線
 62
     3
100
AcDbMText
 10
1512.869401647961
 20
1277.989162450685
 30
0.0
 40
28.0
 41
0.0
 46
0.0
 71
     5
 72
     1
  1
30
  7
SEISA
 73
     1
 44
1.0
  0
POINT
  5
6627
330
5BC1
100
AcDbEntity
  8
Defpoints
 62
     0
100
AcDbPoint
 10
1615.26940164796
 20
1372.989162450685
 30
0.0
  0
POINT
  5
6628
330
5BC1
100
AcDbEntity
  8
Defpoints
 62
     0
100
AcDbPoint
 10
1585.269401647961
 20
1372.989162450685
 30
0.0
  0
POINT
  5
6629
330
5BC1
100
AcDbEntity
  8
Defpoints
 62
     0
100
AcDbPoint
 10
1585.269401647961
 20
1251.989162450685
 30
0.0
  0
ENDBLK
  5
5BC3
330
5BC1
100
AcDbEntity
  8
0
100
AcDbBlockEnd
  0
BLOCK
  5
5BDE
330
5BDD
100
AcDbEntity
  8
0
100
AcDbBlockBegin
  2
*D23
 70
     1
 10
0.0
 20
0.0
 30
0.0
  3
*D23
  1

  0
LINE
  5
662A
330
5BDD
100
AcDbEntity
  8
AM_5 寸法線
 62
     3
100
AcDbLine
 10
1615.26940164796
 20
1367.989162450685
 30
0.0
 11
1615.26940164796
 21
1246.989162450685
 31
0.0
  0
LINE
  5
662B
330
5BDD
100
AcDbEntity
  8
AM_5 寸法線
 62
     3
100
AcDbLine
 10
1645.269401647961
 20
1367.989162450685
 30
0.0
 11
1645.269401647961
 21
1246.989162450685
 31
0.0
  0
LINE
  5
662C
330
5BDD
100
AcDbEntity
  8
AM_5 寸法線
 62
     3
100
AcDbLine
 10
1595.269401647961
 20
1251.989162450685
 30
0.0
 11
1575.269401647961
 21
1251.989162450685
 31
0.0
  0
LINE
  5
662D
330
5BDD
100
AcDbEntity
  8
AM_5 寸法線
 62
     3
100
AcDbLine
 10
1665.269401647961
 20
1251.989162450685
 30
0.0
 11
1750.069401647961
 21
1251.989162450685
 31
0.0
  0
LINE
  5
662E
330
5BDD
100
AcDbEntity
  8
AM_5 寸法線
 62
     3
100
AcDbLine
 10
1615.26940164796
 20
1251.989162450685
 30
0.0
 11
1645.269401647961
 21
1251.989162450685
 31
0.0
  0
INSERT
  5
662F
330
5BDD
100
AcDbEntity
  8
AM_5 寸法線
 62
     3
100
AcDbBlockReference
  2
GENDOT
 10
1615.26940164796
 20
1251.989162450685
 30
0.0
 41
20.0
 42
20.0
 43
20.0
  0
INSERT
  5
6630
330
5BDD
100
AcDbEntity
  8
AM_5 寸法線
 62
     3
100
AcDbBlockReference
  2
_Open30
 10
1645.269401647961
 20
1251.989162450685
 30
0.0
 41
20.0
 42
20.0
 43
20.0
 50
180.0
  0
MTEXT
  5
6631
330
5BDD
100
AcDbEntity
  8
AM_5 寸法線
 62
     3
100
AcDbMText
 10
1717.669401647961
 20
1277.989162450685
 30
0.0
 40
28.0
 41
0.0
 46
0.0
 71
     5
 72
     1
  1
30
  7
SEISA
 73
     1
 44
1.0
  0
POINT
  5
6632
330
5BDD
100
AcDbEntity
  8
Defpoints
 62
     0
100
AcDbPoint
 10
1615.26940164796
 20
1372.989162450685
 30
0.0
  0
POINT
  5
6633
330
5BDD
100
AcDbEntity
  8
Defpoints
 62
     0
100
AcDbPoint
 10
1645.269401647961
 20
1372.989162450685
 30
0.0
  0
POINT
  5
6634
330
5BDD
100
AcDbEntity
  8
Defpoints
 62
     0
100
AcDbPoint
 10
1645.269401647961
 20
1251.989162450685
 30
0.0
  0
ENDBLK
  5
5BDF
330
5BDD
100
AcDbEntity
  8
0
100
AcDbBlockEnd
  0
BLOCK
  5
5BFA
330
5BF9
100
AcDbEntity
  8
0
100
AcDbBlockBegin
  2
*D24
 70
     1
 10
0.0
 20
0.0
 30
0.0
  3
*D24
  1

  0
LINE
  5
75C7
330
5BF9
100
AcDbEntity
  8
AM_5 寸法線
 62
     3
100
AcDbLine
 10
1402.269401647961
 20
1409.989162450685
 30
0.0
 11
1402.269401647961
 21
1182.989162450685
 31
0.0
  0
LINE
  5
75C8
330
5BF9
100
AcDbEntity
  8
AM_5 寸法線
 62
     3
100
AcDbLine
 10
1828.269401647961
 20
1409.989162450685
 30
0.0
 11
1828.269401647961
 21
1182.989162450685
 31
0.0
  0
LINE
  5
75C9
330
5BF9
100
AcDbEntity
  8
AM_5 寸法線
 62
     3
100
AcDbLine
 10
1422.269401647961
 20
1187.989162450685
 30
0.0
 11
1808.269401647961
 21
1187.989162450685
 31
0.0
  0
INSERT
  5
75CA
330
5BF9
100
AcDbEntity
  8
AM_5 寸法線
 62
     3
100
AcDbBlockReference
  2
_Open30
 10
1402.269401647961
 20
1187.989162450685
 30
0.0
 41
20.0
 42
20.0
 43
20.0
 50
180.0
  0
INSERT
  5
75CB
330
5BF9
100
AcDbEntity
  8
AM_5 寸法線
 62
     3
100
AcDbBlockReference
  2
_Open30
 10
1828.269401647961
 20
1187.989162450685
 30
0.0
 41
20.0
 42
20.0
 43
20.0
  0
MTEXT
  5
75CC
330
5BF9
100
AcDbEntity
  8
AM_5 寸法線
 62
     3
100
AcDbMText
 10
1615.26940164796
 20
1213.989162450685
 30
0.0
 40
28.0
 41
0.0
 46
0.0
 71
     5
 72
     1
  1
426
  7
SEISA
 73
     1
 44
1.0
  0
POINT
  5
75CD
330
5BF9
100
AcDbEntity
  8
Defpoints
 62
     0
100
AcDbPoint
 10
1402.269401647961
 20
1414.989162450685
 30
0.0
  0
POINT
  5
75CE
330
5BF9
100
AcDbEntity
  8
Defpoints
 62
     0
100
AcDbPoint
 10
1828.269401647961
 20
1414.989162450685
 30
0.0
  0
POINT
  5
75CF
330
5BF9
100
AcDbEntity
  8
Defpoints
 62
     0
100
AcDbPoint
 10
1828.269401647961
 20
1187.989162450685
 30
0.0
  0
ENDBLK
  5
5BFB
330
5BF9
100
AcDbEntity
  8
0
100
AcDbBlockEnd
  0
BLOCK
  5
5C80
330
5C7F
100
AcDbEntity
  8
0
100
AcDbBlockBegin
  2
*D25
 70
     1
 10
0.0
 20
0.0
 30
0.0
  3
*D25
  1

  0
LINE
  5
6659
330
5C7F
100
AcDbEntity
  8
AM_5 寸法線
 62
     3
100
AcDbLine
 10
1286.269401647961
 20
1461.989162450685
 30
0.0
 11
1286.269401647961
 21
1118.989162450685
 31
0.0
  0
LINE
  5
665A
330
5C7F
100
AcDbEntity
  8
AM_5 寸法線
 62
     3
100
AcDbLine
 10
1944.269401647961
 20
1461.989162450685
 30
0.0
 11
1944.269401647961
 21
1118.989162450685
 31
0.0
  0
LINE
  5
665B
330
5C7F
100
AcDbEntity
  8
AM_5 寸法線
 62
     3
100
AcDbLine
 10
1306.269401647961
 20
1123.989162450685
 30
0.0
 11
1924.269401647961
 21
1123.989162450685
 31
0.0
  0
INSERT
  5
665C
330
5C7F
100
AcDbEntity
  8
AM_5 寸法線
 62
     3
100
AcDbBlockReference
  2
_Open30
 10
1286.269401647961
 20
1123.989162450685
 30
0.0
 41
20.0
 42
20.0
 43
20.0
 50
180.0
  0
INSERT
  5
665D
330
5C7F
100
AcDbEntity
  8
AM_5 寸法線
 62
     3
100
AcDbBlockReference
  2
_Open30
 10
1944.269401647961
 20
1123.989162450685
 30
0.0
 41
20.0
 42
20.0
 43
20.0
  0
MTEXT
  5
665E
330
5C7F
100
AcDbEntity
  8
AM_5 寸法線
 62
     3
100
AcDbMText
 10
1615.26940164796
 20
1149.989162450685
 30
0.0
 40
28.0
 41
0.0
 46
0.0
 71
     5
 72
     1
  1
658
  7
SEISA
 73
     1
 44
1.0
  0
POINT
  5
665F
330
5C7F
100
AcDbEntity
  8
Defpoints
 62
     0
100
AcDbPoint
 10
1286.269401647961
 20
1466.989162450685
 30
0.0
  0
POINT
  5
6660
330
5C7F
100
AcDbEntity
  8
Defpoints
 62
     0
100
AcDbPoint
 10
1944.269401647961
 20
1466.989162450685
 30
0.0
  0
POINT
  5
6661
330
5C7F
100
AcDbEntity
  8
Defpoints
 62
     0
100
AcDbPoint
 10
1944.269401647961
 20
1123.989162450685
 30
0.0
  0
ENDBLK
  5
5C81
330
5C7F
100
AcDbEntity
  8
0
100
AcDbBlockEnd
  0
BLOCK
  5
6E07
330
6E06
100
AcDbEntity
  8
0
100
AcDbBlockBegin
  2
ロッカクアナツキプラグB R3／4
 70
     0
 10
0.0
 20
0.0
 30
0.0
  3
ロッカクアナツキプラグB R3／4
  1

  0
LINE
  5
6E09
330
6E06
100
AcDbEntity
  8
AM_0 外形線1
100
AcDbLine
 10
-13.41151700000046
 20
-2.0
 30
0.0
 11
13.41151699999955
 21
-2.0
 31
0.0
  0
LINE
  5
6E0A
330
6E06
100
AcDbEntity
  8
AM_0 外形線1
100
AcDbLine
 10
-12.99246700000003
 20
-14.0
 30
0.0
 11
12.99246700000003
 21
-14.0
 31
0.0
  0
LINE
  5
6E0B
330
6E06
100
AcDbEntity
  8
AM_0 外形線1
100
AcDbLine
 10
-7.796315000000504
 20
-17.0
 30
0.0
 11
-12.99246700000003
 21
-14.0
 31
0.0
  0
LINE
  5
6E0C
330
6E06
100
AcDbEntity
  8
AM_0 外形線1
100
AcDbLine
 10
-12.99246700000003
 20
-14.0
 30
0.0
 11
-13.41151700000046
 21
-2.0
 31
0.0
  0
LINE
  5
6E0D
330
6E06
100
AcDbEntity
  8
AM_4 細線
100
AcDbLine
 10
-12.28872500000034
 20
-0.8772079999998823
 30
0.0
 11
-11.80655800000022
 21
-14.68468499999971
 31
0.0
  0
LINE
  5
6E0E
330
6E06
100
AcDbEntity
  8
AM_0 外形線1
100
AcDbLine
 10
-13.41151700000046
 20
-2.0
 30
0.0
 11
-11.41151700000046
 21
0.0
 31
0.0
  0
LINE
  5
6E0F
330
6E06
100
AcDbEntity
  8
AM_7 中心線
100
AcDbLine
 10
0.0
 20
2.687944000000243
 30
0.0
 11
0.0
 21
-22.39007099999981
 31
0.0
  0
LINE
  5
6E10
330
6E06
100
AcDbEntity
  8
AM_0 外形線1
100
AcDbLine
 10
12.99246700000003
 20
-14.0
 30
0.0
 11
7.796314999999593
 21
-17.0
 31
0.0
  0
LINE
  5
6E11
330
6E06
100
AcDbEntity
  8
AM_0 外形線1
100
AcDbLine
 10
7.796314999999593
 20
-17.0
 30
0.0
 11
-7.796315000000504
 21
-17.0
 31
0.0
  0
LINE
  5
6E12
330
6E06
100
AcDbEntity
  8
AM_0 外形線1
100
AcDbLine
 10
11.41151699999955
 20
0.0
 30
0.0
 11
13.41151699999955
 21
-2.0
 31
0.0
  0
LINE
  5
6E13
330
6E06
100
AcDbEntity
  8
AM_0 外形線1
100
AcDbLine
 10
13.41151699999955
 20
-2.0
 30
0.0
 11
12.99246700000003
 21
-14.0
 31
0.0
  0
LINE
  5
6E14
330
6E06
100
AcDbEntity
  8
AM_4 細線
100
AcDbLine
 10
11.80655800000022
 20
-14.68468499999971
 30
0.0
 11
12.28872499999943
 21
-0.8772079999998823
 31
0.0
  0
LINE
  5
6E15
330
6E06
100
AcDbEntity
  8
AM_0 外形線1
100
AcDbLine
 10
-11.41151700000046
 20
0.0
 30
0.0
 11
11.41151699999955
 21
0.0
 31
0.0
  0
ENDBLK
  5
6E08
330
6E06
100
AcDbEntity
  8
0
100
AcDbBlockEnd
  0
BLOCK
  5
73ED
330
73EC
100
AcDbEntity
  8
0
100
AcDbBlockBegin
  2
*D27
 70
     1
 10
0.0
 20
0.0
 30
0.0
  3
*D27
  1

  0
LINE
  5
77FF
330
73EC
100
AcDbEntity
  8
AM_5 寸法線
 62
     3
100
AcDbLine
 10
1434.269401647961
 20
1909.989162450685
 30
0.0
 11
1434.269401647961
 21
1852.071315130968
 31
0.0
  0
LINE
  5
7800
330
73EC
100
AcDbEntity
  8
AM_5 寸法線
 62
     3
100
AcDbLine
 10
1524.269401647961
 20
1908.989162450685
 30
0.0
 11
1524.269401647961
 21
1852.071315130968
 31
0.0
  0
LINE
  5
7801
330
73EC
100
AcDbEntity
  8
AM_5 寸法線
 62
     3
100
AcDbLine
 10
1454.269401647961
 20
1857.071315130968
 30
0.0
 11
1504.269401647961
 21
1857.071315130968
 31
0.0
  0
INSERT
  5
7802
330
73EC
100
AcDbEntity
  8
AM_5 寸法線
 62
     3
100
AcDbBlockReference
  2
_Open30
 10
1434.269401647961
 20
1857.071315130968
 30
0.0
 41
20.0
 42
20.0
 43
20.0
 50
180.0
  0
INSERT
  5
7803
330
73EC
100
AcDbEntity
  8
AM_5 寸法線
 62
     3
100
AcDbBlockReference
  2
_Open30
 10
1524.269401647961
 20
1857.071315130968
 30
0.0
 41
20.0
 42
20.0
 43
20.0
  0
MTEXT
  5
7804
330
73EC
100
AcDbEntity
  8
AM_5 寸法線
 62
     3
100
AcDbMText
 10
1479.269401647961
 20
1883.071315130968
 30
0.0
 40
28.0
 41
0.0
 46
0.0
 71
     5
 72
     1
  1
90
  7
SEISA
 73
     1
 44
1.0
  0
POINT
  5
7805
330
73EC
100
AcDbEntity
  8
Defpoints
 62
     0
100
AcDbPoint
 10
1434.269401647961
 20
1914.989162450685
 30
0.0
  0
POINT
  5
7806
330
73EC
100
AcDbEntity
  8
Defpoints
 62
     0
100
AcDbPoint
 10
1524.269401647961
 20
1913.989162450685
 30
0.0
  0
POINT
  5
7807
330
73EC
100
AcDbEntity
  8
Defpoints
 62
     0
100
AcDbPoint
 10
1524.269401647961
 20
1857.071315130968
 30
0.0
  0
ENDBLK
  5
73EE
330
73EC
100
AcDbEntity
  8
0
100
AcDbBlockEnd
  0
BLOCK
  5
7417
330
7416
100
AcDbEntity
  8
0
100
AcDbBlockBegin
  2
*D28
 70
     1
 10
0.0
 20
0.0
 30
0.0
  3
*D28
  1

  0
LINE
  5
7808
330
7416
100
AcDbEntity
  8
AM_5 寸法線
 62
     3
100
AcDbLine
 10
1524.269401647961
 20
1908.989162450685
 30
0.0
 11
1524.269401647961
 21
1852.071315130968
 31
0.0
  0
LINE
  5
7809
330
7416
100
AcDbEntity
  8
AM_5 寸法線
 62
     3
100
AcDbLine
 10
1601.269401647961
 20
1907.489162450685
 30
0.0
 11
1601.269401647961
 21
1852.071315130968
 31
0.0
  0
LINE
  5
780A
330
7416
100
AcDbEntity
  8
AM_5 寸法線
 62
     3
100
AcDbLine
 10
1544.269401647961
 20
1857.071315130968
 30
0.0
 11
1581.269401647961
 21
1857.071315130968
 31
0.0
  0
INSERT
  5
780B
330
7416
100
AcDbEntity
  8
AM_5 寸法線
 62
     3
100
AcDbBlockReference
  2
_Open30
 10
1524.269401647961
 20
1857.071315130968
 30
0.0
 41
20.0
 42
20.0
 43
20.0
 50
180.0
  0
INSERT
  5
780C
330
7416
100
AcDbEntity
  8
AM_5 寸法線
 62
     3
100
AcDbBlockReference
  2
_Open30
 10
1601.269401647961
 20
1857.071315130968
 30
0.0
 41
20.0
 42
20.0
 43
20.0
  0
MTEXT
  5
780D
330
7416
100
AcDbEntity
  8
AM_5 寸法線
 62
     3
100
AcDbMText
 10
1562.769401647961
 20
1883.071315130968
 30
0.0
 40
28.0
 41
0.0
 46
0.0
 71
     5
 72
     1
  1
77
  7
SEISA
 73
     1
 44
1.0
  0
POINT
  5
780E
330
7416
100
AcDbEntity
  8
Defpoints
 62
     0
100
AcDbPoint
 10
1524.269401647961
 20
1913.989162450685
 30
0.0
  0
POINT
  5
780F
330
7416
100
AcDbEntity
  8
Defpoints
 62
     0
100
AcDbPoint
 10
1601.269401647961
 20
1912.489162450685
 30
0.0
  0
POINT
  5
7810
330
7416
100
AcDbEntity
  8
Defpoints
 62
     0
100
AcDbPoint
 10
1601.269401647961
 20
1857.071315130968
 30
0.0
  0
ENDBLK
  5
7418
330
7416
100
AcDbEntity
  8
0
100
AcDbBlockEnd
  0
BLOCK
  5
77DC
330
77DB
100
AcDbEntity
  8
0
100
AcDbBlockBegin
  2
センタB CCMH630
 70
     0
 10
0.0
 20
0.0
 30
0.0
  3
センタB CCMH630
  1

  0
LINE
  5
77DE
330
77DB
100
AcDbEntity
  8
AM_0 外形線1
100
AcDbLine
 10
0.0
 20
56.53610049835674
 30
0.0
 11
0.0
 21
-136.7138995016432
 31
0.0
  0
LINE
  5
77DF
330
77DB
100
AcDbEntity
  8
AM_0 外形線1
100
AcDbLine
 10
-227.0
 20
-364.2138995016432
 30
0.0
 11
-227.0
 21
-136.7138995016432
 31
0.0
  0
LINE
  5
77E0
330
77DB
100
AcDbEntity
  8
AM_0 外形線1
100
AcDbLine
 10
-232.0
 20
-362.7138995016433
 30
0.0
 11
-232.0
 21
-136.7138995016432
 31
0.0
  0
LINE
  5
77E1
330
77DB
100
AcDbEntity
  8
AM_0 外形線1
100
AcDbLine
 10
-315.0
 20
-356.7138995016433
 30
0.0
 11
-315.0
 21
83.28610049835672
 31
0.0
  0
LINE
  5
77E2
330
77DB
100
AcDbEntity
  8
AM_0 外形線1
100
AcDbLine
 10
-232.0
 20
-362.7138995016433
 30
0.0
 11
-309.0
 21
-362.7138995016433
 31
0.0
  0
ARC
  5
77E3
330
77DB
100
AcDbEntity
  8
AM_0 外形線1
100
AcDbCircle
 10
-309.0
 20
-356.7138995016433
 30
0.0
 40
6.0
100
AcDbArc
 50
180.0
 51
270.0
  0
LINE
  5
77E4
330
77DB
100
AcDbEntity
  8
AM_0 外形線1
100
AcDbLine
 10
-199.0
 20
-364.2138995016432
 30
0.0
 11
-227.0
 21
-364.2138995016432
 31
0.0
  0
LINE
  5
77E5
330
77DB
100
AcDbEntity
  8
AM_0 外形線1
100
AcDbLine
 10
-227.0
 20
-364.2138995016432
 30
0.0
 11
-232.0
 21
-362.7138995016433
 31
0.0
  0
LINE
  5
77E6
330
77DB
100
AcDbEntity
  8
AM_0 外形線1
100
AcDbLine
 10
-309.0
 20
89.28610049835674
 30
0.0
 11
-232.0
 21
89.28610049835674
 31
0.0
  0
ARC
  5
77E7
330
77DB
100
AcDbEntity
  8
AM_0 外形線1
100
AcDbCircle
 10
-309.0
 20
83.28610049835672
 30
0.0
 40
6.0
100
AcDbArc
 50
90.0
 51
180.0
  0
LINE
  5
77E8
330
77DB
100
AcDbEntity
  8
AM_0 外形線1
100
AcDbLine
 10
0.0
 20
88.78610049835675
 30
0.0
 11
0.0
 21
-136.7138995016432
 31
0.0
  0
LINE
  5
77E9
330
77DB
100
AcDbEntity
  8
AM_3 隠れ線
100
AcDbLine
 10
0.0
 20
-126.2138995016432
 30
0.0
 11
-62.0
 21
-126.2138995016432
 31
0.0
  0
LINE
  5
77EA
330
77DB
100
AcDbEntity
  8
AM_3 隠れ線
100
AcDbLine
 10
-62.0
 20
-126.2138995016432
 30
0.0
 11
-62.0
 21
-136.7138995016432
 31
0.0
  0
LINE
  5
77EB
330
77DB
100
AcDbEntity
  8
AM_3 隠れ線
100
AcDbLine
 10
-62.0
 20
-126.2138995016432
 30
0.0
 11
-68.06217800000013
 21
-136.7138995016432
 31
0.0
  0
LINE
  5
77EC
330
77DB
100
AcDbEntity
  8
AM_3 隠れ線
100
AcDbLine
 10
0.0
 20
-124.7138995016432
 30
0.0
 11
-46.0
 21
-124.7138995016432
 31
0.0
  0
LINE
  5
77ED
330
77DB
100
AcDbEntity
  8
AM_3 隠れ線
100
AcDbLine
 10
-46.0
 20
-124.7138995016432
 30
0.0
 11
-46.86602500000025
 21
-126.2138995016432
 31
0.0
  0
LINE
  5
77EE
330
77DB
100
AcDbEntity
  8
AM_3 隠れ線
100
AcDbLine
 10
-46.0
 20
-124.7138995016432
 30
0.0
 11
-46.0
 21
-136.7138995016432
 31
0.0
  0
LINE
  5
77EF
330
77DB
100
AcDbEntity
  8
AM_3 隠れ線
100
AcDbLine
 10
-46.86602500000025
 20
-126.2138995016432
 30
0.0
 11
-46.86602500000025
 21
-136.7138995016432
 31
0.0
  0
LINE
  5
77F0
330
77DB
100
AcDbEntity
  8
AM_0 外形線1
100
AcDbLine
 10
-76.5
 20
89.78610049835674
 30
0.0
 11
-1.0
 21
89.78610049835674
 31
0.0
  0
LINE
  5
77F1
330
77DB
100
AcDbEntity
  8
AM_0 外形線1
100
AcDbLine
 10
-77.0
 20
104.3809324983565
 30
0.0
 11
-77.0
 21
90.28610049835675
 31
0.0
  0
LINE
  5
77F2
330
77DB
100
AcDbEntity
  8
AM_7 中心線
 48
0.5
100
AcDbLine
 10
-122.0
 20
114.0361004983565
 30
0.0
 11
-122.0
 21
92.28610049835674
 31
0.0
  0
LINE
  5
77F3
330
77DB
100
AcDbEntity
  8
AM_0 外形線1
100
AcDbLine
 10
-167.0
 20
91.28610049835677
 30
0.0
 11
-167.0
 21
104.3809324983565
 31
0.0
  0
LINE
  5
77F4
330
77DB
100
AcDbEntity
  8
AM_0 外形線1
100
AcDbLine
 10
-227.0
 20
90.78610049835674
 30
0.0
 11
-167.5
 21
90.78610049835674
 31
0.0
  0
LINE
  5
77F5
330
77DB
100
AcDbEntity
  8
AM_0 外形線1
100
AcDbLine
 10
-232.0
 20
89.28610049835674
 30
0.0
 11
-227.0
 21
90.78610049835674
 31
0.0
  0
ARC
  5
77F6
330
77DB
100
AcDbEntity
  8
AM_0 外形線1
100
AcDbCircle
 10
-167.5
 20
91.28610049835677
 30
0.0
 40
0.5
100
AcDbArc
 50
270.0
 51
0.0
  0
ARC
  5
77F7
330
77DB
100
AcDbEntity
  8
AM_0 外形線1
100
AcDbCircle
 10
-76.5
 20
90.28610049835675
 30
0.0
 40
0.5
100
AcDbArc
 50
180.0
 51
270.0
  0
ARC
  5
77F8
330
77DB
100
AcDbEntity
  8
AM_0 外形線1
100
AcDbCircle
 10
-122.0
 20
-136.7138995016432
 30
0.0
 40
245.75
100
AcDbArc
 50
79.56742399997922
 51
100.4325760000208
  0
LINE
  5
77F9
330
77DB
100
AcDbEntity
  8
AM_0 外形線1
100
AcDbLine
 10
-167.0
 20
104.3809324983565
 30
0.0
 11
-166.5
 21
104.9735284983567
 31
0.0
  0
LINE
  5
77FA
330
77DB
100
AcDbEntity
  8
AM_0 外形線1
100
AcDbLine
 10
-77.5
 20
104.9735284983567
 30
0.0
 11
-77.0
 21
104.3809324983565
 31
0.0
  0
LINE
  5
77FB
330
77DB
100
AcDbEntity
  8
AM_0 外形線1
100
AcDbLine
 10
-1.0
 20
89.78610049835674
 30
0.0
 11
0.0
 21
88.78610049835675
 31
0.0
  0
LINE
  5
77FC
330
77DB
100
AcDbEntity
  8
AM_0 外形線1
100
AcDbLine
 10
0.0
 20
0.7861004983567455
 30
0.0
 11
-315.0
 21
0.7861004983567455
 31
0.0
  0
ARC
  5
77FD
330
77DB
100
AcDbEntity
  8
AM_0 外形線1
100
AcDbCircle
 10
-122.0
 20
-136.713899501643
 30
0.0
 40
233.9999999999998
100
AcDbArc
 50
78.91251078903254
 51
101.0874892109674
  0
ARC
  5
77FE
330
77DB
100
AcDbEntity
  8
AM_7 中心線
 48
0.5
100
AcDbCircle
 10
-122.0
 20
-136.713899501643
 30
0.0
 40
239.8749999999998
100
AcDbArc
 50
77.9376582052282
 51
101.7206157731875
  0
ENDBLK
  5
77DD
330
77DB
100
AcDbEntity
  8
0
100
AcDbBlockEnd
  0
ENDSEC
  0
SECTION
  2
ENTITIES
  0
LINE
  5
45F8
330
1F
100
AcDbEntity
  8
AM_0 外形線1
100
AcDbLine
 10
1420.269401647961
 20
1686.989162450685
 30
0.0
 11
1420.269401647961
 21
1414.989162450685
 31
0.0
  0
LINE
  5
4655
330
1F
100
AcDbEntity
  8
AM_0 外形線1
100
AcDbLine
 10
1629.269401647961
 20
1880.239162450685
 30
0.0
 11
1629.269401647961
 21
1686.989162450685
 31
0.0
  0
LINE
  5
4657
330
1F
100
AcDbEntity
  8
AM_0 外形線1
100
AcDbLine
 10
1629.269401647961
 20
1880.239162450685
 30
0.0
 11
1629.269401647961
 21
1686.989162450685
 31
0.0
  0
LINE
  5
4749
330
1F
100
AcDbEntity
  8
AM_0 外形線1
100
AcDbLine
 10
1687.55812664796
 20
1951.111954450684
 30
0.0
 11
1687.588759647961
 21
1951.989162450685
 31
0.0
  0
LINE
  5
474D
330
1F
100
AcDbEntity
  8
AM_0 外形線1
100
AcDbLine
 10
1688.68091864796
 20
1949.989162450685
 30
0.0
 11
1688.750759647961
 21
1951.989162450685
 31
0.0
  0
LINE
  5
4848
102
{ACAD_REACTORS
330
5973
102
}
330
1F
100
AcDbEntity
  8
AM_7 中心線
100
AcDbLine
 10
1248.024933025946
 20
1686.989162450685
 30
0.0
 11
1989.12366177032
 21
1686.989162450685
 31
0.0
  0
INSERT
  5
4FDF
102
{ACAD_REACTORS
330
5BDB
102
}
330
1F
100
AcDbEntity
  8
AM_0 外形線1
100
AcDbBlockReference
  2
ケースＢ CCMH630
 10
1615.26940164796
 20
1686.989162450685
 30
0.0
  0
INSERT
  5
50E9
102
{ACAD_REACTORS
330
5973
330
598F
330
5AEA
330
5C95
102
}
330
1F
100
AcDbEntity
  8
AM_0 外形線1
100
AcDbBlockReference
  2
センタＡ CCMH630
 10
1629.269401647961
 20
1686.989162450685
 30
0.0
  0
INSERT
  5
53C0
330
1F
100
AcDbEntity
  8
AM_0 外形線1
100
AcDbBlockReference
  2
リーマボルト CCMH630 M24
 10
1645.269401647961
 20
1980.489162450685
 30
0.0
  0
INSERT
  5
53EE
102
{ACAD_REACTORS
330
5B2C
330
5BDB
330
5BF7
102
}
330
1F
100
AcDbEntity
  8
AM_0 外形線1
100
AcDbBlockReference
  2
ケースＡ CCMH630
 10
1615.26940164796
 20
1686.989162450685
 30
0.0
  0
INSERT
  5
54E0
102
{ACAD_REACTORS
330
5B14
102
}
330
1F
100
AcDbEntity
  8
AM_0 外形線1
100
AcDbBlockReference
  2
ＧＣサイドカバ－A CCMH630
 10
1810.269401647961
 20
1686.989162450685
 30
0.0
  0
INSERT
  5
5650
102
{ACAD_REACTORS
330
5914
330
5C0F
102
}
330
1F
100
AcDbEntity
  8
AM_0 外形線1
100
AcDbBlockReference
  2
ＧＣサイドカバ－Ｂ CCMH630
 10
1420.269401647961
 20
1686.989162450685
 30
0.0
  0
DIMENSION
  5
589C
330
1F
100
AcDbEntity
  8
AM_5 寸法線
100
AcDbDimension
  2
*D14
 10
1126.269401647961
 20
1459.489162450685
 30
0.0
 11
1126.269401647961
 21
1714.131433533246
 31
0.0
 70
   160
  1
%%c<>
 71
     5
 42
454.9999999999998
 73
     0
 74
     0
 75
     0
  3
SEISA$0
100
AcDbAlignedDimension
 13
1374.269401647961
 23
1914.489162450685
 33
0.0
 14
1374.269401647961
 24
1459.489162450685
 34
0.0
 50
90.0
100
AcDbRotatedDimension
1001
ACAD_DSTYLE_DIMINSPECT
1070
   396
1000
100%
1070
   395
1000

1070
   394
1070
    33
1070
   393
1070
     0
  0
DIMENSION
  5
58F9
102
{ACAD_XDICTIONARY
360
5908
102
}
102
{ACAD_REACTORS
330
5914
102
}
330
1F
100
AcDbEntity
  8
AM_5 寸法線
100
AcDbDimension
  2
*D15
 10
1434.26940164796
 20
1857.071315130966
 30
0.0
 11
1365.869401647961
 21
1857.071315130966
 31
0.0
 70
   160
 71
     5
 42
7.999999999999772
 73
     0
 74
     0
 75
     0
  3
SEISA$0
100
AcDbAlignedDimension
 13
1426.269401647961
 23
1914.489162450685
 33
0.0
 14
1434.26940164796
 24
1914.989162450685
 34
0.0
100
AcDbRotatedDimension
  0
DIMENSION
  5
5944
330
1F
100
AcDbEntity
  8
AM_5 寸法線
100
AcDbDimension
  2
*D16
 10
1286.269401647961
 20
1730.383403450684
 30
0.0
 11
1443.769401647961
 21
1756.383403450685
 31
0.0
 70
    32
 71
     5
 42
315.0
 73
     0
 74
     0
 75
     0
  3
SEISA$0
100
AcDbAlignedDimension
 13
1601.269401647961
 23
1686.989162450685
 33
0.0
 14
1286.269401647961
 24
1686.989162450685
 34
0.0
100
AcDbRotatedDimension
  0
DIMENSION
  5
595C
102
{ACAD_XDICTIONARY
360
5969
102
}
102
{ACAD_REACTORS
330
5973
102
}
330
1F
100
AcDbEntity
  8
AM_5 寸法線
100
AcDbDimension
  2
*D17
 10
1629.269401647961
 20
1730.383403450684
 30
0.0
 11
1786.769401647961
 21
1756.383403450685
 31
0.0
 70
    32
 71
     5
 42
315.0
 73
     0
 74
     0
 75
     0
  3
SEISA$0
100
AcDbAlignedDimension
 13
1944.269401647961
 23
1686.989162450685
 33
0.0
 14
1629.269401647961
 24
1686.989162450685
 34
0.0
100
AcDbRotatedDimension
  0
DIMENSION
  5
5974
102
{ACAD_XDICTIONARY
360
5983
102
}
102
{ACAD_REACTORS
330
598F
102
}
330
1F
100
AcDbEntity
  8
AM_5 寸法線
100
AcDbDimension
  2
*D18
 10
1601.269401647961
 20
1730.383403450684
 30
0.0
 11
1674.534401540884
 21
1755.465699170622
 31
0.0
 70
   160
 71
     5
 42
28.0
 73
     0
 74
     0
 75
     0
  3
SEISA$0
100
AcDbAlignedDimension
 13
1629.269401647961
 23
1686.989162450685
 33
0.0
 14
1601.269401647961
 24
1686.989162450685
 34
0.0
100
AcDbRotatedDimension
1001
ACAD
1000
DSTYLE
1002
{
1070
   279
1070
     2
1002
}
  0
DIMENSION
  5
5AD3
102
{ACAD_XDICTIONARY
360
5AE0
102
}
102
{ACAD_REACTORS
330
5AEA
102
}
330
1F
100
AcDbEntity
  8
AM_5 寸法線
100
AcDbDimension
  2
*D19
 10
2104.269401647961
 20
1459.489162450685
 30
0.0
 11
2078.269401647961
 21
1686.989162450685
 31
0.0
 70
    32
  1
%%c<>
 71
     5
 42
455.0
 73
     0
 74
     0
 75
     0
  3
SEISA$0
100
AcDbAlignedDimension
 13
1856.269401647961
 23
1914.489162450685
 33
0.0
 14
1856.269401647961
 24
1459.489162450685
 34
0.0
 50
90.0
100
AcDbRotatedDimension
1001
ACAD_DSTYLE_DIMINSPECT
1070
   396
1000
100%
1070
   395
1000

1070
   394
1070
    33
1070
   393
1070
     0
1001
ACAD
1000
DSTYLE
1002
{
1070
   279
1070
     0
1002
}
  0
DIMENSION
  5
5AFD
102
{ACAD_XDICTIONARY
360
5B0A
102
}
102
{ACAD_REACTORS
330
5B14
102
}
330
1F
100
AcDbEntity
  8
AM_5 寸法線
100
AcDbDimension
  2
*D20
 10
2168.269401647961
 20
1414.989162450685
 30
0.0
 11
2168.269401647961
 21
1686.989162450685
 31
0.0
 70
   160
  1
%%c<>
 71
     5
 42
543.9999999999996
 73
     0
 74
     0
 75
     0
  3
SEISA$0
100
AcDbAlignedDimension
 13
1828.269401647961
 23
1958.989162450684
 33
0.0
 14
1828.26940164796
 24
1414.989162450685
 34
0.0
 50
90.0
100
AcDbRotatedDimension
1001
ACAD
1000
DSTYLE
1002
{
1070
   279
1070
     0
1002
}
1001
ACAD_DSTYLE_DIMINSPECT
1070
   396
1000
100%
1070
   395
1000

1070
   394
1070
    33
1070
   393
1070
     0
  0
DIMENSION
  5
5B15
102
{ACAD_XDICTIONARY
360
5B22
102
}
102
{ACAD_REACTORS
330
5B2C
102
}
330
1F
100
AcDbEntity
  8
AM_5 寸法線
100
AcDbDimension
  2
*D21
 10
2232.269401647961
 20
1371.989162450685
 30
0.0
 11
2232.269401647961
 21
1686.989162450685
 31
0.0
 70
   160
  1
%%c<>
 71
     5
 42
629.9999999999998
 73
     0
 74
     0
 75
     0
  3
SEISA$0
100
AcDbAlignedDimension
 13
1644.269401647961
 23
2001.989162450685
 33
0.0
 14
1644.269401647961
 24
1371.989162450685
 34
0.0
 50
90.0
100
AcDbRotatedDimension
1001
ACAD
1000
DSTYLE
1002
{
1070
   279
1070
     0
1002
}
1001
ACAD_DSTYLE_DIMINSPECT
1070
   396
1000
100%
1070
   395
1000

1070
   394
1070
    33
1070
   393
1070
     0
  0
DIMENSION
  5
5BC0
102
{ACAD_XDICTIONARY
360
5BCF
102
}
102
{ACAD_REACTORS
330
5BDB
102
}
330
1F
100
AcDbEntity
  8
AM_5 寸法線
100
AcDbDimension
  2
*D22
 10
1585.269401647961
 20
1251.989162450685
 30
0.0
 11
1512.869401647961
 21
1277.989162450685
 31
0.0
 70
    32
 71
     5
 42
30.0
 73
     0
 74
     0
 75
     0
  3
SEISA$0
100
AcDbAlignedDimension
 13
1615.26940164796
 23
1372.989162450685
 33
0.0
 14
1585.269401647961
 24
1372.989162450685
 34
0.0
100
AcDbRotatedDimension
1001
ACAD_DSTYLE_DIMINSPECT
1070
   396
1000
100%
1070
   395
1000

1070
   394
1070
    33
1070
   393
1070
     0
1001
ACAD
1000
DSTYLE
1002
{
1070
   173
1070
     1
1070
   342
1005
0
1070
   343
1005
3BAC
1070
   344
1005
69
1002
}
  0
DIMENSION
  5
5BDC
102
{ACAD_XDICTIONARY
360
5BEB
102
}
102
{ACAD_REACTORS
330
5BF7
102
}
330
1F
100
AcDbEntity
  8
AM_5 寸法線
100
AcDbDimension
  2
*D23
 10
1645.269401647961
 20
1251.989162450685
 30
0.0
 11
1717.669401647961
 21
1277.989162450685
 31
0.0
 70
    32
 71
     5
 42
30.0
 73
     0
 74
     0
 75
     0
  3
SEISA$0
100
AcDbAlignedDimension
 13
1615.26940164796
 23
1372.989162450685
 33
0.0
 14
1645.269401647961
 24
1372.989162450685
 34
0.0
100
AcDbRotatedDimension
1001
ACAD_DSTYLE_DIMINSPECT
1070
   396
1000
100%
1070
   395
1000

1070
   394
1070
    33
1070
   393
1070
     0
1001
ACAD
1000
DSTYLE
1002
{
1070
   173
1070
     1
1070
   342
1005
0
1070
   343
1005
3BAC
1070
   344
1005
69
1002
}
  0
DIMENSION
  5
5BF8
102
{ACAD_XDICTIONARY
360
5C05
102
}
102
{ACAD_REACTORS
330
5C0F
102
}
330
1F
100
AcDbEntity
  8
AM_5 寸法線
100
AcDbDimension
  2
*D24
 10
1828.269401647961
 20
1187.989162450685
 30
0.0
 11
1615.26940164796
 21
1213.989162450685
 31
0.0
 70
    32
 71
     5
 42
426.0
 73
     0
 74
     0
 75
     0
  3
SEISA$0
100
AcDbAlignedDimension
 13
1402.269401647961
 23
1414.989162450685
 33
0.0
 14
1828.269401647961
 24
1414.989162450685
 34
0.0
100
AcDbRotatedDimension
1001
ACAD
1000
DSTYLE
1002
{
1070
   279
1070
     0
1002
}
  0
DIMENSION
  5
5C7E
102
{ACAD_XDICTIONARY
360
5C8B
102
}
102
{ACAD_REACTORS
330
5C95
102
}
330
1F
100
AcDbEntity
  8
AM_5 寸法線
100
AcDbDimension
  2
*D25
 10
1944.269401647961
 20
1123.989162450685
 30
0.0
 11
1615.26940164796
 21
1123.989162450685
 31
0.0
 70
   160
 71
     5
 42
658.0
 73
     0
 74
     0
 75
     0
  3
SEISA$0
100
AcDbAlignedDimension
 13
1286.269401647961
 23
1466.989162450685
 33
0.0
 14
1944.269401647961
 24
1466.989162450685
 34
0.0
100
AcDbRotatedDimension
1001
ACAD
1000
DSTYLE
1002
{
1070
   279
1070
     0
1002
}
  0
TEXT
  5
72F9
330
1F
100
AcDbEntity
  8
AM_6 文字
100
AcDbText
 10
2121.475504126467
 20
1071.164875328973
 30
0.0
 40
14.87488
  1
　
 41
0.9
  7
SEISA
100
AcDbText
  0
TEXT
  5
72FA
330
1F
100
AcDbEntity
  8
AM_6 文字
100
AcDbText
 10
2135.882887897895
 20
1057.64385732364
 30
0.0
 40
32.000329344
  1
 
 41
0.1
  7
SEISA
100
AcDbText
  0
TEXT
  5
72FD
330
1F
100
AcDbEntity
  8
AM_6 文字
100
AcDbText
 10
2486.328635118009
 20
1071.174475328973
 30
0.0
 40
14.81728
  1
 
 41
0.9
  7
SEISA
100
AcDbText
  0
TEXT
  5
7300
330
1F
100
AcDbEntity
  8
AM_6 文字
100
AcDbText
 10
2132.995504126466
 20
1004.310414208973
 30
0.0
 40
32.0
  1
 
 41
0.2
  7
SEISA
100
AcDbText
  0
TEXT
  5
7302
330
1F
100
AcDbEntity
  8
AM_6 文字
100
AcDbText
 10
2173.955504126466
 20
1004.310414208973
 30
0.0
 40
32.0
  1
         
 41
0.1
  7
SEISA
100
AcDbText
  0
TEXT
  5
7304
330
1F
100
AcDbEntity
  8
AM_6 文字
100
AcDbText
 10
2381.589789840752
 20
1004.310414208973
 30
0.0
 40
32.0
  1
　
 41
0.7
  7
SEISA
100
AcDbText
  0
TEXT
  5
7305
330
1F
100
AcDbEntity
  8
AM_6 文字
100
AcDbText
 10
2408.469789840752
 20
1004.310414208973
 30
0.0
 40
32.0
  1
　　
 41
0.9
  7
SEISA
100
AcDbText
  0
TEXT
  5
7306
330
1F
100
AcDbEntity
  8
AM_6 文字
100
AcDbText
 10
2477.589789840752
 20
1004.310414208973
 30
0.0
 40
32.0
  1
 
 41
0.6
  7
SEISA
100
AcDbText
  0
MTEXT
  5
73D8
330
1F
100
AcDbEntity
  8
AM_6 文字
100
AcDbMText
 10
2005.74086614898
 20
1317.341431805118
 30
0.0
 40
28.0
 41
558.132453341717
 46
78.58143603386221
 71
     1
 72
     5
  1
{\W0.6;TYPE:CCM630/CCMH630\PSHAFT DIA:MAX/MIN φ325/φ224}
  7
SEISA
 73
     1
 44
1.0
  0
DIMENSION
  5
73EB
330
1F
100
AcDbEntity
  8
AM_5 寸法線
100
AcDbDimension
  2
*D27
 10
1524.269401647961
 20
1857.071315130968
 30
0.0
 11
1479.269401647961
 21
1883.071315130968
 31
0.0
 70
    32
 71
     5
 42
90.0
 73
     0
 74
     0
 75
     0
  3
SEISA$0
100
AcDbAlignedDimension
 13
1434.269401647961
 23
1914.989162450685
 33
0.0
 14
1524.269401647961
 24
1913.989162450685
 34
0.0
 50
0.0000000000001132
100
AcDbRotatedDimension
1001
ACAD_DSTYLE_DIMINSPECT
1070
   396
1000
100%
1070
   395
1000

1070
   394
1070
    33
1070
   393
1070
     0
  0
DIMENSION
  5
7415
330
1F
100
AcDbEntity
  8
AM_5 寸法線
100
AcDbDimension
  2
*D28
 10
1601.269401647961
 20
1857.071315130968
 30
0.0
 11
1562.769401647961
 21
1883.071315130968
 31
0.0
 70
    32
 71
     5
 42
77.0
 73
     0
 74
     0
 75
     0
  3
SEISA$0
100
AcDbAlignedDimension
 13
1524.269401647961
 23
1913.989162450685
 33
0.0
 14
1601.269401647961
 24
1912.489162450685
 34
0.0
 50
0.0000000000001132
100
AcDbRotatedDimension
1001
ACAD_DSTYLE_DIMINSPECT
1070
   396
1000
100%
1070
   395
1000

1070
   394
1070
    33
1070
   393
1070
     0
  0
INSERT
  5
7811
330
1F
100
AcDbEntity
  8
AM_0 外形線1
100
AcDbBlockReference
  2
センタB CCMH630
 10
1601.269401647961
 20
1823.703061952328
 30
0.0
  0
ENDSEC
  0
SECTION
  2
OBJECTS
  0
DICTIONARY
  5
C
330
0
100
AcDbDictionary
281
     1
  3
ACAD_COLOR
350
C5
  3
ACAD_GROUP
350
D
  3
ACAD_LAYOUT
350
1A
  3
ACAD_MATERIAL
350
C4
  3
ACAD_MLEADERSTYLE
350
2D5
  3
ACAD_MLINESTYLE
350
17
  3
ACAD_PLOTSETTINGS
350
19
  3
ACAD_PLOTSTYLENAME
350
E
  3
ACAD_SCALELIST
350
2B3
  3
ACAD_TABLESTYLE
350
121
  3
ACAD_VISUALSTYLE
350
27F
  3
ACDB_RECOMPOSE_DATA
350
2F7
  3
AcDbVariableDictionary
350
34
  3
AcmDictionary
350
49
  3
AMG
350
2B
  3
AMGSNAPSETTINGS
350
1DE
  0
DICTIONARY
  5
BF
330
2
100
AcDbDictionary
280
     1
281
     1
  3
ACAD_LAYERSTATES
360
3C7F
  3
AMLAYER_GROUPCOLORS
360
C0
  0
DICTIONARY
  5
2AB7
330
10
100
AcDbDictionary
280
     1
281
     1
  3
ADSK_XREC_LAYER_RECONCILED
360
2AB8
  0
DICTIONARY
  5
2AB9
330
81
100
AcDbDictionary
280
     1
281
     1
  3
ADSK_XREC_LAYER_RECONCILED
360
2ABA
  0
DICTIONARY
  5
82
330
1F
100
AcDbDictionary
280
     1
281
     1
  3
ACAD_SORTENTS
360
A41
  0
DICTIONARY
  5
4D34
330
4D09
100
AcDbDictionary
280
     1
281
     1
  3
ACAD_SORTENTS
360
6E23
  0
DICTIONARY
  5
4E70
330
4DB5
100
AcDbDictionary
280
     1
281
     1
  3
ACAD_SORTENTS
360
68E6
  0
DICTIONARY
  5
5056
330
4FAE
100
AcDbDictionary
280
     1
281
     1
  3
ACAD_SORTENTS
360
695C
  0
DICTIONARY
  5
5150
330
50BD
100
AcDbDictionary
280
     1
281
     1
  3
ACAD_SORTENTS
360
77DA
  0
DICTIONARY
  5
5429
330
538F
100
AcDbDictionary
280
     1
281
     1
  3
ACAD_SORTENTS
360
7681
  0
DICTIONARY
  5
557C
330
54AA
100
AcDbDictionary
280
     1
281
     1
  3
ACAD_SORTENTS
360
6BCC
  0
DICTIONARY
  5
56C4
330
561B
100
AcDbDictionary
280
     1
281
     1
  3
ACAD_SORTENTS
360
7769
  0
DICTIONARY
  5
6E52
330
6E06
100
AcDbDictionary
280
     1
281
     1
  3
ACAD_SORTENTS
360
6E53
  0
DICTIONARY
  5
5908
330
58F9
100
AcDbDictionary
280
     1
281
     1
  3
ACAD_DIMASSOC
360
5914
  0
DICTIONARY
  5
5969
330
595C
100
AcDbDictionary
280
     1
281
     1
  3
ACAD_DIMASSOC
360
5973
  0
DICTIONARY
  5
5983
330
5974
100
AcDbDictionary
280
     1
281
     1
  3
ACAD_DIMASSOC
360
598F
  0
DICTIONARY
  5
5AE0
330
5AD3
100
AcDbDictionary
280
     1
281
     1
  3
ACAD_DIMASSOC
360
5AEA
  0
DICTIONARY
  5
5B0A
330
5AFD
100
AcDbDictionary
280
     1
281
     1
  3
ACAD_DIMASSOC
360
5B14
  0
DICTIONARY
  5
5B22
330
5B15
100
AcDbDictionary
280
     1
281
     1
  3
ACAD_DIMASSOC
360
5B2C
  0
DICTIONARY
  5
5BCF
330
5BC0
100
AcDbDictionary
280
     1
281
     1
  3
ACAD_DIMASSOC
360
5BDB
  0
DICTIONARY
  5
5BEB
330
5BDC
100
AcDbDictionary
280
     1
281
     1
  3
ACAD_DIMASSOC
360
5BF7
  0
DICTIONARY
  5
5C05
330
5BF8
100
AcDbDictionary
280
     1
281
     1
  3
ACAD_DIMASSOC
360
5C0F
  0
DICTIONARY
  5
5C8B
330
5C7E
100
AcDbDictionary
280
     1
281
     1
  3
ACAD_DIMASSOC
360
5C95
  0
DICTIONARY
  5
C5
102
{ACAD_REACTORS
330
C
102
}
330
C
100
AcDbDictionary
281
     1
  0
DICTIONARY
  5
D
102
{ACAD_REACTORS
330
C
102
}
330
C
100
AcDbDictionary
281
     1
  0
DICTIONARY
  5
1A
102
{ACAD_REACTORS
330
C
102
}
330
C
100
AcDbDictionary
281
     1
  3
Model
350
22
  3
レイアウト1
350
1E
  3
レイアウト2
350
26
  0
DICTIONARY
  5
C4
102
{ACAD_REACTORS
330
C
102
}
330
C
100
AcDbDictionary
281
     1
  3
ByBlock
350
27D
  3
ByLayer
350
27C
  3
Global
350
27E
  0
DICTIONARY
  5
2D5
102
{ACAD_REACTORS
330
C
102
}
330
C
100
AcDbDictionary
281
     1
  3
Standard
350
2D6
  0
DICTIONARY
  5
17
102
{ACAD_REACTORS
330
C
102
}
330
C
100
AcDbDictionary
281
     1
  3
Standard
350
18
  0
DICTIONARY
  5
19
102
{ACAD_REACTORS
330
C
102
}
330
C
100
AcDbDictionary
281
     1
  3
SEISA基本
350
1C7E
  0
ACDBDICTIONARYWDFLT
  5
E
102
{ACAD_REACTORS
330
C
102
}
330
C
100
AcDbDictionary
281
     1
  3
Normal
350
F
100
AcDbDictionaryWithDefault
340
F
  0
DICTIONARY
  5
2B3
102
{ACAD_REACTORS
330
C
102
}
330
C
100
AcDbDictionary
281
     1
  3
*A1
350
73CC
  3
*A2
350
73CD
  3
*A3
350
73CE
  3
*A4
350
73CF
  3
A0
350
2B4
  3
A1
350
2B5
  3
A2
350
2B6
  3
A3
350
2B7
  3
A4
350
2B8
  3
A5
350
2B9
  3
A6
350
2BA
  3
A7
350
2BB
  3
A8
350
2BC
  3
A9
350
2BD
  3
B0
350
2BE
  3
B1
350
2BF
  3
B2
350
2C0
  3
B3
350
2C1
  3
B4
350
2C2
  3
B5
350
2C3
  3
B6
350
2C4
  3
B7
350
2C5
  3
B8
350
2C6
  3
B9
350
2C7
  3
C0
350
2C8
  3
C1
350
2C9
  3
C2
350
2CA
  3
C3
350
2CB
  3
C4
350
2CC
  3
C5
350
2CD
  3
C6
350
2CE
  3
C7
350
2CF
  3
C8
350
2D0
  3
C9
350
2D1
  3
D0
350
2D2
  3
D1
350
2D3
  3
D2
350
2D4
  0
DICTIONARY
  5
121
102
{ACAD_REACTORS
330
C
102
}
330
C
100
AcDbDictionary
281
     1
  3
Standard
350
122
  0
DICTIONARY
  5
27F
102
{ACAD_REACTORS
330
C
102
}
330
C
100
AcDbDictionary
281
     1
  3
2dWireframe
350
285
  3
3D Hidden
350
287
  3
3dWireframe
350
286
  3
Basic
350
284
  3
Brighten
350
28B
  3
ColorChange
350
28F
  3
Conceptual
350
288
  3
Dim
350
28A
  3
Facepattern
350
28E
  3
Flat
350
280
  3
FlatWithEdges
350
281
  3
Gouraud
350
282
  3
GouraudWithEdges
350
283
  3
Linepattern
350
28D
  3
Realistic
350
289
  3
Thicken
350
28C
  0
XRECORD
  5
2F7
102
{ACAD_REACTORS
330
C
102
}
330
C
100
AcDbXrecord
280
     1
 90
        1
330
122
  0
DICTIONARY
  5
34
102
{ACAD_REACTORS
330
C
102
}
330
C
100
AcDbDictionary
281
     1
  3
CANNOSCALE
350
2FA
  3
CMLEADERSTYLE
350
2F8
  3
CTABLESTYLE
350
140
  3
DIMASSOC
350
AC
  3
INDEXCTL
350
35
  3
LAYEREVAL
350
67FB
  3
LAYERNOTIFY
350
67FC
  3
LIGHTINGUNITS
350
2FB
  3
MSLTSCALE
350
2F9
  0
DICTIONARY
  5
49
102
{ACAD_REACTORS
330
C
102
}
330
C
100
AcDbDictionary
281
     1
  3
AcmBOM
350
161B
  3
AcmStdDictionary
350
4A
  3
AMDTSECTSYM_ARROWCOLOR
350
12B
  0
DICTIONARY
  5
2B
102
{ACAD_REACTORS
330
C
102
}
330
C
100
AcDbDictionary
281
     1
  0
DICTIONARY
  5
1DE
102
{ACAD_REACTORS
330
C
102
}
330
C
100
AcDbDictionary
281
     1
  0
DICTIONARY
  5
3C7F
102
{ACAD_REACTORS
330
BF
102
}
330
BF
100
AcDbDictionary
281
     1
  0
DICTIONARY
  5
C0
102
{ACAD_REACTORS
330
BF
102
}
330
BF
100
AcDbDictionary
280
     1
281
     1
  0
XRECORD
  5
2AB8
102
{ACAD_REACTORS
330
2AB7
102
}
330
2AB7
100
AcDbXrecord
280
     1
290
     1
  0
XRECORD
  5
2ABA
102
{ACAD_REACTORS
330
2AB9
102
}
330
2AB9
100
AcDbXrecord
280
     1
290
     1
  0
SORTENTSTABLE
  5
A41
102
{ACAD_REACTORS
330
82
102
}
330
82
100
AcDbSortentsTable
330
1F
331
5974
  5
61B0
331
73D8
  5
73D8
331
72F9
  5
72CC
331
589C
  5
6071
331
5944
  5
60C6
331
5AD3
  5
61B8
331
595C
  5
61AB
331
50E9
  5
5794
331
7300
  5
72F9
331
53C0
  5
5E0F
331
4749
  5
47A1
331
4FDF
  5
5727
331
5BC0
  5
61DB
331
45F8
  5
4622
331
58F9
  5
607A
331
53EE
  5
5E10
331
7306
  5
72FF
331
5BF8
  5
61E1
331
4848
  5
5225
331
72FD
  5
72F6
331
4657
  5
47A0
331
7305
  5
72FE
331
5650
  5
5EB4
331
5C7E
  5
626C
331
7304
  5
72FD
331
54E0
  5
5E11
331
4655
  5
474D
331
474D
  5
47A2
331
72FA
  5
72CD
331
5AFD
  5
61BB
331
7302
  5
72FB
331
5BDC
  5
61DE
331
5B15
  5
61BE
  0
SORTENTSTABLE
  5
6E23
102
{ACAD_REACTORS
330
4D34
102
}
330
4D34
100
AcDbSortentsTable
330
4D09
  0
SORTENTSTABLE
  5
68E6
102
{ACAD_REACTORS
330
4E70
102
}
330
4E70
100
AcDbSortentsTable
330
4DB5
  0
SORTENTSTABLE
  5
695C
102
{ACAD_REACTORS
330
5056
102
}
330
5056
100
AcDbSortentsTable
330
4FAE
  0
SORTENTSTABLE
  5
77DA
102
{ACAD_REACTORS
330
5150
102
}
330
5150
100
AcDbSortentsTable
330
50BD
331
50C7
  5
50CB
331
50DE
  5
50E3
331
50CF
  5
50D1
331
50D7
  5
50D9
331
50C6
  5
50C9
331
754A
  5
50C0
331
50DD
  5
50E2
331
50CE
  5
50D0
331
50E5
  5
754A
331
50D6
  5
50D8
331
748D
  5
50C1
331
50C5
  5
50C7
331
50DC
  5
50DE
331
50CD
  5
50CF
331
50E4
  5
748D
331
50D5
  5
50D7
331
50C4
  5
50C6
331
50DB
  5
50DD
331
50CC
  5
50CE
331
50E3
  5
50E5
331
50D4
  5
50D6
331
50CB
  5
50CD
331
50E2
  5
50E4
331
50D3
  5
50D5
331
50C2
  5
50C5
331
50D9
  5
50DC
331
50D2
  5
50D4
331
50C1
  5
50C4
331
50D8
  5
50DB
331
50C9
  5
50CC
331
50D1
  5
50D3
331
50C0
  5
50C2
331
50D0
  5
50D2
  0
SORTENTSTABLE
  5
7681
102
{ACAD_REACTORS
330
5429
102
}
330
5429
100
AcDbSortentsTable
330
538F
331
53A9
  5
53AA
331
53BD
  5
53BF
331
5426
  5
5427
331
5399
  5
539A
331
53B6
  5
53B7
331
53A2
  5
53A3
331
53BF
  5
5424
331
5392
  5
5393
331
53AB
  5
53AC
331
539B
  5
539C
331
53B8
  5
53B9
331
53A4
  5
53A5
331
5394
  5
5395
331
53AD
  5
53AE
331
539D
  5
539E
331
53B1
  5
53B2
331
53BA
  5
53BB
331
53A6
  5
53A7
331
5396
  5
5397
331
53AF
  5
53B0
331
53B3
  5
53B4
331
539F
  5
53A0
331
5428
  5
5392
331
53BC
  5
53BD
331
53A8
  5
53A9
331
5425
  5
5426
331
5398
  5
5399
331
53A1
  5
53A2
331
53B5
  5
53B6
331
53AA
  5
53AB
331
5427
  5
5428
331
539A
  5
539B
331
53A3
  5
53A4
331
53B7
  5
53B8
331
5393
  5
5394
331
53AC
  5
53AD
331
53B0
  5
53B1
331
539C
  5
539D
331
53A5
  5
53A6
331
53B9
  5
53BA
331
53AE
  5
53AF
331
5395
  5
5396
331
53B2
  5
53B3
331
539E
  5
539F
331
53A7
  5
53A8
331
53BB
  5
53BC
331
5424
  5
5425
331
5397
  5
5398
331
53B4
  5
53B5
331
53A0
  5
53A1
  0
SORTENTSTABLE
  5
6BCC
102
{ACAD_REACTORS
330
557C
102
}
330
557C
100
AcDbSortentsTable
330
54AA
331
54D3
  5
54D4
331
5578
  5
5579
331
54D0
  5
54D1
331
54CD
  5
54CE
331
54DE
  5
54DF
331
54D7
  5
54D8
331
54DB
  5
54DC
331
5579
  5
557A
331
54D4
  5
54D5
331
54D8
  5
54D9
331
54D1
  5
54D2
331
54DF
  5
5577
331
54CE
  5
54CF
331
54CB
  5
54CC
331
54DC
  5
54DD
331
54D9
  5
54DA
331
54D5
  5
54D6
331
557A
  5
557B
331
54D2
  5
54D3
331
54CF
  5
54D0
331
54CC
  5
54CD
331
54DD
  5
54DE
331
54DA
  5
54DB
331
557B
  5
54CB
331
5577
  5
5578
331
54D6
  5
54D7
  0
SORTENTSTABLE
  5
7769
102
{ACAD_REACTORS
330
56C4
102
}
330
56C4
100
AcDbSortentsTable
330
561B
331
5632
  5
5633
331
5627
  5
5628
331
56BE
  5
56BF
331
5638
  5
5639
331
564B
  5
564C
331
562D
  5
562E
331
563E
  5
563F
331
56C3
  5
5626
331
5633
  5
5634
331
5644
  5
5645
331
5628
  5
5629
331
5639
  5
563A
331
56BF
  5
56C0
331
564C
  5
564D
331
562E
  5
562F
331
563F
  5
5640
331
5634
  5
5635
331
5645
  5
5646
331
5629
  5
562A
331
563A
  5
563B
331
564D
  5
564E
331
562F
  5
5630
331
5640
  5
5641
331
5635
  5
5636
331
5646
  5
5647
331
562A
  5
562B
331
563B
  5
563C
331
56C0
  5
56C1
331
564E
  5
564F
331
5630
  5
5631
331
5641
  5
5644
331
5636
  5
5637
331
5647
  5
5649
331
5649
  5
564A
331
562B
  5
562C
331
563C
  5
563D
331
56C1
  5
56C2
331
564F
  5
56BE
331
5631
  5
5632
331
5626
  5
5627
331
5637
  5
5638
331
564A
  5
564B
331
562C
  5
562D
331
563D
  5
563E
331
56C2
  5
56C3
  0
SORTENTSTABLE
  5
6E53
102
{ACAD_REACTORS
330
6E52
102
}
330
6E52
100
AcDbSortentsTable
330
6E06
  0
DIMASSOC
  5
5914
102
{ACAD_REACTORS
330
5908
102
}
330
5908
100
AcDbDimAssoc
330
58F9
 90
        1
 70
     0
 71
     0
  1
AcDbOsnapPointRef
 72
     1
331
5650
331
562B
 73
     2
 91
        0
 40
1.0
 10
0.0
 20
0.0
 30
2.000000000000000E+50
 75
     0
  0
DIMASSOC
  5
5973
102
{ACAD_REACTORS
330
5969
102
}
330
5969
100
AcDbDimAssoc
330
595C
 90
        3
 70
     0
 71
     0
  1
AcDbOsnapPointRef
 72
     6
331
50E9
331
50C2
 73
     2
 91
        0
 40
0.500000000000001
 10
0.0
 20
0.0
 30
0.0
332
4848
 74
     2
 92
        0
 75
     0
  1
AcDbOsnapPointRef
 72
     8
331
50E9
331
50CB
 73
     2
 91
        0
 40
0.9999999999999975
 10
0.0
 20
0.0
 30
0.0
 75
     1
  1
AcDbOsnapPointRef
 72
     6
331
50E9
331
50C2
 73
     2
 91
        0
 40
0.500000000000001
 10
0.0
 20
0.0
 30
0.0
332
4848
 74
     2
 92
        0
 75
     0
  0
DIMASSOC
  5
598F
102
{ACAD_REACTORS
330
5983
102
}
330
5983
100
AcDbDimAssoc
330
5974
 90
        1
 70
     0
 71
     0
  1
AcDbOsnapPointRef
 72
     1
331
50E9
331
50CB
 73
     2
 91
        0
 40
1.0
 10
0.0
 20
0.0
 30
2.000000000000000E+50
 75
     0
  0
DIMASSOC
  5
5AEA
102
{ACAD_REACTORS
330
5AE0
102
}
330
5AE0
100
AcDbDimAssoc
330
5AD3
 90
        3
 70
     0
 71
     0
  1
AcDbOsnapPointRef
 72
    13
331
50E9
331
50DD
 73
     2
 91
        0
 40
0.0
 10
0.0
 20
0.0
 30
2.000000000000000E+50
 75
     0
  1
AcDbOsnapPointRef
 72
    13
331
50E9
331
50C0
 73
     2
 91
        0
 40
0.0
 10
0.0
 20
0.0
 30
2.000000000000000E+50
 75
     0
  0
DIMASSOC
  5
5B14
102
{ACAD_REACTORS
330
5B0A
102
}
330
5B0A
100
AcDbDimAssoc
330
5AFD
 90
        3
 70
     0
 71
     0
  1
AcDbOsnapPointRef
 72
    13
331
54E0
331
54BF
 73
     2
 91
        0
 40
0.0
 10
0.0
 20
0.0
 30
2.000000000000000E+50
 75
     0
  1
AcDbOsnapPointRef
 72
     8
331
54E0
331
54B0
 73
     2
 91
        0
 40
0.9999999999999872
 10
0.0
 20
0.0
 30
0.0
 75
     1
  1
AcDbOsnapPointRef
 72
    13
331
54E0
331
54BF
 73
     2
 91
        0
 40
0.0
 10
0.0
 20
0.0
 30
2.000000000000000E+50
 75
     0
  0
DIMASSOC
  5
5B2C
102
{ACAD_REACTORS
330
5B22
102
}
330
5B22
100
AcDbDimAssoc
330
5B15
 90
        3
 70
     0
 71
     0
  1
AcDbOsnapPointRef
 72
     1
331
53EE
331
4DC9
 73
     2
 91
        0
 40
1.0
 10
0.0
 20
0.0
 30
2.000000000000000E+50
 75
     0
  1
AcDbOsnapPointRef
 72
     1
331
53EE
331
4DBE
 73
     2
 91
        0
 40
1.0
 10
0.0
 20
0.0
 30
2.000000000000000E+50
 75
     0
  0
DIMASSOC
  5
5BDB
102
{ACAD_REACTORS
330
5BCF
102
}
330
5BCF
100
AcDbDimAssoc
330
5BC0
 90
        3
 70
     0
 71
     0
  1
AcDbOsnapPointRef
 72
     1
331
53EE
331
4DB9
 73
     2
 91
        0
 40
1.0
 10
0.0
 20
0.0
 30
2.000000000000000E+50
 75
     0
  1
AcDbOsnapPointRef
 72
    13
331
4FDF
331
4FB1
 73
     2
 91
        0
 40
0.0
 10
0.0
 20
0.0
 30
2.000000000000000E+50
 75
     0
  0
DIMASSOC
  5
5BF7
102
{ACAD_REACTORS
330
5BEB
102
}
330
5BEB
100
AcDbDimAssoc
330
5BDC
 90
        3
 70
     0
 71
     0
  1
AcDbOsnapPointRef
 72
     1
331
53EE
331
4DB9
 73
     2
 91
        0
 40
1.0
 10
0.0
 20
0.0
 30
2.000000000000000E+50
 75
     0
  1
AcDbOsnapPointRef
 72
    13
331
53EE
331
4DB8
 73
     2
 91
        0
 40
0.0
 10
0.0
 20
0.0
 30
2.000000000000000E+50
 75
     0
  0
DIMASSOC
  5
5C0F
102
{ACAD_REACTORS
330
5C05
102
}
330
5C05
100
AcDbDimAssoc
330
5BF8
 90
        1
 70
     0
 71
     0
  1
AcDbOsnapPointRef
 72
    13
331
5650
331
5620
 73
     2
 91
        0
 40
0.0
 10
0.0
 20
0.0
 30
2.000000000000000E+50
 75
     0
  0
DIMASSOC
  5
5C95
102
{ACAD_REACTORS
330
5C8B
102
}
330
5C8B
100
AcDbDimAssoc
330
5C7E
 90
        2
 70
     0
 71
     0
  1
AcDbOsnapPointRef
 72
    13
331
50E9
331
50C2
 73
     2
 91
        0
 40
0.0
 10
0.0
 20
0.0
 30
2.000000000000000E+50
 75
     0
  0
LAYOUT
  5
22
102
{ACAD_REACTORS
330
1A
102
}
330
1A
100
AcDbPlotSettings
  1

  2
KONICA MINOLTA 501 PCL
  4
A4
  6

 40
5.027082920074462
 41
5.027085781097412
 42
5.027069091796875
 43
5.027069091796875
 44
209.9733276367186
 45
296.9259948730469
 46
4.99833332565187
 47
0.0
 48
0.0
 49
0.0
140
0.0
141
0.0
142
1.0
143
4.652063081823755
 70
 11956
 72
     1
 73
     1
 74
     1
  7
SEISA.ctb
 75
     0
147
0.2149583920964305
 76
     0
 77
     2
 78
   300
148
-1086.042491087651
149
-1118.571909203364
100
AcDbLayout
  1
Model
 70
     1
 71
     0
 10
0.0
 20
0.0
 11
12.0
 21
9.0
 12
0.0
 22
0.0
 32
0.0
 14
0.0
 24
0.0
 34
0.0
 15
0.0
 25
0.0
 35
0.0
146
0.0
 13
0.0
 23
0.0
 33
0.0
 16
1.0
 26
0.0
 36
0.0
 17
0.0
 27
1.0
 37
0.0
 76
     0
330
1F
331
27A
1001
ACAD_PSEXT
1000
KONICA MINOLTA 501 PCL
1000
KONICA MINOLTA 501/421/361PCL
1000
IP_192.168.20.231_(1)
1000

1070
     0
  0
LAYOUT
  5
1E
102
{ACAD_REACTORS
330
1A
102
}
330
1A
100
AcDbPlotSettings
  1

  2
none_device
  4
Letter_(8.50_x_11.00_Inches)
  6

 40
6.349999904632567
 41
6.349999904632567
 42
6.350006103515625
 43
6.350006103515625
 44
215.8999938964844
 45
279.3999938964844
 46
0.0
 47
0.0
 48
0.0
 49
0.0
140
0.0
141
0.0
142
1.0
143
1.0
 70
 15024
 72
     1
 73
     1
 74
     5
  7
SEISA.ctb
 75
    16
147
1.0
 76
     0
 77
     2
 78
   300
148
0.0
149
0.0
100
AcDbLayout
  1
レイアウト1
 70
     1
 71
     1
 10
0.0
 20
0.0
 11
420.0
 21
297.0
 12
0.0
 22
0.0
 32
0.0
 14
1.000000000000000E+20
 24
1.000000000000000E+20
 34
1.000000000000000E+20
 15
-1.000000000000000E+20
 25
-1.000000000000000E+20
 35
-1.000000000000000E+20
146
0.0
 13
0.0
 23
0.0
 33
0.0
 16
1.0
 26
0.0
 36
0.0
 17
0.0
 27
1.0
 37
0.0
 76
     0
330
1B
  0
LAYOUT
  5
26
102
{ACAD_REACTORS
330
1A
102
}
330
1A
100
AcDbPlotSettings
  1

  2
none_device
  4
Letter_(8.50_x_11.00_Inches)
  6

 40
6.349999904632567
 41
6.349999904632567
 42
6.350006103515625
 43
6.350006103515625
 44
215.8999938964844
 45
279.3999938964844
 46
0.0
 47
0.0
 48
0.0
 49
0.0
140
0.0
141
0.0
142
1.0
143
1.0
 70
 15024
 72
     1
 73
     1
 74
     5
  7
SEISA.ctb
 75
    16
147
1.0
 76
     0
 77
     2
 78
   300
148
0.0
149
0.0
100
AcDbLayout
  1
レイアウト2
 70
     1
 71
     2
 10
0.0
 20
0.0
 11
12.0
 21
9.0
 12
0.0
 22
0.0
 32
0.0
 14
0.0
 24
0.0
 34
0.0
 15
0.0
 25
0.0
 35
0.0
146
0.0
 13
0.0
 23
0.0
 33
0.0
 16
1.0
 26
0.0
 36
0.0
 17
0.0
 27
1.0
 37
0.0
 76
     0
330
23
  0
MATERIAL
  5
27D
102
{ACAD_REACTORS
330
C4
102
}
330
C4
100
AcDbMaterial
  1
ByBlock
 73
     1
 78
     1
172
     1
176
     1
270
     1
274
     1
 94
       63
  0
MATERIAL
  5
27C
102
{ACAD_REACTORS
330
C4
102
}
330
C4
100
AcDbMaterial
  1
ByLayer
 73
     1
 78
     1
172
     1
176
     1
270
     1
274
     1
 94
       63
  0
MATERIAL
  5
27E
102
{ACAD_REACTORS
330
C4
102
}
330
C4
100
AcDbMaterial
  1
Global
 73
     1
 78
     1
172
     1
176
     1
270
     1
274
     1
 94
       63
  0
MLEADERSTYLE
  5
2D6
102
{ACAD_REACTORS
330
2D5
102
}
330
2D5
100
AcDbMLeaderStyle
170
     2
171
     1
172
     0
 90
        2
 40
0.0
 41
0.0
173
     1
 91
-1056964608
340
14
 92
       -2
290
     1
 42
2.0
291
     1
 43
0.36
  3
Standard
 44
4.0
300

342
11
174
     1
178
     6
175
     1
176
     0
 93
-1056964608
 45
4.0
292
     0
297
     0
 46
4.0
 94
-1056964608
 47
1.0
 49
1.0
140
1.0
293
     1
141
0.0
294
     1
177
     0
142
1.0
295
     0
296
     0
143
0.125
1001
ACAD_MLEADERVER
1070
     2
  0
MLINESTYLE
  5
18
102
{ACAD_REACTORS
330
17
102
}
330
17
100
AcDbMlineStyle
  2
STANDARD
 70
     0
  3

 62
   256
 51
90.0
 52
90.0
 71
     2
 49
0.5
 62
   256
  6
BYLAYER
 49
-0.5
 62
   256
  6
BYLAYER
  0
PLOTSETTINGS
  5
1C7E
102
{ACAD_REACTORS
330
19
102
}
330
19
100
AcDbPlotSettings
  1
SEISA基本
  2
none_device
  4
Letter_(8.50_x_11.00_Inches)
  6

 40
6.349999904632567
 41
6.349999904632567
 42
6.350006103515625
 43
6.350006103515625
 44
215.8999938964844
 45
279.3999938964844
 46
7.302498226506357
 47
0.0
 48
0.0
 49
0.0
140
0.0
141
0.0
142
1.0
143
1.574803221122935
 70
 11956
 72
     1
 73
     1
 74
     2
  7
SEISA.ctb
 75
     0
147
0.6349999711627054
 76
     0
 77
     2
 78
   300
148
0.0
149
0.0
1001
ACAD_PSEXT
1000
なし
1000
なし
1000
適切ではありません
1000
新しいプロッタ環境設定名を選択しない限り、レイアウトは印刷されません。
1070
     0
  0
ACDBPLACEHOLDER
  5
F
102
{ACAD_REACTORS
330
E
102
}
330
E
  0
SCALE
  5
73CC
102
{ACAD_REACTORS
330
2B3
102
}
330
2B3
100
AcDbScale
 70
     0
300
1:6
140
1.0
141
6.0
290
     0
  0
SCALE
  5
73CD
102
{ACAD_REACTORS
330
2B3
102
}
330
2B3
100
AcDbScale
 70
     0
300
1:3
140
1.0
141
3.0
290
     0
  0
SCALE
  5
73CE
102
{ACAD_REACTORS
330
2B3
102
}
330
2B3
100
AcDbScale
 70
     0
300
1:2.5
140
1.0
141
2.5
290
     0
  0
SCALE
  5
73CF
102
{ACAD_REACTORS
330
2B3
102
}
330
2B3
100
AcDbScale
 70
     0
300
1:1.5
140
1.0
141
1.5
290
     0
  0
SCALE
  5
2B4
102
{ACAD_REACTORS
330
2B3
102
}
330
2B3
100
AcDbScale
 70
     0
300
1:1
140
1.0
141
1.0
290
     1
  0
SCALE
  5
2B5
102
{ACAD_REACTORS
330
2B3
102
}
330
2B3
100
AcDbScale
 70
     0
300
1:2
140
1.0
141
2.0
290
     0
  0
SCALE
  5
2B6
102
{ACAD_REACTORS
330
2B3
102
}
330
2B3
100
AcDbScale
 70
     0
300
1:4
140
1.0
141
4.0
290
     0
  0
SCALE
  5
2B7
102
{ACAD_REACTORS
330
2B3
102
}
330
2B3
100
AcDbScale
 70
     0
300
1:5
140
1.0
141
5.0
290
     0
  0
SCALE
  5
2B8
102
{ACAD_REACTORS
330
2B3
102
}
330
2B3
100
AcDbScale
 70
     0
300
1:8
140
1.0
141
8.0
290
     0
  0
SCALE
  5
2B9
102
{ACAD_REACTORS
330
2B3
102
}
330
2B3
100
AcDbScale
 70
     0
300
1:10
140
1.0
141
10.0
290
     0
  0
SCALE
  5
2BA
102
{ACAD_REACTORS
330
2B3
102
}
330
2B3
100
AcDbScale
 70
     0
300
1:16
140
1.0
141
16.0
290
     0
  0
SCALE
  5
2BB
102
{ACAD_REACTORS
330
2B3
102
}
330
2B3
100
AcDbScale
 70
     0
300
1:20
140
1.0
141
20.0
290
     0
  0
SCALE
  5
2BC
102
{ACAD_REACTORS
330
2B3
102
}
330
2B3
100
AcDbScale
 70
     0
300
1:30
140
1.0
141
30.0
290
     0
  0
SCALE
  5
2BD
102
{ACAD_REACTORS
330
2B3
102
}
330
2B3
100
AcDbScale
 70
     0
300
1:40
140
1.0
141
40.0
290
     0
  0
SCALE
  5
2BE
102
{ACAD_REACTORS
330
2B3
102
}
330
2B3
100
AcDbScale
 70
     0
300
1:50
140
1.0
141
50.0
290
     0
  0
SCALE
  5
2BF
102
{ACAD_REACTORS
330
2B3
102
}
330
2B3
100
AcDbScale
 70
     0
300
1:100
140
1.0
141
100.0
290
     0
  0
SCALE
  5
2C0
102
{ACAD_REACTORS
330
2B3
102
}
330
2B3
100
AcDbScale
 70
     0
300
2:1
140
2.0
141
1.0
290
     0
  0
SCALE
  5
2C1
102
{ACAD_REACTORS
330
2B3
102
}
330
2B3
100
AcDbScale
 70
     0
300
4:1
140
4.0
141
1.0
290
     0
  0
SCALE
  5
2C2
102
{ACAD_REACTORS
330
2B3
102
}
330
2B3
100
AcDbScale
 70
     0
300
8:1
140
8.0
141
1.0
290
     0
  0
SCALE
  5
2C3
102
{ACAD_REACTORS
330
2B3
102
}
330
2B3
100
AcDbScale
 70
     0
300
10:1
140
10.0
141
1.0
290
     0
  0
SCALE
  5
2C4
102
{ACAD_REACTORS
330
2B3
102
}
330
2B3
100
AcDbScale
 70
     0
300
100:1
140
100.0
141
1.0
290
     0
  0
SCALE
  5
2C5
102
{ACAD_REACTORS
330
2B3
102
}
330
2B3
100
AcDbScale
 70
     0
300
1/128" = 1'-0"
140
0.0078125
141
12.0
290
     0
  0
SCALE
  5
2C6
102
{ACAD_REACTORS
330
2B3
102
}
330
2B3
100
AcDbScale
 70
     0
300
1/64" = 1'-0"
140
0.015625
141
12.0
290
     0
  0
SCALE
  5
2C7
102
{ACAD_REACTORS
330
2B3
102
}
330
2B3
100
AcDbScale
 70
     0
300
1/32" = 1'-0"
140
0.03125
141
12.0
290
     0
  0
SCALE
  5
2C8
102
{ACAD_REACTORS
330
2B3
102
}
330
2B3
100
AcDbScale
 70
     0
300
1/16" = 1'-0"
140
0.0625
141
12.0
290
     0
  0
SCALE
  5
2C9
102
{ACAD_REACTORS
330
2B3
102
}
330
2B3
100
AcDbScale
 70
     0
300
3/32" = 1'-0"
140
0.09375
141
12.0
290
     0
  0
SCALE
  5
2CA
102
{ACAD_REACTORS
330
2B3
102
}
330
2B3
100
AcDbScale
 70
     0
300
1/8" = 1'-0"
140
0.125
141
12.0
290
     0
  0
SCALE
  5
2CB
102
{ACAD_REACTORS
330
2B3
102
}
330
2B3
100
AcDbScale
 70
     0
300
3/16" = 1'-0"
140
0.1875
141
12.0
290
     0
  0
SCALE
  5
2CC
102
{ACAD_REACTORS
330
2B3
102
}
330
2B3
100
AcDbScale
 70
     0
300
1/4" = 1'-0"
140
0.25
141
12.0
290
     0
  0
SCALE
  5
2CD
102
{ACAD_REACTORS
330
2B3
102
}
330
2B3
100
AcDbScale
 70
     0
300
3/8" = 1'-0"
140
0.375
141
12.0
290
     0
  0
SCALE
  5
2CE
102
{ACAD_REACTORS
330
2B3
102
}
330
2B3
100
AcDbScale
 70
     0
300
1/2" = 1'-0"
140
0.5
141
12.0
290
     0
  0
SCALE
  5
2CF
102
{ACAD_REACTORS
330
2B3
102
}
330
2B3
100
AcDbScale
 70
     0
300
3/4" = 1'-0"
140
0.75
141
12.0
290
     0
  0
SCALE
  5
2D0
102
{ACAD_REACTORS
330
2B3
102
}
330
2B3
100
AcDbScale
 70
     0
300
1" = 1'-0"
140
1.0
141
12.0
290
     0
  0
SCALE
  5
2D1
102
{ACAD_REACTORS
330
2B3
102
}
330
2B3
100
AcDbScale
 70
     0
300
1-1/2" = 1'-0"
140
1.5
141
12.0
290
     0
  0
SCALE
  5
2D2
102
{ACAD_REACTORS
330
2B3
102
}
330
2B3
100
AcDbScale
 70
     0
300
3" = 1'-0"
140
3.0
141
12.0
290
     0
  0
SCALE
  5
2D3
102
{ACAD_REACTORS
330
2B3
102
}
330
2B3
100
AcDbScale
 70
     0
300
6" = 1'-0"
140
6.0
141
12.0
290
     0
  0
SCALE
  5
2D4
102
{ACAD_REACTORS
330
2B3
102
}
330
2B3
100
AcDbScale
 70
     0
300
1'-0" = 1'-0"
140
12.0
141
12.0
290
     0
  0
TABLESTYLE
  5
122
102
{ACAD_XDICTIONARY
360
2F5
102
}
102
{ACAD_REACTORS
330
121
102
}
330
121
100
AcDbTableStyle
  3
Standard
 70
     0
 71
     0
 40
1.5
 41
1.5
280
     0
281
     0
  7
STANDARD
140
4.5
170
     2
 62
     0
 63
     7
283
     0
 90
      512
 91
        0
  1

274
    -2
284
     1
 64
     0
275
    -2
285
     1
 65
     0
276
    -2
286
     1
 66
     0
277
    -2
287
     1
 67
     0
278
    -2
288
     1
 68
     0
279
    -2
289
     1
 69
     0
  7
STANDARD
140
6.0
170
     5
 62
     0
 63
     7
283
     0
 90
      512
 91
        0
  1

274
    -2
284
     1
 64
     0
275
    -2
285
     1
 65
     0
276
    -2
286
     1
 66
     0
277
    -2
287
     1
 67
     0
278
    -2
288
     1
 68
     0
279
    -2
289
     1
 69
     0
  7
STANDARD
140
4.5
170
     5
 62
     0
 63
     7
283
     0
 90
      512
 91
        0
  1

274
    -2
284
     1
 64
     0
275
    -2
285
     1
 65
     0
276
    -2
286
     1
 66
     0
277
    -2
287
     1
 67
     0
278
    -2
288
     1
 68
     0
279
    -2
289
     1
 69
     0
  0
VISUALSTYLE
  5
285
102
{ACAD_REACTORS
330
27F
102
}
330
27F
100
AcDbVisualStyle
  2
2dWireframe
 70
     4
 71
     0
 72
     2
 73
     0
 90
        0
 40
-0.6
 41
-30.0
 62
     5
 63
     7
421
 16777215
 74
     1
 91
        4
 64
     7
 65
   257
 75
     1
175
     1
 42
1.0
 92
        0
 66
   257
 43
1.0
 76
     1
 77
     6
 78
     2
 67
     7
 79
     5
170
     0
171
     0
290
     0
174
     0
 93
        1
 44
0.0
173
     0
291
     0
 45
0.0
  0
VISUALSTYLE
  5
287
102
{ACAD_REACTORS
330
27F
102
}
330
27F
100
AcDbVisualStyle
  2
3D Hidden
 70
     6
 71
     1
 72
     2
 73
     2
 90
        0
 40
-0.6
 41
-30.0
 62
     5
 63
     7
421
 16777215
 74
     2
 91
        2
 64
     7
 65
   257
 75
     2
175
     1
 42
40.0
 92
        0
 66
   257
 43
1.0
 76
     1
 77
     6
 78
     2
 67
     7
 79
     3
170
     0
171
     0
290
     0
174
     0
 93
        1
 44
0.0
173
     0
291
     0
 45
0.0
  0
VISUALSTYLE
  5
286
102
{ACAD_REACTORS
330
27F
102
}
330
27F
100
AcDbVisualStyle
  2
3dWireframe
 70
     5
 71
     0
 72
     2
 73
     0
 90
        0
 40
-0.6
 41
-30.0
 62
     5
 63
     7
421
 16777215
 74
     1
 91
        4
 64
     7
 65
   257
 75
     1
175
     1
 42
1.0
 92
        0
 66
   257
 43
1.0
 76
     1
 77
     6
 78
     2
 67
     7
 79
     5
170
     0
171
     0
290
     0
174
     0
 93
        1
 44
0.0
173
     0
291
     0
 45
0.0
  0
VISUALSTYLE
  5
284
102
{ACAD_REACTORS
330
27F
102
}
330
27F
100
AcDbVisualStyle
  2
Basic
 70
     7
 71
     1
 72
     0
 73
     1
 90
        0
 40
-0.6
 41
-30.0
 62
     5
 63
     7
421
 16777215
 74
     0
 91
        4
 64
     7
 65
   257
 75
     1
175
     1
 42
1.0
 92
        8
 66
     7
 43
1.0
 76
     1
 77
     6
 78
     2
 67
     7
 79
     5
170
     0
171
     0
290
     0
174
     0
 93
        1
 44
0.0
173
     0
291
     1
 45
0.0
  0
VISUALSTYLE
  5
28B
102
{ACAD_REACTORS
330
27F
102
}
330
27F
100
AcDbVisualStyle
  2
Brighten
 70
    12
 71
     2
 72
     2
 73
     0
 90
        0
 40
-0.6
 41
-30.0
 62
     5
 63
     7
421
 16777215
 74
     1
 91
        4
 64
     7
 65
   257
 75
     1
175
     1
 42
1.0
 92
        8
 66
     7
 43
1.0
 76
     1
 77
     6
 78
     2
 67
     7
 79
     5
170
     0
171
     0
290
     0
174
     0
 93
        1
 44
50.0
173
     0
291
     1
 45
0.0
  0
VISUALSTYLE
  5
28F
102
{ACAD_REACTORS
330
27F
102
}
330
27F
100
AcDbVisualStyle
  2
ColorChange
 70
    16
 71
     2
 72
     2
 73
     3
 90
        0
 40
-0.6
 41
-30.0
 62
     5
 63
     8
421
  8421504
 74
     1
 91
        4
 64
     7
 65
   257
 75
     1
175
     1
 42
1.0
 92
        8
 66
     8
424
  8421504
 43
1.0
 76
     1
 77
     6
 78
     2
 67
     7
 79
     5
170
     0
171
     0
290
     0
174
     0
 93
        1
 44
0.0
173
     0
291
     1
 45
0.0
  0
VISUALSTYLE
  5
288
102
{ACAD_REACTORS
330
27F
102
}
330
27F
100
AcDbVisualStyle
  2
Conceptual
 70
     9
 71
     3
 72
     2
 73
     0
 90
        0
 40
-0.6
 41
-30.0
 62
     5
 63
     7
421
 16777215
 74
     2
 91
        2
 64
     7
 65
   257
 75
     1
175
     1
 42
40.0
 92
        8
 66
     7
 43
1.0
 76
     1
 77
     6
 78
     2
 67
     7
 79
     3
170
     0
171
     0
290
     0
174
     0
 93
        1
 44
0.0
173
     0
291
     0
 45
0.0
  0
VISUALSTYLE
  5
28A
102
{ACAD_REACTORS
330
27F
102
}
330
27F
100
AcDbVisualStyle
  2
Dim
 70
    11
 71
     2
 72
     2
 73
     0
 90
        0
 40
-0.6
 41
-30.0
 62
     5
 63
     7
421
 16777215
 74
     1
 91
        4
 64
     7
 65
   257
 75
     1
175
     1
 42
1.0
 92
        8
 66
     7
 43
1.0
 76
     1
 77
     6
 78
     2
 67
     7
 79
     5
170
     0
171
     0
290
     0
174
     0
 93
        1
 44
-50.0
173
     0
291
     1
 45
0.0
  0
VISUALSTYLE
  5
28E
102
{ACAD_REACTORS
330
27F
102
}
330
27F
100
AcDbVisualStyle
  2
Facepattern
 70
    15
 71
     2
 72
     2
 73
     0
 90
        0
 40
-0.6
 41
-30.0
 62
     5
 63
     7
421
 16777215
 74
     1
 91
        4
 64
     7
 65
   257
 75
     1
175
     1
 42
1.0
 92
        8
 66
     7
 43
1.0
 76
     1
 77
     6
 78
     2
 67
     7
 79
     5
170
     0
171
     0
290
     0
174
     0
 93
        1
 44
0.0
173
     0
291
     1
 45
0.0
  0
VISUALSTYLE
  5
280
102
{ACAD_REACTORS
330
27F
102
}
330
27F
100
AcDbVisualStyle
  2
Flat
 70
     0
 71
     2
 72
     1
 73
     1
 90
        2
 40
-0.6
 41
30.0
 62
     5
 63
     7
421
 16777215
 74
     0
 91
        4
 64
     7
 65
   257
 75
     1
175
     1
 42
1.0
 92
        8
 66
     7
 43
1.0
 76
     1
 77
     6
 78
     2
 67
     7
 79
     5
170
     0
171
     0
290
     0
174
     0
 93
       13
 44
0.0
173
     0
291
     1
 45
0.0
  0
VISUALSTYLE
  5
281
102
{ACAD_REACTORS
330
27F
102
}
330
27F
100
AcDbVisualStyle
  2
FlatWithEdges
 70
     1
 71
     2
 72
     1
 73
     1
 90
        2
 40
-0.6
 41
30.0
 62
     5
 63
     7
421
 16777215
 74
     1
 91
        4
 64
     7
 65
   257
 75
     1
175
     1
 42
1.0
 92
        0
 66
   257
 43
1.0
 76
     1
 77
     6
 78
     2
 67
     7
 79
     5
170
     0
171
     0
290
     0
174
     0
 93
       13
 44
0.0
173
     0
291
     1
 45
0.0
  0
VISUALSTYLE
  5
282
102
{ACAD_REACTORS
330
27F
102
}
330
27F
100
AcDbVisualStyle
  2
Gouraud
 70
     2
 71
     2
 72
     2
 73
     1
 90
        2
 40
-0.6
 41
30.0
 62
     5
 63
     7
421
 16777215
 74
     0
 91
        4
 64
     7
 65
   257
 75
     1
175
     1
 42
1.0
 92
        0
 66
     7
 43
1.0
 76
     1
 77
     6
 78
     2
 67
     7
 79
     5
170
     0
171
     0
290
     0
174
     0
 93
       13
 44
0.0
173
     0
291
     1
 45
0.0
  0
VISUALSTYLE
  5
283
102
{ACAD_REACTORS
330
27F
102
}
330
27F
100
AcDbVisualStyle
  2
GouraudWithEdges
 70
     3
 71
     2
 72
     2
 73
     1
 90
        2
 40
-0.6
 41
30.0
 62
     5
 63
     7
421
 16777215
 74
     1
 91
        4
 64
     7
 65
   257
 75
     1
175
     1
 42
1.0
 92
        0
 66
   257
 43
1.0
 76
     1
 77
     6
 78
     2
 67
     7
 79
     5
170
     0
171
     0
290
     0
174
     0
 93
       13
 44
0.0
173
     0
291
     1
 45
0.0
  0
VISUALSTYLE
  5
28D
102
{ACAD_REACTORS
330
27F
102
}
330
27F
100
AcDbVisualStyle
  2
Linepattern
 70
    14
 71
     2
 72
     2
 73
     0
 90
        0
 40
-0.6
 41
-30.0
 62
     5
 63
     7
421
 16777215
 74
     1
 91
        4
 64
     7
 65
   257
 75
     7
175
     7
 42
1.0
 92
        8
 66
     7
 43
1.0
 76
     1
 77
     6
 78
     2
 67
     7
 79
     5
170
     0
171
     0
290
     0
174
     0
 93
        1
 44
0.0
173
     0
291
     1
 45
0.0
  0
VISUALSTYLE
  5
289
102
{ACAD_REACTORS
330
27F
102
}
330
27F
100
AcDbVisualStyle
  2
Realistic
 70
     8
 71
     2
 72
     2
 73
     0
 90
        0
 40
-0.6
 41
-30.0
 62
     5
 63
     7
421
 16777215
 74
     1
 91
        0
 64
     7
 65
   257
 75
     1
175
     1
 42
1.0
 92
        8
 66
     8
424
  7895160
 43
1.0
 76
     1
 77
     6
 78
     2
 67
     7
 79
     5
170
     0
171
     0
290
     0
174
     0
 93
       13
 44
0.0
173
     0
291
     0
 45
0.0
  0
VISUALSTYLE
  5
28C
102
{ACAD_REACTORS
330
27F
102
}
330
27F
100
AcDbVisualStyle
  2
Thicken
 70
    13
 71
     2
 72
     2
 73
     0
 90
        0
 40
-0.6
 41
-30.0
 62
     5
 63
     7
421
 16777215
 74
     1
 91
        4
 64
     7
 65
   257
 75
     1
175
     1
 42
1.0
 92
       12
 66
     7
 43
1.0
 76
     1
 77
     6
 78
     2
 67
     7
 79
     5
170
     0
171
     0
290
     0
174
     0
 93
        1
 44
0.0
173
     0
291
     1
 45
0.0
  0
DICTIONARYVAR
  5
2FA
102
{ACAD_REACTORS
330
34
102
}
330
34
100
DictionaryVariables
280
     0
  1
1:8
  0
DICTIONARYVAR
  5
2F8
102
{ACAD_REACTORS
330
34
102
}
330
34
100
DictionaryVariables
280
     0
  1
STANDARD
  0
DICTIONARYVAR
  5
140
102
{ACAD_REACTORS
330
34
102
}
330
34
100
DictionaryVariables
280
     0
  1
STANDARD
  0
DICTIONARYVAR
  5
AC
102
{ACAD_REACTORS
330
34
102
}
330
34
100
DictionaryVariables
280
     0
  1
1
  0
DICTIONARYVAR
  5
35
102
{ACAD_REACTORS
330
34
102
}
330
34
100
DictionaryVariables
280
     0
  1
1
  0
DICTIONARYVAR
  5
67FB
102
{ACAD_REACTORS
330
34
102
}
330
34
100
DictionaryVariables
280
     0
  1
1
  0
DICTIONARYVAR
  5
67FC
102
{ACAD_REACTORS
330
34
102
}
330
34
100
DictionaryVariables
280
     0
  1
15
  0
DICTIONARYVAR
  5
2FB
102
{ACAD_REACTORS
330
34
102
}
330
34
100
DictionaryVariables
280
     0
  1
0
  0
DICTIONARYVAR
  5
2F9
102
{ACAD_REACTORS
330
34
102
}
330
34
100
DictionaryVariables
280
     0
  1
0
  0
DICTIONARY
  5
161B
102
{ACAD_REACTORS
330
49
102
}
330
49
100
AcDbDictionary
281
     1
  0
DICTIONARY
  5
4A
102
{ACAD_REACTORS
330
49
102
}
330
49
100
AcDbDictionary
281
     1
  0
XRECORD
  5
12B
102
{ACAD_REACTORS
330
49
102
}
330
49
100
AcDbXrecord
280
     1
 90
-1023410169
  0
DICTIONARY
  5
2F5
330
122
100
AcDbDictionary
280
     1
281
     1
  3
ACAD_ROUNDTRIP_2008_TABLESTYLE_CELLSTYLEMAP
360
78C1
  0
CELLSTYLEMAP
  5
78C1
102
{ACAD_REACTORS
330
2F5
102
}
330
2F5
100
AcDbCellStyleMap
 90
        3
300
CELLSTYLE
  1
TABLEFORMAT_BEGIN
 90
        5
170
     1
 91
        0
 92
    32768
 62
   257
 93
        1
300
CONTENTFORMAT
  1
CONTENTFORMAT_BEGIN
 90
        0
 91
        0
 92
      512
 93
        0
300

 40
0.0
140
1.0
 94
        5
 62
     0
340
11
144
6.0
309
CONTENTFORMAT_END
171
     1
301
MARGIN
  1
CELLMARGIN_BEGIN
 40
1.5
 40
1.5
 40
1.5
 40
1.5
 40
0.18
 40
0.18
309
CELLMARGIN_END
 94
        6
 95
        1
302
GRIDFORMAT
  1
GRIDFORMAT_BEGIN
 90
        0
 91
        1
 62
     0
 92
       -2
340
0
 93
        0
 40
0.045
309
GRIDFORMAT_END
 95
        2
302
GRIDFORMAT
  1
GRIDFORMAT_BEGIN
 90
        0
 91
        1
 62
     0
 92
       -2
340
0
 93
        0
 40
0.045
309
GRIDFORMAT_END
 95
        4
302
GRIDFORMAT
  1
GRIDFORMAT_BEGIN
 90
        0
 91
        1
 62
     0
 92
       -2
340
0
 93
        0
 40
0.045
309
GRIDFORMAT_END
 95
        8
302
GRIDFORMAT
  1
GRIDFORMAT_BEGIN
 90
        0
 91
        1
 62
     0
 92
       -2
340
0
 93
        0
 40
0.045
309
GRIDFORMAT_END
 95
       16
302
GRIDFORMAT
  1
GRIDFORMAT_BEGIN
 90
        0
 91
        1
 62
     0
 92
       -2
340
0
 93
        0
 40
0.045
309
GRIDFORMAT_END
 95
       32
302
GRIDFORMAT
  1
GRIDFORMAT_BEGIN
 90
        0
 91
        1
 62
     0
 92
       -2
340
0
 93
        0
 40
0.045
309
GRIDFORMAT_END
309
TABLEFORMAT_END
  1
CELLSTYLE_BEGIN
 90
        1
 91
        1
300
_TITLE
309
CELLSTYLE_END
300
CELLSTYLE
  1
TABLEFORMAT_BEGIN
 90
        5
170
     1
 91
        0
 92
        0
 62
   257
 93
        1
300
CONTENTFORMAT
  1
CONTENTFORMAT_BEGIN
 90
        0
 91
        0
 92
      512
 93
        0
300

 40
0.0
140
1.0
 94
        5
 62
     0
340
11
144
4.5
309
CONTENTFORMAT_END
171
     1
301
MARGIN
  1
CELLMARGIN_BEGIN
 40
1.5
 40
1.5
 40
1.5
 40
1.5
 40
0.18
 40
0.18
309
CELLMARGIN_END
 94
        6
 95
        1
302
GRIDFORMAT
  1
GRIDFORMAT_BEGIN
 90
        0
 91
        1
 62
     0
 92
       -2
340
0
 93
        0
 40
0.045
309
GRIDFORMAT_END
 95
        2
302
GRIDFORMAT
  1
GRIDFORMAT_BEGIN
 90
        0
 91
        1
 62
     0
 92
       -2
340
0
 93
        0
 40
0.045
309
GRIDFORMAT_END
 95
        4
302
GRIDFORMAT
  1
GRIDFORMAT_BEGIN
 90
        0
 91
        1
 62
     0
 92
       -2
340
0
 93
        0
 40
0.045
309
GRIDFORMAT_END
 95
        8
302
GRIDFORMAT
  1
GRIDFORMAT_BEGIN
 90
        0
 91
        1
 62
     0
 92
       -2
340
0
 93
        0
 40
0.045
309
GRIDFORMAT_END
 95
       16
302
GRIDFORMAT
  1
GRIDFORMAT_BEGIN
 90
        0
 91
        1
 62
     0
 92
       -2
340
0
 93
        0
 40
0.045
309
GRIDFORMAT_END
 95
       32
302
GRIDFORMAT
  1
GRIDFORMAT_BEGIN
 90
        0
 91
        1
 62
     0
 92
       -2
340
0
 93
        0
 40
0.045
309
GRIDFORMAT_END
309
TABLEFORMAT_END
  1
CELLSTYLE_BEGIN
 90
        2
 91
        1
300
_HEADER
309
CELLSTYLE_END
300
CELLSTYLE
  1
TABLEFORMAT_BEGIN
 90
        5
170
     1
 91
        0
 92
        0
 62
   257
 93
        1
300
CONTENTFORMAT
  1
CONTENTFORMAT_BEGIN
 90
        0
 91
        0
 92
      512
 93
        0
300

 40
0.0
140
1.0
 94
        2
 62
     0
340
11
144
4.5
309
CONTENTFORMAT_END
171
     1
301
MARGIN
  1
CELLMARGIN_BEGIN
 40
1.5
 40
1.5
 40
1.5
 40
1.5
 40
0.18
 40
0.18
309
CELLMARGIN_END
 94
        6
 95
        1
302
GRIDFORMAT
  1
GRIDFORMAT_BEGIN
 90
        0
 91
        1
 62
     0
 92
       -2
340
0
 93
        0
 40
0.045
309
GRIDFORMAT_END
 95
        2
302
GRIDFORMAT
  1
GRIDFORMAT_BEGIN
 90
        0
 91
        1
 62
     0
 92
       -2
340
0
 93
        0
 40
0.045
309
GRIDFORMAT_END
 95
        4
302
GRIDFORMAT
  1
GRIDFORMAT_BEGIN
 90
        0
 91
        1
 62
     0
 92
       -2
340
0
 93
        0
 40
0.045
309
GRIDFORMAT_END
 95
        8
302
GRIDFORMAT
  1
GRIDFORMAT_BEGIN
 90
        0
 91
        1
 62
     0
 92
       -2
340
0
 93
        0
 40
0.045
309
GRIDFORMAT_END
 95
       16
302
GRIDFORMAT
  1
GRIDFORMAT_BEGIN
 90
        0
 91
        1
 62
     0
 92
       -2
340
0
 93
        0
 40
0.045
309
GRIDFORMAT_END
 95
       32
302
GRIDFORMAT
  1
GRIDFORMAT_BEGIN
 90
        0
 91
        1
 62
     0
 92
       -2
340
0
 93
        0
 40
0.045
309
GRIDFORMAT_END
309
TABLEFORMAT_END
  1
CELLSTYLE_BEGIN
 90
        3
 91
        2
300
_DATA
309
CELLSTYLE_END
  0
ENDSEC
  0
EOF
